  0
SECTION
  2
HEADER
  9
$ACADVER
  1
AC1015
  9
$ACADMAINTVER
 70
     6
  9
$DWGCODEPAGE
  3
ANSI_1252
  9
$INSBASE
 10
0.0
 20
0.0
 30
0.0
  9
$EXTMIN
 10
0.0
 20
0.0
 30
0.0
  9
$EXTMAX
 10
297.0
 20
210.0
 30
0.0
  9
$LIMMIN
 10
0.0
 20
0.0
  9
$LIMMAX
 10
297.0
 20
210.0
  9
$ORTHOMODE
 70
     0
  9
$REGENMODE
 70
     1
  9
$FILLMODE
 70
     1
  9
$QTEXTMODE
 70
     0
  9
$MIRRTEXT
 70
     1
  9
$LTSCALE
 40
1.0
  9
$ATTMODE
 70
     1
  9
$TEXTSIZE
 40
2.0
  9
$TRACEWID
 40
1.0
  9
$TEXTSTYLE
  7
Standard
  9
$CLAYER
  8
0
  9
$CELTYPE
  6
ByLayer
  9
$CECOLOR
 62
   256
  9
$CELTSCALE
 40
1.0
  9
$DISPSILH
 70
     0
  9
$DIMSCALE
 40
1.0
  9
$DIMASZ
 40
3.0
  9
$DIMEXO
 40
0.0
  9
$DIMDLI
 40
3.75
  9
$DIMRND
 40
0.0
  9
$DIMDLE
 40
0.0
  9
$DIMEXE
 40
1.0
  9
$DIMTP
 40
0.0
  9
$DIMTM
 40
0.0
  9
$DIMTXT
 40
2.0
  9
$DIMCEN
 40
2.5
  9
$DIMTSZ
 40
0.0
  9
$DIMTOL
 70
     0
  9
$DIMLIM
 70
     0
  9
$DIMTIH
 70
     1
  9
$DIMTOH
 70
     1
  9
$DIMSE1
 70
     0
  9
$DIMSE2
 70
     0
  9
$DIMTAD
 70
     1
  9
$DIMZIN
 70
     0
  9
$DIMBLK
  1

  9
$DIMASO
 70
     1
  9
$DIMSHO
 70
     1
  9
$DIMPOST
  1

  9
$DIMAPOST
  1

  9
$DIMALT
 70
     0
  9
$DIMALTD
 70
     3
  9
$DIMALTF
 40
0.0393700787
  9
$DIMLFAC
 40
1.0
  9
$DIMTOFL
 70
     1
  9
$DIMTVP
 40
0.0
  9
$DIMTIX
 70
     0
  9
$DIMSOXD
 70
     0
  9
$DIMSAH
 70
     0
  9
$DIMBLK1
  1

  9
$DIMBLK2
  1

  9
$DIMSTYLE
  2
ISO-25
  9
$DIMCLRD
 70
     0
  9
$DIMCLRE
 70
     0
  9
$DIMCLRT
 70
     0
  9
$DIMTFAC
 40
1.0
  9
$DIMGAP
 40
1.524
  9
$DIMJUST
 70
     0
  9
$DIMSD1
 70
     0
  9
$DIMSD2
 70
     0
  9
$DIMTOLJ
 70
     0
  9
$DIMTZIN
 70
     0
  9
$DIMALTZ
 70
     0
  9
$DIMALTTZ
 70
     0
  9
$DIMUPT
 70
     0
  9
$DIMDEC
 70
     2
  9
$DIMTDEC
 70
     3
  9
$DIMALTU
 70
     2
  9
$DIMALTTD
 70
     3
  9
$DIMTXSTY
  7
Standard
  9
$DIMAUNIT
 70
     0
  9
$DIMADEC
 70
     2
  9
$DIMALTRND
 40
0.0
  9
$DIMAZIN
 70
     0
  9
$DIMDSEP
 70
    44
  9
$DIMATFIT
 70
     3
  9
$DIMFRAC
 70
     0
  9
$DIMLDRBLK
  1

  9
$DIMLUNIT
 70
     2
  9
$DIMLWD
 70
    -2
  9
$DIMLWE
 70
    -2
  9
$DIMTMOVE
 70
     0
  9
$LUNITS
 70
     2
  9
$LUPREC
 70
     2
  9
$SKETCHINC
 40
1.0
  9
$FILLETRAD
 40
10.0
  9
$AUNITS
 70
     0
  9
$AUPREC
 70
     2
  9
$MENU
  1
.
  9
$ELEVATION
 40
0.0
  9
$PELEVATION
 40
0.0
  9
$THICKNESS
 40
0.0
  9
$LIMCHECK
 70
     0
  9
$CHAMFERA
 40
0.0
  9
$CHAMFERB
 40
0.0
  9
$CHAMFERC
 40
0.0
  9
$CHAMFERD
 40
0.0
  9
$SKPOLY
 70
     0
  9
$TDCREATE
 40
2459054.612202836
  9
$TDUCREATE
 40
2459054.528869502
  9
$TDUPDATE
 40
2459054.612204074
  9
$TDUUPDATE
 40
2459054.528870741
  9
$TDINDWG
 40
0.0000000116
  9
$TDUSRTIMER
 40
0.0000000116
  9
$USRTIMER
 70
     1
  9
$ANGBASE
 50
0.0
  9
$ANGDIR
 70
     0
  9
$PDMODE
 70
     0
  9
$PDSIZE
 40
-1.0
  9
$PLINEWID
 40
0.0
  9
$SPLFRAME
 70
     0
  9
$SPLINETYPE
 70
     6
  9
$SPLINESEGS
 70
     8
  9
$HANDSEED
  5
18B
  9
$SURFTAB1
 70
     6
  9
$SURFTAB2
 70
     6
  9
$SURFTYPE
 70
     6
  9
$SURFU
 70
     6
  9
$SURFV
 70
     6
  9
$UCSBASE
  2

  9
$UCSNAME
  2

  9
$UCSORG
 10
0.0
 20
0.0
 30
0.0
  9
$UCSXDIR
 10
1.0
 20
0.0
 30
0.0
  9
$UCSYDIR
 10
0.0
 20
1.0
 30
0.0
  9
$UCSORTHOREF
  2

  9
$UCSORTHOVIEW
 70
     0
  9
$UCSORGTOP
 10
0.0
 20
0.0
 30
0.0
  9
$UCSORGBOTTOM
 10
0.0
 20
0.0
 30
0.0
  9
$UCSORGLEFT
 10
0.0
 20
0.0
 30
0.0
  9
$UCSORGRIGHT
 10
0.0
 20
0.0
 30
0.0
  9
$UCSORGFRONT
 10
0.0
 20
0.0
 30
0.0
  9
$UCSORGBACK
 10
0.0
 20
0.0
 30
0.0
  9
$PUCSBASE
  2

  9
$PUCSNAME
  2

  9
$PUCSORG
 10
0.0
 20
0.0
 30
0.0
  9
$PUCSXDIR
 10
1.0
 20
0.0
 30
0.0
  9
$PUCSYDIR
 10
0.0
 20
1.0
 30
0.0
  9
$PUCSORTHOREF
  2

  9
$PUCSORTHOVIEW
 70
     0
  9
$PUCSORGTOP
 10
0.0
 20
0.0
 30
0.0
  9
$PUCSORGBOTTOM
 10
0.0
 20
0.0
 30
0.0
  9
$PUCSORGLEFT
 10
0.0
 20
0.0
 30
0.0
  9
$PUCSORGRIGHT
 10
0.0
 20
0.0
 30
0.0
  9
$PUCSORGFRONT
 10
0.0
 20
0.0
 30
0.0
  9
$PUCSORGBACK
 10
0.0
 20
0.0
 30
0.0
  9
$USERI1
 70
     0
  9
$USERI2
 70
     0
  9
$USERI3
 70
     0
  9
$USERI4
 70
     0
  9
$USERI5
 70
     0
  9
$USERR1
 40
0.0
  9
$USERR2
 40
0.0
  9
$USERR3
 40
0.0
  9
$USERR4
 40
0.0
  9
$USERR5
 40
0.0
  9
$WORLDVIEW
 70
     1
  9
$SHADEDGE
 70
     3
  9
$SHADEDIF
 70
    70
  9
$TILEMODE
 70
     1
  9
$MAXACTVP
 70
    64
  9
$PINSBASE
 10
0.0
 20
0.0
 30
0.0
  9
$PLIMCHECK
 70
     0
  9
$PEXTMIN
 10
1.0000000000E+20
 20
1.0000000000E+20
 30
1.0000000000E+20
  9
$PEXTMAX
 10
-1.0000000000E+20
 20
-1.0000000000E+20
 30
-1.0000000000E+20
  9
$PLIMMIN
 10
0.0
 20
0.0
  9
$PLIMMAX
 10
420.0
 20
297.0
  9
$UNITMODE
 70
     0
  9
$VISRETAIN
 70
     1
  9
$PLINEGEN
 70
     0
  9
$PSLTSCALE
 70
     1
  9
$TREEDEPTH
 70
  3020
  9
$CMLSTYLE
  2
Standard
  9
$CMLJUST
 70
     0
  9
$CMLSCALE
 40
20.0
  9
$PROXYGRAPHICS
 70
     1
  9
$MEASUREMENT
 70
     1
  9
$CELWEIGHT
370
    -1
  9
$ENDCAPS
280
     0
  9
$JOINSTYLE
280
     0
  9
$LWDISPLAY
290
     1
  9
$INSUNITS
 70
     4
  9
$HYPERLINKBASE
  1

  9
$STYLESHEET
  1

  9
$XEDIT
290
     1
  9
$CEPSNTYPE
380
     0
  9
$PSTYLEMODE
290
     1
  9
$FINGERPRINTGUID
  2
{1D27E8D5-8F32-4641-8694-142EA408DE1B}
  9
$VERSIONGUID
  2
{FAEB1C32-E019-11D5-929B-00C0DF256EC4}
  9
$EXTNAMES
290
     1
  9
$PSVPSCALE
 40
0.0
  9
$OLESTARTUP
290
     0
  0
ENDSEC
  0
SECTION
  2
CLASSES
  0
CLASS
  1
ACDBDICTIONARYWDFLT
  2
AcDbDictionaryWithDefault
  3
ObjectDBX Classes
 90
        0
280
     0
281
     0
  0
CLASS
  1
VISUALSTYLE
  2
AcDbVisualStyle
  3
ObjectDBX Classes
 90
     4095
280
     0
281
     0
  0
CLASS
  1
MATERIAL
  2
AcDbMaterial
  3
ObjectDBX Classes
 90
     1153
280
     0
281
     0
  0
CLASS
  1
SCALE
  2
AcDbScale
  3
ObjectDBX Classes
 90
     1153
280
     0
281
     0
  0
CLASS
  1
TABLESTYLE
  2
AcDbTableStyle
  3
ObjectDBX Classes
 90
     4095
280
     0
281
     0
  0
CLASS
  1
MLEADERSTYLE
  2
AcDbMLeaderStyle
  3
ACDB_MLEADERSTYLE_CLASS
 90
     4095
280
     0
281
     0
  0
CLASS
  1
SUN
  2
AcDbSun
  3
SCENEOE
 90
     1153
280
     0
281
     0
  0
CLASS
  1
ACDBPLACEHOLDER
  2
AcDbPlaceHolder
  3
ObjectDBX Classes
 90
        0
280
     0
281
     0
  0
CLASS
  1
LAYOUT
  2
AcDbLayout
  3
ObjectDBX Classes
 90
        0
280
     0
281
     0
  0
ENDSEC
  0
SECTION
  2
TABLES
  0
TABLE
  2
VPORT
  5
8
330
0
100
AcDbSymbolTable
 70
     1
  0
VPORT
  5
29
330
8
100
AcDbSymbolTableRecord
100
AcDbViewportTableRecord
  2
*Active
 70
     0
 10
0.0
 20
0.0
 11
1.0
 21
1.0
 12
148.5
 22
105.0
 13
0.0
 23
0.0
 14
10.0
 24
10.0
 15
10.0
 25
10.0
 16
0.0
 26
0.0
 36
1.0
 17
0.0
 27
0.0
 37
0.0
 40
210.0
 41
1.4142857143
 42
50.0
 43
0.0
 44
0.0
 50
0.0
 51
0.0
 71
     0
 72
  2000
 73
     1
 74
     3
 75
     0
 76
     0
 77
     0
 78
     0
281
     0
 65
     1
110
0.0
120
0.0
130
0.0
111
1.0
121
0.0
131
0.0
112
0.0
122
1.0
132
0.0
 79
     0
146
0.0
  0
ENDTAB
  0
TABLE
  2
LTYPE
  5
5
330
0
100
AcDbSymbolTable
 70
     6
  0
LTYPE
  5
14
330
5
100
AcDbSymbolTableRecord
100
AcDbLinetypeTableRecord
  2
ByBlock
 70
     0
  3

 72
    65
 73
     0
 40
0.0
  0
LTYPE
  5
15
330
5
100
AcDbSymbolTableRecord
100
AcDbLinetypeTableRecord
  2
ByLayer
 70
     0
  3

 72
    65
 73
     0
 40
0.0
  0
LTYPE
  5
16
330
5
100
AcDbSymbolTableRecord
100
AcDbLinetypeTableRecord
  2
Continuous
 70
     0
  3
Solid line
 72
    65
 73
     0
 40
0.0
  0
LTYPE
  5
6E
330
5
100
AcDbSymbolTableRecord
100
AcDbLinetypeTableRecord
  2
HIDDEN
 70
     0
  3
Hidden __ __ __ __ __ __ __ __ __ __ __ __ __ __
 72
    65
 73
     2
 40
1.905
 49
1.27
 74
     0
 49
-0.635
 74
     0
  0
LTYPE
  5
6F
330
5
100
AcDbSymbolTableRecord
100
AcDbLinetypeTableRecord
  2
PHANTOM
 70
     0
  3
Phantom ______  __  __  ______  __  __  ______
 72
    65
 73
     6
 40
12.7
 49
6.35
 74
     0
 49
-1.27
 74
     0
 49
1.27
 74
     0
 49
-1.27
 74
     0
 49
1.27
 74
     0
 49
-1.27
 74
     0
  0
LTYPE
  5
70
330
5
100
AcDbSymbolTableRecord
100
AcDbLinetypeTableRecord
  2
CENTER
 70
     0
  3
Center ____ _ ____ _ ____ _ ____ _ ____ _ ____
 72
    65
 73
     4
 40
10.16
 49
6.35
 74
     0
 49
-1.27
 74
     0
 49
1.27
 74
     0
 49
-1.27
 74
     0
  0
LTYPE
  5
71
330
5
100
AcDbSymbolTableRecord
100
AcDbLinetypeTableRecord
  2
CENTERX2
 70
     0
  3
Center (2x) ________  __  ________  __  _____
 72
    65
 73
     4
 40
20.32
 49
12.7
 74
     0
 49
-2.54
 74
     0
 49
2.54
 74
     0
 49
-2.54
 74
     0
  0
LTYPE
  5
72
330
5
100
AcDbSymbolTableRecord
100
AcDbLinetypeTableRecord
  2
DOT2
 70
     0
  3
Dot (.5x) ........................................
 72
    65
 73
     2
 40
0.635
 49
0.0
 74
     0
 49
-0.635
 74
     0
  0
ENDTAB
  0
TABLE
  2
LAYER
  5
2
330
0
100
AcDbSymbolTable
 70
     5
  0
LAYER
  5
10
330
2
100
AcDbSymbolTableRecord
100
AcDbLayerTableRecord
  2
0
 70
     0
 62
     7
  6
Continuous
370
    -3
390
F
  0
LAYER
  5
73
330
2
100
AcDbSymbolTableRecord
100
AcDbLayerTableRecord
  2
FORMAT
 70
     0
 62
     7
  6
Continuous
370
    -3
390
F
  0
LAYER
  5
74
330
2
100
AcDbSymbolTableRecord
100
AcDbLayerTableRecord
  2
VERMASSUNG
 70
     0
 62
     7
  6
Continuous
370
    -3
390
F
  0
LAYER
  5
75
330
2
100
AcDbSymbolTableRecord
100
AcDbLayerTableRecord
  2
KOPF_DÜNN
 70
     0
 62
     7
  6
Continuous
370
    -3
390
F
  0
LAYER
  5
76
330
2
100
AcDbSymbolTableRecord
100
AcDbLayerTableRecord
  2
KOPF_DICK
 70
     0
 62
     7
  6
Continuous
370
    25
390
F
  0
ENDTAB
  0
TABLE
  2
STYLE
  5
3
330
0
100
AcDbSymbolTable
 70
     2
  0
STYLE
  5
11
330
3
100
AcDbSymbolTableRecord
100
AcDbTextStyleTableRecord
  2
Standard
 70
     0
 40
0.0
 41
1.0
 50
0.0
 71
     0
 42
2.0
  3
txt
  4

  0
STYLE
  5
77
330
3
100
AcDbSymbolTableRecord
100
AcDbTextStyleTableRecord
  2
SLDTEXTSTYLE0
 70
     0
 40
0.0
 41
0.7
 50
0.0
 71
     0
 42
2.0
  3
TXT
  4

  0
ENDTAB
  0
TABLE
  2
VIEW
  5
6
330
0
100
AcDbSymbolTable
 70
     0
  0
ENDTAB
  0
TABLE
  2
UCS
  5
7
330
0
100
AcDbSymbolTable
 70
     0
  0
ENDTAB
  0
TABLE
  2
APPID
  5
9
330
0
100
AcDbSymbolTable
 70
     1
  0
APPID
  5
12
330
9
100
AcDbSymbolTableRecord
100
AcDbRegAppTableRecord
  2
ACAD
 70
     0
  0
ENDTAB
  0
TABLE
  2
DIMSTYLE
  5
A
330
0
100
AcDbSymbolTable
 70
     4
100
AcDbDimStyleTable
  0
DIMSTYLE
105
27
330
A
100
AcDbSymbolTableRecord
100
AcDbDimStyleTableRecord
  2
ISO-25
 70
     0
 41
2.5
 42
0.625
 43
3.75
 44
1.25
 73
     0
 74
     0
 77
     1
 78
     8
140
2.5
141
2.5
143
0.0393700787
147
0.625
171
     3
172
     1
178
     0
271
     2
272
     2
274
     3
278
    44
283
     0
284
     8
340
11
  0
DIMSTYLE
105
15D
102
{ACAD_REACTORS
330
15C
102
}
330
A
100
AcDbSymbolTableRecord
100
AcDbDimStyleTableRecord
  2
SLDDIMSTYLE0
 70
     0
 41
3.0
 44
0.0
 45
0.000000001
 73
     0
 74
     0
 76
     1
 77
     1
 78
    12
 79
     3
140
2.0
147
0.5
173
     1
178
     0
271
     2
272
     3
276
     2
282
     1
284
    12
340
77
  0
DIMSTYLE
105
169
102
{ACAD_REACTORS
330
168
330
17E
102
}
330
A
100
AcDbSymbolTableRecord
100
AcDbDimStyleTableRecord
  2
SLDDIMSTYLE1
 70
     0
 41
3.0
 44
0.0
 45
0.000000001
 73
     0
 74
     0
 77
     1
 78
    12
 79
     3
140
2.0
147
0.5
173
     1
178
     0
271
     2
272
     3
276
     2
284
    12
340
77
  0
DIMSTYLE
105
174
102
{ACAD_REACTORS
330
173
102
}
330
A
100
AcDbSymbolTableRecord
100
AcDbDimStyleTableRecord
  2
SLDDIMSTYLE2
 70
     0
 41
3.0
 44
0.0
 45
0.000000001
 73
     0
 74
     0
 77
     1
 78
    12
 79
     3
140
2.0
147
0.5
173
     1
178
     0
271
     1
272
     3
276
     2
284
    12
340
77
  0
ENDTAB
  0
TABLE
  2
BLOCK_RECORD
  5
1
330
0
100
AcDbSymbolTable
 70
     5
  0
BLOCK_RECORD
  5
1F
330
1
100
AcDbSymbolTableRecord
100
AcDbBlockTableRecord
  2
*Model_Space
340
22
  0
BLOCK_RECORD
  5
1B
330
1
100
AcDbSymbolTableRecord
100
AcDbBlockTableRecord
  2
*Paper_Space
340
1E
  0
BLOCK_RECORD
  5
23
330
1
100
AcDbSymbolTableRecord
100
AcDbBlockTableRecord
  2
*Paper_Space0
340
26
  0
BLOCK_RECORD
  5
15E
330
1
100
AcDbSymbolTableRecord
100
AcDbBlockTableRecord
  2
_D
340
0
  0
BLOCK_RECORD
  5
16A
330
1
100
AcDbSymbolTableRecord
100
AcDbBlockTableRecord
  2
_D_1
340
0
  0
BLOCK_RECORD
  5
175
330
1
100
AcDbSymbolTableRecord
100
AcDbBlockTableRecord
  2
_D_2
340
0
  0
BLOCK_RECORD
  5
17F
330
1
100
AcDbSymbolTableRecord
100
AcDbBlockTableRecord
  2
_D_3
340
0
  0
ENDTAB
  0
ENDSEC
  0
SECTION
  2
BLOCKS
  0
BLOCK
  5
20
330
1F
100
AcDbEntity
  8
0
100
AcDbBlockBegin
  2
*Model_Space
 70
     0
 10
0.0
 20
0.0
 30
0.0
  3
*Model_Space
  1

  0
ENDBLK
  5
21
330
1F
100
AcDbEntity
  8
0
100
AcDbBlockEnd
  0
BLOCK
  5
1C
330
1B
100
AcDbEntity
 67
     1
  8
0
100
AcDbBlockBegin
  2
*Paper_Space
 70
     0
 10
0.0
 20
0.0
 30
0.0
  3
*Paper_Space
  1

  0
ENDBLK
  5
1D
330
1B
100
AcDbEntity
 67
     1
  8
0
100
AcDbBlockEnd
  0
BLOCK
  5
24
330
23
100
AcDbEntity
  8
0
100
AcDbBlockBegin
  2
*Paper_Space0
 70
     0
 10
0.0
 20
0.0
 30
0.0
  3
*Paper_Space0
  1

  0
ENDBLK
  5
25
330
23
100
AcDbEntity
  8
0
100
AcDbBlockEnd
  0
BLOCK
  5
15F
330
15E
100
AcDbEntity
  8
0
100
AcDbBlockBegin
  2
_D
 70
     0
 10
0.0
 20
0.0
 30
0.0
  3
_D
  1

  0
SOLID
  5
161
330
15E
100
AcDbEntity
  8
VERMASSUNG
100
AcDbTrace
 10
187.6206028498
 20
112.7430096788
 30
0.0
 11
187.1706028498
 21
109.7430096788
 31
0.0
 12
188.0706028498
 22
109.7430096788
 32
0.0
 13
188.0706028498
 23
109.7430096788
 33
0.0
  0
LINE
  5
162
330
15E
100
AcDbEntity
  8
VERMASSUNG
100
AcDbLine
 10
181.4784239966
 20
112.7430096788
 30
0.0
 11
188.6206028498
 21
112.7430096788
 31
0.0
  0
LINE
  5
163
330
15E
100
AcDbEntity
  8
VERMASSUNG
100
AcDbLine
 10
187.6206028498
 20
100.9930096788
 30
0.0
 11
187.6206028498
 21
112.7430096788
 31
0.0
  0
LINE
  5
164
330
15E
100
AcDbEntity
  8
VERMASSUNG
100
AcDbLine
 10
187.6206028498
 20
112.7430096788
 30
0.0
 11
187.6206028498
 21
91.4307344495
 31
0.0
  0
MTEXT
  5
165
330
15E
100
AcDbEntity
  8
VERMASSUNG
100
AcDbMText
 10
185.042467312
 20
93.0182344495
 30
0.0
 40
2.0
 41
0.0
 71
     1
 72
     1
  1
%%c
  7
SLDTEXTSTYLE0
 11
-7.044195017643634E-15
 21
1.0
 31
0.0
 73
     1
 44
1.0
  0
MTEXT
  5
166
330
15E
100
AcDbEntity
  8
VERMASSUNG
100
AcDbMText
 10
185.0424672538
 20
96.6267234373
 30
0.0
 40
2.0
 41
0.0
 71
     1
 72
     1
  1
11.75
  7
SLDTEXTSTYLE0
 11
-7.044195017643634E-15
 21
1.0
 31
0.0
 73
     1
 44
1.0
  0
MTEXT
  5
167
330
15E
100
AcDbEntity
  8
VERMASSUNG
100
AcDbMText
 10
185.0424672538
 20
102.0256206881
 30
0.0
 40
2.0
 41
0.0
 71
     1
 72
     1
  1
-17.1
  7
SLDTEXTSTYLE0
 11
-7.044195017643634E-15
 21
1.0
 31
0.0
 73
     1
 44
1.0
  0
ENDBLK
  5
160
330
15E
100
AcDbEntity
  8
0
100
AcDbBlockEnd
  0
BLOCK
  5
16B
330
16A
100
AcDbEntity
  8
0
100
AcDbBlockBegin
  2
_D_1
 70
     0
 10
0.0
 20
0.0
 30
0.0
  3
_D_1
  1

  0
SOLID
  5
16D
330
16A
100
AcDbEntity
  8
VERMASSUNG
100
AcDbTrace
 10
181.4784239966
 20
126.0481803408
 30
0.0
 11
178.4784239966
 21
126.4981803408
 31
0.0
 12
178.4784239966
 22
125.5981803408
 32
0.0
 13
178.4784239966
 23
125.5981803408
 33
0.0
  0
SOLID
  5
16E
330
16A
100
AcDbEntity
  8
VERMASSUNG
100
AcDbTrace
 10
101.4784239966
 20
126.0481803408
 30
0.0
 11
104.4784239966
 21
125.5981803408
 31
0.0
 12
104.4784239966
 22
126.4981803408
 32
0.0
 13
104.4784239966
 23
126.4981803408
 33
0.0
  0
LINE
  5
16F
330
16A
100
AcDbEntity
  8
VERMASSUNG
100
AcDbLine
 10
181.4784239966
 20
112.7430096788
 30
0.0
 11
181.4784239966
 21
127.0481803408
 31
0.0
  0
LINE
  5
170
330
16A
100
AcDbEntity
  8
VERMASSUNG
100
AcDbLine
 10
101.4784239966
 20
113.0680096788
 30
0.0
 11
101.4784239966
 21
127.0481803408
 31
0.0
  0
LINE
  5
171
330
16A
100
AcDbEntity
  8
VERMASSUNG
100
AcDbLine
 10
181.4784239966
 20
126.0481803408
 30
0.0
 11
101.4784239966
 21
126.0481803408
 31
0.0
  0
MTEXT
  5
172
330
16A
100
AcDbEntity
  8
VERMASSUNG
100
AcDbMText
 10
140.0795810646
 20
128.6263159367
 30
0.0
 40
2.0
 41
0.0
 71
     1
 72
     1
  1
80
  7
SLDTEXTSTYLE0
 73
     1
 44
1.0
  0
ENDBLK
  5
16C
330
16A
100
AcDbEntity
  8
0
100
AcDbBlockEnd
  0
BLOCK
  5
176
330
175
100
AcDbEntity
  8
0
100
AcDbBlockBegin
  2
_D_2
 70
     0
 10
0.0
 20
0.0
 30
0.0
  3
_D_2
  1

  0
SOLID
  5
178
330
175
100
AcDbEntity
  8
VERMASSUNG
100
AcDbTrace
 10
143.9292004316
 20
120.0481803408
 30
0.0
 11
146.9292004316
 21
119.5981803408
 31
0.0
 12
146.9292004316
 22
120.4981803408
 32
0.0
 13
146.9292004316
 23
120.4981803408
 33
0.0
  0
SOLID
  5
179
330
175
100
AcDbEntity
  8
VERMASSUNG
100
AcDbTrace
 10
181.4784239966
 20
120.0481803408
 30
0.0
 11
178.4784239966
 21
120.4981803408
 31
0.0
 12
178.4784239966
 22
119.5981803408
 32
0.0
 13
178.4784239966
 23
119.5981803408
 33
0.0
  0
LINE
  5
17A
330
175
100
AcDbEntity
  8
VERMASSUNG
100
AcDbLine
 10
143.9292004316
 20
112.7430096788
 30
0.0
 11
143.9292004316
 21
121.0481803408
 31
0.0
  0
LINE
  5
17B
330
175
100
AcDbEntity
  8
VERMASSUNG
100
AcDbLine
 10
181.4784239966
 20
112.7430096788
 30
0.0
 11
181.4784239966
 21
121.0481803408
 31
0.0
  0
LINE
  5
17C
330
175
100
AcDbEntity
  8
VERMASSUNG
100
AcDbLine
 10
143.9292004316
 20
120.0481803408
 30
0.0
 11
181.4784239966
 21
120.0481803408
 31
0.0
  0
MTEXT
  5
17D
330
175
100
AcDbEntity
  8
VERMASSUNG
100
AcDbMText
 10
160.3046097966
 20
122.6263159367
 30
0.0
 40
2.0
 41
0.0
 71
     1
 72
     1
  1
37.5
  7
SLDTEXTSTYLE0
 73
     1
 44
1.0
  0
ENDBLK
  5
177
330
175
100
AcDbEntity
  8
0
100
AcDbBlockEnd
  0
BLOCK
  5
180
330
17F
100
AcDbEntity
  8
0
100
AcDbBlockBegin
  2
_D_3
 70
     0
 10
0.0
 20
0.0
 30
0.0
  3
_D_3
  1

  0
SOLID
  5
182
330
17F
100
AcDbEntity
  8
VERMASSUNG
100
AcDbTrace
 10
97.0202447525
 20
114.8680096788
 30
0.0
 11
96.5702447525
 21
111.8680096788
 31
0.0
 12
97.4702447525
 22
111.8680096788
 32
0.0
 13
97.4702447525
 23
111.8680096788
 33
0.0
  0
SOLID
  5
183
330
17F
100
AcDbEntity
  8
VERMASSUNG
100
AcDbTrace
 10
97.0202447525
 20
98.8680096788
 30
0.0
 11
97.4702447525
 21
101.8680096788
 31
0.0
 12
96.5702447525
 22
101.8680096788
 32
0.0
 13
96.5702447525
 23
101.8680096788
 33
0.0
  0
LINE
  5
184
330
17F
100
AcDbEntity
  8
VERMASSUNG
100
AcDbLine
 10
112.7784239966
 20
114.8680096788
 30
0.0
 11
96.0202447525
 21
114.8680096788
 31
0.0
  0
LINE
  5
185
330
17F
100
AcDbEntity
  8
VERMASSUNG
100
AcDbLine
 10
102.8534239966
 20
98.8680096788
 30
0.0
 11
96.0202447525
 21
98.8680096788
 31
0.0
  0
LINE
  5
186
330
17F
100
AcDbEntity
  8
VERMASSUNG
100
AcDbLine
 10
97.0202447525
 20
114.8680096788
 30
0.0
 11
97.0202447525
 21
98.8680096788
 31
0.0
  0
MTEXT
  5
187
330
17F
100
AcDbEntity
  8
VERMASSUNG
100
AcDbMText
 10
94.4421092148
 20
103.1182126315
 30
0.0
 40
2.0
 41
0.0
 71
     1
 72
     1
  1
%%c
  7
SLDTEXTSTYLE0
 11
-7.044195017643634E-15
 21
1.0
 31
0.0
 73
     1
 44
1.0
  0
MTEXT
  5
188
330
17F
100
AcDbEntity
  8
VERMASSUNG
100
AcDbMText
 10
94.4421091566
 20
106.7267016193
 30
0.0
 40
2.0
 41
0.0
 71
     1
 72
     1
  1
16
  7
SLDTEXTSTYLE0
 11
-7.044195017643634E-15
 21
1.0
 31
0.0
 73
     1
 44
1.0
  0
ENDBLK
  5
181
330
17F
100
AcDbEntity
  8
0
100
AcDbBlockEnd
  0
ENDSEC
  0
SECTION
  2
ENTITIES
  0
MTEXT
  5
78
330
1F
100
AcDbEntity
  8
KOPF_DÜNN
100
AcDbMText
 10
13.8892156294
 20
23.8442973028
 30
0.0
 40
3.0
 41
0.0
 71
     1
 72
     1
  1
M54.012.006.080
  7
SLDTEXTSTYLE0
 73
     1
 44
1.0
  0
MTEXT
  5
79
330
1F
100
AcDbEntity
  8
VERMASSUNG
100
AcDbMText
 10
13.9329988022
 20
28.8834360957
 30
0.0
 40
3.0
 41
0.0
 71
     1
 72
     1
  1
Ausdrehstahl_Boring bar ø11.75-17.1
  7
SLDTEXTSTYLE0
 73
     1
 44
1.0
  0
MTEXT
  5
7A
330
1F
100
AcDbEntity
  8
VERMASSUNG
100
AcDbMText
 10
98.8601118557
 20
13.8365368761
 30
0.0
 40
2.0
 41
0.0
 71
     1
 72
     1
  1
Datum: 04.08.2006
  7
SLDTEXTSTYLE0
 73
     1
 44
1.0
  0
MTEXT
  5
7B
330
1F
100
AcDbEntity
  8
VERMASSUNG
100
AcDbMText
 10
13.933048693
 20
18.0482802738
 30
0.0
 40
2.0
 41
0.0
 71
     1
 72
     1
  1
mit Innenkühlung_with spindel coolant feed
  7
SLDTEXTSTYLE0
 73
     1
 44
1.0
  0
MTEXT
  5
7C
330
1F
100
AcDbEntity
  8
VERMASSUNG
100
AcDbMText
 10
13.9808475933
 20
13.9090974274
 30
0.0
 40
2.0
 41
0.0
 71
     1
 72
     1
  1
Gewicht: 77g
  7
SLDTEXTSTYLE0
 73
     1
 44
1.0
  0
LINE
  5
7D
330
1F
100
AcDbEntity
  8
0
  6
Continuous
 62
     7
370
    25
100
AcDbLine
 10
176.5364744102
 20
108.9745661756
 30
0.0
 11
176.5364744102
 21
108.8573542646
 31
0.0
  0
LINE
  5
7E
330
1F
100
AcDbEntity
  8
0
  6
Continuous
 62
     7
370
    25
100
AcDbLine
 10
179.9364744102
 20
108.8573542646
 30
0.0
 11
179.9364744102
 21
108.9745661756
 31
0.0
  0
LINE
  5
7F
330
1F
100
AcDbEntity
  8
0
  6
Continuous
 62
     7
370
    25
100
AcDbLine
 10
177.5108139983
 20
108.6734297966
 30
0.0
 11
177.5108139983
 21
108.8206114367
 31
0.0
  0
LINE
  5
80
330
1F
100
AcDbEntity
  8
0
  6
Continuous
 62
     7
370
    25
100
AcDbLine
 10
178.9621348221
 20
109.1884603727
 30
0.0
 11
178.9621348221
 21
109.0412787326
 31
0.0
  0
LINE
  5
81
330
1F
100
AcDbEntity
  8
0
  6
Continuous
 62
     7
370
    25
100
AcDbLine
 10
175.2413414412
 20
105.5610324756
 30
0.0
 11
175.451074809
 21
105.3481495593
 31
0.0
  0
LINE
  5
82
330
1F
100
AcDbEntity
  8
0
  6
Continuous
 62
     7
370
    25
100
AcDbLine
 10
181.2523651193
 20
106.4099393935
 30
0.0
 11
181.365506552
 21
106.5247798617
 31
0.0
  0
LINE
  5
83
330
1F
100
AcDbEntity
  8
0
  6
Continuous
 62
     7
370
    25
100
AcDbLine
 10
101.4784239966
 20
100.2430096788
 30
0.0
 11
102.8534239966
 21
98.8680096788
 31
0.0
  0
ARC
  5
84
330
1F
100
AcDbEntity
  8
0
  6
Continuous
 62
     7
370
    25
100
AcDbCircle
 10
151.9784239966
 20
72.0930096788
 30
0.0
 40
30.0
100
AcDbArc
 50
90.0
 51
116.8109034243
  0
ARC
  5
85
330
1F
100
AcDbEntity
  8
0
  6
Continuous
 62
     7
370
    25
100
AcDbCircle
 10
151.9784239966
 20
141.6430096788
 30
0.0
 40
30.00000000000001
100
AcDbArc
 50
243.1890965757
 51
270.0
  0
LINE
  5
86
330
1F
100
AcDbEntity
  8
0
  6
Continuous
 62
     7
370
    25
100
AcDbLine
 10
102.8534239966
 20
98.8680096788
 30
0.0
 11
138.447002231
 21
98.8680096788
 31
0.0
  0
LINE
  5
87
330
1F
100
AcDbEntity
  8
0
  6
Continuous
 62
     7
370
    25
100
AcDbLine
 10
115.6784239966
 20
114.8680096788
 30
0.0
 11
112.7784239966
 21
114.8680096788
 31
0.0
  0
LINE
  5
88
330
1F
100
AcDbEntity
  8
0
  6
Continuous
 62
     7
370
    25
100
AcDbLine
 10
138.447002231
 20
114.8680096788
 30
0.0
 11
127.2784239966
 21
114.8680096788
 31
0.0
  0
LINE
  5
89
330
1F
100
AcDbEntity
  8
0
  6
Continuous
 62
     7
370
    25
100
AcDbLine
 10
151.9784239966
 20
102.0930096788
 30
0.0
 11
174.1268557315
 21
102.0930096788
 31
0.0
  0
LINE
  5
8A
330
1F
100
AcDbEntity
  8
0
  6
Continuous
 62
     7
370
    25
100
AcDbLine
 10
168.3229074358
 20
111.6430096788
 30
0.0
 11
151.9784239966
 21
111.6430096788
 31
0.0
  0
ARC
  5
8B
330
1F
100
AcDbEntity
  8
0
  6
Continuous
 62
     7
370
    25
100
AcDbCircle
 10
174.1268557315
 20
99.0930096788
 30
0.0
 40
3.000000000000008
100
AcDbArc
 50
80.0
 51
90.0
  0
LINE
  5
8C
330
1F
100
AcDbEntity
  8
0
  6
Continuous
 62
     7
370
    25
100
AcDbLine
 10
174.6478002645
 20
102.0474329378
 30
0.0
 11
175.0982319495
 21
101.9680096788
 31
0.0
  0
LINE
  5
8D
330
1F
100
AcDbEntity
  8
0
  6
Continuous
 62
     7
370
    25
100
AcDbLine
 10
175.0982319495
 20
101.9680096788
 30
0.0
 11
175.6177790856
 21
101.9680096788
 31
0.0
  0
LINE
  5
8E
330
1F
100
AcDbEntity
  8
0
  6
Continuous
 62
     7
370
    25
100
AcDbLine
 10
180.408783901
 20
104.3905557932
 30
0.0
 11
181.0736687136
 21
105.3308697482
 31
0.0
  0
CIRCLE
  5
8F
330
1F
100
AcDbEntity
  8
0
  6
Continuous
 62
     7
370
    25
100
AcDbCircle
 10
178.2193548003
 20
108.9765673494
 30
0.0
 40
1.682724507110454
  0
CIRCLE
  5
90
330
1F
100
AcDbEntity
  8
0
  6
Continuous
 62
     7
370
    25
100
AcDbCircle
 10
178.2239406995
 20
109.0142095112
 30
0.0
 40
1.087263785684337
  0
CIRCLE
  5
91
330
1F
100
AcDbEntity
  8
0
  6
Continuous
 62
     7
370
    25
100
AcDbCircle
 10
178.2245104136
 20
109.0141835164
 30
0.0
 40
1.037842704516868
  0
SPLINE
  5
92
330
1F
100
AcDbEntity
  8
0
  6
Continuous
 62
     7
370
    25
100
AcDbSpline
210
0.0
220
0.0
230
1.0
 70
     8
 71
     3
 72
    16
 73
    12
 74
     0
 42
0.000000001
 43
0.00000001
 40
0.0
 40
0.0
 40
0.0
 40
0.0
 40
0.1242194589697274
 40
0.2489993218720219
 40
0.3727377574601839
 40
0.4952944629267872
 40
0.6171957750166394
 40
0.7391031181772911
 40
0.8616668233223307
 40
0.9853929371716662
 40
1.0
 40
1.0
 40
1.0
 40
1.0
 10
179.0344647084648
 20
109.40610541427
 30
0.0
 10
179.0465519788943
 20
109.4262621797055
 30
0.0
 10
179.0707810502911
 20
109.466666645851
 30
0.0
 10
179.079465267316
 20
109.5378718735382
 30
0.0
 10
179.0655780251545
 20
109.6067613631318
 30
0.0
 10
179.0293811962418
 20
109.666520091728
 30
0.0
 10
178.975713063001
 20
109.710373960218
 30
0.0
 10
178.9104025496857
 20
109.7338677096169
 30
0.0
 10
178.8406358612775
 20
109.7343939516468
 30
0.0
 10
178.7934161949788
 20
109.7185812721853
 30
0.0
 10
178.7709636886885
 20
109.7057600725359
 30
0.0
 10
178.7685928534491
 20
109.70440623918
 30
0.0
  0
SPLINE
  5
93
330
1F
100
AcDbEntity
  8
0
  6
Continuous
 62
     7
370
    25
100
AcDbSpline
210
0.0
220
0.0
230
1.0
 70
     8
 71
     3
 72
    12
 73
     8
 74
     0
 42
0.000000001
 43
0.00000001
 40
0.0
 40
0.0
 40
0.0
 40
0.0
 40
0.209365356212754
 40
0.4192620302417095
 40
0.6249526976742633
 40
0.8281707878026041
 40
1.0
 40
1.0
 40
1.0
 40
1.0
 10
178.7685928534491
 20
109.70440623918
 30
0.0
 10
178.7306130648871
 20
109.6903647072647
 30
0.0
 10
178.6545571043942
 20
109.6622460094773
 30
0.0
 10
178.5314245417248
 20
109.671063609647
 30
0.0
 10
178.4206078127301
 20
109.718058278613
 30
0.0
 10
178.334662206132
 20
109.7940519504007
 30
0.0
 10
178.3013875455146
 20
109.8585268681139
 30
0.0
 10
178.2861426452458
 20
109.8880662735394
 30
0.0
  0
SPLINE
  5
94
330
1F
100
AcDbEntity
  8
0
  6
Continuous
 62
     7
370
    25
100
AcDbSpline
210
0.0
220
0.0
230
1.0
 70
     8
 71
     3
 72
    16
 73
    12
 74
     0
 42
0.000000001
 43
0.00000001
 40
0.0
 40
0.0
 40
0.0
 40
0.0
 40
0.1231896672979593
 40
0.2479795154961581
 40
0.3717274745390956
 40
0.4942903479747935
 40
0.6161927293767855
 40
0.7380955470920465
 40
0.8606497678263738
 40
0.9843631542991677
 40
1.0
 40
1.0
 40
1.0
 40
1.0
 10
178.2861426452458
 20
109.8880662735394
 30
0.0
 10
178.2751049713691
 20
109.9085910822247
 30
0.0
 10
178.2528862489698
 20
109.94990730805
 30
0.0
 10
178.1960649126711
 20
109.9936248741477
 30
0.0
 10
178.1293322446684
 20
110.0168321859816
 30
0.0
 10
178.0589081749199
 20
110.0161691612402
 30
0.0
 10
177.9931722405868
 20
109.9923533993373
 30
0.0
 10
177.9389824511316
 20
109.9481225708763
 30
0.0
 10
177.902289163529
 20
109.8883120316722
 30
0.0
 10
177.8913009817829
 20
109.8393527646235
 30
0.0
 10
177.890694510751
 20
109.8132453157261
 30
0.0
 10
177.8906264570865
 20
109.8103157321604
 30
0.0
  0
SPLINE
  5
95
330
1F
100
AcDbEntity
  8
0
  6
Continuous
 62
     7
370
    25
100
AcDbSpline
210
0.0
220
0.0
230
1.0
 70
     8
 71
     3
 72
    12
 73
     8
 74
     0
 42
0.000000001
 43
0.00000001
 40
0.0
 40
0.0
 40
0.0
 40
0.0
 40
0.2093652529605078
 40
0.4192619297278887
 40
0.6249525996332835
 40
0.8281706892237483
 40
1.0
 40
1.0
 40
1.0
 40
1.0
 10
177.8906264570865
 20
109.8103157321604
 30
0.0
 10
177.883092688058
 20
109.7703961627667
 30
0.0
 10
177.8680060273232
 20
109.6904556976645
 30
0.0
 10
177.7973472971706
 20
109.5890876219045
 30
0.0
 10
177.7008672101011
 20
109.51821764724
 30
0.0
 10
177.5926828904531
 20
109.4838330990672
 30
0.0
 10
177.5209959676241
 20
109.4886290716567
 30
0.0
 10
177.4881523469796
 20
109.490826363689
 30
0.0
  0
SPLINE
  5
96
330
1F
100
AcDbEntity
  8
0
  6
Continuous
 62
     7
370
    25
100
AcDbSpline
210
0.0
220
0.0
230
1.0
 70
     8
 71
     3
 72
    16
 73
    12
 74
     0
 42
0.000000001
 43
0.00000001
 40
0.0
 40
0.0
 40
0.0
 40
0.0
 40
0.1243654221088488
 40
0.2491438717989242
 40
0.3728809614207811
 40
0.4954367981748714
 40
0.6173379650704205
 40
0.739245956109809
 40
0.8618110113605688
 40
0.9855389335649444
 40
1.0
 40
1.0
 40
1.0
 40
1.0
 10
177.4881523469796
 20
109.490826363689
 30
0.0
 10
177.4648894779533
 20
109.491966902943
 30
0.0
 10
177.4182864820396
 20
109.4942517692739
 30
0.0
 10
177.3524835249504
 20
109.4680151582238
 30
0.0
 10
177.2995994191352
 20
109.4229572022421
 30
0.0
 10
177.2654029002284
 20
109.3625881891606
 30
0.0
 10
177.2534301413454
 20
109.2944249524787
 30
0.0
 10
177.2647007342579
 20
109.2256986909754
 30
0.0
 10
177.297956154663
 20
109.163917393275
 30
0.0
 10
177.3343699885905
 20
109.1297173168707
 30
0.0
 10
177.3562213354163
 20
109.1159239969631
 30
0.0
 10
177.3585080138359
 20
109.1144805670813
 30
0.0
  0
SPLINE
  5
97
330
1F
100
AcDbEntity
  8
0
  6
Continuous
 62
     7
370
    25
100
AcDbSpline
210
0.0
220
0.0
230
1.0
 70
     8
 71
     3
 72
    12
 73
     8
 74
     0
 42
0.000000001
 43
0.00000001
 40
0.0
 40
0.0
 40
0.0
 40
0.0
 40
0.2092378396813326
 40
0.4191378956981954
 40
0.624831618152877
 40
0.8280490456278932
 40
1.0
 40
1.0
 40
1.0
 40
1.0
 10
177.3585080138359
 20
109.1144805670813
 30
0.0
 10
177.3889365677877
 20
109.0876067753878
 30
0.0
 10
177.4498899789484
 20
109.0337741392021
 30
0.0
 10
177.5023765099855
 20
108.9220985820757
 30
0.0
 10
177.5167369562275
 20
108.8045239013422
 30
0.0
 10
177.4945157975922
 20
108.6959542473879
 30
0.0
 10
177.4560939845624
 20
108.6381287564448
 30
0.0
 10
177.4384841119323
 20
108.6116255945691
 30
0.0
  0
SPLINE
  5
98
330
1F
100
AcDbEntity
  8
0
  6
Continuous
 62
     7
370
    25
100
AcDbSpline
210
0.0
220
0.0
230
1.0
 70
     8
 71
     3
 72
    16
 73
    12
 74
     0
 42
0.000000001
 43
0.00000001
 40
0.0
 40
0.0
 40
0.0
 40
0.0
 40
0.1242194589696879
 40
0.2489993218719663
 40
0.3727377574601148
 40
0.4952944629268105
 40
0.617195775016618
 40
0.7391031181772929
 40
0.8616668233223236
 40
0.985392937171625
 40
1.0
 40
1.0
 40
1.0
 40
1.0
 10
177.4384841119322
 20
108.6116255945691
 30
0.0
 10
177.4263968415027
 20
108.592683856902
 30
0.0
 10
177.402167770106
 20
108.554714927772
 30
0.0
 10
177.393483553081
 20
108.4861721290312
 30
0.0
 10
177.4073707952425
 20
108.4189512643901
 30
0.0
 10
177.4435676241552
 20
108.3597191959283
 30
0.0
 10
177.497235757396
 20
108.3152527164242
 30
0.0
 10
177.5625462707113
 20
108.2900496345739
 30
0.0
 10
177.6323129591195
 20
108.2868195402007
 30
0.0
 10
177.6795326254183
 20
108.3001410437164
 30
0.0
 10
177.7019851317085
 20
108.3115329948022
 30
0.0
 10
177.7043559669479
 20
108.3127359090216
 30
0.0
  0
SPLINE
  5
99
330
1F
100
AcDbEntity
  8
0
  6
Continuous
 62
     7
370
    25
100
AcDbSpline
210
0.0
220
0.0
230
1.0
 70
     8
 71
     3
 72
    12
 73
     8
 74
     0
 42
0.000000001
 43
0.00000001
 40
0.0
 40
0.0
 40
0.0
 40
0.0
 40
0.2093653562126497
 40
0.4192620302416628
 40
0.6249526976741978
 40
0.8281707878025988
 40
0.9999999999999999
 40
0.9999999999999999
 40
0.9999999999999999
 40
0.9999999999999999
 10
177.7043559669479
 20
108.3127359090216
 30
0.0
 10
177.74233575551
 20
108.3247492143056
 30
0.0
 10
177.8183917160028
 20
108.3488063116897
 30
0.0
 10
177.9415242786721
 20
108.3369447443492
 30
0.0
 10
178.0523410076669
 20
108.2905293097541
 30
0.0
 10
178.138286614265
 20
108.2182114116589
 30
0.0
 10
178.1715612748824
 20
108.157486199995
 30
0.0
 10
178.1868061751512
 20
108.1296647352997
 30
0.0
  0
SPLINE
  5
9A
330
1F
100
AcDbEntity
  8
0
  6
Continuous
 62
     7
370
    25
100
AcDbSpline
210
0.0
220
0.0
230
1.0
 70
     8
 71
     3
 72
    16
 73
    12
 74
     0
 42
0.000000001
 43
0.00000001
 40
0.0
 40
0.0
 40
0.0
 40
0.0
 40
0.1231896672979712
 40
0.2479795154961928
 40
0.3717274745392082
 40
0.4942903479748265
 40
0.6161927293767745
 40
0.7380955470921621
 40
0.8606497678264489
 40
0.984363154299174
 40
1.0
 40
1.0
 40
1.0
 40
1.0
 10
178.1868061751512
 20
108.1296647352997
 30
0.0
 10
178.1978438490279
 20
108.1103452142523
 30
0.0
 10
178.2200625714272
 20
108.0714552198718
 30
0.0
 10
178.2768839077259
 20
108.0304009477997
 30
0.0
 10
178.3436165757287
 20
108.0088713037502
 30
0.0
 10
178.4140406454771
 20
108.0100704693124
 30
0.0
 10
178.4797765798102
 20
108.033282901004
 30
0.0
 10
178.5339663692654
 20
108.0758131330351
 30
0.0
 10
178.570659656868
 20
108.1329273408138
 30
0.0
 10
178.581647838614
 20
108.1793901742131
 30
0.0
 10
178.582254309646
 20
108.2040583383024
 30
0.0
 10
178.5823223633105
 20
108.2068264160413
 30
0.0
  0
SPLINE
  5
9B
330
1F
100
AcDbEntity
  8
0
  6
Continuous
 62
     7
370
    25
100
AcDbSpline
210
0.0
220
0.0
230
1.0
 70
     8
 71
     3
 72
    12
 73
     8
 74
     0
 42
0.000000001
 43
0.00000001
 40
0.0
 40
0.0
 40
0.0
 40
0.0
 40
0.2093652529605405
 40
0.4192619297278092
 40
0.6249525996331938
 40
0.8281706892237004
 40
1.0
 40
1.0
 40
1.0
 40
1.0
 10
178.5823223633105
 20
108.2068264160413
 30
0.0
 10
178.5898561323391
 20
108.2447177597563
 30
0.0
 10
178.6049427930737
 20
108.3205966253336
 30
0.0
 10
178.6756015232265
 20
108.4189207327304
 30
0.0
 10
178.7720816102959
 20
108.4903699399552
 30
0.0
 10
178.8802659299439
 20
108.5284302611333
 30
0.0
 10
178.9519528527729
 20
108.5273839955001
 30
0.0
 10
178.9847964734174
 20
108.5269046451501
 30
0.0
  0
SPLINE
  5
9C
330
1F
100
AcDbEntity
  8
0
  6
Continuous
 62
     7
370
    25
100
AcDbSpline
210
0.0
220
0.0
230
1.0
 70
     8
 71
     3
 72
    16
 73
    12
 74
     0
 42
0.000000001
 43
0.00000001
 40
0.0
 40
0.0
 40
0.0
 40
0.0
 40
0.1243654221088224
 40
0.2491438717989344
 40
0.3728809614208212
 40
0.4954367981749564
 40
0.617337965070457
 40
0.7392459561098227
 40
0.8618110113605987
 40
0.9855389335650078
 40
1.0
 40
1.0
 40
1.0
 40
1.0
 10
178.9847964734174
 20
108.5269046451501
 30
0.0
 10
179.0080593424437
 20
108.5269805138274
 30
0.0
 10
179.0546623383574
 20
108.5271325031478
 30
0.0
 10
179.1204652954467
 20
108.5560314158526
 30
0.0
 10
179.1733494012619
 20
108.6027567144075
 30
0.0
 10
179.2075459201687
 20
108.6636510435793
 30
0.0
 10
179.2195186790516
 20
108.7312003538478
 30
0.0
 10
179.2082480861392
 20
108.7982160449635
 30
0.0
 10
179.1749926657339
 20
108.8572924251588
 30
0.0
 10
179.1385788318065
 20
108.8890020743877
 30
0.0
 10
179.1167274849807
 20
108.9013675689156
 30
0.0
 10
179.1144408065612
 20
108.9026615811205
 30
0.0
  0
SPLINE
  5
9D
330
1F
100
AcDbEntity
  8
0
  6
Continuous
 62
     7
370
    25
100
AcDbSpline
210
0.0
220
0.0
230
1.0
 70
     8
 71
     3
 72
    12
 73
     8
 74
     0
 42
0.000000001
 43
0.00000001
 40
0.0
 40
0.0
 40
0.0
 40
0.0
 40
0.2092378396812717
 40
0.4191378956981833
 40
0.6248316181529013
 40
0.8280490456278905
 40
1.0
 40
1.0
 40
1.0
 40
1.0
 10
179.1144408065612
 20
108.9026615811205
 30
0.0
 10
179.0840122526094
 20
108.9275083227939
 30
0.0
 10
179.0230588414486
 20
108.9772804435337
 30
0.0
 10
178.9705723104115
 20
109.0859105614983
 30
0.0
 10
178.9562118641696
 20
109.2040622404572
 30
0.0
 10
178.9784330228048
 20
109.3163068188239
 30
0.0
 10
179.0168548358346
 20
109.3778831359369
 30
0.0
 10
179.0344647084647
 20
109.40610541427
 30
0.0
  0
LINE
  5
9E
330
1F
100
AcDbEntity
  8
0
  6
Continuous
 62
     7
370
    25
100
AcDbLine
 10
177.4127154006
 20
108.4155734196
 30
0.0
 11
177.4384841119
 21
108.4601143547
 31
0.0
  0
ARC
  5
9F
330
1F
100
AcDbEntity
  8
0
  6
Continuous
 62
     7
370
    25
100
AcDbCircle
 10
178.2033974175
 20
108.8625896018
 30
0.0
 40
1.667559992303396
100
AcDbArc
 50
189.9939176796
 51
228.4284640426
  0
ARC
  5
A0
330
1F
100
AcDbEntity
  8
0
  6
Continuous
 62
     7
370
    25
100
AcDbCircle
 10
178.2584527646
 20
108.864440122
 30
0.0
 40
1.678036606463854
100
AcDbArc
 50
280.1106768538
 51
359.7580559743
  0
LINE
  5
A1
330
1F
100
AcDbEntity
  8
0
  6
Continuous
 62
     7
370
    25
100
AcDbLine
 10
176.5364744102
 20
108.8573542646
 30
0.0
 11
176.5611406781
 21
108.5731951826
 31
0.0
  0
LWPOLYLINE
  5
A2
330
1F
100
AcDbEntity
  8
0
  6
Continuous
 62
     7
370
    25
100
AcDbPolyline
 90
        3
 70
   128
 43
0.0
 10
179.1144408066
 20
108.7514447716
 10
179.1677361324
 20
108.7068586713
 10
179.2002728223
 20
108.6537012387
  0
LINE
  5
A3
330
1F
100
AcDbEntity
  8
0
  6
Continuous
 62
     7
370
    25
100
AcDbLine
 10
179.1144408066
 20
108.7514447716
 30
0.0
 11
179.1144408066
 21
108.9026615811
 31
0.0
  0
ARC
  5
A4
330
1F
100
AcDbEntity
  8
0
  6
Continuous
 62
     7
370
    25
100
AcDbCircle
 10
177.1594950261
 20
108.6736328586
 30
0.0
 40
0.3513190309682727
100
AcDbArc
 50
322.5721135016
 51
359.966883099
  0
ARC
  5
A5
330
1F
100
AcDbEntity
  8
0
  6
Continuous
 62
     7
370
    25
100
AcDbCircle
 10
179.3156920651
 20
109.0421359995
 30
0.0
 40
0.3535582823296902
100
AcDbArc
 50
180.1389242523
 51
235.3043820745
  0
ARC
  5
A6
330
1F
100
AcDbEntity
  8
0
  6
Continuous
 62
     7
370
    25
100
AcDbCircle
 10
177.4627381102
 20
109.1345725445
 30
0.0
 40
0.2063138560869857
100
AcDbArc
 50
82.9241960107
 51
157.3755131672
  0
ARC
  5
A7
330
1F
100
AcDbEntity
  8
0
  6
Continuous
 62
     7
370
    25
100
AcDbCircle
 10
178.8697813351
 20
109.372511516
 30
0.0
 40
0.2070835998519401
100
AcDbArc
 50
22.8328055962
 51
119.2509627713
  0
LINE
  5
A8
330
1F
100
AcDbEntity
  8
0
  6
Continuous
 62
     7
370
    25
100
AcDbLine
 10
178.7685928534
 20
109.5531894297
 30
0.0
 11
178.7685928534
 21
109.7044062392
 31
0.0
  0
LINE
  5
A9
330
1F
100
AcDbEntity
  8
0
  6
Continuous
 62
     7
370
    25
100
AcDbLine
 10
177.8906264571
 20
109.6590989227
 30
0.0
 11
177.8906264571
 21
109.8103157322
 31
0.0
  0
ARC
  5
AA
330
1F
100
AcDbEntity
  8
0
  6
Continuous
 62
     7
370
    25
100
AcDbCircle
 10
177.5333482476
 20
109.6955976003
 30
0.0
 40
0.3591376789364089
100
AcDbArc
 50
262.7704086404
 51
354.1670368679
  0
ARC
  5
AB
330
1F
100
AcDbEntity
  8
0
  6
Continuous
 62
     7
370
    25
100
AcDbCircle
 10
178.6178238175
 20
109.8828696965
 30
0.0
 40
0.3625194899188811
100
AcDbArc
 50
203.8037360152
 51
294.5755164894
  0
ARC
  5
AC
330
1F
100
AcDbEntity
  8
0
  6
Continuous
 62
     7
370
    25
100
AcDbCircle
 10
178.0969681184
 20
109.6539964821
 30
0.0
 40
0.206404738499674
100
AcDbArc
 50
23.5771657446
 51
178.5834719814
  0
LINE
  5
AD
330
1F
100
AcDbEntity
  8
0
  6
Continuous
 62
     7
370
    25
100
AcDbLine
 10
175.5978832677
 20
105.4474006674
 30
0.0
 11
181.1478832677
 21
106.4111480534
 31
0.0
  0
LINE
  5
AE
330
1F
100
AcDbEntity
  8
0
  6
Continuous
 62
     7
370
    25
100
AcDbLine
 10
175.5284239966
 20
105.7952368627
 30
0.0
 11
175.5978832677
 21
105.4474006674
 31
0.0
  0
LINE
  5
AF
330
1F
100
AcDbEntity
  8
0
  6
Continuous
 62
     7
370
    25
100
AcDbLine
 10
175.6155647202
 20
105.8887730493
 30
0.0
 11
175.5284239966
 21
105.7952368627
 31
0.0
  0
SPLINE
  5
B0
330
1F
100
AcDbEntity
  8
0
  6
Continuous
 62
     7
370
    25
100
AcDbSpline
210
0.0
220
0.0
230
1.0
 70
     8
 71
     3
 72
    11
 73
     7
 74
     0
 42
0.000000001
 43
0.00000001
 40
0.0
 40
0.0
 40
0.0
 40
0.0
 40
0.0074552814711545
 40
0.3066092506034852
 40
0.6526506519390205
 40
1.0
 40
1.0
 40
1.0
 40
1.0
 10
176.0578196248699
 20
106.4211307410025
 30
0.0
 10
176.0568332113016
 20
106.4198198276182
 30
0.0
 10
176.0162655243381
 20
106.3659066156314
 30
0.0
 10
175.9240896752614
 20
106.2471451843918
 30
0.0
 10
175.7709785704931
 20
106.0604922658512
 30
0.0
 10
175.66743444228
 20
105.9460847240366
 30
0.0
 10
175.6155647202486
 20
105.8887730493465
 30
0.0
  0
LINE
  5
B1
330
1F
100
AcDbEntity
  8
0
  6
Continuous
 62
     7
370
    25
100
AcDbLine
 10
175.5284239966
 20
105.7952368627
 30
0.0
 11
175.1284239966
 21
105.8353391916
 31
0.0
  0
LINE
  5
B2
330
1F
100
AcDbEntity
  8
0
  6
Continuous
 62
     7
370
    25
100
AcDbLine
 10
175.1284239966
 20
111.3853391916
 30
0.0
 11
175.1284239966
 21
105.8353391916
 31
0.0
  0
ARC
  5
B3
330
1F
100
AcDbEntity
  8
0
  6
Continuous
 62
     7
370
    25
100
AcDbCircle
 10
175.5265633397
 20
105.8391182773
 30
0.0
 40
0.3981572779548045
100
AcDbArc
 50
180.5438275858
 51
280.3187985039
  0
ARC
  5
B4
330
1F
100
AcDbEntity
  8
0
  6
Continuous
 62
     7
370
    25
100
AcDbCircle
 10
175.5283667645
 20
105.4246507532
 30
0.0
 40
0.1087496163728444
100
AcDbArc
 50
224.7054036287
 51
279.9398730721
  0
LINE
  5
B5
330
1F
100
AcDbEntity
  8
0
  6
Continuous
 62
     7
370
    25
100
AcDbLine
 10
175.5471385374
 20
105.3175335296
 30
0.0
 11
176.5657312391
 21
105.494410296
 31
0.0
  0
SPLINE
  5
B6
330
1F
100
AcDbEntity
  8
0
  6
Continuous
 62
     7
370
    25
100
AcDbSpline
210
0.0
220
0.0
230
1.0
 70
     8
 71
     3
 72
    12
 73
     8
 74
     0
 42
0.000000001
 43
0.00000001
 40
0.0
 40
0.0
 40
0.0
 40
0.0
 40
0.0481906270125316
 40
0.4227687915308458
 40
0.5661203835288032
 40
0.9912408780623966
 40
1.0
 40
1.0
 40
1.0
 40
1.0
 10
181.1024128225866
 20
106.7423005686626
 30
0.0
 10
181.094831578822
 20
106.7480411088221
 30
0.0
 10
181.0283225196257
 20
106.7984019647897
 30
0.0
 10
180.9331565329853
 20
106.8751628942625
 30
0.0
 10
180.7792885579472
 20
107.006743405821
 30
0.0
 10
180.6879770515794
 20
107.0899050285646
 30
0.0
 10
180.6260936734741
 20
107.1491012316037
 30
0.0
 10
180.6248443775078
 20
107.150296279126
 30
0.0
  0
SPLINE
  5
B7
330
1F
100
AcDbEntity
  8
0
  6
Continuous
 62
     7
370
    25
100
AcDbSpline
210
0.0
220
0.0
230
1.0
 70
     8
 71
     3
 72
    10
 73
     6
 74
     0
 42
0.000000001
 43
0.00000001
 40
0.0
 40
0.0
 40
0.0
 40
0.0
 40
0.3658097627743522
 40
0.937926916205418
 40
1.0
 40
1.0
 40
1.0
 40
1.0
 10
181.1024128225858
 20
106.7423005686633
 30
0.0
 10
181.1035795590603
 20
106.7331519674749
 30
0.0
 10
181.1065710416694
 20
106.7096951870023
 30
0.0
 10
181.1010780098497
 20
106.6853427159
 30
0.0
 10
181.0968248749139
 20
106.6703854942306
 30
0.0
 10
181.096408587835
 20
106.6689215157278
 30
0.0
  0
ARC
  5
B8
330
1F
100
AcDbEntity
  8
0
  6
Continuous
 62
     7
370
    25
100
AcDbCircle
 10
176.9237723538
 20
107.4878943543
 30
0.0
 40
0.9953931947451585
100
AcDbArc
 50
180.5438275747
 51
280.3187985309
  0
SPLINE
  5
B9
330
1F
100
AcDbEntity
  8
0
  6
Continuous
 62
     7
370
    25
100
AcDbSpline
210
0.0
220
0.0
230
1.0
 70
     8
 71
     3
 72
    10
 73
     6
 74
     0
 42
0.000000001
 43
0.00000001
 40
0.0
 40
0.0
 40
0.0
 40
0.0
 40
0.0620730837953668
 40
0.6341902372119287
 40
1.0
 40
1.0
 40
1.0
 40
1.0
 10
181.1819931297393
 20
106.76936765737
 30
0.0
 10
181.180446961383
 20
106.7685284036278
 30
0.0
 10
181.1646500198315
 20
106.7599538895667
 30
0.0
 10
181.1387609609869
 20
106.7474748271482
 30
0.0
 10
181.1126115874908
 20
106.7437523911815
 30
0.0
 10
181.1024128225866
 20
106.7423005686626
 30
0.0
  0
LINE
  5
BA
330
1F
100
AcDbEntity
  8
0
  6
Continuous
 62
     7
370
    25
100
AcDbLine
 10
181.0784239966
 20
112.3089842488
 30
0.0
 11
181.4784239966
 21
112.3490865776
 31
0.0
  0
LINE
  5
BB
330
1F
100
AcDbEntity
  8
0
  6
Continuous
 62
     7
370
    25
100
AcDbLine
 10
181.4784239966
 20
106.7990865776
 30
0.0
 11
181.4784239966
 21
112.3490865776
 31
0.0
  0
LINE
  5
BC
330
1F
100
AcDbEntity
  8
0
  6
Continuous
 62
     7
370
    25
100
AcDbLine
 10
180.991283273
 20
112.1979753324
 30
0.0
 11
181.0784239966
 21
112.3089842488
 31
0.0
  0
ARC
  5
BD
330
1F
100
AcDbEntity
  8
0
  6
Continuous
 62
     7
370
    25
100
AcDbCircle
 10
181.0827329478
 20
106.8014458991
 30
0.0
 40
0.395698082540542
100
AcDbArc
 50
279.4767018403
 51
359.6583759916
  0
LINE
  5
BE
330
1F
100
AcDbEntity
  8
0
  6
Continuous
 62
     7
370
    25
100
AcDbLine
 10
177.1020721743
 20
106.5086003299
 30
0.0
 11
179.8520721743
 21
106.9861328185
 31
0.0
  0
LINE
  5
BF
330
1F
100
AcDbEntity
  8
0
  6
Continuous
 62
     7
370
    25
100
AcDbLine
 10
179.5047758189
 20
111.6758254393
 30
0.0
 11
176.7547758189
 21
111.1982929507
 31
0.0
  0
ARC
  5
C0
330
1F
100
AcDbEntity
  8
0
  6
Continuous
 62
     7
370
    25
100
AcDbCircle
 10
179.6830756389
 20
110.6965314146
 30
0.0
 40
0.9953931949452669
100
AcDbArc
 50
0.5438275897
 51
100.3187985
  0
LINE
  5
C1
330
1F
100
AcDbEntity
  8
0
  6
Continuous
 62
     7
370
    25
100
AcDbLine
 10
180.6784239966
 20
107.9559791289
 30
0.0
 11
180.6784239966
 21
110.7059791289
 31
0.0
  0
ARC
  5
C2
330
1F
100
AcDbEntity
  8
0
  6
Continuous
 62
     7
370
    25
100
AcDbCircle
 10
179.6891963745
 20
107.9618774327
 30
0.0
 40
0.9892452063524502
100
AcDbArc
 50
279.4767018403
 51
359.6583759873
  0
LINE
  5
C3
330
1F
100
AcDbEntity
  8
0
  6
Continuous
 62
     7
370
    25
100
AcDbLine
 10
175.9284239966
 20
110.2284466403
 30
0.0
 11
175.9284239963
 21
107.4784466403
 31
0.0
  0
ARC
  5
C4
330
1F
100
AcDbEntity
  8
0
  6
Continuous
 62
     7
370
    25
100
AcDbCircle
 10
176.9176516187
 20
110.2225483365
 30
0.0
 40
0.98924520635245
100
AcDbArc
 50
99.4767018403
 51
179.6583759873
  0
CIRCLE
  5
C5
330
1F
100
AcDbEntity
  8
0
  6
Continuous
 62
     7
370
    25
100
AcDbCircle
 10
178.2822864027
 20
109.0883415147
 30
0.0
 40
1.903866342214694
  0
ARC
  5
C6
330
1F
100
AcDbEntity
  8
0
  6
Continuous
 62
     7
370
    25
100
AcDbCircle
 10
178.3034239966
 20
108.9381202568
 30
0.0
 40
1.925920370080892
100
AcDbArc
 50
2.6479193892
 51
177.3520806065
  0
SPLINE
  5
C7
330
1F
100
AcDbEntity
  8
0
  6
Continuous
 62
     7
370
    25
100
AcDbSpline
210
0.0
220
0.0
230
1.0
 70
     8
 71
     3
 72
    12
 73
     8
 74
     0
 42
0.000000001
 43
0.00000001
 40
0.0
 40
0.0
 40
0.0
 40
0.0
 40
0.0087591219376013
 40
0.4338796164711977
 40
0.577231208469155
 40
0.9518093729874691
 40
1.0
 40
1.0
 40
1.0
 40
1.0
 10
175.9820036157001
 20
110.9869162034481
 30
0.0
 10
175.9807543197338
 20
110.9877858719225
 30
0.0
 10
175.9188709416288
 20
111.0308645534223
 30
0.0
 10
175.8275594352607
 20
111.0986137900526
 30
0.0
 10
175.6736914602227
 20
111.221331441637
 30
0.0
 10
175.5785254735823
 20
111.301851685133
 30
0.0
 10
175.512016414386
 20
111.3614105937025
 30
0.0
 10
175.5044351706213
 20
111.368199602744
 30
0.0
  0
SPLINE
  5
C8
330
1F
100
AcDbEntity
  8
0
  6
Continuous
 62
     7
370
    25
100
AcDbSpline
210
0.0
220
0.0
230
1.0
 70
     8
 71
     3
 72
    10
 73
     6
 74
     0
 42
0.000000001
 43
0.00000001
 40
0.0
 40
0.0
 40
0.0
 40
0.0
 40
0.0620730837954354
 40
0.6341902372120601
 40
1.0
 40
1.0
 40
1.0
 40
1.0
 10
175.4248548634687
 20
111.3556202713185
 30
0.0
 10
175.426401031825
 20
111.3561505703686
 30
0.0
 10
175.4421979733766
 20
111.3615685464028
 30
0.0
 10
175.468087032221
 20
111.369066723405
 30
0.0
 10
175.4942364057171
 20
111.3684429043312
 30
0.0
 10
175.5044351706213
 20
111.368199602744
 30
0.0
  0
SPLINE
  5
C9
330
1F
100
AcDbEntity
  8
0
  6
Continuous
 62
     7
370
    25
100
AcDbSpline
210
0.0
220
0.0
230
1.0
 70
     8
 71
     3
 72
    11
 73
     7
 74
     0
 42
0.000000001
 43
0.00000001
 40
0.0
 40
0.0
 40
0.0
 40
0.0
 40
0.3473493480609482
 40
0.6933907493964854
 40
0.9925447185288463
 40
1.0
 40
1.0
 40
1.0
 40
1.0
 10
180.9912832729594
 20
112.1979753323861
 30
0.0
 10
180.939413550928
 20
112.1335333975996
 30
0.0
 10
180.8358694227147
 20
112.004892184643
 30
0.0
 10
180.6827583179469
 20
111.8321479650004
 30
0.0
 10
180.5905824688692
 20
111.7345453616515
 30
0.0
 10
180.5500147819064
 20
111.6932341898851
 30
0.0
 10
180.5490283683381
 20
111.6922296982958
 30
0.0
  0
SPLINE
  5
CA
330
1F
100
AcDbEntity
  8
0
  6
Continuous
 62
     7
370
    25
100
AcDbSpline
210
0.0
220
0.0
230
1.0
 70
     8
 71
     3
 72
    10
 73
     6
 74
     0
 42
0.000000001
 43
0.00000001
 40
0.0
 40
0.0
 40
0.0
 40
0.0
 40
0.3658097627742615
 40
0.9379269162054142
 40
1.0
 40
1.0
 40
1.0
 40
1.0
 10
175.5044351706221
 20
111.3681996027432
 30
0.0
 10
175.5032684341476
 20
111.3790433280376
 30
0.0
 10
175.5002769515386
 20
111.4068463635508
 30
0.0
 10
175.5057699833582
 20
111.4361797200697
 30
0.0
 10
175.5100231182941
 20
111.4542934797659
 30
0.0
 10
175.5104394053729
 20
111.4560664129608
 30
0.0
  0
LINE
  5
CB
330
1F
100
AcDbEntity
  8
0
  6
Continuous
 62
     7
370
    25
100
AcDbLine
 10
181.0089647255
 20
112.7370251018
 30
0.0
 11
175.4589647255
 21
111.7732777157
 31
0.0
  0
LINE
  5
CC
330
1F
100
AcDbEntity
  8
0
  6
Continuous
 62
     7
370
    25
100
AcDbLine
 10
181.0784239966
 20
112.3089842488
 30
0.0
 11
181.0089647255
 21
112.7370251018
 31
0.0
  0
ARC
  5
CD
330
1F
100
AcDbEntity
  8
0
  6
Continuous
 62
     7
370
    25
100
AcDbCircle
 10
175.5241150455
 20
111.38297987
 30
0.0
 40
0.3956980825555859
100
AcDbArc
 50
99.4767018421
 51
179.6583759855
  0
ARC
  5
CE
330
1F
100
AcDbEntity
  8
0
  6
Continuous
 62
     7
370
    25
100
AcDbCircle
 10
181.0802846535
 20
112.3453074919
 30
0.0
 40
0.3981572780013481
100
AcDbArc
 50
0.5438275937
 51
100.318798496
  0
LINE
  5
CF
330
1F
100
AcDbEntity
  8
0
  6
Continuous
 62
     7
370
    25
100
AcDbLine
 10
101.4784239966
 20
100.2430096788
 30
0.0
 11
101.4784239966
 21
113.0680096788
 31
0.0
  0
SPLINE
  5
D0
330
1F
100
AcDbEntity
  8
0
  6
Continuous
 62
     7
370
    25
100
AcDbSpline
210
0.0
220
0.0
230
1.0
 70
    24
 71
     3
 72
    10
 73
     6
 74
     0
 42
0.000000001
 43
0.00000001
 40
0.0
 40
0.0
 40
0.0
 40
0.0
 40
0.5
 40
0.5
 40
1.0
 40
1.0
 40
1.0
 40
1.0
 10
102.853423996604
 20
113.0680096788046
 30
0.0
 10
102.5811838092868
 20
113.0680096788046
 30
0.0
 10
102.3228197010988
 20
113.0680096788046
 30
0.0
 10
101.8567536832834
 20
113.0680096788046
 30
0.0
 10
101.6481631801557
 20
113.0680096788046
 30
0.0
 10
101.478423996604
 20
113.0680096788046
 30
0.0
  0
LINE
  5
D1
330
1F
100
AcDbEntity
  8
0
  6
Continuous
 62
     7
370
    25
100
AcDbLine
 10
102.8534239966
 20
98.8680096788
 30
0.0
 11
102.8534239966
 21
113.0680096788
 31
0.0
  0
LINE
  5
D2
330
1F
100
AcDbEntity
  8
0
  6
Continuous
 62
     7
370
    25
100
AcDbLine
 10
138.447002231
 20
98.8680096788
 30
0.0
 11
138.447002231
 21
114.8680096788
 31
0.0
  0
LINE
  5
D3
330
1F
100
AcDbEntity
  8
0
  6
Continuous
 62
     7
370
    25
100
AcDbLine
 10
110.9784239966
 20
113.0680096788
 30
0.0
 11
102.8534239966
 21
113.0680096788
 31
0.0
  0
LINE
  5
D4
330
1F
100
AcDbEntity
  8
0
  6
Continuous
 62
     7
370
    25
100
AcDbLine
 10
112.7784239966
 20
114.8680096788
 30
0.0
 11
110.9784239966
 21
113.0680096788
 31
0.0
  0
LINE
  5
D5
330
1F
100
AcDbEntity
  8
0
  6
Continuous
 62
     7
370
    25
100
AcDbLine
 10
117.4784239966
 20
113.0680096788
 30
0.0
 11
115.6784239966
 21
114.8680096788
 31
0.0
  0
LINE
  5
D6
330
1F
100
AcDbEntity
  8
0
  6
Continuous
 62
     7
370
    25
100
AcDbLine
 10
125.4784239966
 20
113.0680096788
 30
0.0
 11
117.4784239966
 21
113.0680096788
 31
0.0
  0
LINE
  5
D7
330
1F
100
AcDbEntity
  8
0
  6
Continuous
 62
     7
370
    25
100
AcDbLine
 10
127.2784239966
 20
114.8680096788
 30
0.0
 11
125.4784239966
 21
113.0680096788
 31
0.0
  0
SPLINE
  5
D8
330
1F
100
AcDbEntity
  8
0
  6
Continuous
 62
     7
370
    25
100
AcDbSpline
210
0.0
220
0.0
230
1.0
 70
     8
 71
     3
 72
     8
 73
     4
 74
     0
 42
0.000000001
 43
0.00000001
 40
0.0
 40
0.0
 40
0.0
 40
0.0
 40
1.0
 40
1.0
 40
1.0
 40
1.0
 10
174.6478002645049
 20
102.4502864444982
 30
0.0
 10
174.4750468779218
 20
102.4925796461045
 30
0.0
 10
174.301283373923
 20
102.5217871450056
 30
0.0
 10
174.1268557315041
 20
102.5388491941436
 30
0.0
  0
SPLINE
  5
D9
330
1F
100
AcDbEntity
  8
0
  6
Continuous
 62
     7
370
    25
100
AcDbSpline
210
0.0
220
0.0
230
1.0
 70
     8
 71
     3
 72
    48
 73
    44
 74
     0
 42
0.000000001
 43
0.00000001
 40
0.0
 40
0.0
 40
0.0
 40
0.0
 40
0.1249999999999997
 40
0.1249999999999997
 40
0.1874999999999996
 40
0.1874999999999996
 40
0.2499999999999994
 40
0.2499999999999994
 40
0.3749999999999992
 40
0.3749999999999992
 40
0.437499999999999
 40
0.437499999999999
 40
0.4999999999999989
 40
0.4999999999999989
 40
0.5624999999999988
 40
0.5624999999999988
 40
0.5937499999999987
 40
0.5937499999999987
 40
0.6249999999999987
 40
0.6249999999999987
 40
0.6406249999999986
 40
0.6406249999999986
 40
0.6562499999999986
 40
0.6562499999999986
 40
0.6718749999999986
 40
0.6718749999999986
 40
0.6874999999999984
 40
0.6874999999999984
 40
0.7031249999999984
 40
0.7031249999999984
 40
0.7187499999999984
 40
0.7187499999999984
 40
0.7499999999999983
 40
0.7499999999999983
 40
0.7812499999999982
 40
0.7812499999999982
 40
0.8124999999999982
 40
0.8124999999999982
 40
0.8749999999999988
 40
0.8749999999999988
 40
0.9374999999999994
 40
0.9374999999999994
 40
1.0
 40
1.0
 40
1.0
 40
1.0
 10
174.1268557315041
 20
102.5388491941433
 30
0.0
 10
173.1156333324781
 20
102.6377642859395
 30
0.0
 10
172.1398022039076
 20
102.7901893325401
 30
0.0
 10
170.719984409527
 20
103.1487243793492
 30
0.0
 10
170.2539403237332
 20
103.289961794735
 30
0.0
 10
169.3332343550064
 20
103.623206235104
 30
0.0
 10
168.8820892053494
 20
103.8141553094844
 30
0.0
 10
167.5622439341662
 20
104.4561531803186
 30
0.0
 10
166.7215693787989
 20
104.9781218268018
 30
0.0
 10
165.4841234195898
 20
105.8938977841338
 30
0.0
 10
165.082604979455
 20
106.2159979694001
 30
0.0
 10
164.3011023821501
 20
106.8872237198552
 30
0.0
 10
163.9194627028897
 20
107.2374423407116
 30
0.0
 10
163.1818648566331
 20
107.965315092718
 30
0.0
 10
162.8328083603339
 20
108.3349429035375
 30
0.0
 10
162.3555309646415
 20
108.9053345809569
 30
0.0
 10
162.2049494002042
 20
109.0977716533583
 30
0.0
 10
161.9362836808799
 20
109.4805148524301
 30
0.0
 10
161.8157436785258
 20
109.6742316673857
 30
0.0
 10
161.6767718013667
 20
109.9586465350447
 30
0.0
 10
161.637575465833
 20
110.0521080877657
 30
0.0
 10
161.5770600044856
 20
110.2364246914653
 30
0.0
 10
161.5557735011521
 20
110.3280160409511
 30
0.0
 10
161.5370443963377
 20
110.5020049232095
 30
0.0
 10
161.5392443892829
 20
110.5850253390573
 30
0.0
 10
161.5702866892866
 20
110.7430741904629
 30
0.0
 10
161.5991539780729
 20
110.8166313501814
 30
0.0
 10
161.6813107249551
 20
110.9499354182541
 30
0.0
 10
161.7353774488651
 20
111.0109242559867
 30
0.0
 10
161.8641699953248
 20
111.1196471593056
 30
0.0
 10
161.937967781616
 20
111.1670176782139
 30
0.0
 10
162.1825030096673
 20
111.2933699975458
 30
0.0
 10
162.3770726031924
 20
111.356537632395
 30
0.0
 10
162.789250710258
 20
111.4542365527137
 30
0.0
 10
163.0099332871878
 20
111.4898773120263
 30
0.0
 10
163.4701922715624
 20
111.5459126088209
 30
0.0
 10
163.7058631816891
 20
111.565768350036
 30
0.0
 10
164.4249911744826
 20
111.611760255794
 30
0.0
 10
164.9203636775497
 20
111.6247433740753
 30
0.0
 10
165.9333198421065
 20
111.639997324212
 30
0.0
 10
166.4452019151068
 20
111.6417101569267
 30
0.0
 10
167.4727340250609
 20
111.6432793234527
 30
0.0
 10
167.9893335533325
 20
111.6430009615916
 30
0.0
 10
168.5085817379009
 20
111.6430009615916
 30
0.0
  0
SPLINE
  5
DA
330
1F
100
AcDbEntity
  8
0
  6
Continuous
 62
     7
370
    25
100
AcDbSpline
210
0.0
220
0.0
230
1.0
 70
     8
 71
     3
 72
    38
 73
    34
 74
     0
 42
0.000000001
 43
0.00000001
 40
0.0
 40
0.0
 40
0.0
 40
0.0
 40
0.124999999999998
 40
0.124999999999998
 40
0.187499999999997
 40
0.187499999999997
 40
0.249999999999996
 40
0.249999999999996
 40
0.312499999999995
 40
0.312499999999995
 40
0.3437499999999945
 40
0.3437499999999945
 40
0.374999999999994
 40
0.374999999999994
 40
0.4062499999999935
 40
0.4062499999999935
 40
0.437499999999993
 40
0.437499999999993
 40
0.4687499999999925
 40
0.4687499999999925
 40
0.499999999999992
 40
0.499999999999992
 40
0.5624999999999939
 40
0.5624999999999939
 40
0.6249999999999958
 40
0.6249999999999958
 40
0.6874999999999977
 40
0.6874999999999977
 40
0.7499999999999996
 40
0.7499999999999996
 40
0.8749999999999998
 40
0.8749999999999998
 40
1.0
 40
1.0
 40
1.0
 40
1.0
 10
170.7050207023414
 20
109.4465619971511
 30
0.0
 10
170.2462206754368
 20
109.3925047003326
 30
0.0
 10
169.7916573582959
 20
109.3314670524327
 30
0.0
 10
169.1216652678502
 20
109.2055377663159
 30
0.0
 10
168.8996772996558
 20
109.1576151469043
 30
0.0
 10
168.4645876427592
 20
109.0428126260344
 30
0.0
 10
168.2530452605743
 20
108.9766639306749
 30
0.0
 10
167.8488867318421
 20
108.8125043912687
 30
0.0
 10
167.6605622981465
 20
108.7169937241992
 30
0.0
 10
167.4158197104086
 20
108.5328438510766
 30
0.0
 10
167.3405660737208
 20
108.463909240132
 30
0.0
 10
167.2159966406616
 20
108.3115104439811
 30
0.0
 10
167.1655361919881
 20
108.2260393396808
 30
0.0
 10
167.103054877144
 20
108.0439861627009
 30
0.0
 10
167.0903909337465
 20
107.9440554086296
 30
0.0
 10
167.1082750701366
 20
107.7430608669816
 30
0.0
 10
167.138723803513
 20
107.6398346528969
 30
0.0
 10
167.2328831489631
 20
107.44341698518
 30
0.0
 10
167.2970306515468
 20
107.3485397669379
 30
0.0
 10
167.4439975825041
 20
107.1751097921283
 30
0.0
 10
167.5281117383754
 20
107.0946023683492
 30
0.0
 10
167.7987359945855
 20
106.8750295269457
 30
0.0
 10
168.0009320893333
 20
106.7587044834465
 30
0.0
 10
168.4209708428068
 20
106.5783296526179
 30
0.0
 10
168.6359084316388
 20
106.5153752970132
 30
0.0
 10
169.0756792198893
 20
106.4340843039246
 30
0.0
 10
169.2958705443479
 20
106.4170710764663
 30
0.0
 10
169.7317157640363
 20
106.4221964681437
 30
0.0
 10
169.9490849224769
 20
106.4443341804241
 30
0.0
 10
170.5989501770011
 20
106.5615269038738
 30
0.0
 10
171.0130222171387
 20
106.7031047684522
 30
0.0
 10
171.8272268122325
 20
107.0681809836755
 30
0.0
 10
172.2260350092254
 20
107.2929638086695
 30
0.0
 10
172.617968072337
 20
107.5336146271555
 30
0.0
  0
ELLIPSE
  5
DB
330
1F
100
AcDbEntity
  8
0
  6
Continuous
 62
     7
370
    25
100
AcDbEllipse
 10
177.5008392042
 20
104.0399289166
 30
0.0
 11
7.177191550436133
 21
4.133392239886844
 31
0.0
210
0.0
220
0.0
230
1.0
 40
0.0873526838
 41
4.433283837375466
 42
4.612793736657092
  0
SPLINE
  5
DC
330
1F
100
AcDbEntity
  8
0
  6
Continuous
 62
     7
370
    25
100
AcDbSpline
210
0.0
220
0.0
230
1.0
 70
     8
 71
     3
 72
     8
 73
     4
 74
     0
 42
0.000000001
 43
0.00000001
 40
0.0
 40
0.0
 40
0.0
 40
0.0
 40
1.0
 40
1.0
 40
1.0
 40
1.0
 10
175.0982319495341
 20
102.3425183401902
 30
0.0
 10
175.3548048615977
 20
102.3250456657131
 30
0.0
 10
175.6122718230303
 20
102.3105043322486
 30
0.0
 10
175.8706456283438
 20
102.2985122549922
 30
0.0
  0
SPLINE
  5
DD
330
1F
100
AcDbEntity
  8
0
  6
Continuous
 62
     7
370
    25
100
AcDbSpline
210
0.0
220
0.0
230
1.0
 70
     8
 71
     3
 72
     8
 73
     4
 74
     0
 42
0.000000001
 43
0.00000001
 40
0.0
 40
0.0
 40
0.0
 40
0.0
 40
1.0
 40
1.0
 40
1.0
 40
1.0
 10
175.0982319495341
 20
102.3425183401902
 30
0.0
 10
174.9479644575424
 20
102.377663155025
 30
0.0
 10
174.7978155749086
 20
102.4135599415191
 30
0.0
 10
174.6478002645049
 20
102.4502864444979
 30
0.0
  0
LINE
  5
DE
330
1F
100
AcDbEntity
  8
0
  6
Continuous
 62
     7
370
    25
100
AcDbLine
 10
168.5085817379
 20
111.6430009616
 30
0.0
 11
174.1268557315
 21
111.6430009616
 31
0.0
  0
ELLIPSE
  5
DF
330
1F
100
AcDbEntity
  8
0
  6
Continuous
 62
     7
370
    25
100
AcDbEllipse
 10
168.7718554906
 20
107.5629330754
 30
0.0
 11
4.983535544497045
 21
1.343264963033207
 31
0.0
210
0.0
220
0.0
230
1.0
 40
0.2865059811
 41
5.513332268985451
 42
7.379795289487215
  0
LINE
  5
E0
330
1F
100
AcDbEntity
  8
0
  6
Continuous
 62
     7
370
    25
100
AcDbLine
 10
175.0982319495
 20
101.9680096788
 30
0.0
 11
175.0982319495
 21
102.3425183402
 31
0.0
  0
ELLIPSE
  5
E1
330
1F
100
AcDbEntity
  8
0
  6
Continuous
 62
     7
370
    25
100
AcDbEllipse
 10
184.1431331028
 20
106.8680096788
 30
0.0
 11
8.56911372497342
 21
4.884843233606006
 31
0.0
210
0.0
220
0.0
230
1.0
 40
0.0449411631
 41
2.850884418704053
 42
4.195434034838959
  0
SPLINE
  5
E2
330
1F
100
AcDbEntity
  8
0
  6
Continuous
 62
     7
370
    25
100
AcDbSpline
210
0.0
220
0.0
230
1.0
 70
     8
 71
     3
 72
     9
 73
     5
 74
     0
 42
0.000000001
 43
0.00000001
 40
0.0
 40
0.0
 40
0.0
 40
0.0
 40
0.2072725172598257
 40
1.0
 40
1.0
 40
1.0
 40
1.0
 10
180.3989654642967
 20
104.3963970697494
 30
0.0
 10
180.3858146238733
 20
104.3717313354812
 30
0.0
 10
180.3223675224569
 20
104.2527298653666
 30
0.0
 10
180.1976700014132
 20
104.1781142289339
 30
0.0
 10
180.0988188494523
 20
104.1189643632916
 30
0.0
  0
LINE
  5
E3
330
1F
100
AcDbEntity
  8
0
  6
Continuous
 62
     7
370
    25
100
AcDbLine
 10
177.1464798641
 20
103.0051028354
 30
0.0
 11
180.7486102066
 21
105.037932385
 31
0.0
  0
ARC
  5
E4
330
1F
100
AcDbEntity
  8
0
  6
Continuous
 62
     7
370
    25
100
AcDbCircle
 10
175.7400161726
 20
106.0436932619
 30
0.0
 40
0.9934922629838391
100
AcDbArc
 50
127.9954087409
 51
334.6140013756
  0
LINE
  5
E5
330
1F
100
AcDbEntity
  8
0
  6
Continuous
 62
     7
370
    25
100
AcDbLine
 10
181.2523651193
 20
106.4191184132
 30
0.0
 11
176.6375769069
 21
105.6177688498
 31
0.0
  0
LINE
  5
E6
330
1F
100
AcDbEntity
  8
0
  6
Continuous
 62
     7
370
    25
100
AcDbLine
 10
181.2523651193
 20
105.890800917
 30
0.0
 11
181.2523651193
 21
106.4191184132
 31
0.0
  0
ELLIPSE
  5
E7
330
1F
100
AcDbEntity
  8
0
  6
Continuous
 62
     7
370
    25
100
AcDbEllipse
 10
180.2448552939
 20
105.890800917
 30
0.0
 11
1.00750982545884
 21
0.0
 31
0.0
210
0.0
220
0.0
230
1.0
 40
0.9774671454
 41
5.235987755983015
 42
6.283185307179586
  0
SPLINE
  5
E8
330
1F
100
AcDbEntity
  8
0
  6
Continuous
 62
     7
370
    25
100
AcDbSpline
210
0.0
220
0.0
230
1.0
 70
     8
 71
     3
 72
     8
 73
     4
 74
     0
 42
0.000000001
 43
0.00000001
 40
0.0
 40
0.0
 40
0.0
 40
0.0
 40
1.0
 40
1.0
 40
1.0
 40
1.0
 10
174.1268557315042
 20
111.64300096159
 30
0.0
 10
174.2043546823927
 20
111.64300096159
 30
0.0
 10
174.281583353178
 20
111.6459985402971
 30
0.0
 10
174.3585449862757
 20
111.6519577372525
 30
0.0
  0
ELLIPSE
  5
E9
330
1F
100
AcDbEntity
  8
0
  6
Continuous
 62
     7
370
    25
100
AcDbEllipse
 10
175.277032473
 20
118.533465777
 30
0.0
 11
6.924405202309599
 21
-1.045790409389639
 31
0.0
210
0.0
220
0.0
230
1.0
 40
0.9913726566
 41
4.729449706260484
 42
4.843293033073407
  0
LINE
  5
EA
330
1F
100
AcDbEntity
  8
0
  6
Continuous
 62
     7
370
    25
100
AcDbLine
 10
175.1529809088
 20
111.5212372656
 30
0.0
 11
175.1529809088
 21
111.5910243112
 31
0.0
  0
ARC
  5
EB
330
1F
100
AcDbEntity
  8
0
  6
Continuous
 62
     7
370
    25
100
AcDbCircle
 10
175.7187159524
 20
105.6414610437
 30
0.0
 40
0.9827938808249268
100
AcDbArc
 50
126.9147738085
 51
168.0419108153
  0
ELLIPSE
  5
EC
330
1F
100
AcDbEntity
  8
0
  6
Continuous
 62
     7
370
    25
100
AcDbEllipse
 10
175.3031004594
 20
118.1755661728
 30
0.0
 11
-8.12394499531672
 21
21.35756040029061
 31
0.0
210
0.0
220
0.0
230
1.0
 40
0.1126786558
 41
1.841070573908295
 42
1.842811520124919
  0
ARC
  5
ED
330
1F
100
AcDbEntity
  8
0
  6
HIDDEN
 62
     7
370
    18
100
AcDbCircle
 10
178.375980702
 20
108.0607120471
 30
0.0
 40
0.206404738499674
100
AcDbArc
 50
203.5771657446
 51
358.5834719814
  0
LINE
  5
EE
330
1F
100
AcDbEntity
  8
0
  6
HIDDEN
 62
     7
370
    18
100
AcDbLine
 10
178.5823223633
 20
108.0556096065
 30
0.0
 11
178.5823223633
 21
108.206826416
 31
0.0
  0
ARC
  5
EF
330
1F
100
AcDbEntity
  8
0
  6
HIDDEN
 62
     7
370
    18
100
AcDbCircle
 10
177.6024724934
 20
108.3389833316
 30
0.0
 40
0.2046308770740167
100
AcDbArc
 50
158.0199259398
 51
299.8604388499
  0
LINE
  5
F0
330
1F
100
AcDbEntity
  8
0
  6
HIDDEN
 62
     7
370
    18
100
AcDbLine
 10
177.7043559669
 20
108.1615190995
 30
0.0
 11
177.7043559669
 21
108.312735909
 31
0.0
  0
ARC
  5
F1
330
1F
100
AcDbEntity
  8
0
  6
HIDDEN
 62
     7
370
    18
100
AcDbCircle
 10
178.235779471
 20
108.899723958
 30
0.0
 40
1.716828549352495
100
AcDbArc
 50
228.4423057962
 51
280.6488951926
  0
ARC
  5
F2
330
1F
100
AcDbEntity
  8
0
  6
HIDDEN
 62
     7
370
    18
100
AcDbCircle
 10
178.2364744102
 20
108.8381437847
 30
0.0
 40
1.700108538457872
100
AcDbArc
 50
0.647430925
 51
179.352569075
  0
ARC
  5
F3
330
1F
100
AcDbEntity
  8
0
  6
HIDDEN
 62
     7
370
    18
100
AcDbCircle
 10
179.0114257604
 20
108.5773448607
 30
0.0
 40
0.2036995563871044
100
AcDbArc
 50
262.4883227657
 51
22.0149206471
  0
LINE
  5
F4
330
1F
100
AcDbEntity
  8
0
  6
HIDDEN
 62
     7
370
    18
100
AcDbLine
 10
177.3585080138
 20
108.9632637576
 30
0.0
 11
177.3585080138
 21
109.1144805671
 31
0.0
  0
ARC
  5
F5
330
1F
100
AcDbEntity
  8
0
  6
HIDDEN
 62
     7
370
    18
100
AcDbCircle
 10
177.1572567553
 20
108.6725725297
 30
0.0
 40
0.3535582823290904
100
AcDbArc
 50
0.1389242523
 51
55.3043820745
  0
ARC
  5
F6
330
1F
100
AcDbEntity
  8
0
  6
HIDDEN
 62
     7
370
    18
100
AcDbCircle
 10
179.3134537943
 20
109.0410756706
 30
0.0
 40
0.3513190309689074
100
AcDbArc
 50
142.5721135016
 51
179.966883099
  0
ARC
  5
F7
330
1F
100
AcDbEntity
  8
0
  6
HIDDEN
 62
     7
370
    18
100
AcDbCircle
 10
177.4586487811
 20
109.1378631229
 30
0.0
 40
0.2012786914634825
100
AcDbArc
 50
157.792323418
 51
240.1637458093
  0
ARC
  5
F8
330
1F
100
AcDbEntity
  8
0
  6
HIDDEN
 62
     7
370
    18
100
AcDbCircle
 10
178.8754252519
 20
109.3764531766
 30
0.0
 40
0.2003575931629207
100
AcDbArc
 50
322.5399898288
 51
22.4202331037
  0
ARC
  5
F9
330
1F
100
AcDbEntity
  8
0
  6
HIDDEN
 62
     7
370
    18
100
AcDbCircle
 10
178.9396005728
 20
108.0191109289
 30
0.0
 40
0.3591376789363502
100
AcDbArc
 50
82.7704086403
 51
174.1670368679
  0
ARC
  5
FA
330
1F
100
AcDbEntity
  8
0
  6
HIDDEN
 62
     7
370
    18
100
AcDbCircle
 10
177.8551250029
 20
107.8318388326
 30
0.0
 40
0.3625194899188025
100
AcDbArc
 50
23.8037360152
 51
114.5755164894
  0
CIRCLE
  5
FB
330
1F
100
AcDbEntity
  8
0
  6
HIDDEN
 62
     7
370
    18
100
AcDbCircle
 10
178.2239431735
 20
108.6499760049
 30
0.0
 40
1.237273158663418
  0
CIRCLE
  5
FC
330
1F
100
AcDbEntity
  8
0
  6
HIDDEN
 62
     7
370
    18
100
AcDbCircle
 10
178.2239431735
 20
108.228879174
 30
0.0
 40
1.237273158663483
  0
ARC
  5
FD
330
1F
100
AcDbEntity
  8
0
  6
HIDDEN
 62
     7
370
    18
100
AcDbCircle
 10
178.2286867073
 20
108.1518512525
 30
0.0
 40
0.7681028808399994
100
AcDbArc
 50
190.1983574512
 51
252.3859266911
  0
ARC
  5
FE
330
1F
100
AcDbEntity
  8
0
  6
HIDDEN
 62
     7
370
    18
100
AcDbCircle
 10
178.2308636756
 20
108.1501278657
 30
0.0
 40
0.7699431315642847
100
AcDbArc
 50
284.8030768139
 51
190.0434533832
  0
ARC
  5
FF
330
1F
100
AcDbEntity
  8
0
  6
HIDDEN
 62
     7
370
    18
100
AcDbCircle
 10
175.5260189913
 20
105.4222154446
 30
0.0
 40
0.1053678595518806
100
AcDbArc
 50
180.0864135846
 51
224.6622904257
  0
LINE
  5
100
330
1F
100
AcDbEntity
  8
0
  6
HIDDEN
 62
     7
370
    18
100
AcDbLine
 10
176.5657312391
 20
105.494410296
 30
0.0
 11
181.0971385374
 21
106.2812809156
 31
0.0
  0
ARC
  5
101
330
1F
100
AcDbEntity
  8
0
  6
HIDDEN
 62
     7
370
    18
100
AcDbCircle
 10
181.0795849653
 20
106.3864395911
 30
0.0
 40
0.1066136714172228
100
AcDbArc
 50
279.4767018403
 51
359.6583759873
  0
ARC
  5
102
330
1F
100
AcDbEntity
  8
0
  6
HIDDEN
 62
     7
370
    18
100
AcDbCircle
 10
178.3034239966
 20
108.9822824642
 30
0.0
 40
1.92438586217365
100
AcDbArc
 50
178.6656570197
 51
1.334342976
  0
ARC
  5
103
330
1F
100
AcDbEntity
  8
0
  6
HIDDEN
 62
     7
370
    18
100
AcDbCircle
 10
178.3034239966
 20
108.6627098674
 30
0.0
 40
1.400093961095499
100
AcDbArc
 50
0.6637973338
 51
179.3362026662
  0
ARC
  5
104
330
1F
100
AcDbEntity
  8
0
  6
HIDDEN
 62
     7
370
    18
100
AcDbCircle
 10
181.0789253169
 20
111.9347857087
 30
0.0
 40
0.1072762570244237
100
AcDbArc
 50
0.5438275897
 51
100.3187985
  0
LINE
  5
105
330
1F
100
AcDbEntity
  8
0
  6
HIDDEN
 62
     7
370
    18
100
AcDbLine
 10
181.0597094558
 20
112.0403269139
 30
0.0
 11
175.5097094558
 21
111.0765795278
 31
0.0
  0
ARC
  5
106
330
1F
100
AcDbEntity
  8
0
  6
HIDDEN
 62
     7
370
    18
100
AcDbCircle
 10
175.5272630279
 20
110.9714208523
 30
0.0
 40
0.106613671417211
100
AcDbArc
 50
99.4767018403
 51
179.6583759873
  0
LINE
  5
107
330
1F
100
AcDbEntity
  8
0
  6
HIDDEN
 62
     7
370
    18
100
AcDbLine
 10
181.1861967417
 20
106.3858039148
 30
0.0
 11
181.1861967417
 21
111.9358039148
 31
0.0
  0
LINE
  5
108
330
1F
100
AcDbEntity
  8
0
  6
HIDDEN
 62
     7
370
    18
100
AcDbLine
 10
175.4206512516
 20
110.9720565287
 30
0.0
 11
175.4206512516
 21
105.4220565287
 31
0.0
  0
SPLINE
  5
109
330
1F
100
AcDbEntity
  8
0
  6
HIDDEN
 62
     7
370
    18
100
AcDbSpline
210
0.0
220
0.0
230
1.0
 70
     8
 71
     3
 72
    20
 73
    16
 74
     0
 42
0.000000001
 43
0.00000001
 40
0.0
 40
0.0
 40
0.0
 40
0.0
 40
0.1249999999999999
 40
0.1249999999999999
 40
0.2499999999999999
 40
0.2499999999999999
 40
0.3749999999999998
 40
0.3749999999999998
 40
0.4999999999999997
 40
0.4999999999999997
 40
0.7499999999999998
 40
0.7499999999999998
 40
0.8749999999999998
 40
0.8749999999999998
 40
1.0
 40
1.0
 40
1.0
 40
1.0
 10
174.1268557315041
 20
111.6398492403626
 30
0.0
 10
174.0257253550004
 20
111.6373740498569
 30
0.0
 10
173.9329150937953
 20
111.6331550260828
 30
0.0
 10
173.7654112323389
 20
111.6183447035578
 30
0.0
 10
173.69085089817
 20
111.6075983083856
 30
0.0
 10
173.5699354653302
 20
111.5774479050496
 30
0.0
 10
173.5218834033129
 20
111.5575635020216
 30
0.0
 10
173.4582703736761
 20
111.5077019393764
 30
0.0
 10
173.4423502536226
 20
111.478084000818
 30
0.0
 10
173.444139526883
 20
111.3733505238356
 30
0.0
 10
173.5139389418525
 20
111.2857872405676
 30
0.0
 10
173.6956137148718
 20
111.1535521750786
 30
0.0
 10
173.7696411128912
 20
111.1089284805193
 30
0.0
 10
173.9348976598386
 20
111.0250540507329
 30
0.0
 10
174.0271054049398
 20
110.9851591110353
 30
0.0
 10
174.1268557315571
 20
110.9487456909212
 30
0.0
  0
LINE
  5
10A
330
1F
100
AcDbEntity
  8
0
  6
HIDDEN
 62
     7
370
    18
100
AcDbLine
 10
102.7774621023
 20
105.3680096788
 30
0.0
 11
102.7774621023
 21
108.3680096788
 31
0.0
  0
LWPOLYLINE
  5
10B
330
1F
100
AcDbEntity
  8
0
  6
HIDDEN
 62
     7
370
    18
100
AcDbPolyline
 90
       13
 70
   128
 43
0.0
 10
165.7687766055
 20
106.5477956906
 10
165.8951437228
 20
106.2021710914
 10
166.0342394044
 20
105.8868716343
 10
166.1775136445
 20
105.6212783107
 10
166.3161595873
 20
105.4217167495
 10
166.4416548717
 20
105.3004537046
 10
166.5462854883
 20
105.2649430362
 10
166.6236199476
 20
105.3173675326
 10
166.6689046149
 20
105.4545047375
 10
166.6793559087
 20
105.6679250296
 10
166.6543314033
 20
105.9445097792
 10
166.595369318
 20
106.2672577308
 10
166.5060939652
 20
106.616330045
  0
SPLINE
  5
10C
330
1F
100
AcDbEntity
  8
0
  6
HIDDEN
 62
     7
370
    18
100
AcDbSpline
210
0.0
220
0.0
230
1.0
 70
     8
 71
     3
 72
    18
 73
    14
 74
     0
 42
0.000000001
 43
0.00000001
 40
0.0
 40
0.0
 40
0.0
 40
0.0
 40
0.125
 40
0.125
 40
0.2500000000000001
 40
0.2500000000000001
 40
0.3750000000000001
 40
0.3750000000000001
 40
0.5000000000000001
 40
0.5000000000000001
 40
0.75
 40
0.75
 40
1.0
 40
1.0
 40
1.0
 40
1.0
 10
166.4784239966042
 20
108.3666897431663
 30
0.0
 10
166.4862132272768
 20
108.349510034759
 30
0.0
 10
166.49387841014
 20
108.3226186239034
 30
0.0
 10
166.5085778131949
 20
108.2507601425219
 30
0.0
 10
166.5156777401896
 20
108.2051950264183
 30
0.0
 10
166.5283565264029
 20
108.0984052271939
 30
0.0
 10
166.5339271874246
 20
108.0375646492695
 30
0.0
 10
166.543042803391
 20
107.9015850989535
 30
0.0
 10
166.5465789778274
 20
107.8258724839342
 30
0.0
 10
166.5530142816283
 20
107.5857408616734
 30
0.0
 10
166.5517317397829
 20
107.4028313411355
 30
0.0
 10
166.5369470245257
 20
107.0202347677942
 30
0.0
 10
166.5232670631076
 20
106.8166538832532
 30
0.0
 10
166.5060939652068
 20
106.6163300449824
 30
0.0
  0
SPLINE
  5
10D
330
1F
100
AcDbEntity
  8
0
  6
HIDDEN
 62
     7
370
    18
100
AcDbSpline
210
0.0
220
0.0
230
1.0
 70
     8
 71
     3
 72
    20
 73
    16
 74
     0
 42
0.000000001
 43
0.00000001
 40
0.0
 40
0.0
 40
0.0
 40
0.0
 40
0.1249999999999995
 40
0.1249999999999995
 40
0.249999999999999
 40
0.249999999999999
 40
0.3749999999999984
 40
0.3749999999999984
 40
0.4999999999999979
 40
0.4999999999999979
 40
0.6249999999999974
 40
0.6249999999999974
 40
0.7499999999999969
 40
0.7499999999999969
 40
1.0
 40
1.0
 40
1.0
 40
1.0
 10
165.7687766054743
 20
106.5477956905686
 30
0.0
 10
165.8223797559842
 20
106.6528014555088
 30
0.0
 10
165.8592865435818
 20
106.7641067962024
 30
0.0
 10
165.9186543634787
 20
106.9933735358404
 30
0.0
 10
165.9408064651267
 20
107.110956709065
 30
0.0
 10
165.9797138642944
 20
107.3375799645323
 30
0.0
 10
165.9968742884344
 20
107.449457208009
 30
0.0
 10
166.0314580994051
 20
107.6575497404387
 30
0.0
 10
166.0488934764437
 20
107.7545591453244
 30
0.0
 10
166.0885116182041
 20
107.9335995370403
 30
0.0
 10
166.1099329261266
 20
108.0122749697502
 30
0.0
 10
166.1592759958174
 20
108.1483163845582
 30
0.0
 10
166.1875090551188
 20
108.2058917385449
 30
0.0
 10
166.2836437588333
 20
108.3383658694596
 30
0.0
 10
166.3631988704297
 20
108.3754860503399
 30
0.0
 10
166.4784239966053
 20
108.3666897431667
 30
0.0
  0
SPLINE
  5
10E
330
1F
100
AcDbEntity
  8
0
  6
HIDDEN
 62
     7
370
    18
100
AcDbSpline
210
0.0
220
0.0
230
1.0
 70
     8
 71
     3
 72
     8
 73
     4
 74
     0
 42
0.000000001
 43
0.00000001
 40
0.0
 40
0.0
 40
0.0
 40
0.0
 40
1.0
 40
1.0
 40
1.0
 40
1.0
 10
174.1268557315575
 20
110.9487456909211
 30
0.0
 10
174.306508000866
 20
110.8831644163631
 30
0.0
 10
174.4790456202271
 20
110.8222915318544
 30
0.0
 10
174.6478002645049
 20
110.7656399487673
 30
0.0
  0
SPLINE
  5
10F
330
1F
100
AcDbEntity
  8
0
  6
HIDDEN
 62
     7
370
    18
100
AcDbSpline
210
0.0
220
0.0
230
1.0
 70
     8
 71
     3
 72
    10
 73
     6
 74
     0
 42
0.000000001
 43
0.00000001
 40
0.0
 40
0.0
 40
0.0
 40
0.0
 40
0.5
 40
0.5
 40
1.0
 40
1.0
 40
1.0
 40
1.0
 10
174.6478002645049
 20
110.7656399487673
 30
0.0
 10
174.9199472587471
 20
110.6742791561668
 30
0.0
 10
175.2266187654997
 20
110.6114060106418
 30
0.0
 10
175.8902113265991
 20
110.5587997707146
 30
0.0
 10
176.2319199400259
 20
110.5701919262982
 30
0.0
 10
176.5796108385252
 20
110.6238586861695
 30
0.0
  0
LINE
  5
110
330
1F
100
AcDbEntity
  8
0
  6
HIDDEN
 62
     7
370
    18
100
AcDbLine
 10
175.0982319495
 20
106.0171336082
 30
0.0
 11
175.0982319495
 21
102.3425183402
 31
0.0
  0
SPLINE
  5
111
330
1F
100
AcDbEntity
  8
0
  6
HIDDEN
 62
     7
370
    18
100
AcDbSpline
210
0.0
220
0.0
230
1.0
 70
     8
 71
     3
 72
    12
 73
     8
 74
     0
 42
0.000000001
 43
0.00000001
 40
0.0
 40
0.0
 40
0.0
 40
0.0
 40
0.2499999999999961
 40
0.2499999999999961
 40
0.4999999999999922
 40
0.4999999999999922
 40
1.0
 40
1.0
 40
1.0
 40
1.0
 10
175.0982319495341
 20
106.0171336082366
 30
0.0
 10
175.0982319495342
 20
106.1685336635066
 30
0.0
 10
175.1408903995098
 20
106.3156461282531
 30
0.0
 10
175.2774020233416
 20
106.5817595880227
 30
0.0
 10
175.3703980814289
 20
106.70271874119
 30
0.0
 10
175.6779046057788
 20
107.0311784147827
 30
0.0
 10
175.9225290642475
 20
107.2113934368885
 30
0.0
 10
176.1749938527241
 20
107.3734169681371
 30
0.0
  0
SPLINE
  5
112
330
1F
100
AcDbEntity
  8
0
  6
HIDDEN
 62
     7
370
    18
100
AcDbSpline
210
0.0
220
0.0
230
1.0
 70
     8
 71
     3
 72
     8
 73
     4
 74
     0
 42
0.000000001
 43
0.00000001
 40
0.0
 40
0.0
 40
0.0
 40
0.0
 40
1.0
 40
1.0
 40
1.0
 40
1.0
 10
177.2179472775584
 20
108.1107524689356
 30
0.0
 10
176.8819466533734
 20
107.8477420443509
 30
0.0
 10
176.5327791858502
 20
107.6030317332366
 30
0.0
 10
176.1749938527242
 20
107.3734169681369
 30
0.0
  0
SPLINE
  5
113
330
1F
100
AcDbEntity
  8
0
  6
HIDDEN
 62
     7
370
    18
100
AcDbSpline
210
0.0
220
0.0
230
1.0
 70
     8
 71
     3
 72
    12
 73
     8
 74
     0
 42
0.000000001
 43
0.00000001
 40
0.0
 40
0.0
 40
0.0
 40
0.0
 40
0.2499999999999999
 40
0.2499999999999999
 40
0.4999999999999998
 40
0.4999999999999998
 40
1.0
 40
1.0
 40
1.0
 40
1.0
 10
178.26958225737
 20
109.0560519063409
 30
0.0
 10
178.1417644677747
 20
109.0652971611953
 30
0.0
 10
178.0086059469598
 20
109.0475783799966
 30
0.0
 10
177.7601301985256
 20
108.9568022504171
 30
0.0
 10
177.6469083080847
 20
108.8853121905491
 30
0.0
 10
177.3598515223189
 20
108.614332225988
 30
0.0
 10
177.2452696919348
 20
108.3665113128386
 30
0.0
 10
177.2179472775584
 20
108.1107524689356
 30
0.0
  0
SPLINE
  5
114
330
1F
100
AcDbEntity
  8
0
  6
HIDDEN
 62
     7
370
    18
100
AcDbSpline
210
0.0
220
0.0
230
1.0
 70
     8
 71
     3
 72
    16
 73
    12
 74
     0
 42
0.000000001
 43
0.00000001
 40
0.0
 40
0.0
 40
0.0
 40
0.0
 40
0.1249999999999985
 40
0.1249999999999985
 40
0.249999999999997
 40
0.249999999999997
 40
0.499999999999998
 40
0.499999999999998
 40
0.749999999999999
 40
0.749999999999999
 40
1.0
 40
1.0
 40
1.0
 40
1.0
 10
179.3227356588126
 20
111.0479304971307
 30
0.0
 10
179.3269255739702
 20
110.9746298363596
 30
0.0
 10
179.3236508492323
 20
110.8979182520392
 30
0.0
 10
179.3019500346045
 20
110.7375780327902
 30
0.0
 10
179.2832942899951
 20
110.6536644189172
 30
0.0
 10
179.2076231404604
 20
110.4014012997386
 30
0.0
 10
179.1303325989723
 20
110.2284209045979
 30
0.0
 10
178.934483076926
 20
109.8809644659776
 30
0.0
 10
178.8189505175643
 20
109.7112305990149
 30
0.0
 10
178.5617869457947
 20
109.3779954062644
 30
0.0
 10
178.4189568780448
 20
109.2135238731659
 30
0.0
 10
178.26958225737
 20
109.0560519063409
 30
0.0
  0
SPLINE
  5
115
330
1F
100
AcDbEntity
  8
0
  6
HIDDEN
 62
     7
370
    18
100
AcDbSpline
210
0.0
220
0.0
230
1.0
 70
     8
 71
     3
 72
     8
 73
     4
 74
     0
 42
0.000000001
 43
0.00000001
 40
0.0000842342379502
 40
0.0000842342379502
 40
0.0000842342379502
 40
0.0000842342379502
 40
0.002871525235625
 40
0.002871525235625
 40
0.002871525235625
 40
0.002871525235625
 10
176.5796108385251
 20
110.6238586861693
 30
0.0
 10
177.4939541144145
 20
110.7649893319207
 30
0.0
 10
178.4083311668061
 20
110.9063578180272
 30
0.0
 10
179.3227356588126
 20
111.0479304971307
 30
0.0
  0
LINE
  5
116
330
1F
100
AcDbEntity
  8
0
  6
HIDDEN
 62
     7
370
    18
100
AcDbLine
 10
180.5161992175
 20
104.597219847
 30
0.0
 11
180.3989654643
 21
104.3963970697
 31
0.0
  0
ELLIPSE
  5
117
330
1F
100
AcDbEntity
  8
0
  6
HIDDEN
 62
     7
370
    18
100
AcDbEllipse
 10
185.795144317
 20
106.8680096788
 30
0.0
 11
5.110365541028528
 21
2.645360197742776
 31
0.0
210
0.0
220
0.0
230
1.0
 40
0.8070986244
 41
2.745843596892247
 42
3.053168764442644
  0
LINE
  5
118
330
1F
100
AcDbEntity
  8
0
  6
HIDDEN
 62
     7
370
    18
100
AcDbLine
 10
175.1284239966
 20
106.8266248597
 30
0.0
 11
175.1529809088
 21
106.8445674583
 31
0.0
  0
LINE
  5
119
330
1F
100
AcDbEntity
  8
0
  6
HIDDEN
 62
     7
370
    18
100
AcDbLine
 10
175.1529809088
 20
106.8445674583
 30
0.0
 11
175.1529809088
 21
111.5212372656
 31
0.0
  0
LINE
  5
11A
330
1F
100
AcDbEntity
  8
0
  6
HIDDEN
 62
     7
370
    18
100
AcDbLine
 10
166.4784239966
 20
108.3666897432
 30
0.0
 11
166.4784239966
 21
105.381880807
 31
0.0
  0
LINE
  5
11B
330
1F
100
AcDbEntity
  8
0
  6
HIDDEN
 62
     7
370
    18
100
AcDbLine
 10
166.4784239966
 20
105.3680096788
 30
0.0
 11
166.4784239966
 21
105.381880807
 31
0.0
  0
ELLIPSE
  5
11C
330
1F
100
AcDbEntity
  8
0
  6
HIDDEN
 62
     7
370
    18
100
AcDbEllipse
 10
166.0489064272
 20
106.8680096788
 30
0.0
 11
-0.5177492177485024
 21
1.49503009232312
 31
0.0
210
0.0
220
0.0
230
1.0
 40
0.235643413
 41
1.704501845014922
 42
2.924065830657155
  0
ELLIPSE
  5
11D
330
1F
100
AcDbEntity
  8
0
  6
HIDDEN
 62
     7
370
    18
100
AcDbEllipse
 10
164.8067067332
 20
109.1836426557
 30
0.0
 11
-1.615874466734709
 21
3.839649897420699
 31
0.0
210
0.0
220
0.0
230
1.0
 40
0.1992223938
 41
3.221404109022832
 42
3.899515882796758
  0
ELLIPSE
  5
11E
330
1F
100
AcDbEntity
  8
0
  6
HIDDEN
 62
     7
370
    18
100
AcDbEllipse
 10
179.4554664485
 20
104.7744070197
 30
0.0
 11
1.042931743067044
 21
0.5398694281107765
 31
0.0
210
0.0
220
0.0
230
1.0
 40
0.8070986244
 41
5.534775663378452
 42
5.887436250482053
  0
ELLIPSE
  5
11F
330
1F
100
AcDbEntity
  8
0
  6
HIDDEN
 62
     7
370
    18
100
AcDbEllipse
 10
175.7364744102
 20
105.2195813262
 30
0.0
 11
0.9939277096389105
 21
0.2889804660132
 31
0.0
210
0.0
220
0.0
230
1.0
 40
0.3807697882
 41
0.238807555622745
 42
0.3382325741834677
  0
ELLIPSE
  5
120
330
1F
100
AcDbEntity
  8
0
  6
HIDDEN
 62
     7
370
    18
100
AcDbEllipse
 10
175.7364744102
 20
105.2195813262
 30
0.0
 11
-0.8913500669656004
 21
1.707021392749354
 31
0.0
210
0.0
220
0.0
230
1.0
 40
0.2655594297
 41
5.706469373208535
 42
5.805894391769209
  0
LINE
  5
121
330
1F
100
AcDbEntity
  8
0
  6
HIDDEN
 62
     7
370
    18
100
AcDbLine
 10
175.2364744102
 20
106.7795753159
 30
0.0
 11
175.2364744102
 21
106.5191030494
 31
0.0
  0
ARC
  5
122
330
1F
100
AcDbEntity
  8
0
  6
HIDDEN
 62
     7
370
    18
100
AcDbCircle
 10
175.7383090327
 20
105.6604324429
 30
0.0
 40
0.9945618124722214
100
AcDbArc
 50
340.5592421615
 51
120.3033839282
  0
LINE
  5
123
330
1F
100
AcDbEntity
  8
0
  6
HIDDEN
 62
     7
370
    18
100
AcDbLine
 10
176.676167031
 20
105.3294104286
 30
0.0
 11
176.676167031
 21
105.5898826951
 31
0.0
  0
ARC
  5
124
330
1F
100
AcDbEntity
  8
0
  6
HIDDEN
 62
     7
370
    18
100
AcDbCircle
 10
175.7386684236
 20
105.6493071775
 30
0.0
 40
0.9887206286200194
100
AcDbArc
 50
269.8728581053
 51
128.1123966734
  0
ARC
  5
125
330
1F
100
AcDbEntity
  8
0
  6
HIDDEN
 62
     7
370
    18
100
AcDbCircle
 10
175.7268942174
 20
105.6496818642
 30
0.0
 40
0.9891392760645661
100
AcDbArc
 50
168.6059304148
 51
270.5549402467
  0
LINE
  5
126
330
1F
100
AcDbEntity
  8
0
  6
HIDDEN
 62
     7
370
    18
100
AcDbLine
 10
181.2523651193
 20
106.4191184132
 30
0.0
 11
181.1688716179
 21
106.3700326595
 31
0.0
  0
ELLIPSE
  5
127
330
1F
100
AcDbEntity
  8
0
  6
HIDDEN
 62
     7
370
    18
100
AcDbEllipse
 10
175.3031004594
 20
118.1755661728
 30
0.0
 11
-8.12394499531672
 21
21.35756040029061
 31
0.0
210
0.0
220
0.0
230
1.0
 40
0.1126786558
 41
1.842811520124919
 42
1.850925609951382
  0
LINE
  5
128
330
1F
100
AcDbEntity
  8
0
  6
HIDDEN
 62
     7
370
    18
100
AcDbLine
 10
175.2364744102
 20
111.3909173014
 30
0.0
 11
175.2364744102
 21
106.7795753159
 31
0.0
  0
LINE
  5
129
330
1F
100
AcDbEntity
  8
0
  6
HIDDEN
 62
     7
370
    18
100
AcDbLine
 10
181.1688716179
 20
106.3700326595
 30
0.0
 11
180.9846947766
 21
106.0775784201
 31
0.0
  0
LINE
  5
12A
330
1F
100
AcDbEntity
  8
0
  6
HIDDEN
 62
     7
370
    18
100
AcDbLine
 10
176.676167031
 20
105.5898826951
 30
0.0
 11
181.1688716179
 21
106.3700326595
 31
0.0
  0
SPLINE
  5
12B
330
1F
100
AcDbEntity
  8
0
  6
HIDDEN
 62
     7
370
    18
100
AcDbSpline
210
0.0
220
0.0
230
1.0
 70
     8
 71
     3
 72
     8
 73
     4
 74
     0
 42
0.000000001
 43
0.00000001
 40
0.0
 40
0.0
 40
0.0
 40
0.0
 40
1.0
 40
1.0
 40
1.0
 40
1.0
 10
174.3585449862764
 20
111.6519577372526
 30
0.0
 10
174.2824663218704
 20
111.6459400336813
 30
0.0
 10
174.2053894880571
 20
111.6417713731086
 30
0.0
 10
174.1268557314818
 20
111.6398492403581
 30
0.0
  0
CIRCLE
  5
12C
330
1F
100
AcDbEntity
  8
0
  6
HIDDEN
 62
     7
370
    18
100
AcDbCircle
 10
178.2331991358
 20
108.6147146826
 30
0.0
 40
1.34385417878358
  0
LINE
  5
12D
330
1F
100
AcDbEntity
  8
0
  6
HIDDEN
 62
     7
370
    18
100
AcDbLine
 10
176.5481786565
 20
111.055405847
 30
0.0
 11
180.6861526609
 21
111.7739574921
 31
0.0
  0
LINE
  5
12E
330
1F
100
AcDbEntity
  8
0
  6
HIDDEN
 62
     7
370
    18
100
AcDbLine
 10
180.9846947766
 20
111.5272566708
 30
0.0
 11
180.6861526609
 21
111.7739574921
 31
0.0
  0
ELLIPSE
  5
12F
330
1F
100
AcDbEntity
  8
0
  6
HIDDEN
 62
     7
370
    18
100
AcDbEllipse
 10
175.3235129403
 20
117.8953136554
 30
0.0
 11
6.924405202309515
 21
-1.045790409390008
 31
0.0
210
0.0
220
0.0
230
1.0
 40
0.9913726566
 41
4.848580014830565
 42
5.03682847499309
  0
LINE
  5
130
330
1F
100
AcDbEntity
  8
0
  6
HIDDEN
 62
     7
370
    18
100
AcDbLine
 10
176.676167031
 20
105.3294104286
 30
0.0
 11
180.9846947766
 21
106.0775784201
 31
0.0
  0
LINE
  5
131
330
1F
100
AcDbEntity
  8
0
  6
HIDDEN
 62
     7
370
    18
100
AcDbLine
 10
180.9846947766
 20
111.5272566708
 30
0.0
 11
180.9846947766
 21
106.0775784201
 31
0.0
  0
ARC
  5
132
330
1F
100
AcDbEntity
  8
0
  6
HIDDEN
 62
     7
370
    18
100
AcDbCircle
 10
178.2335737215
 20
108.5565593168
 30
0.0
 40
1.021978272072825
100
AcDbArc
 50
268.0660643408
 51
253.7199334509
  0
SPLINE
  5
133
330
1F
100
AcDbEntity
  8
0
  6
HIDDEN
 62
     7
370
    18
100
AcDbSpline
210
0.0
220
0.0
230
1.0
 70
     8
 71
     3
 72
    14
 73
    10
 74
     0
 42
0.000000001
 43
0.00000001
 40
0.0
 40
0.0
 40
0.0
 40
0.0
 40
0.2499999999999999
 40
0.2499999999999999
 40
0.4999999999999999
 40
0.4999999999999999
 40
0.7499999999999998
 40
0.7499999999999998
 40
1.0
 40
1.0
 40
1.0
 40
1.0
 10
178.26958225737
 20
109.0560519063409
 30
0.0
 10
178.4589358519432
 20
109.0495456890996
 30
0.0
 10
178.6467427970679
 20
108.984534522279
 30
0.0
 10
178.9554651489798
 20
108.7698049987413
 30
0.0
 10
179.0806081820124
 20
108.6193788713394
 30
0.0
 10
179.2402671533924
 20
108.2760428986407
 30
0.0
 10
179.2747485905893
 20
108.0830861968382
 30
0.0
 10
179.2387570883875
 20
107.7065200185858
 30
0.0
 10
179.1677405040807
 20
107.5235537131642
 30
0.0
 10
179.0514554243377
 20
107.3734169681369
 30
0.0
  0
SPLINE
  5
134
330
1F
100
AcDbEntity
  8
0
  6
HIDDEN
 62
     7
370
    18
100
AcDbSpline
210
0.0
220
0.0
230
1.0
 70
     8
 71
     3
 72
    10
 73
     6
 74
     0
 42
0.000000001
 43
0.00000001
 40
0.0
 40
0.0
 40
0.0
 40
0.0
 40
0.5000000000000002
 40
0.5000000000000002
 40
1.0
 40
1.0
 40
1.0
 40
1.0
 10
177.4214933960593
 20
107.3734169681369
 30
0.0
 10
177.3411809249712
 20
107.4771091444755
 30
0.0
 10
177.2826549448106
 20
107.5949025336191
 30
0.0
 10
177.2133646379883
 20
107.847447603462
 30
0.0
 10
177.2035134818856
 20
107.9807108866853
 30
0.0
 10
177.2179472775584
 20
108.1107524689356
 30
0.0
  0
ARC
  5
135
330
1F
100
AcDbEntity
  8
0
  6
HIDDEN
 62
     7
370
    18
100
AcDbCircle
 10
178.2364744102
 20
108.0097321475
 30
0.0
 40
1.033968597608755
100
AcDbArc
 50
217.9817573594
 51
322.0182426406
  0
LINE
  5
136
330
1F
100
AcDbEntity
  8
0
  6
HIDDEN
 62
     7
370
    18
100
AcDbLine
 10
180.6861526609
 20
111.7739574921
 30
0.0
 11
180.5611693518
 21
111.4505132998
 31
0.0
  0
LINE
  5
137
330
1F
100
AcDbEntity
  8
0
  6
HIDDEN
 62
     7
370
    18
100
AcDbLine
 10
180.8971792477
 20
111.300775313
 30
0.0
 11
180.9846947766
 21
111.5272566708
 31
0.0
  0
SPLINE
  5
138
330
1F
100
AcDbEntity
  8
0
  6
HIDDEN
 62
     7
370
    18
100
AcDbSpline
210
0.0
220
0.0
230
1.0
 70
     8
 71
     3
 72
     9
 73
     5
 74
     0
 42
0.000000001
 43
0.00000001
 40
0.0
 40
0.0
 40
0.0
 40
0.0
 40
0.5273020339112774
 40
1.0
 40
1.0
 40
1.0
 40
1.0
 10
180.5611693517961
 20
111.4505132998383
 30
0.0
 10
180.6214505259992
 20
111.4221598979202
 30
0.0
 10
180.7357705367831
 20
111.3683891932866
 30
0.0
 10
180.8453712251884
 20
111.3224776201792
 30
0.0
 10
180.8971792476796
 20
111.3007753129514
 30
0.0
  0
LINE
  5
139
330
1F
100
AcDbEntity
  8
0
  6
HIDDEN
 62
     7
370
    18
100
AcDbLine
 10
180.5611693518
 20
111.4505132998
 30
0.0
 11
180.5300559019
 21
111.4170210824
 31
0.0
  0
SPLINE
  5
13A
330
1F
100
AcDbEntity
  8
0
  6
HIDDEN
 62
     7
370
    18
100
AcDbSpline
210
0.0
220
0.0
230
1.0
 70
     8
 71
     3
 72
    25
 73
    21
 74
     0
 42
0.000000001
 43
0.00000001
 40
0.0
 40
0.0
 40
0.0
 40
0.0
 40
0.0311657672575146
 40
0.0623322820709011
 40
0.12465813236618
 40
0.1869953221955212
 40
0.2493492853722983
 40
0.3117248743456604
 40
0.3741265451385647
 40
0.4365579732387979
 40
0.4990222195487329
 40
0.5615214184987793
 40
0.6240569448471924
 40
0.6866291809396377
 40
0.7492376917917658
 40
0.8118810722261522
 40
0.8745571291481085
 40
0.9462174720746328
 40
0.9730259929767767
 40
1.0
 40
1.0
 40
1.0
 40
1.0
 10
180.5857611707042
 20
107.4239710849207
 30
0.0
 10
180.5858284170489
 20
107.4713729835615
 30
0.0
 10
180.5859629113512
 20
107.5661779178461
 30
0.0
 10
180.5873992457731
 20
107.7571227009032
 30
0.0
 10
180.5908478263316
 20
107.9971188727467
 30
0.0
 10
180.5977663700685
 20
108.2855039141364
 30
0.0
 10
180.6073822436767
 20
108.5724979962058
 30
0.0
 10
180.6196452503459
 20
108.8563368270707
 30
0.0
 10
180.6344778816579
 20
109.1352666227962
 30
0.0
 10
180.6517893628843
 20
109.4075654871066
 30
0.0
 10
180.6714714222437
 20
109.6715584745681
 30
0.0
 10
180.693404926822
 20
109.9256062054347
 30
0.0
 10
180.7174512483305
 20
110.1681593275443
 30
0.0
 10
180.7434660425342
 20
110.3976951160013
 30
0.0
 10
180.7712839022612
 20
110.612835904811
 30
0.0
 10
180.8007395690829
 20
110.8121968819621
 30
0.0
 10
180.8331118349617
 20
111.0033457374401
 30
0.0
 10
180.8607589862105
 20
111.142850052068
 30
0.0
 10
180.8827858510654
 20
111.2417040600239
 30
0.0
 10
180.8923716171689
 20
111.2810445457466
 30
0.0
 10
180.8971792476796
 20
111.3007753129514
 30
0.0
  0
SPLINE
  5
13B
330
1F
100
AcDbEntity
  8
0
  6
HIDDEN
 62
     7
370
    18
100
AcDbSpline
210
0.0
220
0.0
230
1.0
 70
     8
 71
     3
 72
    19
 73
    15
 74
     0
 42
0.000000001
 43
0.00000001
 40
0.0
 40
0.0
 40
0.0
 40
0.0
 40
0.0431258818465981
 40
0.0849292802783144
 40
0.1254104288192204
 40
0.1891360598238457
 40
0.2507037742848105
 40
0.3758015836428992
 40
0.5007855402900537
 40
0.6270744548332753
 40
0.7504543205984159
 40
0.834032846160883
 40
0.9172115093645801
 40
1.0
 40
1.0
 40
1.0
 40
1.0
 10
180.5300593355401
 20
111.4170209736905
 30
0.0
 10
180.5231807215674
 20
111.3796568854069
 30
0.0
 10
180.5096344308251
 20
111.306074503081
 30
0.0
 10
180.4902136515881
 20
111.1874321751993
 30
0.0
 10
180.4681488854402
 20
111.0414947328571
 30
0.0
 10
180.4440168374807
 20
110.8638093048324
 30
0.0
 10
180.4094126604481
 20
110.5757178068642
 30
0.0
 10
180.3700792113595
 20
110.1824423051765
 30
0.0
 10
180.329724812976
 20
109.6621702061235
 30
0.0
 10
180.2976156240951
 20
109.1097143199307
 30
0.0
 10
180.2766950037631
 20
108.5982152698443
 30
0.0
 10
180.2645264361718
 20
108.1467915638144
 30
0.0
 10
180.2579321824383
 20
107.7571668342224
 30
0.0
 10
180.2571115241817
 20
107.5011329532353
 30
0.0
 10
180.2567021596971
 20
107.3734169680651
 30
0.0
  0
ELLIPSE
  5
13C
330
1F
100
AcDbEntity
  8
0
  6
HIDDEN
 62
     7
370
    18
100
AcDbEllipse
 10
158.5595017251
 20
108.0680096788
 30
0.0
 11
22.85995966237047
 21
3.832772232541884
 31
0.0
210
0.0
220
0.0
230
1.0
 40
0.0500652611
 41
5.843071806493382
 42
5.994806422930821
  0
LINE
  5
13D
330
1F
100
AcDbEntity
  8
0
  6
HIDDEN
 62
     7
370
    18
100
AcDbLine
 10
180.5857608348
 20
104.9480551974
 30
0.0
 11
180.5857608348
 21
107.42397061
 31
0.0
  0
LINE
  5
13E
330
1F
100
AcDbEntity
  8
0
  6
HIDDEN
 62
     7
370
    18
100
AcDbLine
 10
180.2567018238
 20
107.3734169681
 30
0.0
 11
180.2567018238
 21
106.0171336082
 31
0.0
  0
LINE
  5
13F
330
1F
100
AcDbEntity
  8
0
  6
HIDDEN
 62
     7
370
    18
100
AcDbLine
 10
177.3971527483
 20
108.4938907993
 30
0.0
 11
177.3971527483
 21
108.3382198166
 31
0.0
  0
LINE
  5
140
330
1F
100
AcDbEntity
  8
0
  6
HIDDEN
 62
     7
370
    18
100
AcDbLine
 10
179.2156544132
 20
108.5767813725
 30
0.0
 11
179.2156544132
 21
108.7324523553
 31
0.0
  0
LINE
  5
141
330
1F
100
AcDbEntity
  8
0
  6
HIDDEN
 62
     7
370
    18
100
AcDbLine
 10
177.2572944072
 20
109.2935981394
 30
0.0
 11
177.2572944072
 21
109.1379271566
 31
0.0
  0
LINE
  5
142
330
1F
100
AcDbEntity
  8
0
  6
HIDDEN
 62
     7
370
    18
100
AcDbLine
 10
179.0757960721
 20
109.3764887126
 30
0.0
 11
179.0757960721
 21
109.5321596954
 31
0.0
  0
SPLINE
  5
143
330
1F
100
AcDbEntity
  8
0
  6
HIDDEN
 62
     7
370
    18
100
AcDbSpline
210
0.0
220
0.0
230
1.0
 70
     8
 71
     3
 72
    11
 73
     7
 74
     0
 42
0.000000001
 43
0.00000001
 40
0.0
 40
0.0
 40
0.0
 40
0.0
 40
0.1595427147341426
 40
0.5025117585950831
 40
0.8462895009691996
 40
1.0
 40
1.0
 40
1.0
 40
1.0
 10
177.0825017580385
 20
108.4900671892256
 30
0.0
 10
177.0762998271522
 20
108.5347415098634
 30
0.0
 10
177.0567656027188
 20
108.6754522371765
 30
0.0
 10
177.0798118118985
 20
108.9150330272493
 30
0.0
 10
177.1491052795409
 20
109.14737659586
 30
0.0
 10
177.2322521634565
 20
109.2624483406965
 30
0.0
 10
177.2579423164206
 20
109.2980024178606
 30
0.0
  0
LWPOLYLINE
  5
144
330
1F
100
AcDbEntity
  8
0
  6
HIDDEN
 62
     7
370
    18
100
AcDbPolyline
 90
       24
 70
   128
 43
0.0
 10
177.4075156697
 20
109.4849347545
 10
177.5684664461
 20
109.6274387492
 10
177.8314897112
 20
109.7618240127
 10
178.1202034613
 20
109.8270438984
 10
178.4160593365
 20
109.8191302246
 10
178.7001915763
 20
109.7387979996
 10
178.9545565113
 20
109.5913448464
 10
179.1631430281
 20
109.3861924187
 10
179.3127964033
 20
109.1362650163
 10
179.393940007
 20
108.8572536357
 10
179.4011636664
 20
108.5667845946
 10
179.3336895143
 20
108.2834442262
 10
179.195675328
 20
108.0256721518
 10
178.9960147756
 20
107.8102253913
 10
178.7476894325
 20
107.6510207506
 10
178.4668110665
 20
107.5582002401
 10
178.1714803854
 20
107.5375256957
 10
177.8805782186
 20
107.5901027145
 10
177.612615376
 20
107.7123802659
 10
177.3845039376
 20
107.896471186
 10
177.2106030549
 20
108.1307300944
 10
177.1019559386
 20
108.4004478017
 10
177.082501758
 20
108.4900671892
 10
177.082501758
 20
108.4900671892
  0
LINE
  5
145
330
1F
100
AcDbEntity
  8
0
  6
HIDDEN
 62
     7
370
    18
100
AcDbLine
 10
176.9864744102
 20
108.6489764514
 30
0.0
 11
176.9864744102
 21
108.2278796206
 31
0.0
  0
LINE
  5
146
330
1F
100
AcDbEntity
  8
0
  6
HIDDEN
 62
     7
370
    18
100
AcDbLine
 10
179.4864744102
 20
108.2278796206
 30
0.0
 11
179.4864744102
 21
108.6489764514
 31
0.0
  0
LINE
  5
147
330
1F
100
AcDbEntity
  8
0
  6
HIDDEN
 62
     7
370
    18
100
AcDbLine
 10
181.1557731842
 20
106.3118969453
 30
0.0
 11
181.2523651193
 21
106.4099393935
 31
0.0
  0
LINE
  5
148
330
1F
100
AcDbEntity
  8
0
  6
HIDDEN
 62
     7
370
    18
100
AcDbLine
 10
176.3784239966
 20
109.0922128846
 30
0.0
 11
176.3784239966
 21
108.9619767514
 31
0.0
  0
LINE
  5
149
330
1F
100
AcDbEntity
  8
0
  6
HIDDEN
 62
     7
370
    18
100
AcDbLine
 10
180.2284239966
 20
108.9619767514
 30
0.0
 11
180.2284239966
 21
109.0922128846
 31
0.0
  0
SPLINE
  5
14A
330
1F
100
AcDbEntity
  8
0
  6
HIDDEN
 62
     7
370
    18
100
AcDbSpline
210
0.0
220
0.0
230
1.0
 70
     8
 71
     3
 72
    21
 73
    17
 74
     0
 42
0.000000001
 43
0.00000001
 40
0.0
 40
0.0
 40
0.0
 40
0.0
 40
0.057052047906393
 40
0.131796526503595
 40
0.2061688175201299
 40
0.2798817367918381
 40
0.3528452048789004
 40
0.4251406174226831
 40
0.4969570682240472
 40
0.5685364292152197
 40
0.6401025123617252
 40
0.7118686727130386
 40
0.7840805390385028
 40
0.8569344038488743
 40
0.9305276080450444
 40
1.0
 40
1.0
 40
1.0
 40
1.0
 10
179.6965929706672
 20
108.7721006233322
 30
0.0
 10
179.6960123496313
 20
108.691901347579
 30
0.0
 10
179.6946710509656
 20
108.5066321703933
 30
0.0
 10
179.6044501486928
 20
108.2260841799563
 30
0.0
 10
179.4454056745303
 20
107.9494900256416
 30
0.0
 10
179.2227244174335
 20
107.7164259430094
 30
0.0
 10
178.9520040404614
 20
107.5395363053379
 30
0.0
 10
178.6474977584338
 20
107.4279362392303
 30
0.0
 10
178.3258923647363
 20
107.3869119988502
 30
0.0
 10
178.0041481191042
 20
107.417926546798
 30
0.0
 10
177.6989499965599
 20
107.5187038345072
 30
0.0
 10
177.4259176776121
 20
107.68350702809
 30
0.0
 10
177.1982095158599
 20
107.9036918227559
 30
0.0
 10
177.0288657556092
 20
108.1682777242613
 30
0.0
 10
176.9226889094536
 20
108.4579431988689
 30
0.0
 10
176.9097211277116
 20
108.6587037258337
 30
0.0
 10
176.903423996604
 20
108.7561926707206
 30
0.0
  0
LINE
  5
14B
330
1F
100
AcDbEntity
  8
0
  6
HIDDEN
 62
     7
370
    18
100
AcDbLine
 10
176.9034239966
 20
108.7561926707
 30
0.0
 11
176.9034239966
 21
108.6789302217
 31
0.0
  0
LINE
  5
14C
330
1F
100
AcDbEntity
  8
0
  6
HIDDEN
 62
     7
370
    18
100
AcDbLine
 10
179.7034239966
 20
108.6789302217
 30
0.0
 11
179.7034239966
 21
108.7561926707
 31
0.0
  0
LINE
  5
14D
330
1F
100
AcDbEntity
  8
0
  6
HIDDEN
 62
     7
370
    18
100
AcDbLine
 10
101.4784239966
 20
104.6180096788
 30
0.0
 11
102.7774621023
 21
105.3680096788
 31
0.0
  0
LINE
  5
14E
330
1F
100
AcDbEntity
  8
0
  6
HIDDEN
 62
     7
370
    18
100
AcDbLine
 10
102.7774621023
 20
108.3680096788
 30
0.0
 11
101.4784239966
 21
109.1180096788
 31
0.0
  0
LINE
  5
14F
330
1F
100
AcDbEntity
  8
0
  6
HIDDEN
 62
     7
370
    18
100
AcDbLine
 10
168.3721833956
 20
109.0102650761
 30
0.0
 11
166.3570826206
 21
108.3555191444
 31
0.0
  0
LINE
  5
150
330
1F
100
AcDbEntity
  8
0
  6
HIDDEN
 62
     7
370
    18
100
AcDbLine
 10
166.5657437302
 20
105.268930576
 30
0.0
 11
170.8082292426
 21
106.64739768
 31
0.0
  0
LINE
  5
151
330
1F
100
AcDbEntity
  8
0
  6
HIDDEN
 62
     7
370
    18
100
AcDbLine
 10
102.7774621023
 20
105.3680096788
 30
0.0
 11
166.4784239966
 21
105.3680096788
 31
0.0
  0
LINE
  5
152
330
1F
100
AcDbEntity
  8
0
  6
HIDDEN
 62
     7
370
    18
100
AcDbLine
 10
166.4501574533
 20
108.3680096788
 30
0.0
 11
102.7774621023
 21
108.3680096788
 31
0.0
  0
LINE
  5
153
330
1F
100
AcDbEntity
  8
0
  6
HIDDEN
 62
     7
370
    18
100
AcDbLine
 10
174.7364744102
 20
106.0447875448
 30
0.0
 11
174.7364744102
 21
105.6453967362
 31
0.0
  0
LINE
  5
154
330
1F
100
AcDbEntity
  8
0
  6
HIDDEN
 62
     7
370
    18
100
AcDbLine
 10
176.7364744102
 20
105.6453967362
 30
0.0
 11
176.7364744102
 21
105.6662345175
 31
0.0
  0
LINE
  5
155
330
1F
100
AcDbEntity
  8
0
  6
HIDDEN
 62
     7
370
    18
100
AcDbLine
 10
166.4784239966
 20
105.3680096788
 30
0.0
 11
166.515978243
 21
105.4305104406
 31
0.0
  0
LINE
  5
156
330
1F
100
AcDbEntity
  8
0
  6
HIDDEN
 62
     7
370
    18
100
AcDbLine
 10
177.2114744102
 20
108.5439193039
 30
0.0
 11
177.2114744102
 21
107.9940948061
 31
0.0
  0
LINE
  5
157
330
1F
100
AcDbEntity
  8
0
  6
HIDDEN
 62
     7
370
    18
100
AcDbLine
 10
179.2614744102
 20
107.9947521191
 30
0.0
 11
179.2614744102
 21
108.5439193039
 31
0.0
  0
LINE
  5
158
330
1F
100
AcDbEntity
  8
VERMASSUNG
100
AcDbLine
 10
175.7751432716
 20
106.8680096788
 30
0.0
 11
176.3109326823
 21
106.8680096788
 31
0.0
  0
LINE
  5
159
330
1F
100
AcDbEntity
  8
VERMASSUNG
100
AcDbLine
 10
143.9292004316
 20
112.7430096788
 30
0.0
 11
143.9292004316
 21
100.9930096788
 31
0.0
  0
ARC
  5
15A
330
1F
100
AcDbEntity
  8
VERMASSUNG
100
AcDbCircle
 10
151.9784239966
 20
141.6430096788
 30
0.0
 40
30.00000000000001
100
AcDbArc
 50
243.1890965757
 51
270.0
  0
POINT
  5
15B
330
1F
100
AcDbEntity
  8
VERMASSUNG
100
AcDbPoint
 10
181.4784239966
 20
112.7430096788
 30
0.0
  0
DIMENSION
  5
15C
330
1F
100
AcDbEntity
  8
VERMASSUNG
100
AcDbDimension
  2
_D
 10
187.6206028498
 20
100.9930096788
 30
0.0
 11
187.6206028498
 21
100.2213761942
 31
0.0
 70
   160
  1
%%c<>-17.1
 71
     2
 42
-1.0
  3
SLDDIMSTYLE0
100
AcDbAlignedDimension
 13
181.4784239966
 23
112.7430096788
 33
0.0
 14
181.4784239966
 24
100.9930096788
 34
0.0
 50
90.0
100
AcDbRotatedDimension
  0
DIMENSION
  5
168
330
1F
100
AcDbEntity
  8
VERMASSUNG
100
AcDbDimension
  2
_D_1
 10
101.4784239966
 20
126.0481803408
 30
0.0
 11
141.4784239966
 21
126.0481803408
 31
0.0
 70
   160
  1
<>
 71
     2
 42
-1.0
  3
SLDDIMSTYLE1
100
AcDbAlignedDimension
 13
181.4784239966
 23
112.7430096788
 33
0.0
 14
101.4784239966
 24
113.0680096788
 34
0.0
100
AcDbRotatedDimension
  0
DIMENSION
  5
173
330
1F
100
AcDbEntity
  8
VERMASSUNG
100
AcDbDimension
  2
_D_2
 10
181.4784239966
 20
120.0481803408
 30
0.0
 11
162.7038122141
 21
120.0481803408
 31
0.0
 70
   160
  1
<>
 71
     2
 42
-1.0
  3
SLDDIMSTYLE2
100
AcDbAlignedDimension
 13
143.9292004316
 23
112.7430096788
 33
0.0
 14
181.4784239966
 24
112.7430096788
 34
0.0
100
AcDbRotatedDimension
  0
DIMENSION
  5
17E
330
1F
100
AcDbEntity
  8
VERMASSUNG
100
AcDbDimension
  2
_D_3
 10
97.0202447525
 20
98.8680096788
 30
0.0
 11
97.0202447525
 21
106.1220583341
 31
0.0
 70
   160
  1
%%c<>
 71
     2
 42
-1.0
  3
SLDDIMSTYLE1
100
AcDbAlignedDimension
 13
112.7784239966
 23
114.8680096788
 33
0.0
 14
102.8534239966
 24
98.8680096788
 34
0.0
 50
90.0
100
AcDbRotatedDimension
  0
LINE
  5
189
330
1F
100
AcDbEntity
  8
VERMASSUNG
  6
CENTERX2
 62
     7
370
    18
100
AcDbLine
 10
99.4784239966
 20
106.8680096788
 30
0.0
 11
177.2117337417
 21
106.8680096788
 31
0.0
  0
OLE2FRAME
  5
18A
330
1F
100
AcDbEntity
  8
0
100
AcDbOle2Frame
 70
     2
  3
Paintbrush-Bild
 10
13.8511154363
 20
38.264191557
 30
0.0
 11
51.6290888628
 21
31.9806341108
 31
0.0
 71
     2
 72
     0
 73
     1
 90
    12928
310
80552BED0767C5B32B40DDAF6807D121434000000000000000006FFBDDFB85D0
310
4940DDAF6807D121434000000000000000006FFBDDFB85D04940416F4BD60AFB
310
3F4000000000000000002BED0767C5B32B40416F4BD60AFB3F40000000000000
310
0000000000000100000000010000010000000100000000000100000000320000
310
D0CF11E0A1B11AE1000000000000000000000000000000003E000300FEFF0900
310
0600000000000000000000000100000001000000000000000010000002000000
310
01000000FEFFFFFF0000000000000000FFFFFFFFFFFFFFFFFFFFFFFFFFFFFFFF
310
FFFFFFFFFFFFFFFFFFFFFFFFFFFFFFFFFFFFFFFFFFFFFFFFFFFFFFFFFFFFFFFF
310
FFFFFFFFFFFFFFFFFFFFFFFFFFFFFFFFFFFFFFFFFFFFFFFFFFFFFFFFFFFFFFFF
310
FFFFFFFFFFFFFFFFFFFFFFFFFFFFFFFFFFFFFFFFFFFFFFFFFFFFFFFFFFFFFFFF
310
FFFFFFFFFFFFFFFFFFFFFFFFFFFFFFFFFFFFFFFFFFFFFFFFFFFFFFFFFFFFFFFF
310
FFFFFFFFFFFFFFFFFFFFFFFFFFFFFFFFFFFFFFFFFFFFFFFFFFFFFFFFFFFFFFFF
310
FFFFFFFFFFFFFFFFFFFFFFFFFFFFFFFFFFFFFFFFFFFFFFFFFFFFFFFFFFFFFFFF
310
FFFFFFFFFFFFFFFFFFFFFFFFFFFFFFFFFFFFFFFFFFFFFFFFFFFFFFFFFFFFFFFF
310
FFFFFFFFFFFFFFFFFFFFFFFFFFFFFFFFFFFFFFFFFFFFFFFFFFFFFFFFFFFFFFFF
310
FFFFFFFFFFFFFFFFFFFFFFFFFFFFFFFFFFFFFFFFFFFFFFFFFFFFFFFFFFFFFFFF
310
FFFFFFFFFFFFFFFFFFFFFFFFFFFFFFFFFFFFFFFFFFFFFFFFFFFFFFFFFFFFFFFF
310
FFFFFFFFFFFFFFFFFFFFFFFFFFFFFFFFFFFFFFFFFFFFFFFFFFFFFFFFFFFFFFFF
310
FFFFFFFFFFFFFFFFFFFFFFFFFFFFFFFFFFFFFFFFFFFFFFFFFFFFFFFFFFFFFFFF
310
FFFFFFFFFFFFFFFFFFFFFFFFFFFFFFFFFFFFFFFFFFFFFFFFFFFFFFFFFFFFFFFF
310
FDFFFFFFFEFFFFFFFEFFFFFFFEFFFFFF05000000060000000700000008000000
310
090000000A0000000B0000000C0000000D0000000E0000000F00000010000000
310
11000000120000001300000014000000150000001600000017000000FEFFFFFF
310
FFFFFFFFFFFFFFFFFFFFFFFFFFFFFFFFFFFFFFFFFFFFFFFFFFFFFFFFFFFFFFFF
310
FFFFFFFFFFFFFFFFFFFFFFFFFFFFFFFFFFFFFFFFFFFFFFFFFFFFFFFFFFFFFFFF
310
FFFFFFFFFFFFFFFFFFFFFFFFFFFFFFFFFFFFFFFFFFFFFFFFFFFFFFFFFFFFFFFF
310
FFFFFFFFFFFFFFFFFFFFFFFFFFFFFFFFFFFFFFFFFFFFFFFFFFFFFFFFFFFFFFFF
310
FFFFFFFFFFFFFFFFFFFFFFFFFFFFFFFFFFFFFFFFFFFFFFFFFFFFFFFFFFFFFFFF
310
FFFFFFFFFFFFFFFFFFFFFFFFFFFFFFFFFFFFFFFFFFFFFFFFFFFFFFFFFFFFFFFF
310
FFFFFFFFFFFFFFFFFFFFFFFFFFFFFFFFFFFFFFFFFFFFFFFFFFFFFFFFFFFFFFFF
310
FFFFFFFFFFFFFFFFFFFFFFFFFFFFFFFFFFFFFFFFFFFFFFFFFFFFFFFFFFFFFFFF
310
FFFFFFFFFFFFFFFFFFFFFFFFFFFFFFFFFFFFFFFFFFFFFFFFFFFFFFFFFFFFFFFF
310
FFFFFFFFFFFFFFFFFFFFFFFFFFFFFFFFFFFFFFFFFFFFFFFFFFFFFFFFFFFFFFFF
310
FFFFFFFFFFFFFFFFFFFFFFFFFFFFFFFFFFFFFFFFFFFFFFFFFFFFFFFFFFFFFFFF
310
FFFFFFFFFFFFFFFFFFFFFFFFFFFFFFFFFFFFFFFFFFFFFFFFFFFFFFFFFFFFFFFF
310
FFFFFFFFFFFFFFFFFFFFFFFFFFFFFFFFFFFFFFFFFFFFFFFFFFFFFFFFFFFFFFFF
310
52006F006F007400200045006E00740072007900000000000000000000000000
310
0000000000000000000000000000000000000000000000000000000000000000
310
16000500FFFFFFFFFFFFFFFF020000000A00030000000000C000000000000046
310
000000000000000000000000E0AF4A99EE60D60103000000C000000000000000
310
01004F006C006500000000000000000000000000000000000000000000000000
310
0000000000000000000000000000000000000000000000000000000000000000
310
0A000200FFFFFFFFFFFFFFFFFFFFFFFF00000000000000000000000000000000
310
0000000000000000000000000000000000000000000000001400000000000000
310
010043006F006D0070004F0062006A0000000000000000000000000000000000
310
0000000000000000000000000000000000000000000000000000000000000000
310
120002010100000003000000FFFFFFFF00000000000000000000000000000000
310
0000000000000000000000000000000000000000010000004D00000000000000
310
01004F006C006500310030004E00610074006900760065000000000000000000
310
0000000000000000000000000000000000000000000000000000000000000000
310
1A000200FFFFFFFFFFFFFFFFFFFFFFFF00000000000000000000000000000000
310
0000000000000000000000000000000000000000040000002426000000000000
310
FEFFFFFF02000000FEFFFFFFFFFFFFFFFFFFFFFFFFFFFFFFFFFFFFFFFFFFFFFF
310
FFFFFFFFFFFFFFFFFFFFFFFFFFFFFFFFFFFFFFFFFFFFFFFFFFFFFFFFFFFFFFFF
310
FFFFFFFFFFFFFFFFFFFFFFFFFFFFFFFFFFFFFFFFFFFFFFFFFFFFFFFFFFFFFFFF
310
FFFFFFFFFFFFFFFFFFFFFFFFFFFFFFFFFFFFFFFFFFFFFFFFFFFFFFFFFFFFFFFF
310
FFFFFFFFFFFFFFFFFFFFFFFFFFFFFFFFFFFFFFFFFFFFFFFFFFFFFFFFFFFFFFFF
310
FFFFFFFFFFFFFFFFFFFFFFFFFFFFFFFFFFFFFFFFFFFFFFFFFFFFFFFFFFFFFFFF
310
FFFFFFFFFFFFFFFFFFFFFFFFFFFFFFFFFFFFFFFFFFFFFFFFFFFFFFFFFFFFFFFF
310
FFFFFFFFFFFFFFFFFFFFFFFFFFFFFFFFFFFFFFFFFFFFFFFFFFFFFFFFFFFFFFFF
310
FFFFFFFFFFFFFFFFFFFFFFFFFFFFFFFFFFFFFFFFFFFFFFFFFFFFFFFFFFFFFFFF
310
FFFFFFFFFFFFFFFFFFFFFFFFFFFFFFFFFFFFFFFFFFFFFFFFFFFFFFFFFFFFFFFF
310
FFFFFFFFFFFFFFFFFFFFFFFFFFFFFFFFFFFFFFFFFFFFFFFFFFFFFFFFFFFFFFFF
310
FFFFFFFFFFFFFFFFFFFFFFFFFFFFFFFFFFFFFFFFFFFFFFFFFFFFFFFFFFFFFFFF
310
FFFFFFFFFFFFFFFFFFFFFFFFFFFFFFFFFFFFFFFFFFFFFFFFFFFFFFFFFFFFFFFF
310
FFFFFFFFFFFFFFFFFFFFFFFFFFFFFFFFFFFFFFFFFFFFFFFFFFFFFFFFFFFFFFFF
310
FFFFFFFFFFFFFFFFFFFFFFFFFFFFFFFFFFFFFFFFFFFFFFFFFFFFFFFFFFFFFFFF
310
FFFFFFFFFFFFFFFFFFFFFFFFFFFFFFFFFFFFFFFFFFFFFFFFFFFFFFFFFFFFFFFF
310
0100000200000000000000000000000000000000000000000000000000000000
310
0000000000000000000000000000000000000000000000000000000000000000
310
0100FEFF030A0000FFFFFFFF0A00030000000000C00000000000004607000000
310
5042727573680007000000504272757368000700000050427275736800F439B2
310
7100000000000000000000000000000000000000000000000000000000000000
310
0000000000000000000000000000000000000000000000000000000000000000
310
0000000000000000000000000000000000000000000000000000000000000000
310
0000000000000000000000000000000000000000000000000000000000000000
310
0000000000000000000000000000000000000000000000000000000000000000
310
0000000000000000000000000000000000000000000000000000000000000000
310
0000000000000000000000000000000000000000000000000000000000000000
310
0000000000000000000000000000000000000000000000000000000000000000
310
0000000000000000000000000000000000000000000000000000000000000000
310
0000000000000000000000000000000000000000000000000000000000000000
310
0000000000000000000000000000000000000000000000000000000000000000
310
0000000000000000000000000000000000000000000000000000000000000000
310
20260000424D0E260000000000003E00000028000000B40200006E0000000100
310
01000000000000000000130B0000130B00000200000002000000000000FFFFFF
310
FFFFFFFFFFFFFFFFFFFFFFFFFFFFFFFFFFFFFFFFFFFFFFFFFFFFFFFFFFFFFFFF
310
FFFFFFFFFFFFFFFFFFFFFFFFFFFFFFFFFFFFFFFFFFFFFFFFFFFFFFFFFFFFFFFF
310
FFFFFFFFFFFFFFFFFFFFFFFFFFFFFFFFFFFFFFFFFFFFFFFFF000FFFFFFFFFFFF
310
FFFFFFFFFFFFFFFFFFFFFFFFFFFFFFFFFFFFFFFFFFFFFFFFFFFFFFFFFFFFFFFF
310
FFFFFFFFFFFFFFFFFFFFFFFFFFFFFFFFFFFFFFFFFFFFFFFFFFFFFFFFFFFFFFFF
310
FFFFFFFFFFFFFFFFFFFFFFFFFFFFFFFFF000FFFFFFFFFFFFFFFFFFFFFFFFFFFF
310
FFFFFFFFFFFFFFFFFFFFFFFFFFFFFFFFFFFFFFFFFFFFFFFFFFFFFFFFFFFFFFFF
310
FFFFFFFFFFFFFFFFFFFFFFFFFFFFFFFFFFFFFFFFFFFFFFFFFFFFFFFFFFFFFFFF
310
FFFFFFFFFFFFFFFFF000FFFFFFFFFFFFFFFFFFFFFFFFFFFFFFFFFFFFFFFFFFFF
310
FFFFFFFFFFFFFFFFFFFFFFFFFFFFFFFFFFFFFFFFFFFFFFFFFFFFFFFFFFFFFFFF
310
FFFFFFFFFFFFFFFFFFFFFFFFFFFFFFFFFFFFFFFFFFFFFFFFFFFFFFFFFFFFFFFF
310
F000FFFFFFFFFFFFFFFFFFFFFFFFFFFFFFFFFFFFFFFFFFFFFFFFFFFFFFFFFFFF
310
FFFFFFFFFFFFFFFFFFFFFFFFFFFFFFFFFFFFFFFFFFFFFFFFFFFFFFFFFFFFFFFF
310
FFFFFFFFFFFFFFFFFFFFFFFFFFFFFFFFFFFFFFFFFFFFFFFFF000FFFFFFFFFFFF
310
FFFFFFFFFFFFFFFFFFFFFFFFFFFFFFFFFFFFFFFFFFFFFFFFFFFFFFFFFFFFFFFF
310
FFFFFFFFFFFFFFFFFFFFFFFFFFFFFFFFFFFFFFFFFFFFFFFFFFFFFFFFFFFFFFFF
310
FFFFFFFFFFFFFFFFFFFFFFFFFFFFFFFFF000FFFFFFFFFFFFFFFFFFFFFFFFFFFF
310
FFFFFFFFFFFFFFFFFFFFFFFFFFFFFFFFFFFFFFFFFFFFFFFFFFFFFFFFFFFFFFFF
310
FFFFFFFFFFFFFFFFFFFFFFFFFFFFFFFFFFFFFFFFFFFFFFFFFFFFFFFFFFFFFFFF
310
FFFFFFFFFFFFFFFFF000FFFFFFFFFFFFFFFFFFFFFFFFFFFFFFFFFFFFFFFFFFFF
310
FFFFFFFFFFFFFFFFFFFFFFFFFFFFFFFFFFFFFFFFFFFFFFFFFFFFFFFFFFFFFFFF
310
FFFFFFFFFFFFFFFFFFFFFFFFFFFFFFFFFFFFFFFFFFFFFFFFFFFFFFFFFFFFFFFF
310
F000FFFFFFFFFFFFFFFFFFFFFFFFFFFFFFFFFFFFFFFFFFFFFFFFFFFFFFFFFFFF
310
FFFFFFFFFFFFFFFFFFFFFFFFFFFFFFFFFFFFFFFFFFFFFFFFFFFFFFFFFFFFFFFF
310
FFFFFFFFFFFFFFFFFFFFFFFFFFFFFFFFFFFFFFFFFFFFFFFFF000FFFFFFFFFFFF
310
FFFFFFFFFFFFFFFFFFFFFFFFFFFFFFFFFFFFFFFFFFFFFFFFFFFFFFFFFFFFFFFF
310
FFFFFFFFFFFFFFFFFFFFFFFFFFFFFFFFFFFFFFFFFFFFFFFFFFFFFFFFFFFFFFFF
310
FFFFFFFFFFFFFFFFFFFFFFFFFFFFFFFFF000FFFFFFFFFFFFFFFFFFFFFFFFFFFF
310
FFFFFFFFFFFFFFFFFFFFFFFFFFFFFFFFFFFFFFFFFFFFFFFFFFFFFFFFFFFFFFFF
310
FFFFFFFFFFFFFFFFFFFFFFFFFFFFFFFFFFFFFFFFFFFFFFFFFFFFFFFFFFFFFFFF
310
FFFFFFFFFFFFFFFFF000FFFFFFFFFFFFFFFFFFFFFFFFFFFFFFFFFFFFFFFFFFFF
310
FFFFFFFFFFFFFFFFFFFFFFFFFFFFFFFFFFFFFFFFFFFFFFFFFFFFFFFFFFFFFFFF
310
FFFFFFFFFFFFFFFFFFFFFFFFFFFFFFFFFFFFFFFFFFFFFFFFFFFFFFFFFFFFFFFF
310
F000FFFFFFFFFFFFFFFFFFFFFFFFFFFFFFFFFFFFFFFFFFFFFFFFFFFFFFFFFFFF
310
FFFFFFFFFFFFFFFFFFFFFFFFFFFFFFFFFFFFFFFFFFFFFFFFFFFFFFFFFFFFFFFF
310
FFFFFFFFFFFFFFFFFFFFFFFFFFFFFFFFFFFFFFFFFFFFFFFFF000FFFFFFFFFFFF
310
FFFFFFFFFFFFFFFFFFFFFFFFFFFFFFFFFFFFFFFFFFFFFFFFFFFFFFFFFFFFFFFF
310
FFFFFFFFFFFFFFFFFFFFFFFFFFFFFFFFFFFFFFFFFFFFFFFFFFFFFFFFFFFFFFFF
310
FFFFFFFFFFFFFFFFFFFFFFFFFFFFFFFFF000FFFFFFFFFFFFFFFFFFFFFFFFFFFF
310
FFFFFFFFFFFFFFFFFFFFFFFFFFFFFFFFFFFFFFFFFFFFFFFFFFFFFFFFFFFFFFFF
310
FFFFFFFFFFFFFFFFFFFFFFFFFFFFFFFFFFFFFFFFFFFFFFFFFFFFFFFFFFFFFFFF
310
FFFFFFFFFFFFFFFFF000FFFFFFFFFFFFFFFFFFFFFFFFFFFFFFFFFFFFFFFFFFFF
310
FFFFFFFFFFFFFFFFFFFFFFFFFFFFFFFFFFFFFFFFFFFFFFFFFFFFFFFFFFFFFFFF
310
FFFFFFFFFFFFFFFFFFFFFFFFFFFFFFFFFFFFFFFFFFFFFFFFFFFFFFFFFFFFFFFF
310
F000FFFFFFFFFFFFFFFFFFFFFFFFFFFFFFFFFFFFFFFFFFFFFFFFFFFFFFFFFFFF
310
FFFFFFFFFFFFFFFFFFFFFFFFFFFFFFFFFFFFFFFFFFFFFFFFFFFFFFFFFFFFFFFF
310
FFFFFFFFFFFFFFFFFFFFFFFFFFFFFFFFFFFFFFFFFFFFFFFFF000FFFFFFFFFFFF
310
FFFFFFFFFFFFFFFFFFFFFFFFFFFFFFFFFFFFFFFFFFFFFFFFFFFFFFFFFFFFFFFF
310
FFFFFFFFFFFFFFFFFFFFFFFFFFFFFFFFFFFFFFFFFFFFFFFFFFFFFFFFFFFFFFFF
310
FFFFFFFFFFFFFFFFFFFFFFFFFFFFFFFFF000FFFFFFFFFFFFFFFFFFFFFFFFFFFF
310
FFFFFFFFFFFFFFFFFFFFFFFFFFFFFFFFFFFFFFFFFFFFFFFFFFFFFFFFFFFFFFFF
310
FFFFFFFFFFFFFFFFFFFFFFFFFFFFFFFFFFFFFFFFFFFFFFFFFFFFFFFFFFFFFFFF
310
FFFFFFFFFFFFFFFFF000FFFFF80003FFFFFFFFFFFFFFFFFFFFFFFFFFFFFFFFFF
310
FFFFF00007FFFFFFFFFF00007FFFFFF800000000000000007FFFFFFFFFFFFFFF
310
FFFFFFFC001FFFFFFFFFFFFFFC001FFFFFFFFFFFFFFFFFFFFFFFFFFE0007FFFF
310
F000FFFF8000007FFFFFFFF8000FFFFFC0007FFFFF80007FFFFF0000007FFFFF
310
FFF8000007FFFFF800000000000000007FFFFFF0001FFFFFFFFFFFC00001FFFF
310
FFFFFFFFC00001FFFFFFFF000000000003FFFFE000007FFFF000FFFE0000000F
310
FFFFFFF0000FFFFF80007FFFFF80007FFFFC0000001FFFFFFFC0000001FFFFF8
310
00000000000000007FFFFFF0001FFFFFFFFFFE0000003FFFFFFFFFFE0000003F
310
FFFFFF000000000003FFFF0000000FFFF000FFF800000003FFFFFFF00007FFFF
310
80007FFFFF80007FFFF000000007FFFFFF000000003FFFF80000000000000000
310
7FFFFFF0001FFFFFFFFFF80000000FFFFFFFFFF80000000FFFFFFF0000000000
310
03FFFC00000003FFF000FFE000000000FFFFFFF00007FFFF80003FFFFF80007F
310
FFC000000001FFFFFC000000001FFFF800000000000000007FFFFFF0001FFFFF
310
FFFFE000000003FFFFFFFFE000000003FFFFFF000000000003FFF000000000FF
310
F000FF80000000007FFFFFF00007FFFF80003FFFFF80007FFF8000000000FFFF
310
F80000000007FFF800000000000000007FFFFFF0001FFFFFFFFFC000000001FF
310
FFFFFFC000000001FFFFFF000000000003FFC0000000007FF000FF0000000000
310
3FFFFFE00007FFFF00003FFFFF80007FFE00000000003FFFF00000000003FFF8
310
00000000000000007FFFFFF0001FFFFFFFFF8000000000FFFFFFFF8000000000
310
FFFFFF000000000003FF80000000003FF000FE00000000001FFFFFE00003FFFF
310
00003FFFFF80007FFC00000000001FFFE00000000001FFF8000001FFFE000000
310
7FFFFFF0001FFFFFFFFE00000000003FFFFFFE00000000003FFFFF0000000000
310
03FF00000000001FF000FC00000000000FFFFFE00003FFFF00001FFFFF80007F
310
F800000000001FFFC00000000000FFF8000001FFFE0000007FFFFFF0001FFFFF
310
FFFC00000000001FFFFFFC00000000001FFFFF000000000003FE00000000000F
310
F000F8000000000007FFFFE00003FFFF00001FFFFF80007FF800000000000FFF
310
800000000000FFF8000001FFFE0000007FFFFFF0001FFFFFFFF800000000000F
310
FFFFF800000000000FFFFF000000000003FC000000000007F000F80000000000
310
03FFFFC00003FFFE00001FFFFF80007FF0000000000007FF0000000000007FF8
310
000001FFFE0000007FFFFFF0001FFFFFFFF0000000000007FFFFF00000000000
310
07FFFF000000000003F8000000000003F000F0000000000003FFFFC00001FFFE
310
00001FFFFF80007FE0000000000007FE0000000000003FF8000001FFFE000000
310
7FFFFFF0001FFFFFFFF0000000000007FFFFF0000000000007FFFF0000000000
310
03F800001F800003F000E00001FFF00001FFFFC00001FFFE00000FFFFF80007F
310
E00001FFE00003FE00001FFF00003FF8000001FFFE0000007FFFFFF0001FFFFF
310
FFE000003E000003FFFFE000003E000003FFFF000000000003F00001FFF80001
310
F000E00007FFFC0001FFFFC00001FFFE00000FFFFF80007FC0000FFFFC0003FC
310
0000FFFFC0001FF8000001FFFE0000007FFFFFF0001FFFFFFFC00003FFE00001
310
FFFFC00003FFE00001FFFF0001FFFFFFFFF00007FFFE0001F000E0000FFFFF00
310
00FFFF800001FFFC00000FFFFF80007FC0001FFFFE0001FC0001FFFFE0001FF8
310
000001FFFE0000007FFFFFF0001FFFFFFF80000FFFF80000FFFF80000FFFF800
310
00FFFF0003FFFFFFFFE0000FFFFF8000F000C0003FFFFF8000FFFF800000FFFC
310
000007FFFF80007F80003FFFFF0001FC0003FFFFF0001FF8000001FFFE000000
310
7FFFFFF0001FFFFFFF80003FFFFE0000FFFF80003FFFFE0000FFFF0003FFFFFF
310
FFE0003FFFFF8000F000C0003FFFFF8000FFFF800000FFFC000007FFFF80007F
310
80007FFFFF8001F80007FFFFF8000FF8000001FFFE0000007FFFFFF0001FFFFF
310
FF00007FFFFF00007FFF00007FFFFF00007FFF0003FFFFFFFFE0003FFFFFC000
310
F000C0007FFFFFC000FFFF000000FFFC000007FFFF80007F8000FFFFFF8000F8
310
000FFFFFF8000FF8000001FFFE0000007FFFFFF0001FFFFFFF0000FFFFFF8000
310
7FFF0000FFFFFF80007FFF0003FFFFFFFFC0007FFFFFC00070008000FFFFFFC0
310
00FFFF000000FFF8000007FFFF80007F8000FFFFFF8000F8000FFFFFF8000FF8
310
000001FFFE0000007FFFFFF0001FFFFFFE0001FFFFFFC0003FFE0001FFFFFFC0
310
003FFF0003FFFFFFFFC0007FFFFFE00070008000FFFFFFC0007FFF0000007FF8
310
000003FFFF80007F0001FFFFFF8000F8000FFFFFF8000FF8000001FFFE000000
310
7FFFFFF0001FFFFFFE0001FFFFFFC0003FFE0001FFFFFFC0003FFF0003FFFFFF
310
FFC000FFFFFFE00070008000FFFFFFC0007FFF0000007FF8000003FFFF80007F
310
0001FFFFFF8000F8001FFFFFF8000FF8000001FFFE0000007FFFFFF0001FFFFF
310
FE0003FFFFFFE0003FFE0003FFFFFFE0003FFF0003FFFFFFFFC000FFFFFFE000
310
70008000FFFFFFC0007FFE0000007FF8000003FFFF80007F0001FFFFFF8000F0
310
001FFFFFF8000FF8000001FFFE0000007FFFFFF0001FFFFFFC0003FFFFFFE000
310
1FFC0003FFFFFFE0001FFF0003FFFFFFFFC000FFFFFFC00070008000FFFFFF80
310
007FFE0000007FF0000003FFFF80007F0001FFFFFF0000F0001FFFFFF8000FF8
310
000001FFFE0000007FFFFFF0001FFFFFFC0007FFFFFFF0001FFC0007FFFFFFF0
310
001FFF0003FFFFFFFFC000FFFFFFC00070008001FFFFFF0000FFFE0000003FF0
310
000001FFFF80007F0001FFFFFF0000F8001FFFFFF0000FF8000001FFFE000000
310
7FFFFFF0001FFFFFFC0007FFFFFFF0001FFC0007FFFFFFF0001FFF0003FFFFFF
310
FFC001FFFFFF80007000FFFFFFFFFE0000FFFE0008003FF0008001FFFF80007F
310
FFFFFFFFFC0000FFFFFFFFFFE0000FF8000001FFFE0000007FFFFFF0001FFFFF
310
F8000FFFFFFFF8000FF8000FFFFFFFF8000FFF0003FFFFFFFFFFFFFFFFFF0000
310
7000FFFFFFFFFC0000FFFC0008003FF0008001FFFF80007FFFFFFFFFF80001FF
310
FFFFFFFF80000FF8000001FFFE0000007FFFFFF0001FFFFFF8000FFFFFFFF800
310
0FF8000FFFFFFFF8000FFF0003FFFFFFFFFFFFFFFFFE0000F000FFFFFFFFE000
310
00FFFC000C003FE000C001FFFF80007FFFFFFFFFC00001FFFFFFFFFE00001FF8
310
000001FFFE0000007FFFFFF0001FFFFFF8000FFFFFFFF8000FF8000FFFFFFFF8
310
000FFF0003FFFFFFFFFFFFFFFFF00000F000FFFFFFFE000001FFFC000C001FE0
310
00C000FFFF80007FFFFFFFFE000001FFFFFFFFE000001FF80FFFFFFFFFFFFFC0
310
7FFFFFF0001FFFFFF8000FFFFFFFF8000FF8000FFFFFFFF8000FFF0003FFFFFF
310
FFFFFFFFFF800000F000FFFFFFC0000001FFFC001C001FE001C000FFFF80007F
310
FFFFFF80000003FFFFFFF80000001FF80FFFFFFFFFFFFFC07FFFFFF0001FFFFF
310
F8001FFFFFFFFC000FF8001FFFFFFFFC000FFF0003FFFFFFFFFFFFFFF0000001
310
F000FFFFF800000001FFF8001C001FE001C000FFFF80007FFFFFF800000003FF
310
FFFF800000003FF80FFFFFFFFFFFFFC07FFFFFF0001FFFFFF8001FFFFFFFFC00
310
0FF8001FFFFFFFFC000FFF0003FFFFFFFFFFFFFE00000001F000FFFFC0000000
310
03FFF8001E001FC001E000FFFF80007FFFFF8000000007FFFFFC000000003FF8
310
0FFFFFFFFFFFFFC07FFFFFF0001FFFFFF8001FFFFFFFFC000FF8001FFFFFFFFC
310
000FFF0003FFFFFFFFFFFFE000000003F000FFFE0000000007FFF8001E000FC0
310
01E0007FFF80007FFFFE0000000007FFFFE0000000007FF80FFFFFFFFFFFFFC0
310
7FFFFFF0001FFFFFF0001FFFFFFFFC0007F0001FFFFFFFFC0007FF0003FFFFFF
310
FFFFFF0000000003F000FFF80000000007FFF8001E000FC003E0007FFF80007F
310
FFF0000000000FFFFF8000000000FFF80FFFFFFFFFFFFFC07FFFFFF0001FFFFF
310
F0001FFFFFFFFC0007F0001FFFFFFFFC0007FF0003FFFFFFFFFFFC0000000007
310
F000FFE0000000000FFFF0003E000FC003E0007FFF80007FFFC0000000001FFF
310
FE0000000001FFF80FFFFFFFFFFFFFC07FFFFFF0001FFFFFF0001FFFFFFFFC00
310
07F0001FFFFFFFFC0007FF0003FFFFFFFFFFF0000000000FF000FFC000000000
310
1FFFF0003F000F8003F0003FFF80007FFF80000000003FFFF80000000003FFF8
310
0FFFFFFFFFFFFFC07FFFFFF0001FFFFFF0001FFFFFFFFC0007F0001FFFFFFFFC
310
0007FF0003FFFFFFFFFFE0000000001FF000FF00000000007FFFF0003F000780
310
03F0003FFF80007FFF00000000007FFFF00000000007FFF80FFFFFFFFFFFFFC0
310
7FFFFFF0001FFFFFF0001FFFFFFFFC0007F0001FFFFFFFFC0007FF0003FFFFFF
310
FFFF80000000007FF000FE0000000000FFFFE0003F00078007F0003FFF80007F
310
FE0000000001FFFFE0000000001FFFF80FFFFFFFFFFFFFC07FFFFFF0001FFFFF
310
F0001FFFFFFFFC0007F0001FFFFFFFFC0007FF0003FFFFFFFFFF0000000000FF
310
F000FC0000000003FFFFE0007F00078007F0003FFF80007FFC0000000007FFFF
310
C0000000007FFFF80FFFFFFFFFFFFFC07FFFFFF0001FFFFFF8001FFFFFFFFC00
310
0FF8001FFFFFFFFC000FFF0003FFFFFFFFFE0000000003FFF000FC000000000F
310
FFFFE0007F80070007F8001FFF80007FF8000000001FFFFF8000000001FFFFF8
310
0FFFFFFFFFFFFFC07FFFFFF0001FFFFFF8001FFFFFFFFC000FF8001FFFFFFFFC
310
000FFF0003FFFFFFFFFC000000000FFFF000F8000000007FFFFFE0007F800700
310
07F8001FFF80007FF000000000FFFFFF800000000FFFFFF80FFFFFFFFFFFFFC0
310
7FFFFFF0001FFFFFF8000FFFFFFFF8000FF8000FFFFFFFF8000FFF0003FFFFFF
310
FFFC000000007FFFF000F800000007FFFFFFC0007F8003000FF8001FFF80007F
310
F000000007FFFFFF000000007FFFFFF80FFFFFFFFFFFFFC07FFFFFF0001FFFFF
310
F8000FFFFFFFF8000FF8000FFFFFFFF8000FFF0003FFFFFFFFF80000000FFFFF
310
F000F0000000FFFFFFFFC000FF8003000FF8001FFF80007FE0000000FFFFFFFF
310
0000000FFFFFFFF8000001FFFE0000007FFFFFF0001FFFFFF8000FFFFFFFF800
310
0FF8000FFFFFFFF8000FFF0003FFFFFFFFF8000000FFFFFFF000F000000FFFFF
310
FFFFC000FFC002000FF8000FFF80007FE000001FFFFFFFFE000001FFFFFFFFF8
310
000001FFFE0000007FFFFFF0001FFFFFF8000FFFFFFFF8000FF8000FFFFFFFF8
310
000FFF0003FFFFFFFFF000001FFFFFFFF000E00000FFFFFFFFFFC000FFC00200
310
0FFC000FFF80007FE00001FFFFFFFFFE00001FFFFFFFFFF8000001FFFE000000
310
7FFFFFF0001FFFFFFC000FFFFFFFF8001FFC000FFFFFFFF8001FFF0003FFFFFF
310
FFF00001FFFFFFFFF000E00007FFFFFFFFFF8000FFC000001FFC000FFF80007F
310
C0000FFFFFFFFFFE0000FFFFFFFFFFF8000001FFFE0000007FFFFFF0001FFFFF
310
FC0007FFFFFFF0001FFC0007FFFFFFF0001FFF0003FFFFFFFFF00007FFFFFFFF
310
F000E0001FFFFFFFFFFF8000FFC000001FFC000FFF80007FC0003FFFFFFFFFFE
310
0001FFFFFFFFFFF8000001FFFE0000007FFFFFF0001FFFFFFC0007FFFFFFF000
310
1FFC0007FFFFFFF0001FFF0003FFFFFFFFF0001FFFFFFFFFF000E0003FFFFF00
310
03FF8001FFE000001FFC0007FF80007FC0007FFFFF0007FC0003FFFFF0003FF8
310
000001FFFE0000007FFFFFF0001FFFFFFC0003FFFFFFE0001FFC0003FFFFFFE0
310
001FFF0003FFFFFFFFF0003FFFFFFFFFF000E0003FFFFF0001FF8001FFE00000
310
1FFE0007FF80007FC0007FFFFE0003FC0007FFFFE0003FF8000001FFFE000000
310
7FFFFFF0001FFFFFFE0003FFFFFFE0003FFE0003FFFFFFE0003FFF0003FFFFFF
310
FFF0003FFFFF8001F000E0003FFFFF0001FF0001FFE000001FFE0007FF80007F
310
C0007FFFFE0003FC0007FFFFE0003FF8000001FFFE0000007FFFFFF0001FFFFF
310
FE0001FFFFFFC0003FFE0001FFFFFFC0003FFF0003FFFFFFFFF0003FFFFF0001
310
F000E0003FFFFF0003FF0001FFE000003FFE0007FF80007FC0007FFFFE0003FC
310
0007FFFFE0003FF8000001FFFE0000007FFFFFF0001FFFFFFF0001FFFFFFC000
310
7FFF0001FFFFFFC0007FFF0003FFFFFFFFF0003FFFFF0001F000E0003FFFFE00
310
03FF0003FFF000003FFE0003FF80007FC0007FFFFC0003FE0007FFFFE0003FF8
310
000001FFFE0000007FFFFFF0001FFFFFFF0000FFFFFF80007FFF0000FFFFFF80
310
007FFF0003FFFFFFFFF0003FFFFF0001F000E0003FFFFE0003FF0003FFF00000
310
3FFF0003FF80007FC0007FFFFC0007FE0007FFFFC0003FF8000001FFFE000000
310
7FFFFFF0001FFFFFFF80007FFFFF0000FFFF80007FFFFF0000FFFF0003FFFFFF
310
FFF0003FFFFF0003F000E0003FFFFC0003FE0003FFF000003FFF0003FF80007F
310
E0003FFFF80007FE0003FFFFC0007FF8000001FFFE0000007FFFFFF0001FFFFF
310
FF80003FFFFE0000FFFF80003FFFFE0000FFFF0003FFFFFFFFF0001FFFFE0003
310
F000F0001FFFF80003FE0003FFF000007FFF0001FF80007FE0003FFFF00007FE
310
0001FFFF80007FF8000001FFFE0000007FFFFFF0001FFFFFFFC0000FFFF80001
310
FFFFC0000FFFF80001FFFF0003FFFFFFFFF0001FFFFC0003F000F0000FFFF000
310
07FE0007FFF800007FFF0001FF80007FE0001FFFE00007FF0000FFFE00007FF8
310
000001FFFE0000007FFFFFF0001FFFFFFFC00003FFE00001FFFFC00003FFE000
310
01FFFF0003FFFFFFFFF8000FFFF80003F000F00003FFC00007FC0007FFF80000
310
7FFF8001FF80007FF00007FF80000FFF00007FF80000FFF8000001FFFE000000
310
7F80000000000001FFE000003E000003FFFFE000003E000003FFFF0003FFFFFF
310
FFF80003FFE00007F000F800000000000FFC0007FFF800007FFF8001FF80007F
310
F000000000000FFF000000000000FFF8000001FFFE0000007F80000000000001
310
FFF0000000000007FFFFF0000000000007FFFF0003FFFFFFFFFC00007E000007
310
F000F800000000000FFC0007FFF80000FFFF8000FF80007FF800000000001FFF
310
800000000001FFF8000001FFFE0000007F80000000000001FFF800000000000F
310
FFFFF800000000000FFFFF0003FFFFFFFFFC00000000000FF000FC0000000000
310
1FFC0007FFFC0000FFFF8000FF80007FF800000000003FFFC00000000001FFF8
310
000001FFFE0000007F80000000000001FFF800000000000FFFFFF80000000000
310
0FFFFF0003FFFFFFFFFE00000000001FF000FE00000000003FF8000FFFFC0000
310
FFFF8000FF80007FFC00000000003FFFC00000000003FFF8000001FFFE000000
310
7F80000000000001FFFC00000000001FFFFFFC00000000001FFFFF0003FFFFFF
310
FFFF00000000001FF000FF00000000003FF8000FFFFC0000FFFFC000FF80007F
310
FE00000000007FFFE00000000007FFF8000001FFFE0000007F80000000000001
310
FFFE00000000003FFFFFFE00000000003FFFFF0003FFFFFFFFFF80000000003F
310
F000FF80000000007FF8000FFFFC0001FFFFC0007F80007FFF0000000000FFFF
310
F0000000000FFFF800000000000000007F80000000000001FFFF8000000000FF
310
FFFFFF8000000000FFFFFF0003FFFFFFFFFFC0000000007FF000FFC000000000
310
FFF8000FFFFE0001FFFFC0007F80007FFF8000000001FFFFF8000000001FFFF8
310
00000000000000007F80000000000001FFFFC000000001FFFFFFFFC000000001
310
FFFFFF0003FFFFFFFFFFE000000000FFF000FFE000000003FFF0001FFFFE0001
310
FFFFC0007F80007FFFC000000007FFFFFE000000003FFFF80000000000000000
310
7F80000000000001FFFFE000000003FFFFFFFFE000000003FFFFFF0003FFFFFF
310
FFFFF000000003FFF000FFF80000000FFFF0001FFFFE0001FFFFE0007F80007F
310
FFF00000000FFFFFFF00000000FFFFF800000000000000007F80000000000001
310
FFFFF80000000FFFFFFFFFF80000000FFFFFFF0003FFFFFFFFFFFC0000000FFF
310
F000FFFE0000003FFFF0001FFFFE0003FFFFE0003F80007FFFFC0000003FFFFF
310
FFC0000003FFFFF800000000000000007F80000000000001FFFFFE0000003FFF
310
FFFFFFFE0000003FFFFFFF0003FFFFFFFFFFFF0000003FFFF000FFFF800000FF
310
FFF0001FFFFF0003FFFFE0003F80007FFFFF000001FFFFFFFFF800001FFFFFF8
310
00000000000000007F80000000000001FFFFFFC00001FFFFFFFFFFFFC00001FF
310
FFFFFF0003FFFFFFFFFFFFC00000FFFFF000FFFFF8000FFFFFFFFFFFFFFFFFFF
310
FFFFFFFFFFFFFFFFFFFFF0001FFFFFFFFFFF0000FFFFFFF80000000000000000
310
7FFFFFFFFFFFFFFFFFFFFFFC001FFFFFFFFFFFFFFC001FFFFFFFFFFFFFFFFFFF
310
FFFFFFFC001FFFFFF000FFFFFFFFFFFFFFFFFFFFFFFFFFFFFFFFFFFFFFFFFFFF
310
FFFFFFFFFFFFFFFFFFFFFFFFFFFFFFFFFFFFFFFFFFFFFFFFFFFFFFFFFFFFFFFF
310
FFFFFFFFFFFFFFFFFFFFFFFFFFFFFFFFFFFFFFFFFFFFFFFFFFFFFFFFFFFFFFFF
310
F000FFFFFFFFFFFFFFFFFFFFFFFFFFFFFFFFFFFFFFFFFFFFFFFFFFFFFFFFFFFF
310
FFFFFFFFFFFFFFFFFFFFFFFFFFFFFFFFFFFFFFFFFFFFFFFFFFFFFFFFFFFFFFFF
310
FFFFFFFFFFFFFFFFFFFFFFFFFFFFFFFFFFFFFFFFFFFFFFFFF000FFFFFFFFFFFF
310
FFFFFFFFFFFFFFFFFFFFFFFFFFFFFFFFFFFFFFFFFFFFFFFFFFFFFFFFFFFFFFFF
310
FFFFFFFFFFFFFFFFFFFFFFFFFFFFFFFFFFFFFFFFFFFFFFFFFFFFFFFFFFFFFFFF
310
FFFFFFFFFFFFFFFFFFFFFFFFFFFFFFFFF000FFFFFFFFFFFFFFFFFFFFFFFFFFFF
310
FFFFFFFFFFFFFFFFFFFFFFFFFFFFFFFFFFFFFFFFFFFFFFFFFFFFFFFFFFFFFFFF
310
FFFFFFFFFFFFFFFFFFFFFFFFFFFFFFFFFFFFFFFFFFFFFFFFFFFFFFFFFFFFFFFF
310
FFFFFFFFFFFFFFFFF000FFFFFFFFFFFFFFFFFFFFFFFFFFFFFFFFFFFFFFFFFFFF
310
FFFFFFFFFFFFFFFFFFFFFFFFFFFFFFFFFFFFFFFFFFFFFFFFFFFFFFFFFFFFFFFF
310
FFFFFFFFFFFFFFFFFFFFFFFFFFFFFFFFFFFFFFFFFFFFFFFFFFFFFFFFFFFFFFFF
310
F000FFFFFFFFFFFFFFFFFFFFFFFFFFFFFFFFFFFFFFFFFFFFFFFFFFFFFFFFFFFF
310
FFFFFFFFFFFFFFFFFFFFFFFFFFFFFFFFFFFFFFFFFFFFFFFFFFFFFFFFFFFFFFFF
310
FFFFFFFFFFFFFFFFFFFFFFFFFFFFFFFFFFFFFFFFFFFFFFFFF000FFFFFFFFFFFF
310
FFFFFFFFFFFFFFFFFFFFFFFFFFFFFFFFFFFFFFFFFFFFFFFFFFFFFFFFFFFFFFFF
310
FFFFFFFFFFFFFFFFFFFFFFFFFFFFFFFFFFFFFFFFFFFFFFFFFFFFFFFFFFFFFFFF
310
FFFFFFFFFFFFFFFFFFFFFFFFFFFFFFFFF000FFFFFFFFFFFFFFFFFFFFFFFFFFFF
310
FFFFFFFFFFFFFFFFFFFFFFFFFFFFFFFFFFFFFFFFFFFFFFFFFFFFFFFFFFFFFFFF
310
FFFFFFFFFFFFFFFFFFFFFFFFFFFFFFFFFFFFFFFFFFFFFFFFFFFFFFFFFFFFFFFF
310
FFFFFFFFFFFFFFFFF000FFFFFFFFFFFFFFFFFFFFFFFFFFFFFFFFFFFFFFFFFFFF
310
FFFFFFFFFFFFFFFFFFFFFFFFFFFFFFFFFFFFFFFFFFFFFFFFFFFFFFFFFFFFFFFF
310
FFFFFFFFFFFFFFFFFFFFFFFFFFFFFFFFFFFFFFFFFFFFFFFFFFFFFFFFFFFFFFFF
310
F000FFFFFFFFFFFFFFFFFFFFFFFFFFFFFFFFFFFFFFFFFFFFFFFFFFFFFFFFFFFF
310
FFFFFFFFFFFFFFFFFFFFFFFFFFFFFFFFFFFFFFFFFFFFFFFFFFFFFFFFFFFFFFFF
310
FFFFFFFFFFFFFFFFFFFFFFFFFFFFFFFFFFFFFFFFFFFFFFFFF000FFFFFFFFFFFF
310
FFFFFFFFFFFFFFFFFFFFFFFFFFFFFFFFFFFFFFFFFFFFFFFFFFFFFFFFFFFFFFFF
310
FFFFFFFFFFFFFFFFFFFFFFFFFFFFFFFFFFFFFFFFFFFFFFFFFFFFFFFFFFFFFFFF
310
FFFFFFFFFFFFFFFFFFFFFFFFFFFFFFFFF000FFFFFFFFFFFFFFFFFFFFFFFFFFFF
310
FFFFFFFFFFFFFFFFFFFFFFFFFFFFFFFFFFFFFFFFFFFFFFFFFFFFFFFFFFFFFFFF
310
FFFFFFFFFFFFFFFFFFFFFFFFFFFFFFFFFFFFFFFFFFFFFFFFFFFFFFFFFFFFFFFF
310
FFFFFFFFFFFFFFFFF000FFFFFFFFFFFFFFFFFFFFFFFFFFFFFFFFFFFFFFFFFFFF
310
FFFFFFFFFFFFFFFFFFFFFFFFFFFFFFFFFFFFFFFFFFFFFFFFFFFFFFFFFFFFFFFF
310
FFFFFFFFFFFFFFFFFFFFFFFFFFFFFFFFFFFFFFFFFFFFFFFFFFFFFFFFFFFFFFFF
310
F000FFFFFFFFFFFFFFFFFFFFFFFFFFFFFFFFFFFFFFFFFFFFFFFFFFFFFFFFFFFF
310
FFFFFFFFFFFFFFFFFFFFFFFFFFFFFFFFFFFFFFFFFFFFFFFFFFFFFFFFFFFFFFFF
310
FFFFFFFFFFFFFFFFFFFFFFFFFFFFFFFFFFFFFFFFFFFFFFFFF000FFFFFFFFFFFF
310
FFFFFFFFFFFFFFFFFFFFFFFFFFFFFFFFFFFFFFFFFFFFFFFFFFFFFFFFFFFFFFFF
310
FFFFFFFFFFFFFFFFFFFFFFFFFFFFFFFFFFFFFFFFFFFFFFFFFFFFFFFFFFFFFFFF
310
FFFFFFFFFFFFFFFFFFFFFFFFFFFFFFFFF000FFFFFFFFFFFFFFFFFFFFFFFFFFFF
310
FFFFFFFFFFFFFFFFFFFFFFFFFFFFFFFFFFFFFFFFFFFFFFFFFFFFFFFFFFFFFFFF
310
FFFFFFFFFFFFFFFFFFFFFFFFFFFFFFFFFFFFFFFFFFFFFFFFFFFFFFFFFFFFFFFF
310
FFFFFFFFFFFFFFFFF000FFFFFFFFFFFFFFFFFFFFFFFFFFFFFFFFFFFFFFFFFFFF
310
FFFFFFFFFFFFFFFFFFFFFFFFFFFFFFFFFFFFFFFFFFFFFFFFFFFFFFFFFFFFFFFF
310
FFFFFFFFFFFFFFFFFFFFFFFFFFFFFFFFFFFFFFFFFFFFFFFFFFFFFFFFFFFFFFFF
310
F000FFFFFFFFFFFFFFFFFFFFFFFFFFFFFFFFFFFFFFFFFFFFFFFFFFFFFFFFFFFF
310
FFFFFFFFFFFFFFFFFFFFFFFFFFFFFFFFFFFFFFFFFFFFFFFFFFFFFFFFFFFFFFFF
310
FFFFFFFFFFFFFFFFFFFFFFFFFFFFFFFFFFFFFFFFFFFFFFFFF000FFFFFFFFFFFF
310
FFFFFFFFFFFFFFFFFFFFFFFFFFFFFFFFFFFFFFFFFFFFFFFFFFFFFFFFFFFFFFFF
310
FFFFFFFFFFFFFFFFFFFFFFFFFFFFFFFFFFFFFFFFFFFFFFFFFFFFFFFFFFFFFFFF
310
FFFFFFFFFFFFFFFFFFFFFFFFFFFFFFFFF000FFFFFFFFFFFFFFFFFFFFFFFFFFFF
310
FFFFFFFFFFFFFFFFFFFFFFFFFFFFFFFFFFFFFFFFFFFFFFFFFFFFFFFFFFFFFFFF
310
FFFFFFFFFFFFFFFFFFFFFFFFFFFFFFFFFFFFFFFFFFFFFFFFFFFFFFFFFFFFFFFF
310
FFFFFFFFFFFFFFFFF000FFFFFFFFFFFFFFFFFFFFFFFFFFFFFFFFFFFFFFFFFFFF
310
FFFFFFFFFFFFFFFFFFFFFFFFFFFFFFFFFFFFFFFFFFFFFFFFFFFFFFFFFFFFFFFF
310
FFFFFFFFFFFFFFFFFFFFFFFFFFFFFFFFFFFFFFFFFFFFFFFFFFFFFFFFFFFFFFFF
310
F000FFFFFFFFFFFFFFFFFFFFFFFFFFFFFFFFFFFFFFFFFFFFFFFFFFFFFFFFFFFF
310
FFFFFFFFFFFFFFFFFFFFFFFFFFFFFFFFFFFFFFFFFFFFFFFFFFFFFFFFFFFFFFFF
310
FFFFFFFFFFFFFFFFFFFFFFFFFFFFFFFFFFFFFFFFFFFFFFFFF000FFFFFFFFFFFF
310
FFFFFFFFFFFFFFFFFFFFFFFFFFFFFFFFFFFFFFFFFFFFFFFFFFFFFFFFFFFFFFFF
310
FFFFFFFFFFFFFFFFFFFFFFFFFFFFFFFFFFFFFFFFFFFFFFFFFFFFFFFFFFFFFFFF
310
FFFFFFFFFFFFFFFFFFFFFFFFFFFFFFFFF0000000000000000000000000000000
310
0000000000000000000000000000000000000000000000000000000000000000
310
0000000000000000000000000000000000000000000000000000000000000000
310
0000000000000000000000000000000000000000000000000000000000000000
310
0000000000000000000000000000000000000000000000000000000000000000
310
0000000000000000000000000000000000000000000000000000000000000000
310
0000000000000000000000000000000000000000000000000000000000000000
310
0000000000000000000000000000000000000000000000000000000000000000
310
0000000000000000000000000000000000000000000000000000000000000000
310
0000000000000000000000000000000000000000000000000000000000000000
310
0000000000000000000000000000000000000000000000000000000000000000
310
0000000000000000000000000000000000000000000000000000000000000000
310
0000000000000000000000000000000000000000000000000000000000000000
310
0000000000000000000000000000000000000000000000000000000000000000
310
0000000000000000000000000000000000000000000000000000000000000000
310
0000000000000000000000000000000000000000000000000000000000000000
  1
OLE
  0
ENDSEC
  0
SECTION
  2
OBJECTS
  0
DICTIONARY
  5
C
330
0
100
AcDbDictionary
281
     1
  3
ACAD_GROUP
350
D
  3
ACAD_LAYOUT
350
1A
  3
ACAD_MLINESTYLE
350
17
  3
ACAD_PLOTSETTINGS
350
19
  3
ACAD_PLOTSTYLENAME
350
E
  3
ACAD_SCALELIST
350
47
  0
DICTIONARY
  5
D
102
{ACAD_REACTORS
330
C
102
}
330
C
100
AcDbDictionary
281
     1
  0
DICTIONARY
  5
1A
102
{ACAD_REACTORS
330
C
102
}
330
C
100
AcDbDictionary
281
     1
  3
Layout1
350
1E
  3
Layout2
350
26
  3
Model
350
22
  0
DICTIONARY
  5
17
102
{ACAD_REACTORS
330
C
102
}
330
C
100
AcDbDictionary
281
     1
  3
Standard
350
18
  0
DICTIONARY
  5
19
102
{ACAD_REACTORS
330
C
102
}
330
C
100
AcDbDictionary
281
     1
  0
ACDBDICTIONARYWDFLT
  5
E
102
{ACAD_REACTORS
330
C
102
}
330
C
100
AcDbDictionary
281
     1
  3
Normal
350
F
100
AcDbDictionaryWithDefault
340
F
  0
DICTIONARY
  5
47
102
{ACAD_REACTORS
330
C
102
}
330
C
100
AcDbDictionary
281
     1
  3
A0
350
48
  3
A1
350
49
  3
A2
350
4A
  3
A3
350
4B
  3
A4
350
4C
  3
A5
350
4D
  3
A6
350
4E
  3
A7
350
4F
  3
A8
350
50
  3
A9
350
51
  3
B0
350
52
  3
B1
350
53
  3
B2
350
54
  3
B3
350
55
  3
B4
350
56
  3
B5
350
57
  3
B6
350
58
  3
B7
350
59
  3
B8
350
5A
  3
B9
350
5B
  3
C0
350
5C
  3
C1
350
5D
  3
C2
350
5E
  3
C3
350
5F
  3
C4
350
60
  3
C5
350
61
  3
C6
350
62
  3
C7
350
63
  3
C8
350
64
  3
C9
350
65
  3
D0
350
66
  3
D1
350
67
  3
D2
350
68
  0
LAYOUT
  5
1E
102
{ACAD_REACTORS
330
1A
102
}
330
1A
100
AcDbPlotSettings
  1

  2
none_device
  4

  6

 40
0.0
 41
0.0
 42
0.0
 43
0.0
 44
0.0
 45
0.0
 46
0.0
 47
0.0
 48
0.0
 49
0.0
140
0.0
141
0.0
142
1.0
143
1.0
 70
   688
 72
     1
 73
     0
 74
     5
  7

 75
    16
147
1.0
148
0.0
149
0.0
100
AcDbLayout
  1
Layout1
 70
     1
 71
     1
 10
0.0
 20
0.0
 11
420.0
 21
297.0
 12
0.0
 22
0.0
 32
0.0
 14
1.0000000000E+20
 24
1.0000000000E+20
 34
1.0000000000E+20
 15
-1.0000000000E+20
 25
-1.0000000000E+20
 35
-1.0000000000E+20
146
0.0
 13
0.0
 23
0.0
 33
0.0
 16
1.0
 26
0.0
 36
0.0
 17
0.0
 27
1.0
 37
0.0
 76
     0
330
1B
  0
LAYOUT
  5
26
102
{ACAD_REACTORS
330
1A
102
}
330
1A
100
AcDbPlotSettings
  1

  2
none_device
  4

  6

 40
0.0
 41
0.0
 42
0.0
 43
0.0
 44
0.0
 45
0.0
 46
0.0
 47
0.0
 48
0.0
 49
0.0
140
0.0
141
0.0
142
1.0
143
1.0
 70
   688
 72
     1
 73
     0
 74
     5
  7

 75
    16
147
1.0
148
0.0
149
0.0
100
AcDbLayout
  1
Layout2
 70
     1
 71
     2
 10
0.0
 20
0.0
 11
0.0
 21
0.0
 12
0.0
 22
0.0
 32
0.0
 14
0.0
 24
0.0
 34
0.0
 15
0.0
 25
0.0
 35
0.0
146
0.0
 13
0.0
 23
0.0
 33
0.0
 16
1.0
 26
0.0
 36
0.0
 17
0.0
 27
1.0
 37
0.0
 76
     0
330
23
  0
LAYOUT
  5
22
102
{ACAD_REACTORS
330
1A
102
}
330
1A
100
AcDbPlotSettings
  1

  2
none_device
  4
Letter_(8.50_x_11.00_Inches)
  6

 40
6.35
 41
6.35
 42
6.35000508
 43
6.35000508
 44
215.9
 45
279.4
 46
0.0
 47
0.0
 48
0.0
 49
0.0
140
0.0
141
0.0
142
1.0
143
1.0
 70
  1712
 72
     1
 73
     0
 74
     0
  7

 75
     0
147
1.0
148
0.0
149
0.0
100
AcDbLayout
  1
Model
 70
     1
 71
     0
 10
0.0
 20
0.0
 11
297.0
 21
210.0
 12
0.0
 22
0.0
 32
0.0
 14
0.0
 24
0.0
 34
0.0
 15
297.0
 25
210.0
 35
0.0
146
0.0
 13
0.0
 23
0.0
 33
0.0
 16
1.0
 26
0.0
 36
0.0
 17
0.0
 27
1.0
 37
0.0
 76
     0
330
1F
331
29
  0
MLINESTYLE
  5
18
102
{ACAD_REACTORS
330
17
102
}
330
17
100
AcDbMlineStyle
  2
Standard
 70
     0
  3

 62
   256
 51
90.0
 52
90.0
 71
     2
 49
0.5
 62
   256
  6
BYLAYER
 49
-0.5
 62
   256
  6
BYLAYER
  0
ACDBPLACEHOLDER
  5
F
102
{ACAD_REACTORS
330
E
102
}
330
E
  0
SCALE
  5
48
102
{ACAD_REACTORS
330
47
102
}
330
47
100
AcDbScale
 70
     0
300
1:1
140
1.0
141
1.0
290
     1
  0
SCALE
  5
49
102
{ACAD_REACTORS
330
47
102
}
330
47
100
AcDbScale
 70
     0
300
1:2
140
1.0
141
2.0
290
     0
  0
SCALE
  5
4A
102
{ACAD_REACTORS
330
47
102
}
330
47
100
AcDbScale
 70
     0
300
1:4
140
1.0
141
4.0
290
     0
  0
SCALE
  5
4B
102
{ACAD_REACTORS
330
47
102
}
330
47
100
AcDbScale
 70
     0
300
1:5
140
1.0
141
5.0
290
     0
  0
SCALE
  5
4C
102
{ACAD_REACTORS
330
47
102
}
330
47
100
AcDbScale
 70
     0
300
1:8
140
1.0
141
8.0
290
     0
  0
SCALE
  5
4D
102
{ACAD_REACTORS
330
47
102
}
330
47
100
AcDbScale
 70
     0
300
1:10
140
1.0
141
10.0
290
     0
  0
SCALE
  5
4E
102
{ACAD_REACTORS
330
47
102
}
330
47
100
AcDbScale
 70
     0
300
1:16
140
1.0
141
16.0
290
     0
  0
SCALE
  5
4F
102
{ACAD_REACTORS
330
47
102
}
330
47
100
AcDbScale
 70
     0
300
1:20
140
1.0
141
20.0
290
     0
  0
SCALE
  5
50
102
{ACAD_REACTORS
330
47
102
}
330
47
100
AcDbScale
 70
     0
300
1:30
140
1.0
141
30.0
290
     0
  0
SCALE
  5
51
102
{ACAD_REACTORS
330
47
102
}
330
47
100
AcDbScale
 70
     0
300
1:40
140
1.0
141
40.0
290
     0
  0
SCALE
  5
52
102
{ACAD_REACTORS
330
47
102
}
330
47
100
AcDbScale
 70
     0
300
1:50
140
1.0
141
50.0
290
     0
  0
SCALE
  5
53
102
{ACAD_REACTORS
330
47
102
}
330
47
100
AcDbScale
 70
     0
300
1:100
140
1.0
141
100.0
290
     0
  0
SCALE
  5
54
102
{ACAD_REACTORS
330
47
102
}
330
47
100
AcDbScale
 70
     0
300
2:1
140
2.0
141
1.0
290
     0
  0
SCALE
  5
55
102
{ACAD_REACTORS
330
47
102
}
330
47
100
AcDbScale
 70
     0
300
4:1
140
4.0
141
1.0
290
     0
  0
SCALE
  5
56
102
{ACAD_REACTORS
330
47
102
}
330
47
100
AcDbScale
 70
     0
300
8:1
140
8.0
141
1.0
290
     0
  0
SCALE
  5
57
102
{ACAD_REACTORS
330
47
102
}
330
47
100
AcDbScale
 70
     0
300
10:1
140
10.0
141
1.0
290
     0
  0
SCALE
  5
58
102
{ACAD_REACTORS
330
47
102
}
330
47
100
AcDbScale
 70
     0
300
100:1
140
100.0
141
1.0
290
     0
  0
SCALE
  5
59
102
{ACAD_REACTORS
330
47
102
}
330
47
100
AcDbScale
 70
     0
300
1/128" = 1'-0"
140
0.0078125
141
12.0
290
     0
  0
SCALE
  5
5A
102
{ACAD_REACTORS
330
47
102
}
330
47
100
AcDbScale
 70
     0
300
1/64" = 1'-0"
140
0.015625
141
12.0
290
     0
  0
SCALE
  5
5B
102
{ACAD_REACTORS
330
47
102
}
330
47
100
AcDbScale
 70
     0
300
1/32" = 1'-0"
140
0.03125
141
12.0
290
     0
  0
SCALE
  5
5C
102
{ACAD_REACTORS
330
47
102
}
330
47
100
AcDbScale
 70
     0
300
1/16" = 1'-0"
140
0.0625
141
12.0
290
     0
  0
SCALE
  5
5D
102
{ACAD_REACTORS
330
47
102
}
330
47
100
AcDbScale
 70
     0
300
3/32" = 1'-0"
140
0.09375
141
12.0
290
     0
  0
SCALE
  5
5E
102
{ACAD_REACTORS
330
47
102
}
330
47
100
AcDbScale
 70
     0
300
1/8" = 1'-0"
140
0.125
141
12.0
290
     0
  0
SCALE
  5
5F
102
{ACAD_REACTORS
330
47
102
}
330
47
100
AcDbScale
 70
     0
300
3/16" = 1'-0"
140
0.1875
141
12.0
290
     0
  0
SCALE
  5
60
102
{ACAD_REACTORS
330
47
102
}
330
47
100
AcDbScale
 70
     0
300
1/4" = 1'-0"
140
0.25
141
12.0
290
     0
  0
SCALE
  5
61
102
{ACAD_REACTORS
330
47
102
}
330
47
100
AcDbScale
 70
     0
300
3/8" = 1'-0"
140
0.375
141
12.0
290
     0
  0
SCALE
  5
62
102
{ACAD_REACTORS
330
47
102
}
330
47
100
AcDbScale
 70
     0
300
1/2" = 1'-0"
140
0.5
141
12.0
290
     0
  0
SCALE
  5
63
102
{ACAD_REACTORS
330
47
102
}
330
47
100
AcDbScale
 70
     0
300
3/4" = 1'-0"
140
0.75
141
12.0
290
     0
  0
SCALE
  5
64
102
{ACAD_REACTORS
330
47
102
}
330
47
100
AcDbScale
 70
     0
300
1" = 1'-0"
140
1.0
141
12.0
290
     0
  0
SCALE
  5
65
102
{ACAD_REACTORS
330
47
102
}
330
47
100
AcDbScale
 70
     0
300
1-1/2" = 1'-0"
140
1.5
141
12.0
290
     0
  0
SCALE
  5
66
102
{ACAD_REACTORS
330
47
102
}
330
47
100
AcDbScale
 70
     0
300
3" = 1'-0"
140
3.0
141
12.0
290
     0
  0
SCALE
  5
67
102
{ACAD_REACTORS
330
47
102
}
330
47
100
AcDbScale
 70
     0
300
6" = 1'-0"
140
6.0
141
12.0
290
     0
  0
SCALE
  5
68
102
{ACAD_REACTORS
330
47
102
}
330
47
100
AcDbScale
 70
     0
300
1'-0" = 1'-0"
140
12.0
141
12.0
290
     0
  0
ENDSEC
  0
EOF
