  0
SECTION
  2
HEADER
  9
$ACADVER
  1
AC1015
  9
$ACADMAINTVER
 70
     6
  9
$DWGCODEPAGE
  3
ANSI_1252
  9
$INSBASE
 10
0.0
 20
0.0
 30
0.0
  9
$EXTMIN
 10
0.0
 20
0.0
 30
0.0
  9
$EXTMAX
 10
297.0
 20
210.0
 30
0.0
  9
$LIMMIN
 10
0.0
 20
0.0
  9
$LIMMAX
 10
297.0
 20
210.0
  9
$ORTHOMODE
 70
     0
  9
$REGENMODE
 70
     1
  9
$FILLMODE
 70
     1
  9
$QTEXTMODE
 70
     0
  9
$MIRRTEXT
 70
     1
  9
$LTSCALE
 40
1.0
  9
$ATTMODE
 70
     1
  9
$TEXTSIZE
 40
2.0
  9
$TRACEWID
 40
1.0
  9
$TEXTSTYLE
  7
Standard
  9
$CLAYER
  8
0
  9
$CELTYPE
  6
ByLayer
  9
$CECOLOR
 62
   256
  9
$CELTSCALE
 40
1.0
  9
$DISPSILH
 70
     0
  9
$DIMSCALE
 40
1.0
  9
$DIMASZ
 40
3.0
  9
$DIMEXO
 40
0.0
  9
$DIMDLI
 40
3.75
  9
$DIMRND
 40
0.0
  9
$DIMDLE
 40
0.0
  9
$DIMEXE
 40
1.0
  9
$DIMTP
 40
0.0
  9
$DIMTM
 40
0.0
  9
$DIMTXT
 40
2.0
  9
$DIMCEN
 40
2.5
  9
$DIMTSZ
 40
0.0
  9
$DIMTOL
 70
     0
  9
$DIMLIM
 70
     0
  9
$DIMTIH
 70
     1
  9
$DIMTOH
 70
     1
  9
$DIMSE1
 70
     0
  9
$DIMSE2
 70
     0
  9
$DIMTAD
 70
     1
  9
$DIMZIN
 70
     0
  9
$DIMBLK
  1

  9
$DIMASO
 70
     1
  9
$DIMSHO
 70
     1
  9
$DIMPOST
  1

  9
$DIMAPOST
  1

  9
$DIMALT
 70
     0
  9
$DIMALTD
 70
     3
  9
$DIMALTF
 40
0.0393700787
  9
$DIMLFAC
 40
1.0
  9
$DIMTOFL
 70
     1
  9
$DIMTVP
 40
0.0
  9
$DIMTIX
 70
     0
  9
$DIMSOXD
 70
     0
  9
$DIMSAH
 70
     0
  9
$DIMBLK1
  1

  9
$DIMBLK2
  1

  9
$DIMSTYLE
  2
ISO-25
  9
$DIMCLRD
 70
     0
  9
$DIMCLRE
 70
     0
  9
$DIMCLRT
 70
     0
  9
$DIMTFAC
 40
1.0
  9
$DIMGAP
 40
1.524
  9
$DIMJUST
 70
     0
  9
$DIMSD1
 70
     0
  9
$DIMSD2
 70
     0
  9
$DIMTOLJ
 70
     0
  9
$DIMTZIN
 70
     0
  9
$DIMALTZ
 70
     0
  9
$DIMALTTZ
 70
     0
  9
$DIMUPT
 70
     0
  9
$DIMDEC
 70
     2
  9
$DIMTDEC
 70
     3
  9
$DIMALTU
 70
     2
  9
$DIMALTTD
 70
     3
  9
$DIMTXSTY
  7
Standard
  9
$DIMAUNIT
 70
     0
  9
$DIMADEC
 70
     2
  9
$DIMALTRND
 40
0.0
  9
$DIMAZIN
 70
     0
  9
$DIMDSEP
 70
    44
  9
$DIMATFIT
 70
     3
  9
$DIMFRAC
 70
     0
  9
$DIMLDRBLK
  1

  9
$DIMLUNIT
 70
     2
  9
$DIMLWD
 70
    -2
  9
$DIMLWE
 70
    -2
  9
$DIMTMOVE
 70
     0
  9
$LUNITS
 70
     2
  9
$LUPREC
 70
     2
  9
$SKETCHINC
 40
1.0
  9
$FILLETRAD
 40
10.0
  9
$AUNITS
 70
     0
  9
$AUPREC
 70
     2
  9
$MENU
  1
.
  9
$ELEVATION
 40
0.0
  9
$PELEVATION
 40
0.0
  9
$THICKNESS
 40
0.0
  9
$LIMCHECK
 70
     0
  9
$CHAMFERA
 40
0.0
  9
$CHAMFERB
 40
0.0
  9
$CHAMFERC
 40
0.0
  9
$CHAMFERD
 40
0.0
  9
$SKPOLY
 70
     0
  9
$TDCREATE
 40
2459054.608439722
  9
$TDUCREATE
 40
2459054.525106389
  9
$TDUPDATE
 40
2459054.608441574
  9
$TDUUPDATE
 40
2459054.525108241
  9
$TDINDWG
 40
0.0000000116
  9
$TDUSRTIMER
 40
0.0000000116
  9
$USRTIMER
 70
     1
  9
$ANGBASE
 50
0.0
  9
$ANGDIR
 70
     0
  9
$PDMODE
 70
     0
  9
$PDSIZE
 40
-1.0
  9
$PLINEWID
 40
0.0
  9
$SPLFRAME
 70
     0
  9
$SPLINETYPE
 70
     6
  9
$SPLINESEGS
 70
     8
  9
$HANDSEED
  5
16E
  9
$SURFTAB1
 70
     6
  9
$SURFTAB2
 70
     6
  9
$SURFTYPE
 70
     6
  9
$SURFU
 70
     6
  9
$SURFV
 70
     6
  9
$UCSBASE
  2

  9
$UCSNAME
  2

  9
$UCSORG
 10
0.0
 20
0.0
 30
0.0
  9
$UCSXDIR
 10
1.0
 20
0.0
 30
0.0
  9
$UCSYDIR
 10
0.0
 20
1.0
 30
0.0
  9
$UCSORTHOREF
  2

  9
$UCSORTHOVIEW
 70
     0
  9
$UCSORGTOP
 10
0.0
 20
0.0
 30
0.0
  9
$UCSORGBOTTOM
 10
0.0
 20
0.0
 30
0.0
  9
$UCSORGLEFT
 10
0.0
 20
0.0
 30
0.0
  9
$UCSORGRIGHT
 10
0.0
 20
0.0
 30
0.0
  9
$UCSORGFRONT
 10
0.0
 20
0.0
 30
0.0
  9
$UCSORGBACK
 10
0.0
 20
0.0
 30
0.0
  9
$PUCSBASE
  2

  9
$PUCSNAME
  2

  9
$PUCSORG
 10
0.0
 20
0.0
 30
0.0
  9
$PUCSXDIR
 10
1.0
 20
0.0
 30
0.0
  9
$PUCSYDIR
 10
0.0
 20
1.0
 30
0.0
  9
$PUCSORTHOREF
  2

  9
$PUCSORTHOVIEW
 70
     0
  9
$PUCSORGTOP
 10
0.0
 20
0.0
 30
0.0
  9
$PUCSORGBOTTOM
 10
0.0
 20
0.0
 30
0.0
  9
$PUCSORGLEFT
 10
0.0
 20
0.0
 30
0.0
  9
$PUCSORGRIGHT
 10
0.0
 20
0.0
 30
0.0
  9
$PUCSORGFRONT
 10
0.0
 20
0.0
 30
0.0
  9
$PUCSORGBACK
 10
0.0
 20
0.0
 30
0.0
  9
$USERI1
 70
     0
  9
$USERI2
 70
     0
  9
$USERI3
 70
     0
  9
$USERI4
 70
     0
  9
$USERI5
 70
     0
  9
$USERR1
 40
0.0
  9
$USERR2
 40
0.0
  9
$USERR3
 40
0.0
  9
$USERR4
 40
0.0
  9
$USERR5
 40
0.0
  9
$WORLDVIEW
 70
     1
  9
$SHADEDGE
 70
     3
  9
$SHADEDIF
 70
    70
  9
$TILEMODE
 70
     1
  9
$MAXACTVP
 70
    64
  9
$PINSBASE
 10
0.0
 20
0.0
 30
0.0
  9
$PLIMCHECK
 70
     0
  9
$PEXTMIN
 10
1.0000000000E+20
 20
1.0000000000E+20
 30
1.0000000000E+20
  9
$PEXTMAX
 10
-1.0000000000E+20
 20
-1.0000000000E+20
 30
-1.0000000000E+20
  9
$PLIMMIN
 10
0.0
 20
0.0
  9
$PLIMMAX
 10
420.0
 20
297.0
  9
$UNITMODE
 70
     0
  9
$VISRETAIN
 70
     1
  9
$PLINEGEN
 70
     0
  9
$PSLTSCALE
 70
     1
  9
$TREEDEPTH
 70
  3020
  9
$CMLSTYLE
  2
Standard
  9
$CMLJUST
 70
     0
  9
$CMLSCALE
 40
20.0
  9
$PROXYGRAPHICS
 70
     1
  9
$MEASUREMENT
 70
     1
  9
$CELWEIGHT
370
    -1
  9
$ENDCAPS
280
     0
  9
$JOINSTYLE
280
     0
  9
$LWDISPLAY
290
     1
  9
$INSUNITS
 70
     4
  9
$HYPERLINKBASE
  1

  9
$STYLESHEET
  1

  9
$XEDIT
290
     1
  9
$CEPSNTYPE
380
     0
  9
$PSTYLEMODE
290
     1
  9
$FINGERPRINTGUID
  2
{7C151B57-804E-4B53-855C-F38B0E53672E}
  9
$VERSIONGUID
  2
{FAEB1C32-E019-11D5-929B-00C0DF256EC4}
  9
$EXTNAMES
290
     1
  9
$PSVPSCALE
 40
0.0
  9
$OLESTARTUP
290
     0
  0
ENDSEC
  0
SECTION
  2
CLASSES
  0
CLASS
  1
ACDBDICTIONARYWDFLT
  2
AcDbDictionaryWithDefault
  3
ObjectDBX Classes
 90
        0
280
     0
281
     0
  0
CLASS
  1
VISUALSTYLE
  2
AcDbVisualStyle
  3
ObjectDBX Classes
 90
     4095
280
     0
281
     0
  0
CLASS
  1
MATERIAL
  2
AcDbMaterial
  3
ObjectDBX Classes
 90
     1153
280
     0
281
     0
  0
CLASS
  1
SCALE
  2
AcDbScale
  3
ObjectDBX Classes
 90
     1153
280
     0
281
     0
  0
CLASS
  1
TABLESTYLE
  2
AcDbTableStyle
  3
ObjectDBX Classes
 90
     4095
280
     0
281
     0
  0
CLASS
  1
MLEADERSTYLE
  2
AcDbMLeaderStyle
  3
ACDB_MLEADERSTYLE_CLASS
 90
     4095
280
     0
281
     0
  0
CLASS
  1
SUN
  2
AcDbSun
  3
SCENEOE
 90
     1153
280
     0
281
     0
  0
CLASS
  1
ACDBPLACEHOLDER
  2
AcDbPlaceHolder
  3
ObjectDBX Classes
 90
        0
280
     0
281
     0
  0
CLASS
  1
LAYOUT
  2
AcDbLayout
  3
ObjectDBX Classes
 90
        0
280
     0
281
     0
  0
ENDSEC
  0
SECTION
  2
TABLES
  0
TABLE
  2
VPORT
  5
8
330
0
100
AcDbSymbolTable
 70
     1
  0
VPORT
  5
29
330
8
100
AcDbSymbolTableRecord
100
AcDbViewportTableRecord
  2
*Active
 70
     0
 10
0.0
 20
0.0
 11
1.0
 21
1.0
 12
148.5
 22
105.0
 13
0.0
 23
0.0
 14
10.0
 24
10.0
 15
10.0
 25
10.0
 16
0.0
 26
0.0
 36
1.0
 17
0.0
 27
0.0
 37
0.0
 40
210.0
 41
1.4142857143
 42
50.0
 43
0.0
 44
0.0
 50
0.0
 51
0.0
 71
     0
 72
  2000
 73
     1
 74
     3
 75
     0
 76
     0
 77
     0
 78
     0
281
     0
 65
     1
110
0.0
120
0.0
130
0.0
111
1.0
121
0.0
131
0.0
112
0.0
122
1.0
132
0.0
 79
     0
146
0.0
  0
ENDTAB
  0
TABLE
  2
LTYPE
  5
5
330
0
100
AcDbSymbolTable
 70
     6
  0
LTYPE
  5
14
330
5
100
AcDbSymbolTableRecord
100
AcDbLinetypeTableRecord
  2
ByBlock
 70
     0
  3

 72
    65
 73
     0
 40
0.0
  0
LTYPE
  5
15
330
5
100
AcDbSymbolTableRecord
100
AcDbLinetypeTableRecord
  2
ByLayer
 70
     0
  3

 72
    65
 73
     0
 40
0.0
  0
LTYPE
  5
16
330
5
100
AcDbSymbolTableRecord
100
AcDbLinetypeTableRecord
  2
Continuous
 70
     0
  3
Solid line
 72
    65
 73
     0
 40
0.0
  0
LTYPE
  5
6E
330
5
100
AcDbSymbolTableRecord
100
AcDbLinetypeTableRecord
  2
HIDDEN
 70
     0
  3
Hidden __ __ __ __ __ __ __ __ __ __ __ __ __ __
 72
    65
 73
     2
 40
1.905
 49
1.27
 74
     0
 49
-0.635
 74
     0
  0
LTYPE
  5
6F
330
5
100
AcDbSymbolTableRecord
100
AcDbLinetypeTableRecord
  2
PHANTOM
 70
     0
  3
Phantom ______  __  __  ______  __  __  ______
 72
    65
 73
     6
 40
12.7
 49
6.35
 74
     0
 49
-1.27
 74
     0
 49
1.27
 74
     0
 49
-1.27
 74
     0
 49
1.27
 74
     0
 49
-1.27
 74
     0
  0
LTYPE
  5
70
330
5
100
AcDbSymbolTableRecord
100
AcDbLinetypeTableRecord
  2
CENTER
 70
     0
  3
Center ____ _ ____ _ ____ _ ____ _ ____ _ ____
 72
    65
 73
     4
 40
10.16
 49
6.35
 74
     0
 49
-1.27
 74
     0
 49
1.27
 74
     0
 49
-1.27
 74
     0
  0
LTYPE
  5
71
330
5
100
AcDbSymbolTableRecord
100
AcDbLinetypeTableRecord
  2
CENTERX2
 70
     0
  3
Center (2x) ________  __  ________  __  _____
 72
    65
 73
     4
 40
20.32
 49
12.7
 74
     0
 49
-2.54
 74
     0
 49
2.54
 74
     0
 49
-2.54
 74
     0
  0
LTYPE
  5
72
330
5
100
AcDbSymbolTableRecord
100
AcDbLinetypeTableRecord
  2
DOT2
 70
     0
  3
Dot (.5x) ........................................
 72
    65
 73
     2
 40
0.635
 49
0.0
 74
     0
 49
-0.635
 74
     0
  0
ENDTAB
  0
TABLE
  2
LAYER
  5
2
330
0
100
AcDbSymbolTable
 70
     5
  0
LAYER
  5
10
330
2
100
AcDbSymbolTableRecord
100
AcDbLayerTableRecord
  2
0
 70
     0
 62
     7
  6
Continuous
370
    -3
390
F
  0
LAYER
  5
73
330
2
100
AcDbSymbolTableRecord
100
AcDbLayerTableRecord
  2
FORMAT
 70
     0
 62
     7
  6
Continuous
370
    -3
390
F
  0
LAYER
  5
74
330
2
100
AcDbSymbolTableRecord
100
AcDbLayerTableRecord
  2
VERMASSUNG
 70
     0
 62
     7
  6
Continuous
370
    -3
390
F
  0
LAYER
  5
75
330
2
100
AcDbSymbolTableRecord
100
AcDbLayerTableRecord
  2
KOPF_DÜNN
 70
     0
 62
     7
  6
Continuous
370
    -3
390
F
  0
LAYER
  5
76
330
2
100
AcDbSymbolTableRecord
100
AcDbLayerTableRecord
  2
KOPF_DICK
 70
     0
 62
     7
  6
Continuous
370
    25
390
F
  0
ENDTAB
  0
TABLE
  2
STYLE
  5
3
330
0
100
AcDbSymbolTable
 70
     2
  0
STYLE
  5
11
330
3
100
AcDbSymbolTableRecord
100
AcDbTextStyleTableRecord
  2
Standard
 70
     0
 40
0.0
 41
1.0
 50
0.0
 71
     0
 42
2.0
  3
txt
  4

  0
STYLE
  5
77
330
3
100
AcDbSymbolTableRecord
100
AcDbTextStyleTableRecord
  2
SLDTEXTSTYLE0
 70
     0
 40
0.0
 41
0.7
 50
0.0
 71
     0
 42
2.0
  3
TXT
  4

  0
ENDTAB
  0
TABLE
  2
VIEW
  5
6
330
0
100
AcDbSymbolTable
 70
     0
  0
ENDTAB
  0
TABLE
  2
UCS
  5
7
330
0
100
AcDbSymbolTable
 70
     0
  0
ENDTAB
  0
TABLE
  2
APPID
  5
9
330
0
100
AcDbSymbolTable
 70
     1
  0
APPID
  5
12
330
9
100
AcDbSymbolTableRecord
100
AcDbRegAppTableRecord
  2
ACAD
 70
     0
  0
ENDTAB
  0
TABLE
  2
DIMSTYLE
  5
A
330
0
100
AcDbSymbolTable
 70
     4
100
AcDbDimStyleTable
  0
DIMSTYLE
105
27
330
A
100
AcDbSymbolTableRecord
100
AcDbDimStyleTableRecord
  2
ISO-25
 70
     0
 41
2.5
 42
0.625
 43
3.75
 44
1.25
 73
     0
 74
     0
 77
     1
 78
     8
140
2.5
141
2.5
143
0.0393700787
147
0.625
171
     3
172
     1
178
     0
271
     2
272
     2
274
     3
278
    44
283
     0
284
     8
340
11
  0
DIMSTYLE
105
141
102
{ACAD_REACTORS
330
140
102
}
330
A
100
AcDbSymbolTableRecord
100
AcDbDimStyleTableRecord
  2
SLDDIMSTYLE0
 70
     0
 41
3.0
 44
0.0
 45
0.000000001
 73
     0
 74
     0
 76
     1
 77
     1
 78
    12
 79
     3
140
2.0
147
0.5
173
     1
178
     0
271
     2
272
     3
276
     2
282
     1
284
    12
340
77
  0
DIMSTYLE
105
14D
102
{ACAD_REACTORS
330
14C
330
162
102
}
330
A
100
AcDbSymbolTableRecord
100
AcDbDimStyleTableRecord
  2
SLDDIMSTYLE1
 70
     0
 41
3.0
 44
0.0
 45
0.000000001
 73
     0
 74
     0
 77
     1
 78
    12
 79
     3
140
2.0
147
0.5
173
     1
178
     0
271
     2
272
     3
276
     2
284
    12
340
77
  0
DIMSTYLE
105
158
102
{ACAD_REACTORS
330
157
102
}
330
A
100
AcDbSymbolTableRecord
100
AcDbDimStyleTableRecord
  2
SLDDIMSTYLE2
 70
     0
 41
3.0
 44
0.0
 45
0.000000001
 73
     0
 74
     0
 77
     1
 78
    12
 79
     3
140
2.0
147
0.5
173
     1
178
     0
271
     0
272
     3
276
     2
284
    12
340
77
  0
ENDTAB
  0
TABLE
  2
BLOCK_RECORD
  5
1
330
0
100
AcDbSymbolTable
 70
     5
  0
BLOCK_RECORD
  5
1F
330
1
100
AcDbSymbolTableRecord
100
AcDbBlockTableRecord
  2
*Model_Space
340
22
  0
BLOCK_RECORD
  5
1B
330
1
100
AcDbSymbolTableRecord
100
AcDbBlockTableRecord
  2
*Paper_Space
340
1E
  0
BLOCK_RECORD
  5
23
330
1
100
AcDbSymbolTableRecord
100
AcDbBlockTableRecord
  2
*Paper_Space0
340
26
  0
BLOCK_RECORD
  5
142
330
1
100
AcDbSymbolTableRecord
100
AcDbBlockTableRecord
  2
_D
340
0
  0
BLOCK_RECORD
  5
14E
330
1
100
AcDbSymbolTableRecord
100
AcDbBlockTableRecord
  2
_D_1
340
0
  0
BLOCK_RECORD
  5
159
330
1
100
AcDbSymbolTableRecord
100
AcDbBlockTableRecord
  2
_D_2
340
0
  0
BLOCK_RECORD
  5
163
330
1
100
AcDbSymbolTableRecord
100
AcDbBlockTableRecord
  2
_D_3
340
0
  0
ENDTAB
  0
ENDSEC
  0
SECTION
  2
BLOCKS
  0
BLOCK
  5
20
330
1F
100
AcDbEntity
  8
0
100
AcDbBlockBegin
  2
*Model_Space
 70
     0
 10
0.0
 20
0.0
 30
0.0
  3
*Model_Space
  1

  0
ENDBLK
  5
21
330
1F
100
AcDbEntity
  8
0
100
AcDbBlockEnd
  0
BLOCK
  5
1C
330
1B
100
AcDbEntity
 67
     1
  8
0
100
AcDbBlockBegin
  2
*Paper_Space
 70
     0
 10
0.0
 20
0.0
 30
0.0
  3
*Paper_Space
  1

  0
ENDBLK
  5
1D
330
1B
100
AcDbEntity
 67
     1
  8
0
100
AcDbBlockEnd
  0
BLOCK
  5
24
330
23
100
AcDbEntity
  8
0
100
AcDbBlockBegin
  2
*Paper_Space0
 70
     0
 10
0.0
 20
0.0
 30
0.0
  3
*Paper_Space0
  1

  0
ENDBLK
  5
25
330
23
100
AcDbEntity
  8
0
100
AcDbBlockEnd
  0
BLOCK
  5
143
330
142
100
AcDbEntity
  8
0
100
AcDbBlockBegin
  2
_D
 70
     0
 10
0.0
 20
0.0
 30
0.0
  3
_D
  1

  0
SOLID
  5
145
330
142
100
AcDbEntity
  8
VERMASSUNG
100
AcDbTrace
 10
189.6392948901
 20
108.1401553676
 30
0.0
 11
189.1892948901
 21
105.1401553676
 31
0.0
 12
190.0892948901
 22
105.1401553676
 32
0.0
 13
190.0892948901
 23
105.1401553676
 33
0.0
  0
LINE
  5
146
330
142
100
AcDbEntity
  8
VERMASSUNG
100
AcDbLine
 10
183.0836569005
 20
108.1401553676
 30
0.0
 11
190.6392948901
 21
108.1401553676
 31
0.0
  0
LINE
  5
147
330
142
100
AcDbEntity
  8
VERMASSUNG
100
AcDbLine
 10
189.6392948901
 20
98.3901553676
 30
0.0
 11
189.6392948901
 21
108.1401553676
 31
0.0
  0
LINE
  5
148
330
142
100
AcDbEntity
  8
VERMASSUNG
100
AcDbLine
 10
189.6392948901
 20
108.1401553676
 30
0.0
 11
189.6392948901
 21
89.6408566502
 31
0.0
  0
MTEXT
  5
149
330
142
100
AcDbEntity
  8
VERMASSUNG
100
AcDbMText
 10
187.0611593524
 20
91.2283566502
 30
0.0
 40
2.0
 41
0.0
 71
     1
 72
     1
  1
%%c
  7
SLDTEXTSTYLE0
 11
-7.044195017643634E-15
 21
1.0
 31
0.0
 73
     1
 44
1.0
  0
MTEXT
  5
14A
330
142
100
AcDbEntity
  8
VERMASSUNG
100
AcDbMText
 10
187.0611592941
 20
94.8371572998
 30
0.0
 40
2.0
 41
0.0
 71
     1
 72
     1
  1
9.75
  7
SLDTEXTSTYLE0
 11
-7.044195017643634E-15
 21
1.0
 31
0.0
 73
     1
 44
1.0
  0
MTEXT
  5
14B
330
142
100
AcDbEntity
  8
VERMASSUNG
100
AcDbMText
 10
187.0611592941
 20
99.6366646532
 30
0.0
 40
2.0
 41
0.0
 71
     1
 72
     1
  1
-15.1
  7
SLDTEXTSTYLE0
 11
-7.044195017643634E-15
 21
1.0
 31
0.0
 73
     1
 44
1.0
  0
ENDBLK
  5
144
330
142
100
AcDbEntity
  8
0
100
AcDbBlockEnd
  0
BLOCK
  5
14F
330
14E
100
AcDbEntity
  8
0
100
AcDbBlockBegin
  2
_D_1
 70
     0
 10
0.0
 20
0.0
 30
0.0
  3
_D_1
  1

  0
SOLID
  5
151
330
14E
100
AcDbEntity
  8
VERMASSUNG
100
AcDbTrace
 10
183.0836569005
 20
121.4383866577
 30
0.0
 11
180.0836569005
 21
121.8883866577
 31
0.0
 12
180.0836569005
 22
120.9883866577
 32
0.0
 13
180.0836569005
 23
120.9883866577
 33
0.0
  0
SOLID
  5
152
330
14E
100
AcDbEntity
  8
VERMASSUNG
100
AcDbTrace
 10
108.0836569005
 20
121.4383866577
 30
0.0
 11
111.0836569005
 21
120.9883866577
 31
0.0
 12
111.0836569005
 22
121.8883866577
 32
0.0
 13
111.0836569005
 23
121.8883866577
 33
0.0
  0
LINE
  5
153
330
14E
100
AcDbEntity
  8
VERMASSUNG
100
AcDbLine
 10
183.0836569005
 20
108.1401553676
 30
0.0
 11
183.0836569005
 21
122.4383866577
 31
0.0
  0
LINE
  5
154
330
14E
100
AcDbEntity
  8
VERMASSUNG
100
AcDbLine
 10
108.0836569005
 20
109.4651553676
 30
0.0
 11
108.0836569005
 21
122.4383866577
 31
0.0
  0
LINE
  5
155
330
14E
100
AcDbEntity
  8
VERMASSUNG
100
AcDbLine
 10
183.0836569005
 20
121.4383866577
 30
0.0
 11
108.0836569005
 21
121.4383866577
 31
0.0
  0
MTEXT
  5
156
330
14E
100
AcDbEntity
  8
VERMASSUNG
100
AcDbMText
 10
141.8612610557
 20
124.0165222536
 30
0.0
 40
2.0
 41
0.0
 71
     1
 72
     1
  1
75
  7
SLDTEXTSTYLE0
 73
     1
 44
1.0
  0
ENDBLK
  5
150
330
14E
100
AcDbEntity
  8
0
100
AcDbBlockEnd
  0
BLOCK
  5
15A
330
159
100
AcDbEntity
  8
0
100
AcDbBlockBegin
  2
_D_2
 70
     0
 10
0.0
 20
0.0
 30
0.0
  3
_D_2
  1

  0
SOLID
  5
15C
330
159
100
AcDbEntity
  8
VERMASSUNG
100
AcDbTrace
 10
183.0836569005
 20
114.4718533427
 30
0.0
 11
180.0836569005
 21
114.9218533427
 31
0.0
 12
180.0836569005
 22
114.0218533427
 32
0.0
 13
180.0836569005
 23
114.0218533427
 33
0.0
  0
SOLID
  5
15D
330
159
100
AcDbEntity
  8
VERMASSUNG
100
AcDbTrace
 10
152.992994026
 20
114.4718533427
 30
0.0
 11
155.992994026
 21
114.0218533427
 31
0.0
 12
155.992994026
 22
114.9218533427
 32
0.0
 13
155.992994026
 23
114.9218533427
 33
0.0
  0
LINE
  5
15E
330
159
100
AcDbEntity
  8
VERMASSUNG
100
AcDbLine
 10
183.0836569005
 20
108.1401553676
 30
0.0
 11
183.0836569005
 21
115.4718533427
 31
0.0
  0
LINE
  5
15F
330
159
100
AcDbEntity
  8
VERMASSUNG
100
AcDbLine
 10
152.992994026
 20
108.1401553676
 30
0.0
 11
152.992994026
 21
115.4718533427
 31
0.0
  0
LINE
  5
160
330
159
100
AcDbEntity
  8
VERMASSUNG
100
AcDbLine
 10
183.0836569005
 20
114.4718533427
 30
0.0
 11
152.992994026
 21
114.4718533427
 31
0.0
  0
MTEXT
  5
161
330
159
100
AcDbEntity
  8
VERMASSUNG
100
AcDbMText
 10
167.1114149046
 20
117.0499889387
 30
0.0
 40
2.0
 41
0.0
 71
     1
 72
     1
  1
30
  7
SLDTEXTSTYLE0
 73
     1
 44
1.0
  0
ENDBLK
  5
15B
330
159
100
AcDbEntity
  8
0
100
AcDbBlockEnd
  0
BLOCK
  5
164
330
163
100
AcDbEntity
  8
0
100
AcDbBlockBegin
  2
_D_3
 70
     0
 10
0.0
 20
0.0
 30
0.0
  3
_D_3
  1

  0
SOLID
  5
166
330
163
100
AcDbEntity
  8
VERMASSUNG
100
AcDbTrace
 10
101.7755999218
 20
111.2651553676
 30
0.0
 11
101.3255999218
 21
108.2651553676
 31
0.0
 12
102.2255999218
 22
108.2651553676
 32
0.0
 13
102.2255999218
 23
108.2651553676
 33
0.0
  0
SOLID
  5
167
330
163
100
AcDbEntity
  8
VERMASSUNG
100
AcDbTrace
 10
101.7755999218
 20
95.2651553676
 30
0.0
 11
102.2255999218
 21
98.2651553676
 31
0.0
 12
101.3255999218
 22
98.2651553676
 32
0.0
 13
101.3255999218
 23
98.2651553676
 33
0.0
  0
LINE
  5
168
330
163
100
AcDbEntity
  8
VERMASSUNG
100
AcDbLine
 10
119.3836569005
 20
111.2651553676
 30
0.0
 11
100.7755999218
 21
111.2651553676
 31
0.0
  0
LINE
  5
169
330
163
100
AcDbEntity
  8
VERMASSUNG
100
AcDbLine
 10
109.4586569005
 20
95.2651553676
 30
0.0
 11
100.7755999218
 21
95.2651553676
 31
0.0
  0
LINE
  5
16A
330
163
100
AcDbEntity
  8
VERMASSUNG
100
AcDbLine
 10
101.7755999218
 20
111.2651553676
 30
0.0
 11
101.7755999218
 21
95.2651553676
 31
0.0
  0
MTEXT
  5
16B
330
163
100
AcDbEntity
  8
VERMASSUNG
100
AcDbMText
 10
99.197464384
 20
99.7468669716
 30
0.0
 40
2.0
 41
0.0
 71
     1
 72
     1
  1
%%c
  7
SLDTEXTSTYLE0
 11
-7.044195017643634E-15
 21
1.0
 31
0.0
 73
     1
 44
1.0
  0
MTEXT
  5
16C
330
163
100
AcDbEntity
  8
VERMASSUNG
100
AcDbMText
 10
99.1974643258
 20
103.3556676212
 30
0.0
 40
2.0
 41
0.0
 71
     1
 72
     1
  1
16
  7
SLDTEXTSTYLE0
 11
-7.044195017643634E-15
 21
1.0
 31
0.0
 73
     1
 44
1.0
  0
ENDBLK
  5
165
330
163
100
AcDbEntity
  8
0
100
AcDbBlockEnd
  0
ENDSEC
  0
SECTION
  2
ENTITIES
  0
MTEXT
  5
78
330
1F
100
AcDbEntity
  8
KOPF_DÜNN
100
AcDbMText
 10
13.8892156294
 20
23.8442973028
 30
0.0
 40
3.0
 41
0.0
 71
     1
 72
     1
  1
M54.010.006.075
  7
SLDTEXTSTYLE0
 73
     1
 44
1.0
  0
MTEXT
  5
79
330
1F
100
AcDbEntity
  8
VERMASSUNG
100
AcDbMText
 10
13.9329988022
 20
28.8834360957
 30
0.0
 40
3.0
 41
0.0
 71
     1
 72
     1
  1
Ausdrehstahl_Boring bar ø9.75-15.1
  7
SLDTEXTSTYLE0
 73
     1
 44
1.0
  0
MTEXT
  5
7A
330
1F
100
AcDbEntity
  8
VERMASSUNG
100
AcDbMText
 10
98.8601118557
 20
13.8365368761
 30
0.0
 40
2.0
 41
0.0
 71
     1
 72
     1
  1
Datum: 08.02.2008
  7
SLDTEXTSTYLE0
 73
     1
 44
1.0
  0
MTEXT
  5
7B
330
1F
100
AcDbEntity
  8
VERMASSUNG
100
AcDbMText
 10
13.933048693
 20
18.0482802738
 30
0.0
 40
2.0
 41
0.0
 71
     1
 72
     1
  1
mit Innenkühlung_with spindel coolant feed
  7
SLDTEXTSTYLE0
 73
     1
 44
1.0
  0
MTEXT
  5
7C
330
1F
100
AcDbEntity
  8
VERMASSUNG
100
AcDbMText
 10
13.9808475933
 20
13.9090974274
 30
0.0
 40
2.0
 41
0.0
 71
     1
 72
     1
  1
Gewicht: 71g
  7
SLDTEXTSTYLE0
 73
     1
 44
1.0
  0
LINE
  5
7D
330
1F
100
AcDbEntity
  8
0
  6
Continuous
 62
     7
370
    25
100
AcDbLine
 10
178.1443781395
 20
104.4143941033
 30
0.0
 11
178.1443781395
 21
104.2510976721
 31
0.0
  0
LINE
  5
7E
330
1F
100
AcDbEntity
  8
0
  6
Continuous
 62
     7
370
    25
100
AcDbLine
 10
181.5443781395
 20
104.2510976721
 30
0.0
 11
181.5443781395
 21
104.4143941033
 31
0.0
  0
LINE
  5
7F
330
1F
100
AcDbEntity
  8
0
  6
Continuous
 62
     7
370
    25
100
AcDbLine
 10
180.3279408447
 20
103.7731667338
 30
0.0
 11
180.3279408447
 21
103.6751359482
 31
0.0
  0
LINE
  5
80
330
1F
100
AcDbEntity
  8
0
  6
Continuous
 62
     7
370
    25
100
AcDbLine
 10
179.1691392672
 20
103.885630408
 30
0.0
 11
179.1691392672
 21
104.0917861825
 31
0.0
  0
LINE
  5
81
330
1F
100
AcDbEntity
  8
0
  6
Continuous
 62
     7
370
    25
100
AcDbLine
 10
180.5196170118
 20
104.8227207106
 30
0.0
 11
180.5196170118
 21
104.6165649362
 31
0.0
  0
LINE
  5
82
330
1F
100
AcDbEntity
  8
0
  6
Continuous
 62
     7
370
    25
100
AcDbLine
 10
179.3608154343
 20
104.9386961893
 30
0.0
 11
179.3608154343
 21
105.1483637683
 31
0.0
  0
LINE
  5
83
330
1F
100
AcDbEntity
  8
0
  6
Continuous
 62
     7
370
    25
100
AcDbLine
 10
176.7855233164
 20
101.1431421088
 30
0.0
 11
177.0398586205
 21
100.7070040425
 31
0.0
  0
LINE
  5
84
330
1F
100
AcDbEntity
  8
0
  6
Continuous
 62
     7
370
    25
100
AcDbLine
 10
182.9310570158
 20
101.91994852
 30
0.0
 11
183.0317904846
 21
102.0926878116
 31
0.0
  0
ARC
  5
85
330
1F
100
AcDbEntity
  8
0
  6
Continuous
 62
     7
370
    25
100
AcDbCircle
 10
160.0836569005
 20
69.2401553676
 30
0.0
 40
30.00000000000001
100
AcDbArc
 50
90.0
 51
119.830589676
  0
ARC
  5
86
330
1F
100
AcDbEntity
  8
0
  6
Continuous
 62
     7
370
    25
100
AcDbCircle
 10
160.0836569005
 20
137.2901553676
 30
0.0
 40
30.00000000000001
100
AcDbArc
 50
240.169410324
 51
270.0
  0
LINE
  5
87
330
1F
100
AcDbEntity
  8
0
  6
Continuous
 62
     7
370
    25
100
AcDbLine
 10
109.4586569005
 20
95.2651553676
 30
0.0
 11
145.1605414416
 21
95.2651553676
 31
0.0
  0
LINE
  5
88
330
1F
100
AcDbEntity
  8
0
  6
Continuous
 62
     7
370
    25
100
AcDbLine
 10
122.2836569005
 20
111.2651553676
 30
0.0
 11
119.3836569005
 21
111.2651553676
 31
0.0
  0
LINE
  5
89
330
1F
100
AcDbEntity
  8
0
  6
Continuous
 62
     7
370
    25
100
AcDbLine
 10
145.1605414416
 20
111.2651553676
 30
0.0
 11
133.8836569005
 21
111.2651553676
 31
0.0
  0
LINE
  5
8A
330
1F
100
AcDbEntity
  8
0
  6
Continuous
 62
     7
370
    25
100
AcDbLine
 10
108.0836569005
 20
96.6401553676
 30
0.0
 11
109.4586569005
 21
95.2651553676
 31
0.0
  0
LINE
  5
8B
330
1F
100
AcDbEntity
  8
0
  6
Continuous
 62
     7
370
    25
100
AcDbLine
 10
160.0836569005
 20
99.2401553676
 30
0.0
 11
177.1499090903
 21
99.2401553676
 31
0.0
  0
LINE
  5
8C
330
1F
100
AcDbEntity
  8
0
  6
Continuous
 62
     7
370
    25
100
AcDbLine
 10
175.8762945939
 20
107.2901553676
 30
0.0
 11
160.0836569005
 21
107.2901553676
 31
0.0
  0
ARC
  5
8D
330
1F
100
AcDbEntity
  8
0
  6
Continuous
 62
     7
370
    25
100
AcDbCircle
 10
177.1499090903
 20
96.2401553676
 30
0.0
 40
3.000000000000003
100
AcDbArc
 50
80.0
 51
90.0
  0
LINE
  5
8E
330
1F
100
AcDbEntity
  8
0
  6
Continuous
 62
     7
370
    25
100
AcDbLine
 10
177.8377212173
 20
99.1651553676
 30
0.0
 11
180.5143756884
 21
99.1651553676
 31
0.0
  0
LINE
  5
8F
330
1F
100
AcDbEntity
  8
0
  6
Continuous
 62
     7
370
    25
100
AcDbLine
 10
177.6708536233
 20
99.1945786266
 30
0.0
 11
177.8377212173
 21
99.1651553676
 31
0.0
  0
LINE
  5
90
330
1F
100
AcDbEntity
  8
0
  6
Continuous
 62
     7
370
    25
100
AcDbLine
 10
180.7519776437
 20
99.209976372
 30
0.0
 11
180.9540869579
 21
99.2647686841
 31
0.0
  0
LINE
  5
91
330
1F
100
AcDbEntity
  8
0
  6
Continuous
 62
     7
370
    25
100
AcDbLine
 10
182.3829721259
 20
100.0166436351
 30
0.0
 11
182.8682835809
 21
100.9728507206
 31
0.0
  0
LWPOLYLINE
  5
92
330
1F
100
AcDbEntity
  8
0
  6
Continuous
 62
     7
370
    25
100
AcDbPolyline
 90
       30
 70
   128
 43
0.0
 10
179.5491762375
 20
102.7899510216
 10
179.9159756394
 20
102.7663549391
 10
180.2794272218
 20
102.8198193362
 10
180.6225363927
 20
102.9478442772
 10
180.9292597485
 20
103.1444434582
 10
181.185255246
 20
103.4004241198
 10
181.3785528203
 20
103.7038168909
 10
181.5001140916
 20
104.0404354628
 10
181.5442549901
 20
104.394539925
 10
181.5089115362
 20
104.7495727465
 10
181.3957363508
 20
105.0889329872
 10
181.2100213796
 20
105.3967525394
 10
180.9604504483
 20
105.658638103
 10
180.6586932162
 20
105.8623442
 10
180.3188595162
 20
105.9983457597
 10
179.9568395944
 20
106.0602835005
 10
179.5895611
 20
106.0452612822
 10
179.2341975671
 20
105.9539815273
 10
178.9073653996
 20
105.7907123756
 10
178.6243469064
 20
105.5630881111
 10
178.3983757177
 20
105.2817521915
 10
178.2400179951
 20
104.9598595717
 10
178.1566783698
 20
104.6124615929
 10
178.1522537099
 20
104.2558021983
 10
178.2269509078
 20
103.906558385
 10
178.3772772053
 20
103.5810604054
 10
178.5962035119
 20
103.2945281834
 10
178.8734930769
 20
103.0603596472
 10
179.1961801484
 20
102.8895042572
 10
179.5491762375
 20
102.7899510216
  0
LWPOLYLINE
  5
93
330
1F
100
AcDbEntity
  8
0
  6
Continuous
 62
     7
370
    25
100
AcDbPolyline
 90
       24
 70
   128
 43
0.0
 10
179.6533651441
 20
103.4177171488
 10
179.9527161713
 20
103.4066912785
 10
180.2440322623
 20
103.4744391838
 10
180.5057078353
 20
103.6159363124
 10
180.7183356101
 20
103.8206884696
 10
180.8661459574
 20
104.0735101247
 10
180.93817646
 20
104.355650652
 10
180.9290849449
 20
104.6461849793
 10
180.8395456883
 20
104.9235655047
 10
180.6761994072
 20
105.1672201835
 10
180.4511607479
 20
105.3590782629
 10
180.1811197985
 20
105.4849105068
 10
179.8861042607
 20
105.5353845133
 10
179.5879940873
 20
105.5067568563
 10
179.3088987463
 20
105.4011507181
 10
179.0695174622
 20
105.2263984229
 10
178.8876040497
 20
104.9954605489
 10
178.7766501946
 20
104.7254647018
 10
178.7448848366
 20
104.4364352385
 10
178.794663867
 20
104.149808152
 10
178.9222954029
 20
103.8868412621
 10
179.1183135971
 20
103.66703762
 10
179.3681806769
 20
103.5066990563
 10
179.6533651441
 20
103.4177171488
  0
LWPOLYLINE
  5
94
330
1F
100
AcDbEntity
  8
0
  6
Continuous
 62
     7
370
    25
100
AcDbPolyline
 90
       23
 70
   128
 43
0.0
 10
179.662047553
 20
103.4654948865
 10
179.9607582494
 20
103.4562943027
 10
180.2500405215
 20
103.529123127
 10
180.5064584399
 20
103.678081201
 10
180.70923855
 20
103.8911008276
 10
180.8419528131
 20
104.1509244234
 10
180.893849509
 20
104.4365026259
 10
180.860724276
 20
104.7246995877
 10
180.7452607234
 20
104.9921673048
 10
180.5568130216
 20
105.2172371334
 10
180.3106480827
 20
105.3816752546
 10
180.0267087261
 20
105.4721598698
 10
179.7279980296
 20
105.4813604535
 10
179.4387157575
 20
105.4085316293
 10
179.1822978391
 20
105.2595735553
 10
178.979517729
 20
105.0465539287
 10
178.8468034659
 20
104.7867303329
 10
178.79490677
 20
104.5011521303
 10
178.828032003
 20
104.2129551686
 10
178.9434955556
 20
103.9454874515
 10
179.1319432574
 20
103.7204176229
 10
179.3781081963
 20
103.5559795017
 10
179.662047553
 20
103.4654948865
  0
SPLINE
  5
95
330
1F
100
AcDbEntity
  8
0
  6
Continuous
 62
     7
370
    25
100
AcDbSpline
210
0.0
220
0.0
230
1.0
 70
     8
 71
     3
 72
    16
 73
    12
 74
     0
 42
0.000000001
 43
0.00000001
 40
0.0
 40
0.0
 40
0.0
 40
0.0
 40
0.1242194589697259
 40
0.2489993218721858
 40
0.3727377574603283
 40
0.4952944629269342
 40
0.6171957750167889
 40
0.739103118177355
 40
0.861666823322349
 40
0.9853929371716946
 40
1.0
 40
1.0
 40
1.0
 40
1.0
 10
179.7347356378263
 20
105.3232161391105
 30
0.0
 10
179.7201440046625
 20
105.3416149918601
 30
0.0
 10
179.6908949096101
 20
105.3784957019829
 30
0.0
 10
179.6270636442555
 20
105.4115685425239
 30
0.0
 10
179.5573348938579
 20
105.4227330811978
 30
0.0
 10
179.4882386352448
 20
105.4098784947056
 30
0.0
 10
179.4278859280723
 20
105.3751662267561
 30
0.0
 10
179.3825261936419
 20
105.3224562499773
 30
0.0
 10
179.3571307405429
 20
105.2574953592451
 30
0.0
 10
179.3550769868365
 20
105.2077889815708
 30
0.0
 10
179.359050316858
 20
105.1822571060844
 30
0.0
 10
179.3594698740652
 20
105.1795611099517
 30
0.0
  0
SPLINE
  5
96
330
1F
100
AcDbEntity
  8
0
  6
Continuous
 62
     7
370
    25
100
AcDbSpline
210
0.0
220
0.0
230
1.0
 70
     8
 71
     3
 72
    12
 73
     8
 74
     0
 42
0.000000001
 43
0.00000001
 40
0.0
 40
0.0
 40
0.0
 40
0.0
 40
0.2093653562127228
 40
0.4192620302417304
 40
0.6249526976741868
 40
0.8281707878024884
 40
1.0
 40
1.0
 40
1.0
 40
1.0
 10
179.3594698740652
 20
105.1795611099517
 30
0.0
 10
179.3590705422796
 20
105.1391272426252
 30
0.0
 10
179.3582708653026
 20
105.0581568967549
 30
0.0
 10
179.3067373403934
 20
104.9470512869405
 30
0.0
 10
179.2246205588318
 20
104.8618355102145
 30
0.0
 10
179.1246863208162
 20
104.8106355887608
 30
0.0
 10
179.0536118744072
 20
104.8037291139869
 30
0.0
 10
179.021048872199
 20
104.8005648888022
 30
0.0
  0
SPLINE
  5
97
330
1F
100
AcDbEntity
  8
0
  6
Continuous
 62
     7
370
    25
100
AcDbSpline
210
0.0
220
0.0
230
1.0
 70
     8
 71
     3
 72
    16
 73
    12
 74
     0
 42
0.000000001
 43
0.00000001
 40
0.0
 40
0.0
 40
0.0
 40
0.0
 40
0.1231896672978049
 40
0.2479795154960507
 40
0.371727474539014
 40
0.494290347974702
 40
0.6161927293767039
 40
0.738095547092
 40
0.8606497678263602
 40
0.9843631542991415
 40
1.0
 40
1.0
 40
1.0
 40
1.0
 10
179.021048872199
 20
104.8005648888022
 30
0.0
 10
178.9982781674249
 20
104.7979660438757
 30
0.0
 10
178.9524409761957
 20
104.7927345961426
 30
0.0
 10
178.8927170113442
 20
104.7568337618346
 30
0.0
 10
178.8487681427369
 20
104.7045246593685
 30
0.0
 10
178.8258347360942
 20
104.6402841372669
 30
0.0
 10
178.8260667011372
 20
104.5720037471467
 30
0.0
 10
178.8491881222023
 20
104.506880304106
 30
0.0
 10
178.892639918201
 20
104.452012442676
 30
0.0
 10
178.9345137046541
 20
104.424338330363
 30
0.0
 10
178.958568177184
 20
104.4143203223317
 30
0.0
 10
178.9612673910245
 20
104.4131961760467
 30
0.0
  0
SPLINE
  5
98
330
1F
100
AcDbEntity
  8
0
  6
Continuous
 62
     7
370
    25
100
AcDbSpline
210
0.0
220
0.0
230
1.0
 70
     8
 71
     3
 72
    12
 73
     8
 74
     0
 42
0.000000001
 43
0.00000001
 40
0.0
 40
0.0
 40
0.0
 40
0.0
 40
0.2093652529605258
 40
0.4192619297278228
 40
0.6249525996332893
 40
0.8281706892237545
 40
1.0
 40
1.0
 40
1.0
 40
1.0
 10
178.9612673910245
 20
104.4131961760467
 30
0.0
 10
178.9958954465974
 20
104.3919372783031
 30
0.0
 10
179.0652394528111
 20
104.3493655221697
 30
0.0
 10
179.1367461041732
 20
104.2494488914884
 30
0.0
 10
179.1721061427666
 20
104.1380399567139
 30
0.0
 10
179.1701222330624
 20
104.0297454071428
 30
0.0
 10
179.1430805965623
 20
103.967874238319
 30
0.0
 10
179.1306913738734
 20
103.939527740555
 30
0.0
  0
SPLINE
  5
99
330
1F
100
AcDbEntity
  8
0
  6
Continuous
 62
     7
370
    25
100
AcDbSpline
210
0.0
220
0.0
230
1.0
 70
     8
 71
     3
 72
    16
 73
    12
 74
     0
 42
0.000000001
 43
0.00000001
 40
0.0
 40
0.0
 40
0.0
 40
0.0
 40
0.1243654221088327
 40
0.2491438717988652
 40
0.3728809614206597
 40
0.4954367981748941
 40
0.617337965070426
 40
0.7392459561098625
 40
0.8618110113604375
 40
0.9855389335649494
 40
1.0
 40
1.0
 40
1.0
 40
1.0
 10
179.1306913738734
 20
103.939527740555
 30
0.0
 10
179.1223133073245
 20
103.9193113576245
 30
0.0
 10
179.105529349993
 20
103.8788114515279
 30
0.0
 10
179.109612171942
 20
103.8113935870557
 30
0.0
 10
179.1355747905859
 20
103.7489714747354
 30
0.0
 10
179.1819440950289
 20
103.6979045301185
 30
0.0
 10
179.242734833116
 20
103.6639284118129
 30
0.0
 10
179.311402405397
 20
103.6504068062462
 30
0.0
 10
179.3803956017959
 20
103.6587471595256
 30
0.0
 10
179.4242041343614
 20
103.6792778165005
 30
0.0
 10
179.444094218359
 20
103.6938761884973
 30
0.0
 10
179.4461756564599
 20
103.6954038646845
 30
0.0
  0
SPLINE
  5
9A
330
1F
100
AcDbEntity
  8
0
  6
Continuous
 62
     7
370
    25
100
AcDbSpline
210
0.0
220
0.0
230
1.0
 70
     8
 71
     3
 72
    12
 73
     8
 74
     0
 42
0.000000001
 43
0.00000001
 40
0.0
 40
0.0
 40
0.0
 40
0.0
 40
0.2092378396812021
 40
0.4191378956983126
 40
0.6248316181527589
 40
0.8280490456277735
 40
1.0
 40
1.0
 40
1.0
 40
1.0
 10
179.4461756564599
 20
103.6954038646845
 30
0.0
 10
179.4811801539871
 20
103.7131567936698
 30
0.0
 10
179.5512999346916
 20
103.7487188378426
 30
0.0
 10
179.6743130280798
 20
103.7578089461262
 30
0.0
 10
179.7917965029114
 20
103.7320399415232
 30
0.0
 10
179.8897803819949
 20
103.6775116137057
 30
0.0
 10
179.9338309437106
 20
103.6251436538384
 30
0.0
 10
179.9540206411748
 20
103.6011418426161
 30
0.0
  0
SPLINE
  5
9B
330
1F
100
AcDbEntity
  8
0
  6
Continuous
 62
     7
370
    25
100
AcDbSpline
210
0.0
220
0.0
230
1.0
 70
     8
 71
     3
 72
    16
 73
    12
 74
     0
 42
0.000000001
 43
0.00000001
 40
0.0
 40
0.0
 40
0.0
 40
0.0
 40
0.124219458969578
 40
0.2489993218718669
 40
0.3727377574600154
 40
0.4952944629268665
 40
0.6171957750167114
 40
0.7391031181772831
 40
0.8616668233223531
 40
0.985392937171667
 40
1.0
 40
1.0
 40
1.0
 40
1.0
 10
179.9540206411748
 20
103.6011418426161
 30
0.0
 10
179.9686122743385
 20
103.5844357333486
 30
0.0
 10
179.997861369391
 20
103.5509481468365
 30
0.0
 10
180.0616926347455
 20
103.5215845295436
 30
0.0
 10
180.131421385143
 20
103.5127446735526
 30
0.0
 10
180.2005176437562
 20
103.5263329885515
 30
0.0
 10
180.2608703509287
 20
103.5601917835777
 30
0.0
 10
180.3062300853591
 20
103.6105203650986
 30
0.0
 10
180.3316255384581
 20
103.6717143226379
 30
0.0
 10
180.333679292165
 20
103.7179500620646
 30
0.0
 10
180.3297059621432
 20
103.7414907475112
 30
0.0
 10
180.329286404936
 20
103.7439764872274
 30
0.0
  0
SPLINE
  5
9C
330
1F
100
AcDbEntity
  8
0
  6
Continuous
 62
     7
370
    25
100
AcDbSpline
210
0.0
220
0.0
230
1.0
 70
     8
 71
     3
 72
    12
 73
     8
 74
     0
 42
0.000000001
 43
0.00000001
 40
0.0
 40
0.0
 40
0.0
 40
0.0
 40
0.2093653562127032
 40
0.4192620302417025
 40
0.6249526976743388
 40
0.8281707878027974
 40
1.0
 40
1.0
 40
1.0
 40
1.0
 10
180.329286404936
 20
103.7439764872274
 30
0.0
 10
180.3296857367215
 20
103.7815846846392
 30
0.0
 10
180.3304854136986
 20
103.8568965198245
 30
0.0
 10
180.3820189386076
 20
103.9637613577635
 30
0.0
 10
180.4641357201693
 20
104.0497841079853
 30
0.0
 10
180.5640699581849
 20
104.1061050168943
 30
0.0
 10
180.6351444045937
 20
104.1182354796628
 30
0.0
 10
180.6677074068019
 20
104.1237930929243
 30
0.0
  0
SPLINE
  5
9D
330
1F
100
AcDbEntity
  8
0
  6
Continuous
 62
     7
370
    25
100
AcDbSpline
210
0.0
220
0.0
230
1.0
 70
     8
 71
     3
 72
    16
 73
    12
 74
     0
 42
0.000000001
 43
0.00000001
 40
0.0
 40
0.0
 40
0.0
 40
0.0
 40
0.1231896672981362
 40
0.2479795154963254
 40
0.3717274745393507
 40
0.49429034797495
 40
0.6161927293768891
 40
0.7380955470923329
 40
0.8606497678266214
 40
0.9843631542991809
 40
1.0
 40
1.0
 40
1.0
 40
1.0
 10
180.6677074068019
 20
104.1237930929243
 30
0.0
 10
180.6904781115761
 20
104.1280711116493
 30
0.0
 10
180.7363153028053
 20
104.1366827187262
 30
0.0
 10
180.796039267657
 20
104.1762939814873
 30
0.0
 10
180.8399881362642
 20
104.2309403648627
 30
0.0
 10
180.8629215429071
 20
104.2959278237038
 30
0.0
 10
180.862689577864
 20
104.3633676706619
 30
0.0
 10
180.8395681567986
 20
104.4261218892308
 30
0.0
 10
180.7961163608
 20
104.4772332954053
 30
0.0
 10
180.7542425743469
 20
104.5014294445815
 30
0.0
 10
180.7301881018172
 20
104.5094422803516
 30
0.0
 10
180.7274888879766
 20
104.5103414211324
 30
0.0
  0
SPLINE
  5
9E
330
1F
100
AcDbEntity
  8
0
  6
Continuous
 62
     7
370
    25
100
AcDbSpline
210
0.0
220
0.0
230
1.0
 70
     8
 71
     3
 72
    12
 73
     8
 74
     0
 42
0.000000001
 43
0.00000001
 40
0.0
 40
0.0
 40
0.0
 40
0.0
 40
0.2093652529604675
 40
0.4192619297277097
 40
0.6249525996331267
 40
0.8281706892236397
 40
1.0
 40
1.0
 40
1.0
 40
1.0
 10
180.7274888879766
 20
104.5103414211324
 30
0.0
 10
180.6928608324038
 20
104.5287746502886
 30
0.0
 10
180.6235168261901
 20
104.5656878969609
 30
0.0
 10
180.552010174828
 20
104.6613637541054
 30
0.0
 10
180.5166501362347
 20
104.7735796598533
 30
0.0
 10
180.5186340459384
 20
104.8869951959224
 30
0.0
 10
180.5456756824388
 20
104.9540903540043
 30
0.0
 10
180.5580649051279
 20
104.9848302411715
 30
0.0
  0
SPLINE
  5
9F
330
1F
100
AcDbEntity
  8
0
  6
Continuous
 62
     7
370
    25
100
AcDbSpline
210
0.0
220
0.0
230
1.0
 70
     8
 71
     3
 72
    16
 73
    12
 74
     0
 42
0.000000001
 43
0.00000001
 40
0.0
 40
0.0
 40
0.0
 40
0.0
 40
0.1243654221088213
 40
0.2491438717989775
 40
0.3728809614208282
 40
0.4954367981749863
 40
0.6173379650705338
 40
0.7392459561098293
 40
0.8618110113607671
 40
0.9855389335650185
 40
0.9999999999999999
 40
0.9999999999999999
 40
0.9999999999999999
 40
0.9999999999999999
 10
180.5580649051279
 20
104.9848302411715
 30
0.0
 10
180.5664429716768
 20
105.0067412903894
 30
0.0
 10
180.5832269290084
 20
105.0506361571841
 30
0.0
 10
180.5791441070591
 20
105.1217630675652
 30
0.0
 10
180.5531814884151
 20
105.1865080759926
 30
0.0
 10
180.5068121839722
 20
105.2383068766306
 30
0.0
 10
180.4460214458851
 20
105.2714276894345
 30
0.0
 10
180.3773538736041
 20
105.2825661750846
 30
0.0
 10
180.3083606772052
 20
105.2704574046582
 30
0.0
 10
180.2645521446397
 20
105.2464571526016
 30
0.0
 10
180.2446620606422
 20
105.2298695733061
 30
0.0
 10
180.2425806225412
 20
105.2281337324946
 30
0.0
  0
SPLINE
  5
A0
330
1F
100
AcDbEntity
  8
0
  6
Continuous
 62
     7
370
    25
100
AcDbSpline
210
0.0
220
0.0
230
1.0
 70
     8
 71
     3
 72
    12
 73
     8
 74
     0
 42
0.000000001
 43
0.00000001
 40
0.0
 40
0.0
 40
0.0
 40
0.0
 40
0.2092378396812859
 40
0.4191378956981957
 40
0.624831618152902
 40
0.8280490456278938
 40
1.0
 40
1.0
 40
1.0
 40
1.0
 10
180.2425806225412
 20
105.2281337324946
 30
0.0
 10
180.207576125014
 20
105.2075567728174
 30
0.0
 10
180.1374563443096
 20
105.1663377294929
 30
0.0
 10
180.0144432509213
 20
105.1530047985959
 30
0.0
 10
179.8969597760898
 20
105.1795776613581
 30
0.0
 10
179.7989758970061
 20
105.2392257934372
 30
0.0
 10
179.7549253352905
 20
105.2968193018202
 30
0.0
 10
179.7347356378263
 20
105.3232161391105
 30
0.0
  0
ARC
  5
A1
330
1F
100
AcDbEntity
  8
0
  6
Continuous
 62
     7
370
    25
100
AcDbCircle
 10
179.9079761321
 20
104.2588444283
 30
0.0
 40
1.636420343940429
100
AcDbArc
 50
303.2378678062
 51
359.7287627884
  0
ARC
  5
A2
330
1F
100
AcDbEntity
  8
0
  6
Continuous
 62
     7
370
    25
100
AcDbCircle
 10
179.7590676068
 20
104.2530905233
 30
0.0
 40
1.614690697063485
100
AcDbArc
 50
180.0707144658
 51
212.3301537294
  0
LINE
  5
A3
330
1F
100
AcDbEntity
  8
0
  6
Continuous
 62
     7
370
    25
100
AcDbLine
 10
180.3292864049
 20
103.7075485123
 30
0.0
 11
180.3292864049
 21
103.7439764872
 31
0.0
  0
ARC
  5
A4
330
1F
100
AcDbEntity
  8
0
  6
Continuous
 62
     7
370
    25
100
AcDbCircle
 10
178.8284238752
 20
103.885736399
 30
0.0
 40
0.3407154084298456
100
AcDbArc
 50
336.978950577
 51
359.9821762161
  0
LWPOLYLINE
  5
A5
330
1F
100
AcDbEntity
  8
0
  6
Continuous
 62
     7
370
    25
100
AcDbPolyline
 90
        3
 70
   128
 43
0.0
 10
180.727488888
 20
104.2996702946
 10
180.787976279
 20
104.2656214236
 10
180.8286800028
 20
104.2210438621
  0
LINE
  5
A6
330
1F
100
AcDbEntity
  8
0
  6
Continuous
 62
     7
370
    25
100
AcDbLine
 10
180.727488888
 20
104.2996702946
 30
0.0
 11
180.727488888
 21
104.5103414211
 31
0.0
  0
ARC
  5
A7
330
1F
100
AcDbEntity
  8
0
  6
Continuous
 62
     7
370
    25
100
AcDbCircle
 10
179.031550031
 20
104.3827517791
 30
0.0
 40
0.2069983278021668
100
AcDbArc
 50
92.9079000935
 51
146.2434097015
  0
ARC
  5
A8
330
1F
100
AcDbEntity
  8
0
  6
Continuous
 62
     7
370
    25
100
AcDbCircle
 10
180.8687888697
 20
104.6189838595
 30
0.0
 40
0.3491802364461316
100
AcDbArc
 50
180.396915952
 51
246.1300503505
  0
ARC
  5
A9
330
1F
100
AcDbEntity
  8
0
  6
Continuous
 62
     7
370
    25
100
AcDbCircle
 10
179.0066244918
 20
104.9434120949
 30
0.0
 40
0.3542223361993891
100
AcDbArc
 50
272.3338017136
 51
359.2371755242
  0
ARC
  5
AA
330
1F
100
AcDbEntity
  8
0
  6
Continuous
 62
     7
370
    25
100
AcDbCircle
 10
180.3738815626
 20
104.8542005604
 30
0.0
 40
0.2095099815966341
100
AcDbArc
 50
35.3758494301
 51
128.8074350696
  0
LINE
  5
AB
330
1F
100
AcDbEntity
  8
0
  6
Continuous
 62
     7
370
    25
100
AcDbLine
 10
180.2425806225
 20
105.017462606
 30
0.0
 11
180.2425806225
 21
105.2281337325
 31
0.0
  0
ARC
  5
AC
330
1F
100
AcDbEntity
  8
0
  6
Continuous
 62
     7
370
    25
100
AcDbCircle
 10
179.5630593897
 20
104.995006217
 30
0.0
 40
0.207826475492347
100
AcDbArc
 50
34.3043288002
 51
166.6899614591
  0
ARC
  5
AD
330
1F
100
AcDbEntity
  8
0
  6
Continuous
 62
     7
370
    25
100
AcDbCircle
 10
180.036418792
 20
105.3209986206
 30
0.0
 40
0.3669288930452441
100
AcDbArc
 50
214.6959536284
 51
304.1843689366
  0
LINE
  5
AE
330
1F
100
AcDbEntity
  8
0
  6
Continuous
 62
     7
370
    25
100
AcDbLine
 10
177.2031161715
 20
100.9520537075
 30
0.0
 11
182.7531161715
 21
101.9015994102
 31
0.0
  0
LINE
  5
AF
330
1F
100
AcDbEntity
  8
0
  6
Continuous
 62
     7
370
    25
100
AcDbLine
 10
177.1336569005
 20
101.2784061405
 30
0.0
 11
177.2031161715
 21
100.9520537075
 31
0.0
  0
LINE
  5
B0
330
1F
100
AcDbEntity
  8
0
  6
Continuous
 62
     7
370
    25
100
AcDbLine
 10
177.2207976241
 20
101.3670003493
 30
0.0
 11
177.1336569005
 21
101.2784061405
 31
0.0
  0
SPLINE
  5
B1
330
1F
100
AcDbEntity
  8
0
  6
Continuous
 62
     7
370
    25
100
AcDbSpline
210
0.0
220
0.0
230
1.0
 70
     8
 71
     3
 72
    11
 73
     7
 74
     0
 42
0.000000001
 43
0.00000001
 40
0.0
 40
0.0
 40
0.0
 40
0.0
 40
0.0074552814711547
 40
0.3066092506034839
 40
0.6526506519390198
 40
0.9999999999999999
 40
0.9999999999999999
 40
0.9999999999999999
 40
0.9999999999999999
 10
177.6630525287352
 20
101.8969409153576
 30
0.0
 10
177.6620661151669
 20
101.8955868234213
 30
0.0
 10
177.6214984282036
 20
101.8398978309336
 30
0.0
 10
177.5293225791265
 20
101.7185710224367
 30
0.0
 10
177.3762114743585
 20
101.531831863554
 30
0.0
 10
177.2726673461453
 20
101.422013237841
 30
0.0
 10
177.2207976241139
 20
101.3670003492502
 30
0.0
  0
LINE
  5
B2
330
1F
100
AcDbEntity
  8
0
  6
Continuous
 62
     7
370
    25
100
AcDbLine
 10
177.1336569005
 20
101.2784061405
 30
0.0
 11
176.7336569005
 21
101.3342756091
 31
0.0
  0
LINE
  5
B3
330
1F
100
AcDbEntity
  8
0
  6
Continuous
 62
     7
370
    25
100
AcDbLine
 10
176.7336569005
 20
106.8024913744
 30
0.0
 11
176.7336569005
 21
101.3342756091
 31
0.0
  0
ARC
  5
B4
330
1F
100
AcDbEntity
  8
0
  6
Continuous
 62
     7
370
    25
100
AcDbCircle
 10
177.1333217334
 20
100.762570633
 30
0.0
 40
0.1087336169746491
100
AcDbArc
 50
210.7327378876
 51
280.0900712917
  0
ARC
  5
B5
330
1F
100
AcDbEntity
  8
0
  6
Continuous
 62
     7
370
    25
100
AcDbCircle
 10
177.1300454955
 20
101.3417202537
 30
0.0
 40
0.3964584984171813
100
AcDbArc
 50
181.0759557239
 51
280.6208198444
  0
LINE
  5
B6
330
1F
100
AcDbEntity
  8
0
  6
Continuous
 62
     7
370
    25
100
AcDbLine
 10
177.1523714412
 20
100.6555187386
 30
0.0
 11
178.0745882463
 21
100.8133001808
 31
0.0
  0
SPLINE
  5
B7
330
1F
100
AcDbEntity
  8
0
  6
Continuous
 62
     7
370
    25
100
AcDbSpline
210
0.0
220
0.0
230
1.0
 70
     8
 71
     3
 72
    12
 73
     8
 74
     0
 42
0.000000001
 43
0.00000001
 40
0.0
 40
0.0
 40
0.0
 40
0.0
 40
0.048190627012532
 40
0.4227687915308447
 40
0.5661203835288025
 40
0.9912408780623964
 40
1.0
 40
1.0
 40
1.0
 40
1.0
 10
182.7076457264519
 20
102.2127946532592
 30
0.0
 10
182.7000644826873
 20
102.2182367616826
 30
0.0
 10
182.6335554234909
 20
102.2659795229658
 30
0.0
 10
182.5383894368506
 20
102.3408425829974
 30
0.0
 10
182.3845214618125
 20
102.4722917558083
 30
0.0
 10
182.2932099554445
 20
102.5573713395378
 30
0.0
 10
182.2313265773394
 20
102.6189824709381
 30
0.0
 10
182.2300772813731
 20
102.6202262708129
 30
0.0
  0
SPLINE
  5
B8
330
1F
100
AcDbEntity
  8
0
  6
Continuous
 62
     7
370
    25
100
AcDbSpline
210
0.0
220
0.0
230
1.0
 70
     8
 71
     3
 72
    10
 73
     6
 74
     0
 42
0.000000001
 43
0.00000001
 40
0.0
 40
0.0
 40
0.0
 40
0.0
 40
0.3658097627743688
 40
0.9379269162054031
 40
1.0
 40
1.0
 40
1.0
 40
1.0
 10
182.7076457264511
 20
102.2127946532597
 30
0.0
 10
182.7088124629256
 20
102.2041265927515
 30
0.0
 10
182.7118039455347
 20
102.1819019063452
 30
0.0
 10
182.7063109137149
 20
102.1589241636998
 30
0.0
 10
182.7020577787791
 20
102.1448311395813
 30
0.0
 10
182.7016414917003
 20
102.1434517467499
 30
0.0
  0
ARC
  5
B9
330
1F
100
AcDbEntity
  8
0
  6
Continuous
 62
     7
370
    25
100
AcDbCircle
 10
178.5246283875
 20
102.9717820053
 30
0.0
 40
0.9911462459202912
100
AcDbArc
 50
181.0759557147
 51
280.6208198701
  0
SPLINE
  5
BA
330
1F
100
AcDbEntity
  8
0
  6
Continuous
 62
     7
370
    25
100
AcDbSpline
210
0.0
220
0.0
230
1.0
 70
     8
 71
     3
 72
    10
 73
     6
 74
     0
 42
0.000000001
 43
0.00000001
 40
0.0
 40
0.0
 40
0.0
 40
0.0
 40
0.0620730837953727
 40
0.6341902372119331
 40
1.0
 40
1.0
 40
1.0
 40
1.0
 10
182.7872260336046
 20
102.2424177242802
 30
0.0
 10
182.7856798652483
 20
102.2415278250624
 30
0.0
 10
182.7698829236968
 20
102.2324358747112
 30
0.0
 10
182.7439938648522
 20
102.2191248295622
 30
0.0
 10
182.7178444913561
 20
102.2145708096941
 30
0.0
 10
182.7076457264519
 20
102.2127946532592
 30
0.0
  0
LINE
  5
BB
330
1F
100
AcDbEntity
  8
0
  6
Continuous
 62
     7
370
    25
100
AcDbLine
 10
182.6836569005
 20
107.6961676085
 30
0.0
 11
183.0836569005
 21
107.7520370771
 31
0.0
  0
LINE
  5
BC
330
1F
100
AcDbEntity
  8
0
  6
Continuous
 62
     7
370
    25
100
AcDbLine
 10
183.0836569005
 20
102.2838213118
 30
0.0
 11
183.0836569005
 21
107.7520370771
 31
0.0
  0
LINE
  5
BD
330
1F
100
AcDbEntity
  8
0
  6
Continuous
 62
     7
370
    25
100
AcDbLine
 10
182.5965161768
 20
107.5832308701
 30
0.0
 11
182.6836569005
 21
107.6961676085
 31
0.0
  0
ARC
  5
BE
330
1F
100
AcDbEntity
  8
0
  6
Continuous
 62
     7
370
    25
100
AcDbCircle
 10
182.6920202735
 20
102.2884690789
 30
0.0
 40
0.3916642048481365
100
AcDbArc
 50
278.9742469482
 51
359.3200714093
  0
LINE
  5
BF
330
1F
100
AcDbEntity
  8
0
  6
Continuous
 62
     7
370
    25
100
AcDbLine
 10
178.7073050781
 20
101.9976156399
 30
0.0
 11
181.4573050781
 21
102.4681112583
 31
0.0
  0
LINE
  5
C0
330
1F
100
AcDbEntity
  8
0
  6
Continuous
 62
     7
370
    25
100
AcDbLine
 10
181.1100087228
 20
107.0886970464
 30
0.0
 11
178.3600087228
 21
106.6182014279
 31
0.0
  0
ARC
  5
C1
330
1F
100
AcDbEntity
  8
0
  6
Continuous
 62
     7
370
    25
100
AcDbCircle
 10
181.2926854129
 20
106.1145306806
 30
0.0
 40
0.9911462461250866
100
AcDbArc
 50
1.0759557295
 51
100.6208198387
  0
LINE
  5
C2
330
1F
100
AcDbEntity
  8
0
  6
Continuous
 62
     7
370
    25
100
AcDbLine
 10
182.2836569005
 20
103.4236660123
 30
0.0
 11
182.2836569005
 21
106.1331422924
 31
0.0
  0
ARC
  5
C3
330
1F
100
AcDbEntity
  8
0
  6
Continuous
 62
     7
370
    25
100
AcDbCircle
 10
181.3045653329
 20
103.4352854302
 30
0.0
 40
0.9791605121228437
100
AcDbArc
 50
278.9742469482
 51
359.3200714032
  0
LINE
  5
C4
330
1F
100
AcDbEntity
  8
0
  6
Continuous
 62
     7
370
    25
100
AcDbLine
 10
177.5336569005
 20
105.6626466739
 30
0.0
 11
177.5336569002
 21
102.9531703938
 31
0.0
  0
ARC
  5
C5
330
1F
100
AcDbEntity
  8
0
  6
Continuous
 62
     7
370
    25
100
AcDbCircle
 10
178.512748468
 20
105.651027256
 30
0.0
 40
0.9791605121227651
100
AcDbArc
 50
98.9742469482
 51
179.3200714032
  0
LWPOLYLINE
  5
C6
330
1F
100
AcDbEntity
  8
0
  6
Continuous
 62
     7
370
    25
100
AcDbPolyline
 90
       32
 70
   128
 43
0.0
 10
177.9836569005
 20
104.5431563431
 10
178.0230617636
 20
104.1671670876
 10
178.1396631131
 20
103.8065708764
 10
178.3286872761
 20
103.4761305608
 10
178.5823955812
 20
103.1893744061
 10
178.8904011806
 20
102.9580422429
 10
179.2400942887
 20
102.7916048373
 10
179.6171584288
 20
102.6968761561
 10
180.0061565505
 20
102.6777344026
 10
180.3911630251
 20
102.7349632426
 10
180.7564156422
 20
102.8662197206
 10
181.0869609169
 20
103.0661301809
 10
181.3692662867
 20
103.3265102659
 10
181.5917741365
 20
103.6366999842
 10
181.745374969
 20
103.9840001323
 10
181.823780348
 20
104.3541922014
 10
181.823780348
 20
104.7321204847
 10
181.745374969
 20
105.1023125538
 10
181.5917741365
 20
105.4496127019
 10
181.3692662867
 20
105.7598024202
 10
181.0869609169
 20
106.0201825052
 10
180.7564156422
 20
106.2200929655
 10
180.3911630251
 20
106.3513494435
 10
180.0061565505
 20
106.4085782835
 10
179.6171584288
 20
106.3894365301
 10
179.2400942887
 20
106.2947078489
 10
178.8904011806
 20
106.1282704432
 10
178.5823955812
 20
105.89693828
 10
178.3286872761
 20
105.6101821253
 10
178.1396631131
 20
105.2797418097
 10
178.0230617636
 20
104.9191455985
 10
177.9836569005
 20
104.5431563431
  0
ARC
  5
C7
330
1F
100
AcDbEntity
  8
0
  6
Continuous
 62
     7
370
    25
100
AcDbCircle
 10
179.9086569005
 20
104.312936422
 30
0.0
 40
1.927781925815924
100
AcDbArc
 50
4.1496954799
 51
175.8503045221
  0
SPLINE
  5
C8
330
1F
100
AcDbEntity
  8
0
  6
Continuous
 62
     7
370
    25
100
AcDbSpline
210
0.0
220
0.0
230
1.0
 70
     8
 71
     3
 72
    12
 73
     8
 74
     0
 42
0.000000001
 43
0.00000001
 40
0.0
 40
0.0
 40
0.0
 40
0.0
 40
0.0087591219376026
 40
0.4338796164711987
 40
0.5772312084691559
 40
0.9518093729874684
 40
1.0
 40
1.0
 40
1.0
 40
1.0
 10
177.5872365195654
 20
106.4003101547269
 30
0.0
 10
177.5859872235991
 20
106.4011006454043
 30
0.0
 10
177.5241038454938
 20
106.440257286262
 30
0.0
 10
177.4327923391261
 20
106.5038647548544
 30
0.0
 10
177.2789243640879
 20
106.622966433357
 30
0.0
 10
177.1837583774476
 20
106.7030668669499
 30
0.0
 10
177.1172493182512
 20
106.76362410375
 30
0.0
 10
177.1096680744866
 20
106.7705269103667
 30
0.0
  0
SPLINE
  5
C9
330
1F
100
AcDbEntity
  8
0
  6
Continuous
 62
     7
370
    25
100
AcDbSpline
210
0.0
220
0.0
230
1.0
 70
     8
 71
     3
 72
    10
 73
     6
 74
     0
 42
0.000000001
 43
0.00000001
 40
0.0
 40
0.0
 40
0.0
 40
0.0
 40
0.062073083795437
 40
0.6341902372120607
 40
1.0
 40
1.0
 40
1.0
 40
1.0
 10
177.0300877673339
 20
106.7610877868637
 30
0.0
 10
177.0316339356902
 20
106.7615472588477
 30
0.0
 10
177.0474308772418
 20
106.7662416066831
 30
0.0
 10
177.0733199360863
 20
106.7726134183896
 30
0.0
 10
177.0994693095824
 20
106.7711123545114
 30
0.0
 10
177.1096680744866
 20
106.7705269103667
 30
0.0
  0
SPLINE
  5
CA
330
1F
100
AcDbEntity
  8
0
  6
Continuous
 62
     7
370
    25
100
AcDbSpline
210
0.0
220
0.0
230
1.0
 70
     8
 71
     3
 72
    11
 73
     7
 74
     0
 42
0.000000001
 43
0.00000001
 40
0.0
 40
0.0
 40
0.0
 40
0.0
 40
0.3473493480609603
 40
0.6933907493964961
 40
0.9925447185288464
 40
0.9999999999999999
 40
0.9999999999999999
 40
0.9999999999999999
 40
0.9999999999999999
 10
182.5965161768247
 20
107.5832308701002
 30
0.0
 10
182.5446464547932
 20
107.5182842980016
 30
0.0
 10
182.44110232658
 20
107.388635710637
 30
0.0
 10
182.2879912218121
 20
107.2212737709566
 30
0.0
 10
182.1958153727347
 20
107.1294248632401
 30
0.0
 10
182.1552476857716
 20
107.091292688794
 30
0.0
 10
182.1542612722034
 20
107.0903654953285
 30
0.0
  0
SPLINE
  5
CB
330
1F
100
AcDbEntity
  8
0
  6
Continuous
 62
     7
370
    25
100
AcDbSpline
210
0.0
220
0.0
230
1.0
 70
     8
 71
     3
 72
    10
 73
     6
 74
     0
 42
0.000000001
 43
0.00000001
 40
0.0
 40
0.0
 40
0.0
 40
0.0
 40
0.3658097627742615
 40
0.9379269162054091
 40
1.0
 40
1.0
 40
1.0
 40
1.0
 10
177.1096680744874
 20
106.770526910366
 30
0.0
 10
177.1085013380129
 20
106.7815565714537
 30
0.0
 10
177.1055098554038
 20
106.8098363416063
 30
0.0
 10
177.1110028872235
 20
106.8397533176946
 30
0.0
 10
177.1152560221594
 20
106.8582439443289
 30
0.0
 10
177.1156723092382
 20
106.8600537643941
 30
0.0
  0
LINE
  5
CC
330
1F
100
AcDbEntity
  8
0
  6
Continuous
 62
     7
370
    25
100
AcDbLine
 10
182.6141976294
 20
108.1342589787
 30
0.0
 11
177.0641976294
 21
107.184713276
 31
0.0
  0
LINE
  5
CD
330
1F
100
AcDbEntity
  8
0
  6
Continuous
 62
     7
370
    25
100
AcDbLine
 10
182.6836569005
 20
107.6961676085
 30
0.0
 11
182.6141976294
 21
108.1342589787
 31
0.0
  0
ARC
  5
CE
330
1F
100
AcDbEntity
  8
0
  6
Continuous
 62
     7
370
    25
100
AcDbCircle
 10
177.1252935275
 20
106.7978436072
 30
0.0
 40
0.3916642048693932
100
AcDbArc
 50
98.9742469507
 51
179.3200714007
  0
ARC
  5
CF
330
1F
100
AcDbEntity
  8
0
  6
Continuous
 62
     7
370
    25
100
AcDbCircle
 10
182.6872683054
 20
107.7445924324
 30
0.0
 40
0.3964584984828016
100
AcDbArc
 50
1.0759557351
 51
100.6208198332
  0
LINE
  5
D0
330
1F
100
AcDbEntity
  8
0
  6
Continuous
 62
     7
370
    25
100
AcDbLine
 10
145.1605414416
 20
95.2651553676
 30
0.0
 11
145.1605414416
 21
111.2651553676
 31
0.0
  0
LINE
  5
D1
330
1F
100
AcDbEntity
  8
0
  6
Continuous
 62
     7
370
    25
100
AcDbLine
 10
109.4586569005
 20
95.2651553676
 30
0.0
 11
109.4586569005
 21
109.4651553676
 31
0.0
  0
LINE
  5
D2
330
1F
100
AcDbEntity
  8
0
  6
Continuous
 62
     7
370
    25
100
AcDbLine
 10
117.5836569005
 20
109.4651553676
 30
0.0
 11
109.4586569005
 21
109.4651553676
 31
0.0
  0
LINE
  5
D3
330
1F
100
AcDbEntity
  8
0
  6
Continuous
 62
     7
370
    25
100
AcDbLine
 10
119.3836569005
 20
111.2651553676
 30
0.0
 11
117.5836569005
 21
109.4651553676
 31
0.0
  0
LINE
  5
D4
330
1F
100
AcDbEntity
  8
0
  6
Continuous
 62
     7
370
    25
100
AcDbLine
 10
124.0836569005
 20
109.4651553676
 30
0.0
 11
122.2836569005
 21
111.2651553676
 31
0.0
  0
LINE
  5
D5
330
1F
100
AcDbEntity
  8
0
  6
Continuous
 62
     7
370
    25
100
AcDbLine
 10
132.0836569005
 20
109.4651553676
 30
0.0
 11
124.0836569005
 21
109.4651553676
 31
0.0
  0
LINE
  5
D6
330
1F
100
AcDbEntity
  8
0
  6
Continuous
 62
     7
370
    25
100
AcDbLine
 10
133.8836569005
 20
111.2651553676
 30
0.0
 11
132.0836569005
 21
109.4651553676
 31
0.0
  0
LINE
  5
D7
330
1F
100
AcDbEntity
  8
0
  6
Continuous
 62
     7
370
    25
100
AcDbLine
 10
108.0836569005
 20
96.6401553676
 30
0.0
 11
108.0836569005
 21
109.4651553676
 31
0.0
  0
SPLINE
  5
D8
330
1F
100
AcDbEntity
  8
0
  6
Continuous
 62
     7
370
    25
100
AcDbSpline
210
0.0
220
0.0
230
1.0
 70
    24
 71
     3
 72
    10
 73
     6
 74
     0
 42
0.000000001
 43
0.00000001
 40
0.0
 40
0.0
 40
0.0
 40
0.0
 40
0.5
 40
0.5
 40
1.0
 40
1.0
 40
1.0
 40
1.0
 10
109.4586569004693
 20
109.4651553676054
 30
0.0
 10
109.186416713152
 20
109.4651553676054
 30
0.0
 10
108.9280526049641
 20
109.4651553676054
 30
0.0
 10
108.4619865871487
 20
109.4651553676054
 30
0.0
 10
108.253396084021
 20
109.4651553676054
 30
0.0
 10
108.0836569004692
 20
109.4651553676054
 30
0.0
  0
SPLINE
  5
D9
330
1F
100
AcDbEntity
  8
0
  6
Continuous
 62
     7
370
    25
100
AcDbSpline
210
0.0
220
0.0
230
1.0
 70
     8
 71
     3
 72
     8
 73
     4
 74
     0
 42
0.000000001
 43
0.00000001
 40
0.0
 40
0.0
 40
0.0
 40
0.0
 40
1.0
 40
1.0
 40
1.0
 40
1.0
 10
177.6708536232746
 20
99.74428699610412
 30
0.0
 10
177.4986004475576
 20
99.78085127511231
 30
0.0
 10
177.3248977676612
 20
99.80388787959141
 30
0.0
 10
177.1499090902738
 20
99.814093113238
 30
0.0
  0
SPLINE
  5
DA
330
1F
100
AcDbEntity
  8
0
  6
Continuous
 62
     7
370
    25
100
AcDbSpline
210
0.0
220
0.0
230
1.0
 70
     8
 71
     3
 72
    40
 73
    36
 74
     0
 42
0.000000001
 43
0.00000001
 40
0.0
 40
0.0
 40
0.0
 40
0.0
 40
0.1250000000000002
 40
0.1250000000000002
 40
0.2500000000000004
 40
0.2500000000000004
 40
0.3750000000000006
 40
0.3750000000000006
 40
0.4375000000000007
 40
0.4375000000000007
 40
0.5000000000000008
 40
0.5000000000000008
 40
0.5625000000000009
 40
0.5625000000000009
 40
0.5937500000000009
 40
0.5937500000000009
 40
0.625000000000001
 40
0.625000000000001
 40
0.656250000000001
 40
0.656250000000001
 40
0.6718750000000011
 40
0.6718750000000011
 40
0.6875000000000013
 40
0.6875000000000013
 40
0.7187500000000011
 40
0.7187500000000011
 40
0.7500000000000009
 40
0.7500000000000009
 40
0.8125000000000007
 40
0.8125000000000007
 40
0.8750000000000004
 40
0.8750000000000004
 40
0.9375000000000002
 40
0.9375000000000002
 40
1.0
 40
1.0
 40
1.0
 40
1.0
 10
177.1499090902738
 20
99.8140931132377
 30
0.0
 10
176.2278354819649
 20
99.86786788742677
 30
0.0
 10
175.3279340747737
 20
99.96441169067785
 30
0.0
 10
173.5684499394281
 20
100.2794408423388
 30
0.0
 10
172.7091829052726
 20
100.49902082722
 30
0.0
 10
171.0221745423719
 20
101.1098420248898
 30
0.0
 10
170.2153642116629
 20
101.494020628359
 30
0.0
 10
169.0473169039376
 20
102.1915407358942
 30
0.0
 10
168.6625557297336
 20
102.4457306740864
 30
0.0
 10
167.9138949088595
 20
102.9888840565702
 30
0.0
 10
167.5519329073339
 20
103.2758640631787
 30
0.0
 10
166.8537635817957
 20
103.8819645101801
 30
0.0
 10
166.5157364513091
 20
104.202530038428
 30
0.0
 10
166.0566435423262
 20
104.6971126820019
 30
0.0
 10
165.9104027777899
 20
104.8656265036531
 30
0.0
 10
165.6417643534884
 20
105.2087110021107
 30
0.0
 10
165.5210889225122
 20
105.3806191616523
 30
0.0
 10
165.322066187751
 20
105.7281241118826
 30
0.0
 10
165.2455859349455
 20
105.9007922848991
 30
0.0
 10
165.1918879607303
 20
106.150327050808
 30
0.0
 10
165.1846740180034
 20
106.230934117046
 30
0.0
 10
165.1950971790273
 20
106.3830187344814
 30
0.0
 10
165.2131520170732
 20
106.4559817350452
 30
0.0
 10
165.3047749161676
 20
106.6542727000764
 30
0.0
 10
165.4177085178934
 20
106.7620663061978
 30
0.0
 10
165.702544474948
 20
106.9294146528595
 30
0.0
 10
165.8762887848682
 20
106.9920156888247
 30
0.0
 10
166.4305804770427
 20
107.1373181330244
 30
0.0
 10
166.8541607026507
 20
107.1845969073547
 30
0.0
 10
167.7155720081149
 20
107.2477551066888
 30
0.0
 10
168.159823927874
 20
107.2623779496106
 30
0.0
 10
169.0665257920191
 20
107.2809800855519
 30
0.0
 10
169.5252673048192
 20
107.2843762653622
 30
0.0
 10
170.4447347656378
 20
107.2882852102856
 30
0.0
 10
170.906679281265
 20
107.2886727662762
 30
0.0
 10
171.3706372079878
 20
107.2886727662762
 30
0.0
  0
SPLINE
  5
DB
330
1F
100
AcDbEntity
  8
0
  6
Continuous
 62
     7
370
    25
100
AcDbSpline
210
0.0
220
0.0
230
1.0
 70
     8
 71
     3
 72
    34
 73
    30
 74
     0
 42
0.000000001
 43
0.00000001
 40
0.0
 40
0.0
 40
0.0
 40
0.0
 40
0.1249999999999991
 40
0.1249999999999991
 40
0.1874999999999987
 40
0.1874999999999987
 40
0.2499999999999982
 40
0.2499999999999982
 40
0.3124999999999978
 40
0.3124999999999978
 40
0.3437499999999976
 40
0.3437499999999976
 40
0.3749999999999973
 40
0.3749999999999973
 40
0.4062499999999971
 40
0.4062499999999971
 40
0.4374999999999969
 40
0.4374999999999969
 40
0.4999999999999972
 40
0.4999999999999972
 40
0.5624999999999976
 40
0.5624999999999976
 40
0.6249999999999979
 40
0.6249999999999979
 40
0.7499999999999987
 40
0.7499999999999987
 40
0.8749999999999993
 40
0.8749999999999993
 40
1.0
 40
1.0
 40
1.0
 40
1.0
 10
172.766498589436
 20
105.892811384828
 30
0.0
 10
172.2901205785179
 20
105.880969366308
 30
0.0
 10
171.8170522066185
 20
105.86054658888
 30
0.0
 10
171.1155020969842
 20
105.7969479205806
 30
0.0
 10
170.883008044172
 20
105.7701917019266
 30
0.0
 10
170.4219496442471
 20
105.6979237374838
 30
0.0
 10
170.1967417331531
 20
105.6531309282497
 30
0.0
 10
169.7649477213672
 20
105.5328484504788
 30
0.0
 10
169.5549132913199
 20
105.4568074597604
 30
0.0
 10
169.2823053986303
 20
105.2994829375139
 30
0.0
 10
169.1980756889329
 20
105.2390222383269
 30
0.0
 10
169.0579481829192
 20
105.1012773073454
 30
0.0
 10
169.0000965889921
 20
105.0216307084102
 30
0.0
 10
168.9276057993804
 20
104.8446212218735
 30
0.0
 10
168.9133039067432
 20
104.7461837001271
 30
0.0
 10
168.9327302089377
 20
104.5463317634228
 30
0.0
 10
168.9661869754154
 20
104.4431977942344
 30
0.0
 10
169.1169029799474
 20
104.1481106415772
 30
0.0
 10
169.2811845567652
 20
103.9687623133314
 30
0.0
 10
169.6480171941695
 20
103.6662671792498
 30
0.0
 10
169.8547914985628
 20
103.5394162407698
 30
0.0
 10
170.2817557397883
 20
103.334165045544
 30
0.0
 10
170.5017588354957
 20
103.2554633390073
 30
0.0
 10
171.1805510453018
 20
103.0808311418075
 30
0.0
 10
171.6331681767264
 20
103.0519552885706
 30
0.0
 10
172.5438735557725
 20
103.129875373217
 30
0.0
 10
172.9830410159008
 20
103.2354362961162
 30
0.0
 10
173.8487526659457
 20
103.5406377537629
 30
0.0
 10
174.2748117912768
 20
103.7418545626835
 30
0.0
 10
174.6907423363483
 20
103.9685676379157
 30
0.0
  0
SPLINE
  5
DC
330
1F
100
AcDbEntity
  8
0
  6
Continuous
 62
     7
370
    25
100
AcDbSpline
210
0.0
220
0.0
230
1.0
 70
     8
 71
     3
 72
    22
 73
    18
 74
     0
 42
0.000000001
 43
0.00000001
 40
0.0
 40
0.0
 40
0.0
 40
0.0
 40
0.125
 40
0.125
 40
0.25
 40
0.25
 40
0.375
 40
0.375
 40
0.5
 40
0.5
 40
0.625
 40
0.625
 40
0.75
 40
0.75
 40
0.875
 40
0.875
 40
1.0
 40
1.0
 40
1.0
 40
1.0
 10
177.9580118877788
 20
100.7012980864853
 30
0.0
 10
177.8565883349009
 20
100.6180269531147
 30
0.0
 10
177.7411792930324
 20
100.5557739714021
 30
0.0
 10
177.4912197719197
 20
100.4764783224464
 30
0.0
 10
177.359083535731
 20
100.4606385951287
 30
0.0
 10
177.096910825202
 20
100.4769821462935
 30
0.0
 10
176.9665200347216
 20
100.5094621677249
 30
0.0
 10
176.727794239278
 20
100.6168513242109
 30
0.0
 10
176.6175269953155
 20
100.6928111937905
 30
0.0
 10
176.4350977624805
 20
100.8751858537471
 30
0.0
 10
176.3608983900146
 20
100.9836824192148
 30
0.0
 10
176.2601871020302
 20
101.2155584570282
 30
0.0
 10
176.2325223025943
 20
101.3412949623498
 30
0.0
 10
176.2274171262734
 20
101.5917899453664
 30
0.0
 10
176.2497193945843
 20
101.717897604559
 30
0.0
 10
176.3414113907127
 20
101.954510012689
 30
0.0
 10
176.4101882050841
 20
102.064427797877
 30
0.0
 10
176.4990266611606
 20
102.1602833131035
 30
0.0
  0
SPLINE
  5
DD
330
1F
100
AcDbEntity
  8
0
  6
Continuous
 62
     7
370
    25
100
AcDbSpline
210
0.0
220
0.0
230
1.0
 70
     8
 71
     3
 72
     8
 73
     4
 74
     0
 42
0.000000001
 43
0.00000001
 40
0.0
 40
0.0
 40
0.0
 40
0.0
 40
1.0
 40
1.0
 40
1.0
 40
1.0
 10
177.8377212173229
 20
99.70921156082446
 30
0.0
 10
178.2144705055358
 20
99.69533151335345
 30
0.0
 10
178.5921834378286
 20
99.68839856196408
 30
0.0
 10
178.9709114123
 20
99.68839856196409
 30
0.0
  0
SPLINE
  5
DE
330
1F
100
AcDbEntity
  8
0
  6
Continuous
 62
     7
370
    25
100
AcDbSpline
210
0.0
220
0.0
230
1.0
 70
     8
 71
     3
 72
     8
 73
     4
 74
     0
 42
0.000000001
 43
0.00000001
 40
0.0
 40
0.0
 40
0.0
 40
0.0
 40
1.0
 40
1.0
 40
1.0
 40
1.0
 10
177.8377212173229
 20
99.70921156082446
 30
0.0
 10
177.7820977185142
 20
99.72078921590959
 30
0.0
 10
177.7264750040521
 20
99.73248021415563
 30
0.0
 10
177.6708536232746
 20
99.7442869961038
 30
0.0
  0
LINE
  5
DF
330
1F
100
AcDbEntity
  8
0
  6
Continuous
 62
     7
370
    25
100
AcDbLine
 10
171.370637208
 20
107.2886727663
 30
0.0
 11
176.0794730192
 21
107.2886727663
 31
0.0
  0
LINE
  5
E0
330
1F
100
AcDbEntity
  8
0
  6
Continuous
 62
     7
370
    25
100
AcDbLine
 10
175.8762945939
 20
107.289601818
 30
0.0
 11
176.0794730192
 21
107.2886727663
 31
0.0
  0
ELLIPSE
  5
E1
330
1F
100
AcDbEntity
  8
0
  6
Continuous
 62
     7
370
    25
100
AcDbEllipse
 10
170.6427261417
 20
104.2137920445
 30
0.0
 11
5.065046189512231
 21
0.8786488501867922
 31
0.0
210
0.0
220
0.0
230
1.0
 40
0.2833804257
 41
5.587640984653919
 42
7.372745482659273
  0
LINE
  5
E2
330
1F
100
AcDbEntity
  8
0
  6
Continuous
 62
     7
370
    25
100
AcDbLine
 10
177.8377212173
 20
99.1651553676
 30
0.0
 11
177.8377212173
 21
99.7092115608
 31
0.0
  0
LINE
  5
E3
330
1F
100
AcDbEntity
  8
0
  6
Continuous
 62
     7
370
    25
100
AcDbLine
 10
178.9709114123
 20
99.688398562
 30
0.0
 11
180.7830379041
 21
99.688398562
 31
0.0
  0
SPLINE
  5
E4
330
1F
100
AcDbEntity
  8
0
  6
Continuous
 62
     7
370
    25
100
AcDbSpline
210
0.0
220
0.0
230
1.0
 70
     8
 71
     3
 72
    13
 73
     9
 74
     0
 42
0.000000001
 43
0.00000001
 40
0.0
 40
0.0
 40
0.0
 40
0.0
 40
0.045072764360372
 40
0.2409144534214483
 40
0.4272105250172287
 40
0.6109873371045588
 40
0.7997100254594692
 40
1.0
 40
1.0
 40
1.0
 40
1.0
 10
180.7601187746989
 20
99.21533737235562
 30
0.0
 10
180.7388282816852
 20
99.20823430338413
 30
0.0
 10
180.6250303471619
 20
99.17026831653676
 30
0.0
 10
180.4957763502508
 20
99.15674689985887
 30
0.0
 10
180.3994545140891
 20
99.18828910042956
 30
0.0
 10
180.419737995872
 20
99.29247703094441
 30
0.0
 10
180.5427557440634
 20
99.4585806969295
 30
0.0
 10
180.7013717028221
 20
99.61028892796229
 30
0.0
 10
180.7830379038785
 20
99.68839856456121
 30
0.0
  0
LINE
  5
E5
330
1F
100
AcDbEntity
  8
0
  6
Continuous
 62
     7
370
    25
100
AcDbLine
 10
180.7830379041
 20
99.6883985546
 30
0.0
 11
181.0112238987
 21
99.7492681603
 31
0.0
  0
SPLINE
  5
E6
330
1F
100
AcDbEntity
  8
0
  6
Continuous
 62
     7
370
    25
100
AcDbSpline
210
0.0
220
0.0
230
1.0
 70
     8
 71
     3
 72
    24
 73
    20
 74
     0
 42
0.000000001
 43
0.00000001
 40
0.0
 40
0.0
 40
0.0
 40
0.0
 40
0.0319373039907309
 40
0.0631435386222064
 40
0.1235349335551752
 40
0.1816381417094329
 40
0.2379956156896885
 40
0.2932293380670158
 40
0.3480204682978885
 40
0.4030734992082085
 40
0.4590784939865497
 40
0.51667652648254
 40
0.5764310637822123
 40
0.6388136622844913
 40
0.7041974207770112
 40
0.7829408389422512
 40
0.8449845191140706
 40
0.9205909592502498
 40
1.0
 40
1.0
 40
1.0
 40
1.0
 10
181.0112238986907
 20
99.74926816027548
 30
0.0
 10
180.9863844865282
 20
99.72868135657431
 30
0.0
 10
180.9372742553799
 20
99.68797899688268
 30
0.0
 10
180.8492209222904
 20
99.6117294906809
 30
0.0
 10
180.7545143931236
 20
99.52456493504937
 30
0.0
 10
180.6670499199637
 20
99.43352824439039
 30
0.0
 10
180.6071509122582
 20
99.35749353837895
 30
0.0
 10
180.5753054392724
 20
99.29691562693084
 30
0.0
 10
180.5716494652925
 20
99.25207809439213
 30
0.0
 10
180.5962571857678
 20
99.22323022115057
 30
0.0
 10
180.648929302907
 20
99.21046468495379
 30
0.0
 10
180.7293707390071
 20
99.21381117897688
 30
0.0
 10
180.837112131264
 20
99.23318661716529
 30
0.0
 10
180.9716119979652
 20
99.26845557090141
 30
0.0
 10
181.1404819288218
 20
99.32204608655296
 30
0.0
 10
181.3278049182803
 20
99.38941045922468
 30
0.0
 10
181.5392821093097
 20
99.47172750768485
 30
0.0
 10
181.7627338251323
 20
99.5633785372767
 30
0.0
 10
181.931540293031
 20
99.63669995048606
 30
0.0
 10
182.0180139768952
 20
99.67425996098368
 30
0.0
  0
ARC
  5
E7
330
1F
100
AcDbEntity
  8
0
  6
Continuous
 62
     7
370
    25
100
AcDbCircle
 10
177.3124920691
 20
101.490581895
 30
0.0
 40
1.019639527868647
100
AcDbArc
 50
309.2781931851
 51
338.7651502646
  0
LINE
  5
E8
330
1F
100
AcDbEntity
  8
0
  6
Continuous
 62
     7
370
    25
100
AcDbLine
 10
182.9706274618
 20
101.9267186005
 30
0.0
 11
178.2629018184
 21
101.1212770411
 31
0.0
  0
LINE
  5
E9
330
1F
100
AcDbEntity
  8
0
  6
Continuous
 62
     7
370
    25
100
AcDbLine
 10
182.9706274618
 20
101.9267186005
 30
0.0
 11
182.9706274618
 21
101.3989457297
 31
0.0
  0
ELLIPSE
  5
EA
330
1F
100
AcDbEntity
  8
0
  6
Continuous
 62
     7
370
    25
100
AcDbEllipse
 10
181.9631176364
 20
101.3989457297
 30
0.0
 11
1.00750982545884
 21
0.0
 31
0.0
210
0.0
220
0.0
230
1.0
 40
0.9630632891
 41
5.235987755983023
 42
6.283185307179586
  0
LINE
  5
EB
330
1F
100
AcDbEntity
  8
0
  6
Continuous
 62
     7
370
    25
100
AcDbLine
 10
182.4668725491
 20
100.5586449816
 30
0.0
 11
181.0112238987
 21
99.7492681603
 31
0.0
  0
ARC
  5
EC
330
1F
100
AcDbEntity
  8
0
  6
Continuous
 62
     7
370
    25
100
AcDbCircle
 10
177.2643770936
 20
101.4499839821
 30
0.0
 40
1.044167814147286
100
AcDbArc
 50
119.7694957152
 51
137.1365054051
  0
ARC
  5
ED
330
1F
100
AcDbEntity
  8
0
  6
Continuous
 62
     7
370
    25
100
AcDbCircle
 10
177.2525860501
 20
100.883833171
 30
0.0
 40
1.025715971842963
100
AcDbArc
 50
120.392373472
 51
161.91605531
  0
SPLINE
  5
EE
330
1F
100
AcDbEntity
  8
0
  6
Continuous
 62
     7
370
    25
100
AcDbSpline
210
0.0
220
0.0
230
1.0
 70
     8
 71
     3
 72
    10
 73
     6
 74
     0
 42
0.000000001
 43
0.00000001
 40
0.0
 40
0.0
 40
0.0
 40
0.0
 40
0.459102084701961
 40
0.9059089856984367
 40
1.0
 40
1.0
 40
1.0
 40
1.0
 10
182.0180131537268
 20
99.6742592331861
 30
0.0
 10
182.0893632500751
 20
99.71638031414206
 30
0.0
 10
182.2301526203834
 20
99.79949443406615
 30
0.0
 10
182.3426352461806
 20
99.92464478580973
 30
0.0
 10
182.3727610443147
 20
100.0048003330862
 30
0.0
 10
182.3780015283745
 20
100.0187436605272
 30
0.0
  0
LINE
  5
EF
330
1F
100
AcDbEntity
  8
0
  6
Continuous
 62
     7
370
    25
100
AcDbLine
 10
176.7459353566
 20
106.8979164166
 30
0.0
 11
176.7459353566
 21
107.2080831849
 31
0.0
  0
ELLIPSE
  5
F0
330
1F
100
AcDbEntity
  8
0
  6
Continuous
 62
     7
370
    25
100
AcDbEllipse
 10
177.2541063276
 20
114.0302914303
 30
0.0
 11
6.991446485126858
 21
-0.3856325333065485
 31
0.0
210
0.0
220
0.0
230
1.0
 40
0.9770035254
 41
4.597662481456515
 42
4.693583000986619
  0
ELLIPSE
  5
F1
330
1F
100
AcDbEntity
  8
0
  6
Continuous
 62
     7
370
    25
100
AcDbEllipse
 10
177.360892518
 20
112.2310187242
 30
0.0
 11
-8.222543454688548
 21
25.72571946826559
 31
0.0
210
0.0
220
0.0
230
1.0
 40
0.0794703504
 41
1.741848914352075
 42
1.749056634857716
  0
LINE
  5
F2
330
1F
100
AcDbEntity
  8
0
  6
HIDDEN
 62
     7
370
    18
100
AcDbLine
 10
145.1605414416
 20
111.2651553676
 30
0.0
 11
145.1605414416
 21
95.2651553676
 31
0.0
  0
LINE
  5
F3
330
1F
100
AcDbEntity
  8
0
  6
HIDDEN
 62
     7
370
    18
100
AcDbLine
 10
109.4586569005
 20
109.4651553676
 30
0.0
 11
117.5836569005
 21
109.4651553676
 31
0.0
  0
LINE
  5
F4
330
1F
100
AcDbEntity
  8
0
  6
HIDDEN
 62
     7
370
    18
100
AcDbLine
 10
109.4586569005
 20
109.4651553676
 30
0.0
 11
109.4586569005
 21
95.2651553676
 31
0.0
  0
LINE
  5
F5
330
1F
100
AcDbEntity
  8
0
  6
HIDDEN
 62
     7
370
    18
100
AcDbLine
 10
117.5836569005
 20
109.4651553676
 30
0.0
 11
119.3836569005
 21
111.2651553676
 31
0.0
  0
LINE
  5
F6
330
1F
100
AcDbEntity
  8
0
  6
HIDDEN
 62
     7
370
    18
100
AcDbLine
 10
122.2836569005
 20
111.2651553676
 30
0.0
 11
124.0836569005
 21
109.4651553676
 31
0.0
  0
LINE
  5
F7
330
1F
100
AcDbEntity
  8
0
  6
HIDDEN
 62
     7
370
    18
100
AcDbLine
 10
132.0836569005
 20
109.4651553676
 30
0.0
 11
133.8836569005
 21
111.2651553676
 31
0.0
  0
LINE
  5
F8
330
1F
100
AcDbEntity
  8
0
  6
HIDDEN
 62
     7
370
    18
100
AcDbLine
 10
124.0836569005
 20
109.4651553676
 30
0.0
 11
132.0836569005
 21
109.4651553676
 31
0.0
  0
SPLINE
  5
F9
330
1F
100
AcDbEntity
  8
0
  6
HIDDEN
 62
     7
370
    18
100
AcDbSpline
210
0.0
220
0.0
230
1.0
 70
    24
 71
     3
 72
    10
 73
     6
 74
     0
 42
0.000000001
 43
0.00000001
 40
0.0
 40
0.0
 40
0.0
 40
0.0
 40
0.5
 40
0.5
 40
1.0
 40
1.0
 40
1.0
 40
1.0
 10
108.0836569004693
 20
109.4651553676054
 30
0.0
 10
108.2550884227505
 20
109.4651553676054
 30
0.0
 10
108.4652040665421
 20
109.4651553676054
 30
0.0
 10
108.9311902590439
 20
109.4651553676054
 30
0.0
 10
109.1875399337191
 20
109.4651553676054
 30
0.0
 10
109.4586569004692
 20
109.4651553676054
 30
0.0
  0
LINE
  5
FA
330
1F
100
AcDbEntity
  8
0
  6
HIDDEN
 62
     7
370
    18
100
AcDbLine
 10
108.0836569005
 20
109.4651553676
 30
0.0
 11
108.0836569005
 21
96.6401553676
 31
0.0
  0
SPLINE
  5
FB
330
1F
100
AcDbEntity
  8
0
  6
HIDDEN
 62
     7
370
    18
100
AcDbSpline
210
0.0
220
0.0
230
1.0
 70
     8
 71
     3
 72
    17
 73
    13
 74
     0
 42
0.000000001
 43
0.00000001
 40
0.0
 40
0.0
 40
0.0
 40
0.0
 40
0.1675980895424382
 40
0.2508462414796233
 40
0.3364458516556618
 40
0.4583794768586874
 40
0.560892239802582
 40
0.6638181964341878
 40
0.7571210336613747
 40
0.8517738700198959
 40
0.9825421314484717
 40
1.0
 40
1.0
 40
1.0
 40
1.0
 10
177.1499090902738
 20
106.0201003943783
 30
0.0
 10
176.874849625037
 20
106.0478129620208
 30
0.0
 10
176.46316454422
 20
106.0892907226197
 30
0.0
 10
175.955877936596
 20
106.2490381563809
 30
0.0
 10
175.5551016817234
 20
106.4215285408925
 30
0.0
 10
175.201308397814
 20
106.647798874938
 30
0.0
 10
174.97223629596
 20
106.8939478887292
 30
0.0
 10
174.9271403783967
 20
107.0845692259196
 30
0.0
 10
175.0484198811176
 20
107.2082716821574
 30
0.0
 10
175.3308452612835
 20
107.2778075310472
 30
0.0
 10
175.6349957455865
 20
107.2911149032321
 30
0.0
 10
175.8508693046862
 20
107.2897612494916
 30
0.0
 10
175.8762945938644
 20
107.2896018180265
 30
0.0
  0
SPLINE
  5
FC
330
1F
100
AcDbEntity
  8
0
  6
HIDDEN
 62
     7
370
    18
100
AcDbSpline
210
0.0
220
0.0
230
1.0
 70
     8
 71
     3
 72
    18
 73
    14
 74
     0
 42
0.000000001
 43
0.00000001
 40
0.0
 40
0.0
 40
0.0
 40
0.0
 40
0.2500000000000001
 40
0.2500000000000001
 40
0.3750000000000002
 40
0.3750000000000002
 40
0.5000000000000002
 40
0.5000000000000002
 40
0.6250000000000001
 40
0.6250000000000001
 40
0.7500000000000001
 40
0.7500000000000001
 40
1.0
 40
1.0
 40
1.0
 40
1.0
 10
167.0836569004634
 20
101.7841562847777
 30
0.0
 10
167.0971547023798
 20
101.7732720152386
 30
0.0
 10
167.1089501781502
 20
101.8033322208142
 30
0.0
 10
167.1206134435706
 20
101.9033196839365
 30
0.0
 10
167.123457537603
 20
101.9452955815352
 30
0.0
 10
167.1269662096383
 20
102.0462247988342
 30
0.0
 10
167.1276139863331
 20
102.1058837565051
 30
0.0
 10
167.1267401431431
 20
102.2383518166743
 30
0.0
 10
167.1252512384482
 20
102.3113647234758
 30
0.0
 10
167.1204357210932
 20
102.471293946801
 30
0.0
 10
167.1170791113747
 20
102.5586096722704
 30
0.0
 10
167.1052077258645
 20
102.8308096627718
 30
0.0
 10
167.0946361177682
 20
103.0327688777965
 30
0.0
 10
167.0836569004648
 20
103.2414941223553
 30
0.0
  0
SPLINE
  5
FD
330
1F
100
AcDbEntity
  8
0
  6
HIDDEN
 62
     7
370
    18
100
AcDbSpline
210
0.0
220
0.0
230
1.0
 70
     8
 71
     3
 72
    12
 73
     8
 74
     0
 42
0.000000001
 43
0.00000001
 40
0.0
 40
0.0
 40
0.0
 40
0.0
 40
0.25
 40
0.25
 40
0.5
 40
0.5
 40
1.0
 40
1.0
 40
1.0
 40
1.0
 10
166.4387847962547
 20
101.8811493423482
 30
0.0
 10
166.5237453199822
 20
101.8679526476642
 30
0.0
 10
166.6016796429547
 20
101.8512180316851
 30
0.0
 10
166.7417918929279
 20
101.8161103991094
 30
0.0
 10
166.8010422096093
 20
101.7988569261144
 30
0.0
 10
166.9551923464854
 20
101.7610809069815
 30
0.0
 10
167.0251770513586
 20
101.7567139478612
 30
0.0
 10
167.0836569004971
 20
101.7841562847861
 30
0.0
  0
LWPOLYLINE
  5
FE
330
1F
100
AcDbEntity
  8
0
  6
HIDDEN
 62
     7
370
    18
100
AcDbPolyline
 90
       15
 70
   128
 43
0.0
 10
166.4387847963
 20
101.8811493423
 10
166.5504942317
 20
101.7446299468
 10
166.6503746523
 20
101.6840324627
 10
166.7329888714
 20
101.7026556329
 10
166.7938396217
 20
101.7994856687
 10
166.8296143734
 20
101.969251437
 10
166.8383656575
 20
102.202711405
 10
166.8196170807
 20
102.4871567212
 10
166.7743892586
 20
102.8071030464
 10
166.7051442564
 20
103.1451334744
 10
166.6156515618
 20
103.4828466555
 10
166.5107828853
 20
103.8018585098
 10
166.396246959
 20
104.0848030008
 10
166.278278771
 20
104.3162774899
 10
166.1633001511
 20
104.4836812089
  0
SPLINE
  5
FF
330
1F
100
AcDbEntity
  8
0
  6
HIDDEN
 62
     7
370
    18
100
AcDbSpline
210
0.0
220
0.0
230
1.0
 70
     8
 71
     3
 72
    24
 73
    20
 74
     0
 42
0.000000001
 43
0.00000001
 40
0.0
 40
0.0
 40
0.0
 40
0.0
 40
0.1249999999999999
 40
0.1249999999999999
 40
0.2499999999999999
 40
0.2499999999999999
 40
0.3749999999999998
 40
0.3749999999999998
 40
0.4999999999999999
 40
0.4999999999999999
 40
0.6249999999999999
 40
0.6249999999999999
 40
0.75
 40
0.75
 40
0.875
 40
0.875
 40
0.9375
 40
0.9375
 40
1.0
 40
1.0
 40
1.0
 40
1.0
 10
167.0836569004693
 20
103.2414941223555
 30
0.0
 10
167.0244167775749
 20
103.3772831046249
 30
0.0
 10
166.9791316070891
 20
103.5151696741101
 30
0.0
 10
166.900416160884
 20
103.7890512616792
 30
0.0
 10
166.868405636584
 20
103.9220750735902
 30
0.0
 10
166.814123977312
 20
104.1679421561906
 30
0.0
 10
166.7917975921827
 20
104.2817035620779
 30
0.0
 10
166.7544869026243
 20
104.475789357434
 30
0.0
 10
166.7390851746415
 20
104.5585560267983
 30
0.0
 10
166.7115372097342
 20
104.682996766456
 30
0.0
 10
166.6990968145112
 20
104.7265399111585
 30
0.0
 10
166.6692596157892
 20
104.7700372301575
 30
0.0
 10
166.6520729335213
 20
104.7705416941235
 30
0.0
 10
166.5921822781724
 20
104.7302921236621
 30
0.0
 10
166.5480813744804
 20
104.688190554975
 30
0.0
 10
166.4345264950545
 20
104.6121000467645
 30
0.0
 10
166.3879944278343
 20
104.5845816350981
 30
0.0
 10
166.2834760651959
 20
104.5322689732248
 30
0.0
 10
166.2254746578279
 20
104.5072434258013
 30
0.0
 10
166.1633001510734
 20
104.483681208863
 30
0.0
  0
LINE
  5
100
330
1F
100
AcDbEntity
  8
0
  6
HIDDEN
 62
     7
370
    18
100
AcDbLine
 10
109.3826950061
 20
104.7651553676
 30
0.0
 11
109.3826950061
 21
101.7651553676
 31
0.0
  0
LINE
  5
101
330
1F
100
AcDbEntity
  8
0
  6
HIDDEN
 62
     7
370
    18
100
AcDbLine
 10
108.0836569005
 20
101.0151553676
 30
0.0
 11
108.0836569005
 21
105.5049671934
 31
0.0
  0
SPLINE
  5
102
330
1F
100
AcDbEntity
  8
0
  6
HIDDEN
 62
     7
370
    18
100
AcDbSpline
210
0.0
220
0.0
230
1.0
 70
     8
 71
     3
 72
     8
 73
     4
 74
     0
 42
0.000000001
 43
0.00000001
 40
0.0
 40
0.0
 40
0.0
 40
0.0
 40
1.0
 40
1.0
 40
1.0
 40
1.0
 10
177.6708536230697
 20
105.9919538630905
 30
0.0
 10
177.5007595947701
 20
106.0025617483798
 30
0.0
 10
177.3272838511315
 20
106.0120101264089
 30
0.0
 10
177.149909089867
 20
106.0201003924611
 30
0.0
  0
SPLINE
  5
103
330
1F
100
AcDbEntity
  8
0
  6
HIDDEN
 62
     7
370
    18
100
AcDbSpline
210
0.0
220
0.0
230
1.0
 70
     8
 71
     3
 72
    11
 73
     7
 74
     0
 42
0.000000001
 43
0.00000001
 40
0.0
 40
0.0
 40
0.0
 40
0.0
 40
0.2465405544456194
 40
0.495384033946784
 40
0.7465355313504198
 40
1.0
 40
1.0
 40
1.0
 40
1.0
 10
182.0892328509946
 20
100.6881439872811
 30
0.0
 10
182.0922816962506
 20
100.6402535217391
 30
0.0
 10
182.0984078658992
 20
100.5440252478101
 30
0.0
 10
182.1087512805962
 20
100.4063333062438
 30
0.0
 10
182.1199213928533
 20
100.2726383979943
 30
0.0
 10
182.1281203952895
 20
100.188731083982
 30
0.0
 10
182.1322386870911
 20
100.1465851270708
 30
0.0
  0
LINE
  5
104
330
1F
100
AcDbEntity
  8
0
  6
HIDDEN
 62
     7
370
    18
100
AcDbLine
 10
177.8377212173
 20
100.6881439873
 30
0.0
 11
177.8377212173
 21
99.1651553676
 31
0.0
  0
SPLINE
  5
105
330
1F
100
AcDbEntity
  8
0
  6
HIDDEN
 62
     7
370
    18
100
AcDbSpline
210
0.0
220
0.0
230
1.0
 70
     8
 71
     3
 72
    10
 73
     6
 74
     0
 42
0.000000001
 43
0.00000001
 40
0.0
 40
0.0
 40
0.0
 40
0.0
 40
0.3873542770177725
 40
0.7430585501776199
 40
0.9999999999999999
 40
0.9999999999999999
 40
0.9999999999999999
 40
0.9999999999999999
 10
181.8560921695118
 20
99.6668903805958
 30
0.0
 10
181.6936575937907
 20
99.59116322834554
 30
0.0
 10
181.3820606720701
 20
99.44589644984657
 30
0.0
 10
181.0086474496435
 20
99.2911737542294
 30
0.0
 10
180.8335528363545
 20
99.2377451429821
 30
0.0
 10
180.7601187746989
 20
99.21533737235562
 30
0.0
  0
SPLINE
  5
106
330
1F
100
AcDbEntity
  8
0
  6
HIDDEN
 62
     7
370
    18
100
AcDbSpline
210
0.0
220
0.0
230
1.0
 70
     8
 71
     3
 72
    17
 73
    13
 74
     0
 42
0.000000001
 43
0.00000001
 40
0.0
 40
0.0
 40
0.0
 40
0.0
 40
0.0633126771046077
 40
0.1269270102055736
 40
0.2535645572574556
 40
0.3801885910971485
 40
0.50538018971917
 40
0.6301327889182181
 40
0.7550197624182572
 40
0.8778359917009841
 40
0.9399448849070019
 40
0.9999999999999999
 40
0.9999999999999999
 40
0.9999999999999999
 40
0.9999999999999999
 10
182.1322386870911
 20
100.1465851270708
 30
0.0
 10
182.133241570658
 20
100.134113010195
 30
0.0
 10
182.1352521160741
 20
100.1091093525016
 30
0.0
 10
182.1347403429805
 20
100.0601417662708
 30
0.0
 10
182.1278156569657
 20
100.0005746878077
 30
0.0
 10
182.1090963395457
 20
99.93278260122266
 30
0.0
 10
182.0803049218597
 20
99.86909038502344
 30
0.0
 10
182.0412913930332
 20
99.80990472577824
 30
0.0
 10
181.9917884982673
 20
99.75577625553389
 30
0.0
 10
181.9407996879414
 20
99.71528531631603
 30
0.0
 10
181.8945731331855
 20
99.68625778931651
 30
0.0
 10
181.8687740335191
 20
99.67327373442494
 30
0.0
 10
181.8560913463568
 20
99.66689084864915
 30
0.0
  0
SPLINE
  5
107
330
1F
100
AcDbEntity
  8
0
  6
HIDDEN
 62
     7
370
    18
100
AcDbSpline
210
0.0
220
0.0
230
1.0
 70
     8
 71
     3
 72
    14
 73
    10
 74
     0
 42
0.000000001
 43
0.00000001
 40
0.0
 40
0.0
 40
0.0
 40
0.0
 40
0.25
 40
0.25
 40
0.5
 40
0.5
 40
0.75
 40
0.75
 40
1.0
 40
1.0
 40
1.0
 40
1.0
 10
178.8300358845525
 20
103.3267823642685
 30
0.0
 10
178.6889692656419
 20
103.1118581691946
 30
0.0
 10
178.5555615780877
 20
102.8903586521825
 30
0.0
 10
178.317073247544
 20
102.4464055652537
 30
0.0
 10
178.2108827384501
 20
102.2224861895826
 30
0.0
 10
178.0315813051278
 20
101.7693132271881
 30
0.0
 10
177.9603827903962
 20
101.5440108224287
 30
0.0
 10
177.863671930775
 20
101.1065765590399
 30
0.0
 10
177.8377212173229
 20
100.8911331368015
 30
0.0
 10
177.8377212173229
 20
100.6881439872811
 30
0.0
  0
SPLINE
  5
108
330
1F
100
AcDbEntity
  8
0
  6
HIDDEN
 62
     7
370
    18
100
AcDbSpline
210
0.0
220
0.0
230
1.0
 70
     8
 71
     3
 72
    10
 73
     6
 74
     0
 42
0.000000001
 43
0.00000001
 40
0.0
 40
0.0
 40
0.0
 40
0.0
 40
0.5
 40
0.5
 40
1.0
 40
1.0
 40
1.0
 40
1.0
 10
179.407673322864
 20
104.1263743263115
 30
0.0
 10
179.2515886924095
 20
104.0539955409795
 30
0.0
 10
179.1176319979936
 20
103.9394091541979
 30
0.0
 10
178.9192091064544
 20
103.6612428548207
 30
0.0
 10
178.8541156402825
 20
103.4970834560857
 30
0.0
 10
178.8300358845525
 20
103.3267823642685
 30
0.0
  0
SPLINE
  5
109
330
1F
100
AcDbEntity
  8
0
  6
HIDDEN
 62
     7
370
    18
100
AcDbSpline
210
0.0
220
0.0
230
1.0
 70
     8
 71
     3
 72
     8
 73
     4
 74
     0
 42
0.000000001
 43
0.00000001
 40
0.0
 40
0.0
 40
0.0
 40
0.0
 40
1.0
 40
1.0
 40
1.0
 40
1.0
 10
179.8080657245302
 20
104.6118893760572
 30
0.0
 10
179.6708734822377
 20
104.4528301150634
 30
0.0
 10
179.5372626194226
 20
104.2911008512375
 30
0.0
 10
179.407673322864
 20
104.1263743263114
 30
0.0
  0
SPLINE
  5
10A
330
1F
100
AcDbEntity
  8
0
  6
HIDDEN
 62
     7
370
    18
100
AcDbSpline
210
0.0
220
0.0
230
1.0
 70
     8
 71
     3
 72
    12
 73
     8
 74
     0
 42
0.000000001
 43
0.00000001
 40
0.0
 40
0.0
 40
0.0
 40
0.0
 40
0.2500000000000001
 40
0.2500000000000001
 40
0.5000000000000001
 40
0.5000000000000001
 40
1.0
 40
1.0
 40
1.0
 40
1.0
 10
180.7606824498515
 20
106.3531687972766
 30
0.0
 10
180.7396526134003
 20
106.2160520450681
 30
0.0
 10
180.6986859061469
 20
106.0691351016098
 30
0.0
 10
180.5855536656038
 20
105.774361519674
 30
0.0
 10
180.5124270660366
 20
105.6232815734134
 30
0.0
 10
180.259038869891
 20
105.1769751903024
 30
0.0
 10
180.0466650377017
 20
104.8885189419315
 30
0.0
 10
179.8080657245302
 20
104.6118893760572
 30
0.0
  0
SPLINE
  5
10B
330
1F
100
AcDbEntity
  8
0
  6
HIDDEN
 62
     7
370
    18
100
AcDbSpline
210
0.0
220
0.0
230
1.0
 70
     8
 71
     3
 72
     8
 73
     4
 74
     0
 42
0.000000001
 43
0.00000001
 40
0.0000176592777586
 40
0.0000176592777586
 40
0.0000176592777586
 40
0.0000176592777586
 40
0.0022604705497401
 40
0.0022604705497401
 40
0.0022604705497401
 40
0.0022604705497401
 10
180.7606824498524
 20
106.3531687972774
 30
0.0
 10
180.024983686079
 20
106.2449568704149
 30
0.0
 10
179.2893104387033
 20
106.136962896511
 30
0.0
 10
178.5536685484761
 20
106.0292220265153
 30
0.0
  0
SPLINE
  5
10C
330
1F
100
AcDbEntity
  8
0
  6
HIDDEN
 62
     7
370
    18
100
AcDbSpline
210
0.0
220
0.0
230
1.0
 70
     8
 71
     3
 72
     8
 73
     4
 74
     0
 42
0.000000001
 43
0.00000001
 40
0.0
 40
0.0
 40
0.0
 40
0.0
 40
1.0
 40
1.0
 40
1.0
 40
1.0
 10
178.5536685484761
 20
106.0292220265153
 30
0.0
 10
178.256312587957
 20
105.9856717742658
 30
0.0
 10
177.9618898706393
 20
105.9738034367473
 30
0.0
 10
177.6708536230694
 20
105.9919538630904
 30
0.0
  0
LINE
  5
10D
330
1F
100
AcDbEntity
  8
0
  6
HIDDEN
 62
     7
370
    18
100
AcDbLine
 10
181.8560921695
 20
99.6668916394
 30
0.0
 11
182.0180139769
 21
99.674259961
 31
0.0
  0
ELLIPSE
  5
10E
330
1F
100
AcDbEntity
  8
0
  6
HIDDEN
 62
     7
370
    18
100
AcDbEllipse
 10
177.2797705279
 20
100.4272292553
 30
0.0
 11
-0.9730746054746362
 21
2.300020942953438
 31
0.0
210
0.0
220
0.0
230
1.0
 40
0.1715177319
 41
5.488376739481826
 42
5.630893114077958
  0
LINE
  5
10F
330
1F
100
AcDbEntity
  8
0
  6
HIDDEN
 62
     7
370
    18
100
AcDbLine
 10
176.8797705279
 20
102.1573343042
 30
0.0
 11
176.8797705279
 21
101.8694472485
 31
0.0
  0
ARC
  5
110
330
1F
100
AcDbEntity
  8
0
  6
HIDDEN
 62
     7
370
    18
100
AcDbCircle
 10
177.2858240618
 20
100.9124126763
 30
0.0
 40
1.039612737892174
100
AcDbArc
 50
348.7060868303
 51
112.990688738
  0
LINE
  5
111
330
1F
100
AcDbEntity
  8
0
  6
HIDDEN
 62
     7
370
    18
100
AcDbLine
 10
178.305305187
 20
100.7088128724
 30
0.0
 11
178.305305187
 21
100.9966999282
 31
0.0
  0
ELLIPSE
  5
112
330
1F
100
AcDbEntity
  8
0
  6
HIDDEN
 62
     7
370
    18
100
AcDbEllipse
 10
177.2797705279
 20
100.4272292553
 30
0.0
 11
0.8321958678069166
 21
0.905834012254772
 31
0.0
210
0.0
220
0.0
230
1.0
 40
0.7068330398
 41
5.84369023163822
 42
5.986206606234367
  0
ARC
  5
113
330
1F
100
AcDbEntity
  8
0
  6
HIDDEN
 62
     7
370
    18
100
AcDbCircle
 10
177.2883499025
 20
100.9055303958
 30
0.0
 40
1.025946918519478
100
AcDbArc
 50
269.5208644078
 51
122.7288806809
  0
ARC
  5
114
330
1F
100
AcDbEntity
  8
0
  6
HIDDEN
 62
     7
370
    18
100
AcDbCircle
 10
177.2602153752
 20
100.9058357799
 30
0.0
 40
1.026402730432443
100
AcDbArc
 50
163.2159223497
 51
271.0916723808
  0
SPLINE
  5
115
330
1F
100
AcDbEntity
  8
0
  6
HIDDEN
 62
     7
370
    18
100
AcDbSpline
210
0.0
220
0.0
230
1.0
 70
     8
 71
     3
 72
     9
 73
     5
 74
     0
 42
0.000000001
 43
0.00000001
 40
0.0
 40
0.0
 40
0.0
 40
0.0
 40
0.4392251803362302
 40
1.0
 40
1.0
 40
1.0
 40
1.0
 10
182.3780015283745
 20
100.0187436605272
 30
0.0
 10
182.4020148695554
 20
100.0686628997835
 30
0.0
 10
182.4566869199204
 20
100.1823158538744
 30
0.0
 10
182.4562995366273
 20
100.3122665319459
 30
0.0
 10
182.4560823018311
 20
100.3851396000065
 30
0.0
  0
LINE
  5
116
330
1F
100
AcDbEntity
  8
0
  6
HIDDEN
 62
     7
370
    18
100
AcDbLine
 10
167.0836569005
 20
103.2414941224
 30
0.0
 11
167.0836569005
 21
101.7651553676
 31
0.0
  0
LINE
  5
117
330
1F
100
AcDbEntity
  8
0
  6
HIDDEN
 62
     7
370
    18
100
AcDbLine
 10
182.8367922904
 20
101.7719889563
 30
0.0
 11
182.9706274618
 21
101.9267186005
 31
0.0
  0
ELLIPSE
  5
118
330
1F
100
AcDbEntity
  8
0
  6
HIDDEN
 62
     7
370
    18
100
AcDbEllipse
 10
166.2423352133
 20
103.2651553676
 30
0.0
 11
-0.3978650457355286
 21
1.496932421731302
 31
0.0
210
0.0
220
0.0
230
1.0
 40
0.2409908288
 41
2.681781818329812
 42
5.596595691616859
  0
LINE
  5
119
330
1F
100
AcDbEntity
  8
0
  6
HIDDEN
 62
     7
370
    18
100
AcDbLine
 10
176.7459353566
 20
102.3563528857
 30
0.0
 11
176.7459353566
 21
106.8979164166
 31
0.0
  0
LINE
  5
11A
330
1F
100
AcDbEntity
  8
0
  6
HIDDEN
 62
     7
370
    18
100
AcDbLine
 10
176.8797705279
 20
106.8092201527
 30
0.0
 11
176.8797705279
 21
102.1573343042
 31
0.0
  0
ELLIPSE
  5
11B
330
1F
100
AcDbEntity
  8
0
  6
HIDDEN
 62
     7
370
    18
100
AcDbEllipse
 10
177.360892518
 20
112.2310187242
 30
0.0
 11
-8.222543454688548
 21
25.72571946826559
 31
0.0
210
0.0
220
0.0
230
1.0
 40
0.0794703504
 41
1.749056634857716
 42
1.757677914807086
  0
LINE
  5
11C
330
1F
100
AcDbEntity
  8
0
  6
HIDDEN
 62
     7
370
    18
100
AcDbLine
 10
182.8367922904
 20
101.7719889563
 30
0.0
 11
182.690678663
 21
101.45910342
 31
0.0
  0
LINE
  5
11D
330
1F
100
AcDbEntity
  8
0
  6
HIDDEN
 62
     7
370
    18
100
AcDbLine
 10
178.305305187
 20
100.9966999282
 30
0.0
 11
182.8367922904
 21
101.7719889563
 31
0.0
  0
LINE
  5
11E
330
1F
100
AcDbEntity
  8
0
  6
HIDDEN
 62
     7
370
    18
100
AcDbLine
 10
176.8797705279
 20
106.8092201527
 30
0.0
 11
176.8797705279
 21
106.3832321899
 31
0.0
  0
LINE
  5
11F
330
1F
100
AcDbEntity
  8
0
  6
HIDDEN
 62
     7
370
    18
100
AcDbLine
 10
182.4748952617
 20
107.1474643701
 30
0.0
 11
178.5273846425
 21
106.4720874792
 31
0.0
  0
LINE
  5
120
330
1F
100
AcDbEntity
  8
0
  6
HIDDEN
 62
     7
370
    18
100
AcDbLine
 10
182.690678663
 20
106.9359991881
 30
0.0
 11
182.4748952617
 21
107.1474643701
 31
0.0
  0
LWPOLYLINE
  5
121
330
1F
100
AcDbEntity
  8
0
  6
HIDDEN
 62
     7
370
    18
100
AcDbPolyline
 90
       27
 70
   128
 43
0.0
 10
179.8443781395
 20
102.5831540361
 10
180.1674542863
 20
102.6212173271
 10
180.4717544218
 20
102.7331951
 10
180.7395937281
 20
102.9125796136
 10
180.9554063585
 20
103.148945692
 10
181.1066500671
 20
103.428556598
 10
181.1845351195
 20
103.7351623619
 10
181.1845351195
 20
104.0509441713
 10
181.1066500671
 20
104.3575499353
 10
180.9554063585
 20
104.6371608412
 10
180.7395937281
 20
104.8735269196
 10
180.4717544218
 20
105.0529114332
 10
180.1674542863
 20
105.1648892061
 10
179.8443781395
 20
105.2029524971
 10
179.5213019927
 20
105.1648892061
 10
179.2170018572
 20
105.0529114332
 10
178.9491625509
 20
104.8735269196
 10
178.7333499205
 20
104.6371608412
 10
178.5821062119
 20
104.3575499353
 10
178.5042211595
 20
104.0509441713
 10
178.5042211595
 20
103.7351623619
 10
178.5821062119
 20
103.4285565979
 10
178.7333499205
 20
103.148945692
 10
178.9491625509
 20
102.9125796136
 10
179.2170018572
 20
102.7331951
 10
179.5213019927
 20
102.6212173271
 10
179.8443781395
 20
102.5831540361
  0
ELLIPSE
  5
122
330
1F
100
AcDbEntity
  8
0
  6
HIDDEN
 62
     7
370
    18
100
AcDbEllipse
 10
177.3027189263
 20
113.2112031028
 30
0.0
 11
6.991446485126829
 21
-0.38563253330652
 31
0.0
210
0.0
220
0.0
230
1.0
 40
0.9770035254
 41
4.705781962312191
 42
4.942043121499456
  0
LINE
  5
123
330
1F
100
AcDbEntity
  8
0
  6
HIDDEN
 62
     7
370
    18
100
AcDbLine
 10
176.8797705279
 20
106.3832321899
 30
0.0
 11
176.8797705279
 21
101.8694472485
 31
0.0
  0
LINE
  5
124
330
1F
100
AcDbEntity
  8
0
  6
HIDDEN
 62
     7
370
    18
100
AcDbLine
 10
178.305305187
 20
100.7088128724
 30
0.0
 11
182.690678663
 21
101.45910342
 31
0.0
  0
LINE
  5
125
330
1F
100
AcDbEntity
  8
0
  6
HIDDEN
 62
     7
370
    18
100
AcDbLine
 10
182.690678663
 20
106.9359991881
 30
0.0
 11
182.690678663
 21
101.45910342
 31
0.0
  0
LWPOLYLINE
  5
126
330
1F
100
AcDbEntity
  8
0
  6
HIDDEN
 62
     7
370
    18
100
AcDbPolyline
 90
       23
 70
   128
 43
0.0
 10
179.8443781395
 20
102.8198755311
 10
180.1331540103
 20
102.8601619206
 10
180.3985349774
 20
102.9777573252
 10
180.6190214532
 20
103.1631348648
 10
180.7767509347
 20
103.4012763535
 10
180.8589451174
 20
103.6728889842
 10
180.8589451174
 20
103.9559683169
 10
180.7767509347
 20
104.2275809476
 10
180.6190214532
 20
104.4657224363
 10
180.3985349774
 20
104.6510999759
 10
180.1331540103
 20
104.7686953805
 10
179.8443781395
 20
104.80898177
 10
179.5556022687
 20
104.7686953805
 10
179.2902213016
 20
104.6510999759
 10
179.0697348258
 20
104.4657224363
 10
178.9120053443
 20
104.2275809476
 10
178.8298111616
 20
103.9559683169
 10
178.8298111616
 20
103.6728889842
 10
178.9120053443
 20
103.4012763535
 10
179.0697348258
 20
103.1631348648
 10
179.2902213016
 20
102.9777573252
 10
179.5556022687
 20
102.8601619206
 10
179.8443781395
 20
102.8198755311
  0
SPLINE
  5
127
330
1F
100
AcDbEntity
  8
0
  6
HIDDEN
 62
     7
370
    18
100
AcDbSpline
210
0.0
220
0.0
230
1.0
 70
     8
 71
     3
 72
    22
 73
    18
 74
     0
 42
0.000000001
 43
0.00000001
 40
0.0
 40
0.0
 40
0.0
 40
0.0
 40
0.125
 40
0.125
 40
0.25
 40
0.25
 40
0.375
 40
0.375
 40
0.5
 40
0.5
 40
0.625
 40
0.625
 40
0.75
 40
0.75
 40
0.875
 40
0.875
 40
1.0
 40
1.0
 40
1.0
 40
1.0
 10
179.407673322864
 20
104.1263743263115
 30
0.0
 10
179.612829987627
 20
104.2274394222382
 30
0.0
 10
179.8480566409397
 20
104.2552221353127
 30
0.0
 10
180.2937593526295
 20
104.1491608588014
 30
0.0
 10
180.4919270875033
 20
104.0194584387705
 30
0.0
 10
180.7775576418388
 20
103.6627843867247
 30
0.0
 10
180.860675328697
 20
103.4426144785064
 30
0.0
 10
180.8767933948126
 20
102.9881955934971
 30
0.0
 10
180.8082703110758
 20
102.7664370442253
 30
0.0
 10
180.5394696638779
 20
102.4077723650887
 30
0.0
 10
180.3455969952421
 20
102.2788615042406
 30
0.0
 10
179.9060248882055
 20
102.1596248537326
 30
0.0
 10
179.6671246840612
 20
102.1723108625537
 30
0.0
 10
179.2458803929874
 20
102.3362160785557
 30
0.0
 10
179.0667753961037
 20
102.4861883824207
 30
0.0
 10
178.8410518256781
 20
102.871510994053
 30
0.0
 10
178.7975667152365
 20
103.1022193672042
 30
0.0
 10
178.8300358845525
 20
103.3267823642685
 30
0.0
  0
SPLINE
  5
128
330
1F
100
AcDbEntity
  8
0
  6
HIDDEN
 62
     7
370
    18
100
AcDbSpline
210
0.0
220
0.0
230
1.0
 70
     8
 71
     3
 72
    15
 73
    11
 74
     0
 42
0.000000001
 43
0.00000001
 40
0.0
 40
0.0
 40
0.0
 40
0.0
 40
0.0313359337626596
 40
0.0626576889158223
 40
0.1252542274394786
 40
0.2502936244666995
 40
0.5000165386387039
 40
0.7497525643202286
 40
0.8747873117437914
 40
1.0
 40
1.0
 40
1.0
 40
1.0
 10
182.4748952616541
 20
107.147464370144
 30
0.0
 10
182.4736358166156
 20
107.144268110934
 30
0.0
 10
182.4711174964013
 20
107.1378770387296
 30
0.0
 10
182.4658821115228
 20
107.1250797862228
 30
0.0
 10
182.4561986453426
 20
107.102653728478
 30
0.0
 10
182.4347592646989
 20
107.0576511473214
 30
0.0
 10
182.3983277743295
 20
106.9928644119168
 30
0.0
 10
182.3544497852795
 20
106.9275511280836
 30
0.0
 10
182.3153853551812
 20
106.8750500995774
 30
0.0
 10
182.2941768362313
 20
106.8487000587027
 30
0.0
 10
182.2835650364962
 20
106.835515670041
 30
0.0
  0
SPLINE
  5
129
330
1F
100
AcDbEntity
  8
0
  6
HIDDEN
 62
     7
370
    18
100
AcDbSpline
210
0.0
220
0.0
230
1.0
 70
     8
 71
     3
 72
    19
 73
    15
 74
     0
 42
0.000000001
 43
0.00000001
 40
0.0
 40
0.0
 40
0.0
 40
0.0
 40
0.0312084207074122
 40
0.0623314979529475
 40
0.1246786472789641
 40
0.2493900691527278
 40
0.3742114834428775
 40
0.499147119767261
 40
0.6241943739092901
 40
0.7493439810714121
 40
0.8118986316366015
 40
0.874638875227363
 40
0.9371866801583036
 40
1.0
 40
1.0
 40
1.0
 40
1.0
 10
182.4051217862372
 20
104.5513022719513
 30
0.0
 10
182.4067120532818
 20
104.5833264527987
 30
0.0
 10
182.4098882385804
 20
104.6472872402302
 30
0.0
 10
182.4167944317002
 20
104.7743031795509
 30
0.0
 10
182.4299767163757
 20
104.9943323495122
 30
0.0
 10
182.4520219127279
 20
105.3006329747879
 30
0.0
 10
182.4831318409531
 20
105.649297652057
 30
0.0
 10
182.5184593803377
 20
105.9740589704389
 30
0.0
 10
182.5574638259906
 20
106.2700094142531
 30
0.0
 10
182.5925476643787
 20
106.4888740838225
 30
0.0
 10
182.6218325484787
 20
106.6454373060587
 30
0.0
 10
182.6443325547083
 20
106.7529111268105
 30
0.0
 10
182.6672857119701
 20
106.8511502251749
 30
0.0
 10
182.6828700101232
 20
106.9076762930334
 30
0.0
 10
182.6906786629744
 20
106.9359991880795
 30
0.0
  0
LINE
  5
12A
330
1F
100
AcDbEntity
  8
0
  6
HIDDEN
 62
     7
370
    18
100
AcDbLine
 10
182.1322386871
 20
100.1465851271
 30
0.0
 11
182.4560823018
 21
100.3851396
 31
0.0
  0
SPLINE
  5
12B
330
1F
100
AcDbEntity
  8
0
  6
HIDDEN
 62
     7
370
    18
100
AcDbSpline
210
0.0
220
0.0
230
1.0
 70
     8
 71
     3
 72
    15
 73
    11
 74
     0
 42
0.000000001
 43
0.00000001
 40
0.0
 40
0.0
 40
0.0
 40
0.0
 40
0.0625392516273994
 40
0.1250732845137674
 40
0.2501240213731821
 40
0.5001499800905319
 40
0.7501006370042586
 40
0.8500682236645962
 40
0.9100440309850625
 40
1.0
 40
1.0
 40
1.0
 40
1.0
 10
182.4560823018311
 20
100.3851396000065
 30
0.0
 10
182.4550517763893
 20
100.3945978599927
 30
0.0
 10
182.4529908115003
 20
100.4135135906972
 30
0.0
 10
182.4489540570563
 20
100.4519848777145
 30
0.0
 10
182.4420611159866
 20
100.5205514142348
 30
0.0
 10
182.4327357149261
 20
100.6222180226591
 30
0.0
 10
182.4244600966947
 20
100.7242952822289
 30
0.0
 10
182.4191440284492
 20
100.7961061050032
 30
0.0
 10
182.415991095438
 20
100.8404149121188
 30
0.0
 10
182.4141694283572
 20
100.8674068904833
 30
0.0
 10
182.4130764657346
 20
100.8836015199926
 30
0.0
  0
SPLINE
  5
12C
330
1F
100
AcDbEntity
  8
0
  6
HIDDEN
 62
     7
370
    18
100
AcDbSpline
210
0.0
220
0.0
230
1.0
 70
     8
 71
     3
 72
    17
 73
    13
 74
     0
 42
0.000000001
 43
0.00000001
 40
0.0
 40
0.0
 40
0.0
 40
0.0
 40
0.0653015977257467
 40
0.1288126432610732
 40
0.1905334909656538
 40
0.2504645302546841
 40
0.3779082835980459
 40
0.5005907017281673
 40
0.627146031729879
 40
0.7504287561555674
 40
0.8762995781312044
 40
1.0
 40
1.0
 40
1.0
 40
1.0
 10
182.2835661217326
 20
106.8355155781042
 30
0.0
 10
182.2777398898978
 20
106.7997286420149
 30
0.0
 10
182.2662471799329
 20
106.7291360379679
 30
0.0
 10
182.2497478036376
 20
106.6167292632122
 30
0.0
 10
182.2340985480238
 20
106.5022931290981
 30
0.0
 10
182.2136439654978
 20
106.3411497815466
 30
0.0
 10
182.1893903476686
 20
106.1276023370019
 30
0.0
 10
182.1621555548054
 20
105.8495766565655
 30
0.0
 10
182.1376578015001
 20
105.5586403964774
 30
0.0
 10
182.11569806499
 20
105.251609573149
 30
0.0
 10
182.0965520801197
 20
104.9365395893832
 30
0.0
 10
182.086339870854
 20
104.7194768812755
 30
0.0
 10
182.0812781715376
 20
104.6118893717881
 30
0.0
  0
ELLIPSE
  5
12D
330
1F
100
AcDbEntity
  8
0
  6
HIDDEN
 62
     7
370
    18
100
AcDbEllipse
 10
163.1105149933
 20
104.0651553676
 30
0.0
 11
20.00215804742058
 21
3.277694654342384
 31
0.0
210
0.0
220
0.0
230
1.0
 40
0.0613675942
 41
5.783205351111709
 42
5.984028792238621
  0
SPLINE
  5
12E
330
1F
100
AcDbEntity
  8
0
  6
HIDDEN
 62
     7
370
    18
100
AcDbSpline
210
0.0
220
0.0
230
1.0
 70
     8
 71
     3
 72
    19
 73
    15
 74
     0
 42
0.000000001
 43
0.00000001
 40
0.0
 40
0.0
 40
0.0
 40
0.0
 40
0.0313087511951427
 40
0.0625664567457442
 40
0.1251103992697046
 40
0.2501122803905265
 40
0.3750711745838753
 40
0.5000063960511596
 40
0.6249382635371273
 40
0.7498872435605721
 40
0.8123040008781796
 40
0.8749164095505242
 40
0.9373796093304072
 40
1.0
 40
1.0
 40
1.0
 40
1.0
 10
182.4130764657346
 20
100.8836015199926
 30
0.0
 10
182.4110010078451
 20
100.9154962366881
 30
0.0
 10
182.4068534758831
 20
100.9792336690792
 30
0.0
 10
182.3991587525119
 20
101.1099788098534
 30
0.0
 10
182.386919492351
 20
101.3449558064801
 30
0.0
 10
182.3731541957964
 20
101.6983756948932
 30
0.0
 10
182.362754560387
 20
102.1455747858649
 30
0.0
 10
182.358590792959
 20
102.6111223913019
 30
0.0
 10
182.3607051065602
 20
103.0898571383461
 30
0.0
 10
182.367686403115
 20
103.4954244797974
 30
0.0
 10
182.3763390777426
 20
103.8211424198123
 30
0.0
 10
182.3843789993471
 20
104.0653843758569
 30
0.0
 10
182.3938194494289
 20
104.3093122389316
 30
0.0
 10
182.4013511195826
 20
104.4705714714819
 30
0.0
 10
182.4051216871345
 20
104.5513024139269
 30
0.0
  0
SPLINE
  5
12F
330
1F
100
AcDbEntity
  8
0
  6
HIDDEN
 62
     7
370
    18
100
AcDbSpline
210
0.0
220
0.0
230
1.0
 70
     8
 71
     3
 72
    19
 73
    15
 74
     0
 42
0.000000001
 43
0.00000001
 40
0.0
 40
0.0
 40
0.0
 40
0.0
 40
0.0504488550918506
 40
0.1006831539564124
 40
0.1507039314575799
 40
0.2005122357742941
 40
0.2501091285627898
 40
0.375243191529798
 40
0.4999942167750593
 40
0.6246611988815354
 40
0.7498908976819806
 40
0.8325892365128916
 40
0.9159573567580429
 40
1.0
 40
1.0
 40
1.0
 40
1.0
 10
182.0812780723945
 20
104.6118893760572
 30
0.0
 10
182.0782183884393
 20
104.5423384386257
 30
0.0
 10
182.0721120331977
 20
104.4035323601037
 30
0.0
 10
182.064172560387
 20
104.1943341726596
 30
0.0
 10
182.0571531520031
 20
103.9854577604964
 30
0.0
 10
182.0511388096653
 20
103.7771378998752
 30
0.0
 10
182.0435457071992
 20
103.4642442768734
 30
0.0
 10
182.0368658815124
 20
103.0481565728348
 30
0.0
 10
182.034746692301
 20
102.5363814146259
 30
0.0
 10
182.0389148946878
 20
102.0386187194482
 30
0.0
 10
182.0481124464076
 20
101.6139877420371
 30
0.0
 10
182.0601828113322
 20
101.2587104029129
 30
0.0
 10
182.0730184990375
 20
100.9650643664436
 30
0.0
 10
182.0838135686924
 20
100.7806983930261
 30
0.0
 10
182.0892328509946
 20
100.6881439872811
 30
0.0
  0
LINE
  5
130
330
1F
100
AcDbEntity
  8
0
  6
HIDDEN
 62
     7
370
    18
100
AcDbLine
 10
170.1013550914
 20
105.6247335258
 30
0.0
 11
166.6447486609
 21
104.7629047479
 31
0.0
  0
LINE
  5
131
330
1F
100
AcDbEntity
  8
0
  6
HIDDEN
 62
     7
370
    18
100
AcDbLine
 10
167.0926857102
 20
101.7827471097
 30
0.0
 11
172.8746625755
 21
103.224355854
 31
0.0
  0
LINE
  5
132
330
1F
100
AcDbEntity
  8
0
  6
HIDDEN
 62
     7
370
    18
100
AcDbLine
 10
166.6960795955
 20
101.6838620992
 30
0.0
 11
167.047092118
 21
101.7713793504
 31
0.0
  0
LINE
  5
133
330
1F
100
AcDbEntity
  8
0
  6
HIDDEN
 62
     7
370
    18
100
AcDbLine
 10
108.0836569005
 20
101.0151553676
 30
0.0
 11
109.3826950061
 21
101.7651553676
 31
0.0
  0
LINE
  5
134
330
1F
100
AcDbEntity
  8
0
  6
HIDDEN
 62
     7
370
    18
100
AcDbLine
 10
109.3826950061
 20
104.7651553676
 30
0.0
 11
108.0836569005
 21
105.5151553676
 31
0.0
  0
LINE
  5
135
330
1F
100
AcDbEntity
  8
0
  6
HIDDEN
 62
     7
370
    18
100
AcDbLine
 10
176.2297705279
 20
101.486055918
 30
0.0
 11
176.2297705279
 21
100.8984298625
 31
0.0
  0
LINE
  5
136
330
1F
100
AcDbEntity
  8
0
  6
HIDDEN
 62
     7
370
    18
100
AcDbLine
 10
178.3297705279
 20
100.8984298625
 30
0.0
 11
178.3297705279
 21
100.92746049
 31
0.0
  0
LINE
  5
137
330
1F
100
AcDbEntity
  8
0
  6
HIDDEN
 62
     7
370
    18
100
AcDbLine
 10
167.0836569005
 20
101.7651553676
 30
0.0
 11
167.107804631
 21
101.8053439401
 31
0.0
  0
LINE
  5
138
330
1F
100
AcDbEntity
  8
0
  6
HIDDEN
 62
     7
370
    18
100
AcDbLine
 10
166.978167864
 20
101.7651553676
 30
0.0
 11
167.0836569005
 21
101.7651553676
 31
0.0
  0
LINE
  5
139
330
1F
100
AcDbEntity
  8
0
  6
HIDDEN
 62
     7
370
    18
100
AcDbLine
 10
109.3826950061
 20
101.7651553676
 30
0.0
 11
166.6163272176
 21
101.7651553676
 31
0.0
  0
LINE
  5
13A
330
1F
100
AcDbEntity
  8
0
  6
HIDDEN
 62
     7
370
    18
100
AcDbLine
 10
166.6537111133
 20
104.7651553676
 30
0.0
 11
109.3826950061
 21
104.7651553676
 31
0.0
  0
LINE
  5
13B
330
1F
100
AcDbEntity
  8
0
  6
HIDDEN
 62
     7
370
    18
100
AcDbLine
 10
178.8193781395
 20
103.8144286505
 30
0.0
 11
178.8193781395
 21
103.1797533798
 31
0.0
  0
LINE
  5
13C
330
1F
100
AcDbEntity
  8
0
  6
HIDDEN
 62
     7
370
    18
100
AcDbLine
 10
180.8693781395
 20
103.1793637697
 30
0.0
 11
180.8693781395
 21
103.8144286505
 31
0.0
  0
LINE
  5
13D
330
1F
100
AcDbEntity
  8
VERMASSUNG
100
AcDbLine
 10
182.3803761754
 20
103.2651553676
 30
0.0
 11
182.9161655861
 21
103.2651553676
 31
0.0
  0
LINE
  5
13E
330
1F
100
AcDbEntity
  8
VERMASSUNG
100
AcDbLine
 10
152.992994026
 20
108.1401553676
 30
0.0
 11
152.992994026
 21
98.3901553676
 31
0.0
  0
POINT
  5
13F
330
1F
100
AcDbEntity
  8
VERMASSUNG
100
AcDbPoint
 10
183.0836569005
 20
108.1401553676
 30
0.0
  0
DIMENSION
  5
140
330
1F
100
AcDbEntity
  8
VERMASSUNG
100
AcDbDimension
  2
_D
 10
189.6392948901
 20
98.3901553676
 30
0.0
 11
189.6392948901
 21
98.1313517943
 31
0.0
 70
   160
  1
%%c<>-15.1
 71
     2
 42
-1.0
  3
SLDDIMSTYLE0
100
AcDbAlignedDimension
 13
183.0836569005
 23
108.1401553676
 33
0.0
 14
183.0836569005
 24
98.3901553676
 34
0.0
 50
90.0
100
AcDbRotatedDimension
  0
DIMENSION
  5
14C
330
1F
100
AcDbEntity
  8
VERMASSUNG
100
AcDbDimension
  2
_D_1
 10
108.0836569005
 20
121.4383866577
 30
0.0
 11
143.2607646696
 21
121.4383866577
 31
0.0
 70
   160
  1
<>
 71
     2
 42
-1.0
  3
SLDDIMSTYLE1
100
AcDbAlignedDimension
 13
183.0836569005
 23
108.1401553676
 33
0.0
 14
108.0836569005
 24
109.4651553676
 34
0.0
 50
0.0
100
AcDbRotatedDimension
  0
DIMENSION
  5
157
330
1F
100
AcDbEntity
  8
VERMASSUNG
100
AcDbDimension
  2
_D_2
 10
152.992994026
 20
114.4718533427
 30
0.0
 11
168.5109185186
 21
114.4718533427
 31
0.0
 70
   160
  1
<>
 71
     2
 42
-1.0
  3
SLDDIMSTYLE2
100
AcDbAlignedDimension
 13
183.0836569005
 23
108.1401553676
 33
0.0
 14
152.992994026
 24
108.1401553676
 34
0.0
100
AcDbRotatedDimension
  0
DIMENSION
  5
162
330
1F
100
AcDbEntity
  8
VERMASSUNG
100
AcDbDimension
  2
_D_3
 10
101.7755999218
 20
95.2651553676
 30
0.0
 11
101.7755999218
 21
102.7504387398
 31
0.0
 70
   160
  1
%%c<>
 71
     2
 42
-1.0
  3
SLDDIMSTYLE1
100
AcDbAlignedDimension
 13
119.3836569005
 23
111.2651553676
 33
0.0
 14
109.4586569005
 24
95.2651553676
 34
0.0
 50
90.0
100
AcDbRotatedDimension
  0
OLE2FRAME
  5
16D
330
1F
100
AcDbEntity
  8
0
100
AcDbOle2Frame
 70
     2
  3
Paintbrush-Bild
 10
13.8511154363
 20
38.264191557
 30
0.0
 11
51.6290888628
 21
31.9806341108
 31
0.0
 71
     2
 72
     0
 73
     1
 90
    12928
310
80552BED0767C5B32B40DDAF6807D121434000000000000000006FFBDDFB85D0
310
4940DDAF6807D121434000000000000000006FFBDDFB85D04940416F4BD60AFB
310
3F4000000000000000002BED0767C5B32B40416F4BD60AFB3F40000000000000
310
0000000000000100000000010000010000000100000000000100000000320000
310
D0CF11E0A1B11AE1000000000000000000000000000000003E000300FEFF0900
310
0600000000000000000000000100000001000000000000000010000002000000
310
01000000FEFFFFFF0000000000000000FFFFFFFFFFFFFFFFFFFFFFFFFFFFFFFF
310
FFFFFFFFFFFFFFFFFFFFFFFFFFFFFFFFFFFFFFFFFFFFFFFFFFFFFFFFFFFFFFFF
310
FFFFFFFFFFFFFFFFFFFFFFFFFFFFFFFFFFFFFFFFFFFFFFFFFFFFFFFFFFFFFFFF
310
FFFFFFFFFFFFFFFFFFFFFFFFFFFFFFFFFFFFFFFFFFFFFFFFFFFFFFFFFFFFFFFF
310
FFFFFFFFFFFFFFFFFFFFFFFFFFFFFFFFFFFFFFFFFFFFFFFFFFFFFFFFFFFFFFFF
310
FFFFFFFFFFFFFFFFFFFFFFFFFFFFFFFFFFFFFFFFFFFFFFFFFFFFFFFFFFFFFFFF
310
FFFFFFFFFFFFFFFFFFFFFFFFFFFFFFFFFFFFFFFFFFFFFFFFFFFFFFFFFFFFFFFF
310
FFFFFFFFFFFFFFFFFFFFFFFFFFFFFFFFFFFFFFFFFFFFFFFFFFFFFFFFFFFFFFFF
310
FFFFFFFFFFFFFFFFFFFFFFFFFFFFFFFFFFFFFFFFFFFFFFFFFFFFFFFFFFFFFFFF
310
FFFFFFFFFFFFFFFFFFFFFFFFFFFFFFFFFFFFFFFFFFFFFFFFFFFFFFFFFFFFFFFF
310
FFFFFFFFFFFFFFFFFFFFFFFFFFFFFFFFFFFFFFFFFFFFFFFFFFFFFFFFFFFFFFFF
310
FFFFFFFFFFFFFFFFFFFFFFFFFFFFFFFFFFFFFFFFFFFFFFFFFFFFFFFFFFFFFFFF
310
FFFFFFFFFFFFFFFFFFFFFFFFFFFFFFFFFFFFFFFFFFFFFFFFFFFFFFFFFFFFFFFF
310
FFFFFFFFFFFFFFFFFFFFFFFFFFFFFFFFFFFFFFFFFFFFFFFFFFFFFFFFFFFFFFFF
310
FDFFFFFFFEFFFFFFFEFFFFFFFEFFFFFF05000000060000000700000008000000
310
090000000A0000000B0000000C0000000D0000000E0000000F00000010000000
310
11000000120000001300000014000000150000001600000017000000FEFFFFFF
310
FFFFFFFFFFFFFFFFFFFFFFFFFFFFFFFFFFFFFFFFFFFFFFFFFFFFFFFFFFFFFFFF
310
FFFFFFFFFFFFFFFFFFFFFFFFFFFFFFFFFFFFFFFFFFFFFFFFFFFFFFFFFFFFFFFF
310
FFFFFFFFFFFFFFFFFFFFFFFFFFFFFFFFFFFFFFFFFFFFFFFFFFFFFFFFFFFFFFFF
310
FFFFFFFFFFFFFFFFFFFFFFFFFFFFFFFFFFFFFFFFFFFFFFFFFFFFFFFFFFFFFFFF
310
FFFFFFFFFFFFFFFFFFFFFFFFFFFFFFFFFFFFFFFFFFFFFFFFFFFFFFFFFFFFFFFF
310
FFFFFFFFFFFFFFFFFFFFFFFFFFFFFFFFFFFFFFFFFFFFFFFFFFFFFFFFFFFFFFFF
310
FFFFFFFFFFFFFFFFFFFFFFFFFFFFFFFFFFFFFFFFFFFFFFFFFFFFFFFFFFFFFFFF
310
FFFFFFFFFFFFFFFFFFFFFFFFFFFFFFFFFFFFFFFFFFFFFFFFFFFFFFFFFFFFFFFF
310
FFFFFFFFFFFFFFFFFFFFFFFFFFFFFFFFFFFFFFFFFFFFFFFFFFFFFFFFFFFFFFFF
310
FFFFFFFFFFFFFFFFFFFFFFFFFFFFFFFFFFFFFFFFFFFFFFFFFFFFFFFFFFFFFFFF
310
FFFFFFFFFFFFFFFFFFFFFFFFFFFFFFFFFFFFFFFFFFFFFFFFFFFFFFFFFFFFFFFF
310
FFFFFFFFFFFFFFFFFFFFFFFFFFFFFFFFFFFFFFFFFFFFFFFFFFFFFFFFFFFFFFFF
310
FFFFFFFFFFFFFFFFFFFFFFFFFFFFFFFFFFFFFFFFFFFFFFFFFFFFFFFFFFFFFFFF
310
52006F006F007400200045006E00740072007900000000000000000000000000
310
0000000000000000000000000000000000000000000000000000000000000000
310
16000500FFFFFFFFFFFFFFFF020000000A00030000000000C000000000000046
310
000000000000000000000000606A87D7ED60D60103000000C000000000000000
310
01004F006C006500000000000000000000000000000000000000000000000000
310
0000000000000000000000000000000000000000000000000000000000000000
310
0A000200FFFFFFFFFFFFFFFFFFFFFFFF00000000000000000000000000000000
310
0000000000000000000000000000000000000000000000001400000000000000
310
010043006F006D0070004F0062006A0000000000000000000000000000000000
310
0000000000000000000000000000000000000000000000000000000000000000
310
120002010100000003000000FFFFFFFF00000000000000000000000000000000
310
0000000000000000000000000000000000000000010000004D00000000000000
310
01004F006C006500310030004E00610074006900760065000000000000000000
310
0000000000000000000000000000000000000000000000000000000000000000
310
1A000200FFFFFFFFFFFFFFFFFFFFFFFF00000000000000000000000000000000
310
0000000000000000000000000000000000000000040000002426000000000000
310
FEFFFFFF02000000FEFFFFFFFFFFFFFFFFFFFFFFFFFFFFFFFFFFFFFFFFFFFFFF
310
FFFFFFFFFFFFFFFFFFFFFFFFFFFFFFFFFFFFFFFFFFFFFFFFFFFFFFFFFFFFFFFF
310
FFFFFFFFFFFFFFFFFFFFFFFFFFFFFFFFFFFFFFFFFFFFFFFFFFFFFFFFFFFFFFFF
310
FFFFFFFFFFFFFFFFFFFFFFFFFFFFFFFFFFFFFFFFFFFFFFFFFFFFFFFFFFFFFFFF
310
FFFFFFFFFFFFFFFFFFFFFFFFFFFFFFFFFFFFFFFFFFFFFFFFFFFFFFFFFFFFFFFF
310
FFFFFFFFFFFFFFFFFFFFFFFFFFFFFFFFFFFFFFFFFFFFFFFFFFFFFFFFFFFFFFFF
310
FFFFFFFFFFFFFFFFFFFFFFFFFFFFFFFFFFFFFFFFFFFFFFFFFFFFFFFFFFFFFFFF
310
FFFFFFFFFFFFFFFFFFFFFFFFFFFFFFFFFFFFFFFFFFFFFFFFFFFFFFFFFFFFFFFF
310
FFFFFFFFFFFFFFFFFFFFFFFFFFFFFFFFFFFFFFFFFFFFFFFFFFFFFFFFFFFFFFFF
310
FFFFFFFFFFFFFFFFFFFFFFFFFFFFFFFFFFFFFFFFFFFFFFFFFFFFFFFFFFFFFFFF
310
FFFFFFFFFFFFFFFFFFFFFFFFFFFFFFFFFFFFFFFFFFFFFFFFFFFFFFFFFFFFFFFF
310
FFFFFFFFFFFFFFFFFFFFFFFFFFFFFFFFFFFFFFFFFFFFFFFFFFFFFFFFFFFFFFFF
310
FFFFFFFFFFFFFFFFFFFFFFFFFFFFFFFFFFFFFFFFFFFFFFFFFFFFFFFFFFFFFFFF
310
FFFFFFFFFFFFFFFFFFFFFFFFFFFFFFFFFFFFFFFFFFFFFFFFFFFFFFFFFFFFFFFF
310
FFFFFFFFFFFFFFFFFFFFFFFFFFFFFFFFFFFFFFFFFFFFFFFFFFFFFFFFFFFFFFFF
310
FFFFFFFFFFFFFFFFFFFFFFFFFFFFFFFFFFFFFFFFFFFFFFFFFFFFFFFFFFFFFFFF
310
0100000200000000000000000000000000000000000000000000000000000000
310
0000000000000000000000000000000000000000000000000000000000000000
310
0100FEFF030A0000FFFFFFFF0A00030000000000C00000000000004607000000
310
5042727573680007000000504272757368000700000050427275736800F439B2
310
7100000000000000000000000000000000000000000000000000000000000000
310
0000000000000000000000000000000000000000000000000000000000000000
310
0000000000000000000000000000000000000000000000000000000000000000
310
0000000000000000000000000000000000000000000000000000000000000000
310
0000000000000000000000000000000000000000000000000000000000000000
310
0000000000000000000000000000000000000000000000000000000000000000
310
0000000000000000000000000000000000000000000000000000000000000000
310
0000000000000000000000000000000000000000000000000000000000000000
310
0000000000000000000000000000000000000000000000000000000000000000
310
0000000000000000000000000000000000000000000000000000000000000000
310
0000000000000000000000000000000000000000000000000000000000000000
310
0000000000000000000000000000000000000000000000000000000000000000
310
20260000424D0E260000000000003E00000028000000B40200006E0000000100
310
01000000000000000000130B0000130B00000200000002000000000000FFFFFF
310
FFFFFFFFFFFFFFFFFFFFFFFFFFFFFFFFFFFFFFFFFFFFFFFFFFFFFFFFFFFFFFFF
310
FFFFFFFFFFFFFFFFFFFFFFFFFFFFFFFFFFFFFFFFFFFFFFFFFFFFFFFFFFFFFFFF
310
FFFFFFFFFFFFFFFFFFFFFFFFFFFFFFFFFFFFFFFFFFFFFFFFF000FFFFFFFFFFFF
310
FFFFFFFFFFFFFFFFFFFFFFFFFFFFFFFFFFFFFFFFFFFFFFFFFFFFFFFFFFFFFFFF
310
FFFFFFFFFFFFFFFFFFFFFFFFFFFFFFFFFFFFFFFFFFFFFFFFFFFFFFFFFFFFFFFF
310
FFFFFFFFFFFFFFFFFFFFFFFFFFFFFFFFF000FFFFFFFFFFFFFFFFFFFFFFFFFFFF
310
FFFFFFFFFFFFFFFFFFFFFFFFFFFFFFFFFFFFFFFFFFFFFFFFFFFFFFFFFFFFFFFF
310
FFFFFFFFFFFFFFFFFFFFFFFFFFFFFFFFFFFFFFFFFFFFFFFFFFFFFFFFFFFFFFFF
310
FFFFFFFFFFFFFFFFF000FFFFFFFFFFFFFFFFFFFFFFFFFFFFFFFFFFFFFFFFFFFF
310
FFFFFFFFFFFFFFFFFFFFFFFFFFFFFFFFFFFFFFFFFFFFFFFFFFFFFFFFFFFFFFFF
310
FFFFFFFFFFFFFFFFFFFFFFFFFFFFFFFFFFFFFFFFFFFFFFFFFFFFFFFFFFFFFFFF
310
F000FFFFFFFFFFFFFFFFFFFFFFFFFFFFFFFFFFFFFFFFFFFFFFFFFFFFFFFFFFFF
310
FFFFFFFFFFFFFFFFFFFFFFFFFFFFFFFFFFFFFFFFFFFFFFFFFFFFFFFFFFFFFFFF
310
FFFFFFFFFFFFFFFFFFFFFFFFFFFFFFFFFFFFFFFFFFFFFFFFF000FFFFFFFFFFFF
310
FFFFFFFFFFFFFFFFFFFFFFFFFFFFFFFFFFFFFFFFFFFFFFFFFFFFFFFFFFFFFFFF
310
FFFFFFFFFFFFFFFFFFFFFFFFFFFFFFFFFFFFFFFFFFFFFFFFFFFFFFFFFFFFFFFF
310
FFFFFFFFFFFFFFFFFFFFFFFFFFFFFFFFF000FFFFFFFFFFFFFFFFFFFFFFFFFFFF
310
FFFFFFFFFFFFFFFFFFFFFFFFFFFFFFFFFFFFFFFFFFFFFFFFFFFFFFFFFFFFFFFF
310
FFFFFFFFFFFFFFFFFFFFFFFFFFFFFFFFFFFFFFFFFFFFFFFFFFFFFFFFFFFFFFFF
310
FFFFFFFFFFFFFFFFF000FFFFFFFFFFFFFFFFFFFFFFFFFFFFFFFFFFFFFFFFFFFF
310
FFFFFFFFFFFFFFFFFFFFFFFFFFFFFFFFFFFFFFFFFFFFFFFFFFFFFFFFFFFFFFFF
310
FFFFFFFFFFFFFFFFFFFFFFFFFFFFFFFFFFFFFFFFFFFFFFFFFFFFFFFFFFFFFFFF
310
F000FFFFFFFFFFFFFFFFFFFFFFFFFFFFFFFFFFFFFFFFFFFFFFFFFFFFFFFFFFFF
310
FFFFFFFFFFFFFFFFFFFFFFFFFFFFFFFFFFFFFFFFFFFFFFFFFFFFFFFFFFFFFFFF
310
FFFFFFFFFFFFFFFFFFFFFFFFFFFFFFFFFFFFFFFFFFFFFFFFF000FFFFFFFFFFFF
310
FFFFFFFFFFFFFFFFFFFFFFFFFFFFFFFFFFFFFFFFFFFFFFFFFFFFFFFFFFFFFFFF
310
FFFFFFFFFFFFFFFFFFFFFFFFFFFFFFFFFFFFFFFFFFFFFFFFFFFFFFFFFFFFFFFF
310
FFFFFFFFFFFFFFFFFFFFFFFFFFFFFFFFF000FFFFFFFFFFFFFFFFFFFFFFFFFFFF
310
FFFFFFFFFFFFFFFFFFFFFFFFFFFFFFFFFFFFFFFFFFFFFFFFFFFFFFFFFFFFFFFF
310
FFFFFFFFFFFFFFFFFFFFFFFFFFFFFFFFFFFFFFFFFFFFFFFFFFFFFFFFFFFFFFFF
310
FFFFFFFFFFFFFFFFF000FFFFFFFFFFFFFFFFFFFFFFFFFFFFFFFFFFFFFFFFFFFF
310
FFFFFFFFFFFFFFFFFFFFFFFFFFFFFFFFFFFFFFFFFFFFFFFFFFFFFFFFFFFFFFFF
310
FFFFFFFFFFFFFFFFFFFFFFFFFFFFFFFFFFFFFFFFFFFFFFFFFFFFFFFFFFFFFFFF
310
F000FFFFFFFFFFFFFFFFFFFFFFFFFFFFFFFFFFFFFFFFFFFFFFFFFFFFFFFFFFFF
310
FFFFFFFFFFFFFFFFFFFFFFFFFFFFFFFFFFFFFFFFFFFFFFFFFFFFFFFFFFFFFFFF
310
FFFFFFFFFFFFFFFFFFFFFFFFFFFFFFFFFFFFFFFFFFFFFFFFF000FFFFFFFFFFFF
310
FFFFFFFFFFFFFFFFFFFFFFFFFFFFFFFFFFFFFFFFFFFFFFFFFFFFFFFFFFFFFFFF
310
FFFFFFFFFFFFFFFFFFFFFFFFFFFFFFFFFFFFFFFFFFFFFFFFFFFFFFFFFFFFFFFF
310
FFFFFFFFFFFFFFFFFFFFFFFFFFFFFFFFF000FFFFFFFFFFFFFFFFFFFFFFFFFFFF
310
FFFFFFFFFFFFFFFFFFFFFFFFFFFFFFFFFFFFFFFFFFFFFFFFFFFFFFFFFFFFFFFF
310
FFFFFFFFFFFFFFFFFFFFFFFFFFFFFFFFFFFFFFFFFFFFFFFFFFFFFFFFFFFFFFFF
310
FFFFFFFFFFFFFFFFF000FFFFFFFFFFFFFFFFFFFFFFFFFFFFFFFFFFFFFFFFFFFF
310
FFFFFFFFFFFFFFFFFFFFFFFFFFFFFFFFFFFFFFFFFFFFFFFFFFFFFFFFFFFFFFFF
310
FFFFFFFFFFFFFFFFFFFFFFFFFFFFFFFFFFFFFFFFFFFFFFFFFFFFFFFFFFFFFFFF
310
F000FFFFFFFFFFFFFFFFFFFFFFFFFFFFFFFFFFFFFFFFFFFFFFFFFFFFFFFFFFFF
310
FFFFFFFFFFFFFFFFFFFFFFFFFFFFFFFFFFFFFFFFFFFFFFFFFFFFFFFFFFFFFFFF
310
FFFFFFFFFFFFFFFFFFFFFFFFFFFFFFFFFFFFFFFFFFFFFFFFF000FFFFFFFFFFFF
310
FFFFFFFFFFFFFFFFFFFFFFFFFFFFFFFFFFFFFFFFFFFFFFFFFFFFFFFFFFFFFFFF
310
FFFFFFFFFFFFFFFFFFFFFFFFFFFFFFFFFFFFFFFFFFFFFFFFFFFFFFFFFFFFFFFF
310
FFFFFFFFFFFFFFFFFFFFFFFFFFFFFFFFF000FFFFFFFFFFFFFFFFFFFFFFFFFFFF
310
FFFFFFFFFFFFFFFFFFFFFFFFFFFFFFFFFFFFFFFFFFFFFFFFFFFFFFFFFFFFFFFF
310
FFFFFFFFFFFFFFFFFFFFFFFFFFFFFFFFFFFFFFFFFFFFFFFFFFFFFFFFFFFFFFFF
310
FFFFFFFFFFFFFFFFF000FFFFF80003FFFFFFFFFFFFFFFFFFFFFFFFFFFFFFFFFF
310
FFFFF00007FFFFFFFFFF00007FFFFFF800000000000000007FFFFFFFFFFFFFFF
310
FFFFFFFC001FFFFFFFFFFFFFFC001FFFFFFFFFFFFFFFFFFFFFFFFFFE0007FFFF
310
F000FFFF8000007FFFFFFFF8000FFFFFC0007FFFFF80007FFFFF0000007FFFFF
310
FFF8000007FFFFF800000000000000007FFFFFF0001FFFFFFFFFFFC00001FFFF
310
FFFFFFFFC00001FFFFFFFF000000000003FFFFE000007FFFF000FFFE0000000F
310
FFFFFFF0000FFFFF80007FFFFF80007FFFFC0000001FFFFFFFC0000001FFFFF8
310
00000000000000007FFFFFF0001FFFFFFFFFFE0000003FFFFFFFFFFE0000003F
310
FFFFFF000000000003FFFF0000000FFFF000FFF800000003FFFFFFF00007FFFF
310
80007FFFFF80007FFFF000000007FFFFFF000000003FFFF80000000000000000
310
7FFFFFF0001FFFFFFFFFF80000000FFFFFFFFFF80000000FFFFFFF0000000000
310
03FFFC00000003FFF000FFE000000000FFFFFFF00007FFFF80003FFFFF80007F
310
FFC000000001FFFFFC000000001FFFF800000000000000007FFFFFF0001FFFFF
310
FFFFE000000003FFFFFFFFE000000003FFFFFF000000000003FFF000000000FF
310
F000FF80000000007FFFFFF00007FFFF80003FFFFF80007FFF8000000000FFFF
310
F80000000007FFF800000000000000007FFFFFF0001FFFFFFFFFC000000001FF
310
FFFFFFC000000001FFFFFF000000000003FFC0000000007FF000FF0000000000
310
3FFFFFE00007FFFF00003FFFFF80007FFE00000000003FFFF00000000003FFF8
310
00000000000000007FFFFFF0001FFFFFFFFF8000000000FFFFFFFF8000000000
310
FFFFFF000000000003FF80000000003FF000FE00000000001FFFFFE00003FFFF
310
00003FFFFF80007FFC00000000001FFFE00000000001FFF8000001FFFE000000
310
7FFFFFF0001FFFFFFFFE00000000003FFFFFFE00000000003FFFFF0000000000
310
03FF00000000001FF000FC00000000000FFFFFE00003FFFF00001FFFFF80007F
310
F800000000001FFFC00000000000FFF8000001FFFE0000007FFFFFF0001FFFFF
310
FFFC00000000001FFFFFFC00000000001FFFFF000000000003FE00000000000F
310
F000F8000000000007FFFFE00003FFFF00001FFFFF80007FF800000000000FFF
310
800000000000FFF8000001FFFE0000007FFFFFF0001FFFFFFFF800000000000F
310
FFFFF800000000000FFFFF000000000003FC000000000007F000F80000000000
310
03FFFFC00003FFFE00001FFFFF80007FF0000000000007FF0000000000007FF8
310
000001FFFE0000007FFFFFF0001FFFFFFFF0000000000007FFFFF00000000000
310
07FFFF000000000003F8000000000003F000F0000000000003FFFFC00001FFFE
310
00001FFFFF80007FE0000000000007FE0000000000003FF8000001FFFE000000
310
7FFFFFF0001FFFFFFFF0000000000007FFFFF0000000000007FFFF0000000000
310
03F800001F800003F000E00001FFF00001FFFFC00001FFFE00000FFFFF80007F
310
E00001FFE00003FE00001FFF00003FF8000001FFFE0000007FFFFFF0001FFFFF
310
FFE000003E000003FFFFE000003E000003FFFF000000000003F00001FFF80001
310
F000E00007FFFC0001FFFFC00001FFFE00000FFFFF80007FC0000FFFFC0003FC
310
0000FFFFC0001FF8000001FFFE0000007FFFFFF0001FFFFFFFC00003FFE00001
310
FFFFC00003FFE00001FFFF0001FFFFFFFFF00007FFFE0001F000E0000FFFFF00
310
00FFFF800001FFFC00000FFFFF80007FC0001FFFFE0001FC0001FFFFE0001FF8
310
000001FFFE0000007FFFFFF0001FFFFFFF80000FFFF80000FFFF80000FFFF800
310
00FFFF0003FFFFFFFFE0000FFFFF8000F000C0003FFFFF8000FFFF800000FFFC
310
000007FFFF80007F80003FFFFF0001FC0003FFFFF0001FF8000001FFFE000000
310
7FFFFFF0001FFFFFFF80003FFFFE0000FFFF80003FFFFE0000FFFF0003FFFFFF
310
FFE0003FFFFF8000F000C0003FFFFF8000FFFF800000FFFC000007FFFF80007F
310
80007FFFFF8001F80007FFFFF8000FF8000001FFFE0000007FFFFFF0001FFFFF
310
FF00007FFFFF00007FFF00007FFFFF00007FFF0003FFFFFFFFE0003FFFFFC000
310
F000C0007FFFFFC000FFFF000000FFFC000007FFFF80007F8000FFFFFF8000F8
310
000FFFFFF8000FF8000001FFFE0000007FFFFFF0001FFFFFFF0000FFFFFF8000
310
7FFF0000FFFFFF80007FFF0003FFFFFFFFC0007FFFFFC00070008000FFFFFFC0
310
00FFFF000000FFF8000007FFFF80007F8000FFFFFF8000F8000FFFFFF8000FF8
310
000001FFFE0000007FFFFFF0001FFFFFFE0001FFFFFFC0003FFE0001FFFFFFC0
310
003FFF0003FFFFFFFFC0007FFFFFE00070008000FFFFFFC0007FFF0000007FF8
310
000003FFFF80007F0001FFFFFF8000F8000FFFFFF8000FF8000001FFFE000000
310
7FFFFFF0001FFFFFFE0001FFFFFFC0003FFE0001FFFFFFC0003FFF0003FFFFFF
310
FFC000FFFFFFE00070008000FFFFFFC0007FFF0000007FF8000003FFFF80007F
310
0001FFFFFF8000F8001FFFFFF8000FF8000001FFFE0000007FFFFFF0001FFFFF
310
FE0003FFFFFFE0003FFE0003FFFFFFE0003FFF0003FFFFFFFFC000FFFFFFE000
310
70008000FFFFFFC0007FFE0000007FF8000003FFFF80007F0001FFFFFF8000F0
310
001FFFFFF8000FF8000001FFFE0000007FFFFFF0001FFFFFFC0003FFFFFFE000
310
1FFC0003FFFFFFE0001FFF0003FFFFFFFFC000FFFFFFC00070008000FFFFFF80
310
007FFE0000007FF0000003FFFF80007F0001FFFFFF0000F0001FFFFFF8000FF8
310
000001FFFE0000007FFFFFF0001FFFFFFC0007FFFFFFF0001FFC0007FFFFFFF0
310
001FFF0003FFFFFFFFC000FFFFFFC00070008001FFFFFF0000FFFE0000003FF0
310
000001FFFF80007F0001FFFFFF0000F8001FFFFFF0000FF8000001FFFE000000
310
7FFFFFF0001FFFFFFC0007FFFFFFF0001FFC0007FFFFFFF0001FFF0003FFFFFF
310
FFC001FFFFFF80007000FFFFFFFFFE0000FFFE0008003FF0008001FFFF80007F
310
FFFFFFFFFC0000FFFFFFFFFFE0000FF8000001FFFE0000007FFFFFF0001FFFFF
310
F8000FFFFFFFF8000FF8000FFFFFFFF8000FFF0003FFFFFFFFFFFFFFFFFF0000
310
7000FFFFFFFFFC0000FFFC0008003FF0008001FFFF80007FFFFFFFFFF80001FF
310
FFFFFFFF80000FF8000001FFFE0000007FFFFFF0001FFFFFF8000FFFFFFFF800
310
0FF8000FFFFFFFF8000FFF0003FFFFFFFFFFFFFFFFFE0000F000FFFFFFFFE000
310
00FFFC000C003FE000C001FFFF80007FFFFFFFFFC00001FFFFFFFFFE00001FF8
310
000001FFFE0000007FFFFFF0001FFFFFF8000FFFFFFFF8000FF8000FFFFFFFF8
310
000FFF0003FFFFFFFFFFFFFFFFF00000F000FFFFFFFE000001FFFC000C001FE0
310
00C000FFFF80007FFFFFFFFE000001FFFFFFFFE000001FF80FFFFFFFFFFFFFC0
310
7FFFFFF0001FFFFFF8000FFFFFFFF8000FF8000FFFFFFFF8000FFF0003FFFFFF
310
FFFFFFFFFF800000F000FFFFFFC0000001FFFC001C001FE001C000FFFF80007F
310
FFFFFF80000003FFFFFFF80000001FF80FFFFFFFFFFFFFC07FFFFFF0001FFFFF
310
F8001FFFFFFFFC000FF8001FFFFFFFFC000FFF0003FFFFFFFFFFFFFFF0000001
310
F000FFFFF800000001FFF8001C001FE001C000FFFF80007FFFFFF800000003FF
310
FFFF800000003FF80FFFFFFFFFFFFFC07FFFFFF0001FFFFFF8001FFFFFFFFC00
310
0FF8001FFFFFFFFC000FFF0003FFFFFFFFFFFFFE00000001F000FFFFC0000000
310
03FFF8001E001FC001E000FFFF80007FFFFF8000000007FFFFFC000000003FF8
310
0FFFFFFFFFFFFFC07FFFFFF0001FFFFFF8001FFFFFFFFC000FF8001FFFFFFFFC
310
000FFF0003FFFFFFFFFFFFE000000003F000FFFE0000000007FFF8001E000FC0
310
01E0007FFF80007FFFFE0000000007FFFFE0000000007FF80FFFFFFFFFFFFFC0
310
7FFFFFF0001FFFFFF0001FFFFFFFFC0007F0001FFFFFFFFC0007FF0003FFFFFF
310
FFFFFF0000000003F000FFF80000000007FFF8001E000FC003E0007FFF80007F
310
FFF0000000000FFFFF8000000000FFF80FFFFFFFFFFFFFC07FFFFFF0001FFFFF
310
F0001FFFFFFFFC0007F0001FFFFFFFFC0007FF0003FFFFFFFFFFFC0000000007
310
F000FFE0000000000FFFF0003E000FC003E0007FFF80007FFFC0000000001FFF
310
FE0000000001FFF80FFFFFFFFFFFFFC07FFFFFF0001FFFFFF0001FFFFFFFFC00
310
07F0001FFFFFFFFC0007FF0003FFFFFFFFFFF0000000000FF000FFC000000000
310
1FFFF0003F000F8003F0003FFF80007FFF80000000003FFFF80000000003FFF8
310
0FFFFFFFFFFFFFC07FFFFFF0001FFFFFF0001FFFFFFFFC0007F0001FFFFFFFFC
310
0007FF0003FFFFFFFFFFE0000000001FF000FF00000000007FFFF0003F000780
310
03F0003FFF80007FFF00000000007FFFF00000000007FFF80FFFFFFFFFFFFFC0
310
7FFFFFF0001FFFFFF0001FFFFFFFFC0007F0001FFFFFFFFC0007FF0003FFFFFF
310
FFFF80000000007FF000FE0000000000FFFFE0003F00078007F0003FFF80007F
310
FE0000000001FFFFE0000000001FFFF80FFFFFFFFFFFFFC07FFFFFF0001FFFFF
310
F0001FFFFFFFFC0007F0001FFFFFFFFC0007FF0003FFFFFFFFFF0000000000FF
310
F000FC0000000003FFFFE0007F00078007F0003FFF80007FFC0000000007FFFF
310
C0000000007FFFF80FFFFFFFFFFFFFC07FFFFFF0001FFFFFF8001FFFFFFFFC00
310
0FF8001FFFFFFFFC000FFF0003FFFFFFFFFE0000000003FFF000FC000000000F
310
FFFFE0007F80070007F8001FFF80007FF8000000001FFFFF8000000001FFFFF8
310
0FFFFFFFFFFFFFC07FFFFFF0001FFFFFF8001FFFFFFFFC000FF8001FFFFFFFFC
310
000FFF0003FFFFFFFFFC000000000FFFF000F8000000007FFFFFE0007F800700
310
07F8001FFF80007FF000000000FFFFFF800000000FFFFFF80FFFFFFFFFFFFFC0
310
7FFFFFF0001FFFFFF8000FFFFFFFF8000FF8000FFFFFFFF8000FFF0003FFFFFF
310
FFFC000000007FFFF000F800000007FFFFFFC0007F8003000FF8001FFF80007F
310
F000000007FFFFFF000000007FFFFFF80FFFFFFFFFFFFFC07FFFFFF0001FFFFF
310
F8000FFFFFFFF8000FF8000FFFFFFFF8000FFF0003FFFFFFFFF80000000FFFFF
310
F000F0000000FFFFFFFFC000FF8003000FF8001FFF80007FE0000000FFFFFFFF
310
0000000FFFFFFFF8000001FFFE0000007FFFFFF0001FFFFFF8000FFFFFFFF800
310
0FF8000FFFFFFFF8000FFF0003FFFFFFFFF8000000FFFFFFF000F000000FFFFF
310
FFFFC000FFC002000FF8000FFF80007FE000001FFFFFFFFE000001FFFFFFFFF8
310
000001FFFE0000007FFFFFF0001FFFFFF8000FFFFFFFF8000FF8000FFFFFFFF8
310
000FFF0003FFFFFFFFF000001FFFFFFFF000E00000FFFFFFFFFFC000FFC00200
310
0FFC000FFF80007FE00001FFFFFFFFFE00001FFFFFFFFFF8000001FFFE000000
310
7FFFFFF0001FFFFFFC000FFFFFFFF8001FFC000FFFFFFFF8001FFF0003FFFFFF
310
FFF00001FFFFFFFFF000E00007FFFFFFFFFF8000FFC000001FFC000FFF80007F
310
C0000FFFFFFFFFFE0000FFFFFFFFFFF8000001FFFE0000007FFFFFF0001FFFFF
310
FC0007FFFFFFF0001FFC0007FFFFFFF0001FFF0003FFFFFFFFF00007FFFFFFFF
310
F000E0001FFFFFFFFFFF8000FFC000001FFC000FFF80007FC0003FFFFFFFFFFE
310
0001FFFFFFFFFFF8000001FFFE0000007FFFFFF0001FFFFFFC0007FFFFFFF000
310
1FFC0007FFFFFFF0001FFF0003FFFFFFFFF0001FFFFFFFFFF000E0003FFFFF00
310
03FF8001FFE000001FFC0007FF80007FC0007FFFFF0007FC0003FFFFF0003FF8
310
000001FFFE0000007FFFFFF0001FFFFFFC0003FFFFFFE0001FFC0003FFFFFFE0
310
001FFF0003FFFFFFFFF0003FFFFFFFFFF000E0003FFFFF0001FF8001FFE00000
310
1FFE0007FF80007FC0007FFFFE0003FC0007FFFFE0003FF8000001FFFE000000
310
7FFFFFF0001FFFFFFE0003FFFFFFE0003FFE0003FFFFFFE0003FFF0003FFFFFF
310
FFF0003FFFFF8001F000E0003FFFFF0001FF0001FFE000001FFE0007FF80007F
310
C0007FFFFE0003FC0007FFFFE0003FF8000001FFFE0000007FFFFFF0001FFFFF
310
FE0001FFFFFFC0003FFE0001FFFFFFC0003FFF0003FFFFFFFFF0003FFFFF0001
310
F000E0003FFFFF0003FF0001FFE000003FFE0007FF80007FC0007FFFFE0003FC
310
0007FFFFE0003FF8000001FFFE0000007FFFFFF0001FFFFFFF0001FFFFFFC000
310
7FFF0001FFFFFFC0007FFF0003FFFFFFFFF0003FFFFF0001F000E0003FFFFE00
310
03FF0003FFF000003FFE0003FF80007FC0007FFFFC0003FE0007FFFFE0003FF8
310
000001FFFE0000007FFFFFF0001FFFFFFF0000FFFFFF80007FFF0000FFFFFF80
310
007FFF0003FFFFFFFFF0003FFFFF0001F000E0003FFFFE0003FF0003FFF00000
310
3FFF0003FF80007FC0007FFFFC0007FE0007FFFFC0003FF8000001FFFE000000
310
7FFFFFF0001FFFFFFF80007FFFFF0000FFFF80007FFFFF0000FFFF0003FFFFFF
310
FFF0003FFFFF0003F000E0003FFFFC0003FE0003FFF000003FFF0003FF80007F
310
E0003FFFF80007FE0003FFFFC0007FF8000001FFFE0000007FFFFFF0001FFFFF
310
FF80003FFFFE0000FFFF80003FFFFE0000FFFF0003FFFFFFFFF0001FFFFE0003
310
F000F0001FFFF80003FE0003FFF000007FFF0001FF80007FE0003FFFF00007FE
310
0001FFFF80007FF8000001FFFE0000007FFFFFF0001FFFFFFFC0000FFFF80001
310
FFFFC0000FFFF80001FFFF0003FFFFFFFFF0001FFFFC0003F000F0000FFFF000
310
07FE0007FFF800007FFF0001FF80007FE0001FFFE00007FF0000FFFE00007FF8
310
000001FFFE0000007FFFFFF0001FFFFFFFC00003FFE00001FFFFC00003FFE000
310
01FFFF0003FFFFFFFFF8000FFFF80003F000F00003FFC00007FC0007FFF80000
310
7FFF8001FF80007FF00007FF80000FFF00007FF80000FFF8000001FFFE000000
310
7F80000000000001FFE000003E000003FFFFE000003E000003FFFF0003FFFFFF
310
FFF80003FFE00007F000F800000000000FFC0007FFF800007FFF8001FF80007F
310
F000000000000FFF000000000000FFF8000001FFFE0000007F80000000000001
310
FFF0000000000007FFFFF0000000000007FFFF0003FFFFFFFFFC00007E000007
310
F000F800000000000FFC0007FFF80000FFFF8000FF80007FF800000000001FFF
310
800000000001FFF8000001FFFE0000007F80000000000001FFF800000000000F
310
FFFFF800000000000FFFFF0003FFFFFFFFFC00000000000FF000FC0000000000
310
1FFC0007FFFC0000FFFF8000FF80007FF800000000003FFFC00000000001FFF8
310
000001FFFE0000007F80000000000001FFF800000000000FFFFFF80000000000
310
0FFFFF0003FFFFFFFFFE00000000001FF000FE00000000003FF8000FFFFC0000
310
FFFF8000FF80007FFC00000000003FFFC00000000003FFF8000001FFFE000000
310
7F80000000000001FFFC00000000001FFFFFFC00000000001FFFFF0003FFFFFF
310
FFFF00000000001FF000FF00000000003FF8000FFFFC0000FFFFC000FF80007F
310
FE00000000007FFFE00000000007FFF8000001FFFE0000007F80000000000001
310
FFFE00000000003FFFFFFE00000000003FFFFF0003FFFFFFFFFF80000000003F
310
F000FF80000000007FF8000FFFFC0001FFFFC0007F80007FFF0000000000FFFF
310
F0000000000FFFF800000000000000007F80000000000001FFFF8000000000FF
310
FFFFFF8000000000FFFFFF0003FFFFFFFFFFC0000000007FF000FFC000000000
310
FFF8000FFFFE0001FFFFC0007F80007FFF8000000001FFFFF8000000001FFFF8
310
00000000000000007F80000000000001FFFFC000000001FFFFFFFFC000000001
310
FFFFFF0003FFFFFFFFFFE000000000FFF000FFE000000003FFF0001FFFFE0001
310
FFFFC0007F80007FFFC000000007FFFFFE000000003FFFF80000000000000000
310
7F80000000000001FFFFE000000003FFFFFFFFE000000003FFFFFF0003FFFFFF
310
FFFFF000000003FFF000FFF80000000FFFF0001FFFFE0001FFFFE0007F80007F
310
FFF00000000FFFFFFF00000000FFFFF800000000000000007F80000000000001
310
FFFFF80000000FFFFFFFFFF80000000FFFFFFF0003FFFFFFFFFFFC0000000FFF
310
F000FFFE0000003FFFF0001FFFFE0003FFFFE0003F80007FFFFC0000003FFFFF
310
FFC0000003FFFFF800000000000000007F80000000000001FFFFFE0000003FFF
310
FFFFFFFE0000003FFFFFFF0003FFFFFFFFFFFF0000003FFFF000FFFF800000FF
310
FFF0001FFFFF0003FFFFE0003F80007FFFFF000001FFFFFFFFF800001FFFFFF8
310
00000000000000007F80000000000001FFFFFFC00001FFFFFFFFFFFFC00001FF
310
FFFFFF0003FFFFFFFFFFFFC00000FFFFF000FFFFF8000FFFFFFFFFFFFFFFFFFF
310
FFFFFFFFFFFFFFFFFFFFF0001FFFFFFFFFFF0000FFFFFFF80000000000000000
310
7FFFFFFFFFFFFFFFFFFFFFFC001FFFFFFFFFFFFFFC001FFFFFFFFFFFFFFFFFFF
310
FFFFFFFC001FFFFFF000FFFFFFFFFFFFFFFFFFFFFFFFFFFFFFFFFFFFFFFFFFFF
310
FFFFFFFFFFFFFFFFFFFFFFFFFFFFFFFFFFFFFFFFFFFFFFFFFFFFFFFFFFFFFFFF
310
FFFFFFFFFFFFFFFFFFFFFFFFFFFFFFFFFFFFFFFFFFFFFFFFFFFFFFFFFFFFFFFF
310
F000FFFFFFFFFFFFFFFFFFFFFFFFFFFFFFFFFFFFFFFFFFFFFFFFFFFFFFFFFFFF
310
FFFFFFFFFFFFFFFFFFFFFFFFFFFFFFFFFFFFFFFFFFFFFFFFFFFFFFFFFFFFFFFF
310
FFFFFFFFFFFFFFFFFFFFFFFFFFFFFFFFFFFFFFFFFFFFFFFFF000FFFFFFFFFFFF
310
FFFFFFFFFFFFFFFFFFFFFFFFFFFFFFFFFFFFFFFFFFFFFFFFFFFFFFFFFFFFFFFF
310
FFFFFFFFFFFFFFFFFFFFFFFFFFFFFFFFFFFFFFFFFFFFFFFFFFFFFFFFFFFFFFFF
310
FFFFFFFFFFFFFFFFFFFFFFFFFFFFFFFFF000FFFFFFFFFFFFFFFFFFFFFFFFFFFF
310
FFFFFFFFFFFFFFFFFFFFFFFFFFFFFFFFFFFFFFFFFFFFFFFFFFFFFFFFFFFFFFFF
310
FFFFFFFFFFFFFFFFFFFFFFFFFFFFFFFFFFFFFFFFFFFFFFFFFFFFFFFFFFFFFFFF
310
FFFFFFFFFFFFFFFFF000FFFFFFFFFFFFFFFFFFFFFFFFFFFFFFFFFFFFFFFFFFFF
310
FFFFFFFFFFFFFFFFFFFFFFFFFFFFFFFFFFFFFFFFFFFFFFFFFFFFFFFFFFFFFFFF
310
FFFFFFFFFFFFFFFFFFFFFFFFFFFFFFFFFFFFFFFFFFFFFFFFFFFFFFFFFFFFFFFF
310
F000FFFFFFFFFFFFFFFFFFFFFFFFFFFFFFFFFFFFFFFFFFFFFFFFFFFFFFFFFFFF
310
FFFFFFFFFFFFFFFFFFFFFFFFFFFFFFFFFFFFFFFFFFFFFFFFFFFFFFFFFFFFFFFF
310
FFFFFFFFFFFFFFFFFFFFFFFFFFFFFFFFFFFFFFFFFFFFFFFFF000FFFFFFFFFFFF
310
FFFFFFFFFFFFFFFFFFFFFFFFFFFFFFFFFFFFFFFFFFFFFFFFFFFFFFFFFFFFFFFF
310
FFFFFFFFFFFFFFFFFFFFFFFFFFFFFFFFFFFFFFFFFFFFFFFFFFFFFFFFFFFFFFFF
310
FFFFFFFFFFFFFFFFFFFFFFFFFFFFFFFFF000FFFFFFFFFFFFFFFFFFFFFFFFFFFF
310
FFFFFFFFFFFFFFFFFFFFFFFFFFFFFFFFFFFFFFFFFFFFFFFFFFFFFFFFFFFFFFFF
310
FFFFFFFFFFFFFFFFFFFFFFFFFFFFFFFFFFFFFFFFFFFFFFFFFFFFFFFFFFFFFFFF
310
FFFFFFFFFFFFFFFFF000FFFFFFFFFFFFFFFFFFFFFFFFFFFFFFFFFFFFFFFFFFFF
310
FFFFFFFFFFFFFFFFFFFFFFFFFFFFFFFFFFFFFFFFFFFFFFFFFFFFFFFFFFFFFFFF
310
FFFFFFFFFFFFFFFFFFFFFFFFFFFFFFFFFFFFFFFFFFFFFFFFFFFFFFFFFFFFFFFF
310
F000FFFFFFFFFFFFFFFFFFFFFFFFFFFFFFFFFFFFFFFFFFFFFFFFFFFFFFFFFFFF
310
FFFFFFFFFFFFFFFFFFFFFFFFFFFFFFFFFFFFFFFFFFFFFFFFFFFFFFFFFFFFFFFF
310
FFFFFFFFFFFFFFFFFFFFFFFFFFFFFFFFFFFFFFFFFFFFFFFFF000FFFFFFFFFFFF
310
FFFFFFFFFFFFFFFFFFFFFFFFFFFFFFFFFFFFFFFFFFFFFFFFFFFFFFFFFFFFFFFF
310
FFFFFFFFFFFFFFFFFFFFFFFFFFFFFFFFFFFFFFFFFFFFFFFFFFFFFFFFFFFFFFFF
310
FFFFFFFFFFFFFFFFFFFFFFFFFFFFFFFFF000FFFFFFFFFFFFFFFFFFFFFFFFFFFF
310
FFFFFFFFFFFFFFFFFFFFFFFFFFFFFFFFFFFFFFFFFFFFFFFFFFFFFFFFFFFFFFFF
310
FFFFFFFFFFFFFFFFFFFFFFFFFFFFFFFFFFFFFFFFFFFFFFFFFFFFFFFFFFFFFFFF
310
FFFFFFFFFFFFFFFFF000FFFFFFFFFFFFFFFFFFFFFFFFFFFFFFFFFFFFFFFFFFFF
310
FFFFFFFFFFFFFFFFFFFFFFFFFFFFFFFFFFFFFFFFFFFFFFFFFFFFFFFFFFFFFFFF
310
FFFFFFFFFFFFFFFFFFFFFFFFFFFFFFFFFFFFFFFFFFFFFFFFFFFFFFFFFFFFFFFF
310
F000FFFFFFFFFFFFFFFFFFFFFFFFFFFFFFFFFFFFFFFFFFFFFFFFFFFFFFFFFFFF
310
FFFFFFFFFFFFFFFFFFFFFFFFFFFFFFFFFFFFFFFFFFFFFFFFFFFFFFFFFFFFFFFF
310
FFFFFFFFFFFFFFFFFFFFFFFFFFFFFFFFFFFFFFFFFFFFFFFFF000FFFFFFFFFFFF
310
FFFFFFFFFFFFFFFFFFFFFFFFFFFFFFFFFFFFFFFFFFFFFFFFFFFFFFFFFFFFFFFF
310
FFFFFFFFFFFFFFFFFFFFFFFFFFFFFFFFFFFFFFFFFFFFFFFFFFFFFFFFFFFFFFFF
310
FFFFFFFFFFFFFFFFFFFFFFFFFFFFFFFFF000FFFFFFFFFFFFFFFFFFFFFFFFFFFF
310
FFFFFFFFFFFFFFFFFFFFFFFFFFFFFFFFFFFFFFFFFFFFFFFFFFFFFFFFFFFFFFFF
310
FFFFFFFFFFFFFFFFFFFFFFFFFFFFFFFFFFFFFFFFFFFFFFFFFFFFFFFFFFFFFFFF
310
FFFFFFFFFFFFFFFFF000FFFFFFFFFFFFFFFFFFFFFFFFFFFFFFFFFFFFFFFFFFFF
310
FFFFFFFFFFFFFFFFFFFFFFFFFFFFFFFFFFFFFFFFFFFFFFFFFFFFFFFFFFFFFFFF
310
FFFFFFFFFFFFFFFFFFFFFFFFFFFFFFFFFFFFFFFFFFFFFFFFFFFFFFFFFFFFFFFF
310
F000FFFFFFFFFFFFFFFFFFFFFFFFFFFFFFFFFFFFFFFFFFFFFFFFFFFFFFFFFFFF
310
FFFFFFFFFFFFFFFFFFFFFFFFFFFFFFFFFFFFFFFFFFFFFFFFFFFFFFFFFFFFFFFF
310
FFFFFFFFFFFFFFFFFFFFFFFFFFFFFFFFFFFFFFFFFFFFFFFFF000FFFFFFFFFFFF
310
FFFFFFFFFFFFFFFFFFFFFFFFFFFFFFFFFFFFFFFFFFFFFFFFFFFFFFFFFFFFFFFF
310
FFFFFFFFFFFFFFFFFFFFFFFFFFFFFFFFFFFFFFFFFFFFFFFFFFFFFFFFFFFFFFFF
310
FFFFFFFFFFFFFFFFFFFFFFFFFFFFFFFFF000FFFFFFFFFFFFFFFFFFFFFFFFFFFF
310
FFFFFFFFFFFFFFFFFFFFFFFFFFFFFFFFFFFFFFFFFFFFFFFFFFFFFFFFFFFFFFFF
310
FFFFFFFFFFFFFFFFFFFFFFFFFFFFFFFFFFFFFFFFFFFFFFFFFFFFFFFFFFFFFFFF
310
FFFFFFFFFFFFFFFFF000FFFFFFFFFFFFFFFFFFFFFFFFFFFFFFFFFFFFFFFFFFFF
310
FFFFFFFFFFFFFFFFFFFFFFFFFFFFFFFFFFFFFFFFFFFFFFFFFFFFFFFFFFFFFFFF
310
FFFFFFFFFFFFFFFFFFFFFFFFFFFFFFFFFFFFFFFFFFFFFFFFFFFFFFFFFFFFFFFF
310
F000FFFFFFFFFFFFFFFFFFFFFFFFFFFFFFFFFFFFFFFFFFFFFFFFFFFFFFFFFFFF
310
FFFFFFFFFFFFFFFFFFFFFFFFFFFFFFFFFFFFFFFFFFFFFFFFFFFFFFFFFFFFFFFF
310
FFFFFFFFFFFFFFFFFFFFFFFFFFFFFFFFFFFFFFFFFFFFFFFFF000FFFFFFFFFFFF
310
FFFFFFFFFFFFFFFFFFFFFFFFFFFFFFFFFFFFFFFFFFFFFFFFFFFFFFFFFFFFFFFF
310
FFFFFFFFFFFFFFFFFFFFFFFFFFFFFFFFFFFFFFFFFFFFFFFFFFFFFFFFFFFFFFFF
310
FFFFFFFFFFFFFFFFFFFFFFFFFFFFFFFFF0000000000000000000000000000000
310
0000000000000000000000000000000000000000000000000000000000000000
310
0000000000000000000000000000000000000000000000000000000000000000
310
0000000000000000000000000000000000000000000000000000000000000000
310
0000000000000000000000000000000000000000000000000000000000000000
310
0000000000000000000000000000000000000000000000000000000000000000
310
0000000000000000000000000000000000000000000000000000000000000000
310
0000000000000000000000000000000000000000000000000000000000000000
310
0000000000000000000000000000000000000000000000000000000000000000
310
0000000000000000000000000000000000000000000000000000000000000000
310
0000000000000000000000000000000000000000000000000000000000000000
310
0000000000000000000000000000000000000000000000000000000000000000
310
0000000000000000000000000000000000000000000000000000000000000000
310
0000000000000000000000000000000000000000000000000000000000000000
310
0000000000000000000000000000000000000000000000000000000000000000
310
0000000000000000000000000000000000000000000000000000000000000000
  1
OLE
  0
ENDSEC
  0
SECTION
  2
OBJECTS
  0
DICTIONARY
  5
C
330
0
100
AcDbDictionary
281
     1
  3
ACAD_GROUP
350
D
  3
ACAD_LAYOUT
350
1A
  3
ACAD_MLINESTYLE
350
17
  3
ACAD_PLOTSETTINGS
350
19
  3
ACAD_PLOTSTYLENAME
350
E
  3
ACAD_SCALELIST
350
47
  0
DICTIONARY
  5
D
102
{ACAD_REACTORS
330
C
102
}
330
C
100
AcDbDictionary
281
     1
  0
DICTIONARY
  5
1A
102
{ACAD_REACTORS
330
C
102
}
330
C
100
AcDbDictionary
281
     1
  3
Layout1
350
1E
  3
Layout2
350
26
  3
Model
350
22
  0
DICTIONARY
  5
17
102
{ACAD_REACTORS
330
C
102
}
330
C
100
AcDbDictionary
281
     1
  3
Standard
350
18
  0
DICTIONARY
  5
19
102
{ACAD_REACTORS
330
C
102
}
330
C
100
AcDbDictionary
281
     1
  0
ACDBDICTIONARYWDFLT
  5
E
102
{ACAD_REACTORS
330
C
102
}
330
C
100
AcDbDictionary
281
     1
  3
Normal
350
F
100
AcDbDictionaryWithDefault
340
F
  0
DICTIONARY
  5
47
102
{ACAD_REACTORS
330
C
102
}
330
C
100
AcDbDictionary
281
     1
  3
A0
350
48
  3
A1
350
49
  3
A2
350
4A
  3
A3
350
4B
  3
A4
350
4C
  3
A5
350
4D
  3
A6
350
4E
  3
A7
350
4F
  3
A8
350
50
  3
A9
350
51
  3
B0
350
52
  3
B1
350
53
  3
B2
350
54
  3
B3
350
55
  3
B4
350
56
  3
B5
350
57
  3
B6
350
58
  3
B7
350
59
  3
B8
350
5A
  3
B9
350
5B
  3
C0
350
5C
  3
C1
350
5D
  3
C2
350
5E
  3
C3
350
5F
  3
C4
350
60
  3
C5
350
61
  3
C6
350
62
  3
C7
350
63
  3
C8
350
64
  3
C9
350
65
  3
D0
350
66
  3
D1
350
67
  3
D2
350
68
  0
LAYOUT
  5
1E
102
{ACAD_REACTORS
330
1A
102
}
330
1A
100
AcDbPlotSettings
  1

  2
none_device
  4

  6

 40
0.0
 41
0.0
 42
0.0
 43
0.0
 44
0.0
 45
0.0
 46
0.0
 47
0.0
 48
0.0
 49
0.0
140
0.0
141
0.0
142
1.0
143
1.0
 70
   688
 72
     1
 73
     0
 74
     5
  7

 75
    16
147
1.0
148
0.0
149
0.0
100
AcDbLayout
  1
Layout1
 70
     1
 71
     1
 10
0.0
 20
0.0
 11
420.0
 21
297.0
 12
0.0
 22
0.0
 32
0.0
 14
1.0000000000E+20
 24
1.0000000000E+20
 34
1.0000000000E+20
 15
-1.0000000000E+20
 25
-1.0000000000E+20
 35
-1.0000000000E+20
146
0.0
 13
0.0
 23
0.0
 33
0.0
 16
1.0
 26
0.0
 36
0.0
 17
0.0
 27
1.0
 37
0.0
 76
     0
330
1B
  0
LAYOUT
  5
26
102
{ACAD_REACTORS
330
1A
102
}
330
1A
100
AcDbPlotSettings
  1

  2
none_device
  4

  6

 40
0.0
 41
0.0
 42
0.0
 43
0.0
 44
0.0
 45
0.0
 46
0.0
 47
0.0
 48
0.0
 49
0.0
140
0.0
141
0.0
142
1.0
143
1.0
 70
   688
 72
     1
 73
     0
 74
     5
  7

 75
    16
147
1.0
148
0.0
149
0.0
100
AcDbLayout
  1
Layout2
 70
     1
 71
     2
 10
0.0
 20
0.0
 11
0.0
 21
0.0
 12
0.0
 22
0.0
 32
0.0
 14
0.0
 24
0.0
 34
0.0
 15
0.0
 25
0.0
 35
0.0
146
0.0
 13
0.0
 23
0.0
 33
0.0
 16
1.0
 26
0.0
 36
0.0
 17
0.0
 27
1.0
 37
0.0
 76
     0
330
23
  0
LAYOUT
  5
22
102
{ACAD_REACTORS
330
1A
102
}
330
1A
100
AcDbPlotSettings
  1

  2
none_device
  4
Letter_(8.50_x_11.00_Inches)
  6

 40
6.35
 41
6.35
 42
6.35000508
 43
6.35000508
 44
215.9
 45
279.4
 46
0.0
 47
0.0
 48
0.0
 49
0.0
140
0.0
141
0.0
142
1.0
143
1.0
 70
  1712
 72
     1
 73
     0
 74
     0
  7

 75
     0
147
1.0
148
0.0
149
0.0
100
AcDbLayout
  1
Model
 70
     1
 71
     0
 10
0.0
 20
0.0
 11
297.0
 21
210.0
 12
0.0
 22
0.0
 32
0.0
 14
0.0
 24
0.0
 34
0.0
 15
297.0
 25
210.0
 35
0.0
146
0.0
 13
0.0
 23
0.0
 33
0.0
 16
1.0
 26
0.0
 36
0.0
 17
0.0
 27
1.0
 37
0.0
 76
     0
330
1F
331
29
  0
MLINESTYLE
  5
18
102
{ACAD_REACTORS
330
17
102
}
330
17
100
AcDbMlineStyle
  2
Standard
 70
     0
  3

 62
   256
 51
90.0
 52
90.0
 71
     2
 49
0.5
 62
   256
  6
BYLAYER
 49
-0.5
 62
   256
  6
BYLAYER
  0
ACDBPLACEHOLDER
  5
F
102
{ACAD_REACTORS
330
E
102
}
330
E
  0
SCALE
  5
48
102
{ACAD_REACTORS
330
47
102
}
330
47
100
AcDbScale
 70
     0
300
1:1
140
1.0
141
1.0
290
     1
  0
SCALE
  5
49
102
{ACAD_REACTORS
330
47
102
}
330
47
100
AcDbScale
 70
     0
300
1:2
140
1.0
141
2.0
290
     0
  0
SCALE
  5
4A
102
{ACAD_REACTORS
330
47
102
}
330
47
100
AcDbScale
 70
     0
300
1:4
140
1.0
141
4.0
290
     0
  0
SCALE
  5
4B
102
{ACAD_REACTORS
330
47
102
}
330
47
100
AcDbScale
 70
     0
300
1:5
140
1.0
141
5.0
290
     0
  0
SCALE
  5
4C
102
{ACAD_REACTORS
330
47
102
}
330
47
100
AcDbScale
 70
     0
300
1:8
140
1.0
141
8.0
290
     0
  0
SCALE
  5
4D
102
{ACAD_REACTORS
330
47
102
}
330
47
100
AcDbScale
 70
     0
300
1:10
140
1.0
141
10.0
290
     0
  0
SCALE
  5
4E
102
{ACAD_REACTORS
330
47
102
}
330
47
100
AcDbScale
 70
     0
300
1:16
140
1.0
141
16.0
290
     0
  0
SCALE
  5
4F
102
{ACAD_REACTORS
330
47
102
}
330
47
100
AcDbScale
 70
     0
300
1:20
140
1.0
141
20.0
290
     0
  0
SCALE
  5
50
102
{ACAD_REACTORS
330
47
102
}
330
47
100
AcDbScale
 70
     0
300
1:30
140
1.0
141
30.0
290
     0
  0
SCALE
  5
51
102
{ACAD_REACTORS
330
47
102
}
330
47
100
AcDbScale
 70
     0
300
1:40
140
1.0
141
40.0
290
     0
  0
SCALE
  5
52
102
{ACAD_REACTORS
330
47
102
}
330
47
100
AcDbScale
 70
     0
300
1:50
140
1.0
141
50.0
290
     0
  0
SCALE
  5
53
102
{ACAD_REACTORS
330
47
102
}
330
47
100
AcDbScale
 70
     0
300
1:100
140
1.0
141
100.0
290
     0
  0
SCALE
  5
54
102
{ACAD_REACTORS
330
47
102
}
330
47
100
AcDbScale
 70
     0
300
2:1
140
2.0
141
1.0
290
     0
  0
SCALE
  5
55
102
{ACAD_REACTORS
330
47
102
}
330
47
100
AcDbScale
 70
     0
300
4:1
140
4.0
141
1.0
290
     0
  0
SCALE
  5
56
102
{ACAD_REACTORS
330
47
102
}
330
47
100
AcDbScale
 70
     0
300
8:1
140
8.0
141
1.0
290
     0
  0
SCALE
  5
57
102
{ACAD_REACTORS
330
47
102
}
330
47
100
AcDbScale
 70
     0
300
10:1
140
10.0
141
1.0
290
     0
  0
SCALE
  5
58
102
{ACAD_REACTORS
330
47
102
}
330
47
100
AcDbScale
 70
     0
300
100:1
140
100.0
141
1.0
290
     0
  0
SCALE
  5
59
102
{ACAD_REACTORS
330
47
102
}
330
47
100
AcDbScale
 70
     0
300
1/128" = 1'-0"
140
0.0078125
141
12.0
290
     0
  0
SCALE
  5
5A
102
{ACAD_REACTORS
330
47
102
}
330
47
100
AcDbScale
 70
     0
300
1/64" = 1'-0"
140
0.015625
141
12.0
290
     0
  0
SCALE
  5
5B
102
{ACAD_REACTORS
330
47
102
}
330
47
100
AcDbScale
 70
     0
300
1/32" = 1'-0"
140
0.03125
141
12.0
290
     0
  0
SCALE
  5
5C
102
{ACAD_REACTORS
330
47
102
}
330
47
100
AcDbScale
 70
     0
300
1/16" = 1'-0"
140
0.0625
141
12.0
290
     0
  0
SCALE
  5
5D
102
{ACAD_REACTORS
330
47
102
}
330
47
100
AcDbScale
 70
     0
300
3/32" = 1'-0"
140
0.09375
141
12.0
290
     0
  0
SCALE
  5
5E
102
{ACAD_REACTORS
330
47
102
}
330
47
100
AcDbScale
 70
     0
300
1/8" = 1'-0"
140
0.125
141
12.0
290
     0
  0
SCALE
  5
5F
102
{ACAD_REACTORS
330
47
102
}
330
47
100
AcDbScale
 70
     0
300
3/16" = 1'-0"
140
0.1875
141
12.0
290
     0
  0
SCALE
  5
60
102
{ACAD_REACTORS
330
47
102
}
330
47
100
AcDbScale
 70
     0
300
1/4" = 1'-0"
140
0.25
141
12.0
290
     0
  0
SCALE
  5
61
102
{ACAD_REACTORS
330
47
102
}
330
47
100
AcDbScale
 70
     0
300
3/8" = 1'-0"
140
0.375
141
12.0
290
     0
  0
SCALE
  5
62
102
{ACAD_REACTORS
330
47
102
}
330
47
100
AcDbScale
 70
     0
300
1/2" = 1'-0"
140
0.5
141
12.0
290
     0
  0
SCALE
  5
63
102
{ACAD_REACTORS
330
47
102
}
330
47
100
AcDbScale
 70
     0
300
3/4" = 1'-0"
140
0.75
141
12.0
290
     0
  0
SCALE
  5
64
102
{ACAD_REACTORS
330
47
102
}
330
47
100
AcDbScale
 70
     0
300
1" = 1'-0"
140
1.0
141
12.0
290
     0
  0
SCALE
  5
65
102
{ACAD_REACTORS
330
47
102
}
330
47
100
AcDbScale
 70
     0
300
1-1/2" = 1'-0"
140
1.5
141
12.0
290
     0
  0
SCALE
  5
66
102
{ACAD_REACTORS
330
47
102
}
330
47
100
AcDbScale
 70
     0
300
3" = 1'-0"
140
3.0
141
12.0
290
     0
  0
SCALE
  5
67
102
{ACAD_REACTORS
330
47
102
}
330
47
100
AcDbScale
 70
     0
300
6" = 1'-0"
140
6.0
141
12.0
290
     0
  0
SCALE
  5
68
102
{ACAD_REACTORS
330
47
102
}
330
47
100
AcDbScale
 70
     0
300
1'-0" = 1'-0"
140
12.0
141
12.0
290
     0
  0
ENDSEC
  0
EOF
