  0
SECTION
  2
HEADER
  9
$ACADVER
  1
AC1015
  9
$ACADMAINTVER
 70
     6
  9
$DWGCODEPAGE
  3
ANSI_1252
  9
$INSBASE
 10
0.0
 20
0.0
 30
0.0
  9
$EXTMIN
 10
0.0
 20
0.0
 30
0.0
  9
$EXTMAX
 10
297.0
 20
210.0
 30
0.0
  9
$LIMMIN
 10
0.0
 20
0.0
  9
$LIMMAX
 10
297.0
 20
210.0
  9
$ORTHOMODE
 70
     0
  9
$REGENMODE
 70
     1
  9
$FILLMODE
 70
     1
  9
$QTEXTMODE
 70
     0
  9
$MIRRTEXT
 70
     1
  9
$LTSCALE
 40
1.0
  9
$ATTMODE
 70
     1
  9
$TEXTSIZE
 40
2.0
  9
$TRACEWID
 40
1.0
  9
$TEXTSTYLE
  7
Standard
  9
$CLAYER
  8
0
  9
$CELTYPE
  6
ByLayer
  9
$CECOLOR
 62
   256
  9
$CELTSCALE
 40
1.0
  9
$DISPSILH
 70
     0
  9
$DIMSCALE
 40
1.0
  9
$DIMASZ
 40
3.0
  9
$DIMEXO
 40
0.0
  9
$DIMDLI
 40
3.75
  9
$DIMRND
 40
0.0
  9
$DIMDLE
 40
0.0
  9
$DIMEXE
 40
1.0
  9
$DIMTP
 40
0.0
  9
$DIMTM
 40
0.0
  9
$DIMTXT
 40
2.0
  9
$DIMCEN
 40
2.5
  9
$DIMTSZ
 40
0.0
  9
$DIMTOL
 70
     0
  9
$DIMLIM
 70
     0
  9
$DIMTIH
 70
     1
  9
$DIMTOH
 70
     1
  9
$DIMSE1
 70
     0
  9
$DIMSE2
 70
     0
  9
$DIMTAD
 70
     1
  9
$DIMZIN
 70
     0
  9
$DIMBLK
  1

  9
$DIMASO
 70
     1
  9
$DIMSHO
 70
     1
  9
$DIMPOST
  1

  9
$DIMAPOST
  1

  9
$DIMALT
 70
     0
  9
$DIMALTD
 70
     3
  9
$DIMALTF
 40
0.0393700787
  9
$DIMLFAC
 40
2.0
  9
$DIMTOFL
 70
     1
  9
$DIMTVP
 40
0.0
  9
$DIMTIX
 70
     0
  9
$DIMSOXD
 70
     0
  9
$DIMSAH
 70
     0
  9
$DIMBLK1
  1

  9
$DIMBLK2
  1

  9
$DIMSTYLE
  2
ISO-25
  9
$DIMCLRD
 70
     0
  9
$DIMCLRE
 70
     0
  9
$DIMCLRT
 70
     0
  9
$DIMTFAC
 40
1.0
  9
$DIMGAP
 40
1.524
  9
$DIMJUST
 70
     0
  9
$DIMSD1
 70
     0
  9
$DIMSD2
 70
     0
  9
$DIMTOLJ
 70
     0
  9
$DIMTZIN
 70
     0
  9
$DIMALTZ
 70
     0
  9
$DIMALTTZ
 70
     0
  9
$DIMUPT
 70
     0
  9
$DIMDEC
 70
     2
  9
$DIMTDEC
 70
     3
  9
$DIMALTU
 70
     2
  9
$DIMALTTD
 70
     3
  9
$DIMTXSTY
  7
Standard
  9
$DIMAUNIT
 70
     0
  9
$DIMADEC
 70
     2
  9
$DIMALTRND
 40
0.0
  9
$DIMAZIN
 70
     0
  9
$DIMDSEP
 70
    44
  9
$DIMATFIT
 70
     3
  9
$DIMFRAC
 70
     0
  9
$DIMLDRBLK
  1

  9
$DIMLUNIT
 70
     2
  9
$DIMLWD
 70
    -2
  9
$DIMLWE
 70
    -2
  9
$DIMTMOVE
 70
     0
  9
$LUNITS
 70
     2
  9
$LUPREC
 70
     2
  9
$SKETCHINC
 40
1.0
  9
$FILLETRAD
 40
10.0
  9
$AUNITS
 70
     0
  9
$AUPREC
 70
     2
  9
$MENU
  1
.
  9
$ELEVATION
 40
0.0
  9
$PELEVATION
 40
0.0
  9
$THICKNESS
 40
0.0
  9
$LIMCHECK
 70
     0
  9
$CHAMFERA
 40
0.0
  9
$CHAMFERB
 40
0.0
  9
$CHAMFERC
 40
0.0
  9
$CHAMFERD
 40
0.0
  9
$SKPOLY
 70
     0
  9
$TDCREATE
 40
2458166.455496308
  9
$TDUCREATE
 40
2458166.413829641
  9
$TDUPDATE
 40
2458166.455499526
  9
$TDUUPDATE
 40
2458166.413832859
  9
$TDINDWG
 40
0.0000000116
  9
$TDUSRTIMER
 40
0.0000000116
  9
$USRTIMER
 70
     1
  9
$ANGBASE
 50
0.0
  9
$ANGDIR
 70
     0
  9
$PDMODE
 70
     0
  9
$PDSIZE
 40
-1.0
  9
$PLINEWID
 40
0.0
  9
$SPLFRAME
 70
     0
  9
$SPLINETYPE
 70
     6
  9
$SPLINESEGS
 70
     8
  9
$HANDSEED
  5
308
  9
$SURFTAB1
 70
     6
  9
$SURFTAB2
 70
     6
  9
$SURFTYPE
 70
     6
  9
$SURFU
 70
     6
  9
$SURFV
 70
     6
  9
$UCSBASE
  2

  9
$UCSNAME
  2

  9
$UCSORG
 10
0.0
 20
0.0
 30
0.0
  9
$UCSXDIR
 10
1.0
 20
0.0
 30
0.0
  9
$UCSYDIR
 10
0.0
 20
1.0
 30
0.0
  9
$UCSORTHOREF
  2

  9
$UCSORTHOVIEW
 70
     0
  9
$UCSORGTOP
 10
0.0
 20
0.0
 30
0.0
  9
$UCSORGBOTTOM
 10
0.0
 20
0.0
 30
0.0
  9
$UCSORGLEFT
 10
0.0
 20
0.0
 30
0.0
  9
$UCSORGRIGHT
 10
0.0
 20
0.0
 30
0.0
  9
$UCSORGFRONT
 10
0.0
 20
0.0
 30
0.0
  9
$UCSORGBACK
 10
0.0
 20
0.0
 30
0.0
  9
$PUCSBASE
  2

  9
$PUCSNAME
  2

  9
$PUCSORG
 10
0.0
 20
0.0
 30
0.0
  9
$PUCSXDIR
 10
1.0
 20
0.0
 30
0.0
  9
$PUCSYDIR
 10
0.0
 20
1.0
 30
0.0
  9
$PUCSORTHOREF
  2

  9
$PUCSORTHOVIEW
 70
     0
  9
$PUCSORGTOP
 10
0.0
 20
0.0
 30
0.0
  9
$PUCSORGBOTTOM
 10
0.0
 20
0.0
 30
0.0
  9
$PUCSORGLEFT
 10
0.0
 20
0.0
 30
0.0
  9
$PUCSORGRIGHT
 10
0.0
 20
0.0
 30
0.0
  9
$PUCSORGFRONT
 10
0.0
 20
0.0
 30
0.0
  9
$PUCSORGBACK
 10
0.0
 20
0.0
 30
0.0
  9
$USERI1
 70
     0
  9
$USERI2
 70
     0
  9
$USERI3
 70
     0
  9
$USERI4
 70
     0
  9
$USERI5
 70
     0
  9
$USERR1
 40
0.0
  9
$USERR2
 40
0.0
  9
$USERR3
 40
0.0
  9
$USERR4
 40
0.0
  9
$USERR5
 40
0.0
  9
$WORLDVIEW
 70
     1
  9
$SHADEDGE
 70
     3
  9
$SHADEDIF
 70
    70
  9
$TILEMODE
 70
     1
  9
$MAXACTVP
 70
    64
  9
$PINSBASE
 10
0.0
 20
0.0
 30
0.0
  9
$PLIMCHECK
 70
     0
  9
$PEXTMIN
 10
1.0000000000E+20
 20
1.0000000000E+20
 30
1.0000000000E+20
  9
$PEXTMAX
 10
-1.0000000000E+20
 20
-1.0000000000E+20
 30
-1.0000000000E+20
  9
$PLIMMIN
 10
0.0
 20
0.0
  9
$PLIMMAX
 10
420.0
 20
297.0
  9
$UNITMODE
 70
     0
  9
$VISRETAIN
 70
     1
  9
$PLINEGEN
 70
     0
  9
$PSLTSCALE
 70
     1
  9
$TREEDEPTH
 70
  3020
  9
$CMLSTYLE
  2
Standard
  9
$CMLJUST
 70
     0
  9
$CMLSCALE
 40
20.0
  9
$PROXYGRAPHICS
 70
     1
  9
$MEASUREMENT
 70
     1
  9
$CELWEIGHT
370
    -1
  9
$ENDCAPS
280
     0
  9
$JOINSTYLE
280
     0
  9
$LWDISPLAY
290
     1
  9
$INSUNITS
 70
     4
  9
$HYPERLINKBASE
  1

  9
$STYLESHEET
  1

  9
$XEDIT
290
     1
  9
$CEPSNTYPE
380
     0
  9
$PSTYLEMODE
290
     1
  9
$FINGERPRINTGUID
  2
{88BA311B-F934-4A48-9FE8-1D12D4E4D326}
  9
$VERSIONGUID
  2
{FAEB1C32-E019-11D5-929B-00C0DF256EC4}
  9
$EXTNAMES
290
     1
  9
$PSVPSCALE
 40
0.0
  9
$OLESTARTUP
290
     0
  0
ENDSEC
  0
SECTION
  2
CLASSES
  0
CLASS
  1
ACDBDICTIONARYWDFLT
  2
AcDbDictionaryWithDefault
  3
ObjectDBX Classes
 90
        0
280
     0
281
     0
  0
CLASS
  1
VISUALSTYLE
  2
AcDbVisualStyle
  3
ObjectDBX Classes
 90
     4095
280
     0
281
     0
  0
CLASS
  1
MATERIAL
  2
AcDbMaterial
  3
ObjectDBX Classes
 90
     1153
280
     0
281
     0
  0
CLASS
  1
SCALE
  2
AcDbScale
  3
ObjectDBX Classes
 90
     1153
280
     0
281
     0
  0
CLASS
  1
TABLESTYLE
  2
AcDbTableStyle
  3
ObjectDBX Classes
 90
     4095
280
     0
281
     0
  0
CLASS
  1
MLEADERSTYLE
  2
AcDbMLeaderStyle
  3
ACDB_MLEADERSTYLE_CLASS
 90
     4095
280
     0
281
     0
  0
CLASS
  1
SUN
  2
AcDbSun
  3
SCENEOE
 90
     1153
280
     0
281
     0
  0
CLASS
  1
ACDBPLACEHOLDER
  2
AcDbPlaceHolder
  3
ObjectDBX Classes
 90
        0
280
     0
281
     0
  0
CLASS
  1
LAYOUT
  2
AcDbLayout
  3
ObjectDBX Classes
 90
        0
280
     0
281
     0
  0
ENDSEC
  0
SECTION
  2
TABLES
  0
TABLE
  2
VPORT
  5
8
330
0
100
AcDbSymbolTable
 70
     1
  0
VPORT
  5
29
330
8
100
AcDbSymbolTableRecord
100
AcDbViewportTableRecord
  2
*Active
 70
     0
 10
0.0
 20
0.0
 11
1.0
 21
1.0
 12
148.5
 22
105.0
 13
0.0
 23
0.0
 14
10.0
 24
10.0
 15
10.0
 25
10.0
 16
0.0
 26
0.0
 36
1.0
 17
0.0
 27
0.0
 37
0.0
 40
210.0
 41
1.4142857143
 42
50.0
 43
0.0
 44
0.0
 50
0.0
 51
0.0
 71
     0
 72
  2000
 73
     1
 74
     3
 75
     0
 76
     0
 77
     0
 78
     0
281
     0
 65
     1
110
0.0
120
0.0
130
0.0
111
1.0
121
0.0
131
0.0
112
0.0
122
1.0
132
0.0
 79
     0
146
0.0
  0
ENDTAB
  0
TABLE
  2
LTYPE
  5
5
330
0
100
AcDbSymbolTable
 70
     6
  0
LTYPE
  5
14
330
5
100
AcDbSymbolTableRecord
100
AcDbLinetypeTableRecord
  2
ByBlock
 70
     0
  3

 72
    65
 73
     0
 40
0.0
  0
LTYPE
  5
15
330
5
100
AcDbSymbolTableRecord
100
AcDbLinetypeTableRecord
  2
ByLayer
 70
     0
  3

 72
    65
 73
     0
 40
0.0
  0
LTYPE
  5
16
330
5
100
AcDbSymbolTableRecord
100
AcDbLinetypeTableRecord
  2
Continuous
 70
     0
  3
Solid line
 72
    65
 73
     0
 40
0.0
  0
LTYPE
  5
6E
330
5
100
AcDbSymbolTableRecord
100
AcDbLinetypeTableRecord
  2
HIDDEN
 70
     0
  3
Hidden __ __ __ __ __ __ __ __ __ __ __ __ __ __
 72
    65
 73
     2
 40
1.905
 49
1.27
 74
     0
 49
-0.635
 74
     0
  0
LTYPE
  5
6F
330
5
100
AcDbSymbolTableRecord
100
AcDbLinetypeTableRecord
  2
PHANTOM
 70
     0
  3
Phantom ______  __  __  ______  __  __  ______
 72
    65
 73
     6
 40
12.7
 49
6.35
 74
     0
 49
-1.27
 74
     0
 49
1.27
 74
     0
 49
-1.27
 74
     0
 49
1.27
 74
     0
 49
-1.27
 74
     0
  0
LTYPE
  5
70
330
5
100
AcDbSymbolTableRecord
100
AcDbLinetypeTableRecord
  2
CENTER
 70
     0
  3
Center ____ _ ____ _ ____ _ ____ _ ____ _ ____
 72
    65
 73
     4
 40
10.16
 49
6.35
 74
     0
 49
-1.27
 74
     0
 49
1.27
 74
     0
 49
-1.27
 74
     0
  0
LTYPE
  5
71
330
5
100
AcDbSymbolTableRecord
100
AcDbLinetypeTableRecord
  2
CENTERX2
 70
     0
  3
Center (2x) ________  __  ________  __  _____
 72
    65
 73
     4
 40
20.32
 49
12.7
 74
     0
 49
-2.54
 74
     0
 49
2.54
 74
     0
 49
-2.54
 74
     0
  0
LTYPE
  5
72
330
5
100
AcDbSymbolTableRecord
100
AcDbLinetypeTableRecord
  2
DOT2
 70
     0
  3
Dot (.5x) ........................................
 72
    65
 73
     2
 40
0.635
 49
0.0
 74
     0
 49
-0.635
 74
     0
  0
ENDTAB
  0
TABLE
  2
LAYER
  5
2
330
0
100
AcDbSymbolTable
 70
     5
  0
LAYER
  5
10
330
2
100
AcDbSymbolTableRecord
100
AcDbLayerTableRecord
  2
0
 70
     0
 62
     7
  6
Continuous
370
    -3
390
F
  0
LAYER
  5
73
330
2
100
AcDbSymbolTableRecord
100
AcDbLayerTableRecord
  2
FORMAT
 70
     0
 62
     7
  6
Continuous
370
    -3
390
F
  0
LAYER
  5
74
330
2
100
AcDbSymbolTableRecord
100
AcDbLayerTableRecord
  2
VERMASSUNG
 70
     0
 62
     7
  6
Continuous
370
    -3
390
F
  0
LAYER
  5
75
330
2
100
AcDbSymbolTableRecord
100
AcDbLayerTableRecord
  2
KOPF_DÜNN
 70
     0
 62
     7
  6
Continuous
370
    -3
390
F
  0
LAYER
  5
76
330
2
100
AcDbSymbolTableRecord
100
AcDbLayerTableRecord
  2
KOPF_DICK
 70
     0
 62
     7
  6
Continuous
370
    25
390
F
  0
ENDTAB
  0
TABLE
  2
STYLE
  5
3
330
0
100
AcDbSymbolTable
 70
     2
  0
STYLE
  5
11
330
3
100
AcDbSymbolTableRecord
100
AcDbTextStyleTableRecord
  2
Standard
 70
     0
 40
0.0
 41
1.0
 50
0.0
 71
     0
 42
2.0
  3
txt
  4

  0
STYLE
  5
77
330
3
100
AcDbSymbolTableRecord
100
AcDbTextStyleTableRecord
  2
SLDTEXTSTYLE0
 70
     0
 40
0.0
 41
0.7
 50
0.0
 71
     0
 42
2.0
  3
TXT
  4

  0
ENDTAB
  0
TABLE
  2
VIEW
  5
6
330
0
100
AcDbSymbolTable
 70
     0
  0
ENDTAB
  0
TABLE
  2
UCS
  5
7
330
0
100
AcDbSymbolTable
 70
     0
  0
ENDTAB
  0
TABLE
  2
APPID
  5
9
330
0
100
AcDbSymbolTable
 70
     1
  0
APPID
  5
12
330
9
100
AcDbSymbolTableRecord
100
AcDbRegAppTableRecord
  2
ACAD
 70
     0
  0
ENDTAB
  0
TABLE
  2
DIMSTYLE
  5
A
330
0
100
AcDbSymbolTable
 70
     3
100
AcDbDimStyleTable
  0
DIMSTYLE
105
27
330
A
100
AcDbSymbolTableRecord
100
AcDbDimStyleTableRecord
  2
ISO-25
 70
     0
 41
2.5
 42
0.625
 43
3.75
 44
1.25
 73
     0
 74
     0
 77
     1
 78
     8
140
2.5
141
2.5
143
0.0393700787
147
0.625
171
     3
172
     1
178
     0
271
     2
272
     2
274
     3
278
    44
283
     0
284
     8
340
11
  0
DIMSTYLE
105
237
102
{ACAD_REACTORS
330
236
102
}
330
A
100
AcDbSymbolTableRecord
100
AcDbDimStyleTableRecord
  2
SLDDIMSTYLE0
 70
     0
 41
3.0
 44
0.0
 45
0.000000001
 73
     0
 74
     0
 76
     1
 77
     1
 78
    12
 79
     3
140
2.0
147
0.5
173
     1
178
     0
271
     2
272
     3
276
     2
282
     1
284
    12
340
77
  0
DIMSTYLE
105
241
102
{ACAD_REACTORS
330
240
330
24C
330
257
330
261
330
26B
102
}
330
A
100
AcDbSymbolTableRecord
100
AcDbDimStyleTableRecord
  2
SLDDIMSTYLE1
 70
     0
 41
3.0
 44
0.0
 45
0.000000001
 73
     0
 74
     0
 77
     1
 78
    12
 79
     3
140
2.0
147
0.5
173
     1
178
     0
271
     2
272
     3
276
     2
284
    12
340
77
  0
ENDTAB
  0
TABLE
  2
BLOCK_RECORD
  5
1
330
0
100
AcDbSymbolTable
 70
     7
  0
BLOCK_RECORD
  5
1F
330
1
100
AcDbSymbolTableRecord
100
AcDbBlockTableRecord
  2
*Model_Space
340
22
  0
BLOCK_RECORD
  5
1B
330
1
100
AcDbSymbolTableRecord
100
AcDbBlockTableRecord
  2
*Paper_Space
340
1E
  0
BLOCK_RECORD
  5
23
330
1
100
AcDbSymbolTableRecord
100
AcDbBlockTableRecord
  2
*Paper_Space0
340
26
  0
BLOCK_RECORD
  5
238
330
1
100
AcDbSymbolTableRecord
100
AcDbBlockTableRecord
  2
_D
340
0
  0
BLOCK_RECORD
  5
242
330
1
100
AcDbSymbolTableRecord
100
AcDbBlockTableRecord
  2
_D_1
340
0
  0
BLOCK_RECORD
  5
24D
330
1
100
AcDbSymbolTableRecord
100
AcDbBlockTableRecord
  2
_D_2
340
0
  0
BLOCK_RECORD
  5
258
330
1
100
AcDbSymbolTableRecord
100
AcDbBlockTableRecord
  2
_D_3
340
0
  0
BLOCK_RECORD
  5
262
330
1
100
AcDbSymbolTableRecord
100
AcDbBlockTableRecord
  2
_D_4
340
0
  0
BLOCK_RECORD
  5
26C
330
1
100
AcDbSymbolTableRecord
100
AcDbBlockTableRecord
  2
_D_5
340
0
  0
ENDTAB
  0
ENDSEC
  0
SECTION
  2
BLOCKS
  0
BLOCK
  5
20
330
1F
100
AcDbEntity
  8
0
100
AcDbBlockBegin
  2
*Model_Space
 70
     0
 10
0.0
 20
0.0
 30
0.0
  3
*Model_Space
  1

  0
ENDBLK
  5
21
330
1F
100
AcDbEntity
  8
0
100
AcDbBlockEnd
  0
BLOCK
  5
1C
330
1B
100
AcDbEntity
 67
     1
  8
0
100
AcDbBlockBegin
  2
*Paper_Space
 70
     0
 10
0.0
 20
0.0
 30
0.0
  3
*Paper_Space
  1

  0
ENDBLK
  5
1D
330
1B
100
AcDbEntity
 67
     1
  8
0
100
AcDbBlockEnd
  0
BLOCK
  5
24
330
23
100
AcDbEntity
  8
0
100
AcDbBlockBegin
  2
*Paper_Space0
 70
     0
 10
0.0
 20
0.0
 30
0.0
  3
*Paper_Space0
  1

  0
ENDBLK
  5
25
330
23
100
AcDbEntity
  8
0
100
AcDbBlockEnd
  0
BLOCK
  5
239
330
238
100
AcDbEntity
  8
0
100
AcDbBlockBegin
  2
_D
 70
     0
 10
0.0
 20
0.0
 30
0.0
  3
_D
  1

  0
SOLID
  5
23B
330
238
100
AcDbEntity
  8
VERMASSUNG
100
AcDbTrace
 10
237.253631368
 20
123.8225765587
 30
0.0
 11
236.803631368
 21
120.8225765587
 31
0.0
 12
237.703631368
 22
120.8225765587
 32
0.0
 13
237.703631368
 23
120.8225765587
 33
0.0
  0
LINE
  5
23C
330
238
100
AcDbEntity
  8
VERMASSUNG
100
AcDbLine
 10
213.0004064055
 20
123.8225765587
 30
0.0
 11
238.253631368
 21
123.8225765587
 31
0.0
  0
LINE
  5
23D
330
238
100
AcDbEntity
  8
VERMASSUNG
100
AcDbLine
 10
237.253631368
 20
123.8225765587
 30
0.0
 11
237.253631368
 21
104.6175766014
 31
0.0
  0
MTEXT
  5
23E
330
238
100
AcDbEntity
  8
VERMASSUNG
100
AcDbMText
 10
234.675496063
 20
104.6175766014
 30
0.0
 40
2.0
 41
0.0
 71
     1
 72
     1
  1
%%c
  7
SLDTEXTSTYLE0
 11
-7.044195017643634E-15
 21
1.0
 31
0.0
 73
     1
 44
1.0
  0
MTEXT
  5
23F
330
238
100
AcDbEntity
  8
VERMASSUNG
100
AcDbMText
 10
234.4754961117
 20
108.2275766157
 30
0.0
 40
2.0
 41
0.0
 71
     1
 72
     1
  1
32
  7
SLDTEXTSTYLE0
 11
-7.044195017643634E-15
 21
1.0
 31
0.0
 73
     1
 44
1.0
  0
ENDBLK
  5
23A
330
238
100
AcDbEntity
  8
0
100
AcDbBlockEnd
  0
BLOCK
  5
243
330
242
100
AcDbEntity
  8
0
100
AcDbBlockBegin
  2
_D_1
 70
     0
 10
0.0
 20
0.0
 30
0.0
  3
_D_1
  1

  0
SOLID
  5
245
330
242
100
AcDbEntity
  8
VERMASSUNG
100
AcDbTrace
 10
250.8263066787
 20
71.8225765587
 30
0.0
 11
251.2763066787
 21
74.8225765587
 31
0.0
 12
250.3763066787
 22
74.8225765587
 32
0.0
 13
250.3763066787
 23
74.8225765587
 33
0.0
  0
SOLID
  5
246
330
242
100
AcDbEntity
  8
VERMASSUNG
100
AcDbTrace
 10
250.8263066787
 20
143.8225765587
 30
0.0
 11
250.3763066787
 21
140.8225765587
 31
0.0
 12
251.2763066787
 22
140.8225765587
 32
0.0
 13
251.2763066787
 23
140.8225765587
 33
0.0
  0
LINE
  5
247
330
242
100
AcDbEntity
  8
VERMASSUNG
100
AcDbLine
 10
202.6719792808
 20
71.8225765587
 30
0.0
 11
251.8263066787
 21
71.8225765587
 31
0.0
  0
LINE
  5
248
330
242
100
AcDbEntity
  8
VERMASSUNG
100
AcDbLine
 10
152.0004064571
 20
143.8225765587
 30
0.0
 11
251.8263066787
 21
143.8225765587
 31
0.0
  0
LINE
  5
249
330
242
100
AcDbEntity
  8
VERMASSUNG
100
AcDbLine
 10
250.8263066787
 20
71.8225765587
 30
0.0
 11
250.8263066787
 21
143.8225765587
 31
0.0
  0
MTEXT
  5
24A
330
242
100
AcDbEntity
  8
VERMASSUNG
100
AcDbMText
 10
248.2481713738
 20
104.6175766014
 30
0.0
 40
2.0
 41
0.0
 71
     1
 72
     1
  1
%%c
  7
SLDTEXTSTYLE0
 11
2.832769448823990E-16
 21
1.0
 31
0.0
 73
     1
 44
1.0
  0
MTEXT
  5
24B
330
242
100
AcDbEntity
  8
VERMASSUNG
100
AcDbMText
 10
248.0481714225
 20
108.2275766157
 30
0.0
 40
2.0
 41
0.0
 71
     1
 72
     1
  1
72
  7
SLDTEXTSTYLE0
 11
2.832769448823990E-16
 21
1.0
 31
0.0
 73
     1
 44
1.0
  0
ENDBLK
  5
244
330
242
100
AcDbEntity
  8
0
100
AcDbBlockEnd
  0
BLOCK
  5
24E
330
24D
100
AcDbEntity
  8
0
100
AcDbBlockBegin
  2
_D_2
 70
     0
 10
0.0
 20
0.0
 30
0.0
  3
_D_2
  1

  0
SOLID
  5
250
330
24D
100
AcDbEntity
  8
VERMASSUNG
100
AcDbTrace
 10
63.5600702969
 20
139.3225765587
 30
0.0
 11
63.1100702969
 21
136.3225765587
 31
0.0
 12
64.0100702969
 22
136.3225765587
 32
0.0
 13
64.0100702969
 23
136.3225765587
 33
0.0
  0
SOLID
  5
251
330
24D
100
AcDbEntity
  8
VERMASSUNG
100
AcDbTrace
 10
63.5600702969
 20
76.3225765587
 30
0.0
 11
64.0100702969
 21
79.3225765587
 31
0.0
 12
63.1100702969
 22
79.3225765587
 32
0.0
 13
63.1100702969
 23
79.3225765587
 33
0.0
  0
LINE
  5
252
330
24D
100
AcDbEntity
  8
VERMASSUNG
100
AcDbLine
 10
145.5004064055
 20
139.3225765587
 30
0.0
 11
62.5600702969
 21
139.3225765587
 31
0.0
  0
LINE
  5
253
330
24D
100
AcDbEntity
  8
VERMASSUNG
100
AcDbLine
 10
145.5004064055
 20
76.3225765587
 30
0.0
 11
62.5600702969
 21
76.3225765587
 31
0.0
  0
LINE
  5
254
330
24D
100
AcDbEntity
  8
VERMASSUNG
100
AcDbLine
 10
63.5600702969
 20
139.3225765587
 30
0.0
 11
63.5600702969
 21
76.3225765587
 31
0.0
  0
MTEXT
  5
255
330
24D
100
AcDbEntity
  8
VERMASSUNG
100
AcDbMText
 10
60.981934992
 20
104.6175766014
 30
0.0
 40
2.0
 41
0.0
 71
     1
 72
     1
  1
%%c
  7
SLDTEXTSTYLE0
 11
-7.044195017643634E-15
 21
1.0
 31
0.0
 73
     1
 44
1.0
  0
MTEXT
  5
256
330
24D
100
AcDbEntity
  8
VERMASSUNG
100
AcDbMText
 10
60.7819350407
 20
108.2275766157
 30
0.0
 40
2.0
 41
0.0
 71
     1
 72
     1
  1
63
  7
SLDTEXTSTYLE0
 11
-7.044195017643634E-15
 21
1.0
 31
0.0
 73
     1
 44
1.0
  0
ENDBLK
  5
24F
330
24D
100
AcDbEntity
  8
0
100
AcDbBlockEnd
  0
BLOCK
  5
259
330
258
100
AcDbEntity
  8
0
100
AcDbBlockBegin
  2
_D_3
 70
     0
 10
0.0
 20
0.0
 30
0.0
  3
_D_3
  1

  0
SOLID
  5
25B
330
258
100
AcDbEntity
  8
VERMASSUNG
100
AcDbTrace
 10
123.5004064055
 20
163.5829872525
 30
0.0
 11
126.5004064055
 21
163.1329872525
 31
0.0
 12
126.5004064055
 22
164.0329872525
 32
0.0
 13
126.5004064055
 23
164.0329872525
 33
0.0
  0
SOLID
  5
25C
330
258
100
AcDbEntity
  8
VERMASSUNG
100
AcDbTrace
 10
213.5004064055
 20
163.5829872525
 30
0.0
 11
210.5004064055
 21
164.0329872525
 31
0.0
 12
210.5004064055
 22
163.1329872525
 32
0.0
 13
210.5004064055
 23
163.1329872525
 33
0.0
  0
LINE
  5
25D
330
258
100
AcDbEntity
  8
VERMASSUNG
100
AcDbLine
 10
123.5004064055
 20
139.0975765587
 30
0.0
 11
123.5004064055
 21
164.5829872525
 31
0.0
  0
LINE
  5
25E
330
258
100
AcDbEntity
  8
VERMASSUNG
100
AcDbLine
 10
213.5004064055
 20
132.9941494339
 30
0.0
 11
213.5004064055
 21
164.5829872525
 31
0.0
  0
LINE
  5
25F
330
258
100
AcDbEntity
  8
VERMASSUNG
100
AcDbLine
 10
123.5004064055
 20
163.5829872525
 30
0.0
 11
213.5004064055
 21
163.5829872525
 31
0.0
  0
MTEXT
  5
260
330
258
100
AcDbEntity
  8
VERMASSUNG
100
AcDbMText
 10
167.1004064555
 20
166.1611228485
 30
0.0
 40
2.0
 41
0.0
 71
     1
 72
     1
  1
90
  7
SLDTEXTSTYLE0
 73
     1
 44
1.0
  0
ENDBLK
  5
25A
330
258
100
AcDbEntity
  8
0
100
AcDbBlockEnd
  0
BLOCK
  5
263
330
262
100
AcDbEntity
  8
0
100
AcDbBlockBegin
  2
_D_4
 70
     0
 10
0.0
 20
0.0
 30
0.0
  3
_D_4
  1

  0
SOLID
  5
265
330
262
100
AcDbEntity
  8
VERMASSUNG
100
AcDbTrace
 10
145.5004064055
 20
155.2608073065
 30
0.0
 11
148.5004064055
 21
154.8108073065
 31
0.0
 12
148.5004064055
 22
155.7108073065
 32
0.0
 13
148.5004064055
 23
155.7108073065
 33
0.0
  0
SOLID
  5
266
330
262
100
AcDbEntity
  8
VERMASSUNG
100
AcDbTrace
 10
213.5004064055
 20
155.2608073065
 30
0.0
 11
210.5004064055
 21
155.7108073065
 31
0.0
 12
210.5004064055
 22
154.8108073065
 32
0.0
 13
210.5004064055
 23
154.8108073065
 33
0.0
  0
LINE
  5
267
330
262
100
AcDbEntity
  8
VERMASSUNG
100
AcDbLine
 10
145.5004064055
 20
139.3225765587
 30
0.0
 11
145.5004064055
 21
156.2608073065
 31
0.0
  0
LINE
  5
268
330
262
100
AcDbEntity
  8
VERMASSUNG
100
AcDbLine
 10
213.5004064055
 20
132.9941494339
 30
0.0
 11
213.5004064055
 21
156.2608073065
 31
0.0
  0
LINE
  5
269
330
262
100
AcDbEntity
  8
VERMASSUNG
100
AcDbLine
 10
145.5004064055
 20
155.2608073065
 30
0.0
 11
213.5004064055
 21
155.2608073065
 31
0.0
  0
MTEXT
  5
26A
330
262
100
AcDbEntity
  8
VERMASSUNG
100
AcDbMText
 10
178.1004064555
 20
157.8389429025
 30
0.0
 40
2.0
 41
0.0
 71
     1
 72
     1
  1
68
  7
SLDTEXTSTYLE0
 73
     1
 44
1.0
  0
ENDBLK
  5
264
330
262
100
AcDbEntity
  8
0
100
AcDbBlockEnd
  0
BLOCK
  5
26D
330
26C
100
AcDbEntity
  8
0
100
AcDbBlockBegin
  2
_D_5
 70
     0
 10
0.0
 20
0.0
 30
0.0
  3
_D_5
  1

  0
SOLID
  5
26F
330
26C
100
AcDbEntity
  8
VERMASSUNG
100
AcDbTrace
 10
213.5004064055
 20
171.9500443574
 30
0.0
 11
210.5004064055
 21
172.4000443574
 31
0.0
 12
210.5004064055
 22
171.5000443574
 32
0.0
 13
210.5004064055
 23
171.5000443574
 33
0.0
  0
SOLID
  5
270
330
26C
100
AcDbEntity
  8
VERMASSUNG
100
AcDbTrace
 10
83.5504064055
 20
171.9500443574
 30
0.0
 11
86.5504064055
 21
171.5000443574
 31
0.0
 12
86.5504064055
 22
172.4000443574
 32
0.0
 13
86.5504064055
 23
172.4000443574
 33
0.0
  0
LINE
  5
271
330
26C
100
AcDbEntity
  8
VERMASSUNG
100
AcDbLine
 10
213.5004064055
 20
132.9941494339
 30
0.0
 11
213.5004064055
 21
172.9500443574
 31
0.0
  0
LINE
  5
272
330
26C
100
AcDbEntity
  8
VERMASSUNG
100
AcDbLine
 10
83.5504064055
 20
130.0256712825
 30
0.0
 11
83.5504064055
 21
172.9500443574
 31
0.0
  0
LINE
  5
273
330
26C
100
AcDbEntity
  8
VERMASSUNG
100
AcDbLine
 10
213.5004064055
 20
171.9500443574
 30
0.0
 11
83.5504064055
 21
171.9500443574
 31
0.0
  0
MTEXT
  5
274
330
26C
100
AcDbEntity
  8
VERMASSUNG
100
AcDbMText
 10
144.9254064674
 20
174.5281799534
 30
0.0
 40
2.0
 41
0.0
 71
     1
 72
     1
  1
129.95
  7
SLDTEXTSTYLE0
 73
     1
 44
1.0
  0
ENDBLK
  5
26E
330
26C
100
AcDbEntity
  8
0
100
AcDbBlockEnd
  0
ENDSEC
  0
SECTION
  2
ENTITIES
  0
MTEXT
  5
78
330
1F
100
AcDbEntity
  8
KOPF_DÜNN
100
AcDbMText
 10
13.8892156294
 20
23.8442973028
 30
0.0
 40
3.0
 41
0.0
 71
     1
 72
     1
  1
KY6.W32.K01.090
  7
SLDTEXTSTYLE0
 73
     1
 44
1.0
  0
MTEXT
  5
79
330
1F
100
AcDbEntity
  8
VERMASSUNG
100
AcDbMText
 10
13.9329988022
 20
28.8834360957
 30
0.0
 40
3.0
 41
0.0
 71
     1
 72
     1
  1
Flächenspannfutter Weldon_End mill adapter Weldon
  7
SLDTEXTSTYLE0
 73
     1
 44
1.0
  0
MTEXT
  5
7A
330
1F
100
AcDbEntity
  8
VERMASSUNG
100
AcDbMText
 10
98.8601118557
 20
13.8365368761
 30
0.0
 40
2.0
 41
0.0
 71
     1
 72
     1
  1
Datum: 16.02.2018
  7
SLDTEXTSTYLE0
 73
     1
 44
1.0
  0
MTEXT
  5
7B
330
1F
100
AcDbEntity
  8
VERMASSUNG
100
AcDbMText
 10
13.933048693
 20
18.0482802738
 30
0.0
 40
2.0
 41
0.0
 71
     1
 72
     1
  1
KM63 XMZ / Ø32
  7
SLDTEXTSTYLE0
 73
     1
 44
1.0
  0
MTEXT
  5
7C
330
1F
100
AcDbEntity
  8
VERMASSUNG
100
AcDbMText
 10
13.9808475933
 20
13.9090974274
 30
0.0
 40
2.0
 41
0.0
 71
     1
 72
     1
  1
Gewicht: 2354g
  7
SLDTEXTSTYLE0
 73
     1
 44
1.0
  0
LINE
  5
7D
330
1F
100
AcDbEntity
  8
0
  6
Continuous
 62
     7
370
    25
100
AcDbLine
 10
360.5447698577
 20
125.4181777119
 30
0.0
 11
360.0447697758
 21
125.9181768626
 31
0.0
  0
LINE
  5
7E
330
1F
100
AcDbEntity
  8
0
  6
Continuous
 62
     7
370
    25
100
AcDbLine
 10
352.4497699185
 20
125.9181768626
 30
0.0
 11
351.9497698366
 21
125.4181777119
 31
0.0
  0
LINE
  5
7F
330
1F
100
AcDbEntity
  8
0
  6
Continuous
 62
     7
370
    25
100
AcDbLine
 10
351.9497698366
 20
125.4181777119
 30
0.0
 11
351.9497698366
 21
125.3339023321
 31
0.0
  0
LINE
  5
80
330
1F
100
AcDbEntity
  8
0
  6
Continuous
 62
     7
370
    25
100
AcDbLine
 10
360.5447698577
 20
125.3339023321
 30
0.0
 11
360.5447698577
 21
125.4181777119
 31
0.0
  0
LINE
  5
81
330
1F
100
AcDbEntity
  8
0
  6
Continuous
 62
     7
370
    25
100
AcDbLine
 10
352.4497699185
 20
125.9181768626
 30
0.0
 11
360.0447697758
 21
125.9181768626
 31
0.0
  0
LINE
  5
82
330
1F
100
AcDbEntity
  8
0
  6
Continuous
 62
     7
370
    25
100
AcDbLine
 10
351.9497698366
 20
125.4181777119
 30
0.0
 11
352.3083294935
 21
125.4181777119
 31
0.0
  0
LINE
  5
83
330
1F
100
AcDbEntity
  8
0
  6
Continuous
 62
     7
370
    25
100
AcDbLine
 10
360.1862102008
 20
125.4181777119
 30
0.0
 11
360.5447698577
 21
125.4181777119
 31
0.0
  0
SPLINE
  5
84
330
1F
100
AcDbEntity
  8
0
  6
Continuous
 62
     7
370
    25
100
AcDbSpline
210
0.0
220
0.0
230
1.0
 70
     8
 71
     3
 72
     8
 73
     4
 74
     0
 42
0.000000001
 43
0.00000001
 40
0.0
 40
0.0
 40
0.0
 40
0.0
 40
1.0
 40
1.0
 40
1.0
 40
1.0
 10
345.8581297375186
 20
103.4844426363771
 30
0.0
 10
345.7892913673318
 20
103.4213479630582
 30
0.0
 10
345.7208600068757
 20
103.3576255849273
 30
0.0
 10
345.652843732211
 20
103.293280152654
 30
0.0
  0
SPLINE
  5
85
330
1F
100
AcDbEntity
  8
0
  6
Continuous
 62
     7
370
    25
100
AcDbSpline
210
0.0
220
0.0
230
1.0
 70
     8
 71
     3
 72
     8
 73
     4
 74
     0
 42
0.000000001
 43
0.00000001
 40
0.0
 40
0.0
 40
0.0
 40
0.0
 40
1.0
 40
1.0
 40
1.0
 40
1.0
 10
346.1161569787793
 20
103.3151808064497
 30
0.0
 10
346.0294535446189
 20
103.371341726119
 30
0.0
 10
345.943455497135
 20
103.4277664624449
 30
0.0
 10
345.8581297375186
 20
103.4844426363771
 30
0.0
  0
ARC
  5
86
330
1F
100
AcDbEntity
  8
0
  6
Continuous
 62
     7
370
    25
100
AcDbCircle
 10
356.2472698472
 20
107.8544435083
 30
0.0
 40
11.10154736189896
100
AcDbArc
 50
204.1348482805
 51
335.8651517195
  0
SPLINE
  5
87
330
1F
100
AcDbEntity
  8
0
  6
Continuous
 62
     7
370
    25
100
AcDbSpline
210
0.0
220
0.0
230
1.0
 70
     8
 71
     3
 72
     8
 73
     4
 74
     0
 42
0.000000001
 43
0.00000001
 40
0.0
 40
0.0
 40
0.0
 40
0.0
 40
1.0
 40
1.0
 40
1.0
 40
1.0
 10
366.6364099567843
 20
103.4844426363771
 30
0.0
 10
366.5510841971679
 20
103.4277664624449
 30
0.0
 10
366.4650861496841
 20
103.371341726119
 30
0.0
 10
366.3783827155236
 20
103.3151808064497
 30
0.0
  0
SPLINE
  5
88
330
1F
100
AcDbEntity
  8
0
  6
Continuous
 62
     7
370
    25
100
AcDbSpline
210
0.0
220
0.0
230
1.0
 70
     8
 71
     3
 72
     8
 73
     4
 74
     0
 42
0.000000001
 43
0.00000001
 40
0.0
 40
0.0
 40
0.0
 40
0.0
 40
1.0
 40
1.0
 40
1.0
 40
1.0
 10
366.8416959620919
 20
103.293280152654
 30
0.0
 10
366.7736796874273
 20
103.3576255849273
 30
0.0
 10
366.7052483269711
 20
103.4213479630582
 30
0.0
 10
366.6364099567843
 20
103.4844426363771
 30
0.0
  0
ARC
  5
89
330
1F
100
AcDbEntity
  8
0
  6
Continuous
 62
     7
370
    25
100
AcDbCircle
 10
356.2472698472
 20
107.8544435083
 30
0.0
 40
11.53456006379121
100
AcDbArc
 50
203.2930774359
 51
336.7074733161
  0
LINE
  5
8A
330
1F
100
AcDbEntity
  8
0
  6
Continuous
 62
     7
370
    25
100
AcDbLine
 10
346.2713363773
 20
113.1327426053
 30
0.0
 11
346.4797449491
 21
112.884443625
 31
0.0
  0
SPLINE
  5
8B
330
1F
100
AcDbEntity
  8
0
  6
Continuous
 62
     7
370
    25
100
AcDbSpline
210
0.0
220
0.0
230
1.0
 70
     8
 71
     3
 72
     8
 73
     4
 74
     0
 42
0.000000001
 43
0.00000001
 40
0.0
 40
0.0
 40
0.0
 40
0.0
 40
1.0
 40
1.0
 40
1.0
 40
1.0
 10
346.2713367978271
 20
113.1327427577312
 30
0.0
 10
346.374232711651
 20
113.1947113668221
 30
0.0
 10
346.4780723812059
 20
113.2562900189627
 30
0.0
 10
346.5829102694324
 20
113.3174562102342
 30
0.0
  0
LINE
  5
8C
330
1F
100
AcDbEntity
  8
0
  6
Continuous
 62
     7
370
    25
100
AcDbLine
 10
347.7299588925
 20
113.3174560025
 30
0.0
 11
346.5829103447
 21
113.3174560025
 31
0.0
  0
SPLINE
  5
8D
330
1F
100
AcDbEntity
  8
0
  6
Continuous
 62
     7
370
    25
100
AcDbSpline
210
0.0
220
0.0
230
1.0
 70
     8
 71
     3
 72
     8
 73
     4
 74
     0
 42
0.000000001
 43
0.00000001
 40
0.0000004089325119
 40
0.0000004089325119
 40
0.0000004089325119
 40
0.0000004089325119
 40
0.0015399868451459
 40
0.0015399868451459
 40
0.0015399868451459
 40
0.0015399868451459
 10
347.7299584297226
 20
113.3174562102342
 30
0.0
 10
347.9417196885171
 20
113.2450013275807
 30
0.0
 10
348.1536400117072
 20
113.1726624575522
 30
0.0
 10
348.3657579949215
 20
113.1004689121264
 30
0.0
  0
LINE
  5
8E
330
1F
100
AcDbEntity
  8
0
  6
Continuous
 62
     7
370
    25
100
AcDbLine
 10
348.365757913
 20
113.1004690185
 30
0.0
 11
348.3739107109
 21
113.0852563299
 31
0.0
  0
LINE
  5
8F
330
1F
100
AcDbEntity
  8
0
  6
Continuous
 62
     7
370
    25
100
AcDbLine
 10
348.3715404949
 20
112.884443625
 30
0.0
 11
348.3739116422
 21
113.0852567955
 31
0.0
  0
LINE
  5
90
330
1F
100
AcDbEntity
  8
0
  6
Continuous
 62
     7
370
    25
100
AcDbLine
 10
348.3715404949
 20
112.884443625
 30
0.0
 11
346.4797449491
 21
112.884443625
 31
0.0
  0
SPLINE
  5
91
330
1F
100
AcDbEntity
  8
0
  6
Continuous
 62
     7
370
    25
100
AcDbSpline
210
0.0
220
0.0
230
1.0
 70
     8
 71
     3
 72
     8
 73
     4
 74
     0
 42
0.000000001
 43
0.00000001
 40
0.0000004028655191
 40
0.0000004028655191
 40
0.0000004028655191
 40
0.0000004028655191
 40
0.0015137684369673
 40
0.0015137684369673
 40
0.0015137684369673
 40
0.0015137684369673
 10
347.8236751900094
 20
103.5321681045575
 30
0.0
 10
347.6170037024581
 20
103.4598741628428
 30
0.0
 10
347.4103847339175
 20
103.387542676886
 30
0.0
 10
347.2038083591088
 20
103.3151808064497
 30
0.0
  0
LINE
  5
92
330
1F
100
AcDbEntity
  8
0
  6
Continuous
 62
     7
370
    25
100
AcDbLine
 10
347.203808204
 20
103.315181005
 30
0.0
 11
346.116156616
 21
103.315181005
 31
0.0
  0
LINE
  5
93
330
1F
100
AcDbEntity
  8
0
  6
Continuous
 62
     7
370
    25
100
AcDbLine
 10
346.081184522
 20
103.7481933824
 30
0.0
 11
345.8581299714
 21
103.4844428293
 31
0.0
  0
LINE
  5
94
330
1F
100
AcDbEntity
  8
0
  6
Continuous
 62
     7
370
    25
100
AcDbLine
 10
347.8487947217
 20
103.7481933824
 30
0.0
 11
346.0813996575
 21
103.7481933824
 31
0.0
  0
LINE
  5
95
330
1F
100
AcDbEntity
  8
0
  6
Continuous
 62
     7
370
    25
100
AcDbLine
 10
347.8594518459
 20
103.5906126715
 30
0.0
 11
347.8487947217
 21
103.7481933824
 31
0.0
  0
SPLINE
  5
96
330
1F
100
AcDbEntity
  8
0
  6
Continuous
 62
     7
370
    25
100
AcDbSpline
210
0.0
220
0.0
230
1.0
 70
     8
 71
     3
 72
     8
 73
     4
 74
     0
 42
0.000000001
 43
0.00000001
 40
0.0006523765358417
 40
0.0006523765358417
 40
0.0006523765358417
 40
0.0006523765358417
 40
0.0009043636494504
 40
0.0009043636494504
 40
0.0009043636494504
 40
0.0009043636494504
 10
347.8605520650421
 20
103.5924062020026
 30
0.0
 10
347.8482350705254
 20
103.5723306210216
 30
0.0
 10
347.8359428731221
 20
103.5522512325003
 30
0.0
 10
347.8236751900094
 20
103.5321681045575
 30
0.0
  0
ARC
  5
97
330
1F
100
AcDbEntity
  8
0
  6
Continuous
 62
     7
370
    25
100
AcDbCircle
 10
356.2472698472
 20
107.8544435083
 30
0.0
 40
11.10154736189899
100
AcDbArc
 50
29.4783538465
 51
150.5216461535
  0
SPLINE
  5
98
330
1F
100
AcDbEntity
  8
0
  6
Continuous
 62
     7
370
    25
100
AcDbSpline
210
0.0
220
0.0
230
1.0
 70
     8
 71
     3
 72
     8
 73
     4
 74
     0
 42
0.000000001
 43
0.00000001
 40
0.0
 40
0.0
 40
0.0
 40
0.0
 40
1.0
 40
1.0
 40
1.0
 40
1.0
 10
346.0828004167132
 20
113.3069325786008
 30
0.0
 10
346.1453687250828
 20
113.2484821094932
 30
0.0
 10
346.2082153184467
 20
113.1904180989601
 30
0.0
 10
346.2713367978295
 20
113.1327427577289
 30
0.0
  0
ARC
  5
99
330
1F
100
AcDbEntity
  8
0
  6
Continuous
 62
     7
370
    25
100
AcDbCircle
 10
356.2472698472
 20
107.8544435083
 30
0.0
 40
11.53456006379119
100
AcDbArc
 50
28.2102805322
 51
151.7902347364
  0
SPLINE
  5
9A
330
1F
100
AcDbEntity
  8
0
  6
Continuous
 62
     7
370
    25
100
AcDbSpline
210
0.0
220
0.0
230
1.0
 70
     8
 71
     3
 72
     8
 73
     4
 74
     0
 42
0.000000001
 43
0.00000001
 40
0.0
 40
0.0
 40
0.0
 40
0.0
 40
1.0
 40
1.0
 40
1.0
 40
1.0
 10
366.2232028964738
 20
113.1327427577292
 30
0.0
 10
366.2863243758566
 20
113.1904180989603
 30
0.0
 10
366.3491709692203
 20
113.2484821094933
 30
0.0
 10
366.4117392775898
 20
113.3069325786008
 30
0.0
  0
SPLINE
  5
9B
330
1F
100
AcDbEntity
  8
0
  6
Continuous
 62
     7
370
    25
100
AcDbSpline
210
0.0
220
0.0
230
1.0
 70
     8
 71
     3
 72
     8
 73
     4
 74
     0
 42
0.000000001
 43
0.00000001
 40
0.0
 40
0.0
 40
0.0
 40
0.0
 40
1.0
 40
1.0
 40
1.0
 40
1.0
 10
365.9116294248706
 20
113.3174562102342
 30
0.0
 10
366.0164673130967
 20
113.2562900189629
 30
0.0
 10
366.1203069826512
 20
113.1947113668225
 30
0.0
 10
366.2232028964748
 20
113.1327427577318
 30
0.0
  0
SPLINE
  5
9C
330
1F
100
AcDbEntity
  8
0
  6
Continuous
 62
     7
370
    25
100
AcDbSpline
210
0.0
220
0.0
230
1.0
 70
     8
 71
     3
 72
     8
 73
     4
 74
     0
 42
0.000000001
 43
0.00000001
 40
0.000000410413179
 40
0.000000410413179
 40
0.000000410413179
 40
0.000000410413179
 40
0.0015399883258131
 40
0.0015399883258131
 40
0.0015399883258131
 40
0.0015399883258131
 10
364.1287816993814
 20
113.1004689121264
 30
0.0
 10
364.3408996825957
 20
113.1726624575522
 30
0.0
 10
364.5528200057859
 20
113.2450013275807
 30
0.0
 10
364.7645812645803
 20
113.3174562102342
 30
0.0
  0
LINE
  5
9D
330
1F
100
AcDbEntity
  8
0
  6
Continuous
 62
     7
370
    25
100
AcDbLine
 10
365.9116293496
 20
113.3174560025
 30
0.0
 11
364.7645808018
 21
113.3174560025
 31
0.0
  0
LINE
  5
9E
330
1F
100
AcDbEntity
  8
0
  6
Continuous
 62
     7
370
    25
100
AcDbLine
 10
366.0147947452
 20
112.884443625
 30
0.0
 11
366.223203317
 21
113.1327426053
 31
0.0
  0
LINE
  5
9F
330
1F
100
AcDbEntity
  8
0
  6
Continuous
 62
     7
370
    25
100
AcDbLine
 10
366.0146047554
 20
112.884443625
 30
0.0
 11
364.1229991994
 21
112.884443625
 31
0.0
  0
LINE
  5
A0
330
1F
100
AcDbEntity
  8
0
  6
Continuous
 62
     7
370
    25
100
AcDbLine
 10
364.1206280521
 20
113.0852563299
 30
0.0
 11
364.1229991994
 21
112.884443625
 31
0.0
  0
LINE
  5
A1
330
1F
100
AcDbEntity
  8
0
  6
Continuous
 62
     7
370
    25
100
AcDbLine
 10
364.1206289834
 20
113.0852563299
 30
0.0
 11
364.1287817813
 21
113.1004690185
 31
0.0
  0
LINE
  5
A2
330
1F
100
AcDbEntity
  8
0
  6
Continuous
 62
     7
370
    25
100
AcDbLine
 10
366.6364097229
 20
103.4844428293
 30
0.0
 11
366.4133551723
 21
103.7481933824
 31
0.0
  0
LINE
  5
A3
330
1F
100
AcDbEntity
  8
0
  6
Continuous
 62
     7
370
    25
100
AcDbLine
 10
366.3783830783
 20
103.315181005
 30
0.0
 11
365.2907314903
 21
103.315181005
 31
0.0
  0
SPLINE
  5
A4
330
1F
100
AcDbEntity
  8
0
  6
Continuous
 62
     7
370
    25
100
AcDbSpline
210
0.0
220
0.0
230
1.0
 70
     8
 71
     3
 72
     8
 73
     4
 74
     0
 42
0.000000001
 43
0.00000001
 40
0.0000004024872366
 40
0.0000004024872366
 40
0.0000004024872366
 40
0.0000004024872366
 40
0.0015137680586847
 40
0.0015137680586847
 40
0.0015137680586847
 40
0.0015137680586847
 10
365.2907313351942
 20
103.3151808064497
 30
0.0
 10
365.0841549603855
 20
103.387542676886
 30
0.0
 10
364.8775359918448
 20
103.4598741628428
 30
0.0
 10
364.6708645042935
 20
103.5321681045575
 30
0.0
  0
SPLINE
  5
A5
330
1F
100
AcDbEntity
  8
0
  6
Continuous
 62
     7
370
    25
100
AcDbSpline
210
0.0
220
0.0
230
1.0
 70
     8
 71
     3
 72
     8
 73
     4
 74
     0
 42
0.000000001
 43
0.00000001
 40
0.0000002414707367
 40
0.0000002414707367
 40
0.0000002414707367
 40
0.0000002414707367
 40
0.0002447240690309
 40
0.0002447240690309
 40
0.0002447240690309
 40
0.0002447240690309
 10
364.6708645042935
 20
103.5321681045575
 30
0.0
 10
364.6589621689384
 20
103.5516531305041
 30
0.0
 10
364.6470367577268
 20
103.5711346363284
 30
0.0
 10
364.6350880124318
 20
103.5906125598403
 30
0.0
  0
LINE
  5
A6
330
1F
100
AcDbEntity
  8
0
  6
Continuous
 62
     7
370
    25
100
AcDbLine
 10
364.6457449726
 20
103.7481933824
 30
0.0
 11
364.6350878484
 21
103.5906126715
 31
0.0
  0
LINE
  5
A7
330
1F
100
AcDbEntity
  8
0
  6
Continuous
 62
     7
370
    25
100
AcDbLine
 10
366.4133551723
 20
103.7481933824
 30
0.0
 11
364.6406366683
 21
103.7481933824
 31
0.0
  0
ARC
  5
A8
330
1F
100
AcDbEntity
  8
0
  6
Continuous
 62
     7
370
    25
100
AcDbCircle
 10
356.2472698472
 20
107.8544435083
 30
0.0
 40
10.11875000000005
100
AcDbArc
 50
206.6538426687
 51
333.3461573313
  0
ARC
  5
A9
330
1F
100
AcDbEntity
  8
0
  6
Continuous
 62
     7
370
    25
100
AcDbCircle
 10
356.2472698472
 20
107.8544435083
 30
0.0
 40
10.11874999999998
100
AcDbArc
 50
32.6761561262
 51
147.3238438738
  0
ARC
  5
AA
330
1F
100
AcDbEntity
  8
0
  6
Continuous
 62
     7
370
    25
100
AcDbCircle
 10
356.2472698472
 20
107.8544435083
 30
0.0
 40
9.467788105676657
100
AcDbArc
 50
207.1630537883
 51
332.8369462117
  0
ARC
  5
AB
330
1F
100
AcDbEntity
  8
0
  6
Continuous
 62
     7
370
    25
100
AcDbCircle
 10
356.2472698472
 20
107.8544435083
 30
0.0
 40
9.467788105676684
100
AcDbArc
 50
33.6481949792
 51
146.3518050208
  0
SPLINE
  5
AC
330
1F
100
AcDbEntity
  8
0
  6
Continuous
 62
     7
370
    25
100
AcDbSpline
210
0.0
220
0.0
230
1.0
 70
     8
 71
     3
 72
     8
 73
     4
 74
     0
 42
0.000000001
 43
0.00000001
 40
0.0
 40
0.0
 40
0.0
 40
0.0
 40
1.0
 40
1.0
 40
1.0
 40
1.0
 10
345.652843732021
 20
103.2932801527653
 30
0.0
 10
345.5996009070794
 20
103.2938038790031
 30
0.0
 10
345.5463056214637
 20
103.2946019722655
 30
0.0
 10
345.4929601159742
 20
103.2956750201903
 30
0.0
  0
LINE
  5
AD
330
1F
100
AcDbEntity
  8
0
  6
Continuous
 62
     7
370
    25
100
AcDbLine
 10
345.9210473306
 20
103.7481933824
 30
0.0
 11
346.081184522
 21
103.7481933824
 31
0.0
  0
LINE
  5
AE
330
1F
100
AcDbEntity
  8
0
  6
Continuous
 62
     7
370
    25
100
AcDbLine
 10
366.4133551723
 20
103.7481933824
 30
0.0
 11
366.5734923637
 21
103.7481933824
 31
0.0
  0
SPLINE
  5
AF
330
1F
100
AcDbEntity
  8
0
  6
Continuous
 62
     7
370
    25
100
AcDbSpline
210
0.0
220
0.0
230
1.0
 70
     8
 71
     3
 72
     8
 73
     4
 74
     0
 42
0.000000001
 43
0.00000001
 40
0.0
 40
0.0
 40
0.0
 40
0.0
 40
1.0
 40
1.0
 40
1.0
 40
1.0
 10
367.0015795783288
 20
103.2956750201903
 30
0.0
 10
366.9482340728393
 20
103.2946019722655
 30
0.0
 10
366.8949387872236
 20
103.2938038790031
 30
0.0
 10
366.841695962282
 20
103.2932801527653
 30
0.0
  0
LINE
  5
B0
330
1F
100
AcDbEntity
  8
0
  6
Continuous
 62
     7
370
    25
100
AcDbLine
 10
346.4797449491
 20
112.884443625
 30
0.0
 11
346.3563279442
 21
112.884443625
 31
0.0
  0
SPLINE
  5
B1
330
1F
100
AcDbEntity
  8
0
  6
Continuous
 62
     7
370
    25
100
AcDbSpline
210
0.0
220
0.0
230
1.0
 70
     8
 71
     3
 72
     8
 73
     4
 74
     0
 42
0.000000001
 43
0.00000001
 40
0.0
 40
0.0
 40
0.0
 40
0.0
 40
1.0
 40
1.0
 40
1.0
 40
1.0
 10
345.9595789224717
 20
113.3048890252783
 30
0.0
 10
346.0006943495136
 20
113.3057579629183
 30
0.0
 10
346.0417686441246
 20
113.3064390005012
 30
0.0
 10
346.0828004166137
 20
113.3069325785626
 30
0.0
  0
SPLINE
  5
B2
330
1F
100
AcDbEntity
  8
0
  6
Continuous
 62
     7
370
    25
100
AcDbSpline
210
0.0
220
0.0
230
1.0
 70
     8
 71
     3
 72
     8
 73
     4
 74
     0
 42
0.000000001
 43
0.00000001
 40
0.0
 40
0.0
 40
0.0
 40
0.0
 40
1.0
 40
1.0
 40
1.0
 40
1.0
 10
366.4117392776892
 20
113.3069325785626
 30
0.0
 10
366.4527710501783
 20
113.3064390005012
 30
0.0
 10
366.4938453447894
 20
113.3057579629183
 30
0.0
 10
366.5349607718312
 20
113.3048890252783
 30
0.0
  0
LINE
  5
B3
330
1F
100
AcDbEntity
  8
0
  6
Continuous
 62
     7
370
    25
100
AcDbLine
 10
366.1382117501
 20
112.884443625
 30
0.0
 11
366.0147947452
 21
112.884443625
 31
0.0
  0
SPLINE
  5
B4
330
1F
100
AcDbEntity
  8
0
  6
Continuous
 62
     7
370
    25
100
AcDbSpline
210
0.0
220
0.0
230
1.0
 70
     8
 71
     3
 72
     9
 73
     5
 74
     0
 42
0.000000001
 43
0.00000001
 40
0.0
 40
0.0
 40
0.0
 40
0.0
 40
0.4897855392460848
 40
1.0
 40
1.0
 40
1.0
 40
1.0
 10
363.3528594118029
 20
113.0775603745797
 30
0.0
 10
363.4792140843512
 20
113.0788786863707
 30
0.0
 10
363.73719367424
 20
113.0815702966479
 30
0.0
 10
363.9910880382961
 20
113.084011195945
 30
0.0
 10
364.1206286143415
 20
113.0852565780636
 30
0.0
  0
ARC
  5
B5
330
1F
100
AcDbEntity
  8
0
  6
Continuous
 62
     7
370
    25
100
AcDbCircle
 10
356.2472698472
 20
107.8544435083
 30
0.0
 40
8.818750000000001
100
AcDbArc
 50
36.3185452201
 51
143.6814533294
  0
SPLINE
  5
B6
330
1F
100
AcDbEntity
  8
0
  6
Continuous
 62
     7
370
    25
100
AcDbSpline
210
0.0
220
0.0
230
1.0
 70
     8
 71
     3
 72
     9
 73
     5
 74
     0
 42
0.000000001
 43
0.00000001
 40
0.0
 40
0.0
 40
0.0
 40
0.0
 40
0.5102144635023922
 40
1.0
 40
1.0
 40
1.0
 40
1.0
 10
348.3739109788368
 20
113.0852567666679
 30
0.0
 10
348.5034515946367
 20
113.0840113831456
 30
0.0
 10
348.7573460352425
 20
113.0815704811104
 30
0.0
 10
349.0153257041702
 20
113.0788788677495
 30
0.0
 10
349.1416804147213
 20
113.0775605544555
 30
0.0
  0
SPLINE
  5
B7
330
1F
100
AcDbEntity
  8
0
  6
Continuous
 62
     7
370
    25
100
AcDbSpline
210
0.0
220
0.0
230
1.0
 70
     8
 71
     3
 72
     8
 73
     4
 74
     0
 42
0.000000001
 43
0.00000001
 40
0.0
 40
0.0
 40
0.0
 40
0.0
 40
1.0
 40
1.0
 40
1.0
 40
1.0
 10
349.1416801610468
 20
113.0775600851783
 30
0.0
 10
349.1339191031013
 20
113.0670018499792
 30
0.0
 10
349.1261815780055
 20
113.0564263164529
 30
0.0
 10
349.118467662636
 20
113.0458335896734
 30
0.0
  0
SPLINE
  5
B8
330
1F
100
AcDbEntity
  8
0
  6
Continuous
 62
     7
370
    25
100
AcDbSpline
210
0.0
220
0.0
230
1.0
 70
     8
 71
     3
 72
     8
 73
     4
 74
     0
 42
0.000000001
 43
0.00000001
 40
0.0
 40
0.0
 40
0.0
 40
0.0
 40
1.0
 40
1.0
 40
1.0
 40
1.0
 10
348.9469098298729
 20
112.8844438472102
 30
0.0
 10
349.0041702369074
 20
112.938352024198
 30
0.0
 10
349.0613566280171
 20
112.9921489492811
 30
0.0
 10
349.118467662636
 20
113.0458335896734
 30
0.0
  0
LINE
  5
B9
330
1F
100
AcDbEntity
  8
0
  6
Continuous
 62
     7
370
    25
100
AcDbLine
 10
348.9469106502
 20
112.884443625
 30
0.0
 11
348.3715404949
 21
112.884443625
 31
0.0
  0
SPLINE
  5
BA
330
1F
100
AcDbEntity
  8
0
  6
Continuous
 62
     7
370
    25
100
AcDbSpline
210
0.0
220
0.0
230
1.0
 70
     8
 71
     3
 72
     8
 73
     4
 74
     0
 42
0.000000001
 43
0.00000001
 40
0.0
 40
0.0
 40
0.0
 40
0.0
 40
1.0
 40
1.0
 40
1.0
 40
1.0
 10
363.376187463448
 20
113.0456750753746
 30
0.0
 10
363.3684353507475
 20
113.0563207520471
 30
0.0
 10
363.3606593920802
 20
113.0669490642414
 30
0.0
 10
363.3528596654768
 20
113.0775599053038
 30
0.0
  0
LINE
  5
BB
330
1F
100
AcDbEntity
  8
0
  6
Continuous
 62
     7
370
    25
100
AcDbLine
 10
364.1229991994
 20
112.884443625
 30
0.0
 11
363.5476006388
 21
112.884443625
 31
0.0
  0
SPLINE
  5
BC
330
1F
100
AcDbEntity
  8
0
  6
Continuous
 62
     7
370
    25
100
AcDbSpline
210
0.0
220
0.0
230
1.0
 70
     8
 71
     3
 72
     8
 73
     4
 74
     0
 42
0.000000001
 43
0.00000001
 40
0.0
 40
0.0
 40
0.0
 40
0.0
 40
1.0
 40
1.0
 40
1.0
 40
1.0
 10
363.376187463448
 20
113.0456750753746
 30
0.0
 10
363.4332505911342
 20
112.9920431249588
 30
0.0
 10
363.4903889708645
 20
112.9382990385938
 30
0.0
 10
363.5476012643383
 20
112.8844438473436
 30
0.0
  0
ARC
  5
BD
330
1F
100
AcDbEntity
  8
0
  6
Continuous
 62
     7
370
    25
100
AcDbCircle
 10
356.2472698472
 20
107.8544435083
 30
0.0
 40
8.818750000000003
100
AcDbArc
 50
209.2047569376
 51
330.7952430624
  0
SPLINE
  5
BE
330
1F
100
AcDbEntity
  8
0
  6
Continuous
 62
     7
370
    25
100
AcDbSpline
210
0.0
220
0.0
230
1.0
 70
    24
 71
     3
 72
     8
 73
     4
 74
     0
 42
0.000000001
 43
0.00000001
 40
0.0
 40
0.0
 40
0.0
 40
0.0
 40
0.0001360402361219
 40
0.0001360402361219
 40
0.0001360402361219
 40
0.0001360402361219
 10
363.988405249639
 20
103.594903083134
 30
0.0
 10
363.973966248082
 20
103.580464081577
 30
0.0
 10
363.9594957938386
 20
103.5659936273336
 30
0.0
 10
363.944994193398
 20
103.551492026893
 30
0.0
  0
SPLINE
  5
BF
330
1F
100
AcDbEntity
  8
0
  6
Continuous
 62
     7
370
    25
100
AcDbSpline
210
0.0
220
0.0
230
1.0
 70
     8
 71
     3
 72
     9
 73
     5
 74
     0
 42
0.000000001
 43
0.00000001
 40
0.0
 40
0.0
 40
0.0
 40
0.0
 40
0.5086468812828124
 40
1.0
 40
1.0
 40
1.0
 40
1.0
 10
364.635087972752
 20
103.5906124717057
 30
0.0
 10
364.5259215931058
 20
103.5913065902334
 30
0.0
 10
364.3113004410583
 20
103.5926712275747
 30
0.0
 10
364.0947889312764
 20
103.5941675167599
 30
0.0
 10
363.9884053257068
 20
103.5949027231175
 30
0.0
  0
SPLINE
  5
C0
330
1F
100
AcDbEntity
  8
0
  6
Continuous
 62
     7
370
    25
100
AcDbSpline
210
0.0
220
0.0
230
1.0
 70
     8
 71
     3
 72
     9
 73
     5
 74
     0
 42
0.000000001
 43
0.00000001
 40
0.0
 40
0.0
 40
0.0
 40
0.0
 40
0.4913531183394377
 40
1.0
 40
1.0
 40
1.0
 40
1.0
 10
348.5061343990606
 20
103.5949026926529
 30
0.0
 10
348.3997507853426
 20
103.594167486115
 30
0.0
 10
348.1832392588105
 20
103.5926711965618
 30
0.0
 10
347.9686180903122
 20
103.5913065588942
 30
0.0
 10
347.8594517022171
 20
103.5906124402001
 30
0.0
  0
SPLINE
  5
C1
330
1F
100
AcDbEntity
  8
0
  6
Continuous
 62
     7
370
    25
100
AcDbSpline
210
0.0
220
0.0
230
1.0
 70
    24
 71
     3
 72
     8
 73
     4
 74
     0
 42
0.000000001
 43
0.00000001
 40
0.0
 40
0.0
 40
0.0
 40
0.0
 40
0.0001360401404469
 40
0.0001360401404469
 40
0.0001360401404469
 40
0.0001360401404469
 10
348.549545500905
 20
103.551492026893
 30
0.0
 10
348.5350439106631
 20
103.5659936171349
 30
0.0
 10
348.5205734665747
 20
103.5804640612232
 30
0.0
 10
348.5061344751285
 20
103.5949030526695
 30
0.0
  0
LINE
  5
C2
330
1F
100
AcDbEntity
  8
0
  6
Continuous
 62
     7
370
    25
100
AcDbLine
 10
347.8487947217
 20
103.7481933824
 30
0.0
 11
348.3528441942
 21
103.7481933824
 31
0.0
  0
SPLINE
  5
C3
330
1F
100
AcDbEntity
  8
0
  6
Continuous
 62
     7
370
    25
100
AcDbSpline
210
0.0
220
0.0
230
1.0
 70
     8
 71
     3
 72
     8
 73
     4
 74
     0
 42
0.000000001
 43
0.00000001
 40
0.0
 40
0.0
 40
0.0
 40
0.0
 40
1.0
 40
1.0
 40
1.0
 40
1.0
 10
348.5061346803605
 20
103.5949028474375
 30
0.0
 10
348.4550659178368
 20
103.6459453391827
 30
0.0
 10
348.4039689582819
 20
103.6970423112092
 30
0.0
 10
348.3528441168476
 20
103.7481934109504
 30
0.0
  0
SPLINE
  5
C4
330
1F
100
AcDbEntity
  8
0
  6
Continuous
 62
     7
370
    25
100
AcDbSpline
210
0.0
220
0.0
230
1.0
 70
     8
 71
     3
 72
     8
 73
     4
 74
     0
 42
0.000000001
 43
0.00000001
 40
0.0
 40
0.0
 40
0.0
 40
0.0
 40
1.0
 40
1.0
 40
1.0
 40
1.0
 10
364.1416955774554
 20
103.7481934109505
 30
0.0
 10
364.0905707461915
 20
103.6970423213952
 30
0.0
 10
364.0394737967915
 20
103.6459453595236
 30
0.0
 10
363.988405044407
 20
103.594902877902
 30
0.0
  0
LINE
  5
C5
330
1F
100
AcDbEntity
  8
0
  6
Continuous
 62
     7
370
    25
100
AcDbLine
 10
364.1416955001
 20
103.7481933824
 30
0.0
 11
364.6457449726
 21
103.7481933824
 31
0.0
  0
CIRCLE
  5
C6
330
1F
100
AcDbEntity
  8
0
  6
Continuous
 62
     7
370
    25
100
AcDbCircle
 10
356.2472698472
 20
107.8544435083
 30
0.0
 40
12.47086902276413
  0
SPLINE
  5
C7
330
1F
100
AcDbEntity
  8
0
  6
Continuous
 62
     7
370
    25
100
AcDbSpline
210
0.0
220
0.0
230
1.0
 70
     8
 71
     3
 72
    23
 73
    19
 74
     0
 42
0.000000001
 43
0.00000001
 40
0.0
 40
0.0
 40
0.0
 40
0.0
 40
0.0521034701696204
 40
0.1035642834103258
 40
0.1544746865170929
 40
0.2049299526130454
 40
0.2550279491471202
 40
0.304868636019722
 40
0.354553504121484
 40
0.4041849683430035
 40
0.4538657321707252
 40
0.5036981429683899
 40
0.5902048055413047
 40
0.674300890334858
 40
0.7566325442054724
 40
0.8378852029912961
 40
0.9187688149236596
 40
1.0
 40
1.0
 40
1.0
 40
1.0
 10
345.4080177004939
 20
112.3448542210919
 30
0.0
 10
345.4213120554447
 20
112.3740221142555
 30
0.0
 10
345.4477367895246
 20
112.4319981366633
 30
0.0
 10
345.4869477957467
 20
112.5148974376714
 30
0.0
 10
345.5253897505667
 20
112.5940794187199
 30
0.0
 10
345.5629773319862
 20
112.6693342354187
 30
0.0
 10
345.5996332184711
 20
112.740753890064
 30
0.0
 10
345.6352830818741
 20
112.808350497411
 30
0.0
 10
345.6698568310703
 20
112.8721568242023
 30
0.0
 10
345.7032885159466
 20
112.9322003464095
 30
0.0
 10
345.7355154271117
 20
112.9885071173815
 30
0.0
 10
345.7740207885144
 20
113.0539186886779
 30
0.0
 10
345.8166889583795
 20
113.1234907945448
 30
0.0
 10
345.8601898652552
 20
113.1902628638383
 30
0.0
 10
345.8966054175282
 20
113.2419915284423
 30
0.0
 10
345.9255042044769
 20
113.2784363924269
 30
0.0
 10
345.9474149538311
 20
113.3010231757669
 30
0.0
 10
345.9555184749581
 20
113.3035985682326
 30
0.0
 10
345.9595789224717
 20
113.3048890252783
 30
0.0
  0
SPLINE
  5
C8
330
1F
100
AcDbEntity
  8
0
  6
Continuous
 62
     7
370
    25
100
AcDbSpline
210
0.0
220
0.0
230
1.0
 70
     8
 71
     3
 72
     8
 73
     4
 74
     0
 42
0.000000001
 43
0.00000001
 40
0.0
 40
0.0
 40
0.0
 40
0.0
 40
1.0
 40
1.0
 40
1.0
 40
1.0
 10
345.2873797606312
 20
112.342643863682
 30
0.0
 10
345.3275687742242
 20
112.3433741738996
 30
0.0
 10
345.3677310763142
 20
112.3439546997291
 30
0.0
 10
345.4078657867897
 20
112.3443856646788
 30
0.0
  0
SPLINE
  5
C9
330
1F
100
AcDbEntity
  8
0
  6
Continuous
 62
     7
370
    25
100
AcDbSpline
210
0.0
220
0.0
230
1.0
 70
     8
 71
     3
 72
    18
 73
    14
 74
     0
 42
0.000000001
 43
0.00000001
 40
0.0
 40
0.0
 40
0.0
 40
0.0
 40
0.0923645816239232
 40
0.1844372988353935
 40
0.276454302118477
 40
0.3686515499733604
 40
0.4612630116341138
 40
0.554518937073269
 40
0.648644256434857
 40
0.7438571603394827
 40
0.8403678983479246
 40
0.9203923541272746
 40
1.0
 40
1.0
 40
1.0
 40
1.0
 10
345.3403187494307
 20
112.6094608705639
 30
0.0
 10
345.3421553290244
 20
112.6092555274815
 30
0.0
 10
345.3458226847729
 20
112.6088454901837
 30
0.0
 10
345.3486198613143
 20
112.602047192849
 30
0.0
 10
345.3494234095646
 20
112.5907179891656
 30
0.0
 10
345.3480578295568
 20
112.5744195754981
 30
0.0
 10
345.3445961838718
 20
112.5532682083785
 30
0.0
 10
345.3390541301119
 20
112.5272302464404
 30
0.0
 10
345.3314682950758
 20
112.4963015019955
 30
0.0
 10
345.3218893004725
 20
112.4604959289624
 30
0.0
 10
345.3110473248727
 20
112.4222399692083
 30
0.0
 10
345.2995578879124
 20
112.383018960131
 30
0.0
 10
345.2914578947249
 20
112.3561639646505
 30
0.0
 10
345.2874184729384
 20
112.3427715269891
 30
0.0
  0
LINE
  5
CA
330
1F
100
AcDbEntity
  8
0
  6
Continuous
 62
     7
370
    25
100
AcDbLine
 10
345.2875635779
 20
112.6087130039
 30
0.0
 11
345.3403183452
 21
112.609460856
 31
0.0
  0
SPLINE
  5
CB
330
1F
100
AcDbEntity
  8
0
  6
Continuous
 62
     7
370
    25
100
AcDbSpline
210
0.0
220
0.0
230
1.0
 70
     8
 71
     3
 72
    25
 73
    21
 74
     0
 42
0.000000001
 43
0.00000001
 40
0.0
 40
0.0
 40
0.0
 40
0.0
 40
0.0280056024285562
 40
0.055951432834277
 40
0.0838901607637307
 40
0.1118745076905546
 40
0.1399569498905696
 40
0.1681894282715351
 40
0.1966230730100063
 40
0.2253079499152859
 40
0.2542928341276657
 40
0.379948401683506
 40
0.5057844887501034
 40
0.6313077644942089
 40
0.7532057173414165
 40
0.8039627394921582
 40
0.853612994775967
 40
0.9025574087117878
 40
0.9512124407386627
 40
1.0
 40
1.0
 40
1.0
 40
1.0
 10
344.3766019823778
 20
110.0417812508763
 30
0.0
 10
344.3835796942625
 20
110.0790848299803
 30
0.0
 10
344.3975202255847
 20
110.1536123716048
 30
0.0
 10
344.4200387275049
 20
110.2649071616678
 30
0.0
 10
344.4436698017006
 20
110.3755599189641
 30
0.0
 10
344.4685178402977
 20
110.4855394134355
 30
0.0
 10
344.4945360327399
 20
110.5948346905858
 30
0.0
 10
344.5217182344869
 20
110.7034305309397
 30
0.0
 10
344.550046080811
 20
110.811310825608
 30
0.0
 10
344.5795085751352
 20
110.9184699856037
 30
0.0
 10
344.6439198456607
 20
111.1426558605569
 30
0.0
 10
344.749023559199
 20
111.4693277639357
 30
0.0
 10
344.8944861808314
 20
111.8552739177702
 30
0.0
 10
345.033750036984
 20
112.1773549233548
 30
0.0
 10
345.1309025125512
 20
112.3731830410232
 30
0.0
 10
345.1912057840534
 20
112.4825451622352
 30
0.0
 10
345.2261026792103
 20
112.5404884642823
 30
0.0
 10
345.2539978203138
 20
112.5809433680766
 30
0.0
 10
345.27535674803
 20
112.6055467284965
 30
0.0
 10
345.2834908218764
 20
112.6076567216863
 30
0.0
 10
345.2875633901915
 20
112.608713153134
 30
0.0
  0
ARC
  5
CC
330
1F
100
AcDbEntity
  8
0
  6
Continuous
 62
     7
370
    25
100
AcDbCircle
 10
356.2472698472
 20
107.8544435083
 30
0.0
 40
12.07050959801142
100
AcDbArc
 50
169.5595567507
 51
190.4404432494
  0
SPLINE
  5
CD
330
1F
100
AcDbEntity
  8
0
  6
Continuous
 62
     7
370
    25
100
AcDbSpline
210
0.0
220
0.0
230
1.0
 70
     8
 71
     3
 72
    26
 73
    22
 74
     0
 42
0.000000001
 43
0.00000001
 40
0.0
 40
0.0
 40
0.0
 40
0.0
 40
0.0241214275654719
 40
0.0482078233548783
 40
0.0723095879207941
 40
0.096477146112833
 40
0.1207606318215904
 40
0.1452095829271292
 40
0.1698726554212849
 40
0.1947973643379994
 40
0.2200298573585186
 40
0.2456147249583856
 40
0.3690974744025462
 40
0.494070020403968
 40
0.6192566393629692
 40
0.74546544218617
 40
0.7971580294162222
 40
0.8481837569733558
 40
0.8988139831114589
 40
0.9493262809205417
 40
1.0
 40
1.0
 40
1.0
 40
1.0
 10
345.2875633901915
 20
103.1001738635499
 30
0.0
 10
345.2856545755163
 20
103.1004580565297
 30
0.0
 10
345.2818397183556
 20
103.1010260297533
 30
0.0
 10
345.2738828847059
 20
103.1070788496688
 30
0.0
 10
345.2643061600372
 20
103.1169538182101
 30
0.0
 10
345.2529603267943
 20
103.1310323905753
 30
0.0
 10
345.239904546327
 20
103.1492271357946
 30
0.0
 10
345.2251480772126
 20
103.1715786108923
 30
0.0
 10
345.2087193745863
 20
103.198095522415
 30
0.0
 10
345.1906487681111
 20
103.2287954334627
 30
0.0
 10
345.1709682184265
 20
103.2637027826464
 30
0.0
 10
345.1227662518365
 20
103.3524720944946
 30
0.0
 10
345.0344469773607
 20
103.5297546505074
 30
0.0
 10
344.8953872220935
 20
103.8508409569838
 30
0.0
 10
344.749714605084
 20
104.2374233033713
 30
0.0
 10
344.6359726375468
 20
104.5911418770243
 30
0.0
 10
344.5562629082369
 20
104.8734113391412
 30
0.0
 10
344.5056097114904
 20
105.0678708230563
 30
0.0
 10
344.4586437917856
 20
105.2651125141657
 30
0.0
 10
344.4150882988492
 20
105.4649999023624
 30
0.0
 10
344.3894443910443
 20
105.5996655343121
 30
0.0
 10
344.3766019823778
 20
105.6671057658077
 30
0.0
  0
LINE
  5
CE
330
1F
100
AcDbEntity
  8
0
  6
Continuous
 62
     7
370
    25
100
AcDbLine
 10
345.3403183452
 20
103.0994261607
 30
0.0
 11
345.2875635779
 21
103.1001740127
 31
0.0
  0
SPLINE
  5
CF
330
1F
100
AcDbEntity
  8
0
  6
Continuous
 62
     7
370
    25
100
AcDbSpline
210
0.0
220
0.0
230
1.0
 70
     8
 71
     3
 72
    14
 73
    10
 74
     0
 42
0.000000001
 43
0.00000001
 40
0.0
 40
0.0
 40
0.0
 40
0.0
 40
0.07892595895729
 40
0.1582323961908049
 40
0.3308776440764397
 40
0.5000645817741899
 40
0.6670803235545087
 40
0.83326871778819
 40
1.0
 40
1.0
 40
1.0
 40
1.0
 10
345.2873218925986
 20
103.3664496233595
 30
0.0
 10
345.2913364444328
 20
103.353146486993
 30
0.0
 10
345.2993849010463
 20
103.3264760838465
 30
0.0
 10
345.3142868983185
 20
103.2756568147909
 30
0.0
 10
345.3301861866561
 20
103.2186095573378
 30
0.0
 10
345.3432672339835
 20
103.1642985403076
 30
0.0
 10
345.3495001639054
 20
103.1261308183658
 30
0.0
 10
345.3493090452909
 20
103.1027276843175
 30
0.0
 10
345.3433187708061
 20
103.1005278545975
 30
0.0
 10
345.3403187494307
 20
103.09942614612
 30
0.0
  0
SPLINE
  5
D0
330
1F
100
AcDbEntity
  8
0
  6
Continuous
 62
     7
370
    25
100
AcDbSpline
210
0.0
220
0.0
230
1.0
 70
     8
 71
     3
 72
     8
 73
     4
 74
     0
 42
0.000000001
 43
0.00000001
 40
0.0
 40
0.0
 40
0.0
 40
0.0
 40
1.0
 40
1.0
 40
1.0
 40
1.0
 10
345.4346265838033
 20
103.3643885449742
 30
0.0
 10
345.3855586687746
 20
103.3648755981862
 30
0.0
 10
345.3364492312538
 20
103.365586666061
 30
0.0
 10
345.2872998867285
 20
103.3665221592954
 30
0.0
  0
SPLINE
  5
D1
330
1F
100
AcDbEntity
  8
0
  6
Continuous
 62
     7
370
    25
100
AcDbSpline
210
0.0
220
0.0
230
1.0
 70
     8
 71
     3
 72
    13
 73
     9
 74
     0
 42
0.000000001
 43
0.00000001
 40
0.0
 40
0.0
 40
0.0
 40
0.0
 40
0.1666651380258054
 40
0.3328869539700871
 40
0.4989979369356626
 40
0.6653319948022453
 40
0.8322224399228445
 40
1.0
 40
1.0
 40
1.0
 40
1.0
 10
345.4929601159742
 20
103.2956750201903
 30
0.0
 10
345.4911181533217
 20
103.296089814156
 30
0.0
 10
345.4874391275578
 20
103.2969182987534
 30
0.0
 10
345.4799240293107
 20
103.3029292208192
 30
0.0
 10
345.4709739288465
 20
103.3124227672443
 30
0.0
 10
345.460422773712
 20
103.3258338555386
 30
0.0
 10
345.4484471846422
 20
103.3427558625256
 30
0.0
 10
345.4392386041857
 20
103.3571724115668
 30
0.0
 10
345.4346221092212
 20
103.3643997932863
 30
0.0
  0
SPLINE
  5
D2
330
1F
100
AcDbEntity
  8
0
  6
Continuous
 62
     7
370
    25
100
AcDbSpline
210
0.0
220
0.0
230
1.0
 70
     8
 71
     3
 72
    13
 73
     9
 74
     0
 42
0.000000001
 43
0.00000001
 40
0.0
 40
0.0
 40
0.0
 40
0.0
 40
0.1686717431976176
 40
0.3360976438050112
 40
0.5026076259545951
 40
0.6685363120001365
 40
0.8342210747535599
 40
1.0
 40
1.0
 40
1.0
 40
1.0
 10
367.0599189661997
 20
103.3644032430991
 30
0.0
 10
367.0552803900776
 20
103.3571437917384
 30
0.0
 10
367.0460374992667
 20
103.342678508749
 30
0.0
 10
367.0340196727118
 20
103.3256936293178
 30
0.0
 10
367.0234532333355
 20
103.3122593356994
 30
0.0
 10
367.0145146012403
 20
103.302781073221
 30
0.0
 10
367.0070359171029
 20
103.296819463881
 30
0.0
 10
367.0033987023412
 20
103.2960565736613
 30
0.0
 10
367.0015795783288
 20
103.2956750201903
 30
0.0
  0
SPLINE
  5
D3
330
1F
100
AcDbEntity
  8
0
  6
Continuous
 62
     7
370
    25
100
AcDbSpline
210
0.0
220
0.0
230
1.0
 70
     8
 71
     3
 72
     8
 73
     4
 74
     0
 42
0.000000001
 43
0.00000001
 40
0.0
 40
0.0
 40
0.0
 40
0.0
 40
1.0
 40
1.0
 40
1.0
 40
1.0
 10
367.2072445781724
 20
103.3665222640418
 30
0.0
 10
367.158093648564
 20
103.3655867337798
 30
0.0
 10
367.1089826284847
 20
103.3648756432678
 30
0.0
 10
367.0599131335769
 20
103.3643885817698
 30
0.0
  0
SPLINE
  5
D4
330
1F
100
AcDbEntity
  8
0
  6
Continuous
 62
     7
370
    25
100
AcDbSpline
210
0.0
220
0.0
230
1.0
 70
     8
 71
     3
 72
    18
 73
    14
 74
     0
 42
0.000000001
 43
0.00000001
 40
0.0
 40
0.0
 40
0.0
 40
0.0
 40
0.092314649210806
 40
0.1843375917914556
 40
0.2763048505627556
 40
0.3684522564654068
 40
0.4610136522494059
 40
0.5542191634138369
 40
0.6482935985051969
 40
0.7434550301899557
 40
0.8399135943676973
 40
0.9201663187103734
 40
1.0
 40
1.0
 40
1.0
 40
1.0
 10
367.1542209448723
 20
103.09942614612
 30
0.0
 10
367.1523843652788
 20
103.0996314892031
 30
0.0
 10
367.1487170095309
 20
103.1000415265023
 30
0.0
 10
367.1459198329865
 20
103.1068398238283
 30
0.0
 10
367.1451162847479
 20
103.1181690275455
 30
0.0
 10
367.1464818647119
 20
103.1344674410873
 30
0.0
 10
367.1499435105613
 20
103.1556188086795
 30
0.0
 10
367.1554855637008
 20
103.1816567688344
 30
0.0
 10
367.1630714010857
 20
103.2125855200295
 30
0.0
 10
367.172650386768
 20
103.2483910674243
 30
0.0
 10
367.1835032334049
 20
103.2866853647965
 30
0.0
 10
367.1950187909351
 20
103.3259937846532
 30
0.0
 10
367.2031505081089
 20
103.3529508812748
 30
0.0
 10
367.2072057238821
 20
103.3663941480636
 30
0.0
  0
LINE
  5
D5
330
1F
100
AcDbEntity
  8
0
  6
Continuous
 62
     7
370
    25
100
AcDbLine
 10
367.2069761164
 20
103.1001740127
 30
0.0
 11
367.1542213491
 21
103.0994261607
 31
0.0
  0
SPLINE
  5
D6
330
1F
100
AcDbEntity
  8
0
  6
Continuous
 62
     7
370
    25
100
AcDbSpline
210
0.0
220
0.0
230
1.0
 70
     8
 71
     3
 72
    25
 73
    21
 74
     0
 42
0.000000001
 43
0.00000001
 40
0.0
 40
0.0
 40
0.0
 40
0.0
 40
0.0280056024284672
 40
0.0559514328341196
 40
0.0838901607635295
 40
0.1118745076903325
 40
0.1399569498903493
 40
0.1681894282713371
 40
0.1966230730098549
 40
0.2253079499152018
 40
0.2542928341276681
 40
0.3799484016845484
 40
0.5057844887501644
 40
0.6313077644965451
 40
0.7532057173414851
 40
0.8039627394926698
 40
0.8536129947767129
 40
0.9025574087125352
 40
0.9512124407391659
 40
1.0
 40
1.0
 40
1.0
 40
1.0
 10
368.1179377119252
 20
105.6671057658077
 30
0.0
 10
368.1109600000405
 20
105.6298021867038
 30
0.0
 10
368.0970194687184
 20
105.5552746450795
 30
0.0
 10
368.0745009667982
 20
105.4439798550168
 30
0.0
 10
368.0508698926026
 20
105.3333270977207
 30
0.0
 10
368.0260218540055
 20
105.2233476032493
 30
0.0
 10
368.0000036615632
 20
105.114052326099
 30
0.0
 10
367.9728214598164
 20
105.005456485745
 30
0.0
 10
367.9444936134921
 20
104.8975761910766
 30
0.0
 10
367.9150311191679
 20
104.7904170310806
 30
0.0
 10
367.8506198486419
 20
104.5662311561259
 30
0.0
 10
367.7455161351033
 20
104.2395592527462
 30
0.0
 10
367.6000535134702
 20
103.8536130989108
 30
0.0
 10
367.4607896573183
 20
103.5315320933277
 30
0.0
 10
367.3636371817507
 20
103.3357039756586
 30
0.0
 10
367.3033339102496
 20
103.2263418544492
 30
0.0
 10
367.2684370150927
 20
103.1683985524022
 30
0.0
 10
367.2405418739892
 20
103.1279436486078
 30
0.0
 10
367.219182946273
 20
103.1033402881877
 30
0.0
 10
367.2110488724265
 20
103.1012302949978
 30
0.0
 10
367.2069763041115
 20
103.1001738635499
 30
0.0
  0
ARC
  5
D7
330
1F
100
AcDbEntity
  8
0
  6
Continuous
 62
     7
370
    25
100
AcDbCircle
 10
356.2472698472
 20
107.8544435083
 30
0.0
 40
12.07050959801147
100
AcDbArc
 50
349.5595567507
 51
10.4404432493
  0
SPLINE
  5
D8
330
1F
100
AcDbEntity
  8
0
  6
Continuous
 62
     7
370
    25
100
AcDbSpline
210
0.0
220
0.0
230
1.0
 70
     8
 71
     3
 72
    26
 73
    22
 74
     0
 42
0.000000001
 43
0.00000001
 40
0.0
 40
0.0
 40
0.0
 40
0.0
 40
0.0241214275654727
 40
0.0482078233548788
 40
0.0723095879207951
 40
0.0964771461128338
 40
0.1207606318215923
 40
0.1452095829271297
 40
0.1698726554212846
 40
0.1947973643379999
 40
0.2200298573585185
 40
0.2456147249583853
 40
0.3690974744025444
 40
0.4940700204039695
 40
0.6192566393631057
 40
0.7454654421861758
 40
0.797158029416305
 40
0.8481837569734793
 40
0.8988139831115824
 40
0.9493262809206247
 40
1.0
 40
1.0
 40
1.0
 40
1.0
 10
367.2069763041115
 20
112.608713153134
 30
0.0
 10
367.2088851187866
 20
112.6084289601542
 30
0.0
 10
367.2126999759474
 20
112.6078609869307
 30
0.0
 10
367.220656809597
 20
112.6018081670151
 30
0.0
 10
367.2302335342658
 20
112.5919331984738
 30
0.0
 10
367.2415793675087
 20
112.5778546261086
 30
0.0
 10
367.2546351479759
 20
112.5596598808893
 30
0.0
 10
367.2693916170904
 20
112.5373084057916
 30
0.0
 10
367.2858203197165
 20
112.5107914942689
 30
0.0
 10
367.3038909261919
 20
112.4800915832212
 30
0.0
 10
367.3235714758764
 20
112.4451842340375
 30
0.0
 10
367.3717734424664
 20
112.3564149221894
 30
0.0
 10
367.4600927169423
 20
112.1791323661766
 30
0.0
 10
367.5991524722095
 20
111.8580460597
 30
0.0
 10
367.744825089219
 20
111.4714637133126
 30
0.0
 10
367.8585670567562
 20
111.1177451396594
 30
0.0
 10
367.9382767860661
 20
110.8354756775424
 30
0.0
 10
367.9889299828127
 20
110.6410161936272
 30
0.0
 10
368.0358959025174
 20
110.4437745025178
 30
0.0
 10
368.0794513954538
 20
110.2438871143213
 30
0.0
 10
368.1050953032587
 20
110.1092214823717
 30
0.0
 10
368.1179377119252
 20
110.0417812508763
 30
0.0
  0
LINE
  5
D9
330
1F
100
AcDbEntity
  8
0
  6
Continuous
 62
     7
370
    25
100
AcDbLine
 10
367.1542213491
 20
112.609460856
 30
0.0
 11
367.2069761164
 21
112.6087130039
 31
0.0
  0
SPLINE
  5
DA
330
1F
100
AcDbEntity
  8
0
  6
Continuous
 62
     7
370
    25
100
AcDbSpline
210
0.0
220
0.0
230
1.0
 70
     8
 71
     3
 72
    14
 73
    10
 74
     0
 42
0.000000001
 43
0.00000001
 40
0.0
 40
0.0
 40
0.0
 40
0.0
 40
0.0786886761526158
 40
0.157755707032333
 40
0.3304987231385427
 40
0.4997814706298005
 40
0.6668917926635757
 40
0.8331742986259619
 40
1.0
 40
1.0
 40
1.0
 40
1.0
 10
367.207129231633
 20
112.3427293613993
 30
0.0
 10
367.2031312174709
 20
112.3559792775762
 30
0.0
 10
367.1951159657002
 20
112.3825428188226
 30
0.0
 10
367.1802420017317
 20
112.4332688767557
 30
0.0
 10
367.1643535302623
 20
112.4902773970262
 30
0.0
 10
367.1512724543977
 20
112.5445884926947
 30
0.0
 10
367.1450395319582
 20
112.5827561940178
 30
0.0
 10
367.1452306486203
 20
112.6061593334459
 30
0.0
 10
367.1512209233661
 20
112.6083591624466
 30
0.0
 10
367.1542209448723
 20
112.6094608705639
 30
0.0
  0
SPLINE
  5
DB
330
1F
100
AcDbEntity
  8
0
  6
Continuous
 62
     7
370
    25
100
AcDbSpline
210
0.0
220
0.0
230
1.0
 70
     8
 71
     3
 72
     8
 73
     4
 74
     0
 42
0.000000001
 43
0.00000001
 40
0.0
 40
0.0
 40
0.0
 40
0.0
 40
1.0
 40
1.0
 40
1.0
 40
1.0
 10
367.0866738909663
 20
112.3443857013117
 30
0.0
 10
367.126807009473
 20
112.3439547473644
 30
0.0
 10
367.1669677174015
 20
112.3433742443519
 30
0.0
 10
367.2071551347444
 20
112.3426439687923
 30
0.0
  0
SPLINE
  5
DC
330
1F
100
AcDbEntity
  8
0
  6
Continuous
 62
     7
370
    25
100
AcDbSpline
210
0.0
220
0.0
230
1.0
 70
     8
 71
     3
 72
    23
 73
    19
 74
     0
 42
0.000000001
 43
0.00000001
 40
0.0
 40
0.0
 40
0.0
 40
0.0
 40
0.0441204301523121
 40
0.0880778633961033
 40
0.1319898679972053
 40
0.1759746562074272
 40
0.2201501304064892
 40
0.2646329452297297
 40
0.309537622057852
 40
0.3549757475052642
 40
0.4010552803378843
 40
0.4478799826432289
 40
0.4955489822092772
 40
0.5953684312257953
 40
0.694913154050769
 40
0.7950014614962478
 40
0.8964389774215775
 40
1.0
 40
1.0
 40
1.0
 40
1.0
 10
366.5349607718312
 20
113.3048890252783
 30
0.0
 10
366.5369425959333
 20
113.3046102261163
 30
0.0
 10
366.5408989225589
 20
113.3040536577776
 30
0.0
 10
366.5497534083394
 20
113.2976434765604
 30
0.0
 10
366.560721482327
 20
113.2871292495485
 30
0.0
 10
366.5739980277447
 20
113.2721023347665
 30
0.0
 10
366.5895074019772
 20
113.2526523844103
 30
0.0
 10
366.6072390163711
 20
113.2287323468355
 30
0.0
 10
366.627157294144
 20
113.2003288419695
 30
0.0
 10
366.6492259174664
 20
113.1674163106481
 30
0.0
 10
366.6734013447505
 20
113.1299691711302
 30
0.0
 10
366.6996342879014
 20
113.0879594431096
 30
0.0
 10
366.7379752455047
 20
113.0246751177
 30
0.0
 10
366.790310317004
 20
112.934612409994
 30
0.0
 10
366.8587109963187
 20
112.8102661411088
 30
0.0
 10
366.9313960527603
 20
112.6705531033684
 30
0.0
 10
367.0077562935875
 20
112.5162170773387
 30
0.0
 10
367.0600451075715
 20
112.4024944245714
 30
0.0
 10
367.0864603351391
 20
112.3450440920135
 30
0.0
  0
SPLINE
  5
DD
330
1F
100
AcDbEntity
  8
0
  6
Continuous
 62
     7
370
    25
100
AcDbSpline
210
0.0
220
0.0
230
1.0
 70
    11
 71
     3
 72
    39
 73
    35
 74
     0
 42
0.000000001
 43
0.00000001
 40
0.0
 40
0.0
 40
0.0
 40
0.0
 40
0.0310664058348413
 40
0.0621048158426138
 40
0.0931361551796939
 40
0.1235538293503726
 40
0.1538561545809849
 40
0.1850588072749156
 40
0.2160250992946587
 40
0.2471867223797568
 40
0.2784462884304475
 40
0.3100516090231247
 40
0.3419834369138969
 40
0.3734259894013238
 40
0.4048604886787081
 40
0.436874065183343
 40
0.4685120685926471
 40
0.499805535863323
 40
0.5309508213226204
 40
0.5618649784438111
 40
0.5930416446590877
 40
0.623374245013332
 40
0.6540913579072549
 40
0.6849496782718453
 40
0.7158160645166705
 40
0.7471731804043553
 40
0.7784514311866318
 40
0.810129591156098
 40
0.8419598919688388
 40
0.8735175891922303
 40
0.9050808037886594
 40
0.9370235169792582
 40
0.9687441590030581
 40
1.0
 40
1.0
 40
1.0
 40
1.0
 10
359.1513964119488
 20
96.42281332458856
 30
0.0
 10
359.3411082409035
 20
96.46158190133605
 30
0.0
 10
359.6848490913523
 20
96.53801284711906
 30
0.0
 10
360.06780607856
 20
96.6261523871123
 30
0.0
 10
360.3122465452751
 20
96.67310187375726
 30
0.0
 10
360.3932354820913
 20
96.66119294904351
 30
0.0
 10
360.3125130366096
 20
96.58923504232804
 30
0.0
 10
360.0726508429899
 20
96.46471477613068
 30
0.0
 10
359.6960011088927
 20
96.30734578630549
 30
0.0
 10
359.1897581720648
 20
96.1353217016105
 30
0.0
 10
358.5724837783814
 20
95.97039729402485
 30
0.0
 10
357.8600079642416
 20
95.83268471794634
 30
0.0
 10
357.084542724469
 20
95.74105190543766
 30
0.0
 10
356.2740782908547
 20
95.70771932734218
 30
0.0
 10
355.4615738178922
 20
95.73696677289546
 30
0.0
 10
354.6820608277551
 20
95.82529572988305
 30
0.0
 10
353.9637325284197
 20
95.96080122951787
 30
0.0
 10
353.3403604210196
 20
96.12457775100914
 30
0.0
 10
352.8272618264241
 20
96.29658389515447
 30
0.0
 10
352.4420597165626
 20
96.45539590962564
 30
0.0
 10
352.1926351113216
 20
96.5826548747911
 30
0.0
 10
352.1020330713752
 20
96.65826183174609
 30
0.0
 10
352.1702446423344
 20
96.67503122842598
 30
0.0
 10
352.4024605087371
 20
96.63225088621071
 30
0.0
 10
352.7796775459214
 20
96.54512420130085
 30
0.0
 10
353.291382413689
 20
96.43039514599386
 30
0.0
 10
353.9148535444359
 20
96.31097300094133
 30
0.0
 10
354.6313982475687
 20
96.20634755089202
 30
0.0
 10
355.4097293601797
 20
96.13569905796516
 30
0.0
 10
356.2215608470296
 20
96.10962023353513
 30
0.0
 10
357.0353353690267
 20
96.13264580522586
 30
0.0
 10
357.8177092131922
 20
96.20087824336353
 30
0.0
 10
358.5397222479261
 20
96.30412542307326
 30
0.0
 10
358.9605277677751
 20
96.38380834676978
 30
0.0
 10
359.1513964119488
 20
96.42281332458853
 30
0.0
  0
SPLINE
  5
DE
330
1F
100
AcDbEntity
  8
0
  6
Continuous
 62
     7
370
    25
100
AcDbSpline
210
0.0
220
0.0
230
1.0
 70
    11
 71
     3
 72
    39
 73
    35
 74
     0
 42
0.000000001
 43
0.00000001
 40
0.0
 40
0.0
 40
0.0
 40
0.0
 40
0.0312651429934057
 40
0.0629601069329321
 40
0.0948697276489808
 40
0.1264264963751833
 40
0.1579651393672472
 40
0.1898765439016956
 40
0.221552335268876
 40
0.2527844076550827
 40
0.2838418966734154
 40
0.3148645781100674
 40
0.3459127639308091
 40
0.3763475365526575
 40
0.4066751324671412
 40
0.4379141187435632
 40
0.4688932367345488
 40
0.5000738678969536
 40
0.5313369410958942
 40
0.5629183719104849
 40
0.5948445736343699
 40
0.6262809966135365
 40
0.6577486436587271
 40
0.6897584692806508
 40
0.7214430019610059
 40
0.7527623343195418
 40
0.7839279690572818
 40
0.8148885765585865
 40
0.8460375004982862
 40
0.8763409566916784
 40
0.906758919146387
 40
0.9378312724751761
 40
0.9689189660506093
 40
1.0
 40
1.0
 40
1.0
 40
1.0
 10
359.151292162162
 20
119.2861057445311
 30
0.0
 10
358.9602182258803
 20
119.3251697024118
 30
0.0
 10
358.5392836634408
 20
119.4048886969719
 30
0.0
 10
357.8178942582771
 20
119.5080041123223
 30
0.0
 10
357.0362382099867
 20
119.5762049847463
 30
0.0
 10
356.2231504902759
 20
119.5992618773881
 30
0.0
 10
355.4108702734238
 20
119.5732776037419
 30
0.0
 10
354.6322398483744
 20
119.5026874385038
 30
0.0
 10
353.9155640584628
 20
119.3980718762646
 30
0.0
 10
353.2936887888013
 20
119.2788995512482
 30
0.0
 10
352.7841778553154
 20
119.1649623835219
 30
0.0
 10
352.4090585090711
 20
119.0788481045754
 30
0.0
 10
352.1730979342203
 20
119.0347923832396
 30
0.0
 10
352.1016973910387
 20
119.0503221839508
 30
0.0
 10
352.1922938208365
 20
119.1258310661347
 30
0.0
 10
352.441270101196
 20
119.2530045939789
 30
0.0
 10
352.8261849210388
 20
119.4118552725912
 30
0.0
 10
353.338970227861
 20
119.5838795338012
 30
0.0
 10
353.9614293507857
 20
119.7475526133359
 30
0.0
 10
354.6779294955923
 20
119.8829541867161
 30
0.0
 10
355.4560285297024
 20
119.9714718541989
 30
0.0
 10
356.2677512183494
 20
120.0011792626817
 30
0.0
 10
357.0791934060506
 20
119.9682928180316
 30
0.0
 10
357.8563192975327
 20
119.8768119099868
 30
0.0
 10
358.5707573867032
 20
119.7389277200254
 30
0.0
 10
359.1889803449386
 20
119.5737998951755
 30
0.0
 10
359.6953477056645
 20
119.4017493578229
 30
0.0
 10
360.0719002270782
 20
119.2444658361127
 30
0.0
 10
360.3115960385096
 20
119.1200620386287
 30
0.0
 10
360.3930627467039
 20
119.0478738651924
 30
0.0
 10
360.3130035042121
 20
119.0356013568143
 30
0.0
 10
360.0686574982583
 20
119.0824967673204
 30
0.0
 10
359.6856840648094
 20
119.170630315466
 30
0.0
 10
359.3412409335995
 20
119.2472718200759
 30
0.0
 10
359.151292162162
 20
119.2861057445311
 30
0.0
  0
SPLINE
  5
DF
330
1F
100
AcDbEntity
  8
0
  6
Continuous
 62
     7
370
    25
100
AcDbSpline
210
0.0
220
0.0
230
1.0
 70
     8
 71
     3
 72
    23
 73
    19
 74
     0
 42
0.000000001
 43
0.00000001
 40
0.0
 40
0.0
 40
0.0
 40
0.0
 40
0.0449790193536229
 40
0.0909412379406267
 40
0.1379251786226694
 40
0.1859669058116908
 40
0.2351001540218506
 40
0.2853564591020707
 40
0.3367652895223681
 40
0.3893541756586718
 40
0.4431488355192597
 40
0.4981732957795909
 40
0.5575109075697491
 40
0.6265493534557582
 40
0.7053074127945977
 40
0.7937970945800372
 40
0.8920262478319279
 40
1.0
 40
1.0
 40
1.0
 40
1.0
 10
346.3563281355943
 20
112.884443508342
 30
0.0
 10
346.3541668179848
 20
112.8840147190934
 30
0.0
 10
346.3497969383874
 20
112.8831477676649
 30
0.0
 10
346.3395189625558
 20
112.876055774933
 30
0.0
 10
346.3264608657205
 20
112.8644450900244
 30
0.0
 10
346.3103429795238
 20
112.8476579497393
 30
0.0
 10
346.2912429538325
 20
112.8255879419735
 30
0.0
 10
346.2691401202547
 20
112.797991784754
 30
0.0
 10
346.2440382793437
 20
112.7646835881473
 30
0.0
 10
346.2159449101217
 20
112.7254819823174
 30
0.0
 10
346.1848258674535
 20
112.6802367588088
 30
0.0
 10
346.1501845717929
 20
112.6278376936979
 30
0.0
 10
346.1094617506882
 20
112.5650530838007
 30
0.0
 10
346.0607408069513
 20
112.4872960878992
 30
0.0
 10
346.0029664760439
 20
112.3900115292176
 30
0.0
 10
345.936055824038
 20
112.2702666958491
 30
0.0
 10
345.860111860474
 20
112.1263464908447
 30
0.0
 10
345.8057506956828
 20
112.0156122859767
 30
0.0
 10
345.7772856315132
 20
111.9576286820668
 30
0.0
  0
LINE
  5
E0
330
1F
100
AcDbEntity
  8
0
  6
Continuous
 62
     7
370
    25
100
AcDbLine
 10
345.777285584
 20
111.9581548489
 30
0.0
 11
345.4079463339
 21
112.3442397445
 31
0.0
  0
LINE
  5
E1
330
1F
100
AcDbEntity
  8
0
  6
Continuous
 62
     7
370
    25
100
AcDbLine
 10
367.0865607641
 20
112.3441801399
 30
0.0
 11
366.7172941572
 21
111.9581720784
 31
0.0
  0
SPLINE
  5
E2
330
1F
100
AcDbEntity
  8
0
  6
Continuous
 62
     7
370
    25
100
AcDbSpline
210
0.0
220
0.0
230
1.0
 70
     8
 71
     3
 72
    26
 73
    22
 74
     0
 42
0.000000001
 43
0.00000001
 40
0.0
 40
0.0
 40
0.0
 40
0.0
 40
0.0509383700612694
 40
0.0998291218936988
 40
0.1466727642612251
 40
0.1914698824691495
 40
0.2342211527040087
 40
0.2749273599638924
 40
0.3135894207119295
 40
0.3502084118244678
 40
0.3847856080491524
 40
0.4173225311507308
 40
0.4478210153925337
 40
0.4762832962997595
 40
0.5027121333383506
 40
0.5939161417317884
 40
0.681616787164036
 40
0.7659330352417302
 40
0.8469987710153347
 40
0.9249646451444818
 40
1.0
 40
1.0
 40
1.0
 40
1.0
 10
366.7172945474581
 20
111.9574379518171
 30
0.0
 10
366.703836683259
 20
111.985058732984
 30
0.0
 10
366.6774619334595
 20
112.039189996442
 30
0.0
 10
366.6390897536779
 20
112.115498033523
 30
0.0
 10
366.6026235711838
 20
112.186250213119
 30
0.0
 10
366.568087321558
 20
112.2514220398098
 30
0.0
 10
366.5354748697054
 20
112.311280285063
 30
0.0
 10
366.5047875859079
 20
112.3660454446039
 30
0.0
 10
366.4760249696205
 20
112.415969835917
 30
0.0
 10
366.4491868051014
 20
112.4613120665033
 30
0.0
 10
366.4242732248362
 20
112.5023380054651
 30
0.0
 10
366.401282577497
 20
112.5393153903282
 30
0.0
 10
366.3802190738791
 20
112.5725115065808
 30
0.0
 10
366.3610666972111
 20
112.6021872379247
 30
0.0
 10
366.3293935696507
 20
112.6508607793903
 30
0.0
 10
366.2879202373906
 20
112.71276013389
 30
0.0
 10
366.240926866835
 20
112.7781029004998
 30
0.0
 10
366.2023068740474
 20
112.8272196653667
 30
0.0
 10
366.1722595112006
 20
112.8606925086226
 30
0.0
 10
366.1499726671111
 20
112.880806414612
 30
0.0
 10
366.1420815471448
 20
112.8832467239749
 30
0.0
 10
366.1382115587087
 20
112.884443508342
 30
0.0
  0
SPLINE
  5
E3
330
1F
100
AcDbEntity
  8
0
  6
Continuous
 62
     7
370
    25
100
AcDbSpline
210
0.0
220
0.0
230
1.0
 70
     8
 71
     3
 72
     8
 73
     4
 74
     0
 42
0.000000001
 43
0.00000001
 40
0.0
 40
0.0
 40
0.0
 40
0.0
 40
1.0
 40
1.0
 40
1.0
 40
1.0
 10
363.9889502989519
 20
112.0774418348247
 30
0.0
 10
364.0525432792919
 20
112.0117730569779
 30
0.0
 10
364.1164997057272
 20
111.9474307593176
 30
0.0
 10
364.1806986254346
 20
111.885693508342
 30
0.0
  0
SPLINE
  5
E4
330
1F
100
AcDbEntity
  8
0
  6
Continuous
 62
     7
370
    25
100
AcDbSpline
210
0.0
220
0.0
230
1.0
 70
     8
 71
     3
 72
    25
 73
    21
 74
     0
 42
0.000000001
 43
0.00000001
 40
0.0
 40
0.0
 40
0.0
 40
0.0
 40
0.0367725003254103
 40
0.074208401060063
 40
0.1123590542807964
 40
0.1512729822568881
 40
0.190995910016845
 40
0.2315708273504481
 40
0.2730380740418892
 40
0.3154354426077851
 40
0.3587982934432034
 40
0.4031596779810961
 40
0.4485504661847858
 40
0.494999475376923
 40
0.5532504315673752
 40
0.621829488573267
 40
0.7007739996560722
 40
0.7901076726660372
 40
0.8898461547533933
 40
1.0
 40
1.0
 40
1.0
 40
1.0
 10
363.5470291116403
 20
112.8844435083416
 30
0.0
 10
363.5472528857052
 20
112.8841188207079
 30
0.0
 10
363.5477044708681
 20
112.8834635878591
 30
0.0
 10
363.5524215107404
 20
112.8781012160713
 30
0.0
 10
363.560074119823
 20
112.8693456223708
 30
0.0
 10
363.57096709896
 20
112.856721404279
 30
0.0
 10
363.5850156853758
 20
112.8401650661486
 30
0.0
 10
363.602242582985
 20
112.8195078887708
 30
0.0
 10
363.6226411357665
 20
112.7946201528029
 30
0.0
 10
363.6462119490587
 20
112.7653726066096
 30
0.0
 10
363.6729572976184
 20
112.7316496714131
 30
0.0
 10
363.7028651510507
 20
112.6933438562877
 30
0.0
 10
363.7359812433953
 20
112.6503729609497
 30
0.0
 10
363.7749071649692
 20
112.598951679279
 30
0.0
 10
363.8237352446858
 20
112.5347354475899
 30
0.0
 10
363.8856558492869
 20
112.4518409184953
 30
0.0
 10
363.9600404076078
 20
112.3478951682808
 30
0.0
 10
364.0470148355964
 20
112.2198089580236
 30
0.0
 10
364.146439685579
 20
112.0657191781173
 30
0.0
 10
364.2178588613085
 20
111.9476549422468
 30
0.0
 10
364.2553404449894
 20
111.885693508342
 30
0.0
  0
LINE
  5
E5
330
1F
100
AcDbEntity
  8
0
  6
Continuous
 62
     7
370
    25
100
AcDbLine
 10
364.2553401372
 20
111.885693296
 30
0.0
 11
364.1806983582
 21
111.885693296
 31
0.0
  0
SPLINE
  5
E6
330
1F
100
AcDbEntity
  8
0
  6
Continuous
 62
     7
370
    25
100
AcDbSpline
210
0.0
220
0.0
230
1.0
 70
     8
 71
     3
 72
    23
 73
    19
 74
     0
 42
0.000000001
 43
0.00000001
 40
0.0
 40
0.0
 40
0.0
 40
0.0
 40
0.0511129009870105
 40
0.101689633186194
 40
0.1518293139134936
 40
0.2016336701929027
 40
0.2512064936790249
 40
0.3006530343041129
 40
0.3500793489747028
 40
0.3995916247955553
 40
0.4492954981456333
 40
0.4992953912355781
 40
0.5872572780531264
 40
0.6724255494364428
 40
0.7555067762557957
 40
0.8372616735287042
 40
0.9184882400177241
 40
1.0
 40
1.0
 40
1.0
 40
1.0
 10
363.9890129750772
 20
112.0776845509198
 30
0.0
 10
363.9729973911764
 20
112.1068131531514
 30
0.0
 10
363.9411342251128
 20
112.1647648017363
 30
0.0
 10
363.8940903866931
 20
112.247522636956
 30
0.0
 10
363.8481118625174
 20
112.3266114954413
 30
0.0
 10
363.8033311957134
 20
112.4018284833761
 30
0.0
 10
363.7598474312774
 20
112.4732915384219
 30
0.0
 10
363.7177614676928
 20
112.54103294261
 30
0.0
 10
363.6771670032958
 20
112.6051064543544
 30
0.0
 10
363.6381520969462
 20
112.6655600534246
 30
0.0
 10
363.6008022744596
 20
112.7224375583514
 30
0.0
 10
363.5562740178683
 20
112.7891520314108
 30
0.0
 10
363.5076337573277
 20
112.8604723152745
 30
0.0
 10
363.4597946575718
 20
112.9290525677336
 30
0.0
 10
363.4221431454908
 20
112.9820688957757
 30
0.0
 10
363.3953204441034
 20
113.0193415519033
 30
0.0
 10
363.3785916132798
 20
113.0423789514834
 30
0.0
 10
363.3767432033159
 20
113.0449136767486
 30
0.0
 10
363.3758173786956
 20
113.046183260392
 30
0.0
  0
SPLINE
  5
E7
330
1F
100
AcDbEntity
  8
0
  6
Continuous
 62
     7
370
    25
100
AcDbSpline
210
0.0
220
0.0
230
1.0
 70
     8
 71
     3
 72
     8
 73
     4
 74
     0
 42
0.000000001
 43
0.00000001
 40
0.0
 40
0.0
 40
0.0
 40
0.0
 40
1.0
 40
1.0
 40
1.0
 40
1.0
 10
366.6511624942235
 20
111.8856935083418
 30
0.0
 10
366.6730478658667
 20
111.9100145245395
 30
0.0
 10
366.6949332375099
 20
111.9340391228619
 30
0.0
 10
366.7168186091529
 20
111.9577459749505
 30
0.0
  0
LINE
  5
E8
330
1F
100
AcDbEntity
  8
0
  6
Continuous
 62
     7
370
    25
100
AcDbLine
 10
366.6510026163
 20
111.885693296
 30
0.0
 11
364.2553401372
 21
111.885693296
 31
0.0
  0
SPLINE
  5
E9
330
1F
100
AcDbEntity
  8
0
  6
Continuous
 62
     7
370
    25
100
AcDbSpline
210
0.0
220
0.0
230
1.0
 70
     8
 71
     3
 72
     8
 73
     4
 74
     0
 42
0.000000001
 43
0.00000001
 40
0.0
 40
0.0
 40
0.0
 40
0.0
 40
1.0
 40
1.0
 40
1.0
 40
1.0
 10
345.7776268593252
 20
111.9578495424306
 30
0.0
 10
345.7995436318128
 20
111.9341090938715
 30
0.0
 10
345.8214604043003
 20
111.9100499420848
 30
0.0
 10
345.8433771767879
 20
111.8856935083419
 30
0.0
  0
SPLINE
  5
EA
330
1F
100
AcDbEntity
  8
0
  6
Continuous
 62
     7
370
    25
100
AcDbSpline
210
0.0
220
0.0
230
1.0
 70
     8
 71
     3
 72
    26
 73
    22
 74
     0
 42
0.000000001
 43
0.00000001
 40
0.0
 40
0.0
 40
0.0
 40
0.0
 40
0.0524616032245984
 40
0.1026497911584775
 40
0.1505654136713723
 40
0.1962094561589203
 40
0.2395830674744455
 40
0.2806875955357221
 40
0.3195246332747494
 40
0.3560960787422642
 40
0.3904042149164026
 40
0.4224518174656405
 40
0.4522423030205674
 40
0.4797799375650286
 40
0.5050701364955548
 40
0.5966477315635087
 40
0.6842052596254289
 40
0.768002620409792
 40
0.84833623390995
 40
0.9255424426774792
 40
1.0
 40
1.0
 40
1.0
 40
1.0
 10
348.2390216912353
 20
111.8857084003596
 30
0.0
 10
348.2568831755237
 20
111.9154818604008
 30
0.0
 10
348.2918321194994
 20
111.9737385522941
 30
0.0
 10
348.3425969529815
 20
112.0559375326587
 30
0.0
 10
348.3906669106232
 20
112.1320184015595
 30
0.0
 10
348.4360108833885
 20
112.2019697500257
 30
0.0
 10
348.4786368628922
 20
112.266076911978
 30
0.0
 10
348.5185431614068
 20
112.3245847514471
 30
0.0
 10
348.5557304905035
 20
112.3777733290727
 30
0.0
 10
348.5901993131576
 20
112.4259313692978
 30
0.0
 10
348.6219494015755
 20
112.4693560426148
 30
0.0
 10
348.6509838068993
 20
112.5083461335745
 30
0.0
 10
348.6772950936831
 20
112.5432002325599
 30
0.0
 10
348.7009117312454
 20
112.5742052254882
 30
0.0
 10
348.7405597519053
 20
112.6264516054168
 30
0.0
 10
348.792101929635
 20
112.6939849244715
 30
0.0
 10
348.8489325071528
 20
112.7661805205339
 30
0.0
 10
348.8930916192814
 20
112.8206628888577
 30
0.0
 10
348.9242680397271
 20
112.8579242828357
 30
0.0
 10
348.9437239857147
 20
112.8803851405182
 30
0.0
 10
348.945860548883
 20
112.883107163099
 30
0.0
 10
348.9469094696548
 20
112.884443508342
 30
0.0
  0
LINE
  5
EB
330
1F
100
AcDbEntity
  8
0
  6
Continuous
 62
     7
370
    25
100
AcDbLine
 10
348.2390216745
 20
111.885693296
 30
0.0
 11
345.8433768905
 21
111.885693296
 31
0.0
  0
LINE
  5
EC
330
1F
100
AcDbEntity
  8
0
  6
Continuous
 62
     7
370
    25
100
AcDbLine
 10
348.3138413361
 20
111.885693296
 30
0.0
 11
348.2387217886
 21
111.885693296
 31
0.0
  0
SPLINE
  5
ED
330
1F
100
AcDbEntity
  8
0
  6
Continuous
 62
     7
370
    25
100
AcDbSpline
210
0.0
220
0.0
230
1.0
 70
     8
 71
     3
 72
     8
 73
     4
 74
     0
 42
0.000000001
 43
0.00000001
 40
0.0
 40
0.0
 40
0.0
 40
0.0
 40
1.0
 40
1.0
 40
1.0
 40
1.0
 10
348.3138410688684
 20
111.8856935083419
 30
0.0
 10
348.3777498715282
 20
111.947662371773
 30
0.0
 10
348.4415247908802
 20
112.0116384368897
 30
0.0
 10
348.5048848567612
 20
112.0771730932354
 30
0.0
  0
SPLINE
  5
EE
330
1F
100
AcDbEntity
  8
0
  6
Continuous
 62
     7
370
    25
100
AcDbSpline
210
0.0
220
0.0
230
1.0
 70
     8
 71
     3
 72
    24
 73
    20
 74
     0
 42
0.000000001
 43
0.00000001
 40
0.0
 40
0.0
 40
0.0
 40
0.0
 40
0.0410168309165543
 40
0.0818356321233867
 40
0.122557668408599
 40
0.1632849263058868
 40
0.2041193531439227
 40
0.2451620975502011
 40
0.2865127793377935
 40
0.3282688142245627
 40
0.3705248143690148
 40
0.4133720798893533
 40
0.4568981901259621
 40
0.5011866971565184
 40
0.6001870884263307
 40
0.6987399491878605
 40
0.7976807785291141
 40
0.8978353515423612
 40
1.0
 40
1.0
 40
1.0
 40
1.0
 10
349.118467662636
 20
113.0458335896734
 30
0.0
 10
349.1182754748316
 20
113.0455697762834
 30
0.0
 10
349.1178920271077
 20
113.0450434231972
 30
0.0
 10
349.1138432101291
 20
113.0394799060876
 30
0.0
 10
349.1072539392814
 20
113.0304056739998
 30
0.0
 10
349.0978929412255
 20
113.017472829199
 30
0.0
 10
349.0858467122351
 20
113.0007571590904
 30
0.0
 10
349.0711246490272
 20
112.980216059228
 30
0.0
 10
349.0537648047248
 20
112.955833731883
 30
0.0
 10
349.0338054476507
 20
112.9275821591351
 30
0.0
 10
349.0112929025097
 20
112.8954318859416
 30
0.0
 10
348.9862789117878
 20
112.859348425715
 30
0.0
 10
348.9588235077645
 20
112.8192962040456
 30
0.0
 10
348.9168960060955
 20
112.7573693770291
 30
0.0
 10
348.8576875885032
 20
112.66805349749
 30
0.0
 10
348.7779079096729
 20
112.5435087780698
 30
0.0
 10
348.6919271477303
 20
112.4037240198299
 30
0.0
 10
348.6006423543403
 20
112.2493111916763
 30
0.0
 10
348.5374380011222
 20
112.1352651712739
 30
0.0
 10
348.5055218515809
 20
112.0776756278895
 30
0.0
  0
LINE
  5
EF
330
1F
100
AcDbEntity
  8
0
  6
Continuous
 62
     7
370
    25
100
AcDbLine
 10
345.4346287257
 20
103.3643883645
 30
0.0
 11
345.8588666475
 21
103.8131815373
 31
0.0
  0
SPLINE
  5
F0
330
1F
100
AcDbEntity
  8
0
  6
Continuous
 62
     7
370
    25
100
AcDbSpline
210
0.0
220
0.0
230
1.0
 70
     8
 71
     3
 72
    13
 73
     9
 74
     0
 42
0.000000001
 43
0.00000001
 40
0.0
 40
0.0
 40
0.0
 40
0.0
 40
0.1706413962576226
 40
0.3396133085159868
 40
0.5069741541658246
 40
0.6727840535203147
 40
0.8371048293461245
 40
1.0
 40
1.0
 40
1.0
 40
1.0
 10
345.8588663600291
 20
103.8131607668127
 30
0.0
 10
345.8638721156939
 20
103.8062090328019
 30
0.0
 10
345.8738346528053
 20
103.7923735776361
 30
0.0
 10
345.8867090094813
 20
103.7762455571746
 30
0.0
 10
345.8979755094816
 20
103.7635770251323
 30
0.0
 10
345.9074527180348
 20
103.7547210236449
 30
0.0
 10
345.9153344817791
 20
103.749209448587
 30
0.0
 10
345.9191488427449
 20
103.7485311700554
 30
0.0
 10
345.9210477140779
 20
103.748193508342
 30
0.0
  0
SPLINE
  5
F1
330
1F
100
AcDbEntity
  8
0
  6
Continuous
 62
     7
370
    25
100
AcDbSpline
210
0.0
220
0.0
230
1.0
 70
     8
 71
     3
 72
    13
 73
     9
 74
     0
 42
0.000000001
 43
0.00000001
 40
0.0
 40
0.0
 40
0.0
 40
0.0
 40
0.1620909846070204
 40
0.3259283018492867
 40
0.4915764692933093
 40
0.6590979120715708
 40
0.8285529848482707
 40
1.0
 40
1.0
 40
1.0
 40
1.0
 10
366.5734919802251
 20
103.748193508342
 30
0.0
 10
366.575368787752
 20
103.7485279533779
 30
0.0
 10
366.5791426231175
 20
103.7492004466872
 30
0.0
 10
366.5869892234845
 20
103.7546732705601
 30
0.0
 10
366.5964551256557
 20
103.7634922911623
 30
0.0
 10
366.6077362315801
 20
103.7761448455536
 30
0.0
 10
366.6206513884619
 20
103.7922971123984
 30
0.0
 10
366.6306475719985
 20
103.8061834930228
 30
0.0
 10
366.6356748683716
 20
103.8131672534444
 30
0.0
  0
LINE
  5
F2
330
1F
100
AcDbEntity
  8
0
  6
Continuous
 62
     7
370
    25
100
AcDbLine
 10
366.6356879479
 20
103.8131675675
 30
0.0
 11
367.0599100373
 21
103.3643883645
 31
0.0
  0
SPLINE
  5
F3
330
1F
100
AcDbEntity
  8
0
  6
Continuous
 62
     7
370
    25
100
AcDbSpline
210
0.0
220
0.0
230
1.0
 70
     8
 71
     3
 72
     8
 73
     4
 74
     0
 42
0.000000001
 43
0.00000001
 40
0.0
 40
0.0
 40
0.0
 40
0.0
 40
1.0
 40
1.0
 40
1.0
 40
1.0
 10
366.6356879093645
 20
103.8131678665116
 30
0.0
 10
366.6335044251234
 20
103.8160165320279
 30
0.0
 10
366.6313209408823
 20
103.8189573234254
 30
0.0
 10
366.6291374566412
 20
103.8219898207019
 30
0.0
  0
LINE
  5
F4
330
1F
100
AcDbEntity
  8
0
  6
Continuous
 62
     7
370
    25
100
AcDbLine
 10
366.6282345734
 20
103.8231937207
 30
0.0
 11
364.1894239194
 21
103.8231937207
 31
0.0
  0
LINE
  5
F5
330
1F
100
AcDbEntity
  8
0
  6
Continuous
 62
     7
370
    25
100
AcDbLine
 10
364.1806983582
 20
103.8231937207
 30
0.0
 11
364.1894201941
 21
103.8231937207
 31
0.0
  0
SPLINE
  5
F6
330
1F
100
AcDbEntity
  8
0
  6
Continuous
 62
     7
370
    25
100
AcDbSpline
210
0.0
220
0.0
230
1.0
 70
     8
 71
     3
 72
     8
 73
     4
 74
     0
 42
0.000000001
 43
0.00000001
 40
0.0
 40
0.0
 40
0.0
 40
0.0
 40
1.0
 40
1.0
 40
1.0
 40
1.0
 10
345.8663050040713
 20
103.8231935083496
 30
0.0
 10
345.8638190853847
 20
103.8197318090376
 30
0.0
 10
345.8613331666982
 20
103.8163876571287
 30
0.0
 10
345.8588472480117
 20
103.8131616651883
 30
0.0
  0
LINE
  5
F7
330
1F
100
AcDbEntity
  8
0
  6
Continuous
 62
     7
370
    25
100
AcDbLine
 10
348.303608895
 20
103.8231937207
 30
0.0
 11
345.8665211878
 21
103.8231937207
 31
0.0
  0
LINE
  5
F8
330
1F
100
AcDbEntity
  8
0
  6
Continuous
 62
     7
370
    25
100
AcDbLine
 10
348.3051185689
 20
103.8231937207
 30
0.0
 11
348.3138413361
 21
103.8231937207
 31
0.0
  0
SPLINE
  5
F9
330
1F
100
AcDbEntity
  8
0
  6
Continuous
 62
     7
370
    25
100
AcDbSpline
210
0.0
220
0.0
230
1.0
 70
     8
 71
     3
 72
    14
 73
    10
 74
     0
 42
0.000000001
 43
0.00000001
 40
0.0
 40
0.0
 40
0.0
 40
0.0
 40
0.0310276310563468
 40
0.0622853638073634
 40
0.1248003080232583
 40
0.2498289632704402
 40
0.4998892480125147
 40
0.7606946229852678
 40
1.0
 40
1.0
 40
1.0
 40
1.0
 10
345.2871758526923
 20
103.3664553337266
 30
0.0
 10
345.2915050052991
 20
103.3712390999227
 30
0.0
 10
345.3001954156178
 20
103.3808421088457
 30
0.0
 10
345.3175956318187
 20
103.4001357996928
 30
0.0
 10
345.3480708091598
 20
103.433899655531
 30
0.0
 10
345.4088902488805
 20
103.5013162672804
 30
0.0
 10
345.496779739741
 20
103.5987818416412
 30
0.0
 10
345.5996142449126
 20
103.7129234544386
 30
0.0
 10
345.6668182733112
 20
103.7877055939372
 30
0.0
 10
345.6989757210143
 20
103.8234892038986
 30
0.0
  0
LINE
  5
FA
330
1F
100
AcDbEntity
  8
0
  6
Continuous
 62
     7
370
    25
100
AcDbLine
 10
345.6986624009
 20
103.8231937207
 30
0.0
 11
345.8663051209
 21
103.8231937207
 31
0.0
  0
LINE
  5
FB
330
1F
100
AcDbEntity
  8
0
  6
Continuous
 62
     7
370
    25
100
AcDbLine
 10
366.6282345734
 20
103.8231937207
 30
0.0
 11
366.795884744
 21
103.8231937207
 31
0.0
  0
SPLINE
  5
FC
330
1F
100
AcDbEntity
  8
0
  6
Continuous
 62
     7
370
    25
100
AcDbSpline
210
0.0
220
0.0
230
1.0
 70
     8
 71
     3
 72
    11
 73
     7
 74
     0
 42
0.000000001
 43
0.00000001
 40
0.0
 40
0.0
 40
0.0
 40
0.0
 40
0.2392771049403341
 40
0.5001130256942852
 40
0.7515027953478858
 40
0.9999999999999999
 40
0.9999999999999999
 40
0.9999999999999999
 40
0.9999999999999999
 10
366.7955960559445
 20
103.8234658826338
 30
0.0
 10
366.8277496914924
 20
103.7876925793337
 30
0.0
 10
366.894953998252
 20
103.7129228057819
 30
0.0
 10
366.9979788942287
 20
103.5984670224376
 30
0.0
 10
367.1030681571435
 20
103.4823095228067
 30
0.0
 10
367.17274072843
 20
103.404924074373
 30
0.0
 10
367.207375436065
 20
103.3664552432072
 30
0.0
  0
LINE
  5
FD
330
1F
100
AcDbEntity
  8
0
  6
Continuous
 62
     7
370
    25
100
AcDbLine
 10
345.8433768905
 20
111.885693296
 30
0.0
 11
345.6988067559
 21
111.885693296
 31
0.0
  0
SPLINE
  5
FE
330
1F
100
AcDbEntity
  8
0
  6
Continuous
 62
     7
370
    25
100
AcDbSpline
210
0.0
220
0.0
230
1.0
 70
     8
 71
     3
 72
    11
 73
     7
 74
     0
 42
0.000000001
 43
0.00000001
 40
0.0
 40
0.0
 40
0.0
 40
0.0
 40
0.2392702280042807
 40
0.5001120575629275
 40
0.7515010343555971
 40
1.0
 40
1.0
 40
1.0
 40
1.0
 10
345.6990945702465
 20
111.8854221307318
 30
0.0
 10
345.6669363567407
 20
111.9212165644339
 30
0.0
 10
345.5997206798965
 20
111.9960325080527
 30
0.0
 10
345.4966792192996
 20
112.1105578470732
 30
0.0
 10
345.3915723854722
 20
112.2267871609244
 30
0.0
 10
345.3218891135223
 20
112.3042191672326
 30
0.0
 10
345.2872489081237
 20
112.3427113408616
 30
0.0
  0
SPLINE
  5
FF
330
1F
100
AcDbEntity
  8
0
  6
Continuous
 62
     7
370
    25
100
AcDbSpline
210
0.0
220
0.0
230
1.0
 70
     8
 71
     3
 72
    14
 73
    10
 74
     0
 42
0.000000001
 43
0.00000001
 40
0.0
 40
0.0
 40
0.0
 40
0.0
 40
0.0310294070691243
 40
0.0622870827657153
 40
0.1248019131202877
 40
0.2498303412940755
 40
0.4998901702452764
 40
0.7607014800997677
 40
1.0
 40
1.0
 40
1.0
 40
1.0
 10
367.2072791708541
 20
112.3427112325853
 30
0.0
 10
367.2029491151408
 20
112.3379242018834
 30
0.0
 10
367.1942571495485
 20
112.3283149245657
 30
0.0
 10
367.1768540826408
 20
112.3090095531572
 30
0.0
 10
367.1463743278272
 20
112.2752254266313
 30
0.0
 10
367.085545655663
 20
112.2077684398458
 30
0.0
 10
366.9976415984003
 20
112.1102430287296
 30
0.0
 10
366.8947905229168
 20
111.9960319164533
 30
0.0
 10
366.8275751442267
 20
111.9212036267424
 30
0.0
 10
366.7954131276493
 20
111.8853988936435
 30
0.0
  0
LINE
  5
100
330
1F
100
AcDbEntity
  8
0
  6
Continuous
 62
     7
370
    25
100
AcDbLine
 10
366.7957254878
 20
111.885693296
 30
0.0
 11
366.6511628038
 21
111.885693296
 31
0.0
  0
SPLINE
  5
101
330
1F
100
AcDbEntity
  8
0
  6
Continuous
 62
     7
370
    25
100
AcDbSpline
210
0.0
220
0.0
230
1.0
 70
     8
 71
     3
 72
    25
 73
    21
 74
     0
 42
0.000000001
 43
0.00000001
 40
0.0
 40
0.0
 40
0.0
 40
0.0
 40
0.0288760384313692
 40
0.0583531183783658
 40
0.088451525633814
 40
0.1191903155205619
 40
0.1505873770362948
 40
0.1826594973236526
 40
0.2154224255055343
 40
0.2488909351380441
 40
0.3610595498730073
 40
0.4984670937677304
 40
0.5822694576836376
 40
0.6661128179767729
 40
0.7499973339300703
 40
0.8007710075430434
 40
0.8511237940214326
 40
0.9010896183553655
 40
0.9507031993372874
 40
1.0
 40
1.0
 40
1.0
 40
1.0
 10
345.6980737693331
 20
111.960693508342
 30
0.0
 10
345.6957852737165
 20
111.9602654434559
 30
0.0
 10
345.6911606484954
 20
111.9594004037092
 30
0.0
 10
345.6808538624407
 20
111.9523278354888
 30
0.0
 10
345.6680199354147
 20
111.9407621253592
 30
0.0
 10
345.6524070223287
 20
111.9240591610022
 30
0.0
 10
345.6340847755595
 20
111.9021237904341
 30
0.0
 10
345.6130349370153
 20
111.8747257843257
 30
0.0
 10
345.5892596074357
 20
111.8416881813471
 30
0.0
 10
345.5422000787736
 20
111.7726942575715
 30
0.0
 10
345.4545041309665
 20
111.6326651723189
 30
0.0
 10
345.3369523248928
 20
111.413369884342
 30
0.0
 10
345.2254301869921
 20
111.1764398212538
 30
0.0
 10
345.133970863775
 20
110.9605979478561
 30
0.0
 10
345.0530892140465
 20
110.7590363268515
 30
0.0
 10
344.9869443119454
 20
110.5801682464855
 30
0.0
 10
344.9375937511705
 20
110.4287920453431
 30
0.0
 10
344.8926267342922
 20
110.2745478902216
 30
0.0
 10
344.8518690203753
 20
110.11839203514
 30
0.0
 10
344.8283743511564
 20
110.0131473281862
 30
0.0
 10
344.8166646397403
 20
109.960693508342
 30
0.0
  0
LINE
  5
102
330
1F
100
AcDbEntity
  8
0
  6
Continuous
 62
     7
370
    25
100
AcDbLine
 10
344.3766015775
 20
110.0417812347
 30
0.0
 11
344.8166645325
 21
109.9606935393
 31
0.0
  0
LINE
  5
103
330
1F
100
AcDbEntity
  8
0
  6
Continuous
 62
     7
370
    25
100
AcDbLine
 10
344.3766015775
 20
105.667105782
 30
0.0
 11
344.8166645325
 21
105.7481934774
 31
0.0
  0
SPLINE
  5
104
330
1F
100
AcDbEntity
  8
0
  6
Continuous
 62
     7
370
    25
100
AcDbSpline
210
0.0
220
0.0
230
1.0
 70
     8
 71
     3
 72
    25
 73
    21
 74
     0
 42
0.000000001
 43
0.00000001
 40
0.0
 40
0.0
 40
0.0
 40
0.0
 40
0.0274788604641471
 40
0.0560415803756861
 40
0.0856946775792605
 40
0.1164439744537836
 40
0.1482946901245902
 40
0.1812515183589069
 40
0.2153186936395745
 40
0.2505000474389782
 40
0.3330513345461574
 40
0.5015080140592625
 40
0.5771733427896686
 40
0.6489103136091149
 40
0.7167630290819003
 40
0.7807837094916569
 40
0.8410346307231715
 40
0.8975906151553291
 40
0.9505422438478061
 40
1.0
 40
1.0
 40
1.0
 40
1.0
 10
344.8166646397403
 20
105.748193508342
 30
0.0
 10
344.8233728070838
 20
105.7190113038237
 30
0.0
 10
344.837053734641
 20
105.6594958496736
 30
0.0
 10
344.8598184632949
 20
105.5691053526132
 30
0.0
 10
344.884696100537
 20
105.4759737434911
 30
0.0
 10
344.9118353385485
 20
105.3803876992154
 30
0.0
 10
344.9411967456038
 20
105.2826342296047
 30
0.0
 10
344.9727819157969
 20
105.1830535535398
 30
0.0
 10
345.0066287860326
 20
105.082044413996
 30
0.0
 10
345.0583300138741
 20
104.9352776065599
 30
0.0
 10
345.162689054058
 20
104.6710111960675
 30
0.0
 10
345.2835647864978
 20
104.4010355626964
 30
0.0
 10
345.3970625704461
 20
104.1836186679472
 30
0.0
 10
345.4683413261532
 20
104.053908594102
 30
0.0
 10
345.5304194100955
 20
103.9500328574208
 30
0.0
 10
345.5830046750405
 20
103.8701755766842
 30
0.0
 10
345.6262502557391
 20
103.8121624548914
 30
0.0
 10
345.6598537591345
 20
103.7740647054414
 30
0.0
 10
345.6847954957529
 20
103.7520668933531
 30
0.0
 10
345.6937495052919
 20
103.7494549328352
 30
0.0
 10
345.6980737693331
 20
103.748193508342
 30
0.0
  0
LINE
  5
105
330
1F
100
AcDbEntity
  8
0
  6
Continuous
 62
     7
370
    25
100
AcDbLine
 10
368.1179381168
 20
110.0417812347
 30
0.0
 11
367.6778751618
 21
109.9606935393
 31
0.0
  0
SPLINE
  5
106
330
1F
100
AcDbEntity
  8
0
  6
Continuous
 62
     7
370
    25
100
AcDbSpline
210
0.0
220
0.0
230
1.0
 70
     8
 71
     3
 72
    25
 73
    21
 74
     0
 42
0.000000001
 43
0.00000001
 40
0.0
 40
0.0
 40
0.0
 40
0.0
 40
0.0274788604654442
 40
0.056041580377909
 40
0.0856946775820365
 40
0.1164439744567415
 40
0.1482946901273582
 40
0.1812515183611145
 40
0.2153186936408523
 40
0.2505000474389562
 40
0.3330513345614171
 40
0.501508014059295
 40
0.5771733427892068
 40
0.6489103136082959
 40
0.7167630290808632
 40
0.7807837094905402
 40
0.8410346307221177
 40
0.8975906151544816
 40
0.9505422438473099
 40
0.9999999999999999
 40
0.9999999999999999
 40
0.9999999999999999
 40
0.9999999999999999
 10
367.6778750545627
 20
109.960693508342
 30
0.0
 10
367.6711668872188
 20
109.9898757128616
 30
0.0
 10
367.6574859596611
 20
110.0493911670141
 30
0.0
 10
367.6347212310066
 20
110.1397816640775
 30
0.0
 10
367.609843593764
 20
110.2329132732012
 30
0.0
 10
367.5827043557525
 20
110.3284993174775
 30
0.0
 10
367.5533429486973
 20
110.4262527870875
 30
0.0
 10
367.5217577785045
 20
110.5258334631505
 30
0.0
 10
367.4879109082696
 20
110.6268426026914
 30
0.0
 10
367.4362096804228
 20
110.7736094101399
 30
0.0
 10
367.3318506402404
 20
111.0378758206303
 30
0.0
 10
367.2109749078001
 20
111.3078514539975
 30
0.0
 10
367.097477123857
 20
111.5252683487358
 30
0.0
 10
367.0261983681499
 20
111.6549784225804
 30
0.0
 10
366.9641202842076
 20
111.7588541592616
 30
0.0
 10
366.9115350192627
 20
111.8387114399985
 30
0.0
 10
366.868289438564
 20
111.8967245617917
 30
0.0
 10
366.8346859351685
 20
111.9348223112421
 30
0.0
 10
366.8097441985502
 20
111.9568201233307
 30
0.0
 10
366.8007901890111
 20
111.9594320838487
 30
0.0
 10
366.7964659249699
 20
111.960693508342
 30
0.0
  0
SPLINE
  5
107
330
1F
100
AcDbEntity
  8
0
  6
Continuous
 62
     7
370
    25
100
AcDbSpline
210
0.0
220
0.0
230
1.0
 70
     8
 71
     3
 72
    25
 73
    21
 74
     0
 42
0.000000001
 43
0.00000001
 40
0.0
 40
0.0
 40
0.0
 40
0.0
 40
0.0288760384326684
 40
0.0583531183805949
 40
0.0884515256366019
 40
0.1191903155235368
 40
0.1505873770390838
 40
0.1826594973258841
 40
0.2154224255068367
 40
0.248890935138047
 40
0.3610595498851897
 40
0.4984670937677722
 40
0.5822694576839043
 40
0.6661128179770407
 40
0.7499973339301137
 40
0.8007710075465662
 40
0.8511237940266996
 40
0.9010896183606294
 40
0.9507031993407967
 40
1.0
 40
1.0
 40
1.0
 40
1.0
 10
366.7964659249699
 20
103.748193508342
 30
0.0
 10
366.7987544205867
 20
103.7486215732281
 30
0.0
 10
366.8033790458084
 20
103.7494866129748
 30
0.0
 10
366.8136858318635
 20
103.7565591811957
 30
0.0
 10
366.8265197588897
 20
103.768124891326
 30
0.0
 10
366.8421326719758
 20
103.7848278556835
 30
0.0
 10
366.8604549187449
 20
103.8067632262519
 30
0.0
 10
366.8815047572888
 20
103.8341612323602
 30
0.0
 10
366.9052800868678
 20
103.8671988353382
 30
0.0
 10
366.9523396155334
 20
103.9361927591177
 30
0.0
 10
367.0400355633383
 20
104.0762218443728
 30
0.0
 10
367.157587369414
 20
104.2955171323517
 30
0.0
 10
367.2691095073134
 20
104.5324471954299
 30
0.0
 10
367.3605688305305
 20
104.7482890688275
 30
0.0
 10
367.4414504802582
 20
104.9498506898357
 30
0.0
 10
367.5075953823592
 20
105.1287187702074
 30
0.0
 10
367.5569459431355
 20
105.2800949713554
 30
0.0
 10
367.6019129600139
 20
105.4343391264772
 30
0.0
 10
367.6426706739296
 20
105.5904949815533
 30
0.0
 10
367.6661653431473
 20
105.6957396885015
 30
0.0
 10
367.6778750545627
 20
105.748193508342
 30
0.0
  0
LINE
  5
108
330
1F
100
AcDbEntity
  8
0
  6
Continuous
 62
     7
370
    25
100
AcDbLine
 10
368.1179381168
 20
105.667105782
 30
0.0
 11
367.6778751618
 21
105.7481934774
 31
0.0
  0
SPLINE
  5
109
330
1F
100
AcDbEntity
  8
0
  6
Continuous
 62
     7
370
    25
100
AcDbSpline
210
0.0
220
0.0
230
1.0
 70
     8
 71
     3
 72
    14
 73
    10
 74
     0
 42
0.000000001
 43
0.00000001
 40
0.0
 40
0.0
 40
0.0
 40
0.0
 40
0.1360076199023033
 40
0.2972875949100216
 40
0.4461282624639311
 40
0.5954411174368357
 40
0.7625617924851387
 40
0.9159220835772914
 40
0.9999999999999999
 40
0.9999999999999999
 40
0.9999999999999999
 40
0.9999999999999999
 10
365.1451275876729
 20
105.748193477422
 30
0.0
 10
365.1098836026609
 20
105.627765090328
 30
0.0
 10
365.0328467458527
 20
105.3645308275433
 30
0.0
 10
364.8921387510354
 20
104.9909329481513
 30
0.0
 10
364.7431855155518
 20
104.6389731398642
 30
0.0
 10
364.5853674903988
 20
104.3262594577761
 30
0.0
 10
364.4387539264243
 20
104.0687021351181
 30
0.0
 10
364.3369648057356
 20
103.8933747468388
 30
0.0
 10
364.3036792483232
 20
103.8407176036212
 30
0.0
 10
364.2918926856486
 20
103.8220714769811
 30
0.0
  0
SPLINE
  5
10A
330
1F
100
AcDbEntity
  8
0
  6
Continuous
 62
     7
370
    25
100
AcDbSpline
210
0.0
220
0.0
230
1.0
 70
     8
 71
     3
 72
    14
 73
    10
 74
     0
 42
0.000000001
 43
0.00000001
 40
0.0
 40
0.0
 40
0.0
 40
0.0
 40
0.1360076199023033
 40
0.2972875949100216
 40
0.4461282624639311
 40
0.5954411174368357
 40
0.7625617924851387
 40
0.9159220835772914
 40
0.9999999999999999
 40
0.9999999999999999
 40
0.9999999999999999
 40
0.9999999999999999
 10
347.34941210663
 20
109.9606935392619
 30
0.0
 10
347.384656091642
 20
110.0811219263559
 30
0.0
 10
347.4616929484503
 20
110.3443561891406
 30
0.0
 10
347.6024009432675
 20
110.7179540685326
 30
0.0
 10
347.7513541787511
 20
111.0699138768197
 30
0.0
 10
347.9091722039042
 20
111.3826275589078
 30
0.0
 10
348.0557857678787
 20
111.6401848815658
 30
0.0
 10
348.1575748885673
 20
111.8155122698451
 30
0.0
 10
348.1908604459798
 20
111.8681694130628
 30
0.0
 10
348.2026470086543
 20
111.8868155397028
 30
0.0
  0
SPLINE
  5
10B
330
1F
100
AcDbEntity
  8
0
  6
Continuous
 62
     7
370
    25
100
AcDbSpline
210
0.0
220
0.0
230
1.0
 70
     8
 71
     3
 72
    13
 73
     9
 74
     0
 42
0.000000001
 43
0.00000001
 40
0.0
 40
0.0
 40
0.0
 40
0.0
 40
0.0209231687006471
 40
0.099652735293461
 40
0.2366175085658954
 40
0.3989167011792346
 40
0.7006242265567528
 40
1.0
 40
1.0
 40
1.0
 40
1.0
 10
348.2004360488622
 20
103.8232891812474
 30
0.0
 10
348.1976076265609
 20
103.8277409078735
 30
0.0
 10
348.1841364347485
 20
103.8489435632369
 30
0.0
 10
348.136799654294
 20
103.9260486484568
 30
0.0
 10
348.0432652782804
 20
104.0819435428876
 30
0.0
 10
347.8636575780965
 20
104.4144304989353
 30
0.0
 10
347.5946322387066
 20
104.962417549688
 30
0.0
 10
347.4309404836163
 20
105.4869464275956
 30
0.0
 10
347.34941210663
 20
105.748193477422
 30
0.0
  0
LINE
  5
10C
330
1F
100
AcDbEntity
  8
0
  6
Continuous
 62
     7
370
    25
100
AcDbLine
 10
347.6656724892
 20
109.8858301054
 30
0.0
 11
347.3494121066
 21
109.9606935393
 31
0.0
  0
SPLINE
  5
10D
330
1F
100
AcDbEntity
  8
0
  6
Continuous
 62
     7
370
    25
100
AcDbSpline
210
0.0
220
0.0
230
1.0
 70
     8
 71
     3
 72
    25
 73
    21
 74
     0
 42
0.000000001
 43
0.00000001
 40
0.0
 40
0.0
 40
0.0
 40
0.0
 40
0.0278040781434126
 40
0.0555497219928001
 40
0.0833079149807706
 40
0.1111495445107108
 40
0.1391448641105942
 40
0.1673629793305536
 40
0.1958713754533302
 40
0.2247355016368484
 40
0.2540184217407588
 40
0.3796733112844407
 40
0.5056490307767938
 40
0.6297529978395443
 40
0.7535891429682601
 40
0.803864831731909
 40
0.8533521433014638
 40
0.9023387809672805
 40
0.9511213072434526
 40
1.0
 40
1.0
 40
1.0
 40
1.0
 10
348.533293757863
 20
112.1281917995245
 30
0.0
 10
348.5331489656821
 20
112.1279305978382
 30
0.0
 10
348.532859685622
 20
112.1274087434188
 30
0.0
 10
348.5292410744472
 20
112.1208723356594
 30
0.0
 10
348.5232992884538
 20
112.1101106418745
 30
0.0
 10
348.5148264552445
 20
112.0947035200412
 30
0.0
 10
348.5039112385493
 20
112.0747469648848
 30
0.0
 10
348.4905728250824
 20
112.0501928323874
 30
0.0
 10
348.4748606885565
 20
112.0210283764655
 30
0.0
 10
348.4568226336224
 20
111.9872205074826
 30
0.0
 10
348.4144000894307
 20
111.9068044716166
 30
0.0
 10
348.3338767951955
 20
111.7498115844412
 30
0.0
 10
348.2004500834437
 20
111.4680251334506
 30
0.0
 10
348.0563732657068
 20
111.1301533966487
 30
0.0
 10
347.940691996369
 20
110.8214630544611
 30
0.0
 10
347.8581763787707
 20
110.5754186459806
 30
0.0
 10
347.8052511294252
 20
110.4065787568103
 30
0.0
 10
347.7553948021375
 20
110.2352628354961
 30
0.0
 10
347.7083812758785
 20
110.0615940301109
 30
0.0
 10
347.6799178453651
 20
109.9444566007317
 30
0.0
 10
347.6656721162144
 20
109.8858302137418
 30
0.0
  0
LINE
  5
10E
330
1F
100
AcDbEntity
  8
0
  6
Continuous
 62
     7
370
    25
100
AcDbLine
 10
347.6656724892
 20
105.8230569113
 30
0.0
 11
347.3494121066
 21
105.7481934774
 31
0.0
  0
SPLINE
  5
10F
330
1F
100
AcDbEntity
  8
0
  6
Continuous
 62
     7
370
    25
100
AcDbSpline
210
0.0
220
0.0
230
1.0
 70
     8
 71
     3
 72
    25
 73
    21
 74
     0
 42
0.000000001
 43
0.00000001
 40
0.0
 40
0.0
 40
0.0
 40
0.0
 40
0.026982273473527
 40
0.0539275173142923
 40
0.0808923933121463
 40
0.1079334398456785
 40
0.1351067198425748
 40
0.1624674833930911
 40
0.190069854785159
 40
0.2179665520625999
 40
0.2462086451090141
 40
0.3700054907662995
 40
0.4947546150767049
 40
0.6210441689190529
 40
0.744655926093182
 40
0.7967061717760723
 40
0.8478614515024104
 40
0.898521112282786
 40
0.9490962471828303
 40
0.9999999999999999
 40
0.9999999999999999
 40
0.9999999999999999
 40
0.9999999999999999
 10
347.6656721162144
 20
105.8230568029421
 30
0.0
 10
347.6734514182269
 20
105.7906663202807
 30
0.0
 10
347.6889993461798
 20
105.7259298066487
 30
0.0
 10
347.713681107895
 20
105.6292963436817
 30
0.0
 10
347.7392983365131
 20
105.5332109036574
 30
0.0
 10
347.7659395182325
 20
105.4377028507432
 30
0.0
 10
347.7935642199342
 20
105.342777960834
 30
0.0
 10
347.8221668590721
 20
105.2484473040078
 30
0.0
 10
347.8517313016939
 20
105.1547221536548
 30
0.0
 10
347.8822484232174
 20
105.0616050494745
 30
0.0
 10
347.9489858226796
 20
104.8653297475775
 30
0.0
 10
348.0561711794215
 20
104.5792507794161
 30
0.0
 10
348.1999512254294
 20
104.2419610134631
 30
0.0
 10
348.3331996937167
 20
103.9604518011932
 30
0.0
 10
348.4208708670994
 20
103.7894608793237
 30
0.0
 10
348.4717459031961
 20
103.693548060047
 30
0.0
 10
348.4994150577927
 20
103.6423308567534
 30
0.0
 10
348.5191139759247
 20
103.6063480626259
 30
0.0
 10
348.5313614846244
 20
103.584178174315
 30
0.0
 10
348.532648277781
 20
103.5818587065799
 30
0.0
 10
348.533293757863
 20
103.5806952171594
 30
0.0
  0
LINE
  5
110
330
1F
100
AcDbEntity
  8
0
  6
Continuous
 62
     7
370
    25
100
AcDbLine
 10
364.8288672051
 20
105.8230569113
 30
0.0
 11
365.1451275877
 21
105.7481934774
 31
0.0
  0
SPLINE
  5
111
330
1F
100
AcDbEntity
  8
0
  6
Continuous
 62
     7
370
    25
100
AcDbSpline
210
0.0
220
0.0
230
1.0
 70
     8
 71
     3
 72
    25
 73
    21
 74
     0
 42
0.000000001
 43
0.00000001
 40
0.0
 40
0.0
 40
0.0
 40
0.0
 40
0.027804078142951
 40
0.0555497219919932
 40
0.0833079149797353
 40
0.1111495445095628
 40
0.1391448641094478
 40
0.1673629793295198
 40
0.1958713754525174
 40
0.2247355016363604
 40
0.2540184217406962
 40
0.3796733112831765
 40
0.5056490307767918
 40
0.6297529978411639
 40
0.7535891429683215
 40
0.8038648317329079
 40
0.8533521433029442
 40
0.9023387809687651
 40
0.951121307244446
 40
1.0
 40
1.0
 40
1.0
 40
1.0
 10
363.96124593644
 20
103.5806952171595
 30
0.0
 10
363.9613907286209
 20
103.5809564188457
 30
0.0
 10
363.9616800086809
 20
103.5814782732651
 30
0.0
 10
363.9652986198558
 20
103.5880146810245
 30
0.0
 10
363.9712404058492
 20
103.5987763748095
 30
0.0
 10
363.9797132390585
 20
103.6141834966428
 30
0.0
 10
363.9906284557538
 20
103.6341400517991
 30
0.0
 10
364.0039668692206
 20
103.6586941842966
 30
0.0
 10
364.0196790057465
 20
103.6878586402185
 30
0.0
 10
364.0377170606806
 20
103.7216665092014
 30
0.0
 10
364.0801396048714
 20
103.8020825450659
 30
0.0
 10
364.1606628991066
 20
103.9590754322409
 30
0.0
 10
364.2940896108595
 20
104.2408618832339
 30
0.0
 10
364.4381664285964
 20
104.5787336200359
 30
0.0
 10
364.5538476979348
 20
104.8874239622253
 30
0.0
 10
364.6363633155332
 20
105.1334683707064
 30
0.0
 10
364.6892885648792
 20
105.3023082598784
 30
0.0
 10
364.7391448921668
 20
105.4736241811926
 30
0.0
 10
364.7861584184251
 20
105.647292986576
 30
0.0
 10
364.8146218489382
 20
105.7644304159534
 30
0.0
 10
364.8288675780886
 20
105.8230568029421
 30
0.0
  0
SPLINE
  5
112
330
1F
100
AcDbEntity
  8
0
  6
Continuous
 62
     7
370
    25
100
AcDbSpline
210
0.0
220
0.0
230
1.0
 70
     8
 71
     3
 72
    13
 73
     9
 74
     0
 42
0.000000001
 43
0.00000001
 40
0.0
 40
0.0
 40
0.0
 40
0.0
 40
0.0209231687006471
 40
0.099652735293461
 40
0.2366175085658954
 40
0.3989167011792346
 40
0.7006242265567528
 40
1.0
 40
1.0
 40
1.0
 40
1.0
 10
364.2941036454408
 20
111.8855978354365
 30
0.0
 10
364.2969320677421
 20
111.8811461088104
 30
0.0
 10
364.3104032595545
 20
111.859943453447
 30
0.0
 10
364.357740040009
 20
111.7828383682272
 30
0.0
 10
364.4512744160226
 20
111.6269434737963
 30
0.0
 10
364.6308821162064
 20
111.2944565177486
 30
0.0
 10
364.8999074555964
 20
110.7464694669959
 30
0.0
 10
365.0635992106867
 20
110.2219405890883
 30
0.0
 10
365.1451275876729
 20
109.9606935392619
 30
0.0
  0
LINE
  5
113
330
1F
100
AcDbEntity
  8
0
  6
Continuous
 62
     7
370
    25
100
AcDbLine
 10
364.8288672051
 20
109.8858301054
 30
0.0
 11
365.1451275877
 21
109.9606935393
 31
0.0
  0
SPLINE
  5
114
330
1F
100
AcDbEntity
  8
0
  6
Continuous
 62
     7
370
    25
100
AcDbSpline
210
0.0
220
0.0
230
1.0
 70
     8
 71
     3
 72
    14
 73
    10
 74
     0
 42
0.000000001
 43
0.00000001
 40
0.0
 40
0.0
 40
0.0
 40
0.0
 40
0.1400355910642626
 40
0.2837945360341939
 40
0.4267318523415935
 40
0.5707687875929172
 40
0.7165842807901215
 40
0.8593077933468638
 40
1.0
 40
1.0
 40
1.0
 40
1.0
 10
364.8288672051398
 20
109.885830105424
 30
0.0
 10
364.7921044242954
 20
110.0313753433692
 30
0.0
 10
364.7176013907895
 20
110.3263356671036
 30
0.0
 10
364.5824136310085
 20
110.7443978740466
 30
0.0
 10
364.4385234601261
 20
111.129465550628
 30
0.0
 10
364.294387758812
 20
111.4672734828133
 30
0.0
 10
364.1619907097223
 20
111.7472138270289
 30
0.0
 10
364.0510708447611
 20
111.9633546785237
 30
0.0
 10
364.0097349784909
 20
112.0394179088408
 30
0.0
 10
363.989215177205
 20
112.0771769426317
 30
0.0
  0
ARC
  5
115
330
1F
100
AcDbEntity
  8
0
  6
Continuous
 62
     7
370
    25
100
AcDbCircle
 10
356.2472698472
 20
107.8544435083
 30
0.0
 40
11.62303852141066
100
AcDbArc
 50
169.5595567507
 51
190.4404432494
  0
ARC
  5
116
330
1F
100
AcDbEntity
  8
0
  6
Continuous
 62
     7
370
    25
100
AcDbCircle
 10
356.2472698472
 20
107.8544435083
 30
0.0
 40
9.143750000000061
100
AcDbArc
 50
166.6824039243
 51
193.3175960757
  0
ARC
  5
117
330
1F
100
AcDbEntity
  8
0
  6
Continuous
 62
     7
370
    25
100
AcDbCircle
 10
356.2472698472
 20
107.8544435083
 30
0.0
 40
8.81874999999997
100
AcDbArc
 50
166.6824039243
 51
193.3175960757
  0
ARC
  5
118
330
1F
100
AcDbEntity
  8
0
  6
Continuous
 62
     7
370
    25
100
AcDbCircle
 10
356.2472698472
 20
107.8544435083
 30
0.0
 40
9.143750000000006
100
AcDbArc
 50
346.6824039243
 51
13.3175960757
  0
ARC
  5
119
330
1F
100
AcDbEntity
  8
0
  6
Continuous
 62
     7
370
    25
100
AcDbCircle
 10
356.2472698472
 20
107.8544435083
 30
0.0
 40
8.818750000000026
100
AcDbArc
 50
346.6824039243
 51
13.3175960757
  0
ARC
  5
11A
330
1F
100
AcDbEntity
  8
0
  6
Continuous
 62
     7
370
    25
100
AcDbCircle
 10
356.2472698472
 20
107.8544435083
 30
0.0
 40
11.6230385214107
100
AcDbArc
 50
349.5595567507
 51
10.4404432493
  0
CIRCLE
  5
11B
330
1F
100
AcDbEntity
  8
0
  6
Continuous
 62
     7
370
    25
100
AcDbCircle
 10
356.2472698472
 20
107.8544435083
 30
0.0
 40
7.775000000000034
  0
CIRCLE
  5
11C
330
1F
100
AcDbEntity
  8
0
  6
Continuous
 62
     7
370
    25
100
AcDbCircle
 10
356.2472698472
 20
107.8544435083
 30
0.0
 40
2.615470053837896
  0
CIRCLE
  5
11D
330
1F
100
AcDbEntity
  8
0
  6
Continuous
 62
     7
370
    25
100
AcDbCircle
 10
356.2472698472
 20
107.8544435083
 30
0.0
 40
2.5
  0
CIRCLE
  5
11E
330
1F
100
AcDbEntity
  8
0
  6
Continuous
 62
     7
370
    25
100
AcDbCircle
 10
356.2472698472
 20
107.8544435083
 30
0.0
 40
15.73750000000001
  0
CIRCLE
  5
11F
330
1F
100
AcDbEntity
  8
0
  6
Continuous
 62
     7
370
    25
100
AcDbCircle
 10
356.2472698472
 20
107.8544435083
 30
0.0
 40
13.42500000000001
  0
CIRCLE
  5
120
330
1F
100
AcDbEntity
  8
0
  6
Continuous
 62
     7
370
    25
100
AcDbCircle
 10
356.2472698472
 20
107.8544435083
 30
0.0
 40
2.0
  0
LINE
  5
121
330
1F
100
AcDbEntity
  8
0
  6
Continuous
 62
     7
370
    25
100
AcDbLine
 10
371.9972701005
 20
107.8544435083
 30
0.0
 11
371.9950833551
 21
108.1169190518
 31
0.0
  0
ARC
  5
122
330
1F
100
AcDbEntity
  8
0
  6
Continuous
 62
     7
370
    25
100
AcDbCircle
 10
356.2472698472
 20
107.8544435083
 30
0.0
 40
15.74999999999999
100
AcDbArc
 50
7.5963554118
 51
115.3572622221
  0
ARC
  5
123
330
1F
100
AcDbEntity
  8
0
  6
Continuous
 62
     7
370
    25
100
AcDbCircle
 10
356.2472698472
 20
107.8544435083
 30
0.0
 40
15.75000000000002
100
AcDbArc
 50
125.2280925165
 51
239.8900096554
  0
ARC
  5
124
330
1F
100
AcDbEntity
  8
0
  6
Continuous
 62
     7
370
    25
100
AcDbCircle
 10
356.2472698472
 20
107.8544435083
 30
0.0
 40
15.75
100
AcDbArc
 50
241.4590116336
 51
0.0
  0
CIRCLE
  5
125
330
1F
100
AcDbEntity
  8
0
  6
Continuous
 62
     7
370
    25
100
AcDbCircle
 10
356.2472698472
 20
107.8544435083
 30
0.0
 40
18.00000000000006
  0
LINE
  5
126
330
1F
100
AcDbEntity
  8
0
  6
CENTER
 62
     7
370
    18
100
AcDbLine
 10
356.2472698472
 20
107.8544435083
 30
0.0
 11
356.2472698472
 21
130.2381776374
 31
0.0
  0
LINE
  5
127
330
1F
100
AcDbEntity
  8
0
  6
CENTER
 62
     7
370
    18
100
AcDbLine
 10
356.2472698472
 20
107.8544435083
 30
0.0
 11
378.5672698472
 21
107.8544435083
 31
0.0
  0
LINE
  5
128
330
1F
100
AcDbEntity
  8
0
  6
Continuous
 62
     7
370
    18
100
AcDbLine
 10
368.2472698472
 20
128.2381776374
 30
0.0
 11
356.2472698472
 21
128.2381776374
 31
0.0
  0
SOLID
  5
129
330
1F
100
AcDbEntity
  8
0
  6
Continuous
 62
     7
370
    18
100
AcDbTrace
 10
356.2472698472
 20
128.2381776374
 30
0.0
 11
362.2472698472
 21
126.7381776374
 31
0.0
 12
362.2472698472
 22
129.7381776374
 32
0.0
 13
362.2472698472
 23
129.7381776374
 33
0.0
  0
LINE
  5
12A
330
1F
100
AcDbEntity
  8
0
  6
Continuous
 62
     7
370
    18
100
AcDbLine
 10
388.5672698472
 20
107.8544435083
 30
0.0
 11
376.5672698472
 21
107.8544435083
 31
0.0
  0
SOLID
  5
12B
330
1F
100
AcDbEntity
  8
0
  6
Continuous
 62
     7
370
    18
100
AcDbTrace
 10
376.5672698472
 20
107.8544435083
 30
0.0
 11
382.5672698472
 21
106.3544435083
 31
0.0
 12
382.5672698472
 22
109.3544435083
 32
0.0
 13
382.5672698472
 23
109.3544435083
 33
0.0
  0
MTEXT
  5
12C
330
1F
100
AcDbEntity
  8
0
  6
Continuous
 62
     7
100
AcDbMText
 10
365.0975405238
 20
134.8873505697
 30
0.0
 40
3.5
 41
0.0
 71
     1
 72
     1
  1
A
  7
SLDTEXTSTYLE0
 73
     1
 44
1.0
  0
MTEXT
  5
12D
330
1F
100
AcDbEntity
  8
0
  6
Continuous
 62
     7
100
AcDbMText
 10
385.4175405238
 20
105.6402689219
 30
0.0
 40
3.5
 41
0.0
 71
     1
 72
     1
  1
A
  7
SLDTEXTSTYLE0
 73
     1
 44
1.0
  0
LINE
  5
12E
330
1F
100
AcDbEntity
  8
0
  6
Continuous
 62
     7
370
    25
100
AcDbLine
 10
150.0004064055
 20
71.8225765587
 30
0.0
 11
202.6719792808
 21
71.8225765587
 31
0.0
  0
ARC
  5
12F
330
1F
100
AcDbEntity
  8
0
  6
Continuous
 62
     7
370
    25
100
AcDbCircle
 10
202.6719792808
 20
73.8225765587
 30
0.0
 40
2.000000000000028
100
AcDbArc
 50
270.0
 51
315.0
  0
LINE
  5
130
330
1F
100
AcDbEntity
  8
0
  6
Continuous
 62
     7
370
    25
100
AcDbLine
 10
145.5004064055
 20
76.3225765587
 30
0.0
 11
150.0004064055
 21
71.8225765587
 31
0.0
  0
LINE
  5
131
330
1F
100
AcDbEntity
  8
0
  6
Continuous
 62
     7
370
    25
100
AcDbLine
 10
204.0861928432
 20
72.4083629963
 30
0.0
 11
212.9146199679
 21
81.236790121
 31
0.0
  0
ARC
  5
132
330
1F
100
AcDbEntity
  8
0
  6
Continuous
 62
     7
370
    25
100
AcDbCircle
 10
123.7004064055
 20
76.5475765587
 30
0.0
 40
0.2000000000000028
100
AcDbArc
 50
180.0
 51
270.0
  0
LINE
  5
133
330
1F
100
AcDbEntity
  8
0
  6
Continuous
 62
     7
370
    25
100
AcDbLine
 10
123.7004064055
 20
76.3475765587
 30
0.0
 11
130.066208601
 21
76.3475765587
 31
0.0
  0
LINE
  5
134
330
1F
100
AcDbEntity
  8
0
  6
Continuous
 62
     7
370
    25
100
AcDbLine
 10
136.7346042101
 20
76.3475765587
 30
0.0
 11
145.5004064055
 21
76.3475765587
 31
0.0
  0
LINE
  5
135
330
1F
100
AcDbEntity
  8
0
  6
Continuous
 62
     7
370
    25
100
AcDbLine
 10
130.066208601
 20
76.3475765587
 30
0.0
 11
131.5254064055
 21
78.8749812945
 31
0.0
  0
LINE
  5
136
330
1F
100
AcDbEntity
  8
0
  6
Continuous
 62
     7
370
    25
100
AcDbLine
 10
135.2754064055
 20
78.8749812945
 30
0.0
 11
136.7346042101
 21
76.3475765587
 31
0.0
  0
ARC
  5
137
330
1F
100
AcDbEntity
  8
0
  6
Continuous
 62
     7
370
    25
100
AcDbCircle
 10
132.5254064055
 20
78.9725765587
 30
0.0
 40
1.0
100
AcDbArc
 50
90.0
 51
180.0
  0
ARC
  5
138
330
1F
100
AcDbEntity
  8
0
  6
Continuous
 62
     7
370
    25
100
AcDbCircle
 10
134.2754064055
 20
78.9725765587
 30
0.0
 40
1.000000000000028
100
AcDbArc
 50
0.0
 51
90.0
  0
LINE
  5
139
330
1F
100
AcDbEntity
  8
0
  6
Continuous
 62
     7
370
    25
100
AcDbLine
 10
132.5254064055
 20
79.9725765587
 30
0.0
 11
134.2754064055
 21
79.9725765587
 31
0.0
  0
ARC
  5
13A
330
1F
100
AcDbEntity
  8
0
  6
Continuous
 62
     7
370
    25
100
AcDbCircle
 10
211.5004064055
 20
82.6510036834
 30
0.0
 40
2.000000000000028
100
AcDbArc
 50
315.0
 51
0.0
  0
ARC
  5
13B
330
1F
100
AcDbEntity
  8
0
  6
Continuous
 62
     7
370
    25
100
AcDbCircle
 10
123.071471531
 20
82.2725765587
 30
0.0
 40
0.8000000000000038
100
AcDbArc
 50
57.576802718
 51
107.5
  0
LINE
  5
13C
330
1F
100
AcDbEntity
  8
0
  6
Continuous
 62
     7
370
    25
100
AcDbLine
 10
109.0139609375
 20
83.5500560379
 30
0.0
 11
122.3402243655
 21
82.8808385131
 31
0.0
  0
LINE
  5
13D
330
1F
100
AcDbEntity
  8
0
  6
Continuous
 62
     7
370
    25
100
AcDbLine
 10
85.0504064055
 20
84.7534564311
 30
0.0
 11
93.1052432691
 21
84.3489591001
 31
0.0
  0
LINE
  5
13E
330
1F
100
AcDbEntity
  8
0
  6
Continuous
 62
     7
370
    25
100
AcDbLine
 10
122.3402243655
 20
82.8808385131
 30
0.0
 11
122.8309068914
 21
83.0355501193
 31
0.0
  0
LINE
  5
13F
330
1F
100
AcDbEntity
  8
0
  6
Continuous
 62
     7
370
    25
100
AcDbLine
 10
83.5504064055
 20
85.6194818349
 30
0.0
 11
85.0504064055
 21
84.7534564311
 31
0.0
  0
LINE
  5
140
330
1F
100
AcDbEntity
  8
0
  6
Continuous
 62
     7
370
    25
100
AcDbLine
 10
197.5954064055
 20
143.9073403469
 30
0.0
 11
198.5954064055
 21
142.9073403469
 31
0.0
  0
LINE
  5
141
330
1F
100
AcDbEntity
  8
0
  6
Continuous
 62
     7
370
    25
100
AcDbLine
 10
181.4054064055
 20
142.9073403469
 30
0.0
 11
182.4054064055
 21
143.9073403469
 31
0.0
  0
LINE
  5
142
330
1F
100
AcDbEntity
  8
0
  6
Continuous
 62
     7
370
    25
100
AcDbLine
 10
183.0004064055
 20
123.4073403469
 30
0.0
 11
181.4054064055
 21
125.0023403469
 31
0.0
  0
LINE
  5
143
330
1F
100
AcDbEntity
  8
0
  6
Continuous
 62
     7
370
    25
100
AcDbLine
 10
181.4054064055
 20
125.0023403469
 30
0.0
 11
181.4054064055
 21
142.9073403469
 31
0.0
  0
LINE
  5
144
330
1F
100
AcDbEntity
  8
0
  6
Continuous
 62
     7
370
    25
100
AcDbLine
 10
182.4054064055
 20
143.9073403469
 30
0.0
 11
183.5004064055
 21
143.9073403469
 31
0.0
  0
LINE
  5
145
330
1F
100
AcDbEntity
  8
0
  6
Continuous
 62
     7
370
    25
100
AcDbLine
 10
184.8387291922
 20
142.5690175603
 30
0.0
 11
183.5004064055
 21
143.9073403469
 31
0.0
  0
LINE
  5
146
330
1F
100
AcDbEntity
  8
0
  6
Continuous
 62
     7
370
    25
100
AcDbLine
 10
184.8387291922
 20
142.5690175603
 30
0.0
 11
184.8387291922
 21
129.9073403469
 31
0.0
  0
LINE
  5
147
330
1F
100
AcDbEntity
  8
0
  6
Continuous
 62
     7
370
    25
100
AcDbLine
 10
185.0004064055
 20
129.9073403469
 30
0.0
 11
184.8387291922
 21
129.9073403469
 31
0.0
  0
LINE
  5
148
330
1F
100
AcDbEntity
  8
0
  6
Continuous
 62
     7
370
    25
100
AcDbLine
 10
190.0004064055
 20
126.9030372518
 30
0.0
 11
185.0004064055
 21
129.9073403469
 31
0.0
  0
LINE
  5
149
330
1F
100
AcDbEntity
  8
0
  6
Continuous
 62
     7
370
    25
100
AcDbLine
 10
195.0004064055
 20
129.9073403469
 30
0.0
 11
190.0004064055
 21
126.9030372518
 31
0.0
  0
LINE
  5
14A
330
1F
100
AcDbEntity
  8
0
  6
Continuous
 62
     7
370
    25
100
AcDbLine
 10
195.1620836189
 20
129.9073403469
 30
0.0
 11
195.0004064055
 21
129.9073403469
 31
0.0
  0
LINE
  5
14B
330
1F
100
AcDbEntity
  8
0
  6
Continuous
 62
     7
370
    25
100
AcDbLine
 10
195.1620836189
 20
129.9073403469
 30
0.0
 11
195.1620836189
 21
142.5690175603
 31
0.0
  0
LINE
  5
14C
330
1F
100
AcDbEntity
  8
0
  6
Continuous
 62
     7
370
    25
100
AcDbLine
 10
196.5004064055
 20
143.9073403469
 30
0.0
 11
195.1620836189
 21
142.5690175603
 31
0.0
  0
LINE
  5
14D
330
1F
100
AcDbEntity
  8
0
  6
Continuous
 62
     7
370
    25
100
AcDbLine
 10
196.5004064055
 20
143.9073403469
 30
0.0
 11
197.5954064055
 21
143.9073403469
 31
0.0
  0
LINE
  5
14E
330
1F
100
AcDbEntity
  8
0
  6
Continuous
 62
     7
370
    25
100
AcDbLine
 10
198.5954064055
 20
142.9073403469
 30
0.0
 11
198.5954064055
 21
125.0023403469
 31
0.0
  0
LINE
  5
14F
330
1F
100
AcDbEntity
  8
0
  6
Continuous
 62
     7
370
    25
100
AcDbLine
 10
198.5954064055
 20
125.0023403469
 30
0.0
 11
197.0004064055
 21
123.4073403469
 31
0.0
  0
LINE
  5
150
330
1F
100
AcDbEntity
  8
0
  6
Continuous
 62
     7
370
    25
100
AcDbLine
 10
197.0004064055
 20
123.4073403469
 30
0.0
 11
195.0004064055
 21
123.4073403469
 31
0.0
  0
LINE
  5
151
330
1F
100
AcDbEntity
  8
0
  6
Continuous
 62
     7
370
    25
100
AcDbLine
 10
190.0004064055
 20
126.2940916929
 30
0.0
 11
195.0004064055
 21
123.4073403469
 31
0.0
  0
LINE
  5
152
330
1F
100
AcDbEntity
  8
0
  6
Continuous
 62
     7
370
    25
100
AcDbLine
 10
185.0004064055
 20
123.4073403469
 30
0.0
 11
190.0004064055
 21
126.2940916929
 31
0.0
  0
LINE
  5
153
330
1F
100
AcDbEntity
  8
0
  6
Continuous
 62
     7
370
    25
100
AcDbLine
 10
185.0004064055
 20
123.4073403469
 30
0.0
 11
183.0004064055
 21
123.4073403469
 31
0.0
  0
SPLINE
  5
154
330
1F
100
AcDbEntity
  8
0
  6
Continuous
 62
     7
370
    25
100
AcDbSpline
210
0.0
220
0.0
230
1.0
 70
     8
 71
     3
 72
    12
 73
     8
 74
     0
 42
0.000000001
 43
0.00000001
 40
0.0
 40
0.0
 40
0.0
 40
0.0
 40
0.1315905471469139
 40
0.3474122519378916
 40
0.5638350872998827
 40
0.7817335860407743
 40
1.0
 40
1.0
 40
1.0
 40
1.0
 10
195.16208361888
 20
142.5690175602602
 30
0.0
 10
195.1802261974832
 20
142.5880370331212
 30
0.0
 10
195.2281244259286
 20
142.6382503504194
 30
0.0
 10
195.304638025859
 20
142.737430043993
 30
0.0
 10
195.3913257791168
 20
142.8689641444258
 30
0.0
 10
195.4768293591593
 20
143.0163313221918
 30
0.0
 10
195.5326867282061
 20
143.125974970954
 30
0.0
 10
195.5606389712225
 20
143.1808430388152
 30
0.0
  0
SPLINE
  5
155
330
1F
100
AcDbEntity
  8
0
  6
Continuous
 62
     7
370
    25
100
AcDbSpline
210
0.0
220
0.0
230
1.0
 70
     8
 71
     3
 72
    13
 73
     9
 74
     0
 42
0.000000001
 43
0.00000001
 40
0.0
 40
0.0
 40
0.0
 40
0.0
 40
0.1129015996049082
 40
0.2934022529346865
 40
0.4734060012156674
 40
0.6437135255192779
 40
0.8143673562173213
 40
1.0
 40
1.0
 40
1.0
 40
1.0
 10
195.5606389712225
 20
143.1808430388152
 30
0.0
 10
195.4143319590829
 20
143.0831163677705
 30
0.0
 10
195.0341176208262
 20
142.8291498557223
 30
0.0
 10
194.386085549817
 20
142.5294839025396
 30
0.0
 10
193.6269464533073
 20
142.3702171647286
 30
0.0
 10
192.8763686343416
 20
142.4538965774013
 30
0.0
 10
192.1406784810439
 20
142.7212614061245
 30
0.0
 10
191.6761346371611
 20
143.0234148347989
 30
0.0
 10
191.4340976582984
 20
143.1808430388152
 30
0.0
  0
SPLINE
  5
156
330
1F
100
AcDbEntity
  8
0
  6
Continuous
 62
     7
370
    25
100
AcDbSpline
210
0.0
220
0.0
230
1.0
 70
     8
 71
     3
 72
    12
 73
     8
 74
     0
 42
0.000000001
 43
0.00000001
 40
0.0
 40
0.0
 40
0.0
 40
0.0
 40
0.2161879022301678
 40
0.4397674032120192
 40
0.5934227156934545
 40
0.7522132509270724
 40
1.0
 40
1.0
 40
1.0
 40
1.0
 10
185.8738650926146
 20
143.1808430388152
 30
0.0
 10
186.2545790071441
 20
142.9996875818481
 30
0.0
 10
187.0290236815786
 20
142.6311828502406
 30
0.0
 10
188.167589486034
 20
142.3893474301613
 30
0.0
 10
189.2085374260985
 20
142.4120521333418
 30
0.0
 10
190.2776390053057
 20
142.6365798949329
 30
0.0
 10
190.9961837213383
 20
142.9747479782932
 30
0.0
 10
191.4340976582984
 20
143.1808430388153
 30
0.0
  0
SPLINE
  5
157
330
1F
100
AcDbEntity
  8
0
  6
Continuous
 62
     7
370
    25
100
AcDbSpline
210
0.0
220
0.0
230
1.0
 70
     8
 71
     3
 72
    17
 73
    13
 74
     0
 42
0.000000001
 43
0.00000001
 40
0.0
 40
0.0
 40
0.0
 40
0.0
 40
0.150748114659454
 40
0.3023301684023126
 40
0.3799695336821872
 40
0.4578323242790417
 40
0.5364854121544502
 40
0.6154554651035444
 40
0.7100294974757636
 40
0.8052338674918833
 40
0.9023231108161679
 40
1.0
 40
1.0
 40
1.0
 40
1.0
 10
185.8738650926146
 20
143.1808430388152
 30
0.0
 10
185.8253309691956
 20
143.0873095219549
 30
0.0
 10
185.7279942314215
 20
142.8997250605004
 30
0.0
 10
185.6005626778279
 20
142.7105106360596
 30
0.0
 10
185.4953800790468
 20
142.5864861065863
 30
0.0
 10
185.413978780026
 20
142.5098804656405
 30
0.0
 10
185.3311174643141
 20
142.4525735789075
 30
0.0
 10
185.2415761756479
 20
142.4143117359944
 30
0.0
 10
185.1456209675387
 20
142.4018610094456
 30
0.0
 10
185.043309550468
 20
142.4229725895281
 30
0.0
 10
184.9405306706576
 20
142.475975704841
 30
0.0
 10
184.8727312062403
 20
142.5379412878682
 30
0.0
 10
184.8387291921974
 20
142.5690175602603
 30
0.0
  0
LINE
  5
158
330
1F
100
AcDbEntity
  8
0
  6
Continuous
 62
     7
370
    25
100
AcDbLine
 10
196.5004064055
 20
143.9073403469
 30
0.0
 11
183.5004064055
 21
143.9073403469
 31
0.0
  0
LINE
  5
159
330
1F
100
AcDbEntity
  8
0
  6
Continuous
 62
     7
370
    25
100
AcDbLine
 10
195.0004064055
 20
123.4073403469
 30
0.0
 11
185.0004064055
 21
123.4073403469
 31
0.0
  0
LINE
  5
15A
330
1F
100
AcDbEntity
  8
0
  6
Continuous
 62
     7
370
    25
100
AcDbLine
 10
185.1570194662
 20
129.9073403469
 30
0.0
 11
185.0004064055
 21
129.9073403469
 31
0.0
  0
LINE
  5
15B
330
1F
100
AcDbEntity
  8
0
  6
Continuous
 62
     7
370
    25
100
AcDbLine
 10
188.6539813755
 20
129.9073403469
 30
0.0
 11
185.1570194662
 21
129.9073403469
 31
0.0
  0
LINE
  5
15C
330
1F
100
AcDbEntity
  8
0
  6
Continuous
 62
     7
370
    25
100
AcDbLine
 10
193.4973683148
 20
129.9073403469
 30
0.0
 11
188.6539813755
 21
129.9073403469
 31
0.0
  0
LINE
  5
15D
330
1F
100
AcDbEntity
  8
0
  6
Continuous
 62
     7
370
    25
100
AcDbLine
 10
195.0004064055
 20
129.9073403469
 30
0.0
 11
193.4973683148
 21
129.9073403469
 31
0.0
  0
LINE
  5
15E
330
1F
100
AcDbEntity
  8
0
  6
Continuous
 62
     7
370
    25
100
AcDbLine
 10
185.8738650926
 20
129.9073403469
 30
0.0
 11
185.8738650926
 21
143.1808430388
 31
0.0
  0
LINE
  5
15F
330
1F
100
AcDbEntity
  8
0
  6
Continuous
 62
     7
370
    25
100
AcDbLine
 10
191.4340976583
 20
129.9073403469
 30
0.0
 11
191.4340976583
 21
143.1808430388
 31
0.0
  0
LINE
  5
160
330
1F
100
AcDbEntity
  8
0
  6
Continuous
 62
     7
370
    25
100
AcDbLine
 10
155.0004064055
 20
123.4500443574
 30
0.0
 11
153.4054064055
 21
125.0450443574
 31
0.0
  0
LINE
  5
161
330
1F
100
AcDbEntity
  8
0
  6
Continuous
 62
     7
370
    25
100
AcDbLine
 10
153.4054064055
 20
125.0450443574
 30
0.0
 11
153.4054064055
 21
142.9500443574
 31
0.0
  0
LINE
  5
162
330
1F
100
AcDbEntity
  8
0
  6
Continuous
 62
     7
370
    25
100
AcDbLine
 10
153.4054064055
 20
142.9500443574
 30
0.0
 11
154.4054064055
 21
143.9500443574
 31
0.0
  0
LINE
  5
163
330
1F
100
AcDbEntity
  8
0
  6
Continuous
 62
     7
370
    25
100
AcDbLine
 10
154.4054064055
 20
143.9500443574
 30
0.0
 11
155.5004064055
 21
143.9500443574
 31
0.0
  0
LINE
  5
164
330
1F
100
AcDbEntity
  8
0
  6
Continuous
 62
     7
370
    25
100
AcDbLine
 10
156.9944065058
 20
142.4560442571
 30
0.0
 11
155.5004064055
 21
143.9500443574
 31
0.0
  0
LINE
  5
165
330
1F
100
AcDbEntity
  8
0
  6
Continuous
 62
     7
370
    25
100
AcDbLine
 10
156.9944065058
 20
129.9500443574
 30
0.0
 11
156.9944065058
 21
142.4560442571
 31
0.0
  0
LINE
  5
166
330
1F
100
AcDbEntity
  8
0
  6
Continuous
 62
     7
370
    25
100
AcDbLine
 10
157.0004064055
 20
129.9500443574
 30
0.0
 11
156.9944065058
 21
129.9500443574
 31
0.0
  0
LINE
  5
167
330
1F
100
AcDbEntity
  8
0
  6
Continuous
 62
     7
370
    25
100
AcDbLine
 10
162.0004064055
 20
126.9457412623
 30
0.0
 11
157.0004064055
 21
129.9500443574
 31
0.0
  0
LINE
  5
168
330
1F
100
AcDbEntity
  8
0
  6
Continuous
 62
     7
370
    25
100
AcDbLine
 10
167.0004064055
 20
129.9500443574
 30
0.0
 11
162.0004064055
 21
126.9457412623
 31
0.0
  0
LINE
  5
169
330
1F
100
AcDbEntity
  8
0
  6
Continuous
 62
     7
370
    25
100
AcDbLine
 10
167.0064063053
 20
129.9500443574
 30
0.0
 11
167.0004064055
 21
129.9500443574
 31
0.0
  0
LINE
  5
16A
330
1F
100
AcDbEntity
  8
0
  6
Continuous
 62
     7
370
    25
100
AcDbLine
 10
167.0064063053
 20
129.9500443574
 30
0.0
 11
167.0064063053
 21
142.4560442571
 31
0.0
  0
LINE
  5
16B
330
1F
100
AcDbEntity
  8
0
  6
Continuous
 62
     7
370
    25
100
AcDbLine
 10
168.5004064055
 20
143.9500443574
 30
0.0
 11
167.0064063053
 21
142.4560442571
 31
0.0
  0
LINE
  5
16C
330
1F
100
AcDbEntity
  8
0
  6
Continuous
 62
     7
370
    25
100
AcDbLine
 10
168.5004064055
 20
143.9500443574
 30
0.0
 11
169.5954064055
 21
143.9500443574
 31
0.0
  0
LINE
  5
16D
330
1F
100
AcDbEntity
  8
0
  6
Continuous
 62
     7
370
    25
100
AcDbLine
 10
169.5954064055
 20
143.9500443574
 30
0.0
 11
170.5954064055
 21
142.9500443574
 31
0.0
  0
LINE
  5
16E
330
1F
100
AcDbEntity
  8
0
  6
Continuous
 62
     7
370
    25
100
AcDbLine
 10
170.5954064055
 20
142.9500443574
 30
0.0
 11
170.5954064055
 21
125.0450443574
 31
0.0
  0
LINE
  5
16F
330
1F
100
AcDbEntity
  8
0
  6
Continuous
 62
     7
370
    25
100
AcDbLine
 10
170.5954064055
 20
125.0450443574
 30
0.0
 11
169.0004064055
 21
123.4500443574
 31
0.0
  0
LINE
  5
170
330
1F
100
AcDbEntity
  8
0
  6
Continuous
 62
     7
370
    25
100
AcDbLine
 10
169.0004064055
 20
123.4500443574
 30
0.0
 11
167.0004064055
 21
123.4500443574
 31
0.0
  0
LINE
  5
171
330
1F
100
AcDbEntity
  8
0
  6
Continuous
 62
     7
370
    25
100
AcDbLine
 10
162.0004064055
 20
126.3367957034
 30
0.0
 11
167.0004064055
 21
123.4500443574
 31
0.0
  0
LINE
  5
172
330
1F
100
AcDbEntity
  8
0
  6
Continuous
 62
     7
370
    25
100
AcDbLine
 10
157.0004064055
 20
123.4500443574
 30
0.0
 11
162.0004064055
 21
126.3367957034
 31
0.0
  0
LINE
  5
173
330
1F
100
AcDbEntity
  8
0
  6
Continuous
 62
     7
370
    25
100
AcDbLine
 10
157.0004064055
 20
123.4500443574
 30
0.0
 11
155.0004064055
 21
123.4500443574
 31
0.0
  0
SPLINE
  5
174
330
1F
100
AcDbEntity
  8
0
  6
Continuous
 62
     7
370
    25
100
AcDbSpline
210
0.0
220
0.0
230
1.0
 70
     8
 71
     3
 72
    13
 73
     9
 74
     0
 42
0.000000001
 43
0.00000001
 40
0.0
 40
0.0
 40
0.0
 40
0.0
 40
0.1469549274368003
 40
0.2948118424961119
 40
0.4451217339134349
 40
0.5961118683085416
 40
0.79761240102171
 40
0.9999999999999999
 40
0.9999999999999999
 40
0.9999999999999999
 40
0.9999999999999999
 10
167.0064063052686
 20
142.4560442571371
 30
0.0
 10
167.0130352179697
 20
142.4658583164589
 30
0.0
 10
167.0263337306581
 20
142.4855466723481
 30
0.0
 10
167.0461870334086
 20
142.5560106431029
 30
0.0
 10
167.0659261959561
 20
142.6542035429383
 30
0.0
 10
167.087603121743
 20
142.7946976518938
 30
0.0
 10
167.1110072621084
 20
142.9805906060835
 30
0.0
 10
167.1274615355296
 20
143.1424430751345
 30
0.0
 10
167.1357067416383
 20
143.2235470493037
 30
0.0
  0
SPLINE
  5
175
330
1F
100
AcDbEntity
  8
0
  6
Continuous
 62
     7
370
    25
100
AcDbSpline
210
0.0
220
0.0
230
1.0
 70
     8
 71
     3
 72
    12
 73
     8
 74
     0
 42
0.000000001
 43
0.00000001
 40
0.0
 40
0.0
 40
0.0
 40
0.0
 40
0.2161879022301678
 40
0.4397674032120187
 40
0.5934227156934556
 40
0.7522132509270759
 40
1.0
 40
1.0
 40
1.0
 40
1.0
 10
162.2829924949374
 20
143.2235470493037
 30
0.0
 10
162.6152620205606
 20
143.0423915923366
 30
0.0
 10
163.2911615734146
 20
142.6738868607291
 30
0.0
 10
164.2848492357233
 20
142.4320514406499
 30
0.0
 10
165.1933405333717
 20
142.4547561438303
 30
0.0
 10
166.1264030273056
 20
142.6792839054214
 30
0.0
 10
166.7535156775755
 20
143.0174519887817
 30
0.0
 10
167.1357067416383
 20
143.2235470493037
 30
0.0
  0
SPLINE
  5
176
330
1F
100
AcDbEntity
  8
0
  6
Continuous
 62
     7
370
    25
100
AcDbSpline
210
0.0
220
0.0
230
1.0
 70
     8
 71
     3
 72
    12
 73
     8
 74
     0
 42
0.000000001
 43
0.00000001
 40
0.0
 40
0.0
 40
0.0
 40
0.0
 40
0.2161879022301641
 40
0.4397674032120172
 40
0.5934227156934552
 40
0.7522132509270728
 40
1.0
 40
1.0
 40
1.0
 40
1.0
 10
162.2829924949374
 20
143.2235470493038
 30
0.0
 10
161.9313740562938
 20
143.0423915923366
 30
0.0
 10
161.2161151260363
 20
142.6738868607291
 30
0.0
 10
160.1645624635854
 20
142.4320514406499
 30
0.0
 10
159.2031673702458
 20
142.4547561438303
 30
0.0
 10
158.2157702363721
 20
142.6792839054214
 30
0.0
 10
157.5521391960954
 20
143.0174519887817
 30
0.0
 10
157.1476921588378
 20
143.2235470493038
 30
0.0
  0
SPLINE
  5
177
330
1F
100
AcDbEntity
  8
0
  6
Continuous
 62
     7
370
    25
100
AcDbSpline
210
0.0
220
0.0
230
1.0
 70
     8
 71
     3
 72
    14
 73
    10
 74
     0
 42
0.000000001
 43
0.00000001
 40
0.0
 40
0.0
 40
0.0
 40
0.0
 40
0.0259373866976795
 40
0.1800257328148309
 40
0.3356517704501443
 40
0.4956135719504857
 40
0.6567932805313754
 40
0.8280197449338929
 40
0.9999999999999999
 40
0.9999999999999999
 40
0.9999999999999999
 40
0.9999999999999999
 10
156.9944065058088
 20
142.4560442571374
 30
0.0
 10
156.9957849262503
 20
142.4548169811833
 30
0.0
 10
157.0053522412997
 20
142.44629872699
 30
0.0
 10
157.023240572332
 20
142.4535886900852
 30
0.0
 10
157.0480869709383
 20
142.5137701367443
 30
0.0
 10
157.0729106755281
 20
142.6236339244003
 30
0.0
 10
157.0979585966786
 20
142.7816607544004
 30
0.0
 10
157.1229922041658
 20
142.9806101928108
 30
0.0
 10
157.1394467941167
 20
143.1424496135964
 30
0.0
 10
157.1476921588378
 20
143.2235470493038
 30
0.0
  0
LINE
  5
178
330
1F
100
AcDbEntity
  8
0
  6
Continuous
 62
     7
370
    25
100
AcDbLine
 10
168.5004064055
 20
143.9500443574
 30
0.0
 11
155.5004064055
 21
143.9500443574
 31
0.0
  0
LINE
  5
179
330
1F
100
AcDbEntity
  8
0
  6
Continuous
 62
     7
370
    25
100
AcDbLine
 10
167.0004064055
 20
123.4500443574
 30
0.0
 11
157.0004064055
 21
123.4500443574
 31
0.0
  0
LINE
  5
17A
330
1F
100
AcDbEntity
  8
0
  6
Continuous
 62
     7
370
    25
100
AcDbLine
 10
157.0063991141
 20
129.9500443574
 30
0.0
 11
157.0004064055
 21
129.9500443574
 31
0.0
  0
LINE
  5
17B
330
1F
100
AcDbEntity
  8
0
  6
Continuous
 62
     7
370
    25
100
AcDbLine
 10
159.7153423269
 20
129.9500443574
 30
0.0
 11
157.0063991141
 21
129.9500443574
 31
0.0
  0
LINE
  5
17C
330
1F
100
AcDbEntity
  8
0
  6
Continuous
 62
     7
370
    25
100
AcDbLine
 10
164.7093496183
 20
129.9500443574
 30
0.0
 11
159.7153423269
 21
129.9500443574
 31
0.0
  0
LINE
  5
17D
330
1F
100
AcDbEntity
  8
0
  6
Continuous
 62
     7
370
    25
100
AcDbLine
 10
167.0004064055
 20
129.9500443574
 30
0.0
 11
164.7093496183
 21
129.9500443574
 31
0.0
  0
LINE
  5
17E
330
1F
100
AcDbEntity
  8
0
  6
Continuous
 62
     7
370
    25
100
AcDbLine
 10
157.1476921588
 20
129.9500443574
 30
0.0
 11
157.1476921588
 21
143.2235470493
 31
0.0
  0
LINE
  5
17F
330
1F
100
AcDbEntity
  8
0
  6
Continuous
 62
     7
370
    25
100
AcDbLine
 10
162.2829924949
 20
129.9500443574
 30
0.0
 11
162.2829924949
 21
143.2235470493
 31
0.0
  0
SPLINE
  5
180
330
1F
100
AcDbEntity
  8
0
  6
Continuous
 62
     7
370
    25
100
AcDbSpline
210
0.0
220
0.0
230
1.0
 70
     8
 71
     3
 72
    11
 73
     7
 74
     0
 42
0.000000001
 43
0.00000001
 40
0.0
 40
0.0
 40
0.0
 40
0.0
 40
0.3211571701193337
 40
0.6439804070493789
 40
0.9632328233262965
 40
1.0
 40
1.0
 40
1.0
 40
1.0
 10
180.0004064570625
 20
143.8225765586535
 30
0.0
 10
180.0354000735546
 20
143.8116440791592
 30
0.0
 10
180.1055688428968
 20
143.7897224057547
 30
0.0
 10
180.7316171804353
 20
143.6162441059372
 30
0.0
 10
181.3145799452529
 20
143.4498326220314
 30
0.0
 10
181.7820448219507
 20
143.3432611619143
 30
0.0
 10
181.8303212765352
 20
143.3322552179155
 30
0.0
  0
LWPOLYLINE
  5
181
330
1F
100
AcDbEntity
  8
0
  6
Continuous
 62
     7
370
    25
100
AcDbPolyline
 90
        7
 70
   128
 43
0.0
 10
198.1703899095
 20
143.332356843
 10
198.3107487764
 20
143.3645618479
 10
199.2344039671
 20
143.6054325477
 10
199.8087533679
 20
143.7660953732
 10
200.0004063445
 20
143.8225765559
 10
200.0004064019
 20
143.8225765587
 10
200.0004064019
 20
143.8225765587
  0
LINE
  5
182
330
1F
100
AcDbEntity
  8
0
  6
Continuous
 62
     7
370
    25
100
AcDbLine
 10
180.0004064571
 20
143.8225765587
 30
0.0
 11
172.0004064019
 21
143.8225765587
 31
0.0
  0
SPLINE
  5
183
330
1F
100
AcDbEntity
  8
0
  6
Continuous
 62
     7
370
    25
100
AcDbSpline
210
0.0
220
0.0
230
1.0
 70
     8
 71
     3
 72
    11
 73
     7
 74
     0
 42
0.000000001
 43
0.00000001
 40
0.0
 40
0.0
 40
0.0
 40
0.0
 40
0.3240494053349147
 40
0.649779881527
 40
0.9719073794366033
 40
1.0
 40
1.0
 40
1.0
 40
1.0
 10
152.0004064570625
 20
143.8225765586535
 30
0.0
 10
152.0353146273849
 20
143.8116542742052
 30
0.0
 10
152.1053120611189
 20
143.7897530437817
 30
0.0
 10
152.7326457621129
 20
143.6161213802772
 30
0.0
 10
153.3045727548812
 20
143.4523000649838
 30
0.0
 10
153.7591212052671
 20
143.3485431645416
 30
0.0
 10
153.7955824377058
 20
143.3402203895746
 30
0.0
  0
LWPOLYLINE
  5
184
330
1F
100
AcDbEntity
  8
0
  6
Continuous
 62
     7
370
    25
100
AcDbPolyline
 90
        7
 70
   128
 43
0.0
 10
170.2051242166
 20
143.3403265463
 10
170.3107487764
 20
143.3645618479
 10
171.2344039671
 20
143.6054325477
 10
171.8087533679
 20
143.7660953732
 10
172.0004063445
 20
143.8225765559
 10
172.0004064019
 20
143.8225765587
 10
172.0004064019
 20
143.8225765587
  0
LINE
  5
185
330
1F
100
AcDbEntity
  8
0
  6
Continuous
 62
     7
370
    25
100
AcDbLine
 10
152.0004064571
 20
143.8225765587
 30
0.0
 11
150.0004064055
 21
143.8225765587
 31
0.0
  0
LINE
  5
186
330
1F
100
AcDbEntity
  8
0
  6
Continuous
 62
     7
370
    25
100
AcDbLine
 10
150.0004064055
 20
107.8225765587
 30
0.0
 11
150.0004064055
 21
71.8225765587
 31
0.0
  0
LINE
  5
187
330
1F
100
AcDbEntity
  8
0
  6
Continuous
 62
     7
370
    25
100
AcDbLine
 10
202.6719792808
 20
143.8225765587
 30
0.0
 11
200.0004064019
 21
143.8225765587
 31
0.0
  0
ARC
  5
188
330
1F
100
AcDbEntity
  8
0
  6
Continuous
 62
     7
370
    25
100
AcDbCircle
 10
202.6719792808
 20
141.8225765587
 30
0.0
 40
2.000000000000016
100
AcDbArc
 50
45.0
 51
90.0
  0
LINE
  5
189
330
1F
100
AcDbEntity
  8
0
  6
Continuous
 62
     7
370
    25
100
AcDbLine
 10
145.5004064055
 20
139.3225765587
 30
0.0
 11
150.0004064055
 21
143.8225765587
 31
0.0
  0
LINE
  5
18A
330
1F
100
AcDbEntity
  8
0
  6
Continuous
 62
     7
370
    25
100
AcDbLine
 10
145.5004064055
 20
76.3225765587
 30
0.0
 11
145.5004064055
 21
107.8225765587
 31
0.0
  0
LINE
  5
18B
330
1F
100
AcDbEntity
  8
0
  6
Continuous
 62
     7
370
    25
100
AcDbLine
 10
212.9146199679
 20
134.4083629963
 30
0.0
 11
204.0861928432
 21
143.236790121
 31
0.0
  0
LINE
  5
18C
330
1F
100
AcDbEntity
  8
0
  6
Continuous
 62
     7
370
    25
100
AcDbLine
 10
123.5004064055
 20
76.5475765587
 30
0.0
 11
123.5004064055
 21
107.8225765587
 31
0.0
  0
ARC
  5
18D
330
1F
100
AcDbEntity
  8
0
  6
Continuous
 62
     7
370
    25
100
AcDbCircle
 10
123.7004064055
 20
139.0975765587
 30
0.0
 40
0.2000000000000171
100
AcDbArc
 50
90.0
 51
180.0
  0
LINE
  5
18E
330
1F
100
AcDbEntity
  8
0
  6
Continuous
 62
     7
370
    25
100
AcDbLine
 10
123.5004064055
 20
107.8225765587
 30
0.0
 11
123.7004064055
 21
107.8225765587
 31
0.0
  0
SPLINE
  5
18F
330
1F
100
AcDbEntity
  8
0
  6
Continuous
 62
     7
370
    25
100
AcDbSpline
210
0.0
220
0.0
230
1.0
 70
     8
 71
     3
 72
    14
 73
    10
 74
     0
 42
0.000000001
 43
0.00000001
 40
0.0
 40
0.0
 40
0.0
 40
0.0
 40
0.2499999999999999
 40
0.2499999999999999
 40
0.4999999999999998
 40
0.4999999999999998
 40
0.7499999999999999
 40
0.7499999999999999
 40
1.0
 40
1.0
 40
1.0
 40
1.0
 10
130.0662086009686
 20
104.5276784731367
 30
0.0
 10
129.8693327154436
 20
104.7551750410659
 30
0.0
 10
129.6932243940541
 20
104.996761816137
 30
0.0
 10
129.3834880002809
 20
105.5089190505112
 30
0.0
 10
129.2489299987874
 20
105.7824518536193
 30
0.0
 10
129.0336878460782
 20
106.3425569881568
 30
0.0
 10
128.9520446085593
 20
106.6295294835668
 30
0.0
 10
128.8415215862892
 20
107.2175684686111
 30
0.0
 10
128.8129064055387
 20
107.5220119243818
 30
0.0
 10
128.8129064055387
 20
107.8225765586536
 30
0.0
  0
LINE
  5
190
330
1F
100
AcDbEntity
  8
0
  6
Continuous
 62
     7
370
    25
100
AcDbLine
 10
130.066208601
 20
76.3475765587
 30
0.0
 11
130.066208601
 21
104.5276784731
 31
0.0
  0
LINE
  5
191
330
1F
100
AcDbEntity
  8
0
  6
Continuous
 62
     7
370
    25
100
AcDbLine
 10
130.066208601
 20
139.2975765587
 30
0.0
 11
123.7004064055
 21
139.2975765587
 31
0.0
  0
LINE
  5
192
330
1F
100
AcDbEntity
  8
0
  6
Continuous
 62
     7
370
    25
100
AcDbLine
 10
136.7346042101
 20
76.3475765587
 30
0.0
 11
136.7346042101
 21
102.932869279
 31
0.0
  0
SPLINE
  5
193
330
1F
100
AcDbEntity
  8
0
  6
Continuous
 62
     7
370
    25
100
AcDbSpline
210
0.0
220
0.0
230
1.0
 70
     8
 71
     3
 72
    20
 73
    16
 74
     0
 42
0.000000001
 43
0.00000001
 40
0.0
 40
0.0
 40
0.0
 40
0.0
 40
0.1249999999999996
 40
0.1249999999999996
 40
0.2499999999999992
 40
0.2499999999999992
 40
0.3749999999999989
 40
0.3749999999999989
 40
0.4999999999999987
 40
0.4999999999999987
 40
0.7499999999999994
 40
0.7499999999999994
 40
0.8749999999999997
 40
0.8749999999999997
 40
1.0
 40
1.0
 40
1.0
 40
1.0
 10
140.2879064055387
 20
107.8225765586536
 30
0.0
 10
140.2879064055387
 20
107.5559084711724
 30
0.0
 10
140.265859376495
 20
107.2875962958983
 30
0.0
 10
140.1768533387902
 20
106.754753260665
 30
0.0
 10
140.1109743705908
 20
106.4954630506791
 30
0.0
 10
139.9387994628835
 20
105.9903360846576
 30
0.0
 10
139.8320928919766
 20
105.7437558687363
 30
0.0
 10
139.5794159891004
 20
105.2673392179966
 30
0.0
 10
139.4359587249057
 20
105.0419191562317
 30
0.0
 10
138.9576365326252
 20
104.401311474618
 30
0.0
 10
138.5696095496596
 20
104.0185457595149
 30
0.0
 10
137.9278049012142
 20
103.5426435113433
 30
0.0
 10
137.7030002735671
 20
103.3990478751916
 30
0.0
 10
137.2316912159448
 20
103.141716489801
 30
0.0
 10
136.9859946160559
 20
103.0286641112791
 30
0.0
 10
136.7346042101088
 20
102.9328692789684
 30
0.0
  0
LINE
  5
194
330
1F
100
AcDbEntity
  8
0
  6
Continuous
 62
     7
370
    25
100
AcDbLine
 10
145.5004064055
 20
139.2975765587
 30
0.0
 11
136.7346042101
 21
139.2975765587
 31
0.0
  0
SPLINE
  5
195
330
1F
100
AcDbEntity
  8
0
  6
Continuous
 62
     7
370
    25
100
AcDbSpline
210
0.0
220
0.0
230
1.0
 70
     8
 71
     3
 72
     8
 73
     4
 74
     0
 42
0.000000001
 43
0.00000001
 40
0.0
 40
0.0
 40
0.0
 40
0.0
 40
1.0
 40
1.0
 40
1.0
 40
1.0
 10
136.7346042101084
 20
102.9328692789673
 30
0.0
 10
136.3862028054281
 20
103.3708446053812
 30
0.0
 10
136.0416344201952
 20
103.813927743966
 30
0.0
 10
135.7032501208744
 20
104.2673188158146
 30
0.0
  0
ARC
  5
196
330
1F
100
AcDbEntity
  8
0
  6
Continuous
 62
     7
370
    25
100
AcDbCircle
 10
134.5504064055
 20
107.8225765587
 30
0.0
 40
3.737499999999993
100
AcDbArc
 50
287.9660359156
 51
0.0
  0
ARC
  5
197
330
1F
100
AcDbEntity
  8
0
  6
Continuous
 62
     7
370
    25
100
AcDbCircle
 10
134.5504064055
 20
107.8225765587
 30
0.0
 40
3.737500000000011
100
AcDbArc
 50
180.0
 51
206.113804444
  0
SPLINE
  5
198
330
1F
100
AcDbEntity
  8
0
  6
Continuous
 62
     7
370
    25
100
AcDbSpline
210
0.0
220
0.0
230
1.0
 70
     8
 71
     3
 72
    10
 73
     6
 74
     0
 42
0.000000001
 43
0.00000001
 40
0.0
 40
0.0
 40
0.0
 40
0.0
 40
0.5
 40
0.5
 40
1.0
 40
1.0
 40
1.0
 40
1.0
 10
131.1944245980854
 20
106.1774952968179
 30
0.0
 10
131.0175394516621
 20
105.8790449814613
 30
0.0
 10
130.8319900767846
 20
105.6000522773339
 30
0.0
 10
130.4540411367371
 20
105.0547329832082
 30
0.0
 10
130.2612545945579
 20
104.7893975973867
 30
0.0
 10
130.0662086009686
 20
104.5276784731367
 30
0.0
  0
SPLINE
  5
199
330
1F
100
AcDbEntity
  8
0
  6
Continuous
 62
     7
370
    25
100
AcDbSpline
210
0.0
220
0.0
230
1.0
 70
     8
 71
     3
 72
     8
 73
     4
 74
     0
 42
0.000000001
 43
0.00000001
 40
0.0
 40
0.0
 40
0.0
 40
0.0
 40
1.0
 40
1.0
 40
1.0
 40
1.0
 10
131.5254064055388
 20
105.6275181881311
 30
0.0
 10
131.4071096461088
 20
105.7905424165896
 30
0.0
 10
131.2956811639374
 20
105.970930915612
 30
0.0
 10
131.1944245980854
 20
106.1774952968179
 30
0.0
  0
LINE
  5
19A
330
1F
100
AcDbEntity
  8
0
  6
Continuous
 62
     7
370
    25
100
AcDbLine
 10
131.5254064055
 20
78.8749812945
 30
0.0
 11
131.5254064055
 21
105.6275181881
 31
0.0
  0
SPLINE
  5
19B
330
1F
100
AcDbEntity
  8
0
  6
Continuous
 62
     7
370
    25
100
AcDbSpline
210
0.0
220
0.0
230
1.0
 70
     8
 71
     3
 72
     8
 73
     4
 74
     0
 42
0.000000001
 43
0.00000001
 40
0.0
 40
0.0
 40
0.0
 40
0.0
 40
1.0
 40
1.0
 40
1.0
 40
1.0
 10
135.7032501208747
 20
104.2673188158154
 30
0.0
 10
135.5617120325929
 20
104.2214230447183
 30
0.0
 10
135.4191015638559
 20
104.184482193781
 30
0.0
 10
135.2754064055389
 20
104.1560685128404
 30
0.0
  0
LINE
  5
19C
330
1F
100
AcDbEntity
  8
0
  6
Continuous
 62
     7
370
    25
100
AcDbLine
 10
135.2754064055
 20
78.8749812945
 30
0.0
 11
135.2754064055
 21
104.1560685128
 31
0.0
  0
SPLINE
  5
19D
330
1F
100
AcDbEntity
  8
0
  6
Continuous
 62
     7
370
    25
100
AcDbSpline
210
0.0
220
0.0
230
1.0
 70
     8
 71
     3
 72
    14
 73
    10
 74
     0
 42
0.000000001
 43
0.00000001
 40
0.0
 40
0.0
 40
0.0
 40
0.0
 40
0.25
 40
0.25
 40
0.5
 40
0.5
 40
0.75
 40
0.75
 40
1.0
 40
1.0
 40
1.0
 40
1.0
 10
132.5254064055387
 20
104.6811944981585
 30
0.0
 10
132.3910583191822
 20
104.767798059786
 30
0.0
 10
132.2678816453263
 20
104.8592664571095
 30
0.0
 10
132.0391350404083
 20
105.0504578437404
 30
0.0
 10
131.9372130764411
 20
105.1473196958813
 30
0.0
 10
131.7577896740123
 20
105.3351943106166
 30
0.0
 10
131.6813483858296
 20
105.4254296619679
 30
0.0
 10
131.5640584129794
 20
105.5732360259452
 30
0.0
 10
131.5254064055387
 20
105.6275181881312
 30
0.0
 10
131.5254064055387
 20
105.6275181881312
 30
0.0
  0
SPLINE
  5
19E
330
1F
100
AcDbEntity
  8
0
  6
Continuous
 62
     7
370
    25
100
AcDbSpline
210
0.0
220
0.0
230
1.0
 70
     8
 71
     3
 72
    14
 73
    10
 74
     0
 42
0.000000001
 43
0.00000001
 40
0.0
 40
0.0
 40
0.0
 40
0.0
 40
0.25
 40
0.25
 40
0.5
 40
0.5
 40
0.75
 40
0.75
 40
1.0
 40
1.0
 40
1.0
 40
1.0
 10
135.2754064055389
 20
104.156068512841
 30
0.0
 10
135.275406405539
 20
104.156068512841
 30
0.0
 10
135.2494898829679
 20
104.1506917818526
 30
0.0
 10
135.1500450363903
 20
104.1331471942521
 30
0.0
 10
135.0777466439781
 20
104.1212977906059
 30
0.0
 10
134.8930427494542
 20
104.0996539726056
 30
0.0
 10
134.7834654875783
 20
104.0903647119212
 30
0.0
 10
134.5401353093601
 20
104.0831091755636
 30
0.0
 10
134.40859905044
 20
104.085380581723
 30
0.0
 10
134.2754064055387
 20
104.0952073456561
 30
0.0
  0
SPLINE
  5
19F
330
1F
100
AcDbEntity
  8
0
  6
Continuous
 62
     7
370
    25
100
AcDbSpline
210
0.0
220
0.0
230
1.0
 70
     8
 71
     3
 72
    10
 73
     6
 74
     0
 42
0.000000001
 43
0.00000001
 40
0.0
 40
0.0
 40
0.0
 40
0.0
 40
0.5
 40
0.5
 40
1.0
 40
1.0
 40
1.0
 40
1.0
 10
134.2754064055387
 20
104.0952073456562
 30
0.0
 10
133.9629425032506
 20
104.1182604880253
 30
0.0
 10
133.6600535212528
 20
104.1794951904317
 30
0.0
 10
133.0727103364488
 20
104.3756671543556
 30
0.0
 10
132.7882426758768
 20
104.5117647894554
 30
0.0
 10
132.5254064055387
 20
104.6811944981585
 30
0.0
  0
LINE
  5
1A0
330
1F
100
AcDbEntity
  8
0
  6
Continuous
 62
     7
370
    25
100
AcDbLine
 10
123.5004064055
 20
134.6725765587
 30
0.0
 11
123.8344450916
 21
133.6131411983
 31
0.0
  0
LINE
  5
1A1
330
1F
100
AcDbEntity
  8
0
  6
Continuous
 62
     7
370
    25
100
AcDbLine
 10
123.5004064055
 20
134.6725765587
 30
0.0
 11
123.5004064055
 21
132.6972878253
 31
0.0
  0
LINE
  5
1A2
330
1F
100
AcDbEntity
  8
0
  6
Continuous
 62
     7
370
    25
100
AcDbLine
 10
213.5004064055
 20
82.6510036879
 30
0.0
 11
213.5004064055
 21
107.8225765587
 31
0.0
  0
ARC
  5
1A3
330
1F
100
AcDbEntity
  8
0
  6
Continuous
 62
     7
370
    25
100
AcDbCircle
 10
211.5004064055
 20
132.9941494339
 30
0.0
 40
2.000000000000036
100
AcDbArc
 50
0.0
 51
45.0
  0
ARC
  5
1A4
330
1F
100
AcDbEntity
  8
0
  6
Continuous
 62
     7
370
    25
100
AcDbCircle
 10
123.071471531
 20
133.3725765587
 30
0.0
 40
0.8000000000000181
100
AcDbArc
 50
252.5
 51
17.5
  0
SPLINE
  5
1A5
330
1F
100
AcDbEntity
  8
0
  6
Continuous
 62
     7
370
    25
100
AcDbSpline
210
0.0
220
0.0
230
1.0
 70
     8
 71
     3
 72
    23
 73
    19
 74
     0
 42
0.000000001
 43
0.00000001
 40
0.0
 40
0.0
 40
0.0
 40
0.0
 40
0.0014746442256272
 40
0.0696282493181271
 40
0.1372786522798891
 40
0.2039813987958596
 40
0.2703112853238921
 40
0.3365668328433254
 40
0.4028768504102774
 40
0.4678767933651649
 40
0.5326478376208126
 40
0.5993653502227724
 40
0.6655278587200841
 40
0.7321207415398742
 40
0.798889696898089
 40
0.8663385727904118
 40
0.9345237804344151
 40
1.0
 40
1.0
 40
1.0
 40
1.0
 10
93.26016244451934
 20
131.246855711681
 30
0.0
 10
93.26132858676122
 20
131.2464959385075
 30
0.0
 10
93.31639030357911
 20
131.2295085351786
 30
0.0
 10
93.71282072286976
 20
131.1122392018302
 30
0.0
 10
94.42888161630141
 20
130.911628302616
 30
0.0
 10
95.43856048967896
 20
130.6710134990712
 30
0.0
 10
96.65453887462878
 20
130.443741175719
 30
0.0
 10
98.05873876992185
 20
130.2713516840707
 30
0.0
 10
99.57580290322954
 20
130.1832833714203
 30
0.0
 10
101.1501007385317
 20
130.2143310345119
 30
0.0
 10
102.7159209684182
 20
130.3653542731006
 30
0.0
 10
104.2057780368743
 20
130.6196910719811
 30
0.0
 10
105.5774582295006
 20
130.9374278505545
 30
0.0
 10
106.7633813231425
 20
131.2813442707112
 30
0.0
 10
107.7409806671715
 20
131.6091868710138
 30
0.0
 10
108.4604918187563
 20
131.8781113004991
 30
0.0
 10
108.9331268204602
 20
132.0607006361204
 30
0.0
 10
108.9905979348132
 20
132.0839490287053
 30
0.0
 10
109.0187510929877
 20
132.0953376311556
 30
0.0
  0
LINE
  5
1A6
330
1F
100
AcDbEntity
  8
0
  6
Continuous
 62
     7
370
    25
100
AcDbLine
 10
93.1008405203
 20
131.2959729202
 30
0.0
 11
85.0504064055
 21
130.8916966862
 31
0.0
  0
LINE
  5
1A7
330
1F
100
AcDbEntity
  8
0
  6
Continuous
 62
     7
370
    25
100
AcDbLine
 10
85.0504064055
 20
84.7534564311
 30
0.0
 11
85.0504064055
 21
98.7004535241
 31
0.0
  0
SPLINE
  5
1A8
330
1F
100
AcDbEntity
  8
0
  6
Continuous
 62
     7
370
    25
100
AcDbSpline
210
0.0
220
0.0
230
1.0
 70
     8
 71
     3
 72
     8
 73
     4
 74
     0
 42
0.000000001
 43
0.00000001
 40
0.0
 40
0.0
 40
0.0
 40
0.0
 40
1.0
 40
1.0
 40
1.0
 40
1.0
 10
90.8685808584857
 20
98.70503958235017
 30
0.0
 10
88.9291893741743
 20
98.70289348650056
 30
0.0
 10
86.98979788986287
 20
98.7012972999758
 30
0.0
 10
85.05040640555146
 20
98.7002498475001
 30
0.0
  0
SPLINE
  5
1A9
330
1F
100
AcDbEntity
  8
0
  6
Continuous
 62
     7
370
    25
100
AcDbSpline
210
0.0
220
0.0
230
1.0
 70
     8
 71
     3
 72
    13
 73
     9
 74
     0
 42
0.000000001
 43
0.00000001
 40
0.0
 40
0.0
 40
0.0
 40
0.0
 40
0.1686717431976176
 40
0.3360976438050112
 40
0.5026076259545951
 40
0.6685363120001365
 40
0.8342210747535599
 40
1.0
 40
1.0
 40
1.0
 40
1.0
 10
91.9520759079527
 20
98.84249602816782
 30
0.0
 10
91.89257219128821
 20
98.82797712544635
 30
0.0
 10
91.77400426408569
 20
98.79904655946768
 30
0.0
 10
91.59410261872566
 20
98.76507680060516
 30
0.0
 10
91.4137039460162
 20
98.73820821336837
 30
0.0
 10
91.23259998143565
 20
98.71925168841163
 30
0.0
 10
91.0508638811209
 20
98.70732846973151
 30
0.0
 10
90.92935337230114
 20
98.70580268929228
 30
0.0
 10
90.86858085848569
 20
98.70503958235017
 30
0.0
  0
SPLINE
  5
1AA
330
1F
100
AcDbEntity
  8
0
  6
Continuous
 62
     7
370
    25
100
AcDbSpline
210
0.0
220
0.0
230
1.0
 70
     8
 71
     3
 72
     8
 73
     4
 74
     0
 42
0.000000001
 43
0.00000001
 40
0.0
 40
0.0
 40
0.0
 40
0.0
 40
1.0
 40
1.0
 40
1.0
 40
1.0
 10
97.3442693244498
 20
98.84673407005326
 30
0.0
 10
95.54687465301056
 20
98.84486300952928
 30
0.0
 10
93.74947998157133
 20
98.84344082850515
 30
0.0
 10
91.95208531013208
 20
98.84246670550918
 30
0.0
  0
SPLINE
  5
1AB
330
1F
100
AcDbEntity
  8
0
  6
Continuous
 62
     7
370
    25
100
AcDbSpline
210
0.0
220
0.0
230
1.0
 70
     8
 71
     3
 72
    18
 73
    14
 74
     0
 42
0.000000001
 43
0.00000001
 40
0.0
 40
0.0
 40
0.0
 40
0.0
 40
0.092314649210806
 40
0.1843375917914556
 40
0.2763048505627556
 40
0.3684522564654068
 40
0.4610136522494059
 40
0.5542191634138369
 40
0.6482935985051969
 40
0.7434550301899557
 40
0.8399135943676973
 40
0.9201663187103734
 40
1.0
 40
1.0
 40
1.0
 40
1.0
 10
99.54059097304784
 20
98.31254183420964
 30
0.0
 10
99.47027414056026
 20
98.31295252037586
 30
0.0
 10
99.3298626709401
 20
98.31377259497414
 30
0.0
 10
99.11953003587854
 20
98.3273691896262
 30
0.0
 10
98.9101063407177
 20
98.35002759706049
 30
0.0
 10
98.70156660879562
 20
98.38262442414417
 30
0.0
 10
98.49392293112349
 20
98.42492715932863
 30
0.0
 10
98.28717467889533
 20
98.4770030796384
 30
0.0
 10
98.08133249757198
 20
98.5388605820286
 30
0.0
 10
97.87637076184281
 20
98.6104716768181
 30
0.0
 10
97.68486664999327
 20
98.68706027156254
 30
0.0
 10
97.50713003291652
 20
98.765677111276
 30
0.0
 10
97.39879605634165
 20
98.81959130451918
 30
0.0
 10
97.34477085585972
 20
98.84647783809683
 30
0.0
  0
LINE
  5
1AC
330
1F
100
AcDbEntity
  8
0
  6
Continuous
 62
     7
370
    25
100
AcDbLine
 10
101.4554642523
 20
98.3140372691
 30
0.0
 11
99.540590973
 21
98.3125418342
 31
0.0
  0
SPLINE
  5
1AD
330
1F
100
AcDbEntity
  8
0
  6
Continuous
 62
     7
370
    25
100
AcDbSpline
210
0.0
220
0.0
230
1.0
 70
     8
 71
     3
 72
    25
 73
    21
 74
     0
 42
0.000000001
 43
0.00000001
 40
0.0
 40
0.0
 40
0.0
 40
0.0
 40
0.0280056024284672
 40
0.0559514328341196
 40
0.0838901607635295
 40
0.1118745076903325
 40
0.1399569498903493
 40
0.1681894282713371
 40
0.1966230730098549
 40
0.2253079499152018
 40
0.2542928341276681
 40
0.3799484016845484
 40
0.5057844887501644
 40
0.6313077644965451
 40
0.7532057173414851
 40
0.8039627394926698
 40
0.8536129947767129
 40
0.9025574087125352
 40
0.9512124407391659
 40
1.0
 40
1.0
 40
1.0
 40
1.0
 10
106.3953485587401
 20
103.4479010735849
 30
0.0
 10
106.3953911138664
 20
103.3732939153772
 30
0.0
 10
106.3954761332939
 20
103.2242388321287
 30
0.0
 10
106.3830710765577
 20
103.0016492520031
 30
0.0
 10
106.3614740220062
 20
102.7803437374109
 30
0.0
 10
106.3297921141719
 20
102.5603847484682
 30
0.0
 10
106.2882657459995
 20
102.3417941941676
 30
0.0
 10
106.2368309167782
 20
102.1246025134596
 30
0.0
 10
106.175509212363
 20
101.9088419241227
 30
0.0
 10
106.1042870362532
 20
101.6945236041309
 30
0.0
 10
105.9334411969768
 20
101.2461518542213
 30
0.0
 10
105.5957047475447
 20
100.5928080474619
 30
0.0
 10
104.9841490400841
 20
99.82091573979108
 30
0.0
 10
104.2479156250419
 20
99.17675372862493
 30
0.0
 10
103.5613876040454
 20
98.78509749328671
 30
0.0
 10
103.0126248011136
 20
98.56637325086793
 30
0.0
 10
102.6305292156642
 20
98.45048664677388
 30
0.0
 10
102.2433625168481
 20
98.36957683918521
 30
0.0
 10
101.8511941884156
 20
98.32037011834505
 30
0.0
 10
101.5874937800053
 20
98.3161501319651
 30
0.0
 10
101.4554642523373
 20
98.3140372690694
 30
0.0
  0
LINE
  5
1AE
330
1F
100
AcDbEntity
  8
0
  6
Continuous
 62
     7
370
    25
100
AcDbLine
 10
106.3953485587
 20
107.8225765587
 30
0.0
 11
106.3953485587
 21
103.4479010736
 31
0.0
  0
LINE
  5
1AF
330
1F
100
AcDbEntity
  8
0
  6
Continuous
 62
     7
370
    25
100
AcDbLine
 10
122.3402243655
 20
82.8808385131
 30
0.0
 11
122.3402243655
 21
107.8225765587
 31
0.0
  0
LINE
  5
1B0
330
1F
100
AcDbEntity
  8
0
  6
Continuous
 62
     7
370
    25
100
AcDbLine
 10
122.3402243655
 20
132.7643146042
 30
0.0
 11
109.018751093
 21
132.0953376312
 31
0.0
  0
SPLINE
  5
1B1
330
1F
100
AcDbEntity
  8
0
  6
Continuous
 62
     7
370
    25
100
AcDbSpline
210
0.0
220
0.0
230
1.0
 70
     8
 71
     3
 72
    20
 73
    16
 74
     0
 42
0.000000001
 43
0.00000001
 40
0.0
 40
0.0
 40
0.0
 40
0.0
 40
0.0829621378684852
 40
0.1658495135106163
 40
0.2487180070857355
 40
0.3299477216398521
 40
0.4108693994445732
 40
0.4941953814850558
 40
0.5768901676626222
 40
0.6601065810557772
 40
0.7435845489350849
 40
0.8279858465401881
 40
0.9132590745392877
 40
0.9972257035811797
 40
1.0
 40
1.0
 40
1.0
 40
1.0
 10
95.4128225002657
 20
84.95931619114666
 30
0.0
 10
95.79856833633698
 20
85.03623461775081
 30
0.0
 10
96.56971238945418
 20
85.19000215508841
 30
0.0
 10
97.97746054062401
 20
85.36591737647393
 30
0.0
 10
99.48531190849862
 20
85.45991366380295
 30
0.0
 10
101.0578008835165
 20
85.43606928193638
 30
0.0
 10
102.6250979147285
 20
85.29216423703578
 30
0.0
 10
104.12087394151
 20
85.04310663423674
 30
0.0
 10
105.5011278171827
 20
84.7284259416981
 30
0.0
 10
106.6987220002384
 20
84.38416458971757
 30
0.0
 10
107.6855840300606
 20
84.05511736389784
 30
0.0
 10
108.4328222762586
 20
83.77665645569004
 30
0.0
 10
108.8800237056242
 20
83.60480066065854
 30
0.0
 10
109.0667783177741
 20
83.53094998905986
 30
0.0
 10
109.0156801038759
 20
83.55110128013312
 30
0.0
 10
109.0140457935308
 20
83.55174579313966
 30
0.0
  0
SPLINE
  5
1B2
330
1F
100
AcDbEntity
  8
0
  6
Continuous
 62
     7
370
    25
100
AcDbSpline
210
0.0
220
0.0
230
1.0
 70
     8
 71
     3
 72
    11
 73
     7
 74
     0
 42
0.000000001
 43
0.00000001
 40
0.0
 40
0.0
 40
0.0
 40
0.0
 40
0.2435512231731388
 40
0.4981153923403536
 40
0.7509097881719451
 40
1.0
 40
1.0
 40
1.0
 40
1.0
 10
93.10532838252212
 20
84.35065398176356
 30
0.0
 10
93.13127930404738
 20
84.3588895183017
 30
0.0
 10
93.1843546008525
 20
84.37573298745119
 30
0.0
 10
93.66204958451497
 20
84.51663442958869
 30
0.0
 10
94.37338903278174
 20
84.72192498003692
 30
0.0
 10
95.06805367995642
 20
84.88057609823412
 30
0.0
 10
95.4128225002657
 20
84.95931619114666
 30
0.0
  0
LINE
  5
1B3
330
1F
100
AcDbEntity
  8
0
  6
Continuous
 62
     7
370
    25
100
AcDbLine
 10
122.8309068914
 20
132.6096029981
 30
0.0
 11
122.3402243655
 21
132.7643146042
 31
0.0
  0
LINE
  5
1B4
330
1F
100
AcDbEntity
  8
0
  6
Continuous
 62
     7
370
    25
100
AcDbLine
 10
106.3953485587
 20
103.4479010736
 30
0.0
 11
105.5004064055
 21
103.6100765587
 31
0.0
  0
LINE
  5
1B5
330
1F
100
AcDbEntity
  8
0
  6
Continuous
 62
     7
370
    25
100
AcDbLine
 10
105.5004064055
 20
103.6100765587
 30
0.0
 11
105.5004064055
 21
107.8225765587
 31
0.0
  0
SPLINE
  5
1B6
330
1F
100
AcDbEntity
  8
0
  6
Continuous
 62
     7
370
    25
100
AcDbSpline
210
0.0
220
0.0
230
1.0
 70
     8
 71
     3
 72
    25
 73
    21
 74
     0
 42
0.000000001
 43
0.00000001
 40
0.0
 40
0.0
 40
0.0
 40
0.0
 40
0.0288760384326684
 40
0.0583531183805949
 40
0.0884515256366019
 40
0.1191903155235368
 40
0.1505873770390838
 40
0.1826594973258841
 40
0.2154224255068367
 40
0.248890935138047
 40
0.3610595498851897
 40
0.4984670937677722
 40
0.5822694576839043
 40
0.6661128179770407
 40
0.7499973339301137
 40
0.8007710075465662
 40
0.8511237940266996
 40
0.9010896183606294
 40
0.9507031993407967
 40
1.0
 40
1.0
 40
1.0
 40
1.0
 10
101.5004064055387
 20
99.61007655865349
 30
0.0
 10
101.5631937148949
 20
99.61093268842569
 30
0.0
 10
101.690075222696
 20
99.61266276791922
 30
0.0
 10
101.8814017368431
 20
99.626807904361
 30
0.0
 10
102.0752902195576
 20
99.6499393246215
 30
0.0
 10
102.2711861156071
 20
99.6833452533366
 30
0.0
 10
102.4685302360319
 20
99.72721599447334
 30
0.0
 10
102.6667009092161
 20
99.78201200669004
 30
0.0
 10
102.8650442424982
 20
99.848087212646
 30
0.0
 10
103.2163868977411
 20
99.98607506020494
 30
0.0
 10
103.7415103898087
 20
100.2661332307152
 30
0.0
 10
104.2785021546431
 20
100.7047238066731
 30
0.0
 10
104.6905618957822
 20
101.1785839328293
 30
0.0
 10
104.9774804813697
 20
101.6102676796246
 30
0.0
 10
105.1759071691874
 20
102.013390921641
 30
0.0
 10
105.3079930431392
 20
102.3711270823843
 30
0.0
 10
105.3936269229587
 20
102.6738794846805
 30
0.0
 10
105.454709134305
 20
102.982367794924
 30
0.0
 10
105.4932100776704
 20
103.2946795050762
 30
0.0
 10
105.4980127567634
 20
103.5051689189726
 30
0.0
 10
105.5004064055387
 20
103.6100765586535
 30
0.0
  0
SPLINE
  5
1B7
330
1F
100
AcDbEntity
  8
0
  6
Continuous
 62
     7
370
    25
100
AcDbSpline
210
0.0
220
0.0
230
1.0
 70
     8
 71
     3
 72
    13
 73
     9
 74
     0
 42
0.000000001
 43
0.00000001
 40
0.0
 40
0.0
 40
0.0
 40
0.0
 40
0.1722808990522685
 40
0.3421751864033675
 40
0.5097853609111231
 40
0.6752181678271179
 40
0.8385846213662377
 40
0.9999999999999999
 40
0.9999999999999999
 40
0.9999999999999999
 40
0.9999999999999999
 10
98.50042477444897
 20
99.7600713814033
 30
0.0
 10
98.56129602120667
 20
99.74380566496913
 30
0.0
 10
98.68219526378377
 20
99.71149956148656
 30
0.0
 10
98.86527103802953
 20
99.67411048216893
 30
0.0
 10
99.04737883537229
 20
99.64497864994038
 30
0.0
 10
99.22831567756423
 20
99.62479433171255
 30
0.0
 10
99.4076402660407
 20
99.6123500070016
 30
0.0
 10
99.5264734633212
 20
99.61083133370722
 30
0.0
 10
99.58553312624926
 20
99.61007655865349
 30
0.0
  0
LINE
  5
1B8
330
1F
100
AcDbEntity
  8
0
  6
Continuous
 62
     7
370
    25
100
AcDbLine
 10
99.540590973
 20
98.3125418342
 30
0.0
 11
99.5855331262
 21
99.6100765587
 31
0.0
  0
SPLINE
  5
1B9
330
1F
100
AcDbEntity
  8
0
  6
Continuous
 62
     7
370
    25
100
AcDbSpline
210
0.0
220
0.0
230
1.0
 70
     8
 71
     3
 72
    11
 73
     7
 74
     0
 42
0.000000001
 43
0.00000001
 40
0.0
 40
0.0
 40
0.0
 40
0.0
 40
0.2392771049403341
 40
0.5001130256942852
 40
0.7515027953478858
 40
0.9999999999999999
 40
0.9999999999999999
 40
0.9999999999999999
 40
0.9999999999999999
 10
98.17290571781663
 20
99.76062130723717
 30
0.0
 10
98.10408692558921
 20
99.68907470063692
 30
0.0
 10
97.9602487827211
 20
99.53953515353346
 30
0.0
 10
97.75250868884913
 20
99.31062358684473
 30
0.0
 10
97.54452510989573
 20
99.07830858758291
 30
0.0
 10
97.41152851797975
 20
98.9235376907155
 30
0.0
 10
97.34541501029078
 20
98.846600028384
 30
0.0
  0
SPLINE
  5
1BA
330
1F
100
AcDbEntity
  8
0
  6
Continuous
 62
     7
370
    25
100
AcDbSpline
210
0.0
220
0.0
230
1.0
 70
    24
 71
     3
 72
     9
 73
     5
 74
     0
 42
0.000000001
 43
0.00000001
 40
0.0
 40
0.0
 40
0.0
 40
0.0
 40
0.5090957280102978
 40
1.0
 40
1.0
 40
1.0
 40
1.0
 10
98.17507840263177
 20
99.76007655865348
 30
0.0
 10
98.22982713237732
 20
99.76007655865348
 30
0.0
 10
98.33736826213598
 20
99.76007655865348
 30
0.0
 10
98.44679040742179
 20
99.76007655865348
 30
0.0
 10
98.50050620599285
 20
99.76007655865348
 30
0.0
  0
LINE
  5
1BB
330
1F
100
AcDbEntity
  8
0
  6
Continuous
 62
     7
370
    25
100
AcDbLine
 10
91.9265563171
 20
99.7400247849
 30
0.0
 11
91.9519708087
 21
98.8424666142
 31
0.0
  0
SPLINE
  5
1BC
330
1F
100
AcDbEntity
  8
0
  6
Continuous
 62
     7
370
    25
100
AcDbSpline
210
0.0
220
0.0
230
1.0
 70
     8
 71
     3
 72
     8
 73
     4
 74
     0
 42
0.000000001
 43
0.00000001
 40
0.0
 40
0.0
 40
0.0
 40
0.0
 40
1.0
 40
1.0
 40
1.0
 40
1.0
 10
91.92656750826708
 20
99.74002527499275
 30
0.0
 10
91.94837036474908
 20
99.74572260602542
 30
0.0
 10
91.97012507414657
 20
99.7516041888204
 30
0.0
 10
91.99182852946458
 20
99.75766918337345
 30
0.0
  0
LINE
  5
1BD
330
1F
100
AcDbEntity
  8
0
  6
Continuous
 62
     7
370
    25
100
AcDbLine
 10
92.0004064056
 20
99.7600765587
 30
0.0
 11
98.1739935661
 21
99.7600765587
 31
0.0
  0
LINE
  5
1BE
330
1F
100
AcDbEntity
  8
0
  6
Continuous
 62
     7
370
    25
100
AcDbLine
 10
99.5855331262
 20
99.6100765587
 30
0.0
 11
101.5004064055
 21
99.6100765587
 31
0.0
  0
SPLINE
  5
1BF
330
1F
100
AcDbEntity
  8
0
  6
Continuous
 62
     7
370
    25
100
AcDbSpline
210
0.0
220
0.0
230
1.0
 70
     8
 71
     3
 72
    13
 73
     9
 74
     0
 42
0.000000001
 43
0.00000001
 40
0.0
 40
0.0
 40
0.0
 40
0.0
 40
0.1620909846070204
 40
0.3259283018492867
 40
0.4915764692933093
 40
0.6590979120715708
 40
0.8285529848482707
 40
1.0
 40
1.0
 40
1.0
 40
1.0
 10
90.91527968482818
 20
99.61007655865349
 30
0.0
 10
90.9708314301772
 20
99.61074544872545
 30
0.0
 10
91.08253342316758
 20
99.61209043534394
 30
0.0
 10
91.25037537246622
 20
99.62303608308983
 30
0.0
 10
91.41915994650488
 20
99.6406741242941
 30
0.0
 10
91.58848631175925
 20
99.66597923307685
 30
0.0
 10
91.75823874832766
 20
99.6982837667664
 30
0.0
 10
91.87023665323088
 20
99.72605652801512
 30
0.0
 10
91.92656281601737
 20
99.74002404885829
 30
0.0
  0
LINE
  5
1C0
330
1F
100
AcDbEntity
  8
0
  6
Continuous
 62
     7
370
    25
100
AcDbLine
 10
84.136746584
 20
99.0825748147
 30
0.0
 11
85.0504064056
 21
99.6100765587
 31
0.0
  0
LINE
  5
1C1
330
1F
100
AcDbEntity
  8
0
  6
Continuous
 62
     7
370
    25
100
AcDbLine
 10
85.0504064056
 20
99.6100765587
 30
0.0
 11
90.9152796848
 21
99.6100765587
 31
0.0
  0
SPLINE
  5
1C2
330
1F
100
AcDbEntity
  8
0
  6
Continuous
 62
     7
370
    25
100
AcDbSpline
210
0.0
220
0.0
230
1.0
 70
     8
 71
     3
 72
     8
 73
     4
 74
     0
 42
0.000000001
 43
0.00000001
 40
0.0
 40
0.0
 40
0.0
 40
0.0
 40
1.0
 40
1.0
 40
1.0
 40
1.0
 10
85.05040640508777
 20
98.70024984727749
 30
0.0
 10
84.74585313138225
 20
98.82894071182429
 30
0.0
 10
84.44129985767671
 20
98.95638546808601
 30
0.0
 10
84.13674658397119
 20
99.08257481472373
 30
0.0
  0
LINE
  5
1C3
330
1F
100
AcDbEntity
  8
0
  6
Continuous
 62
     7
370
    25
100
AcDbLine
 10
83.5504064055
 20
85.6194818349
 30
0.0
 11
83.5504064055
 21
98.7440511549
 31
0.0
  0
SPLINE
  5
1C4
330
1F
100
AcDbEntity
  8
0
  6
Continuous
 62
     7
370
    25
100
AcDbSpline
210
0.0
220
0.0
230
1.0
 70
    24
 71
     3
 72
     8
 73
     4
 74
     0
 42
0.000000001
 43
0.00000001
 40
0.0
 40
0.0
 40
0.0
 40
0.0
 40
1.0
 40
1.0
 40
1.0
 40
1.0
 10
84.13674658397117
 20
99.08257481472373
 30
0.0
 10
83.94041455831284
 20
98.96922246685934
 30
0.0
 10
83.74495353807261
 20
98.85637299420758
 30
0.0
 10
83.55040640553871
 20
98.74405115486906
 30
0.0
  0
ARC
  5
1C5
330
1F
100
AcDbEntity
  8
0
  6
Continuous
 62
     7
370
    25
100
AcDbCircle
 10
116.7004064055
 20
125.2725765587
 30
0.0
 40
0.8000000000000256
100
AcDbArc
 50
0.0
 51
90.0
  0
LINE
  5
1C6
330
1F
100
AcDbEntity
  8
0
  6
Continuous
 62
     7
370
    25
100
AcDbLine
 10
115.2756468791
 20
126.0725765587
 30
0.0
 11
116.7004064055
 21
126.0725765587
 31
0.0
  0
ARC
  5
1C7
330
1F
100
AcDbEntity
  8
0
  6
Continuous
 62
     7
370
    25
100
AcDbCircle
 10
115.2756468791
 20
125.2725765587
 30
0.0
 40
0.8000000000000256
100
AcDbArc
 50
90.0
 51
120.0
  0
LINE
  5
1C8
330
1F
100
AcDbEntity
  8
0
  6
Continuous
 62
     7
370
    25
100
AcDbLine
 10
114.0004064055
 20
125.4600765587
 30
0.0
 11
114.0004064055
 21
107.8225765587
 31
0.0
  0
LINE
  5
1C9
330
1F
100
AcDbEntity
  8
0
  6
Continuous
 62
     7
370
    25
100
AcDbLine
 10
114.0004064055
 20
125.4600765587
 30
0.0
 11
114.8756468791
 21
125.9653968817
 31
0.0
  0
LINE
  5
1CA
330
1F
100
AcDbEntity
  8
0
  6
Continuous
 62
     7
370
    25
100
AcDbLine
 10
84.3020724554
 20
99.1780257511
 30
0.0
 11
84.165603683
 21
99.0992354686
 31
0.0
  0
SPLINE
  5
1CB
330
1F
100
AcDbEntity
  8
0
  6
Continuous
 62
     7
370
    25
100
AcDbSpline
210
0.0
220
0.0
230
1.0
 70
     8
 71
     3
 72
    32
 73
    28
 74
     0
 42
0.000000001
 43
0.00000001
 40
0.0
 40
0.0
 40
0.0
 40
0.0
 40
0.1250000000000002
 40
0.1250000000000002
 40
0.1874999999999998
 40
0.1874999999999998
 40
0.2499999999999994
 40
0.2499999999999994
 40
0.3124999999999991
 40
0.3124999999999991
 40
0.3749999999999987
 40
0.3749999999999987
 40
0.4999999999999979
 40
0.4999999999999979
 40
0.562499999999998
 40
0.562499999999998
 40
0.624999999999998
 40
0.624999999999998
 40
0.7499999999999983
 40
0.7499999999999983
 40
0.8124999999999989
 40
0.8124999999999989
 40
0.8749999999999992
 40
0.8749999999999992
 40
0.9374999999999997
 40
0.9374999999999997
 40
1.0
 40
1.0
 40
1.0
 40
1.0
 10
97.96803673687936
 20
123.995245312863
 30
0.0
 10
97.48396249292534
 20
123.9956047054827
 30
0.0
 10
97.00056492235845
 20
124.010563911664
 30
0.0
 10
96.27665957262242
 20
124.0575479581726
 30
0.0
 10
96.03599713908557
 20
124.0773245132972
 30
0.0
 10
95.56465103000994
 20
124.1242885967963
 30
0.0
 10
95.33281521371968
 20
124.1515424459808
 30
0.0
 10
94.87711212716336
 20
124.2131703745934
 30
0.0
 10
94.65324380422202
 20
124.2475454753888
 30
0.0
 10
94.21391621221422
 20
124.3228649190419
 30
0.0
 10
93.9971988195478
 20
124.3640828697902
 30
0.0
 10
93.37085684087498
 20
124.4943196889709
 30
0.0
 10
92.98646420652159
 20
124.5893596008701
 30
0.0
 10
92.45892246090175
 20
124.7356265628225
 30
0.0
 10
92.29128830937064
 20
124.7849951980132
 30
0.0
 10
91.97288356213006
 20
124.8833989055135
 30
0.0
 10
91.82330268759095
 20
124.932082170146
 30
0.0
 10
91.4102826180425
 20
125.0717049733144
 30
0.0
 10
91.17873084688337
 20
125.1572916518949
 30
0.0
 10
90.89542133179371
 20
125.266254699811
 30
0.0
 10
90.8118536500219
 20
125.2993033523854
 30
0.0
 10
90.66992881769772
 20
125.3563067486258
 30
0.0
 10
90.61094070625519
 20
125.3805034542362
 30
0.0
 10
90.51622480254535
 20
125.4197057346152
 30
0.0
 10
90.4804968353986
 20
125.4347129011122
 30
0.0
 10
90.43253255768118
 20
125.4549218988392
 30
0.0
 10
90.42040625024772
 20
125.4600765586535
 30
0.0
 10
90.42040625024772
 20
125.4600765586535
 30
0.0
  0
SPLINE
  5
1CC
330
1F
100
AcDbEntity
  8
0
  6
Continuous
 62
     7
370
    25
100
AcDbSpline
210
0.0
220
0.0
230
1.0
 70
     8
 71
     3
 72
    31
 73
    27
 74
     0
 42
0.000000001
 43
0.00000001
 40
0.0
 40
0.0
 40
0.0
 40
0.0
 40
0.016175668807595
 40
0.0323169068532622
 40
0.0484425516008472
 40
0.0645714951500143
 40
0.0807226180246341
 40
0.096914723163422
 40
0.1131664712589092
 40
0.129496318536692
 40
0.1459224579704905
 40
0.1624627647968924
 40
0.1791347470353051
 40
0.1959555015439907
 40
0.2945754514596404
 40
0.3932796468914774
 40
0.4928175165124867
 40
0.5924284642438455
 40
0.6938854141910832
 40
0.792710660437563
 40
0.8267659964739335
 40
0.8607894384996367
 40
0.8949681865155978
 40
0.9294869120737117
 40
0.9645249088053145
 40
0.9999999999999999
 40
0.9999999999999999
 40
0.9999999999999999
 40
0.9999999999999999
 10
108.9763557956228
 20
125.4600765586535
 30
0.0
 10
108.9756226951716
 20
125.4597301672256
 30
0.0
 10
108.9741580547121
 20
125.4590381216821
 30
0.0
 10
108.961101675047
 20
125.4534557596357
 30
0.0
 10
108.9400871145242
 20
125.4445889966415
 30
0.0
 10
108.9103399091836
 20
125.4321478959265
 30
0.0
 10
108.8720675965278
 20
125.4162572373716
 30
0.0
 10
108.8252149156073
 20
125.3969314935435
 30
0.0
 10
108.7697971855678
 20
125.3742154040272
 30
0.0
 10
108.705811221747
 20
125.3481463996403
 30
0.0
 10
108.6332577375601
 20
125.3187639523182
 30
0.0
 10
108.5521410402172
 20
125.28610970481
 30
0.0
 10
108.4624473849507
 20
125.2502172584305
 30
0.0
 10
108.2054015434088
 20
125.1479793442802
 30
0.0
 10
107.6773654316287
 20
124.9414552908032
 30
0.0
 10
106.6987313408315
 20
124.6043692719563
 30
0.0
 10
105.512852969511
 20
124.2612270351271
 30
0.0
 10
104.1424698342166
 20
123.9641216072203
 30
0.0
 10
102.6565965300552
 20
123.754108722259
 30
0.0
 10
101.4365085927068
 20
123.6958645289505
 30
0.0
 10
100.5700706934103
 20
123.7095082795266
 30
0.0
 10
100.0419028042418
 20
123.7348643434015
 30
0.0
 10
99.51715151240089
 20
123.7768837487703
 30
0.0
 10
98.99612893781966
 20
123.8351757183301
 30
0.0
 10
98.4788107522863
 20
123.9078158302865
 30
0.0
 10
98.14310653822247
 20
123.9667083098614
 30
0.0
 10
97.97421395446833
 20
123.9963370801372
 30
0.0
  0
LINE
  5
1CD
330
1F
100
AcDbEntity
  8
0
  6
Continuous
 62
     7
370
    25
100
AcDbLine
 10
108.9763557956
 20
125.4600765587
 30
0.0
 11
114.0004064055
 21
125.4600765587
 31
0.0
  0
LINE
  5
1CE
330
1F
100
AcDbEntity
  8
0
  6
Continuous
 62
     7
370
    25
100
AcDbLine
 10
106.1504064055
 20
111.8853499695
 30
0.0
 11
106.1504064055
 21
107.8225765587
 31
0.0
  0
SPLINE
  5
1CF
330
1F
100
AcDbEntity
  8
0
  6
Continuous
 62
     7
370
    25
100
AcDbSpline
210
0.0
220
0.0
230
1.0
 70
     8
 71
     3
 72
    25
 73
    21
 74
     0
 42
0.000000001
 43
0.00000001
 40
0.0
 40
0.0
 40
0.0
 40
0.0
 40
0.0278040781434126
 40
0.0555497219928001
 40
0.0833079149807706
 40
0.1111495445107108
 40
0.1391448641105942
 40
0.1673629793305536
 40
0.1958713754533302
 40
0.2247355016368484
 40
0.2540184217407588
 40
0.3796733112844407
 40
0.5056490307767938
 40
0.6297529978395443
 40
0.7535891429682601
 40
0.803864831731909
 40
0.8533521433014638
 40
0.9023387809672805
 40
0.9511213072434526
 40
1.0
 40
1.0
 40
1.0
 40
1.0
 10
101.5004064055387
 20
116.3700731410185
 30
0.0
 10
101.5690365064792
 20
116.369550737646
 30
0.0
 10
101.7061524722709
 20
116.3685070288072
 30
0.0
 10
101.9113389660929
 20
116.3554342132884
 30
0.0
 10
102.1156225223166
 20
116.3339108257185
 30
0.0
 10
102.319004917572
 20
116.303096582052
 30
0.0
 10
102.5214806485667
 20
116.2631834717393
 30
0.0
 10
102.7230483714345
 20
116.2140752067444
 30
0.0
 10
102.9237000792742
 20
116.1557462949005
 30
0.0
 10
103.123454137198
 20
116.0881305569347
 30
0.0
 10
103.5390625715678
 20
115.9272984852027
 30
0.0
 10
104.141865048796
 20
115.613312710852
 30
0.0
 10
104.8359206407298
 20
115.0497398088707
 30
0.0
 10
105.4026954986928
 20
114.373996335267
 30
0.0
 10
105.7402797646606
 20
113.7566156508917
 30
0.0
 10
105.9287551965553
 20
113.2645268339308
 30
0.0
 10
106.0280299766594
 20
112.9268470555901
 30
0.0
 10
106.098375448153
 20
112.5842152129617
 30
0.0
 10
106.1423644570014
 20
112.2368776021914
 30
0.0
 10
106.1477239968562
 20
112.002602743433
 30
0.0
 10
106.1504064055388
 20
111.8853499694532
 30
0.0
  0
LINE
  5
1D0
330
1F
100
AcDbEntity
  8
0
  6
Continuous
 62
     7
370
    25
100
AcDbLine
 10
99.5855331262
 20
116.370073141
 30
0.0
 11
101.5004064055
 21
116.370073141
 31
0.0
  0
SPLINE
  5
1D1
330
1F
100
AcDbEntity
  8
0
  6
Continuous
 62
     7
370
    25
100
AcDbSpline
210
0.0
220
0.0
230
1.0
 70
     8
 71
     3
 72
    12
 73
     8
 74
     0
 42
0.000000001
 43
0.00000001
 40
0.0
 40
0.0
 40
0.0
 40
0.0
 40
0.1993047266799346
 40
0.3984909635192683
 40
0.5980263786500536
 40
0.7983761953943095
 40
1.0
 40
1.0
 40
1.0
 40
1.0
 10
98.5843225619458
 20
116.2678809678613
 30
0.0
 10
98.64979340450816
 20
116.2809107275364
 30
0.0
 10
98.78069616617218
 20
116.3069625004864
 30
0.0
 10
98.9795904477469
 20
116.3354029553626
 30
0.0
 10
99.18003269823575
 20
116.3558338267686
 30
0.0
 10
99.38223060219266
 20
116.3682628575329
 30
0.0
 10
99.51762258418336
 20
116.3694684395601
 30
0.0
 10
99.58553312624926
 20
116.3700731410185
 30
0.0
  0
LINE
  5
1D2
330
1F
100
AcDbEntity
  8
0
  6
Continuous
 62
     7
370
    25
100
AcDbLine
 10
93.1597362764
 20
116.2677149042
 30
0.0
 11
98.5835397401
 21
116.2677149042
 31
0.0
  0
SPLINE
  5
1D3
330
1F
100
AcDbEntity
  8
0
  6
Continuous
 62
     7
370
    25
100
AcDbSpline
210
0.0
220
0.0
230
1.0
 70
     8
 71
     3
 72
    24
 73
    20
 74
     0
 42
0.000000001
 43
0.00000001
 40
0.0
 40
0.0
 40
0.0
 40
0.0
 40
0.0410168309165543
 40
0.0818356321233867
 40
0.122557668408599
 40
0.1632849263058868
 40
0.2041193531439227
 40
0.2451620975502011
 40
0.2865127793377935
 40
0.3282688142245627
 40
0.3705248143690148
 40
0.4133720798893533
 40
0.4568981901259621
 40
0.5011866971565184
 40
0.6001870884263307
 40
0.6987399491878605
 40
0.7976807785291141
 40
0.8978353515423612
 40
1.0
 40
1.0
 40
1.0
 40
1.0
 10
89.38774936938859
 20
118.2053567213164
 30
0.0
 10
89.45077514232544
 20
118.2048290945363
 30
0.0
 10
89.57652239907581
 20
118.203776388364
 30
0.0
 10
89.76442835624569
 20
118.1926493541448
 30
0.0
 10
89.95099333908327
 20
118.1745008899691
 30
0.0
 10
90.136217223124
 20
118.1486352003676
 30
0.0
 10
90.32009568210569
 20
118.1152038601504
 30
0.0
 10
90.5026258056706
 20
118.0741216604256
 30
0.0
 10
90.68380485010147
 20
118.0253570057356
 30
0.0
 10
90.86363045798811
 20
117.9688538602399
 30
0.0
 10
91.04210166309879
 20
117.9045533138528
 30
0.0
 10
91.21921493110605
 20
117.8323863933997
 30
0.0
 10
91.39497938185093
 20
117.7522819500608
 30
0.0
 10
91.64001798350311
 20
117.6284282960277
 30
0.0
 10
91.94421452893634
 20
117.4497965369496
 30
0.0
 10
92.29152181388557
 20
117.2007070981092
 30
0.0
 10
92.61069613018968
 20
116.9211375816294
 30
0.0
 10
92.90460801830449
 20
116.6123119253222
 30
0.0
 10
93.07413210691234
 20
116.3842198845174
 30
0.0
 10
93.15973627636203
 20
116.2690407977486
 30
0.0
  0
LINE
  5
1D4
330
1F
100
AcDbEntity
  8
0
  6
Continuous
 62
     7
370
    25
100
AcDbLine
 10
86.5962076525
 20
118.2053567213
 30
0.0
 11
89.3877493694
 21
118.2053567213
 31
0.0
  0
SPLINE
  5
1D5
330
1F
100
AcDbEntity
  8
0
  6
Continuous
 62
     7
370
    25
100
AcDbSpline
210
0.0
220
0.0
230
1.0
 70
     8
 71
     3
 72
     8
 73
     4
 74
     0
 42
0.000000001
 43
0.00000001
 40
0.0
 40
0.0
 40
0.0
 40
0.0
 40
1.0
 40
1.0
 40
1.0
 40
1.0
 10
86.55040358077997
 20
118.2688097123261
 30
0.0
 10
86.56567160467765
 20
118.247693241928
 30
0.0
 10
86.58093962857535
 20
118.2265421748753
 30
0.0
 10
86.59620765247303
 20
118.2053567213164
 30
0.0
  0
LINE
  5
1D6
330
1F
100
AcDbEntity
  8
0
  6
Continuous
 62
     7
370
    25
100
AcDbLine
 10
86.5504064055
 20
125.4600765587
 30
0.0
 11
86.5504064055
 21
118.2688097123
 31
0.0
  0
LINE
  5
1D7
330
1F
100
AcDbEntity
  8
0
  6
Continuous
 62
     7
370
    25
100
AcDbLine
 10
86.5504064055
 20
125.4600765587
 30
0.0
 11
90.4204062502
 21
125.4600765587
 31
0.0
  0
ARC
  5
1D8
330
1F
100
AcDbEntity
  8
0
  6
Continuous
 62
     7
370
    25
100
AcDbCircle
 10
213.0004064055
 20
124.3225765587
 30
0.0
 40
0.5
100
AcDbArc
 50
270.0
 51
0.0
  0
LINE
  5
1D9
330
1F
100
AcDbEntity
  8
0
  6
Continuous
 62
     7
370
    25
100
AcDbLine
 10
213.5004064055
 20
124.3225765587
 30
0.0
 11
213.5004064055
 21
107.8225765587
 31
0.0
  0
SPLINE
  5
1DA
330
1F
100
AcDbEntity
  8
0
  6
Continuous
 62
     7
370
    25
100
AcDbSpline
210
0.0
220
0.0
230
1.0
 70
     8
 71
     3
 72
    14
 73
    10
 74
     0
 42
0.000000001
 43
0.00000001
 40
0.0
 40
0.0
 40
0.0
 40
0.0
 40
0.2499999999999999
 40
0.2499999999999999
 40
0.4999999999999998
 40
0.4999999999999998
 40
0.75
 40
0.75
 40
1.0
 40
1.0
 40
1.0
 40
1.0
 10
153.0004064055387
 20
124.1225765586535
 30
0.0
 10
153.0004064055387
 20
124.1225765586535
 30
0.0
 10
153.0586698664988
 20
124.0901780051155
 30
0.0
 10
153.2946777228521
 20
123.9616569656619
 30
0.0
 10
153.4681927605831
 20
123.8678837267068
 30
0.0
 10
153.9177880690859
 20
123.6333934764088
 30
0.0
 10
154.1970808521411
 20
123.4911181769604
 30
0.0
 10
154.8375570485988
 20
123.1821897589435
 30
0.0
 10
155.1998626586183
 20
123.0147651220084
 30
0.0
 10
155.605632387419
 20
122.8420018054071
 30
0.0
  0
LINE
  5
1DB
330
1F
100
AcDbEntity
  8
0
  6
Continuous
 62
     7
370
    25
100
AcDbLine
 10
150.9004064055
 20
124.1225765587
 30
0.0
 11
153.0004064055
 21
124.1225765587
 31
0.0
  0
ARC
  5
1DC
330
1F
100
AcDbEntity
  8
0
  6
Continuous
 62
     7
370
    25
100
AcDbCircle
 10
150.9004064055
 20
123.7225765587
 30
0.0
 40
0.3999999999999915
100
AcDbArc
 50
90.0
 51
180.0
  0
SPLINE
  5
1DD
330
1F
100
AcDbEntity
  8
0
  6
Continuous
 62
     7
370
    25
100
AcDbSpline
210
0.0
220
0.0
230
1.0
 70
     8
 71
     3
 72
     8
 73
     4
 74
     0
 42
0.000000001
 43
0.00000001
 40
0.0
 40
0.0
 40
0.0
 40
0.0
 40
1.0
 40
1.0
 40
1.0
 40
1.0
 10
155.6056323874215
 20
122.8420018054174
 30
0.0
 10
155.6531441817343
 20
122.8217728563838
 30
0.0
 10
155.6987508672268
 20
122.7936161251169
 30
0.0
 10
155.742440444752
 20
122.7579811952399
 30
0.0
  0
SPLINE
  5
1DE
330
1F
100
AcDbEntity
  8
0
  6
Continuous
 62
     7
370
    25
100
AcDbSpline
210
0.0
220
0.0
230
1.0
 70
     8
 71
     3
 72
     8
 73
     4
 74
     0
 42
0.000000001
 43
0.00000001
 40
0.0
 40
0.0
 40
0.0
 40
0.0
 40
1.0
 40
1.0
 40
1.0
 40
1.0
 10
155.7424404447492
 20
122.7579811952292
 30
0.0
 10
155.9851051033061
 20
122.5600543993844
 30
0.0
 10
156.2377874514856
 20
122.3566960547678
 30
0.0
 10
156.5004064055387
 20
122.1491253405479
 30
0.0
  0
LINE
  5
1DF
330
1F
100
AcDbEntity
  8
0
  6
Continuous
 62
     7
370
    25
100
AcDbLine
 10
156.5004064055
 20
122.1491253405
 30
0.0
 11
156.5004064055
 21
107.8225765587
 31
0.0
  0
SPLINE
  5
1E0
330
1F
100
AcDbEntity
  8
0
  6
Continuous
 62
     7
370
    25
100
AcDbSpline
210
0.0
220
0.0
230
1.0
 70
     8
 71
     3
 72
    46
 73
    42
 74
     0
 42
0.000000001
 43
0.00000001
 40
0.0
 40
0.0
 40
0.0
 40
0.0
 40
0.0624999999999999
 40
0.0624999999999999
 40
0.1249999999999997
 40
0.1249999999999997
 40
0.1874999999999996
 40
0.1874999999999996
 40
0.2499999999999996
 40
0.2499999999999996
 40
0.3124999999999994
 40
0.3124999999999994
 40
0.3437499999999994
 40
0.3437499999999994
 40
0.3749999999999993
 40
0.3749999999999993
 40
0.4374999999999991
 40
0.4374999999999991
 40
0.4687499999999989
 40
0.4687499999999989
 40
0.4999999999999988
 40
0.4999999999999988
 40
0.5624999999999986
 40
0.5624999999999986
 40
0.6249999999999983
 40
0.6249999999999983
 40
0.687499999999998
 40
0.687499999999998
 40
0.7499999999999978
 40
0.7499999999999978
 40
0.7812499999999976
 40
0.7812499999999976
 40
0.8124999999999974
 40
0.8124999999999974
 40
0.8749999999999979
 40
0.8749999999999979
 40
0.9062499999999983
 40
0.9062499999999983
 40
0.9374999999999988
 40
0.9374999999999988
 40
1.0
 40
1.0
 40
1.0
 40
1.0
 10
181.0004064055387
 20
123.8225765586535
 30
0.0
 10
181.0004064055387
 20
123.8225765586535
 30
0.0
 10
181.062394939125
 20
123.7874802334829
 30
0.0
 10
181.3015495022503
 20
123.6548288240997
 30
0.0
 10
181.4784779698929
 20
123.55740000364
 30
0.0
 10
181.9421696462378
 20
123.3111718549215
 30
0.0
 10
182.2224430821703
 20
123.165848718869
 30
0.0
 10
182.8745919154822
 20
122.8457759272794
 30
0.0
 10
183.2496347892465
 20
122.6697061460817
 30
0.0
 10
184.0665628011314
 20
122.3165352826224
 30
0.0
 10
184.5107115475636
 20
122.1380432565437
 30
0.0
 10
185.2353927727111
 20
121.8815350622986
 30
0.0
 10
185.4869202249406
 20
121.7979838964988
 30
0.0
 10
185.9996152006301
 20
121.6409260629005
 30
0.0
 10
186.2620824155838
 20
121.5669366018534
 30
0.0
 10
187.068660392159
 20
121.3623181241308
 30
0.0
 10
187.6316883045031
 20
121.2488607907384
 30
0.0
 10
188.5215620801785
 20
121.1304896650834
 30
0.0
 10
188.8203458064425
 20
121.1004670217243
 30
0.0
 10
189.4222297655875
 20
121.0605567806795
 30
0.0
 10
189.7265490721806
 20
121.0506737205378
 30
0.0
 10
190.6386862141523
 20
121.0527552367723
 30
0.0
 10
191.2331926172969
 20
121.0961258079655
 30
0.0
 10
192.3975185359924
 20
121.2543856101543
 30
0.0
 10
192.9720063943534
 20
121.3709777972537
 30
0.0
 10
194.0496514976465
 20
121.6473787432976
 30
0.0
 10
194.5587222491476
 20
121.8074024300779
 30
0.0
 10
195.5227601861834
 20
122.1506435114063
 30
0.0
 10
195.9655115284769
 20
122.3294431763924
 30
0.0
 10
196.5733564930832
 20
122.5931671980843
 30
0.0
 10
196.7666774786314
 20
122.6804330846226
 30
0.0
 10
197.134618310443
 20
122.8515637439494
 30
0.0
 10
197.309512560556
 20
122.9355899579576
 30
0.0
 10
197.7950363957147
 20
123.1743458890169
 30
0.0
 10
198.0708765259004
 20
123.3175904829285
 30
0.0
 10
198.411613717486
 20
123.4986459187326
 30
0.0
 10
198.5129235337995
 20
123.5533575935515
 30
0.0
 10
198.6894520537442
 20
123.6495800143167
 30
0.0
 10
198.7633469955698
 20
123.6903652597838
 30
0.0
 10
198.9403493264129
 20
123.7885698364207
 30
0.0
 10
199.0004064055387
 20
123.8225765586535
 30
0.0
 10
199.0004064055387
 20
123.8225765586535
 30
0.0
  0
LINE
  5
1E1
330
1F
100
AcDbEntity
  8
0
  6
Continuous
 62
     7
370
    25
100
AcDbLine
 10
199.0004064055
 20
123.8225765587
 30
0.0
 11
213.0004064055
 21
123.8225765587
 31
0.0
  0
SPLINE
  5
1E2
330
1F
100
AcDbEntity
  8
0
  6
Continuous
 62
     7
370
    25
100
AcDbSpline
210
0.0
220
0.0
230
1.0
 70
     8
 71
     3
 72
    38
 73
    34
 74
     0
 42
0.000000001
 43
0.00000001
 40
0.0
 40
0.0
 40
0.0
 40
0.0
 40
0.1249999999999999
 40
0.1249999999999999
 40
0.1562499999999994
 40
0.1562499999999994
 40
0.187499999999999
 40
0.187499999999999
 40
0.249999999999999
 40
0.249999999999999
 40
0.2812499999999986
 40
0.2812499999999986
 40
0.3124999999999981
 40
0.3124999999999981
 40
0.3749999999999982
 40
0.3749999999999982
 40
0.4374999999999982
 40
0.4374999999999982
 40
0.4999999999999983
 40
0.4999999999999983
 40
0.5624999999999986
 40
0.5624999999999986
 40
0.6249999999999987
 40
0.6249999999999987
 40
0.6874999999999989
 40
0.6874999999999989
 40
0.7499999999999991
 40
0.7499999999999991
 40
0.8124999999999992
 40
0.8124999999999992
 40
0.8749999999999994
 40
0.8749999999999994
 40
1.0
 40
1.0
 40
1.0
 40
1.0
 10
156.5004064055387
 20
122.1491253405479
 30
0.0
 10
157.1529596729488
 20
121.898608413869
 30
0.0
 10
157.8622210312242
 20
121.6631111714269
 30
0.0
 10
158.8309871252371
 20
121.4244131013891
 30
0.0
 10
159.0298515451217
 20
121.3793358988171
 30
0.0
 10
159.4306476989017
 20
121.2971892595329
 30
0.0
 10
159.6327753361536
 20
121.2600313655781
 30
0.0
 10
160.2444245001748
 20
121.1612995740571
 30
0.0
 10
160.6591924308886
 20
121.112476619744
 30
0.0
 10
161.2925184437279
 20
121.0685854875147
 30
0.0
 10
161.5054943367376
 20
121.0588435310503
 30
0.0
 10
161.9353560573979
 20
121.0497477209433
 30
0.0
 10
162.151825246777
 20
121.0504725829233
 30
0.0
 10
162.7933573653347
 20
121.0681793564985
 30
0.0
 10
163.215111071744
 20
121.1005631380322
 30
0.0
 10
164.047390591031
 20
121.2023958560773
 30
0.0
 10
164.4611926716332
 20
121.2726106360153
 30
0.0
 10
165.2590850201358
 20
121.4412010834734
 30
0.0
 10
165.6429026102091
 20
121.5390733989432
 30
0.0
 10
166.3832797183335
 20
121.7539830003825
 30
0.0
 10
166.7420081722512
 20
121.8718599398882
 30
0.0
 10
167.4209456899562
 20
122.1152957662102
 30
0.0
 10
167.7409607399743
 20
122.2405706535579
 30
0.0
 10
168.3447608374699
 20
122.4914355058265
 30
0.0
 10
168.6285385619367
 20
122.6170580316439
 30
0.0
 10
169.1596234522687
 20
122.8624879577997
 30
0.0
 10
169.4016787196978
 20
122.9798516026045
 30
0.0
 10
169.8386576734089
 20
123.197957458908
 30
0.0
 10
170.0339025696377
 20
123.2988774435701
 30
0.0
 10
170.3763385719385
 20
123.4793663994225
 30
0.0
 10
170.52447071026
 20
123.5594728686344
 30
0.0
 10
170.8786111692177
 20
123.7531588652134
 30
0.0
 10
171.0004064055388
 20
123.8225765586535
 30
0.0
 10
171.0004064055387
 20
123.8225765586535
 30
0.0
  0
LINE
  5
1E3
330
1F
100
AcDbEntity
  8
0
  6
Continuous
 62
     7
370
    25
100
AcDbLine
 10
171.0004064055
 20
123.8225765587
 30
0.0
 11
181.0004064055
 21
123.8225765587
 31
0.0
  0
ARC
  5
1E4
330
1F
100
AcDbEntity
  8
0
  6
Continuous
 62
     7
370
    25
100
AcDbCircle
 10
121.2004064055
 20
122.1725765587
 30
0.0
 40
1.200000000000003
100
AcDbArc
 50
0.0
 51
90.0
  0
LINE
  5
1E5
330
1F
100
AcDbEntity
  8
0
  6
Continuous
 62
     7
370
    25
100
AcDbLine
 10
117.5004064055
 20
123.3725765587
 30
0.0
 11
121.2004064055
 21
123.3725765587
 31
0.0
  0
LINE
  5
1E6
330
1F
100
AcDbEntity
  8
0
  6
Continuous
 62
     7
370
    25
100
AcDbLine
 10
117.5004064055
 20
123.3725765587
 30
0.0
 11
117.5004064055
 21
107.8225765587
 31
0.0
  0
LINE
  5
1E7
330
1F
100
AcDbEntity
  8
0
  6
Continuous
 62
     7
370
    25
100
AcDbLine
 10
126.2254064055
 20
113.5725765587
 30
0.0
 11
127.0504064055
 21
113.5725765587
 31
0.0
  0
LINE
  5
1E8
330
1F
100
AcDbEntity
  8
0
  6
Continuous
 62
     7
370
    25
100
AcDbLine
 10
122.8004064055
 20
112.8225765587
 30
0.0
 11
122.8004064055
 21
107.8225765587
 31
0.0
  0
LINE
  5
1E9
330
1F
100
AcDbEntity
  8
0
  6
Continuous
 62
     7
370
    25
100
AcDbLine
 10
122.4004064055
 20
113.0535166663
 30
0.0
 11
122.8004064055
 21
112.8225765587
 31
0.0
  0
LINE
  5
1EA
330
1F
100
AcDbEntity
  8
0
  6
Continuous
 62
     7
370
    25
100
AcDbLine
 10
122.4004064055
 20
113.0535166663
 30
0.0
 11
122.4004064055
 21
107.8225765587
 31
0.0
  0
LINE
  5
1EB
330
1F
100
AcDbEntity
  8
0
  6
Continuous
 62
     7
370
    25
100
AcDbLine
 10
122.8004064055
 20
112.8225765587
 30
0.0
 11
126.2254064055
 21
112.8225765587
 31
0.0
  0
LINE
  5
1EC
330
1F
100
AcDbEntity
  8
0
  6
Continuous
 62
     7
370
    25
100
AcDbLine
 10
126.2254064055
 20
112.8225765587
 30
0.0
 11
126.2254064055
 21
107.8225765587
 31
0.0
  0
LINE
  5
1ED
330
1F
100
AcDbEntity
  8
0
  6
Continuous
 62
     7
370
    25
100
AcDbLine
 10
127.0504064055
 20
111.8225765587
 30
0.0
 11
150.5004064055
 21
111.8225765587
 31
0.0
  0
LINE
  5
1EE
330
1F
100
AcDbEntity
  8
0
  6
Continuous
 62
     7
370
    25
100
AcDbLine
 10
127.0504064055
 20
111.8225765587
 30
0.0
 11
127.0504064055
 21
107.8225765587
 31
0.0
  0
LINE
  5
1EF
330
1F
100
AcDbEntity
  8
0
  6
Continuous
 62
     7
370
    25
100
AcDbLine
 10
150.5004064055
 20
111.8225765587
 30
0.0
 11
150.5004064055
 21
107.8225765587
 31
0.0
  0
LINE
  5
1F0
330
1F
100
AcDbEntity
  8
0
  6
Continuous
 62
     7
370
    25
100
AcDbLine
 10
199.0004064055
 20
123.8225765587
 30
0.0
 11
199.0004064055
 21
142.8225767095
 31
0.0
  0
LINE
  5
1F1
330
1F
100
AcDbEntity
  8
0
  6
Continuous
 62
     7
370
    25
100
AcDbLine
 10
181.0004064055
 20
142.8225766487
 30
0.0
 11
181.0004064055
 21
123.8225765587
 31
0.0
  0
SPLINE
  5
1F2
330
1F
100
AcDbEntity
  8
0
  6
Continuous
 62
     7
370
    25
100
AcDbSpline
210
0.0
220
0.0
230
1.0
 70
     8
 71
     3
 72
    11
 73
     7
 74
     0
 42
0.000000001
 43
0.00000001
 40
0.0
 40
0.0
 40
0.0
 40
0.0
 40
0.0001455880407178
 40
0.6415245974963862
 40
0.8629550507732936
 40
1.0
 40
1.0
 40
1.0
 40
1.0
 10
199.0004064055387
 20
142.8225767095219
 30
0.0
 10
199.0004064036894
 20
142.8225766886767
 30
0.0
 10
199.0003982547606
 20
142.8224848357466
 30
0.0
 10
198.9218547591752
 20
142.7966158979935
 30
0.0
 10
198.7277266089472
 20
142.7365048567252
 30
0.0
 10
198.6320019066003
 20
142.707589805741
 30
0.0
 10
198.5954064055387
 20
142.6965355976521
 30
0.0
  0
SPLINE
  5
1F3
330
1F
100
AcDbEntity
  8
0
  6
Continuous
 62
     7
370
    25
100
AcDbSpline
210
0.0
220
0.0
230
1.0
 70
     8
 71
     3
 72
     9
 73
     5
 74
     0
 42
0.000000001
 43
0.00000001
 40
0.0
 40
0.0
 40
0.0
 40
0.0
 40
0.3258538687823285
 40
1.0
 40
1.0
 40
1.0
 40
1.0
 10
181.4054064055387
 20
142.6973483011571
 30
0.0
 10
181.3167384979411
 20
142.7240443091907
 30
0.0
 10
181.044629076841
 20
142.8059706282899
 30
0.0
 10
181.0182140163647
 20
142.8158897268184
 30
0.0
 10
181.0004064055387
 20
142.8225766487165
 30
0.0
  0
LINE
  5
1F4
330
1F
100
AcDbEntity
  8
0
  6
Continuous
 62
     7
370
    25
100
AcDbLine
 10
171.0004064055
 20
123.8225765587
 30
0.0
 11
171.0004064055
 21
142.8225767095
 31
0.0
  0
LINE
  5
1F5
330
1F
100
AcDbEntity
  8
0
  6
Continuous
 62
     7
370
    25
100
AcDbLine
 10
153.0004064055
 20
142.8225766487
 30
0.0
 11
153.0004064055
 21
124.1225765587
 31
0.0
  0
SPLINE
  5
1F6
330
1F
100
AcDbEntity
  8
0
  6
Continuous
 62
     7
370
    25
100
AcDbSpline
210
0.0
220
0.0
230
1.0
 70
     8
 71
     3
 72
    11
 73
     7
 74
     0
 42
0.000000001
 43
0.00000001
 40
0.0
 40
0.0
 40
0.0
 40
0.0
 40
0.0001455880406852
 40
0.6415245975184124
 40
0.8629550507928987
 40
1.0
 40
1.0
 40
1.0
 40
1.0
 10
171.0004064055387
 20
142.8225767095219
 30
0.0
 10
171.0004064036894
 20
142.8225766886767
 30
0.0
 10
171.0003982547899
 20
142.822484835751
 30
0.0
 10
170.9218547591659
 20
142.7966158979944
 30
0.0
 10
170.7277266089379
 20
142.7365048567267
 30
0.0
 10
170.6320019065956
 20
142.7075898057433
 30
0.0
 10
170.5954064055387
 20
142.6965355976556
 30
0.0
  0
SPLINE
  5
1F7
330
1F
100
AcDbEntity
  8
0
  6
Continuous
 62
     7
370
    25
100
AcDbSpline
210
0.0
220
0.0
230
1.0
 70
     8
 71
     3
 72
     9
 73
     5
 74
     0
 42
0.000000001
 43
0.00000001
 40
0.0
 40
0.0
 40
0.0
 40
0.0
 40
0.3258538687823085
 40
0.9999999999999999
 40
0.9999999999999999
 40
0.9999999999999999
 40
0.9999999999999999
 10
153.4054064055387
 20
142.6973483011571
 30
0.0
 10
153.3167384979411
 20
142.7240443091907
 30
0.0
 10
153.044629076841
 20
142.8059706282899
 30
0.0
 10
153.0182140163647
 20
142.8158897268184
 30
0.0
 10
153.0004064055387
 20
142.8225766487165
 30
0.0
  0
SPLINE
  5
1F8
330
1F
100
AcDbEntity
  8
0
  6
Continuous
 62
     7
370
    25
100
AcDbSpline
210
0.0
220
0.0
230
1.0
 70
     8
 71
     3
 72
    34
 73
    30
 74
     0
 42
0.000000001
 43
0.00000001
 40
0.0
 40
0.0
 40
0.0
 40
0.0
 40
0.0638068484849753
 40
0.0868465348860991
 40
0.110500282618276
 40
0.1347811738410132
 40
0.165132062891067
 40
0.1980511117829292
 40
0.2335529267626604
 40
0.2716490408725418
 40
0.3075977208653278
 40
0.3392876241531279
 40
0.3667184668972134
 40
0.3898905393501876
 40
0.4088050952482659
 40
0.4811584392434183
 40
0.5143447475266381
 40
0.5455518056715878
 40
0.5778346875833824
 40
0.6111349964624663
 40
0.6818714726368211
 40
0.7228448445460179
 40
0.7683033285408724
 40
0.8187465944578075
 40
0.8599616375916886
 40
0.8964944924013809
 40
0.9283465055731345
 40
0.9555207291382696
 40
1.0
 40
1.0
 40
1.0
 40
1.0
 10
108.3504064055387
 20
131.2862288620067
 30
0.0
 10
108.3278467835591
 20
131.2754109625862
 30
0.0
 10
108.2971412238302
 20
131.2606868835612
 30
0.0
 10
108.125833212541
 20
131.1866732376103
 30
0.0
 10
107.9872876320145
 20
131.1288051191926
 30
0.0
 10
107.7983578982202
 20
131.0521267320507
 30
0.0
 10
107.5442598898032
 20
130.9514685819143
 30
0.0
 10
107.2040725620464
 20
130.8220847803555
 30
0.0
 10
106.7787267647725
 20
130.6687208557919
 30
0.0
 10
106.281971954698
 20
130.4965762496257
 30
0.0
 10
105.7495168093492
 20
130.3264318111071
 30
0.0
 10
105.2305343289401
 20
130.1776843027757
 30
0.0
 10
104.7542151225051
 20
130.0517816835005
 30
0.0
 10
104.334092524995
 20
129.9488637142537
 30
0.0
 10
103.6204357771616
 20
129.7888153203224
 30
0.0
 10
102.7917977596235
 20
129.6424080266297
 30
0.0
 10
101.8503144639152
 20
129.5270270877542
 30
0.0
 10
101.1754921360398
 20
129.4695698697453
 30
0.0
 10
100.4972583129663
 20
129.4410478817299
 30
0.0
 10
99.54915334207817
 20
129.4395434988159
 30
0.0
 10
98.56579776869269
 20
129.4946239397536
 30
0.0
 10
97.57455462074525
 20
129.6072200687428
 30
0.0
 10
96.77041974812644
 20
129.7307946488768
 30
0.0
 10
96.0450565349157
 20
129.8778914928969
 30
0.0
 10
95.44998643165204
 20
130.0202274458197
 30
0.0
 10
95.00532504622026
 20
130.1341485868374
 30
0.0
 10
94.67554260299978
 20
130.2265788372845
 30
0.0
 10
94.35857618418396
 20
130.3201688078216
 30
0.0
 10
94.23130658614458
 20
130.361304593634
 30
0.0
 10
94.15230333628305
 20
130.3868398417598
 30
0.0
  0
SPLINE
  5
1F9
330
1F
100
AcDbEntity
  8
0
  6
Continuous
 62
     7
370
    25
100
AcDbSpline
210
0.0
220
0.0
230
1.0
 70
     8
 71
     3
 72
    10
 73
     6
 74
     0
 42
0.000000001
 43
0.00000001
 40
0.0
 40
0.0
 40
0.0
 40
0.0
 40
0.0215488738626835
 40
0.9703673153330143
 40
1.0
 40
1.0
 40
1.0
 40
1.0
 10
93.99476630097584
 20
130.4363924715101
 30
0.0
 10
93.99174380290155
 20
130.4373423398325
 30
0.0
 10
93.85563769542553
 20
130.4801158592206
 30
0.0
 10
93.85179113420952
 20
130.4865906982271
 30
0.0
 10
93.85044710972186
 20
130.4868422003203
 30
0.0
 10
93.8504064055387
 20
130.4868498171363
 30
0.0
  0
LINE
  5
1FA
330
1F
100
AcDbEntity
  8
0
  6
Continuous
 62
     7
370
    25
100
AcDbLine
 10
108.3504064055
 20
131.286228862
 30
0.0
 11
108.3504064055
 21
125.9288025794
 31
0.0
  0
SPLINE
  5
1FB
330
1F
100
AcDbEntity
  8
0
  6
Continuous
 62
     7
370
    25
100
AcDbSpline
210
0.0
220
0.0
230
1.0
 70
     8
 71
     3
 72
    30
 73
    26
 74
     0
 42
0.000000001
 43
0.00000001
 40
0.0
 40
0.0
 40
0.0
 40
0.0
 40
0.0192411700744789
 40
0.0381353539381658
 40
0.0566868884867143
 40
0.0749003554937614
 40
0.0927805967289955
 40
0.1103327298331041
 40
0.1275621649292586
 40
0.1444746219341743
 40
0.2455865830527328
 40
0.3577720192516738
 40
0.4505017408909965
 40
0.5720127868619691
 40
0.6168069840229066
 40
0.6590088499478174
 40
0.6986242498823394
 40
0.7356603299380537
 40
0.7701258931931305
 40
0.8073679165915137
 40
0.8483950324909219
 40
0.8881367798842407
 40
0.9266264622131355
 40
0.9639007443628534
 40
1.0
 40
1.0
 40
1.0
 40
1.0
 10
99.1795878149269
 20
124.2647112690633
 30
0.0
 10
99.26262029480772
 20
124.2535841637383
 30
0.0
 10
99.42718788588257
 20
124.231530614072
 30
0.0
 10
99.67506940156574
 20
124.2034787248089
 30
0.0
 10
99.92034607700965
 20
124.1795271942827
 30
0.0
 10
100.1629039106215
 20
124.159997242089
 30
0.0
 10
100.4023385877298
 20
124.1448049499122
 30
0.0
 10
100.6383517831353
 20
124.1339733886812
 30
0.0
 10
100.8706698284434
 20
124.127492823428
 30
0.0
 10
101.4792205980633
 20
124.1218613318417
 30
0.0
 10
102.5175330952818
 20
124.1818347313277
 30
0.0
 10
103.8328846233639
 20
124.3812572044966
 30
0.0
 10
105.1124298362589
 20
124.6867385651832
 30
0.0
 10
106.0038703803632
 20
124.9666813681034
 30
0.0
 10
106.6215352492503
 20
125.1941304646257
 30
0.0
 10
106.964858334544
 20
125.3244091251302
 30
0.0
 10
107.2565494194381
 20
125.4405000630891
 30
0.0
 10
107.5010947752541
 20
125.5418682924899
 30
0.0
 10
107.7134494556832
 20
125.633206345004
 30
0.0
 10
107.9045124303033
 20
125.7172814289473
 30
0.0
 10
108.0697598344755
 20
125.7922743829123
 30
0.0
 10
108.1993003847192
 20
125.8532628824586
 30
0.0
 10
108.2876667539393
 20
125.896500544224
 30
0.0
 10
108.3408125992002
 20
125.9237306301022
 30
0.0
 10
108.347242795141
 20
125.9271300762312
 30
0.0
 10
108.3504064055387
 20
125.9288025794051
 30
0.0
  0
SPLINE
  5
1FC
330
1F
100
AcDbEntity
  8
0
  6
Continuous
 62
     7
370
    25
100
AcDbSpline
210
0.0
220
0.0
230
1.0
 70
     8
 71
     3
 72
    38
 73
    34
 74
     0
 42
0.000000001
 43
0.00000001
 40
0.0
 40
0.0
 40
0.0
 40
0.0
 40
0.1249999999999995
 40
0.1249999999999995
 40
0.2499999999999989
 40
0.2499999999999989
 40
0.3124999999999986
 40
0.3124999999999986
 40
0.3749999999999983
 40
0.3749999999999983
 40
0.437499999999998
 40
0.437499999999998
 40
0.4999999999999977
 40
0.4999999999999977
 40
0.5624999999999973
 40
0.5624999999999973
 40
0.6249999999999969
 40
0.6249999999999969
 40
0.6874999999999966
 40
0.6874999999999966
 40
0.7187499999999969
 40
0.7187499999999969
 40
0.7499999999999971
 40
0.7499999999999971
 40
0.7812499999999974
 40
0.7812499999999974
 40
0.8124999999999978
 40
0.8124999999999978
 40
0.8749999999999986
 40
0.8749999999999986
 40
0.9374999999999992
 40
0.9374999999999992
 40
1.0
 40
1.0
 40
1.0
 40
1.0
 10
93.8504064055387
 20
130.3586244435574
 30
0.0
 10
93.85040640553882
 20
130.3586244435574
 30
0.0
 10
93.91221216310231
 20
130.3359803608954
 30
0.0
 10
94.16183470853777
 20
130.2433959718394
 30
0.0
 10
94.34556233947588
 20
130.1750083918867
 30
0.0
 10
94.70195117606086
 20
130.0391662926849
 30
0.0
 10
94.83511163756636
 20
129.9879733076284
 30
0.0
 10
95.12619064826269
 20
129.874284702516
 30
0.0
 10
95.28268059977196
 20
129.8123580950096
 30
0.0
 10
95.61606204105979
 20
129.6774729863192
 30
0.0
 10
95.79296579942287
 20
129.6045347320325
 30
0.0
 10
96.16620744689611
 20
129.4455587972367
 30
0.0
 10
96.36395143777719
 20
129.3589190273602
 30
0.0
 10
96.76997487103024
 20
129.1720013548078
 30
0.0
 10
96.97802826441719
 20
129.0719664409988
 30
0.0
 10
97.40032253715128
 20
128.8527028908199
 30
0.0
 10
97.61468784022631
 20
128.7336996991553
 30
0.0
 10
98.04253015180564
 20
128.4634258488315
 30
0.0
 10
98.25893180291226
 20
128.3101770233199
 30
0.0
 10
98.5575642457924
 20
128.0441084997369
 30
0.0
 10
98.65275683526212
 20
127.9493362534642
 30
0.0
 10
98.83038208711896
 20
127.7435793962744
 30
0.0
 10
98.91299639774738
 20
127.6317208545039
 30
0.0
 10
99.05507667276908
 20
127.3982053502816
 30
0.0
 10
99.11546222201409
 20
127.2756442843259
 30
0.0
 10
99.21491271416906
 20
127.0191735211008
 30
0.0
 10
99.25420415319394
 20
126.8839335075511
 30
0.0
 10
99.34090073934715
 20
126.4756515045867
 30
0.0
 10
99.35960906634197
 20
126.1993913268019
 30
0.0
 10
99.35611304571043
 20
125.6426435481663
 30
0.0
 10
99.3336334255019
 20
125.3644133041755
 30
0.0
 10
99.2680057777199
 20
124.8130274839908
 30
0.0
 10
99.22450823403045
 20
124.5387738148885
 30
0.0
 10
99.17502868692046
 20
124.2653443429269
 30
0.0
  0
LINE
  5
1FD
330
1F
100
AcDbEntity
  8
0
  6
Continuous
 62
     7
370
    25
100
AcDbLine
 10
93.8504064055
 20
130.3586244436
 30
0.0
 11
93.8504064055
 21
130.486849817
 31
0.0
  0
SPLINE
  5
1FE
330
1F
100
AcDbEntity
  8
0
  6
Continuous
 62
     7
370
    25
100
AcDbSpline
210
0.0
220
0.0
230
1.0
 70
     8
 71
     3
 72
    14
 73
    10
 74
     0
 42
0.000000001
 43
0.00000001
 40
0.0
 40
0.0
 40
0.0
 40
0.0
 40
0.0003951392850831
 40
0.0003951392850831
 40
0.0003951392850831
 40
0.0008159035679249
 40
0.0008159035679249
 40
0.0008159035679249
 40
0.0012369936130996
 40
0.0012369936130996
 40
0.0012369936130996
 40
0.0012369936130996
 10
97.97829035527029
 20
123.9975495556538
 30
0.0
 10
98.10679959337699
 20
124.0264235233672
 30
0.0
 10
98.235363101106
 20
124.0551117368435
 30
0.0
 10
98.36391347938938
 20
124.083614580881
 30
0.0
 10
98.50079872705297
 20
124.1139654745717
 30
0.0
 10
98.6376943729528
 20
124.1441114396007
 30
0.0
 10
98.77451463430184
 20
124.1740632591692
 30
0.0
 10
98.91144062324675
 20
124.2040382239491
 30
0.0
 10
99.04831769521093
 20
124.2338242733943
 30
0.0
 10
99.18505454439806
 20
124.263446746563
 30
0.0
  0
LINE
  5
1FF
330
1F
100
AcDbEntity
  8
0
  6
Continuous
 62
     7
370
    25
100
AcDbLine
 10
90.4204062502
 20
125.4600765587
 30
0.0
 11
93.8504064055
 21
130.3586244436
 31
0.0
  0
LINE
  5
200
330
1F
100
AcDbEntity
  8
0
  6
Continuous
 62
     7
370
    25
100
AcDbLine
 10
93.1008445572
 20
131.2959622683
 30
0.0
 11
93.8504345361
 21
130.4868509305
 31
0.0
  0
LINE
  5
201
330
1F
100
AcDbEntity
  8
0
  6
Continuous
 62
     7
370
    25
100
AcDbLine
 10
108.3504193537
 20
131.2862291178
 30
0.0
 11
109.0187494996
 21
132.0953409402
 31
0.0
  0
LINE
  5
202
330
1F
100
AcDbEntity
  8
0
  6
Continuous
 62
     7
370
    25
100
AcDbLine
 10
84.3020724554
 20
126.75815277
 30
0.0
 11
86.5504064055
 21
125.4600765587
 31
0.0
  0
LINE
  5
203
330
1F
100
AcDbEntity
  8
0
  6
Continuous
 62
     7
370
    25
100
AcDbLine
 10
83.5504064055
 20
128.0600765587
 30
0.0
 11
84.3020724554
 21
126.75815277
 31
0.0
  0
LINE
  5
204
330
1F
100
AcDbEntity
  8
0
  6
Continuous
 62
     7
370
    25
100
AcDbLine
 10
83.5504064055
 20
130.0256712825
 30
0.0
 11
83.5504064055
 21
128.0600765587
 31
0.0
  0
LINE
  5
205
330
1F
100
AcDbEntity
  8
0
  6
Continuous
 62
     7
370
    25
100
AcDbLine
 10
85.0504064055
 20
130.8916966862
 30
0.0
 11
83.5504064055
 21
130.0256712825
 31
0.0
  0
LINE
  5
206
330
1F
100
AcDbEntity
  8
0
  6
Continuous
 62
     7
370
    25
100
AcDbLine
 10
131.5254064055
 20
136.6725765587
 30
0.0
 11
131.5254064055
 21
136.7701718228
 31
0.0
  0
ARC
  5
207
330
1F
100
AcDbEntity
  8
0
  6
Continuous
 62
     7
370
    25
100
AcDbCircle
 10
132.5254064055
 20
136.6725765587
 30
0.0
 40
1.0
100
AcDbArc
 50
180.0
 51
270.0
  0
LINE
  5
208
330
1F
100
AcDbEntity
  8
0
  6
Continuous
 62
     7
370
    25
100
AcDbLine
 10
134.2754064055
 20
135.6725765587
 30
0.0
 11
132.5254064055
 21
135.6725765587
 31
0.0
  0
ARC
  5
209
330
1F
100
AcDbEntity
  8
0
  6
Continuous
 62
     7
370
    25
100
AcDbCircle
 10
134.2754064055
 20
136.6725765587
 30
0.0
 40
1.0
100
AcDbArc
 50
270.0
 51
0.0
  0
LINE
  5
20A
330
1F
100
AcDbEntity
  8
0
  6
Continuous
 62
     7
370
    25
100
AcDbLine
 10
135.2754064055
 20
136.7701718228
 30
0.0
 11
135.2754064055
 21
136.6725765587
 31
0.0
  0
LINE
  5
20B
330
1F
100
AcDbEntity
  8
0
  6
Continuous
 62
     7
370
    25
100
AcDbLine
 10
136.7346042101
 20
139.2975765587
 30
0.0
 11
135.2754064055
 21
136.7701718228
 31
0.0
  0
LINE
  5
20C
330
1F
100
AcDbEntity
  8
0
  6
Continuous
 62
     7
370
    25
100
AcDbLine
 10
152.0004064571
 20
143.8225765587
 30
0.0
 11
153.0004064055
 21
142.8225766487
 31
0.0
  0
LINE
  5
20D
330
1F
100
AcDbEntity
  8
0
  6
Continuous
 62
     7
370
    25
100
AcDbLine
 10
108.9763555473
 20
125.4600778489
 30
0.0
 11
108.3504095338
 21
125.9288027043
 31
0.0
  0
LINE
  5
20E
330
1F
100
AcDbEntity
  8
0
  6
Continuous
 62
     7
370
    25
100
AcDbLine
 10
131.5254064055
 20
136.7701718228
 30
0.0
 11
130.066208601
 21
139.2975765587
 31
0.0
  0
LINE
  5
20F
330
1F
100
AcDbEntity
  8
0
  6
Continuous
 62
     7
370
    25
100
AcDbLine
 10
126.2254064055
 20
112.8225765587
 30
0.0
 11
126.2254064055
 21
113.5725765587
 31
0.0
  0
LINE
  5
210
330
1F
100
AcDbEntity
  8
0
  6
Continuous
 62
     7
370
    25
100
AcDbLine
 10
127.0504064055
 20
113.5725765587
 30
0.0
 11
127.0504064055
 21
111.8225765587
 31
0.0
  0
LINE
  5
211
330
1F
100
AcDbEntity
  8
0
  6
Continuous
 62
     7
370
    25
100
AcDbLine
 10
122.4004064055
 20
122.1725765587
 30
0.0
 11
122.4004064055
 21
113.0535166663
 31
0.0
  0
LINE
  5
212
330
1F
100
AcDbEntity
  8
0
  6
Continuous
 62
     7
370
    25
100
AcDbLine
 10
150.5004064055
 20
111.8225765587
 30
0.0
 11
150.5004064055
 21
123.7225765587
 31
0.0
  0
LINE
  5
213
330
1F
100
AcDbEntity
  8
0
  6
Continuous
 62
     7
370
    25
100
AcDbLine
 10
117.5004064055
 20
125.2725765587
 30
0.0
 11
117.5004064055
 21
123.3725765587
 31
0.0
  0
LINE
  5
214
330
1F
100
AcDbEntity
  8
0
  6
Continuous
 62
     7
370
    25
100
AcDbLine
 10
123.5004064055
 20
139.0975765587
 30
0.0
 11
123.5004064055
 21
134.6725765587
 31
0.0
  0
LINE
  5
215
330
1F
100
AcDbEntity
  8
0
  6
Continuous
 62
     7
370
    25
100
AcDbLine
 10
145.5004064055
 20
139.3225765587
 30
0.0
 11
145.5004064055
 21
139.2975765587
 31
0.0
  0
LINE
  5
216
330
1F
100
AcDbEntity
  8
0
  6
Continuous
 62
     7
370
    25
100
AcDbLine
 10
199.0004064298
 20
142.8225767163
 30
0.0
 11
200.000406381
 21
143.8225766282
 31
0.0
  0
LINE
  5
217
330
1F
100
AcDbEntity
  8
0
  6
Continuous
 62
     7
370
    25
100
AcDbLine
 10
180.0004064571
 20
143.8225765587
 30
0.0
 11
181.0004064055
 21
142.8225766487
 31
0.0
  0
LINE
  5
218
330
1F
100
AcDbEntity
  8
0
  6
Continuous
 62
     7
370
    25
100
AcDbLine
 10
213.5004064055
 20
124.3225765587
 30
0.0
 11
213.5004064055
 21
132.9941494339
 31
0.0
  0
LINE
  5
219
330
1F
100
AcDbEntity
  8
0
  6
Continuous
 62
     7
370
    25
100
AcDbLine
 10
171.0004064298
 20
142.8225767163
 30
0.0
 11
172.000406381
 21
143.8225766282
 31
0.0
  0
SPLINE
  5
21A
330
1F
100
AcDbEntity
  8
0
  6
Continuous
 62
     7
370
    25
100
AcDbSpline
210
0.0
220
0.0
230
1.0
 70
     8
 71
     3
 72
     9
 73
     5
 74
     0
 42
0.000000001
 43
0.00000001
 40
0.0
 40
0.0
 40
0.0
 40
0.0
 40
0.5102144635023922
 40
1.0
 40
1.0
 40
1.0
 40
1.0
 10
84.35476980220982
 20
118.2842030753053
 30
0.0
 10
84.72963384654011
 20
118.2817123082607
 30
0.0
 10
85.46435242303247
 20
118.2768305041905
 30
0.0
 10
86.19335247111275
 20
118.2714472774686
 30
0.0
 10
86.55040615076852
 20
118.2688106508805
 30
0.0
  0
LINE
  5
21B
330
1F
100
AcDbEntity
  8
0
  6
Continuous
 62
     7
370
    25
100
AcDbLine
 10
84.3020724554
 20
118.3146273662
 30
0.0
 11
84.354769804
 21
118.2842025378
 31
0.0
  0
LINE
  5
21C
330
1F
100
AcDbEntity
  8
0
  6
Continuous
 62
     7
370
    25
100
AcDbLine
 10
84.3020724554
 20
126.75815277
 30
0.0
 11
84.3020724554
 21
118.3146273662
 31
0.0
  0
SPLINE
  5
21D
330
1F
100
AcDbEntity
  8
0
  6
Continuous
 62
     7
370
    25
100
AcDbSpline
210
0.0
220
0.0
230
1.0
 70
    24
 71
     3
 72
     8
 73
     4
 74
     0
 42
0.000000001
 43
0.00000001
 40
0.0000004089325119
 40
0.0000004089325119
 40
0.0000004089325119
 40
0.0000004089325119
 40
0.0015399868451459
 40
0.0015399868451459
 40
0.0015399868451459
 40
0.0015399868451459
 10
83.55040640553872
 20
118.7486019624379
 30
0.0
 10
83.80139748156317
 20
118.603692197131
 30
0.0
 10
84.05198667806613
 20
118.459014457074
 30
0.0
 10
84.30207245537827
 20
118.3146273662224
 30
0.0
  0
LINE
  5
21E
330
1F
100
AcDbEntity
  8
0
  6
Continuous
 62
     7
370
    25
100
AcDbLine
 10
83.5504064055
 20
128.0600765587
 30
0.0
 11
83.5504064055
 21
118.7486019624
 31
0.0
  0
SPLINE
  5
21F
330
1F
100
AcDbEntity
  8
0
  6
Continuous
 62
     7
370
    25
100
AcDbSpline
210
0.0
220
0.0
230
1.0
 70
     8
 71
     3
 72
     8
 73
     4
 74
     0
 42
0.000000001
 43
0.00000001
 40
0.0
 40
0.0
 40
0.0
 40
0.0
 40
1.0
 40
1.0
 40
1.0
 40
1.0
 10
86.6800881482955
 20
117.88257723639
 30
0.0
 10
86.65213992817596
 20
117.9903935903655
 30
0.0
 10
86.62417984000726
 20
118.0979874405318
 30
0.0
 10
86.59620765247303
 20
118.2053567213164
 30
0.0
  0
LINE
  5
220
330
1F
100
AcDbEntity
  8
0
  6
Continuous
 62
     7
370
    25
100
AcDbLine
 10
86.6800912868
 20
117.8825765587
 30
0.0
 11
85.0504056188
 21
117.8825765587
 31
0.0
  0
LINE
  5
221
330
1F
100
AcDbEntity
  8
0
  6
Continuous
 62
     7
370
    25
100
AcDbLine
 10
85.0504058187
 20
117.8825768975
 30
0.0
 11
84.3547693407
 21
118.2842028053
 31
0.0
  0
LINE
  5
222
330
1F
100
AcDbEntity
  8
0
  6
Continuous
 62
     7
370
    25
100
AcDbLine
 10
93.1043673028
 20
115.8850765587
 30
0.0
 11
92.8521956748
 21
115.8850765587
 31
0.0
  0
SPLINE
  5
223
330
1F
100
AcDbEntity
  8
0
  6
Continuous
 62
     7
370
    25
100
AcDbSpline
210
0.0
220
0.0
230
1.0
 70
     8
 71
     3
 72
    26
 73
    22
 74
     0
 42
0.000000001
 43
0.00000001
 40
0.0
 40
0.0
 40
0.0
 40
0.0
 40
0.0524616032245984
 40
0.1026497911584775
 40
0.1505654136713723
 40
0.1962094561589203
 40
0.2395830674744455
 40
0.2806875955357221
 40
0.3195246332747494
 40
0.3560960787422642
 40
0.3904042149164026
 40
0.4224518174656405
 40
0.4522423030205674
 40
0.4797799375650286
 40
0.5050701364955548
 40
0.5966477315635087
 40
0.6842052596254289
 40
0.768002620409792
 40
0.84833623390995
 40
0.9255424426774792
 40
1.0
 40
1.0
 40
1.0
 40
1.0
 10
92.85038918086933
 20
115.8851063426889
 30
0.0
 10
92.81475278183802
 20
115.9446532627711
 30
0.0
 10
92.74502428149958
 20
116.0611666465578
 30
0.0
 10
92.63154612073977
 20
116.225564607287
 30
0.0
 10
92.51602057101468
 20
116.3777263450885
 30
0.0
 10
92.39889887500483
 20
116.5176290420209
 30
0.0
 10
92.28152717452443
 20
116.6458433659256
 30
0.0
 10
92.1649062084943
 20
116.7628590448639
 30
0.0
 10
92.05000328803725
 20
116.8692362001149
 30
0.0
 10
91.93767906238884
 20
116.9655522805652
 30
0.0
 10
91.82871008821527
 20
117.0524016271992
 30
0.0
 10
91.72379104784595
 20
117.1303818091186
 30
0.0
 10
91.62353372033395
 20
117.2000900070894
 30
0.0
 10
91.52849638293628
 20
117.262099992946
 30
0.0
 10
91.35837918371527
 20
117.3665927528031
 30
0.0
 10
91.10544248085161
 20
117.5016593909126
 30
0.0
 10
90.7594395817561
 20
117.6460505830375
 30
0.0
 10
90.41147241538837
 20
117.7550153196849
 30
0.0
 10
90.06533852866092
 20
117.8295381076409
 30
0.0
 10
89.72429453020358
 20
117.8744598230059
 30
0.0
 10
89.49856744804136
 20
117.8799038681675
 30
0.0
 10
89.38774936938859
 20
117.8825765586535
 30
0.0
  0
SPLINE
  5
224
330
1F
100
AcDbEntity
  8
0
  6
Continuous
 62
     7
370
    25
100
AcDbSpline
210
0.0
220
0.0
230
1.0
 70
     8
 71
     3
 72
     8
 73
     4
 74
     0
 42
0.000000001
 43
0.00000001
 40
0.0
 40
0.0
 40
0.0
 40
0.0
 40
1.0
 40
1.0
 40
1.0
 40
1.0
 10
93.1043673027712
 20
115.8850765586533
 30
0.0
 10
93.13337200919877
 20
116.0090142855157
 30
0.0
 10
93.15240452888021
 20
116.136966415749
 30
0.0
 10
93.16065612107185
 20
116.2680357284405
 30
0.0
  0
LINE
  5
225
330
1F
100
AcDbEntity
  8
0
  6
Continuous
 62
     7
370
    25
100
AcDbLine
 10
89.3877493694
 20
117.8825765587
 30
0.0
 11
86.6800912868
 21
117.8825765587
 31
0.0
  0
LINE
  5
226
330
1F
100
AcDbEntity
  8
0
  6
Continuous
 62
     7
370
    25
100
AcDbLine
 10
106.1504064055
 20
111.8853499695
 30
0.0
 11
105.5004064055
 21
112.0350765587
 31
0.0
  0
SPLINE
  5
227
330
1F
100
AcDbEntity
  8
0
  6
Continuous
 62
     7
370
    25
100
AcDbSpline
210
0.0
220
0.0
230
1.0
 70
     8
 71
     3
 72
    26
 73
    22
 74
     0
 42
0.000000001
 43
0.00000001
 40
0.0
 40
0.0
 40
0.0
 40
0.0
 40
0.0305951520036936
 40
0.0629165828338455
 40
0.0969719833859528
 40
0.1327679186177953
 40
0.1703100321043798
 40
0.2096032067433707
 40
0.2506516922692633
 40
0.334213932439711
 40
0.4179514152271057
 40
0.501866694283096
 40
0.5659857992827788
 40
0.6277248002672727
 40
0.6871502460552312
 40
0.7443367736312543
 40
0.7993681411718523
 40
0.8523383421250337
 40
0.9033527751839112
 40
0.952529426872976
 40
1.0
 40
1.0
 40
1.0
 40
1.0
 10
105.5004064055387
 20
112.0350765586535
 30
0.0
 10
105.4994981936939
 20
112.0996117260489
 30
0.0
 10
105.497630525713
 20
112.232323346656
 30
0.0
 10
105.482037936648
 20
112.4351374381964
 30
0.0
 10
105.4553940754591
 20
112.646850479103
 30
0.0
 10
105.4152396463714
 20
112.8665624724822
 30
0.0
 10
105.3603415297139
 20
113.093309343318
 30
0.0
 10
105.2890985609998
 20
113.3259403471919
 30
0.0
 10
105.1706861672793
 20
113.6413386610865
 30
0.0
 10
104.9825552665128
 20
114.0258205640575
 30
0.0
 10
104.6985385214012
 20
114.4558481601259
 30
0.0
 10
104.3891116398402
 20
114.8143452041557
 30
0.0
 10
104.0731831089352
 20
115.1061263659977
 30
0.0
 10
103.7664101312192
 20
115.3385996064014
 30
0.0
 10
103.4479697125669
 20
115.53541408144
 30
0.0
 10
103.1219858230537
 20
115.6975114587938
 30
0.0
 10
102.7924437175157
 20
115.8259729928301
 30
0.0
 10
102.4628891940932
 20
115.9225460117369
 30
0.0
 10
102.1364893902689
 20
115.9883876503521
 30
0.0
 10
101.8160007432873
 20
116.027944217311
 30
0.0
 10
101.6043591740544
 20
116.0327272559574
 30
0.0
 10
101.5004064055387
 20
116.0350765586535
 30
0.0
  0
SPLINE
  5
228
330
1F
100
AcDbEntity
  8
0
  6
Continuous
 62
     7
370
    25
100
AcDbSpline
210
0.0
220
0.0
230
1.0
 70
     8
 71
     3
 72
    13
 73
     9
 74
     0
 42
0.000000001
 43
0.00000001
 40
0.0
 40
0.0
 40
0.0
 40
0.0
 40
0.1603925273051459
 40
0.3231077919528925
 40
0.4882907654093552
 40
0.6560800221168147
 40
0.8266077821003507
 40
1.0
 40
1.0
 40
1.0
 40
1.0
 10
99.58553312624926
 20
116.0350765586535
 30
0.0
 10
99.52648817605392
 20
116.0343211147632
 30
0.0
 10
99.4075432114466
 20
116.0327992869608
 30
0.0
 10
99.2282984742782
 20
116.0203557556712
 30
0.0
 10
99.0473683360722
 20
116.0001730526566
 30
0.0
 10
98.86523669239894
 20
115.9710383666777
 30
0.0
 10
98.6820606781265
 20
115.9336213376478
 30
0.0
 10
98.56131361015785
 20
115.9013535288452
 30
0.0
 10
98.50043723406354
 20
115.8850852475738
 30
0.0
  0
SPLINE
  5
229
330
1F
100
AcDbEntity
  8
0
  6
Continuous
 62
     7
370
    25
100
AcDbSpline
210
0.0
220
0.0
230
1.0
 70
    24
 71
     3
 72
    10
 73
     6
 74
     0
 42
0.000000001
 43
0.00000001
 40
0.0
 40
0.0
 40
0.0
 40
0.0
 40
0.3215164130158404
 40
0.6546690893729387
 40
1.0
 40
1.0
 40
1.0
 40
1.0
 10
98.5005852404435
 20
115.8850765586535
 30
0.0
 10
98.4320424820868
 20
115.8850765586535
 30
0.0
 10
98.29247627837242
 20
115.8850765586535
 30
0.0
 10
98.08280459046584
 20
115.8850765586535
 30
0.0
 10
97.9430711332334
 20
115.8850765586535
 30
0.0
 10
97.87195035307477
 20
115.8850765586535
 30
0.0
  0
SPLINE
  5
22A
330
1F
100
AcDbEntity
  8
0
  6
Continuous
 62
     7
370
    25
100
AcDbSpline
210
0.0
220
0.0
230
1.0
 70
     8
 71
     3
 72
     8
 73
     4
 74
     0
 42
0.000000001
 43
0.00000001
 40
0.0
 40
0.0
 40
0.0
 40
0.0
 40
1.0
 40
1.0
 40
1.0
 40
1.0
 10
98.58658861945273
 20
116.2634697997586
 30
0.0
 10
98.31728407790825
 20
116.1667611014575
 30
0.0
 10
98.08112134379773
 20
116.0387415098833
 30
0.0
 10
97.8719266147602
 20
115.8852437566154
 30
0.0
  0
LINE
  5
22B
330
1F
100
AcDbEntity
  8
0
  6
Continuous
 62
     7
370
    25
100
AcDbLine
 10
97.8724436744
 20
99.7600765587
 30
0.0
 11
98.0099318598
 21
99.7600765587
 31
0.0
  0
LINE
  5
22C
330
1F
100
AcDbEntity
  8
0
  6
Continuous
 62
     7
370
    25
100
AcDbLine
 10
101.5004064055
 20
116.0350765587
 30
0.0
 11
99.5855331262
 21
116.0350765587
 31
0.0
  0
LINE
  5
22D
330
1F
100
AcDbEntity
  8
0
  6
Continuous
 62
     7
370
    25
100
AcDbLine
 10
97.8721719796
 20
115.8850765587
 30
0.0
 11
93.1043673028
 21
115.8850765587
 31
0.0
  0
LINE
  5
22E
330
1F
100
AcDbEntity
  8
0
  6
Continuous
 62
     7
370
    25
100
AcDbLine
 10
105.5004064055
 20
107.8225765587
 30
0.0
 11
105.5004064055
 21
112.0350765587
 31
0.0
  0
LINE
  5
22F
330
1F
100
AcDbEntity
  8
VERMASSUNG
  6
CENTERX2
100
AcDbLine
 10
226.4954064055
 20
107.8225765587
 30
0.0
 11
70.5554064055
 21
107.8225765587
 31
0.0
  0
HATCH
  5
230
330
1F
100
AcDbEntity
  8
0
  6
Continuous
 62
     7
370
    18
100
AcDbHatch
 10
0.0
 20
0.0
 30
0.0
210
0.0
220
0.0
230
1.0
  2
ANSI31
 70
     0
 71
     0
 91
        1
 92
        0
 93
       41
 72
     1
 10
131.5254064055387
 20
136.7701718228451
 11
130.0662086009687
 21
139.2975765586535
 72
     1
 10
130.0662086009687
 20
139.2975765586535
 11
123.7004064055387
 21
139.2975765586535
 72
     2
 10
123.7004064055387
 20
139.0975765586535
 40
0.2000000000000028
 50
90.0
 51
180.0
 73
     1
 72
     1
 10
123.5004064055387
 20
139.0975765586535
 11
123.5004064055387
 21
134.6725765586535
 72
     1
 10
123.5004064055387
 20
134.6725765586535
 11
123.8344450915673
 21
133.6131411982569
 72
     2
 10
123.0714715309688
 20
133.3725765586535
 40
0.8000000000000049
 50
342.4999999999998
 51
467.5000000000022
 73
     0
 72
     1
 10
122.8309068913653
 20
132.6096029980549
 11
122.340224365508
 21
132.7643146041818
 72
     1
 10
122.340224365508
 20
132.7643146041818
 11
109.0187510929885
 21
132.0953376311556
 72
     1
 10
109.0187494995899
 20
132.0953409402241
 11
108.3504193536604
 21
131.2862291178329
 72
     1
 10
108.3504193536604
 20
131.2862291178329
 11
108.3504064055387
 21
125.928802579405
 72
     1
 10
108.3504095337724
 20
125.9288027042855
 11
108.9763555473146
 21
125.4600778489455
 72
     1
 10
108.9763557956235
 20
125.4600765586535
 11
114.0004064055387
 21
125.4600765586535
 72
     1
 10
114.0004064055387
 20
125.4600765586535
 11
114.8756468791196
 21
125.965396881681
 72
     2
 10
115.2756468791196
 20
125.2725765586535
 40
0.7999999999999937
 50
240.0000000000009
 51
269.9999999999998
 73
     0
 72
     1
 10
115.2756468791195
 20
126.0725765586535
 11
116.7004064055387
 21
126.0725765586535
 72
     2
 10
116.7004064055387
 20
125.2725765586535
 40
0.7999999999999977
 50
270.0000000000008
 51
360.0000000000008
 73
     0
 72
     1
 10
117.5004064055387
 20
125.2725765586535
 11
117.5004064055387
 21
123.3725765586535
 72
     1
 10
117.5004064055387
 20
123.3725765586535
 11
121.2004064055387
 21
123.3725765586535
 72
     2
 10
121.2004064055387
 20
122.1725765586535
 40
1.2
 50
270.0000000000008
 51
360.0000000000008
 73
     0
 72
     1
 10
122.4004064055387
 20
122.1725765586535
 11
122.4004064055387
 21
113.0535166663293
 72
     1
 10
122.4004064055387
 20
113.0535166663293
 11
122.8004064055387
 21
112.8225765586535
 72
     1
 10
122.8004064055387
 20
112.8225765586535
 11
126.2254064055387
 21
112.8225765586535
 72
     1
 10
126.2254064055387
 20
112.8225765586535
 11
126.2254064055387
 21
113.5725765586535
 72
     1
 10
126.2254064055387
 20
113.5725765586535
 11
127.0504064055387
 21
113.5725765586535
 72
     1
 10
127.0504064055387
 20
113.5725765586535
 11
127.0504064055387
 21
111.8225765586535
 72
     1
 10
127.0504064055387
 20
111.8225765586535
 11
150.5004064055387
 21
111.8225765586535
 72
     1
 10
150.5004064055387
 20
111.8225765586535
 11
150.5004064055387
 21
123.7225765586535
 72
     2
 10
150.9004064055387
 20
123.7225765586535
 40
0.3999999999999993
 50
180.0
 51
270.0000000000008
 73
     0
 72
     1
 10
150.9004064055387
 20
124.1225765586535
 11
153.0004064055387
 21
124.1225765586535
 72
     1
 10
153.0004064055387
 20
124.1225765586535
 11
153.0004064055387
 21
142.8225766487165
 72
     1
 10
153.0004064055387
 20
142.8225766487165
 11
152.0004064570625
 21
143.8225765586535
 72
     1
 10
152.0004064570625
 20
143.8225765586535
 11
150.0004064055387
 21
143.8225765586535
 72
     1
 10
150.0004064055387
 20
143.8225765586535
 11
145.5004064055387
 21
139.3225765586535
 72
     1
 10
145.5004064055387
 20
139.3225765586535
 11
145.5004064055387
 21
139.2975765586535
 72
     1
 10
145.5004064055387
 20
139.2975765586535
 11
136.7346042101088
 21
139.2975765586535
 72
     1
 10
136.7346042101088
 20
139.2975765586535
 11
135.2754064055387
 21
136.7701718228452
 72
     1
 10
135.2754064055387
 20
136.7701718228452
 11
135.2754064055387
 21
136.6725765586535
 72
     2
 10
134.2754064055387
 20
136.6725765586535
 40
1.000000000000003
 50
0.0
 51
90.0
 73
     0
 72
     1
 10
134.2754064055387
 20
135.6725765586535
 11
132.5254064055387
 21
135.6725765586535
 72
     2
 10
132.5254064055387
 20
136.6725765586535
 40
1.000000000000003
 50
90.0
 51
180.0
 73
     0
 72
     1
 10
131.5254064055387
 20
136.6725765586535
 11
131.5254064055387
 21
136.7701718228451
 97
        0
 75
     0
 76
     1
 52
0.0
 41
1.0
 77
     0
 78
     1
 53
45.0
 43
0.0
 44
0.0
 45
-2.245064030267288
 46
2.245064030267288
 79
     0
 98
        1
 10
0.0
 20
0.0
  0
HATCH
  5
231
330
1F
100
AcDbEntity
  8
0
  6
Continuous
 62
     7
370
    18
100
AcDbHatch
 10
0.0
 20
0.0
 30
0.0
210
0.0
220
0.0
230
1.0
  2
ANSI31
 70
     0
 71
     0
 91
        1
 92
        0
 93
        6
 72
     1
 10
181.0004064055387
 20
123.8225765586535
 11
181.0004064055387
 21
142.8225766487165
 72
     1
 10
181.0004064055387
 20
142.8225766487165
 11
180.0004064570625
 21
143.8225765586535
 72
     1
 10
180.0004064570625
 20
143.8225765586535
 11
172.0004064018903
 21
143.8225765586535
 72
     1
 10
172.0004063810221
 20
143.8225766281519
 11
171.0004064298452
 21
142.8225767162844
 72
     1
 10
171.0004064055387
 20
142.8225767095219
 11
171.0004064055387
 21
123.8225765586535
 72
     1
 10
171.0004064055387
 20
123.8225765586535
 11
181.0004064055387
 21
123.8225765586535
 97
        0
 75
     0
 76
     1
 52
0.0
 41
1.0
 77
     0
 78
     1
 53
45.0
 43
0.0
 44
0.0
 45
-2.245064030267288
 46
2.245064030267288
 79
     0
 98
        1
 10
0.0
 20
0.0
  0
HATCH
  5
232
330
1F
100
AcDbEntity
  8
0
  6
Continuous
 62
     7
370
    18
100
AcDbHatch
 10
0.0
 20
0.0
 30
0.0
210
0.0
220
0.0
230
1.0
  2
ANSI31
 70
     0
 71
     0
 91
        1
 92
        0
 93
        9
 72
     1
 10
199.0004064055387
 20
123.8225765586535
 11
213.0004064055387
 21
123.8225765586535
 72
     2
 10
213.0004064055387
 20
124.3225765586535
 40
0.5000000000000004
 50
270.0000000000008
 51
360.0000000000008
 73
     1
 72
     1
 10
213.5004064055387
 20
124.3225765586535
 11
213.5004064055387
 21
132.9941494339072
 72
     2
 10
211.5004064055387
 20
132.9941494339072
 40
2.000000000000022
 50
0.0
 51
45.00000000000058
 73
     1
 72
     1
 10
212.9146199679118
 20
134.4083629962804
 11
204.0861928431657
 21
143.2367901210266
 72
     2
 10
202.6719792807926
 20
141.8225765586534
 40
2.000000000000025
 50
45.0
 51
90.0
 73
     1
 72
     1
 10
202.6719792807926
 20
143.8225765586535
 11
200.0004064018903
 21
143.8225765586535
 72
     1
 10
200.0004063810221
 20
143.8225766281519
 11
199.0004064298452
 21
142.8225767162844
 72
     1
 10
199.0004064055387
 20
142.8225767095219
 11
199.0004064055387
 21
123.8225765586535
 97
        0
 75
     0
 76
     1
 52
0.0
 41
1.0
 77
     0
 78
     1
 53
45.0
 43
0.0
 44
0.0
 45
-2.245064030267288
 46
2.245064030267288
 79
     0
 98
        1
 10
0.0
 20
0.0
  0
HATCH
  5
233
330
1F
100
AcDbEntity
  8
0
  6
Continuous
 62
     7
370
    18
100
AcDbHatch
 10
0.0
 20
0.0
 30
0.0
210
0.0
220
0.0
230
1.0
  2
ANSI31
 70
     0
 71
     0
 91
        1
 92
        0
 93
        9
 72
     1
 10
93.8504345361269
 20
130.4868509305364
 11
93.10084455719118
 21
131.295962268304
 72
     1
 10
93.10084455719118
 20
131.295962268304
 11
85.05040640553874
 21
130.8916966862359
 72
     1
 10
85.05040640553874
 20
130.8916966862359
 11
83.55040640553874
 21
130.0256712824515
 72
     1
 10
83.55040640553874
 20
130.0256712824515
 11
83.55040640553874
 21
128.0600765586535
 72
     1
 10
83.55040640553874
 20
128.0600765586535
 11
84.30207245537827
 21
126.7581527700068
 72
     1
 10
84.30207245537827
 20
126.7581527700068
 11
86.55040640553874
 21
125.4600765586535
 72
     1
 10
86.55040640553874
 20
125.4600765586535
 11
90.42040625024768
 21
125.4600765586535
 72
     1
 10
90.42040625024768
 20
125.4600765586535
 11
93.85040640553872
 21
130.3586244435575
 72
     1
 10
93.85040640553872
 20
130.3586244435574
 11
93.85040640553872
 21
130.4868498170432
 97
        0
 75
     0
 76
     1
 52
0.0
 41
1.0
 77
     0
 78
     1
 53
45.0
 43
0.0
 44
0.0
 45
-2.245064030267288
 46
2.245064030267288
 79
     0
 98
        1
 10
0.0
 20
0.0
  0
HATCH
  5
234
330
1F
100
AcDbEntity
  8
0
  6
Continuous
 62
     7
370
    18
100
AcDbHatch
 10
0.0
 20
0.0
 30
0.0
210
0.0
220
0.0
230
1.0
  2
ANSI31
 70
     0
 71
     0
 91
        1
 92
        0
 93
       20
 72
     1
 10
155.0004064055387
 20
123.4500443574075
 11
157.0004064055387
 21
123.4500443574075
 72
     1
 10
157.0004064055387
 20
123.4500443574075
 11
162.0004064055387
 21
126.3367957033556
 72
     1
 10
162.0004064055387
 20
126.3367957033556
 11
167.0004064055387
 21
123.4500443574075
 72
     1
 10
167.0004064055387
 20
123.4500443574075
 11
169.0004064055387
 21
123.4500443574075
 72
     1
 10
169.0004064055387
 20
123.4500443574075
 11
170.5954064055387
 21
125.0450443574075
 72
     1
 10
170.5954064055387
 20
125.0450443574075
 11
170.5954064055387
 21
142.9500443574075
 72
     1
 10
170.5954064055387
 20
142.9500443574075
 11
169.5954064055387
 21
143.9500443574075
 72
     1
 10
169.5954064055387
 20
143.9500443574075
 11
168.5004064055387
 21
143.9500443574075
 72
     1
 10
168.5004064055387
 20
143.9500443574075
 11
167.0064063052686
 21
142.4560442571371
 72
     1
 10
167.0064063052686
 20
142.4560442571371
 11
167.0064063052686
 21
129.9500443574075
 72
     1
 10
167.0064063052686
 20
129.9500443574075
 11
167.0004064055387
 21
129.9500443574075
 72
     1
 10
167.0004064055387
 20
129.9500443574075
 11
162.0004064055387
 21
126.9457412622697
 72
     1
 10
162.0004064055387
 20
126.9457412622697
 11
157.0004064055387
 21
129.9500443574075
 72
     1
 10
157.0004064055387
 20
129.9500443574075
 11
156.9944065058088
 21
129.9500443574075
 72
     1
 10
156.9944065058088
 20
129.9500443574075
 11
156.9944065058088
 21
142.4560442571374
 72
     1
 10
156.9944065058088
 20
142.4560442571374
 11
155.5004064055387
 21
143.9500443574075
 72
     1
 10
155.5004064055387
 20
143.9500443574075
 11
154.4054064055387
 21
143.9500443574075
 72
     1
 10
154.4054064055387
 20
143.9500443574075
 11
153.4054064055387
 21
142.9500443574075
 72
     1
 10
153.4054064055387
 20
142.9500443574075
 11
153.4054064055387
 21
125.0450443574075
 72
     1
 10
153.4054064055387
 20
125.0450443574075
 11
155.0004064055387
 21
123.4500443574075
 97
        0
 75
     0
 76
     1
 52
0.0
 41
1.0
 77
     0
 78
     1
 53
45.0
 43
0.0
 44
0.0
 45
-2.245064030267288
 46
2.245064030267288
 79
     0
 98
        1
 10
0.0
 20
0.0
  0
HATCH
  5
235
330
1F
100
AcDbEntity
  8
0
  6
Continuous
 62
     7
370
    18
100
AcDbHatch
 10
0.0
 20
0.0
 30
0.0
210
0.0
220
0.0
230
1.0
  2
ANSI31
 70
     0
 71
     0
 91
        1
 92
        0
 93
       20
 72
     1
 10
183.0004064055387
 20
123.407340346919
 11
185.0004064055387
 21
123.407340346919
 72
     1
 10
185.0004064055387
 20
123.407340346919
 11
190.0004064055387
 21
126.2940916928671
 72
     1
 10
190.0004064055387
 20
126.2940916928671
 11
195.0004064055387
 21
123.407340346919
 72
     1
 10
195.0004064055387
 20
123.407340346919
 11
197.0004064055387
 21
123.407340346919
 72
     1
 10
197.0004064055387
 20
123.407340346919
 11
198.5954064055387
 21
125.002340346919
 72
     1
 10
198.5954064055387
 20
125.002340346919
 11
198.5954064055387
 21
142.907340346919
 72
     1
 10
198.5954064055387
 20
142.907340346919
 11
197.5954064055387
 21
143.907340346919
 72
     1
 10
197.5954064055387
 20
143.907340346919
 11
196.5004064055388
 21
143.907340346919
 72
     1
 10
196.5004064055388
 20
143.907340346919
 11
195.16208361888
 21
142.5690175602601
 72
     1
 10
195.16208361888
 20
142.5690175602601
 11
195.16208361888
 21
129.907340346919
 72
     1
 10
195.16208361888
 20
129.907340346919
 11
195.0004064055387
 21
129.907340346919
 72
     1
 10
195.0004064055387
 20
129.907340346919
 11
190.0004064055387
 21
126.9030372517812
 72
     1
 10
190.0004064055387
 20
126.9030372517812
 11
185.0004064055387
 21
129.907340346919
 72
     1
 10
185.0004064055387
 20
129.907340346919
 11
184.8387291921974
 21
129.907340346919
 72
     1
 10
184.8387291921974
 20
129.907340346919
 11
184.8387291921974
 21
142.5690175602602
 72
     1
 10
184.8387291921974
 20
142.5690175602602
 11
183.5004064055387
 21
143.907340346919
 72
     1
 10
183.5004064055387
 20
143.907340346919
 11
182.4054064055388
 21
143.907340346919
 72
     1
 10
182.4054064055388
 20
143.907340346919
 11
181.4054064055388
 21
142.907340346919
 72
     1
 10
181.4054064055388
 20
142.907340346919
 11
181.4054064055388
 21
125.002340346919
 72
     1
 10
181.4054064055388
 20
125.002340346919
 11
183.0004064055387
 21
123.407340346919
 97
        0
 75
     0
 76
     1
 52
0.0
 41
1.0
 77
     0
 78
     1
 53
45.0
 43
0.0
 44
0.0
 45
-2.245064030267288
 46
2.245064030267288
 79
     0
 98
        1
 10
0.0
 20
0.0
  0
DIMENSION
  5
236
330
1F
100
AcDbEntity
  8
VERMASSUNG
100
AcDbDimension
  2
_D
 10
237.253631368
 20
91.8225765587
 30
0.0
 11
237.253631368
 21
107.8225765587
 31
0.0
 70
   160
  1
%%c<>
 71
     2
 42
-1.0
  3
SLDDIMSTYLE0
100
AcDbAlignedDimension
 13
213.0004064055
 23
123.8225765587
 33
0.0
 14
213.0004064055
 24
91.8225765587
 34
0.0
 50
90.0
100
AcDbRotatedDimension
  0
DIMENSION
  5
240
330
1F
100
AcDbEntity
  8
VERMASSUNG
100
AcDbDimension
  2
_D_1
 10
250.8263066787
 20
143.8225765587
 30
0.0
 11
250.8263066787
 21
107.8225765587
 31
0.0
 70
   160
  1
%%c<>
 71
     2
 42
-1.0
  3
SLDDIMSTYLE1
100
AcDbAlignedDimension
 13
202.6719792808
 23
71.8225765587
 33
0.0
 14
152.0004064571
 24
143.8225765587
 34
0.0
 50
90.0
100
AcDbRotatedDimension
  0
DIMENSION
  5
24C
330
1F
100
AcDbEntity
  8
VERMASSUNG
100
AcDbDimension
  2
_D_2
 10
63.5600702969
 20
76.3225765587
 30
0.0
 11
63.5600702969
 21
107.8225765587
 31
0.0
 70
   160
  1
%%c<>
 71
     2
 42
-1.0
  3
SLDDIMSTYLE1
100
AcDbAlignedDimension
 13
145.5004064055
 23
139.3225765587
 33
0.0
 14
145.5004064055
 24
76.3225765587
 34
0.0
 50
90.0
100
AcDbRotatedDimension
  0
DIMENSION
  5
257
330
1F
100
AcDbEntity
  8
VERMASSUNG
100
AcDbDimension
  2
_D_3
 10
213.5004064055
 20
163.5829872525
 30
0.0
 11
168.5004064055
 21
163.5829872525
 31
0.0
 70
   160
  1
<>
 71
     2
 42
-1.0
  3
SLDDIMSTYLE1
100
AcDbAlignedDimension
 13
123.5004064055
 23
139.0975765587
 33
0.0
 14
213.5004064055
 24
132.9941494339
 34
0.0
 50
0.0
100
AcDbRotatedDimension
  0
DIMENSION
  5
261
330
1F
100
AcDbEntity
  8
VERMASSUNG
100
AcDbDimension
  2
_D_4
 10
213.5004064055
 20
155.2608073065
 30
0.0
 11
179.5004064055
 21
155.2608073065
 31
0.0
 70
   160
  1
<>
 71
     2
 42
-1.0
  3
SLDDIMSTYLE1
100
AcDbAlignedDimension
 13
145.5004064055
 23
139.3225765587
 33
0.0
 14
213.5004064055
 24
132.9941494339
 34
0.0
100
AcDbRotatedDimension
  0
DIMENSION
  5
26B
330
1F
100
AcDbEntity
  8
VERMASSUNG
100
AcDbDimension
  2
_D_5
 10
83.5504064055
 20
171.9500443574
 30
0.0
 11
148.5254064055
 21
171.9500443574
 31
0.0
 70
   160
  1
<>
 71
     2
 42
-1.0
  3
SLDDIMSTYLE1
100
AcDbAlignedDimension
 13
213.5004064055
 23
132.9941494339
 33
0.0
 14
83.5504064055
 24
130.0256712825
 34
0.0
 50
0.0
100
AcDbRotatedDimension
  0
LINE
  5
275
330
1F
100
AcDbEntity
  8
VERMASSUNG
  6
CENTERX2
370
    18
100
AcDbLine
 10
190.0004064055
 20
149.0600789065
 30
0.0
 11
190.0004064055
 21
117.4431073291
 31
0.0
  0
LINE
  5
276
330
1F
100
AcDbEntity
  8
VERMASSUNG
  6
CENTERX2
370
    18
100
AcDbLine
 10
162.0004064055
 20
148.8998552327
 30
0.0
 11
162.0004064055
 21
117.4776471074
 31
0.0
  0
LINE
  5
277
330
1F
100
AcDbEntity
  8
0
  6
Continuous
 62
     7
370
    25
100
AcDbLine
 10
276.511156933
 20
10.7811810424
 30
0.0
 11
279.6319714743
 21
12.5833724141
 31
0.0
  0
LINE
  5
278
330
1F
100
AcDbEntity
  8
0
  6
Continuous
 62
     7
370
    25
100
AcDbLine
 10
289.029938458
 20
28.8628927811
 30
0.0
 11
289.0299377995
 21
32.4666938926
 31
0.0
  0
SPLINE
  5
279
330
1F
100
AcDbEntity
  8
0
  6
Continuous
 62
     7
370
    25
100
AcDbSpline
210
0.0
220
0.0
230
1.0
 70
     8
 71
     3
 72
    16
 73
    12
 74
     0
 42
0.000000001
 43
0.00000001
 40
0.0
 40
0.0
 40
0.0
 40
0.0
 40
0.0855550794720003
 40
0.2129883661808071
 40
0.3399972226783942
 40
0.466267826078254
 40
0.5914748475796983
 40
0.715373737700209
 40
0.8379053908630684
 40
0.95925865921155
 40
1.0
 40
1.0
 40
1.0
 40
1.0
 10
288.8706898836209
 20
34.63050440701057
 30
0.0
 10
288.8347120175732
 20
34.88044365235925
 30
0.0
 10
288.7451455423216
 20
35.5026644701039
 30
0.0
 10
288.5026381853048
 20
36.42873469918707
 30
0.0
 10
288.1569953121951
 20
37.40747329259604
 30
0.0
 10
287.7246665035371
 20
38.30622119789106
 30
0.0
 10
287.2131450758269
 20
39.11950449863438
 30
0.0
 10
286.6277266800319
 20
39.84255152053735
 30
0.0
 10
285.9695306084534
 20
40.46142090299288
 30
0.0
 10
285.4183770614652
 20
40.88679793650847
 30
0.0
 10
285.069847722971
 20
41.07012476695363
 30
0.0
 10
284.9822473232416
 20
41.1162026773456
 30
0.0
  0
SPLINE
  5
27A
330
1F
100
AcDbEntity
  8
0
  6
Continuous
 62
     7
370
    25
100
AcDbSpline
210
0.0
220
0.0
230
1.0
 70
     8
 71
     3
 72
    15
 73
    11
 74
     0
 42
0.000000001
 43
0.00000001
 40
0.0
 40
0.0
 40
0.0
 40
0.0
 40
0.0947201239724428
 40
0.2307514984509324
 40
0.3670301728748638
 40
0.5041641463001741
 40
0.642565752141403
 40
0.7823915445446206
 40
0.9235545357795297
 40
1.0
 40
1.0
 40
1.0
 40
1.0
 10
267.0078373748631
 20
9.953682168209012
 30
0.0
 10
267.1843108721152
 20
9.852084558736898
 30
0.0
 10
267.614225046844
 20
9.604578541625445
 30
0.0
 10
268.3603975697089
 20
9.328692252644395
 30
0.0
 10
269.2288837012645
 20
9.112202412580764
 30
0.0
 10
270.1408434552896
 20
9.005088148552627
 30
0.0
 10
271.0893182241339
 20
9.00177021723474
 30
0.0
 10
272.0708710911411
 20
9.11059230146451
 30
0.0
 10
272.9208397853038
 20
9.277051220427632
 30
0.0
 10
273.4457432173701
 20
9.447341809863184
 30
0.0
 10
273.6301408615299
 20
9.507164591724019
 30
0.0
  0
LINE
  5
27B
330
1F
100
AcDbEntity
  8
0
  6
Continuous
 62
     7
370
    25
100
AcDbLine
 10
248.3876402427
 20
20.688719442
 30
0.0
 11
267.0098544967
 21
9.9383439813
 31
0.0
  0
LINE
  5
27C
330
1F
100
AcDbEntity
  8
0
  6
Continuous
 62
     7
370
    25
100
AcDbLine
 10
285.0083921988
 20
41.1161036279
 30
0.0
 11
266.3861779448
 21
51.8664790886
 31
0.0
  0
SPLINE
  5
27D
330
1F
100
AcDbEntity
  8
0
  6
Continuous
 62
     7
370
    25
100
AcDbSpline
210
0.0
220
0.0
230
1.0
 70
     8
 71
     3
 72
    11
 73
     7
 74
     0
 42
0.000000001
 43
0.00000001
 40
0.0
 40
0.0
 40
0.0
 40
0.0
 40
0.1216998159003054
 40
0.4152690849825892
 40
0.7071318696657803
 40
1.0
 40
1.0
 40
1.0
 40
1.0
 10
274.5427175963779
 20
17.76790290715422
 30
0.0
 10
274.5044293868147
 20
17.84076113017477
 30
0.0
 10
274.3737807935254
 20
18.08937093605969
 30
0.0
 10
274.2272659512411
 20
18.60137836167999
 30
0.0
 10
274.0997725245139
 20
19.28666967542325
 30
0.0
 10
274.0846942197207
 20
19.79625615867106
 30
0.0
 10
274.07714210503
 20
20.05148747406668
 30
0.0
  0
SPLINE
  5
27E
330
1F
100
AcDbEntity
  8
0
  6
Continuous
 62
     7
370
    25
100
AcDbSpline
210
0.0
220
0.0
230
1.0
 70
     8
 71
     3
 72
    13
 73
     9
 74
     0
 42
0.000000001
 43
0.00000001
 40
0.0
 40
0.0
 40
0.0
 40
0.0
 40
0.1545678715056016
 40
0.357588212941603
 40
0.5604003797827679
 40
0.7631326695324284
 40
0.9659975727011633
 40
1.0
 40
1.0
 40
1.0
 40
1.0
 10
278.7981689043714
 20
29.26022145430226
 30
0.0
 10
278.9667245799959
 20
29.39020640335586
 30
0.0
 10
279.3566731653043
 20
29.69092275008835
 30
0.0
 10
279.9752214434797
 20
30.05793837104866
 30
0.0
 10
280.6404899070318
 20
30.37434809300558
 30
0.0
 10
281.2857203587516
 20
30.57977211058833
 30
0.0
 10
281.7422675046089
 20
30.68092068133699
 30
0.0
 10
281.9684269019773
 20
30.68301720835536
 30
0.0
 10
282.0008921999641
 20
30.68331816588876
 30
0.0
  0
SPLINE
  5
27F
330
1F
100
AcDbEntity
  8
0
  6
Continuous
 62
     7
370
    25
100
AcDbSpline
210
0.0
220
0.0
230
1.0
 70
     8
 71
     3
 72
     9
 73
     5
 74
     0
 42
0.000000001
 43
0.00000001
 40
0.0
 40
0.0
 40
0.0
 40
0.0
 40
0.3580692178064254
 40
0.9999999999999999
 40
0.9999999999999999
 40
0.9999999999999999
 40
0.9999999999999999
 10
274.07714210503
 20
20.05148747406668
 30
0.0
 10
274.0788843897342
 20
20.1877289420456
 30
0.0
 10
274.0837501660073
 20
20.56821813576505
 30
0.0
 10
274.1329680783851
 20
20.97200590945191
 30
0.0
 10
274.1645625713757
 20
21.23120971085492
 30
0.0
  0
LINE
  5
280
330
1F
100
AcDbEntity
  8
0
  6
Continuous
 62
     7
370
    25
100
AcDbLine
 10
257.3848404485
 20
50.974139043
 30
0.0
 11
255.79410884
 21
50.0555314176
 31
0.0
  0
LINE
  5
281
330
1F
100
AcDbEntity
  8
0
  6
Continuous
 62
     7
370
    25
100
AcDbLine
 10
244.6589869217
 20
30.7668443675
 30
0.0
 11
244.6589875803
 21
28.9299265752
 31
0.0
  0
LINE
  5
282
330
1F
100
AcDbEntity
  8
0
  6
Continuous
 62
     7
370
    25
100
AcDbLine
 10
244.8286293041
 20
25.3557320761
 30
0.0
 11
245.1500602686
 21
25.17017393
 31
0.0
  0
LINE
  5
283
330
1F
100
AcDbEntity
  8
0
  6
Continuous
 62
     7
370
    25
100
AcDbLine
 10
260.8862815832
 20
52.4290623238
 30
0.0
 11
260.5648506186
 21
52.6146204699
 31
0.0
  0
LINE
  5
284
330
1F
100
AcDbEntity
  8
0
  6
Continuous
 62
     7
370
    25
100
AcDbLine
 10
240.2203443727
 20
28.0160383408
 30
0.0
 11
242.4709953491
 21
26.7167651879
 31
0.0
  0
LINE
  5
285
330
1F
100
AcDbEntity
  8
0
  6
Continuous
 62
     7
370
    25
100
AcDbLine
 10
258.2072166637
 20
53.9756535817
 30
0.0
 11
255.9565656873
 21
55.2749267346
 31
0.0
  0
LINE
  5
286
330
1F
100
AcDbEntity
  8
0
  6
Continuous
 62
     7
370
    25
100
AcDbLine
 10
249.179176497
 20
55.0548086422
 30
0.0
 11
239.9819643134
 21
59.6354612521
 31
0.0
  0
LINE
  5
287
330
1F
100
AcDbEntity
  8
0
  6
Continuous
 62
     7
370
    25
100
AcDbLine
 10
228.4556165238
 20
39.6690777964
 30
0.0
 11
237.0217165294
 21
33.9951882
 31
0.0
  0
LINE
  5
288
330
1F
100
AcDbEntity
  8
0
  6
Continuous
 62
     7
370
    25
100
AcDbLine
 10
233.4350539654
 20
40.6155676621
 30
0.0
 11
233.4350539654
 21
40.2502489571
 31
0.0
  0
LINE
  5
289
330
1F
100
AcDbEntity
  8
0
  6
Continuous
 62
     7
370
    25
100
AcDbLine
 10
237.3330207258
 20
60.0124296288
 30
0.0
 11
236.693470617
 21
59.9252178733
 31
0.0
  0
ARC
  5
28A
330
1F
100
AcDbEntity
  8
0
  6
Continuous
 62
     7
370
    25
100
AcDbCircle
 10
273.6631934543
 20
20.8759234844
 30
0.0
 40
2.174876122507341
100
AcDbArc
 50
5.9011973725
 51
65.4064772703
  0
LWPOLYLINE
  5
28B
330
1F
100
AcDbEntity
  8
0
  6
Continuous
 62
     7
370
    25
100
AcDbPolyline
 90
        8
 70
   128
 43
0.0
 10
274.4674151722
 20
22.8484749785
 10
274.7769671462
 20
22.5036332564
 10
274.9689993833
 20
22.1233757849
 10
275.0288377007
 20
21.7287963721
 10
274.954183202
 20
21.3350581323
 10
274.7478984977
 20
20.9572959518
 10
274.4179176499
 20
20.6100231398
 10
274.1042548969
 20
20.3823771837
  0
LWPOLYLINE
  5
28C
330
1F
100
AcDbEntity
  8
0
  6
Continuous
 62
     7
370
    25
100
AcDbPolyline
 90
       23
 70
   128
 43
0.0
 10
288.8277145861
 20
30.9855321282
 10
288.8493299925
 20
30.8761770572
 10
288.9846773525
 20
29.9006607163
 10
289.029938458
 20
28.8628927811
 10
288.9846773525
 20
27.7728674857
 10
288.8493299925
 20
26.6410824093
 10
288.6251996376
 20
25.478437049
 10
288.3144449966
 20
24.2961285431
 10
287.9200584958
 20
23.1055430217
 10
287.4458379615
 20
21.9181463879
 10
286.8963517167
 20
20.7453744342
 10
286.2768905082
 20
19.5985206787
 10
285.5934200906
 20
18.4886306655
 10
284.8525232748
 20
17.4263936038
 10
284.0613350613
 20
16.4220380003
 10
283.22747481
 20
15.4852377493
 10
282.358973142
 20
14.6250144188
 10
281.464194231
 20
13.8496520872
 10
280.5517553789
 20
13.1666182141
 10
279.6304437921
 20
12.5824905019
 10
278.7091322052
 20
12.1028944979
 10
277.7966933531
 20
11.7324488963
 10
277.7157193789
 20
11.7047303975
  0
ARC
  5
28D
330
1F
100
AcDbEntity
  8
0
  6
Continuous
 62
     7
370
    25
100
AcDbCircle
 10
274.2838740329
 20
32.5136376452
 30
0.0
 40
14.74613848857449
100
AcDbArc
 50
359.8176008284
 51
8.0469284323
  0
ARC
  5
28E
330
1F
100
AcDbEntity
  8
0
  6
Continuous
 62
     7
370
    25
100
AcDbCircle
 10
269.4076078635
 20
22.9158500517
 30
0.0
 40
14.06096018582115
100
AcDbArc
 50
288.2112049245
 51
300.3444029908
  0
LWPOLYLINE
  5
28F
330
1F
100
AcDbEntity
  8
0
  6
Continuous
 62
     7
370
    25
100
AcDbPolyline
 90
       39
 70
   128
 43
0.0
 10
266.3861779448
 20
51.8664790886
 10
265.7959251608
 20
52.1652036127
 10
264.9553536825
 20
52.4637056153
 10
264.0602514261
 20
52.645587005
 10
263.1170675182
 20
52.7095372793
 10
262.1325971501
 20
52.6550928689
 10
261.1139344927
 20
52.4826502598
 10
260.0684183658
 20
52.1934498388
 10
259.0035820248
 20
51.7895742822
 10
257.9270974309
 20
51.273934635
 10
256.8467207566
 20
50.6502464565
 10
255.7702361627
 20
49.923003447
 10
254.7053998217
 20
49.0974451335
 10
253.6598836948
 20
48.1795183289
 10
252.6412210373
 20
47.1758380682
 10
251.6567506693
 20
46.0936371859
 10
250.7135667613
 20
44.940709951
 10
249.818464505
 20
43.725365494
 10
248.9778930267
 20
42.4563603202
 10
248.1979083016
 20
41.1428361463
 10
247.4841303486
 20
39.7942579265
 10
246.841703059
 20
38.4203419928
 10
246.2752533662
 20
37.0309876168
 10
245.7888642464
 20
35.6362059095
 10
245.3860378393
 20
34.2460441582
 10
245.0696796431
 20
32.8705208086
 10
244.8420669048
 20
31.5195452389
 10
244.7048394002
 20
30.2028512203
 10
244.6589875803
 20
28.9299265752
 10
244.7048394002
 20
27.7099413144
 10
244.8420669048
 20
26.5516868002
 10
245.0696796431
 20
25.4635073044
 10
245.3860378393
 20
24.4532433533
 10
245.7888642464
 20
23.5281750719
 10
246.2752533662
 20
22.6949662889
 10
246.841703059
 20
21.9596208072
 10
247.4841303486
 20
21.3274356339
 10
248.1979083016
 20
20.8029678969
 10
248.3876402427
 20
20.688719442
  0
ARC
  5
290
330
1F
100
AcDbEntity
  8
0
  6
Continuous
 62
     7
370
    25
100
AcDbCircle
 10
287.1304361588
 20
19.1076584157
 30
0.0
 40
13.1998038115121
100
AcDbArc
 50
129.0358138969
 51
171.0708213824
  0
ARC
  5
291
330
1F
100
AcDbEntity
  8
0
  6
Continuous
 62
     7
370
    25
100
AcDbCircle
 10
282.1893516007
 20
27.7867824331
 30
0.0
 40
2.937806293927073
100
AcDbArc
 50
19.5161731752
 51
95.3412152731
  0
ARC
  5
292
330
1F
100
AcDbEntity
  8
0
  6
Continuous
 62
     7
370
    25
100
AcDbCircle
 10
277.0985848262
 20
18.992104536
 30
0.0
 40
2.875502696973479
100
AcDbArc
 50
203.9863971442
 51
268.9799409721
  0
SPLINE
  5
293
330
1F
100
AcDbEntity
  8
0
  6
Continuous
 62
     7
370
    25
100
AcDbSpline
210
0.0
220
0.0
230
1.0
 70
     8
 71
     3
 72
    15
 73
    11
 74
     0
 42
0.000000001
 43
0.00000001
 40
0.0
 40
0.0
 40
0.0
 40
0.0
 40
0.0305313770974715
 40
0.1314464219685168
 40
0.3105575666825979
 40
0.4915551486889909
 40
0.6927537738425636
 40
0.8032314789595758
 40
0.9135895849655973
 40
1.0
 40
1.0
 40
1.0
 40
1.0
 10
274.1066770030324
 20
19.49830415806333
 30
0.0
 10
274.1706361943313
 20
19.51412363034184
 30
0.0
 10
274.4459990389683
 20
19.58223104068896
 30
0.0
 10
275.0055931905188
 20
19.89450372525511
 30
0.0
 10
275.6606783168363
 20
20.54706919746604
 30
0.0
 10
276.0551029263635
 20
21.5922598293605
 30
0.0
 10
276.0435618666621
 20
22.58972051968364
 30
0.0
 10
275.7786668805752
 20
23.38867678083508
 30
0.0
 10
275.4698039729454
 20
23.92581046479711
 30
0.0
 10
275.1750175101652
 20
24.18895420741163
 30
0.0
 10
275.0455627556105
 20
24.30451313875287
 30
0.0
  0
LWPOLYLINE
  5
294
330
1F
100
AcDbEntity
  8
0
  6
Continuous
 62
     7
370
    25
100
AcDbPolyline
 90
       19
 70
   128
 43
0.0
 10
244.6589869217
 20
30.7668443675
 10
244.6705285728
 20
31.3588485311
 10
244.7627169014
 20
32.5779000136
 10
244.9463303055
 20
33.8352193912
 10
245.2198462301
 20
35.1203870392
 10
245.5809992823
 20
36.4227549787
 10
246.0267963772
 20
37.7315306209
 10
246.5535430801
 20
39.0358693513
 10
247.1568752165
 20
40.3249623598
 10
247.8317931166
 20
41.5881286538
 10
248.5727044203
 20
42.8149002258
 10
249.3734695174
 20
43.9951129248
 10
250.2274529132
 20
45.1189862996
 10
251.127578547
 20
46.1772080054
 10
252.0663874145
 20
47.161008894
 10
253.0361004587
 20
48.0622373429
 10
254.0286822841
 20
48.8734249347
 10
255.0359078344
 20
49.5878508047
 10
255.79410884
 20
50.0555314176
  0
SPLINE
  5
295
330
1F
100
AcDbEntity
  8
0
  6
Continuous
 62
     7
370
    25
100
AcDbSpline
210
0.0
220
0.0
230
1.0
 70
     8
 71
     3
 72
    25
 73
    21
 74
     0
 42
0.000000001
 43
0.00000001
 40
0.0
 40
0.0
 40
0.0
 40
0.0
 40
0.1249999999999998
 40
0.1249999999999998
 40
0.2499999999999997
 40
0.2499999999999997
 40
0.3749999999999995
 40
0.3749999999999995
 40
0.4999999999999993
 40
0.4999999999999993
 40
0.5624999999999996
 40
0.5624999999999996
 40
0.6249999999999998
 40
0.6875000000000001
 40
0.6875000000000001
 40
0.7500000000000003
 40
0.7500000000000003
 40
0.8750000000000001
 40
0.8750000000000001
 40
1.0
 40
1.0
 40
1.0
 40
1.0
 10
248.0872012604779
 20
48.0201697046971
 30
0.0
 10
248.116324558739
 20
47.90898418416791
 30
0.0
 10
248.1287135995982
 20
47.79374197173988
 30
0.0
 10
248.1217361144979
 20
47.55464640390408
 30
0.0
 10
248.1017185266459
 20
47.42987243402881
 30
0.0
 10
248.0314963689327
 20
47.18350352481639
 30
0.0
 10
247.980845714339
 20
47.05929237745528
 30
0.0
 10
247.8509309706838
 20
46.81566388214512
 30
0.0
 10
247.7732300226945
 20
46.69860678708694
 30
0.0
 10
247.6378564404684
 20
46.52995026923691
 30
0.0
 10
247.5892219431613
 20
46.47458324796474
 30
0.0
 10
247.4877826077793
 20
46.36886343656774
 30
0.0
 10
247.3819126250385
 20
46.26770247794729
 30
0.0
 10
247.2673208327111
 20
46.17552815627049
 30
0.0
 10
247.1482381634929
 20
46.08799131353037
 30
0.0
 10
247.0862801504354
 20
46.04649284401818
 30
0.0
 10
246.8984164469149
 20
45.93237252228008
 30
0.0
 10
246.7690390105608
 20
45.86876509116549
 30
0.0
 10
246.5013557574988
 20
45.76749679019125
 30
0.0
 10
246.3654840710338
 20
45.73095588196646
 30
0.0
 10
246.2299668043061
 20
45.70978769761639
 30
0.0
  0
LWPOLYLINE
  5
296
330
1F
100
AcDbEntity
  8
0
  6
Continuous
 62
     7
370
    25
100
AcDbPolyline
 90
       15
 70
   128
 43
0.0
 10
248.0872013722
 20
48.0201697372
 10
249.0382041791
 20
49.0091301729
 10
250.020215048
 20
49.913132492
 10
251.0249107997
 20
50.7245140058
 10
252.04377633
 20
51.4363978157
 10
253.0681760214
 20
52.0427522888
 10
254.0894275819
 20
52.5384367264
 10
255.0988753907
 20
52.9192490286
 10
256.0879639668
 20
53.1819635442
 10
257.0483098739
 20
53.3243520483
 10
257.9717739958
 20
53.3452087349
 10
258.8505295311
 20
53.2443567704
 10
259.6771280121
 20
53.0226506636
 10
260.4445641715
 20
52.6819688446
 10
260.5648506186
 20
52.6146204699
  0
LWPOLYLINE
  5
297
330
1F
100
AcDbEntity
  8
0
  6
Continuous
 62
     7
370
    25
100
AcDbPolyline
 90
       21
 70
   128
 43
0.0
 10
244.8286293041
 20
25.3557320761
 10
244.8249816261
 20
25.3578400413
 10
244.1402454859
 20
25.8296696142
 10
243.5268665945
 20
26.4112105564
 10
242.9899605255
 20
27.0976132963
 10
242.5340053816
 20
27.8831530294
 10
242.1628022817
 20
28.7612783913
 10
241.879447702
 20
29.7246667844
 10
241.6863045004
 20
30.7652835065
 10
241.584982818
 20
31.8744502416
 10
241.5763295432
 20
33.042918018
 10
241.6604151401
 20
34.2609412594
 10
241.8365389175
 20
35.5183626714
 10
242.1032316626
 20
36.8046954185
 10
242.458270129
 20
38.1092129998
 10
242.8986921836
 20
39.4210351806
 10
243.4208264407
 20
40.7292226662
 10
244.020317287
 20
42.0228662649
 10
244.6921657111
 20
43.2911754772
 10
245.4307688164
 20
44.5235758319
 10
246.2299665775
 20
45.7097872092
  0
LWPOLYLINE
  5
298
330
1F
100
AcDbEntity
  8
0
  6
Continuous
 62
     7
370
    25
100
AcDbPolyline
 90
       12
 70
   128
 43
0.0
 10
246.4245799798
 20
48.1444462178
 10
247.340159019
 20
49.1189281023
 10
248.2888717374
 20
50.007903282
 10
249.2617747712
 20
50.8029928654
 10
250.2496968591
 20
51.4967016165
 10
251.2433250294
 20
52.0824905232
 10
252.2332927212
 20
52.5548360344
 10
253.2102675357
 20
52.9092868006
 10
254.165040016
 20
53.1425012377
 10
255.0886098343
 20
53.2522805513
 10
255.9722705384
 20
53.2375902832
 10
256.225130556
 20
53.2093328508
  0
SPLINE
  5
299
330
1F
100
AcDbEntity
  8
0
  6
Continuous
 62
     7
370
    25
100
AcDbSpline
210
0.0
220
0.0
230
1.0
 70
     8
 71
     3
 72
    26
 73
    22
 74
     0
 42
0.000000001
 43
0.00000001
 40
0.0
 40
0.0
 40
0.0
 40
0.0
 40
0.1250000000000009
 40
0.1250000000000009
 40
0.2500000000000019
 40
0.2500000000000019
 40
0.3125000000000011
 40
0.3125000000000011
 40
0.3750000000000004
 40
0.3750000000000004
 40
0.4375000000000002
 40
0.4375000000000002
 40
0.5000000000000001
 40
0.5000000000000001
 40
0.5625
 40
0.5625
 40
0.6249999999999999
 40
0.6249999999999999
 40
0.7500000000000001
 40
0.7500000000000001
 40
1.0
 40
1.0
 40
1.0
 40
1.0
 10
245.0803867748504
 20
46.47228293157191
 30
0.0
 10
245.0567491786183
 20
46.5818587911449
 30
0.0
 10
245.0391813997366
 20
46.69274804950944
 30
0.0
 10
245.0203688168671
 20
46.91807800937238
 30
0.0
 10
245.0191890420997
 20
47.03375492269075
 30
0.0
 10
245.0352870453351
 20
47.20511043255031
 30
0.0
 10
245.0436057624353
 20
47.26190894464448
 30
0.0
 10
245.0673629116923
 20
47.37473515704156
 30
0.0
 10
245.0829852907413
 20
47.43118801070771
 30
0.0
 10
245.1218425031383
 20
47.53977112711631
 30
0.0
 10
245.1450684598408
 20
47.59215108734185
 30
0.0
 10
245.2000671093192
 20
47.69260786261397
 30
0.0
 10
245.2321453763418
 20
47.74088673038541
 30
0.0
 10
245.3025601248769
 20
47.82858370596915
 30
0.0
 10
245.3411385470035
 20
47.86857283394511
 30
0.0
 10
245.4248468105997
 20
47.9410515180607
 30
0.0
 10
245.4699755205417
 20
47.97338814243732
 30
0.0
 10
245.6092561627318
 20
48.05658790979096
 30
0.0
 10
245.7100452342934
 20
48.09541663242706
 30
0.0
 10
246.0131175055261
 20
48.17083291988224
 30
0.0
 10
246.2216415960111
 20
48.17070277351147
 30
0.0
 10
246.4245800157015
 20
48.14444654418525
 30
0.0
  0
LWPOLYLINE
  5
29A
330
1F
100
AcDbEntity
  8
0
  6
Continuous
 62
     7
370
    25
100
AcDbPolyline
 90
       17
 70
   128
 43
0.0
 10
242.1434081459
 20
28.8164316415
 10
241.7097256358
 20
29.4633962157
 10
241.3122189512
 20
30.2683009751
 10
241.0022071484
 20
31.1628766319
 10
240.7825331641
 20
32.1389211371
 10
240.6552108275
 20
33.1874851743
 10
240.6214077379
 20
34.2989550046
 10
240.6814340698
 20
35.4631399686
 10
240.83473928
 20
36.6693659279
 10
241.0799167174
 20
37.9065725096
 10
241.4147200867
 20
39.1634174304
 10
241.8360785949
 20
40.4283759731
 10
242.3401298784
 20
41.6898506806
 10
242.9222509548
 20
42.9362749659
 10
243.5771056379
 20
44.1562214736
 10
244.2986899774
 20
45.3385039776
 10
245.0803869182
 20
46.4722827005
  0
LINE
  5
29B
330
1F
100
AcDbEntity
  8
0
  6
Continuous
 62
     7
370
    25
100
AcDbLine
 10
243.6049945039
 20
26.2283617565
 30
0.0
 11
243.7261423272
 21
26.2856160523
 31
0.0
  0
LWPOLYLINE
  5
29C
330
1F
100
AcDbEntity
  8
0
  6
Continuous
 62
     7
370
    25
100
AcDbPolyline
 90
       39
 70
   128
 43
0.0
 10
243.6049945039
 20
26.2283617565
 10
242.8192738562
 20
26.5327662682
 10
242.0972054864
 20
26.9540973837
 10
241.4449033218
 20
27.4887894793
 10
240.867887941
 20
28.132316142
 10
240.3710437686
 20
28.8792293376
 10
239.9585762698
 20
29.7232077039
 10
239.6339770477
 20
30.6571067448
 10
239.3999942083
 20
31.6730215707
 10
239.2586073367
 20
32.7623521112
 10
239.2110143251
 20
33.9158782905
 10
239.2576168857
 20
35.1238351109
 10
239.3980218675
 20
36.3759982317
 10
239.6310399392
 20
37.6617679739
 10
239.9546987598
 20
38.9702607777
 10
240.3662587842
 20
40.2904005679
 10
240.862236312
 20
41.6110126692
 10
241.4384324635
 20
42.9209190515
 10
242.0899707164
 20
44.2090307221
 10
242.8113357607
 20
45.4644450618
 10
243.5964209129
 20
46.6765340341
 10
244.4385814592
 20
47.8350396182
 10
245.3306876673
 20
48.9301538423
 10
246.2651893244
 20
49.9526077528
 10
247.2341753355
 20
50.8937453624
 10
248.2294436932
 20
51.7456020675
 10
249.24256972
 20
52.5009645747
 10
250.2649777156
 20
53.1534426814
 10
251.28801316
 20
53.6975094365
 10
252.3030164503
 20
54.1285611983
 10
253.3013956076
 20
54.4429489611
 10
254.2747000243
 20
54.6380125631
 10
255.2146906499
 20
54.7120999112
 10
256.1134106205
 20
54.6645834197
 10
256.9632530884
 20
54.4958664675
 10
257.7570237842
 20
54.2073761678
 10
258.4880035783
 20
53.8015546172
 10
259.1500054449
 20
53.2818377874
 10
259.2972546798
 20
53.1413512653
  0
ARC
  5
29D
330
1F
100
AcDbEntity
  8
0
  6
Continuous
 62
     7
370
    25
100
AcDbCircle
 10
263.1287849821
 20
32.9671424263
 30
0.0
 40
26.45387656477442
100
AcDbArc
 50
137.1690104168
 51
154.9195276801
  0
LWPOLYLINE
  5
29E
330
1F
100
AcDbEntity
  8
0
  6
Continuous
 62
     7
370
    25
100
AcDbPolyline
 90
       26
 70
   128
 43
0.0
 10
236.9603619132
 20
35.3030119315
 10
237.0061742205
 20
36.490574906
 10
237.1432324791
 20
37.7211916705
 10
237.3704000413
 20
38.9846644293
 10
237.6857947869
 20
40.270523591
 10
238.0868029527
 20
41.5681143652
 10
238.5701021816
 20
42.8666844986
 10
239.1316878646
 20
44.1554734368
 10
239.7669060676
 20
45.4238024362
 10
240.4704930443
 20
46.6611612528
 10
241.2366193587
 20
47.8572971124
 10
242.0589359833
 20
49.0022975968
 10
242.9306292873
 20
50.0866756201
 10
243.8444760252
 20
51.1014460406
 10
244.7929035938
 20
52.0381984689
 10
245.7680534168
 20
52.8891726434
 10
246.7618448238
 20
53.6473165992
 10
247.7660429628
 20
54.3063479272
 10
248.7723267945
 20
54.8608044328
 10
249.772357993
 20
55.3060937975
 10
250.7578497636
 20
55.6385249417
 10
251.7206364013
 20
55.8553436172
 10
252.6527393101
 20
55.9547530285
 10
253.5464355739
 20
55.9359298437
 10
254.3943188719
 20
55.7990297019
 10
254.8648647279
 20
55.6650817223
  0
LWPOLYLINE
  5
29F
330
1F
100
AcDbEntity
  8
0
  6
Continuous
 62
     7
370
    25
100
AcDbPolyline
 90
        3
 70
   128
 43
0.0
 10
237.0646654851
 20
33.6135505609
 10
237.0061742205
 20
34.1683427211
 10
236.9738772222
 20
34.6796930245
  0
SPLINE
  5
2A0
330
1F
100
AcDbEntity
  8
0
  6
Continuous
 62
     7
370
    25
100
AcDbSpline
210
0.0
220
0.0
230
1.0
 70
     8
 71
     3
 72
    10
 73
     6
 74
     0
 42
0.000000001
 43
0.00000001
 40
0.0
 40
0.0
 40
0.0
 40
0.0
 40
0.5
 40
0.5
 40
1.0
 40
1.0
 40
1.0
 40
1.0
 10
245.8070748424817
 20
45.00922965075219
 30
0.0
 10
245.7031103516974
 20
45.08256802382257
 30
0.0
 10
245.61330207527
 20
45.16980378161598
 30
0.0
 10
245.4612596472714
 20
45.37073432281197
 30
0.0
 10
245.3993540589104
 20
45.48490508900895
 30
0.0
 10
245.35490435432
 20
45.60792277216905
 30
0.0
  0
SPLINE
  5
2A1
330
1F
100
AcDbEntity
  8
0
  6
Continuous
 62
     7
370
    25
100
AcDbSpline
210
0.0
220
0.0
230
1.0
 70
     8
 71
     3
 72
    14
 73
    10
 74
     0
 42
0.000000001
 43
0.00000001
 40
0.0
 40
0.0
 40
0.0
 40
0.0
 40
0.25
 40
0.25
 40
0.5
 40
0.5
 40
0.75
 40
0.75
 40
1.0
 40
1.0
 40
1.0
 40
1.0
 10
245.35490435432
 20
45.60792277216905
 30
0.0
 10
245.3321835514548
 20
45.67080419182658
 30
0.0
 10
245.3102690411054
 20
45.73985062129999
 30
0.0
 10
245.2681579870426
 20
45.88750313791877
 30
0.0
 10
245.2486364331295
 20
45.96390292477707
 30
0.0
 10
245.2102901909558
 20
46.11823521617269
 30
0.0
 10
245.191930598072
 20
46.19518781250433
 30
0.0
 10
245.1499271534903
 20
46.34057798002031
 30
0.0
 10
245.1261508324772
 20
46.40716888621333
 30
0.0
 10
245.0976893283751
 20
46.44766450144468
 30
0.0
  0
LINE
  5
2A2
330
1F
100
AcDbEntity
  8
0
  6
Continuous
 62
     7
370
    25
100
AcDbLine
 10
245.0976895166
 20
46.4476648932
 30
0.0
 11
245.0803869182
 21
46.4722827005
 31
0.0
  0
LINE
  5
2A3
330
1F
100
AcDbEntity
  8
0
  6
Continuous
 62
     7
370
    25
100
AcDbLine
 10
246.4245799798
 20
48.1444462178
 30
0.0
 11
246.4418825782
 21
48.1198284104
 31
0.0
  0
SPLINE
  5
2A4
330
1F
100
AcDbEntity
  8
0
  6
Continuous
 62
     7
370
    25
100
AcDbSpline
210
0.0
220
0.0
230
1.0
 70
     8
 71
     3
 72
    16
 73
    12
 74
     0
 42
0.000000001
 43
0.00000001
 40
0.0
 40
0.0
 40
0.0
 40
0.0
 40
0.1250000000000001
 40
0.1250000000000001
 40
0.2500000000000003
 40
0.2500000000000003
 40
0.5000000000000002
 40
0.5000000000000002
 40
0.7500000000000001
 40
0.7500000000000001
 40
1.0
 40
1.0
 40
1.0
 40
1.0
 10
246.4418825692262
 20
48.11982811405796
 30
0.0
 10
246.4560349756304
 20
48.09969177824517
 30
0.0
 10
246.4776933801041
 20
48.08289435756775
 30
0.0
 10
246.5301113091394
 20
48.05604883623626
 30
0.0
 10
246.5607041882777
 20
48.04582335167528
 30
0.0
 10
246.6597850371352
 20
48.02132291124259
 30
0.0
 10
246.7336675747511
 20
48.01306298884109
 30
0.0
 10
246.8867671671424
 20
48.00187702213617
 30
0.0
 10
246.9648511417901
 20
47.99928035038499
 30
0.0
 10
247.1241947755322
 20
47.99725134955128
 30
0.0
 10
247.2028476703638
 20
47.99788893821351
 30
0.0
 10
247.2786001381563
 20
48.00098203902854
 30
0.0
  0
SPLINE
  5
2A5
330
1F
100
AcDbEntity
  8
0
  6
Continuous
 62
     7
370
    25
100
AcDbSpline
210
0.0
220
0.0
230
1.0
 70
     8
 71
     3
 72
    10
 73
     6
 74
     0
 42
0.000000001
 43
0.00000001
 40
0.0
 40
0.0
 40
0.0
 40
0.0
 40
0.5
 40
0.5
 40
1.0
 40
1.0
 40
1.0
 40
1.0
 10
247.2786001381563
 20
48.00098203902854
 30
0.0
 10
247.4267944780571
 20
48.00703306346231
 30
0.0
 10
247.5690189437877
 20
47.99687083324918
 30
0.0
 10
247.8414103341285
 20
47.9458203973091
 30
0.0
 10
247.971537663997
 20
47.90445929466455
 30
0.0
 10
248.0896130061823
 20
47.84868542671227
 30
0.0
  0
ARC
  5
2A6
330
1F
100
AcDbEntity
  8
0
  6
Continuous
 62
     7
370
    25
100
AcDbCircle
 10
230.7661427049
 20
43.1188782503
 30
0.0
 40
4.152066281423777
100
AcDbArc
 50
211.7707829633
 51
236.187546018
  0
SPLINE
  5
2A7
330
1F
100
AcDbEntity
  8
0
  6
Continuous
 62
     7
370
    25
100
AcDbSpline
210
0.0
220
0.0
230
1.0
 70
     8
 71
     3
 72
     8
 73
     4
 74
     0
 42
0.000000001
 43
0.00000001
 40
0.0
 40
0.0
 40
0.0
 40
0.0
 40
1.0
 40
1.0
 40
1.0
 40
1.0
 10
228.6666593370456
 20
40.0079810074736
 30
0.0
 10
228.1898860452214
 20
40.31607381540623
 30
0.0
 10
227.7130836683765
 20
40.62430326097899
 30
0.0
 10
227.2362512238509
 20
40.9326684171989
 30
0.0
  0
SPLINE
  5
2A8
330
1F
100
AcDbEntity
  8
0
  6
Continuous
 62
     7
370
    25
100
AcDbSpline
210
0.0
220
0.0
230
1.0
 70
     8
 71
     3
 72
    23
 73
    19
 74
     0
 42
0.000000001
 43
0.00000001
 40
0.0
 40
0.0
 40
0.0
 40
0.0
 40
0.0521034701696204
 40
0.1035642834103258
 40
0.1544746865170929
 40
0.2049299526130454
 40
0.2550279491471202
 40
0.304868636019722
 40
0.354553504121484
 40
0.4041849683430035
 40
0.4538657321707252
 40
0.5036981429683899
 40
0.5902048055413047
 40
0.674300890334858
 40
0.7566325442054724
 40
0.8378852029912961
 40
0.9187688149236596
 40
1.0
 40
1.0
 40
1.0
 40
1.0
 10
229.5472241405872
 20
39.8332503093535
 30
0.0
 10
229.5419552016474
 20
39.82332884711755
 30
0.0
 10
229.5314823121478
 20
39.80360829638448
 30
0.0
 10
229.5122360163786
 20
39.77904046743778
 30
0.0
 10
229.4904402760691
 20
39.75835188515148
 30
0.0
 10
229.4657889847782
 20
39.74182094995006
 30
0.0
 10
229.4382924705571
 20
39.72930345001868
 30
0.0
 10
229.4078814153727
 20
39.72076882751185
 30
0.0
 10
229.3745110479741
 20
39.71615894997718
 30
0.0
 10
229.3381351434002
 20
39.71542422505706
 30
0.0
 10
229.2987068327606
 20
39.71851923950761
 30
0.0
 10
229.2458525528015
 20
39.72705623772385
 30
0.0
 10
229.1773047593709
 20
39.74465421274721
 30
0.0
 10
229.0895738111138
 20
39.77629258471846
 30
0.0
 10
228.9948398586878
 20
39.81847271785004
 30
0.0
 10
228.8928091631296
 20
39.87120826991096
 30
0.0
 10
228.78390550376
 20
39.93352209736872
 30
0.0
 10
228.7057972138507
 20
39.98312592067295
 30
0.0
 10
228.6666593370456
 20
40.00798100747359
 30
0.0
  0
SPLINE
  5
2A9
330
1F
100
AcDbEntity
  8
0
  6
Continuous
 62
     7
370
    25
100
AcDbSpline
210
0.0
220
0.0
230
1.0
 70
     8
 71
     3
 72
     8
 73
     4
 74
     0
 42
0.000000001
 43
0.00000001
 40
0.0
 40
0.0
 40
0.0
 40
0.0
 40
1.0
 40
1.0
 40
1.0
 40
1.0
 10
231.020727167042
 20
38.88593017279668
 30
0.0
 10
230.5293598550003
 20
39.20180479276438
 30
0.0
 10
230.0379736550737
 20
39.51779081405406
 30
0.0
 10
229.5465679449294
 20
39.83388769489695
 30
0.0
  0
SPLINE
  5
2AA
330
1F
100
AcDbEntity
  8
0
  6
Continuous
 62
     7
370
    25
100
AcDbSpline
210
0.0
220
0.0
230
1.0
 70
     8
 71
     3
 72
    18
 73
    14
 74
     0
 42
0.000000001
 43
0.00000001
 40
0.0
 40
0.0
 40
0.0
 40
0.0
 40
0.0923645816239232
 40
0.1844372988353935
 40
0.276454302118477
 40
0.3686515499733604
 40
0.4612630116341138
 40
0.554518937073269
 40
0.648644256434857
 40
0.7438571603394827
 40
0.8403678983479246
 40
0.9203923541272746
 40
1.0
 40
1.0
 40
1.0
 40
1.0
 10
231.8342912862406
 20
38.24162244825296
 30
0.0
 10
231.8107291895834
 20
38.25689162660976
 30
0.0
 10
231.7636794505389
 20
38.28738173398697
 30
0.0
 10
231.6912935367673
 20
38.33700395737907
 30
0.0
 10
231.6178192736656
 20
38.38932652710573
 30
0.0
 10
231.5431237335767
 20
38.44464079387946
 30
0.0
 10
231.4672628538267
 20
38.50287918645
 30
0.0
 10
231.3902474857242
 20
38.56407569303239
 30
0.0
 10
231.3121072843975
 20
38.62824651591934
 30
0.0
 10
231.2328690139695
 20
38.69540613854161
 30
0.0
 10
231.1575632078838
 20
38.76126533065273
 30
0.0
 10
231.0867305763763
 20
38.82480162349707
 30
0.0
 10
231.0428262060211
 20
38.86546237667886
 30
0.0
 10
231.0209313394414
 20
38.88573966932061
 30
0.0
  0
LINE
  5
2AB
330
1F
100
AcDbEntity
  8
0
  6
Continuous
 62
     7
370
    25
100
AcDbLine
 10
232.4739978181
 20
37.8298686417
 30
0.0
 11
231.8342909758
 21
38.2416223094
 31
0.0
  0
SPLINE
  5
2AC
330
1F
100
AcDbEntity
  8
0
  6
Continuous
 62
     7
370
    25
100
AcDbSpline
210
0.0
220
0.0
230
1.0
 70
     8
 71
     3
 72
    25
 73
    21
 74
     0
 42
0.000000001
 43
0.00000001
 40
0.0
 40
0.0
 40
0.0
 40
0.0
 40
0.0280056024285562
 40
0.055951432834277
 40
0.0838901607637307
 40
0.1118745076905546
 40
0.1399569498905696
 40
0.1681894282715351
 40
0.1966230730100063
 40
0.2253079499152859
 40
0.2542928341276657
 40
0.379948401683506
 40
0.5057844887501034
 40
0.6313077644942089
 40
0.7532057173414165
 40
0.8039627394921582
 40
0.853612994775967
 40
0.9025574087117878
 40
0.9512124407386627
 40
1.0
 40
1.0
 40
1.0
 40
1.0
 10
233.5763634112309
 20
38.54577463213003
 30
0.0
 10
233.5813124441308
 20
38.51815438206699
 30
0.0
 10
233.591199947269
 20
38.46297283151077
 30
0.0
 10
233.6027370828093
 20
38.38382013432771
 30
0.0
 10
233.6118110637564
 20
38.30752194501165
 30
0.0
 10
233.6181800344123
 20
38.23432861108042
 30
0.0
 10
233.621895886456
 20
38.16418090438085
 30
0.0
 10
233.622931647373
 20
38.09710180668418
 30
0.0
 10
233.6212819630923
 20
38.03309256928289
 30
0.0
 10
233.6169342507705
 20
37.97215604203883
 30
0.0
 10
233.6020767711993
 20
37.85026204983008
 30
0.0
 10
233.5569884529457
 20
37.69535756502668
 30
0.0
 10
233.4436284652046
 20
37.56441497146333
 30
0.0
 10
233.2818050621076
 20
37.50853748965269
 30
0.0
 10
233.1077779268298
 20
37.52841563536365
 30
0.0
 10
232.9564018294281
 20
37.57573664107704
 30
0.0
 10
232.8459864708701
 20
37.62065510818472
 30
0.0
 10
232.7288272152154
 20
37.67803044631967
 30
0.0
 10
232.605277815641
 20
37.74670195048449
 30
0.0
 10
232.5177973009214
 20
37.80212120499711
 30
0.0
 10
232.4739975544279
 20
37.82986851885659
 30
0.0
  0
ARC
  5
2AD
330
1F
100
AcDbEntity
  8
0
  6
Continuous
 62
     7
370
    25
100
AcDbCircle
 10
244.7693845756
 20
40.3318250007
 30
0.0
 40
11.33462419218402
100
AcDbArc
 50
170.9338462887
 51
189.0661537113
  0
SPLINE
  5
2AE
330
1F
100
AcDbEntity
  8
0
  6
Continuous
 62
     7
370
    25
100
AcDbSpline
210
0.0
220
0.0
230
1.0
 70
     8
 71
     3
 72
    26
 73
    22
 74
     0
 42
0.000000001
 43
0.00000001
 40
0.0
 40
0.0
 40
0.0
 40
0.0
 40
0.0241214275654719
 40
0.0482078233548783
 40
0.0723095879207941
 40
0.096477146112833
 40
0.1207606318215904
 40
0.1452095829271292
 40
0.1698726554212849
 40
0.1947973643379994
 40
0.2200298573585186
 40
0.2456147249583856
 40
0.3690974744025462
 40
0.494070020403968
 40
0.6192566393629692
 40
0.74546544218617
 40
0.7971580294162222
 40
0.8481837569733558
 40
0.8988139831114589
 40
0.9493262809205417
 40
1.0
 40
1.0
 40
1.0
 40
1.0
 10
232.4739975544279
 20
45.59397891022113
 30
0.0
 10
232.4957125937284
 20
45.57965265791431
 30
0.0
 10
232.5391111353735
 20
45.55102095945161
 30
0.0
 10
232.6024107631036
 20
45.50304046415939
 30
0.0
 10
232.6642669877817
 20
45.45144979520244
 30
0.0
 10
232.7245682687369
 20
45.39588004747976
 30
0.0
 10
232.7833570106582
 20
45.33642643204662
 30
0.0
 10
232.8406385475266
 20
45.27306031197304
 30
0.0
 10
232.8964328401796
 20
45.20578628586579
 30
0.0
 10
232.9507594067423
 20
45.13460350654564
 30
0.0
 10
233.0036458142937
 20
45.05950219767902
 30
0.0
 10
233.1204462799938
 20
44.88023848156757
 30
0.0
 10
233.2823193750821
 20
44.56992811852366
 30
0.0
 10
233.4455039524145
 20
44.10001408162388
 30
0.0
 10
233.5570158334659
 20
43.60105107376445
 30
0.0
 10
233.6041497604314
 20
43.19215572064317
 30
0.0
 10
233.6192707739998
 20
42.88786633994859
 30
0.0
 10
233.6212265301337
 20
42.68659952037611
 30
0.0
 10
233.6147493663377
 20
42.49093945902236
 30
0.0
 10
233.6006218378226
 20
42.30031983964469
 30
0.0
 10
233.5844581486975
 20
42.17875505996237
 30
0.0
 10
233.5763634112309
 20
42.11787570444466
 30
0.0
  0
LINE
  5
2AF
330
1F
100
AcDbEntity
  8
0
  6
Continuous
 62
     7
370
    25
100
AcDbLine
 10
231.8342909758
 20
46.0069537605
 30
0.0
 11
232.4739978181
 21
45.5939787895
 31
0.0
  0
SPLINE
  5
2B0
330
1F
100
AcDbEntity
  8
0
  6
Continuous
 62
     7
370
    25
100
AcDbSpline
210
0.0
220
0.0
230
1.0
 70
     8
 71
     3
 72
    14
 73
    10
 74
     0
 42
0.000000001
 43
0.00000001
 40
0.0
 40
0.0
 40
0.0
 40
0.0
 40
0.07892595895729
 40
0.1582323961908049
 40
0.3308776440764397
 40
0.5000645817741899
 40
0.6670803235545087
 40
0.83326871778819
 40
1.0
 40
1.0
 40
1.0
 40
1.0
 10
231.0203385704928
 20
46.21553619351553
 30
0.0
 10
231.0420554514938
 20
46.21713937142081
 30
0.0
 10
231.0855939040382
 20
46.22035345566922
 30
0.0
 10
231.1771276326621
 20
46.22117427756283
 30
0.0
 10
231.2940488821825
 20
46.21323879882053
 30
0.0
 10
231.4348824308115
 20
46.186963956837
 30
0.0
 10
231.5720950797145
 20
46.14400689789345
 30
0.0
 10
231.7060135709925
 20
46.08565098174696
 30
0.0
 10
231.7914855884391
 20
46.03321477841199
 30
0.0
 10
231.8342912862406
 20
46.00695392321202
 30
0.0
  0
SPLINE
  5
2B1
330
1F
100
AcDbEntity
  8
0
  6
Continuous
 62
     7
370
    25
100
AcDbSpline
210
0.0
220
0.0
230
1.0
 70
     8
 71
     3
 72
     8
 73
     4
 74
     0
 42
0.000000001
 43
0.00000001
 40
0.0
 40
0.0
 40
0.0
 40
0.0
 40
1.0
 40
1.0
 40
1.0
 40
1.0
 10
229.2180349873849
 20
47.37792760491842
 30
0.0
 10
229.8187932110808
 20
46.9906601217597
 30
0.0
 10
230.4195220739409
 20
46.60319277183657
 30
0.0
 10
231.0202227182875
 20
46.21552587924712
 30
0.0
  0
SPLINE
  5
2B2
330
1F
100
AcDbEntity
  8
0
  6
Continuous
 62
     7
370
    25
100
AcDbSpline
210
0.0
220
0.0
230
1.0
 70
     8
 71
     3
 72
    13
 73
     9
 74
     0
 42
0.000000001
 43
0.00000001
 40
0.0
 40
0.0
 40
0.0
 40
0.0
 40
0.1666651380258054
 40
0.3328869539700871
 40
0.4989979369356626
 40
0.6653319948022453
 40
0.8322224399228445
 40
1.0
 40
1.0
 40
1.0
 40
1.0
 10
228.8762064523506
 20
47.67899238400422
 30
0.0
 10
228.8965037949115
 20
47.66543248810304
 30
0.0
 10
228.9370444899773
 20
47.63834876503915
 30
0.0
 10
228.9961871091068
 20
47.59316290740127
 30
0.0
 10
229.0539563180974
 20
47.54475465018801
 30
0.0
 10
229.110208338475
 20
47.49271630047884
 30
0.0
 10
229.1651424628677
 20
47.43740902810848
 30
0.0
 10
229.2003692084812
 20
47.39778340028728
 30
0.0
 10
229.2180292696065
 20
47.37791806793071
 30
0.0
  0
SPLINE
  5
2B3
330
1F
100
AcDbEntity
  8
0
  6
Continuous
 62
     7
370
    25
100
AcDbSpline
210
0.0
220
0.0
230
1.0
 70
     8
 71
     3
 72
     8
 73
     4
 74
     0
 42
0.000000001
 43
0.00000001
 40
0.0
 40
0.0
 40
0.0
 40
0.0
 40
1.0
 40
1.0
 40
1.0
 40
1.0
 10
226.9322259365598
 20
48.93371423638369
 30
0.0
 10
227.5802560089601
 20
48.51571892049894
 30
0.0
 10
228.228248986062
 20
48.09747815808131
 30
0.0
 10
228.8762064523506
 20
47.67899238400422
 30
0.0
  0
LWPOLYLINE
  5
2B4
330
1F
100
AcDbEntity
  8
0
  6
Continuous
 62
     7
370
    25
100
AcDbPolyline
 90
       20
 70
   128
 43
0.0
 10
226.9322265869
 20
48.9337142869
 10
227.3148751903
 20
50.047677049
 10
227.7770858485
 20
51.155891231
 10
228.3136850358
 20
52.2459537883
 10
228.9186661676
 20
53.3056636574
 10
229.5852590773
 20
54.3231618647
 10
230.3060034434
 20
55.2870594674
 10
231.0728320955
 20
56.1865692959
 10
231.8771627171
 20
57.0116227713
 10
232.7099934987
 20
57.7529874829
 10
233.5620031543
 20
58.402364471
 10
234.4236560587
 20
58.952487704
 10
235.2853085176
 20
59.3971983558
 10
236.1373169384
 20
59.7315201785
 10
236.9701455797
 20
59.9517110586
 10
237.7744734025
 20
60.0553072105
 10
238.5412981034
 20
60.0411482523
 10
239.2620375304
 20
59.9093931653
 10
239.928625501
 20
59.661517054
 10
239.9819643134
 20
59.6354612521
  0
SPLINE
  5
2B5
330
1F
100
AcDbEntity
  8
0
  6
Continuous
 62
     7
370
    25
100
AcDbSpline
210
0.0
220
0.0
230
1.0
 70
    11
 71
     3
 72
    39
 73
    35
 74
     0
 42
0.000000001
 43
0.00000001
 40
0.0
 40
0.0
 40
0.0
 40
0.0
 40
0.0310664058348413
 40
0.0621048158426138
 40
0.0931361551796939
 40
0.1235538293503726
 40
0.1538561545809849
 40
0.1850588072749156
 40
0.2160250992946587
 40
0.2471867223797568
 40
0.2784462884304475
 40
0.3100516090231247
 40
0.3419834369138969
 40
0.3734259894013238
 40
0.4048604886787081
 40
0.436874065183343
 40
0.4685120685926471
 40
0.499805535863323
 40
0.5309508213226204
 40
0.5618649784438111
 40
0.5930416446590877
 40
0.623374245013332
 40
0.6540913579072549
 40
0.6849496782718453
 40
0.7158160645166705
 40
0.7471731804043553
 40
0.7784514311866318
 40
0.810129591156098
 40
0.8419598919688388
 40
0.8735175891922303
 40
0.9050808037886594
 40
0.9370235169792582
 40
0.9687441590030581
 40
1.0
 40
1.0
 40
1.0
 40
1.0
 10
240.1408114177652
 20
57.93890461172511
 30
0.0
 10
240.4036970379634
 20
57.91037012443501
 30
0.0
 10
240.9305856484468
 20
57.82442763611341
 30
0.0
 10
241.6945977175229
 20
57.62405251604095
 30
0.0
 10
242.4017479055738
 20
57.37705040982144
 30
0.0
 10
243.0146589701692
 20
57.09906853166834
 30
0.0
 10
243.5117902958396
 20
56.80493483433961
 30
0.0
 10
243.8709820169131
 20
56.50342830614738
 30
0.0
 10
244.092701285672
 20
56.19643080124496
 30
0.0
 10
244.1579531630541
 20
55.88592553984329
 30
0.0
 10
244.0711059519401
 20
55.56678105509445
 30
0.0
 10
243.8287603641818
 20
55.23746108952225
 30
0.0
 10
243.4488225014554
 20
54.8985203679646
 30
0.0
 10
242.9350165482956
 20
54.56068190355397
 30
0.0
 10
242.3091257373856
 20
54.23478400224312
 30
0.0
 10
241.5956547508937
 20
53.93813710900363
 30
0.0
 10
240.8317522746294
 20
53.68203380056669
 30
0.0
 10
240.0459591917277
 20
53.4930062325759
 30
0.0
 10
239.2644217366878
 20
53.38483031052265
 30
0.0
 10
238.5083087519354
 20
53.37716642715294
 30
0.0
 10
237.8059441655419
 20
53.47508846253908
 30
0.0
 10
237.1869238184991
 20
53.69673689604159
 30
0.0
 10
236.6778665534854
 20
54.03260498295332
 30
0.0
 10
236.3049229600515
 20
54.47241554913408
 30
0.0
 10
236.0763210088031
 20
54.98349018965673
 30
0.0
 10
236.0074747020838
 20
55.53467527742016
 30
0.0
 10
236.0920911153089
 20
56.09234720573191
 30
0.0
 10
236.3351999052438
 20
56.62242734665091
 30
0.0
 10
236.7173297480615
 20
57.09495169576363
 30
0.0
 10
237.2334653224719
 20
57.48107320665687
 30
0.0
 10
237.8604431829738
 20
57.76469739399
 30
0.0
 10
238.5763506153376
 20
57.93443461271642
 30
0.0
 10
239.3447940075232
 20
57.99597344742773
 30
0.0
 10
239.8763227868957
 20
57.96761309517215
 30
0.0
 10
240.1408114177651
 20
57.9389046117251
 30
0.0
  0
LINE
  5
2B6
330
1F
100
AcDbEntity
  8
0
  6
Continuous
 62
     7
370
    25
100
AcDbLine
 10
230.9162740047
 20
41.4997779943
 30
0.0
 11
231.2270273286
 21
41.3333906377
 31
0.0
  0
LINE
  5
2B7
330
1F
100
AcDbEntity
  8
0
  6
Continuous
 62
     7
370
    25
100
AcDbLine
 10
229.9293159848
 20
42.0695367316
 30
0.0
 11
230.9162740047
 21
41.4997779943
 31
0.0
  0
ARC
  5
2B8
330
1F
100
AcDbEntity
  8
0
  6
Continuous
 62
     7
370
    25
100
AcDbCircle
 10
232.1502858956
 20
45.6630174956
 30
0.0
 40
4.484274790565323
100
AcDbArc
 50
267.6840627222
 51
286.9866336569
  0
SPLINE
  5
2B9
330
1F
100
AcDbEntity
  8
0
  6
Continuous
 62
     7
370
    25
100
AcDbSpline
210
0.0
220
0.0
230
1.0
 70
     8
 71
     3
 72
    12
 73
     8
 74
     0
 42
0.000000001
 43
0.00000001
 40
0.0
 40
0.0
 40
0.0
 40
0.0
 40
0.1523598330305601
 40
0.3826801306822303
 40
0.6138741683107227
 40
0.8254372814239916
 40
1.0
 40
1.0
 40
1.0
 40
1.0
 10
241.4793173760646
 20
54.93640889638939
 30
0.0
 10
241.2743500376828
 20
55.04855529612214
 30
0.0
 10
240.7595363477662
 20
55.33023189061318
 30
0.0
 10
239.7464610204769
 20
55.74639786308027
 30
0.0
 10
238.5390822395178
 20
56.02963949102779
 30
0.0
 10
237.4367517541669
 20
56.06058633376856
 30
0.0
 10
236.8718127216359
 20
55.85285895644689
 30
0.0
 10
236.6164107638936
 20
55.7589479752797
 30
0.0
  0
SPLINE
  5
2BA
330
1F
100
AcDbEntity
  8
0
  6
Continuous
 62
     7
370
    25
100
AcDbSpline
210
0.0
220
0.0
230
1.0
 70
     8
 71
     3
 72
    10
 73
     6
 74
     0
 42
0.000000001
 43
0.00000001
 40
0.0
 40
0.0
 40
0.0
 40
0.0
 40
0.3798174073072795
 40
0.9603711649033085
 40
1.0
 40
1.0
 40
1.0
 40
1.0
 10
242.619197497924
 20
54.4081819688709
 30
0.0
 10
242.4895448806757
 20
54.47851053070827
 30
0.0
 10
242.1617172649212
 20
54.65633682712939
 30
0.0
 10
241.753788719911
 20
54.8293896775318
 30
0.0
 10
241.4971559384792
 20
54.92859510978011
 30
0.0
 10
241.4807574482674
 20
54.93493420372048
 30
0.0
  0
SPLINE
  5
2BB
330
1F
100
AcDbEntity
  8
0
  6
Continuous
 62
     7
370
    25
100
AcDbSpline
210
0.0
220
0.0
230
1.0
 70
     8
 71
     3
 72
    24
 73
    20
 74
     0
 42
0.000000001
 43
0.00000001
 40
0.0
 40
0.0
 40
0.0
 40
0.0
 40
0.0618840405107654
 40
0.1150097917091882
 40
0.1593831560946264
 40
0.2428115036280618
 40
0.3183318591855066
 40
0.393554385675793
 40
0.4204843277094077
 40
0.4483397483172464
 40
0.4771286747760933
 40
0.5451537944670507
 40
0.6363475785735143
 40
0.6968782886074498
 40
0.7498596715029577
 40
0.7959701313029689
 40
0.8771179313375886
 40
0.9543004211730736
 40
1.0
 40
1.0
 40
1.0
 40
1.0
 10
240.0859328507629
 20
57.36504671176834
 30
0.0
 10
239.901981404683
 20
57.38394110173377
 30
0.0
 10
239.5601126882314
 20
57.41905580718061
 30
0.0
 10
239.0958941503345
 20
57.4125663940776
 30
0.0
 10
238.5864271347256
 20
57.3648419729501
 30
0.0
 10
238.0473273041017
 20
57.24022456144845
 30
0.0
 10
237.5044893253647
 20
56.99773419704941
 30
0.0
 10
237.1640963085145
 20
56.74036146463486
 30
0.0
 10
236.9574696000873
 20
56.52555436247254
 30
0.0
 10
236.8394855438547
 20
56.37905101146288
 30
0.0
 10
236.6873151396716
 20
56.14930018713664
 30
0.0
 10
236.5206345010871
 20
55.77635749177455
 30
0.0
 10
236.4522729202517
 20
55.31379843905614
 30
0.0
 10
236.5026283838708
 20
54.88546574085922
 30
0.0
 10
236.6080575273862
 20
54.56553884721388
 30
0.0
 10
236.7902568540721
 20
54.22507333202093
 30
0.0
 10
237.0911352791426
 20
53.88912507516574
 30
0.0
 10
237.4808201737411
 20
53.61606577445075
 30
0.0
 10
237.7737391299355
 20
53.52211070352345
 30
0.0
 10
237.8826750639918
 20
53.48716901335849
 30
0.0
  0
SPLINE
  5
2BC
330
1F
100
AcDbEntity
  8
0
  6
Continuous
 62
     7
370
    25
100
AcDbSpline
210
0.0
220
0.0
230
1.0
 70
     8
 71
     3
 72
    22
 73
    18
 74
     0
 42
0.000000001
 43
0.00000001
 40
0.0
 40
0.0
 40
0.0
 40
0.0
 40
0.0223282107105904
 40
0.0807100968858493
 40
0.1459842491947477
 40
0.2181902684812118
 40
0.2801850534629768
 40
0.3335294028776248
 40
0.3782227700647857
 40
0.4142678497698732
 40
0.517509144121244
 40
0.6095446079178407
 40
0.7029529247780464
 40
0.752742733404013
 40
0.8046325918626208
 40
0.893788027457309
 40
1.0
 40
1.0
 40
1.0
 40
1.0
 10
243.3896271537698
 20
54.88660239075254
 30
0.0
 10
243.4131986830077
 20
54.90883123260999
 30
0.0
 10
243.4984030208383
 20
54.98918213950664
 30
0.0
 10
243.6053818304487
 20
55.13171529445886
 30
0.0
 10
243.7026090763495
 20
55.32049292183744
 30
0.0
 10
243.7336431774511
 20
55.50645744674708
 30
0.0
 10
243.7042941638912
 20
55.67827234890918
 30
0.0
 10
243.635787200618
 20
55.82507823102595
 30
0.0
 10
243.5479769834286
 20
55.94628929722032
 30
0.0
 10
243.3936851470248
 20
56.11187240369203
 30
0.0
 10
243.1258592284212
 20
56.32203667083696
 30
0.0
 10
242.674288963741
 20
56.57748046962229
 30
0.0
 10
242.2267263591836
 20
56.78411718131779
 30
0.0
 10
241.8178325802286
 20
56.94262136883037
 30
0.0
 10
241.3957496648156
 20
57.0851393619237
 30
0.0
 10
240.8174365311242
 20
57.248394880118
 30
0.0
 10
240.3435580525861
 20
57.32396359424101
 30
0.0
 10
240.0859328507629
 20
57.36504671176834
 30
0.0
  0
LINE
  5
2BD
330
1F
100
AcDbEntity
  8
0
  6
Continuous
 62
     7
370
    25
100
AcDbLine
 10
233.5763631289
 20
42.1178755237
 30
0.0
 11
233.5711250659
 21
42.4139589466
 31
0.0
  0
LINE
  5
2BE
330
1F
100
AcDbEntity
  8
0
  6
Continuous
 62
     7
370
    25
100
AcDbLine
 10
233.5711250659
 20
42.4139589466
 30
0.0
 11
233.6142241697
 21
43.0656080961
 31
0.0
  0
LINE
  5
2BF
330
1F
100
AcDbEntity
  8
0
  6
Continuous
 62
     7
370
    25
100
AcDbLine
 10
233.0915643941
 20
44.8946745379
 30
0.0
 11
232.7801617453
 21
45.2232437336
 31
0.0
  0
SPLINE
  5
2C0
330
1F
100
AcDbEntity
  8
0
  6
Continuous
 62
     7
370
    25
100
AcDbSpline
210
0.0
220
0.0
230
1.0
 70
     8
 71
     3
 72
    19
 73
    15
 74
     0
 42
0.000000001
 43
0.00000001
 40
0.0
 40
0.0
 40
0.0
 40
0.0
 40
0.0210492621018804
 40
0.1455865440207667
 40
0.2712169722633744
 40
0.3929514297049947
 40
0.5136082229787104
 40
0.6366369099308349
 40
0.699422462668311
 40
0.7643939711952468
 40
0.8122544601557282
 40
0.8606584764820763
 40
0.9188817427801165
 40
1.0
 40
1.0
 40
1.0
 40
1.0
 10
236.4966882984206
 20
55.11029676431054
 30
0.0
 10
236.4892197234347
 20
55.16505711121594
 30
0.0
 10
236.437563564863
 20
55.54380528855108
 30
0.0
 10
236.6803344595227
 20
56.15395619736527
 30
0.0
 10
237.2646649269376
 20
56.84332990060482
 30
0.0
 10
238.1707912945779
 20
57.26062945083688
 30
0.0
 10
239.2451374230399
 20
57.38105540852553
 30
0.0
 10
240.1990712921356
 20
57.22035586493794
 30
0.0
 10
240.9337338347048
 20
56.92298976609614
 30
0.0
 10
241.4065370741772
 20
56.62533168869143
 30
0.0
 10
241.7635072442966
 20
56.25441988391408
 30
0.0
 10
241.9583553858049
 20
55.8220985886065
 30
0.0
 10
241.9873844160491
 20
55.31915725738135
 30
0.0
 10
241.9250108144287
 20
54.98541224480616
 30
0.0
 10
241.8886997584546
 20
54.7911211742593
 30
0.0
  0
SPLINE
  5
2C1
330
1F
100
AcDbEntity
  8
0
  6
Continuous
 62
     7
370
    25
100
AcDbSpline
210
0.0
220
0.0
230
1.0
 70
     8
 71
     3
 72
    10
 73
     6
 74
     0
 42
0.000000001
 43
0.00000001
 40
0.0
 40
0.0
 40
0.0
 40
0.0
 40
0.2951525167954889
 40
0.9804917252000711
 40
1.0
 40
1.0
 40
1.0
 40
1.0
 10
241.8914276144428
 20
54.78988262083691
 30
0.0
 10
241.974251531194
 20
54.75111762758952
 30
0.0
 10
242.2493911976449
 20
54.62234096825699
 30
0.0
 10
242.5243689545688
 20
54.4811219595452
 30
0.0
 10
242.6728715009795
 20
54.38711419568253
 30
0.0
 10
242.6769816504131
 20
54.38451231465937
 30
0.0
  0
ARC
  5
2C2
330
1F
100
AcDbEntity
  8
0
  6
Continuous
 62
     7
370
    25
100
AcDbCircle
 10
245.9015361798
 20
40.5766636285
 30
0.0
 40
12.46654291791424
100
AcDbArc
 50
171.5249863735
 51
179.8211981812
  0
SPLINE
  5
2C3
330
1F
100
AcDbEntity
  8
0
  6
Continuous
 62
     7
370
    25
100
AcDbSpline
210
0.0
220
0.0
230
1.0
 70
     8
 71
     3
 72
    14
 73
    10
 74
     0
 42
0.000000001
 43
0.00000001
 40
0.0
 40
0.0
 40
0.0
 40
0.0
 40
0.0003951393068452
 40
0.0003951393068452
 40
0.0003951393068452
 40
0.0008163352168663
 40
0.0008163352168663
 40
0.0008163352168663
 40
0.0012378579337219
 40
0.0012378579337219
 40
0.0012378579337219
 40
0.0012378579337219
 10
241.4833499516043
 20
54.93512994300506
 30
0.0
 10
241.5288117658355
 20
54.92069308038003
 30
0.0
 10
241.5736993704566
 20
54.90582721981442
 30
0.0
 10
241.6179830631317
 20
54.89054343220895
 30
0.0
 10
241.665186355371
 20
54.87425199287126
 30
0.0
 10
241.7117121684302
 20
54.85748251478734
 30
0.0
 10
241.7575230776718
 20
54.84025370399205
 30
0.0
 10
241.8033694656609
 20
54.82301155016041
 30
0.0
 10
241.8485087012333
 20
54.80530584395591
 30
0.0
 10
241.8929022592757
 20
54.78716298726513
 30
0.0
  0
LINE
  5
2C4
330
1F
100
AcDbEntity
  8
0
  6
Continuous
 62
     7
370
    25
100
AcDbLine
 10
232.7801617453
 20
45.2232437336
 30
0.0
 11
232.1402250709
 21
45.6354753737
 31
0.0
  0
LINE
  5
2C5
330
1F
100
AcDbEntity
  8
0
  6
Continuous
 62
     7
370
    25
100
AcDbLine
 10
231.8342909758
 20
46.0069537605
 30
0.0
 11
232.1402250709
 21
45.6354753737
 31
0.0
  0
SPLINE
  5
2C6
330
1F
100
AcDbEntity
  8
0
  6
Continuous
 62
     7
370
    25
100
AcDbSpline
210
0.0
220
0.0
230
1.0
 70
     8
 71
     3
 72
    13
 73
     9
 74
     0
 42
0.000000001
 43
0.00000001
 40
0.0
 40
0.0
 40
0.0
 40
0.0
 40
0.1618322161671507
 40
0.3254505981958385
 40
0.4909687654272659
 40
0.6584964712949335
 40
0.8281395683842825
 40
1.0
 40
1.0
 40
1.0
 40
1.0
 10
232.1402254825827
 20
45.63547537757515
 30
0.0
 10
232.1206512170731
 20
45.64803692998691
 30
0.0
 10
232.08128664202
 20
45.67329867850339
 30
0.0
 10
232.019756122705
 20
45.70599063206772
 30
0.0
 10
231.9562011963652
 20
45.73493680524785
 30
0.0
 10
231.8905811028677
 20
45.75945056168887
 30
0.0
 10
231.823148200132
 20
45.77988775788632
 30
0.0
 10
231.7772587603531
 20
45.78948547241877
 30
0.0
 10
231.7541650636147
 20
45.79431548799233
 30
0.0
  0
SPLINE
  5
2C7
330
1F
100
AcDbEntity
  8
0
  6
Continuous
 62
     7
370
    25
100
AcDbSpline
210
0.0
220
0.0
230
1.0
 70
     8
 71
     3
 72
     9
 73
     5
 74
     0
 42
0.000000001
 43
0.00000001
 40
0.0
 40
0.0
 40
0.0
 40
0.0
 40
0.4907162487366171
 40
1.0
 40
1.0
 40
1.0
 40
1.0
 10
231.7541592363228
 20
45.79428749096132
 30
0.0
 10
231.7300621987816
 20
45.80238638803309
 30
0.0
 10
231.6809563507418
 20
45.81889062463139
 30
0.0
 10
231.6302449099581
 20
45.83368936613378
 30
0.0
 10
231.6044183971639
 20
45.84122612472008
 30
0.0
  0
SPLINE
  5
2C8
330
1F
100
AcDbEntity
  8
0
  6
Continuous
 62
     7
370
    25
100
AcDbSpline
210
0.0
220
0.0
230
1.0
 70
     8
 71
     3
 72
    14
 73
    10
 74
     0
 42
0.000000001
 43
0.00000001
 40
0.0
 40
0.0
 40
0.0
 40
0.0
 40
0.0310276310563468
 40
0.0622853638073634
 40
0.1248003080232583
 40
0.2498289632704402
 40
0.4998892480125147
 40
0.7606946229852678
 40
1.0
 40
1.0
 40
1.0
 40
1.0
 10
231.0205064118898
 20
46.2153154098274
 30
0.0
 10
231.0264984566503
 20
46.21148449098882
 30
0.0
 10
231.0385269833264
 20
46.2037942431209
 30
0.0
 10
231.0625860118371
 20
46.18835685326224
 30
0.0
 10
231.1048183202286
 20
46.16128727630688
 30
0.0
 10
231.1893781393966
 20
46.10707700081702
 30
0.0
 10
231.3126640004628
 20
46.02807466221266
 30
0.0
 10
231.4587903883352
 20
45.9344713330963
 30
0.0
 10
231.5571540307406
 20
45.87149045605069
 30
0.0
 10
231.6042215021694
 20
45.84135380638615
 30
0.0
  0
LINE
  5
2C9
330
1F
100
AcDbEntity
  8
0
  6
Continuous
 62
     7
370
    25
100
AcDbLine
 10
229.2180062567
 20
47.3779460868
 30
0.0
 11
229.5089736108
 21
47.1898675477
 31
0.0
  0
SPLINE
  5
2CA
330
1F
100
AcDbEntity
  8
0
  6
Continuous
 62
     7
370
    25
100
AcDbSpline
210
0.0
220
0.0
230
1.0
 70
     8
 71
     3
 72
     8
 73
     4
 74
     0
 42
0.000000001
 43
0.00000001
 40
0.0
 40
0.0
 40
0.0
 40
0.0
 40
1.0
 40
1.0
 40
1.0
 40
1.0
 10
229.5403619141852
 20
47.16964501751623
 30
0.0
 10
229.5299194083333
 20
47.17647044241361
 30
0.0
 10
229.5194534754436
 20
47.18321340920011
 30
0.0
 10
229.5089657106271
 20
47.18987249685306
 30
0.0
  0
SPLINE
  5
2CB
330
1F
100
AcDbEntity
  8
0
  6
Continuous
 62
     7
370
    25
100
AcDbSpline
210
0.0
220
0.0
230
1.0
 70
     8
 71
     3
 72
     8
 73
     4
 74
     0
 42
0.000000001
 43
0.00000001
 40
0.0
 40
0.0
 40
0.0
 40
0.0
 40
1.0
 40
1.0
 40
1.0
 40
1.0
 10
226.7543575353613
 20
49.04790066932533
 30
0.0
 10
226.8133572995313
 20
49.00916000240636
 30
0.0
 10
226.8726448630418
 20
48.97109802510708
 30
0.0
 10
226.9322259365302
 20
48.93371423664678
 30
0.0
  0
SPLINE
  5
2CC
330
1F
100
AcDbEntity
  8
0
  6
Continuous
 62
     7
370
    25
100
AcDbSpline
210
0.0
220
0.0
230
1.0
 70
     8
 71
     3
 72
     8
 73
     4
 74
     0
 42
0.000000001
 43
0.00000001
 40
0.0
 40
0.0
 40
0.0
 40
0.0
 40
1.0
 40
1.0
 40
1.0
 40
1.0
 10
226.7295077892618
 20
49.41111084726364
 30
0.0
 10
226.7369820013523
 20
49.2901530065518
 30
0.0
 10
226.7452781052424
 20
49.16908116414115
 30
0.0
 10
226.7543575353613
 20
49.04790066932533
 30
0.0
  0
LWPOLYLINE
  5
2CD
330
1F
100
AcDbEntity
  8
0
  6
Continuous
 62
     7
370
    25
100
AcDbPolyline
 90
       15
 70
   128
 43
0.0
 10
226.7295081481
 20
49.4111101818
 10
227.1231076881
 20
50.5200190207
 10
227.5977760328
 20
51.6207874823
 10
228.1478292843
 20
52.7002338559
 10
228.7666806806
 20
53.7454324113
 10
229.4469199496
 20
54.7438683358
 10
230.1804022128
 20
55.6835852553
 10
230.9583438035
 20
56.5533314246
 10
231.7714297744
 20
57.3426913724
 10
232.6099235448
 20
58.0422130783
 10
233.4637848218
 20
58.643520154
 10
234.3227892078
 20
59.1394128307
 10
235.1766504848
 20
59.523953001
 10
236.0151442552
 20
59.7925355958
 10
236.693470617
 20
59.9252178733
  0
SPLINE
  5
2CE
330
1F
100
AcDbEntity
  8
0
  6
Continuous
 62
     7
370
    25
100
AcDbSpline
210
0.0
220
0.0
230
1.0
 70
     8
 71
     3
 72
    10
 73
     6
 74
     0
 42
0.000000001
 43
0.00000001
 40
0.0
 40
0.0
 40
0.0
 40
0.0
 40
0.2409536028783486
 40
0.5031434696391622
 40
1.0
 40
1.0
 40
1.0
 40
1.0
 10
232.7801617453005
 20
38.51740211030982
 30
0.0
 10
232.8624000977447
 20
38.46573212156397
 30
0.0
 10
233.0341248177401
 20
38.35783824862224
 30
0.0
 10
233.3118414849404
 20
38.2281059099933
 30
0.0
 10
233.432825206066
 20
38.25088547044533
 30
0.0
 10
233.5120187206344
 20
38.26579651331737
 30
0.0
  0
LINE
  5
2CF
330
1F
100
AcDbEntity
  8
0
  6
Continuous
 62
     7
370
    25
100
AcDbLine
 10
227.9969876892
 20
48.2464748433
 30
0.0
 11
227.2351089868
 21
48.7371092509
 31
0.0
  0
LINE
  5
2D0
330
1F
100
AcDbEntity
  8
0
  6
Continuous
 62
     7
370
    25
100
AcDbLine
 10
227.2351089868
 20
48.7371092509
 30
0.0
 11
226.7543576665
 21
49.047900627
 31
0.0
  0
LINE
  5
2D1
330
1F
100
AcDbEntity
  8
0
  6
Continuous
 62
     7
370
    25
100
AcDbLine
 10
231.8342909758
 20
38.2416223094
 30
0.0
 11
232.1402250709
 21
38.9296337504
 31
0.0
  0
LINE
  5
2D2
330
1F
100
AcDbEntity
  8
0
  6
Continuous
 62
     7
370
    25
100
AcDbLine
 10
232.1402250709
 20
38.9296337504
 30
0.0
 11
232.7801617453
 21
38.5174021103
 31
0.0
  0
SPLINE
  5
2D3
330
1F
100
AcDbEntity
  8
0
  6
Continuous
 62
     7
370
    25
100
AcDbSpline
210
0.0
220
0.0
230
1.0
 70
     8
 71
     3
 72
    13
 73
     9
 74
     0
 42
0.000000001
 43
0.00000001
 40
0.0
 40
0.0
 40
0.0
 40
0.0
 40
0.1722808990137997
 40
0.3421751863417418
 40
0.5097853608417361
 40
0.6752181677654021
 40
0.8385846213276585
 40
1.0
 40
1.0
 40
1.0
 40
1.0
 10
231.7541535518094
 20
39.21094345582843
 30
0.0
 10
231.777308091527
 20
39.19282158662704
 30
0.0
 10
231.8232964105333
 20
39.15682889094027
 30
0.0
 10
231.8908430555937
 20
39.10582561096059
 30
0.0
 10
231.9565046608748
 20
39.05750044238978
 30
0.0
 10
232.0200269997643
 20
39.01207129542554
 30
0.0
 10
232.081451960812
 20
38.96924949679943
 30
0.0
 10
232.1207129266492
 20
38.94278614746315
 30
0.0
 10
232.1402254825827
 20
38.92963395996342
 30
0.0
  0
SPLINE
  5
2D4
330
1F
100
AcDbEntity
  8
0
  6
Continuous
 62
     7
370
    25
100
AcDbSpline
210
0.0
220
0.0
230
1.0
 70
     8
 71
     3
 72
    11
 73
     7
 74
     0
 42
0.000000001
 43
0.00000001
 40
0.0
 40
0.0
 40
0.0
 40
0.0
 40
0.2392702280042807
 40
0.5001120575629275
 40
0.7515010343555971
 40
1.0
 40
1.0
 40
1.0
 40
1.0
 10
231.6047540484706
 20
39.25824614598282
 30
0.0
 10
231.5576890486684
 20
39.22993434971397
 30
0.0
 10
231.4593158658173
 20
39.17075828421091
 30
0.0
 10
231.313023970767
 20
39.07757230001045
 30
0.0
 10
231.1651851365856
 20
38.98220179231075
 30
0.0
 10
231.0689017892654
 20
38.91766860382211
 30
0.0
 10
231.0210384379287
 20
38.88558855301915
 30
0.0
  0
SPLINE
  5
2D5
330
1F
100
AcDbEntity
  8
0
  6
Continuous
 62
     7
370
    25
100
AcDbSpline
210
0.0
220
0.0
230
1.0
 70
     8
 71
     3
 72
     9
 73
     5
 74
     0
 42
0.000000001
 43
0.00000001
 40
0.0
 40
0.0
 40
0.0
 40
0.0
 40
0.5090786773519874
 40
1.0
 40
1.0
 40
1.0
 40
1.0
 10
231.6053154758018
 20
39.25757692481071
 30
0.0
 10
231.630970097807
 20
39.25008145729187
 30
0.0
 10
231.6813643161206
 20
39.23535786376438
 30
0.0
 10
231.7301801961745
 20
39.21895827328008
 30
0.0
 10
231.7541449525767
 20
39.21090736462864
 30
0.0
  0
LINE
  5
2D6
330
1F
100
AcDbEntity
  8
0
  6
Continuous
 62
     7
370
    25
100
AcDbLine
 10
233.4352627241
 20
40.1814370611
 30
0.0
 11
231.7541467677
 21
39.2109494769
 31
0.0
  0
LINE
  5
2D7
330
1F
100
AcDbEntity
  8
0
  6
Continuous
 62
     7
370
    25
100
AcDbLine
 10
229.7476591164
 20
40.3347707755
 30
0.0
 11
229.5473634629
 21
39.8336133613
 31
0.0
  0
SPLINE
  5
2D8
330
1F
100
AcDbEntity
  8
0
  6
Continuous
 62
     7
370
    25
100
AcDbSpline
210
0.0
220
0.0
230
1.0
 70
     8
 71
     3
 72
     8
 73
     4
 74
     0
 42
0.000000001
 43
0.00000001
 40
0.0
 40
0.0
 40
0.0
 40
0.0
 40
1.0
 40
1.0
 40
1.0
 40
1.0
 10
229.7472159457773
 20
40.3355545276909
 30
0.0
 10
229.7733912803465
 20
40.35772190466916
 30
0.0
 10
229.799212320312
 20
40.38035404576078
 30
0.0
 10
229.8246698740203
 20
40.40343876585205
 30
0.0
  0
LINE
  5
2D9
330
1F
100
AcDbEntity
  8
0
  6
Continuous
 62
     7
370
    25
100
AcDbLine
 10
229.8246699698
 20
40.4034386502
 30
0.0
 11
231.6049337531
 21
39.2576860132
 31
0.0
  0
LINE
  5
2DA
330
1F
100
AcDbEntity
  8
0
  6
Continuous
 62
     7
370
    25
100
AcDbLine
 10
233.4350539654
 20
40.2794565827
 30
0.0
 11
233.3469683691
 21
40.3870042963
 31
0.0
  0
LINE
  5
2DB
330
1F
100
AcDbEntity
  8
0
  6
Continuous
 62
     7
370
    25
100
AcDbLine
 10
231.5186466418
 20
41.3813505676
 30
0.0
 11
229.8246699698
 21
40.4034386502
 31
0.0
  0
LINE
  5
2DC
330
1F
100
AcDbEntity
  8
0
  6
Continuous
 62
     7
370
    25
100
AcDbLine
 10
231.6613407244
 20
41.3600584058
 30
0.0
 11
231.5190667932
 21
41.3808631901
 31
0.0
  0
LINE
  5
2DD
330
1F
100
AcDbEntity
  8
0
  6
Continuous
 62
     7
370
    25
100
AcDbLine
 10
233.3470138087
 20
40.3869400477
 30
0.0
 11
231.6613407244
 21
41.3600584058
 31
0.0
  0
LINE
  5
2DE
330
1F
100
AcDbEntity
  8
0
  6
Continuous
 62
     7
370
    25
100
AcDbLine
 10
233.4350539654
 20
40.3361094359
 30
0.0
 11
233.3469861498
 21
40.3869552433
 31
0.0
  0
SPLINE
  5
2DF
330
1F
100
AcDbEntity
  8
0
  6
Continuous
 62
     7
370
    25
100
AcDbSpline
210
0.0
220
0.0
230
1.0
 70
     8
 71
     3
 72
    19
 73
    15
 74
     0
 42
0.000000001
 43
0.00000001
 40
0.0
 40
0.0
 40
0.0
 40
0.0
 40
0.0637766826390991
 40
0.1289474638241302
 40
0.1955669659180889
 40
0.2636863253972236
 40
0.3333533751274895
 40
0.4046128304418877
 40
0.4775064752940732
 40
0.5520733455739743
 40
0.6283499073779089
 40
0.7063702286263801
 40
0.8377042577879461
 40
0.9999999999999999
 40
0.9999999999999999
 40
0.9999999999999999
 40
0.9999999999999999
 10
228.9631468398159
 20
40.50404261504276
 30
0.0
 10
228.9838342406336
 20
40.49068563936752
 30
0.0
 10
229.025661249474
 20
40.46367971703961
 30
0.0
 10
229.086147547787
 20
40.42616160019006
 30
0.0
 10
229.1456285376081
 20
40.39064381263428
 30
0.0
 10
229.2037078902279
 20
40.35766394721223
 30
0.0
 10
229.2602396008864
 20
40.32745645790961
 30
0.0
 10
229.3149855895088
 20
40.30034101134784
 30
0.0
 10
229.3677101550954
 20
40.27660682636785
 30
0.0
 10
229.4181551155277
 20
40.2565638612683
 30
0.0
 10
229.4660423166453
 20
40.24044155154397
 30
0.0
 10
229.5210095552794
 20
40.22616238973514
 30
0.0
 10
229.5838424587822
 20
40.21602365169313
 30
0.0
 10
229.6223499571226
 20
40.22249789229503
 30
0.0
 10
229.6436339127469
 20
40.22607634988409
 30
0.0
  0
LINE
  5
2E0
330
1F
100
AcDbEntity
  8
0
  6
Continuous
 62
     7
370
    25
100
AcDbLine
 10
229.6682696004
 20
40.2521468041
 30
0.0
 11
229.7470736704
 21
40.3355384079
 31
0.0
  0
SPLINE
  5
2E1
330
1F
100
AcDbEntity
  8
0
  6
Continuous
 62
     7
370
    25
100
AcDbSpline
210
0.0
220
0.0
230
1.0
 70
     8
 71
     3
 72
     9
 73
     5
 74
     0
 42
0.000000001
 43
0.00000001
 40
0.0
 40
0.0
 40
0.0
 40
0.0
 40
0.5232334307013496
 40
1.0
 40
1.0
 40
1.0
 40
1.0
 10
231.3524688621303
 20
41.28541872700709
 30
0.0
 10
231.2834424071011
 20
41.31046397525857
 30
0.0
 10
231.1515195386851
 20
41.35833027504356
 30
0.0
 10
230.9100760391455
 20
41.49592699264794
 30
0.0
 10
230.7949638501906
 20
41.56152850764694
 30
0.0
  0
LINE
  5
2E2
330
1F
100
AcDbEntity
  8
0
  6
Continuous
 62
     7
370
    25
100
AcDbLine
 10
227.0654626532
 20
41.3274180703
 30
0.0
 11
227.5169337675
 21
41.4396820431
 31
0.0
  0
LINE
  5
2E3
330
1F
100
AcDbEntity
  8
0
  6
Continuous
 62
     7
370
    25
100
AcDbLine
 10
227.5169337675
 20
41.4396820431
 30
0.0
 11
228.9631462393
 21
40.5040427101
 31
0.0
  0
SPLINE
  5
2E4
330
1F
100
AcDbEntity
  8
0
  6
Continuous
 62
     7
370
    25
100
AcDbSpline
210
0.0
220
0.0
230
1.0
 70
     8
 71
     3
 72
     8
 73
     4
 74
     0
 42
0.000000001
 43
0.00000001
 40
0.0
 40
0.0
 40
0.0
 40
0.0
 40
1.0
 40
1.0
 40
1.0
 40
1.0
 10
227.2362512238327
 20
40.93266841725945
 30
0.0
 10
227.1791259549086
 20
41.06445460105509
 30
0.0
 10
227.1221974631911
 20
41.19603882271588
 30
0.0
 10
227.0654633452416
 20
41.32741788961723
 30
0.0
  0
LINE
  5
2E5
330
1F
100
AcDbEntity
  8
0
  6
Continuous
 62
     7
370
    25
100
AcDbLine
 10
228.8546352266
 20
42.2119206579
 30
0.0
 11
227.5169337675
 21
41.4396820431
 31
0.0
  0
LINE
  5
2E6
330
1F
100
AcDbEntity
  8
0
  6
Continuous
 62
     7
370
    25
100
AcDbLine
 10
229.8376637114
 20
42.114167255
 30
0.0
 11
228.8546352266
 21
42.2119206579
 31
0.0
  0
LINE
  5
2E7
330
1F
100
AcDbEntity
  8
0
  6
Continuous
 62
     7
370
    25
100
AcDbLine
 10
230.7949638502
 20
41.5615285076
 30
0.0
 11
229.8376627236
 21
42.1141666848
 31
0.0
  0
SPLINE
  5
2E8
330
1F
100
AcDbEntity
  8
0
  6
Continuous
 62
     7
370
    25
100
AcDbSpline
210
0.0
220
0.0
230
1.0
 70
     8
 71
     3
 72
     8
 73
     4
 74
     0
 42
0.000000001
 43
0.00000001
 40
0.0
 40
0.0
 40
0.0
 40
0.0
 40
1.0
 40
1.0
 40
1.0
 40
1.0
 10
227.0654633452438
 20
41.32741788961213
 30
0.0
 10
227.0623260074937
 20
41.36263419648463
 30
0.0
 10
227.0603336035958
 20
41.39827845271234
 30
0.0
 10
227.0595522062237
 20
41.43437535470721
 30
0.0
  0
LINE
  5
2E9
330
1F
100
AcDbEntity
  8
0
  6
Continuous
 62
     7
370
    25
100
AcDbLine
 10
227.8706386813
 20
41.9026050694
 30
0.0
 11
227.0595528748
 21
41.4343751998
 31
0.0
  0
SPLINE
  5
2EA
330
1F
100
AcDbEntity
  8
0
  6
Continuous
 62
     7
370
    25
100
AcDbSpline
210
0.0
220
0.0
230
1.0
 70
     8
 71
     3
 72
     8
 73
     4
 74
     0
 42
0.000000001
 43
0.00000001
 40
0.0000004089325119
 40
0.0000004089325119
 40
0.0000004089325119
 40
0.0000004089325119
 40
0.0015399868451459
 40
0.0015399868451459
 40
0.0015399868451459
 40
0.0015399868451459
 10
227.8706377387125
 20
41.90260506606332
 30
0.0
 10
228.1091143067357
 20
41.99698145187968
 30
0.0
 10
228.3475612644044
 20
42.09141006380989
 30
0.0
 10
228.5859700032547
 20
42.18590344677235
 30
0.0
  0
LINE
  5
2EB
330
1F
100
AcDbEntity
  8
0
  6
Continuous
 62
     7
370
    25
100
AcDbLine
 10
228.5859694822
 20
42.1859035939
 30
0.0
 11
228.6103659221
 21
42.1908976203
 31
0.0
  0
LINE
  5
2EC
330
1F
100
AcDbEntity
  8
0
  6
Continuous
 62
     7
370
    25
100
AcDbLine
 10
228.8546352266
 20
42.2119206579
 30
0.0
 11
228.6103665806
 21
42.1908976203
 31
0.0
  0
SPLINE
  5
2ED
330
1F
100
AcDbEntity
  8
0
  6
Continuous
 62
     7
370
    25
100
AcDbSpline
210
0.0
220
0.0
230
1.0
 70
     8
 71
     3
 72
     8
 73
     4
 74
     0
 42
0.000000001
 43
0.00000001
 40
0.0
 40
0.0
 40
0.0
 40
0.0
 40
1.0
 40
1.0
 40
1.0
 40
1.0
 10
229.8376619177627
 20
42.11416743935931
 30
0.0
 10
229.868269951886
 20
42.0992274315532
 30
0.0
 10
229.8988214528579
 20
42.08435047415982
 30
0.0
 10
229.9293153909725
 20
42.0695369104789
 30
0.0
  0
ARC
  5
2EE
330
1F
100
AcDbEntity
  8
0
  6
Continuous
 62
     7
370
    25
100
AcDbCircle
 10
230.718345398
 20
47.5428873846
 30
0.0
 40
6.549762100197328
100
AcDbArc
 50
283.6682343678
 51
294.9135532271
  0
LWPOLYLINE
  5
2EF
330
1F
100
AcDbEntity
  8
0
  6
Continuous
 62
     7
370
    18
100
AcDbPolyline
 90
       31
 70
   128
 43
0.0
 10
270.2309491261
 20
18.0104672401
 10
270.2762102316
 20
19.1004925355
 10
270.4115575916
 20
20.2322776119
 10
270.6356879465
 20
21.3949229722
 10
270.9464425875
 20
22.577231478
 10
271.3408290883
 20
23.7678169995
 10
271.8150496226
 20
24.9552136333
 10
272.3645358674
 20
26.127985587
 10
272.9839970759
 20
27.2748393424
 10
273.6674674935
 20
28.3847293556
 10
274.4083643093
 20
29.4469664174
 10
275.1995525228
 20
30.4513220208
 10
276.0334127741
 20
31.3881222719
 10
276.9019144421
 20
32.2483456024
 10
277.7966933531
 20
33.023707934
 10
278.7091322052
 20
33.7067418071
 10
279.6304437921
 20
34.2908695192
 10
280.5517553789
 20
34.7704655233
 10
281.464194231
 20
35.1409111249
 10
282.358973142
 20
35.3986385339
 10
283.22747481
 20
35.5411658853
 10
284.0613350613
 20
35.5671201875
 10
284.8525232748
 20
35.4762510513
 10
285.5934200906
 20
35.2694352448
 10
286.2768905082
 20
34.948663379
 10
286.8963517167
 20
34.5170243111
 10
287.4458379615
 20
33.9786756715
 10
287.9200584958
 20
33.3388024123
 10
288.3144449966
 20
32.6035658523
 10
288.6251996376
 20
31.7800470178
 10
288.8277145861
 20
30.9855321282
  0
LWPOLYLINE
  5
2F0
330
1F
100
AcDbEntity
  8
0
  6
Continuous
 62
     7
370
    18
100
AcDbPolyline
 90
       15
 70
   128
 43
0.0
 10
277.7157193789
 20
11.7047303975
 10
276.9019144421
 20
11.4747214872
 10
276.0334127741
 20
11.3321941359
 10
275.1995525228
 20
11.3062398337
 10
274.4083643093
 20
11.3971089699
 10
273.6674674935
 20
11.6039247763
 10
272.9839970759
 20
11.9246966422
 10
272.3645358674
 20
12.3563357101
 10
271.8150496226
 20
12.8946843497
 10
271.3408290883
 20
13.5345576089
 10
270.9464425875
 20
14.2697941689
 10
270.6356879465
 20
15.0933130034
 10
270.4115575916
 20
15.997182964
 10
270.2762102316
 20
16.9726993049
 10
270.2309491261
 20
18.0104672401
  0
LWPOLYLINE
  5
2F1
330
1F
100
AcDbEntity
  8
0
  6
Continuous
 62
     7
370
    18
100
AcDbPolyline
 90
       36
 70
   128
 43
0.0
 10
263.9883060972
 20
18.0104676203
 10
264.0346570938
 20
19.2801539775
 10
264.1733623723
 20
20.5939531554
 10
264.4033985544
 20
21.9421400704
 10
264.7230613269
 20
23.3147330464
 10
265.1299838809
 20
24.7015692894
 10
265.6211540338
 20
26.0923816923
 10
266.1929339858
 20
27.4768724079
 10
266.8410919298
 20
28.844791554
 10
267.5608283935
 20
30.1860117362
 10
268.3468150932
 20
31.4906029498
 10
269.1932324711
 20
32.748905961
 10
270.0938138178
 20
33.9516056873
 10
271.041892687
 20
35.0897965933
 10
272.0304483359
 20
36.155053789
 10
273.0521626887
 20
37.1394887289
 10
274.099471209
 20
38.035812801
 10
275.1646199471
 20
38.8373900304
 10
276.2397228735
 20
39.5382884298
 10
277.3168203666
 20
40.1333152835
 10
278.3879379051
 20
40.6180677606
 10
279.4451451726
 20
40.9889548677
 10
280.4806155322
 20
41.2432333038
 10
281.4866822089
 20
41.3790170801
 10
282.4558967349
 20
41.3953036546
 10
283.38108328
 20
41.2919710761
 10
284.2553919934
 20
41.0697852031
 10
285.0723506999
 20
40.7303900033
 10
285.8259100095
 20
40.2762993741
 10
286.5104907332
 20
39.710875085
 10
287.1210253709
 20
39.038302819
 10
287.6529923561
 20
38.263561751
 10
288.1024555682
 20
37.3923888021
 10
288.4660840892
 20
36.4312326299
 10
288.7411884232
 20
35.3872106591
 10
288.8848182975
 20
34.5778631429
  0
LWPOLYLINE
  5
2F2
330
1F
100
AcDbEntity
  8
0
  6
Continuous
 62
     7
370
    18
100
AcDbPolyline
 90
       17
 70
   128
 43
0.0
 10
273.8019488675
 20
9.5591899719
 10
273.0521626887
 20
9.3463525804
 10
272.0304483359
 20
9.1511412382
 10
271.041892687
 20
9.0750363762
 10
270.0938138178
 20
9.1185987195
 10
269.1932324711
 20
9.2815093556
 10
268.3468150932
 20
9.5625596636
 10
267.5608283935
 20
9.95966995
 10
266.8410919298
 20
10.4699000994
 10
266.1929339858
 20
11.0894720124
 10
265.6211540338
 20
11.8137996474
 10
265.1299838809
 20
12.6375190626
 10
264.7230613269
 20
13.5545325252
 10
264.4033985544
 20
14.55805072
 10
264.1733623723
 20
15.6406435125
 10
264.0346570938
 20
16.7942969847
 10
263.9883060972
 20
18.0104676203
  0
LWPOLYLINE
  5
2F3
330
1F
100
AcDbEntity
  8
0
  6
Continuous
 62
     7
370
    18
100
AcDbPolyline
 90
       29
 70
   128
 43
0.0
 10
263.2812018343
 20
18.1795511145
 10
263.3270536542
 20
19.4524757597
 10
263.4642811588
 20
20.7691697783
 10
263.6918938971
 20
22.1201453479
 10
264.0082520932
 20
23.4956686976
 10
264.4110785004
 20
24.8858304489
 10
264.8974676202
 20
26.2806121562
 10
265.4639173129
 20
27.6699665321
 10
266.1063446026
 20
29.0438824659
 10
266.8201225556
 20
30.3924606857
 10
267.6001072807
 20
31.7059848596
 10
268.440678759
 20
32.9749900333
 10
269.3357810153
 20
34.1903344903
 10
270.2789649233
 20
35.3432617252
 10
271.2634352913
 20
36.4254626076
 10
272.2820979488
 20
37.4291428683
 10
273.3276140756
 20
38.3470696729
 10
274.3924504166
 20
39.1726279864
 10
275.4689350106
 20
39.8998709958
 10
276.5493116849
 20
40.5235591743
 10
277.6257962788
 20
41.0391988215
 10
278.6906326198
 20
41.4430743781
 10
279.7361487467
 20
41.7322747991
 10
280.7548114041
 20
41.9047174083
 10
281.7392817722
 20
41.9591618187
 10
282.6824656801
 20
41.8952115444
 10
283.5775679364
 20
41.7133301547
 10
284.4181394148
 20
41.4148281521
 10
284.9902624684
 20
41.126527473
  0
LWPOLYLINE
  5
2F4
330
1F
100
AcDbEntity
  8
0
  6
Continuous
 62
     7
370
    18
100
AcDbPolyline
 90
       11
 70
   128
 43
0.0
 10
267.0024702371
 20
9.9426142931
 10
266.8201225556
 20
10.0525924363
 10
266.1063446026
 20
10.5770601733
 10
265.4639173129
 20
11.2092453465
 10
264.8974676202
 20
11.9445908282
 10
264.4110785004
 20
12.7777996112
 10
264.0082520932
 20
13.7028678926
 10
263.6918938971
 20
14.7131318437
 10
263.4642811588
 20
15.8013113395
 10
263.3270536542
 20
16.9595658538
 10
263.2812018343
 20
18.1795511145
  0
LWPOLYLINE
  5
2F5
330
1F
100
AcDbEntity
  8
0
  6
Continuous
 62
     7
370
    18
100
AcDbPolyline
 90
       63
 70
   128
 43
0.0
 10
270.9380560232
 20
18.1795507344
 10
270.9837162067
 20
19.2455972665
 10
271.1202291904
 20
20.3534232798
 10
271.3461935918
 20
21.4916610312
 10
271.6592906756
 20
22.6486303136
 10
272.0563074031
 20
23.8124587014
 10
272.5331706766
 20
24.9712046478
 10
273.0849868518
 20
26.112977634
 10
273.7060931045
 20
27.2260613595
 10
274.3901166995
 20
28.2990338893
 10
275.1300382109
 20
29.3208847596
 10
275.918265279
 20
30.2811298007
 10
276.746709331
 20
31.1699139825
 10
277.6068698743
 20
31.9781178711
 10
278.4899200253
 20
32.697448829
 10
279.3867987466
 20
33.3205239208
 10
280.2883027964
 20
33.8409511311
 10
281.1851815177
 20
34.2533901694
 10
282.0682316686
 20
34.5536072141
 10
282.9283922119
 20
34.7385235497
 10
283.7568362639
 20
34.8062405106
 10
284.545063332
 20
34.756063071
 10
285.2849848434
 20
34.5885073935
 10
285.9690084384
 20
34.3052916961
 10
286.5901146911
 20
33.9093219858
 10
287.1419308663
 20
33.4046623941
 10
287.6187941398
 20
32.7964910639
 10
288.0158108673
 20
32.0910484327
 10
288.3289079511
 20
31.2955733487
 10
288.5548723525
 20
30.4182285418
 10
288.6913853363
 20
29.4680170647
 10
288.7370455197
 20
28.4546886582
 10
288.6913853363
 20
27.3886421261
 10
288.5548723525
 20
26.2808161128
 10
288.3289079511
 20
25.1425783613
 10
288.0158108673
 20
23.985609079
 10
287.6187941398
 20
22.8217806912
 10
287.1419308663
 20
21.6630347448
 10
286.5901146911
 20
20.5212617586
 10
285.9690084384
 20
19.4081780331
 10
285.2849848434
 20
18.3352055033
 10
284.545063332
 20
17.313354633
 10
283.7568362639
 20
16.3531095919
 10
282.9283922119
 20
15.4643254101
 10
282.0682316686
 20
14.6561215215
 10
281.1851815177
 20
13.9367905636
 10
280.2883027964
 20
13.3137154718
 10
279.3867987466
 20
12.7932882615
 10
278.4899200253
 20
12.3808492232
 10
277.6068698743
 20
12.0806321785
 10
276.746709331
 20
11.8957158429
 10
275.918265279
 20
11.827998882
 10
275.1300382109
 20
11.8781763216
 10
274.3901166995
 20
12.0457319991
 10
273.7060931045
 20
12.3289476965
 10
273.0849868518
 20
12.7249174068
 10
272.5331706766
 20
13.2295769985
 10
272.0563074031
 20
13.8377483287
 10
271.6592906756
 20
14.5431909599
 10
271.3461935918
 20
15.3386660439
 10
271.1202291904
 20
16.2160108508
 10
270.9837162067
 20
17.1662223279
 10
270.9380560232
 20
18.1795507344
  0
LWPOLYLINE
  5
2F6
330
1F
100
AcDbEntity
  8
0
  6
Continuous
 62
     7
370
    18
100
AcDbPolyline
 90
        3
 70
   128
 43
0.0
 10
274.0039198583
 20
19.9494362533
 10
274.0499198507
 20
20.8202939828
 10
274.0906014377
 20
21.1564461325
  0
LWPOLYLINE
  5
2F7
330
1F
100
AcDbEntity
  8
0
  6
Continuous
 62
     7
370
    18
100
AcDbPolyline
 90
       41
 70
   128
 43
0.0
 10
278.8171200043
 20
29.3606382351
 10
279.4712540339
 20
29.828829861
 10
280.203847509
 20
30.2517470721
 10
280.9306641904
 20
30.5653011121
 10
281.6402419465
 20
30.7645472913
 10
282.3213900069
 20
30.8463424544
 10
282.9633665229
 20
30.809397294
 10
283.5560470312
 20
30.6542948945
 10
284.0900848096
 20
30.3834806408
 10
284.5570574031
 20
30.0012258928
 10
284.9496006378
 20
29.5135585802
 10
285.2615235367
 20
28.928169465
 10
285.487907431
 20
28.254291028
 10
285.6251816922
 20
27.502550408
 10
285.6711816846
 20
26.6848031393
 10
285.6251816922
 20
25.8139454098
 10
285.487907431
 20
24.9037113014
 10
285.2615235367
 20
23.9684555838
 10
284.9496006378
 20
23.0229279552
 10
284.5570574031
 20
22.0820398709
 10
284.0900848096
 20
21.1606300427
 10
283.5560470312
 20
20.2732288945
 10
282.9633665229
 20
19.4338321457
 10
282.3213900069
 20
18.6556766771
 10
281.6402419465
 20
17.9510350294
 10
280.9306641904
 20
17.3310201698
 10
280.203847509
 20
16.8054095316
 10
279.4712540339
 20
16.3824923205
 10
278.7444373525
 20
16.0689382805
 10
278.0348595964
 20
15.8696921013
 10
277.353711536
 20
15.7878969382
 10
276.71173502
 20
15.8248420986
 10
276.1190545117
 20
15.9799444981
 10
275.5850167333
 20
16.2507587518
 10
275.1180441398
 20
16.6330134998
 10
274.7255009051
 20
17.1206808124
 10
274.4135780062
 20
17.7060699276
 10
274.1871941119
 20
18.3799483646
 10
274.0499198507
 20
19.1316889846
 10
274.0039198583
 20
19.9494362533
 10
274.0039198583
 20
19.9494362533
  0
LWPOLYLINE
  5
2F8
330
1F
100
AcDbEntity
  8
0
  6
Continuous
 62
     7
370
    18
100
AcDbPolyline
 90
       21
 70
   128
 43
0.0
 10
284.9583727799
 20
28.7682239901
 10
285.029443891
 20
28.5768280132
 10
285.2133108348
 20
27.8732929465
 10
285.3060055841
 20
27.0966215016
 10
285.3060055841
 20
26.259566309
 10
285.2133108348
 20
25.3758717846
 10
285.029443891
 20
24.4600484633
 10
284.7574231917
 20
23.5271337403
 10
284.4017159733
 20
22.5924466262
 10
283.9681625379
 20
21.671334045
 10
283.4638817517
 20
20.7789209356
 10
282.8971541532
 20
19.9298606409
 10
282.2772854702
 20
19.1380948995
 10
281.6144535082
 20
18.4166240103
 10
280.9195421969
 20
17.777295059
 10
280.2039619722
 20
17.2306058303
 10
279.479462606
 20
16.785532118
 10
278.757940396
 20
16.449382577
 10
278.051242702
 20
16.2276771394
 10
277.3709733046
 20
16.1240555632
 10
277.0473938386
 20
16.1170575375
  0
ARC
  5
2F9
330
1F
100
AcDbEntity
  8
0
  6
Continuous
 62
     7
370
    18
100
AcDbCircle
 10
258.783504883
 20
34.5931209219
 30
0.0
 40
21.83218409402604
100
AcDbArc
 50
153.9504222923
 51
178.3510097523
  0
LWPOLYLINE
  5
2FA
330
1F
100
AcDbEntity
  8
0
  6
Continuous
 62
     7
370
    18
100
AcDbPolyline
 90
       15
 70
   128
 43
0.0
 10
243.7285100777
 20
50.951494484
 10
243.8884991854
 20
51.1208343675
 10
244.8429919489
 20
52.0635779138
 10
245.8243775298
 20
52.9199937559
 10
246.8245241383
 20
53.6829852089
 10
247.8351440534
 20
54.3462309781
 10
248.8478629557
 20
54.9042327876
 10
249.8542891153
 20
55.352369771
 10
250.8460831568
 20
55.6869273386
 10
251.8150263625
 20
55.9051320454
 10
252.7530904162
 20
56.0051774048
 10
253.6525015292
 20
55.986234291
 10
254.5058072827
 20
55.8484583477
 10
255.3059368843
 20
55.5929920732
 10
255.9565656873
 20
55.2749267346
  0
LWPOLYLINE
  5
2FB
330
1F
100
AcDbEntity
  8
0
  6
Continuous
 62
     7
370
    18
100
AcDbPolyline
 90
       10
 70
   128
 43
0.0
 10
240.2203443727
 20
28.0160383408
 10
239.7848534994
 20
28.2969474278
 10
239.1455733939
 20
28.8352900442
 10
238.5803966677
 20
29.4797817642
 10
238.0940062308
 20
30.2250821778
 10
237.6904336927
 20
31.0650159481
 10
237.3730218253
 20
31.9926222445
 10
237.1444015139
 20
33.0002152021
 10
237.0064680497
 20
34.0794463763
 10
236.9603620316
 20
35.2213711907
  0
LWPOLYLINE
  5
2FC
330
1F
100
AcDbEntity
  8
0
  6
Continuous
 62
     7
370
    18
100
AcDbPolyline
 90
       13
 70
   128
 43
0.0
 10
241.5844434701
 20
31.885734563
 10
241.452128049
 20
32.6779668952
 10
241.3692489055
 20
33.7310297956
 10
241.3793061973
 20
34.8418348582
 10
241.4822064108
 20
35.9998909835
 10
241.676976876
 20
37.1942591466
 10
241.9617782779
 20
38.4136582432
 10
242.3339204622
 20
39.6465705548
 10
242.7898881185
 20
40.8813503023
 10
243.3253743655
 20
42.1063339099
 10
243.9353215815
 20
43.3099521699
 10
244.6139681606
 20
44.4808344212
 10
245.3549044891
 20
45.6079229942
  0
LWPOLYLINE
  5
2FD
330
1F
100
AcDbEntity
  8
0
  6
Continuous
 62
     7
370
    18
100
AcDbPolyline
 90
       17
 70
   128
 43
0.0
 10
242.096239237
 20
28.955806862
 10
241.7396558251
 20
29.5006370773
 10
241.3437770625
 20
30.3027515456
 10
241.035048763
 20
31.1941648872
 10
240.8163000338
 20
32.1667085146
 10
240.6895354844
 20
33.2114716109
 10
240.6559161287
 20
34.318880576
 10
240.7157508241
 20
35.4787888809
 10
240.8684910031
 20
36.6805681816
 10
241.1127366001
 20
37.9132063699
 10
241.4462505392
 20
39.165409166
 10
241.865975857
 20
40.4257024221
 10
242.3680673121
 20
41.6825388701
 10
242.9479236539
 20
42.9244009707
 10
243.6002324039
 20
44.1399104163
 10
244.3190166122
 20
45.3179300282
 10
245.0976895166
 20
46.4476648932
  0
ARC
  5
2FE
330
1F
100
AcDbEntity
  8
0
  6
Continuous
 62
     7
370
    18
100
AcDbCircle
 10
258.1808181218
 20
38.6647927928
 30
0.0
 40
14.3534936083716
100
AcDbArc
 50
109.931969941
 51
139.4246766989
  0
LWPOLYLINE
  5
2FF
330
1F
100
AcDbEntity
  8
0
  6
Continuous
 62
     7
370
    18
100
AcDbPolyline
 90
       12
 70
   128
 43
0.0
 10
246.4418825782
 20
48.1198284104
 10
247.3542271761
 20
49.0905639879
 10
248.2995556342
 20
49.9761063755
 10
249.2689608088
 20
50.7681120397
 10
250.253309305
 20
51.4591190113
 10
251.2433269227
 20
52.042617505
 10
252.2296859553
 20
52.5131086808
 10
253.2030930226
 20
52.8661599122
 10
254.1543771926
 20
53.0984457712
 10
255.074575263
 20
53.2077767281
 10
255.9550179893
 20
53.1931238345
 10
256.0808460885
 20
53.1804814995
  0
LINE
  5
300
330
1F
100
AcDbEntity
  8
0
  6
Continuous
 62
     7
370
    18
100
AcDbLine
 10
232.4739978181
 20
45.5939787895
 30
0.0
 11
232.7801617453
 21
45.2232437336
 31
0.0
  0
LINE
  5
301
330
1F
100
AcDbEntity
  8
0
  6
Continuous
 62
     7
370
    18
100
AcDbLine
 10
232.4739978181
 20
37.8298686417
 30
0.0
 11
232.7801617453
 21
38.5174021103
 31
0.0
  0
LINE
  5
302
330
1F
100
AcDbEntity
  8
0
  6
Continuous
 62
     7
370
    18
100
AcDbLine
 10
233.5160720621
 20
38.9422340934
 30
0.0
 11
232.7801689893
 21
38.5174062922
 31
0.0
  0
LINE
  5
303
330
1F
100
AcDbEntity
  8
0
  6
Continuous
 62
     7
370
    18
100
AcDbLine
 10
233.449496505
 20
39.6854600611
 30
0.0
 11
232.1402250709
 21
38.9296337504
 31
0.0
  0
LINE
  5
304
330
1F
100
AcDbEntity
  8
0
  6
Continuous
 62
     7
370
    18
100
AcDbLine
 10
228.9631462393
 20
40.5040427101
 30
0.0
 11
228.6666589651
 21
40.0079810923
 31
0.0
  0
LINE
  5
305
330
1F
100
AcDbEntity
  8
0
  6
Continuous
 62
     7
370
    18
100
AcDbLine
 10
230.7949638502
 20
41.5615285076
 30
0.0
 11
228.9632068254
 21
40.5040776857
 31
0.0
  0
LINE
  5
306
330
1F
100
AcDbEntity
  8
0
  6
Continuous
 62
     7
370
    18
100
AcDbLine
 10
230.7949638502
 20
41.5615285076
 30
0.0
 11
230.9162740047
 21
41.4997779943
 31
0.0
  0
OLE2FRAME
  5
307
330
1F
100
AcDbEntity
  8
0
100
AcDbOle2Frame
 70
     2
  3
Paintbrush-Bild
 10
13.8511154363
 20
38.264191557
 30
0.0
 11
51.6290888628
 21
31.9806341108
 31
0.0
 71
     2
 72
     0
 73
     1
 90
    12928
310
80552BED0767C5B32B40DDAF6807D121434000000000000000006FFBDDFB85D0
310
4940DDAF6807D121434000000000000000006FFBDDFB85D04940416F4BD60AFB
310
3F4000000000000000002BED0767C5B32B40416F4BD60AFB3F40000000000000
310
0000000000000100000000010000010000000100000000000100000000320000
310
D0CF11E0A1B11AE1000000000000000000000000000000003E000300FEFF0900
310
0600000000000000000000000100000001000000000000000010000002000000
310
01000000FEFFFFFF0000000000000000FFFFFFFFFFFFFFFFFFFFFFFFFFFFFFFF
310
FFFFFFFFFFFFFFFFFFFFFFFFFFFFFFFFFFFFFFFFFFFFFFFFFFFFFFFFFFFFFFFF
310
FFFFFFFFFFFFFFFFFFFFFFFFFFFFFFFFFFFFFFFFFFFFFFFFFFFFFFFFFFFFFFFF
310
FFFFFFFFFFFFFFFFFFFFFFFFFFFFFFFFFFFFFFFFFFFFFFFFFFFFFFFFFFFFFFFF
310
FFFFFFFFFFFFFFFFFFFFFFFFFFFFFFFFFFFFFFFFFFFFFFFFFFFFFFFFFFFFFFFF
310
FFFFFFFFFFFFFFFFFFFFFFFFFFFFFFFFFFFFFFFFFFFFFFFFFFFFFFFFFFFFFFFF
310
FFFFFFFFFFFFFFFFFFFFFFFFFFFFFFFFFFFFFFFFFFFFFFFFFFFFFFFFFFFFFFFF
310
FFFFFFFFFFFFFFFFFFFFFFFFFFFFFFFFFFFFFFFFFFFFFFFFFFFFFFFFFFFFFFFF
310
FFFFFFFFFFFFFFFFFFFFFFFFFFFFFFFFFFFFFFFFFFFFFFFFFFFFFFFFFFFFFFFF
310
FFFFFFFFFFFFFFFFFFFFFFFFFFFFFFFFFFFFFFFFFFFFFFFFFFFFFFFFFFFFFFFF
310
FFFFFFFFFFFFFFFFFFFFFFFFFFFFFFFFFFFFFFFFFFFFFFFFFFFFFFFFFFFFFFFF
310
FFFFFFFFFFFFFFFFFFFFFFFFFFFFFFFFFFFFFFFFFFFFFFFFFFFFFFFFFFFFFFFF
310
FFFFFFFFFFFFFFFFFFFFFFFFFFFFFFFFFFFFFFFFFFFFFFFFFFFFFFFFFFFFFFFF
310
FFFFFFFFFFFFFFFFFFFFFFFFFFFFFFFFFFFFFFFFFFFFFFFFFFFFFFFFFFFFFFFF
310
FDFFFFFFFEFFFFFFFEFFFFFFFEFFFFFF05000000060000000700000008000000
310
090000000A0000000B0000000C0000000D0000000E0000000F00000010000000
310
11000000120000001300000014000000150000001600000017000000FEFFFFFF
310
FFFFFFFFFFFFFFFFFFFFFFFFFFFFFFFFFFFFFFFFFFFFFFFFFFFFFFFFFFFFFFFF
310
FFFFFFFFFFFFFFFFFFFFFFFFFFFFFFFFFFFFFFFFFFFFFFFFFFFFFFFFFFFFFFFF
310
FFFFFFFFFFFFFFFFFFFFFFFFFFFFFFFFFFFFFFFFFFFFFFFFFFFFFFFFFFFFFFFF
310
FFFFFFFFFFFFFFFFFFFFFFFFFFFFFFFFFFFFFFFFFFFFFFFFFFFFFFFFFFFFFFFF
310
FFFFFFFFFFFFFFFFFFFFFFFFFFFFFFFFFFFFFFFFFFFFFFFFFFFFFFFFFFFFFFFF
310
FFFFFFFFFFFFFFFFFFFFFFFFFFFFFFFFFFFFFFFFFFFFFFFFFFFFFFFFFFFFFFFF
310
FFFFFFFFFFFFFFFFFFFFFFFFFFFFFFFFFFFFFFFFFFFFFFFFFFFFFFFFFFFFFFFF
310
FFFFFFFFFFFFFFFFFFFFFFFFFFFFFFFFFFFFFFFFFFFFFFFFFFFFFFFFFFFFFFFF
310
FFFFFFFFFFFFFFFFFFFFFFFFFFFFFFFFFFFFFFFFFFFFFFFFFFFFFFFFFFFFFFFF
310
FFFFFFFFFFFFFFFFFFFFFFFFFFFFFFFFFFFFFFFFFFFFFFFFFFFFFFFFFFFFFFFF
310
FFFFFFFFFFFFFFFFFFFFFFFFFFFFFFFFFFFFFFFFFFFFFFFFFFFFFFFFFFFFFFFF
310
FFFFFFFFFFFFFFFFFFFFFFFFFFFFFFFFFFFFFFFFFFFFFFFFFFFFFFFFFFFFFFFF
310
FFFFFFFFFFFFFFFFFFFFFFFFFFFFFFFFFFFFFFFFFFFFFFFFFFFFFFFFFFFFFFFF
310
52006F006F007400200045006E00740072007900000000000000000000000000
310
0000000000000000000000000000000000000000000000000000000000000000
310
16000500FFFFFFFFFFFFFFFF020000000A00030000000000C000000000000046
310
00000000000000000000000050FC33560CA7D30103000000C000000000000000
310
01004F006C006500000000000000000000000000000000000000000000000000
310
0000000000000000000000000000000000000000000000000000000000000000
310
0A000200FFFFFFFFFFFFFFFFFFFFFFFF00000000000000000000000000000000
310
0000000000000000000000000000000000000000000000001400000000000000
310
010043006F006D0070004F0062006A0000000000000000000000000000000000
310
0000000000000000000000000000000000000000000000000000000000000000
310
120002010100000003000000FFFFFFFF00000000000000000000000000000000
310
0000000000000000000000000000000000000000010000004D00000000000000
310
01004F006C006500310030004E00610074006900760065000000000000000000
310
0000000000000000000000000000000000000000000000000000000000000000
310
1A000200FFFFFFFFFFFFFFFFFFFFFFFF00000000000000000000000000000000
310
0000000000000000000000000000000000000000040000002426000000000000
310
FEFFFFFF02000000FEFFFFFFFFFFFFFFFFFFFFFFFFFFFFFFFFFFFFFFFFFFFFFF
310
FFFFFFFFFFFFFFFFFFFFFFFFFFFFFFFFFFFFFFFFFFFFFFFFFFFFFFFFFFFFFFFF
310
FFFFFFFFFFFFFFFFFFFFFFFFFFFFFFFFFFFFFFFFFFFFFFFFFFFFFFFFFFFFFFFF
310
FFFFFFFFFFFFFFFFFFFFFFFFFFFFFFFFFFFFFFFFFFFFFFFFFFFFFFFFFFFFFFFF
310
FFFFFFFFFFFFFFFFFFFFFFFFFFFFFFFFFFFFFFFFFFFFFFFFFFFFFFFFFFFFFFFF
310
FFFFFFFFFFFFFFFFFFFFFFFFFFFFFFFFFFFFFFFFFFFFFFFFFFFFFFFFFFFFFFFF
310
FFFFFFFFFFFFFFFFFFFFFFFFFFFFFFFFFFFFFFFFFFFFFFFFFFFFFFFFFFFFFFFF
310
FFFFFFFFFFFFFFFFFFFFFFFFFFFFFFFFFFFFFFFFFFFFFFFFFFFFFFFFFFFFFFFF
310
FFFFFFFFFFFFFFFFFFFFFFFFFFFFFFFFFFFFFFFFFFFFFFFFFFFFFFFFFFFFFFFF
310
FFFFFFFFFFFFFFFFFFFFFFFFFFFFFFFFFFFFFFFFFFFFFFFFFFFFFFFFFFFFFFFF
310
FFFFFFFFFFFFFFFFFFFFFFFFFFFFFFFFFFFFFFFFFFFFFFFFFFFFFFFFFFFFFFFF
310
FFFFFFFFFFFFFFFFFFFFFFFFFFFFFFFFFFFFFFFFFFFFFFFFFFFFFFFFFFFFFFFF
310
FFFFFFFFFFFFFFFFFFFFFFFFFFFFFFFFFFFFFFFFFFFFFFFFFFFFFFFFFFFFFFFF
310
FFFFFFFFFFFFFFFFFFFFFFFFFFFFFFFFFFFFFFFFFFFFFFFFFFFFFFFFFFFFFFFF
310
FFFFFFFFFFFFFFFFFFFFFFFFFFFFFFFFFFFFFFFFFFFFFFFFFFFFFFFFFFFFFFFF
310
FFFFFFFFFFFFFFFFFFFFFFFFFFFFFFFFFFFFFFFFFFFFFFFFFFFFFFFFFFFFFFFF
310
0100000200000000000000000000000000000000000000000000000000000000
310
0000000000000000000000000000000000000000000000000000000000000000
310
0100FEFF030A0000FFFFFFFF0A00030000000000C00000000000004607000000
310
5042727573680007000000504272757368000700000050427275736800F439B2
310
7100000000000000000000000000000000000000000000000000000000000000
310
0000000000000000000000000000000000000000000000000000000000000000
310
0000000000000000000000000000000000000000000000000000000000000000
310
0000000000000000000000000000000000000000000000000000000000000000
310
0000000000000000000000000000000000000000000000000000000000000000
310
0000000000000000000000000000000000000000000000000000000000000000
310
0000000000000000000000000000000000000000000000000000000000000000
310
0000000000000000000000000000000000000000000000000000000000000000
310
0000000000000000000000000000000000000000000000000000000000000000
310
0000000000000000000000000000000000000000000000000000000000000000
310
0000000000000000000000000000000000000000000000000000000000000000
310
0000000000000000000000000000000000000000000000000000000000000000
310
20260000424D0E260000000000003E00000028000000B40200006E0000000100
310
01000000000000000000130B0000130B00000200000002000000000000FFFFFF
310
FFFFFFFFFFFFFFFFFFFFFFFFFFFFFFFFFFFFFFFFFFFFFFFFFFFFFFFFFFFFFFFF
310
FFFFFFFFFFFFFFFFFFFFFFFFFFFFFFFFFFFFFFFFFFFFFFFFFFFFFFFFFFFFFFFF
310
FFFFFFFFFFFFFFFFFFFFFFFFFFFFFFFFFFFFFFFFFFFFFFFFF000FFFFFFFFFFFF
310
FFFFFFFFFFFFFFFFFFFFFFFFFFFFFFFFFFFFFFFFFFFFFFFFFFFFFFFFFFFFFFFF
310
FFFFFFFFFFFFFFFFFFFFFFFFFFFFFFFFFFFFFFFFFFFFFFFFFFFFFFFFFFFFFFFF
310
FFFFFFFFFFFFFFFFFFFFFFFFFFFFFFFFF000FFFFFFFFFFFFFFFFFFFFFFFFFFFF
310
FFFFFFFFFFFFFFFFFFFFFFFFFFFFFFFFFFFFFFFFFFFFFFFFFFFFFFFFFFFFFFFF
310
FFFFFFFFFFFFFFFFFFFFFFFFFFFFFFFFFFFFFFFFFFFFFFFFFFFFFFFFFFFFFFFF
310
FFFFFFFFFFFFFFFFF000FFFFFFFFFFFFFFFFFFFFFFFFFFFFFFFFFFFFFFFFFFFF
310
FFFFFFFFFFFFFFFFFFFFFFFFFFFFFFFFFFFFFFFFFFFFFFFFFFFFFFFFFFFFFFFF
310
FFFFFFFFFFFFFFFFFFFFFFFFFFFFFFFFFFFFFFFFFFFFFFFFFFFFFFFFFFFFFFFF
310
F000FFFFFFFFFFFFFFFFFFFFFFFFFFFFFFFFFFFFFFFFFFFFFFFFFFFFFFFFFFFF
310
FFFFFFFFFFFFFFFFFFFFFFFFFFFFFFFFFFFFFFFFFFFFFFFFFFFFFFFFFFFFFFFF
310
FFFFFFFFFFFFFFFFFFFFFFFFFFFFFFFFFFFFFFFFFFFFFFFFF000FFFFFFFFFFFF
310
FFFFFFFFFFFFFFFFFFFFFFFFFFFFFFFFFFFFFFFFFFFFFFFFFFFFFFFFFFFFFFFF
310
FFFFFFFFFFFFFFFFFFFFFFFFFFFFFFFFFFFFFFFFFFFFFFFFFFFFFFFFFFFFFFFF
310
FFFFFFFFFFFFFFFFFFFFFFFFFFFFFFFFF000FFFFFFFFFFFFFFFFFFFFFFFFFFFF
310
FFFFFFFFFFFFFFFFFFFFFFFFFFFFFFFFFFFFFFFFFFFFFFFFFFFFFFFFFFFFFFFF
310
FFFFFFFFFFFFFFFFFFFFFFFFFFFFFFFFFFFFFFFFFFFFFFFFFFFFFFFFFFFFFFFF
310
FFFFFFFFFFFFFFFFF000FFFFFFFFFFFFFFFFFFFFFFFFFFFFFFFFFFFFFFFFFFFF
310
FFFFFFFFFFFFFFFFFFFFFFFFFFFFFFFFFFFFFFFFFFFFFFFFFFFFFFFFFFFFFFFF
310
FFFFFFFFFFFFFFFFFFFFFFFFFFFFFFFFFFFFFFFFFFFFFFFFFFFFFFFFFFFFFFFF
310
F000FFFFFFFFFFFFFFFFFFFFFFFFFFFFFFFFFFFFFFFFFFFFFFFFFFFFFFFFFFFF
310
FFFFFFFFFFFFFFFFFFFFFFFFFFFFFFFFFFFFFFFFFFFFFFFFFFFFFFFFFFFFFFFF
310
FFFFFFFFFFFFFFFFFFFFFFFFFFFFFFFFFFFFFFFFFFFFFFFFF000FFFFFFFFFFFF
310
FFFFFFFFFFFFFFFFFFFFFFFFFFFFFFFFFFFFFFFFFFFFFFFFFFFFFFFFFFFFFFFF
310
FFFFFFFFFFFFFFFFFFFFFFFFFFFFFFFFFFFFFFFFFFFFFFFFFFFFFFFFFFFFFFFF
310
FFFFFFFFFFFFFFFFFFFFFFFFFFFFFFFFF000FFFFFFFFFFFFFFFFFFFFFFFFFFFF
310
FFFFFFFFFFFFFFFFFFFFFFFFFFFFFFFFFFFFFFFFFFFFFFFFFFFFFFFFFFFFFFFF
310
FFFFFFFFFFFFFFFFFFFFFFFFFFFFFFFFFFFFFFFFFFFFFFFFFFFFFFFFFFFFFFFF
310
FFFFFFFFFFFFFFFFF000FFFFFFFFFFFFFFFFFFFFFFFFFFFFFFFFFFFFFFFFFFFF
310
FFFFFFFFFFFFFFFFFFFFFFFFFFFFFFFFFFFFFFFFFFFFFFFFFFFFFFFFFFFFFFFF
310
FFFFFFFFFFFFFFFFFFFFFFFFFFFFFFFFFFFFFFFFFFFFFFFFFFFFFFFFFFFFFFFF
310
F000FFFFFFFFFFFFFFFFFFFFFFFFFFFFFFFFFFFFFFFFFFFFFFFFFFFFFFFFFFFF
310
FFFFFFFFFFFFFFFFFFFFFFFFFFFFFFFFFFFFFFFFFFFFFFFFFFFFFFFFFFFFFFFF
310
FFFFFFFFFFFFFFFFFFFFFFFFFFFFFFFFFFFFFFFFFFFFFFFFF000FFFFFFFFFFFF
310
FFFFFFFFFFFFFFFFFFFFFFFFFFFFFFFFFFFFFFFFFFFFFFFFFFFFFFFFFFFFFFFF
310
FFFFFFFFFFFFFFFFFFFFFFFFFFFFFFFFFFFFFFFFFFFFFFFFFFFFFFFFFFFFFFFF
310
FFFFFFFFFFFFFFFFFFFFFFFFFFFFFFFFF000FFFFFFFFFFFFFFFFFFFFFFFFFFFF
310
FFFFFFFFFFFFFFFFFFFFFFFFFFFFFFFFFFFFFFFFFFFFFFFFFFFFFFFFFFFFFFFF
310
FFFFFFFFFFFFFFFFFFFFFFFFFFFFFFFFFFFFFFFFFFFFFFFFFFFFFFFFFFFFFFFF
310
FFFFFFFFFFFFFFFFF000FFFFFFFFFFFFFFFFFFFFFFFFFFFFFFFFFFFFFFFFFFFF
310
FFFFFFFFFFFFFFFFFFFFFFFFFFFFFFFFFFFFFFFFFFFFFFFFFFFFFFFFFFFFFFFF
310
FFFFFFFFFFFFFFFFFFFFFFFFFFFFFFFFFFFFFFFFFFFFFFFFFFFFFFFFFFFFFFFF
310
F000FFFFFFFFFFFFFFFFFFFFFFFFFFFFFFFFFFFFFFFFFFFFFFFFFFFFFFFFFFFF
310
FFFFFFFFFFFFFFFFFFFFFFFFFFFFFFFFFFFFFFFFFFFFFFFFFFFFFFFFFFFFFFFF
310
FFFFFFFFFFFFFFFFFFFFFFFFFFFFFFFFFFFFFFFFFFFFFFFFF000FFFFFFFFFFFF
310
FFFFFFFFFFFFFFFFFFFFFFFFFFFFFFFFFFFFFFFFFFFFFFFFFFFFFFFFFFFFFFFF
310
FFFFFFFFFFFFFFFFFFFFFFFFFFFFFFFFFFFFFFFFFFFFFFFFFFFFFFFFFFFFFFFF
310
FFFFFFFFFFFFFFFFFFFFFFFFFFFFFFFFF000FFFFFFFFFFFFFFFFFFFFFFFFFFFF
310
FFFFFFFFFFFFFFFFFFFFFFFFFFFFFFFFFFFFFFFFFFFFFFFFFFFFFFFFFFFFFFFF
310
FFFFFFFFFFFFFFFFFFFFFFFFFFFFFFFFFFFFFFFFFFFFFFFFFFFFFFFFFFFFFFFF
310
FFFFFFFFFFFFFFFFF000FFFFF80003FFFFFFFFFFFFFFFFFFFFFFFFFFFFFFFFFF
310
FFFFF00007FFFFFFFFFF00007FFFFFF800000000000000007FFFFFFFFFFFFFFF
310
FFFFFFFC001FFFFFFFFFFFFFFC001FFFFFFFFFFFFFFFFFFFFFFFFFFE0007FFFF
310
F000FFFF8000007FFFFFFFF8000FFFFFC0007FFFFF80007FFFFF0000007FFFFF
310
FFF8000007FFFFF800000000000000007FFFFFF0001FFFFFFFFFFFC00001FFFF
310
FFFFFFFFC00001FFFFFFFF000000000003FFFFE000007FFFF000FFFE0000000F
310
FFFFFFF0000FFFFF80007FFFFF80007FFFFC0000001FFFFFFFC0000001FFFFF8
310
00000000000000007FFFFFF0001FFFFFFFFFFE0000003FFFFFFFFFFE0000003F
310
FFFFFF000000000003FFFF0000000FFFF000FFF800000003FFFFFFF00007FFFF
310
80007FFFFF80007FFFF000000007FFFFFF000000003FFFF80000000000000000
310
7FFFFFF0001FFFFFFFFFF80000000FFFFFFFFFF80000000FFFFFFF0000000000
310
03FFFC00000003FFF000FFE000000000FFFFFFF00007FFFF80003FFFFF80007F
310
FFC000000001FFFFFC000000001FFFF800000000000000007FFFFFF0001FFFFF
310
FFFFE000000003FFFFFFFFE000000003FFFFFF000000000003FFF000000000FF
310
F000FF80000000007FFFFFF00007FFFF80003FFFFF80007FFF8000000000FFFF
310
F80000000007FFF800000000000000007FFFFFF0001FFFFFFFFFC000000001FF
310
FFFFFFC000000001FFFFFF000000000003FFC0000000007FF000FF0000000000
310
3FFFFFE00007FFFF00003FFFFF80007FFE00000000003FFFF00000000003FFF8
310
00000000000000007FFFFFF0001FFFFFFFFF8000000000FFFFFFFF8000000000
310
FFFFFF000000000003FF80000000003FF000FE00000000001FFFFFE00003FFFF
310
00003FFFFF80007FFC00000000001FFFE00000000001FFF8000001FFFE000000
310
7FFFFFF0001FFFFFFFFE00000000003FFFFFFE00000000003FFFFF0000000000
310
03FF00000000001FF000FC00000000000FFFFFE00003FFFF00001FFFFF80007F
310
F800000000001FFFC00000000000FFF8000001FFFE0000007FFFFFF0001FFFFF
310
FFFC00000000001FFFFFFC00000000001FFFFF000000000003FE00000000000F
310
F000F8000000000007FFFFE00003FFFF00001FFFFF80007FF800000000000FFF
310
800000000000FFF8000001FFFE0000007FFFFFF0001FFFFFFFF800000000000F
310
FFFFF800000000000FFFFF000000000003FC000000000007F000F80000000000
310
03FFFFC00003FFFE00001FFFFF80007FF0000000000007FF0000000000007FF8
310
000001FFFE0000007FFFFFF0001FFFFFFFF0000000000007FFFFF00000000000
310
07FFFF000000000003F8000000000003F000F0000000000003FFFFC00001FFFE
310
00001FFFFF80007FE0000000000007FE0000000000003FF8000001FFFE000000
310
7FFFFFF0001FFFFFFFF0000000000007FFFFF0000000000007FFFF0000000000
310
03F800001F800003F000E00001FFF00001FFFFC00001FFFE00000FFFFF80007F
310
E00001FFE00003FE00001FFF00003FF8000001FFFE0000007FFFFFF0001FFFFF
310
FFE000003E000003FFFFE000003E000003FFFF000000000003F00001FFF80001
310
F000E00007FFFC0001FFFFC00001FFFE00000FFFFF80007FC0000FFFFC0003FC
310
0000FFFFC0001FF8000001FFFE0000007FFFFFF0001FFFFFFFC00003FFE00001
310
FFFFC00003FFE00001FFFF0001FFFFFFFFF00007FFFE0001F000E0000FFFFF00
310
00FFFF800001FFFC00000FFFFF80007FC0001FFFFE0001FC0001FFFFE0001FF8
310
000001FFFE0000007FFFFFF0001FFFFFFF80000FFFF80000FFFF80000FFFF800
310
00FFFF0003FFFFFFFFE0000FFFFF8000F000C0003FFFFF8000FFFF800000FFFC
310
000007FFFF80007F80003FFFFF0001FC0003FFFFF0001FF8000001FFFE000000
310
7FFFFFF0001FFFFFFF80003FFFFE0000FFFF80003FFFFE0000FFFF0003FFFFFF
310
FFE0003FFFFF8000F000C0003FFFFF8000FFFF800000FFFC000007FFFF80007F
310
80007FFFFF8001F80007FFFFF8000FF8000001FFFE0000007FFFFFF0001FFFFF
310
FF00007FFFFF00007FFF00007FFFFF00007FFF0003FFFFFFFFE0003FFFFFC000
310
F000C0007FFFFFC000FFFF000000FFFC000007FFFF80007F8000FFFFFF8000F8
310
000FFFFFF8000FF8000001FFFE0000007FFFFFF0001FFFFFFF0000FFFFFF8000
310
7FFF0000FFFFFF80007FFF0003FFFFFFFFC0007FFFFFC00070008000FFFFFFC0
310
00FFFF000000FFF8000007FFFF80007F8000FFFFFF8000F8000FFFFFF8000FF8
310
000001FFFE0000007FFFFFF0001FFFFFFE0001FFFFFFC0003FFE0001FFFFFFC0
310
003FFF0003FFFFFFFFC0007FFFFFE00070008000FFFFFFC0007FFF0000007FF8
310
000003FFFF80007F0001FFFFFF8000F8000FFFFFF8000FF8000001FFFE000000
310
7FFFFFF0001FFFFFFE0001FFFFFFC0003FFE0001FFFFFFC0003FFF0003FFFFFF
310
FFC000FFFFFFE00070008000FFFFFFC0007FFF0000007FF8000003FFFF80007F
310
0001FFFFFF8000F8001FFFFFF8000FF8000001FFFE0000007FFFFFF0001FFFFF
310
FE0003FFFFFFE0003FFE0003FFFFFFE0003FFF0003FFFFFFFFC000FFFFFFE000
310
70008000FFFFFFC0007FFE0000007FF8000003FFFF80007F0001FFFFFF8000F0
310
001FFFFFF8000FF8000001FFFE0000007FFFFFF0001FFFFFFC0003FFFFFFE000
310
1FFC0003FFFFFFE0001FFF0003FFFFFFFFC000FFFFFFC00070008000FFFFFF80
310
007FFE0000007FF0000003FFFF80007F0001FFFFFF0000F0001FFFFFF8000FF8
310
000001FFFE0000007FFFFFF0001FFFFFFC0007FFFFFFF0001FFC0007FFFFFFF0
310
001FFF0003FFFFFFFFC000FFFFFFC00070008001FFFFFF0000FFFE0000003FF0
310
000001FFFF80007F0001FFFFFF0000F8001FFFFFF0000FF8000001FFFE000000
310
7FFFFFF0001FFFFFFC0007FFFFFFF0001FFC0007FFFFFFF0001FFF0003FFFFFF
310
FFC001FFFFFF80007000FFFFFFFFFE0000FFFE0008003FF0008001FFFF80007F
310
FFFFFFFFFC0000FFFFFFFFFFE0000FF8000001FFFE0000007FFFFFF0001FFFFF
310
F8000FFFFFFFF8000FF8000FFFFFFFF8000FFF0003FFFFFFFFFFFFFFFFFF0000
310
7000FFFFFFFFFC0000FFFC0008003FF0008001FFFF80007FFFFFFFFFF80001FF
310
FFFFFFFF80000FF8000001FFFE0000007FFFFFF0001FFFFFF8000FFFFFFFF800
310
0FF8000FFFFFFFF8000FFF0003FFFFFFFFFFFFFFFFFE0000F000FFFFFFFFE000
310
00FFFC000C003FE000C001FFFF80007FFFFFFFFFC00001FFFFFFFFFE00001FF8
310
000001FFFE0000007FFFFFF0001FFFFFF8000FFFFFFFF8000FF8000FFFFFFFF8
310
000FFF0003FFFFFFFFFFFFFFFFF00000F000FFFFFFFE000001FFFC000C001FE0
310
00C000FFFF80007FFFFFFFFE000001FFFFFFFFE000001FF80FFFFFFFFFFFFFC0
310
7FFFFFF0001FFFFFF8000FFFFFFFF8000FF8000FFFFFFFF8000FFF0003FFFFFF
310
FFFFFFFFFF800000F000FFFFFFC0000001FFFC001C001FE001C000FFFF80007F
310
FFFFFF80000003FFFFFFF80000001FF80FFFFFFFFFFFFFC07FFFFFF0001FFFFF
310
F8001FFFFFFFFC000FF8001FFFFFFFFC000FFF0003FFFFFFFFFFFFFFF0000001
310
F000FFFFF800000001FFF8001C001FE001C000FFFF80007FFFFFF800000003FF
310
FFFF800000003FF80FFFFFFFFFFFFFC07FFFFFF0001FFFFFF8001FFFFFFFFC00
310
0FF8001FFFFFFFFC000FFF0003FFFFFFFFFFFFFE00000001F000FFFFC0000000
310
03FFF8001E001FC001E000FFFF80007FFFFF8000000007FFFFFC000000003FF8
310
0FFFFFFFFFFFFFC07FFFFFF0001FFFFFF8001FFFFFFFFC000FF8001FFFFFFFFC
310
000FFF0003FFFFFFFFFFFFE000000003F000FFFE0000000007FFF8001E000FC0
310
01E0007FFF80007FFFFE0000000007FFFFE0000000007FF80FFFFFFFFFFFFFC0
310
7FFFFFF0001FFFFFF0001FFFFFFFFC0007F0001FFFFFFFFC0007FF0003FFFFFF
310
FFFFFF0000000003F000FFF80000000007FFF8001E000FC003E0007FFF80007F
310
FFF0000000000FFFFF8000000000FFF80FFFFFFFFFFFFFC07FFFFFF0001FFFFF
310
F0001FFFFFFFFC0007F0001FFFFFFFFC0007FF0003FFFFFFFFFFFC0000000007
310
F000FFE0000000000FFFF0003E000FC003E0007FFF80007FFFC0000000001FFF
310
FE0000000001FFF80FFFFFFFFFFFFFC07FFFFFF0001FFFFFF0001FFFFFFFFC00
310
07F0001FFFFFFFFC0007FF0003FFFFFFFFFFF0000000000FF000FFC000000000
310
1FFFF0003F000F8003F0003FFF80007FFF80000000003FFFF80000000003FFF8
310
0FFFFFFFFFFFFFC07FFFFFF0001FFFFFF0001FFFFFFFFC0007F0001FFFFFFFFC
310
0007FF0003FFFFFFFFFFE0000000001FF000FF00000000007FFFF0003F000780
310
03F0003FFF80007FFF00000000007FFFF00000000007FFF80FFFFFFFFFFFFFC0
310
7FFFFFF0001FFFFFF0001FFFFFFFFC0007F0001FFFFFFFFC0007FF0003FFFFFF
310
FFFF80000000007FF000FE0000000000FFFFE0003F00078007F0003FFF80007F
310
FE0000000001FFFFE0000000001FFFF80FFFFFFFFFFFFFC07FFFFFF0001FFFFF
310
F0001FFFFFFFFC0007F0001FFFFFFFFC0007FF0003FFFFFFFFFF0000000000FF
310
F000FC0000000003FFFFE0007F00078007F0003FFF80007FFC0000000007FFFF
310
C0000000007FFFF80FFFFFFFFFFFFFC07FFFFFF0001FFFFFF8001FFFFFFFFC00
310
0FF8001FFFFFFFFC000FFF0003FFFFFFFFFE0000000003FFF000FC000000000F
310
FFFFE0007F80070007F8001FFF80007FF8000000001FFFFF8000000001FFFFF8
310
0FFFFFFFFFFFFFC07FFFFFF0001FFFFFF8001FFFFFFFFC000FF8001FFFFFFFFC
310
000FFF0003FFFFFFFFFC000000000FFFF000F8000000007FFFFFE0007F800700
310
07F8001FFF80007FF000000000FFFFFF800000000FFFFFF80FFFFFFFFFFFFFC0
310
7FFFFFF0001FFFFFF8000FFFFFFFF8000FF8000FFFFFFFF8000FFF0003FFFFFF
310
FFFC000000007FFFF000F800000007FFFFFFC0007F8003000FF8001FFF80007F
310
F000000007FFFFFF000000007FFFFFF80FFFFFFFFFFFFFC07FFFFFF0001FFFFF
310
F8000FFFFFFFF8000FF8000FFFFFFFF8000FFF0003FFFFFFFFF80000000FFFFF
310
F000F0000000FFFFFFFFC000FF8003000FF8001FFF80007FE0000000FFFFFFFF
310
0000000FFFFFFFF8000001FFFE0000007FFFFFF0001FFFFFF8000FFFFFFFF800
310
0FF8000FFFFFFFF8000FFF0003FFFFFFFFF8000000FFFFFFF000F000000FFFFF
310
FFFFC000FFC002000FF8000FFF80007FE000001FFFFFFFFE000001FFFFFFFFF8
310
000001FFFE0000007FFFFFF0001FFFFFF8000FFFFFFFF8000FF8000FFFFFFFF8
310
000FFF0003FFFFFFFFF000001FFFFFFFF000E00000FFFFFFFFFFC000FFC00200
310
0FFC000FFF80007FE00001FFFFFFFFFE00001FFFFFFFFFF8000001FFFE000000
310
7FFFFFF0001FFFFFFC000FFFFFFFF8001FFC000FFFFFFFF8001FFF0003FFFFFF
310
FFF00001FFFFFFFFF000E00007FFFFFFFFFF8000FFC000001FFC000FFF80007F
310
C0000FFFFFFFFFFE0000FFFFFFFFFFF8000001FFFE0000007FFFFFF0001FFFFF
310
FC0007FFFFFFF0001FFC0007FFFFFFF0001FFF0003FFFFFFFFF00007FFFFFFFF
310
F000E0001FFFFFFFFFFF8000FFC000001FFC000FFF80007FC0003FFFFFFFFFFE
310
0001FFFFFFFFFFF8000001FFFE0000007FFFFFF0001FFFFFFC0007FFFFFFF000
310
1FFC0007FFFFFFF0001FFF0003FFFFFFFFF0001FFFFFFFFFF000E0003FFFFF00
310
03FF8001FFE000001FFC0007FF80007FC0007FFFFF0007FC0003FFFFF0003FF8
310
000001FFFE0000007FFFFFF0001FFFFFFC0003FFFFFFE0001FFC0003FFFFFFE0
310
001FFF0003FFFFFFFFF0003FFFFFFFFFF000E0003FFFFF0001FF8001FFE00000
310
1FFE0007FF80007FC0007FFFFE0003FC0007FFFFE0003FF8000001FFFE000000
310
7FFFFFF0001FFFFFFE0003FFFFFFE0003FFE0003FFFFFFE0003FFF0003FFFFFF
310
FFF0003FFFFF8001F000E0003FFFFF0001FF0001FFE000001FFE0007FF80007F
310
C0007FFFFE0003FC0007FFFFE0003FF8000001FFFE0000007FFFFFF0001FFFFF
310
FE0001FFFFFFC0003FFE0001FFFFFFC0003FFF0003FFFFFFFFF0003FFFFF0001
310
F000E0003FFFFF0003FF0001FFE000003FFE0007FF80007FC0007FFFFE0003FC
310
0007FFFFE0003FF8000001FFFE0000007FFFFFF0001FFFFFFF0001FFFFFFC000
310
7FFF0001FFFFFFC0007FFF0003FFFFFFFFF0003FFFFF0001F000E0003FFFFE00
310
03FF0003FFF000003FFE0003FF80007FC0007FFFFC0003FE0007FFFFE0003FF8
310
000001FFFE0000007FFFFFF0001FFFFFFF0000FFFFFF80007FFF0000FFFFFF80
310
007FFF0003FFFFFFFFF0003FFFFF0001F000E0003FFFFE0003FF0003FFF00000
310
3FFF0003FF80007FC0007FFFFC0007FE0007FFFFC0003FF8000001FFFE000000
310
7FFFFFF0001FFFFFFF80007FFFFF0000FFFF80007FFFFF0000FFFF0003FFFFFF
310
FFF0003FFFFF0003F000E0003FFFFC0003FE0003FFF000003FFF0003FF80007F
310
E0003FFFF80007FE0003FFFFC0007FF8000001FFFE0000007FFFFFF0001FFFFF
310
FF80003FFFFE0000FFFF80003FFFFE0000FFFF0003FFFFFFFFF0001FFFFE0003
310
F000F0001FFFF80003FE0003FFF000007FFF0001FF80007FE0003FFFF00007FE
310
0001FFFF80007FF8000001FFFE0000007FFFFFF0001FFFFFFFC0000FFFF80001
310
FFFFC0000FFFF80001FFFF0003FFFFFFFFF0001FFFFC0003F000F0000FFFF000
310
07FE0007FFF800007FFF0001FF80007FE0001FFFE00007FF0000FFFE00007FF8
310
000001FFFE0000007FFFFFF0001FFFFFFFC00003FFE00001FFFFC00003FFE000
310
01FFFF0003FFFFFFFFF8000FFFF80003F000F00003FFC00007FC0007FFF80000
310
7FFF8001FF80007FF00007FF80000FFF00007FF80000FFF8000001FFFE000000
310
7F80000000000001FFE000003E000003FFFFE000003E000003FFFF0003FFFFFF
310
FFF80003FFE00007F000F800000000000FFC0007FFF800007FFF8001FF80007F
310
F000000000000FFF000000000000FFF8000001FFFE0000007F80000000000001
310
FFF0000000000007FFFFF0000000000007FFFF0003FFFFFFFFFC00007E000007
310
F000F800000000000FFC0007FFF80000FFFF8000FF80007FF800000000001FFF
310
800000000001FFF8000001FFFE0000007F80000000000001FFF800000000000F
310
FFFFF800000000000FFFFF0003FFFFFFFFFC00000000000FF000FC0000000000
310
1FFC0007FFFC0000FFFF8000FF80007FF800000000003FFFC00000000001FFF8
310
000001FFFE0000007F80000000000001FFF800000000000FFFFFF80000000000
310
0FFFFF0003FFFFFFFFFE00000000001FF000FE00000000003FF8000FFFFC0000
310
FFFF8000FF80007FFC00000000003FFFC00000000003FFF8000001FFFE000000
310
7F80000000000001FFFC00000000001FFFFFFC00000000001FFFFF0003FFFFFF
310
FFFF00000000001FF000FF00000000003FF8000FFFFC0000FFFFC000FF80007F
310
FE00000000007FFFE00000000007FFF8000001FFFE0000007F80000000000001
310
FFFE00000000003FFFFFFE00000000003FFFFF0003FFFFFFFFFF80000000003F
310
F000FF80000000007FF8000FFFFC0001FFFFC0007F80007FFF0000000000FFFF
310
F0000000000FFFF800000000000000007F80000000000001FFFF8000000000FF
310
FFFFFF8000000000FFFFFF0003FFFFFFFFFFC0000000007FF000FFC000000000
310
FFF8000FFFFE0001FFFFC0007F80007FFF8000000001FFFFF8000000001FFFF8
310
00000000000000007F80000000000001FFFFC000000001FFFFFFFFC000000001
310
FFFFFF0003FFFFFFFFFFE000000000FFF000FFE000000003FFF0001FFFFE0001
310
FFFFC0007F80007FFFC000000007FFFFFE000000003FFFF80000000000000000
310
7F80000000000001FFFFE000000003FFFFFFFFE000000003FFFFFF0003FFFFFF
310
FFFFF000000003FFF000FFF80000000FFFF0001FFFFE0001FFFFE0007F80007F
310
FFF00000000FFFFFFF00000000FFFFF800000000000000007F80000000000001
310
FFFFF80000000FFFFFFFFFF80000000FFFFFFF0003FFFFFFFFFFFC0000000FFF
310
F000FFFE0000003FFFF0001FFFFE0003FFFFE0003F80007FFFFC0000003FFFFF
310
FFC0000003FFFFF800000000000000007F80000000000001FFFFFE0000003FFF
310
FFFFFFFE0000003FFFFFFF0003FFFFFFFFFFFF0000003FFFF000FFFF800000FF
310
FFF0001FFFFF0003FFFFE0003F80007FFFFF000001FFFFFFFFF800001FFFFFF8
310
00000000000000007F80000000000001FFFFFFC00001FFFFFFFFFFFFC00001FF
310
FFFFFF0003FFFFFFFFFFFFC00000FFFFF000FFFFF8000FFFFFFFFFFFFFFFFFFF
310
FFFFFFFFFFFFFFFFFFFFF0001FFFFFFFFFFF0000FFFFFFF80000000000000000
310
7FFFFFFFFFFFFFFFFFFFFFFC001FFFFFFFFFFFFFFC001FFFFFFFFFFFFFFFFFFF
310
FFFFFFFC001FFFFFF000FFFFFFFFFFFFFFFFFFFFFFFFFFFFFFFFFFFFFFFFFFFF
310
FFFFFFFFFFFFFFFFFFFFFFFFFFFFFFFFFFFFFFFFFFFFFFFFFFFFFFFFFFFFFFFF
310
FFFFFFFFFFFFFFFFFFFFFFFFFFFFFFFFFFFFFFFFFFFFFFFFFFFFFFFFFFFFFFFF
310
F000FFFFFFFFFFFFFFFFFFFFFFFFFFFFFFFFFFFFFFFFFFFFFFFFFFFFFFFFFFFF
310
FFFFFFFFFFFFFFFFFFFFFFFFFFFFFFFFFFFFFFFFFFFFFFFFFFFFFFFFFFFFFFFF
310
FFFFFFFFFFFFFFFFFFFFFFFFFFFFFFFFFFFFFFFFFFFFFFFFF000FFFFFFFFFFFF
310
FFFFFFFFFFFFFFFFFFFFFFFFFFFFFFFFFFFFFFFFFFFFFFFFFFFFFFFFFFFFFFFF
310
FFFFFFFFFFFFFFFFFFFFFFFFFFFFFFFFFFFFFFFFFFFFFFFFFFFFFFFFFFFFFFFF
310
FFFFFFFFFFFFFFFFFFFFFFFFFFFFFFFFF000FFFFFFFFFFFFFFFFFFFFFFFFFFFF
310
FFFFFFFFFFFFFFFFFFFFFFFFFFFFFFFFFFFFFFFFFFFFFFFFFFFFFFFFFFFFFFFF
310
FFFFFFFFFFFFFFFFFFFFFFFFFFFFFFFFFFFFFFFFFFFFFFFFFFFFFFFFFFFFFFFF
310
FFFFFFFFFFFFFFFFF000FFFFFFFFFFFFFFFFFFFFFFFFFFFFFFFFFFFFFFFFFFFF
310
FFFFFFFFFFFFFFFFFFFFFFFFFFFFFFFFFFFFFFFFFFFFFFFFFFFFFFFFFFFFFFFF
310
FFFFFFFFFFFFFFFFFFFFFFFFFFFFFFFFFFFFFFFFFFFFFFFFFFFFFFFFFFFFFFFF
310
F000FFFFFFFFFFFFFFFFFFFFFFFFFFFFFFFFFFFFFFFFFFFFFFFFFFFFFFFFFFFF
310
FFFFFFFFFFFFFFFFFFFFFFFFFFFFFFFFFFFFFFFFFFFFFFFFFFFFFFFFFFFFFFFF
310
FFFFFFFFFFFFFFFFFFFFFFFFFFFFFFFFFFFFFFFFFFFFFFFFF000FFFFFFFFFFFF
310
FFFFFFFFFFFFFFFFFFFFFFFFFFFFFFFFFFFFFFFFFFFFFFFFFFFFFFFFFFFFFFFF
310
FFFFFFFFFFFFFFFFFFFFFFFFFFFFFFFFFFFFFFFFFFFFFFFFFFFFFFFFFFFFFFFF
310
FFFFFFFFFFFFFFFFFFFFFFFFFFFFFFFFF000FFFFFFFFFFFFFFFFFFFFFFFFFFFF
310
FFFFFFFFFFFFFFFFFFFFFFFFFFFFFFFFFFFFFFFFFFFFFFFFFFFFFFFFFFFFFFFF
310
FFFFFFFFFFFFFFFFFFFFFFFFFFFFFFFFFFFFFFFFFFFFFFFFFFFFFFFFFFFFFFFF
310
FFFFFFFFFFFFFFFFF000FFFFFFFFFFFFFFFFFFFFFFFFFFFFFFFFFFFFFFFFFFFF
310
FFFFFFFFFFFFFFFFFFFFFFFFFFFFFFFFFFFFFFFFFFFFFFFFFFFFFFFFFFFFFFFF
310
FFFFFFFFFFFFFFFFFFFFFFFFFFFFFFFFFFFFFFFFFFFFFFFFFFFFFFFFFFFFFFFF
310
F000FFFFFFFFFFFFFFFFFFFFFFFFFFFFFFFFFFFFFFFFFFFFFFFFFFFFFFFFFFFF
310
FFFFFFFFFFFFFFFFFFFFFFFFFFFFFFFFFFFFFFFFFFFFFFFFFFFFFFFFFFFFFFFF
310
FFFFFFFFFFFFFFFFFFFFFFFFFFFFFFFFFFFFFFFFFFFFFFFFF000FFFFFFFFFFFF
310
FFFFFFFFFFFFFFFFFFFFFFFFFFFFFFFFFFFFFFFFFFFFFFFFFFFFFFFFFFFFFFFF
310
FFFFFFFFFFFFFFFFFFFFFFFFFFFFFFFFFFFFFFFFFFFFFFFFFFFFFFFFFFFFFFFF
310
FFFFFFFFFFFFFFFFFFFFFFFFFFFFFFFFF000FFFFFFFFFFFFFFFFFFFFFFFFFFFF
310
FFFFFFFFFFFFFFFFFFFFFFFFFFFFFFFFFFFFFFFFFFFFFFFFFFFFFFFFFFFFFFFF
310
FFFFFFFFFFFFFFFFFFFFFFFFFFFFFFFFFFFFFFFFFFFFFFFFFFFFFFFFFFFFFFFF
310
FFFFFFFFFFFFFFFFF000FFFFFFFFFFFFFFFFFFFFFFFFFFFFFFFFFFFFFFFFFFFF
310
FFFFFFFFFFFFFFFFFFFFFFFFFFFFFFFFFFFFFFFFFFFFFFFFFFFFFFFFFFFFFFFF
310
FFFFFFFFFFFFFFFFFFFFFFFFFFFFFFFFFFFFFFFFFFFFFFFFFFFFFFFFFFFFFFFF
310
F000FFFFFFFFFFFFFFFFFFFFFFFFFFFFFFFFFFFFFFFFFFFFFFFFFFFFFFFFFFFF
310
FFFFFFFFFFFFFFFFFFFFFFFFFFFFFFFFFFFFFFFFFFFFFFFFFFFFFFFFFFFFFFFF
310
FFFFFFFFFFFFFFFFFFFFFFFFFFFFFFFFFFFFFFFFFFFFFFFFF000FFFFFFFFFFFF
310
FFFFFFFFFFFFFFFFFFFFFFFFFFFFFFFFFFFFFFFFFFFFFFFFFFFFFFFFFFFFFFFF
310
FFFFFFFFFFFFFFFFFFFFFFFFFFFFFFFFFFFFFFFFFFFFFFFFFFFFFFFFFFFFFFFF
310
FFFFFFFFFFFFFFFFFFFFFFFFFFFFFFFFF000FFFFFFFFFFFFFFFFFFFFFFFFFFFF
310
FFFFFFFFFFFFFFFFFFFFFFFFFFFFFFFFFFFFFFFFFFFFFFFFFFFFFFFFFFFFFFFF
310
FFFFFFFFFFFFFFFFFFFFFFFFFFFFFFFFFFFFFFFFFFFFFFFFFFFFFFFFFFFFFFFF
310
FFFFFFFFFFFFFFFFF000FFFFFFFFFFFFFFFFFFFFFFFFFFFFFFFFFFFFFFFFFFFF
310
FFFFFFFFFFFFFFFFFFFFFFFFFFFFFFFFFFFFFFFFFFFFFFFFFFFFFFFFFFFFFFFF
310
FFFFFFFFFFFFFFFFFFFFFFFFFFFFFFFFFFFFFFFFFFFFFFFFFFFFFFFFFFFFFFFF
310
F000FFFFFFFFFFFFFFFFFFFFFFFFFFFFFFFFFFFFFFFFFFFFFFFFFFFFFFFFFFFF
310
FFFFFFFFFFFFFFFFFFFFFFFFFFFFFFFFFFFFFFFFFFFFFFFFFFFFFFFFFFFFFFFF
310
FFFFFFFFFFFFFFFFFFFFFFFFFFFFFFFFFFFFFFFFFFFFFFFFF000FFFFFFFFFFFF
310
FFFFFFFFFFFFFFFFFFFFFFFFFFFFFFFFFFFFFFFFFFFFFFFFFFFFFFFFFFFFFFFF
310
FFFFFFFFFFFFFFFFFFFFFFFFFFFFFFFFFFFFFFFFFFFFFFFFFFFFFFFFFFFFFFFF
310
FFFFFFFFFFFFFFFFFFFFFFFFFFFFFFFFF000FFFFFFFFFFFFFFFFFFFFFFFFFFFF
310
FFFFFFFFFFFFFFFFFFFFFFFFFFFFFFFFFFFFFFFFFFFFFFFFFFFFFFFFFFFFFFFF
310
FFFFFFFFFFFFFFFFFFFFFFFFFFFFFFFFFFFFFFFFFFFFFFFFFFFFFFFFFFFFFFFF
310
FFFFFFFFFFFFFFFFF000FFFFFFFFFFFFFFFFFFFFFFFFFFFFFFFFFFFFFFFFFFFF
310
FFFFFFFFFFFFFFFFFFFFFFFFFFFFFFFFFFFFFFFFFFFFFFFFFFFFFFFFFFFFFFFF
310
FFFFFFFFFFFFFFFFFFFFFFFFFFFFFFFFFFFFFFFFFFFFFFFFFFFFFFFFFFFFFFFF
310
F000FFFFFFFFFFFFFFFFFFFFFFFFFFFFFFFFFFFFFFFFFFFFFFFFFFFFFFFFFFFF
310
FFFFFFFFFFFFFFFFFFFFFFFFFFFFFFFFFFFFFFFFFFFFFFFFFFFFFFFFFFFFFFFF
310
FFFFFFFFFFFFFFFFFFFFFFFFFFFFFFFFFFFFFFFFFFFFFFFFF000FFFFFFFFFFFF
310
FFFFFFFFFFFFFFFFFFFFFFFFFFFFFFFFFFFFFFFFFFFFFFFFFFFFFFFFFFFFFFFF
310
FFFFFFFFFFFFFFFFFFFFFFFFFFFFFFFFFFFFFFFFFFFFFFFFFFFFFFFFFFFFFFFF
310
FFFFFFFFFFFFFFFFFFFFFFFFFFFFFFFFF0000000000000000000000000000000
310
0000000000000000000000000000000000000000000000000000000000000000
310
0000000000000000000000000000000000000000000000000000000000000000
310
0000000000000000000000000000000000000000000000000000000000000000
310
0000000000000000000000000000000000000000000000000000000000000000
310
0000000000000000000000000000000000000000000000000000000000000000
310
0000000000000000000000000000000000000000000000000000000000000000
310
0000000000000000000000000000000000000000000000000000000000000000
310
0000000000000000000000000000000000000000000000000000000000000000
310
0000000000000000000000000000000000000000000000000000000000000000
310
0000000000000000000000000000000000000000000000000000000000000000
310
0000000000000000000000000000000000000000000000000000000000000000
310
0000000000000000000000000000000000000000000000000000000000000000
310
0000000000000000000000000000000000000000000000000000000000000000
310
0000000000000000000000000000000000000000000000000000000000000000
310
0000000000000000000000000000000000000000000000000000000000000000
  1
OLE
  0
ENDSEC
  0
SECTION
  2
OBJECTS
  0
DICTIONARY
  5
C
330
0
100
AcDbDictionary
281
     1
  3
ACAD_GROUP
350
D
  3
ACAD_LAYOUT
350
1A
  3
ACAD_MLINESTYLE
350
17
  3
ACAD_PLOTSETTINGS
350
19
  3
ACAD_PLOTSTYLENAME
350
E
  3
ACAD_SCALELIST
350
47
  0
DICTIONARY
  5
D
102
{ACAD_REACTORS
330
C
102
}
330
C
100
AcDbDictionary
281
     1
  0
DICTIONARY
  5
1A
102
{ACAD_REACTORS
330
C
102
}
330
C
100
AcDbDictionary
281
     1
  3
Layout1
350
1E
  3
Layout2
350
26
  3
Model
350
22
  0
DICTIONARY
  5
17
102
{ACAD_REACTORS
330
C
102
}
330
C
100
AcDbDictionary
281
     1
  3
Standard
350
18
  0
DICTIONARY
  5
19
102
{ACAD_REACTORS
330
C
102
}
330
C
100
AcDbDictionary
281
     1
  0
ACDBDICTIONARYWDFLT
  5
E
102
{ACAD_REACTORS
330
C
102
}
330
C
100
AcDbDictionary
281
     1
  3
Normal
350
F
100
AcDbDictionaryWithDefault
340
F
  0
DICTIONARY
  5
47
102
{ACAD_REACTORS
330
C
102
}
330
C
100
AcDbDictionary
281
     1
  3
A0
350
48
  3
A1
350
49
  3
A2
350
4A
  3
A3
350
4B
  3
A4
350
4C
  3
A5
350
4D
  3
A6
350
4E
  3
A7
350
4F
  3
A8
350
50
  3
A9
350
51
  3
B0
350
52
  3
B1
350
53
  3
B2
350
54
  3
B3
350
55
  3
B4
350
56
  3
B5
350
57
  3
B6
350
58
  3
B7
350
59
  3
B8
350
5A
  3
B9
350
5B
  3
C0
350
5C
  3
C1
350
5D
  3
C2
350
5E
  3
C3
350
5F
  3
C4
350
60
  3
C5
350
61
  3
C6
350
62
  3
C7
350
63
  3
C8
350
64
  3
C9
350
65
  3
D0
350
66
  3
D1
350
67
  3
D2
350
68
  0
LAYOUT
  5
1E
102
{ACAD_REACTORS
330
1A
102
}
330
1A
100
AcDbPlotSettings
  1

  2
none_device
  4

  6

 40
0.0
 41
0.0
 42
0.0
 43
0.0
 44
0.0
 45
0.0
 46
0.0
 47
0.0
 48
0.0
 49
0.0
140
0.0
141
0.0
142
1.0
143
1.0
 70
   688
 72
     1
 73
     0
 74
     5
  7

 75
    16
147
1.0
148
0.0
149
0.0
100
AcDbLayout
  1
Layout1
 70
     1
 71
     1
 10
0.0
 20
0.0
 11
420.0
 21
297.0
 12
0.0
 22
0.0
 32
0.0
 14
1.0000000000E+20
 24
1.0000000000E+20
 34
1.0000000000E+20
 15
-1.0000000000E+20
 25
-1.0000000000E+20
 35
-1.0000000000E+20
146
0.0
 13
0.0
 23
0.0
 33
0.0
 16
1.0
 26
0.0
 36
0.0
 17
0.0
 27
1.0
 37
0.0
 76
     0
330
1B
  0
LAYOUT
  5
26
102
{ACAD_REACTORS
330
1A
102
}
330
1A
100
AcDbPlotSettings
  1

  2
none_device
  4

  6

 40
0.0
 41
0.0
 42
0.0
 43
0.0
 44
0.0
 45
0.0
 46
0.0
 47
0.0
 48
0.0
 49
0.0
140
0.0
141
0.0
142
1.0
143
1.0
 70
   688
 72
     1
 73
     0
 74
     5
  7

 75
    16
147
1.0
148
0.0
149
0.0
100
AcDbLayout
  1
Layout2
 70
     1
 71
     2
 10
0.0
 20
0.0
 11
0.0
 21
0.0
 12
0.0
 22
0.0
 32
0.0
 14
0.0
 24
0.0
 34
0.0
 15
0.0
 25
0.0
 35
0.0
146
0.0
 13
0.0
 23
0.0
 33
0.0
 16
1.0
 26
0.0
 36
0.0
 17
0.0
 27
1.0
 37
0.0
 76
     0
330
23
  0
LAYOUT
  5
22
102
{ACAD_REACTORS
330
1A
102
}
330
1A
100
AcDbPlotSettings
  1

  2
none_device
  4
Letter_(8.50_x_11.00_Inches)
  6

 40
6.35
 41
6.35
 42
6.35000508
 43
6.35000508
 44
215.9
 45
279.4
 46
0.0
 47
0.0
 48
0.0
 49
0.0
140
0.0
141
0.0
142
1.0
143
1.0
 70
  1712
 72
     1
 73
     0
 74
     0
  7

 75
     0
147
1.0
148
0.0
149
0.0
100
AcDbLayout
  1
Model
 70
     1
 71
     0
 10
0.0
 20
0.0
 11
297.0
 21
210.0
 12
0.0
 22
0.0
 32
0.0
 14
0.0
 24
0.0
 34
0.0
 15
297.0
 25
210.0
 35
0.0
146
0.0
 13
0.0
 23
0.0
 33
0.0
 16
1.0
 26
0.0
 36
0.0
 17
0.0
 27
1.0
 37
0.0
 76
     0
330
1F
331
29
  0
MLINESTYLE
  5
18
102
{ACAD_REACTORS
330
17
102
}
330
17
100
AcDbMlineStyle
  2
Standard
 70
     0
  3

 62
   256
 51
90.0
 52
90.0
 71
     2
 49
0.5
 62
   256
  6
BYLAYER
 49
-0.5
 62
   256
  6
BYLAYER
  0
ACDBPLACEHOLDER
  5
F
102
{ACAD_REACTORS
330
E
102
}
330
E
  0
SCALE
  5
48
102
{ACAD_REACTORS
330
47
102
}
330
47
100
AcDbScale
 70
     0
300
1:1
140
1.0
141
1.0
290
     1
  0
SCALE
  5
49
102
{ACAD_REACTORS
330
47
102
}
330
47
100
AcDbScale
 70
     0
300
1:2
140
1.0
141
2.0
290
     0
  0
SCALE
  5
4A
102
{ACAD_REACTORS
330
47
102
}
330
47
100
AcDbScale
 70
     0
300
1:4
140
1.0
141
4.0
290
     0
  0
SCALE
  5
4B
102
{ACAD_REACTORS
330
47
102
}
330
47
100
AcDbScale
 70
     0
300
1:5
140
1.0
141
5.0
290
     0
  0
SCALE
  5
4C
102
{ACAD_REACTORS
330
47
102
}
330
47
100
AcDbScale
 70
     0
300
1:8
140
1.0
141
8.0
290
     0
  0
SCALE
  5
4D
102
{ACAD_REACTORS
330
47
102
}
330
47
100
AcDbScale
 70
     0
300
1:10
140
1.0
141
10.0
290
     0
  0
SCALE
  5
4E
102
{ACAD_REACTORS
330
47
102
}
330
47
100
AcDbScale
 70
     0
300
1:16
140
1.0
141
16.0
290
     0
  0
SCALE
  5
4F
102
{ACAD_REACTORS
330
47
102
}
330
47
100
AcDbScale
 70
     0
300
1:20
140
1.0
141
20.0
290
     0
  0
SCALE
  5
50
102
{ACAD_REACTORS
330
47
102
}
330
47
100
AcDbScale
 70
     0
300
1:30
140
1.0
141
30.0
290
     0
  0
SCALE
  5
51
102
{ACAD_REACTORS
330
47
102
}
330
47
100
AcDbScale
 70
     0
300
1:40
140
1.0
141
40.0
290
     0
  0
SCALE
  5
52
102
{ACAD_REACTORS
330
47
102
}
330
47
100
AcDbScale
 70
     0
300
1:50
140
1.0
141
50.0
290
     0
  0
SCALE
  5
53
102
{ACAD_REACTORS
330
47
102
}
330
47
100
AcDbScale
 70
     0
300
1:100
140
1.0
141
100.0
290
     0
  0
SCALE
  5
54
102
{ACAD_REACTORS
330
47
102
}
330
47
100
AcDbScale
 70
     0
300
2:1
140
2.0
141
1.0
290
     0
  0
SCALE
  5
55
102
{ACAD_REACTORS
330
47
102
}
330
47
100
AcDbScale
 70
     0
300
4:1
140
4.0
141
1.0
290
     0
  0
SCALE
  5
56
102
{ACAD_REACTORS
330
47
102
}
330
47
100
AcDbScale
 70
     0
300
8:1
140
8.0
141
1.0
290
     0
  0
SCALE
  5
57
102
{ACAD_REACTORS
330
47
102
}
330
47
100
AcDbScale
 70
     0
300
10:1
140
10.0
141
1.0
290
     0
  0
SCALE
  5
58
102
{ACAD_REACTORS
330
47
102
}
330
47
100
AcDbScale
 70
     0
300
100:1
140
100.0
141
1.0
290
     0
  0
SCALE
  5
59
102
{ACAD_REACTORS
330
47
102
}
330
47
100
AcDbScale
 70
     0
300
1/128" = 1'-0"
140
0.0078125
141
12.0
290
     0
  0
SCALE
  5
5A
102
{ACAD_REACTORS
330
47
102
}
330
47
100
AcDbScale
 70
     0
300
1/64" = 1'-0"
140
0.015625
141
12.0
290
     0
  0
SCALE
  5
5B
102
{ACAD_REACTORS
330
47
102
}
330
47
100
AcDbScale
 70
     0
300
1/32" = 1'-0"
140
0.03125
141
12.0
290
     0
  0
SCALE
  5
5C
102
{ACAD_REACTORS
330
47
102
}
330
47
100
AcDbScale
 70
     0
300
1/16" = 1'-0"
140
0.0625
141
12.0
290
     0
  0
SCALE
  5
5D
102
{ACAD_REACTORS
330
47
102
}
330
47
100
AcDbScale
 70
     0
300
3/32" = 1'-0"
140
0.09375
141
12.0
290
     0
  0
SCALE
  5
5E
102
{ACAD_REACTORS
330
47
102
}
330
47
100
AcDbScale
 70
     0
300
1/8" = 1'-0"
140
0.125
141
12.0
290
     0
  0
SCALE
  5
5F
102
{ACAD_REACTORS
330
47
102
}
330
47
100
AcDbScale
 70
     0
300
3/16" = 1'-0"
140
0.1875
141
12.0
290
     0
  0
SCALE
  5
60
102
{ACAD_REACTORS
330
47
102
}
330
47
100
AcDbScale
 70
     0
300
1/4" = 1'-0"
140
0.25
141
12.0
290
     0
  0
SCALE
  5
61
102
{ACAD_REACTORS
330
47
102
}
330
47
100
AcDbScale
 70
     0
300
3/8" = 1'-0"
140
0.375
141
12.0
290
     0
  0
SCALE
  5
62
102
{ACAD_REACTORS
330
47
102
}
330
47
100
AcDbScale
 70
     0
300
1/2" = 1'-0"
140
0.5
141
12.0
290
     0
  0
SCALE
  5
63
102
{ACAD_REACTORS
330
47
102
}
330
47
100
AcDbScale
 70
     0
300
3/4" = 1'-0"
140
0.75
141
12.0
290
     0
  0
SCALE
  5
64
102
{ACAD_REACTORS
330
47
102
}
330
47
100
AcDbScale
 70
     0
300
1" = 1'-0"
140
1.0
141
12.0
290
     0
  0
SCALE
  5
65
102
{ACAD_REACTORS
330
47
102
}
330
47
100
AcDbScale
 70
     0
300
1-1/2" = 1'-0"
140
1.5
141
12.0
290
     0
  0
SCALE
  5
66
102
{ACAD_REACTORS
330
47
102
}
330
47
100
AcDbScale
 70
     0
300
3" = 1'-0"
140
3.0
141
12.0
290
     0
  0
SCALE
  5
67
102
{ACAD_REACTORS
330
47
102
}
330
47
100
AcDbScale
 70
     0
300
6" = 1'-0"
140
6.0
141
12.0
290
     0
  0
SCALE
  5
68
102
{ACAD_REACTORS
330
47
102
}
330
47
100
AcDbScale
 70
     0
300
1'-0" = 1'-0"
140
12.0
141
12.0
290
     0
  0
ENDSEC
  0
EOF
