  0
SECTION
  2
HEADER
  9
$ACADVER
  1
AC1015
  9
$ACADMAINTVER
 70
     6
  9
$DWGCODEPAGE
  3
ANSI_1252
  9
$INSBASE
 10
0.0
 20
0.0
 30
0.0
  9
$EXTMIN
 10
0.0
 20
0.0
 30
0.0
  9
$EXTMAX
 10
297.0
 20
210.0
 30
0.0
  9
$LIMMIN
 10
0.0
 20
0.0
  9
$LIMMAX
 10
297.0
 20
210.0
  9
$ORTHOMODE
 70
     0
  9
$REGENMODE
 70
     1
  9
$FILLMODE
 70
     1
  9
$QTEXTMODE
 70
     0
  9
$MIRRTEXT
 70
     1
  9
$LTSCALE
 40
1.0
  9
$ATTMODE
 70
     1
  9
$TEXTSIZE
 40
2.0
  9
$TRACEWID
 40
1.0
  9
$TEXTSTYLE
  7
Standard
  9
$CLAYER
  8
0
  9
$CELTYPE
  6
ByLayer
  9
$CECOLOR
 62
   256
  9
$CELTSCALE
 40
1.0
  9
$DISPSILH
 70
     0
  9
$DIMSCALE
 40
1.0
  9
$DIMASZ
 40
3.0
  9
$DIMEXO
 40
0.0
  9
$DIMDLI
 40
3.75
  9
$DIMRND
 40
0.0
  9
$DIMDLE
 40
0.0
  9
$DIMEXE
 40
1.0
  9
$DIMTP
 40
0.0
  9
$DIMTM
 40
0.0
  9
$DIMTXT
 40
2.0
  9
$DIMCEN
 40
2.5
  9
$DIMTSZ
 40
0.0
  9
$DIMTOL
 70
     0
  9
$DIMLIM
 70
     0
  9
$DIMTIH
 70
     1
  9
$DIMTOH
 70
     1
  9
$DIMSE1
 70
     0
  9
$DIMSE2
 70
     0
  9
$DIMTAD
 70
     1
  9
$DIMZIN
 70
     0
  9
$DIMBLK
  1

  9
$DIMASO
 70
     1
  9
$DIMSHO
 70
     1
  9
$DIMPOST
  1

  9
$DIMAPOST
  1

  9
$DIMALT
 70
     0
  9
$DIMALTD
 70
     3
  9
$DIMALTF
 40
0.0393700787
  9
$DIMLFAC
 40
2.0
  9
$DIMTOFL
 70
     1
  9
$DIMTVP
 40
0.0
  9
$DIMTIX
 70
     0
  9
$DIMSOXD
 70
     0
  9
$DIMSAH
 70
     0
  9
$DIMBLK1
  1

  9
$DIMBLK2
  1

  9
$DIMSTYLE
  2
ISO-25
  9
$DIMCLRD
 70
     0
  9
$DIMCLRE
 70
     0
  9
$DIMCLRT
 70
     0
  9
$DIMTFAC
 40
1.0
  9
$DIMGAP
 40
1.524
  9
$DIMJUST
 70
     0
  9
$DIMSD1
 70
     0
  9
$DIMSD2
 70
     0
  9
$DIMTOLJ
 70
     0
  9
$DIMTZIN
 70
     0
  9
$DIMALTZ
 70
     0
  9
$DIMALTTZ
 70
     0
  9
$DIMUPT
 70
     0
  9
$DIMDEC
 70
     2
  9
$DIMTDEC
 70
     3
  9
$DIMALTU
 70
     2
  9
$DIMALTTD
 70
     3
  9
$DIMTXSTY
  7
Standard
  9
$DIMAUNIT
 70
     0
  9
$DIMADEC
 70
     2
  9
$DIMALTRND
 40
0.0
  9
$DIMAZIN
 70
     0
  9
$DIMDSEP
 70
    44
  9
$DIMATFIT
 70
     3
  9
$DIMFRAC
 70
     0
  9
$DIMLDRBLK
  1

  9
$DIMLUNIT
 70
     2
  9
$DIMLWD
 70
    -2
  9
$DIMLWE
 70
    -2
  9
$DIMTMOVE
 70
     0
  9
$LUNITS
 70
     2
  9
$LUPREC
 70
     2
  9
$SKETCHINC
 40
1.0
  9
$FILLETRAD
 40
10.0
  9
$AUNITS
 70
     0
  9
$AUPREC
 70
     2
  9
$MENU
  1
.
  9
$ELEVATION
 40
0.0
  9
$PELEVATION
 40
0.0
  9
$THICKNESS
 40
0.0
  9
$LIMCHECK
 70
     0
  9
$CHAMFERA
 40
0.0
  9
$CHAMFERB
 40
0.0
  9
$CHAMFERC
 40
0.0
  9
$CHAMFERD
 40
0.0
  9
$SKPOLY
 70
     0
  9
$TDCREATE
 40
2458166.451239282
  9
$TDUCREATE
 40
2458166.409572616
  9
$TDUPDATE
 40
2458166.451243171
  9
$TDUUPDATE
 40
2458166.409576504
  9
$TDINDWG
 40
0.0000000116
  9
$TDUSRTIMER
 40
0.0000000116
  9
$USRTIMER
 70
     1
  9
$ANGBASE
 50
0.0
  9
$ANGDIR
 70
     0
  9
$PDMODE
 70
     0
  9
$PDSIZE
 40
-1.0
  9
$PLINEWID
 40
0.0
  9
$SPLFRAME
 70
     0
  9
$SPLINETYPE
 70
     6
  9
$SPLINESEGS
 70
     8
  9
$HANDSEED
  5
306
  9
$SURFTAB1
 70
     6
  9
$SURFTAB2
 70
     6
  9
$SURFTYPE
 70
     6
  9
$SURFU
 70
     6
  9
$SURFV
 70
     6
  9
$UCSBASE
  2

  9
$UCSNAME
  2

  9
$UCSORG
 10
0.0
 20
0.0
 30
0.0
  9
$UCSXDIR
 10
1.0
 20
0.0
 30
0.0
  9
$UCSYDIR
 10
0.0
 20
1.0
 30
0.0
  9
$UCSORTHOREF
  2

  9
$UCSORTHOVIEW
 70
     0
  9
$UCSORGTOP
 10
0.0
 20
0.0
 30
0.0
  9
$UCSORGBOTTOM
 10
0.0
 20
0.0
 30
0.0
  9
$UCSORGLEFT
 10
0.0
 20
0.0
 30
0.0
  9
$UCSORGRIGHT
 10
0.0
 20
0.0
 30
0.0
  9
$UCSORGFRONT
 10
0.0
 20
0.0
 30
0.0
  9
$UCSORGBACK
 10
0.0
 20
0.0
 30
0.0
  9
$PUCSBASE
  2

  9
$PUCSNAME
  2

  9
$PUCSORG
 10
0.0
 20
0.0
 30
0.0
  9
$PUCSXDIR
 10
1.0
 20
0.0
 30
0.0
  9
$PUCSYDIR
 10
0.0
 20
1.0
 30
0.0
  9
$PUCSORTHOREF
  2

  9
$PUCSORTHOVIEW
 70
     0
  9
$PUCSORGTOP
 10
0.0
 20
0.0
 30
0.0
  9
$PUCSORGBOTTOM
 10
0.0
 20
0.0
 30
0.0
  9
$PUCSORGLEFT
 10
0.0
 20
0.0
 30
0.0
  9
$PUCSORGRIGHT
 10
0.0
 20
0.0
 30
0.0
  9
$PUCSORGFRONT
 10
0.0
 20
0.0
 30
0.0
  9
$PUCSORGBACK
 10
0.0
 20
0.0
 30
0.0
  9
$USERI1
 70
     0
  9
$USERI2
 70
     0
  9
$USERI3
 70
     0
  9
$USERI4
 70
     0
  9
$USERI5
 70
     0
  9
$USERR1
 40
0.0
  9
$USERR2
 40
0.0
  9
$USERR3
 40
0.0
  9
$USERR4
 40
0.0
  9
$USERR5
 40
0.0
  9
$WORLDVIEW
 70
     1
  9
$SHADEDGE
 70
     3
  9
$SHADEDIF
 70
    70
  9
$TILEMODE
 70
     1
  9
$MAXACTVP
 70
    64
  9
$PINSBASE
 10
0.0
 20
0.0
 30
0.0
  9
$PLIMCHECK
 70
     0
  9
$PEXTMIN
 10
1.0000000000E+20
 20
1.0000000000E+20
 30
1.0000000000E+20
  9
$PEXTMAX
 10
-1.0000000000E+20
 20
-1.0000000000E+20
 30
-1.0000000000E+20
  9
$PLIMMIN
 10
0.0
 20
0.0
  9
$PLIMMAX
 10
420.0
 20
297.0
  9
$UNITMODE
 70
     0
  9
$VISRETAIN
 70
     1
  9
$PLINEGEN
 70
     0
  9
$PSLTSCALE
 70
     1
  9
$TREEDEPTH
 70
  3020
  9
$CMLSTYLE
  2
Standard
  9
$CMLJUST
 70
     0
  9
$CMLSCALE
 40
20.0
  9
$PROXYGRAPHICS
 70
     1
  9
$MEASUREMENT
 70
     1
  9
$CELWEIGHT
370
    -1
  9
$ENDCAPS
280
     0
  9
$JOINSTYLE
280
     0
  9
$LWDISPLAY
290
     1
  9
$INSUNITS
 70
     4
  9
$HYPERLINKBASE
  1

  9
$STYLESHEET
  1

  9
$XEDIT
290
     1
  9
$CEPSNTYPE
380
     0
  9
$PSTYLEMODE
290
     1
  9
$FINGERPRINTGUID
  2
{A4D503EF-62E4-49D3-9DAD-26805F9D4A85}
  9
$VERSIONGUID
  2
{FAEB1C32-E019-11D5-929B-00C0DF256EC4}
  9
$EXTNAMES
290
     1
  9
$PSVPSCALE
 40
0.0
  9
$OLESTARTUP
290
     0
  0
ENDSEC
  0
SECTION
  2
CLASSES
  0
CLASS
  1
ACDBDICTIONARYWDFLT
  2
AcDbDictionaryWithDefault
  3
ObjectDBX Classes
 90
        0
280
     0
281
     0
  0
CLASS
  1
VISUALSTYLE
  2
AcDbVisualStyle
  3
ObjectDBX Classes
 90
     4095
280
     0
281
     0
  0
CLASS
  1
MATERIAL
  2
AcDbMaterial
  3
ObjectDBX Classes
 90
     1153
280
     0
281
     0
  0
CLASS
  1
SCALE
  2
AcDbScale
  3
ObjectDBX Classes
 90
     1153
280
     0
281
     0
  0
CLASS
  1
TABLESTYLE
  2
AcDbTableStyle
  3
ObjectDBX Classes
 90
     4095
280
     0
281
     0
  0
CLASS
  1
MLEADERSTYLE
  2
AcDbMLeaderStyle
  3
ACDB_MLEADERSTYLE_CLASS
 90
     4095
280
     0
281
     0
  0
CLASS
  1
SUN
  2
AcDbSun
  3
SCENEOE
 90
     1153
280
     0
281
     0
  0
CLASS
  1
ACDBPLACEHOLDER
  2
AcDbPlaceHolder
  3
ObjectDBX Classes
 90
        0
280
     0
281
     0
  0
CLASS
  1
LAYOUT
  2
AcDbLayout
  3
ObjectDBX Classes
 90
        0
280
     0
281
     0
  0
ENDSEC
  0
SECTION
  2
TABLES
  0
TABLE
  2
VPORT
  5
8
330
0
100
AcDbSymbolTable
 70
     1
  0
VPORT
  5
29
330
8
100
AcDbSymbolTableRecord
100
AcDbViewportTableRecord
  2
*Active
 70
     0
 10
0.0
 20
0.0
 11
1.0
 21
1.0
 12
148.5
 22
105.0
 13
0.0
 23
0.0
 14
10.0
 24
10.0
 15
10.0
 25
10.0
 16
0.0
 26
0.0
 36
1.0
 17
0.0
 27
0.0
 37
0.0
 40
210.0
 41
1.4142857143
 42
50.0
 43
0.0
 44
0.0
 50
0.0
 51
0.0
 71
     0
 72
  2000
 73
     1
 74
     3
 75
     0
 76
     0
 77
     0
 78
     0
281
     0
 65
     1
110
0.0
120
0.0
130
0.0
111
1.0
121
0.0
131
0.0
112
0.0
122
1.0
132
0.0
 79
     0
146
0.0
  0
ENDTAB
  0
TABLE
  2
LTYPE
  5
5
330
0
100
AcDbSymbolTable
 70
     6
  0
LTYPE
  5
14
330
5
100
AcDbSymbolTableRecord
100
AcDbLinetypeTableRecord
  2
ByBlock
 70
     0
  3

 72
    65
 73
     0
 40
0.0
  0
LTYPE
  5
15
330
5
100
AcDbSymbolTableRecord
100
AcDbLinetypeTableRecord
  2
ByLayer
 70
     0
  3

 72
    65
 73
     0
 40
0.0
  0
LTYPE
  5
16
330
5
100
AcDbSymbolTableRecord
100
AcDbLinetypeTableRecord
  2
Continuous
 70
     0
  3
Solid line
 72
    65
 73
     0
 40
0.0
  0
LTYPE
  5
6E
330
5
100
AcDbSymbolTableRecord
100
AcDbLinetypeTableRecord
  2
HIDDEN
 70
     0
  3
Hidden __ __ __ __ __ __ __ __ __ __ __ __ __ __
 72
    65
 73
     2
 40
1.905
 49
1.27
 74
     0
 49
-0.635
 74
     0
  0
LTYPE
  5
6F
330
5
100
AcDbSymbolTableRecord
100
AcDbLinetypeTableRecord
  2
PHANTOM
 70
     0
  3
Phantom ______  __  __  ______  __  __  ______
 72
    65
 73
     6
 40
12.7
 49
6.35
 74
     0
 49
-1.27
 74
     0
 49
1.27
 74
     0
 49
-1.27
 74
     0
 49
1.27
 74
     0
 49
-1.27
 74
     0
  0
LTYPE
  5
70
330
5
100
AcDbSymbolTableRecord
100
AcDbLinetypeTableRecord
  2
CENTER
 70
     0
  3
Center ____ _ ____ _ ____ _ ____ _ ____ _ ____
 72
    65
 73
     4
 40
10.16
 49
6.35
 74
     0
 49
-1.27
 74
     0
 49
1.27
 74
     0
 49
-1.27
 74
     0
  0
LTYPE
  5
71
330
5
100
AcDbSymbolTableRecord
100
AcDbLinetypeTableRecord
  2
CENTERX2
 70
     0
  3
Center (2x) ________  __  ________  __  _____
 72
    65
 73
     4
 40
20.32
 49
12.7
 74
     0
 49
-2.54
 74
     0
 49
2.54
 74
     0
 49
-2.54
 74
     0
  0
LTYPE
  5
72
330
5
100
AcDbSymbolTableRecord
100
AcDbLinetypeTableRecord
  2
DOT2
 70
     0
  3
Dot (.5x) ........................................
 72
    65
 73
     2
 40
0.635
 49
0.0
 74
     0
 49
-0.635
 74
     0
  0
ENDTAB
  0
TABLE
  2
LAYER
  5
2
330
0
100
AcDbSymbolTable
 70
     5
  0
LAYER
  5
10
330
2
100
AcDbSymbolTableRecord
100
AcDbLayerTableRecord
  2
0
 70
     0
 62
     7
  6
Continuous
370
    -3
390
F
  0
LAYER
  5
73
330
2
100
AcDbSymbolTableRecord
100
AcDbLayerTableRecord
  2
FORMAT
 70
     0
 62
     7
  6
Continuous
370
    -3
390
F
  0
LAYER
  5
74
330
2
100
AcDbSymbolTableRecord
100
AcDbLayerTableRecord
  2
VERMASSUNG
 70
     0
 62
     7
  6
Continuous
370
    -3
390
F
  0
LAYER
  5
75
330
2
100
AcDbSymbolTableRecord
100
AcDbLayerTableRecord
  2
KOPF_DÜNN
 70
     0
 62
     7
  6
Continuous
370
    -3
390
F
  0
LAYER
  5
76
330
2
100
AcDbSymbolTableRecord
100
AcDbLayerTableRecord
  2
KOPF_DICK
 70
     0
 62
     7
  6
Continuous
370
    25
390
F
  0
ENDTAB
  0
TABLE
  2
STYLE
  5
3
330
0
100
AcDbSymbolTable
 70
     2
  0
STYLE
  5
11
330
3
100
AcDbSymbolTableRecord
100
AcDbTextStyleTableRecord
  2
Standard
 70
     0
 40
0.0
 41
1.0
 50
0.0
 71
     0
 42
2.0
  3
txt
  4

  0
STYLE
  5
77
330
3
100
AcDbSymbolTableRecord
100
AcDbTextStyleTableRecord
  2
SLDTEXTSTYLE0
 70
     0
 40
0.0
 41
0.7
 50
0.0
 71
     0
 42
2.0
  3
TXT
  4

  0
ENDTAB
  0
TABLE
  2
VIEW
  5
6
330
0
100
AcDbSymbolTable
 70
     0
  0
ENDTAB
  0
TABLE
  2
UCS
  5
7
330
0
100
AcDbSymbolTable
 70
     0
  0
ENDTAB
  0
TABLE
  2
APPID
  5
9
330
0
100
AcDbSymbolTable
 70
     1
  0
APPID
  5
12
330
9
100
AcDbSymbolTableRecord
100
AcDbRegAppTableRecord
  2
ACAD
 70
     0
  0
ENDTAB
  0
TABLE
  2
DIMSTYLE
  5
A
330
0
100
AcDbSymbolTable
 70
     3
100
AcDbDimStyleTable
  0
DIMSTYLE
105
27
330
A
100
AcDbSymbolTableRecord
100
AcDbDimStyleTableRecord
  2
ISO-25
 70
     0
 41
2.5
 42
0.625
 43
3.75
 44
1.25
 73
     0
 74
     0
 77
     1
 78
     8
140
2.5
141
2.5
143
0.0393700787
147
0.625
171
     3
172
     1
178
     0
271
     2
272
     2
274
     3
278
    44
283
     0
284
     8
340
11
  0
DIMSTYLE
105
232
102
{ACAD_REACTORS
330
231
102
}
330
A
100
AcDbSymbolTableRecord
100
AcDbDimStyleTableRecord
  2
SLDDIMSTYLE0
 70
     0
 41
3.0
 44
0.0
 45
0.000000001
 73
     0
 74
     0
 76
     1
 77
     1
 78
    12
 79
     3
140
2.0
147
0.5
173
     1
178
     0
271
     2
272
     3
276
     2
282
     1
284
    12
340
77
  0
DIMSTYLE
105
23C
102
{ACAD_REACTORS
330
23B
330
247
330
254
330
25E
330
268
102
}
330
A
100
AcDbSymbolTableRecord
100
AcDbDimStyleTableRecord
  2
SLDDIMSTYLE1
 70
     0
 41
3.0
 44
0.0
 45
0.000000001
 73
     0
 74
     0
 77
     1
 78
    12
 79
     3
140
2.0
147
0.5
173
     1
178
     0
271
     2
272
     3
276
     2
284
    12
340
77
  0
ENDTAB
  0
TABLE
  2
BLOCK_RECORD
  5
1
330
0
100
AcDbSymbolTable
 70
     7
  0
BLOCK_RECORD
  5
1F
330
1
100
AcDbSymbolTableRecord
100
AcDbBlockTableRecord
  2
*Model_Space
340
22
  0
BLOCK_RECORD
  5
1B
330
1
100
AcDbSymbolTableRecord
100
AcDbBlockTableRecord
  2
*Paper_Space
340
1E
  0
BLOCK_RECORD
  5
23
330
1
100
AcDbSymbolTableRecord
100
AcDbBlockTableRecord
  2
*Paper_Space0
340
26
  0
BLOCK_RECORD
  5
233
330
1
100
AcDbSymbolTableRecord
100
AcDbBlockTableRecord
  2
_D
340
0
  0
BLOCK_RECORD
  5
23D
330
1
100
AcDbSymbolTableRecord
100
AcDbBlockTableRecord
  2
_D_1
340
0
  0
BLOCK_RECORD
  5
248
330
1
100
AcDbSymbolTableRecord
100
AcDbBlockTableRecord
  2
_D_2
340
0
  0
BLOCK_RECORD
  5
255
330
1
100
AcDbSymbolTableRecord
100
AcDbBlockTableRecord
  2
_D_3
340
0
  0
BLOCK_RECORD
  5
25F
330
1
100
AcDbSymbolTableRecord
100
AcDbBlockTableRecord
  2
_D_4
340
0
  0
BLOCK_RECORD
  5
269
330
1
100
AcDbSymbolTableRecord
100
AcDbBlockTableRecord
  2
_D_5
340
0
  0
ENDTAB
  0
ENDSEC
  0
SECTION
  2
BLOCKS
  0
BLOCK
  5
20
330
1F
100
AcDbEntity
  8
0
100
AcDbBlockBegin
  2
*Model_Space
 70
     0
 10
0.0
 20
0.0
 30
0.0
  3
*Model_Space
  1

  0
ENDBLK
  5
21
330
1F
100
AcDbEntity
  8
0
100
AcDbBlockEnd
  0
BLOCK
  5
1C
330
1B
100
AcDbEntity
 67
     1
  8
0
100
AcDbBlockBegin
  2
*Paper_Space
 70
     0
 10
0.0
 20
0.0
 30
0.0
  3
*Paper_Space
  1

  0
ENDBLK
  5
1D
330
1B
100
AcDbEntity
 67
     1
  8
0
100
AcDbBlockEnd
  0
BLOCK
  5
24
330
23
100
AcDbEntity
  8
0
100
AcDbBlockBegin
  2
*Paper_Space0
 70
     0
 10
0.0
 20
0.0
 30
0.0
  3
*Paper_Space0
  1

  0
ENDBLK
  5
25
330
23
100
AcDbEntity
  8
0
100
AcDbBlockEnd
  0
BLOCK
  5
234
330
233
100
AcDbEntity
  8
0
100
AcDbBlockBegin
  2
_D
 70
     0
 10
0.0
 20
0.0
 30
0.0
  3
_D
  1

  0
SOLID
  5
236
330
233
100
AcDbEntity
  8
VERMASSUNG
100
AcDbTrace
 10
231.0181912106
 20
125.9847933609
 30
0.0
 11
230.5681912106
 21
122.9847933609
 31
0.0
 12
231.4681912106
 22
122.9847933609
 32
0.0
 13
231.4681912106
 23
122.9847933609
 33
0.0
  0
LINE
  5
237
330
233
100
AcDbEntity
  8
VERMASSUNG
100
AcDbLine
 10
205.3809333283
 20
125.9847933609
 30
0.0
 11
232.0181912106
 21
125.9847933609
 31
0.0
  0
LINE
  5
238
330
233
100
AcDbEntity
  8
VERMASSUNG
100
AcDbLine
 10
231.0181912106
 20
125.9847933609
 30
0.0
 11
231.0181912106
 21
110.2797934036
 31
0.0
  0
MTEXT
  5
239
330
233
100
AcDbEntity
  8
VERMASSUNG
100
AcDbMText
 10
228.4400559057
 20
110.2797934036
 30
0.0
 40
2.0
 41
0.0
 71
     1
 72
     1
  1
%%c
  7
SLDTEXTSTYLE0
 11
-7.044195017643634E-15
 21
1.0
 31
0.0
 73
     1
 44
1.0
  0
MTEXT
  5
23A
330
233
100
AcDbEntity
  8
VERMASSUNG
100
AcDbMText
 10
228.2400559544
 20
113.8897934179
 30
0.0
 40
2.0
 41
0.0
 71
     1
 72
     1
  1
25
  7
SLDTEXTSTYLE0
 11
-7.044195017643634E-15
 21
1.0
 31
0.0
 73
     1
 44
1.0
  0
ENDBLK
  5
235
330
233
100
AcDbEntity
  8
0
100
AcDbBlockEnd
  0
BLOCK
  5
23E
330
23D
100
AcDbEntity
  8
0
100
AcDbBlockBegin
  2
_D_1
 70
     0
 10
0.0
 20
0.0
 30
0.0
  3
_D_1
  1

  0
SOLID
  5
240
330
23D
100
AcDbEntity
  8
VERMASSUNG
100
AcDbTrace
 10
242.2970968807
 20
80.9847933609
 30
0.0
 11
242.7470968807
 21
83.9847933609
 31
0.0
 12
241.8470968807
 22
83.9847933609
 32
0.0
 13
241.8470968807
 23
83.9847933609
 33
0.0
  0
SOLID
  5
241
330
23D
100
AcDbEntity
  8
VERMASSUNG
100
AcDbTrace
 10
242.2970968807
 20
145.9847933609
 30
0.0
 11
241.8470968807
 21
142.9847933609
 31
0.0
 12
242.7470968807
 22
142.9847933609
 32
0.0
 13
242.7470968807
 23
142.9847933609
 33
0.0
  0
LINE
  5
242
330
23D
100
AcDbEntity
  8
VERMASSUNG
100
AcDbLine
 10
195.0525062035
 20
80.9847933609
 30
0.0
 11
243.2970968807
 21
80.9847933609
 31
0.0
  0
LINE
  5
243
330
23D
100
AcDbEntity
  8
VERMASSUNG
100
AcDbLine
 10
148.3809333796
 20
145.9847933609
 30
0.0
 11
243.2970968807
 21
145.9847933609
 31
0.0
  0
LINE
  5
244
330
23D
100
AcDbEntity
  8
VERMASSUNG
100
AcDbLine
 10
242.2970968807
 20
80.9847933609
 30
0.0
 11
242.2970968807
 21
145.9847933609
 31
0.0
  0
MTEXT
  5
245
330
23D
100
AcDbEntity
  8
VERMASSUNG
100
AcDbMText
 10
239.7189615758
 20
110.2797934036
 30
0.0
 40
2.0
 41
0.0
 71
     1
 72
     1
  1
%%c
  7
SLDTEXTSTYLE0
 11
-8.269460797427576E-16
 21
1.0
 31
0.0
 73
     1
 44
1.0
  0
MTEXT
  5
246
330
23D
100
AcDbEntity
  8
VERMASSUNG
100
AcDbMText
 10
239.5189616245
 20
113.8897934179
 30
0.0
 40
2.0
 41
0.0
 71
     1
 72
     1
  1
65
  7
SLDTEXTSTYLE0
 11
-8.269460797427576E-16
 21
1.0
 31
0.0
 73
     1
 44
1.0
  0
ENDBLK
  5
23F
330
23D
100
AcDbEntity
  8
0
100
AcDbBlockEnd
  0
BLOCK
  5
249
330
248
100
AcDbEntity
  8
0
100
AcDbBlockBegin
  2
_D_2
 70
     0
 10
0.0
 20
0.0
 30
0.0
  3
_D_2
  1

  0
SOLID
  5
24B
330
248
100
AcDbEntity
  8
VERMASSUNG
100
AcDbTrace
 10
63.9309083283
 20
144.9847933609
 30
0.0
 11
63.4809083283
 21
141.9847933609
 31
0.0
 12
64.3809083283
 22
141.9847933609
 32
0.0
 13
64.3809083283
 23
141.9847933609
 33
0.0
  0
SOLID
  5
24C
330
248
100
AcDbEntity
  8
VERMASSUNG
100
AcDbTrace
 10
63.9309083283
 20
81.9847933609
 30
0.0
 11
64.3809083283
 21
84.9847933609
 31
0.0
 12
63.4809083283
 22
84.9847933609
 32
0.0
 13
63.4809083283
 23
84.9847933609
 33
0.0
  0
LINE
  5
24D
330
248
100
AcDbEntity
  8
VERMASSUNG
100
AcDbLine
 10
143.8809333283
 20
144.9847933609
 30
0.0
 11
62.9309083283
 21
144.9847933609
 31
0.0
  0
LINE
  5
24E
330
248
100
AcDbEntity
  8
VERMASSUNG
100
AcDbLine
 10
143.8809333283
 20
81.9847933609
 30
0.0
 11
62.9309083283
 21
81.9847933609
 31
0.0
  0
LINE
  5
24F
330
248
100
AcDbEntity
  8
VERMASSUNG
100
AcDbLine
 10
63.9309083283
 20
144.9847933609
 30
0.0
 11
63.9309083283
 21
81.9847933609
 31
0.0
  0
MTEXT
  5
250
330
248
100
AcDbEntity
  8
VERMASSUNG
100
AcDbMText
 10
61.152773072
 20
105.3797947425
 30
0.0
 40
2.0
 41
0.0
 71
     1
 72
     1
  1
KM
  7
SLDTEXTSTYLE0
 11
-7.044195017643634E-15
 21
1.0
 31
0.0
 73
     1
 44
1.0
  0
MTEXT
  5
251
330
248
100
AcDbEntity
  8
VERMASSUNG
100
AcDbMText
 10
61.3527730233
 20
108.7797945547
 30
0.0
 40
2.0
 41
0.0
 71
     1
 72
     1
  1
%%c
  7
SLDTEXTSTYLE0
 11
-7.044195017643634E-15
 21
1.0
 31
0.0
 73
     1
 44
1.0
  0
MTEXT
  5
252
330
248
100
AcDbEntity
  8
VERMASSUNG
100
AcDbMText
 10
61.152773072
 20
112.3897945691
 30
0.0
 40
2.0
 41
0.0
 71
     1
 72
     1
  1
63
  7
SLDTEXTSTYLE0
 11
-7.044195017643634E-15
 21
1.0
 31
0.0
 73
     1
 44
1.0
  0
MTEXT
  5
253
330
248
100
AcDbEntity
  8
VERMASSUNG
100
AcDbMText
 10
61.152773072
 20
116.3772944692
 30
0.0
 40
2.0
 41
0.0
 71
     1
 72
     1
  1
XMZ
  7
SLDTEXTSTYLE0
 11
-7.044195017643634E-15
 21
1.0
 31
0.0
 73
     1
 44
1.0
  0
ENDBLK
  5
24A
330
248
100
AcDbEntity
  8
0
100
AcDbBlockEnd
  0
BLOCK
  5
256
330
255
100
AcDbEntity
  8
0
100
AcDbBlockBegin
  2
_D_3
 70
     0
 10
0.0
 20
0.0
 30
0.0
  3
_D_3
  1

  0
SOLID
  5
258
330
255
100
AcDbEntity
  8
VERMASSUNG
100
AcDbTrace
 10
125.8809333283
 20
164.1037878075
 30
0.0
 11
128.8809333283
 21
163.6537878075
 31
0.0
 12
128.8809333283
 22
164.5537878075
 32
0.0
 13
128.8809333283
 23
164.5537878075
 33
0.0
  0
SOLID
  5
259
330
255
100
AcDbEntity
  8
VERMASSUNG
100
AcDbTrace
 10
205.8809333283
 20
164.1037878075
 30
0.0
 11
202.8809333283
 21
164.5537878075
 31
0.0
 12
202.8809333283
 22
163.6537878075
 32
0.0
 13
202.8809333283
 23
163.6537878075
 33
0.0
  0
LINE
  5
25A
330
255
100
AcDbEntity
  8
VERMASSUNG
100
AcDbLine
 10
125.8809333283
 20
144.7597933609
 30
0.0
 11
125.8809333283
 21
165.1037878075
 31
0.0
  0
LINE
  5
25B
330
255
100
AcDbEntity
  8
VERMASSUNG
100
AcDbLine
 10
205.8809333283
 20
135.1563662361
 30
0.0
 11
205.8809333283
 21
165.1037878075
 31
0.0
  0
LINE
  5
25C
330
255
100
AcDbEntity
  8
VERMASSUNG
100
AcDbLine
 10
125.8809333283
 20
164.1037878075
 30
0.0
 11
205.8809333283
 21
164.1037878075
 31
0.0
  0
MTEXT
  5
25D
330
255
100
AcDbEntity
  8
VERMASSUNG
100
AcDbMText
 10
164.4809333782
 20
166.6819234035
 30
0.0
 40
2.0
 41
0.0
 71
     1
 72
     1
  1
80
  7
SLDTEXTSTYLE0
 73
     1
 44
1.0
  0
ENDBLK
  5
257
330
255
100
AcDbEntity
  8
0
100
AcDbBlockEnd
  0
BLOCK
  5
260
330
25F
100
AcDbEntity
  8
0
100
AcDbBlockBegin
  2
_D_4
 70
     0
 10
0.0
 20
0.0
 30
0.0
  3
_D_4
  1

  0
SOLID
  5
262
330
25F
100
AcDbEntity
  8
VERMASSUNG
100
AcDbTrace
 10
143.8809333283
 20
154.6121993717
 30
0.0
 11
146.8809333283
 21
154.1621993717
 31
0.0
 12
146.8809333283
 22
155.0621993717
 32
0.0
 13
146.8809333283
 23
155.0621993717
 33
0.0
  0
SOLID
  5
263
330
25F
100
AcDbEntity
  8
VERMASSUNG
100
AcDbTrace
 10
205.8809333283
 20
154.6121993717
 30
0.0
 11
202.8809333283
 21
155.0621993717
 31
0.0
 12
202.8809333283
 22
154.1621993717
 32
0.0
 13
202.8809333283
 23
154.1621993717
 33
0.0
  0
LINE
  5
264
330
25F
100
AcDbEntity
  8
VERMASSUNG
100
AcDbLine
 10
143.8809333283
 20
144.9847933609
 30
0.0
 11
143.8809333283
 21
155.6121993717
 31
0.0
  0
LINE
  5
265
330
25F
100
AcDbEntity
  8
VERMASSUNG
100
AcDbLine
 10
205.8809333283
 20
135.1563662361
 30
0.0
 11
205.8809333283
 21
155.6121993717
 31
0.0
  0
LINE
  5
266
330
25F
100
AcDbEntity
  8
VERMASSUNG
100
AcDbLine
 10
143.8809333283
 20
154.6121993717
 30
0.0
 11
205.8809333283
 21
154.6121993717
 31
0.0
  0
MTEXT
  5
267
330
25F
100
AcDbEntity
  8
VERMASSUNG
100
AcDbMText
 10
173.4809333782
 20
157.1903349677
 30
0.0
 40
2.0
 41
0.0
 71
     1
 72
     1
  1
62
  7
SLDTEXTSTYLE0
 73
     1
 44
1.0
  0
ENDBLK
  5
261
330
25F
100
AcDbEntity
  8
0
100
AcDbBlockEnd
  0
BLOCK
  5
26A
330
269
100
AcDbEntity
  8
0
100
AcDbBlockBegin
  2
_D_5
 70
     0
 10
0.0
 20
0.0
 30
0.0
  3
_D_5
  1

  0
SOLID
  5
26C
330
269
100
AcDbEntity
  8
VERMASSUNG
100
AcDbTrace
 10
85.9309333283
 20
171.6801206079
 30
0.0
 11
88.9309333283
 21
171.2301206079
 31
0.0
 12
88.9309333283
 22
172.1301206079
 32
0.0
 13
88.9309333283
 23
172.1301206079
 33
0.0
  0
SOLID
  5
26D
330
269
100
AcDbEntity
  8
VERMASSUNG
100
AcDbTrace
 10
205.8809333283
 20
171.6801206079
 30
0.0
 11
202.8809333283
 21
172.1301206079
 31
0.0
 12
202.8809333283
 22
171.2301206079
 32
0.0
 13
202.8809333283
 23
171.2301206079
 33
0.0
  0
LINE
  5
26E
330
269
100
AcDbEntity
  8
VERMASSUNG
100
AcDbLine
 10
85.9309333283
 20
135.6878880847
 30
0.0
 11
85.9309333283
 21
172.6801206079
 31
0.0
  0
LINE
  5
26F
330
269
100
AcDbEntity
  8
VERMASSUNG
100
AcDbLine
 10
205.8809333283
 20
135.1563662361
 30
0.0
 11
205.8809333283
 21
172.6801206079
 31
0.0
  0
LINE
  5
270
330
269
100
AcDbEntity
  8
VERMASSUNG
100
AcDbLine
 10
85.9309333283
 20
171.6801206079
 30
0.0
 11
205.8809333283
 21
171.6801206079
 31
0.0
  0
MTEXT
  5
271
330
269
100
AcDbEntity
  8
VERMASSUNG
100
AcDbMText
 10
142.5059332832
 20
174.2582562039
 30
0.0
 40
2.0
 41
0.0
 71
     1
 72
     1
  1
119.95
  7
SLDTEXTSTYLE0
 73
     1
 44
1.0
  0
ENDBLK
  5
26B
330
269
100
AcDbEntity
  8
0
100
AcDbBlockEnd
  0
ENDSEC
  0
SECTION
  2
ENTITIES
  0
MTEXT
  5
78
330
1F
100
AcDbEntity
  8
KOPF_DÜNN
100
AcDbMText
 10
13.8892156294
 20
23.8442973028
 30
0.0
 40
3.0
 41
0.0
 71
     1
 72
     1
  1
KY6.W25.K01.080
  7
SLDTEXTSTYLE0
 73
     1
 44
1.0
  0
MTEXT
  5
79
330
1F
100
AcDbEntity
  8
VERMASSUNG
100
AcDbMText
 10
13.9329988022
 20
28.8834360957
 30
0.0
 40
3.0
 41
0.0
 71
     1
 72
     1
  1
Flächenspannfutter Weldon_End mill adapter Weldon
  7
SLDTEXTSTYLE0
 73
     1
 44
1.0
  0
MTEXT
  5
7A
330
1F
100
AcDbEntity
  8
VERMASSUNG
100
AcDbMText
 10
98.8601118557
 20
13.8365368761
 30
0.0
 40
2.0
 41
0.0
 71
     1
 72
     1
  1
Datum: 16.02.2018
  7
SLDTEXTSTYLE0
 73
     1
 44
1.0
  0
MTEXT
  5
7B
330
1F
100
AcDbEntity
  8
VERMASSUNG
100
AcDbMText
 10
13.933048693
 20
18.0482802738
 30
0.0
 40
2.0
 41
0.0
 71
     1
 72
     1
  1
KM63 XMZ / Ø25
  7
SLDTEXTSTYLE0
 73
     1
 44
1.0
  0
MTEXT
  5
7C
330
1F
100
AcDbEntity
  8
VERMASSUNG
100
AcDbMText
 10
13.9808475933
 20
13.9090974274
 30
0.0
 40
2.0
 41
0.0
 71
     1
 72
     1
  1
Gewicht: 1916g
  7
SLDTEXTSTYLE0
 73
     1
 44
1.0
  0
LINE
  5
7D
330
1F
100
AcDbEntity
  8
0
  6
Continuous
 62
     7
370
    25
100
AcDbLine
 10
380.5675164511
 20
129.3257879165
 30
0.0
 11
380.0675168348
 21
129.8257870672
 31
0.0
  0
LINE
  5
7E
330
1F
100
AcDbEntity
  8
0
  6
Continuous
 62
     7
370
    25
100
AcDbLine
 10
372.0675164548
 20
129.8257870672
 30
0.0
 11
371.5675168385
 21
129.3257879165
 31
0.0
  0
LINE
  5
7F
330
1F
100
AcDbEntity
  8
0
  6
Continuous
 62
     7
370
    25
100
AcDbLine
 10
371.5675168385
 20
129.3257879165
 30
0.0
 11
371.5675168385
 21
129.1778231112
 31
0.0
  0
LINE
  5
80
330
1F
100
AcDbEntity
  8
0
  6
Continuous
 62
     7
370
    25
100
AcDbLine
 10
380.5675164511
 20
129.1778231112
 30
0.0
 11
380.5675164511
 21
129.3257879165
 31
0.0
  0
LINE
  5
81
330
1F
100
AcDbEntity
  8
0
  6
Continuous
 62
     7
370
    25
100
AcDbLine
 10
380.5675164511
 20
129.4703906474
 30
0.0
 11
380.0675168348
 21
129.970389798
 31
0.0
  0
LINE
  5
82
330
1F
100
AcDbEntity
  8
0
  6
Continuous
 62
     7
370
    25
100
AcDbLine
 10
372.0675164548
 20
129.970389798
 30
0.0
 11
371.5675168385
 21
129.4703906474
 31
0.0
  0
LINE
  5
83
330
1F
100
AcDbEntity
  8
0
  6
Continuous
 62
     7
370
    25
100
AcDbLine
 10
371.5675168385
 20
129.4703906474
 30
0.0
 11
371.5675168385
 21
129.3257879165
 31
0.0
  0
LINE
  5
84
330
1F
100
AcDbEntity
  8
0
  6
Continuous
 62
     7
370
    25
100
AcDbLine
 10
380.5675164511
 20
129.3257879165
 30
0.0
 11
380.5675164511
 21
129.4703906474
 31
0.0
  0
LINE
  5
85
330
1F
100
AcDbEntity
  8
0
  6
Continuous
 62
     7
370
    25
100
AcDbLine
 10
372.0675164548
 20
129.8257870672
 30
0.0
 11
380.0675168348
 21
129.8257870672
 31
0.0
  0
LINE
  5
86
330
1F
100
AcDbEntity
  8
0
  6
Continuous
 62
     7
370
    25
100
AcDbLine
 10
371.5675168385
 20
129.3257879165
 30
0.0
 11
372.1169100789
 21
129.3257879165
 31
0.0
  0
LINE
  5
87
330
1F
100
AcDbEntity
  8
0
  6
Continuous
 62
     7
370
    25
100
AcDbLine
 10
380.0181232107
 20
129.3257879165
 30
0.0
 11
380.5675164511
 21
129.3257879165
 31
0.0
  0
LINE
  5
88
330
1F
100
AcDbEntity
  8
0
  6
Continuous
 62
     7
370
    25
100
AcDbLine
 10
372.0675164548
 20
129.970389798
 30
0.0
 11
380.0675168348
 21
129.970389798
 31
0.0
  0
LINE
  5
89
330
1F
100
AcDbEntity
  8
0
  6
Continuous
 62
     7
370
    25
100
AcDbLine
 10
371.582249896
 20
129.4703906474
 30
0.0
 11
371.7121195694
 21
129.4703906474
 31
0.0
  0
LINE
  5
8A
330
1F
100
AcDbEntity
  8
0
  6
Continuous
 62
     7
370
    25
100
AcDbLine
 10
380.4229137202
 20
129.4703906474
 30
0.0
 11
380.5675164511
 21
129.4703906474
 31
0.0
  0
LINE
  5
8B
330
1F
100
AcDbEntity
  8
0
  6
Continuous
 62
     7
370
    25
100
AcDbLine
 10
371.5675168385
 20
129.4703906474
 30
0.0
 11
371.582249896
 21
129.4703906474
 31
0.0
  0
LINE
  5
8C
330
1F
100
AcDbEntity
  8
0
  6
Continuous
 62
     7
370
    25
100
AcDbLine
 10
365.6783767691
 20
109.1933249568
 30
0.0
 11
365.4730909219
 21
109.0021623836
 31
0.0
  0
LINE
  5
8D
330
1F
100
AcDbEntity
  8
0
  6
Continuous
 62
     7
370
    25
100
AcDbLine
 10
365.9364034136
 20
109.0240631325
 30
0.0
 11
365.6783767691
 21
109.1933249568
 31
0.0
  0
ARC
  5
8E
330
1F
100
AcDbEntity
  8
0
  6
Continuous
 62
     7
370
    25
100
AcDbCircle
 10
376.0675166448
 20
113.5633257885
 30
0.0
 40
11.10154736189901
100
AcDbArc
 50
204.1348482805
 51
335.8651517195
  0
LINE
  5
8F
330
1F
100
AcDbEntity
  8
0
  6
Continuous
 62
     7
370
    25
100
AcDbLine
 10
386.4566565206
 20
109.1933249568
 30
0.0
 11
386.198629876
 21
109.0240631325
 31
0.0
  0
LINE
  5
90
330
1F
100
AcDbEntity
  8
0
  6
Continuous
 62
     7
370
    25
100
AcDbLine
 10
386.6619423678
 20
109.0021623836
 30
0.0
 11
386.4566565206
 21
109.1933249568
 31
0.0
  0
ARC
  5
91
330
1F
100
AcDbEntity
  8
0
  6
Continuous
 62
     7
370
    25
100
AcDbCircle
 10
376.0675166448
 20
113.5633257885
 30
0.0
 40
11.53456006379121
100
AcDbArc
 50
203.2930774359
 51
336.7074733161
  0
LINE
  5
92
330
1F
100
AcDbEntity
  8
0
  6
Continuous
 62
     7
370
    25
100
AcDbLine
 10
367.6439218869
 20
109.2410503493
 30
0.0
 11
367.0240550017
 21
109.0240631325
 31
0.0
  0
LINE
  5
93
330
1F
100
AcDbEntity
  8
0
  6
Continuous
 62
     7
370
    25
100
AcDbLine
 10
367.0240550017
 20
109.0240631325
 30
0.0
 11
365.9364034136
 21
109.0240631325
 31
0.0
  0
LINE
  5
94
330
1F
100
AcDbEntity
  8
0
  6
Continuous
 62
     7
370
    25
100
AcDbLine
 10
365.9014313196
 20
109.4570757428
 30
0.0
 11
365.6783767691
 21
109.1933249568
 31
0.0
  0
LINE
  5
95
330
1F
100
AcDbEntity
  8
0
  6
Continuous
 62
     7
370
    25
100
AcDbLine
 10
367.6690415194
 20
109.4570757428
 30
0.0
 11
365.9016464552
 21
109.4570757428
 31
0.0
  0
LINE
  5
96
330
1F
100
AcDbEntity
  8
0
  6
Continuous
 62
     7
370
    25
100
AcDbLine
 10
367.6796986436
 20
109.299494799
 30
0.0
 11
367.6690415194
 21
109.4570757428
 31
0.0
  0
LINE
  5
97
330
1F
100
AcDbEntity
  8
0
  6
Continuous
 62
     7
370
    25
100
AcDbLine
 10
367.6807985356
 20
109.3012885263
 30
0.0
 11
367.6439218869
 21
109.2410503493
 31
0.0
  0
ARC
  5
98
330
1F
100
AcDbEntity
  8
0
  6
Continuous
 62
     7
370
    25
100
AcDbCircle
 10
376.0675166448
 20
113.5633257885
 30
0.0
 40
11.10154736189904
100
AcDbArc
 50
29.4783538465
 51
150.5216461535
  0
LINE
  5
99
330
1F
100
AcDbEntity
  8
0
  6
Continuous
 62
     7
370
    25
100
AcDbLine
 10
366.091583175
 20
118.8416251985
 30
0.0
 11
366.4031571423
 21
119.0263385957
 31
0.0
  0
LINE
  5
9A
330
1F
100
AcDbEntity
  8
0
  6
Continuous
 62
     7
370
    25
100
AcDbLine
 10
365.9030471643
 20
119.0158146506
 30
0.0
 11
366.091583175
 21
118.8416251985
 31
0.0
  0
ARC
  5
9B
330
1F
100
AcDbEntity
  8
0
  6
Continuous
 62
     7
370
    25
100
AcDbCircle
 10
376.0675166448
 20
113.5633257885
 30
0.0
 40
11.53456006379119
100
AcDbArc
 50
28.2102805322
 51
151.7902347364
  0
LINE
  5
9C
330
1F
100
AcDbEntity
  8
0
  6
Continuous
 62
     7
370
    25
100
AcDbLine
 10
386.0434501147
 20
118.8416251985
 30
0.0
 11
386.2319861253
 21
119.0158146506
 31
0.0
  0
LINE
  5
9D
330
1F
100
AcDbEntity
  8
0
  6
Continuous
 62
     7
370
    25
100
AcDbLine
 10
385.7318761473
 20
119.0263385957
 30
0.0
 11
386.0434501147
 21
118.8416251985
 31
0.0
  0
LINE
  5
9E
330
1F
100
AcDbEntity
  8
0
  6
Continuous
 62
     7
370
    25
100
AcDbLine
 10
366.091583175
 20
118.8416251985
 30
0.0
 11
366.2999917468
 21
118.5933257525
 31
0.0
  0
LINE
  5
9F
330
1F
100
AcDbEntity
  8
0
  6
Continuous
 62
     7
370
    25
100
AcDbLine
 10
367.5502056902
 20
119.0263385957
 30
0.0
 11
366.4031571423
 21
119.0263385957
 31
0.0
  0
LINE
  5
A0
330
1F
100
AcDbEntity
  8
0
  6
Continuous
 62
     7
370
    25
100
AcDbLine
 10
367.5502056902
 20
119.0263385957
 30
0.0
 11
368.1860047107
 21
118.809351146
 31
0.0
  0
LINE
  5
A1
330
1F
100
AcDbEntity
  8
0
  6
Continuous
 62
     7
370
    25
100
AcDbLine
 10
368.1860047107
 20
118.809351146
 30
0.0
 11
368.1941575085
 21
118.794138923
 31
0.0
  0
LINE
  5
A2
330
1F
100
AcDbEntity
  8
0
  6
Continuous
 62
     7
370
    25
100
AcDbLine
 10
368.1917872926
 20
118.5933257525
 30
0.0
 11
368.1941584399
 21
118.794138923
 31
0.0
  0
LINE
  5
A3
330
1F
100
AcDbEntity
  8
0
  6
Continuous
 62
     7
370
    25
100
AcDbLine
 10
368.1917872926
 20
118.5933257525
 30
0.0
 11
366.2999917468
 21
118.5933257525
 31
0.0
  0
LINE
  5
A4
330
1F
100
AcDbEntity
  8
0
  6
Continuous
 62
     7
370
    25
100
AcDbLine
 10
383.9490285789
 20
118.809351146
 30
0.0
 11
384.5848275995
 21
119.0263385957
 31
0.0
  0
LINE
  5
A5
330
1F
100
AcDbEntity
  8
0
  6
Continuous
 62
     7
370
    25
100
AcDbLine
 10
385.7318761473
 20
119.0263385957
 30
0.0
 11
384.5848275995
 21
119.0263385957
 31
0.0
  0
LINE
  5
A6
330
1F
100
AcDbEntity
  8
0
  6
Continuous
 62
     7
370
    25
100
AcDbLine
 10
385.8350415429
 20
118.5933257525
 30
0.0
 11
386.0434501147
 21
118.8416251985
 31
0.0
  0
LINE
  5
A7
330
1F
100
AcDbEntity
  8
0
  6
Continuous
 62
     7
370
    25
100
AcDbLine
 10
385.8348515531
 20
118.5933257525
 30
0.0
 11
383.9432459971
 21
118.5933257525
 31
0.0
  0
LINE
  5
A8
330
1F
100
AcDbEntity
  8
0
  6
Continuous
 62
     7
370
    25
100
AcDbLine
 10
383.9408748498
 20
118.794138923
 30
0.0
 11
383.9432459971
 21
118.5933257525
 31
0.0
  0
LINE
  5
A9
330
1F
100
AcDbEntity
  8
0
  6
Continuous
 62
     7
370
    25
100
AcDbLine
 10
383.9408757811
 20
118.7941384574
 30
0.0
 11
383.9490285789
 21
118.809351146
 31
0.0
  0
LINE
  5
AA
330
1F
100
AcDbEntity
  8
0
  6
Continuous
 62
     7
370
    25
100
AcDbLine
 10
386.4566565206
 20
109.1933249568
 30
0.0
 11
386.23360197
 21
109.4570757428
 31
0.0
  0
LINE
  5
AB
330
1F
100
AcDbEntity
  8
0
  6
Continuous
 62
     7
370
    25
100
AcDbLine
 10
386.198629876
 20
109.0240631325
 30
0.0
 11
385.110978288
 21
109.0240631325
 31
0.0
  0
LINE
  5
AC
330
1F
100
AcDbEntity
  8
0
  6
Continuous
 62
     7
370
    25
100
AcDbLine
 10
385.110978288
 20
109.0240631325
 30
0.0
 11
384.4911114027
 21
109.2410503493
 31
0.0
  0
LINE
  5
AD
330
1F
100
AcDbEntity
  8
0
  6
Continuous
 62
     7
370
    25
100
AcDbLine
 10
384.4911114027
 20
109.2410503493
 30
0.0
 11
384.455334646
 21
109.299494799
 31
0.0
  0
LINE
  5
AE
330
1F
100
AcDbEntity
  8
0
  6
Continuous
 62
     7
370
    25
100
AcDbLine
 10
384.4659917703
 20
109.4570757428
 30
0.0
 11
384.455334646
 21
109.299494799
 31
0.0
  0
LINE
  5
AF
330
1F
100
AcDbEntity
  8
0
  6
Continuous
 62
     7
370
    25
100
AcDbLine
 10
386.23360197
 20
109.4570757428
 30
0.0
 11
384.4608834659
 21
109.4570757428
 31
0.0
  0
ARC
  5
B0
330
1F
100
AcDbEntity
  8
0
  6
Continuous
 62
     7
370
    25
100
AcDbCircle
 10
376.0675166448
 20
113.5633257885
 30
0.0
 40
10.11875000000005
100
AcDbArc
 50
206.6538426687
 51
333.3461573313
  0
ARC
  5
B1
330
1F
100
AcDbEntity
  8
0
  6
Continuous
 62
     7
370
    25
100
AcDbCircle
 10
376.0675166448
 20
113.5633257885
 30
0.0
 40
10.11875000000003
100
AcDbArc
 50
32.6761561262
 51
147.3238438738
  0
ARC
  5
B2
330
1F
100
AcDbEntity
  8
0
  6
Continuous
 62
     7
370
    25
100
AcDbCircle
 10
376.0675166448
 20
113.5633257885
 30
0.0
 40
9.467788105676709
100
AcDbArc
 50
207.1630537883
 51
332.8369462117
  0
ARC
  5
B3
330
1F
100
AcDbEntity
  8
0
  6
Continuous
 62
     7
370
    25
100
AcDbCircle
 10
376.0675166448
 20
113.5633257885
 30
0.0
 40
9.467788105676739
100
AcDbArc
 50
33.6481949792
 51
146.3518050208
  0
LINE
  5
B4
330
1F
100
AcDbEntity
  8
0
  6
Continuous
 62
     7
370
    25
100
AcDbLine
 10
365.4730909219
 20
109.0021623836
 30
0.0
 11
365.3132070502
 21
109.0045572796
 31
0.0
  0
LINE
  5
B5
330
1F
100
AcDbEntity
  8
0
  6
Continuous
 62
     7
370
    25
100
AcDbLine
 10
365.7412941282
 20
109.4570757428
 30
0.0
 11
365.9014313196
 21
109.4570757428
 31
0.0
  0
LINE
  5
B6
330
1F
100
AcDbEntity
  8
0
  6
Continuous
 62
     7
370
    25
100
AcDbLine
 10
386.23360197
 20
109.4570757428
 30
0.0
 11
386.3937391614
 21
109.4570757428
 31
0.0
  0
LINE
  5
B7
330
1F
100
AcDbEntity
  8
0
  6
Continuous
 62
     7
370
    25
100
AcDbLine
 10
386.8218262395
 20
109.0045572796
 30
0.0
 11
386.6619423678
 21
109.0021623836
 31
0.0
  0
LINE
  5
B8
330
1F
100
AcDbEntity
  8
0
  6
Continuous
 62
     7
370
    25
100
AcDbLine
 10
386.2319861253
 20
119.0158146506
 30
0.0
 11
386.3552075525
 21
119.0137713288
 31
0.0
  0
LINE
  5
B9
330
1F
100
AcDbEntity
  8
0
  6
Continuous
 62
     7
370
    25
100
AcDbLine
 10
385.9584585478
 20
118.5933257525
 30
0.0
 11
385.8350415429
 21
118.5933257525
 31
0.0
  0
LINE
  5
BA
330
1F
100
AcDbEntity
  8
0
  6
Continuous
 62
     7
370
    25
100
AcDbLine
 10
366.2999917468
 20
118.5933257525
 30
0.0
 11
366.1765747418
 21
118.5933257525
 31
0.0
  0
LINE
  5
BB
330
1F
100
AcDbEntity
  8
0
  6
Continuous
 62
     7
370
    25
100
AcDbLine
 10
365.7798257371
 20
119.0137713288
 30
0.0
 11
365.9030471643
 21
119.0158146506
 31
0.0
  0
LINE
  5
BC
330
1F
100
AcDbEntity
  8
0
  6
Continuous
 62
     7
370
    25
100
AcDbLine
 10
383.1731060234
 20
118.7864424733
 30
0.0
 11
383.9408757811
 21
118.794138923
 31
0.0
  0
ARC
  5
BD
330
1F
100
AcDbEntity
  8
0
  6
Continuous
 62
     7
370
    25
100
AcDbCircle
 10
376.0675166448
 20
113.5633257885
 30
0.0
 40
8.818750000000001
100
AcDbArc
 50
36.3185452201
 51
143.6814533294
  0
LINE
  5
BE
330
1F
100
AcDbEntity
  8
0
  6
Continuous
 62
     7
370
    25
100
AcDbLine
 10
368.1941575085
 20
118.794138923
 30
0.0
 11
368.9619272662
 21
118.7864429389
 31
0.0
  0
LINE
  5
BF
330
1F
100
AcDbEntity
  8
0
  6
Continuous
 62
     7
370
    25
100
AcDbLine
 10
368.9619268005
 20
118.7864424733
 30
0.0
 11
368.9387145167
 21
118.7547160385
 31
0.0
  0
LINE
  5
C0
330
1F
100
AcDbEntity
  8
0
  6
Continuous
 62
     7
370
    25
100
AcDbLine
 10
368.7671565165
 20
118.5933262182
 30
0.0
 11
368.9387145167
 21
118.7547160385
 31
0.0
  0
LINE
  5
C1
330
1F
100
AcDbEntity
  8
0
  6
Continuous
 62
     7
370
    25
100
AcDbLine
 10
368.7671574479
 20
118.5933257525
 30
0.0
 11
368.1917872926
 21
118.5933257525
 31
0.0
  0
LINE
  5
C2
330
1F
100
AcDbEntity
  8
0
  6
Continuous
 62
     7
370
    25
100
AcDbLine
 10
383.196434257
 20
118.754557248
 30
0.0
 11
383.1731064891
 21
118.7864420076
 31
0.0
  0
LINE
  5
C3
330
1F
100
AcDbEntity
  8
0
  6
Continuous
 62
     7
370
    25
100
AcDbLine
 10
383.9432459971
 20
118.5933257525
 30
0.0
 11
383.3678474364
 21
118.5933257525
 31
0.0
  0
LINE
  5
C4
330
1F
100
AcDbEntity
  8
0
  6
Continuous
 62
     7
370
    25
100
AcDbLine
 10
383.196434257
 20
118.754557248
 30
0.0
 11
383.3678479021
 21
118.5933262182
 31
0.0
  0
ARC
  5
C5
330
1F
100
AcDbEntity
  8
0
  6
Continuous
 62
     7
370
    25
100
AcDbCircle
 10
376.0675166448
 20
113.5633257885
 30
0.0
 40
8.818750000000039
100
AcDbArc
 50
209.2047569376
 51
330.7952430624
  0
LINE
  5
C6
330
1F
100
AcDbEntity
  8
0
  6
Continuous
 62
     7
370
    25
100
AcDbLine
 10
383.8086521899
 20
109.3037854021
 30
0.0
 11
383.7652409164
 21
109.2603743614
 31
0.0
  0
LINE
  5
C7
330
1F
100
AcDbEntity
  8
0
  6
Continuous
 62
     7
370
    25
100
AcDbLine
 10
384.455334646
 20
109.299494799
 30
0.0
 11
383.8086521899
 21
109.3037849364
 31
0.0
  0
LINE
  5
C8
330
1F
100
AcDbEntity
  8
0
  6
Continuous
 62
     7
370
    25
100
AcDbLine
 10
368.3263810997
 20
109.3037849364
 30
0.0
 11
367.6796986436
 21
109.299494799
 31
0.0
  0
LINE
  5
C9
330
1F
100
AcDbEntity
  8
0
  6
Continuous
 62
     7
370
    25
100
AcDbLine
 10
368.3697923733
 20
109.2603743614
 30
0.0
 11
368.3263810997
 21
109.3037854021
 31
0.0
  0
LINE
  5
CA
330
1F
100
AcDbEntity
  8
0
  6
Continuous
 62
     7
370
    25
100
AcDbLine
 10
367.6690415194
 20
109.4570757428
 30
0.0
 11
368.1730909919
 21
109.4570757428
 31
0.0
  0
LINE
  5
CB
330
1F
100
AcDbEntity
  8
0
  6
Continuous
 62
     7
370
    25
100
AcDbLine
 10
368.3263815654
 20
109.3037851693
 30
0.0
 11
368.1730909919
 21
109.4570757428
 31
0.0
  0
LINE
  5
CC
330
1F
100
AcDbEntity
  8
0
  6
Continuous
 62
     7
370
    25
100
AcDbLine
 10
383.9619422977
 20
109.4570757428
 30
0.0
 11
383.8086517242
 21
109.3037851693
 31
0.0
  0
LINE
  5
CD
330
1F
100
AcDbEntity
  8
0
  6
Continuous
 62
     7
370
    25
100
AcDbLine
 10
383.9619422977
 20
109.4570757428
 30
0.0
 11
384.4659917703
 21
109.4570757428
 31
0.0
  0
CIRCLE
  5
CE
330
1F
100
AcDbEntity
  8
0
  6
Continuous
 62
     7
370
    25
100
AcDbCircle
 10
376.0675166448
 20
113.5633257885
 30
0.0
 40
12.47086902276413
  0
SPLINE
  5
CF
330
1F
100
AcDbEntity
  8
0
  6
Continuous
 62
     7
370
    25
100
AcDbSpline
210
0.0
220
0.0
230
1.0
 70
     8
 71
     3
 72
    11
 73
     7
 74
     0
 42
0.000000001
 43
0.00000001
 40
0.0
 40
0.0
 40
0.0
 40
0.0
 40
0.2551427789551173
 40
0.5038836995657299
 40
0.7567715646677659
 40
1.0
 40
1.0
 40
1.0
 40
1.0
 10
365.2282648434513
 20
118.053736544902
 30
0.0
 10
365.2933946322589
 20
118.1917231443222
 30
0.0
 10
365.4220200202504
 20
118.4642340830643
 30
0.0
 10
365.5926537607316
 20
118.7650367015498
 30
0.0
 10
365.7286745541563
 20
118.9757149802497
 30
0.0
 10
365.7629981036728
 20
119.0012516128287
 30
0.0
 10
365.7798257371061
 20
119.0137713288316
 30
0.0
  0
LINE
  5
D0
330
1F
100
AcDbEntity
  8
0
  6
Continuous
 62
     7
370
    25
100
AcDbLine
 10
365.1076269051
 20
118.0515260508
 30
0.0
 11
365.2281130379
 21
118.0532680896
 31
0.0
  0
SPLINE
  5
D1
330
1F
100
AcDbEntity
  8
0
  6
Continuous
 62
     7
370
    25
100
AcDbSpline
210
0.0
220
0.0
230
1.0
 70
     8
 71
     3
 72
    10
 73
     6
 74
     0
 42
0.000000001
 43
0.00000001
 40
0.0
 40
0.0
 40
0.0
 40
0.0
 40
0.414728078796385
 40
0.8401307392212987
 40
1.0
 40
1.0
 40
1.0
 40
1.0
 10
365.1605651428573
 20
118.3183429834792
 30
0.0
 10
365.1654909673489
 20
118.3098056615616
 30
0.0
 10
365.1754694008889
 20
118.2925112777465
 30
0.0
 10
365.1441434998245
 20
118.1735261929881
 30
0.0
 10
365.1154914940994
 20
118.0778012702424
 30
0.0
 10
365.1076650892966
 20
118.0516536419639
 30
0.0
  0
LINE
  5
D2
330
1F
100
AcDbEntity
  8
0
  6
Continuous
 62
     7
370
    25
100
AcDbLine
 10
365.1078103756
 20
118.3175955971
 30
0.0
 11
365.1605651429
 21
118.3183429835
 31
0.0
  0
SPLINE
  5
D3
330
1F
100
AcDbEntity
  8
0
  6
Continuous
 62
     7
370
    25
100
AcDbSpline
210
0.0
220
0.0
230
1.0
 70
     8
 71
     3
 72
    15
 73
    11
 74
     0
 42
0.000000001
 43
0.00000001
 40
0.0
 40
0.0
 40
0.0
 40
0.0
 40
0.125801488206713
 40
0.2541092111613231
 40
0.3798711538694796
 40
0.5058139415206608
 40
0.6314435148602704
 40
0.7534448614513228
 40
0.8782757048472282
 40
1.0
 40
1.0
 40
1.0
 40
1.0
 10
364.196848375129
 20
115.7506635950306
 30
0.0
 10
364.2302417891408
 20
115.9181096311485
 30
0.0
 10
364.2976938854036
 20
116.2563375866086
 30
0.0
 10
364.4274157710248
 20
116.7363275398957
 30
0.0
 10
364.5691676063309
 20
117.1781435017126
 30
0.0
 10
364.7147172906313
 20
117.5640796372133
 30
0.0
 10
364.8541577614089
 20
117.8866045611663
 30
0.0
 10
364.974636471478
 20
118.1292833346682
 30
0.0
 10
365.0688641274908
 20
118.2909641653057
 30
0.0
 10
365.0949378006973
 20
118.3087933345673
 30
0.0
 10
365.1078103756182
 20
118.3175955971131
 30
0.0
  0
ARC
  5
D4
330
1F
100
AcDbEntity
  8
0
  6
Continuous
 62
     7
370
    25
100
AcDbCircle
 10
376.0675166448
 20
113.5633257885
 30
0.0
 40
12.07050959801137
100
AcDbArc
 50
169.5595567507
 51
190.4404432494
  0
SPLINE
  5
D5
330
1F
100
AcDbEntity
  8
0
  6
Continuous
 62
     7
370
    25
100
AcDbSpline
210
0.0
220
0.0
230
1.0
 70
     8
 71
     3
 72
    15
 73
    11
 74
     0
 42
0.000000001
 43
0.00000001
 40
0.0
 40
0.0
 40
0.0
 40
0.0
 40
0.1206059491946461
 40
0.2453300395451324
 40
0.3689125984811183
 40
0.4939863247090794
 40
0.619274182472864
 40
0.7455850129274474
 40
0.8735947332400552
 40
1.0
 40
1.0
 40
1.0
 40
1.0
 10
365.1078103756182
 20
108.809056140239
 30
0.0
 10
365.0947293568963
 20
108.8185540560646
 30
0.0
 10
365.0681206625343
 20
108.8378741980696
 30
0.0
 10
364.9742740888541
 20
108.9987307826578
 30
0.0
 10
364.8548644866995
 20
109.2382499436277
 30
0.0
 10
364.7156136208324
 20
109.5598117126411
 30
0.0
 10
364.5698696524332
 20
109.9463409458036
 30
0.0
 10
364.4280128851749
 20
110.3887352220798
 30
0.0
 10
364.2980733196212
 20
110.8696878247362
 30
0.0
 10
364.230447864606
 20
111.2079323320573
 30
0.0
 10
364.196848375129
 20
111.3759880259061
 30
0.0
  0
LINE
  5
D6
330
1F
100
AcDbEntity
  8
0
  6
Continuous
 62
     7
370
    25
100
AcDbLine
 10
365.1605651429
 20
108.808308521
 30
0.0
 11
365.1078103756
 21
108.8090561402
 31
0.0
  0
SPLINE
  5
D7
330
1F
100
AcDbEntity
  8
0
  6
Continuous
 62
     7
370
    25
100
AcDbSpline
210
0.0
220
0.0
230
1.0
 70
     8
 71
     3
 72
    10
 73
     6
 74
     0
 42
0.000000001
 43
0.00000001
 40
0.0
 40
0.0
 40
0.0
 40
0.0
 40
0.1584384028500623
 40
0.5838985783859613
 40
1.0
 40
1.0
 40
1.0
 40
1.0
 10
365.1075682317488
 20
109.0753319745311
 30
0.0
 10
365.1153489699069
 20
109.0493550675338
 30
0.0
 10
365.1440235959291
 20
108.9536214651134
 30
0.0
 10
365.1754011674407
 20
108.8344693348245
 30
0.0
 10
365.165473684198
 20
108.8169639014127
 30
0.0
 10
365.1605651428573
 20
108.8083085210422
 30
0.0
  0
LINE
  5
D8
330
1F
100
AcDbEntity
  8
0
  6
Continuous
 62
     7
370
    25
100
AcDbLine
 10
365.2548736607
 20
109.0732707248
 30
0.0
 11
365.1075468113
 21
109.0754043849
 31
0.0
  0
LINE
  5
D9
330
1F
100
AcDbEntity
  8
0
  6
Continuous
 62
     7
370
    25
100
AcDbLine
 10
365.3132070502
 20
109.0045572796
 30
0.0
 11
365.2548690041
 21
109.0732821335
 31
0.0
  0
LINE
  5
DA
330
1F
100
AcDbEntity
  8
0
  6
Continuous
 62
     7
370
    25
100
AcDbLine
 10
386.8801661482
 20
109.073285626
 30
0.0
 11
386.8218262395
 21
109.0045572796
 31
0.0
  0
LINE
  5
DB
330
1F
100
AcDbEntity
  8
0
  6
Continuous
 62
     7
370
    25
100
AcDbLine
 10
387.0274911349
 20
109.0754046177
 30
0.0
 11
386.8801596289
 21
109.0732709577
 31
0.0
  0
SPLINE
  5
DC
330
1F
100
AcDbEntity
  8
0
  6
Continuous
 62
     7
370
    25
100
AcDbSpline
210
0.0
220
0.0
230
1.0
 70
     8
 71
     3
 72
    10
 73
     6
 74
     0
 42
0.000000001
 43
0.00000001
 40
0.0
 40
0.0
 40
0.0
 40
0.0
 40
0.4145036594205211
 40
0.8396761039805247
 40
1.0
 40
1.0
 40
1.0
 40
1.0
 10
386.9744681467884
 20
108.8083085210422
 30
0.0
 10
386.9695425437652
 20
108.8168464449992
 30
0.0
 10
386.9595645591027
 20
108.8341420479725
 30
0.0
 10
386.9909047067596
 20
108.9531853144747
 30
0.0
 10
387.0195964236555
 20
109.0490312544655
 30
0.0
 10
387.0274529507034
 20
109.0752763280073
 30
0.0
  0
LINE
  5
DD
330
1F
100
AcDbEntity
  8
0
  6
Continuous
 62
     7
370
    25
100
AcDbLine
 10
387.027222914
 20
108.8090561402
 30
0.0
 11
386.9744681468
 21
108.808308521
 31
0.0
  0
SPLINE
  5
DE
330
1F
100
AcDbEntity
  8
0
  6
Continuous
 62
     7
370
    25
100
AcDbSpline
210
0.0
220
0.0
230
1.0
 70
     8
 71
     3
 72
    15
 73
    11
 74
     0
 42
0.000000001
 43
0.00000001
 40
0.0
 40
0.0
 40
0.0
 40
0.0
 40
0.1258015158017775
 40
0.2541092650321466
 40
0.3798712318648673
 40
0.5058139328090534
 40
0.6314435057953127
 40
0.7534448796243227
 40
0.8782757051895941
 40
1.0
 40
1.0
 40
1.0
 40
1.0
 10
387.9381849145167
 20
111.3759880259061
 30
0.0
 10
387.9047915016029
 20
111.2085419493539
 30
0.0
 10
387.8373394080539
 20
110.8703139147072
 30
0.0
 10
387.7076175076911
 20
110.3903238756842
 30
0.0
 10
387.5658657682972
 20
109.9485078151112
 30
0.0
 10
387.4203159312681
 20
109.5625720730079
 30
0.0
 10
387.2808755172935
 20
109.2400472236731
 30
0.0
 10
387.1603968425947
 20
108.9973680581597
 30
0.0
 10
387.06616915354
 20
108.8356876536467
 30
0.0
 10
387.0400954867119
 20
108.8178584301732
 30
0.0
 10
387.0272229140274
 20
108.809056140239
 30
0.0
  0
ARC
  5
DF
330
1F
100
AcDbEntity
  8
0
  6
Continuous
 62
     7
370
    25
100
AcDbCircle
 10
376.0675166448
 20
113.5633257885
 30
0.0
 40
12.07050959801147
100
AcDbArc
 50
349.5595567507
 51
10.4404432493
  0
SPLINE
  5
E0
330
1F
100
AcDbEntity
  8
0
  6
Continuous
 62
     7
370
    25
100
AcDbSpline
210
0.0
220
0.0
230
1.0
 70
     8
 71
     3
 72
    15
 73
    11
 74
     0
 42
0.000000001
 43
0.00000001
 40
0.0
 40
0.0
 40
0.0
 40
0.0
 40
0.1206059560419579
 40
0.2453300300868821
 40
0.3689126173507329
 40
0.4939863446458028
 40
0.6192741601883174
 40
0.74558506534856
 40
0.8735947600992898
 40
1.0
 40
1.0
 40
1.0
 40
1.0
 10
387.0272229140274
 20
118.3175955971131
 30
0.0
 10
387.0403039301227
 20
118.3080975567429
 30
0.0
 10
387.0669126166049
 20
118.2887771632377
 30
0.0
 10
387.1607592256223
 20
118.1279210872494
 30
0.0
 10
387.2801687895576
 20
117.8884015016614
 30
0.0
 10
387.4194196288938
 20
117.5668398115857
 30
0.0
 10
387.5651637307653
 20
117.1803107296052
 30
0.0
 10
387.7070203260488
 20
116.7379162397749
 30
0.0
 10
387.8369599801383
 20
116.2569636957535
 30
0.0
 10
387.9045854285413
 20
115.9187192548152
 30
0.0
 10
387.9381849145167
 20
115.7506635950306
 30
0.0
  0
LINE
  5
E1
330
1F
100
AcDbEntity
  8
0
  6
Continuous
 62
     7
370
    25
100
AcDbLine
 10
386.9744681468
 20
118.3183429835
 30
0.0
 11
387.027222914
 21
118.3175955971
 31
0.0
  0
SPLINE
  5
E2
330
1F
100
AcDbEntity
  8
0
  6
Continuous
 62
     7
370
    25
100
AcDbSpline
210
0.0
220
0.0
230
1.0
 70
     8
 71
     3
 72
    10
 73
     6
 74
     0
 42
0.000000001
 43
0.00000001
 40
0.0
 40
0.0
 40
0.0
 40
0.0
 40
0.1579613763655443
 40
0.5836627175778782
 40
1.0
 40
1.0
 40
1.0
 40
1.0
 10
387.0273756509297
 20
118.0516117324481
 30
0.0
 10
387.0196266898594
 20
118.0774863216857
 30
0.0
 10
386.9909945027968
 20
118.1730921806502
 30
0.0
 10
386.9596312682538
 20
118.2921839404563
 30
0.0
 10
386.9695593229155
 20
118.3096881889695
 30
0.0
 10
386.9744681467884
 20
118.3183429834792
 30
0.0
  0
LINE
  5
E3
330
1F
100
AcDbEntity
  8
0
  6
Continuous
 62
     7
370
    25
100
AcDbLine
 10
386.9069202518
 20
118.0532680896
 30
0.0
 11
387.027401728
 21
118.0515260508
 31
0.0
  0
SPLINE
  5
E4
330
1F
100
AcDbEntity
  8
0
  6
Continuous
 62
     7
370
    25
100
AcDbSpline
210
0.0
220
0.0
230
1.0
 70
     8
 71
     3
 72
    11
 73
     7
 74
     0
 42
0.000000001
 43
0.00000001
 40
0.0
 40
0.0
 40
0.0
 40
0.0
 40
0.2421313859960572
 40
0.4952335776824076
 40
0.7446620712785821
 40
1.0
 40
1.0
 40
1.0
 40
1.0
 10
386.3552075525396
 20
119.0137713288316
 30
0.0
 10
386.3718434223857
 20
119.0015339318476
 30
0.0
 10
386.4058689218386
 20
118.9765046698833
 30
0.0
 10
386.5420998286408
 20
118.7654296163062
 30
0.0
 10
386.7127571709245
 20
118.4647285816245
 30
0.0
 10
386.8415544216565
 20
118.1919251445442
 30
0.0
 10
386.9067069789045
 20
118.0539265347073
 30
0.0
  0
SPLINE
  5
E5
330
1F
100
AcDbEntity
  8
0
  6
Continuous
 62
     7
370
    25
100
AcDbSpline
210
0.0
220
0.0
230
1.0
 70
    11
 71
     3
 72
    39
 73
    35
 74
     0
 42
0.000000001
 43
0.00000001
 40
0.0
 40
0.0
 40
0.0
 40
0.0
 40
0.0310664064720634
 40
0.0621048014757906
 40
0.0931361276829061
 40
0.1235538377883382
 40
0.1538561351660819
 40
0.1850588033123648
 40
0.2160251091896199
 40
0.2471867239725805
 40
0.2784462967644048
 40
0.3100516195294887
 40
0.3419834415956528
 40
0.3734259913462454
 40
0.4048604872093478
 40
0.4368740666862094
 40
0.4685120764426022
 40
0.4998055483577779
 40
0.5309508402183983
 40
0.5618649459358911
 40
0.5930416416671334
 40
0.6233742722369355
 40
0.6540913637130419
 40
0.6849496548674074
 40
0.7158160682678749
 40
0.7471731796554709
 40
0.7784514349010158
 40
0.8101295923716183
 40
0.8419598879046893
 40
0.8735175849142293
 40
0.9050807980709944
 40
0.9370235159563296
 40
0.9687441581308965
 40
1.0
 40
1.0
 40
1.0
 40
1.0
 10
378.9716432982706
 20
102.1316958663413
 30
0.0
 10
379.1510998551697
 20
102.1701549841072
 30
0.0
 10
379.5098511594047
 20
102.2470385424272
 30
0.0
 10
379.886778580086
 20
102.334996207661
 30
0.0
 10
380.1328273539376
 20
102.3819940524025
 30
0.0
 10
380.2133940805431
 20
102.3700732185017
 30
0.0
 10
380.1327840525132
 20
102.2981179729338
 30
0.0
 10
379.8928911647087
 20
102.1735964035637
 30
0.0
 10
379.5162499861909
 20
102.0162278192647
 30
0.0
 10
379.0100041468297
 20
101.8442038596869
 30
0.0
 10
378.392730667188
 20
101.679280138008
 30
0.0
 10
377.6802549008521
 20
101.5415666080436
 30
0.0
 10
376.9047894868116
 20
101.449933712753
 30
0.0
 10
376.0943250983431
 20
101.4166022547327
 30
0.0
 10
375.2818205668042
 20
101.445849308537
 30
0.0
 10
374.5023075515109
 20
101.5341781690436
 30
0.0
 10
373.783979509117
 20
101.6696829787225
 30
0.0
 10
373.1606069710863
 20
101.8334607183683
 30
0.0
 10
372.6475093354954
 20
102.0054660606806
 30
0.0
 10
372.2623059189908
 20
102.1642782040951
 30
0.0
 10
372.0128818922192
 20
102.2915366205052
 30
0.0
 10
371.92227979422
 20
102.3671445179266
 30
0.0
 10
371.9904916042615
 20
102.3839141385742
 30
0.0
 10
372.2227074554272
 20
102.3411322160695
 30
0.0
 10
372.5999242037002
 20
102.2540068234392
 30
0.0
 10
373.1116287186668
 20
102.1392773701466
 30
0.0
 10
373.7351021066847
 20
102.0198551740333
 30
0.0
 10
374.451638239552
 20
101.9152303701913
 30
0.0
 10
375.2300016795047
 20
101.8445817979552
 30
0.0
 10
376.041713549202
 20
101.8184999139088
 30
0.0
 10
376.8559352449286
 20
101.841537884014
 30
0.0
 10
377.6366248208602
 20
101.9097211164118
 30
0.0
 10
378.3648659812744
 20
102.0131547956001
 30
0.0
 10
378.7703818342657
 20
102.0923770771021
 30
0.0
 10
378.9716432982706
 20
102.1316958663413
 30
0.0
  0
SPLINE
  5
E6
330
1F
100
AcDbEntity
  8
0
  6
Continuous
 62
     7
370
    25
100
AcDbSpline
210
0.0
220
0.0
230
1.0
 70
    11
 71
     3
 72
    39
 73
    35
 74
     0
 42
0.000000001
 43
0.00000001
 40
0.0
 40
0.0
 40
0.0
 40
0.0
 40
0.0312651323310499
 40
0.0629601057991717
 40
0.0948697209729383
 40
0.1264264904926452
 40
0.1579651343731449
 40
0.1898765314191343
 40
0.2215523291058998
 40
0.2527843864529117
 40
0.2838419025919811
 40
0.3148645717475074
 40
0.3459127829027582
 40
0.3763475251038946
 40
0.4066751232364662
 40
0.4379141070964168
 40
0.4688932114959752
 40
0.5000738569520399
 40
0.531336933599467
 40
0.5629183608809415
 40
0.5948445703703248
 40
0.6262809874717837
 40
0.6577486331054426
 40
0.6897584491637477
 40
0.7214429689887231
 40
0.752762306726597
 40
0.7839279395340851
 40
0.8148885548569453
 40
0.84603747856084
 40
0.8763409848100786
 40
0.9067589069027766
 40
0.9378312615731911
 40
0.9689189724082404
 40
1.0
 40
1.0
 40
1.0
 40
1.0
 10
378.9715389901422
 20
124.9949880016396
 30
0.0
 10
378.7700873021641
 20
125.034354358429
 30
0.0
 10
378.3644143162248
 20
125.113628290877
 30
0.0
 10
377.6368147382569
 20
125.2169244059247
 30
0.0
 10
376.8568369908944
 20
125.2850772765916
 30
0.0
 10
376.0433034915677
 20
125.3081469019459
 30
0.0
 10
375.231142625081
 20
125.282159825541
 30
0.0
 10
374.4524797048953
 20
125.2115694893662
 30
0.0
 10
373.7358128956858
 20
125.1069537465636
 30
0.0
 10
373.1139346803287
 20
124.9877820654814
 30
0.0
 10
372.6044250715976
 20
124.8738450130828
 30
0.0
 10
372.2293052601981
 20
124.7877305026362
 30
0.0
 10
371.9933445697183
 20
124.7436746092681
 30
0.0
 10
371.9219443426416
 20
124.7592041177552
 30
0.0
 10
372.0125404200634
 20
124.8347136642861
 30
0.0
 10
372.261516855003
 20
124.9618868307823
 30
0.0
 10
372.64643194438
 20
125.1207377679964
 30
0.0
 10
373.1592166971715
 20
125.2927616891045
 30
0.0
 10
373.781676294564
 20
125.4564342706885
 30
0.0
 10
374.4981763347208
 20
125.5918363524375
 30
0.0
 10
375.2762751224597
 20
125.6803543620463
 30
0.0
 10
376.0879981202324
 20
125.7100608014081
 30
0.0
 10
376.8994400678671
 20
125.6771751315721
 30
0.0
 10
377.6765660922358
 20
125.5856933769539
 30
0.0
 10
378.3910044127633
 20
125.4478108783133
 30
0.0
 10
379.0092266428217
 20
125.2826818463896
 30
0.0
 10
379.5155964822637
 20
125.1106311376127
 30
0.0
 10
379.8921402014299
 20
124.9533486940716
 30
0.0
 10
380.1318673627925
 20
124.8289439100487
 30
0.0
 10
380.2132211649762
 20
124.7567594034877
 30
0.0
 10
380.1335836127327
 20
124.7444734930314
 30
0.0
 10
379.8876295304161
 20
124.7914160268305
 30
0.0
 10
379.5106874190195
 20
124.8793737253407
 30
0.0
 10
379.1512422527827
 20
124.9564526715785
 30
0.0
 10
378.9715389901422
 20
124.9949880016396
 30
0.0
  0
SPLINE
  5
E7
330
1F
100
AcDbEntity
  8
0
  6
Continuous
 62
     7
370
    25
100
AcDbSpline
210
0.0
220
0.0
230
1.0
 70
     8
 71
     3
 72
    11
 73
     7
 74
     0
 42
0.000000001
 43
0.00000001
 40
0.0
 40
0.0
 40
0.0
 40
0.0
 40
0.2349916900206187
 40
0.4979323109304115
 40
0.7053116695674987
 40
1.0
 40
1.0
 40
1.0
 40
1.0
 10
366.1765747418277
 20
118.5933257525215
 30
0.0
 10
366.1590087650309
 20
118.5815239716551
 30
0.0
 10
366.1217875874674
 20
118.55651675536
 30
0.0
 10
365.9885817220579
 20
118.3678807917378
 30
0.0
 10
365.8066663274423
 20
118.0812094521009
 30
0.0
 10
365.6748827019606
 20
117.8198913079215
 30
0.0
 10
365.5975323816411
 20
117.6665107791671
 30
0.0
  0
LINE
  5
E8
330
1F
100
AcDbEntity
  8
0
  6
Continuous
 62
     7
370
    25
100
AcDbLine
 10
365.5975323816
 20
117.6670374421
 30
0.0
 11
365.2281931316
 21
118.053121872
 31
0.0
  0
LINE
  5
E9
330
1F
100
AcDbEntity
  8
0
  6
Continuous
 62
     7
370
    25
100
AcDbLine
 10
386.9068075617
 20
118.0530622674
 30
0.0
 11
386.5375409549
 21
117.6670542059
 31
0.0
  0
SPLINE
  5
EA
330
1F
100
AcDbEntity
  8
0
  6
Continuous
 62
     7
370
    25
100
AcDbSpline
210
0.0
220
0.0
230
1.0
 70
     8
 71
     3
 72
    11
 73
     7
 74
     0
 42
0.000000001
 43
0.00000001
 40
0.0
 40
0.0
 40
0.0
 40
0.0
 40
0.2944300310285616
 40
0.5028392318956918
 40
0.7659872837412898
 40
1.0
 40
1.0
 40
1.0
 40
1.0
 10
386.5375409548752
 20
117.6663203237006
 30
0.0
 10
386.4602467851718
 20
117.8195999720284
 30
0.0
 10
386.3282407503664
 20
118.0813770073435
 30
0.0
 10
386.1463237033051
 20
118.3684200083968
 30
0.0
 10
386.012824746446
 20
118.5567295711464
 30
0.0
 10
385.9758584974683
 20
118.58161311251
 30
0.0
 10
385.9584585478179
 20
118.5933257525215
 30
0.0
  0
LINE
  5
EB
330
1F
100
AcDbEntity
  8
0
  6
Continuous
 62
     7
370
    25
100
AcDbLine
 10
383.8091970136
 20
117.7863240314
 30
0.0
 11
384.0009451558
 21
117.5945758892
 31
0.0
  0
SPLINE
  5
EC
330
1F
100
AcDbEntity
  8
0
  6
Continuous
 62
     7
370
    25
100
AcDbSpline
210
0.0
220
0.0
230
1.0
 70
     8
 71
     3
 72
    11
 73
     7
 74
     0
 42
0.000000001
 43
0.00000001
 40
0.0
 40
0.0
 40
0.0
 40
0.0
 40
0.2312886692814833
 40
0.4945066853614987
 40
0.7006199060373903
 40
1.0
 40
1.0
 40
1.0
 40
1.0
 10
383.3672760700457
 20
118.5933257525215
 30
0.0
 10
383.379203452815
 20
118.5802082097413
 30
0.0
 10
383.4047047907602
 20
118.5521622504627
 30
0.0
 10
383.5687827870012
 20
118.3437721353937
 30
0.0
 10
383.8029597881409
 20
118.0344851856904
 30
0.0
 10
383.9741807511008
 20
117.7582042127268
 30
0.0
 10
384.0755869349115
 20
117.5945758891651
 30
0.0
  0
LINE
  5
ED
330
1F
100
AcDbEntity
  8
0
  6
Continuous
 62
     7
370
    25
100
AcDbLine
 10
384.0755869349
 20
117.5945758892
 30
0.0
 11
384.0009451558
 21
117.5945758892
 31
0.0
  0
SPLINE
  5
EE
330
1F
100
AcDbEntity
  8
0
  6
Continuous
 62
     7
370
    25
100
AcDbSpline
210
0.0
220
0.0
230
1.0
 70
     8
 71
     3
 72
    11
 73
     7
 74
     0
 42
0.000000001
 43
0.00000001
 40
0.0
 40
0.0
 40
0.0
 40
0.0
 40
0.2513300808944414
 40
0.499525435300503
 40
0.755689788380559
 40
1.0
 40
1.0
 40
1.0
 40
1.0
 10
383.8092598778777
 20
117.7865666409382
 30
0.0
 10
383.7308628313828
 20
117.9245645030017
 30
0.0
 10
383.5750465493153
 20
118.1988390421754
 30
0.0
 10
383.376398116246
 20
118.5007131840663
 30
0.0
 10
383.2248627358609
 20
118.7161699656805
 30
0.0
 10
383.205510827621
 20
118.7423068462782
 30
0.0
 10
383.1960640562348
 20
118.7550657500872
 30
0.0
  0
LINE
  5
EF
330
1F
100
AcDbEntity
  8
0
  6
Continuous
 62
     7
370
    25
100
AcDbLine
 10
386.4714096015
 20
117.5945758892
 30
0.0
 11
386.537065049
 21
117.6666281258
 31
0.0
  0
LINE
  5
F0
330
1F
100
AcDbEntity
  8
0
  6
Continuous
 62
     7
370
    25
100
AcDbLine
 10
386.471249414
 20
117.5945758892
 30
0.0
 11
384.0755869349
 21
117.5945758892
 31
0.0
  0
LINE
  5
F1
330
1F
100
AcDbEntity
  8
0
  6
Continuous
 62
     7
370
    25
100
AcDbLine
 10
365.5978732457
 20
117.6667319683
 30
0.0
 11
365.6636236881
 21
117.5945758892
 31
0.0
  0
SPLINE
  5
F2
330
1F
100
AcDbEntity
  8
0
  6
Continuous
 62
     7
370
    25
100
AcDbSpline
210
0.0
220
0.0
230
1.0
 70
     8
 71
     3
 72
    11
 73
     7
 74
     0
 42
0.000000001
 43
0.00000001
 40
0.0
 40
0.0
 40
0.0
 40
0.0
 40
0.3004404118114384
 40
0.5054186116367629
 40
0.7682139934335586
 40
1.0
 40
1.0
 40
1.0
 40
1.0
 10
368.0592684721224
 20
117.5945907903263
 30
0.0
 10
368.160928051232
 20
117.7588119396862
 30
0.0
 10
368.3319458015517
 20
118.0350744597993
 30
0.0
 10
368.566541230151
 20
118.3437598064737
 30
0.0
 10
368.7303151586744
 20
118.5520466273866
 30
0.0
 10
368.7554000120721
 20
118.5801534603228
 30
0.0
 10
368.767156050878
 20
118.5933257525215
 30
0.0
  0
LINE
  5
F3
330
1F
100
AcDbEntity
  8
0
  6
Continuous
 62
     7
370
    25
100
AcDbLine
 10
368.0592684721
 20
117.5945758892
 30
0.0
 11
365.6636236881
 21
117.5945758892
 31
0.0
  0
LINE
  5
F4
330
1F
100
AcDbEntity
  8
0
  6
Continuous
 62
     7
370
    25
100
AcDbLine
 10
368.1340881338
 20
117.5945758892
 30
0.0
 11
368.0589685863
 21
117.5945758892
 31
0.0
  0
LINE
  5
F5
330
1F
100
AcDbEntity
  8
0
  6
Continuous
 62
     7
370
    25
100
AcDbLine
 10
368.1340881338
 20
117.5945758892
 30
0.0
 11
368.3257766714
 21
117.7862648924
 31
0.0
  0
SPLINE
  5
F6
330
1F
100
AcDbEntity
  8
0
  6
Continuous
 62
     7
370
    25
100
AcDbSpline
210
0.0
220
0.0
230
1.0
 70
     8
 71
     3
 72
    11
 73
     7
 74
     0
 42
0.000000001
 43
0.00000001
 40
0.0
 40
0.0
 40
0.0
 40
0.0
 40
0.244903686350058
 40
0.5008054001502501
 40
0.7479039871594713
 40
1.0
 40
1.0
 40
1.0
 40
1.0
 10
368.9387145166867
 20
118.7547160384604
 30
0.0
 10
368.9293587332667
 20
118.7420806123774
 30
0.0
 10
368.9102270210035
 20
118.7162423340327
 30
0.0
 10
368.7589124321189
 20
118.5011285074742
 30
0.0
 10
368.559809669293
 20
118.198534049961
 30
0.0
 10
368.4043013233772
 20
117.9247966718002
 30
0.0
 10
368.3257687551551
 20
117.7865577933738
 30
0.0
  0
LINE
  5
F7
330
1F
100
AcDbEntity
  8
0
  6
Continuous
 62
     7
370
    25
100
AcDbLine
 10
365.2548755234
 20
109.0732707248
 30
0.0
 11
365.6791134452
 21
109.5220636648
 31
0.0
  0
LINE
  5
F8
330
1F
100
AcDbEntity
  8
0
  6
Continuous
 62
     7
370
    25
100
AcDbLine
 10
365.6791134452
 20
109.5220429429
 30
0.0
 11
365.7412941282
 21
109.4570757428
 31
0.0
  0
LINE
  5
F9
330
1F
100
AcDbEntity
  8
0
  6
Continuous
 62
     7
370
    25
100
AcDbLine
 10
386.3937391614
 20
109.4570757428
 30
0.0
 11
386.4559217071
 21
109.5220494622
 31
0.0
  0
LINE
  5
FA
330
1F
100
AcDbEntity
  8
0
  6
Continuous
 62
     7
370
    25
100
AcDbLine
 10
386.4559347456
 20
109.5220499278
 30
0.0
 11
386.8801568349
 21
109.0732707248
 31
0.0
  0
LINE
  5
FB
330
1F
100
AcDbEntity
  8
0
  6
Continuous
 62
     7
370
    25
100
AcDbLine
 10
384.0009451558
 20
109.5320758482
 30
0.0
 11
384.0096669918
 21
109.5320758482
 31
0.0
  0
LINE
  5
FC
330
1F
100
AcDbEntity
  8
0
  6
Continuous
 62
     7
370
    25
100
AcDbLine
 10
386.4559347456
 20
109.5220501607
 30
0.0
 11
386.4493838226
 21
109.5308721138
 31
0.0
  0
LINE
  5
FD
330
1F
100
AcDbEntity
  8
0
  6
Continuous
 62
     7
370
    25
100
AcDbLine
 10
386.448481371
 20
109.5320758482
 30
0.0
 11
384.009670717
 21
109.5320758482
 31
0.0
  0
LINE
  5
FE
330
1F
100
AcDbEntity
  8
0
  6
Continuous
 62
     7
370
    25
100
AcDbLine
 10
365.6865519186
 20
109.5320758482
 30
0.0
 11
365.6790938874
 21
109.5220438742
 31
0.0
  0
LINE
  5
FF
330
1F
100
AcDbEntity
  8
0
  6
Continuous
 62
     7
370
    25
100
AcDbLine
 10
368.1238556927
 20
109.5320758482
 30
0.0
 11
365.6867679855
 21
109.5320758482
 31
0.0
  0
LINE
  5
100
330
1F
100
AcDbEntity
  8
0
  6
Continuous
 62
     7
370
    25
100
AcDbLine
 10
368.1253653666
 20
109.5320758482
 30
0.0
 11
368.1340881338
 21
109.5320758482
 31
0.0
  0
SPLINE
  5
101
330
1F
100
AcDbEntity
  8
0
  6
Continuous
 62
     7
370
    25
100
AcDbSpline
210
0.0
220
0.0
230
1.0
 70
     8
 71
     3
 72
    15
 73
    11
 74
     0
 42
0.000000001
 43
0.00000001
 40
0.0
 40
0.0
 40
0.0
 40
0.0
 40
0.0000071126095639
 40
0.0000298119602416
 40
0.0001208225300641
 40
0.000484955951543
 40
0.0019397804402246
 40
0.0077584719638108
 40
0.4998978079955396
 40
1.0
 40
1.0
 40
1.0
 40
1.0
 10
365.1074229454272
 20
109.0753375624666
 30
0.0
 10
365.1074238718902
 20
109.0753387353456
 30
0.0
 10
365.1074277550891
 20
109.0753436513783
 30
0.0
 10
365.1074445310069
 20
109.0753617113512
 30
0.0
 10
365.1075115598738
 20
109.0754364891769
 30
0.0
 10
365.1077783167686
 20
109.0757276707444
 30
0.0
 10
365.1088438814199
 20
109.0769082540602
 30
0.0
 10
365.1785211423839
 20
109.1537301693773
 30
0.0
 10
365.3175124226702
 20
109.3082421277266
 30
0.0
 10
365.451626794944
 20
109.4572631009822
 30
0.0
 10
365.5192221229546
 20
109.5323715431044
 30
0.0
  0
LINE
  5
102
330
1F
100
AcDbEntity
  8
0
  6
Continuous
 62
     7
370
    25
100
AcDbLine
 10
365.5189091986
 20
109.5320758482
 30
0.0
 11
365.6865519186
 21
109.5320758482
 31
0.0
  0
LINE
  5
103
330
1F
100
AcDbEntity
  8
0
  6
Continuous
 62
     7
370
    25
100
AcDbLine
 10
386.448481371
 20
109.5320758482
 30
0.0
 11
386.6161315417
 21
109.5320758482
 31
0.0
  0
LINE
  5
104
330
1F
100
AcDbEntity
  8
0
  6
Continuous
 62
     7
370
    25
100
AcDbLine
 10
386.6158428317
 20
109.53234826
 30
0.0
 11
387.0276224514
 21
109.0753375625
 31
0.0
  0
LINE
  5
105
330
1F
100
AcDbEntity
  8
0
  6
Continuous
 62
     7
370
    25
100
AcDbLine
 10
365.6636236881
 20
117.5945758892
 30
0.0
 11
365.5190535536
 21
117.5945758892
 31
0.0
  0
LINE
  5
106
330
1F
100
AcDbEntity
  8
0
  6
Continuous
 62
     7
370
    25
100
AcDbLine
 10
365.5193413322
 20
117.5943044086
 30
0.0
 11
365.1074955886
 21
118.0515935717
 31
0.0
  0
SPLINE
  5
107
330
1F
100
AcDbEntity
  8
0
  6
Continuous
 62
     7
370
    25
100
AcDbSpline
210
0.0
220
0.0
230
1.0
 70
     8
 71
     3
 72
    15
 73
    11
 74
     0
 42
0.000000001
 43
0.00000001
 40
0.0
 40
0.0
 40
0.0
 40
0.0
 40
0.0000073228102171
 40
0.0000298232411815
 40
0.0001213023537959
 40
0.0004848757275129
 40
0.0019397834548767
 40
0.0077581293762392
 40
0.4998997650939702
 40
1.0
 40
1.0
 40
1.0
 40
1.0
 10
387.0275255938642
 20
118.0515935716578
 30
0.0
 10
387.0275246725317
 20
118.051592313162
 30
0.0
 10
387.027520920267
 20
118.0515871877493
 30
0.0
 10
387.0275036365034
 20
118.0515697272401
 30
0.0
 10
387.0274379298747
 20
118.0514951435001
 30
0.0
 10
387.0271683924674
 20
118.0512023930167
 30
0.0
 10
387.0261076655875
 20
118.0500235036948
 30
0.0
 10
386.9563111911482
 20
117.9730844741936
 30
0.0
 10
386.8174501364472
 20
117.8185789235478
 30
0.0
 10
386.6832822860899
 20
117.6694457818792
 30
0.0
 10
386.615660292434
 20
117.5942811255702
 30
0.0
  0
LINE
  5
108
330
1F
100
AcDbEntity
  8
0
  6
Continuous
 62
     7
370
    25
100
AcDbLine
 10
386.6159722855
 20
117.5945758892
 30
0.0
 11
386.4714096015
 21
117.5945758892
 31
0.0
  0
LINE
  5
109
330
1F
100
AcDbEntity
  8
0
  6
Continuous
 62
     7
370
    25
100
AcDbLine
 10
364.1968483751
 20
111.3759880259
 30
0.0
 11
364.6369113302
 21
111.4570757795
 31
0.0
  0
SPLINE
  5
10A
330
1F
100
AcDbEntity
  8
0
  6
Continuous
 62
     7
370
    25
100
AcDbSpline
210
0.0
220
0.0
230
1.0
 70
     8
 71
     3
 72
    20
 73
    16
 74
     0
 42
0.000000001
 43
0.00000001
 40
0.0
 40
0.0
 40
0.0
 40
0.0
 40
0.0444959954185729
 40
0.0917767787510365
 40
0.1418667187871993
 40
0.1947856527216376
 40
0.2505509744583294
 40
0.2810759215932495
 40
0.3331671917159749
 40
0.4068132637228447
 40
0.5019959097552611
 40
0.6492246561361432
 40
0.7809655387490915
 40
0.897671666064305
 40
1.0
 40
1.0
 40
1.0
 40
1.0
 10
364.6369113301508
 20
111.4570757795484
 30
0.0
 10
364.6479171442894
 20
111.409865497848
 30
0.0
 10
364.6706175729382
 20
111.3124902725578
 30
0.0
 10
364.7104220404356
 20
111.1638997236354
 30
0.0
 10
364.7555818878474
 20
111.0090754177363
 30
0.0
 10
364.806655810187
 20
110.8494636505436
 30
0.0
 10
364.8534708812857
 20
110.7138125318665
 30
0.0
 10
364.9028394007684
 20
110.583570726769
 30
0.0
 10
364.9595573358835
 20
110.4411327034611
 30
0.0
 10
365.0399734654054
 20
110.2507104115231
 30
0.0
 10
365.156842201939
 20
110.0038739475695
 30
0.0
 10
365.2882536663821
 20
109.7593587417632
 30
0.0
 10
365.4028510665068
 20
109.5752275702472
 30
0.0
 10
365.4840496337586
 20
109.4741943156525
 30
0.0
 10
365.5074080415506
 20
109.462526638352
 30
0.0
 10
365.5183206027024
 20
109.4570757427612
 30
0.0
  0
LINE
  5
10B
330
1F
100
AcDbEntity
  8
0
  6
Continuous
 62
     7
370
    25
100
AcDbLine
 10
387.9381849145
 20
115.750663595
 30
0.0
 11
387.4981219595
 21
115.6695758996
 31
0.0
  0
SPLINE
  5
10C
330
1F
100
AcDbEntity
  8
0
  6
Continuous
 62
     7
370
    25
100
AcDbSpline
210
0.0
220
0.0
230
1.0
 70
     8
 71
     3
 72
    20
 73
    16
 74
     0
 42
0.000000001
 43
0.00000001
 40
0.0
 40
0.0
 40
0.0
 40
0.0
 40
0.0444959801633937
 40
0.0917767656865267
 40
0.1418667080435163
 40
0.1947856444298575
 40
0.2505509369380391
 40
0.2810758546922563
 40
0.3331672166173454
 40
0.4068132357841688
 40
0.5019958862267009
 40
0.6492245971529854
 40
0.7809655465322447
 40
0.8976716613231069
 40
1.0
 40
1.0
 40
1.0
 40
1.0
 10
387.4981219594948
 20
115.6695758995959
 30
0.0
 10
387.4871161440692
 20
115.7167861615605
 30
0.0
 10
387.4644157082142
 20
115.8141613656668
 30
0.0
 10
387.4246112504293
 20
115.9627518975446
 30
0.0
 10
387.3794514008079
 20
116.1175762031507
 30
0.0
 10
387.3283774925524
 20
116.2771879383416
 30
0.0
 10
387.2815624313991
 20
116.4128389976324
 30
0.0
 10
387.2321938080971
 20
116.5430807344037
 30
0.0
 10
387.1754760846593
 20
116.6855189944991
 30
0.0
 10
387.0950597455434
 20
116.8759410570334
 30
0.0
 10
386.9781911440045
 20
117.1227776278533
 30
0.0
 10
386.8467795439503
 20
117.3672923342808
 30
0.0
 10
386.7321822697152
 20
117.5514243641837
 30
0.0
 10
386.6509836453973
 20
117.652457101466
 30
0.0
 10
386.6276252453638
 20
117.6641248380344
 30
0.0
 10
386.6167126869433
 20
117.6695757617602
 30
0.0
  0
SPLINE
  5
10D
330
1F
100
AcDbEntity
  8
0
  6
Continuous
 62
     7
370
    25
100
AcDbSpline
210
0.0
220
0.0
230
1.0
 70
     8
 71
     3
 72
    16
 73
    12
 74
     0
 42
0.000000001
 43
0.00000001
 40
0.0
 40
0.0
 40
0.0
 40
0.0
 40
0.1190661423721453
 40
0.1825630045690143
 40
0.2488234908568307
 40
0.3610831995496482
 40
0.4986028794734075
 40
0.6243266225850288
 40
0.7501434087700822
 40
0.8762289255782375
 40
1.0
 40
1.0
 40
1.0
 40
1.0
 10
365.5183206027024
 20
117.6695757617602
 30
0.0
 10
365.505774040072
 20
117.6625471651678
 30
0.0
 10
365.486536512718
 20
117.6517702836273
 30
0.0
 10
365.4337255276284
 20
117.5851216922215
 30
0.0
 10
365.3726567119199
 20
117.4979253185281
 30
0.0
 10
365.2747825460909
 20
117.3414420939229
 30
0.0
 10
365.1421863165639
 20
117.0949591614032
 30
0.0
 10
365.000301962817
 20
116.7834025872143
 30
0.0
 10
364.8600680764647
 20
116.4402228421652
 30
0.0
 10
364.729958016852
 20
116.0664835499299
 30
0.0
 10
364.6677347660019
 20
115.8010588995027
 30
0.0
 10
364.6369113301508
 20
115.6695758995959
 30
0.0
  0
LINE
  5
10E
330
1F
100
AcDbEntity
  8
0
  6
Continuous
 62
     7
370
    25
100
AcDbLine
 10
364.1968483751
 20
115.750663595
 30
0.0
 11
364.6369113302
 21
115.6695758996
 31
0.0
  0
SPLINE
  5
10F
330
1F
100
AcDbEntity
  8
0
  6
Continuous
 62
     7
370
    25
100
AcDbSpline
210
0.0
220
0.0
230
1.0
 70
     8
 71
     3
 72
    16
 73
    12
 74
     0
 42
0.000000001
 43
0.00000001
 40
0.0
 40
0.0
 40
0.0
 40
0.0
 40
0.1190661414676379
 40
0.1825629826067464
 40
0.2488234409483832
 40
0.3610831423451502
 40
0.4986028559954206
 40
0.6243265648971427
 40
0.7501433429050358
 40
0.8762289164251335
 40
1.0
 40
1.0
 40
1.0
 40
1.0
 10
386.6167126869433
 20
109.4570757427612
 30
0.0
 10
386.629259247094
 20
109.4641044885137
 30
0.0
 10
386.6484967684778
 20
109.4748815975453
 30
0.0
 10
386.701307759034
 20
109.5415297941538
 30
0.0
 10
386.7623765921665
 20
109.6287258769257
 30
0.0
 10
386.8602507691886
 20
109.7852091891768
 30
0.0
 10
386.9928469243791
 20
110.0316923547411
 30
0.0
 10
387.1347313445933
 20
110.3432487961253
 30
0.0
 10
387.2749652551886
 20
110.686428601084
 30
0.0
 10
387.4050752435824
 20
111.0601680308692
 30
0.0
 10
387.4672985178764
 20
111.3255927637391
 30
0.0
 10
387.4981219594948
 20
111.4570757795484
 30
0.0
  0
LINE
  5
110
330
1F
100
AcDbEntity
  8
0
  6
Continuous
 62
     7
370
    25
100
AcDbLine
 10
387.9381849145
 20
111.3759880259
 30
0.0
 11
387.4981219595
 21
111.4570757795
 31
0.0
  0
SPLINE
  5
111
330
1F
100
AcDbEntity
  8
0
  6
Continuous
 62
     7
370
    25
100
AcDbSpline
210
0.0
220
0.0
230
1.0
 70
     8
 71
     3
 72
    15
 73
    11
 74
     0
 42
0.000000001
 43
0.00000001
 40
0.0
 40
0.0
 40
0.0
 40
0.0
 40
0.1361833022541195
 40
0.2976717890260504
 40
0.3970502850512615
 40
0.4966370319104407
 40
0.5964352094635073
 40
0.7637718546521333
 40
0.9173306234117404
 40
1.0
 40
1.0
 40
1.0
 40
1.0
 10
367.1696589043014
 20
115.6695758995959
 30
0.0
 10
367.2049198261396
 20
115.7899948581654
 30
0.0
 10
367.2819937515956
 20
116.0532086754007
 30
0.0
 10
367.4067866814312
 20
116.3854298859408
 30
0.0
 10
367.5236915246376
 20
116.6649272363502
 30
0.0
 10
367.6212718063891
 20
116.8799328507341
 30
0.0
 10
367.7453773085537
 20
117.1186142443891
 30
0.0
 10
367.8758712563028
 20
117.3490586920145
 30
0.0
 10
367.9775191788191
 20
117.5238520990165
 30
0.0
 10
368.0106143894337
 20
117.5762418124183
 30
0.0
 10
368.0221962457173
 20
117.5945758891651
 30
0.0
  0
SPLINE
  5
112
330
1F
100
AcDbEntity
  8
0
  6
Continuous
 62
     7
370
    25
100
AcDbSpline
210
0.0
220
0.0
230
1.0
 70
     8
 71
     3
 72
    15
 73
    11
 74
     0
 42
0.000000001
 43
0.00000001
 40
0.0
 40
0.0
 40
0.0
 40
0.0
 40
0.1361833573349246
 40
0.297671876098086
 40
0.3970502619463631
 40
0.4966370050052362
 40
0.5964352977928219
 40
0.7637718862502525
 40
0.9173306491499401
 40
1.0
 40
1.0
 40
1.0
 40
1.0
 10
384.9653743853443
 20
111.4570757795484
 30
0.0
 10
384.930113460368
 20
111.336656767118
 30
0.0
 10
384.8530395366811
 20
111.0734428616194
 30
0.0
 10
384.7282467178898
 20
110.7412215625328
 30
0.0
 10
384.6113417051306
 20
110.4617244344737
 30
0.0
 10
384.5137614113296
 20
110.2467188826901
 30
0.0
 10
384.389656117213
 20
110.0080369451274
 30
0.0
 10
384.2591619797513
 20
109.7775929287465
 30
0.0
 10
384.1575141256606
 20
109.6027992875503
 30
0.0
 10
384.124418902534
 20
109.5504098315862
 30
0.0
 10
384.1128370439284
 20
109.5320758481869
 30
0.0
  0
SPLINE
  5
113
330
1F
100
AcDbEntity
  8
0
  6
Continuous
 62
     7
370
    25
100
AcDbSpline
210
0.0
220
0.0
230
1.0
 70
     8
 71
     3
 72
    15
 73
    11
 74
     0
 42
0.000000001
 43
0.00000001
 40
0.0
 40
0.0
 40
0.0
 40
0.0
 40
0.0210083064344905
 40
0.0995166354831593
 40
0.2360965247611231
 40
0.3979396924546665
 40
0.5486159328121876
 40
0.7000319433685236
 40
0.8517812065746176
 40
1.0
 40
1.0
 40
1.0
 40
1.0
 10
368.0207433825009
 20
109.5320758481869
 30
0.0
 10
368.0178962840727
 20
109.536557388856
 30
0.0
 10
368.004409539801
 20
109.5577865084214
 30
0.0
 10
367.9570011172273
 20
109.6349215439671
 30
0.0
 10
367.8638564072349
 20
109.7908553434855
 30
0.0
 10
367.727437305683
 20
110.0398713414462
 30
0.0
 10
367.5781148848509
 20
110.3495102305644
 30
0.0
 10
367.4249496709912
 20
110.6914740686014
 30
0.0
 10
367.2793169903938
 20
111.0625829447934
 30
0.0
 10
367.2059236657684
 20
111.3266140045657
 30
0.0
 10
367.1696589043014
 20
111.4570757795484
 30
0.0
  0
LINE
  5
114
330
1F
100
AcDbEntity
  8
0
  6
Continuous
 62
     7
370
    25
100
AcDbLine
 10
367.4859192868
 20
111.531939097
 30
0.0
 11
367.1696589043
 21
111.4570757795
 31
0.0
  0
SPLINE
  5
115
330
1F
100
AcDbEntity
  8
0
  6
Continuous
 62
     7
370
    25
100
AcDbSpline
210
0.0
220
0.0
230
1.0
 70
     8
 71
     3
 72
    15
 73
    11
 74
     0
 42
0.000000001
 43
0.00000001
 40
0.0
 40
0.0
 40
0.0
 40
0.0
 40
0.1213879004449117
 40
0.2460032580589969
 40
0.3699066130073054
 40
0.4947628149360616
 40
0.6211609731639635
 40
0.7448788245336504
 40
0.8733445301479983
 40
1.0
 40
1.0
 40
1.0
 40
1.0
 10
367.4859192868345
 20
111.531939096971
 30
0.0
 10
367.522683281624
 20
111.3863916212528
 30
0.0
 10
367.5971887509858
 20
111.0914268587213
 30
0.0
 10
367.7323577315927
 20
110.6733995816146
 30
0.0
 10
367.8763199670497
 20
110.288197111619
 30
0.0
 10
368.0201823324158
 20
109.9509008507541
 30
0.0
 10
368.1536076845675
 20
109.6690362330876
 30
0.0
 10
368.2626504612133
 20
109.456256588217
 30
0.0
 10
368.3397292088781
 20
109.3142971967969
 30
0.0
 10
368.3489584510508
 20
109.2977784024223
 30
0.0
 10
368.3535403286688
 20
109.2895776105473
 30
0.0
  0
LINE
  5
116
330
1F
100
AcDbEntity
  8
0
  6
Continuous
 62
     7
370
    25
100
AcDbLine
 10
367.4859192868
 20
115.5947124658
 30
0.0
 11
367.1696589043
 21
115.6695758996
 31
0.0
  0
SPLINE
  5
117
330
1F
100
AcDbEntity
  8
0
  6
Continuous
 62
     7
370
    25
100
AcDbSpline
210
0.0
220
0.0
230
1.0
 70
     8
 71
     3
 72
    15
 73
    11
 74
     0
 42
0.000000001
 43
0.00000001
 40
0.0
 40
0.0
 40
0.0
 40
0.0
 40
0.1249716231122248
 40
0.2537390464831855
 40
0.379498385396475
 40
0.5055792558296516
 40
0.6297863112921542
 40
0.753725473404556
 40
0.8779635270273501
 40
1.0
 40
1.0
 40
1.0
 40
1.0
 10
368.3535403286688
 20
117.8370741268048
 30
0.0
 10
368.3489701552993
 20
117.8288948404489
 30
0.0
 10
368.3396909973259
 20
117.8122878358411
 30
0.0
 10
368.2624428283393
 20
117.6699904352591
 30
0.0
 10
368.1543000755431
 20
117.4590184128846
 30
0.0
 10
368.0206759276148
 20
117.1768366521103
 30
0.0
 10
367.8765334578546
 20
116.8390018361636
 30
0.0
 10
367.7326546473669
 20
116.4540960481512
 30
0.0
 10
367.5973682630402
 20
116.0358362929223
 30
0.0
 10
367.5228468833182
 20
115.740874801595
 30
0.0
 10
367.4859192868345
 20
115.594712465758
 30
0.0
  0
SPLINE
  5
118
330
1F
100
AcDbEntity
  8
0
  6
Continuous
 62
     7
370
    25
100
AcDbSpline
210
0.0
220
0.0
230
1.0
 70
     8
 71
     3
 72
    15
 73
    11
 74
     0
 42
0.000000001
 43
0.00000001
 40
0.0
 40
0.0
 40
0.0
 40
0.0
 40
0.0210083066034879
 40
0.0995166362837027
 40
0.236096565556932
 40
0.3979396833581639
 40
0.5486159868600675
 40
0.7000319636101505
 40
0.8517812663253836
 40
1.0
 40
1.0
 40
1.0
 40
1.0
 10
384.1142899071448
 20
117.5945758891651
 30
0.0
 10
384.117137005507
 20
117.5900943481802
 30
0.0
 10
384.1306237494657
 20
117.5688652271183
 30
0.0
 10
384.178032189658
 20
117.4917302257664
 30
0.0
 10
384.2711768231318
 20
117.3357960589374
 30
0.0
 10
384.4075960672377
 20
117.0867804503558
 30
0.0
 10
384.5569183292534
 20
116.7771412671774
 30
0.0
 10
384.7100836784813
 20
116.4351775338594
 30
0.0
 10
384.8557162411329
 20
116.0640686246636
 30
0.0
 10
384.9291096128036
 20
115.8000376089966
 30
0.0
 10
384.9653743853443
 20
115.6695758995959
 30
0.0
  0
LINE
  5
119
330
1F
100
AcDbEntity
  8
0
  6
Continuous
 62
     7
370
    25
100
AcDbLine
 10
384.6491140028
 20
115.5947124658
 30
0.0
 11
384.9653743853
 21
115.6695758996
 31
0.0
  0
SPLINE
  5
11A
330
1F
100
AcDbEntity
  8
0
  6
Continuous
 62
     7
370
    25
100
AcDbSpline
210
0.0
220
0.0
230
1.0
 70
     8
 71
     3
 72
    14
 73
    10
 74
     0
 42
0.000000001
 43
0.00000001
 40
0.0
 40
0.0
 40
0.0
 40
0.0
 40
0.1400356373891768
 40
0.2837945193695663
 40
0.4267319899901246
 40
0.5707687150074506
 40
0.7165842730504322
 40
0.8593077730623754
 40
0.9999999999999999
 40
0.9999999999999999
 40
0.9999999999999999
 40
0.9999999999999999
 10
384.6491140028112
 20
115.594712465758
 30
0.0
 10
384.6123512388711
 20
115.7402576588025
 30
0.0
 10
384.5378482686444
 20
116.035217776646
 30
0.0
 10
384.4026602573269
 20
116.4532806851065
 30
0.0
 10
384.2587705223374
 20
116.8383473555799
 30
0.0
 10
384.1146343533915
 20
117.1761558872664
 30
0.0
 10
383.9822375786088
 20
117.4560962205892
 30
0.0
 10
383.8713176183709
 20
117.6722367538189
 30
0.0
 10
383.8299817697828
 20
117.748300016076
 30
0.0
 10
383.8094619748764
 20
117.7860590701351
 30
0.0
  0
LINE
  5
11B
330
1F
100
AcDbEntity
  8
0
  6
Continuous
 62
     7
370
    25
100
AcDbLine
 10
384.6491140028
 20
111.531939097
 30
0.0
 11
384.9653743853
 21
111.4570757795
 31
0.0
  0
SPLINE
  5
11C
330
1F
100
AcDbEntity
  8
0
  6
Continuous
 62
     7
370
    25
100
AcDbSpline
210
0.0
220
0.0
230
1.0
 70
     8
 71
     3
 72
    15
 73
    11
 74
     0
 42
0.000000001
 43
0.00000001
 40
0.0
 40
0.0
 40
0.0
 40
0.0
 40
0.1249716118877981
 40
0.2537390719551447
 40
0.3794984115196863
 40
0.5055792446589489
 40
0.629786300764665
 40
0.7537255159956873
 40
0.877963541539333
 40
1.0
 40
1.0
 40
1.0
 40
1.0
 10
383.7814929609768
 20
109.2895776105473
 30
0.0
 10
383.7860631374591
 20
109.2977566574771
 30
0.0
 10
383.7953423035172
 20
109.3143631791191
 30
0.0
 10
383.8725904486909
 20
109.4566614550904
 30
0.0
 10
383.9807331914956
 20
109.6676333037906
 30
0.0
 10
384.1143573833339
 20
109.949814851424
 30
0.0
 10
384.2584998730785
 20
110.2876497014103
 30
0.0
 10
384.402378580862
 20
110.6725556307909
 30
0.0
 10
384.5376650420931
 20
111.0908153330633
 30
0.0
 10
384.6121864101252
 20
111.3857767768134
 30
0.0
 10
384.6491140028112
 20
111.531939096971
 30
0.0
  0
ARC
  5
11D
330
1F
100
AcDbEntity
  8
0
  6
Continuous
 62
     7
370
    25
100
AcDbCircle
 10
376.0675166448
 20
113.5633257885
 30
0.0
 40
11.62303852141066
100
AcDbArc
 50
169.5595567507
 51
190.4404432494
  0
ARC
  5
11E
330
1F
100
AcDbEntity
  8
0
  6
Continuous
 62
     7
370
    25
100
AcDbCircle
 10
376.0675166448
 20
113.5633257885
 30
0.0
 40
9.14374999999995
100
AcDbArc
 50
166.6824039243
 51
193.3175960757
  0
ARC
  5
11F
330
1F
100
AcDbEntity
  8
0
  6
Continuous
 62
     7
370
    25
100
AcDbCircle
 10
376.0675166448
 20
113.5633257885
 30
0.0
 40
8.81874999999997
100
AcDbArc
 50
166.6824039243
 51
193.3175960757
  0
ARC
  5
120
330
1F
100
AcDbEntity
  8
0
  6
Continuous
 62
     7
370
    25
100
AcDbCircle
 10
376.0675166448
 20
113.5633257885
 30
0.0
 40
9.143750000000006
100
AcDbArc
 50
346.6824039243
 51
13.3175960757
  0
ARC
  5
121
330
1F
100
AcDbEntity
  8
0
  6
Continuous
 62
     7
370
    25
100
AcDbCircle
 10
376.0675166448
 20
113.5633257885
 30
0.0
 40
8.818750000000026
100
AcDbArc
 50
346.6824039243
 51
13.3175960757
  0
ARC
  5
122
330
1F
100
AcDbEntity
  8
0
  6
Continuous
 62
     7
370
    25
100
AcDbCircle
 10
376.0675166448
 20
113.5633257885
 30
0.0
 40
11.6230385214107
100
AcDbArc
 50
349.5595567507
 51
10.4404432493
  0
CIRCLE
  5
123
330
1F
100
AcDbEntity
  8
0
  6
Continuous
 62
     7
370
    25
100
AcDbCircle
 10
376.0675166448
 20
113.5633257885
 30
0.0
 40
7.774999999999977
  0
CIRCLE
  5
124
330
1F
100
AcDbEntity
  8
0
  6
Continuous
 62
     7
370
    25
100
AcDbCircle
 10
376.0675166448
 20
113.5633257885
 30
0.0
 40
2.615470053837839
  0
CIRCLE
  5
125
330
1F
100
AcDbEntity
  8
0
  6
Continuous
 62
     7
370
    25
100
AcDbCircle
 10
376.0675166448
 20
113.5633257885
 30
0.0
 40
2.5
  0
CIRCLE
  5
126
330
1F
100
AcDbEntity
  8
0
  6
Continuous
 62
     7
370
    25
100
AcDbCircle
 10
376.0675166448
 20
113.5633257885
 30
0.0
 40
15.73749999999995
  0
CIRCLE
  5
127
330
1F
100
AcDbEntity
  8
0
  6
Continuous
 62
     7
370
    25
100
AcDbCircle
 10
376.0675166448
 20
113.5633257885
 30
0.0
 40
13.42499999999995
  0
CIRCLE
  5
128
330
1F
100
AcDbEntity
  8
0
  6
Continuous
 62
     7
370
    25
100
AcDbCircle
 10
376.0675166448
 20
113.5633257885
 30
0.0
 40
2.0
  0
LINE
  5
129
330
1F
100
AcDbEntity
  8
0
  6
Continuous
 62
     7
370
    25
100
AcDbLine
 10
391.8175168981
 20
113.5633257523
 30
0.0
 11
391.8159280618
 21
113.7870673861
 31
0.0
  0
ARC
  5
12A
330
1F
100
AcDbEntity
  8
0
  6
Continuous
 62
     7
370
    25
100
AcDbCircle
 10
376.0675166448
 20
113.5633257885
 30
0.0
 40
15.75000000000006
100
AcDbArc
 50
8.7077669523
 51
110.4479479933
  0
ARC
  5
12B
330
1F
100
AcDbEntity
  8
0
  6
Continuous
 62
     7
370
    25
100
AcDbCircle
 10
376.0675166448
 20
113.5633257885
 30
0.0
 40
15.75
100
AcDbArc
 50
127.8583677857
 51
237.4953610559
  0
ARC
  5
12C
330
1F
100
AcDbEntity
  8
0
  6
Continuous
 62
     7
370
    25
100
AcDbCircle
 10
376.0675166448
 20
113.5633257885
 30
0.0
 40
15.75000000000006
100
AcDbArc
 50
245.4738311606
 51
0.0
  0
CIRCLE
  5
12D
330
1F
100
AcDbEntity
  8
0
  6
Continuous
 62
     7
370
    25
100
AcDbCircle
 10
376.0675166448
 20
113.5633257885
 30
0.0
 40
16.25000000000006
  0
LINE
  5
12E
330
1F
100
AcDbEntity
  8
0
  6
CENTER
 62
     7
370
    18
100
AcDbLine
 10
376.0675166448
 20
113.5633257885
 30
0.0
 11
376.0675166448
 21
133.8703903928
 31
0.0
  0
LINE
  5
12F
330
1F
100
AcDbEntity
  8
0
  6
CENTER
 62
     7
370
    18
100
AcDbLine
 10
376.0675166448
 20
113.5633257885
 30
0.0
 11
396.2175166448
 21
113.5633257885
 31
0.0
  0
LINE
  5
130
330
1F
100
AcDbEntity
  8
0
  6
Continuous
 62
     7
370
    18
100
AcDbLine
 10
388.0675166448
 20
131.8703903928
 30
0.0
 11
376.0675166448
 21
131.8703903928
 31
0.0
  0
SOLID
  5
131
330
1F
100
AcDbEntity
  8
0
  6
Continuous
 62
     7
370
    18
100
AcDbTrace
 10
376.0675166448
 20
131.8703903928
 30
0.0
 11
382.0675166448
 21
130.3703903928
 31
0.0
 12
382.0675166448
 22
133.3703903928
 32
0.0
 13
382.0675166448
 23
133.3703903928
 33
0.0
  0
LINE
  5
132
330
1F
100
AcDbEntity
  8
0
  6
Continuous
 62
     7
370
    18
100
AcDbLine
 10
406.2175166448
 20
113.5633257885
 30
0.0
 11
394.2175166448
 21
113.5633257885
 31
0.0
  0
SOLID
  5
133
330
1F
100
AcDbEntity
  8
0
  6
Continuous
 62
     7
370
    18
100
AcDbTrace
 10
394.2175166448
 20
113.5633257885
 30
0.0
 11
400.2175166448
 21
112.0633257885
 31
0.0
 12
400.2175166448
 22
115.0633257885
 32
0.0
 13
400.2175166448
 23
115.0633257885
 33
0.0
  0
MTEXT
  5
134
330
1F
100
AcDbEntity
  8
0
  6
Continuous
 62
     7
100
AcDbMText
 10
384.9177873215
 20
138.5195633252
 30
0.0
 40
3.5
 41
0.0
 71
     1
 72
     1
  1
A
  7
SLDTEXTSTYLE0
 73
     1
 44
1.0
  0
MTEXT
  5
135
330
1F
100
AcDbEntity
  8
0
  6
Continuous
 62
     7
100
AcDbMText
 10
403.0677873215
 20
111.3491512021
 30
0.0
 40
3.5
 41
0.0
 71
     1
 72
     1
  1
A
  7
SLDTEXTSTYLE0
 73
     1
 44
1.0
  0
LINE
  5
136
330
1F
100
AcDbEntity
  8
0
  6
Continuous
 62
     7
370
    25
100
AcDbLine
 10
143.8809333283
 20
81.9847933609
 30
0.0
 11
144.8809333283
 21
80.9847933609
 31
0.0
  0
ARC
  5
137
330
1F
100
AcDbEntity
  8
0
  6
Continuous
 62
     7
370
    25
100
AcDbCircle
 10
195.0525062035
 20
82.9847933609
 30
0.0
 40
2.000000000000016
100
AcDbArc
 50
270.0
 51
315.0
  0
LINE
  5
138
330
1F
100
AcDbEntity
  8
0
  6
Continuous
 62
     7
370
    25
100
AcDbLine
 10
144.8809333283
 20
80.9847933609
 30
0.0
 11
195.0525062035
 21
80.9847933609
 31
0.0
  0
LINE
  5
139
330
1F
100
AcDbEntity
  8
0
  6
Continuous
 62
     7
370
    25
100
AcDbLine
 10
196.4667197659
 20
81.5705797985
 30
0.0
 11
205.2951468906
 21
90.3990069232
 31
0.0
  0
ARC
  5
13A
330
1F
100
AcDbEntity
  8
0
  6
Continuous
 62
     7
370
    25
100
AcDbCircle
 10
126.0809333283
 20
82.2097933609
 30
0.0
 40
0.2000000000000028
100
AcDbArc
 50
180.0
 51
270.0
  0
LINE
  5
13B
330
1F
100
AcDbEntity
  8
0
  6
Continuous
 62
     7
370
    25
100
AcDbLine
 10
139.1151311328
 20
82.0097933609
 30
0.0
 11
143.8809333283
 21
82.0097933609
 31
0.0
  0
LINE
  5
13C
330
1F
100
AcDbEntity
  8
0
  6
Continuous
 62
     7
370
    25
100
AcDbLine
 10
126.0809333283
 20
82.0097933609
 30
0.0
 11
132.4467355237
 21
82.0097933609
 31
0.0
  0
LINE
  5
13D
330
1F
100
AcDbEntity
  8
0
  6
Continuous
 62
     7
370
    25
100
AcDbLine
 10
132.4467355237
 20
82.0097933609
 30
0.0
 11
133.9059333283
 21
84.5371980967
 31
0.0
  0
LINE
  5
13E
330
1F
100
AcDbEntity
  8
0
  6
Continuous
 62
     7
370
    25
100
AcDbLine
 10
137.6559333283
 20
84.5371980967
 30
0.0
 11
139.1151311328
 21
82.0097933609
 31
0.0
  0
ARC
  5
13F
330
1F
100
AcDbEntity
  8
0
  6
Continuous
 62
     7
370
    25
100
AcDbCircle
 10
134.9059333283
 20
84.6347933609
 30
0.0
 40
1.0
100
AcDbArc
 50
90.0
 51
180.0
  0
ARC
  5
140
330
1F
100
AcDbEntity
  8
0
  6
Continuous
 62
     7
370
    25
100
AcDbCircle
 10
136.6559333283
 20
84.6347933609
 30
0.0
 40
1.0
100
AcDbArc
 50
0.0
 51
90.0
  0
LINE
  5
141
330
1F
100
AcDbEntity
  8
0
  6
Continuous
 62
     7
370
    25
100
AcDbLine
 10
134.9059333283
 20
85.6347933609
 30
0.0
 11
136.6559333283
 21
85.6347933609
 31
0.0
  0
ARC
  5
142
330
1F
100
AcDbEntity
  8
0
  6
Continuous
 62
     7
370
    25
100
AcDbCircle
 10
125.4519984537
 20
87.9347933609
 30
0.0
 40
0.7999999999999962
100
AcDbArc
 50
57.576802718
 51
107.5
  0
LINE
  5
143
330
1F
100
AcDbEntity
  8
0
  6
Continuous
 62
     7
370
    25
100
AcDbLine
 10
124.7207512882
 20
88.5430553153
 30
0.0
 11
125.2114338141
 21
88.6977669215
 31
0.0
  0
LINE
  5
144
330
1F
100
AcDbEntity
  8
0
  6
Continuous
 62
     7
370
    25
100
AcDbLine
 10
111.3944878602
 20
89.2122728401
 30
0.0
 11
124.7207512882
 21
88.5430553153
 31
0.0
  0
LINE
  5
145
330
1F
100
AcDbEntity
  8
0
  6
Continuous
 62
     7
370
    25
100
AcDbLine
 10
87.4309333283
 20
90.4156732333
 30
0.0
 11
95.4857701918
 21
90.0111759023
 31
0.0
  0
ARC
  5
146
330
1F
100
AcDbEntity
  8
0
  6
Continuous
 62
     7
370
    25
100
AcDbCircle
 10
203.8809333283
 20
91.8132204856
 30
0.0
 40
2.000000000000016
100
AcDbArc
 50
315.0
 51
0.0
  0
LINE
  5
147
330
1F
100
AcDbEntity
  8
0
  6
Continuous
 62
     7
370
    25
100
AcDbLine
 10
85.9309333283
 20
91.2816986371
 30
0.0
 11
87.4309333283
 21
90.4156732333
 31
0.0
  0
LINE
  5
148
330
1F
100
AcDbEntity
  8
0
  6
Continuous
 62
     7
370
    25
100
AcDbLine
 10
176.3809333283
 20
126.7989230715
 30
0.0
 11
173.3809333283
 21
129.7989230715
 31
0.0
  0
LINE
  5
149
330
1F
100
AcDbEntity
  8
0
  6
Continuous
 62
     7
370
    25
100
AcDbLine
 10
173.3809333283
 20
129.7989230715
 30
0.0
 11
173.3809333283
 21
145.2989230715
 31
0.0
  0
LINE
  5
14A
330
1F
100
AcDbEntity
  8
0
  6
Continuous
 62
     7
370
    25
100
AcDbLine
 10
173.3809333283
 20
145.2989230715
 30
0.0
 11
174.3809333283
 21
146.2989230715
 31
0.0
  0
LINE
  5
14B
330
1F
100
AcDbEntity
  8
0
  6
Continuous
 62
     7
370
    25
100
AcDbLine
 10
177.3645093898
 20
146.2989230715
 30
0.0
 11
174.3809333283
 21
146.2989230715
 31
0.0
  0
LINE
  5
14C
330
1F
100
AcDbEntity
  8
0
  6
Continuous
 62
     7
370
    25
100
AcDbLine
 10
177.3645093898
 20
133.9589230715
 30
0.0
 11
177.3645093898
 21
146.2989230715
 31
0.0
  0
LINE
  5
14D
330
1F
100
AcDbEntity
  8
0
  6
Continuous
 62
     7
370
    25
100
AcDbLine
 10
177.3809333283
 20
133.9589230715
 30
0.0
 11
177.3645093898
 21
133.9589230715
 31
0.0
  0
LINE
  5
14E
330
1F
100
AcDbEntity
  8
0
  6
Continuous
 62
     7
370
    25
100
AcDbLine
 10
182.3809333283
 20
130.9546199764
 30
0.0
 11
177.3809333283
 21
133.9589230715
 31
0.0
  0
LINE
  5
14F
330
1F
100
AcDbEntity
  8
0
  6
Continuous
 62
     7
370
    25
100
AcDbLine
 10
187.3809333283
 20
133.9589230715
 30
0.0
 11
182.3809333283
 21
130.9546199764
 31
0.0
  0
LINE
  5
150
330
1F
100
AcDbEntity
  8
0
  6
Continuous
 62
     7
370
    25
100
AcDbLine
 10
187.3973572667
 20
133.9589230715
 30
0.0
 11
187.3809333283
 21
133.9589230715
 31
0.0
  0
LINE
  5
151
330
1F
100
AcDbEntity
  8
0
  6
Continuous
 62
     7
370
    25
100
AcDbLine
 10
187.3973572667
 20
133.9589230715
 30
0.0
 11
187.3973572667
 21
146.2989230715
 31
0.0
  0
LINE
  5
152
330
1F
100
AcDbEntity
  8
0
  6
Continuous
 62
     7
370
    25
100
AcDbLine
 10
190.3809333283
 20
146.2989230715
 30
0.0
 11
187.3973572667
 21
146.2989230715
 31
0.0
  0
LINE
  5
153
330
1F
100
AcDbEntity
  8
0
  6
Continuous
 62
     7
370
    25
100
AcDbLine
 10
190.3809333283
 20
146.2989230715
 30
0.0
 11
191.3809333283
 21
145.2989230715
 31
0.0
  0
LINE
  5
154
330
1F
100
AcDbEntity
  8
0
  6
Continuous
 62
     7
370
    25
100
AcDbLine
 10
191.3809333283
 20
145.2989230715
 30
0.0
 11
191.3809333283
 21
129.7989230715
 31
0.0
  0
LINE
  5
155
330
1F
100
AcDbEntity
  8
0
  6
Continuous
 62
     7
370
    25
100
AcDbLine
 10
191.3809333283
 20
129.7989230715
 30
0.0
 11
188.3809333283
 21
126.7989230715
 31
0.0
  0
LINE
  5
156
330
1F
100
AcDbEntity
  8
0
  6
Continuous
 62
     7
370
    25
100
AcDbLine
 10
188.3809333283
 20
126.7989230715
 30
0.0
 11
186.8809333283
 21
126.7989230715
 31
0.0
  0
LINE
  5
157
330
1F
100
AcDbEntity
  8
0
  6
Continuous
 62
     7
370
    25
100
AcDbLine
 10
182.3809333283
 20
129.3969992829
 30
0.0
 11
186.8809333283
 21
126.7989230715
 31
0.0
  0
LINE
  5
158
330
1F
100
AcDbEntity
  8
0
  6
Continuous
 62
     7
370
    25
100
AcDbLine
 10
177.8809333283
 20
126.7989230715
 30
0.0
 11
182.3809333283
 21
129.3969992829
 31
0.0
  0
LINE
  5
159
330
1F
100
AcDbEntity
  8
0
  6
Continuous
 62
     7
370
    25
100
AcDbLine
 10
177.8809333283
 20
126.7989230715
 30
0.0
 11
176.3809333283
 21
126.7989230715
 31
0.0
  0
LINE
  5
15A
330
1F
100
AcDbEntity
  8
0
  6
Continuous
 62
     7
370
    25
100
AcDbLine
 10
179.5390109168
 20
133.9589230715
 30
0.0
 11
177.3809333283
 21
133.9589230715
 31
0.0
  0
LINE
  5
15B
330
1F
100
AcDbEntity
  8
0
  6
Continuous
 62
     7
370
    25
100
AcDbLine
 10
184.5226407509
 20
133.9589230715
 30
0.0
 11
179.5390109168
 21
133.9589230715
 31
0.0
  0
LINE
  5
15C
330
1F
100
AcDbEntity
  8
0
  6
Continuous
 62
     7
370
    25
100
AcDbLine
 10
187.3645631623
 20
133.9589230715
 30
0.0
 11
184.5226407509
 21
133.9589230715
 31
0.0
  0
LINE
  5
15D
330
1F
100
AcDbEntity
  8
0
  6
Continuous
 62
     7
370
    25
100
AcDbLine
 10
187.3809333283
 20
133.9589230715
 30
0.0
 11
187.3645631623
 21
133.9589230715
 31
0.0
  0
LINE
  5
15E
330
1F
100
AcDbEntity
  8
0
  6
Continuous
 62
     7
370
    25
100
AcDbLine
 10
186.8809333283
 20
126.7989230715
 30
0.0
 11
177.8809333283
 21
126.7989230715
 31
0.0
  0
LINE
  5
15F
330
1F
100
AcDbEntity
  8
0
  6
Continuous
 62
     7
370
    25
100
AcDbLine
 10
187.1311581661
 20
133.9589230715
 30
0.0
 11
187.1311581661
 21
146.2989230715
 31
0.0
  0
LINE
  5
160
330
1F
100
AcDbEntity
  8
0
  6
Continuous
 62
     7
370
    25
100
AcDbLine
 10
187.1311581661
 20
146.2989230715
 30
0.0
 11
187.3973572667
 21
146.2989230715
 31
0.0
  0
LINE
  5
161
330
1F
100
AcDbEntity
  8
0
  6
Continuous
 62
     7
370
    25
100
AcDbLine
 10
181.9141233357
 20
133.9589230715
 30
0.0
 11
181.9141233357
 21
146.2989230715
 31
0.0
  0
LINE
  5
162
330
1F
100
AcDbEntity
  8
0
  6
Continuous
 62
     7
370
    25
100
AcDbLine
 10
177.3645093898
 20
146.2989230715
 30
0.0
 11
181.9141233357
 21
146.2989230715
 31
0.0
  0
LINE
  5
163
330
1F
100
AcDbEntity
  8
0
  6
Continuous
 62
     7
370
    25
100
AcDbLine
 10
187.1311581661
 20
146.2989230715
 30
0.0
 11
181.9141233357
 21
146.2989230715
 31
0.0
  0
LINE
  5
164
330
1F
100
AcDbEntity
  8
0
  6
Continuous
 62
     7
370
    25
100
AcDbLine
 10
151.3809333283
 20
126.5097172325
 30
0.0
 11
148.3809333283
 21
129.5097172325
 31
0.0
  0
LINE
  5
165
330
1F
100
AcDbEntity
  8
0
  6
Continuous
 62
     7
370
    25
100
AcDbLine
 10
148.3809333283
 20
129.5097172325
 30
0.0
 11
148.3809333283
 21
145.0097172325
 31
0.0
  0
LINE
  5
166
330
1F
100
AcDbEntity
  8
0
  6
Continuous
 62
     7
370
    25
100
AcDbLine
 10
148.3809333283
 20
145.0097172325
 30
0.0
 11
149.3809333283
 21
146.0097172325
 31
0.0
  0
LINE
  5
167
330
1F
100
AcDbEntity
  8
0
  6
Continuous
 62
     7
370
    25
100
AcDbLine
 10
151.8513611526
 20
146.0097172325
 30
0.0
 11
149.3809333283
 21
146.0097172325
 31
0.0
  0
LINE
  5
168
330
1F
100
AcDbEntity
  8
0
  6
Continuous
 62
     7
370
    25
100
AcDbLine
 10
151.8513611526
 20
133.6697172325
 30
0.0
 11
151.8513611526
 21
146.0097172325
 31
0.0
  0
LINE
  5
169
330
1F
100
AcDbEntity
  8
0
  6
Continuous
 62
     7
370
    25
100
AcDbLine
 10
152.3809333283
 20
133.6697172325
 30
0.0
 11
151.8513611526
 21
133.6697172325
 31
0.0
  0
LINE
  5
16A
330
1F
100
AcDbEntity
  8
0
  6
Continuous
 62
     7
370
    25
100
AcDbLine
 10
157.3809333283
 20
130.6654141374
 30
0.0
 11
152.3809333283
 21
133.6697172325
 31
0.0
  0
LINE
  5
16B
330
1F
100
AcDbEntity
  8
0
  6
Continuous
 62
     7
370
    25
100
AcDbLine
 10
162.3809333283
 20
133.6697172325
 30
0.0
 11
157.3809333283
 21
130.6654141374
 31
0.0
  0
LINE
  5
16C
330
1F
100
AcDbEntity
  8
0
  6
Continuous
 62
     7
370
    25
100
AcDbLine
 10
162.9105055039
 20
133.6697172325
 30
0.0
 11
162.3809333283
 21
133.6697172325
 31
0.0
  0
LINE
  5
16D
330
1F
100
AcDbEntity
  8
0
  6
Continuous
 62
     7
370
    25
100
AcDbLine
 10
162.9105055039
 20
146.0097172325
 30
0.0
 11
162.9105055039
 21
133.6697172325
 31
0.0
  0
LINE
  5
16E
330
1F
100
AcDbEntity
  8
0
  6
Continuous
 62
     7
370
    25
100
AcDbLine
 10
165.3809333283
 20
146.0097172325
 30
0.0
 11
162.9105055039
 21
146.0097172325
 31
0.0
  0
LINE
  5
16F
330
1F
100
AcDbEntity
  8
0
  6
Continuous
 62
     7
370
    25
100
AcDbLine
 10
165.3809333283
 20
146.0097172325
 30
0.0
 11
166.3809333283
 21
145.0097172325
 31
0.0
  0
LINE
  5
170
330
1F
100
AcDbEntity
  8
0
  6
Continuous
 62
     7
370
    25
100
AcDbLine
 10
166.3809333283
 20
145.0097172325
 30
0.0
 11
166.3809333283
 21
129.5097172325
 31
0.0
  0
LINE
  5
171
330
1F
100
AcDbEntity
  8
0
  6
Continuous
 62
     7
370
    25
100
AcDbLine
 10
166.3809333283
 20
129.5097172325
 30
0.0
 11
163.3809333283
 21
126.5097172325
 31
0.0
  0
LINE
  5
172
330
1F
100
AcDbEntity
  8
0
  6
Continuous
 62
     7
370
    25
100
AcDbLine
 10
163.3809333283
 20
126.5097172325
 30
0.0
 11
161.8809333283
 21
126.5097172325
 31
0.0
  0
LINE
  5
173
330
1F
100
AcDbEntity
  8
0
  6
Continuous
 62
     7
370
    25
100
AcDbLine
 10
157.3809333283
 20
129.1077934438
 30
0.0
 11
161.8809333283
 21
126.5097172325
 31
0.0
  0
LINE
  5
174
330
1F
100
AcDbEntity
  8
0
  6
Continuous
 62
     7
370
    25
100
AcDbLine
 10
152.8809333283
 20
126.5097172325
 30
0.0
 11
157.3809333283
 21
129.1077934438
 31
0.0
  0
LINE
  5
175
330
1F
100
AcDbEntity
  8
0
  6
Continuous
 62
     7
370
    25
100
AcDbLine
 10
152.8809333283
 20
126.5097172325
 30
0.0
 11
151.3809333283
 21
126.5097172325
 31
0.0
  0
LINE
  5
176
330
1F
100
AcDbEntity
  8
0
  6
Continuous
 62
     7
370
    25
100
AcDbLine
 10
153.2711897246
 20
133.6697172325
 30
0.0
 11
152.3809333283
 21
133.6697172325
 31
0.0
  0
LINE
  5
177
330
1F
100
AcDbEntity
  8
0
  6
Continuous
 62
     7
370
    25
100
AcDbLine
 10
157.7923351597
 20
133.6697172325
 30
0.0
 11
153.2711897246
 21
133.6697172325
 31
0.0
  0
LINE
  5
178
330
1F
100
AcDbEntity
  8
0
  6
Continuous
 62
     7
370
    25
100
AcDbLine
 10
161.9020787633
 20
133.6697172325
 30
0.0
 11
157.7923351597
 21
133.6697172325
 31
0.0
  0
LINE
  5
179
330
1F
100
AcDbEntity
  8
0
  6
Continuous
 62
     7
370
    25
100
AcDbLine
 10
162.3809333283
 20
133.6697172325
 30
0.0
 11
161.9020787633
 21
133.6697172325
 31
0.0
  0
LINE
  5
17A
330
1F
100
AcDbEntity
  8
0
  6
Continuous
 62
     7
370
    25
100
AcDbLine
 10
161.8809333283
 20
126.5097172325
 30
0.0
 11
152.8809333283
 21
126.5097172325
 31
0.0
  0
LINE
  5
17B
330
1F
100
AcDbEntity
  8
0
  6
Continuous
 62
     7
370
    25
100
AcDbLine
 10
160.6692981726
 20
133.6697172325
 30
0.0
 11
160.6692981726
 21
146.0097172325
 31
0.0
  0
LINE
  5
17C
330
1F
100
AcDbEntity
  8
0
  6
Continuous
 62
     7
370
    25
100
AcDbLine
 10
162.9105055039
 20
146.0097172325
 30
0.0
 11
160.6692981726
 21
146.0097172325
 31
0.0
  0
LINE
  5
17D
330
1F
100
AcDbEntity
  8
0
  6
Continuous
 62
     7
370
    25
100
AcDbLine
 10
154.9153721468
 20
133.6697172325
 30
0.0
 11
154.9153721468
 21
146.0097172325
 31
0.0
  0
LINE
  5
17E
330
1F
100
AcDbEntity
  8
0
  6
Continuous
 62
     7
370
    25
100
AcDbLine
 10
154.9153721468
 20
146.0097172325
 30
0.0
 11
151.8513611526
 21
146.0097172325
 31
0.0
  0
LINE
  5
17F
330
1F
100
AcDbEntity
  8
0
  6
Continuous
 62
     7
370
    25
100
AcDbLine
 10
154.9153721468
 20
146.0097172325
 30
0.0
 11
160.6692981726
 21
146.0097172325
 31
0.0
  0
LINE
  5
180
330
1F
100
AcDbEntity
  8
0
  6
Continuous
 62
     7
370
    25
100
AcDbLine
 10
144.8809333283
 20
113.4847933609
 30
0.0
 11
144.8809333283
 21
80.9847933609
 31
0.0
  0
LINE
  5
181
330
1F
100
AcDbEntity
  8
0
  6
Continuous
 62
     7
370
    25
100
AcDbLine
 10
143.8809333283
 20
144.9847933609
 30
0.0
 11
144.8809333283
 21
145.9847933609
 31
0.0
  0
LINE
  5
182
330
1F
100
AcDbEntity
  8
0
  6
Continuous
 62
     7
370
    25
100
AcDbLine
 10
143.8809333283
 20
81.9847933609
 30
0.0
 11
143.8809333283
 21
113.4847933609
 31
0.0
  0
ARC
  5
183
330
1F
100
AcDbEntity
  8
0
  6
Continuous
 62
     7
370
    25
100
AcDbCircle
 10
195.0525062035
 20
143.9847933609
 30
0.0
 40
2.000000000000016
100
AcDbArc
 50
45.0
 51
90.0
  0
SPLINE
  5
184
330
1F
100
AcDbEntity
  8
0
  6
Continuous
 62
     7
370
    25
100
AcDbSpline
210
0.0
220
0.0
230
1.0
 70
     8
 71
     3
 72
     9
 73
     5
 74
     0
 42
0.000000001
 43
0.00000001
 40
0.0
 40
0.0
 40
0.0
 40
0.0
 40
0.5888131622113338
 40
1.0
 40
1.0
 40
1.0
 40
1.0
 10
173.3809333795778
 20
145.9847933608681
 30
0.0
 10
173.4052458420134
 20
145.9772176874625
 30
0.0
 10
173.4465364652466
 20
145.9643516819249
 30
0.0
 10
173.7791728095484
 20
145.8719376662221
 30
0.0
 10
173.9159484960954
 20
145.8339382393379
 30
0.0
  0
LWPOLYLINE
  5
185
330
1F
100
AcDbEntity
  8
0
  6
Continuous
 62
     7
370
    25
100
AcDbPolyline
 90
        5
 70
   128
 43
0.0
 10
190.8464477739
 20
145.8334086259
 10
191.2077508468
 20
145.934385403
 10
191.3809332624
 20
145.9847933566
 10
191.3809332001
 20
145.9847933609
 10
191.3809332001
 20
145.9847933609
  0
LINE
  5
186
330
1F
100
AcDbEntity
  8
0
  6
Continuous
 62
     7
370
    25
100
AcDbLine
 10
173.3809333796
 20
145.9847933609
 30
0.0
 11
166.3809332001
 21
145.9847933609
 31
0.0
  0
SPLINE
  5
187
330
1F
100
AcDbEntity
  8
0
  6
Continuous
 62
     7
370
    25
100
AcDbSpline
210
0.0
220
0.0
230
1.0
 70
     8
 71
     3
 72
    10
 73
     6
 74
     0
 42
0.000000001
 43
0.00000001
 40
0.0
 40
0.0
 40
0.0
 40
0.0
 40
0.4783738467543655
 40
0.9626386013960747
 40
1.0
 40
1.0
 40
1.0
 40
1.0
 10
148.3809333795778
 20
145.9847933608681
 30
0.0
 10
148.420282246406
 20
145.9736129567
 30
0.0
 10
148.4994645394746
 20
145.951114467904
 30
0.0
 10
148.8168700525315
 20
145.857218838922
 30
0.0
 10
149.1211705614603
 20
145.7774624836579
 30
0.0
 10
149.14296604188
 20
145.7717499461218
 30
0.0
  0
LWPOLYLINE
  5
188
330
1F
100
AcDbEntity
  8
0
  6
Continuous
 62
     7
370
    25
100
AcDbPolyline
 90
        6
 70
   128
 43
0.0
 10
165.6195035101
 20
145.7711470506
 10
165.6878714725
 20
145.7890898115
 10
166.2077508468
 20
145.934385403
 10
166.3809332624
 20
145.9847933566
 10
166.3809332001
 20
145.9847933609
 10
166.3809332001
 20
145.9847933609
  0
LINE
  5
189
330
1F
100
AcDbEntity
  8
0
  6
Continuous
 62
     7
370
    25
100
AcDbLine
 10
148.3809333796
 20
145.9847933609
 30
0.0
 11
144.8809333283
 21
145.9847933609
 31
0.0
  0
LINE
  5
18A
330
1F
100
AcDbEntity
  8
0
  6
Continuous
 62
     7
370
    25
100
AcDbLine
 10
195.0525062035
 20
145.9847933609
 30
0.0
 11
191.3809332001
 21
145.9847933609
 31
0.0
  0
LINE
  5
18B
330
1F
100
AcDbEntity
  8
0
  6
Continuous
 62
     7
370
    25
100
AcDbLine
 10
205.2951468906
 20
136.5705797985
 30
0.0
 11
196.4667197659
 21
145.3990069232
 31
0.0
  0
LINE
  5
18C
330
1F
100
AcDbEntity
  8
0
  6
Continuous
 62
     7
370
    25
100
AcDbLine
 10
125.8809333283
 20
82.2097933609
 30
0.0
 11
125.8809333283
 21
113.4847933609
 31
0.0
  0
ARC
  5
18D
330
1F
100
AcDbEntity
  8
0
  6
Continuous
 62
     7
370
    25
100
AcDbCircle
 10
126.0809333283
 20
144.7597933609
 30
0.0
 40
0.2000000000000028
100
AcDbArc
 50
90.0
 51
180.0
  0
LINE
  5
18E
330
1F
100
AcDbEntity
  8
0
  6
Continuous
 62
     7
370
    25
100
AcDbLine
 10
125.8809333283
 20
113.4847933609
 30
0.0
 11
126.0809333283
 21
113.4847933609
 31
0.0
  0
LINE
  5
18F
330
1F
100
AcDbEntity
  8
0
  6
Continuous
 62
     7
370
    25
100
AcDbLine
 10
139.1151311328
 20
82.0097933609
 30
0.0
 11
139.1151311328
 21
108.5950860812
 31
0.0
  0
SPLINE
  5
190
330
1F
100
AcDbEntity
  8
0
  6
Continuous
 62
     7
370
    25
100
AcDbSpline
210
0.0
220
0.0
230
1.0
 70
     8
 71
     3
 72
    12
 73
     8
 74
     0
 42
0.000000001
 43
0.00000001
 40
0.0
 40
0.0
 40
0.0
 40
0.0
 40
0.1147409160664763
 40
0.3663146850580938
 40
0.62489390275328
 40
0.9030570152199432
 40
0.9999999999999999
 40
0.9999999999999999
 40
0.9999999999999999
 40
0.9999999999999999
 10
142.6684333282543
 20
113.4847933608682
 30
0.0
 10
142.657111771116
 20
113.2391656139072
 30
0.0
 10
142.6209672746307
 20
112.4549898041426
 30
0.0
 10
142.1789927040611
 20
111.1601699409314
 30
0.0
 10
141.1636414490842
 20
109.7937622940789
 30
0.0
 10
140.0457697710289
 20
108.9840349837803
 30
0.0
 10
139.3062529690365
 20
108.6749630875799
 30
0.0
 10
139.1151311328244
 20
108.595086081183
 30
0.0
  0
LINE
  5
191
330
1F
100
AcDbEntity
  8
0
  6
Continuous
 62
     7
370
    25
100
AcDbLine
 10
143.8809333283
 20
144.9597933609
 30
0.0
 11
139.1151311328
 21
144.9597933609
 31
0.0
  0
SPLINE
  5
192
330
1F
100
AcDbEntity
  8
0
  6
Continuous
 62
     7
370
    25
100
AcDbSpline
210
0.0
220
0.0
230
1.0
 70
     8
 71
     3
 72
    11
 73
     7
 74
     0
 42
0.000000001
 43
0.00000001
 40
0.0
 40
0.0
 40
0.0
 40
0.0
 40
0.4051571409697265
 40
0.6485894452963155
 40
0.9001775366434265
 40
1.0
 40
1.0
 40
1.0
 40
1.0
 10
132.4467355236843
 20
110.1898952753513
 30
0.0
 10
132.1559535089449
 20
110.5821095210348
 30
0.0
 10
131.6904596879781
 20
111.2099795357068
 30
0.0
 10
131.3315243404846
 20
112.2366943627497
 30
0.0
 10
131.2055726968832
 20
112.9432550740028
 30
0.0
 10
131.1961188180825
 20
113.3649934268359
 30
0.0
 10
131.1934333282543
 20
113.4847933608682
 30
0.0
  0
LINE
  5
193
330
1F
100
AcDbEntity
  8
0
  6
Continuous
 62
     7
370
    25
100
AcDbLine
 10
132.4467355237
 20
82.0097933609
 30
0.0
 11
132.4467355237
 21
110.1898952754
 31
0.0
  0
LINE
  5
194
330
1F
100
AcDbEntity
  8
0
  6
Continuous
 62
     7
370
    25
100
AcDbLine
 10
132.4467355237
 20
144.9597933609
 30
0.0
 11
126.0809333283
 21
144.9597933609
 31
0.0
  0
LINE
  5
195
330
1F
100
AcDbEntity
  8
0
  6
Continuous
 62
     7
370
    25
100
AcDbLine
 10
139.1151311328
 20
108.5950860812
 30
0.0
 11
138.0837770436
 21
109.929535618
 31
0.0
  0
ARC
  5
196
330
1F
100
AcDbEntity
  8
0
  6
Continuous
 62
     7
370
    25
100
AcDbCircle
 10
136.9309333283
 20
113.4847933609
 30
0.0
 40
3.737499999999983
100
AcDbArc
 50
287.9660359156
 51
0.0
  0
ARC
  5
197
330
1F
100
AcDbEntity
  8
0
  6
Continuous
 62
     7
370
    25
100
AcDbCircle
 10
136.9309333283
 20
113.4847933609
 30
0.0
 40
3.737500000000011
100
AcDbArc
 50
180.0
 51
206.113804444
  0
LINE
  5
198
330
1F
100
AcDbEntity
  8
0
  6
Continuous
 62
     7
370
    25
100
AcDbLine
 10
133.5749515208
 20
111.839712099
 30
0.0
 11
132.4467355237
 21
110.1898952754
 31
0.0
  0
LINE
  5
199
330
1F
100
AcDbEntity
  8
0
  6
Continuous
 62
     7
370
    25
100
AcDbLine
 10
133.9059333283
 20
111.2897349903
 30
0.0
 11
133.5749515208
 21
111.839712099
 31
0.0
  0
LINE
  5
19A
330
1F
100
AcDbEntity
  8
0
  6
Continuous
 62
     7
370
    25
100
AcDbLine
 10
133.9059333283
 20
84.5371980967
 30
0.0
 11
133.9059333283
 21
111.2897349903
 31
0.0
  0
LINE
  5
19B
330
1F
100
AcDbEntity
  8
0
  6
Continuous
 62
     7
370
    25
100
AcDbLine
 10
138.0837770436
 20
109.929535618
 30
0.0
 11
137.6559333283
 21
109.8182853151
 31
0.0
  0
LINE
  5
19C
330
1F
100
AcDbEntity
  8
0
  6
Continuous
 62
     7
370
    25
100
AcDbLine
 10
137.6559333283
 20
84.5371980967
 30
0.0
 11
137.6559333283
 21
109.8182853151
 31
0.0
  0
SPLINE
  5
19D
330
1F
100
AcDbEntity
  8
0
  6
Continuous
 62
     7
370
    25
100
AcDbSpline
210
0.0
220
0.0
230
1.0
 70
     8
 71
     3
 72
    14
 73
    10
 74
     0
 42
0.000000001
 43
0.00000001
 40
0.0
 40
0.0
 40
0.0
 40
0.0
 40
0.1321128141605454
 40
0.2683341552547383
 40
0.5305600537443511
 40
0.7494019315473532
 40
0.8881722729463551
 40
0.9987122471545304
 40
1.0
 40
1.0
 40
1.0
 40
1.0
 10
134.9059333282543
 20
110.3434113003731
 30
0.0
 10
134.8367972130248
 20
110.3899363857296
 30
0.0
 10
134.6963749444084
 20
110.4844334226495
 30
0.0
 10
134.4460508505214
 20
110.6857363344121
 30
0.0
 10
134.1977499873706
 20
110.92634921539
 30
0.0
 10
134.0125284258846
 20
111.1469633558399
 30
0.0
 10
133.9235589273799
 20
111.2652233988976
 30
0.0
 10
133.9059901744372
 20
111.2896570375592
 30
0.0
 10
133.9059339754145
 20
111.2897341028994
 30
0.0
 10
133.9059333282543
 20
111.2897349903458
 30
0.0
  0
SPLINE
  5
19E
330
1F
100
AcDbEntity
  8
0
  6
Continuous
 62
     7
370
    25
100
AcDbSpline
210
0.0
220
0.0
230
1.0
 70
     8
 71
     3
 72
    13
 73
     9
 74
     0
 42
0.000000001
 43
0.00000001
 40
0.0
 40
0.0
 40
0.0
 40
0.0
 40
0.0641425386587676
 40
0.2766882823844573
 40
0.4937438866561864
 40
0.7139027073941427
 40
0.9255735564640567
 40
1.0
 40
1.0
 40
1.0
 40
1.0
 10
137.6559333282617
 20
109.8182853150581
 30
0.0
 10
137.6548885506062
 20
109.8180804588184
 30
0.0
 10
137.6503817483964
 20
109.8171967812734
 30
0.0
 10
137.5790260654022
 20
109.8030473852453
 30
0.0
 10
137.3863209929555
 20
109.7724918970043
 30
0.0
 10
137.1073678767309
 20
109.7472544681994
 30
0.0
 10
136.8455503509916
 20
109.7452660425097
 30
0.0
 10
136.6950778261652
 20
109.7549142311817
 30
0.0
 10
136.6559333282543
 20
109.7574241478708
 30
0.0
  0
SPLINE
  5
19F
330
1F
100
AcDbEntity
  8
0
  6
Continuous
 62
     7
370
    25
100
AcDbSpline
210
0.0
220
0.0
230
1.0
 70
     8
 71
     3
 72
     9
 73
     5
 74
     0
 42
0.000000001
 43
0.00000001
 40
0.0
 40
0.0
 40
0.0
 40
0.0
 40
0.6722557365947752
 40
1.0
 40
1.0
 40
1.0
 40
1.0
 10
136.6559333282543
 20
109.7574241478708
 30
0.0
 10
136.2388720306578
 20
109.8246346402337
 30
0.0
 10
135.6184811959002
 20
109.9246122063654
 30
0.0
 10
135.0818207204722
 20
110.2400337115079
 30
0.0
 10
134.9059333282543
 20
110.3434113003731
 30
0.0
  0
LINE
  5
1A0
330
1F
100
AcDbEntity
  8
0
  6
Continuous
 62
     7
370
    25
100
AcDbLine
 10
125.8809333283
 20
140.3347933609
 30
0.0
 11
126.2149720143
 21
139.2753580005
 31
0.0
  0
LINE
  5
1A1
330
1F
100
AcDbEntity
  8
0
  6
Continuous
 62
     7
370
    25
100
AcDbLine
 10
125.8809333283
 20
140.3347933609
 30
0.0
 11
125.8809333283
 21
138.3595046275
 31
0.0
  0
ARC
  5
1A2
330
1F
100
AcDbEntity
  8
0
  6
Continuous
 62
     7
370
    25
100
AcDbCircle
 10
125.4519984537
 20
139.0347933609
 30
0.0
 40
0.8000000000000181
100
AcDbArc
 50
252.5
 51
17.5
  0
LINE
  5
1A3
330
1F
100
AcDbEntity
  8
0
  6
Continuous
 62
     7
370
    25
100
AcDbLine
 10
124.7207512882
 20
88.5430553153
 30
0.0
 11
124.7207512882
 21
113.4847933609
 31
0.0
  0
LINE
  5
1A4
330
1F
100
AcDbEntity
  8
0
  6
Continuous
 62
     7
370
    25
100
AcDbLine
 10
125.2114338141
 20
138.2718198003
 30
0.0
 11
124.7207512882
 21
138.4265314064
 31
0.0
  0
SPLINE
  5
1A5
330
1F
100
AcDbEntity
  8
0
  6
Continuous
 62
     7
370
    25
100
AcDbSpline
210
0.0
220
0.0
230
1.0
 70
     8
 71
     3
 72
    23
 73
    19
 74
     0
 42
0.000000001
 43
0.00000001
 40
0.0
 40
0.0
 40
0.0
 40
0.0
 40
0.0014621728442134
 40
0.0696166291606916
 40
0.1372678770609434
 40
0.2039714566823444
 40
0.2703021716555807
 40
0.3365585466955059
 40
0.4028693924596461
 40
0.4678701472524531
 40
0.5326420004819254
 40
0.5993603463758919
 40
0.6655236812295788
 40
0.7321173957814666
 40
0.7988871850719613
 40
0.8663369033858556
 40
0.9345229626491874
 40
1.0
 40
1.0
 40
1.0
 40
1.0
 10
95.64071955219066
 20
136.9090632110658
 30
0.0
 10
95.6418759965716
 20
136.9087064329638
 30
0.0
 10
95.69693635412938
 20
136.8917195979828
 30
0.0
 10
96.09335533029918
 20
136.7744537676152
 30
0.0
 10
96.80940651797442
 20
136.5738456930082
 30
0.0
 10
97.81908794735247
 20
136.3332301455992
 30
0.0
 10
99.03506565449116
 20
136.1059580194987
 30
0.0
 10
100.4392657309259
 20
135.9335684751371
 30
0.0
 10
101.9563298158896
 20
135.8455001765639
 30
0.0
 10
103.5306276638609
 20
135.8765478359505
 30
0.0
 10
105.0964478903714
 20
136.027571075525
 30
0.0
 10
106.5863049597577
 20
136.2819078741338
 30
0.0
 10
107.9579851521777
 20
136.5996446527787
 30
0.0
 10
109.1439082458776
 20
136.9435610729246
 30
0.0
 10
110.1215075898775
 20
137.2714036732323
 30
0.0
 10
110.8410187414778
 20
137.5403281027142
 30
0.0
 10
111.3136537431767
 20
137.722917438335
 30
0.0
 10
111.371124857529
 20
137.7461658309198
 30
0.0
 10
111.3992780157033
 20
137.7575544333702
 30
0.0
  0
LINE
  5
1A6
330
1F
100
AcDbEntity
  8
0
  6
Continuous
 62
     7
370
    25
100
AcDbLine
 10
95.481367443
 20
136.9581897224
 30
0.0
 11
87.4309333283
 21
136.5539134885
 31
0.0
  0
LINE
  5
1A7
330
1F
100
AcDbEntity
  8
0
  6
Continuous
 62
     7
370
    25
100
AcDbLine
 10
87.4309333283
 20
90.4156732333
 30
0.0
 11
87.4309333283
 21
104.3626703263
 31
0.0
  0
LINE
  5
1A8
330
1F
100
AcDbEntity
  8
0
  6
Continuous
 62
     7
370
    25
100
AcDbLine
 10
93.2491077812
 20
104.3672563846
 30
0.0
 11
87.4309333283
 21
104.3624666497
 31
0.0
  0
LINE
  5
1A9
330
1F
100
AcDbEntity
  8
0
  6
Continuous
 62
     7
370
    25
100
AcDbLine
 10
94.3326028307
 20
104.5047128304
 30
0.0
 11
93.2491077812
 21
104.3672563846
 31
0.0
  0
LINE
  5
1AA
330
1F
100
AcDbEntity
  8
0
  6
Continuous
 62
     7
370
    25
100
AcDbLine
 10
99.7247962472
 20
104.5089508723
 30
0.0
 11
94.3326122328
 21
104.5046835077
 31
0.0
  0
SPLINE
  5
1AB
330
1F
100
AcDbEntity
  8
0
  6
Continuous
 62
     7
370
    25
100
AcDbSpline
210
0.0
220
0.0
230
1.0
 70
     8
 71
     3
 72
    10
 73
     6
 74
     0
 42
0.000000001
 43
0.00000001
 40
0.0
 40
0.0
 40
0.0
 40
0.0
 40
0.4145033310204804
 40
0.8396757685716524
 40
1.0
 40
1.0
 40
1.0
 40
1.0
 10
101.9211178957635
 20
103.9747586364242
 30
0.0
 10
101.6049595136764
 20
103.9918346541296
 30
0.0
 10
100.9645049923201
 20
104.0264262176173
 30
0.0
 10
100.2323524426879
 20
104.2645123746942
 30
0.0
 10
99.83429599687702
 20
104.4562043788533
 30
0.0
 10
99.72529777857636
 20
104.5086946403118
 30
0.0
  0
LINE
  5
1AC
330
1F
100
AcDbEntity
  8
0
  6
Continuous
 62
     7
370
    25
100
AcDbLine
 10
103.8359911751
 20
103.9762540713
 30
0.0
 11
101.9211178958
 21
103.9747586364
 31
0.0
  0
SPLINE
  5
1AD
330
1F
100
AcDbEntity
  8
0
  6
Continuous
 62
     7
370
    25
100
AcDbSpline
210
0.0
220
0.0
230
1.0
 70
     8
 71
     3
 72
    15
 73
    11
 74
     0
 42
0.000000001
 43
0.00000001
 40
0.0
 40
0.0
 40
0.0
 40
0.0
 40
0.1258014907338083
 40
0.2541092269977559
 40
0.379871207674227
 40
0.5058138607337423
 40
0.6314434375655461
 40
0.7534446213431713
 40
0.8782754323769069
 40
1.0
 40
1.0
 40
1.0
 40
1.0
 10
108.7758754814558
 20
109.1101178757995
 30
0.0
 10
108.760915072176
 20
108.7752257327271
 30
0.0
 10
108.7306962089855
 20
108.098769650153
 30
0.0
 10
108.4308424304799
 20
107.1387893740057
 30
0.0
 10
107.9769074145803
 20
106.2551580065921
 30
0.0
 10
107.3645506337517
 20
105.4832854476364
 30
0.0
 10
106.6282706500897
 20
104.8382369157482
 30
0.0
 10
105.7723984944271
 20
104.3528773246705
 30
0.0
 10
104.8333517185974
 20
104.0295170547578
 30
0.0
 10
104.1656406228537
 20
103.9938586508956
 30
0.0
 10
103.8359911750529
 20
103.976254071284
 30
0.0
  0
LINE
  5
1AE
330
1F
100
AcDbEntity
  8
0
  6
Continuous
 62
     7
370
    25
100
AcDbLine
 10
108.7758754815
 20
113.4847933609
 30
0.0
 11
108.7758754815
 21
109.1101178758
 31
0.0
  0
LINE
  5
1AF
330
1F
100
AcDbEntity
  8
0
  6
Continuous
 62
     7
370
    25
100
AcDbLine
 10
124.7207512882
 20
138.4265314064
 30
0.0
 11
111.3992780157
 21
137.7575544334
 31
0.0
  0
SPLINE
  5
1B0
330
1F
100
AcDbEntity
  8
0
  6
Continuous
 62
     7
370
    25
100
AcDbSpline
210
0.0
220
0.0
230
1.0
 70
     8
 71
     3
 72
    20
 73
    16
 74
     0
 42
0.000000001
 43
0.00000001
 40
0.0
 40
0.0
 40
0.0
 40
0.0
 40
0.0829621378684853
 40
0.1658495135106165
 40
0.2487180070857357
 40
0.3299477216398528
 40
0.4108693994445735
 40
0.4941953814850567
 40
0.5768901676626231
 40
0.6601065810557782
 40
0.7435845489350856
 40
0.827985846540189
 40
0.9132590745392889
 40
0.997225703581181
 40
1.0
 40
1.0
 40
1.0
 40
1.0
 10
97.79334942298132
 20
90.62153299336126
 30
0.0
 10
98.1790952590526
 20
90.69845141996541
 30
0.0
 10
98.9502393121698
 20
90.852218957303
 30
0.0
 10
100.3579874633396
 20
91.02813417868852
 30
0.0
 10
101.8658388312142
 20
91.12213046601757
 30
0.0
 10
103.4383278062321
 20
91.09828608415097
 30
0.0
 10
105.0056248374442
 20
90.95438103925038
 30
0.0
 10
106.5014008642256
 20
90.70532343645135
 30
0.0
 10
107.8816547398984
 20
90.39064274391271
 30
0.0
 10
109.079248922954
 20
90.04638139193217
 30
0.0
 10
110.0661109527762
 20
89.71733416611242
 30
0.0
 10
110.8133491989742
 20
89.43887325790467
 30
0.0
 10
111.2605506283399
 20
89.26701746287303
 30
0.0
 10
111.4473052404896
 20
89.19316679127466
 30
0.0
 10
111.3962070265916
 20
89.21331808234773
 30
0.0
 10
111.3945727162464
 20
89.21396259535426
 30
0.0
  0
SPLINE
  5
1B1
330
1F
100
AcDbEntity
  8
0
  6
Continuous
 62
     7
370
    25
100
AcDbSpline
210
0.0
220
0.0
230
1.0
 70
     8
 71
     3
 72
    11
 73
     7
 74
     0
 42
0.000000001
 43
0.00000001
 40
0.0
 40
0.0
 40
0.0
 40
0.0
 40
0.243551223173136
 40
0.4981153923403517
 40
0.7509097881719441
 40
0.9999999999999999
 40
0.9999999999999999
 40
0.9999999999999999
 40
0.9999999999999999
 10
95.48585530523773
 20
90.01287078397814
 30
0.0
 10
95.51180622676301
 20
90.0211063205163
 30
0.0
 10
95.56488152356812
 20
90.03794978966579
 30
0.0
 10
96.0425765072306
 20
90.17885123180329
 30
0.0
 10
96.75391595549736
 20
90.3841417822515
 30
0.0
 10
97.44858060267202
 20
90.54279290044872
 30
0.0
 10
97.79334942298132
 20
90.62153299336126
 30
0.0
  0
LINE
  5
1B2
330
1F
100
AcDbEntity
  8
0
  6
Continuous
 62
     7
370
    25
100
AcDbLine
 10
108.7758754815
 20
109.1101178758
 30
0.0
 11
107.8809333283
 21
109.2722933609
 31
0.0
  0
LINE
  5
1B3
330
1F
100
AcDbEntity
  8
0
  6
Continuous
 62
     7
370
    25
100
AcDbLine
 10
107.8809333283
 20
109.2722933609
 30
0.0
 11
107.8809333283
 21
113.4847933609
 31
0.0
  0
SPLINE
  5
1B4
330
1F
100
AcDbEntity
  8
0
  6
Continuous
 62
     7
370
    25
100
AcDbSpline
210
0.0
220
0.0
230
1.0
 70
     8
 71
     3
 72
    16
 73
    12
 74
     0
 42
0.000000001
 43
0.00000001
 40
0.0
 40
0.0
 40
0.0
 40
0.0
 40
0.1190663774527916
 40
0.182563314036127
 40
0.2488233646053999
 40
0.3610833254345984
 40
0.4986027690959594
 40
0.6243267906323984
 40
0.7501433800186458
 40
0.8762289699748068
 40
0.9999999999999999
 40
0.9999999999999999
 40
0.9999999999999999
 40
0.9999999999999999
 10
103.8809333282543
 20
105.2722933608681
 30
0.0
 10
104.1397425457673
 20
105.2863509009522
 30
0.0
 10
104.5365721920795
 20
105.3079051899115
 30
0.0
 10
105.053431944976
 20
105.4412009168775
 30
0.0
 10
105.5363098371854
 20
105.6155950424482
 30
0.0
 10
106.1220753485582
 20
105.92855874631
 30
0.0
 10
106.7259754200746
 20
106.4215285070219
 30
0.0
 10
107.2338288787105
 20
107.0446374793792
 30
0.0
 10
107.5973640128119
 20
107.7309998354075
 30
0.0
 10
107.8349748140731
 20
108.4784775101798
 30
0.0
 10
107.8657087252611
 20
109.0093272621645
 30
0.0
 10
107.8809333282543
 20
109.2722933608681
 30
0.0
  0
LINE
  5
1B5
330
1F
100
AcDbEntity
  8
0
  6
Continuous
 62
     7
370
    25
100
AcDbLine
 10
205.8809333283
 20
91.8132205008
 30
0.0
 11
205.8809333283
 21
113.4847933609
 31
0.0
  0
ARC
  5
1B6
330
1F
100
AcDbEntity
  8
0
  6
Continuous
 62
     7
370
    25
100
AcDbCircle
 10
203.8809333283
 20
135.1563662361
 30
0.0
 40
2.000000000000036
100
AcDbArc
 50
0.0
 51
45.0
  0
LINE
  5
1B7
330
1F
100
AcDbEntity
  8
0
  6
Continuous
 62
     7
370
    25
100
AcDbLine
 10
100.8809516972
 20
105.4222881836
 30
0.0
 11
101.966060049
 21
105.2722933609
 31
0.0
  0
LINE
  5
1B8
330
1F
100
AcDbEntity
  8
0
  6
Continuous
 62
     7
370
    25
100
AcDbLine
 10
101.9211178958
 20
103.9747586364
 30
0.0
 11
101.966060049
 21
105.2722933609
 31
0.0
  0
LINE
  5
1B9
330
1F
100
AcDbEntity
  8
0
  6
Continuous
 62
     7
370
    25
100
AcDbLine
 10
100.5534326405
 20
105.4228381095
 30
0.0
 11
99.725941933
 21
104.5088168306
 31
0.0
  0
LINE
  5
1BA
330
1F
100
AcDbEntity
  8
0
  6
Continuous
 62
     7
370
    25
100
AcDbLine
 10
100.5556053253
 20
105.4222933609
 30
0.0
 11
100.8810331287
 21
105.4222933609
 31
0.0
  0
LINE
  5
1BB
330
1F
100
AcDbEntity
  8
0
  6
Continuous
 62
     7
370
    25
100
AcDbLine
 10
94.3070832398
 20
105.4022415871
 30
0.0
 11
94.3324977314
 21
104.5046834165
 31
0.0
  0
LINE
  5
1BC
330
1F
100
AcDbEntity
  8
0
  6
Continuous
 62
     7
370
    25
100
AcDbLine
 10
94.307094431
 20
105.4022420772
 30
0.0
 11
94.3723554522
 21
105.4198859856
 31
0.0
  0
LINE
  5
1BD
330
1F
100
AcDbEntity
  8
0
  6
Continuous
 62
     7
370
    25
100
AcDbLine
 10
94.3809333283
 20
105.4222933609
 30
0.0
 11
100.5545204888
 21
105.4222933609
 31
0.0
  0
LINE
  5
1BE
330
1F
100
AcDbEntity
  8
0
  6
Continuous
 62
     7
370
    25
100
AcDbLine
 10
101.966060049
 20
105.2722933609
 30
0.0
 11
103.8809333283
 21
105.2722933609
 31
0.0
  0
LINE
  5
1BF
330
1F
100
AcDbEntity
  8
0
  6
Continuous
 62
     7
370
    25
100
AcDbLine
 10
93.2958066075
 20
105.2722933609
 30
0.0
 11
94.3070897387
 21
105.4022408511
 31
0.0
  0
LINE
  5
1C0
330
1F
100
AcDbEntity
  8
0
  6
Continuous
 62
     7
370
    25
100
AcDbLine
 10
86.5172735067
 20
104.7447916169
 30
0.0
 11
87.4309333283
 21
105.2722933609
 31
0.0
  0
LINE
  5
1C1
330
1F
100
AcDbEntity
  8
0
  6
Continuous
 62
     7
370
    25
100
AcDbLine
 10
87.4309333283
 20
105.2722933609
 30
0.0
 11
93.2958066075
 21
105.2722933609
 31
0.0
  0
LINE
  5
1C2
330
1F
100
AcDbEntity
  8
0
  6
Continuous
 62
     7
370
    25
100
AcDbLine
 10
87.4309333278
 20
104.3624666495
 30
0.0
 11
86.5172735067
 21
104.7447916169
 31
0.0
  0
LINE
  5
1C3
330
1F
100
AcDbEntity
  8
0
  6
Continuous
 62
     7
370
    25
100
AcDbLine
 10
85.9309333283
 20
91.2816986371
 30
0.0
 11
85.9309333283
 21
104.4062679571
 31
0.0
  0
LINE
  5
1C4
330
1F
100
AcDbEntity
  8
0
  6
Continuous
 62
     7
370
    25
100
AcDbLine
 10
86.5172735067
 20
104.7447916169
 30
0.0
 11
85.9309333283
 21
104.4062679571
 31
0.0
  0
LINE
  5
1C5
330
1F
100
AcDbEntity
  8
0
  6
Continuous
 62
     7
370
    25
100
AcDbLine
 10
117.6561738018
 20
131.7347933609
 30
0.0
 11
119.0809333283
 21
131.7347933609
 31
0.0
  0
ARC
  5
1C6
330
1F
100
AcDbEntity
  8
0
  6
Continuous
 62
     7
370
    25
100
AcDbCircle
 10
119.0809333283
 20
130.9347933609
 30
0.0
 40
0.8000000000000114
100
AcDbArc
 50
0.0
 51
90.0
  0
ARC
  5
1C7
330
1F
100
AcDbEntity
  8
0
  6
Continuous
 62
     7
370
    25
100
AcDbCircle
 10
117.6561738018
 20
130.9347933609
 30
0.0
 40
0.800000000000017
100
AcDbArc
 50
90.0
 51
120.0
  0
LINE
  5
1C8
330
1F
100
AcDbEntity
  8
0
  6
Continuous
 62
     7
370
    25
100
AcDbLine
 10
116.3809333283
 20
131.1222933609
 30
0.0
 11
116.3809333283
 21
113.4847933609
 31
0.0
  0
LINE
  5
1C9
330
1F
100
AcDbEntity
  8
0
  6
Continuous
 62
     7
370
    25
100
AcDbLine
 10
116.3809333283
 20
131.1222933609
 30
0.0
 11
117.2561738018
 21
131.6276136839
 31
0.0
  0
LINE
  5
1CA
330
1F
100
AcDbEntity
  8
0
  6
Continuous
 62
     7
370
    25
100
AcDbLine
 10
86.6825993781
 20
104.8402425533
 30
0.0
 11
86.5461306057
 21
104.7614522708
 31
0.0
  0
SPLINE
  5
1CB
330
1F
100
AcDbEntity
  8
0
  6
Continuous
 62
     7
370
    25
100
AcDbSpline
210
0.0
220
0.0
230
1.0
 70
     8
 71
     3
 72
    21
 73
    17
 74
     0
 42
0.000000001
 43
0.00000001
 40
0.0
 40
0.0
 40
0.0
 40
0.0
 40
0.0707084570985729
 40
0.1420168649736763
 40
0.2482542925805443
 40
0.3026706826890511
 40
0.3575022453925003
 40
0.4105140683505047
 40
0.4639537260302912
 40
0.5187831919244626
 40
0.5741093215962012
 40
0.6716010459258348
 40
0.7719834117889964
 40
0.8685374482962092
 40
0.9678313809571757
 40
0.9999999999999999
 40
0.9999999999999999
 40
0.9999999999999999
 40
0.9999999999999999
 10
100.3485636595949
 20
129.6574621150776
 30
0.0
 10
100.0732526639256
 20
129.660410831382
 30
0.0
 10
99.52029469960128
 20
129.6663332834114
 30
0.0
 10
98.56194633001766
 20
129.7207032407849
 30
0.0
 10
97.6859195707284
 20
129.8113871448006
 30
0.0
 10
96.90843869029611
 20
129.9284319808785
 30
0.0
 10
96.34587152698398
 20
130.0309632574119
 30
0.0
 10
95.81445353859873
 20
130.1445082816793
 30
0.0
 10
95.31504704090986
 20
130.2663589981049
 30
0.0
 10
94.84596978903234
 20
130.3947789766424
 30
0.0
 10
94.30432163718734
 20
130.5585538401467
 30
0.0
 10
93.74157035534164
 20
130.7503147995216
 30
0.0
 10
93.24983701013286
 20
130.9371917433885
 30
0.0
 10
92.92849829875645
 20
131.068200418791
 30
0.0
 10
92.8108595729546
 20
131.1180938228868
 30
0.0
 10
92.80288462621226
 20
131.1214677642727
 30
0.0
 10
92.80093317296328
 20
131.1222933608681
 30
0.0
  0
SPLINE
  5
1CC
330
1F
100
AcDbEntity
  8
0
  6
Continuous
 62
     7
370
    25
100
AcDbSpline
210
0.0
220
0.0
230
1.0
 70
     8
 71
     3
 72
    18
 73
    14
 74
     0
 42
0.000000001
 43
0.00000001
 40
0.0
 40
0.0
 40
0.0
 40
0.0
 40
0.0966781002493976
 40
0.195718634299453
 40
0.2944073088341058
 40
0.3931802875943437
 40
0.4927875215001692
 40
0.5924678844409834
 40
0.6939955360095719
 40
0.7928896499390155
 40
0.8917744138254745
 40
0.9933685781154477
 40
1.0
 40
1.0
 40
1.0
 40
1.0
 10
111.3568827183384
 20
131.1222933608681
 30
0.0
 10
111.3274966071115
 20
131.1096649413025
 30
0.0
 10
111.2680063032902
 20
131.0840995130994
 30
0.0
 10
110.7841842299196
 20
130.8875645564799
 30
0.0
 10
110.0590451425308
 20
130.6041700500567
 30
0.0
 10
109.0789513056031
 20
130.2664502572786
 30
0.0
 10
107.8934438660727
 20
129.9234844964164
 30
0.0
 10
106.5230490949295
 20
129.6263117649748
 30
0.0
 10
105.0368456859215
 20
129.4163911449074
 30
0.0
 10
103.4808833296478
 20
129.3417562477172
 30
0.0
 10
101.9251721726833
 20
129.4154604326873
 30
0.0
 10
100.8973725772475
 20
129.5602083846018
 30
0.0
 10
100.3860704389737
 20
129.6528757744409
 30
0.0
 10
100.3547408771833
 20
129.6585538823512
 30
0.0
  0
LINE
  5
1CD
330
1F
100
AcDbEntity
  8
0
  6
Continuous
 62
     7
370
    25
100
AcDbLine
 10
111.3568827183
 20
131.1222933609
 30
0.0
 11
116.3809333283
 21
131.1222933609
 31
0.0
  0
LINE
  5
1CE
330
1F
100
AcDbEntity
  8
0
  6
Continuous
 62
     7
370
    25
100
AcDbLine
 10
108.5309333283
 20
117.5475667717
 30
0.0
 11
108.5309333283
 21
113.4847933609
 31
0.0
  0
SPLINE
  5
1CF
330
1F
100
AcDbEntity
  8
0
  6
Continuous
 62
     7
370
    25
100
AcDbSpline
210
0.0
220
0.0
230
1.0
 70
     8
 71
     3
 72
    15
 73
    11
 74
     0
 42
0.000000001
 43
0.00000001
 40
0.0
 40
0.0
 40
0.0
 40
0.0
 40
0.12497164988929
 40
0.2537392674540663
 40
0.3794986770809659
 40
0.5055791835236322
 40
0.6297863806082823
 40
0.7537255329832839
 40
0.8779635682251208
 40
1.0
 40
1.0
 40
1.0
 40
1.0
 10
103.8809333282543
 20
122.0322899432331
 30
0.0
 10
104.1899152111543
 20
122.0159316064952
 30
0.0
 10
104.8172641874468
 20
121.9827180545871
 30
0.0
 10
105.7072859656378
 20
121.6981222913157
 30
0.0
 10
106.5221821292194
 20
121.2761794087568
 30
0.0
 10
107.2163449080604
 20
120.7118136775627
 30
0.0
 10
107.783828155472
 20
120.0361466790194
 30
0.0
 10
108.2020955887857
 20
119.2663331922998
 30
0.0
 10
108.4794883703582
 20
118.4298145088354
 30
0.0
 10
108.5138875142014
 20
117.8398914520904
 30
0.0
 10
108.5309333282543
 20
117.5475667716678
 30
0.0
  0
LINE
  5
1D0
330
1F
100
AcDbEntity
  8
0
  6
Continuous
 62
     7
370
    25
100
AcDbLine
 10
101.966060049
 20
122.0322899432
 30
0.0
 11
103.8809333283
 21
122.0322899432
 31
0.0
  0
LINE
  5
1D1
330
1F
100
AcDbEntity
  8
0
  6
Continuous
 62
     7
370
    25
100
AcDbLine
 10
100.9648494847
 20
121.9300977701
 30
0.0
 11
101.966060049
 21
122.0322899432
 31
0.0
  0
LINE
  5
1D2
330
1F
100
AcDbEntity
  8
0
  6
Continuous
 62
     7
370
    25
100
AcDbLine
 10
95.5402631991
 20
121.9299317064
 30
0.0
 11
100.9640666628
 21
121.9299317064
 31
0.0
  0
SPLINE
  5
1D3
330
1F
100
AcDbEntity
  8
0
  6
Continuous
 62
     7
370
    25
100
AcDbSpline
210
0.0
220
0.0
230
1.0
 70
     8
 71
     3
 72
    11
 73
     7
 74
     0
 42
0.000000001
 43
0.00000001
 40
0.0
 40
0.0
 40
0.0
 40
0.0
 40
0.2449035740443123
 40
0.5008054508112293
 40
0.7479039790628424
 40
1.0
 40
1.0
 40
1.0
 40
1.0
 10
91.76827629210423
 20
123.867573523531
 30
0.0
 10
92.14542882860984
 20
123.8423028581036
 30
0.0
 10
92.91667133418107
 20
123.7906266543524
 30
0.0
 10
93.95925724066062
 20
123.3603989556397
 30
0.0
 10
94.87565884513369
 20
122.7552091113556
 30
0.0
 10
95.31725479222558
 20
122.207735045211
 30
0.0
 10
95.54026319907769
 20
121.9312575999631
 30
0.0
  0
LINE
  5
1D4
330
1F
100
AcDbEntity
  8
0
  6
Continuous
 62
     7
370
    25
100
AcDbLine
 10
88.9767345752
 20
123.8675735235
 30
0.0
 11
91.7682762921
 21
123.8675735235
 31
0.0
  0
LINE
  5
1D5
330
1F
100
AcDbEntity
  8
0
  6
Continuous
 62
     7
370
    25
100
AcDbLine
 10
88.9309305035
 20
123.9310265145
 30
0.0
 11
88.9767345752
 21
123.8675735235
 31
0.0
  0
LINE
  5
1D6
330
1F
100
AcDbEntity
  8
0
  6
Continuous
 62
     7
370
    25
100
AcDbLine
 10
88.9309333283
 20
131.1222933609
 30
0.0
 11
88.9309333283
 21
123.9310265145
 31
0.0
  0
LINE
  5
1D7
330
1F
100
AcDbEntity
  8
0
  6
Continuous
 62
     7
370
    25
100
AcDbLine
 10
88.9309333283
 20
131.1222933609
 30
0.0
 11
92.800933173
 21
131.1222933609
 31
0.0
  0
ARC
  5
1D8
330
1F
100
AcDbEntity
  8
0
  6
Continuous
 62
     7
370
    25
100
AcDbCircle
 10
123.5809333283
 20
127.8347933609
 30
0.0
 40
1.200000000000003
100
AcDbArc
 50
0.0
 51
90.0
  0
LINE
  5
1D9
330
1F
100
AcDbEntity
  8
0
  6
Continuous
 62
     7
370
    25
100
AcDbLine
 10
119.8809333283
 20
129.0347933609
 30
0.0
 11
123.5809333283
 21
129.0347933609
 31
0.0
  0
LINE
  5
1DA
330
1F
100
AcDbEntity
  8
0
  6
Continuous
 62
     7
370
    25
100
AcDbLine
 10
119.8809333283
 20
129.0347933609
 30
0.0
 11
119.8809333283
 21
113.4847933609
 31
0.0
  0
ARC
  5
1DB
330
1F
100
AcDbEntity
  8
0
  6
Continuous
 62
     7
370
    25
100
AcDbCircle
 10
205.3809333283
 20
126.4847933609
 30
0.0
 40
0.5
100
AcDbArc
 50
270.0
 51
0.0
  0
LINE
  5
1DC
330
1F
100
AcDbEntity
  8
0
  6
Continuous
 62
     7
370
    25
100
AcDbLine
 10
205.8809333283
 20
126.4847933609
 30
0.0
 11
205.8809333283
 21
113.4847933609
 31
0.0
  0
SPLINE
  5
1DD
330
1F
100
AcDbEntity
  8
0
  6
Continuous
 62
     7
370
    25
100
AcDbSpline
210
0.0
220
0.0
230
1.0
 70
     8
 71
     3
 72
    18
 73
    14
 74
     0
 42
0.000000001
 43
0.00000001
 40
0.0
 40
0.0
 40
0.0
 40
0.0
 40
0.093315340888608
 40
0.1874603173991156
 40
0.2702135447580352
 40
0.3535046984945881
 40
0.4384033295734879
 40
0.523818579759974
 40
0.6122312880006164
 40
0.7011490705513558
 40
0.7915475366472303
 40
0.8824170961064985
 40
1.0
 40
1.0
 40
1.0
 40
1.0
 10
149.3809333282544
 20
126.2847933608681
 30
0.0
 10
149.3858365112349
 20
126.2817259561326
 30
0.0
 10
149.395686469763
 20
126.2755638753876
 30
0.0
 10
149.4721375633801
 20
126.227913902078
 30
0.0
 10
149.585779812585
 20
126.1576418840146
 30
0.0
 10
149.7342559877
 20
126.0667567496991
 30
0.0
 10
149.9214063318223
 20
125.9537739356675
 30
0.0
 10
150.1490195229506
 20
125.818779188782
 30
0.0
 10
150.4160882438878
 20
125.6639100558455
 30
0.0
 10
150.7231584242727
 20
125.4906393659569
 30
0.0
 10
151.0673449706951
 20
125.3032013355746
 30
0.0
 10
151.4809610343963
 20
125.0857268693889
 30
0.0
 10
151.8039622656697
 20
124.9287008415317
 30
0.0
 10
151.9861593101346
 20
124.8401263241317
 30
0.0
  0
LINE
  5
1DE
330
1F
100
AcDbEntity
  8
0
  6
Continuous
 62
     7
370
    25
100
AcDbLine
 10
147.2809333283
 20
126.2847933609
 30
0.0
 11
149.3809333283
 21
126.2847933609
 31
0.0
  0
ARC
  5
1DF
330
1F
100
AcDbEntity
  8
0
  6
Continuous
 62
     7
370
    25
100
AcDbCircle
 10
147.2809333283
 20
125.8847933609
 30
0.0
 40
0.4000000000000199
100
AcDbArc
 50
90.0
 51
180.0
  0
LINE
  5
1E0
330
1F
100
AcDbEntity
  8
0
  6
Continuous
 62
     7
370
    25
100
AcDbLine
 10
151.9861593101
 20
124.8401263241
 30
0.0
 11
152.1229673675
 21
124.7484180172
 31
0.0
  0
LINE
  5
1E1
330
1F
100
AcDbEntity
  8
0
  6
Continuous
 62
     7
370
    25
100
AcDbLine
 10
152.1229673675
 20
124.7484180172
 30
0.0
 11
152.8809333283
 21
124.0913950787
 31
0.0
  0
LINE
  5
1E2
330
1F
100
AcDbEntity
  8
0
  6
Continuous
 62
     7
370
    25
100
AcDbLine
 10
152.8809333283
 20
124.0913950787
 30
0.0
 11
152.8809333283
 21
113.4847933609
 31
0.0
  0
SPLINE
  5
1E3
330
1F
100
AcDbEntity
  8
0
  6
Continuous
 62
     7
370
    25
100
AcDbSpline
210
0.0
220
0.0
230
1.0
 70
     8
 71
     3
 72
    47
 73
    43
 74
     0
 42
0.000000001
 43
0.00000001
 40
0.0
 40
0.0
 40
0.0
 40
0.0
 40
0.0272084573943337
 40
0.0547172230266097
 40
0.0763905829784284
 40
0.0982028257497908
 40
0.1204283622650211
 40
0.1427860847092031
 40
0.1661559462455582
 40
0.1896580734705675
 40
0.2135471047207203
 40
0.2375590031186595
 40
0.2644659708979487
 40
0.2915354469422182
 40
0.3191174246847136
 40
0.346883694125216
 40
0.3699880096365007
 40
0.3932234332781004
 40
0.4169143525278148
 40
0.4407865986922303
 40
0.4701731660694847
 40
0.4999969911799462
 40
0.5223908528592375
 40
0.5449836644745779
 40
0.5681756030576705
 40
0.5915580614360771
 40
0.6139447363174437
 40
0.6364661442265397
 40
0.6593676463916218
 40
0.6823849303588378
 40
0.7079585767377775
 40
0.7336737082267951
 40
0.759824329505964
 40
0.7861260963428608
 40
0.8147814885274834
 40
0.8436615734999603
 40
0.8733161401007175
 40
0.9032721431497176
 40
0.9269672935289361
 40
0.950842458557592
 40
0.9753129466997568
 40
1.0
 40
1.0
 40
1.0
 40
1.0
 10
174.3809333282543
 20
125.9847933608681
 30
0.0
 10
174.386931845189
 20
125.9809500117551
 30
0.0
 10
174.3989950865622
 20
125.9732208932853
 30
0.0
 10
174.4897189282431
 20
125.9153473885343
 30
0.0
 10
174.6171466520478
 20
125.8348024720906
 30
0.0
 10
174.7730667959346
 20
125.7372799332558
 30
0.0
 10
174.9666705448128
 20
125.6178844332724
 30
0.0
 10
175.200525221778
 20
125.4762331088654
 30
0.0
 10
175.4739085373382
 20
125.314330083552
 30
0.0
 10
175.7879211187621
 20
125.1335236085559
 30
0.0
 10
176.1379339176114
 20
124.9387597805763
 30
0.0
 10
176.5376776498136
 20
124.7253498784322
 30
0.0
 10
176.9891019691155
 20
124.4966927639013
 30
0.0
 10
177.4975328003633
 20
124.2562270864676
 30
0.0
 10
178.0467496805739
 20
124.0178436891691
 30
0.0
 10
178.6021726640875
 20
123.8017327824236
 30
0.0
 10
179.1535715401871
 20
123.613089249744
 30
0.0
 10
179.6964157568914
 20
123.4527985655911
 30
0.0
 10
180.2655928909055
 20
123.3141706884853
 30
0.0
 10
180.903558965471
 20
123.1948861254495
 30
0.0
 10
181.610920998192
 20
123.1102453633553
 30
0.0
 10
182.3167385331823
 20
123.0816385948906
 30
0.0
 10
182.9634920047404
 20
123.1012901313199
 30
0.0
 10
183.5477239466539
 20
123.1542914267728
 30
0.0
 10
184.1300322666824
 20
123.2418571141496
 30
0.0
 10
184.6958061349181
 20
123.3596011168592
 30
0.0
 10
185.2384696875482
 20
123.5013202391837
 30
0.0
 10
185.7580560847468
 20
123.6620853186188
 30
0.0
 10
186.2612459469973
 20
123.8403049873102
 30
0.0
 10
186.7631983360394
 20
124.0387137619619
 30
0.0
 10
187.2577776038896
 20
124.2536521710678
 30
0.0
 10
187.7419889403033
 20
124.4818296855354
 30
0.0
 10
188.1974051568747
 20
124.711282804185
 30
0.0
 10
188.6330359414714
 20
124.9432743920793
 30
0.0
 10
189.0409104199193
 20
125.1711173955334
 30
0.0
 10
189.4153777485168
 20
125.3888622804728
 30
0.0
 10
189.7400135151821
 20
125.5838676292995
 30
0.0
 10
189.9880324288758
 20
125.7366980470864
 30
0.0
 10
190.1672380506849
 20
125.8489567121185
 30
0.0
 10
190.2880383395946
 20
125.9254669334767
 30
0.0
 10
190.3661709371313
 20
125.9753364638977
 30
0.0
 10
190.3759980999175
 20
125.9816318170831
 30
0.0
 10
190.3809333282544
 20
125.9847933608681
 30
0.0
  0
LINE
  5
1E4
330
1F
100
AcDbEntity
  8
0
  6
Continuous
 62
     7
370
    25
100
AcDbLine
 10
190.3809333283
 20
125.9847933609
 30
0.0
 11
205.3809333283
 21
125.9847933609
 31
0.0
  0
SPLINE
  5
1E5
330
1F
100
AcDbEntity
  8
0
  6
Continuous
 62
     7
370
    25
100
AcDbSpline
210
0.0
220
0.0
230
1.0
 70
     8
 71
     3
 72
    24
 73
    20
 74
     0
 42
0.000000001
 43
0.00000001
 40
0.0
 40
0.0
 40
0.0
 40
0.0
 40
0.0695779255978097
 40
0.140799643004967
 40
0.2104841458402462
 40
0.2465280021910122
 40
0.282963130779142
 40
0.3431999069033828
 40
0.4052253406049136
 40
0.4789356819100981
 40
0.5547691659130922
 40
0.6298257510057186
 40
0.706614206597703
 40
0.7481159033331778
 40
0.7899531168202886
 40
0.8329518852015853
 40
0.8764035661672581
 40
0.9374086474061711
 40
1.0
 40
1.0
 40
1.0
 40
1.0
 10
152.8809333282543
 20
124.0913950786663
 30
0.0
 10
153.2145007542525
 20
123.9568494622731
 30
0.0
 10
153.8895162005323
 20
123.6845795635476
 30
0.0
 10
155.025095245987
 20
123.3526382512804
 30
0.0
 10
156.0420137414953
 20
123.1669451980352
 30
0.0
 10
156.8823906311916
 20
123.0952154703494
 30
0.0
 10
157.6734700149241
 20
123.0806069307633
 30
0.0
 10
158.6173283405859
 20
123.1490224418528
 30
0.0
 10
159.7424854371399
 20
123.3547178894818
 30
0.0
 10
160.8807579568305
 20
123.6880995301812
 30
0.0
 10
161.977663920368
 20
124.1190196640396
 30
0.0
 10
162.9643876510562
 20
124.5850292045498
 30
0.0
 10
163.6856784802807
 20
124.9703295325658
 30
0.0
 10
164.1972159240857
 20
125.2610696290716
 30
0.0
 10
164.5497358617869
 20
125.4688986925731
 30
0.0
 10
164.8511061167998
 20
125.6518915716453
 30
0.0
 10
165.123404677523
 20
125.8210158735618
 30
0.0
 10
165.3360944948026
 20
125.9560140912467
 30
0.0
 10
165.3658597120503
 20
125.9751185403719
 30
0.0
 10
165.3809333282544
 20
125.9847933608681
 30
0.0
  0
LINE
  5
1E6
330
1F
100
AcDbEntity
  8
0
  6
Continuous
 62
     7
370
    25
100
AcDbLine
 10
165.3809333283
 20
125.9847933609
 30
0.0
 11
174.3809333283
 21
125.9847933609
 31
0.0
  0
LINE
  5
1E7
330
1F
100
AcDbEntity
  8
0
  6
Continuous
 62
     7
370
    25
100
AcDbLine
 10
128.6059333283
 20
119.2347933609
 30
0.0
 11
129.4309333283
 21
119.2347933609
 31
0.0
  0
LINE
  5
1E8
330
1F
100
AcDbEntity
  8
0
  6
Continuous
 62
     7
370
    25
100
AcDbLine
 10
125.1809333283
 20
118.4847933609
 30
0.0
 11
125.1809333283
 21
113.4847933609
 31
0.0
  0
LINE
  5
1E9
330
1F
100
AcDbEntity
  8
0
  6
Continuous
 62
     7
370
    25
100
AcDbLine
 10
124.7809333283
 20
118.7157334685
 30
0.0
 11
125.1809333283
 21
118.4847933609
 31
0.0
  0
LINE
  5
1EA
330
1F
100
AcDbEntity
  8
0
  6
Continuous
 62
     7
370
    25
100
AcDbLine
 10
124.7809333283
 20
118.7157334685
 30
0.0
 11
124.7809333283
 21
113.4847933609
 31
0.0
  0
LINE
  5
1EB
330
1F
100
AcDbEntity
  8
0
  6
Continuous
 62
     7
370
    25
100
AcDbLine
 10
125.1809333283
 20
118.4847933609
 30
0.0
 11
128.6059333283
 21
118.4847933609
 31
0.0
  0
LINE
  5
1EC
330
1F
100
AcDbEntity
  8
0
  6
Continuous
 62
     7
370
    25
100
AcDbLine
 10
128.6059333283
 20
118.4847933609
 30
0.0
 11
128.6059333283
 21
113.4847933609
 31
0.0
  0
LINE
  5
1ED
330
1F
100
AcDbEntity
  8
0
  6
Continuous
 62
     7
370
    25
100
AcDbLine
 10
129.4309333283
 20
117.4847933609
 30
0.0
 11
146.8809333283
 21
117.4847933609
 31
0.0
  0
LINE
  5
1EE
330
1F
100
AcDbEntity
  8
0
  6
Continuous
 62
     7
370
    25
100
AcDbLine
 10
129.4309333283
 20
117.4847933609
 30
0.0
 11
129.4309333283
 21
113.4847933609
 31
0.0
  0
LINE
  5
1EF
330
1F
100
AcDbEntity
  8
0
  6
Continuous
 62
     7
370
    25
100
AcDbLine
 10
146.8809333283
 20
117.4847933609
 30
0.0
 11
146.8809333283
 21
113.4847933609
 31
0.0
  0
LINE
  5
1F0
330
1F
100
AcDbEntity
  8
0
  6
Continuous
 62
     7
370
    25
100
AcDbLine
 10
165.3809333283
 20
125.9847933609
 30
0.0
 11
165.3809333283
 21
144.9847934202
 31
0.0
  0
LINE
  5
1F1
330
1F
100
AcDbEntity
  8
0
  6
Continuous
 62
     7
370
    25
100
AcDbLine
 10
149.3809333283
 20
144.9847934492
 30
0.0
 11
149.3809333283
 21
126.2847933609
 31
0.0
  0
LINE
  5
1F2
330
1F
100
AcDbEntity
  8
0
  6
Continuous
 62
     7
370
    25
100
AcDbLine
 10
190.3809333283
 20
125.9847933609
 30
0.0
 11
190.3809333283
 21
144.9847934202
 31
0.0
  0
LINE
  5
1F3
330
1F
100
AcDbEntity
  8
0
  6
Continuous
 62
     7
370
    25
100
AcDbLine
 10
174.3809333283
 20
144.9847934492
 30
0.0
 11
174.3809333283
 21
125.9847933609
 31
0.0
  0
SPLINE
  5
1F4
330
1F
100
AcDbEntity
  8
0
  6
Continuous
 62
     7
370
    25
100
AcDbSpline
210
0.0
220
0.0
230
1.0
 70
     8
 71
     3
 72
    36
 73
    32
 74
     0
 42
0.000000001
 43
0.00000001
 40
0.0
 40
0.0
 40
0.0
 40
0.0
 40
0.0583298871202067
 40
0.0793919255598412
 40
0.1010153164046402
 40
0.1232120188861885
 40
0.1509576913070803
 40
0.181051081511904
 40
0.2135055419963572
 40
0.2483316158456832
 40
0.2811945837919265
 40
0.3101643339650657
 40
0.335240606890205
 40
0.3564236679057428
 40
0.3737146631315446
 40
0.4398574432748578
 40
0.4701951522446169
 40
0.4987235031513142
 40
0.5282353324692262
 40
0.5586772567751966
 40
0.6233419556596114
 40
0.6607983132998331
 40
0.702354796345253
 40
0.7484681846820863
 40
0.7861454691637806
 40
0.8195424684812596
 40
0.848660413725997
 40
0.873502094953531
 40
0.9390118153035542
 40
0.9981529550993429
 40
1.0
 40
1.0
 40
1.0
 40
1.0
 10
110.7309333282543
 20
136.9484456642217
 30
0.0
 10
110.7083737058929
 20
136.9376277646217
 30
0.0
 10
110.6776681457144
 20
136.9229036853862
 30
0.0
 10
110.5063601323719
 20
136.8488900385997
 30
0.0
 10
110.3678145510964
 20
136.7910219199079
 30
0.0
 10
110.1788848165305
 20
136.7143435325016
 30
0.0
 10
109.9247868073166
 20
136.6136853821135
 30
0.0
 10
109.5845994787208
 20
136.4843015803222
 30
0.0
 10
109.159253680503
 20
136.3309376555282
 30
0.0
 10
108.6624988703924
 20
136.1587930494839
 30
0.0
 10
108.1300437258644
 20
135.9886486113364
 30
0.0
 10
107.6110612467425
 20
135.8399011034786
 30
0.0
 10
107.1347420400568
 20
135.7139984842928
 30
0.0
 10
106.7146194405652
 20
135.6110805147448
 30
0.0
 10
106.0009626902309
 20
135.451032120763
 30
0.0
 10
105.1723246737359
 20
135.3046248264039
 30
0.0
 10
104.2308413713343
 20
135.1892438898364
 30
0.0
 10
103.5560190633809
 20
135.1317866676
 30
0.0
 10
102.8777851727303
 20
135.1032646988225
 30
0.0
 10
101.9296805688508
 20
135.1017602177289
 30
0.0
 10
100.9463225083926
 20
135.1568413254438
 30
0.0
 10
99.95508608202358
 20
135.2694356526532
 30
0.0
 10
99.15092636326345
 20
135.3930168956494
 30
0.0
 10
98.42566166971051
 20
135.5400873226504
 30
0.0
 10
97.83029186438358
 20
135.6825036394797
 30
0.0
 10
97.38654019747725
 20
135.796180844232
 30
0.0
 10
97.05399092722524
 20
135.889353005136
 30
0.0
 10
96.66683611058112
 20
136.0040213052745
 30
0.0
 10
96.32958609700515
 20
136.1113651511562
 30
0.0
 10
96.23186256588315
 20
136.148931233451
 30
0.0
 10
96.23096064324363
 20
136.1490626396761
 30
0.0
 10
96.23093332825434
 20
136.1490666193518
 30
0.0
  0
LINE
  5
1F5
330
1F
100
AcDbEntity
  8
0
  6
Continuous
 62
     7
370
    25
100
AcDbLine
 10
110.7309333283
 20
136.9484456642
 30
0.0
 11
110.7309333283
 21
131.5910193816
 31
0.0
  0
SPLINE
  5
1F6
330
1F
100
AcDbEntity
  8
0
  6
Continuous
 62
     7
370
    25
100
AcDbSpline
210
0.0
220
0.0
230
1.0
 70
     8
 71
     3
 72
    22
 73
    18
 74
     0
 42
0.000000001
 43
0.00000001
 40
0.0
 40
0.0
 40
0.0
 40
0.0
 40
0.0432025877694695
 40
0.1443075088922238
 40
0.245439410259539
 40
0.2816342849740703
 40
0.3190951440663717
 40
0.357848639704788
 40
0.4165204310731971
 40
0.4880042319956111
 40
0.5723240843649706
 40
0.6332818174101487
 40
0.6893382617187757
 40
0.7405101027793887
 40
0.7868196768001683
 40
0.8982164589982402
 40
0.9999999999999999
 40
0.9999999999999999
 40
0.9999999999999999
 40
0.9999999999999999
 10
101.5601147376423
 20
129.9269280712761
 30
0.0
 10
101.7473673624715
 20
129.9030396430869
 30
0.0
 10
102.3728382246992
 20
129.8232462848339
 30
0.0
 10
103.4816390228744
 20
129.7628861148035
 30
0.0
 10
104.5560277595937
 20
129.8241753912921
 30
0.0
 10
105.3185427410416
 20
129.9138050310354
 30
0.0
 10
105.7987600410418
 20
129.9853574395866
 30
0.0
 10
106.3592738037603
 20
130.0862563812232
 30
0.0
 10
107.0315495592485
 20
130.2372561800436
 30
0.0
 10
107.8269334075937
 20
130.4514879398311
 30
0.0
 10
108.5480879389995
 20
130.6874585216185
 30
0.0
 10
109.1359033196402
 20
130.9058763419371
 30
0.0
 10
109.5680913791841
 20
131.0739477051476
 30
0.0
 10
109.9091280587553
 20
131.2153797633454
 30
0.0
 10
110.2999923791244
 20
131.3847034451838
 30
0.0
 10
110.6526590057986
 20
131.5490690659836
 30
0.0
 10
110.7056382432792
 20
131.5774627417734
 30
0.0
 10
110.7309333282543
 20
131.5910193816197
 30
0.0
  0
SPLINE
  5
1F7
330
1F
100
AcDbEntity
  8
0
  6
Continuous
 62
     7
370
    25
100
AcDbSpline
210
0.0
220
0.0
230
1.0
 70
     8
 71
     3
 72
    18
 73
    14
 74
     0
 42
0.000000001
 43
0.00000001
 40
0.0
 40
0.0
 40
0.0
 40
0.0
 40
0.128672191279612
 40
0.2142416531346028
 40
0.3022041715234742
 40
0.3894794826283029
 40
0.479132672770783
 40
0.569124491619021
 40
0.662249354315242
 40
0.730848786062205
 40
0.8002270898195394
 40
0.8836797052959648
 40
1.0
 40
1.0
 40
1.0
 40
1.0
 10
96.23093332825434
 20
136.020841245772
 30
0.0
 10
96.26889416893906
 20
136.006940414465
 30
0.0
 10
96.3320996928506
 20
135.9837952651555
 30
0.0
 10
96.75620663665863
 20
135.8259055067591
 30
0.0
 10
97.26907176091419
 20
135.6306222643589
 30
0.0
 10
97.94104482068119
 20
135.3650497063587
 30
0.0
 10
98.74139103045515
 20
135.0283463214956
 30
0.0
 10
99.65351128077023
 20
134.5981304462022
 30
0.0
 10
100.5359860554915
 20
134.0831683797159
 30
0.0
 10
101.2764288902539
 20
133.4101828401718
 30
0.0
 10
101.7106241308366
 20
132.509901331366
 30
0.0
 10
101.7774030311149
 20
131.3034929519645
 30
0.0
 10
101.6371940537624
 20
130.4338953237596
 30
0.0
 10
101.5555556096357
 20
129.9275611451396
 30
0.0
  0
LINE
  5
1F8
330
1F
100
AcDbEntity
  8
0
  6
Continuous
 62
     7
370
    25
100
AcDbLine
 10
96.2309333283
 20
136.0208412458
 30
0.0
 11
96.2309333283
 21
136.1490666193
 31
0.0
  0
SPLINE
  5
1F9
330
1F
100
AcDbEntity
  8
0
  6
Continuous
 62
     7
370
    25
100
AcDbSpline
210
0.0
220
0.0
230
1.0
 70
     8
 71
     3
 72
    10
 73
     6
 74
     0
 42
0.000000001
 43
0.00000001
 40
0.0
 40
0.0
 40
0.0
 40
0.0
 40
0.3194380338090304
 40
0.6595875919435664
 40
1.0
 40
1.0
 40
1.0
 40
1.0
 10
100.3588172779859
 20
129.6597663578684
 30
0.0
 10
100.4873526669523
 20
129.688528684289
 30
0.0
 10
100.7527573423975
 20
129.7479182109407
 30
0.0
 10
101.1552466807346
 20
129.8365239010533
 30
0.0
 10
101.4287679914145
 20
129.8959426832001
 30
0.0
 10
101.5655814671137
 20
129.9256635487776
 30
0.0
  0
LINE
  5
1FA
330
1F
100
AcDbEntity
  8
0
  6
Continuous
 62
     7
370
    25
100
AcDbLine
 10
92.800933173
 20
131.1222933609
 30
0.0
 11
96.2309333283
 21
136.0208412458
 31
0.0
  0
LINE
  5
1FB
330
1F
100
AcDbEntity
  8
0
  6
Continuous
 62
     7
370
    25
100
AcDbLine
 10
95.4813714799
 20
136.9581790705
 30
0.0
 11
96.2309614588
 21
136.1490677328
 31
0.0
  0
LINE
  5
1FC
330
1F
100
AcDbEntity
  8
0
  6
Continuous
 62
     7
370
    25
100
AcDbLine
 10
110.7309462764
 20
136.94844592
 30
0.0
 11
111.3992764223
 21
137.7575577424
 31
0.0
  0
LINE
  5
1FD
330
1F
100
AcDbEntity
  8
0
  6
Continuous
 62
     7
370
    25
100
AcDbLine
 10
86.6825993781
 20
132.4203695722
 30
0.0
 11
88.9309333283
 21
131.1222933609
 31
0.0
  0
LINE
  5
1FE
330
1F
100
AcDbEntity
  8
0
  6
Continuous
 62
     7
370
    25
100
AcDbLine
 10
85.9309333283
 20
133.7222933609
 30
0.0
 11
86.6825993781
 21
132.4203695722
 31
0.0
  0
LINE
  5
1FF
330
1F
100
AcDbEntity
  8
0
  6
Continuous
 62
     7
370
    25
100
AcDbLine
 10
85.9309333283
 20
135.6878880847
 30
0.0
 11
85.9309333283
 21
133.7222933609
 31
0.0
  0
LINE
  5
200
330
1F
100
AcDbEntity
  8
0
  6
Continuous
 62
     7
370
    25
100
AcDbLine
 10
87.4309333283
 20
136.5539134885
 30
0.0
 11
85.9309333283
 21
135.6878880847
 31
0.0
  0
LINE
  5
201
330
1F
100
AcDbEntity
  8
0
  6
Continuous
 62
     7
370
    25
100
AcDbLine
 10
133.9059333283
 20
142.3347933609
 30
0.0
 11
133.9059333283
 21
142.4323886251
 31
0.0
  0
ARC
  5
202
330
1F
100
AcDbEntity
  8
0
  6
Continuous
 62
     7
370
    25
100
AcDbCircle
 10
134.9059333283
 20
142.3347933609
 30
0.0
 40
1.0
100
AcDbArc
 50
180.0
 51
270.0
  0
LINE
  5
203
330
1F
100
AcDbEntity
  8
0
  6
Continuous
 62
     7
370
    25
100
AcDbLine
 10
136.6559333283
 20
141.3347933609
 30
0.0
 11
134.9059333283
 21
141.3347933609
 31
0.0
  0
ARC
  5
204
330
1F
100
AcDbEntity
  8
0
  6
Continuous
 62
     7
370
    25
100
AcDbCircle
 10
136.6559333283
 20
142.3347933609
 30
0.0
 40
1.0
100
AcDbArc
 50
270.0
 51
0.0
  0
LINE
  5
205
330
1F
100
AcDbEntity
  8
0
  6
Continuous
 62
     7
370
    25
100
AcDbLine
 10
137.6559333283
 20
142.4323886251
 30
0.0
 11
137.6559333283
 21
142.3347933609
 31
0.0
  0
LINE
  5
206
330
1F
100
AcDbEntity
  8
0
  6
Continuous
 62
     7
370
    25
100
AcDbLine
 10
139.1151311328
 20
144.9597933609
 30
0.0
 11
137.6559333283
 21
142.4323886251
 31
0.0
  0
LINE
  5
207
330
1F
100
AcDbEntity
  8
0
  6
Continuous
 62
     7
370
    25
100
AcDbLine
 10
148.3809333796
 20
145.9847933609
 30
0.0
 11
149.3809333283
 21
144.9847934492
 31
0.0
  0
LINE
  5
208
330
1F
100
AcDbEntity
  8
0
  6
Continuous
 62
     7
370
    25
100
AcDbLine
 10
111.35688247
 20
131.1222946512
 30
0.0
 11
110.7309364565
 21
131.5910195065
 31
0.0
  0
LINE
  5
209
330
1F
100
AcDbEntity
  8
0
  6
Continuous
 62
     7
370
    25
100
AcDbLine
 10
133.9059333283
 20
142.4323886251
 30
0.0
 11
132.4467355237
 21
144.9597933609
 31
0.0
  0
LINE
  5
20A
330
1F
100
AcDbEntity
  8
0
  6
Continuous
 62
     7
370
    25
100
AcDbLine
 10
129.4309333283
 20
119.2347933609
 30
0.0
 11
129.4309333283
 21
117.4847933609
 31
0.0
  0
LINE
  5
20B
330
1F
100
AcDbEntity
  8
0
  6
Continuous
 62
     7
370
    25
100
AcDbLine
 10
128.6059333283
 20
118.4847933609
 30
0.0
 11
128.6059333283
 21
119.2347933609
 31
0.0
  0
LINE
  5
20C
330
1F
100
AcDbEntity
  8
0
  6
Continuous
 62
     7
370
    25
100
AcDbLine
 10
146.8809333283
 20
117.4847933609
 30
0.0
 11
146.8809333283
 21
125.8847933609
 31
0.0
  0
LINE
  5
20D
330
1F
100
AcDbEntity
  8
0
  6
Continuous
 62
     7
370
    25
100
AcDbLine
 10
124.7809333283
 20
127.8347933609
 30
0.0
 11
124.7809333283
 21
118.7157334685
 31
0.0
  0
LINE
  5
20E
330
1F
100
AcDbEntity
  8
0
  6
Continuous
 62
     7
370
    25
100
AcDbLine
 10
119.8809333283
 20
130.9347933609
 30
0.0
 11
119.8809333283
 21
129.0347933609
 31
0.0
  0
LINE
  5
20F
330
1F
100
AcDbEntity
  8
0
  6
Continuous
 62
     7
370
    25
100
AcDbLine
 10
125.8809333283
 20
144.7597933609
 30
0.0
 11
125.8809333283
 21
140.3347933609
 31
0.0
  0
LINE
  5
210
330
1F
100
AcDbEntity
  8
0
  6
Continuous
 62
     7
370
    25
100
AcDbLine
 10
143.8809333283
 20
144.9847933609
 30
0.0
 11
143.8809333283
 21
144.9597933609
 31
0.0
  0
LINE
  5
211
330
1F
100
AcDbEntity
  8
0
  6
Continuous
 62
     7
370
    25
100
AcDbLine
 10
190.3809332357
 20
144.98479343
 30
0.0
 11
191.3809331729
 21
145.984793341
 31
0.0
  0
LINE
  5
212
330
1F
100
AcDbEntity
  8
0
  6
Continuous
 62
     7
370
    25
100
AcDbLine
 10
173.3809333796
 20
145.9847933609
 30
0.0
 11
174.3809333283
 21
144.9847934492
 31
0.0
  0
LINE
  5
213
330
1F
100
AcDbEntity
  8
0
  6
Continuous
 62
     7
370
    25
100
AcDbLine
 10
205.8809333283
 20
126.4847933609
 30
0.0
 11
205.8809333283
 21
135.1563662361
 31
0.0
  0
LINE
  5
214
330
1F
100
AcDbEntity
  8
0
  6
Continuous
 62
     7
370
    25
100
AcDbLine
 10
165.3809332357
 20
144.98479343
 30
0.0
 11
166.3809331729
 21
145.984793341
 31
0.0
  0
LINE
  5
215
330
1F
100
AcDbEntity
  8
0
  6
Continuous
 62
     7
370
    25
100
AcDbLine
 10
86.7352967249
 20
123.9464198775
 30
0.0
 11
88.9309330735
 21
123.9310274531
 31
0.0
  0
LINE
  5
216
330
1F
100
AcDbEntity
  8
0
  6
Continuous
 62
     7
370
    25
100
AcDbLine
 10
86.6825993781
 20
123.9768441684
 30
0.0
 11
86.7352967268
 21
123.94641934
 31
0.0
  0
LINE
  5
217
330
1F
100
AcDbEntity
  8
0
  6
Continuous
 62
     7
370
    25
100
AcDbLine
 10
86.6825993781
 20
132.4203695722
 30
0.0
 11
86.6825993781
 21
123.9768441684
 31
0.0
  0
LINE
  5
218
330
1F
100
AcDbEntity
  8
0
  6
Continuous
 62
     7
370
    25
100
AcDbLine
 10
85.9309333283
 20
124.4108187647
 30
0.0
 11
86.6825993781
 21
123.9768441684
 31
0.0
  0
LINE
  5
219
330
1F
100
AcDbEntity
  8
0
  6
Continuous
 62
     7
370
    25
100
AcDbLine
 10
85.9309333283
 20
133.7222933609
 30
0.0
 11
85.9309333283
 21
124.4108187647
 31
0.0
  0
LINE
  5
21A
330
1F
100
AcDbEntity
  8
0
  6
Continuous
 62
     7
370
    25
100
AcDbLine
 10
89.060615071
 20
123.5447940386
 30
0.0
 11
88.9767345752
 21
123.8675735235
 31
0.0
  0
LINE
  5
21B
330
1F
100
AcDbEntity
  8
0
  6
Continuous
 62
     7
370
    25
100
AcDbLine
 10
89.0606182096
 20
123.5447933609
 30
0.0
 11
87.4309325415
 21
123.5447933609
 31
0.0
  0
LINE
  5
21C
330
1F
100
AcDbEntity
  8
0
  6
Continuous
 62
     7
370
    25
100
AcDbLine
 10
87.4309327414
 20
123.5447936997
 30
0.0
 11
86.7352962634
 21
123.9464196075
 31
0.0
  0
LINE
  5
21D
330
1F
100
AcDbEntity
  8
0
  6
Continuous
 62
     7
370
    25
100
AcDbLine
 10
95.4848942255
 20
121.5472933609
 30
0.0
 11
95.2327225975
 21
121.5472933609
 31
0.0
  0
SPLINE
  5
21E
330
1F
100
AcDbEntity
  8
0
  6
Continuous
 62
     7
370
    25
100
AcDbSpline
210
0.0
220
0.0
230
1.0
 70
     8
 71
     3
 72
    11
 73
     7
 74
     0
 42
0.000000001
 43
0.00000001
 40
0.0
 40
0.0
 40
0.0
 40
0.0
 40
0.3004403786475395
 40
0.5054186184796666
 40
0.7682140814889237
 40
1.0
 40
1.0
 40
1.0
 40
1.0
 10
95.23091610358495
 20
121.5473231449034
 30
0.0
 10
95.00239981950403
 20
121.8757656054933
 30
0.0
 10
94.61797617738176
 20
122.428290986498
 30
0.0
 10
93.77279171653896
 20
123.0456614906155
 30
0.0
 10
92.84947643535087
 20
123.4622341992635
 30
0.0
 10
92.11329040312752
 20
123.5184484922277
 30
0.0
 10
91.76827629210423
 20
123.5447933608681
 30
0.0
  0
LINE
  5
21F
330
1F
100
AcDbEntity
  8
0
  6
Continuous
 62
     7
370
    25
100
AcDbLine
 10
95.4848942255
 20
121.5472933609
 30
0.0
 11
95.5428191965
 21
121.9306713479
 31
0.0
  0
LINE
  5
220
330
1F
100
AcDbEntity
  8
0
  6
Continuous
 62
     7
370
    25
100
AcDbLine
 10
91.7682762921
 20
123.5447933609
 30
0.0
 11
89.0606182096
 21
123.5447933609
 31
0.0
  0
LINE
  5
221
330
1F
100
AcDbEntity
  8
0
  6
Continuous
 62
     7
370
    25
100
AcDbLine
 10
108.5309333283
 20
117.5475667717
 30
0.0
 11
107.8809333283
 21
117.6972933609
 31
0.0
  0
SPLINE
  5
222
330
1F
100
AcDbEntity
  8
0
  6
Continuous
 62
     7
370
    25
100
AcDbSpline
210
0.0
220
0.0
230
1.0
 70
     8
 71
     3
 72
    16
 73
    12
 74
     0
 42
0.000000001
 43
0.00000001
 40
0.0
 40
0.0
 40
0.0
 40
0.0
 40
0.1146393347005229
 40
0.2505804745745608
 40
0.3342373940953033
 40
0.4180697547900339
 40
0.5020801132037953
 40
0.6429442026568438
 40
0.772210115375685
 40
0.8908214678155697
 40
1.0
 40
1.0
 40
1.0
 40
1.0
 10
107.8809333282544
 20
117.6972933608681
 30
0.0
 10
107.8681135231111
 20
117.9381296433406
 30
0.0
 10
107.8400917898626
 20
118.4645534063046
 30
0.0
 10
107.6354129644169
 20
119.1290240945191
 30
0.0
 10
107.3633912128635
 20
119.6879492211085
 30
0.0
 10
107.0788918696576
 20
120.1181860799865
 30
0.0
 10
106.6679043036113
 20
120.5945081243433
 30
0.0
 10
106.1003022487863
 20
121.0617690601007
 30
0.0
 10
105.364768499718
 20
121.4385326828601
 30
0.0
 10
104.6190387188251
 20
121.6585332176875
 30
0.0
 10
104.1200811507806
 20
121.6847349864668
 30
0.0
 10
103.8809333282543
 20
121.6972933608681
 30
0.0
  0
LINE
  5
223
330
1F
100
AcDbEntity
  8
0
  6
Continuous
 62
     7
370
    25
100
AcDbLine
 10
101.966060049
 20
121.6972933609
 30
0.0
 11
100.8809641568
 21
121.5473020498
 31
0.0
  0
LINE
  5
224
330
1F
100
AcDbEntity
  8
0
  6
Continuous
 62
     7
370
    25
100
AcDbLine
 10
100.8811121632
 20
121.5472933609
 30
0.0
 11
100.2524772758
 21
121.5472933609
 31
0.0
  0
LINE
  5
225
330
1F
100
AcDbEntity
  8
0
  6
Continuous
 62
     7
370
    25
100
AcDbLine
 10
100.9671155422
 20
121.925686602
 30
0.0
 11
100.2524535375
 21
121.5474605588
 31
0.0
  0
LINE
  5
226
330
1F
100
AcDbEntity
  8
0
  6
Continuous
 62
     7
370
    25
100
AcDbLine
 10
100.2529705971
 20
105.4222933609
 30
0.0
 11
100.4043474527
 21
105.4222933609
 31
0.0
  0
LINE
  5
227
330
1F
100
AcDbEntity
  8
0
  6
Continuous
 62
     7
370
    25
100
AcDbLine
 10
103.8809333283
 20
121.6972933609
 30
0.0
 11
101.966060049
 21
121.6972933609
 31
0.0
  0
LINE
  5
228
330
1F
100
AcDbEntity
  8
0
  6
Continuous
 62
     7
370
    25
100
AcDbLine
 10
100.2526989023
 20
121.5472933609
 30
0.0
 11
95.4848942255
 21
121.5472933609
 31
0.0
  0
LINE
  5
229
330
1F
100
AcDbEntity
  8
0
  6
Continuous
 62
     7
370
    25
100
AcDbLine
 10
107.8809333283
 20
113.4847933609
 30
0.0
 11
107.8809333283
 21
117.6972933609
 31
0.0
  0
LINE
  5
22A
330
1F
100
AcDbEntity
  8
VERMASSUNG
  6
CENTERX2
100
AcDbLine
 10
217.8759333283
 20
113.4847933609
 30
0.0
 11
73.9359333283
 21
113.4847933609
 31
0.0
  0
HATCH
  5
22B
330
1F
100
AcDbEntity
  8
0
  6
Continuous
 62
     7
370
    18
100
AcDbHatch
 10
0.0
 20
0.0
 30
0.0
210
0.0
220
0.0
230
1.0
  2
ANSI31
 70
     0
 71
     0
 91
        1
 92
        0
 93
       41
 72
     1
 10
133.9059333282543
 20
142.4323886250598
 11
132.4467355236843
 21
144.9597933608681
 72
     1
 10
132.4467355236843
 20
144.9597933608681
 11
126.0809333282543
 21
144.9597933608681
 72
     2
 10
126.0809333282543
 20
144.7597933608681
 40
0.2000000000000028
 50
90.0
 51
180.0
 73
     1
 72
     1
 10
125.8809333282543
 20
144.7597933608681
 11
125.8809333282543
 21
140.3347933608681
 72
     1
 10
125.8809333282543
 20
140.3347933608681
 11
126.2149720142829
 21
139.2753580004716
 72
     2
 10
125.4519984536844
 20
139.0347933608681
 40
0.8000000000000032
 50
342.5000000000001
 51
467.5000000000015
 73
     0
 72
     1
 10
125.2114338140809
 20
138.2718198002695
 11
124.7207512882236
 21
138.4265314063965
 72
     1
 10
124.7207512882236
 20
138.4265314063965
 11
111.3992780157041
 21
137.7575544333703
 72
     1
 10
111.3992764223055
 20
137.7575577424387
 11
110.730946276376
 21
136.9484459200475
 72
     1
 10
110.730946276376
 20
136.9484459200475
 11
110.7309333282543
 21
131.5910193816196
 72
     1
 10
110.730936456488
 20
131.5910195065001
 11
111.3568824700302
 21
131.1222946511602
 72
     1
 10
111.3568827183391
 20
131.1222933608681
 11
116.3809333282543
 21
131.1222933608681
 72
     1
 10
116.3809333282543
 20
131.1222933608681
 11
117.2561738018352
 21
131.6276136838957
 72
     2
 10
117.6561738018352
 20
130.9347933608681
 40
0.7999999999999937
 50
240.0000000000022
 51
270.0000000000008
 73
     0
 72
     1
 10
117.6561738018352
 20
131.7347933608681
 11
119.0809333282543
 21
131.7347933608681
 72
     2
 10
119.0809333282543
 20
130.9347933608681
 40
0.7999999999999977
 50
270.0000000000008
 51
360.0000000000008
 73
     0
 72
     1
 10
119.8809333282543
 20
130.9347933608681
 11
119.8809333282543
 21
129.0347933608681
 72
     1
 10
119.8809333282543
 20
129.0347933608681
 11
123.5809333282543
 21
129.0347933608681
 72
     2
 10
123.5809333282543
 20
127.8347933608681
 40
1.2
 50
270.0000000000001
 51
360.0000000000008
 73
     0
 72
     1
 10
124.7809333282543
 20
127.8347933608681
 11
124.7809333282543
 21
118.715733468544
 72
     1
 10
124.7809333282543
 20
118.715733468544
 11
125.1809333282543
 21
118.4847933608681
 72
     1
 10
125.1809333282543
 20
118.4847933608681
 11
128.6059333282543
 21
118.4847933608681
 72
     1
 10
128.6059333282543
 20
118.4847933608681
 11
128.6059333282543
 21
119.2347933608681
 72
     1
 10
128.6059333282543
 20
119.2347933608681
 11
129.4309333282543
 21
119.2347933608681
 72
     1
 10
129.4309333282543
 20
119.2347933608681
 11
129.4309333282543
 21
117.4847933608681
 72
     1
 10
129.4309333282543
 20
117.4847933608681
 11
146.8809333282543
 21
117.4847933608681
 72
     1
 10
146.8809333282543
 20
117.4847933608681
 11
146.8809333282543
 21
125.8847933608681
 72
     2
 10
147.2809333282543
 20
125.8847933608681
 40
0.3999999999999985
 50
180.0
 51
270.0000000000008
 73
     0
 72
     1
 10
147.2809333282543
 20
126.2847933608682
 11
149.3809333282544
 21
126.2847933608682
 72
     1
 10
149.3809333282544
 20
126.2847933608682
 11
149.3809333282544
 21
144.9847934492188
 72
     1
 10
149.3809333282544
 20
144.9847934492188
 11
148.3809333795778
 21
145.9847933608681
 72
     1
 10
148.3809333795778
 20
145.9847933608681
 11
144.8809333282543
 21
145.9847933608681
 72
     1
 10
144.8809333282543
 20
145.9847933608681
 11
143.8809333282543
 21
144.9847933608682
 72
     1
 10
143.8809333282543
 20
144.9847933608682
 11
143.8809333282543
 21
144.9597933608681
 72
     1
 10
143.8809333282543
 20
144.9597933608681
 11
139.1151311328244
 21
144.9597933608681
 72
     1
 10
139.1151311328244
 20
144.9597933608681
 11
137.6559333282543
 21
142.4323886250598
 72
     1
 10
137.6559333282543
 20
142.4323886250598
 11
137.6559333282543
 21
142.3347933608681
 72
     2
 10
136.6559333282543
 20
142.3347933608681
 40
1.000000000000003
 50
0.0
 51
90.0
 73
     0
 72
     1
 10
136.6559333282543
 20
141.3347933608681
 11
134.9059333282543
 21
141.3347933608681
 72
     2
 10
134.9059333282543
 20
142.3347933608681
 40
1.000000000000003
 50
90.0
 51
180.0
 73
     0
 72
     1
 10
133.9059333282543
 20
142.3347933608681
 11
133.9059333282543
 21
142.4323886250598
 97
        0
 75
     0
 76
     1
 52
0.0
 41
1.0
 77
     0
 78
     1
 53
45.0
 43
0.0
 44
0.0
 45
-2.245064030267288
 46
2.245064030267288
 79
     0
 98
        1
 10
0.0
 20
0.0
  0
HATCH
  5
22C
330
1F
100
AcDbEntity
  8
0
  6
Continuous
 62
     7
370
    18
100
AcDbHatch
 10
0.0
 20
0.0
 30
0.0
210
0.0
220
0.0
230
1.0
  2
ANSI31
 70
     0
 71
     0
 91
        1
 92
        0
 93
        6
 72
     1
 10
174.3809333282543
 20
125.9847933608682
 11
174.3809333282543
 21
144.9847934492188
 72
     1
 10
174.3809333282543
 20
144.9847934492188
 11
173.3809333795778
 21
145.9847933608682
 72
     1
 10
173.3809333795778
 20
145.9847933608682
 11
166.3809332000778
 21
145.9847933608681
 72
     1
 10
166.3809331728545
 20
145.9847933409959
 11
165.3809332357421
 21
144.984793429958
 72
     1
 10
165.3809333282544
 20
144.9847934202402
 11
165.3809333282544
 21
125.9847933608682
 72
     1
 10
165.3809333282544
 20
125.9847933608682
 11
174.3809333282543
 21
125.9847933608682
 97
        0
 75
     0
 76
     1
 52
0.0
 41
1.0
 77
     0
 78
     1
 53
45.0
 43
0.0
 44
0.0
 45
-2.245064030267288
 46
2.245064030267288
 79
     0
 98
        1
 10
0.0
 20
0.0
  0
HATCH
  5
22D
330
1F
100
AcDbEntity
  8
0
  6
Continuous
 62
     7
370
    18
100
AcDbHatch
 10
0.0
 20
0.0
 30
0.0
210
0.0
220
0.0
230
1.0
  2
ANSI31
 70
     0
 71
     0
 91
        1
 92
        0
 93
        9
 72
     1
 10
190.3809333282543
 20
125.9847933608682
 11
205.3809333282543
 21
125.9847933608682
 72
     2
 10
205.3809333282543
 20
126.4847933608682
 40
0.4999999999999996
 50
270.0000000000008
 51
360.0000000000008
 73
     1
 72
     1
 10
205.8809333282543
 20
126.4847933608682
 11
205.8809333282543
 21
135.156366236122
 72
     2
 10
203.8809333282543
 20
135.156366236122
 40
2.000000000000008
 50
0.0
 51
45.0
 73
     1
 72
     1
 10
205.2951468906274
 20
136.5705797984951
 11
196.4667197658812
 21
145.3990069232412
 72
     2
 10
195.0525062035081
 20
143.9847933608682
 40
2.000000000000013
 50
44.99999999999942
 51
90.00000000000082
 73
     1
 72
     1
 10
195.0525062035081
 20
145.9847933608682
 11
191.3809332000778
 21
145.9847933608682
 72
     1
 10
191.3809331728545
 20
145.9847933409959
 11
190.3809332357421
 21
144.984793429958
 72
     1
 10
190.3809333282543
 20
144.9847934202402
 11
190.3809333282543
 21
125.9847933608682
 97
        0
 75
     0
 76
     1
 52
0.0
 41
1.0
 77
     0
 78
     1
 53
45.0
 43
0.0
 44
0.0
 45
-2.245064030267288
 46
2.245064030267288
 79
     0
 98
        1
 10
0.0
 20
0.0
  0
HATCH
  5
22E
330
1F
100
AcDbEntity
  8
0
  6
Continuous
 62
     7
370
    18
100
AcDbHatch
 10
0.0
 20
0.0
 30
0.0
210
0.0
220
0.0
230
1.0
  2
ANSI31
 70
     0
 71
     0
 91
        1
 92
        0
 93
        9
 72
     1
 10
96.2309614588425
 20
136.149067732751
 11
95.48137147990678
 21
136.9581790705186
 72
     1
 10
95.48137147990678
 20
136.9581790705186
 11
87.43093332825433
 21
136.5539134884505
 72
     1
 10
87.43093332825433
 20
136.5539134884505
 11
85.93093332825433
 21
135.687888084666
 72
     1
 10
85.93093332825433
 20
135.687888084666
 11
85.93093332825433
 21
133.7222933608681
 72
     1
 10
85.93093332825433
 20
133.7222933608681
 11
86.68259937809385
 21
132.4203695722214
 72
     1
 10
86.68259937809385
 20
132.4203695722214
 11
88.93093332825433
 21
131.1222933608681
 72
     1
 10
88.93093332825433
 20
131.1222933608681
 11
92.80093317296328
 21
131.1222933608681
 72
     1
 10
92.80093317296328
 20
131.1222933608681
 11
96.23093332825434
 21
136.020841245772
 72
     1
 10
96.23093332825434
 20
136.020841245772
 11
96.23093332825434
 21
136.1490666192587
 97
        0
 75
     0
 76
     1
 52
0.0
 41
1.0
 77
     0
 78
     1
 53
45.0
 43
0.0
 44
0.0
 45
-2.245064030267288
 46
2.245064030267288
 79
     0
 98
        1
 10
0.0
 20
0.0
  0
HATCH
  5
22F
330
1F
100
AcDbEntity
  8
0
  6
Continuous
 62
     7
370
    18
100
AcDbHatch
 10
0.0
 20
0.0
 30
0.0
210
0.0
220
0.0
230
1.0
  2
ANSI31
 70
     0
 71
     0
 91
        1
 92
        0
 93
       18
 72
     1
 10
151.3809333282544
 20
126.5097172324962
 11
152.8809333282544
 21
126.5097172324962
 72
     1
 10
152.8809333282544
 20
126.5097172324962
 11
157.3809333282544
 21
129.1077934438495
 72
     1
 10
157.3809333282544
 20
129.1077934438495
 11
161.8809333282544
 21
126.5097172324962
 72
     1
 10
161.8809333282544
 20
126.5097172324962
 11
163.3809333282544
 21
126.5097172324962
 72
     1
 10
163.3809333282544
 20
126.5097172324962
 11
166.3809333282544
 21
129.5097172324962
 72
     1
 10
166.3809333282544
 20
129.5097172324962
 11
166.3809333282544
 21
145.0097172324962
 72
     1
 10
166.3809333282544
 20
145.0097172324962
 11
165.3809333282544
 21
146.0097172324962
 72
     1
 10
165.3809333282544
 20
146.0097172324962
 11
162.9105055039217
 21
146.0097172324962
 72
     1
 10
162.9105055039217
 20
146.0097172324962
 11
162.9105055039217
 21
133.6697172324962
 72
     1
 10
162.9105055039217
 20
133.6697172324962
 11
162.3809333282544
 21
133.6697172324962
 72
     1
 10
162.3809333282544
 20
133.6697172324962
 11
157.3809333282544
 21
130.6654141373584
 72
     1
 10
157.3809333282544
 20
130.6654141373584
 11
152.3809333282544
 21
133.6697172324962
 72
     1
 10
152.3809333282544
 20
133.6697172324962
 11
151.8513611525868
 21
133.6697172324962
 72
     1
 10
151.8513611525868
 20
133.6697172324962
 11
151.8513611525868
 21
146.0097172324962
 72
     1
 10
151.8513611525868
 20
146.0097172324962
 11
149.3809333282544
 21
146.0097172324962
 72
     1
 10
149.3809333282544
 20
146.0097172324962
 11
148.3809333282544
 21
145.0097172324962
 72
     1
 10
148.3809333282544
 20
145.0097172324962
 11
148.3809333282544
 21
129.5097172324962
 72
     1
 10
148.3809333282544
 20
129.5097172324962
 11
151.3809333282544
 21
126.5097172324962
 97
        0
 75
     0
 76
     1
 52
0.0
 41
1.0
 77
     0
 78
     1
 53
45.0
 43
0.0
 44
0.0
 45
-2.245064030267288
 46
2.245064030267288
 79
     0
 98
        1
 10
0.0
 20
0.0
  0
HATCH
  5
230
330
1F
100
AcDbEntity
  8
0
  6
Continuous
 62
     7
370
    18
100
AcDbHatch
 10
0.0
 20
0.0
 30
0.0
210
0.0
220
0.0
230
1.0
  2
ANSI31
 70
     0
 71
     0
 91
        1
 92
        0
 93
       18
 72
     1
 10
176.3809333282544
 20
126.798923071497
 11
177.8809333282544
 21
126.798923071497
 72
     1
 10
177.8809333282544
 20
126.798923071497
 11
182.3809333282544
 21
129.3969992828503
 72
     1
 10
182.3809333282544
 20
129.3969992828503
 11
186.8809333282543
 21
126.798923071497
 72
     1
 10
186.8809333282543
 20
126.798923071497
 11
188.3809333282543
 21
126.798923071497
 72
     1
 10
188.3809333282543
 20
126.798923071497
 11
191.3809333282543
 21
129.7989230714969
 72
     1
 10
191.3809333282543
 20
129.7989230714969
 11
191.3809333282544
 21
145.298923071497
 72
     1
 10
191.3809333282544
 20
145.298923071497
 11
190.3809333282543
 21
146.298923071497
 72
     1
 10
190.3809333282543
 20
146.298923071497
 11
187.3973572666922
 21
146.2989230714969
 72
     1
 10
187.3973572666922
 20
146.2989230714969
 11
187.3973572666923
 21
133.958923071497
 72
     1
 10
187.3973572666923
 20
133.958923071497
 11
187.3809333282544
 21
133.958923071497
 72
     1
 10
187.3809333282544
 20
133.958923071497
 11
182.3809333282543
 21
130.9546199763591
 72
     1
 10
182.3809333282543
 20
130.9546199763591
 11
177.3809333282543
 21
133.958923071497
 72
     1
 10
177.3809333282543
 20
133.958923071497
 11
177.3645093898165
 21
133.958923071497
 72
     1
 10
177.3645093898165
 20
133.958923071497
 11
177.3645093898165
 21
146.2989230714969
 72
     1
 10
177.3645093898165
 20
146.2989230714969
 11
174.3809333282543
 21
146.2989230714969
 72
     1
 10
174.3809333282543
 20
146.2989230714969
 11
173.3809333282543
 21
145.2989230714969
 72
     1
 10
173.3809333282543
 20
145.2989230714969
 11
173.3809333282543
 21
129.7989230714969
 72
     1
 10
173.3809333282543
 20
129.7989230714969
 11
176.3809333282544
 21
126.798923071497
 97
        0
 75
     0
 76
     1
 52
0.0
 41
1.0
 77
     0
 78
     1
 53
45.0
 43
0.0
 44
0.0
 45
-2.245064030267288
 46
2.245064030267288
 79
     0
 98
        1
 10
0.0
 20
0.0
  0
DIMENSION
  5
231
330
1F
100
AcDbEntity
  8
VERMASSUNG
100
AcDbDimension
  2
_D
 10
231.0181912106
 20
100.9847933609
 30
0.0
 11
231.0181912106
 21
113.4847933609
 31
0.0
 70
   160
  1
%%c<>
 71
     2
 42
-1.0
  3
SLDDIMSTYLE0
100
AcDbAlignedDimension
 13
205.3809333283
 23
125.9847933609
 33
0.0
 14
205.3809333283
 24
100.9847933609
 34
0.0
 50
90.0
100
AcDbRotatedDimension
  0
DIMENSION
  5
23B
330
1F
100
AcDbEntity
  8
VERMASSUNG
100
AcDbDimension
  2
_D_1
 10
242.2970968807
 20
145.9847933609
 30
0.0
 11
242.2970968807
 21
113.4847933609
 31
0.0
 70
   160
  1
%%c<>
 71
     2
 42
-1.0
  3
SLDDIMSTYLE1
100
AcDbAlignedDimension
 13
195.0525062035
 23
80.9847933609
 33
0.0
 14
148.3809333796
 24
145.9847933609
 34
0.0
 50
90.0
100
AcDbRotatedDimension
  0
DIMENSION
  5
247
330
1F
100
AcDbEntity
  8
VERMASSUNG
100
AcDbDimension
  2
_D_2
 10
63.9309083283
 20
81.9847933609
 30
0.0
 11
63.9309083283
 21
113.4847933609
 31
0.0
 70
   160
  1
KM%%c<> XMZ
 71
     2
 42
-1.0
  3
SLDDIMSTYLE1
100
AcDbAlignedDimension
 13
143.8809333283
 23
144.9847933609
 33
0.0
 14
143.8809333283
 24
81.9847933609
 34
0.0
 50
90.0
100
AcDbRotatedDimension
  0
DIMENSION
  5
254
330
1F
100
AcDbEntity
  8
VERMASSUNG
100
AcDbDimension
  2
_D_3
 10
205.8809333283
 20
164.1037878075
 30
0.0
 11
165.8809333283
 21
164.1037878075
 31
0.0
 70
   160
  1
<>
 71
     2
 42
-1.0
  3
SLDDIMSTYLE1
100
AcDbAlignedDimension
 13
125.8809333283
 23
144.7597933609
 33
0.0
 14
205.8809333283
 24
135.1563662361
 34
0.0
 50
0.0
100
AcDbRotatedDimension
  0
DIMENSION
  5
25E
330
1F
100
AcDbEntity
  8
VERMASSUNG
100
AcDbDimension
  2
_D_4
 10
205.8809333283
 20
154.6121993717
 30
0.0
 11
174.8809333283
 21
154.6121993717
 31
0.0
 70
   160
  1
<>
 71
     2
 42
-1.0
  3
SLDDIMSTYLE1
100
AcDbAlignedDimension
 13
143.8809333283
 23
144.9847933609
 33
0.0
 14
205.8809333283
 24
135.1563662361
 34
0.0
100
AcDbRotatedDimension
  0
DIMENSION
  5
268
330
1F
100
AcDbEntity
  8
VERMASSUNG
100
AcDbDimension
  2
_D_5
 10
205.8809333283
 20
171.6801206079
 30
0.0
 11
145.9059333283
 21
171.6801206079
 31
0.0
 70
   160
  1
<>
 71
     2
 42
-1.0
  3
SLDDIMSTYLE1
100
AcDbAlignedDimension
 13
85.9309333283
 23
135.6878880847
 33
0.0
 14
205.8809333283
 24
135.1563662361
 34
0.0
100
AcDbRotatedDimension
  0
LINE
  5
272
330
1F
100
AcDbEntity
  8
VERMASSUNG
  6
CENTERX2
370
    18
100
AcDbLine
 10
182.3809333283
 20
148.2989230715
 30
0.0
 11
182.3809333283
 21
120.1449318372
 31
0.0
  0
LINE
  5
273
330
1F
100
AcDbEntity
  8
VERMASSUNG
  6
CENTERX2
370
    18
100
AcDbLine
 10
157.3809333283
 20
148.0097172325
 30
0.0
 11
157.3809333283
 21
120.1378054272
 31
0.0
  0
LINE
  5
274
330
1F
100
AcDbEntity
  8
0
  6
Continuous
 62
     7
370
    25
100
AcDbLine
 10
270.6018365211
 20
20.4009552104
 30
0.0
 11
273.7226510624
 21
22.2031473426
 31
0.0
  0
LINE
  5
275
330
1F
100
AcDbEntity
  8
0
  6
Continuous
 62
     7
370
    25
100
AcDbLine
 10
281.8833824237
 20
36.3394804179
 30
0.0
 11
281.8833804481
 21
39.9432807691
 31
0.0
  0
SPLINE
  5
276
330
1F
100
AcDbEntity
  8
0
  6
Continuous
 62
     7
370
    25
100
AcDbSpline
210
0.0
220
0.0
230
1.0
 70
     8
 71
     3
 72
    16
 73
    12
 74
     0
 42
0.000000001
 43
0.00000001
 40
0.0
 40
0.0
 40
0.0
 40
0.0
 40
0.020360418220892
 40
0.1471839567799998
 40
0.2737430140200473
 40
0.399737099342779
 40
0.5248093792152487
 40
0.648621742507207
 40
0.7709655987938996
 40
0.8918637648656871
 40
1.0
 40
1.0
 40
1.0
 40
1.0
 10
281.7736050298778
 20
41.67191474874096
 30
0.0
 10
281.7684176178545
 20
41.72808553936132
 30
0.0
 10
281.7309182001727
 20
42.13414002848189
 30
0.0
 10
281.5841925056341
 20
42.84239586294846
 30
0.0
 10
281.3285730174974
 20
43.78468802836874
 30
0.0
 10
280.9870263817335
 20
44.6567053942367
 30
0.0
 10
280.5713497562428
 20
45.45638081027793
 30
0.0
 10
280.083373375935
 20
46.1761390748117
 30
0.0
 10
279.5271254843836
 20
46.80773570685946
 30
0.0
 10
278.9342701590854
 20
47.34003042974474
 30
0.0
 10
278.4998575476109
 20
47.61495214230456
 30
0.0
 10
278.294754104406
 20
47.74475359918763
 30
0.0
  0
SPLINE
  5
277
330
1F
100
AcDbEntity
  8
0
  6
Continuous
 62
     7
370
    25
100
AcDbSpline
210
0.0
220
0.0
230
1.0
 70
     8
 71
     3
 72
    16
 73
    12
 74
     0
 42
0.000000001
 43
0.00000001
 40
0.0
 40
0.0
 40
0.0
 40
0.0
 40
0.0715138792482366
 40
0.1932092771621549
 40
0.3151719902855585
 40
0.437983870135581
 40
0.5620394671716569
 40
0.68748867730113
 40
0.8142469132456566
 40
0.9420642063732348
 40
1.0
 40
1.0
 40
1.0
 40
1.0
 10
262.0872776814063
 20
19.59662742697178
 30
0.0
 10
262.2239430836215
 20
19.51960258260686
 30
0.0
 10
262.5931724395539
 20
19.31150431329589
 30
0.0
 10
263.2498523246873
 20
19.07615721127597
 30
0.0
 10
264.0440552905359
 20
18.88334239617355
 30
0.0
 10
264.8777553461379
 20
18.79087213639225
 30
0.0
 10
265.7443174622613
 20
18.7946498544902
 30
0.0
 10
266.6401731799295
 20
18.89514363903188
 30
0.0
 10
267.5600203184342
 20
19.09877035629385
 30
0.0
 10
268.3241813584491
 20
19.32833809511568
 30
0.0
 10
268.781082151581
 20
19.52331422025002
 30
0.0
 10
268.92358804756
 20
19.58412665004759
 30
0.0
  0
LINE
  5
278
330
1F
100
AcDbEntity
  8
0
  6
Continuous
 62
     7
370
    25
100
AcDbLine
 10
244.2373333036
 20
29.88499508
 30
0.0
 11
261.9756616313
 21
19.6448761035
 31
0.0
  0
LINE
  5
279
330
1F
100
AcDbEntity
  8
0
  6
Continuous
 62
     7
370
    25
100
AcDbLine
 10
278.2243412085
 20
47.7914640607
 30
0.0
 11
260.4860128808
 21
58.0315830373
 31
0.0
  0
SPLINE
  5
27A
330
1F
100
AcDbEntity
  8
0
  6
Continuous
 62
     7
370
    25
100
AcDbSpline
210
0.0
220
0.0
230
1.0
 70
     8
 71
     3
 72
    15
 73
    11
 74
     0
 42
0.000000001
 43
0.00000001
 40
0.0
 40
0.0
 40
0.0
 40
0.0
 40
0.0051739675324689
 40
0.1483156330107666
 40
0.2912974737968781
 40
0.4341780603473449
 40
0.5770215975348719
 40
0.719893744674928
 40
0.8628413371091056
 40
1.0
 40
1.0
 40
1.0
 40
1.0
 10
277.2670390941436
 20
25.17159819156465
 30
0.0
 10
277.2758671195444
 20
25.18098214035613
 30
0.0
 10
277.5289290429801
 20
25.4499800218493
 30
0.0
 10
277.9945177253657
 20
26.0343918867274
 30
0.0
 10
278.6533008904923
 20
26.92005531666727
 30
0.0
 10
279.2606244605506
 20
27.85603285210609
 30
0.0
 10
279.8168606545922
 20
28.8251987364013
 30
0.0
 10
280.3140850209985
 20
29.82175495636382
 30
0.0
 10
280.7491761915877
 20
30.82252075301879
 30
0.0
 10
280.9819992264333
 20
31.49112963322261
 30
0.0
 10
281.0960048780121
 20
31.81852503501149
 30
0.0
  0
SPLINE
  5
27B
330
1F
100
AcDbEntity
  8
0
  6
Continuous
 62
     7
370
    25
100
AcDbSpline
210
0.0
220
0.0
230
1.0
 70
     8
 71
     3
 72
    14
 73
    10
 74
     0
 42
0.000000001
 43
0.00000001
 40
0.0
 40
0.0
 40
0.0
 40
0.0
 40
0.1622300981094442
 40
0.3299488038882381
 40
0.4954334529722596
 40
0.6583661925911207
 40
0.8196670750109877
 40
0.9713770529386346
 40
1.0
 40
1.0
 40
1.0
 40
1.0
 10
270.6780951673454
 20
26.17043177453719
 30
0.0
 10
270.5549585399944
 20
26.24671701750717
 30
0.0
 10
270.3045192973213
 20
26.40186840412153
 30
0.0
 10
269.9959649749482
 20
26.74786104784016
 30
0.0
 10
269.7418258484353
 20
27.17466773135387
 30
0.0
 10
269.5556469127741
 20
27.67761676203144
 30
0.0
 10
269.4414973366912
 20
28.23491615482312
 30
0.0
 10
269.4072463452137
 20
28.67511007916751
 30
0.0
 10
269.4057023192508
 20
28.91820600502675
 30
0.0
 10
269.4054572471243
 20
28.95679087141833
 30
0.0
  0
SPLINE
  5
27C
330
1F
100
AcDbEntity
  8
0
  6
Continuous
 62
     7
370
    25
100
AcDbSpline
210
0.0
220
0.0
230
1.0
 70
     8
 71
     3
 72
    17
 73
    13
 74
     0
 42
0.000000001
 43
0.00000001
 40
0.0
 40
0.0
 40
0.0
 40
0.0
 40
0.0939075139359058
 40
0.2012125707151066
 40
0.3083367679944556
 40
0.4153019607017918
 40
0.5222040783760384
 40
0.6292091174674834
 40
0.7367303001901251
 40
0.8454188975223249
 40
0.9559115397328867
 40
1.0
 40
1.0
 40
1.0
 40
1.0
 10
272.4068395320703
 20
35.55824802490789
 30
0.0
 10
272.5651117423562
 20
35.70913276754795
 30
0.0
 10
272.9042364510154
 20
36.03242858995693
 30
0.0
 10
273.4440750258382
 20
36.43958276586065
 30
0.0
 10
274.0090168397934
 20
36.78943687557143
 30
0.0
 10
274.5677118459506
 20
37.05069823192279
 30
0.0
 10
275.109436510318
 20
37.22241143077142
 30
0.0
 10
275.6248291009344
 20
37.30221967544571
 30
0.0
 10
276.1073154439038
 20
37.29246152807139
 30
0.0
 10
276.547462712595
 20
37.18705401202135
 30
0.0
 10
276.8730657668771
 20
37.04801164702094
 30
0.0
 10
277.0323021964186
 20
36.9121832365725
 30
0.0
 10
277.0777184140829
 20
36.87344327818678
 30
0.0
  0
SPLINE
  5
27D
330
1F
100
AcDbEntity
  8
0
  6
Continuous
 62
     7
370
    25
100
AcDbSpline
210
0.0
220
0.0
230
1.0
 70
     8
 71
     3
 72
    11
 73
     7
 74
     0
 42
0.000000001
 43
0.00000001
 40
0.0
 40
0.0
 40
0.0
 40
0.0
 40
0.1644722244217839
 40
0.4787771262074483
 40
0.7935290598866741
 40
1.0
 40
1.0
 40
1.0
 40
1.0
 10
269.4054572471243
 20
28.95679087141833
 30
0.0
 10
269.4073904877711
 20
29.07157526866325
 30
0.0
 10
269.4130181334384
 20
29.40571158888129
 30
0.0
 10
269.4796581755964
 20
29.99118503836262
 30
0.0
 10
269.6010461944992
 20
30.62874955534243
 30
0.0
 10
269.726312492584
 20
31.03559353249767
 30
0.0
 10
269.7759339724357
 20
31.19675579660067
 30
0.0
  0
LINE
  5
27E
330
1F
100
AcDbEntity
  8
0
  6
Continuous
 62
     7
370
    25
100
AcDbLine
 10
252.3598055651
 20
57.2259986646
 30
0.0
 11
252.0063089205
 21
57.0218638058
 31
0.0
  0
LINE
  5
27F
330
1F
100
AcDbEntity
  8
0
  6
Continuous
 62
     7
370
    25
100
AcDbLine
 10
240.8711870023
 20
37.7331774211
 30
0.0
 11
240.8711883194
 21
37.3249732983
 31
0.0
  0
LINE
  5
280
330
1F
100
AcDbEntity
  8
0
  6
Continuous
 62
     7
370
    25
100
AcDbLine
 10
242.4550431788
 20
31.5056569791
 30
0.0
 11
242.4689463705
 21
31.4976308374
 31
0.0
  0
LINE
  5
281
330
1F
100
AcDbEntity
  8
0
  6
Continuous
 62
     7
370
    25
100
AcDbLine
 10
258.205167685
 20
58.7565192312
 30
0.0
 11
258.1912644934
 21
58.7645453729
 31
0.0
  0
LINE
  5
282
330
1F
100
AcDbEntity
  8
0
  6
Continuous
 62
     7
370
    25
100
AcDbLine
 10
237.8467581291
 20
34.1659633121
 30
0.0
 11
240.0974090592
 21
32.866690186
 31
0.0
  0
LINE
  5
283
330
1F
100
AcDbEntity
  8
0
  6
Continuous
 62
     7
370
    25
100
AcDbLine
 10
255.8336303738
 20
60.1255785798
 30
0.0
 11
253.5829794437
 21
61.4248517059
 31
0.0
  0
LINE
  5
284
330
1F
100
AcDbEntity
  8
0
  6
Continuous
 62
     7
370
    25
100
AcDbLine
 10
246.8055897132
 20
61.2047335452
 30
0.0
 11
237.6083775296
 21
65.785386155
 31
0.0
  0
LINE
  5
285
330
1F
100
AcDbEntity
  8
0
  6
Continuous
 62
     7
370
    25
100
AcDbLine
 10
226.0820297399
 20
45.8190030796
 30
0.0
 11
234.6481297456
 21
40.1451134832
 31
0.0
  0
LINE
  5
286
330
1F
100
AcDbEntity
  8
0
  6
Continuous
 62
     7
370
    25
100
AcDbLine
 10
231.0614678402
 20
46.76549247
 30
0.0
 11
231.0614678402
 21
46.400173765
 31
0.0
  0
LINE
  5
287
330
1F
100
AcDbEntity
  8
0
  6
Continuous
 62
     7
370
    25
100
AcDbLine
 10
234.959433942
 20
66.162354912
 30
0.0
 11
234.3198835039
 21
66.0751433466
 31
0.0
  0
ARC
  5
288
330
1F
100
AcDbEntity
  8
0
  6
Continuous
 62
     7
370
    25
100
AcDbCircle
 10
268.5029776104
 20
36.3032266915
 30
0.0
 40
13.35819081931779
100
AcDbArc
 50
340.5891961921
 51
6.3452075074
  0
ARC
  5
289
330
1F
100
AcDbEntity
  8
0
  6
Continuous
 62
     7
370
    25
100
AcDbCircle
 10
267.5590345742
 20
33.1435339398
 30
0.0
 40
12.55125639563264
100
AcDbArc
 50
292.770525679
 51
320.4067736627
  0
ARC
  5
28A
330
1F
100
AcDbEntity
  8
0
  6
Continuous
 62
     7
370
    25
100
AcDbCircle
 10
268.4619650747
 20
39.9805574081
 30
0.0
 40
13.42146713936698
100
AcDbArc
 50
359.8408671114
 51
7.038268476
  0
ARC
  5
28B
330
1F
100
AcDbEntity
  8
0
  6
Continuous
 62
     7
370
    25
100
AcDbCircle
 10
263.8263390028
 20
32.0734164344
 30
0.0
 40
13.4964335157568
100
AcDbArc
 50
292.4175250117
 51
300.1338205349
  0
LINE
  5
28C
330
1F
100
AcDbEntity
  8
0
  6
Continuous
 62
     7
370
    25
100
AcDbLine
 10
278.2243412085
 20
47.7914640607
 30
0.0
 11
278.2891643786
 21
47.7534401569
 31
0.0
  0
LINE
  5
28D
330
1F
100
AcDbEntity
  8
0
  6
Continuous
 62
     7
370
    25
100
AcDbLine
 10
262.0695351753
 20
19.5919219674
 30
0.0
 11
261.9756616313
 21
19.6448761035
 31
0.0
  0
LWPOLYLINE
  5
28E
330
1F
100
AcDbEntity
  8
0
  6
Continuous
 62
     7
370
    25
100
AcDbPolyline
 90
       39
 70
   128
 43
0.0
 10
260.4860128808
 20
58.0315830373
 10
259.9531463238
 20
58.3012650419
 10
259.1942969262
 20
58.5707465762
 10
258.3862180339
 20
58.7349447415
 10
257.5347324974
 20
58.7926764715
 10
256.6459749881
 20
58.7435265483
 10
255.7263488636
 20
58.5878485565
 10
254.7824800694
 20
58.3267641275
 10
253.8211693946
 20
57.9621551491
 10
252.8493431222
 20
57.4966474438
 10
251.8740030622
 20
56.9335956121
 10
250.9021767898
 20
56.2770565867
 10
249.940866115
 20
55.531759885
 10
248.9969973208
 20
54.7030766005
 10
248.0773711963
 20
53.7969768695
 10
247.188613687
 20
52.8199892145
 10
246.3371281505
 20
51.77915321
 10
245.5290492582
 20
50.6819670149
 10
244.7701998606
 20
49.5363366154
 10
244.0660471941
 20
48.3505163232
 10
243.4216646858
 20
47.1330502233
 10
242.8416950743
 20
45.8927094393
 10
242.3303174832
 20
44.6384316795
 10
241.8912158103
 20
43.379253179
 10
241.5275537036
 20
42.1242463434
 10
241.2419515116
 20
40.882453781
 10
241.0364685029
 20
39.6628235706
 10
240.9125831101
 20
38.4741418249
 10
240.8711883194
 20
37.3249732983
 10
240.9125831101
 20
36.2235981381
 10
241.0364685029
 20
35.177951369
 10
241.2419515116
 20
34.1955668855
 10
241.5275537036
 20
33.283523405
 10
241.8912158103
 20
32.4483919005
 10
242.3303174832
 20
31.6961897804
 10
242.8416950743
 20
31.0323356397
 10
243.4216646858
 20
30.4616138961
 10
244.0660471941
 20
29.9881360041
 10
244.2373333036
 20
29.88499508
  0
ARC
  5
28F
330
1F
100
AcDbEntity
  8
0
  6
Continuous
 62
     7
370
    25
100
AcDbCircle
 10
280.0606826912
 20
27.9631023724
 30
0.0
 40
10.83902202041103
100
AcDbArc
 50
134.937737651
 51
162.8083056273
  0
LWPOLYLINE
  5
290
330
1F
100
AcDbEntity
  8
0
  6
Continuous
 62
     7
370
    25
100
AcDbPolyline
 90
        3
 70
   128
 43
0.0
 10
276.8764003702
 20
37.022920904
 10
276.9307171212
 20
36.9904550686
 10
277.1019179491
 20
36.8724212473
  0
LINE
  5
291
330
1F
100
AcDbEntity
  8
0
  6
Continuous
 62
     7
370
    25
100
AcDbLine
 10
270.6818357002
 20
26.1666968485
 30
0.0
 11
270.6269084784
 21
26.1973102536
 31
0.0
  0
LWPOLYLINE
  5
292
330
1F
100
AcDbEntity
  8
0
  6
Continuous
 62
     7
370
    25
100
AcDbPolyline
 90
       19
 70
   128
 43
0.0
 10
240.8711870023
 20
37.7331774211
 10
240.9135669756
 20
38.8785108112
 10
241.0403822329
 20
40.0640572084
 10
241.2506686652
 20
41.2807944524
 10
241.5428266678
 20
42.5194629884
 10
241.9146310189
 20
43.7706344259
 10
242.3632532697
 20
45.0247876548
 10
242.8852782084
 20
46.272377285
 10
243.4767341532
 20
47.50390931
 10
244.1331192937
 20
48.7100099262
 10
244.8494372529
 20
49.8815008153
 10
245.6202372577
 20
51.0094649208
 10
246.4396529937
 20
52.0853194483
 10
247.3014483737
 20
53.1008757482
 10
248.1990639652
 20
54.0484041408
 10
249.1256690151
 20
54.9206943676
 10
250.0742110058
 20
55.7111077741
 10
251.037471384
 20
56.4136277324
 10
252.0063089205
 20
57.0218638058
  0
SPLINE
  5
293
330
1F
100
AcDbEntity
  8
0
  6
Continuous
 62
     7
370
    25
100
AcDbSpline
210
0.0
220
0.0
230
1.0
 70
     8
 71
     3
 72
    13
 73
     9
 74
     0
 42
0.000000001
 43
0.00000001
 40
0.0
 40
0.0
 40
0.0
 40
0.0
 40
0.1784000622085222
 40
0.3568156407576046
 40
0.5346577931948008
 40
0.7115049648919101
 40
0.8885996105368185
 40
1.0
 40
1.0
 40
1.0
 40
1.0
 10
245.7136152469115
 20
54.17009464024415
 30
0.0
 10
245.7357088973224
 20
54.00533941347351
 30
0.0
 10
245.7798981197387
 20
53.67581463035085
 30
0.0
 10
245.5962387493673
 20
53.13477668403416
 30
0.0
 10
245.2534775018329
 20
52.62868472081565
 30
0.0
 10
244.7756919916075
 20
52.20999302430412
 30
0.0
 10
244.2867847104742
 20
51.95239578986658
 30
0.0
 10
243.9762798035376
 20
51.88553135683158
 30
0.0
 10
243.8563804522368
 20
51.85971211221774
 30
0.0
  0
LWPOLYLINE
  5
294
330
1F
100
AcDbEntity
  8
0
  6
Continuous
 62
     7
370
    25
100
AcDbPolyline
 90
       15
 70
   128
 43
0.0
 10
245.7136152469
 20
54.1700946402
 10
246.6185640607
 20
55.1138244029
 10
247.551994266
 20
55.9808371373
 10
248.5067290446
 20
56.7644672991
 10
249.4754286711
 20
57.4586899068
 10
250.450645645
 20
58.0581683385
 10
251.424882499
 20
58.5582930271
 10
252.3906492152
 20
58.9552199294
 10
253.3405208072
 20
59.2458961629
 10
254.2671946751
 20
59.4280877925
 10
255.1635465196
 20
59.5003946192
 10
256.0226853311
 20
59.4622598701
 10
256.8380055788
 20
59.3139767532
 10
257.6032395655
 20
59.0566859806
 10
258.1912644934
 20
58.7645453729
  0
LWPOLYLINE
  5
295
330
1F
100
AcDbEntity
  8
0
  6
Continuous
 62
     7
370
    25
100
AcDbPolyline
 90
       21
 70
   128
 43
0.0
 10
242.4550431788
 20
31.5056569791
 10
241.8288832556
 20
31.9298623903
 10
241.2363367611
 20
32.4715158596
 10
240.7125291423
 20
33.108964473
 10
240.2614235202
 20
33.8373880449
 10
239.8864318137
 20
34.6512759409
 10
239.5903910327
 20
35.5444704269
 10
239.3755402284
 20
36.5102153404
 10
239.2435046888
 20
37.5412049521
 10
239.1952847428
 20
38.6296408112
 10
239.23124259
 20
39.7672878609
 10
239.3511088857
 20
40.9455415897
 10
239.5539748385
 20
42.1554878359
 10
239.8383066982
 20
43.3879739726
 10
240.2019536584
 20
44.6336769264
 10
240.6421643202
 20
45.8831727291
 10
241.1556090826
 20
47.1270095196
 10
241.73840385
 20
48.355778455
 10
242.386139667
 20
49.5601832901
 10
243.0939163038
 20
50.731113759
 10
243.8563804522
 20
51.8597121122
  0
LWPOLYLINE
  5
296
330
1F
100
AcDbEntity
  8
0
  6
Continuous
 62
     7
370
    25
100
AcDbPolyline
 90
       12
 70
   128
 43
0.0
 10
244.050993196
 20
54.294371501
 10
244.9221524203
 20
55.2243181926
 10
245.8237466084
 20
56.0770839804
 10
246.7480665089
 20
56.8453765584
 10
247.6872082707
 20
57.5226262691
 10
248.633141427
 20
58.1030420795
 10
249.577777189
 20
58.5816608924
 10
250.5130380656
 20
58.9543907793
 10
251.4309267851
 20
59.2180439232
 10
252.3235944024
 20
59.3703652899
 10
253.1834075634
 20
59.410053208
 10
253.8515437722
 20
59.359258134
  0
SPLINE
  5
297
330
1F
100
AcDbEntity
  8
0
  6
Continuous
 62
     7
370
    25
100
AcDbSpline
210
0.0
220
0.0
230
1.0
 70
     8
 71
     3
 72
    14
 73
    10
 74
     0
 42
0.000000001
 43
0.00000001
 40
0.0
 40
0.0
 40
0.0
 40
0.0
 40
0.2014312016987745
 40
0.3470147456769249
 40
0.4641263316352864
 40
0.5817084913869455
 40
0.6911897696111506
 40
0.872685190322198
 40
0.9999999999999999
 40
0.9999999999999999
 40
0.9999999999999999
 40
0.9999999999999999
 10
242.7068001344109
 20
52.62220798372666
 30
0.0
 10
242.6771263495116
 20
52.80188926069833
 30
0.0
 10
242.6260059628324
 20
53.11143441609323
 30
0.0
 10
242.6816154988161
 20
53.54152064570511
 30
0.0
 10
242.8224933709226
 20
53.8672419461651
 30
0.0
 10
243.0362958618125
 20
54.09827085404125
 30
0.0
 10
243.3482965003889
 20
54.26656970525941
 30
0.0
 10
243.6967429127016
 20
54.32586042680993
 30
0.0
 10
243.9475794883147
 20
54.3035638339886
 30
0.0
 10
244.0509931959636
 20
54.2943715009887
 30
0.0
  0
LWPOLYLINE
  5
298
330
1F
100
AcDbEntity
  8
0
  6
Continuous
 62
     7
370
    25
100
AcDbPolyline
 90
       18
 70
   128
 43
0.0
 10
239.7698213621
 20
34.9663569247
 10
239.4432952387
 20
35.4357239671
 10
239.0434217451
 20
36.178764532
 10
238.7220434641
 20
37.0051364794
 10
238.4818327694
 20
37.9079672554
 10
238.3247876849
 20
38.8797480522
 10
238.2522147631
 20
39.9123967376
 10
238.264716572
 20
40.997324397
 10
238.3621897203
 20
42.125508148
 10
238.5438241981
 20
43.2875652853
 10
238.8081079873
 20
44.4738304675
 10
239.1528435249
 20
45.6744380354
 10
239.5751648251
 20
46.8794028098
 10
240.0715578946
 20
48.0787027899
 10
240.6378949762
 20
49.2623633713
 10
241.2694661596
 20
50.420541184
 10
241.9610182355
 20
51.5436024166
 10
242.7068001344
 20
52.6222079837
  0
LINE
  5
299
330
1F
100
AcDbEntity
  8
0
  6
Continuous
 62
     7
370
    25
100
AcDbLine
 10
241.231408214
 20
32.3782867545
 30
0.0
 11
241.3502373021
 21
32.4344449124
 31
0.0
  0
LWPOLYLINE
  5
29A
330
1F
100
AcDbEntity
  8
0
  6
Continuous
 62
     7
370
    25
100
AcDbPolyline
 90
       40
 70
   128
 43
0.0
 10
241.231408214
 20
32.3782867545
 10
240.4793042878
 20
32.6666564135
 10
239.7850640333
 20
33.0619211929
 10
239.1540552468
 20
33.5610254294
 10
238.5911544504
 20
34.160111978
 10
238.1007126477
 20
34.8545495915
 10
237.6865204209
 20
35.638970187
 10
237.3517802718
 20
36.5073118142
 10
237.0990789634
 20
37.4528616245
 10
236.9303697387
 20
38.4683117665
 10
236.8469571742
 20
39.54581319
 10
236.849484668
 20
40.6770365324
 10
236.9379337809
 20
41.8532387533
 10
237.1116209436
 20
43.0653284881
 10
237.3692033839
 20
44.3039365796
 10
237.7086896632
 20
45.5594890345
 10
238.1274561402
 20
46.8222812616
 10
238.6222660686
 20
48.0825526433
 10
239.1892939634
 20
49.3305616285
 10
239.824158528
 20
50.556662537
 10
240.5219516301
 20
51.7513766592
 10
241.2772791317
 20
52.9054713412
 10
242.0843043528
 20
54.0100242392
 10
242.9367875842
 20
55.0564993626
 10
243.8281407466
 20
56.0368067649
 10
244.7514738182
 20
56.9433688897
 10
245.6996496582
 20
57.7691803573
 10
246.6653396539
 20
58.5078560581
 10
247.6410793682
 20
59.1536868522
 10
248.6193268611
 20
59.7016816024
 10
249.5925207657
 20
60.1476045032
 10
250.5531386517
 20
60.4880080127
 10
251.4937555532
 20
60.7202613173
 10
252.4071011387
 20
60.8425688856
 10
253.286115482
 20
60.8539866951
 10
254.12400405
 20
60.754424318
 10
254.9142910454
 20
60.5446536613
 10
255.6508671506
 20
60.2262939437
 10
256.3280399071
 20
59.801808078
 10
256.9236683899
 20
59.2912762634
  0
LWPOLYLINE
  5
29B
330
1F
100
AcDbEntity
  8
0
  6
Continuous
 62
     7
370
    25
100
AcDbPolyline
 90
       27
 70
   128
 43
0.0
 10
234.586775788
 20
41.4529367395
 10
234.6288528307
 20
42.5900890507
 10
234.7547625894
 20
43.7671674458
 10
234.9635468817
 20
44.9752136906
 10
235.2536179567
 20
46.2050342465
 10
235.6227663978
 20
47.4472689733
 10
236.068184171
 20
48.6924638698
 10
236.5864810893
 20
49.9311427456
 10
237.1737118125
 20
51.1538777522
 10
237.8254081162
 20
52.3513635243
 10
238.536609843
 20
53.5144863796
 10
239.3019044157
 20
54.6343938973
 10
240.1154670082
 20
55.702563736
 10
240.9711066434
 20
56.7108659877
 10
241.8623106455
 20
57.6516261017
 10
242.7822969939
 20
58.517686287
 10
243.7240638787
 20
59.3024531318
 10
244.6804438661
 20
59.9999554886
 10
245.6441582284
 20
60.6048849639
 10
246.6078725906
 20
61.1126364072
 10
247.5642525781
 20
61.51934688
 10
248.5060194629
 20
61.8219209357
 10
249.4260058112
 20
62.0180543788
 10
250.3172098134
 20
62.1062565036
 10
251.1728494486
 20
62.0858547467
 10
251.986412041
 20
61.9570042832
 10
252.571471543
 20
61.7875718657
  0
ARC
  5
29C
330
1F
100
AcDbEntity
  8
0
  6
Continuous
 62
     7
370
    25
100
AcDbCircle
 10
246.5766656494
 20
41.3287492829
 30
0.0
 40
11.98797084765113
100
AcDbArc
 50
180.9365736373
 51
192.8168718181
  0
SPLINE
  5
29D
330
1F
100
AcDbEntity
  8
0
  6
Continuous
 62
     7
370
    25
100
AcDbSpline
210
0.0
220
0.0
230
1.0
 70
     8
 71
     3
 72
     9
 73
     5
 74
     0
 42
0.000000001
 43
0.00000001
 40
0.0
 40
0.0
 40
0.0
 40
0.0
 40
0.6722547881095353
 40
1.0
 40
1.0
 40
1.0
 40
1.0
 10
243.4334888524461
 20
51.15915477384348
 30
0.0
 10
243.3049499481632
 20
51.27224619675678
 30
0.0
 10
243.1137443122103
 20
51.44047322155988
 30
0.0
 10
243.014006842104
 20
51.6795060365947
 30
0.0
 10
242.9813183638305
 20
51.75784789720706
 30
0.0
  0
SPLINE
  5
29E
330
1F
100
AcDbEntity
  8
0
  6
Continuous
 62
     7
370
    25
100
AcDbSpline
210
0.0
220
0.0
230
1.0
 70
     8
 71
     3
 72
    13
 73
     9
 74
     0
 42
0.000000001
 43
0.00000001
 40
0.0
 40
0.0
 40
0.0
 40
0.0
 40
0.267622426649214
 40
0.530108139369653
 40
0.7491650568980269
 40
0.8880724060732299
 40
0.9994450770348339
 40
1.0
 40
1.0
 40
1.0
 40
1.0
 10
242.9813183638305
 20
51.75784789720706
 30
0.0
 10
242.9573117840262
 20
51.8299932496919
 30
0.0
 10
242.9097594039359
 20
51.97289920510363
 30
0.0
 10
242.8517552533316
 20
52.20711446712026
 30
0.0
 10
242.805131992433
 20
52.39747417694908
 30
0.0
 10
242.7636148446949
 20
52.52678689099155
 30
0.0
 10
242.7366512225525
 20
52.5796663267337
 30
0.0
 10
242.7241646397244
 20
52.59750175058834
 30
0.0
 10
242.7241027328136
 20
52.59759017638169
 30
0.0
  0
LINE
  5
29F
330
1F
100
AcDbEntity
  8
0
  6
Continuous
 62
     7
370
    25
100
AcDbLine
 10
242.7241027328
 20
52.5975901764
 30
0.0
 11
242.7068001344
 21
52.6222079837
 31
0.0
  0
LINE
  5
2A0
330
1F
100
AcDbEntity
  8
0
  6
Continuous
 62
     7
370
    25
100
AcDbLine
 10
244.050993196
 20
54.294371501
 30
0.0
 11
244.0682957944
 21
54.2697536936
 31
0.0
  0
SPLINE
  5
2A1
330
1F
100
AcDbEntity
  8
0
  6
Continuous
 62
     7
370
    25
100
AcDbSpline
210
0.0
220
0.0
230
1.0
 70
     8
 71
     3
 72
    12
 73
     8
 74
     0
 42
0.000000001
 43
0.00000001
 40
0.0
 40
0.0
 40
0.0
 40
0.0
 40
0.0923658701546878
 40
0.2347997664549583
 40
0.4590609949375147
 40
0.7661970803789335
 40
1.0
 40
1.0
 40
1.0
 40
1.0
 10
244.0682957943663
 20
54.26975369364373
 30
0.0
 10
244.0810711643662
 20
54.2560346489875
 30
0.0
 10
244.1135469466798
 20
54.22115998721178
 30
0.0
 10
244.2246261566012
 20
54.18105955726864
 30
0.0
 10
244.4189688041157
 20
54.15467578516815
 30
0.0
 10
244.6649604003949
 20
54.14563667471153
 30
0.0
 10
244.8325703113411
 20
54.1493162732642
 30
0.0
 10
244.9050141287954
 20
54.15090665753414
 30
0.0
  0
SPLINE
  5
2A2
330
1F
100
AcDbEntity
  8
0
  6
Continuous
 62
     7
370
    25
100
AcDbSpline
210
0.0
220
0.0
230
1.0
 70
     8
 71
     3
 72
     9
 73
     5
 74
     0
 42
0.000000001
 43
0.00000001
 40
0.0
 40
0.0
 40
0.0
 40
0.0
 40
0.672288285122473
 40
0.9999999999999999
 40
0.9999999999999999
 40
0.9999999999999999
 40
0.9999999999999999
 10
244.9050141287954
 20
54.15090665753414
 30
0.0
 10
245.1015202265894
 20
54.14394576370648
 30
0.0
 10
245.3938146219294
 20
54.13359173258367
 30
0.0
 10
245.6364969838909
 20
54.03192706589481
 30
0.0
 10
245.7160268368997
 20
53.99861036363175
 30
0.0
  0
LINE
  5
2A3
330
1F
100
AcDbEntity
  8
0
  6
Continuous
 62
     7
370
    25
100
AcDbLine
 10
245.8712306309
 20
54.0270285571
 30
0.0
 11
245.8538374826
 21
54.0517758417
 31
0.0
  0
ARC
  5
2A4
330
1F
100
AcDbEntity
  8
0
  6
Continuous
 62
     7
370
    25
100
AcDbCircle
 10
228.3986356026
 20
49.2746703425
 30
0.0
 40
4.160324380970708
100
AcDbArc
 50
211.7953885616
 51
236.1629404196
  0
LINE
  5
2A5
330
1F
100
AcDbEntity
  8
0
  6
Continuous
 62
     7
370
    25
100
AcDbLine
 10
226.2930728399
 20
46.1579059953
 30
0.0
 11
224.8626647777
 21
47.08259351
 31
0.0
  0
SPLINE
  5
2A6
330
1F
100
AcDbEntity
  8
0
  6
Continuous
 62
     7
370
    25
100
AcDbSpline
210
0.0
220
0.0
230
1.0
 70
     8
 71
     3
 72
    11
 73
     7
 74
     0
 42
0.000000001
 43
0.00000001
 40
0.0
 40
0.0
 40
0.0
 40
0.0
 40
0.2551427789551173
 40
0.5038836995657299
 40
0.7567715646677659
 40
1.0
 40
1.0
 40
1.0
 40
1.0
 10
227.1736377261821
 20
45.98317550089469
 30
0.0
 10
227.1426980323005
 20
45.94153740397215
 30
0.0
 10
227.0815949609915
 20
45.85930596318387
 30
0.0
 10
226.8921627895071
 20
45.86235198361948
 30
0.0
 10
226.6392686361225
 20
45.94736573721887
 30
0.0
 10
226.4069637729709
 20
46.08864280172704
 30
0.0
 10
226.2930728398671
 20
46.15790599529389
 30
0.0
  0
LINE
  5
2A7
330
1F
100
AcDbEntity
  8
0
  6
Continuous
 62
     7
370
    25
100
AcDbLine
 10
228.647140941
 20
45.0358553685
 30
0.0
 11
227.1729818159
 21
45.9838127274
 31
0.0
  0
SPLINE
  5
2A8
330
1F
100
AcDbEntity
  8
0
  6
Continuous
 62
     7
370
    25
100
AcDbSpline
210
0.0
220
0.0
230
1.0
 70
     8
 71
     3
 72
    10
 73
     6
 74
     0
 42
0.000000001
 43
0.00000001
 40
0.0
 40
0.0
 40
0.0
 40
0.0
 40
0.414728078796385
 40
0.8401307392212987
 40
1.0
 40
1.0
 40
1.0
 40
1.0
 10
229.4607048504894
 20
44.39154721239841
 30
0.0
 10
229.3524088234164
 20
44.46505773293762
 30
0.0
 10
229.1330293650889
 20
44.61397084280079
 30
0.0
 10
228.8521653790044
 20
44.84769162870653
 30
0.0
 10
228.6912890684648
 20
44.99533512218928
 30
0.0
 10
228.6473450897585
 20
45.03566450637251
 30
0.0
  0
LINE
  5
2A9
330
1F
100
AcDbEntity
  8
0
  6
Continuous
 62
     7
370
    25
100
AcDbLine
 10
230.1004116928
 20
43.9797931645
 30
0.0
 11
229.4607048505
 21
44.3915472124
 31
0.0
  0
SPLINE
  5
2AA
330
1F
100
AcDbEntity
  8
0
  6
Continuous
 62
     7
370
    25
100
AcDbSpline
210
0.0
220
0.0
230
1.0
 70
     8
 71
     3
 72
    12
 73
     8
 74
     0
 42
0.000000001
 43
0.00000001
 40
0.0
 40
0.0
 40
0.0
 40
0.0
 40
0.2537180963879569
 40
0.5052505841791761
 40
0.7525838968603153
 40
0.8778506465474547
 40
1.0
 40
1.0
 40
1.0
 40
1.0
 10
231.2027770036029
 20
44.69569919067274
 30
0.0
 10
231.2285368166834
 20
44.46542977939651
 30
0.0
 10
231.2798345395994
 20
44.0068745709891
 30
0.0
 10
231.0953688362124
 20
43.6793482460949
 30
0.0
 10
230.7811601344729
 20
43.64964646487852
 30
0.0
 10
230.4253766184238
 20
43.78228340836867
 30
0.0
 10
230.2078196089266
 20
43.91451193063124
 30
0.0
 10
230.1004116928212
 20
43.97979316454205
 30
0.0
  0
ARC
  5
2AB
330
1F
100
AcDbEntity
  8
0
  6
Continuous
 62
     7
370
    25
100
AcDbCircle
 10
242.3957996552
 20
46.4817497611
 30
0.0
 40
11.33462538948665
100
AcDbArc
 50
170.9338470112
 51
189.0661529888
  0
SPLINE
  5
2AC
330
1F
100
AcDbEntity
  8
0
  6
Continuous
 62
     7
370
    25
100
AcDbSpline
210
0.0
220
0.0
230
1.0
 70
     8
 71
     3
 72
    12
 73
     8
 74
     0
 42
0.000000001
 43
0.00000001
 40
0.0
 40
0.0
 40
0.0
 40
0.0
 40
0.121023448188702
 40
0.2461792932130132
 40
0.4944811452447263
 40
0.7458828357160949
 40
1.0
 40
1.0
 40
1.0
 40
1.0
 10
230.1004116928212
 20
51.74390369250573
 30
0.0
 10
230.206488369661
 20
51.66413386335024
 30
0.0
 10
230.4222637563454
 20
51.50187043047728
 30
0.0
 10
230.7782205333809
 20
51.02064096440981
 30
0.0
 10
231.0989478097574
 20
50.26215534454182
 30
0.0
 10
231.2762942300033
 20
49.22517996667869
 30
0.0
 10
231.2273703465075
 20
48.58806765953479
 30
0.0
 10
231.2027770036029
 20
48.26780033162243
 30
0.0
  0
LINE
  5
2AD
330
1F
100
AcDbEntity
  8
0
  6
Continuous
 62
     7
370
    25
100
AcDbLine
 10
229.4607048505
 20
52.1568784734
 30
0.0
 11
230.1004116928
 21
51.7439036925
 31
0.0
  0
SPLINE
  5
2AE
330
1F
100
AcDbEntity
  8
0
  6
Continuous
 62
     7
370
    25
100
AcDbSpline
210
0.0
220
0.0
230
1.0
 70
     8
 71
     3
 72
    10
 73
     6
 74
     0
 42
0.000000001
 43
0.00000001
 40
0.0
 40
0.0
 40
0.0
 40
0.0
 40
0.1584384028500623
 40
0.5838985783859613
 40
1.0
 40
1.0
 40
1.0
 40
1.0
 10
228.6467517411568
 20
52.36546094601478
 30
0.0
 10
228.6903298066438
 20
52.36786732677074
 30
0.0
 10
228.8509295730447
 20
52.37673564579685
 30
0.0
 10
229.1319982863217
 20
52.33738761248564
 30
0.0
 10
229.3519513397291
 20
52.21660044047906
 30
0.0
 10
229.4607048504894
 20
52.1568784734182
 30
0.0
  0
LINE
  5
2AF
330
1F
100
AcDbEntity
  8
0
  6
Continuous
 62
     7
370
    25
100
AcDbLine
 10
226.8444484488
 20
53.5278529318
 30
0.0
 11
228.6466364959
 21
52.3654508619
 31
0.0
  0
LINE
  5
2B0
330
1F
100
AcDbEntity
  8
0
  6
Continuous
 62
     7
370
    25
100
AcDbLine
 10
226.5026203852
 20
53.8289172572
 30
0.0
 11
226.8444431804
 21
53.5278428558
 31
0.0
  0
LINE
  5
2B1
330
1F
100
AcDbEntity
  8
0
  6
Continuous
 62
     7
370
    25
100
AcDbLine
 10
224.558639803
 20
55.0836393799
 30
0.0
 11
226.5026203852
 21
53.8289172572
 31
0.0
  0
LWPOLYLINE
  5
2B2
330
1F
100
AcDbEntity
  8
0
  6
Continuous
 62
     7
370
    25
100
AcDbPolyline
 90
       20
 70
   128
 43
0.0
 10
224.558639803
 20
55.0836393799
 10
224.9229630885
 20
56.1491983073
 10
225.3602735203
 20
57.2099931203
 10
225.8660923372
 20
58.2551600763
 10
226.4352400868
 20
59.2739957657
 10
227.0618870037
 20
60.2560662343
 10
227.7396168889
 20
61.1913153425
 10
228.4614883538
 20
62.0701640005
 10
229.2201095658
 20
62.8836133939
 10
230.0077115105
 20
63.6233321451
 10
230.8162284173
 20
64.281745327
 10
231.6373803236
 20
64.8521102644
 10
232.46275811
 20
65.3285861555
 10
233.2839092754
 20
65.7062934754
 10
234.0924245358
 20
65.9813639681
 10
234.880024011
 20
66.1509805152
 10
235.6386419302
 20
66.2134070238
 10
236.3605101025
 20
66.1680031527
 10
237.0382350485
 20
66.0152338582
 10
237.6083775296
 20
65.785386155
  0
SPLINE
  5
2B3
330
1F
100
AcDbEntity
  8
0
  6
Continuous
 62
     7
370
    25
100
AcDbSpline
210
0.0
220
0.0
230
1.0
 70
    11
 71
     3
 72
    39
 73
    35
 74
     0
 42
0.000000001
 43
0.00000001
 40
0.0
 40
0.0
 40
0.0
 40
0.0
 40
0.0310664064720634
 40
0.0621048014757906
 40
0.0931361276829061
 40
0.1235538377883382
 40
0.1538561351660819
 40
0.1850588033123648
 40
0.2160251091896199
 40
0.2471867239725805
 40
0.2784462967644048
 40
0.3100516195294887
 40
0.3419834415956528
 40
0.3734259913462454
 40
0.4048604872093478
 40
0.4368740666862094
 40
0.4685120764426022
 40
0.4998055483577779
 40
0.5309508402183983
 40
0.5618649459358911
 40
0.5930416416671334
 40
0.6233742722369355
 40
0.6540913637130419
 40
0.6849496548674074
 40
0.7158160682678749
 40
0.7471731796554709
 40
0.7784514349010158
 40
0.8101295923716183
 40
0.8419598879046893
 40
0.8735175849142293
 40
0.9050807980709944
 40
0.9370235159563296
 40
0.9687441581308965
 40
1.0
 40
1.0
 40
1.0
 40
1.0
 10
237.7672252149737
 20
64.08882929362602
 30
0.0
 10
238.0305019430184
 20
64.05194922317489
 30
0.0
 10
238.5568180118924
 20
63.97822233571396
 30
0.0
 10
239.3210598159278
 20
63.77294051361332
 30
0.0
 10
240.0281488034413
 20
63.52724728634508
 30
0.0
 10
240.6410759470178
 20
63.24892115449013
 30
0.0
 10
241.1382028935358
 20
62.95487959077632
 30
0.0
 10
241.4973959668835
 20
62.65334828704489
 30
0.0
 10
241.7191153936984
 20
62.34635734461454
 30
0.0
 10
241.7843666276198
 20
62.03584998285972
 30
0.0
 10
241.6975199759056
 20
61.7167053613365
 30
0.0
 10
241.4551746853202
 20
61.38738604212435
 30
0.0
 10
241.075236293597
 20
61.04844555127119
 30
0.0
 10
240.5614295929902
 20
60.71060664062264
 30
0.0
 10
239.9355397325157
 20
60.38470846269388
 30
0.0
 10
239.2220682638906
 20
60.08806190602692
 30
0.0
 10
238.4581653984492
 20
59.8319595954035
 30
0.0
 10
237.6723724450269
 20
59.64293060642256
 30
0.0
 10
236.8908352973466
 20
59.53475594460302
 30
0.0
 10
236.134722067663
 20
59.52709103058752
 30
0.0
 10
235.4323575639909
 20
59.62501393856785
 30
0.0
 10
234.813337062289
 20
59.84666164602924
 30
0.0
 10
234.304280037068
 20
60.18252960682141
 30
0.0
 10
233.9313367346351
 20
60.62234128294216
 30
0.0
 10
233.7027342275654
 20
61.1334149532651
 30
0.0
 10
233.6338880601507
 20
61.6845999975516
 30
0.0
 10
233.7185044285295
 20
62.24227383630014
 30
0.0
 10
233.961613450016
 20
62.77234631905829
 30
0.0
 10
234.3437426241512
 20
63.24489751125642
 30
0.0
 10
234.8598826482788
 20
63.63092129527048
 30
0.0
 10
235.4868433597579
 20
63.9149103349726
 30
0.0
 10
236.2028151055719
 20
64.08327555458064
 30
0.0
 10
236.9710211800927
 20
64.14988379775482
 30
0.0
 10
237.5031329603389
 20
64.10908041136042
 30
0.0
 10
237.7672252149737
 20
64.08882929362602
 30
0.0
  0
LINE
  5
2B4
330
1F
100
AcDbEntity
  8
0
  6
Continuous
 62
     7
370
    25
100
AcDbLine
 10
228.5426878795
 20
47.6497025171
 30
0.0
 11
228.8567339259
 21
47.4815520139
 31
0.0
  0
LINE
  5
2B5
330
1F
100
AcDbEntity
  8
0
  6
Continuous
 62
     7
370
    25
100
AcDbLine
 10
227.555729201
 20
48.2194616346
 30
0.0
 11
228.5426878795
 21
47.6497025171
 31
0.0
  0
ARC
  5
2B6
330
1F
100
AcDbEntity
  8
0
  6
Continuous
 62
     7
370
    25
100
AcDbCircle
 10
229.7877195434
 20
51.7273418868
 30
0.0
 40
4.399213329742479
100
AcDbArc
 50
267.4955968905
 51
287.1750707475
  0
SPLINE
  5
2B7
330
1F
100
AcDbEntity
  8
0
  6
Continuous
 62
     7
370
    25
100
AcDbSpline
210
0.0
220
0.0
230
1.0
 70
     8
 71
     3
 72
    13
 73
     9
 74
     0
 42
0.000000001
 43
0.00000001
 40
0.0
 40
0.0
 40
0.0
 40
0.0
 40
0.1522119291381436
 40
0.3823090403436158
 40
0.4982925289437269
 40
0.6142486505636744
 40
0.8256065856575276
 40
1.0
 40
1.0
 40
1.0
 40
1.0
 10
239.1057305922471
 20
61.08633379935462
 30
0.0
 10
238.9008167031854
 20
61.1985384354462
 30
0.0
 10
238.3861367255787
 20
61.48036159470299
 30
0.0
 10
237.5618682708001
 20
61.81725633567471
 30
0.0
 10
236.7514148554807
 20
62.04437546453805
 30
0.0
 10
235.9617623818667
 20
62.18377228578571
 30
0.0
 10
235.0627094964467
 20
62.21089760246967
 30
0.0
 10
234.4980845802818
 20
62.00290388527803
 30
0.0
 10
234.2428246386207
 20
61.90887249807527
 30
0.0
  0
SPLINE
  5
2B8
330
1F
100
AcDbEntity
  8
0
  6
Continuous
 62
     7
370
    25
100
AcDbSpline
210
0.0
220
0.0
230
1.0
 70
     8
 71
     3
 72
    10
 73
     6
 74
     0
 42
0.000000001
 43
0.00000001
 40
0.0
 40
0.0
 40
0.0
 40
0.0
 40
0.3798181018666167
 40
0.960371164972132
 40
0.9999999999999999
 40
0.9999999999999999
 40
0.9999999999999999
 40
0.9999999999999999
 10
240.2456113726511
 20
60.55810687189791
 30
0.0
 10
240.115958565189
 20
60.62843574809142
 30
0.0
 10
239.7881310679412
 20
60.80626251419127
 30
0.0
 10
239.3802023046437
 20
60.97931468189203
 30
0.0
 10
239.1235698130242
 20
61.0785200122307
 30
0.0
 10
239.1071713229944
 20
61.0848591067475
 30
0.0
  0
SPLINE
  5
2B9
330
1F
100
AcDbEntity
  8
0
  6
Continuous
 62
     7
370
    25
100
AcDbSpline
210
0.0
220
0.0
230
1.0
 70
     8
 71
     3
 72
    24
 73
    20
 74
     0
 42
0.000000001
 43
0.00000001
 40
0.0
 40
0.0
 40
0.0
 40
0.0
 40
0.0618839795064435
 40
0.115009789773811
 40
0.1593831578560848
 40
0.2428114833793484
 40
0.318331845228548
 40
0.3935543676972519
 40
0.4204843196493311
 40
0.4483397629715856
 40
0.4771286918288966
 40
0.5451537695069899
 40
0.6363476254594942
 40
0.6968782626513618
 40
0.7498596499608569
 40
0.7959701136024243
 40
0.8771179203976329
 40
0.9543005194909847
 40
1.0
 40
1.0
 40
1.0
 40
1.0
 10
237.7123460669455
 20
63.51497199496502
 30
0.0
 10
237.528394872919
 20
63.53386616490049
 30
0.0
 10
237.1865262936461
 20
63.56898049545194
 30
0.0
 10
236.7223074841795
 20
63.56249179559575
 30
0.0
 10
236.2128403877481
 20
63.51476726694997
 30
0.0
 10
235.6737411825858
 20
63.3901494473248
 30
0.0
 10
235.1309034218779
 20
63.14765866777449
 30
0.0
 10
234.7905095712793
 20
62.89028768118091
 30
0.0
 10
234.5838825763531
 20
62.67547845475424
 30
0.0
 10
234.465899689104
 20
62.52897619915664
 30
0.0
 10
234.3137290176412
 20
62.2992249958609
 30
0.0
 10
234.1470470094707
 20
61.92628266718682
 30
0.0
 10
234.0786873934724
 20
61.46372367890194
 30
0.0
 10
234.1290414113143
 20
61.03539083831235
 30
0.0
 10
234.2344707946637
 20
60.71546413784304
 30
0.0
 10
234.4166700453703
 20
60.37499860706749
 30
0.0
 10
234.7175486593581
 20
60.03905022622762
 30
0.0
 10
235.107233584996
 20
59.76599082487995
 30
0.0
 10
235.4001525769004
 20
59.67203586655823
 30
0.0
 10
235.5090882801743
 20
59.63709429655515
 30
0.0
  0
SPLINE
  5
2BA
330
1F
100
AcDbEntity
  8
0
  6
Continuous
 62
     7
370
    25
100
AcDbSpline
210
0.0
220
0.0
230
1.0
 70
     8
 71
     3
 72
    22
 73
    18
 74
     0
 42
0.000000001
 43
0.00000001
 40
0.0
 40
0.0
 40
0.0
 40
0.0
 40
0.0348562700149657
 40
0.09249003609222
 40
0.1569277738769358
 40
0.2282084995671086
 40
0.2894089595140273
 40
0.3420697410872342
 40
0.3861904228016695
 40
0.4217735869957752
 40
0.5236918032184936
 40
0.6145480255532821
 40
0.706759260316286
 40
0.7559111713291335
 40
0.8071359826208561
 40
0.8951489581549953
 40
0.9999999999999999
 40
0.9999999999999999
 40
0.9999999999999999
 40
0.9999999999999999
 10
240.976090343602
 20
60.99782771711047
 30
0.0
 10
241.0137263679091
 20
61.03300085536128
 30
0.0
 10
241.1135923961743
 20
61.12633169153214
 30
0.0
 10
241.2324162216152
 20
61.28167739446881
 30
0.0
 10
241.3288272316866
 20
61.47040476928329
 30
0.0
 10
241.3601037427781
 20
61.65638556724992
 30
0.0
 10
241.3306973406566
 20
61.82819675694856
 30
0.0
 10
241.2622024554532
 20
61.97500415994362
 30
0.0
 10
241.1743898918906
 20
62.09621318803774
 30
0.0
 10
241.0200986431143
 20
62.26179871811495
 30
0.0
 10
240.7522727883097
 20
62.47196137703259
 30
0.0
 10
240.3007026389076
 20
62.7274056963647
 30
0.0
 10
239.8531396219981
 20
62.93404218953179
 30
0.0
 10
239.4442463970052
 20
63.09254653053834
 30
0.0
 10
239.0221631682571
 20
63.23506426794862
 30
0.0
 10
238.4438502008778
 20
63.3983198152058
 30
0.0
 10
237.9699714983113
 20
63.47388874370752
 30
0.0
 10
237.7123460669455
 20
63.51497199496502
 30
0.0
  0
LINE
  5
2BB
330
1F
100
AcDbEntity
  8
0
  6
Continuous
 62
     7
370
    25
100
AcDbLine
 10
231.2027770036
 20
48.2678003316
 30
0.0
 11
231.1975389406
 21
48.563883707
 31
0.0
  0
LINE
  5
2BC
330
1F
100
AcDbEntity
  8
0
  6
Continuous
 62
     7
370
    25
100
AcDbLine
 10
231.1975389406
 20
48.563883707
 30
0.0
 11
231.2406360688
 21
49.2155130375
 31
0.0
  0
LINE
  5
2BD
330
1F
100
AcDbEntity
  8
0
  6
Continuous
 62
     7
370
    25
100
AcDbLine
 10
230.7179776103
 20
51.0445998211
 30
0.0
 11
230.40657562
 21
51.3731684465
 31
0.0
  0
SPLINE
  5
2BE
330
1F
100
AcDbEntity
  8
0
  6
Continuous
 62
     7
370
    25
100
AcDbSpline
210
0.0
220
0.0
230
1.0
 70
     8
 71
     3
 72
    19
 73
    15
 74
     0
 42
0.000000001
 43
0.00000001
 40
0.0
 40
0.0
 40
0.0
 40
0.0
 40
0.0210492249157922
 40
0.1455865643467023
 40
0.2712169980619419
 40
0.3929514709246656
 40
0.513608218236237
 40
0.6366369105476579
 40
0.6994225397872426
 40
0.7643939749794797
 40
0.8122545337323219
 40
0.8606585096351769
 40
0.9188817879907701
 40
1.0
 40
1.0
 40
1.0
 40
1.0
 10
234.1231015146031
 20
61.26022128704432
 30
0.0
 10
234.1156331849867
 20
61.31498177827059
 30
0.0
 10
234.0639786250391
 20
61.69373167578289
 30
0.0
 10
234.3067468671143
 20
62.30388070440017
 30
0.0
 10
234.891078126231
 20
62.99325590100985
 30
0.0
 10
235.7972052399938
 20
63.41055264557743
 30
0.0
 10
236.8715506903316
 20
63.53098124658546
 30
0.0
 10
237.8254846877596
 20
63.3702810808847
 30
0.0
 10
238.5601473719128
 20
63.07291487693284
 30
0.0
 10
239.0329504184994
 20
62.77525664876799
 30
0.0
 10
239.3899212340888
 20
62.40434506136813
 30
0.0
 10
239.5847682088896
 20
61.97202382936843
 30
0.0
 10
239.6137987169507
 20
61.46908214965607
 30
0.0
 10
239.5514248386361
 20
61.13533734497728
 30
0.0
 10
239.5151136331817
 20
60.94104645751776
 30
0.0
  0
SPLINE
  5
2BF
330
1F
100
AcDbEntity
  8
0
  6
Continuous
 62
     7
370
    25
100
AcDbSpline
210
0.0
220
0.0
230
1.0
 70
     8
 71
     3
 72
    10
 73
     6
 74
     0
 42
0.000000001
 43
0.00000001
 40
0.0
 40
0.0
 40
0.0
 40
0.0
 40
0.2950520630681183
 40
0.980160141981021
 40
1.0
 40
1.0
 40
1.0
 40
1.0
 10
239.5178414891699
 20
60.93980752386393
 30
0.0
 10
239.6006657738374
 20
60.90104260256765
 30
0.0
 10
239.8758072582759
 20
60.77226590340974
 30
0.0
 10
240.1508600274963
 20
60.63100088762434
 30
0.0
 10
240.2994281282986
 20
60.53694876133095
 30
0.0
 10
240.3036093874692
 20
60.53430178453411
 30
0.0
  0
ARC
  5
2C0
330
1F
100
AcDbEntity
  8
0
  6
Continuous
 62
     7
370
    25
100
AcDbCircle
 10
243.5279505336
 20
46.7265883517
 30
0.0
 40
12.46654339728285
100
AcDbArc
 50
171.5249865285
 51
179.8211977983
  0
SPLINE
  5
2C1
330
1F
100
AcDbEntity
  8
0
  6
Continuous
 62
     7
370
    25
100
AcDbSpline
210
0.0
220
0.0
230
1.0
 70
     8
 71
     3
 72
    10
 73
     6
 74
     0
 42
0.000000001
 43
0.00000001
 40
0.0
 40
0.0
 40
0.0
 40
0.0
 40
0.3192158385329658
 40
0.6594761476286002
 40
1.0
 40
1.0
 40
1.0
 40
1.0
 10
239.1097633541779
 20
61.08505498340973
 30
0.0
 10
239.1548760611813
 20
61.0703605611325
 30
0.0
 10
239.2480755539145
 20
61.04000297912918
 30
0.0
 10
239.3848388424824
 20
60.99071211919707
 30
0.0
 10
239.4744785842562
 20
60.95496730415174
 30
0.0
 10
239.5193158056871
 20
60.93708797791226
 30
0.0
  0
LINE
  5
2C2
330
1F
100
AcDbEntity
  8
0
  6
Continuous
 62
     7
370
    25
100
AcDbLine
 10
230.40657562
 20
51.3731684465
 30
0.0
 11
229.7666389457
 21
51.7854000866
 31
0.0
  0
LINE
  5
2C3
330
1F
100
AcDbEntity
  8
0
  6
Continuous
 62
     7
370
    25
100
AcDbLine
 10
229.4607048505
 20
52.1568784734
 30
0.0
 11
229.7666389457
 21
51.7854000866
 31
0.0
  0
LINE
  5
2C4
330
1F
100
AcDbEntity
  8
0
  6
Continuous
 62
     7
370
    25
100
AcDbLine
 10
229.7666389457
 20
51.7854000866
 30
0.0
 11
229.3805784231
 21
51.944240412
 31
0.0
  0
LINE
  5
2C5
330
1F
100
AcDbEntity
  8
0
  6
Continuous
 62
     7
370
    25
100
AcDbLine
 10
229.3805724962
 20
51.9442122791
 30
0.0
 11
229.2308319874
 21
51.9911506856
 31
0.0
  0
SPLINE
  5
2C6
330
1F
100
AcDbEntity
  8
0
  6
Continuous
 62
     7
370
    25
100
AcDbSpline
210
0.0
220
0.0
230
1.0
 70
     8
 71
     3
 72
    15
 73
    11
 74
     0
 42
0.000000001
 43
0.00000001
 40
0.0
 40
0.0
 40
0.0
 40
0.0
 40
0.0000071126095639
 40
0.0000298119602416
 40
0.0001208225300641
 40
0.000484955951543
 40
0.0019397804402246
 40
0.0077584719638108
 40
0.4998978079955396
 40
1.0
 40
1.0
 40
1.0
 40
1.0
 10
228.6469203285509
 20
52.36524044687491
 30
0.0
 10
228.6469216383178
 20
52.36523948943089
 30
0.0
 10
228.646927128106
 20
52.36523547637735
 30
0.0
 10
228.6469509412314
 20
52.36522067864301
 30
0.0
 10
228.6470422788271
 20
52.36516161433569
 30
0.0
 10
228.6474138299864
 20
52.36492714327621
 30
0.0
 10
228.6488861961068
 20
52.36398310557306
 30
0.0
 10
228.7454729615543
 20
52.30238160468706
 30
0.0
 10
228.9377661222038
 20
52.17868141470778
 30
0.0
 10
229.1324911985459
 20
52.05407937584674
 30
0.0
 10
229.230635082636
 20
51.99127838334448
 30
0.0
  0
LINE
  5
2C7
330
1F
100
AcDbEntity
  8
0
  6
Continuous
 62
     7
370
    25
100
AcDbLine
 10
226.8444194728
 20
53.5278711799
 30
0.0
 11
227.135386827
 21
53.3397928309
 31
0.0
  0
LINE
  5
2C8
330
1F
100
AcDbEntity
  8
0
  6
Continuous
 62
     7
370
    25
100
AcDbLine
 10
227.1667756924
 20
53.3195698983
 30
0.0
 11
227.1353789244
 21
53.3397975856
 31
0.0
  0
LINE
  5
2C9
330
1F
100
AcDbEntity
  8
0
  6
Continuous
 62
     7
370
    25
100
AcDbLine
 10
224.3807715413
 20
55.19782553
 30
0.0
 11
224.558639803
 21
55.0836393799
 31
0.0
  0
LINE
  5
2CA
330
1F
100
AcDbEntity
  8
0
  6
Continuous
 62
     7
370
    25
100
AcDbLine
 10
224.355921035
 20
55.5610356551
 30
0.0
 11
224.3807715413
 21
55.19782553
 31
0.0
  0
LWPOLYLINE
  5
2CB
330
1F
100
AcDbEntity
  8
0
  6
Continuous
 62
     7
370
    25
100
AcDbPolyline
 90
       16
 70
   128
 43
0.0
 10
224.355921035
 20
55.5610356551
 10
224.7298314113
 20
56.6196158655
 10
225.1778300205
 20
57.6713270871
 10
225.695027828
 20
58.7046936331
 10
226.2757814367
 20
59.7084396992
 10
226.9137543314
 20
60.6716133132
 10
227.6019850379
 20
61.5837040102
 10
228.3329641735
 20
62.4347606972
 10
229.0987154468
 20
63.2154962092
 10
229.8908832453
 20
63.917391104
 10
230.7008240075
 20
64.5327878559
 10
231.5196999017
 20
65.054970791
 10
232.3385757959
 20
65.4782418388
 10
233.1485165582
 20
65.797982786
 10
233.9406843566
 20
66.0107053632
 10
234.3198835039
 20
66.0751433466
  0
SPLINE
  5
2CC
330
1F
100
AcDbEntity
  8
0
  6
Continuous
 62
     7
370
    25
100
AcDbSpline
210
0.0
220
0.0
230
1.0
 70
     8
 71
     3
 72
    10
 73
     6
 74
     0
 42
0.000000001
 43
0.00000001
 40
0.0
 40
0.0
 40
0.0
 40
0.0
 40
0.2409530178885725
 40
0.5031435202732594
 40
1.0
 40
1.0
 40
1.0
 40
1.0
 10
230.4065756200275
 20
44.66732701333684
 30
0.0
 10
230.4888137214112
 20
44.61565698973268
 30
0.0
 10
230.6605383513552
 20
44.50776277119746
 30
0.0
 10
230.9382553102155
 20
44.37803109284049
 30
0.0
 10
231.0592391029943
 20
44.400810377135
 30
0.0
 10
231.1384325953614
 20
44.41572122622867
 30
0.0
  0
LINE
  5
2CD
330
1F
100
AcDbEntity
  8
0
  6
Continuous
 62
     7
370
    25
100
AcDbLine
 10
225.6234015639
 20
54.3963995562
 30
0.0
 11
224.861522203
 21
54.887034344
 31
0.0
  0
LINE
  5
2CE
330
1F
100
AcDbEntity
  8
0
  6
Continuous
 62
     7
370
    25
100
AcDbLine
 10
224.861522203
 20
54.887034344
 30
0.0
 11
224.3807715413
 21
55.19782553
 31
0.0
  0
LINE
  5
2CF
330
1F
100
AcDbEntity
  8
0
  6
Continuous
 62
     7
370
    25
100
AcDbLine
 10
229.4607048505
 20
44.3915472124
 30
0.0
 11
229.7666389457
 21
45.0795586535
 31
0.0
  0
LINE
  5
2D0
330
1F
100
AcDbEntity
  8
0
  6
Continuous
 62
     7
370
    25
100
AcDbLine
 10
229.7666389457
 20
45.0795586535
 30
0.0
 11
230.40657562
 21
44.6673270133
 31
0.0
  0
LINE
  5
2D1
330
1F
100
AcDbEntity
  8
0
  6
Continuous
 62
     7
370
    25
100
AcDbLine
 10
229.3805672279
 20
45.3608682968
 30
0.0
 11
229.7666389457
 21
45.0795586535
 31
0.0
  0
LINE
  5
2D2
330
1F
100
AcDbEntity
  8
0
  6
Continuous
 62
     7
370
    25
100
AcDbLine
 10
229.2311678451
 20
45.4081709421
 30
0.0
 11
228.647451774
 21
45.035513587
 31
0.0
  0
LINE
  5
2D3
330
1F
100
AcDbEntity
  8
0
  6
Continuous
 62
     7
370
    25
100
AcDbLine
 10
229.2317295836
 20
45.4075018075
 30
0.0
 11
229.3805580082
 21
45.360832181
 31
0.0
  0
LINE
  5
2D4
330
1F
100
AcDbEntity
  8
0
  6
Continuous
 62
     7
370
    25
100
AcDbLine
 10
231.0616765988
 20
46.3313615839
 30
0.0
 11
229.3805606424
 21
45.3608739997
 31
0.0
  0
LINE
  5
2D5
330
1F
100
AcDbEntity
  8
0
  6
Continuous
 62
     7
370
    25
100
AcDbLine
 10
227.3740729912
 20
46.4846952983
 30
0.0
 11
227.1737773376
 21
45.9835382643
 31
0.0
  0
LINE
  5
2D6
330
1F
100
AcDbEntity
  8
0
  6
Continuous
 62
     7
370
    25
100
AcDbLine
 10
227.3736291322
 20
46.4854792487
 30
0.0
 11
227.4510831859
 21
46.5533635532
 31
0.0
  0
LINE
  5
2D7
330
1F
100
AcDbEntity
  8
0
  6
Continuous
 62
     7
370
    25
100
AcDbLine
 10
227.4510831859
 20
46.5533635532
 30
0.0
 11
229.2313476278
 21
45.407610536
 31
0.0
  0
LINE
  5
2D8
330
1F
100
AcDbEntity
  8
0
  6
Continuous
 62
     7
370
    25
100
AcDbLine
 10
231.0614671816
 20
46.4293814857
 30
0.0
 11
230.9733822439
 21
46.5369288191
 31
0.0
  0
LINE
  5
2D9
330
1F
100
AcDbEntity
  8
0
  6
Continuous
 62
     7
370
    25
100
AcDbLine
 10
229.145059858
 20
47.5312754705
 30
0.0
 11
227.4510831859
 21
46.5533635532
 31
0.0
  0
LINE
  5
2DA
330
1F
100
AcDbEntity
  8
0
  6
Continuous
 62
     7
370
    25
100
AcDbLine
 10
229.2877539405
 20
47.5099833088
 30
0.0
 11
229.1454806679
 21
47.5307877129
 31
0.0
  0
LINE
  5
2DB
330
1F
100
AcDbEntity
  8
0
  6
Continuous
 62
     7
370
    25
100
AcDbLine
 10
230.9734276834
 20
46.5368645704
 30
0.0
 11
229.2877539405
 21
47.5099833088
 31
0.0
  0
LINE
  5
2DC
330
1F
100
AcDbEntity
  8
0
  6
Continuous
 62
     7
370
    25
100
AcDbLine
 10
231.0614678402
 20
46.486034339
 30
0.0
 11
230.973399366
 21
46.5368805265
 31
0.0
  0
SPLINE
  5
2DD
330
1F
100
AcDbEntity
  8
0
  6
Continuous
 62
     7
370
    25
100
AcDbSpline
210
0.0
220
0.0
230
1.0
 70
     8
 71
     3
 72
    10
 73
     6
 74
     0
 42
0.000000001
 43
0.00000001
 40
0.0
 40
0.0
 40
0.0
 40
0.0
 40
0.3331742549569852
 40
0.7059748653184011
 40
1.0
 40
1.0
 40
1.0
 40
1.0
 10
226.589560114073
 20
46.65396761315147
 30
0.0
 10
226.6926754347199
 20
46.58996382800225
 30
0.0
 10
226.9111701819065
 20
46.45434391461362
 30
0.0
 10
227.136849130441
 20
46.36567837329481
 30
0.0
 10
227.2292880168911
 20
46.3728425814115
 30
0.0
 10
227.2700473250618
 20
46.37600151351941
 30
0.0
  0
LINE
  5
2DE
330
1F
100
AcDbEntity
  8
0
  6
Continuous
 62
     7
370
    25
100
AcDbLine
 10
227.2946834751
 20
46.4020717072
 30
0.0
 11
227.362404241
 21
46.4737342154
 31
0.0
  0
SPLINE
  5
2DF
330
1F
100
AcDbEntity
  8
0
  6
Continuous
 62
     7
370
    25
100
AcDbSpline
210
0.0
220
0.0
230
1.0
 70
     8
 71
     3
 72
     9
 73
     5
 74
     0
 42
0.000000001
 43
0.00000001
 40
0.0
 40
0.0
 40
0.0
 40
0.0
 40
0.5232343421648102
 40
1.0
 40
1.0
 40
1.0
 40
1.0
 10
228.9788827368574
 20
47.43534363003411
 30
0.0
 10
228.9098560713214
 20
47.46038880230248
 30
0.0
 10
228.7779330303941
 20
47.50825487348723
 30
0.0
 10
228.5364896411978
 20
47.64585188226695
 30
0.0
 10
228.4213777249177
 20
47.71145341067395
 30
0.0
  0
LINE
  5
2E0
330
1F
100
AcDbEntity
  8
0
  6
Continuous
 62
     7
370
    25
100
AcDbLine
 10
224.6918765279
 20
47.4773425931
 30
0.0
 11
225.1433469837
 21
47.5896073263
 31
0.0
  0
LINE
  5
2E1
330
1F
100
AcDbEntity
  8
0
  6
Continuous
 62
     7
370
    25
100
AcDbLine
 10
225.1433469837
 20
47.5896073263
 30
0.0
 11
226.5895601141
 21
46.6539676132
 31
0.0
  0
LINE
  5
2E2
330
1F
100
AcDbEntity
  8
0
  6
Continuous
 62
     7
370
    25
100
AcDbLine
 10
224.8626647777
 20
47.08259351
 30
0.0
 11
224.6918765279
 21
47.4773425931
 31
0.0
  0
LINE
  5
2E3
330
1F
100
AcDbEntity
  8
0
  6
Continuous
 62
     7
370
    25
100
AcDbLine
 10
226.4810484428
 20
48.3618459411
 30
0.0
 11
225.1433469837
 21
47.5896073263
 31
0.0
  0
LINE
  5
2E4
330
1F
100
AcDbEntity
  8
0
  6
Continuous
 62
     7
370
    25
100
AcDbLine
 10
227.4640769276
 20
48.2640925382
 30
0.0
 11
226.4810484428
 21
48.3618459411
 31
0.0
  0
LINE
  5
2E5
330
1F
100
AcDbEntity
  8
0
  6
Continuous
 62
     7
370
    25
100
AcDbLine
 10
228.4213777249
 20
47.7114534107
 30
0.0
 11
227.4640759398
 21
48.264091968
 31
0.0
  0
LINE
  5
2E6
330
1F
100
AcDbEntity
  8
0
  6
Continuous
 62
     7
370
    25
100
AcDbLine
 10
224.6918765279
 20
47.4773425931
 30
0.0
 11
224.6859657617
 21
47.5843002929
 31
0.0
  0
LINE
  5
2E7
330
1F
100
AcDbEntity
  8
0
  6
Continuous
 62
     7
370
    25
100
AcDbLine
 10
225.4970515682
 20
48.0525301624
 30
0.0
 11
224.6859657617
 21
47.5843002929
 31
0.0
  0
LINE
  5
2E8
330
1F
100
AcDbEntity
  8
0
  6
Continuous
 62
     7
370
    25
100
AcDbLine
 10
225.4970515682
 20
48.0525301624
 30
0.0
 11
226.2123833569
 21
48.3358284969
 31
0.0
  0
LINE
  5
2E9
330
1F
100
AcDbEntity
  8
0
  6
Continuous
 62
     7
370
    25
100
AcDbLine
 10
226.2123833569
 20
48.3358284969
 30
0.0
 11
226.2367797968
 21
48.3408221431
 31
0.0
  0
LINE
  5
2EA
330
1F
100
AcDbEntity
  8
0
  6
Continuous
 62
     7
370
    25
100
AcDbLine
 10
226.4810484428
 20
48.3618459411
 30
0.0
 11
226.2367804553
 21
48.3408225233
 31
0.0
  0
LINE
  5
2EB
330
1F
100
AcDbEntity
  8
0
  6
Continuous
 62
     7
370
    25
100
AcDbLine
 10
227.4640756105
 20
48.264092158
 30
0.0
 11
227.555729201
 21
48.2194616346
 31
0.0
  0
LWPOLYLINE
  5
2EC
330
1F
100
AcDbEntity
  8
0
  6
Continuous
 62
     7
370
    25
100
AcDbPolyline
 90
        3
 70
   128
 43
0.0
 10
231.1038489247
 20
47.7525422717
 10
230.6293192449
 20
47.554579966
 10
229.8924645753
 20
47.3285376341
  0
LWPOLYLINE
  5
2ED
330
1F
100
AcDbEntity
  8
0
  6
Continuous
 62
     7
370
    18
100
AcDbPolyline
 90
       31
 70
   128
 43
0.0
 10
265.5592665731
 20
26.9157689267
 10
265.6011434184
 20
27.8934799453
 10
265.7263439246
 20
28.9095081462
 10
265.9335845885
 20
29.9534283928
 10
266.2207376529
 20
31.0145279825
 10
266.5848567895
 20
32.0819185038
 10
267.0222054169
 20
33.1446475506
 10
267.5282968713
 20
34.1918099356
 10
268.0979365536
 20
35.2126604254
 10
268.7252798813
 20
36.1967230512
 10
269.4038895819
 20
37.1339013712
 10
270.1268018765
 20
38.014577514
 10
270.8865989197
 20
38.8297148346
 10
271.6754840384
 20
39.5709484976
 10
272.4853621566
 20
40.23067297
 10
273.3079230601
 20
40.802118987
 10
274.1347259368
 20
41.2794221281
 10
274.9572868402
 20
41.657684715
 10
275.7671649585
 20
41.9330256145
 10
276.5560500772
 20
42.1026193221
 10
277.3158471204
 20
42.1647249949
 10
278.0387594149
 20
42.1187056212
 10
278.7173691155
 20
41.9650333842
 10
279.3447124432
 20
41.705285947
 10
279.9143521256
 20
41.3421274351
 10
280.4204435799
 20
40.8792858058
 10
280.8577922073
 20
40.3215087359
 10
281.2219113439
 20
39.6745212212
 10
281.5090644083
 20
38.9449615026
 10
281.7163050722
 20
38.1403162335
 10
281.7793370013
 20
37.7795543281
  0
LWPOLYLINE
  5
2EE
330
1F
100
AcDbEntity
  8
0
  6
Continuous
 62
     7
370
    18
100
AcDbPolyline
 90
       15
 70
   128
 43
0.0
 10
272.4168892505
 20
21.5704926346
 10
271.6754840384
 20
21.3222239203
 10
270.8865989197
 20
21.1526302127
 10
270.1268018765
 20
21.0905245399
 10
269.4038895819
 20
21.1365439135
 10
268.7252798813
 20
21.2902153901
 10
268.0979365536
 20
21.5499635877
 10
267.5282968713
 20
21.9131213392
 10
267.0222054169
 20
22.375963729
 10
266.5848567895
 20
22.9337404186
 10
266.2207376529
 20
23.5807281235
 10
265.9335845885
 20
24.310287652
 10
265.7263439246
 20
25.1149331112
 10
265.6011434184
 20
25.9864077657
 10
265.5592665731
 20
26.9157689267
  0
LWPOLYLINE
  5
2EF
330
1F
100
AcDbEntity
  8
0
  6
Continuous
 62
     7
370
    18
100
AcDbPolyline
 90
       36
 70
   128
 43
0.0
 10
259.3166248613
 20
26.9157700672
 10
259.3583937052
 20
28.0599721063
 10
259.4833907212
 20
29.2439280055
 10
259.6906926298
 20
30.4588734988
 10
259.9787630466
 20
31.6958123652
 10
260.3454696046
 20
32.9455873108
 10
260.7880964662
 20
34.1989445173
 10
261.3033673725
 20
35.4466055043
 10
261.8874680337
 20
36.6793332869
 10
262.5360724709
 20
37.8880000548
 10
263.2443798946
 20
39.0636582718
 10
264.0071449979
 20
40.1976022706
 10
264.8187220786
 20
41.2814389719
 10
265.6731015889
 20
42.3071424439
 10
266.5639582088
 20
43.2671189174
 10
267.4846959565
 20
44.1542617251
 10
268.428498567
 20
44.9620016777
 10
269.3883783069
 20
45.6843595783
 10
270.3572283902
 20
46.3159871286
 10
271.3278759297
 20
46.852208143
 10
272.2931345788
 20
47.2890519802
 10
273.2458576686
 20
47.6232842187
 10
274.178991858
 20
47.8524315443
 10
275.0856285214
 20
47.9747962065
 10
275.9590554438
 20
47.9894729337
 10
276.7928057181
 20
47.8963535865
 10
277.5807061482
 20
47.6961254422
 10
278.3169240053
 20
47.3902730913
 10
278.996009175
 20
46.9810609434
 10
279.612932353
 20
46.4715172533
 10
280.1631278502
 20
45.865415486
 10
280.6425205931
 20
45.1672427551
 10
281.047562344
 20
44.3821678795
 10
281.3752540912
 20
43.5160035485
 10
281.6231690981
 20
42.5751622131
 10
281.7822951832
 20
41.6251199559
  0
LWPOLYLINE
  5
2F0
330
1F
100
AcDbEntity
  8
0
  6
Continuous
 62
     7
370
    18
100
AcDbPolyline
 90
       18
 70
   128
 43
0.0
 10
268.9732464194
 20
19.5969160561
 10
268.428498567
 20
19.3898840957
 10
267.4846959565
 20
19.1079319884
 10
266.5639582088
 20
18.9320136206
 10
265.6731015889
 20
18.8634296948
 10
264.8187220786
 20
18.9026875812
 10
264.0071449979
 20
19.0494965698
 10
263.2443798946
 20
19.3027714864
 10
262.5360724709
 20
19.6606353592
 10
261.8874680337
 20
20.1204393839
 10
261.3033673725
 20
20.6787785177
 10
260.7880964662
 20
21.3315203795
 10
260.3454696046
 20
22.0738318698
 10
259.9787630466
 20
22.9002160553
 10
259.6906926298
 20
23.804555898
 10
259.4833907212
 20
24.7801557023
 10
259.3583937052
 20
25.8197932079
 10
259.3166248613
 20
26.9157700672
  0
LWPOLYLINE
  5
2F1
330
1F
100
AcDbEntity
  8
0
  6
Continuous
 62
     7
370
    18
100
AcDbPolyline
 90
       29
 70
   128
 43
0.0
 10
258.6095166471
 20
27.0848543218
 10
258.6509114378
 20
28.2340228484
 10
258.7747968306
 20
29.4227045941
 10
258.9802798393
 20
30.6423348045
 10
259.2658820313
 20
31.8841273668
 10
259.629544138
 20
33.1391342025
 10
260.0686458109
 20
34.398312703
 10
260.580023402
 20
35.6525904627
 10
261.1599930135
 20
36.8929312468
 10
261.8043755219
 20
38.1103973467
 10
262.5085281883
 20
39.2962176389
 10
263.2673775859
 20
40.4418480384
 10
264.0754564782
 20
41.5390342335
 10
264.9269420147
 20
42.579870238
 10
265.815699524
 20
43.556857893
 10
266.7353256485
 20
44.462957624
 10
267.6791944427
 20
45.2916409085
 10
268.6405051175
 20
46.0369376102
 10
269.6123313899
 20
46.6934766356
 10
270.5876714499
 20
47.2565284673
 10
271.5594977223
 20
47.7220361726
 10
272.5208083971
 20
48.086645151
 10
273.4646771913
 20
48.3477295799
 10
274.3843033158
 20
48.5034075717
 10
275.2730608251
 20
48.552557495
 10
276.1245463616
 20
48.494825765
 10
276.9326252539
 20
48.3306275997
 10
277.6914746515
 20
48.0611460654
 10
278.2243412085
 20
47.7914640607
  0
LWPOLYLINE
  5
2F2
330
1F
100
AcDbEntity
  8
0
  6
Continuous
 62
     7
370
    18
100
AcDbPolyline
 90
       11
 70
   128
 43
0.0
 10
261.9756616313
 20
19.6448761035
 10
261.8043755219
 20
19.7480170275
 10
261.1599930135
 20
20.2214949195
 10
260.580023402
 20
20.7922166632
 10
260.0686458109
 20
21.4560708039
 10
259.629544138
 20
22.208272924
 10
259.2658820313
 20
23.0434044285
 10
258.9802798393
 20
23.9554479089
 10
258.7747968306
 20
24.9378323925
 10
258.6509114378
 20
25.9834791616
 10
258.6095166471
 20
27.0848543218
  0
LWPOLYLINE
  5
2F3
330
1F
100
AcDbEntity
  8
0
  6
Continuous
 62
     7
370
    18
100
AcDbPolyline
 90
       61
 70
   128
 43
0.0
 10
266.266370836
 20
27.0848539416
 10
266.3083444873
 20
28.033938193
 10
266.4338051186
 20
29.021085593
 10
266.6413783475
 20
30.0354808366
 10
266.9287902199
 20
31.066010174
 10
267.2928922344
 20
32.101383118
 10
267.7296936112
 20
33.1302548873
 10
268.2344100247
 20
34.1413539696
 10
268.8015113472
 20
35.1236022704
 10
269.4247842113
 20
36.0662379215
 10
270.0973998398
 20
36.9589327666
 10
270.8119891196
 20
37.791907184
 10
271.5607226151
 20
38.5560344525
 10
272.3353973311
 20
39.2429433107
 10
273.1275256992
 20
39.8451065903
 10
273.9284288436
 20
40.3559277575
 10
274.729331988
 20
40.769809678
 10
275.5214603562
 20
41.082218345
 10
276.2961350722
 20
41.2897298757
 10
277.0448685677
 20
41.3900719003
 10
277.7594578475
 20
41.3821447037
 10
278.4320734759
 20
41.2660353331
 10
279.0553463401
 20
41.0430152135
 10
279.6224476626
 20
40.7155281627
 10
280.127164076
 20
40.2871622476
 10
280.5639654529
 20
39.7626106133
 10
280.9280674674
 20
39.1476209071
 10
281.2154793397
 20
38.4489302541
 10
281.4230525687
 20
37.6741939593
 10
281.5485132
 20
36.8319003209
 10
281.5904868513
 20
35.9312778158
 10
281.5485132
 20
34.9821935525
 10
281.4230525687
 20
33.9950461644
 10
281.2154793397
 20
32.9806509208
 10
280.9280674674
 20
31.9501217735
 10
280.5639654529
 20
30.9147488295
 10
280.127164076
 20
29.88587668
 10
279.6224476626
 20
28.8747775977
 10
279.0553463401
 20
27.8925296772
 10
278.4320734759
 20
26.9498940261
 10
277.7594578475
 20
26.0571984205
 10
277.0448685677
 20
25.2242240031
 10
276.2961350722
 20
24.4600967346
 10
275.5214603562
 20
23.7731886368
 10
274.729331988
 20
23.1710253572
 10
273.9284288436
 20
22.6602041901
 10
273.1275256992
 20
22.2463222695
 10
272.3353973311
 20
21.9339136025
 10
271.5607226151
 20
21.7264013114
 10
270.8119891196
 20
21.6260592868
 10
270.0973998398
 20
21.6339864834
 10
269.4247842113
 20
21.7500966144
 10
268.8015113472
 20
21.973116734
 10
268.2344100247
 20
22.3006034046
 10
267.7296936112
 20
22.7289693198
 10
267.2928922344
 20
23.2535213343
 10
266.9287902199
 20
23.8685110405
 10
266.6413783475
 20
24.5672015033
 10
266.4338051186
 20
25.3419377981
 10
266.3083444873
 20
26.1842314246
 10
266.266370836
 20
27.0848539416
  0
ARC
  5
2F4
330
1F
100
AcDbEntity
  8
0
  6
Continuous
 62
     7
370
    18
100
AcDbCircle
 10
277.3138422304
 20
28.7508833752
 30
0.0
 40
7.982283214511558
100
AcDbArc
 50
162.3826645543
 51
179.2545136389
  0
LWPOLYLINE
  5
2F5
330
1F
100
AcDbEntity
  8
0
  6
Continuous
 62
     7
370
    18
100
AcDbPolyline
 90
       39
 70
   128
 43
0.0
 10
272.4046699572
 20
35.6357725319
 10
272.9933055205
 20
36.1647345444
 10
273.6147734582
 20
36.6221388492
 10
274.2420842291
 20
36.9842776489
 10
274.8635521668
 20
37.2444049519
 10
275.4676004704
 20
37.3976748916
 10
276.0429770632
 20
37.4412328786
 10
276.5789634748
 20
37.3742669841
 10
277.0655755119
 20
37.1980251137
 10
277.4937486386
 20
36.9157900858
 10
277.8555062347
 20
36.5328191585
 10
278.1441100726
 20
36.0562466763
 10
278.3541834657
 20
35.4949500984
 10
278.4818136719
 20
34.8593855388
 10
278.5246230162
 20
34.1613922969
 10
278.4818136719
 20
33.4139724144
 10
278.3541834657
 20
32.6310490602
 10
278.1441100726
 20
31.8272070241
 10
277.8555062347
 20
31.0174194533
 10
277.4937486386
 20
30.2167722862
 10
277.0655755119
 20
29.4401790889
 10
276.5789634748
 20
28.7021067293
 10
276.0429770632
 20
28.0163040962
 10
275.4676004704
 20
27.3955464096
 10
274.8635521668
 20
26.8513974031
 10
274.2420842291
 20
26.3939930983
 10
273.6147734582
 20
26.0318542986
 10
272.9933055205
 20
25.7717269957
 10
272.3892572169
 20
25.6184566758
 10
271.8138806241
 20
25.5748986887
 10
271.2778942125
 20
25.6418645832
 10
270.7912821754
 20
25.8181066437
 10
270.3631090486
 20
26.1003416716
 10
270.0013514526
 20
26.4833124088
 10
269.7127476147
 20
26.9598850811
 10
269.5026742216
 20
27.5211815402
 10
269.3750440154
 20
28.1567461949
 10
269.3322346711
 20
28.8547394605
 10
269.3322346711
 20
28.8547394605
  0
LWPOLYLINE
  5
2F6
330
1F
100
AcDbEntity
  8
0
  6
Continuous
 62
     7
370
    18
100
AcDbPolyline
 90
       24
 70
   128
 43
0.0
 10
277.1019179491
 20
36.8724212473
 10
277.3270380964
 20
36.6738322359
 10
277.6537683686
 20
36.2586497713
 10
277.9045483735
 20
35.7529889977
 10
278.074496979
 20
35.1666918173
 10
278.1603063162
 20
34.5111699251
 10
278.1603063162
 20
33.7991823607
 10
278.074496979
 20
33.0445869829
 10
277.9045483735
 20
32.2620714054
 10
277.6537683686
 20
31.4668661537
 10
277.3270380964
 20
30.6744492317
 10
276.9307171212
 20
29.9002437508
 10
276.4725194686
 20
29.1593189853
 10
275.9613631484
 20
28.4660962772
 10
275.4071972864
 20
27.8340686316
 10
274.8208082654
 20
27.275537092
 10
274.2136093202
 20
26.8013733058
 10
273.5974189788
 20
26.4208060684
 10
272.9842306125
 20
26.1412430404
 10
272.3859793116
 20
25.9681251408
 10
271.8143093366
 20
25.9048223375
 10
271.2803476201
 20
25.9525667722
 10
270.7944869822
 20
26.1104287543
 10
270.6818357002
 20
26.1666968485
  0
LWPOLYLINE
  5
2F7
330
1F
100
AcDbEntity
  8
0
  6
Continuous
 62
     7
370
    18
100
AcDbPolyline
 90
       28
 70
   128
 43
0.0
 10
234.586775788
 20
41.371296067
 10
234.6291215169
 20
42.5157201071
 10
234.7558366755
 20
43.7003259458
 10
234.965956496
 20
44.9160977028
 10
235.2578820324
 20
46.1537827919
 10
235.6293913555
 20
47.4039614728
 10
236.0776573338
 20
48.6571192892
 10
236.5992687066
 20
49.9037192158
 10
237.1902551091
 20
51.1342737098
 10
237.8461186824
 20
52.3394169522
 10
238.5618683176
 20
53.5099774683
 10
239.3320571931
 20
54.6370473267
 10
240.1508222872
 20
55.712047155
 10
241.0119334394
 20
56.7267978087
 10
241.908836815
 20
57.6735743604
 10
242.8347062707
 20
58.5451722548
 10
243.7824957097
 20
59.3349580648
 10
244.7449916
 20
60.0369211034
 10
245.7148687864
 20
60.6457185701
 10
246.6847459728
 20
61.1567174672
 10
247.6472418631
 20
61.5660285295
 10
248.595031302
 20
61.8705371129
 10
249.5209007578
 20
62.0679253382
 10
250.4178041333
 20
62.1566913817
 10
251.2789152856
 20
62.1361585019
 10
252.0976803796
 20
62.0064847294
 10
252.8678692552
 20
61.7686560186
 10
253.5829794437
 20
61.4248517059
  0
LWPOLYLINE
  5
2F8
330
1F
100
AcDbEntity
  8
0
  6
Continuous
 62
     7
370
    18
100
AcDbPolyline
 90
       11
 70
   128
 43
0.0
 10
237.8467581291
 20
34.1659633121
 10
237.8461186824
 20
34.1663325768
 10
237.1902551091
 20
34.6142318559
 10
236.5992687066
 20
35.1624475933
 10
236.0776573338
 20
35.8068082281
 10
235.6293913555
 20
36.5424087823
 10
235.2578820324
 20
37.3636523091
 10
234.965956496
 20
38.2642871581
 10
234.7558366755
 20
39.2374598292
 10
234.6291215169
 20
40.2757632639
 10
234.586775788
 20
41.371296067
  0
LWPOLYLINE
  5
2F9
330
1F
100
AcDbEntity
  8
0
  6
Continuous
 62
     7
370
    18
100
AcDbPolyline
 90
       14
 70
   128
 43
0.0
 10
239.2108573448
 20
38.035659466
 10
239.1375705607
 20
38.4250834196
 10
239.0214836519
 20
39.3993218014
 10
238.9890595545
 20
40.4297833355
 10
239.0405741986
 20
41.5076829147
 10
239.1755876766
 20
42.6238307429
 10
239.3929508281
 20
43.7687124201
 10
239.6908085335
 20
44.9325664622
 10
240.066622762
 20
46.1054714432
 10
240.5171890362
 20
47.2774275766
 10
241.0386667245
 20
48.4384442615
 10
241.6266093343
 20
49.5786229695
 10
242.276005342
 20
50.6882439343
 10
242.9813183638
 20
51.7578478972
  0
LWPOLYLINE
  5
2FA
330
1F
100
AcDbEntity
  8
0
  6
Continuous
 62
     7
370
    18
100
AcDbPolyline
 90
       18
 70
   128
 43
0.0
 10
239.7226524531
 20
35.1057321452
 10
239.472788813
 20
35.4735709587
 10
239.0745491683
 20
36.2140516521
 10
238.7544965375
 20
37.0375185069
 10
238.5152901231
 20
37.9371259667
 10
238.3589187297
 20
38.9053977344
 10
238.2866823241
 20
39.934285614
 10
238.2991808403
 20
41.0152378114
 10
238.3963102283
 20
42.139269705
 10
238.5772637711
 20
43.2970390361
 10
238.8405366945
 20
44.478922526
 10
239.1839413136
 20
45.6750967201
 10
239.6046234966
 20
46.8756201648
 10
240.0990870306
 20
48.0705142039
 10
240.6632206223
 20
49.2498464373
 10
241.2923367519
 20
50.4038160788
 10
241.9812059173
 20
51.5228303796
 10
242.7241027328
 20
52.5975901764
  0
LINE
  5
2FB
330
1F
100
AcDbEntity
  8
0
  6
Continuous
 62
     7
370
    18
100
AcDbLine
 10
245.7160268369
 20
53.9986103636
 30
0.0
 11
245.7588658157
 21
54.0435021719
 31
0.0
  0
ARC
  5
2FC
330
1F
100
AcDbEntity
  8
0
  6
Continuous
 62
     7
370
    18
100
AcDbCircle
 10
255.8832666284
 20
44.704820931
 30
0.0
 40
14.48276781206971
100
AcDbArc
 50
110.0665409331
 51
139.2901057068
  0
LWPOLYLINE
  5
2FD
330
1F
100
AcDbEntity
  8
0
  6
Continuous
 62
     7
370
    18
100
AcDbPolyline
 90
       12
 70
   128
 43
0.0
 10
244.0682957944
 20
54.2697536936
 10
244.9363782988
 20
55.1961257379
 10
245.8347581311
 20
56.0455986427
 10
246.7557576503
 20
56.8109127992
 10
247.6915055206
 20
57.4855272066
 10
248.6340042747
 20
58.0636759656
 10
249.5751990695
 20
58.5404178572
 10
250.5070459691
 20
58.9116788026
 10
251.4215810507
 20
59.1742856741
 10
252.3109882141
 20
59.3259947939
 10
253.1676660448
 20
59.3655084799
 10
253.7072593047
 20
59.3304067827
  0
LINE
  5
2FE
330
1F
100
AcDbEntity
  8
0
  6
Continuous
 62
     7
370
    18
100
AcDbLine
 10
230.1004116928
 20
51.7439036925
 30
0.0
 11
230.40657562
 21
51.3731684465
 31
0.0
  0
LINE
  5
2FF
330
1F
100
AcDbEntity
  8
0
  6
Continuous
 62
     7
370
    18
100
AcDbLine
 10
230.1004116928
 20
43.9797931645
 30
0.0
 11
230.40657562
 21
44.6673270133
 31
0.0
  0
LINE
  5
300
330
1F
100
AcDbEntity
  8
0
  6
Continuous
 62
     7
370
    18
100
AcDbLine
 10
231.1424859368
 20
45.0921589964
 30
0.0
 11
230.406582864
 21
44.6673311952
 31
0.0
  0
LINE
  5
301
330
1F
100
AcDbEntity
  8
0
  6
Continuous
 62
     7
370
    18
100
AcDbLine
 10
231.0759103798
 20
45.8353849642
 30
0.0
 11
229.7666389457
 21
45.0795586535
 31
0.0
  0
LINE
  5
302
330
1F
100
AcDbEntity
  8
0
  6
Continuous
 62
     7
370
    18
100
AcDbLine
 10
226.5895601141
 20
46.6539676132
 30
0.0
 11
226.2930728399
 21
46.1579059953
 31
0.0
  0
LINE
  5
303
330
1F
100
AcDbEntity
  8
0
  6
Continuous
 62
     7
370
    18
100
AcDbLine
 10
228.4213777249
 20
47.7114534107
 30
0.0
 11
226.5896207002
 21
46.6540025888
 31
0.0
  0
LINE
  5
304
330
1F
100
AcDbEntity
  8
0
  6
Continuous
 62
     7
370
    18
100
AcDbLine
 10
228.4213777249
 20
47.7114534107
 30
0.0
 11
228.5426878795
 21
47.6497025171
 31
0.0
  0
OLE2FRAME
  5
305
330
1F
100
AcDbEntity
  8
0
100
AcDbOle2Frame
 70
     2
  3
Paintbrush-Bild
 10
13.8511154363
 20
38.264191557
 30
0.0
 11
51.6290888628
 21
31.9806341108
 31
0.0
 71
     2
 72
     0
 73
     1
 90
    12928
310
80552BED0767C5B32B40DDAF6807D121434000000000000000006FFBDDFB85D0
310
4940DDAF6807D121434000000000000000006FFBDDFB85D04940416F4BD60AFB
310
3F4000000000000000002BED0767C5B32B40416F4BD60AFB3F40000000000000
310
0000000000000100000000010000010000000100000000000100000000320000
310
D0CF11E0A1B11AE1000000000000000000000000000000003E000300FEFF0900
310
0600000000000000000000000100000001000000000000000010000002000000
310
01000000FEFFFFFF0000000000000000FFFFFFFFFFFFFFFFFFFFFFFFFFFFFFFF
310
FFFFFFFFFFFFFFFFFFFFFFFFFFFFFFFFFFFFFFFFFFFFFFFFFFFFFFFFFFFFFFFF
310
FFFFFFFFFFFFFFFFFFFFFFFFFFFFFFFFFFFFFFFFFFFFFFFFFFFFFFFFFFFFFFFF
310
FFFFFFFFFFFFFFFFFFFFFFFFFFFFFFFFFFFFFFFFFFFFFFFFFFFFFFFFFFFFFFFF
310
FFFFFFFFFFFFFFFFFFFFFFFFFFFFFFFFFFFFFFFFFFFFFFFFFFFFFFFFFFFFFFFF
310
FFFFFFFFFFFFFFFFFFFFFFFFFFFFFFFFFFFFFFFFFFFFFFFFFFFFFFFFFFFFFFFF
310
FFFFFFFFFFFFFFFFFFFFFFFFFFFFFFFFFFFFFFFFFFFFFFFFFFFFFFFFFFFFFFFF
310
FFFFFFFFFFFFFFFFFFFFFFFFFFFFFFFFFFFFFFFFFFFFFFFFFFFFFFFFFFFFFFFF
310
FFFFFFFFFFFFFFFFFFFFFFFFFFFFFFFFFFFFFFFFFFFFFFFFFFFFFFFFFFFFFFFF
310
FFFFFFFFFFFFFFFFFFFFFFFFFFFFFFFFFFFFFFFFFFFFFFFFFFFFFFFFFFFFFFFF
310
FFFFFFFFFFFFFFFFFFFFFFFFFFFFFFFFFFFFFFFFFFFFFFFFFFFFFFFFFFFFFFFF
310
FFFFFFFFFFFFFFFFFFFFFFFFFFFFFFFFFFFFFFFFFFFFFFFFFFFFFFFFFFFFFFFF
310
FFFFFFFFFFFFFFFFFFFFFFFFFFFFFFFFFFFFFFFFFFFFFFFFFFFFFFFFFFFFFFFF
310
FFFFFFFFFFFFFFFFFFFFFFFFFFFFFFFFFFFFFFFFFFFFFFFFFFFFFFFFFFFFFFFF
310
FDFFFFFFFEFFFFFFFEFFFFFFFEFFFFFF05000000060000000700000008000000
310
090000000A0000000B0000000C0000000D0000000E0000000F00000010000000
310
11000000120000001300000014000000150000001600000017000000FEFFFFFF
310
FFFFFFFFFFFFFFFFFFFFFFFFFFFFFFFFFFFFFFFFFFFFFFFFFFFFFFFFFFFFFFFF
310
FFFFFFFFFFFFFFFFFFFFFFFFFFFFFFFFFFFFFFFFFFFFFFFFFFFFFFFFFFFFFFFF
310
FFFFFFFFFFFFFFFFFFFFFFFFFFFFFFFFFFFFFFFFFFFFFFFFFFFFFFFFFFFFFFFF
310
FFFFFFFFFFFFFFFFFFFFFFFFFFFFFFFFFFFFFFFFFFFFFFFFFFFFFFFFFFFFFFFF
310
FFFFFFFFFFFFFFFFFFFFFFFFFFFFFFFFFFFFFFFFFFFFFFFFFFFFFFFFFFFFFFFF
310
FFFFFFFFFFFFFFFFFFFFFFFFFFFFFFFFFFFFFFFFFFFFFFFFFFFFFFFFFFFFFFFF
310
FFFFFFFFFFFFFFFFFFFFFFFFFFFFFFFFFFFFFFFFFFFFFFFFFFFFFFFFFFFFFFFF
310
FFFFFFFFFFFFFFFFFFFFFFFFFFFFFFFFFFFFFFFFFFFFFFFFFFFFFFFFFFFFFFFF
310
FFFFFFFFFFFFFFFFFFFFFFFFFFFFFFFFFFFFFFFFFFFFFFFFFFFFFFFFFFFFFFFF
310
FFFFFFFFFFFFFFFFFFFFFFFFFFFFFFFFFFFFFFFFFFFFFFFFFFFFFFFFFFFFFFFF
310
FFFFFFFFFFFFFFFFFFFFFFFFFFFFFFFFFFFFFFFFFFFFFFFFFFFFFFFFFFFFFFFF
310
FFFFFFFFFFFFFFFFFFFFFFFFFFFFFFFFFFFFFFFFFFFFFFFFFFFFFFFFFFFFFFFF
310
FFFFFFFFFFFFFFFFFFFFFFFFFFFFFFFFFFFFFFFFFFFFFFFFFFFFFFFFFFFFFFFF
310
52006F006F007400200045006E00740072007900000000000000000000000000
310
0000000000000000000000000000000000000000000000000000000000000000
310
16000500FFFFFFFFFFFFFFFF020000000A00030000000000C000000000000046
310
0000000000000000000000001018027B0BA7D30103000000C000000000000000
310
01004F006C006500000000000000000000000000000000000000000000000000
310
0000000000000000000000000000000000000000000000000000000000000000
310
0A000200FFFFFFFFFFFFFFFFFFFFFFFF00000000000000000000000000000000
310
0000000000000000000000000000000000000000000000001400000000000000
310
010043006F006D0070004F0062006A0000000000000000000000000000000000
310
0000000000000000000000000000000000000000000000000000000000000000
310
120002010100000003000000FFFFFFFF00000000000000000000000000000000
310
0000000000000000000000000000000000000000010000004D00000000000000
310
01004F006C006500310030004E00610074006900760065000000000000000000
310
0000000000000000000000000000000000000000000000000000000000000000
310
1A000200FFFFFFFFFFFFFFFFFFFFFFFF00000000000000000000000000000000
310
0000000000000000000000000000000000000000040000002426000000000000
310
FEFFFFFF02000000FEFFFFFFFFFFFFFFFFFFFFFFFFFFFFFFFFFFFFFFFFFFFFFF
310
FFFFFFFFFFFFFFFFFFFFFFFFFFFFFFFFFFFFFFFFFFFFFFFFFFFFFFFFFFFFFFFF
310
FFFFFFFFFFFFFFFFFFFFFFFFFFFFFFFFFFFFFFFFFFFFFFFFFFFFFFFFFFFFFFFF
310
FFFFFFFFFFFFFFFFFFFFFFFFFFFFFFFFFFFFFFFFFFFFFFFFFFFFFFFFFFFFFFFF
310
FFFFFFFFFFFFFFFFFFFFFFFFFFFFFFFFFFFFFFFFFFFFFFFFFFFFFFFFFFFFFFFF
310
FFFFFFFFFFFFFFFFFFFFFFFFFFFFFFFFFFFFFFFFFFFFFFFFFFFFFFFFFFFFFFFF
310
FFFFFFFFFFFFFFFFFFFFFFFFFFFFFFFFFFFFFFFFFFFFFFFFFFFFFFFFFFFFFFFF
310
FFFFFFFFFFFFFFFFFFFFFFFFFFFFFFFFFFFFFFFFFFFFFFFFFFFFFFFFFFFFFFFF
310
FFFFFFFFFFFFFFFFFFFFFFFFFFFFFFFFFFFFFFFFFFFFFFFFFFFFFFFFFFFFFFFF
310
FFFFFFFFFFFFFFFFFFFFFFFFFFFFFFFFFFFFFFFFFFFFFFFFFFFFFFFFFFFFFFFF
310
FFFFFFFFFFFFFFFFFFFFFFFFFFFFFFFFFFFFFFFFFFFFFFFFFFFFFFFFFFFFFFFF
310
FFFFFFFFFFFFFFFFFFFFFFFFFFFFFFFFFFFFFFFFFFFFFFFFFFFFFFFFFFFFFFFF
310
FFFFFFFFFFFFFFFFFFFFFFFFFFFFFFFFFFFFFFFFFFFFFFFFFFFFFFFFFFFFFFFF
310
FFFFFFFFFFFFFFFFFFFFFFFFFFFFFFFFFFFFFFFFFFFFFFFFFFFFFFFFFFFFFFFF
310
FFFFFFFFFFFFFFFFFFFFFFFFFFFFFFFFFFFFFFFFFFFFFFFFFFFFFFFFFFFFFFFF
310
FFFFFFFFFFFFFFFFFFFFFFFFFFFFFFFFFFFFFFFFFFFFFFFFFFFFFFFFFFFFFFFF
310
0100000200000000000000000000000000000000000000000000000000000000
310
0000000000000000000000000000000000000000000000000000000000000000
310
0100FEFF030A0000FFFFFFFF0A00030000000000C00000000000004607000000
310
5042727573680007000000504272757368000700000050427275736800F439B2
310
7100000000000000000000000000000000000000000000000000000000000000
310
0000000000000000000000000000000000000000000000000000000000000000
310
0000000000000000000000000000000000000000000000000000000000000000
310
0000000000000000000000000000000000000000000000000000000000000000
310
0000000000000000000000000000000000000000000000000000000000000000
310
0000000000000000000000000000000000000000000000000000000000000000
310
0000000000000000000000000000000000000000000000000000000000000000
310
0000000000000000000000000000000000000000000000000000000000000000
310
0000000000000000000000000000000000000000000000000000000000000000
310
0000000000000000000000000000000000000000000000000000000000000000
310
0000000000000000000000000000000000000000000000000000000000000000
310
0000000000000000000000000000000000000000000000000000000000000000
310
20260000424D0E260000000000003E00000028000000B40200006E0000000100
310
01000000000000000000130B0000130B00000200000002000000000000FFFFFF
310
FFFFFFFFFFFFFFFFFFFFFFFFFFFFFFFFFFFFFFFFFFFFFFFFFFFFFFFFFFFFFFFF
310
FFFFFFFFFFFFFFFFFFFFFFFFFFFFFFFFFFFFFFFFFFFFFFFFFFFFFFFFFFFFFFFF
310
FFFFFFFFFFFFFFFFFFFFFFFFFFFFFFFFFFFFFFFFFFFFFFFFF000FFFFFFFFFFFF
310
FFFFFFFFFFFFFFFFFFFFFFFFFFFFFFFFFFFFFFFFFFFFFFFFFFFFFFFFFFFFFFFF
310
FFFFFFFFFFFFFFFFFFFFFFFFFFFFFFFFFFFFFFFFFFFFFFFFFFFFFFFFFFFFFFFF
310
FFFFFFFFFFFFFFFFFFFFFFFFFFFFFFFFF000FFFFFFFFFFFFFFFFFFFFFFFFFFFF
310
FFFFFFFFFFFFFFFFFFFFFFFFFFFFFFFFFFFFFFFFFFFFFFFFFFFFFFFFFFFFFFFF
310
FFFFFFFFFFFFFFFFFFFFFFFFFFFFFFFFFFFFFFFFFFFFFFFFFFFFFFFFFFFFFFFF
310
FFFFFFFFFFFFFFFFF000FFFFFFFFFFFFFFFFFFFFFFFFFFFFFFFFFFFFFFFFFFFF
310
FFFFFFFFFFFFFFFFFFFFFFFFFFFFFFFFFFFFFFFFFFFFFFFFFFFFFFFFFFFFFFFF
310
FFFFFFFFFFFFFFFFFFFFFFFFFFFFFFFFFFFFFFFFFFFFFFFFFFFFFFFFFFFFFFFF
310
F000FFFFFFFFFFFFFFFFFFFFFFFFFFFFFFFFFFFFFFFFFFFFFFFFFFFFFFFFFFFF
310
FFFFFFFFFFFFFFFFFFFFFFFFFFFFFFFFFFFFFFFFFFFFFFFFFFFFFFFFFFFFFFFF
310
FFFFFFFFFFFFFFFFFFFFFFFFFFFFFFFFFFFFFFFFFFFFFFFFF000FFFFFFFFFFFF
310
FFFFFFFFFFFFFFFFFFFFFFFFFFFFFFFFFFFFFFFFFFFFFFFFFFFFFFFFFFFFFFFF
310
FFFFFFFFFFFFFFFFFFFFFFFFFFFFFFFFFFFFFFFFFFFFFFFFFFFFFFFFFFFFFFFF
310
FFFFFFFFFFFFFFFFFFFFFFFFFFFFFFFFF000FFFFFFFFFFFFFFFFFFFFFFFFFFFF
310
FFFFFFFFFFFFFFFFFFFFFFFFFFFFFFFFFFFFFFFFFFFFFFFFFFFFFFFFFFFFFFFF
310
FFFFFFFFFFFFFFFFFFFFFFFFFFFFFFFFFFFFFFFFFFFFFFFFFFFFFFFFFFFFFFFF
310
FFFFFFFFFFFFFFFFF000FFFFFFFFFFFFFFFFFFFFFFFFFFFFFFFFFFFFFFFFFFFF
310
FFFFFFFFFFFFFFFFFFFFFFFFFFFFFFFFFFFFFFFFFFFFFFFFFFFFFFFFFFFFFFFF
310
FFFFFFFFFFFFFFFFFFFFFFFFFFFFFFFFFFFFFFFFFFFFFFFFFFFFFFFFFFFFFFFF
310
F000FFFFFFFFFFFFFFFFFFFFFFFFFFFFFFFFFFFFFFFFFFFFFFFFFFFFFFFFFFFF
310
FFFFFFFFFFFFFFFFFFFFFFFFFFFFFFFFFFFFFFFFFFFFFFFFFFFFFFFFFFFFFFFF
310
FFFFFFFFFFFFFFFFFFFFFFFFFFFFFFFFFFFFFFFFFFFFFFFFF000FFFFFFFFFFFF
310
FFFFFFFFFFFFFFFFFFFFFFFFFFFFFFFFFFFFFFFFFFFFFFFFFFFFFFFFFFFFFFFF
310
FFFFFFFFFFFFFFFFFFFFFFFFFFFFFFFFFFFFFFFFFFFFFFFFFFFFFFFFFFFFFFFF
310
FFFFFFFFFFFFFFFFFFFFFFFFFFFFFFFFF000FFFFFFFFFFFFFFFFFFFFFFFFFFFF
310
FFFFFFFFFFFFFFFFFFFFFFFFFFFFFFFFFFFFFFFFFFFFFFFFFFFFFFFFFFFFFFFF
310
FFFFFFFFFFFFFFFFFFFFFFFFFFFFFFFFFFFFFFFFFFFFFFFFFFFFFFFFFFFFFFFF
310
FFFFFFFFFFFFFFFFF000FFFFFFFFFFFFFFFFFFFFFFFFFFFFFFFFFFFFFFFFFFFF
310
FFFFFFFFFFFFFFFFFFFFFFFFFFFFFFFFFFFFFFFFFFFFFFFFFFFFFFFFFFFFFFFF
310
FFFFFFFFFFFFFFFFFFFFFFFFFFFFFFFFFFFFFFFFFFFFFFFFFFFFFFFFFFFFFFFF
310
F000FFFFFFFFFFFFFFFFFFFFFFFFFFFFFFFFFFFFFFFFFFFFFFFFFFFFFFFFFFFF
310
FFFFFFFFFFFFFFFFFFFFFFFFFFFFFFFFFFFFFFFFFFFFFFFFFFFFFFFFFFFFFFFF
310
FFFFFFFFFFFFFFFFFFFFFFFFFFFFFFFFFFFFFFFFFFFFFFFFF000FFFFFFFFFFFF
310
FFFFFFFFFFFFFFFFFFFFFFFFFFFFFFFFFFFFFFFFFFFFFFFFFFFFFFFFFFFFFFFF
310
FFFFFFFFFFFFFFFFFFFFFFFFFFFFFFFFFFFFFFFFFFFFFFFFFFFFFFFFFFFFFFFF
310
FFFFFFFFFFFFFFFFFFFFFFFFFFFFFFFFF000FFFFFFFFFFFFFFFFFFFFFFFFFFFF
310
FFFFFFFFFFFFFFFFFFFFFFFFFFFFFFFFFFFFFFFFFFFFFFFFFFFFFFFFFFFFFFFF
310
FFFFFFFFFFFFFFFFFFFFFFFFFFFFFFFFFFFFFFFFFFFFFFFFFFFFFFFFFFFFFFFF
310
FFFFFFFFFFFFFFFFF000FFFFFFFFFFFFFFFFFFFFFFFFFFFFFFFFFFFFFFFFFFFF
310
FFFFFFFFFFFFFFFFFFFFFFFFFFFFFFFFFFFFFFFFFFFFFFFFFFFFFFFFFFFFFFFF
310
FFFFFFFFFFFFFFFFFFFFFFFFFFFFFFFFFFFFFFFFFFFFFFFFFFFFFFFFFFFFFFFF
310
F000FFFFFFFFFFFFFFFFFFFFFFFFFFFFFFFFFFFFFFFFFFFFFFFFFFFFFFFFFFFF
310
FFFFFFFFFFFFFFFFFFFFFFFFFFFFFFFFFFFFFFFFFFFFFFFFFFFFFFFFFFFFFFFF
310
FFFFFFFFFFFFFFFFFFFFFFFFFFFFFFFFFFFFFFFFFFFFFFFFF000FFFFFFFFFFFF
310
FFFFFFFFFFFFFFFFFFFFFFFFFFFFFFFFFFFFFFFFFFFFFFFFFFFFFFFFFFFFFFFF
310
FFFFFFFFFFFFFFFFFFFFFFFFFFFFFFFFFFFFFFFFFFFFFFFFFFFFFFFFFFFFFFFF
310
FFFFFFFFFFFFFFFFFFFFFFFFFFFFFFFFF000FFFFFFFFFFFFFFFFFFFFFFFFFFFF
310
FFFFFFFFFFFFFFFFFFFFFFFFFFFFFFFFFFFFFFFFFFFFFFFFFFFFFFFFFFFFFFFF
310
FFFFFFFFFFFFFFFFFFFFFFFFFFFFFFFFFFFFFFFFFFFFFFFFFFFFFFFFFFFFFFFF
310
FFFFFFFFFFFFFFFFF000FFFFF80003FFFFFFFFFFFFFFFFFFFFFFFFFFFFFFFFFF
310
FFFFF00007FFFFFFFFFF00007FFFFFF800000000000000007FFFFFFFFFFFFFFF
310
FFFFFFFC001FFFFFFFFFFFFFFC001FFFFFFFFFFFFFFFFFFFFFFFFFFE0007FFFF
310
F000FFFF8000007FFFFFFFF8000FFFFFC0007FFFFF80007FFFFF0000007FFFFF
310
FFF8000007FFFFF800000000000000007FFFFFF0001FFFFFFFFFFFC00001FFFF
310
FFFFFFFFC00001FFFFFFFF000000000003FFFFE000007FFFF000FFFE0000000F
310
FFFFFFF0000FFFFF80007FFFFF80007FFFFC0000001FFFFFFFC0000001FFFFF8
310
00000000000000007FFFFFF0001FFFFFFFFFFE0000003FFFFFFFFFFE0000003F
310
FFFFFF000000000003FFFF0000000FFFF000FFF800000003FFFFFFF00007FFFF
310
80007FFFFF80007FFFF000000007FFFFFF000000003FFFF80000000000000000
310
7FFFFFF0001FFFFFFFFFF80000000FFFFFFFFFF80000000FFFFFFF0000000000
310
03FFFC00000003FFF000FFE000000000FFFFFFF00007FFFF80003FFFFF80007F
310
FFC000000001FFFFFC000000001FFFF800000000000000007FFFFFF0001FFFFF
310
FFFFE000000003FFFFFFFFE000000003FFFFFF000000000003FFF000000000FF
310
F000FF80000000007FFFFFF00007FFFF80003FFFFF80007FFF8000000000FFFF
310
F80000000007FFF800000000000000007FFFFFF0001FFFFFFFFFC000000001FF
310
FFFFFFC000000001FFFFFF000000000003FFC0000000007FF000FF0000000000
310
3FFFFFE00007FFFF00003FFFFF80007FFE00000000003FFFF00000000003FFF8
310
00000000000000007FFFFFF0001FFFFFFFFF8000000000FFFFFFFF8000000000
310
FFFFFF000000000003FF80000000003FF000FE00000000001FFFFFE00003FFFF
310
00003FFFFF80007FFC00000000001FFFE00000000001FFF8000001FFFE000000
310
7FFFFFF0001FFFFFFFFE00000000003FFFFFFE00000000003FFFFF0000000000
310
03FF00000000001FF000FC00000000000FFFFFE00003FFFF00001FFFFF80007F
310
F800000000001FFFC00000000000FFF8000001FFFE0000007FFFFFF0001FFFFF
310
FFFC00000000001FFFFFFC00000000001FFFFF000000000003FE00000000000F
310
F000F8000000000007FFFFE00003FFFF00001FFFFF80007FF800000000000FFF
310
800000000000FFF8000001FFFE0000007FFFFFF0001FFFFFFFF800000000000F
310
FFFFF800000000000FFFFF000000000003FC000000000007F000F80000000000
310
03FFFFC00003FFFE00001FFFFF80007FF0000000000007FF0000000000007FF8
310
000001FFFE0000007FFFFFF0001FFFFFFFF0000000000007FFFFF00000000000
310
07FFFF000000000003F8000000000003F000F0000000000003FFFFC00001FFFE
310
00001FFFFF80007FE0000000000007FE0000000000003FF8000001FFFE000000
310
7FFFFFF0001FFFFFFFF0000000000007FFFFF0000000000007FFFF0000000000
310
03F800001F800003F000E00001FFF00001FFFFC00001FFFE00000FFFFF80007F
310
E00001FFE00003FE00001FFF00003FF8000001FFFE0000007FFFFFF0001FFFFF
310
FFE000003E000003FFFFE000003E000003FFFF000000000003F00001FFF80001
310
F000E00007FFFC0001FFFFC00001FFFE00000FFFFF80007FC0000FFFFC0003FC
310
0000FFFFC0001FF8000001FFFE0000007FFFFFF0001FFFFFFFC00003FFE00001
310
FFFFC00003FFE00001FFFF0001FFFFFFFFF00007FFFE0001F000E0000FFFFF00
310
00FFFF800001FFFC00000FFFFF80007FC0001FFFFE0001FC0001FFFFE0001FF8
310
000001FFFE0000007FFFFFF0001FFFFFFF80000FFFF80000FFFF80000FFFF800
310
00FFFF0003FFFFFFFFE0000FFFFF8000F000C0003FFFFF8000FFFF800000FFFC
310
000007FFFF80007F80003FFFFF0001FC0003FFFFF0001FF8000001FFFE000000
310
7FFFFFF0001FFFFFFF80003FFFFE0000FFFF80003FFFFE0000FFFF0003FFFFFF
310
FFE0003FFFFF8000F000C0003FFFFF8000FFFF800000FFFC000007FFFF80007F
310
80007FFFFF8001F80007FFFFF8000FF8000001FFFE0000007FFFFFF0001FFFFF
310
FF00007FFFFF00007FFF00007FFFFF00007FFF0003FFFFFFFFE0003FFFFFC000
310
F000C0007FFFFFC000FFFF000000FFFC000007FFFF80007F8000FFFFFF8000F8
310
000FFFFFF8000FF8000001FFFE0000007FFFFFF0001FFFFFFF0000FFFFFF8000
310
7FFF0000FFFFFF80007FFF0003FFFFFFFFC0007FFFFFC00070008000FFFFFFC0
310
00FFFF000000FFF8000007FFFF80007F8000FFFFFF8000F8000FFFFFF8000FF8
310
000001FFFE0000007FFFFFF0001FFFFFFE0001FFFFFFC0003FFE0001FFFFFFC0
310
003FFF0003FFFFFFFFC0007FFFFFE00070008000FFFFFFC0007FFF0000007FF8
310
000003FFFF80007F0001FFFFFF8000F8000FFFFFF8000FF8000001FFFE000000
310
7FFFFFF0001FFFFFFE0001FFFFFFC0003FFE0001FFFFFFC0003FFF0003FFFFFF
310
FFC000FFFFFFE00070008000FFFFFFC0007FFF0000007FF8000003FFFF80007F
310
0001FFFFFF8000F8001FFFFFF8000FF8000001FFFE0000007FFFFFF0001FFFFF
310
FE0003FFFFFFE0003FFE0003FFFFFFE0003FFF0003FFFFFFFFC000FFFFFFE000
310
70008000FFFFFFC0007FFE0000007FF8000003FFFF80007F0001FFFFFF8000F0
310
001FFFFFF8000FF8000001FFFE0000007FFFFFF0001FFFFFFC0003FFFFFFE000
310
1FFC0003FFFFFFE0001FFF0003FFFFFFFFC000FFFFFFC00070008000FFFFFF80
310
007FFE0000007FF0000003FFFF80007F0001FFFFFF0000F0001FFFFFF8000FF8
310
000001FFFE0000007FFFFFF0001FFFFFFC0007FFFFFFF0001FFC0007FFFFFFF0
310
001FFF0003FFFFFFFFC000FFFFFFC00070008001FFFFFF0000FFFE0000003FF0
310
000001FFFF80007F0001FFFFFF0000F8001FFFFFF0000FF8000001FFFE000000
310
7FFFFFF0001FFFFFFC0007FFFFFFF0001FFC0007FFFFFFF0001FFF0003FFFFFF
310
FFC001FFFFFF80007000FFFFFFFFFE0000FFFE0008003FF0008001FFFF80007F
310
FFFFFFFFFC0000FFFFFFFFFFE0000FF8000001FFFE0000007FFFFFF0001FFFFF
310
F8000FFFFFFFF8000FF8000FFFFFFFF8000FFF0003FFFFFFFFFFFFFFFFFF0000
310
7000FFFFFFFFFC0000FFFC0008003FF0008001FFFF80007FFFFFFFFFF80001FF
310
FFFFFFFF80000FF8000001FFFE0000007FFFFFF0001FFFFFF8000FFFFFFFF800
310
0FF8000FFFFFFFF8000FFF0003FFFFFFFFFFFFFFFFFE0000F000FFFFFFFFE000
310
00FFFC000C003FE000C001FFFF80007FFFFFFFFFC00001FFFFFFFFFE00001FF8
310
000001FFFE0000007FFFFFF0001FFFFFF8000FFFFFFFF8000FF8000FFFFFFFF8
310
000FFF0003FFFFFFFFFFFFFFFFF00000F000FFFFFFFE000001FFFC000C001FE0
310
00C000FFFF80007FFFFFFFFE000001FFFFFFFFE000001FF80FFFFFFFFFFFFFC0
310
7FFFFFF0001FFFFFF8000FFFFFFFF8000FF8000FFFFFFFF8000FFF0003FFFFFF
310
FFFFFFFFFF800000F000FFFFFFC0000001FFFC001C001FE001C000FFFF80007F
310
FFFFFF80000003FFFFFFF80000001FF80FFFFFFFFFFFFFC07FFFFFF0001FFFFF
310
F8001FFFFFFFFC000FF8001FFFFFFFFC000FFF0003FFFFFFFFFFFFFFF0000001
310
F000FFFFF800000001FFF8001C001FE001C000FFFF80007FFFFFF800000003FF
310
FFFF800000003FF80FFFFFFFFFFFFFC07FFFFFF0001FFFFFF8001FFFFFFFFC00
310
0FF8001FFFFFFFFC000FFF0003FFFFFFFFFFFFFE00000001F000FFFFC0000000
310
03FFF8001E001FC001E000FFFF80007FFFFF8000000007FFFFFC000000003FF8
310
0FFFFFFFFFFFFFC07FFFFFF0001FFFFFF8001FFFFFFFFC000FF8001FFFFFFFFC
310
000FFF0003FFFFFFFFFFFFE000000003F000FFFE0000000007FFF8001E000FC0
310
01E0007FFF80007FFFFE0000000007FFFFE0000000007FF80FFFFFFFFFFFFFC0
310
7FFFFFF0001FFFFFF0001FFFFFFFFC0007F0001FFFFFFFFC0007FF0003FFFFFF
310
FFFFFF0000000003F000FFF80000000007FFF8001E000FC003E0007FFF80007F
310
FFF0000000000FFFFF8000000000FFF80FFFFFFFFFFFFFC07FFFFFF0001FFFFF
310
F0001FFFFFFFFC0007F0001FFFFFFFFC0007FF0003FFFFFFFFFFFC0000000007
310
F000FFE0000000000FFFF0003E000FC003E0007FFF80007FFFC0000000001FFF
310
FE0000000001FFF80FFFFFFFFFFFFFC07FFFFFF0001FFFFFF0001FFFFFFFFC00
310
07F0001FFFFFFFFC0007FF0003FFFFFFFFFFF0000000000FF000FFC000000000
310
1FFFF0003F000F8003F0003FFF80007FFF80000000003FFFF80000000003FFF8
310
0FFFFFFFFFFFFFC07FFFFFF0001FFFFFF0001FFFFFFFFC0007F0001FFFFFFFFC
310
0007FF0003FFFFFFFFFFE0000000001FF000FF00000000007FFFF0003F000780
310
03F0003FFF80007FFF00000000007FFFF00000000007FFF80FFFFFFFFFFFFFC0
310
7FFFFFF0001FFFFFF0001FFFFFFFFC0007F0001FFFFFFFFC0007FF0003FFFFFF
310
FFFF80000000007FF000FE0000000000FFFFE0003F00078007F0003FFF80007F
310
FE0000000001FFFFE0000000001FFFF80FFFFFFFFFFFFFC07FFFFFF0001FFFFF
310
F0001FFFFFFFFC0007F0001FFFFFFFFC0007FF0003FFFFFFFFFF0000000000FF
310
F000FC0000000003FFFFE0007F00078007F0003FFF80007FFC0000000007FFFF
310
C0000000007FFFF80FFFFFFFFFFFFFC07FFFFFF0001FFFFFF8001FFFFFFFFC00
310
0FF8001FFFFFFFFC000FFF0003FFFFFFFFFE0000000003FFF000FC000000000F
310
FFFFE0007F80070007F8001FFF80007FF8000000001FFFFF8000000001FFFFF8
310
0FFFFFFFFFFFFFC07FFFFFF0001FFFFFF8001FFFFFFFFC000FF8001FFFFFFFFC
310
000FFF0003FFFFFFFFFC000000000FFFF000F8000000007FFFFFE0007F800700
310
07F8001FFF80007FF000000000FFFFFF800000000FFFFFF80FFFFFFFFFFFFFC0
310
7FFFFFF0001FFFFFF8000FFFFFFFF8000FF8000FFFFFFFF8000FFF0003FFFFFF
310
FFFC000000007FFFF000F800000007FFFFFFC0007F8003000FF8001FFF80007F
310
F000000007FFFFFF000000007FFFFFF80FFFFFFFFFFFFFC07FFFFFF0001FFFFF
310
F8000FFFFFFFF8000FF8000FFFFFFFF8000FFF0003FFFFFFFFF80000000FFFFF
310
F000F0000000FFFFFFFFC000FF8003000FF8001FFF80007FE0000000FFFFFFFF
310
0000000FFFFFFFF8000001FFFE0000007FFFFFF0001FFFFFF8000FFFFFFFF800
310
0FF8000FFFFFFFF8000FFF0003FFFFFFFFF8000000FFFFFFF000F000000FFFFF
310
FFFFC000FFC002000FF8000FFF80007FE000001FFFFFFFFE000001FFFFFFFFF8
310
000001FFFE0000007FFFFFF0001FFFFFF8000FFFFFFFF8000FF8000FFFFFFFF8
310
000FFF0003FFFFFFFFF000001FFFFFFFF000E00000FFFFFFFFFFC000FFC00200
310
0FFC000FFF80007FE00001FFFFFFFFFE00001FFFFFFFFFF8000001FFFE000000
310
7FFFFFF0001FFFFFFC000FFFFFFFF8001FFC000FFFFFFFF8001FFF0003FFFFFF
310
FFF00001FFFFFFFFF000E00007FFFFFFFFFF8000FFC000001FFC000FFF80007F
310
C0000FFFFFFFFFFE0000FFFFFFFFFFF8000001FFFE0000007FFFFFF0001FFFFF
310
FC0007FFFFFFF0001FFC0007FFFFFFF0001FFF0003FFFFFFFFF00007FFFFFFFF
310
F000E0001FFFFFFFFFFF8000FFC000001FFC000FFF80007FC0003FFFFFFFFFFE
310
0001FFFFFFFFFFF8000001FFFE0000007FFFFFF0001FFFFFFC0007FFFFFFF000
310
1FFC0007FFFFFFF0001FFF0003FFFFFFFFF0001FFFFFFFFFF000E0003FFFFF00
310
03FF8001FFE000001FFC0007FF80007FC0007FFFFF0007FC0003FFFFF0003FF8
310
000001FFFE0000007FFFFFF0001FFFFFFC0003FFFFFFE0001FFC0003FFFFFFE0
310
001FFF0003FFFFFFFFF0003FFFFFFFFFF000E0003FFFFF0001FF8001FFE00000
310
1FFE0007FF80007FC0007FFFFE0003FC0007FFFFE0003FF8000001FFFE000000
310
7FFFFFF0001FFFFFFE0003FFFFFFE0003FFE0003FFFFFFE0003FFF0003FFFFFF
310
FFF0003FFFFF8001F000E0003FFFFF0001FF0001FFE000001FFE0007FF80007F
310
C0007FFFFE0003FC0007FFFFE0003FF8000001FFFE0000007FFFFFF0001FFFFF
310
FE0001FFFFFFC0003FFE0001FFFFFFC0003FFF0003FFFFFFFFF0003FFFFF0001
310
F000E0003FFFFF0003FF0001FFE000003FFE0007FF80007FC0007FFFFE0003FC
310
0007FFFFE0003FF8000001FFFE0000007FFFFFF0001FFFFFFF0001FFFFFFC000
310
7FFF0001FFFFFFC0007FFF0003FFFFFFFFF0003FFFFF0001F000E0003FFFFE00
310
03FF0003FFF000003FFE0003FF80007FC0007FFFFC0003FE0007FFFFE0003FF8
310
000001FFFE0000007FFFFFF0001FFFFFFF0000FFFFFF80007FFF0000FFFFFF80
310
007FFF0003FFFFFFFFF0003FFFFF0001F000E0003FFFFE0003FF0003FFF00000
310
3FFF0003FF80007FC0007FFFFC0007FE0007FFFFC0003FF8000001FFFE000000
310
7FFFFFF0001FFFFFFF80007FFFFF0000FFFF80007FFFFF0000FFFF0003FFFFFF
310
FFF0003FFFFF0003F000E0003FFFFC0003FE0003FFF000003FFF0003FF80007F
310
E0003FFFF80007FE0003FFFFC0007FF8000001FFFE0000007FFFFFF0001FFFFF
310
FF80003FFFFE0000FFFF80003FFFFE0000FFFF0003FFFFFFFFF0001FFFFE0003
310
F000F0001FFFF80003FE0003FFF000007FFF0001FF80007FE0003FFFF00007FE
310
0001FFFF80007FF8000001FFFE0000007FFFFFF0001FFFFFFFC0000FFFF80001
310
FFFFC0000FFFF80001FFFF0003FFFFFFFFF0001FFFFC0003F000F0000FFFF000
310
07FE0007FFF800007FFF0001FF80007FE0001FFFE00007FF0000FFFE00007FF8
310
000001FFFE0000007FFFFFF0001FFFFFFFC00003FFE00001FFFFC00003FFE000
310
01FFFF0003FFFFFFFFF8000FFFF80003F000F00003FFC00007FC0007FFF80000
310
7FFF8001FF80007FF00007FF80000FFF00007FF80000FFF8000001FFFE000000
310
7F80000000000001FFE000003E000003FFFFE000003E000003FFFF0003FFFFFF
310
FFF80003FFE00007F000F800000000000FFC0007FFF800007FFF8001FF80007F
310
F000000000000FFF000000000000FFF8000001FFFE0000007F80000000000001
310
FFF0000000000007FFFFF0000000000007FFFF0003FFFFFFFFFC00007E000007
310
F000F800000000000FFC0007FFF80000FFFF8000FF80007FF800000000001FFF
310
800000000001FFF8000001FFFE0000007F80000000000001FFF800000000000F
310
FFFFF800000000000FFFFF0003FFFFFFFFFC00000000000FF000FC0000000000
310
1FFC0007FFFC0000FFFF8000FF80007FF800000000003FFFC00000000001FFF8
310
000001FFFE0000007F80000000000001FFF800000000000FFFFFF80000000000
310
0FFFFF0003FFFFFFFFFE00000000001FF000FE00000000003FF8000FFFFC0000
310
FFFF8000FF80007FFC00000000003FFFC00000000003FFF8000001FFFE000000
310
7F80000000000001FFFC00000000001FFFFFFC00000000001FFFFF0003FFFFFF
310
FFFF00000000001FF000FF00000000003FF8000FFFFC0000FFFFC000FF80007F
310
FE00000000007FFFE00000000007FFF8000001FFFE0000007F80000000000001
310
FFFE00000000003FFFFFFE00000000003FFFFF0003FFFFFFFFFF80000000003F
310
F000FF80000000007FF8000FFFFC0001FFFFC0007F80007FFF0000000000FFFF
310
F0000000000FFFF800000000000000007F80000000000001FFFF8000000000FF
310
FFFFFF8000000000FFFFFF0003FFFFFFFFFFC0000000007FF000FFC000000000
310
FFF8000FFFFE0001FFFFC0007F80007FFF8000000001FFFFF8000000001FFFF8
310
00000000000000007F80000000000001FFFFC000000001FFFFFFFFC000000001
310
FFFFFF0003FFFFFFFFFFE000000000FFF000FFE000000003FFF0001FFFFE0001
310
FFFFC0007F80007FFFC000000007FFFFFE000000003FFFF80000000000000000
310
7F80000000000001FFFFE000000003FFFFFFFFE000000003FFFFFF0003FFFFFF
310
FFFFF000000003FFF000FFF80000000FFFF0001FFFFE0001FFFFE0007F80007F
310
FFF00000000FFFFFFF00000000FFFFF800000000000000007F80000000000001
310
FFFFF80000000FFFFFFFFFF80000000FFFFFFF0003FFFFFFFFFFFC0000000FFF
310
F000FFFE0000003FFFF0001FFFFE0003FFFFE0003F80007FFFFC0000003FFFFF
310
FFC0000003FFFFF800000000000000007F80000000000001FFFFFE0000003FFF
310
FFFFFFFE0000003FFFFFFF0003FFFFFFFFFFFF0000003FFFF000FFFF800000FF
310
FFF0001FFFFF0003FFFFE0003F80007FFFFF000001FFFFFFFFF800001FFFFFF8
310
00000000000000007F80000000000001FFFFFFC00001FFFFFFFFFFFFC00001FF
310
FFFFFF0003FFFFFFFFFFFFC00000FFFFF000FFFFF8000FFFFFFFFFFFFFFFFFFF
310
FFFFFFFFFFFFFFFFFFFFF0001FFFFFFFFFFF0000FFFFFFF80000000000000000
310
7FFFFFFFFFFFFFFFFFFFFFFC001FFFFFFFFFFFFFFC001FFFFFFFFFFFFFFFFFFF
310
FFFFFFFC001FFFFFF000FFFFFFFFFFFFFFFFFFFFFFFFFFFFFFFFFFFFFFFFFFFF
310
FFFFFFFFFFFFFFFFFFFFFFFFFFFFFFFFFFFFFFFFFFFFFFFFFFFFFFFFFFFFFFFF
310
FFFFFFFFFFFFFFFFFFFFFFFFFFFFFFFFFFFFFFFFFFFFFFFFFFFFFFFFFFFFFFFF
310
F000FFFFFFFFFFFFFFFFFFFFFFFFFFFFFFFFFFFFFFFFFFFFFFFFFFFFFFFFFFFF
310
FFFFFFFFFFFFFFFFFFFFFFFFFFFFFFFFFFFFFFFFFFFFFFFFFFFFFFFFFFFFFFFF
310
FFFFFFFFFFFFFFFFFFFFFFFFFFFFFFFFFFFFFFFFFFFFFFFFF000FFFFFFFFFFFF
310
FFFFFFFFFFFFFFFFFFFFFFFFFFFFFFFFFFFFFFFFFFFFFFFFFFFFFFFFFFFFFFFF
310
FFFFFFFFFFFFFFFFFFFFFFFFFFFFFFFFFFFFFFFFFFFFFFFFFFFFFFFFFFFFFFFF
310
FFFFFFFFFFFFFFFFFFFFFFFFFFFFFFFFF000FFFFFFFFFFFFFFFFFFFFFFFFFFFF
310
FFFFFFFFFFFFFFFFFFFFFFFFFFFFFFFFFFFFFFFFFFFFFFFFFFFFFFFFFFFFFFFF
310
FFFFFFFFFFFFFFFFFFFFFFFFFFFFFFFFFFFFFFFFFFFFFFFFFFFFFFFFFFFFFFFF
310
FFFFFFFFFFFFFFFFF000FFFFFFFFFFFFFFFFFFFFFFFFFFFFFFFFFFFFFFFFFFFF
310
FFFFFFFFFFFFFFFFFFFFFFFFFFFFFFFFFFFFFFFFFFFFFFFFFFFFFFFFFFFFFFFF
310
FFFFFFFFFFFFFFFFFFFFFFFFFFFFFFFFFFFFFFFFFFFFFFFFFFFFFFFFFFFFFFFF
310
F000FFFFFFFFFFFFFFFFFFFFFFFFFFFFFFFFFFFFFFFFFFFFFFFFFFFFFFFFFFFF
310
FFFFFFFFFFFFFFFFFFFFFFFFFFFFFFFFFFFFFFFFFFFFFFFFFFFFFFFFFFFFFFFF
310
FFFFFFFFFFFFFFFFFFFFFFFFFFFFFFFFFFFFFFFFFFFFFFFFF000FFFFFFFFFFFF
310
FFFFFFFFFFFFFFFFFFFFFFFFFFFFFFFFFFFFFFFFFFFFFFFFFFFFFFFFFFFFFFFF
310
FFFFFFFFFFFFFFFFFFFFFFFFFFFFFFFFFFFFFFFFFFFFFFFFFFFFFFFFFFFFFFFF
310
FFFFFFFFFFFFFFFFFFFFFFFFFFFFFFFFF000FFFFFFFFFFFFFFFFFFFFFFFFFFFF
310
FFFFFFFFFFFFFFFFFFFFFFFFFFFFFFFFFFFFFFFFFFFFFFFFFFFFFFFFFFFFFFFF
310
FFFFFFFFFFFFFFFFFFFFFFFFFFFFFFFFFFFFFFFFFFFFFFFFFFFFFFFFFFFFFFFF
310
FFFFFFFFFFFFFFFFF000FFFFFFFFFFFFFFFFFFFFFFFFFFFFFFFFFFFFFFFFFFFF
310
FFFFFFFFFFFFFFFFFFFFFFFFFFFFFFFFFFFFFFFFFFFFFFFFFFFFFFFFFFFFFFFF
310
FFFFFFFFFFFFFFFFFFFFFFFFFFFFFFFFFFFFFFFFFFFFFFFFFFFFFFFFFFFFFFFF
310
F000FFFFFFFFFFFFFFFFFFFFFFFFFFFFFFFFFFFFFFFFFFFFFFFFFFFFFFFFFFFF
310
FFFFFFFFFFFFFFFFFFFFFFFFFFFFFFFFFFFFFFFFFFFFFFFFFFFFFFFFFFFFFFFF
310
FFFFFFFFFFFFFFFFFFFFFFFFFFFFFFFFFFFFFFFFFFFFFFFFF000FFFFFFFFFFFF
310
FFFFFFFFFFFFFFFFFFFFFFFFFFFFFFFFFFFFFFFFFFFFFFFFFFFFFFFFFFFFFFFF
310
FFFFFFFFFFFFFFFFFFFFFFFFFFFFFFFFFFFFFFFFFFFFFFFFFFFFFFFFFFFFFFFF
310
FFFFFFFFFFFFFFFFFFFFFFFFFFFFFFFFF000FFFFFFFFFFFFFFFFFFFFFFFFFFFF
310
FFFFFFFFFFFFFFFFFFFFFFFFFFFFFFFFFFFFFFFFFFFFFFFFFFFFFFFFFFFFFFFF
310
FFFFFFFFFFFFFFFFFFFFFFFFFFFFFFFFFFFFFFFFFFFFFFFFFFFFFFFFFFFFFFFF
310
FFFFFFFFFFFFFFFFF000FFFFFFFFFFFFFFFFFFFFFFFFFFFFFFFFFFFFFFFFFFFF
310
FFFFFFFFFFFFFFFFFFFFFFFFFFFFFFFFFFFFFFFFFFFFFFFFFFFFFFFFFFFFFFFF
310
FFFFFFFFFFFFFFFFFFFFFFFFFFFFFFFFFFFFFFFFFFFFFFFFFFFFFFFFFFFFFFFF
310
F000FFFFFFFFFFFFFFFFFFFFFFFFFFFFFFFFFFFFFFFFFFFFFFFFFFFFFFFFFFFF
310
FFFFFFFFFFFFFFFFFFFFFFFFFFFFFFFFFFFFFFFFFFFFFFFFFFFFFFFFFFFFFFFF
310
FFFFFFFFFFFFFFFFFFFFFFFFFFFFFFFFFFFFFFFFFFFFFFFFF000FFFFFFFFFFFF
310
FFFFFFFFFFFFFFFFFFFFFFFFFFFFFFFFFFFFFFFFFFFFFFFFFFFFFFFFFFFFFFFF
310
FFFFFFFFFFFFFFFFFFFFFFFFFFFFFFFFFFFFFFFFFFFFFFFFFFFFFFFFFFFFFFFF
310
FFFFFFFFFFFFFFFFFFFFFFFFFFFFFFFFF000FFFFFFFFFFFFFFFFFFFFFFFFFFFF
310
FFFFFFFFFFFFFFFFFFFFFFFFFFFFFFFFFFFFFFFFFFFFFFFFFFFFFFFFFFFFFFFF
310
FFFFFFFFFFFFFFFFFFFFFFFFFFFFFFFFFFFFFFFFFFFFFFFFFFFFFFFFFFFFFFFF
310
FFFFFFFFFFFFFFFFF000FFFFFFFFFFFFFFFFFFFFFFFFFFFFFFFFFFFFFFFFFFFF
310
FFFFFFFFFFFFFFFFFFFFFFFFFFFFFFFFFFFFFFFFFFFFFFFFFFFFFFFFFFFFFFFF
310
FFFFFFFFFFFFFFFFFFFFFFFFFFFFFFFFFFFFFFFFFFFFFFFFFFFFFFFFFFFFFFFF
310
F000FFFFFFFFFFFFFFFFFFFFFFFFFFFFFFFFFFFFFFFFFFFFFFFFFFFFFFFFFFFF
310
FFFFFFFFFFFFFFFFFFFFFFFFFFFFFFFFFFFFFFFFFFFFFFFFFFFFFFFFFFFFFFFF
310
FFFFFFFFFFFFFFFFFFFFFFFFFFFFFFFFFFFFFFFFFFFFFFFFF000FFFFFFFFFFFF
310
FFFFFFFFFFFFFFFFFFFFFFFFFFFFFFFFFFFFFFFFFFFFFFFFFFFFFFFFFFFFFFFF
310
FFFFFFFFFFFFFFFFFFFFFFFFFFFFFFFFFFFFFFFFFFFFFFFFFFFFFFFFFFFFFFFF
310
FFFFFFFFFFFFFFFFFFFFFFFFFFFFFFFFF000FFFFFFFFFFFFFFFFFFFFFFFFFFFF
310
FFFFFFFFFFFFFFFFFFFFFFFFFFFFFFFFFFFFFFFFFFFFFFFFFFFFFFFFFFFFFFFF
310
FFFFFFFFFFFFFFFFFFFFFFFFFFFFFFFFFFFFFFFFFFFFFFFFFFFFFFFFFFFFFFFF
310
FFFFFFFFFFFFFFFFF000FFFFFFFFFFFFFFFFFFFFFFFFFFFFFFFFFFFFFFFFFFFF
310
FFFFFFFFFFFFFFFFFFFFFFFFFFFFFFFFFFFFFFFFFFFFFFFFFFFFFFFFFFFFFFFF
310
FFFFFFFFFFFFFFFFFFFFFFFFFFFFFFFFFFFFFFFFFFFFFFFFFFFFFFFFFFFFFFFF
310
F000FFFFFFFFFFFFFFFFFFFFFFFFFFFFFFFFFFFFFFFFFFFFFFFFFFFFFFFFFFFF
310
FFFFFFFFFFFFFFFFFFFFFFFFFFFFFFFFFFFFFFFFFFFFFFFFFFFFFFFFFFFFFFFF
310
FFFFFFFFFFFFFFFFFFFFFFFFFFFFFFFFFFFFFFFFFFFFFFFFF000FFFFFFFFFFFF
310
FFFFFFFFFFFFFFFFFFFFFFFFFFFFFFFFFFFFFFFFFFFFFFFFFFFFFFFFFFFFFFFF
310
FFFFFFFFFFFFFFFFFFFFFFFFFFFFFFFFFFFFFFFFFFFFFFFFFFFFFFFFFFFFFFFF
310
FFFFFFFFFFFFFFFFFFFFFFFFFFFFFFFFF0000000000000000000000000000000
310
0000000000000000000000000000000000000000000000000000000000000000
310
0000000000000000000000000000000000000000000000000000000000000000
310
0000000000000000000000000000000000000000000000000000000000000000
310
0000000000000000000000000000000000000000000000000000000000000000
310
0000000000000000000000000000000000000000000000000000000000000000
310
0000000000000000000000000000000000000000000000000000000000000000
310
0000000000000000000000000000000000000000000000000000000000000000
310
0000000000000000000000000000000000000000000000000000000000000000
310
0000000000000000000000000000000000000000000000000000000000000000
310
0000000000000000000000000000000000000000000000000000000000000000
310
0000000000000000000000000000000000000000000000000000000000000000
310
0000000000000000000000000000000000000000000000000000000000000000
310
0000000000000000000000000000000000000000000000000000000000000000
310
0000000000000000000000000000000000000000000000000000000000000000
310
0000000000000000000000000000000000000000000000000000000000000000
  1
OLE
  0
ENDSEC
  0
SECTION
  2
OBJECTS
  0
DICTIONARY
  5
C
330
0
100
AcDbDictionary
281
     1
  3
ACAD_GROUP
350
D
  3
ACAD_LAYOUT
350
1A
  3
ACAD_MLINESTYLE
350
17
  3
ACAD_PLOTSETTINGS
350
19
  3
ACAD_PLOTSTYLENAME
350
E
  3
ACAD_SCALELIST
350
47
  0
DICTIONARY
  5
D
102
{ACAD_REACTORS
330
C
102
}
330
C
100
AcDbDictionary
281
     1
  0
DICTIONARY
  5
1A
102
{ACAD_REACTORS
330
C
102
}
330
C
100
AcDbDictionary
281
     1
  3
Layout1
350
1E
  3
Layout2
350
26
  3
Model
350
22
  0
DICTIONARY
  5
17
102
{ACAD_REACTORS
330
C
102
}
330
C
100
AcDbDictionary
281
     1
  3
Standard
350
18
  0
DICTIONARY
  5
19
102
{ACAD_REACTORS
330
C
102
}
330
C
100
AcDbDictionary
281
     1
  0
ACDBDICTIONARYWDFLT
  5
E
102
{ACAD_REACTORS
330
C
102
}
330
C
100
AcDbDictionary
281
     1
  3
Normal
350
F
100
AcDbDictionaryWithDefault
340
F
  0
DICTIONARY
  5
47
102
{ACAD_REACTORS
330
C
102
}
330
C
100
AcDbDictionary
281
     1
  3
A0
350
48
  3
A1
350
49
  3
A2
350
4A
  3
A3
350
4B
  3
A4
350
4C
  3
A5
350
4D
  3
A6
350
4E
  3
A7
350
4F
  3
A8
350
50
  3
A9
350
51
  3
B0
350
52
  3
B1
350
53
  3
B2
350
54
  3
B3
350
55
  3
B4
350
56
  3
B5
350
57
  3
B6
350
58
  3
B7
350
59
  3
B8
350
5A
  3
B9
350
5B
  3
C0
350
5C
  3
C1
350
5D
  3
C2
350
5E
  3
C3
350
5F
  3
C4
350
60
  3
C5
350
61
  3
C6
350
62
  3
C7
350
63
  3
C8
350
64
  3
C9
350
65
  3
D0
350
66
  3
D1
350
67
  3
D2
350
68
  0
LAYOUT
  5
1E
102
{ACAD_REACTORS
330
1A
102
}
330
1A
100
AcDbPlotSettings
  1

  2
none_device
  4

  6

 40
0.0
 41
0.0
 42
0.0
 43
0.0
 44
0.0
 45
0.0
 46
0.0
 47
0.0
 48
0.0
 49
0.0
140
0.0
141
0.0
142
1.0
143
1.0
 70
   688
 72
     1
 73
     0
 74
     5
  7

 75
    16
147
1.0
148
0.0
149
0.0
100
AcDbLayout
  1
Layout1
 70
     1
 71
     1
 10
0.0
 20
0.0
 11
420.0
 21
297.0
 12
0.0
 22
0.0
 32
0.0
 14
1.0000000000E+20
 24
1.0000000000E+20
 34
1.0000000000E+20
 15
-1.0000000000E+20
 25
-1.0000000000E+20
 35
-1.0000000000E+20
146
0.0
 13
0.0
 23
0.0
 33
0.0
 16
1.0
 26
0.0
 36
0.0
 17
0.0
 27
1.0
 37
0.0
 76
     0
330
1B
  0
LAYOUT
  5
26
102
{ACAD_REACTORS
330
1A
102
}
330
1A
100
AcDbPlotSettings
  1

  2
none_device
  4

  6

 40
0.0
 41
0.0
 42
0.0
 43
0.0
 44
0.0
 45
0.0
 46
0.0
 47
0.0
 48
0.0
 49
0.0
140
0.0
141
0.0
142
1.0
143
1.0
 70
   688
 72
     1
 73
     0
 74
     5
  7

 75
    16
147
1.0
148
0.0
149
0.0
100
AcDbLayout
  1
Layout2
 70
     1
 71
     2
 10
0.0
 20
0.0
 11
0.0
 21
0.0
 12
0.0
 22
0.0
 32
0.0
 14
0.0
 24
0.0
 34
0.0
 15
0.0
 25
0.0
 35
0.0
146
0.0
 13
0.0
 23
0.0
 33
0.0
 16
1.0
 26
0.0
 36
0.0
 17
0.0
 27
1.0
 37
0.0
 76
     0
330
23
  0
LAYOUT
  5
22
102
{ACAD_REACTORS
330
1A
102
}
330
1A
100
AcDbPlotSettings
  1

  2
none_device
  4
Letter_(8.50_x_11.00_Inches)
  6

 40
6.35
 41
6.35
 42
6.35000508
 43
6.35000508
 44
215.9
 45
279.4
 46
0.0
 47
0.0
 48
0.0
 49
0.0
140
0.0
141
0.0
142
1.0
143
1.0
 70
  1712
 72
     1
 73
     0
 74
     0
  7

 75
     0
147
1.0
148
0.0
149
0.0
100
AcDbLayout
  1
Model
 70
     1
 71
     0
 10
0.0
 20
0.0
 11
297.0
 21
210.0
 12
0.0
 22
0.0
 32
0.0
 14
0.0
 24
0.0
 34
0.0
 15
297.0
 25
210.0
 35
0.0
146
0.0
 13
0.0
 23
0.0
 33
0.0
 16
1.0
 26
0.0
 36
0.0
 17
0.0
 27
1.0
 37
0.0
 76
     0
330
1F
331
29
  0
MLINESTYLE
  5
18
102
{ACAD_REACTORS
330
17
102
}
330
17
100
AcDbMlineStyle
  2
Standard
 70
     0
  3

 62
   256
 51
90.0
 52
90.0
 71
     2
 49
0.5
 62
   256
  6
BYLAYER
 49
-0.5
 62
   256
  6
BYLAYER
  0
ACDBPLACEHOLDER
  5
F
102
{ACAD_REACTORS
330
E
102
}
330
E
  0
SCALE
  5
48
102
{ACAD_REACTORS
330
47
102
}
330
47
100
AcDbScale
 70
     0
300
1:1
140
1.0
141
1.0
290
     1
  0
SCALE
  5
49
102
{ACAD_REACTORS
330
47
102
}
330
47
100
AcDbScale
 70
     0
300
1:2
140
1.0
141
2.0
290
     0
  0
SCALE
  5
4A
102
{ACAD_REACTORS
330
47
102
}
330
47
100
AcDbScale
 70
     0
300
1:4
140
1.0
141
4.0
290
     0
  0
SCALE
  5
4B
102
{ACAD_REACTORS
330
47
102
}
330
47
100
AcDbScale
 70
     0
300
1:5
140
1.0
141
5.0
290
     0
  0
SCALE
  5
4C
102
{ACAD_REACTORS
330
47
102
}
330
47
100
AcDbScale
 70
     0
300
1:8
140
1.0
141
8.0
290
     0
  0
SCALE
  5
4D
102
{ACAD_REACTORS
330
47
102
}
330
47
100
AcDbScale
 70
     0
300
1:10
140
1.0
141
10.0
290
     0
  0
SCALE
  5
4E
102
{ACAD_REACTORS
330
47
102
}
330
47
100
AcDbScale
 70
     0
300
1:16
140
1.0
141
16.0
290
     0
  0
SCALE
  5
4F
102
{ACAD_REACTORS
330
47
102
}
330
47
100
AcDbScale
 70
     0
300
1:20
140
1.0
141
20.0
290
     0
  0
SCALE
  5
50
102
{ACAD_REACTORS
330
47
102
}
330
47
100
AcDbScale
 70
     0
300
1:30
140
1.0
141
30.0
290
     0
  0
SCALE
  5
51
102
{ACAD_REACTORS
330
47
102
}
330
47
100
AcDbScale
 70
     0
300
1:40
140
1.0
141
40.0
290
     0
  0
SCALE
  5
52
102
{ACAD_REACTORS
330
47
102
}
330
47
100
AcDbScale
 70
     0
300
1:50
140
1.0
141
50.0
290
     0
  0
SCALE
  5
53
102
{ACAD_REACTORS
330
47
102
}
330
47
100
AcDbScale
 70
     0
300
1:100
140
1.0
141
100.0
290
     0
  0
SCALE
  5
54
102
{ACAD_REACTORS
330
47
102
}
330
47
100
AcDbScale
 70
     0
300
2:1
140
2.0
141
1.0
290
     0
  0
SCALE
  5
55
102
{ACAD_REACTORS
330
47
102
}
330
47
100
AcDbScale
 70
     0
300
4:1
140
4.0
141
1.0
290
     0
  0
SCALE
  5
56
102
{ACAD_REACTORS
330
47
102
}
330
47
100
AcDbScale
 70
     0
300
8:1
140
8.0
141
1.0
290
     0
  0
SCALE
  5
57
102
{ACAD_REACTORS
330
47
102
}
330
47
100
AcDbScale
 70
     0
300
10:1
140
10.0
141
1.0
290
     0
  0
SCALE
  5
58
102
{ACAD_REACTORS
330
47
102
}
330
47
100
AcDbScale
 70
     0
300
100:1
140
100.0
141
1.0
290
     0
  0
SCALE
  5
59
102
{ACAD_REACTORS
330
47
102
}
330
47
100
AcDbScale
 70
     0
300
1/128" = 1'-0"
140
0.0078125
141
12.0
290
     0
  0
SCALE
  5
5A
102
{ACAD_REACTORS
330
47
102
}
330
47
100
AcDbScale
 70
     0
300
1/64" = 1'-0"
140
0.015625
141
12.0
290
     0
  0
SCALE
  5
5B
102
{ACAD_REACTORS
330
47
102
}
330
47
100
AcDbScale
 70
     0
300
1/32" = 1'-0"
140
0.03125
141
12.0
290
     0
  0
SCALE
  5
5C
102
{ACAD_REACTORS
330
47
102
}
330
47
100
AcDbScale
 70
     0
300
1/16" = 1'-0"
140
0.0625
141
12.0
290
     0
  0
SCALE
  5
5D
102
{ACAD_REACTORS
330
47
102
}
330
47
100
AcDbScale
 70
     0
300
3/32" = 1'-0"
140
0.09375
141
12.0
290
     0
  0
SCALE
  5
5E
102
{ACAD_REACTORS
330
47
102
}
330
47
100
AcDbScale
 70
     0
300
1/8" = 1'-0"
140
0.125
141
12.0
290
     0
  0
SCALE
  5
5F
102
{ACAD_REACTORS
330
47
102
}
330
47
100
AcDbScale
 70
     0
300
3/16" = 1'-0"
140
0.1875
141
12.0
290
     0
  0
SCALE
  5
60
102
{ACAD_REACTORS
330
47
102
}
330
47
100
AcDbScale
 70
     0
300
1/4" = 1'-0"
140
0.25
141
12.0
290
     0
  0
SCALE
  5
61
102
{ACAD_REACTORS
330
47
102
}
330
47
100
AcDbScale
 70
     0
300
3/8" = 1'-0"
140
0.375
141
12.0
290
     0
  0
SCALE
  5
62
102
{ACAD_REACTORS
330
47
102
}
330
47
100
AcDbScale
 70
     0
300
1/2" = 1'-0"
140
0.5
141
12.0
290
     0
  0
SCALE
  5
63
102
{ACAD_REACTORS
330
47
102
}
330
47
100
AcDbScale
 70
     0
300
3/4" = 1'-0"
140
0.75
141
12.0
290
     0
  0
SCALE
  5
64
102
{ACAD_REACTORS
330
47
102
}
330
47
100
AcDbScale
 70
     0
300
1" = 1'-0"
140
1.0
141
12.0
290
     0
  0
SCALE
  5
65
102
{ACAD_REACTORS
330
47
102
}
330
47
100
AcDbScale
 70
     0
300
1-1/2" = 1'-0"
140
1.5
141
12.0
290
     0
  0
SCALE
  5
66
102
{ACAD_REACTORS
330
47
102
}
330
47
100
AcDbScale
 70
     0
300
3" = 1'-0"
140
3.0
141
12.0
290
     0
  0
SCALE
  5
67
102
{ACAD_REACTORS
330
47
102
}
330
47
100
AcDbScale
 70
     0
300
6" = 1'-0"
140
6.0
141
12.0
290
     0
  0
SCALE
  5
68
102
{ACAD_REACTORS
330
47
102
}
330
47
100
AcDbScale
 70
     0
300
1'-0" = 1'-0"
140
12.0
141
12.0
290
     0
  0
ENDSEC
  0
EOF
