  0
SECTION
  2
HEADER
  9
$ACADVER
  1
AC1015
  9
$ACADMAINTVER
 70
     6
  9
$DWGCODEPAGE
  3
ANSI_1252
  9
$INSBASE
 10
0.0
 20
0.0
 30
0.0
  9
$EXTMIN
 10
0.0
 20
0.0
 30
0.0
  9
$EXTMAX
 10
297.0
 20
210.0
 30
0.0
  9
$LIMMIN
 10
0.0
 20
0.0
  9
$LIMMAX
 10
297.0
 20
210.0
  9
$ORTHOMODE
 70
     0
  9
$REGENMODE
 70
     1
  9
$FILLMODE
 70
     1
  9
$QTEXTMODE
 70
     0
  9
$MIRRTEXT
 70
     1
  9
$LTSCALE
 40
1.0
  9
$ATTMODE
 70
     1
  9
$TEXTSIZE
 40
2.0
  9
$TRACEWID
 40
1.0
  9
$TEXTSTYLE
  7
Standard
  9
$CLAYER
  8
0
  9
$CELTYPE
  6
ByLayer
  9
$CECOLOR
 62
   256
  9
$CELTSCALE
 40
1.0
  9
$DISPSILH
 70
     0
  9
$DIMSCALE
 40
1.0
  9
$DIMASZ
 40
3.0
  9
$DIMEXO
 40
0.0
  9
$DIMDLI
 40
3.75
  9
$DIMRND
 40
0.0
  9
$DIMDLE
 40
0.0
  9
$DIMEXE
 40
1.0
  9
$DIMTP
 40
0.0
  9
$DIMTM
 40
0.0
  9
$DIMTXT
 40
2.0
  9
$DIMCEN
 40
2.5
  9
$DIMTSZ
 40
0.0
  9
$DIMTOL
 70
     0
  9
$DIMLIM
 70
     0
  9
$DIMTIH
 70
     1
  9
$DIMTOH
 70
     1
  9
$DIMSE1
 70
     0
  9
$DIMSE2
 70
     0
  9
$DIMTAD
 70
     1
  9
$DIMZIN
 70
     0
  9
$DIMBLK
  1

  9
$DIMASO
 70
     1
  9
$DIMSHO
 70
     1
  9
$DIMPOST
  1

  9
$DIMAPOST
  1

  9
$DIMALT
 70
     0
  9
$DIMALTD
 70
     3
  9
$DIMALTF
 40
0.0393700787
  9
$DIMLFAC
 40
2.0
  9
$DIMTOFL
 70
     1
  9
$DIMTVP
 40
0.0
  9
$DIMTIX
 70
     0
  9
$DIMSOXD
 70
     0
  9
$DIMSAH
 70
     0
  9
$DIMBLK1
  1

  9
$DIMBLK2
  1

  9
$DIMSTYLE
  2
ISO-25
  9
$DIMCLRD
 70
     0
  9
$DIMCLRE
 70
     0
  9
$DIMCLRT
 70
     0
  9
$DIMTFAC
 40
1.0
  9
$DIMGAP
 40
1.524
  9
$DIMJUST
 70
     0
  9
$DIMSD1
 70
     0
  9
$DIMSD2
 70
     0
  9
$DIMTOLJ
 70
     0
  9
$DIMTZIN
 70
     0
  9
$DIMALTZ
 70
     0
  9
$DIMALTTZ
 70
     0
  9
$DIMUPT
 70
     0
  9
$DIMDEC
 70
     2
  9
$DIMTDEC
 70
     3
  9
$DIMALTU
 70
     2
  9
$DIMALTTD
 70
     3
  9
$DIMTXSTY
  7
Standard
  9
$DIMAUNIT
 70
     0
  9
$DIMADEC
 70
     2
  9
$DIMALTRND
 40
0.0
  9
$DIMAZIN
 70
     0
  9
$DIMDSEP
 70
    44
  9
$DIMATFIT
 70
     3
  9
$DIMFRAC
 70
     0
  9
$DIMLDRBLK
  1

  9
$DIMLUNIT
 70
     2
  9
$DIMLWD
 70
    -2
  9
$DIMLWE
 70
    -2
  9
$DIMTMOVE
 70
     0
  9
$LUNITS
 70
     2
  9
$LUPREC
 70
     2
  9
$SKETCHINC
 40
1.0
  9
$FILLETRAD
 40
10.0
  9
$AUNITS
 70
     0
  9
$AUPREC
 70
     2
  9
$MENU
  1
.
  9
$ELEVATION
 40
0.0
  9
$PELEVATION
 40
0.0
  9
$THICKNESS
 40
0.0
  9
$LIMCHECK
 70
     0
  9
$CHAMFERA
 40
0.0
  9
$CHAMFERB
 40
0.0
  9
$CHAMFERC
 40
0.0
  9
$CHAMFERD
 40
0.0
  9
$SKPOLY
 70
     0
  9
$TDCREATE
 40
2458166.4456011
  9
$TDUCREATE
 40
2458166.403934433
  9
$TDUPDATE
 40
2458166.445604526
  9
$TDUUPDATE
 40
2458166.403937859
  9
$TDINDWG
 40
0.0000000116
  9
$TDUSRTIMER
 40
0.0000000116
  9
$USRTIMER
 70
     1
  9
$ANGBASE
 50
0.0
  9
$ANGDIR
 70
     0
  9
$PDMODE
 70
     0
  9
$PDSIZE
 40
-1.0
  9
$PLINEWID
 40
0.0
  9
$SPLFRAME
 70
     0
  9
$SPLINETYPE
 70
     6
  9
$SPLINESEGS
 70
     8
  9
$HANDSEED
  5
2C1
  9
$SURFTAB1
 70
     6
  9
$SURFTAB2
 70
     6
  9
$SURFTYPE
 70
     6
  9
$SURFU
 70
     6
  9
$SURFV
 70
     6
  9
$UCSBASE
  2

  9
$UCSNAME
  2

  9
$UCSORG
 10
0.0
 20
0.0
 30
0.0
  9
$UCSXDIR
 10
1.0
 20
0.0
 30
0.0
  9
$UCSYDIR
 10
0.0
 20
1.0
 30
0.0
  9
$UCSORTHOREF
  2

  9
$UCSORTHOVIEW
 70
     0
  9
$UCSORGTOP
 10
0.0
 20
0.0
 30
0.0
  9
$UCSORGBOTTOM
 10
0.0
 20
0.0
 30
0.0
  9
$UCSORGLEFT
 10
0.0
 20
0.0
 30
0.0
  9
$UCSORGRIGHT
 10
0.0
 20
0.0
 30
0.0
  9
$UCSORGFRONT
 10
0.0
 20
0.0
 30
0.0
  9
$UCSORGBACK
 10
0.0
 20
0.0
 30
0.0
  9
$PUCSBASE
  2

  9
$PUCSNAME
  2

  9
$PUCSORG
 10
0.0
 20
0.0
 30
0.0
  9
$PUCSXDIR
 10
1.0
 20
0.0
 30
0.0
  9
$PUCSYDIR
 10
0.0
 20
1.0
 30
0.0
  9
$PUCSORTHOREF
  2

  9
$PUCSORTHOVIEW
 70
     0
  9
$PUCSORGTOP
 10
0.0
 20
0.0
 30
0.0
  9
$PUCSORGBOTTOM
 10
0.0
 20
0.0
 30
0.0
  9
$PUCSORGLEFT
 10
0.0
 20
0.0
 30
0.0
  9
$PUCSORGRIGHT
 10
0.0
 20
0.0
 30
0.0
  9
$PUCSORGFRONT
 10
0.0
 20
0.0
 30
0.0
  9
$PUCSORGBACK
 10
0.0
 20
0.0
 30
0.0
  9
$USERI1
 70
     0
  9
$USERI2
 70
     0
  9
$USERI3
 70
     0
  9
$USERI4
 70
     0
  9
$USERI5
 70
     0
  9
$USERR1
 40
0.0
  9
$USERR2
 40
0.0
  9
$USERR3
 40
0.0
  9
$USERR4
 40
0.0
  9
$USERR5
 40
0.0
  9
$WORLDVIEW
 70
     1
  9
$SHADEDGE
 70
     3
  9
$SHADEDIF
 70
    70
  9
$TILEMODE
 70
     1
  9
$MAXACTVP
 70
    64
  9
$PINSBASE
 10
0.0
 20
0.0
 30
0.0
  9
$PLIMCHECK
 70
     0
  9
$PEXTMIN
 10
1.0000000000E+20
 20
1.0000000000E+20
 30
1.0000000000E+20
  9
$PEXTMAX
 10
-1.0000000000E+20
 20
-1.0000000000E+20
 30
-1.0000000000E+20
  9
$PLIMMIN
 10
0.0
 20
0.0
  9
$PLIMMAX
 10
420.0
 20
297.0
  9
$UNITMODE
 70
     0
  9
$VISRETAIN
 70
     1
  9
$PLINEGEN
 70
     0
  9
$PSLTSCALE
 70
     1
  9
$TREEDEPTH
 70
  3020
  9
$CMLSTYLE
  2
Standard
  9
$CMLJUST
 70
     0
  9
$CMLSCALE
 40
20.0
  9
$PROXYGRAPHICS
 70
     1
  9
$MEASUREMENT
 70
     1
  9
$CELWEIGHT
370
    -1
  9
$ENDCAPS
280
     0
  9
$JOINSTYLE
280
     0
  9
$LWDISPLAY
290
     1
  9
$INSUNITS
 70
     4
  9
$HYPERLINKBASE
  1

  9
$STYLESHEET
  1

  9
$XEDIT
290
     1
  9
$CEPSNTYPE
380
     0
  9
$PSTYLEMODE
290
     1
  9
$FINGERPRINTGUID
  2
{9C8B2D19-7464-4555-B1F3-BF03A1A2AF8E}
  9
$VERSIONGUID
  2
{FAEB1C32-E019-11D5-929B-00C0DF256EC4}
  9
$EXTNAMES
290
     1
  9
$PSVPSCALE
 40
0.0
  9
$OLESTARTUP
290
     0
  0
ENDSEC
  0
SECTION
  2
CLASSES
  0
CLASS
  1
ACDBDICTIONARYWDFLT
  2
AcDbDictionaryWithDefault
  3
ObjectDBX Classes
 90
        0
280
     0
281
     0
  0
CLASS
  1
VISUALSTYLE
  2
AcDbVisualStyle
  3
ObjectDBX Classes
 90
     4095
280
     0
281
     0
  0
CLASS
  1
MATERIAL
  2
AcDbMaterial
  3
ObjectDBX Classes
 90
     1153
280
     0
281
     0
  0
CLASS
  1
SCALE
  2
AcDbScale
  3
ObjectDBX Classes
 90
     1153
280
     0
281
     0
  0
CLASS
  1
TABLESTYLE
  2
AcDbTableStyle
  3
ObjectDBX Classes
 90
     4095
280
     0
281
     0
  0
CLASS
  1
MLEADERSTYLE
  2
AcDbMLeaderStyle
  3
ACDB_MLEADERSTYLE_CLASS
 90
     4095
280
     0
281
     0
  0
CLASS
  1
SUN
  2
AcDbSun
  3
SCENEOE
 90
     1153
280
     0
281
     0
  0
CLASS
  1
ACDBPLACEHOLDER
  2
AcDbPlaceHolder
  3
ObjectDBX Classes
 90
        0
280
     0
281
     0
  0
CLASS
  1
LAYOUT
  2
AcDbLayout
  3
ObjectDBX Classes
 90
        0
280
     0
281
     0
  0
ENDSEC
  0
SECTION
  2
TABLES
  0
TABLE
  2
VPORT
  5
8
330
0
100
AcDbSymbolTable
 70
     1
  0
VPORT
  5
29
330
8
100
AcDbSymbolTableRecord
100
AcDbViewportTableRecord
  2
*Active
 70
     0
 10
0.0
 20
0.0
 11
1.0
 21
1.0
 12
148.5
 22
105.0
 13
0.0
 23
0.0
 14
10.0
 24
10.0
 15
10.0
 25
10.0
 16
0.0
 26
0.0
 36
1.0
 17
0.0
 27
0.0
 37
0.0
 40
210.0
 41
1.4142857143
 42
50.0
 43
0.0
 44
0.0
 50
0.0
 51
0.0
 71
     0
 72
  2000
 73
     1
 74
     3
 75
     0
 76
     0
 77
     0
 78
     0
281
     0
 65
     1
110
0.0
120
0.0
130
0.0
111
1.0
121
0.0
131
0.0
112
0.0
122
1.0
132
0.0
 79
     0
146
0.0
  0
ENDTAB
  0
TABLE
  2
LTYPE
  5
5
330
0
100
AcDbSymbolTable
 70
     6
  0
LTYPE
  5
14
330
5
100
AcDbSymbolTableRecord
100
AcDbLinetypeTableRecord
  2
ByBlock
 70
     0
  3

 72
    65
 73
     0
 40
0.0
  0
LTYPE
  5
15
330
5
100
AcDbSymbolTableRecord
100
AcDbLinetypeTableRecord
  2
ByLayer
 70
     0
  3

 72
    65
 73
     0
 40
0.0
  0
LTYPE
  5
16
330
5
100
AcDbSymbolTableRecord
100
AcDbLinetypeTableRecord
  2
Continuous
 70
     0
  3
Solid line
 72
    65
 73
     0
 40
0.0
  0
LTYPE
  5
6E
330
5
100
AcDbSymbolTableRecord
100
AcDbLinetypeTableRecord
  2
HIDDEN
 70
     0
  3
Hidden __ __ __ __ __ __ __ __ __ __ __ __ __ __
 72
    65
 73
     2
 40
1.905
 49
1.27
 74
     0
 49
-0.635
 74
     0
  0
LTYPE
  5
6F
330
5
100
AcDbSymbolTableRecord
100
AcDbLinetypeTableRecord
  2
PHANTOM
 70
     0
  3
Phantom ______  __  __  ______  __  __  ______
 72
    65
 73
     6
 40
12.7
 49
6.35
 74
     0
 49
-1.27
 74
     0
 49
1.27
 74
     0
 49
-1.27
 74
     0
 49
1.27
 74
     0
 49
-1.27
 74
     0
  0
LTYPE
  5
70
330
5
100
AcDbSymbolTableRecord
100
AcDbLinetypeTableRecord
  2
CENTER
 70
     0
  3
Center ____ _ ____ _ ____ _ ____ _ ____ _ ____
 72
    65
 73
     4
 40
10.16
 49
6.35
 74
     0
 49
-1.27
 74
     0
 49
1.27
 74
     0
 49
-1.27
 74
     0
  0
LTYPE
  5
71
330
5
100
AcDbSymbolTableRecord
100
AcDbLinetypeTableRecord
  2
CENTERX2
 70
     0
  3
Center (2x) ________  __  ________  __  _____
 72
    65
 73
     4
 40
20.32
 49
12.7
 74
     0
 49
-2.54
 74
     0
 49
2.54
 74
     0
 49
-2.54
 74
     0
  0
LTYPE
  5
72
330
5
100
AcDbSymbolTableRecord
100
AcDbLinetypeTableRecord
  2
DOT2
 70
     0
  3
Dot (.5x) ........................................
 72
    65
 73
     2
 40
0.635
 49
0.0
 74
     0
 49
-0.635
 74
     0
  0
ENDTAB
  0
TABLE
  2
LAYER
  5
2
330
0
100
AcDbSymbolTable
 70
     5
  0
LAYER
  5
10
330
2
100
AcDbSymbolTableRecord
100
AcDbLayerTableRecord
  2
0
 70
     0
 62
     7
  6
Continuous
370
    -3
390
F
  0
LAYER
  5
73
330
2
100
AcDbSymbolTableRecord
100
AcDbLayerTableRecord
  2
FORMAT
 70
     0
 62
     7
  6
Continuous
370
    -3
390
F
  0
LAYER
  5
74
330
2
100
AcDbSymbolTableRecord
100
AcDbLayerTableRecord
  2
VERMASSUNG
 70
     0
 62
     7
  6
Continuous
370
    -3
390
F
  0
LAYER
  5
75
330
2
100
AcDbSymbolTableRecord
100
AcDbLayerTableRecord
  2
KOPF_DÜNN
 70
     0
 62
     7
  6
Continuous
370
    -3
390
F
  0
LAYER
  5
76
330
2
100
AcDbSymbolTableRecord
100
AcDbLayerTableRecord
  2
KOPF_DICK
 70
     0
 62
     7
  6
Continuous
370
    25
390
F
  0
ENDTAB
  0
TABLE
  2
STYLE
  5
3
330
0
100
AcDbSymbolTable
 70
     2
  0
STYLE
  5
11
330
3
100
AcDbSymbolTableRecord
100
AcDbTextStyleTableRecord
  2
Standard
 70
     0
 40
0.0
 41
1.0
 50
0.0
 71
     0
 42
2.0
  3
txt
  4

  0
STYLE
  5
77
330
3
100
AcDbSymbolTableRecord
100
AcDbTextStyleTableRecord
  2
SLDTEXTSTYLE0
 70
     0
 40
0.0
 41
0.7
 50
0.0
 71
     0
 42
2.0
  3
TXT
  4

  0
ENDTAB
  0
TABLE
  2
VIEW
  5
6
330
0
100
AcDbSymbolTable
 70
     0
  0
ENDTAB
  0
TABLE
  2
UCS
  5
7
330
0
100
AcDbSymbolTable
 70
     0
  0
ENDTAB
  0
TABLE
  2
APPID
  5
9
330
0
100
AcDbSymbolTable
 70
     1
  0
APPID
  5
12
330
9
100
AcDbSymbolTableRecord
100
AcDbRegAppTableRecord
  2
ACAD
 70
     0
  0
ENDTAB
  0
TABLE
  2
DIMSTYLE
  5
A
330
0
100
AcDbSymbolTable
 70
     4
100
AcDbDimStyleTable
  0
DIMSTYLE
105
27
330
A
100
AcDbSymbolTableRecord
100
AcDbDimStyleTableRecord
  2
ISO-25
 70
     0
 41
2.5
 42
0.625
 43
3.75
 44
1.25
 73
     0
 74
     0
 77
     1
 78
     8
140
2.5
141
2.5
143
0.0393700787
147
0.625
171
     3
172
     1
178
     0
271
     2
272
     2
274
     3
278
    44
283
     0
284
     8
340
11
  0
DIMSTYLE
105
1F8
102
{ACAD_REACTORS
330
1F7
102
}
330
A
100
AcDbSymbolTableRecord
100
AcDbDimStyleTableRecord
  2
SLDDIMSTYLE0
 70
     0
 41
3.0
 44
0.0
 45
0.000000001
 73
     0
 74
     0
 76
     1
 77
     1
 78
    12
 79
     3
140
2.0
147
0.5
173
     1
178
     0
271
     2
272
     3
276
     2
282
     1
284
    12
340
77
  0
DIMSTYLE
105
202
102
{ACAD_REACTORS
330
201
330
21B
330
225
330
22F
102
}
330
A
100
AcDbSymbolTableRecord
100
AcDbDimStyleTableRecord
  2
SLDDIMSTYLE1
 70
     0
 41
3.0
 44
0.0
 45
0.000000001
 73
     0
 74
     0
 77
     1
 78
    12
 79
     3
140
2.0
147
0.5
173
     1
178
     0
271
     2
272
     3
276
     2
284
    12
340
77
  0
DIMSTYLE
105
20E
102
{ACAD_REACTORS
330
20D
102
}
330
A
100
AcDbSymbolTableRecord
100
AcDbDimStyleTableRecord
  2
SLDDIMSTYLE2
 70
     0
 41
3.0
 44
0.0
 45
0.000000001
 73
     0
 74
     0
 77
     1
 78
    12
 79
     3
140
2.0
147
0.5
173
     1
178
     0
271
     1
272
     3
276
     2
284
    12
340
77
  0
ENDTAB
  0
TABLE
  2
BLOCK_RECORD
  5
1
330
0
100
AcDbSymbolTable
 70
     7
  0
BLOCK_RECORD
  5
1F
330
1
100
AcDbSymbolTableRecord
100
AcDbBlockTableRecord
  2
*Model_Space
340
22
  0
BLOCK_RECORD
  5
1B
330
1
100
AcDbSymbolTableRecord
100
AcDbBlockTableRecord
  2
*Paper_Space
340
1E
  0
BLOCK_RECORD
  5
23
330
1
100
AcDbSymbolTableRecord
100
AcDbBlockTableRecord
  2
*Paper_Space0
340
26
  0
BLOCK_RECORD
  5
1F9
330
1
100
AcDbSymbolTableRecord
100
AcDbBlockTableRecord
  2
_D
340
0
  0
BLOCK_RECORD
  5
203
330
1
100
AcDbSymbolTableRecord
100
AcDbBlockTableRecord
  2
_D_1
340
0
  0
BLOCK_RECORD
  5
20F
330
1
100
AcDbSymbolTableRecord
100
AcDbBlockTableRecord
  2
_D_2
340
0
  0
BLOCK_RECORD
  5
21C
330
1
100
AcDbSymbolTableRecord
100
AcDbBlockTableRecord
  2
_D_3
340
0
  0
BLOCK_RECORD
  5
226
330
1
100
AcDbSymbolTableRecord
100
AcDbBlockTableRecord
  2
_D_4
340
0
  0
BLOCK_RECORD
  5
230
330
1
100
AcDbSymbolTableRecord
100
AcDbBlockTableRecord
  2
_D_5
340
0
  0
ENDTAB
  0
ENDSEC
  0
SECTION
  2
BLOCKS
  0
BLOCK
  5
20
330
1F
100
AcDbEntity
  8
0
100
AcDbBlockBegin
  2
*Model_Space
 70
     0
 10
0.0
 20
0.0
 30
0.0
  3
*Model_Space
  1

  0
ENDBLK
  5
21
330
1F
100
AcDbEntity
  8
0
100
AcDbBlockEnd
  0
BLOCK
  5
1C
330
1B
100
AcDbEntity
 67
     1
  8
0
100
AcDbBlockBegin
  2
*Paper_Space
 70
     0
 10
0.0
 20
0.0
 30
0.0
  3
*Paper_Space
  1

  0
ENDBLK
  5
1D
330
1B
100
AcDbEntity
 67
     1
  8
0
100
AcDbBlockEnd
  0
BLOCK
  5
24
330
23
100
AcDbEntity
  8
0
100
AcDbBlockBegin
  2
*Paper_Space0
 70
     0
 10
0.0
 20
0.0
 30
0.0
  3
*Paper_Space0
  1

  0
ENDBLK
  5
25
330
23
100
AcDbEntity
  8
0
100
AcDbBlockEnd
  0
BLOCK
  5
1FA
330
1F9
100
AcDbEntity
  8
0
100
AcDbBlockBegin
  2
_D
 70
     0
 10
0.0
 20
0.0
 30
0.0
  3
_D
  1

  0
SOLID
  5
1FC
330
1F9
100
AcDbEntity
  8
VERMASSUNG
100
AcDbTrace
 10
245.3378731313
 20
126.6157358368
 30
0.0
 11
244.8878731313
 21
123.6157358368
 31
0.0
 12
245.7878731313
 22
123.6157358368
 32
0.0
 13
245.7878731313
 23
123.6157358368
 33
0.0
  0
LINE
  5
1FD
330
1F9
100
AcDbEntity
  8
VERMASSUNG
100
AcDbLine
 10
187.836560905
 20
126.6157358368
 30
0.0
 11
246.3378731313
 21
126.6157358368
 31
0.0
  0
LINE
  5
1FE
330
1F9
100
AcDbEntity
  8
VERMASSUNG
100
AcDbLine
 10
245.3378731313
 20
126.6157358368
 30
0.0
 11
245.3378731313
 21
113.4107358795
 31
0.0
  0
MTEXT
  5
1FF
330
1F9
100
AcDbEntity
  8
VERMASSUNG
100
AcDbMText
 10
242.7597378263
 20
113.4107358795
 30
0.0
 40
2.0
 41
0.0
 71
     1
 72
     1
  1
%%c
  7
SLDTEXTSTYLE0
 11
-7.932373437343760E-15
 21
1.0
 31
0.0
 73
     1
 44
1.0
  0
MTEXT
  5
200
330
1F9
100
AcDbEntity
  8
VERMASSUNG
100
AcDbMText
 10
242.559737875
 20
117.0207358938
 30
0.0
 40
2.0
 41
0.0
 71
     1
 72
     1
  1
20
  7
SLDTEXTSTYLE0
 11
-7.932373437343760E-15
 21
1.0
 31
0.0
 73
     1
 44
1.0
  0
ENDBLK
  5
1FB
330
1F9
100
AcDbEntity
  8
0
100
AcDbBlockEnd
  0
BLOCK
  5
204
330
203
100
AcDbEntity
  8
0
100
AcDbBlockBegin
  2
_D_1
 70
     0
 10
0.0
 20
0.0
 30
0.0
  3
_D_1
  1

  0
SOLID
  5
206
330
203
100
AcDbEntity
  8
VERMASSUNG
100
AcDbTrace
 10
256.3662869043
 20
142.6157358368
 30
0.0
 11
255.9162869043
 21
139.6157358368
 31
0.0
 12
256.8162869043
 22
139.6157358368
 32
0.0
 13
256.8162869043
 23
139.6157358368
 33
0.0
  0
SOLID
  5
207
330
203
100
AcDbEntity
  8
VERMASSUNG
100
AcDbTrace
 10
256.3662869043
 20
90.6157358368
 30
0.0
 11
256.8162869043
 21
93.6157358368
 31
0.0
 12
255.9162869043
 22
93.6157358368
 32
0.0
 13
255.9162869043
 23
93.6157358368
 33
0.0
  0
LINE
  5
208
330
203
100
AcDbEntity
  8
VERMASSUNG
100
AcDbLine
 10
206.4695193819
 20
142.6157358368
 30
0.0
 11
257.3662869043
 21
142.6157358368
 31
0.0
  0
LINE
  5
209
330
203
100
AcDbEntity
  8
VERMASSUNG
100
AcDbLine
 10
206.4695193819
 20
90.6157358368
 30
0.0
 11
257.3662869043
 21
90.6157358368
 31
0.0
  0
LINE
  5
20A
330
203
100
AcDbEntity
  8
VERMASSUNG
100
AcDbLine
 10
256.3662869043
 20
142.6157358368
 30
0.0
 11
256.3662869043
 21
90.6157358368
 31
0.0
  0
MTEXT
  5
20B
330
203
100
AcDbEntity
  8
VERMASSUNG
100
AcDbMText
 10
253.7881515994
 20
113.4107358795
 30
0.0
 40
2.0
 41
0.0
 71
     1
 72
     1
  1
%%c
  7
SLDTEXTSTYLE0
 11
-7.932373437343760E-15
 21
1.0
 31
0.0
 73
     1
 44
1.0
  0
MTEXT
  5
20C
330
203
100
AcDbEntity
  8
VERMASSUNG
100
AcDbMText
 10
253.5881516481
 20
117.0207358938
 30
0.0
 40
2.0
 41
0.0
 71
     1
 72
     1
  1
52
  7
SLDTEXTSTYLE0
 11
-7.932373437343760E-15
 21
1.0
 31
0.0
 73
     1
 44
1.0
  0
ENDBLK
  5
205
330
203
100
AcDbEntity
  8
0
100
AcDbBlockEnd
  0
BLOCK
  5
210
330
20F
100
AcDbEntity
  8
0
100
AcDbBlockBegin
  2
_D_2
 70
     0
 10
0.0
 20
0.0
 30
0.0
  3
_D_2
  1

  0
SOLID
  5
212
330
20F
100
AcDbEntity
  8
VERMASSUNG
100
AcDbTrace
 10
57.386535905
 20
148.0907358368
 30
0.0
 11
56.936535905
 21
145.0907358368
 31
0.0
 12
57.836535905
 22
145.0907358368
 32
0.0
 13
57.836535905
 23
145.0907358368
 33
0.0
  0
SOLID
  5
213
330
20F
100
AcDbEntity
  8
VERMASSUNG
100
AcDbTrace
 10
57.386535905
 20
85.1407358368
 30
0.0
 11
57.836535905
 21
88.1407358368
 31
0.0
 12
56.936535905
 22
88.1407358368
 32
0.0
 13
56.936535905
 23
88.1407358368
 33
0.0
  0
LINE
  5
214
330
20F
100
AcDbEntity
  8
VERMASSUNG
100
AcDbLine
 10
132.5707587096
 20
148.0907358368
 30
0.0
 11
56.386535905
 21
148.0907358368
 31
0.0
  0
LINE
  5
215
330
20F
100
AcDbEntity
  8
VERMASSUNG
100
AcDbLine
 10
132.5707587096
 20
85.1407358368
 30
0.0
 11
56.386535905
 21
85.1407358368
 31
0.0
  0
LINE
  5
216
330
20F
100
AcDbEntity
  8
VERMASSUNG
100
AcDbLine
 10
57.386535905
 20
148.0907358368
 30
0.0
 11
57.386535905
 21
85.1407358368
 31
0.0
  0
MTEXT
  5
217
330
20F
100
AcDbEntity
  8
VERMASSUNG
100
AcDbMText
 10
54.6084006488
 20
108.5107372184
 30
0.0
 40
2.0
 41
0.0
 71
     1
 72
     1
  1
KM
  7
SLDTEXTSTYLE0
 11
-7.932373437343760E-15
 21
1.0
 31
0.0
 73
     1
 44
1.0
  0
MTEXT
  5
218
330
20F
100
AcDbEntity
  8
VERMASSUNG
100
AcDbMText
 10
54.8084006001
 20
111.9107370307
 30
0.0
 40
2.0
 41
0.0
 71
     1
 72
     1
  1
%%c
  7
SLDTEXTSTYLE0
 11
-7.932373437343760E-15
 21
1.0
 31
0.0
 73
     1
 44
1.0
  0
MTEXT
  5
219
330
20F
100
AcDbEntity
  8
VERMASSUNG
100
AcDbMText
 10
54.6084006488
 20
115.520737045
 30
0.0
 40
2.0
 41
0.0
 71
     1
 72
     1
  1
63
  7
SLDTEXTSTYLE0
 11
-7.932373437343760E-15
 21
1.0
 31
0.0
 73
     1
 44
1.0
  0
MTEXT
  5
21A
330
20F
100
AcDbEntity
  8
VERMASSUNG
100
AcDbMText
 10
54.6084006488
 20
119.5082369451
 30
0.0
 40
2.0
 41
0.0
 71
     1
 72
     1
  1
XMZ
  7
SLDTEXTSTYLE0
 11
-7.932373437343760E-15
 21
1.0
 31
0.0
 73
     1
 44
1.0
  0
ENDBLK
  5
211
330
20F
100
AcDbEntity
  8
0
100
AcDbBlockEnd
  0
BLOCK
  5
21D
330
21C
100
AcDbEntity
  8
0
100
AcDbBlockBegin
  2
_D_3
 70
     0
 10
0.0
 20
0.0
 30
0.0
  3
_D_3
  1

  0
SOLID
  5
21F
330
21C
100
AcDbEntity
  8
VERMASSUNG
100
AcDbTrace
 10
137.336560905
 20
158.0907358368
 30
0.0
 11
140.336560905
 21
157.6407358368
 31
0.0
 12
140.336560905
 22
158.5407358368
 32
0.0
 13
140.336560905
 23
158.5407358368
 33
0.0
  0
SOLID
  5
220
330
21C
100
AcDbEntity
  8
VERMASSUNG
100
AcDbTrace
 10
219.336560905
 20
158.0907358368
 30
0.0
 11
216.336560905
 21
158.5407358368
 31
0.0
 12
216.336560905
 22
157.6407358368
 32
0.0
 13
216.336560905
 23
157.6407358368
 33
0.0
  0
LINE
  5
221
330
21C
100
AcDbEntity
  8
VERMASSUNG
100
AcDbLine
 10
137.336560905
 20
148.0907358368
 30
0.0
 11
137.336560905
 21
159.0907358368
 31
0.0
  0
LINE
  5
222
330
21C
100
AcDbEntity
  8
VERMASSUNG
100
AcDbLine
 10
219.336560905
 20
135.3415953152
 30
0.0
 11
219.336560905
 21
159.0907358368
 31
0.0
  0
LINE
  5
223
330
21C
100
AcDbEntity
  8
VERMASSUNG
100
AcDbLine
 10
137.336560905
 20
158.0907358368
 30
0.0
 11
219.336560905
 21
158.0907358368
 31
0.0
  0
MTEXT
  5
224
330
21C
100
AcDbEntity
  8
VERMASSUNG
100
AcDbMText
 10
176.9365609549
 20
160.6688714327
 30
0.0
 40
2.0
 41
0.0
 71
     1
 72
     1
  1
82
  7
SLDTEXTSTYLE0
 73
     1
 44
1.0
  0
ENDBLK
  5
21E
330
21C
100
AcDbEntity
  8
0
100
AcDbBlockEnd
  0
BLOCK
  5
227
330
226
100
AcDbEntity
  8
0
100
AcDbBlockBegin
  2
_D_4
 70
     0
 10
0.0
 20
0.0
 30
0.0
  3
_D_4
  1

  0
SOLID
  5
229
330
226
100
AcDbEntity
  8
VERMASSUNG
100
AcDbTrace
 10
119.336560905
 20
166.24478779
 30
0.0
 11
122.336560905
 21
165.79478779
 31
0.0
 12
122.336560905
 22
166.69478779
 32
0.0
 13
122.336560905
 23
166.69478779
 33
0.0
  0
SOLID
  5
22A
330
226
100
AcDbEntity
  8
VERMASSUNG
100
AcDbTrace
 10
219.336560905
 20
166.24478779
 30
0.0
 11
216.336560905
 21
166.69478779
 31
0.0
 12
216.336560905
 22
165.79478779
 32
0.0
 13
216.336560905
 23
165.79478779
 33
0.0
  0
LINE
  5
22B
330
226
100
AcDbEntity
  8
VERMASSUNG
100
AcDbLine
 10
119.336560905
 20
147.8907358368
 30
0.0
 11
119.336560905
 21
167.24478779
 31
0.0
  0
LINE
  5
22C
330
226
100
AcDbEntity
  8
VERMASSUNG
100
AcDbLine
 10
219.336560905
 20
135.3415953152
 30
0.0
 11
219.336560905
 21
167.24478779
 31
0.0
  0
LINE
  5
22D
330
226
100
AcDbEntity
  8
VERMASSUNG
100
AcDbLine
 10
119.336560905
 20
166.24478779
 30
0.0
 11
219.336560905
 21
166.24478779
 31
0.0
  0
MTEXT
  5
22E
330
226
100
AcDbEntity
  8
VERMASSUNG
100
AcDbMText
 10
167.4365608729
 20
168.8229233859
 30
0.0
 40
2.0
 41
0.0
 71
     1
 72
     1
  1
100
  7
SLDTEXTSTYLE0
 73
     1
 44
1.0
  0
ENDBLK
  5
228
330
226
100
AcDbEntity
  8
0
100
AcDbBlockEnd
  0
BLOCK
  5
231
330
230
100
AcDbEntity
  8
0
100
AcDbBlockBegin
  2
_D_5
 70
     0
 10
0.0
 20
0.0
 30
0.0
  3
_D_5
  1

  0
SOLID
  5
233
330
230
100
AcDbEntity
  8
VERMASSUNG
100
AcDbTrace
 10
79.386560905
 20
174.6016138358
 30
0.0
 11
82.386560905
 21
174.1516138358
 31
0.0
 12
82.386560905
 22
175.0516138358
 32
0.0
 13
82.386560905
 23
175.0516138358
 33
0.0
  0
SOLID
  5
234
330
230
100
AcDbEntity
  8
VERMASSUNG
100
AcDbTrace
 10
219.336560905
 20
174.6016138358
 30
0.0
 11
216.336560905
 21
175.0516138358
 31
0.0
 12
216.336560905
 22
174.1516138358
 32
0.0
 13
216.336560905
 23
174.1516138358
 33
0.0
  0
LINE
  5
235
330
230
100
AcDbEntity
  8
VERMASSUNG
100
AcDbLine
 10
79.386560905
 20
138.8188305606
 30
0.0
 11
79.386560905
 21
175.6016138358
 31
0.0
  0
LINE
  5
236
330
230
100
AcDbEntity
  8
VERMASSUNG
100
AcDbLine
 10
219.336560905
 20
135.3415953152
 30
0.0
 11
219.336560905
 21
175.6016138358
 31
0.0
  0
LINE
  5
237
330
230
100
AcDbEntity
  8
VERMASSUNG
100
AcDbLine
 10
79.386560905
 20
174.6016138358
 30
0.0
 11
219.336560905
 21
174.6016138358
 31
0.0
  0
MTEXT
  5
238
330
230
100
AcDbEntity
  8
VERMASSUNG
100
AcDbMText
 10
145.7615609668
 20
177.1797494317
 30
0.0
 40
2.0
 41
0.0
 71
     1
 72
     1
  1
139.95
  7
SLDTEXTSTYLE0
 73
     1
 44
1.0
  0
ENDBLK
  5
232
330
230
100
AcDbEntity
  8
0
100
AcDbBlockEnd
  0
ENDSEC
  0
SECTION
  2
ENTITIES
  0
MTEXT
  5
78
330
1F
100
AcDbEntity
  8
KOPF_DÜNN
100
AcDbMText
 10
13.8892156294
 20
23.8442973028
 30
0.0
 40
3.0
 41
0.0
 71
     1
 72
     1
  1
KY6.W20.K01.100
  7
SLDTEXTSTYLE0
 73
     1
 44
1.0
  0
MTEXT
  5
79
330
1F
100
AcDbEntity
  8
VERMASSUNG
100
AcDbMText
 10
13.9329988022
 20
28.8834360957
 30
0.0
 40
3.0
 41
0.0
 71
     1
 72
     1
  1
Flächenspannfutter Weldon_End mill adapter Weldon
  7
SLDTEXTSTYLE0
 73
     1
 44
1.0
  0
MTEXT
  5
7A
330
1F
100
AcDbEntity
  8
VERMASSUNG
100
AcDbMText
 10
98.8601118557
 20
13.8365368761
 30
0.0
 40
2.0
 41
0.0
 71
     1
 72
     1
  1
Datum: 16.02.2018
  7
SLDTEXTSTYLE0
 73
     1
 44
1.0
  0
MTEXT
  5
7B
330
1F
100
AcDbEntity
  8
VERMASSUNG
100
AcDbMText
 10
13.933048693
 20
18.0482802738
 30
0.0
 40
2.0
 41
0.0
 71
     1
 72
     1
  1
KM63 XMZ / Ø20
  7
SLDTEXTSTYLE0
 73
     1
 44
1.0
  0
MTEXT
  5
7C
330
1F
100
AcDbEntity
  8
VERMASSUNG
100
AcDbMText
 10
13.9808475933
 20
13.9090974274
 30
0.0
 40
2.0
 41
0.0
 71
     1
 72
     1
  1
Gewicht: 1799g
  7
SLDTEXTSTYLE0
 73
     1
 44
1.0
  0
SPLINE
  5
7D
330
1F
100
AcDbEntity
  8
0
  6
Continuous
 62
     7
370
    25
100
AcDbSpline
210
0.0
220
0.0
230
1.0
 70
     8
 71
     3
 72
     8
 73
     4
 74
     0
 42
0.000000001
 43
0.00000001
 40
0.0
 40
0.0
 40
0.0
 40
0.0
 40
1.0
 40
1.0
 40
1.0
 40
1.0
 10
367.3091315827506
 20
112.2457349648096
 30
0.0
 10
367.2402932125639
 20
112.1826402914907
 30
0.0
 10
367.1718618521078
 20
112.1189179133599
 30
0.0
 10
367.103845577443
 20
112.0545724810865
 30
0.0
  0
SPLINE
  5
7E
330
1F
100
AcDbEntity
  8
0
  6
Continuous
 62
     7
370
    25
100
AcDbSpline
210
0.0
220
0.0
230
1.0
 70
     8
 71
     3
 72
     8
 73
     4
 74
     0
 42
0.000000001
 43
0.00000001
 40
0.0
 40
0.0
 40
0.0
 40
0.0
 40
1.0
 40
1.0
 40
1.0
 40
1.0
 10
367.5671588240113
 20
112.0764731348823
 30
0.0
 10
367.4804553898509
 20
112.1326340545515
 30
0.0
 10
367.3944573423671
 20
112.1890587908774
 30
0.0
 10
367.3091315827506
 20
112.2457349648096
 30
0.0
  0
ARC
  5
7F
330
1F
100
AcDbEntity
  8
0
  6
Continuous
 62
     7
370
    25
100
AcDbCircle
 10
377.6982716924
 20
116.6157358368
 30
0.0
 40
11.10154736189901
100
AcDbArc
 50
204.1348482805
 51
335.8651517195
  0
SPLINE
  5
80
330
1F
100
AcDbEntity
  8
0
  6
Continuous
 62
     7
370
    25
100
AcDbSpline
210
0.0
220
0.0
230
1.0
 70
     8
 71
     3
 72
     8
 73
     4
 74
     0
 42
0.000000001
 43
0.00000001
 40
0.0
 40
0.0
 40
0.0
 40
0.0
 40
1.0
 40
1.0
 40
1.0
 40
1.0
 10
388.0874118020164
 20
112.2457349648096
 30
0.0
 10
388.0020860423999
 20
112.1890587908774
 30
0.0
 10
387.9160879949161
 20
112.1326340545515
 30
0.0
 10
387.8293845607557
 20
112.0764731348823
 30
0.0
  0
SPLINE
  5
81
330
1F
100
AcDbEntity
  8
0
  6
Continuous
 62
     7
370
    25
100
AcDbSpline
210
0.0
220
0.0
230
1.0
 70
     8
 71
     3
 72
     8
 73
     4
 74
     0
 42
0.000000001
 43
0.00000001
 40
0.0
 40
0.0
 40
0.0
 40
0.0
 40
1.0
 40
1.0
 40
1.0
 40
1.0
 10
388.292697807324
 20
112.0545724810865
 30
0.0
 10
388.2246815326592
 20
112.1189179133599
 30
0.0
 10
388.1562501722032
 20
112.1826402914907
 30
0.0
 10
388.0874118020164
 20
112.2457349648096
 30
0.0
  0
ARC
  5
82
330
1F
100
AcDbEntity
  8
0
  6
Continuous
 62
     7
370
    25
100
AcDbCircle
 10
377.6982716924
 20
116.6157358368
 30
0.0
 40
11.53456006379121
100
AcDbArc
 50
203.2930774359
 51
336.7074733161
  0
ARC
  5
83
330
1F
100
AcDbEntity
  8
0
  6
Continuous
 62
     7
370
    25
100
AcDbCircle
 10
377.6982716924
 20
116.6157358368
 30
0.0
 40
11.10154736189895
100
AcDbArc
 50
29.4783538465
 51
150.5216461535
  0
SPLINE
  5
84
330
1F
100
AcDbEntity
  8
0
  6
Continuous
 62
     7
370
    25
100
AcDbSpline
210
0.0
220
0.0
230
1.0
 70
     8
 71
     3
 72
     8
 73
     4
 74
     0
 42
0.000000001
 43
0.00000001
 40
0.0
 40
0.0
 40
0.0
 40
0.0
 40
1.0
 40
1.0
 40
1.0
 40
1.0
 10
367.7223386430591
 20
121.8940350861637
 30
0.0
 10
367.825234556883
 20
121.9560036952546
 30
0.0
 10
367.9290742264379
 20
122.0175823473952
 30
0.0
 10
368.0339121146645
 20
122.0787485386667
 30
0.0
  0
SPLINE
  5
85
330
1F
100
AcDbEntity
  8
0
  6
Continuous
 62
     7
370
    25
100
AcDbSpline
210
0.0
220
0.0
230
1.0
 70
     8
 71
     3
 72
     8
 73
     4
 74
     0
 42
0.000000001
 43
0.00000001
 40
0.0
 40
0.0
 40
0.0
 40
0.0
 40
1.0
 40
1.0
 40
1.0
 40
1.0
 10
367.5338022619452
 20
122.0682249070333
 30
0.0
 10
367.5963705703148
 20
122.0097744379257
 30
0.0
 10
367.6592171636786
 20
121.9517104273926
 30
0.0
 10
367.7223386430615
 20
121.8940350861614
 30
0.0
  0
ARC
  5
86
330
1F
100
AcDbEntity
  8
0
  6
Continuous
 62
     7
370
    25
100
AcDbCircle
 10
377.6982716924
 20
116.6157358368
 30
0.0
 40
11.53456006379119
100
AcDbArc
 50
28.2102805322
 51
151.7902347364
  0
SPLINE
  5
87
330
1F
100
AcDbEntity
  8
0
  6
Continuous
 62
     7
370
    25
100
AcDbSpline
210
0.0
220
0.0
230
1.0
 70
     8
 71
     3
 72
     8
 73
     4
 74
     0
 42
0.000000001
 43
0.00000001
 40
0.0
 40
0.0
 40
0.0
 40
0.0
 40
1.0
 40
1.0
 40
1.0
 40
1.0
 10
387.6742047417058
 20
121.8940350861618
 30
0.0
 10
387.7373262210886
 20
121.9517104273929
 30
0.0
 10
387.8001728144523
 20
122.0097744379258
 30
0.0
 10
387.8627411228218
 20
122.0682249070333
 30
0.0
  0
SPLINE
  5
88
330
1F
100
AcDbEntity
  8
0
  6
Continuous
 62
     7
370
    25
100
AcDbSpline
210
0.0
220
0.0
230
1.0
 70
     8
 71
     3
 72
     8
 73
     4
 74
     0
 42
0.000000001
 43
0.00000001
 40
0.0
 40
0.0
 40
0.0
 40
0.0
 40
1.0
 40
1.0
 40
1.0
 40
1.0
 10
387.3626312701026
 20
122.0787485386667
 30
0.0
 10
387.4674691583288
 20
122.0175823473954
 30
0.0
 10
387.5713088278833
 20
121.9560036952551
 30
0.0
 10
387.6742047417068
 20
121.8940350861644
 30
0.0
  0
LINE
  5
89
330
1F
100
AcDbEntity
  8
0
  6
Continuous
 62
     7
370
    25
100
AcDbLine
 10
367.7223386431
 20
121.8940350862
 30
0.0
 11
367.9307469646
 21
121.6457358368
 31
0.0
  0
LINE
  5
8A
330
1F
100
AcDbEntity
  8
0
  6
Continuous
 62
     7
370
    25
100
AcDbLine
 10
369.180960275
 20
122.0787485387
 30
0.0
 11
368.0339121147
 21
122.0787485387
 31
0.0
  0
SPLINE
  5
8B
330
1F
100
AcDbEntity
  8
0
  6
Continuous
 62
     7
370
    25
100
AcDbSpline
210
0.0
220
0.0
230
1.0
 70
     8
 71
     3
 72
     8
 73
     4
 74
     0
 42
0.000000001
 43
0.00000001
 40
0.0000004089325119
 40
0.0000004089325119
 40
0.0000004089325119
 40
0.0000004089325119
 40
0.0015399868451459
 40
0.0015399868451459
 40
0.0015399868451459
 40
0.0015399868451459
 10
369.1809602749546
 20
122.0787485386667
 30
0.0
 10
369.3927215337491
 20
122.0062936560133
 30
0.0
 10
369.6046418569393
 20
121.9339547859848
 30
0.0
 10
369.8167598401536
 20
121.8617612405589
 30
0.0
  0
LINE
  5
8C
330
1F
100
AcDbEntity
  8
0
  6
Continuous
 62
     7
370
    25
100
AcDbLine
 10
369.8167598402
 20
121.8617612406
 30
0.0
 11
369.8249126461
 21
121.8465488263
 31
0.0
  0
LINE
  5
8D
330
1F
100
AcDbEntity
  8
0
  6
Continuous
 62
     7
370
    25
100
AcDbLine
 10
369.8225421588
 20
121.6457360062
 30
0.0
 11
369.824913644
 21
121.8465489601
 31
0.0
  0
LINE
  5
8E
330
1F
100
AcDbEntity
  8
0
  6
Continuous
 62
     7
370
    25
100
AcDbLine
 10
369.8225421588
 20
121.6457358368
 30
0.0
 11
367.9307469646
 21
121.6457358368
 31
0.0
  0
SPLINE
  5
8F
330
1F
100
AcDbEntity
  8
0
  6
Continuous
 62
     7
370
    25
100
AcDbSpline
210
0.0
220
0.0
230
1.0
 70
     8
 71
     3
 72
     8
 73
     4
 74
     0
 42
0.000000001
 43
0.00000001
 40
0.0000004028655191
 40
0.0000004028655191
 40
0.0000004028655191
 40
0.0000004028655191
 40
0.0015137684369673
 40
0.0015137684369673
 40
0.0015137684369673
 40
0.0015137684369673
 10
369.2746770352414
 20
112.2934604329901
 30
0.0
 10
369.0680055476901
 20
112.2211664912754
 30
0.0
 10
368.8613865791495
 20
112.1488350053186
 30
0.0
 10
368.6548102043409
 20
112.0764731348823
 30
0.0
  0
LINE
  5
90
330
1F
100
AcDbEntity
  8
0
  6
Continuous
 62
     7
370
    25
100
AcDbLine
 10
368.6548102043
 20
112.0764731349
 30
0.0
 11
367.567158824
 21
112.0764731349
 31
0.0
  0
LINE
  5
91
330
1F
100
AcDbEntity
  8
0
  6
Continuous
 62
     7
370
    25
100
AcDbLine
 10
367.5321866896
 20
112.5094858368
 30
0.0
 11
367.3091315828
 21
112.2457349648
 31
0.0
  0
LINE
  5
92
330
1F
100
AcDbEntity
  8
0
  6
Continuous
 62
     7
370
    25
100
AcDbLine
 10
369.2997965169
 20
112.5094858368
 30
0.0
 11
367.532401147
 21
112.5094858368
 31
0.0
  0
LINE
  5
93
330
1F
100
AcDbEntity
  8
0
  6
Continuous
 62
     7
370
    25
100
AcDbLine
 10
369.3104538671
 20
112.3519048017
 30
0.0
 11
369.2997965203
 21
112.5094857611
 31
0.0
  0
SPLINE
  5
94
330
1F
100
AcDbEntity
  8
0
  6
Continuous
 62
     7
370
    25
100
AcDbSpline
210
0.0
220
0.0
230
1.0
 70
     8
 71
     3
 72
     8
 73
     4
 74
     0
 42
0.000000001
 43
0.00000001
 40
0.0006523765358269
 40
0.0006523765358269
 40
0.0006523765358269
 40
0.0006523765358269
 40
0.0009043636494504
 40
0.0009043636494504
 40
0.0009043636494504
 40
0.0009043636494504
 10
369.3115539102763
 20
112.3536985304387
 30
0.0
 10
369.2992369157589
 20
112.3336229494565
 30
0.0
 10
369.2869447183548
 20
112.3135435609341
 30
0.0
 10
369.2746770352414
 20
112.2934604329901
 30
0.0
  0
LINE
  5
95
330
1F
100
AcDbEntity
  8
0
  6
Continuous
 62
     7
370
    25
100
AcDbLine
 10
388.087411802
 20
112.2457349648
 30
0.0
 11
387.8643566951
 21
112.5094858368
 31
0.0
  0
LINE
  5
96
330
1F
100
AcDbEntity
  8
0
  6
Continuous
 62
     7
370
    25
100
AcDbLine
 10
387.8293845608
 20
112.0764731349
 30
0.0
 11
386.7417331804
 21
112.0764731349
 31
0.0
  0
SPLINE
  5
97
330
1F
100
AcDbEntity
  8
0
  6
Continuous
 62
     7
370
    25
100
AcDbSpline
210
0.0
220
0.0
230
1.0
 70
     8
 71
     3
 72
     8
 73
     4
 74
     0
 42
0.000000001
 43
0.00000001
 40
0.0000004024872366
 40
0.0000004024872366
 40
0.0000004024872366
 40
0.0000004024872366
 40
0.0015137680586847
 40
0.0015137680586847
 40
0.0015137680586847
 40
0.0015137680586847
 10
386.7417331804261
 20
112.0764731348823
 30
0.0
 10
386.5351568056175
 20
112.1488350053186
 30
0.0
 10
386.3285378370769
 20
112.2211664912754
 30
0.0
 10
386.1218663495256
 20
112.2934604329901
 30
0.0
  0
SPLINE
  5
98
330
1F
100
AcDbEntity
  8
0
  6
Continuous
 62
     7
370
    25
100
AcDbSpline
210
0.0
220
0.0
230
1.0
 70
     8
 71
     3
 72
     8
 73
     4
 74
     0
 42
0.000000001
 43
0.00000001
 40
0.0000002414707367
 40
0.0000002414707367
 40
0.0000002414707367
 40
0.0000002414707367
 40
0.0002447240690309
 40
0.0002447240690309
 40
0.0002447240690309
 40
0.0002447240690309
 10
386.1218663495256
 20
112.2934604329901
 30
0.0
 10
386.1099640141705
 20
112.3129454589366
 30
0.0
 10
386.0980386029588
 20
112.332426964761
 30
0.0
 10
386.0860898576639
 20
112.3519048882729
 30
0.0
  0
LINE
  5
99
330
1F
100
AcDbEntity
  8
0
  6
Continuous
 62
     7
370
    25
100
AcDbLine
 10
386.09674685
 20
112.5094857611
 30
0.0
 11
386.0860894984
 21
112.3519048332
 31
0.0
  0
LINE
  5
9A
330
1F
100
AcDbEntity
  8
0
  6
Continuous
 62
     7
370
    25
100
AcDbLine
 10
387.8643566952
 20
112.5094858368
 30
0.0
 11
386.0916382588
 21
112.5094858368
 31
0.0
  0
SPLINE
  5
9B
330
1F
100
AcDbEntity
  8
0
  6
Continuous
 62
     7
370
    25
100
AcDbSpline
210
0.0
220
0.0
230
1.0
 70
     8
 71
     3
 72
     8
 73
     4
 74
     0
 42
0.000000001
 43
0.00000001
 40
0.000000410413179
 40
0.000000410413179
 40
0.000000410413179
 40
0.000000410413179
 40
0.0015399883258131
 40
0.0015399883258131
 40
0.0015399883258131
 40
0.0015399883258131
 10
385.5797835446134
 20
121.8617612405589
 30
0.0
 10
385.7919015278277
 20
121.9339547859848
 30
0.0
 10
386.003821851018
 20
122.0062936560133
 30
0.0
 10
386.2155831098124
 20
122.0787485386667
 30
0.0
  0
LINE
  5
9C
330
1F
100
AcDbEntity
  8
0
  6
Continuous
 62
     7
370
    25
100
AcDbLine
 10
387.3626312701
 20
122.0787485387
 30
0.0
 11
386.2155831098
 21
122.0787485387
 31
0.0
  0
LINE
  5
9D
330
1F
100
AcDbEntity
  8
0
  6
Continuous
 62
     7
370
    25
100
AcDbLine
 10
387.4657964202
 20
121.6457358368
 30
0.0
 11
387.6742047417
 21
121.8940350862
 31
0.0
  0
LINE
  5
9E
330
1F
100
AcDbEntity
  8
0
  6
Continuous
 62
     7
370
    25
100
AcDbLine
 10
387.4656063645
 20
121.6457358368
 30
0.0
 11
385.5740014266
 21
121.6457358368
 31
0.0
  0
LINE
  5
9F
330
1F
100
AcDbEntity
  8
0
  6
Continuous
 62
     7
370
    25
100
AcDbLine
 10
385.5716296397
 20
121.8465487715
 30
0.0
 11
385.5740011499
 21
121.6457360062
 31
0.0
  0
LINE
  5
A0
330
1F
100
AcDbEntity
  8
0
  6
Continuous
 62
     7
370
    25
100
AcDbLine
 10
385.5716306375
 20
121.8465486377
 30
0.0
 11
385.5797835446
 21
121.8617612406
 31
0.0
  0
ARC
  5
A1
330
1F
100
AcDbEntity
  8
0
  6
Continuous
 62
     7
370
    25
100
AcDbCircle
 10
377.6982716924
 20
116.6157358368
 30
0.0
 40
10.11875
100
AcDbArc
 50
206.6538426687
 51
333.3461573313
  0
ARC
  5
A2
330
1F
100
AcDbEntity
  8
0
  6
Continuous
 62
     7
370
    25
100
AcDbCircle
 10
377.6982716924
 20
116.6157358368
 30
0.0
 40
10.11875000000004
100
AcDbArc
 50
32.6761561262
 51
147.3238438738
  0
ARC
  5
A3
330
1F
100
AcDbEntity
  8
0
  6
Continuous
 62
     7
370
    25
100
AcDbCircle
 10
377.6982716924
 20
116.6157358368
 30
0.0
 40
9.467788105676636
100
AcDbArc
 50
33.6481949792
 51
146.3518050208
  0
ARC
  5
A4
330
1F
100
AcDbEntity
  8
0
  6
Continuous
 62
     7
370
    25
100
AcDbCircle
 10
377.6982716924
 20
116.6157358368
 30
0.0
 40
9.467788105676657
100
AcDbArc
 50
207.1630537883
 51
332.8369462117
  0
SPLINE
  5
A5
330
1F
100
AcDbEntity
  8
0
  6
Continuous
 62
     7
370
    25
100
AcDbSpline
210
0.0
220
0.0
230
1.0
 70
     8
 71
     3
 72
     8
 73
     4
 74
     0
 42
0.000000001
 43
0.00000001
 40
0.0
 40
0.0
 40
0.0
 40
0.0
 40
1.0
 40
1.0
 40
1.0
 40
1.0
 10
367.1038455772531
 20
112.0545724811978
 30
0.0
 10
367.0506027523114
 20
112.0550962074356
 30
0.0
 10
366.9973074666957
 20
112.055894300698
 30
0.0
 10
366.9439619612062
 20
112.0569673486228
 30
0.0
  0
LINE
  5
A6
330
1F
100
AcDbEntity
  8
0
  6
Continuous
 62
     7
370
    25
100
AcDbLine
 10
367.3720495593
 20
112.5094858368
 30
0.0
 11
367.5321866896
 21
112.5094858368
 31
0.0
  0
LINE
  5
A7
330
1F
100
AcDbEntity
  8
0
  6
Continuous
 62
     7
370
    25
100
AcDbLine
 10
387.8643566952
 20
112.5094858368
 30
0.0
 11
388.0244938255
 21
112.5094858368
 31
0.0
  0
SPLINE
  5
A8
330
1F
100
AcDbEntity
  8
0
  6
Continuous
 62
     7
370
    25
100
AcDbSpline
210
0.0
220
0.0
230
1.0
 70
     8
 71
     3
 72
     8
 73
     4
 74
     0
 42
0.000000001
 43
0.00000001
 40
0.0
 40
0.0
 40
0.0
 40
0.0
 40
1.0
 40
1.0
 40
1.0
 40
1.0
 10
388.4525814235608
 20
112.0569673486228
 30
0.0
 10
388.3992359180713
 20
112.055894300698
 30
0.0
 10
388.3459406324557
 20
112.0550962074356
 30
0.0
 10
388.2926978075139
 20
112.0545724811978
 30
0.0
  0
LINE
  5
A9
330
1F
100
AcDbEntity
  8
0
  6
Continuous
 62
     7
370
    25
100
AcDbLine
 10
367.9307469646
 20
121.6457358368
 30
0.0
 11
367.8073299808
 21
121.6457358368
 31
0.0
  0
SPLINE
  5
AA
330
1F
100
AcDbEntity
  8
0
  6
Continuous
 62
     7
370
    25
100
AcDbSpline
210
0.0
220
0.0
230
1.0
 70
     8
 71
     3
 72
     8
 73
     4
 74
     0
 42
0.000000001
 43
0.00000001
 40
0.0
 40
0.0
 40
0.0
 40
0.0
 40
1.0
 40
1.0
 40
1.0
 40
1.0
 10
367.4105807677037
 20
122.0661813537108
 30
0.0
 10
367.4516961947456
 20
122.0670502913508
 30
0.0
 10
367.4927704893566
 20
122.0677313289337
 30
0.0
 10
367.5338022618457
 20
122.0682249069952
 30
0.0
  0
SPLINE
  5
AB
330
1F
100
AcDbEntity
  8
0
  6
Continuous
 62
     7
370
    25
100
AcDbSpline
210
0.0
220
0.0
230
1.0
 70
     8
 71
     3
 72
     8
 73
     4
 74
     0
 42
0.000000001
 43
0.00000001
 40
0.0
 40
0.0
 40
0.0
 40
0.0
 40
1.0
 40
1.0
 40
1.0
 40
1.0
 10
387.8627411229212
 20
122.0682249069952
 30
0.0
 10
387.9037728954103
 20
122.0677313289337
 30
0.0
 10
387.9448471900214
 20
122.0670502913509
 30
0.0
 10
387.9859626170633
 20
122.0661813537109
 30
0.0
  0
LINE
  5
AC
330
1F
100
AcDbEntity
  8
0
  6
Continuous
 62
     7
370
    25
100
AcDbLine
 10
387.5892134039
 20
121.6457358368
 30
0.0
 11
387.4657964202
 21
121.6457358368
 31
0.0
  0
SPLINE
  5
AD
330
1F
100
AcDbEntity
  8
0
  6
Continuous
 62
     7
370
    25
100
AcDbSpline
210
0.0
220
0.0
230
1.0
 70
     8
 71
     3
 72
     9
 73
     5
 74
     0
 42
0.000000001
 43
0.00000001
 40
0.0
 40
0.0
 40
0.0
 40
0.0
 40
0.4897878789203994
 40
0.9999999999999999
 40
0.9999999999999999
 40
0.9999999999999999
 40
0.9999999999999999
 10
384.8038612570349
 20
121.8388527030122
 30
0.0
 10
384.9302163392562
 20
121.8401714287655
 30
0.0
 10
385.1881955332283
 20
121.8428638713718
 30
0.0
 10
385.4420902815178
 20
121.8453039492078
 30
0.0
 10
385.5716304595735
 20
121.8465489064961
 30
0.0
  0
ARC
  5
AE
330
1F
100
AcDbEntity
  8
0
  6
Continuous
 62
     7
370
    25
100
AcDbCircle
 10
377.6982716924
 20
116.6157358368
 30
0.0
 40
8.818750000000001
100
AcDbArc
 50
36.3185452201
 51
143.6814533294
  0
SPLINE
  5
AF
330
1F
100
AcDbEntity
  8
0
  6
Continuous
 62
     7
370
    25
100
AcDbSpline
210
0.0
220
0.0
230
1.0
 70
     8
 71
     3
 72
     9
 73
     5
 74
     0
 42
0.000000001
 43
0.00000001
 40
0.0
 40
0.0
 40
0.0
 40
0.0
 40
0.5102121239851395
 40
0.9999999999999999
 40
0.9999999999999999
 40
0.9999999999999999
 40
0.9999999999999999
 10
369.8249128240687
 20
121.8465490951004
 30
0.0
 10
369.9544530419196
 20
121.8453041364096
 30
0.0
 10
370.2083478667604
 20
121.8428640558385
 30
0.0
 10
370.46632713977
 20
121.8401716101454
 30
0.0
 10
370.5926822599534
 20
121.838852882888
 30
0.0
  0
SPLINE
  5
B0
330
1F
100
AcDbEntity
  8
0
  6
Continuous
 62
     7
370
    25
100
AcDbSpline
210
0.0
220
0.0
230
1.0
 70
     8
 71
     3
 72
     8
 73
     4
 74
     0
 42
0.000000001
 43
0.00000001
 40
0.0
 40
0.0
 40
0.0
 40
0.0
 40
1.0
 40
1.0
 40
1.0
 40
1.0
 10
370.5926820062788
 20
121.8388524136108
 30
0.0
 10
370.5849209483333
 20
121.8282941784118
 30
0.0
 10
370.5771834232375
 20
121.8177186448854
 30
0.0
 10
370.569469507868
 20
121.807125918106
 30
0.0
  0
SPLINE
  5
B1
330
1F
100
AcDbEntity
  8
0
  6
Continuous
 62
     7
370
    25
100
AcDbSpline
210
0.0
220
0.0
230
1.0
 70
     8
 71
     3
 72
     8
 73
     4
 74
     0
 42
0.000000001
 43
0.00000001
 40
0.0
 40
0.0
 40
0.0
 40
0.0
 40
1.0
 40
1.0
 40
1.0
 40
1.0
 10
370.3979116751049
 20
121.6457361756428
 30
0.0
 10
370.4551720821394
 20
121.6996443526305
 30
0.0
 10
370.5123584732491
 20
121.7534412777136
 30
0.0
 10
370.569469507868
 20
121.807125918106
 30
0.0
  0
LINE
  5
B2
330
1F
100
AcDbEntity
  8
0
  6
Continuous
 62
     7
370
    25
100
AcDbLine
 10
370.3979123749
 20
121.6457358368
 30
0.0
 11
369.8225418821
 21
121.6457358368
 31
0.0
  0
SPLINE
  5
B3
330
1F
100
AcDbEntity
  8
0
  6
Continuous
 62
     7
370
    25
100
AcDbSpline
210
0.0
220
0.0
230
1.0
 70
     8
 71
     3
 72
     8
 73
     4
 74
     0
 42
0.000000001
 43
0.00000001
 40
0.0
 40
0.0
 40
0.0
 40
0.0
 40
1.0
 40
1.0
 40
1.0
 40
1.0
 10
384.8271893086801
 20
121.8069674038071
 30
0.0
 10
384.8194371959795
 20
121.8176130804797
 30
0.0
 10
384.8116612373122
 20
121.8282413926739
 30
0.0
 10
384.8038615107088
 20
121.8388522337363
 30
0.0
  0
LINE
  5
B4
330
1F
100
AcDbEntity
  8
0
  6
Continuous
 62
     7
370
    25
100
AcDbLine
 10
385.5740014266
 20
121.6457358368
 30
0.0
 11
384.9986024101
 21
121.6457358368
 31
0.0
  0
SPLINE
  5
B5
330
1F
100
AcDbEntity
  8
0
  6
Continuous
 62
     7
370
    25
100
AcDbSpline
210
0.0
220
0.0
230
1.0
 70
     8
 71
     3
 72
     8
 73
     4
 74
     0
 42
0.000000001
 43
0.00000001
 40
0.0
 40
0.0
 40
0.0
 40
0.0
 40
1.0
 40
1.0
 40
1.0
 40
1.0
 10
384.8271893086801
 20
121.8069674038071
 30
0.0
 10
384.8842524363662
 20
121.7533354533913
 30
0.0
 10
384.9413908160965
 20
121.6995913670264
 30
0.0
 10
384.9986031095703
 20
121.6457361757762
 30
0.0
  0
ARC
  5
B6
330
1F
100
AcDbEntity
  8
0
  6
Continuous
 62
     7
370
    25
100
AcDbCircle
 10
377.6982716924
 20
116.6157358368
 30
0.0
 40
8.818749999999996
100
AcDbArc
 50
209.2047569376
 51
330.7952430624
  0
SPLINE
  5
B7
330
1F
100
AcDbEntity
  8
0
  6
Continuous
 62
     7
370
    25
100
AcDbSpline
210
0.0
220
0.0
230
1.0
 70
    24
 71
     3
 72
     8
 73
     4
 74
     0
 42
0.000000001
 43
0.00000001
 40
0.0
 40
0.0
 40
0.0
 40
0.0
 40
0.000136040218399
 40
0.000136040218399
 40
0.000136040218399
 40
0.000136040218399
 10
385.4394070892278
 20
112.3561954059233
 30
0.0
 10
385.4249680895438
 20
112.3417564062392
 30
0.0
 10
385.4104976371814
 20
112.327285953877
 30
0.0
 10
385.39599603863
 20
112.3127843553255
 30
0.0
  0
SPLINE
  5
B8
330
1F
100
AcDbEntity
  8
0
  6
Continuous
 62
     7
370
    25
100
AcDbSpline
210
0.0
220
0.0
230
1.0
 70
     8
 71
     3
 72
     9
 73
     5
 74
     0
 42
0.000000001
 43
0.00000001
 40
0.0
 40
0.0
 40
0.0
 40
0.0
 40
0.5086448740973026
 40
1.0
 40
1.0
 40
1.0
 40
1.0
 10
386.0860898179841
 20
112.3519048001382
 30
0.0
 10
385.9769237689862
 20
112.3525986489832
 30
0.0
 10
385.7623024200705
 20
112.3539627615111
 30
0.0
 10
385.5457911073931
 20
112.3554595814489
 30
0.0
 10
385.4394071640932
 20
112.356195051598
 30
0.0
  0
SPLINE
  5
B9
330
1F
100
AcDbEntity
  8
0
  6
Continuous
 62
     7
370
    25
100
AcDbSpline
210
0.0
220
0.0
230
1.0
 70
     8
 71
     3
 72
     9
 73
     5
 74
     0
 42
0.000000001
 43
0.00000001
 40
0.0
 40
0.0
 40
0.0
 40
0.0
 40
0.4913551252639757
 40
1.0
 40
1.0
 40
1.0
 40
1.0
 10
369.9571362511384
 20
112.3561950211334
 30
0.0
 10
369.8507522997463
 20
112.3554595508045
 30
0.0
 10
369.6342409703186
 20
112.3539627304988
 30
0.0
 10
369.4196196049518
 20
112.3525986176445
 30
0.0
 10
369.3104535474492
 20
112.3519047686326
 30
0.0
  0
SPLINE
  5
BA
330
1F
100
AcDbEntity
  8
0
  6
Continuous
 62
     7
370
    25
100
AcDbSpline
210
0.0
220
0.0
230
1.0
 70
    24
 71
     3
 72
     8
 73
     4
 74
     0
 42
0.000000001
 43
0.00000001
 40
0.0
 40
0.0
 40
0.0
 40
0.0
 40
0.0001360401227241
 40
0.0001360401227241
 40
0.0001360401227241
 40
0.0001360401227241
 10
370.000547346137
 20
112.3127843553255
 30
0.0
 10
369.9860457577843
 20
112.3272859436782
 30
0.0
 10
369.9715753155771
 20
112.3417563858855
 30
0.0
 10
369.9571363260037
 20
112.3561953754588
 30
0.0
  0
LINE
  5
BB
330
1F
100
AcDbEntity
  8
0
  6
Continuous
 62
     7
370
    25
100
AcDbLine
 10
369.2997963983
 20
112.5094858368
 30
0.0
 11
369.8038462704
 21
112.5094858368
 31
0.0
  0
SPLINE
  5
BC
330
1F
100
AcDbEntity
  8
0
  6
Continuous
 62
     7
370
    25
100
AcDbSpline
210
0.0
220
0.0
230
1.0
 70
     8
 71
     3
 72
     8
 73
     4
 74
     0
 42
0.000000001
 43
0.00000001
 40
0.0
 40
0.0
 40
0.0
 40
0.0
 40
1.0
 40
1.0
 40
1.0
 40
1.0
 10
369.9571365258357
 20
112.3561951758717
 30
0.0
 10
369.9060677632312
 20
112.4072376676158
 30
0.0
 10
369.8549708035953
 20
112.4583346396417
 30
0.0
 10
369.8038459620796
 20
112.5094857393829
 30
0.0
  0
SPLINE
  5
BD
330
1F
100
AcDbEntity
  8
0
  6
Continuous
 62
     7
370
    25
100
AcDbSpline
210
0.0
220
0.0
230
1.0
 70
     8
 71
     3
 72
     8
 73
     4
 74
     0
 42
0.000000001
 43
0.00000001
 40
0.0
 40
0.0
 40
0.0
 40
0.0
 40
1.0
 40
1.0
 40
1.0
 40
1.0
 10
385.5926974226875
 20
112.509485739383
 30
0.0
 10
385.5415725913422
 20
112.4583346498277
 30
0.0
 10
385.4904756418612
 20
112.4072376879567
 30
0.0
 10
385.4394068893959
 20
112.3561952063363
 30
0.0
  0
LINE
  5
BE
330
1F
100
AcDbEntity
  8
0
  6
Continuous
 62
     7
370
    25
100
AcDbLine
 10
385.5926971143
 20
112.5094858368
 30
0.0
 11
386.096746972
 21
112.5094858368
 31
0.0
  0
CIRCLE
  5
BF
330
1F
100
AcDbEntity
  8
0
  6
Continuous
 62
     7
370
    25
100
AcDbCircle
 10
377.6982716924
 20
116.6157358368
 30
0.0
 40
12.47086902276419
  0
SPLINE
  5
C0
330
1F
100
AcDbEntity
  8
0
  6
Continuous
 62
     7
370
    25
100
AcDbSpline
210
0.0
220
0.0
230
1.0
 70
     8
 71
     3
 72
    23
 73
    19
 74
     0
 42
0.000000001
 43
0.00000001
 40
0.0
 40
0.0
 40
0.0
 40
0.0
 40
0.0521036415675031
 40
0.1035646240925967
 40
0.1544751946736949
 40
0.2049306267473421
 40
0.2550287880844035
 40
0.3048696389141012
 40
0.3545546704609132
 40
0.4041862979523234
 40
0.4538672252126086
 40
0.5036997999421611
 40
0.5901870230746071
 40
0.674271637822954
 40
0.7565997087222995
 40
0.8378563983721267
 40
0.9187511781367398
 40
1.0
 40
1.0
 40
1.0
 40
1.0
 10
366.859019545726
 20
121.1061465495244
 30
0.0
 10
366.8723139006757
 20
121.1353144426859
 30
0.0
 10
366.8987386347539
 20
121.1932904650899
 30
0.0
 10
366.9379496409778
 20
121.2761897661019
 30
0.0
 10
366.9763915957834
 20
121.3553717471195
 30
0.0
 10
367.0139791772501
 20
121.4306265639215
 30
0.0
 10
367.0506350635576
 20
121.5020462181792
 30
0.0
 10
367.0862849276163
 20
121.5696428269608
 30
0.0
 10
367.1208586743775
 20
121.6334491484253
 30
0.0
 10
367.1542903683335
 20
121.6934926904945
 30
0.0
 10
367.1865172455584
 20
121.7497993872211
 30
0.0
 10
367.2250186824481
 20
121.8152043690448
 30
0.0
 10
367.2676801631615
 20
121.8847654468809
 30
0.0
 10
367.3111732052845
 20
121.9515249435454
 30
0.0
 10
367.3475857021125
 20
122.0032489916432
 30
0.0
 10
367.3764865085897
 20
122.0396973036951
 30
0.0
 10
367.398403964688
 20
122.0622947005782
 30
0.0
 10
367.4065159291813
 20
122.0648839181396
 30
0.0
 10
367.4105807677038
 20
122.0661813537109
 30
0.0
  0
SPLINE
  5
C1
330
1F
100
AcDbEntity
  8
0
  6
Continuous
 62
     7
370
    25
100
AcDbSpline
210
0.0
220
0.0
230
1.0
 70
     8
 71
     3
 72
     8
 73
     4
 74
     0
 42
0.000000001
 43
0.00000001
 40
0.0
 40
0.0
 40
0.0
 40
0.0
 40
1.0
 40
1.0
 40
1.0
 40
1.0
 10
366.7383816058633
 20
121.1039361921146
 30
0.0
 10
366.7785706194562
 20
121.1046665023321
 30
0.0
 10
366.8187329215463
 20
121.1052470281616
 30
0.0
 10
366.8588676320218
 20
121.1056779931114
 30
0.0
  0
SPLINE
  5
C2
330
1F
100
AcDbEntity
  8
0
  6
Continuous
 62
     7
370
    25
100
AcDbSpline
210
0.0
220
0.0
230
1.0
 70
     8
 71
     3
 72
    18
 73
    14
 74
     0
 42
0.000000001
 43
0.00000001
 40
0.0
 40
0.0
 40
0.0
 40
0.0
 40
0.0923824559411628
 40
0.1844689291573508
 40
0.2764953615950219
 40
0.3686975365494161
 40
0.4613092840003458
 40
0.5545607518442569
 40
0.6486768051537182
 40
0.7438756050146744
 40
0.8403674044302629
 40
0.9203921078121001
 40
1.0
 40
1.0
 40
1.0
 40
1.0
 10
366.7913205946627
 20
121.3707531989964
 30
0.0
 10
366.7931562483154
 20
121.3705448867812
 30
0.0
 10
366.7968216743983
 20
121.3701289297591
 30
0.0
 10
366.7996170040175
 20
121.3633245062929
 30
0.0
 10
366.800419299096
 20
121.3519911276408
 30
0.0
 10
366.7990531620528
 20
121.3356907326142
 30
0.0
 10
366.7955916134239
 20
121.3145394937783
 30
0.0
 10
366.7900503076545
 20
121.2885037926618
 30
0.0
 10
366.7824658395856
 20
121.2575794130106
 30
0.0
 10
366.7728888376487
 20
121.2217803815659
 30
0.0
 10
366.76204836163
 20
121.1835294740348
 30
0.0
 10
366.7505597206911
 20
121.1443112606404
 30
0.0
 10
366.7424597358129
 20
121.1174562837909
 30
0.0
 10
366.7384203181702
 20
121.1040638554206
 30
0.0
  0
LINE
  5
C3
330
1F
100
AcDbEntity
  8
0
  6
Continuous
 62
     7
370
    25
100
AcDbLine
 10
366.7385652354
 20
121.3700054816
 30
0.0
 11
366.7913205947
 21
121.370753199
 31
0.0
  0
SPLINE
  5
C4
330
1F
100
AcDbEntity
  8
0
  6
Continuous
 62
     7
370
    25
100
AcDbSpline
210
0.0
220
0.0
230
1.0
 70
     8
 71
     3
 72
    25
 73
    21
 74
     0
 42
0.000000001
 43
0.00000001
 40
0.0
 40
0.0
 40
0.0
 40
0.0
 40
0.0280105225426465
 40
0.0559601148860768
 40
0.0839014045043132
 40
0.1118870776786367
 40
0.1399695827588937
 40
0.1682008401739883
 40
0.196631967042422
 40
0.2253130233141467
 40
0.2542927850735845
 40
0.3799486436587335
 40
0.5057850221667067
 40
0.6313085886338298
 40
0.7532068238012468
 40
0.8039473267955921
 40
0.8535894438554446
 40
0.9025339722394071
 40
0.9511970353791085
 40
1.0
 40
1.0
 40
1.0
 40
1.0
 10
365.8276038276098
 20
118.8030735793088
 30
0.0
 10
365.8345828975208
 20
118.8403835928156
 30
0.0
 10
365.8485258560436
 20
118.9149224608092
 30
0.0
 10
365.8710477534864
 20
119.0262315062924
 30
0.0
 10
365.894681365584
 20
119.1368937153068
 30
0.0
 10
365.919530956072
 20
119.2468778482511
 30
0.0
 10
365.9455495805583
 20
119.3561729918657
 30
0.0
 10
365.9727309618762
 20
119.4647639610678
 30
0.0
 10
366.0010566032087
 20
119.5726346710102
 30
0.0
 10
366.0305153840413
 20
119.6797796167352
 30
0.0
 10
366.0949236719534
 20
119.9039545032471
 30
0.0
 10
366.2000253640252
 20
120.2306199172831
 30
0.0
 10
366.3454881248214
 20
120.616566522603
 30
0.0
 10
366.4847515329311
 20
120.9386463352931
 30
0.0
 10
366.5818998857987
 20
121.1344669193248
 30
0.0
 10
366.642195292025
 20
121.2438143698082
 30
0.0
 10
366.6770838749063
 20
121.3017423942236
 30
0.0
 10
366.7049783768341
 20
121.3421963469885
 30
0.0
 10
366.7263434692057
 20
121.3668105623875
 30
0.0
 10
366.7344874167784
 20
121.3689394898952
 30
0.0
 10
366.7385652354235
 20
121.3700054815666
 30
0.0
  0
ARC
  5
C5
330
1F
100
AcDbEntity
  8
0
  6
Continuous
 62
     7
370
    25
100
AcDbCircle
 10
377.6982716924
 20
116.6157358368
 30
0.0
 40
12.07050959801142
100
AcDbArc
 50
169.5595567507
 51
190.4404432494
  0
SPLINE
  5
C6
330
1F
100
AcDbEntity
  8
0
  6
Continuous
 62
     7
370
    25
100
AcDbSpline
210
0.0
220
0.0
230
1.0
 70
     8
 71
     3
 72
    26
 73
    22
 74
     0
 42
0.000000001
 43
0.00000001
 40
0.0
 40
0.0
 40
0.0
 40
0.0
 40
0.0241259796963635
 40
0.0482159912272988
 40
0.0723203915124065
 40
0.0964895678710797
 40
0.1207736231963513
 40
0.1452220711242836
 40
0.1698835501657706
 40
0.1948055644472379
 40
0.2200342569517627
 40
0.2456142191611387
 40
0.3690971486901655
 40
0.4940698769485187
 40
0.6192566784762451
 40
0.7454656653603225
 40
0.7971495824713707
 40
0.8481710308405392
 40
0.8988013269235234
 40
0.9493179290492194
 40
1.0
 40
1.0
 40
1.0
 40
1.0
 10
366.7385652354235
 20
111.8614661919824
 30
0.0
 10
366.736654920683
 20
111.8617530851719
 30
0.0
 10
366.7328371391908
 20
111.8623264438366
 30
0.0
 10
366.72487701401
 20
111.868385132083
 30
0.0
 10
366.7152979134345
 20
111.8782643928139
 30
0.0
 10
366.7039507065658
 20
111.8923454839243
 30
0.0
 10
366.6908945232719
 20
111.9105410319484
 30
0.0
 10
366.6761386200446
 20
111.9328915746871
 30
0.0
 10
366.6597114397472
 20
111.9594058103792
 30
0.0
 10
366.641643285027
 20
111.9901013210925
 30
0.0
 10
366.621966138604
 20
112.0250024243324
 30
0.0
 10
366.5737667571757
 20
112.1137669594401
 30
0.0
 10
366.4854487177404
 20
112.2910472608889
 30
0.0
 10
366.3463891009736
 20
112.612133167734
 30
0.0
 10
366.2007164211114
 20
112.9987158196245
 30
0.0
 10
366.0869778261019
 20
113.3524235237545
 30
0.0
 10
366.0072722075554
 20
113.6346772233672
 30
0.0
 10
365.9566226352011
 20
113.8291206541415
 30
0.0
 10
365.9096559653357
 20
114.0263620310757
 30
0.0
 10
365.8660961433314
 20
114.2262650761708
 30
0.0
 10
365.8404485781999
 20
114.360947015903
 30
0.0
 10
365.8276038276098
 20
114.4283980942402
 30
0.0
  0
LINE
  5
C7
330
1F
100
AcDbEntity
  8
0
  6
Continuous
 62
     7
370
    25
100
AcDbLine
 10
366.7913205947
 20
111.8607184746
 30
0.0
 11
366.7385652354
 21
111.861466192
 31
0.0
  0
SPLINE
  5
C8
330
1F
100
AcDbEntity
  8
0
  6
Continuous
 62
     7
370
    25
100
AcDbSpline
210
0.0
220
0.0
230
1.0
 70
     8
 71
     3
 72
    14
 73
    10
 74
     0
 42
0.000000001
 43
0.00000001
 40
0.0
 40
0.0
 40
0.0
 40
0.0
 40
0.0789261963172865
 40
0.158232872055133
 40
0.330847539457262
 40
0.5000195457610529
 40
0.6670357883572423
 40
0.8332395193657144
 40
1.0
 40
1.0
 40
1.0
 40
1.0
 10
366.7383237378108
 20
112.1277419518572
 30
0.0
 10
366.7423382844069
 20
112.1144388272196
 30
0.0
 10
366.750386730519
 20
112.0877684475871
 30
0.0
 10
366.7652874373285
 20
112.0369537082673
 30
0.0
 10
366.781184418925
 20
111.9799138920804
 30
0.0
 10
366.7942629139228
 20
111.9256106753525
 30
0.0
 10
366.80049552104
 20
111.8874435326296
 30
0.0
 10
366.8003059412032
 20
111.8640348039528
 30
0.0
 10
366.7943190470724
 20
111.8618251492742
 30
0.0
 10
366.7913205946627
 20
111.8607184745525
 30
0.0
  0
SPLINE
  5
C9
330
1F
100
AcDbEntity
  8
0
  6
Continuous
 62
     7
370
    25
100
AcDbSpline
210
0.0
220
0.0
230
1.0
 70
     8
 71
     3
 72
     8
 73
     4
 74
     0
 42
0.000000001
 43
0.00000001
 40
0.0
 40
0.0
 40
0.0
 40
0.0
 40
1.0
 40
1.0
 40
1.0
 40
1.0
 10
366.8856284290353
 20
112.1256808734068
 30
0.0
 10
366.8365605140066
 20
112.1261679266187
 30
0.0
 10
366.7874510764858
 20
112.1268789944936
 30
0.0
 10
366.7383017319604
 20
112.1278144877279
 30
0.0
  0
SPLINE
  5
CA
330
1F
100
AcDbEntity
  8
0
  6
Continuous
 62
     7
370
    25
100
AcDbSpline
210
0.0
220
0.0
230
1.0
 70
     8
 71
     3
 72
    13
 73
     9
 74
     0
 42
0.000000001
 43
0.00000001
 40
0.0
 40
0.0
 40
0.0
 40
0.0
 40
0.1667030582307992
 40
0.3329480818053035
 40
0.4990671507274896
 40
0.6653938523718403
 40
0.832261271055009
 40
1.0
 40
1.0
 40
1.0
 40
1.0
 10
366.9439619612062
 20
112.0569673486228
 30
0.0
 10
366.9421186473693
 20
112.0573844583886
 30
0.0
 10
366.9384370843995
 20
112.058217531866
 30
0.0
 10
366.930919830605
 20
112.0642320106924
 30
0.0
 10
366.9219690264885
 20
112.0737267429846
 30
0.0
 10
366.9114187380655
 20
112.0871363500943
 30
0.0
 10
366.8994455525484
 20
112.1040542537178
 30
0.0
 10
366.8902391449421
 20
112.1184669888573
 30
0.0
 10
366.8856239544533
 20
112.1256921217188
 30
0.0
  0
SPLINE
  5
CB
330
1F
100
AcDbEntity
  8
0
  6
Continuous
 62
     7
370
    25
100
AcDbSpline
210
0.0
220
0.0
230
1.0
 70
     8
 71
     3
 72
    13
 73
     9
 74
     0
 42
0.000000001
 43
0.00000001
 40
0.0
 40
0.0
 40
0.0
 40
0.0
 40
0.1686319999748085
 40
0.3360343310905433
 40
0.502536782590866
 40
0.6684737453788339
 40
0.834182263691515
 40
1.0
 40
1.0
 40
1.0
 40
1.0
 10
388.5109208114318
 20
112.1256955715317
 30
0.0
 10
388.5062835663336
 20
112.1184384115122
 30
0.0
 10
388.4970428910472
 20
112.10397701087
 30
0.0
 10
388.4850275176801
 20
112.0869963141658
 30
0.0
 10
388.4744619639255
 20
112.0735635329863
 30
0.0
 10
388.4655226146326
 20
112.0640840644324
 30
0.0
 10
388.458041734044
 20
112.0581188387345
 30
0.0
 10
388.4544019267545
 20
112.0573512629501
 30
0.0
 10
388.4525814235608
 20
112.0569673486228
 30
0.0
  0
SPLINE
  5
CC
330
1F
100
AcDbEntity
  8
0
  6
Continuous
 62
     7
370
    25
100
AcDbSpline
210
0.0
220
0.0
230
1.0
 70
     8
 71
     3
 72
     8
 73
     4
 74
     0
 42
0.000000001
 43
0.00000001
 40
0.0
 40
0.0
 40
0.0
 40
0.0
 40
1.0
 40
1.0
 40
1.0
 40
1.0
 10
388.6582464234043
 20
112.1278145924744
 30
0.0
 10
388.609095493796
 20
112.1268790622124
 30
0.0
 10
388.5599844737167
 20
112.1261679717003
 30
0.0
 10
388.5109149788089
 20
112.1256809102023
 30
0.0
  0
SPLINE
  5
CD
330
1F
100
AcDbEntity
  8
0
  6
Continuous
 62
     7
370
    25
100
AcDbSpline
210
0.0
220
0.0
230
1.0
 70
     8
 71
     3
 72
    18
 73
    14
 74
     0
 42
0.000000001
 43
0.00000001
 40
0.0
 40
0.0
 40
0.0
 40
0.0
 40
0.0923325137111192
 40
0.1843692047063016
 40
0.2763458873810836
 40
0.3684982175655623
 40
0.4610598988303626
 40
0.554260954653301
 40
0.6483261285442131
 40
0.74347346365053
 40
0.8399130993119804
 40
0.9201660718299768
 40
1.0
 40
1.0
 40
1.0
 40
1.0
 10
388.6052227901043
 20
111.8607184745525
 30
0.0
 10
388.6033871364519
 20
111.8609267867684
 30
0.0
 10
388.5997217103694
 20
111.8613427437917
 30
0.0
 10
388.596926380747
 20
111.868147167249
 30
0.0
 10
388.5961240856802
 20
111.8794805459348
 30
0.0
 10
388.5974902226794
 20
111.8957809408352
 30
0.0
 10
388.6009517714735
 20
111.9169321801453
 30
0.0
 10
388.6064930766199
 20
111.9429678794729
 30
0.0
 10
388.6140775470471
 20
111.9738922658956
 30
0.0
 10
388.6236545400276
 20
112.0096912716237
 30
0.0
 10
388.6345058870534
 20
112.0479805167374
 30
0.0
 10
388.6460206486853
 20
112.0872861411539
 30
0.0
 10
388.6541523575065
 20
112.1142432190476
 30
0.0
 10
388.6582075691142
 20
112.1276864764971
 30
0.0
  0
LINE
  5
CE
330
1F
100
AcDbEntity
  8
0
  6
Continuous
 62
     7
370
    25
100
AcDbLine
 10
388.6579781493
 20
111.861466192
 30
0.0
 11
388.6052227901
 21
111.8607184746
 31
0.0
  0
SPLINE
  5
CF
330
1F
100
AcDbEntity
  8
0
  6
Continuous
 62
     7
370
    25
100
AcDbSpline
210
0.0
220
0.0
230
1.0
 70
     8
 71
     3
 72
    25
 73
    21
 74
     0
 42
0.000000001
 43
0.00000001
 40
0.0
 40
0.0
 40
0.0
 40
0.0
 40
0.0280105225422753
 40
0.0559601148854256
 40
0.0839014045034749
 40
0.1118870776777086
 40
0.1399695827579646
 40
0.1682008401731476
 40
0.1966319670417595
 40
0.2253130233137476
 40
0.2542927850735311
 40
0.3799486436564626
 40
0.5057850221666382
 40
0.631308588631066
 40
0.7532068238011618
 40
0.8039473267946936
 40
0.8535894438541253
 40
0.9025339722380873
 40
0.9511970353782256
 40
1.0
 40
1.0
 40
1.0
 40
1.0
 10
389.5689395571572
 20
114.4283980942402
 30
0.0
 10
389.5619604872463
 20
114.391088080734
 30
0.0
 10
389.5480175287237
 20
114.3165492127412
 30
0.0
 10
389.5254956312811
 20
114.2052401672591
 30
0.0
 10
389.5018620191837
 20
114.0945779582454
 30
0.0
 10
389.4770124286958
 20
113.9845938253015
 30
0.0
 10
389.4509938042095
 20
113.8752986816869
 30
0.0
 10
389.4238124228916
 20
113.7667077124844
 30
0.0
 10
389.3954867815589
 20
113.6588370025413
 30
0.0
 10
389.366028000726
 20
113.5516920568152
 30
0.0
 10
389.3016197128145
 20
113.3275171703047
 30
0.0
 10
389.1965180207427
 20
113.0008517562687
 30
0.0
 10
389.0510552599475
 20
112.6149051509506
 30
0.0
 10
388.9117918518368
 20
112.292825338258
 30
0.0
 10
388.8146434989696
 20
112.097004754227
 30
0.0
 10
388.7543480927421
 20
111.9876573037404
 30
0.0
 10
388.7194595098609
 20
111.9297292793252
 30
0.0
 10
388.691565007933
 20
111.8892753265603
 30
0.0
 10
388.6701999155614
 20
111.8646611111614
 30
0.0
 10
388.6620559679886
 20
111.8625321836538
 30
0.0
 10
388.6579781493435
 20
111.8614661919824
 30
0.0
  0
ARC
  5
D0
330
1F
100
AcDbEntity
  8
0
  6
Continuous
 62
     7
370
    25
100
AcDbCircle
 10
377.6982716924
 20
116.6157358368
 30
0.0
 40
12.07050959801141
100
AcDbArc
 50
349.5595567507
 51
10.4404432493
  0
SPLINE
  5
D1
330
1F
100
AcDbEntity
  8
0
  6
Continuous
 62
     7
370
    25
100
AcDbSpline
210
0.0
220
0.0
230
1.0
 70
     8
 71
     3
 72
    26
 73
    22
 74
     0
 42
0.000000001
 43
0.00000001
 40
0.0
 40
0.0
 40
0.0
 40
0.0
 40
0.0241259796962591
 40
0.0482159912271133
 40
0.0723203915121637
 40
0.0964895678708023
 40
0.1207736231960627
 40
0.1452220711240065
 40
0.1698835501655268
 40
0.1948055644470484
 40
0.220034256951649
 40
0.2456142191611191
 40
0.3690971486898426
 40
0.4940698769485092
 40
0.6192566784753767
 40
0.7454656653602836
 40
0.7971495824708205
 40
0.848171030839725
 40
0.8988013269227118
 40
0.9493179290486752
 40
1.0
 40
1.0
 40
1.0
 40
1.0
 10
388.6579781493435
 20
121.3700054815666
 30
0.0
 10
388.659888464084
 20
121.3697185883771
 30
0.0
 10
388.6637062455762
 20
121.3691452297124
 30
0.0
 10
388.671666370757
 20
121.3630865414659
 30
0.0
 10
388.6812454713325
 20
121.3532072807351
 30
0.0
 10
388.6925926782012
 20
121.3391261896247
 30
0.0
 10
388.705648861495
 20
121.3209306416005
 30
0.0
 10
388.7204047647224
 20
121.2985800988618
 30
0.0
 10
388.7368319450197
 20
121.2720658631698
 30
0.0
 10
388.75490009974
 20
121.2413703524565
 30
0.0
 10
388.774577246163
 20
121.2064692492166
 30
0.0
 10
388.8227766275911
 20
121.1177047141094
 30
0.0
 10
388.9110946670265
 20
120.9404244126605
 30
0.0
 10
389.050154283793
 20
120.6193385058161
 30
0.0
 10
389.1958269636554
 20
120.232755853925
 30
0.0
 10
389.3095655586646
 20
119.879048149796
 30
0.0
 10
389.3892711772112
 20
119.5967944501836
 30
0.0
 10
389.4399207495653
 20
119.4023510194103
 30
0.0
 10
389.4868874194307
 20
119.2051096424762
 30
0.0
 10
389.5304472414353
 20
119.00520659738
 30
0.0
 10
389.556094806567
 20
118.8705246576467
 30
0.0
 10
389.5689395571572
 20
118.8030735793088
 30
0.0
  0
LINE
  5
D2
330
1F
100
AcDbEntity
  8
0
  6
Continuous
 62
     7
370
    25
100
AcDbLine
 10
388.6052227901
 20
121.370753199
 30
0.0
 11
388.6579781493
 21
121.3700054816
 31
0.0
  0
SPLINE
  5
D3
330
1F
100
AcDbEntity
  8
0
  6
Continuous
 62
     7
370
    25
100
AcDbSpline
210
0.0
220
0.0
230
1.0
 70
     8
 71
     3
 72
    14
 73
    10
 74
     0
 42
0.000000001
 43
0.00000001
 40
0.0
 40
0.0
 40
0.0
 40
0.0
 40
0.0786889129232242
 40
0.1577561817122941
 40
0.3304686003115578
 40
0.4997364082435315
 40
0.6668472316653192
 40
0.8331450833767118
 40
1.0
 40
1.0
 40
1.0
 40
1.0
 10
388.6581310768811
 20
121.1040216897789
 30
0.0
 10
388.6541330679265
 20
121.1172715942947
 30
0.0
 10
388.6461178265957
 20
121.143835112163
 30
0.0
 10
388.6312451533063
 20
121.1945566399318
 30
0.0
 10
388.6153589885441
 20
121.2515577189557
 30
0.0
 10
388.6022804648998
 20
121.3058610145647
 30
0.0
 10
388.5960478652947
 20
121.344028136602
 30
0.0
 10
388.596237443171
 20
121.3674368706776
 30
0.0
 10
388.6022243375635
 20
121.3696465246357
 30
0.0
 10
388.6052227901043
 20
121.3707531989964
 30
0.0
  0
SPLINE
  5
D4
330
1F
100
AcDbEntity
  8
0
  6
Continuous
 62
     7
370
    25
100
AcDbSpline
210
0.0
220
0.0
230
1.0
 70
     8
 71
     3
 72
     8
 73
     4
 74
     0
 42
0.000000001
 43
0.00000001
 40
0.0
 40
0.0
 40
0.0
 40
0.0
 40
1.0
 40
1.0
 40
1.0
 40
1.0
 10
388.5376757361984
 20
121.1056780297442
 30
0.0
 10
388.577808854705
 20
121.1052470757969
 30
0.0
 10
388.6179695626336
 20
121.1046665727845
 30
0.0
 10
388.6581569799765
 20
121.1039362972249
 30
0.0
  0
SPLINE
  5
D5
330
1F
100
AcDbEntity
  8
0
  6
Continuous
 62
     7
370
    25
100
AcDbSpline
210
0.0
220
0.0
230
1.0
 70
     8
 71
     3
 72
    23
 73
    19
 74
     0
 42
0.000000001
 43
0.00000001
 40
0.0
 40
0.0
 40
0.0
 40
0.0
 40
0.0441308420121292
 40
0.0880968635211716
 40
0.1320155028408941
 40
0.1760048571434164
 40
0.2201827305793597
 40
0.2646656976937351
 40
0.3095682184569769
 40
0.355001836559425
 40
0.401074485474427
 40
0.4478899182339682
 40
0.4955472680213688
 40
0.5953670562452651
 40
0.6949121173401501
 40
0.7950007648984784
 40
0.8964386255170008
 40
1.0
 40
1.0
 40
1.0
 40
1.0
 10
387.9859626170633
 20
122.0661813537109
 30
0.0
 10
387.98794700717
 20
122.065898496481
 30
0.0
 10
387.9919083760549
 20
122.0653338384404
 30
0.0
 10
388.0007686802855
 20
122.0589144852616
 30
0.0
 10
388.0117411584078
 20
122.048393235755
 30
0.0
 10
388.0250205564282
 20
122.0333616994453
 30
0.0
 10
388.0405312800945
 20
122.0139094543829
 30
0.0
 10
388.0582627418476
 20
121.9899894764308
 30
0.0
 10
388.0781793885508
 20
121.961588385717
 30
0.0
 10
388.100244922563
 20
121.9286806459163
 30
0.0
 10
388.124415846257
 20
121.8912406632601
 30
0.0
 10
388.1506428563043
 20
121.8492405916302
 30
0.0
 10
388.1889794365354
 20
121.7859634831072
 30
0.0
 10
388.2413122159139
 20
121.6959046207439
 30
0.0
 10
388.309712827122
 20
121.5715585011772
 30
0.0
 10
388.3823979019175
 20
121.4318454231967
 30
0.0
 10
388.4587581378174
 20
121.2775094079683
 30
0.0
 10
388.5110469524676
 20
121.1637867537405
 30
0.0
 10
388.5374621803711
 20
121.1063364204461
 30
0.0
  0
SPLINE
  5
D6
330
1F
100
AcDbEntity
  8
0
  6
Continuous
 62
     7
370
    25
100
AcDbSpline
210
0.0
220
0.0
230
1.0
 70
    11
 71
     3
 72
    39
 73
    35
 74
     0
 42
0.000000001
 43
0.00000001
 40
0.0
 40
0.0
 40
0.0
 40
0.0
 40
0.0310664058348413
 40
0.0621048158426138
 40
0.0931361551796939
 40
0.1235538293503726
 40
0.1538561545809849
 40
0.1850588072749156
 40
0.2160250992946587
 40
0.2471867223797568
 40
0.2784462884304475
 40
0.3100516090231247
 40
0.3419834369138969
 40
0.3734259894013238
 40
0.4048604886787081
 40
0.436874065183343
 40
0.4685120685926471
 40
0.499805535863323
 40
0.5309508213226204
 40
0.5618649784438111
 40
0.5930416446590877
 40
0.623374245013332
 40
0.6540913579072549
 40
0.6849496782718453
 40
0.7158160645166705
 40
0.7471731804043553
 40
0.7784514311866318
 40
0.810129591156098
 40
0.8419598919688388
 40
0.8735175891922303
 40
0.9050808037886594
 40
0.9370235169792582
 40
0.9687441590030581
 40
1.0
 40
1.0
 40
1.0
 40
1.0
 10
380.6023982571809
 20
105.1841056530211
 30
0.0
 10
380.7921100861356
 20
105.2228742297686
 30
0.0
 10
381.1358509365843
 20
105.2993051755516
 30
0.0
 10
381.5188079237919
 20
105.3874447155448
 30
0.0
 10
381.763248390507
 20
105.4343942021898
 30
0.0
 10
381.8442373273233
 20
105.422485277476
 30
0.0
 10
381.7635148818416
 20
105.3505273707606
 30
0.0
 10
381.5236526882219
 20
105.2260071045632
 30
0.0
 10
381.1470029541247
 20
105.068638114738
 30
0.0
 10
380.6407600172968
 20
104.896614030043
 30
0.0
 10
380.0234856236135
 20
104.7316896224574
 30
0.0
 10
379.3110098094736
 20
104.5939770463789
 30
0.0
 10
378.5355445697011
 20
104.5023442338702
 30
0.0
 10
377.7250801360867
 20
104.4690116557747
 30
0.0
 10
376.9125756631243
 20
104.498259101328
 30
0.0
 10
376.1330626729871
 20
104.5865880583156
 30
0.0
 10
375.4147343736517
 20
104.7220935579504
 30
0.0
 10
374.7913622662517
 20
104.8858700794417
 30
0.0
 10
374.2782636716561
 20
105.057876223587
 30
0.0
 10
373.8930615617946
 20
105.2166882380582
 30
0.0
 10
373.6436369565536
 20
105.3439472032236
 30
0.0
 10
373.5530349166072
 20
105.4195541601786
 30
0.0
 10
373.6212464875664
 20
105.4363235568585
 30
0.0
 10
373.8534623539692
 20
105.3935432146433
 30
0.0
 10
374.2306793911534
 20
105.3064165297334
 30
0.0
 10
374.742384258921
 20
105.1916874744264
 30
0.0
 10
375.365855389668
 20
105.0722653293739
 30
0.0
 10
376.0824000928007
 20
104.9676398793246
 30
0.0
 10
376.8607312054117
 20
104.8969913863977
 30
0.0
 10
377.6725626922616
 20
104.8709125619677
 30
0.0
 10
378.4863372142588
 20
104.8939381336584
 30
0.0
 10
379.2687110584242
 20
104.9621705717961
 30
0.0
 10
379.9907240931582
 20
105.0654177515058
 30
0.0
 10
380.4115296130072
 20
105.1451006752023
 30
0.0
 10
380.6023982571808
 20
105.1841056530211
 30
0.0
  0
SPLINE
  5
D7
330
1F
100
AcDbEntity
  8
0
  6
Continuous
 62
     7
370
    25
100
AcDbSpline
210
0.0
220
0.0
230
1.0
 70
    11
 71
     3
 72
    39
 73
    35
 74
     0
 42
0.000000001
 43
0.00000001
 40
0.0
 40
0.0
 40
0.0
 40
0.0
 40
0.0312651429934057
 40
0.0629601069329321
 40
0.0948697276489808
 40
0.1264264963751833
 40
0.1579651393672472
 40
0.1898765439016956
 40
0.221552335268876
 40
0.2527844076550827
 40
0.2838418966734154
 40
0.3148645781100674
 40
0.3459127639308091
 40
0.3763475365526575
 40
0.4066751324671412
 40
0.4379141187435632
 40
0.4688932367345488
 40
0.5000738678969536
 40
0.5313369410958942
 40
0.5629183719104849
 40
0.5948445736343699
 40
0.6262809966135365
 40
0.6577486436587271
 40
0.6897584692806508
 40
0.7214430019610059
 40
0.7527623343195418
 40
0.7839279690572818
 40
0.8148885765585865
 40
0.8460375004982862
 40
0.8763409566916784
 40
0.906758919146387
 40
0.9378312724751761
 40
0.9689189660506093
 40
1.0
 40
1.0
 40
1.0
 40
1.0
 10
380.602294007394
 20
128.0473980729636
 30
0.0
 10
380.4112200711123
 20
128.0864620308443
 30
0.0
 10
379.9902855086727
 20
128.1661810254045
 30
0.0
 10
379.2688961035091
 20
128.2692964407549
 30
0.0
 10
378.4872400552187
 20
128.3374973131788
 30
0.0
 10
377.6741523355079
 20
128.3605542058206
 30
0.0
 10
376.8618721186559
 20
128.3345699321745
 30
0.0
 10
376.0832416936063
 20
128.2639797669363
 30
0.0
 10
375.3665659036949
 20
128.1593642046971
 30
0.0
 10
374.7446906340333
 20
128.0401918796807
 30
0.0
 10
374.2351797005474
 20
127.9262547119545
 30
0.0
 10
373.8600603543032
 20
127.840140433008
 30
0.0
 10
373.6240997794523
 20
127.7960847116721
 30
0.0
 10
373.5526992362708
 20
127.8116145123833
 30
0.0
 10
373.6432956660685
 20
127.8871233945672
 30
0.0
 10
373.892271946428
 20
128.0142969224115
 30
0.0
 10
374.2771867662708
 20
128.1731476010237
 30
0.0
 10
374.7899720730929
 20
128.3451718622337
 30
0.0
 10
375.4124311960178
 20
128.5088449417684
 30
0.0
 10
376.1289313408243
 20
128.6442465151486
 30
0.0
 10
376.9070303749344
 20
128.7327641826314
 30
0.0
 10
377.7187530635814
 20
128.7624715911142
 30
0.0
 10
378.5301952512827
 20
128.7295851464642
 30
0.0
 10
379.3073211427647
 20
128.6381042384194
 30
0.0
 10
380.0217592319353
 20
128.5002200484579
 30
0.0
 10
380.6399821901707
 20
128.335092223608
 30
0.0
 10
381.1463495508966
 20
128.1630416862554
 30
0.0
 10
381.5229020723102
 20
128.0057581645452
 30
0.0
 10
381.7625978837416
 20
127.8813543670612
 30
0.0
 10
381.8440645919359
 20
127.8091661936249
 30
0.0
 10
381.7640053494441
 20
127.7968936852469
 30
0.0
 10
381.5196593434903
 20
127.843789095753
 30
0.0
 10
381.1366859100414
 20
127.9319226438985
 30
0.0
 10
380.7922427788316
 20
128.0085641485084
 30
0.0
 10
380.6022940073941
 20
128.0473980729636
 30
0.0
  0
SPLINE
  5
D8
330
1F
100
AcDbEntity
  8
0
  6
Continuous
 62
     7
370
    25
100
AcDbSpline
210
0.0
220
0.0
230
1.0
 70
     8
 71
     3
 72
    23
 73
    19
 74
     0
 42
0.000000001
 43
0.00000001
 40
0.0
 40
0.0
 40
0.0
 40
0.0
 40
0.0449850911516383
 40
0.0909520670767777
 40
0.1379394291255006
 40
0.1859832248910951
 40
0.2351171761689533
 40
0.2853728096402591
 40
0.3367795876576951
 40
0.3893650370792399
 40
0.4431548745925064
 40
0.498173127394291
 40
0.5575107590849617
 40
0.6265492281305397
 40
0.7053073138942775
 40
0.7937970253739629
 40
0.8920262115920568
 40
1.0
 40
1.0
 40
1.0
 40
1.0
 10
367.8073299808263
 20
121.6457358367745
 30
0.0
 10
367.8051672914607
 20
121.6453069351149
 30
0.0
 10
367.8007947079401
 20
121.6444397702051
 30
0.0
 10
367.7905137487487
 20
121.6373462026041
 30
0.0
 10
367.7774534707188
 20
121.6257334610251
 30
0.0
 10
367.7613343091646
 20
121.6089440908525
 30
0.0
 10
367.7422338815086
 20
121.5868721042378
 30
0.0
 10
367.7201315287527
 20
121.5592746304745
 30
0.0
 10
367.6950310502169
 20
121.5259661992651
 30
0.0
 10
367.6669399188391
 20
121.4867658608584
 30
0.0
 10
367.6358240179869
 20
121.4415238153852
 30
0.0
 10
367.6011850871048
 20
121.3891278829959
 30
0.0
 10
367.5604635788261
 20
121.3263454147767
 30
0.0
 10
367.5117426578013
 20
121.2485884155181
 30
0.0
 10
367.4539683194834
 20
121.1513038579396
 30
0.0
 10
367.3870576698383
 20
121.0315590242205
 30
0.0
 10
367.3111137055449
 20
120.8876388193163
 30
0.0
 10
367.2567525408597
 20
120.7769046144233
 30
0.0
 10
367.2282874767453
 20
120.7189210104994
 30
0.0
  0
LINE
  5
D9
330
1F
100
AcDbEntity
  8
0
  6
Continuous
 62
     7
370
    25
100
AcDbLine
 10
367.2282874767
 20
120.7194473424
 30
0.0
 11
366.8589477388
 21
121.1055318693
 31
0.0
  0
LINE
  5
DA
330
1F
100
AcDbEntity
  8
0
  6
Continuous
 62
     7
370
    25
100
AcDbLine
 10
388.5375630743
 20
121.1054724645
 30
0.0
 11
388.1682963927
 21
120.7194643595
 31
0.0
  0
SPLINE
  5
DB
330
1F
100
AcDbEntity
  8
0
  6
Continuous
 62
     7
370
    25
100
AcDbSpline
210
0.0
220
0.0
230
1.0
 70
     8
 71
     3
 72
    26
 73
    22
 74
     0
 42
0.000000001
 43
0.00000001
 40
0.0
 40
0.0
 40
0.0
 40
0.0
 40
0.0509383868653979
 40
0.0998291548270505
 40
0.1466728126490638
 40
0.1914699456369332
 40
0.2342212299774179
 40
0.274927450668867
 40
0.3135895241747119
 40
0.3502085273716571
 40
0.3847857350077695
 40
0.4173226688482998
 40
0.4478211631571791
 40
0.4762834534603437
 40
0.5027122992246547
 40
0.593906700502561
 40
0.6816015993191188
 40
0.7659159552051488
 40
0.846983628966416
 40
0.9249552229440475
 40
1.0
 40
1.0
 40
1.0
 40
1.0
 10
388.1682963926901
 20
120.7187302802497
 30
0.0
 10
388.154838528492
 20
120.746351061414
 30
0.0
 10
388.1284637786944
 20
120.8004823248673
 30
0.0
 10
388.0900915989154
 20
120.8767903619424
 30
0.0
 10
388.0536254164232
 20
120.9475425415342
 30
0.0
 10
388.0190891667994
 20
121.0127143682223
 30
0.0
 10
387.9864767149465
 20
121.0725726134741
 30
0.0
 10
387.9557894311536
 20
121.1273377730154
 30
0.0
 10
387.9270268148525
 20
121.1772621643274
 30
0.0
 10
387.9001886503801
 20
121.2226043949225
 30
0.0
 10
387.8752750699519
 20
121.2636303338633
 30
0.0
 10
387.8522844231632
 20
121.3006077188104
 30
0.0
 10
387.8312209176735
 20
121.3338038347937
 30
0.0
 10
387.8120685472943
 20
121.363479567061
 30
0.0
 10
387.7803974703494
 20
121.4121498921108
 30
0.0
 10
387.7389275249129
 20
121.4740452100295
 30
0.0
 10
387.6919380087691
 20
121.5393858174532
 30
0.0
 10
387.6533194390542
 20
121.588504208745
 30
0.0
 10
387.6232709793329
 20
121.6219804972572
 30
0.0
 10
387.6009808683637
 20
121.6420979294952
 30
0.0
 10
387.5930855529303
 20
121.6445387633448
 30
0.0
 10
387.5892134039407
 20
121.6457358367745
 30
0.0
  0
SPLINE
  5
DC
330
1F
100
AcDbEntity
  8
0
  6
Continuous
 62
     7
370
    25
100
AcDbSpline
210
0.0
220
0.0
230
1.0
 70
     8
 71
     3
 72
     8
 73
     4
 74
     0
 42
0.000000001
 43
0.00000001
 40
0.0
 40
0.0
 40
0.0
 40
0.0
 40
1.0
 40
1.0
 40
1.0
 40
1.0
 10
385.4399521441838
 20
120.8387341632572
 30
0.0
 10
385.503545124524
 20
120.7730653854104
 30
0.0
 10
385.5675015509593
 20
120.7087230877502
 30
0.0
 10
385.6317004706667
 20
120.6469858367745
 30
0.0
  0
SPLINE
  5
DD
330
1F
100
AcDbEntity
  8
0
  6
Continuous
 62
     7
370
    25
100
AcDbSpline
210
0.0
220
0.0
230
1.0
 70
     8
 71
     3
 72
    25
 73
    21
 74
     0
 42
0.000000001
 43
0.00000001
 40
0.0
 40
0.0
 40
0.0
 40
0.0
 40
0.0367725003254103
 40
0.074208401060063
 40
0.1123590542807964
 40
0.1512729822568881
 40
0.190995910016845
 40
0.2315708273504481
 40
0.2730380740418892
 40
0.3154354426077851
 40
0.3587982934432034
 40
0.4031596779810961
 40
0.4485504661847858
 40
0.494999475376923
 40
0.5532504315673752
 40
0.621829488573267
 40
0.7007739996560722
 40
0.7901076726660372
 40
0.8898461547533933
 40
1.0
 40
1.0
 40
1.0
 40
1.0
 10
384.9980309568724
 20
121.6457358367741
 30
0.0
 10
384.9982547309372
 20
121.6454111491404
 30
0.0
 10
384.9987063161001
 20
121.6447559162916
 30
0.0
 10
385.0034233559724
 20
121.6393935445039
 30
0.0
 10
385.011075965055
 20
121.6306379508034
 30
0.0
 10
385.021968944192
 20
121.6180137327115
 30
0.0
 10
385.0360175306079
 20
121.6014573945811
 30
0.0
 10
385.0532444282171
 20
121.5808002172033
 30
0.0
 10
385.0736429809985
 20
121.5559124812355
 30
0.0
 10
385.0972137942907
 20
121.5266649350421
 30
0.0
 10
385.1239591428504
 20
121.4929419998456
 30
0.0
 10
385.1538669962827
 20
121.4546361847202
 30
0.0
 10
385.1869830886272
 20
121.4116652893822
 30
0.0
 10
385.2259090102012
 20
121.3602440077115
 30
0.0
 10
385.2747370899179
 20
121.2960277760224
 30
0.0
 10
385.3366576945189
 20
121.2131332469278
 30
0.0
 10
385.4110422528398
 20
121.1091874967134
 30
0.0
 10
385.4980166808285
 20
120.9811012864561
 30
0.0
 10
385.597441530811
 20
120.8270115065498
 30
0.0
 10
385.6688607065405
 20
120.7089472706793
 30
0.0
 10
385.7063422902214
 20
120.6469858367745
 30
0.0
  0
LINE
  5
DE
330
1F
100
AcDbEntity
  8
0
  6
Continuous
 62
     7
370
    25
100
AcDbLine
 10
385.7063422902
 20
120.6469858368
 30
0.0
 11
385.6317004707
 21
120.6469858368
 31
0.0
  0
SPLINE
  5
DF
330
1F
100
AcDbEntity
  8
0
  6
Continuous
 62
     7
370
    25
100
AcDbSpline
210
0.0
220
0.0
230
1.0
 70
     8
 71
     3
 72
    23
 73
    19
 74
     0
 42
0.000000001
 43
0.00000001
 40
0.0
 40
0.0
 40
0.0
 40
0.0
 40
0.0511129009857221
 40
0.1016896331838983
 40
0.1518293139104713
 40
0.201633670189439
 40
0.2512064936754081
 40
0.3006530343006331
 40
0.3500793489716449
 40
0.3995916247932065
 40
0.4492954981442684
 40
0.4992953912354716
 40
0.5872572780521574
 40
0.6724255494349275
 40
0.7555067762540824
 40
0.8372616735271673
 40
0.9184882400167564
 40
1.0
 40
1.0
 40
1.0
 40
1.0
 10
385.4400148203093
 20
120.8389768793523
 30
0.0
 10
385.4239992364088
 20
120.8681054815833
 30
0.0
 10
385.3921360703458
 20
120.9260571301671
 30
0.0
 10
385.345092231927
 20
121.0088149653853
 30
0.0
 10
385.2991137077519
 20
121.0879038238696
 30
0.0
 10
385.2543330409484
 20
121.1631208118037
 30
0.0
 10
385.2108492765125
 20
121.2345838668494
 30
0.0
 10
385.1687633129278
 20
121.3023252710377
 30
0.0
 10
385.1281688485305
 20
121.3663987827827
 30
0.0
 10
385.0891539421803
 20
121.4268523818539
 30
0.0
 10
385.0518041196928
 20
121.4837298867822
 30
0.0
 10
385.0072758631007
 20
121.5504443598427
 30
0.0
 10
384.9586356025596
 20
121.6217646437072
 30
0.0
 10
384.9107965028037
 20
121.6903448961662
 30
0.0
 10
384.8731449907228
 20
121.7433612242084
 30
0.0
 10
384.8463222893354
 20
121.780633880336
 30
0.0
 10
384.8295934585118
 20
121.803671279916
 30
0.0
 10
384.827745048548
 20
121.8062060051812
 30
0.0
 10
384.8268192239276
 20
121.8074755888246
 30
0.0
  0
SPLINE
  5
E0
330
1F
100
AcDbEntity
  8
0
  6
Continuous
 62
     7
370
    25
100
AcDbSpline
210
0.0
220
0.0
230
1.0
 70
     8
 71
     3
 72
     8
 73
     4
 74
     0
 42
0.000000001
 43
0.00000001
 40
0.0
 40
0.0
 40
0.0
 40
0.0
 40
1.0
 40
1.0
 40
1.0
 40
1.0
 10
388.1021643394556
 20
120.6469858367744
 30
0.0
 10
388.1240497110987
 20
120.6713068529721
 30
0.0
 10
388.1459350827419
 20
120.6953314512945
 30
0.0
 10
388.167820454385
 20
120.719038303383
 30
0.0
  0
LINE
  5
E1
330
1F
100
AcDbEntity
  8
0
  6
Continuous
 62
     7
370
    25
100
AcDbLine
 10
388.1020041291
 20
120.6469858368
 30
0.0
 11
385.7063422902
 21
120.6469858368
 31
0.0
  0
SPLINE
  5
E2
330
1F
100
AcDbEntity
  8
0
  6
Continuous
 62
     7
370
    25
100
AcDbSpline
210
0.0
220
0.0
230
1.0
 70
     8
 71
     3
 72
     8
 73
     4
 74
     0
 42
0.000000001
 43
0.00000001
 40
0.0
 40
0.0
 40
0.0
 40
0.0
 40
1.0
 40
1.0
 40
1.0
 40
1.0
 10
367.2286287045573
 20
120.7191418708631
 30
0.0
 10
367.2505454770448
 20
120.695401422304
 30
0.0
 10
367.2724622495323
 20
120.6713422705174
 30
0.0
 10
367.2943790220199
 20
120.6469858367745
 30
0.0
  0
SPLINE
  5
E3
330
1F
100
AcDbEntity
  8
0
  6
Continuous
 62
     7
370
    25
100
AcDbSpline
210
0.0
220
0.0
230
1.0
 70
     8
 71
     3
 72
    26
 73
    22
 74
     0
 42
0.000000001
 43
0.00000001
 40
0.0
 40
0.0
 40
0.0
 40
0.0
 40
0.0524616379932503
 40
0.1026498591890872
 40
0.150565513457809
 40
0.1962095861957063
 40
0.2395832262568645
 40
0.2806877815599511
 40
0.3195248450380211
 40
0.3560963147430692
 40
0.3904044736547445
 40
0.4224520974433627
 40
0.4522426027417772
 40
0.4797802555366611
 40
0.5050704712281336
 40
0.5966394156799991
 40
0.6841917884819224
 40
0.7679874773571101
 40
0.8483228539139507
 40
0.925534163520116
 40
1.0
 40
1.0
 40
1.0
 40
1.0
 10
369.6900235364673
 20
120.6470007287922
 30
0.0
 10
369.7078850207557
 20
120.6767741888333
 30
0.0
 10
369.7428339647315
 20
120.7350308807266
 30
0.0
 10
369.7935987982136
 20
120.8172298610912
 30
0.0
 10
369.8416687558553
 20
120.893310729992
 30
0.0
 10
369.8870127286202
 20
120.9632620784583
 30
0.0
 10
369.9296387081255
 20
121.0273692404103
 30
0.0
 10
369.9695450066346
 20
121.0858770798805
 30
0.0
 10
370.0067323357499
 20
121.1390656575025
 30
0.0
 10
370.0412011583408
 20
121.1872236977396
 30
0.0
 10
370.0729512469731
 20
121.2306483710159
 30
0.0
 10
370.1019856515742
 20
121.2696384621128
 30
0.0
 10
370.1282969407753
 20
121.3044925606393
 30
0.0
 10
370.1519135703194
 20
121.3354975550899
 30
0.0
 10
370.1915592493253
 20
121.3877407737228
 30
0.0
 10
370.2430975461244
 20
121.45527010698
 30
0.0
 10
370.2999236831055
 20
121.5274635531885
 30
0.0
 10
370.3440811110686
 20
121.581947509311
 30
0.0
 10
370.3752587340106
 20
121.6192123004794
 30
0.0
 10
370.3947183006497
 20
121.6416766527541
 30
0.0
 10
370.3968598983301
 20
121.6443992021813
 30
0.0
 10
370.3979113148869
 20
121.6457358367745
 30
0.0
  0
LINE
  5
E4
330
1F
100
AcDbEntity
  8
0
  6
Continuous
 62
     7
370
    25
100
AcDbLine
 10
369.6900235365
 20
120.6469858368
 30
0.0
 11
367.294379022
 21
120.6469858368
 31
0.0
  0
LINE
  5
E5
330
1F
100
AcDbEntity
  8
0
  6
Continuous
 62
     7
370
    25
100
AcDbLine
 10
369.7648429141
 20
120.6469858368
 30
0.0
 11
369.6897233158
 21
120.6469858368
 31
0.0
  0
SPLINE
  5
E6
330
1F
100
AcDbEntity
  8
0
  6
Continuous
 62
     7
370
    25
100
AcDbSpline
210
0.0
220
0.0
230
1.0
 70
     8
 71
     3
 72
     8
 73
     4
 74
     0
 42
0.000000001
 43
0.00000001
 40
0.0
 40
0.0
 40
0.0
 40
0.0
 40
1.0
 40
1.0
 40
1.0
 40
1.0
 10
369.7648429141004
 20
120.6469858367744
 30
0.0
 10
369.8287517167603
 20
120.7089547002056
 30
0.0
 10
369.8925266361123
 20
120.7729307653222
 30
0.0
 10
369.9558867019932
 20
120.838465421668
 30
0.0
  0
SPLINE
  5
E7
330
1F
100
AcDbEntity
  8
0
  6
Continuous
 62
     7
370
    25
100
AcDbSpline
210
0.0
220
0.0
230
1.0
 70
     8
 71
     3
 72
    24
 73
    20
 74
     0
 42
0.000000001
 43
0.00000001
 40
0.0
 40
0.0
 40
0.0
 40
0.0
 40
0.0410257106287842
 40
0.0818520099077639
 40
0.1225800578354648
 40
0.1633117464058233
 40
0.2041489402806705
 40
0.2451927184749161
 40
0.2865426449235763
 40
0.3282960933646444
 40
0.370547647549383
 40
0.4133885920102291
 40
0.4569065022351533
 40
0.5011849368587563
 40
0.6001856774947433
 40
0.6987388860447942
 40
0.7976800645453981
 40
0.8978349910029445
 40
1.0
 40
1.0
 40
1.0
 40
1.0
 10
370.569469507868
 20
121.807125918106
 30
0.0
 10
370.569274744427
 20
121.8068585679484
 30
0.0
 10
370.5688861642205
 20
121.8063251671271
 30
0.0
 10
370.5648313765462
 20
121.800753421128
 30
0.0
 10
370.5582374175663
 20
121.7916726719742
 30
0.0
 10
370.5488731566563
 20
121.7787352116135
 30
0.0
 10
370.5368250428863
 20
121.7620167687076
 30
0.0
 10
370.5221024734259
 20
121.7414747579358
 30
0.0
 10
370.5047434805787
 20
121.7170933838891
 30
0.0
 10
370.4847863094253
 20
121.6888446398172
 30
0.0
 10
370.4622772597298
 20
121.6566990924161
 30
0.0
 10
370.4372680239684
 20
121.6206222524499
 30
0.0
 10
370.4098186544435
 20
121.5805786599305
 30
0.0
 10
370.3678955413763
 20
121.5186582165893
 30
0.0
 10
370.3086893661651
 20
121.4293457254928
 30
0.0
 10
370.2289097730448
 20
121.3048011334641
 30
0.0
 10
370.1429289880584
 20
121.1650163409743
 30
0.0
 10
370.0516442008364
 20
121.0106035219882
 30
0.0
 10
369.9884398467784
 20
120.8965575003373
 30
0.0
 10
369.9565236968129
 20
120.838967956322
 30
0.0
  0
LINE
  5
E8
330
1F
100
AcDbEntity
  8
0
  6
Continuous
 62
     7
370
    25
100
AcDbLine
 10
366.8856307902
 20
112.1256808391
 30
0.0
 11
367.3098682053
 21
112.5744737376
 31
0.0
  0
SPLINE
  5
E9
330
1F
100
AcDbEntity
  8
0
  6
Continuous
 62
     7
370
    25
100
AcDbSpline
210
0.0
220
0.0
230
1.0
 70
     8
 71
     3
 72
    13
 73
     9
 74
     0
 42
0.000000001
 43
0.00000001
 40
0.0
 40
0.0
 40
0.0
 40
0.0
 40
0.170632084649598
 40
0.3395984165075754
 40
0.5069574111411415
 40
0.6727691830249297
 40
0.8370955447763889
 40
1.0
 40
1.0
 40
1.0
 40
1.0
 10
367.3098682052612
 20
112.5744530952452
 30
0.0
 10
367.3148736756701
 20
112.5675017221639
 30
0.0
 10
367.3248357518423
 20
112.5536668370317
 30
0.0
 10
367.3377095797343
 20
112.5375390785748
 30
0.0
 10
367.3489758922302
 20
112.5248703484158
 30
0.0
 10
367.3584532556654
 20
112.5160139105768
 30
0.0
 10
367.3663354883602
 20
112.510501882097
 30
0.0
 10
367.3701503945936
 20
112.5098235360162
 30
0.0
 10
367.3720495593099
 20
112.5094858367745
 30
0.0
  0
SPLINE
  5
EA
330
1F
100
AcDbEntity
  8
0
  6
Continuous
 62
     7
370
    25
100
AcDbSpline
210
0.0
220
0.0
230
1.0
 70
     8
 71
     3
 72
    13
 73
     9
 74
     0
 42
0.000000001
 43
0.00000001
 40
0.0
 40
0.0
 40
0.0
 40
0.0
 40
0.1621004456571512
 40
0.325943455157606
 40
0.4915935308260523
 40
0.6591130873964648
 40
0.8285624736043361
 40
1.0
 40
1.0
 40
1.0
 40
1.0
 10
388.0244938254571
 20
112.5094858367745
 30
0.0
 10
388.0263709317993
 20
112.5098203198751
 30
0.0
 10
388.0301453231922
 20
112.5104928817368
 30
0.0
 10
388.0379924003711
 20
112.5159661661325
 30
0.0
 10
388.0474584601462
 20
112.5247856307928
 30
0.0
 10
388.0587393749486
 20
112.5374383877868
 30
0.0
 10
388.0716539934463
 20
112.5535903891832
 30
0.0
 10
388.0816497076921
 20
112.5674761891263
 30
0.0
 10
388.0866767136036
 20
112.5744595818769
 30
0.0
  0
LINE
  5
EB
330
1F
100
AcDbEntity
  8
0
  6
Continuous
 62
     7
370
    25
100
AcDbLine
 10
388.0866896814
 20
112.5744599499
 30
0.0
 11
388.5109118462
 21
112.1256808646
 31
0.0
  0
LINE
  5
EC
330
1F
100
AcDbEntity
  8
0
  6
Continuous
 62
     7
370
    25
100
AcDbLine
 10
385.6317004707
 20
112.5844858368
 30
0.0
 11
385.6404217803
 21
112.5844858368
 31
0.0
  0
SPLINE
  5
ED
330
1F
100
AcDbEntity
  8
0
  6
Continuous
 62
     7
370
    25
100
AcDbSpline
210
0.0
220
0.0
230
1.0
 70
     8
 71
     3
 72
     8
 73
     4
 74
     0
 42
0.000000001
 43
0.00000001
 40
0.0
 40
0.0
 40
0.0
 40
0.0
 40
1.0
 40
1.0
 40
1.0
 40
1.0
 10
388.0866897545965
 20
112.5744601949441
 30
0.0
 10
388.0845062703554
 20
112.5773088604604
 30
0.0
 10
388.0823227861143
 20
112.5802496518579
 30
0.0
 10
388.0801393018732
 20
112.5832821491345
 30
0.0
  0
LINE
  5
EE
330
1F
100
AcDbEntity
  8
0
  6
Continuous
 62
     7
370
    25
100
AcDbLine
 10
388.0792365588
 20
112.5844858368
 30
0.0
 11
385.6404261994
 21
112.5844858368
 31
0.0
  0
SPLINE
  5
EF
330
1F
100
AcDbEntity
  8
0
  6
Continuous
 62
     7
370
    25
100
AcDbSpline
210
0.0
220
0.0
230
1.0
 70
     8
 71
     3
 72
     8
 73
     4
 74
     0
 42
0.000000001
 43
0.00000001
 40
0.0
 40
0.0
 40
0.0
 40
0.0
 40
1.0
 40
1.0
 40
1.0
 40
1.0
 10
367.3173068493033
 20
112.5844858367821
 30
0.0
 10
367.3148209306168
 20
112.5810241374701
 30
0.0
 10
367.3123350119302
 20
112.5776799855612
 30
0.0
 10
367.3098490932437
 20
112.5744539936208
 30
0.0
  0
LINE
  5
F0
330
1F
100
AcDbEntity
  8
0
  6
Continuous
 62
     7
370
    25
100
AcDbLine
 10
369.7546109059
 20
112.5844858368
 30
0.0
 11
367.3175232956
 21
112.5844858368
 31
0.0
  0
LINE
  5
F1
330
1F
100
AcDbEntity
  8
0
  6
Continuous
 62
     7
370
    25
100
AcDbLine
 10
369.7561207639
 20
112.5844858368
 30
0.0
 11
369.7648429141
 21
112.5844858368
 31
0.0
  0
SPLINE
  5
F2
330
1F
100
AcDbEntity
  8
0
  6
Continuous
 62
     7
370
    25
100
AcDbSpline
210
0.0
220
0.0
230
1.0
 70
     8
 71
     3
 72
    14
 73
    10
 74
     0
 42
0.000000001
 43
0.00000001
 40
0.0
 40
0.0
 40
0.0
 40
0.0
 40
0.0310276388071746
 40
0.0622853718672815
 40
0.1248003166904892
 40
0.2498289731753984
 40
0.499889260361071
 40
0.7606803621682141
 40
1.0
 40
1.0
 40
1.0
 40
1.0
 10
366.7381776979243
 20
112.1277476621591
 30
0.0
 10
366.7425069913895
 20
112.1325315844372
 30
0.0
 10
366.751197683423
 20
112.1421349055255
 30
0.0
 10
366.7685984620851
 20
112.1614292195233
 30
0.0
 10
366.7990746219301
 20
112.1951941659769
 30
0.0
 10
366.8598960147495
 20
112.2626129248387
 30
0.0
 10
366.9477863571627
 20
112.3600795997056
 30
0.0
 10
367.0506240372462
 20
112.4742241116025
 30
0.0
 10
367.1178301486879
 20
112.5490089246091
 30
0.0
 10
367.1499905103348
 20
112.5847959472533
 30
0.0
  0
LINE
  5
F3
330
1F
100
AcDbEntity
  8
0
  6
Continuous
 62
     7
370
    25
100
AcDbLine
 10
367.1496620112
 20
112.5844858368
 30
0.0
 11
367.3173068493
 21
112.5844858368
 31
0.0
  0
LINE
  5
F4
330
1F
100
AcDbEntity
  8
0
  6
Continuous
 62
     7
370
    25
100
AcDbLine
 10
388.0792365588
 20
112.5844858368
 30
0.0
 11
388.2468887581
 21
112.5844858368
 31
0.0
  0
SPLINE
  5
F5
330
1F
100
AcDbEntity
  8
0
  6
Continuous
 62
     7
370
    25
100
AcDbSpline
210
0.0
220
0.0
230
1.0
 70
     8
 71
     3
 72
    11
 73
     7
 74
     0
 42
0.000000001
 43
0.00000001
 40
0.0
 40
0.0
 40
0.0
 40
0.0
 40
0.2392913844325938
 40
0.5001130135003002
 40
0.7515028526498353
 40
0.9999999999999999
 40
0.9999999999999999
 40
0.9999999999999999
 40
0.9999999999999999
 10
388.2465849450539
 20
112.5847726392861
 30
0.0
 10
388.2787414980335
 20
112.5489959207087
 30
0.0
 10
388.3459478901592
 20
112.4742234729531
 30
0.0
 10
388.4489759799065
 20
112.3597647596303
 30
0.0
 10
388.5540666445237
 20
112.2436055735104
 30
0.0
 10
388.6237414646034
 20
112.1662176322148
 30
0.0
 10
388.6583772812971
 20
112.1277475716399
 30
0.0
  0
LINE
  5
F6
330
1F
100
AcDbEntity
  8
0
  6
Continuous
 62
     7
370
    25
100
AcDbLine
 10
367.294379022
 20
120.6469858368
 30
0.0
 11
367.1498067259
 21
120.6469858368
 31
0.0
  0
SPLINE
  5
F7
330
1F
100
AcDbEntity
  8
0
  6
Continuous
 62
     7
370
    25
100
AcDbSpline
210
0.0
220
0.0
230
1.0
 70
     8
 71
     3
 72
    11
 73
     7
 74
     0
 42
0.000000001
 43
0.00000001
 40
0.0
 40
0.0
 40
0.0
 40
0.0
 40
0.2392845094479873
 40
0.5001120454076898
 40
0.7515010915036774
 40
1.0
 40
1.0
 40
1.0
 40
1.0
 10
367.1501093481738
 20
120.6467000505779
 30
0.0
 10
367.1179482184039
 20
120.6824978996397
 30
0.0
 10
367.0507304598078
 20
120.7573165143374
 30
0.0
 10
366.9476858113097
 20
120.8718447785926
 30
0.0
 10
366.8425775824228
 20
120.9880757722669
 30
0.0
 10
366.7728920657955
 20
121.065510267958
 30
0.0
 10
366.7382507533558
 20
121.1040036692941
 30
0.0
  0
SPLINE
  5
F8
330
1F
100
AcDbEntity
  8
0
  6
Continuous
 62
     7
370
    25
100
AcDbSpline
210
0.0
220
0.0
230
1.0
 70
     8
 71
     3
 72
    14
 73
    10
 74
     0
 42
0.000000001
 43
0.00000001
 40
0.0
 40
0.0
 40
0.0
 40
0.0
 40
0.031029414748255
 40
0.0622870907562092
 40
0.1248019217225762
 40
0.249830351143087
 40
0.4998901825554788
 40
0.7606872170552411
 40
1.0
 40
1.0
 40
1.0
 40
1.0
 10
388.6582810160861
 20
121.1040035610179
 30
0.0
 10
388.6539508197705
 20
121.0992163744479
 30
0.0
 10
388.6452585729754
 20
121.0896067853928
 30
0.0
 10
388.627854944628
 20
121.0703007916868
 30
0.0
 10
388.5973742090928
 20
121.0365155760348
 30
0.0
 10
388.5365435873706
 20
120.9690564450873
 30
0.0
 10
388.448638684204
 20
120.871529939377
 30
0.0
 10
388.3457844395871
 20
120.7573159326025
 30
0.0
 10
388.2785669814406
 20
120.6824849724975
 30
0.0
 10
388.2464020520383
 20
120.6466768265893
 30
0.0
  0
LINE
  5
F9
330
1F
100
AcDbEntity
  8
0
  6
Continuous
 62
     7
370
    25
100
AcDbLine
 10
388.2467292621
 20
120.6469858368
 30
0.0
 11
388.1021643395
 21
120.6469858368
 31
0.0
  0
LINE
  5
FA
330
1F
100
AcDbEntity
  8
0
  6
Continuous
 62
     7
370
    25
100
AcDbLine
 10
365.8276038276
 20
114.4283980942
 30
0.0
 11
366.267666485
 21
114.5094858368
 31
0.0
  0
SPLINE
  5
FB
330
1F
100
AcDbEntity
  8
0
  6
Continuous
 62
     7
370
    25
100
AcDbSpline
210
0.0
220
0.0
230
1.0
 70
     8
 71
     3
 72
    25
 73
    21
 74
     0
 42
0.000000001
 43
0.00000001
 40
0.0
 40
0.0
 40
0.0
 40
0.0
 40
0.0274788704223154
 40
0.0560416006850518
 40
0.0856947086352136
 40
0.116444016653826
 40
0.1482947438681133
 40
0.1812515840470034
 40
0.2153187716748716
 40
0.2505001382254911
 40
0.333051455250936
 40
0.5015081958163736
 40
0.5771663066143947
 40
0.648898130302521
 40
0.716747770006283
 40
0.7807674423488066
 40
0.84101941313403
 40
0.8975784849924567
 40
0.9505352047788314
 40
1.0
 40
1.0
 40
1.0
 40
1.0
 10
366.2676664849723
 20
114.5094858367745
 30
0.0
 10
366.2743746523157
 20
114.480303632257
 30
0.0
 10
366.2880555798725
 20
114.4207881781083
 30
0.0
 10
366.3108203085264
 20
114.3303976810496
 30
0.0
 10
366.3356979457668
 20
114.2372660719284
 30
0.0
 10
366.3628371837843
 20
114.1416800276535
 30
0.0
 10
366.3921985908155
 20
114.0439265580403
 30
0.0
 10
366.4237837611036
 20
113.9443458819828
 30
0.0
 10
366.4576306309684
 20
113.8433367424042
 30
0.0
 10
366.5093318609012
 20
113.6965699351532
 30
0.0
 10
366.6136908739149
 20
113.4323035222388
 30
0.0
 10
366.7345641015987
 20
113.1623338924103
 30
0.0
 10
366.8480571480557
 20
112.9449242176941
 30
0.0
 10
366.9193301156716
 20
112.8152206469636
 30
0.0
 10
366.9814046877975
 20
112.7113455696387
 30
0.0
 10
367.0339886999648
 20
112.6314849358202
 30
0.0
 10
367.0772352458923
 20
112.5734663096696
 30
0.0
 10
367.1108420581124
 20
112.5353627510172
 30
0.0
 10
367.1357890409851
 20
112.5133602200225
 30
0.0
 10
367.1447485778471
 20
112.5107476066712
 30
0.0
 10
367.1490756145651
 20
112.5094858367745
 30
0.0
  0
LINE
  5
FC
330
1F
100
AcDbEntity
  8
0
  6
Continuous
 62
     7
370
    25
100
AcDbLine
 10
389.5689395572
 20
118.8030735793
 30
0.0
 11
389.1288768998
 21
118.7219858368
 31
0.0
  0
SPLINE
  5
FD
330
1F
100
AcDbEntity
  8
0
  6
Continuous
 62
     7
370
    25
100
AcDbSpline
210
0.0
220
0.0
230
1.0
 70
     8
 71
     3
 72
    25
 73
    21
 74
     0
 42
0.000000001
 43
0.00000001
 40
0.0
 40
0.0
 40
0.0
 40
0.0
 40
0.0274788704223041
 40
0.0560416006850305
 40
0.0856947086351823
 40
0.1164440166537841
 40
0.1482947438680617
 40
0.1812515840469434
 40
0.2153187716748025
 40
0.2505001382254136
 40
0.3330514552861967
 40
0.5015081958164245
 40
0.5771663066128696
 40
0.6488981302998588
 40
0.7167477700029257
 40
0.7807674423452041
 40
0.8410194131306359
 40
0.8975784849897311
 40
0.950535204777236
 40
1.0
 40
1.0
 40
1.0
 40
1.0
 10
389.1288768997948
 20
118.7219858367745
 30
0.0
 10
389.1221687324513
 20
118.751168041292
 30
0.0
 10
389.1084878048945
 20
118.8106834954407
 30
0.0
 10
389.0857230762406
 20
118.9010739924994
 30
0.0
 10
389.0608454390003
 20
118.9942056016205
 30
0.0
 10
389.0337062009827
 20
119.0897916458954
 30
0.0
 10
389.0043447939515
 20
119.1875451155087
 30
0.0
 10
388.9727596236635
 20
119.2871257915662
 30
0.0
 10
388.9389127537987
 20
119.3881349311447
 30
0.0
 10
388.8872115238534
 20
119.5349017384299
 30
0.0
 10
388.7828525108424
 20
119.7991681513424
 30
0.0
 10
388.6619792831567
 20
120.0691377811615
 30
0.0
 10
388.5484862367114
 20
120.2865474558518
 30
0.0
 10
388.4772132690958
 20
120.4162510265808
 30
0.0
 10
388.41513869697
 20
120.5201261039054
 30
0.0
 10
388.3625546848028
 20
120.5999867377247
 30
0.0
 10
388.3193081388753
 20
120.6580053638766
 30
0.0
 10
388.2857013266551
 20
120.6961089225304
 30
0.0
 10
388.2607543437822
 20
120.7181114535262
 30
0.0
 10
388.2517948069201
 20
120.7207240668777
 30
0.0
 10
388.2474677702019
 20
120.7219858367745
 30
0.0
  0
SPLINE
  5
FE
330
1F
100
AcDbEntity
  8
0
  6
Continuous
 62
     7
370
    25
100
AcDbSpline
210
0.0
220
0.0
230
1.0
 70
     8
 71
     3
 72
    25
 73
    21
 74
     0
 42
0.000000001
 43
0.00000001
 40
0.0
 40
0.0
 40
0.0
 40
0.0
 40
0.0288821753110086
 40
0.0583636594013118
 40
0.0884647204314734
 40
0.1192044006626603
 40
0.150600580009491
 40
0.1826700399677263
 40
0.2154285269580574
 40
0.248890814337993
 40
0.361059447124065
 40
0.4984670131067773
 40
0.5822693905007604
 40
0.666112764278331
 40
0.7499972937224478
 40
0.8007709755049082
 40
0.8511237700832938
 40
0.9010896024531745
 40
0.9507031914125761
 40
1.0
 40
1.0
 40
1.0
 40
1.0
 10
367.1490756145651
 20
120.7219858367745
 30
0.0
 10
367.1467853461874
 20
120.7215575947986
 30
0.0
 10
367.1421572860744
 20
120.7206922247718
 30
0.0
 10
367.1318470229871
 20
120.7136172920702
 30
0.0
 10
367.1190109537562
 20
120.7020487509097
 30
0.0
 10
367.1033973950135
 20
120.6853431747973
 30
0.0
 10
367.085075951601
 20
120.6634062637811
 30
0.0
 10
367.0640283657698
 20
120.6360086282964
 30
0.0
 10
367.0402567937777
 20
120.6029741476143
 30
0.0
 10
366.9932002643412
 20
120.5339834814865
 30
0.0
 10
366.9055058464843
 20
120.3939575120648
 30
0.0
 10
366.7879541919509
 20
120.1746622108604
 30
0.0
 10
366.6764320276095
 20
119.9377321500892
 30
0.0
 10
366.5849727102615
 20
119.7218902761793
 30
0.0
 10
366.5040910590839
 20
119.5203286552975
 30
0.0
 10
366.4379461572159
 20
119.3414605749053
 30
0.0
 10
366.3885955963888
 20
119.1900843737614
 30
0.0
 10
366.3436285795239
 20
119.0358402186384
 30
0.0
 10
366.3028708656046
 20
118.8796843635628
 30
0.0
 10
366.2793761963874
 20
118.7744396566148
 30
0.0
 10
366.2676664849723
 20
118.7219858367745
 30
0.0
  0
LINE
  5
FF
330
1F
100
AcDbEntity
  8
0
  6
Continuous
 62
     7
370
    25
100
AcDbLine
 10
365.8276038276
 20
118.8030735793
 30
0.0
 11
366.267666485
 21
118.7219858368
 31
0.0
  0
SPLINE
  5
100
330
1F
100
AcDbEntity
  8
0
  6
Continuous
 62
     7
370
    25
100
AcDbSpline
210
0.0
220
0.0
230
1.0
 70
     8
 71
     3
 72
    25
 73
    21
 74
     0
 42
0.000000001
 43
0.00000001
 40
0.0
 40
0.0
 40
0.0
 40
0.0
 40
0.0288821753116583
 40
0.0583636594024247
 40
0.088464720432864
 40
0.1192044006641432
 40
0.1506005800108822
 40
0.1826700399688414
 40
0.2154285269587146
 40
0.2488908143380118
 40
0.3610594471217245
 40
0.498467013106778
 40
0.5822693905006526
 40
0.6661127642782239
 40
0.7499972937224496
 40
0.8007709755032478
 40
0.8511237700807983
 40
0.901089602450676
 40
0.9507031914109089
 40
1.0
 40
1.0
 40
1.0
 40
1.0
 10
388.2474677702019
 20
112.5094858367745
 30
0.0
 10
388.2497580385797
 20
112.5099140787504
 30
0.0
 10
388.2543860986927
 20
112.5107794487773
 30
0.0
 10
388.2646963617802
 20
112.5178543814792
 30
0.0
 10
388.2775324310111
 20
112.5294229226399
 30
0.0
 10
388.2931459897538
 20
112.5461284987526
 30
0.0
 10
388.3114674331663
 20
112.5680654097689
 30
0.0
 10
388.3325150189974
 20
112.5954630452536
 30
0.0
 10
388.3562865909894
 20
112.6284975259354
 30
0.0
 10
388.4033431204257
 20
112.6974881920619
 30
0.0
 10
388.4910375382834
 20
112.8375141614825
 30
0.0
 10
388.6085891928155
 20
113.0568094626867
 30
0.0
 10
388.7201113571563
 20
113.29373952346
 30
0.0
 10
388.8115706745044
 20
113.5095813973699
 30
0.0
 10
388.8924523256823
 20
113.71114301825
 30
0.0
 10
388.9585972275504
 20
113.8900110986395
 30
0.0
 10
389.0079477883768
 20
114.0413872997807
 30
0.0
 10
389.0529148052418
 20
114.1956314549035
 30
0.0
 10
389.0936725191615
 20
114.3517873099817
 30
0.0
 10
389.1171671883793
 20
114.4570320169324
 30
0.0
 10
389.1288768997948
 20
114.5094858367745
 30
0.0
  0
LINE
  5
101
330
1F
100
AcDbEntity
  8
0
  6
Continuous
 62
     7
370
    25
100
AcDbLine
 10
389.5689395572
 20
114.4283980942
 30
0.0
 11
389.1288768998
 21
114.5094858368
 31
0.0
  0
SPLINE
  5
102
330
1F
100
AcDbEntity
  8
0
  6
Continuous
 62
     7
370
    25
100
AcDbSpline
210
0.0
220
0.0
230
1.0
 70
     8
 71
     3
 72
    14
 73
    10
 74
     0
 42
0.000000001
 43
0.00000001
 40
0.0
 40
0.0
 40
0.0
 40
0.0
 40
0.1359145300112974
 40
0.2970841336547354
 40
0.4458230192132127
 40
0.5950336724695611
 40
0.7620249554136269
 40
0.9152755812521424
 40
1.0
 40
1.0
 40
1.0
 40
1.0
 10
368.800413804105
 20
118.7219858367745
 30
0.0
 10
368.8356578237586
 20
118.8424142055498
 30
0.0
 10
368.9126947604602
 20
119.1056484425521
 30
0.0
 10
369.0534026198351
 20
119.4792462986782
 30
0.0
 10
369.2023561222776
 20
119.8312073466059
 30
0.0
 10
369.3601663912318
 20
120.1439048832168
 30
0.0
 10
369.5067859157411
 20
120.4014796699577
 30
0.0
 10
369.6087045392226
 20
120.5770361162291
 30
0.0
 10
369.6420741130925
 20
120.6298223399373
 30
0.0
 10
369.6539544249752
 20
120.64861541183
 30
0.0
  0
SPLINE
  5
103
330
1F
100
AcDbEntity
  8
0
  6
Continuous
 62
     7
370
    25
100
AcDbSpline
210
0.0
220
0.0
230
1.0
 70
     8
 71
     3
 72
    14
 73
    10
 74
     0
 42
0.000000001
 43
0.00000001
 40
0.0
 40
0.0
 40
0.0
 40
0.0
 40
0.1359145300005337
 40
0.2970841336540051
 40
0.445823019211832
 40
0.5950336724681434
 40
0.7620249554082487
 40
0.9152755812451852
 40
1.0
 40
1.0
 40
1.0
 40
1.0
 10
386.596129580662
 20
114.5094858367745
 30
0.0
 10
386.5608855610106
 20
114.3890574680087
 30
0.0
 10
386.4838486243079
 20
114.1258232310068
 30
0.0
 10
386.343140764935
 20
113.7522253748791
 30
0.0
 10
386.1941872624927
 20
113.4002643269423
 30
0.0
 10
386.0363769935365
 20
113.0875667903349
 30
0.0
 10
385.8897574690246
 20
112.8299920035963
 30
0.0
 10
385.7878388455424
 20
112.6544355573225
 30
0.0
 10
385.7544692716723
 20
112.601649333612
 30
0.0
 10
385.7425889597888
 20
112.5828562617174
 30
0.0
  0
SPLINE
  5
104
330
1F
100
AcDbEntity
  8
0
  6
Continuous
 62
     7
370
    25
100
AcDbSpline
210
0.0
220
0.0
230
1.0
 70
     8
 71
     3
 72
    13
 73
     9
 74
     0
 42
0.000000001
 43
0.00000001
 40
0.0
 40
0.0
 40
0.0
 40
0.0
 40
0.0217286921435962
 40
0.1003820497560808
 40
0.2372357405520672
 40
0.3994036557033713
 40
0.7008666741923809
 40
1.0
 40
1.0
 40
1.0
 40
1.0
 10
369.6517749227667
 20
112.5840452420814
 30
0.0
 10
369.6488382317867
 20
112.5886672460178
 30
0.0
 10
369.6352713287199
 20
112.6100199452987
 30
0.0
 10
369.5878174848082
 20
112.6873150301522
 30
0.0
 10
369.4942604180845
 20
112.8432479567206
 30
0.0
 10
369.3146630863944
 20
113.1757158196394
 30
0.0
 10
369.045633575531
 20
113.72371215014
 30
0.0
 10
368.8819420766715
 20
114.2482394824247
 30
0.0
 10
368.800413804105
 20
114.5094858367745
 30
0.0
  0
LINE
  5
105
330
1F
100
AcDbEntity
  8
0
  6
Continuous
 62
     7
370
    25
100
AcDbLine
 10
369.1166739614
 20
118.6471225422
 30
0.0
 11
368.8004138041
 21
118.7219858368
 31
0.0
  0
SPLINE
  5
106
330
1F
100
AcDbEntity
  8
0
  6
Continuous
 62
     7
370
    25
100
AcDbSpline
210
0.0
220
0.0
230
1.0
 70
     8
 71
     3
 72
    25
 73
    21
 74
     0
 42
0.000000001
 43
0.00000001
 40
0.0
 40
0.0
 40
0.0
 40
0.0
 40
0.0278144320063462
 40
0.0555680196245754
 40
0.083331625367772
 40
0.111176035216759
 40
0.1391714221532265
 40
0.1673868326284763
 40
0.1958897140434718
 40
0.2247454979318961
 40
0.254017249222145
 40
0.3796724410016501
 40
0.5056484635002454
 40
0.629752729069345
 40
0.7535891720571729
 40
0.8038564806093713
 40
0.853339684343451
 40
0.9023264398358534
 40
0.9511131859219439
 40
1.0
 40
1.0
 40
1.0
 40
1.0
 10
369.9842956030951
 20
120.889484127957
 30
0.0
 10
369.9841478517803
 20
120.8892175854035
 30
0.0
 10
369.9838526723586
 20
120.8886850833612
 30
0.0
 10
369.9802279733427
 20
120.8821376346651
 30
0.0
 10
369.9742820776724
 20
120.8713683913789
 30
0.0
 10
369.9658073547574
 20
120.8559576554546
 30
0.0
 10
369.9548923679182
 20
120.8360012792008
 30
0.0
 10
369.9415562996799
 20
120.8114511827304
 30
0.0
 10
369.9258485349929
 20
120.7822945589744
 30
0.0
 10
369.9078169468351
 20
120.748498587541
 30
0.0
 10
369.8653994020866
 20
120.6680918294832
 30
0.0
 10
369.7848783623331
 20
120.5111033798126
 30
0.0
 10
369.6514520154586
 20
120.2293176420652
 30
0.0
 10
369.5073750387755
 20
119.8914455324382
 30
0.0
 10
369.3916972873241
 20
119.5827646186999
 30
0.0
 10
369.3091858121069
 20
119.3367338989449
 30
0.0
 10
369.2562641875817
 20
119.1679080076717
 30
0.0
 10
369.2064070532043
 20
118.99659243666
 30
0.0
 10
369.1593890599738
 20
118.8229100864392
 30
0.0
 10
369.1309220492453
 20
118.7057583981357
 30
0.0
 10
369.1166739614465
 20
118.6471225421744
 30
0.0
  0
LINE
  5
107
330
1F
100
AcDbEntity
  8
0
  6
Continuous
 62
     7
370
    25
100
AcDbLine
 10
369.1166739614
 20
114.5843491314
 30
0.0
 11
368.8004138041
 21
114.5094858368
 31
0.0
  0
SPLINE
  5
108
330
1F
100
AcDbEntity
  8
0
  6
Continuous
 62
     7
370
    25
100
AcDbSpline
210
0.0
220
0.0
230
1.0
 70
     8
 71
     3
 72
    25
 73
    21
 74
     0
 42
0.000000001
 43
0.00000001
 40
0.0
 40
0.0
 40
0.0
 40
0.0
 40
0.0269872354797669
 40
0.0539362690259618
 40
0.0809037148829035
 40
0.1079460716545392
 40
0.1351193706855853
 40
0.162478838835575
 40
0.190078585418252
 40
0.2179713214290535
 40
0.2462081170984584
 40
0.3700050494705653
 40
0.4947542611659071
 40
0.6210439034695193
 40
0.7446557472315123
 40
0.7967060293738726
 40
0.8478613449329371
 40
0.8985210411990388
 40
0.9490962115257747
 40
1.0
 40
1.0
 40
1.0
 40
1.0
 10
369.1166739614465
 20
114.5843491313746
 30
0.0
 10
369.1244547061705
 20
114.5519527263469
 30
0.0
 10
369.1400051815415
 20
114.4872057752056
 30
0.0
 10
369.1646905875147
 20
114.3905592387769
 30
0.0
 10
369.1903105445137
 20
114.2944651502856
 30
0.0
 10
369.2169534081411
 20
114.1989528795689
 30
0.0
 10
369.2445785934256
 20
114.1040281521763
 30
0.0
 10
369.2731803724849
 20
114.0097019960406
 30
0.0
 10
369.3027424621264
 20
113.9159856515913
 30
0.0
 10
369.3332556091736
 20
113.822881567701
 30
0.0
 10
369.3999898137629
 20
113.626616325588
 30
0.0
 10
369.5071729898586
 20
113.3405432099847
 30
0.0
 10
369.6509530801674
 20
113.0032533139913
 30
0.0
 10
369.7842015363792
 20
112.7217441371678
 30
0.0
 10
369.8718727125924
 20
112.5507532069894
 30
0.0
 10
369.9227477483847
 20
112.454840388607
 30
0.0
 10
369.9504169030362
 20
112.4036231851523
 30
0.0
 10
369.9701158211537
 20
112.3676403910672
 30
0.0
 10
369.9823633298572
 20
112.3454705027453
 30
0.0
 10
369.9836501230133
 20
112.3431510350117
 30
0.0
 10
369.9842956030951
 20
112.341987545592
 30
0.0
  0
SPLINE
  5
109
330
1F
100
AcDbEntity
  8
0
  6
Continuous
 62
     7
370
    25
100
AcDbSpline
210
0.0
220
0.0
230
1.0
 70
     8
 71
     3
 72
    13
 73
     9
 74
     0
 42
0.000000001
 43
0.00000001
 40
0.0
 40
0.0
 40
0.0
 40
0.0
 40
0.0217286921488609
 40
0.1003820497583595
 40
0.2372357405601296
 40
0.399403655704887
 40
0.7008666741931369
 40
1.0
 40
1.0
 40
1.0
 40
1.0
 10
385.744768461998
 20
120.6474264314691
 30
0.0
 10
385.7477051529787
 20
120.6428044275315
 30
0.0
 10
385.7612720560459
 20
120.6214517282498
 30
0.0
 10
385.8087258999615
 20
120.5441566433939
 30
0.0
 10
385.9022829666852
 20
120.3882237168253
 30
0.0
 10
386.0818802983742
 20
120.0557558539052
 30
0.0
 10
386.3509098092362
 20
119.507759523409
 30
0.0
 10
386.5146013080956
 20
118.9832321911243
 30
0.0
 10
386.596129580662
 20
118.7219858367745
 30
0.0
  0
LINE
  5
10A
330
1F
100
AcDbEntity
  8
0
  6
Continuous
 62
     7
370
    25
100
AcDbLine
 10
386.2798694233
 20
118.6471225422
 30
0.0
 11
386.5961295807
 21
118.7219858368
 31
0.0
  0
SPLINE
  5
10B
330
1F
100
AcDbEntity
  8
0
  6
Continuous
 62
     7
370
    25
100
AcDbSpline
210
0.0
220
0.0
230
1.0
 70
     8
 71
     3
 72
    14
 73
    10
 74
     0
 42
0.000000001
 43
0.00000001
 40
0.0
 40
0.0
 40
0.0
 40
0.0
 40
0.1400505389350903
 40
0.2837941391411564
 40
0.4267315409806389
 40
0.5707684557847207
 40
0.7165839699846748
 40
0.8593076663242981
 40
1.0
 40
1.0
 40
1.0
 40
1.0
 10
386.2798694233206
 20
118.6471225421744
 30
0.0
 10
386.2431024941183
 20
118.7926825734179
 30
0.0
 10
386.1685991105458
 20
119.0876409796779
 30
0.0
 10
386.0334098913603
 20
119.5057049885518
 30
0.0
 10
385.8895254882563
 20
119.8907576819864
 30
0.0
 10
385.7453887482841
 20
120.2285656905717
 30
0.0
 10
385.6129930755018
 20
120.5085064811959
 30
0.0
 10
385.5020722946779
 20
120.7246469688321
 30
0.0
 10
385.4607368142405
 20
120.8007101145162
 30
0.0
 10
385.4402172084651
 20
120.838469098976
 30
0.0
  0
LINE
  5
10C
330
1F
100
AcDbEntity
  8
0
  6
Continuous
 62
     7
370
    25
100
AcDbLine
 10
386.2798694233
 20
114.5843491314
 30
0.0
 11
386.5961295807
 21
114.5094858368
 31
0.0
  0
SPLINE
  5
10D
330
1F
100
AcDbEntity
  8
0
  6
Continuous
 62
     7
370
    25
100
AcDbSpline
210
0.0
220
0.0
230
1.0
 70
     8
 71
     3
 72
    25
 73
    21
 74
     0
 42
0.000000001
 43
0.00000001
 40
0.0
 40
0.0
 40
0.0
 40
0.0
 40
0.0278144320057649
 40
0.0555680196235595
 40
0.083331625366468
 40
0.1111760352153128
 40
0.1391714221517827
 40
0.1673868326271739
 40
0.195889714042447
 40
0.2247454979312803
 40
0.2540172492220635
 40
0.3796724409988544
 40
0.505648463500191
 40
0.6297527290689083
 40
0.7535891720572004
 40
0.803856480609888
 40
0.85333968434422
 40
0.902326439836625
 40
0.9511131859224594
 40
1.0
 40
1.0
 40
1.0
 40
1.0
 10
385.412247781672
 20
112.341987545592
 30
0.0
 10
385.4123955329867
 20
112.3422540881456
 30
0.0
 10
385.4126907124084
 20
112.3427865901878
 30
0.0
 10
385.4163154114243
 20
112.3493340388839
 30
0.0
 10
385.4222613070946
 20
112.3601032821702
 30
0.0
 10
385.4307360300097
 20
112.3755140180945
 30
0.0
 10
385.4416510168489
 20
112.3954703943483
 30
0.0
 10
385.4549870850872
 20
112.4200204908187
 30
0.0
 10
385.4706948497741
 20
112.4491771145746
 30
0.0
 10
385.488726437932
 20
112.4829730860081
 30
0.0
 10
385.5311439826791
 20
112.5633798440633
 30
0.0
 10
385.6116650224329
 20
112.7203682937346
 30
0.0
 10
385.7450913693074
 20
113.0021540314814
 30
0.0
 10
385.8891683459909
 20
113.3400261411092
 30
0.0
 10
386.0048460974429
 20
113.648707054849
 30
0.0
 10
386.0873575726607
 20
113.8947377746057
 30
0.0
 10
386.1402791971861
 20
114.0635636658797
 30
0.0
 10
386.1901363315634
 20
114.2348792368915
 30
0.0
 10
386.2371543247937
 20
114.4085615871114
 30
0.0
 10
386.2656213355219
 20
114.5257132754139
 30
0.0
 10
386.2798694233206
 20
114.5843491313746
 30
0.0
  0
ARC
  5
10E
330
1F
100
AcDbEntity
  8
0
  6
Continuous
 62
     7
370
    25
100
AcDbCircle
 10
377.6982716924
 20
116.6157358368
 30
0.0
 40
11.62303852141071
100
AcDbArc
 50
169.5595567507
 51
190.4404432494
  0
ARC
  5
10F
330
1F
100
AcDbEntity
  8
0
  6
Continuous
 62
     7
370
    25
100
AcDbCircle
 10
377.6982716924
 20
116.6157358368
 30
0.0
 40
9.143750000000006
100
AcDbArc
 50
166.6824039243
 51
193.3175960757
  0
ARC
  5
110
330
1F
100
AcDbEntity
  8
0
  6
Continuous
 62
     7
370
    25
100
AcDbCircle
 10
377.6982716924
 20
116.6157358368
 30
0.0
 40
8.81874999999997
100
AcDbArc
 50
166.6824039243
 51
193.3175960757
  0
ARC
  5
111
330
1F
100
AcDbEntity
  8
0
  6
Continuous
 62
     7
370
    25
100
AcDbCircle
 10
377.6982716924
 20
116.6157358368
 30
0.0
 40
9.143750000000006
100
AcDbArc
 50
346.6824039243
 51
13.3175960757
  0
ARC
  5
112
330
1F
100
AcDbEntity
  8
0
  6
Continuous
 62
     7
370
    25
100
AcDbCircle
 10
377.6982716924
 20
116.6157358368
 30
0.0
 40
8.81874999999997
100
AcDbArc
 50
346.6824039243
 51
13.3175960757
  0
ARC
  5
113
330
1F
100
AcDbEntity
  8
0
  6
Continuous
 62
     7
370
    25
100
AcDbCircle
 10
377.6982716924
 20
116.6157358368
 30
0.0
 40
11.6230385214107
100
AcDbArc
 50
349.5595567507
 51
10.4404432493
  0
CIRCLE
  5
114
330
1F
100
AcDbEntity
  8
0
  6
Continuous
 62
     7
370
    25
100
AcDbCircle
 10
377.6982716924
 20
116.6157358368
 30
0.0
 40
7.775000000000034
  0
CIRCLE
  5
115
330
1F
100
AcDbEntity
  8
0
  6
Continuous
 62
     7
370
    25
100
AcDbCircle
 10
377.6982716924
 20
116.6157358368
 30
0.0
 40
2.615470053837953
  0
CIRCLE
  5
116
330
1F
100
AcDbEntity
  8
0
  6
Continuous
 62
     7
370
    25
100
AcDbCircle
 10
377.6982716924
 20
116.6157358368
 30
0.0
 40
2.5
  0
CIRCLE
  5
117
330
1F
100
AcDbEntity
  8
0
  6
Continuous
 62
     7
370
    25
100
AcDbCircle
 10
377.6982716924
 20
116.6157358368
 30
0.0
 40
15.73750000000001
  0
CIRCLE
  5
118
330
1F
100
AcDbEntity
  8
0
  6
Continuous
 62
     7
370
    25
100
AcDbCircle
 10
377.6982716924
 20
116.6157358368
 30
0.0
 40
13.42500000000001
  0
CIRCLE
  5
119
330
1F
100
AcDbEntity
  8
0
  6
Continuous
 62
     7
370
    25
100
AcDbCircle
 10
377.6982716924
 20
116.6157358368
 30
0.0
 40
2.0
  0
LINE
  5
11A
330
1F
100
AcDbEntity
  8
0
  6
CENTER
 62
     7
370
    18
100
AcDbLine
 10
377.6982716924
 20
116.6157358368
 30
0.0
 11
377.6982716924
 21
136.119736538
 31
0.0
  0
LINE
  5
11B
330
1F
100
AcDbEntity
  8
0
  6
CENTER
 62
     7
370
    18
100
AcDbLine
 10
377.6982716924
 20
116.6157358368
 30
0.0
 11
397.2127716924
 21
116.6157358368
 31
0.0
  0
LINE
  5
11C
330
1F
100
AcDbEntity
  8
0
  6
Continuous
 62
     7
370
    18
100
AcDbLine
 10
389.6982716924
 20
134.119736538
 30
0.0
 11
377.6982716924
 21
134.119736538
 31
0.0
  0
SOLID
  5
11D
330
1F
100
AcDbEntity
  8
0
  6
Continuous
 62
     7
370
    18
100
AcDbTrace
 10
377.6982716924
 20
134.119736538
 30
0.0
 11
383.6982716924
 21
132.619736538
 31
0.0
 12
383.6982716924
 22
135.619736538
 32
0.0
 13
383.6982716924
 23
135.619736538
 33
0.0
  0
LINE
  5
11E
330
1F
100
AcDbEntity
  8
0
  6
Continuous
 62
     7
370
    18
100
AcDbLine
 10
407.2127716924
 20
116.6157358368
 30
0.0
 11
395.2127716924
 21
116.6157358368
 31
0.0
  0
SOLID
  5
11F
330
1F
100
AcDbEntity
  8
0
  6
Continuous
 62
     7
370
    18
100
AcDbTrace
 10
395.2127716924
 20
116.6157358368
 30
0.0
 11
401.2127716924
 21
115.1157358368
 31
0.0
 12
401.2127716924
 22
118.1157358368
 32
0.0
 13
401.2127716924
 23
118.1157358368
 33
0.0
  0
MTEXT
  5
120
330
1F
100
AcDbEntity
  8
0
  6
Continuous
 62
     7
100
AcDbMText
 10
386.5485423691
 20
140.7689094703
 30
0.0
 40
3.5
 41
0.0
 71
     1
 72
     1
  1
A
  7
SLDTEXTSTYLE0
 73
     1
 44
1.0
  0
MTEXT
  5
121
330
1F
100
AcDbEntity
  8
0
  6
Continuous
 62
     7
100
AcDbMText
 10
404.0630423691
 20
114.4015612503
 30
0.0
 40
3.5
 41
0.0
 71
     1
 72
     1
  1
A
  7
SLDTEXTSTYLE0
 73
     1
 44
1.0
  0
LINE
  5
122
330
1F
100
AcDbEntity
  8
VERMASSUNG
  6
CENTERX2
370
    18
100
AcDbLine
 10
389.366450515
 20
119.6457358368
 30
0.0
 11
383.0200035109
 21
119.6457358368
 31
0.0
  0
LINE
  5
123
330
1F
100
AcDbEntity
  8
VERMASSUNG
  6
CENTERX2
370
    18
100
AcDbLine
 10
390.335688308
 20
118.7219858368
 30
0.0
 11
383.566738567
 21
118.7219858368
 31
0.0
  0
LINE
  5
124
330
1F
100
AcDbEntity
  8
VERMASSUNG
  6
CENTERX2
370
    18
100
AcDbLine
 10
390.3350426658
 20
114.5094858368
 30
0.0
 11
383.5651973209
 21
114.5094858368
 31
0.0
  0
LINE
  5
125
330
1F
100
AcDbEntity
  8
VERMASSUNG
  6
CENTERX2
370
    18
100
AcDbLine
 10
371.0925911741
 20
114.5094858368
 30
0.0
 11
364.1378718297
 21
114.5094858368
 31
0.0
  0
LINE
  5
126
330
1F
100
AcDbEntity
  8
VERMASSUNG
  6
CENTERX2
370
    18
100
AcDbLine
 10
370.9080642822
 20
118.7219858368
 30
0.0
 11
364.1382189374
 21
118.7219858368
 31
0.0
  0
LINE
  5
127
330
1F
100
AcDbEntity
  8
VERMASSUNG
  6
CENTERX2
370
    18
100
AcDbLine
 10
371.5945693665
 20
119.6457358368
 30
0.0
 11
365.2502513178
 21
119.6457358368
 31
0.0
  0
LINE
  5
128
330
1F
100
AcDbEntity
  8
0
  6
Continuous
 62
     7
370
    25
100
AcDbLine
 10
132.5707587096
 20
85.1407358368
 30
0.0
 11
137.336560905
 21
85.1407358368
 31
0.0
  0
ARC
  5
129
330
1F
100
AcDbEntity
  8
0
  6
Continuous
 62
     7
370
    25
100
AcDbCircle
 10
119.536560905
 20
85.3407358368
 30
0.0
 40
0.2000000000000028
100
AcDbArc
 50
180.0
 51
270.0
  0
LINE
  5
12A
330
1F
100
AcDbEntity
  8
0
  6
Continuous
 62
     7
370
    25
100
AcDbLine
 10
119.536560905
 20
85.1407358368
 30
0.0
 11
125.9023631004
 21
85.1407358368
 31
0.0
  0
LINE
  5
12B
330
1F
100
AcDbEntity
  8
0
  6
Continuous
 62
     7
370
    25
100
AcDbLine
 10
125.9023631004
 20
85.1407358368
 30
0.0
 11
127.361560905
 21
87.6681405726
 31
0.0
  0
LINE
  5
12C
330
1F
100
AcDbEntity
  8
0
  6
Continuous
 62
     7
370
    25
100
AcDbLine
 10
131.111560905
 20
87.6681405726
 30
0.0
 11
132.5707587096
 21
85.1407358368
 31
0.0
  0
ARC
  5
12D
330
1F
100
AcDbEntity
  8
0
  6
Continuous
 62
     7
370
    25
100
AcDbCircle
 10
140.336560905
 20
87.6157358368
 30
0.0
 40
3.0
100
AcDbArc
 50
90.0
 51
180.0
  0
ARC
  5
12E
330
1F
100
AcDbEntity
  8
0
  6
Continuous
 62
     7
370
    25
100
AcDbCircle
 10
128.361560905
 20
87.7657358368
 30
0.0
 40
1.0
100
AcDbArc
 50
90.0
 51
180.0
  0
ARC
  5
12F
330
1F
100
AcDbEntity
  8
0
  6
Continuous
 62
     7
370
    25
100
AcDbCircle
 10
130.111560905
 20
87.7657358368
 30
0.0
 40
1.0
100
AcDbArc
 50
0.0
 51
90.0
  0
LINE
  5
130
330
1F
100
AcDbEntity
  8
0
  6
Continuous
 62
     7
370
    25
100
AcDbLine
 10
128.361560905
 20
88.7657358368
 30
0.0
 11
130.111560905
 21
88.7657358368
 31
0.0
  0
LINE
  5
131
330
1F
100
AcDbEntity
  8
0
  6
Continuous
 62
     7
370
    25
100
AcDbLine
 10
140.336560905
 20
90.6157358368
 30
0.0
 11
206.4695193819
 21
90.6157358368
 31
0.0
  0
LINE
  5
132
330
1F
100
AcDbEntity
  8
0
  6
Continuous
 62
     7
370
    25
100
AcDbLine
 10
206.4695193819
 20
90.6157358368
 30
0.0
 11
218.1817974285
 21
96.0772607843
 31
0.0
  0
ARC
  5
133
330
1F
100
AcDbEntity
  8
0
  6
Continuous
 62
     7
370
    25
100
AcDbCircle
 10
118.9076260304
 20
91.0657358368
 30
0.0
 40
0.8000000000000047
100
AcDbArc
 50
57.576802718
 51
107.5
  0
LINE
  5
134
330
1F
100
AcDbEntity
  8
0
  6
Continuous
 62
     7
370
    25
100
AcDbLine
 10
104.8501154369
 20
92.343215316
 30
0.0
 11
118.176378865
 21
91.6739977912
 31
0.0
  0
LINE
  5
135
330
1F
100
AcDbEntity
  8
0
  6
Continuous
 62
     7
370
    25
100
AcDbLine
 10
80.886560905
 20
93.5466157092
 30
0.0
 11
88.9413977685
 21
93.1421183782
 31
0.0
  0
LINE
  5
136
330
1F
100
AcDbEntity
  8
0
  6
Continuous
 62
     7
370
    25
100
AcDbLine
 10
118.176378865
 20
91.6739977912
 30
0.0
 11
118.6670613908
 21
91.8287093974
 31
0.0
  0
LINE
  5
137
330
1F
100
AcDbEntity
  8
0
  6
Continuous
 62
     7
370
    25
100
AcDbLine
 10
79.386560905
 20
94.412641113
 30
0.0
 11
80.886560905
 21
93.5466157092
 31
0.0
  0
ARC
  5
138
330
1F
100
AcDbEntity
  8
0
  6
Continuous
 62
     7
370
    25
100
AcDbCircle
 10
217.336560905
 20
97.8898763584
 30
0.0
 40
2.0
100
AcDbArc
 50
295.0
 51
0.0
  0
LINE
  5
139
330
1F
100
AcDbEntity
  8
0
  6
Continuous
 62
     7
370
    25
100
AcDbLine
 10
189.336560905
 20
125.2006053234
 30
0.0
 11
186.836560905
 21
127.7006053234
 31
0.0
  0
LINE
  5
13A
330
1F
100
AcDbEntity
  8
0
  6
Continuous
 62
     7
370
    25
100
AcDbLine
 10
186.836560905
 20
127.7006053234
 30
0.0
 11
186.836560905
 21
140.7006053234
 31
0.0
  0
LINE
  5
13B
330
1F
100
AcDbEntity
  8
0
  6
Continuous
 62
     7
370
    25
100
AcDbLine
 10
186.836560905
 20
140.7006053234
 30
0.0
 11
187.836560905
 21
141.7006053234
 31
0.0
  0
LINE
  5
13C
330
1F
100
AcDbEntity
  8
0
  6
Continuous
 62
     7
370
    25
100
AcDbLine
 10
187.836560905
 20
141.7006053234
 30
0.0
 11
190.8243204219
 21
141.7006053234
 31
0.0
  0
LINE
  5
13D
330
1F
100
AcDbEntity
  8
0
  6
Continuous
 62
     7
370
    25
100
AcDbLine
 10
190.8243204219
 20
131.7006053234
 30
0.0
 11
190.8243204219
 21
141.7006053234
 31
0.0
  0
LINE
  5
13E
330
1F
100
AcDbEntity
  8
0
  6
Continuous
 62
     7
370
    25
100
AcDbLine
 10
198.8488013881
 20
131.7006053234
 30
0.0
 11
190.8243204219
 21
131.7006053234
 31
0.0
  0
LINE
  5
13F
330
1F
100
AcDbEntity
  8
0
  6
Continuous
 62
     7
370
    25
100
AcDbLine
 10
198.8488013881
 20
131.7006053234
 30
0.0
 11
198.8488013881
 21
141.7006053234
 31
0.0
  0
LINE
  5
140
330
1F
100
AcDbEntity
  8
0
  6
Continuous
 62
     7
370
    25
100
AcDbLine
 10
198.8488013881
 20
141.7006053234
 30
0.0
 11
201.836560905
 21
141.7006053234
 31
0.0
  0
LINE
  5
141
330
1F
100
AcDbEntity
  8
0
  6
Continuous
 62
     7
370
    25
100
AcDbLine
 10
201.836560905
 20
141.7006053234
 30
0.0
 11
202.836560905
 21
140.7006053234
 31
0.0
  0
LINE
  5
142
330
1F
100
AcDbEntity
  8
0
  6
Continuous
 62
     7
370
    25
100
AcDbLine
 10
202.836560905
 20
140.7006053234
 30
0.0
 11
202.836560905
 21
127.7006053234
 31
0.0
  0
LINE
  5
143
330
1F
100
AcDbEntity
  8
0
  6
Continuous
 62
     7
370
    25
100
AcDbLine
 10
202.836560905
 20
127.7006053234
 30
0.0
 11
200.336560905
 21
125.2006053234
 31
0.0
  0
LINE
  5
144
330
1F
100
AcDbEntity
  8
0
  6
Continuous
 62
     7
370
    25
100
AcDbLine
 10
200.336560905
 20
125.2006053234
 30
0.0
 11
198.836560905
 21
125.2006053234
 31
0.0
  0
LINE
  5
145
330
1F
100
AcDbEntity
  8
0
  6
Continuous
 62
     7
370
    25
100
AcDbLine
 10
194.836560905
 20
127.5100064001
 30
0.0
 11
198.836560905
 21
125.2006053234
 31
0.0
  0
LINE
  5
146
330
1F
100
AcDbEntity
  8
0
  6
Continuous
 62
     7
370
    25
100
AcDbLine
 10
190.836560905
 20
125.2006053234
 30
0.0
 11
194.836560905
 21
127.5100064001
 31
0.0
  0
LINE
  5
147
330
1F
100
AcDbEntity
  8
0
  6
Continuous
 62
     7
370
    25
100
AcDbLine
 10
190.836560905
 20
125.2006053234
 30
0.0
 11
189.336560905
 21
125.2006053234
 31
0.0
  0
LINE
  5
148
330
1F
100
AcDbEntity
  8
0
  6
Continuous
 62
     7
370
    25
100
AcDbLine
 10
198.836560905
 20
125.2006053234
 30
0.0
 11
190.836560905
 21
125.2006053234
 31
0.0
  0
LINE
  5
149
330
1F
100
AcDbEntity
  8
0
  6
Continuous
 62
     7
370
    25
100
AcDbLine
 10
191.0290196074
 20
131.7006053234
 30
0.0
 11
191.0290196074
 21
141.7006053234
 31
0.0
  0
LINE
  5
14A
330
1F
100
AcDbEntity
  8
0
  6
Continuous
 62
     7
370
    25
100
AcDbLine
 10
191.0290196074
 20
141.7006053234
 30
0.0
 11
190.8243204219
 21
141.7006053234
 31
0.0
  0
LINE
  5
14B
330
1F
100
AcDbEntity
  8
0
  6
Continuous
 62
     7
370
    25
100
AcDbLine
 10
195.1970720299
 20
131.7006053234
 30
0.0
 11
195.1970720299
 21
141.7006053234
 31
0.0
  0
LINE
  5
14C
330
1F
100
AcDbEntity
  8
0
  6
Continuous
 62
     7
370
    25
100
AcDbLine
 10
198.8488013881
 20
141.7006053234
 30
0.0
 11
195.1970720299
 21
141.7006053234
 31
0.0
  0
LINE
  5
14D
330
1F
100
AcDbEntity
  8
0
  6
Continuous
 62
     7
370
    25
100
AcDbLine
 10
191.0290196074
 20
141.7006053234
 30
0.0
 11
195.1970720299
 21
141.7006053234
 31
0.0
  0
LINE
  5
14E
330
1F
100
AcDbEntity
  8
0
  6
Continuous
 62
     7
370
    25
100
AcDbLine
 10
132.5707587096
 20
85.1407358368
 30
0.0
 11
132.5707587096
 21
111.7260285571
 31
0.0
  0
SPLINE
  5
14F
330
1F
100
AcDbEntity
  8
0
  6
Continuous
 62
     7
370
    25
100
AcDbSpline
210
0.0
220
0.0
230
1.0
 70
     8
 71
     3
 72
    20
 73
    16
 74
     0
 42
0.000000001
 43
0.00000001
 40
0.0
 40
0.0
 40
0.0
 40
0.0
 40
0.1249999999999996
 40
0.1249999999999996
 40
0.2499999999999992
 40
0.2499999999999992
 40
0.3749999999999989
 40
0.3749999999999989
 40
0.4999999999999987
 40
0.4999999999999987
 40
0.7499999999999994
 40
0.7499999999999994
 40
0.8749999999999997
 40
0.8749999999999997
 40
1.0
 40
1.0
 40
1.0
 40
1.0
 10
136.1240609049871
 20
116.6157358367744
 30
0.0
 10
136.1240609049871
 20
116.3490677492932
 30
0.0
 10
136.1020138759434
 20
116.0807555740191
 30
0.0
 10
136.0130078382386
 20
115.5479125387858
 30
0.0
 10
135.9471288700391
 20
115.2886223287999
 30
0.0
 10
135.7749539623319
 20
114.7834953627784
 30
0.0
 10
135.668247391425
 20
114.5369151468571
 30
0.0
 10
135.4155704885487
 20
114.0604984961174
 30
0.0
 10
135.272113224354
 20
113.8350784343526
 30
0.0
 10
134.7937910320735
 20
113.1944707527388
 30
0.0
 10
134.4057640491079
 20
112.8117050376357
 30
0.0
 10
133.7639594006626
 20
112.3358027894641
 30
0.0
 10
133.5391547730154
 20
112.1922071533124
 30
0.0
 10
133.0678457153932
 20
111.9348757679218
 30
0.0
 10
132.8221491155043
 20
111.8218233893999
 30
0.0
 10
132.5707587095572
 20
111.7260285570892
 30
0.0
  0
LINE
  5
150
330
1F
100
AcDbEntity
  8
0
  6
Continuous
 62
     7
370
    25
100
AcDbLine
 10
137.336560905
 20
85.1407358368
 30
0.0
 11
137.336560905
 21
116.6157358368
 31
0.0
  0
LINE
  5
151
330
1F
100
AcDbEntity
  8
0
  6
Continuous
 62
     7
370
    25
100
AcDbLine
 10
137.336560905
 20
148.0907358368
 30
0.0
 11
132.5707587096
 21
148.0907358368
 31
0.0
  0
LINE
  5
152
330
1F
100
AcDbEntity
  8
0
  6
Continuous
 62
     7
370
    25
100
AcDbLine
 10
119.336560905
 20
85.3407358368
 30
0.0
 11
119.336560905
 21
116.6157358368
 31
0.0
  0
LINE
  5
153
330
1F
100
AcDbEntity
  8
0
  6
Continuous
 62
     7
370
    25
100
AcDbLine
 10
119.336560905
 20
116.6157358368
 30
0.0
 11
119.536560905
 21
116.6157358368
 31
0.0
  0
ARC
  5
154
330
1F
100
AcDbEntity
  8
0
  6
Continuous
 62
     7
370
    25
100
AcDbCircle
 10
119.536560905
 20
147.8907358368
 30
0.0
 40
0.1999999999999886
100
AcDbArc
 50
90.0
 51
179.9999999999
  0
SPLINE
  5
155
330
1F
100
AcDbEntity
  8
0
  6
Continuous
 62
     7
370
    25
100
AcDbSpline
210
0.0
220
0.0
230
1.0
 70
     8
 71
     3
 72
    14
 73
    10
 74
     0
 42
0.000000001
 43
0.00000001
 40
0.0
 40
0.0
 40
0.0
 40
0.0
 40
0.25
 40
0.25
 40
0.5
 40
0.5
 40
0.75
 40
0.75
 40
1.0
 40
1.0
 40
1.0
 40
1.0
 10
125.902363100417
 20
113.3208377512576
 30
0.0
 10
125.705487214892
 20
113.5483343191867
 30
0.0
 10
125.5293788935025
 20
113.7899210942578
 30
0.0
 10
125.2196424997293
 20
114.302078328632
 30
0.0
 10
125.0850844982357
 20
114.5756111317401
 30
0.0
 10
124.8698423455266
 20
115.1357162662775
 30
0.0
 10
124.7881991080076
 20
115.4226887616876
 30
0.0
 10
124.6776760857376
 20
116.0107277467318
 30
0.0
 10
124.6490609049871
 20
116.3151712025025
 30
0.0
 10
124.6490609049871
 20
116.6157358367743
 30
0.0
  0
LINE
  5
156
330
1F
100
AcDbEntity
  8
0
  6
Continuous
 62
     7
370
    25
100
AcDbLine
 10
125.9023631004
 20
85.1407358368
 30
0.0
 11
125.9023631004
 21
113.3208377513
 31
0.0
  0
LINE
  5
157
330
1F
100
AcDbEntity
  8
0
  6
Continuous
 62
     7
370
    25
100
AcDbLine
 10
125.9023631004
 20
148.0907358368
 30
0.0
 11
119.536560905
 21
148.0907358368
 31
0.0
  0
ARC
  5
158
330
1F
100
AcDbEntity
  8
0
  6
Continuous
 62
     7
370
    25
100
AcDbCircle
 10
130.386560905
 20
116.6157358368
 30
0.0
 40
3.737500000000011
100
AcDbArc
 50
180.0
 51
206.113804444
  0
SPLINE
  5
159
330
1F
100
AcDbEntity
  8
0
  6
Continuous
 62
     7
370
    25
100
AcDbSpline
210
0.0
220
0.0
230
1.0
 70
     8
 71
     3
 72
    10
 73
     6
 74
     0
 42
0.000000001
 43
0.00000001
 40
0.0
 40
0.0
 40
0.0
 40
0.0
 40
0.5
 40
0.5
 40
1.0
 40
1.0
 40
1.0
 40
1.0
 10
127.0305790975338
 20
114.9706545749387
 30
0.0
 10
126.8536939511104
 20
114.6722042595821
 30
0.0
 10
126.668144576233
 20
114.3932115554547
 30
0.0
 10
126.2901956361854
 20
113.847892261329
 30
0.0
 10
126.0974090940062
 20
113.5825568755075
 30
0.0
 10
125.902363100417
 20
113.3208377512576
 30
0.0
  0
SPLINE
  5
15A
330
1F
100
AcDbEntity
  8
0
  6
Continuous
 62
     7
370
    25
100
AcDbSpline
210
0.0
220
0.0
230
1.0
 70
     8
 71
     3
 72
     8
 73
     4
 74
     0
 42
0.000000001
 43
0.00000001
 40
0.0
 40
0.0
 40
0.0
 40
0.0
 40
1.0
 40
1.0
 40
1.0
 40
1.0
 10
132.5707587095567
 20
111.7260285570881
 30
0.0
 10
132.2223573048765
 20
112.164003883502
 30
0.0
 10
131.8777889196436
 20
112.6070870220868
 30
0.0
 10
131.5394046203227
 20
113.0604780939354
 30
0.0
  0
ARC
  5
15B
330
1F
100
AcDbEntity
  8
0
  6
Continuous
 62
     7
370
    25
100
AcDbCircle
 10
130.386560905
 20
116.6157358368
 30
0.0
 40
3.737499999999993
100
AcDbArc
 50
287.9660359156
 51
0.0
  0
SPLINE
  5
15C
330
1F
100
AcDbEntity
  8
0
  6
Continuous
 62
     7
370
    25
100
AcDbSpline
210
0.0
220
0.0
230
1.0
 70
     8
 71
     3
 72
     8
 73
     4
 74
     0
 42
0.000000001
 43
0.00000001
 40
0.0
 40
0.0
 40
0.0
 40
0.0
 40
1.0
 40
1.0
 40
1.0
 40
1.0
 10
127.3615609049871
 20
114.4206774662519
 30
0.0
 10
127.2432641455571
 20
114.5837016947104
 30
0.0
 10
127.1318356633858
 20
114.7640901937328
 30
0.0
 10
127.0305790975338
 20
114.9706545749387
 30
0.0
  0
LINE
  5
15D
330
1F
100
AcDbEntity
  8
0
  6
Continuous
 62
     7
370
    25
100
AcDbLine
 10
127.361560905
 20
87.6681405726
 30
0.0
 11
127.361560905
 21
114.4206774663
 31
0.0
  0
SPLINE
  5
15E
330
1F
100
AcDbEntity
  8
0
  6
Continuous
 62
     7
370
    25
100
AcDbSpline
210
0.0
220
0.0
230
1.0
 70
     8
 71
     3
 72
     8
 73
     4
 74
     0
 42
0.000000001
 43
0.00000001
 40
0.0
 40
0.0
 40
0.0
 40
0.0
 40
1.0
 40
1.0
 40
1.0
 40
1.0
 10
131.539404620323
 20
113.0604780939362
 30
0.0
 10
131.3978665320412
 20
113.0145823228391
 30
0.0
 10
131.2552560633043
 20
112.9776414719018
 30
0.0
 10
131.1115609049873
 20
112.9492277909612
 30
0.0
  0
LINE
  5
15F
330
1F
100
AcDbEntity
  8
0
  6
Continuous
 62
     7
370
    25
100
AcDbLine
 10
131.111560905
 20
87.6681405726
 30
0.0
 11
131.111560905
 21
112.949227791
 31
0.0
  0
ARC
  5
160
330
1F
100
AcDbEntity
  8
0
  6
Continuous
 62
     7
370
    25
100
AcDbCircle
 10
140.336560905
 20
145.6157358368
 30
0.0
 40
3.0
100
AcDbArc
 50
180.0
 51
270.0
  0
SPLINE
  5
161
330
1F
100
AcDbEntity
  8
0
  6
Continuous
 62
     7
370
    25
100
AcDbSpline
210
0.0
220
0.0
230
1.0
 70
     8
 71
     3
 72
    14
 73
    10
 74
     0
 42
0.000000001
 43
0.00000001
 40
0.0
 40
0.0
 40
0.0
 40
0.0
 40
0.25
 40
0.25
 40
0.5
 40
0.5
 40
0.75
 40
0.75
 40
1.0
 40
1.0
 40
1.0
 40
1.0
 10
128.3615609049871
 20
113.4743537762793
 30
0.0
 10
128.2272128186306
 20
113.5609573379069
 30
0.0
 10
128.1040361447747
 20
113.6524257352303
 30
0.0
 10
127.8752895398566
 20
113.8436171218612
 30
0.0
 10
127.7733675758894
 20
113.9404789740021
 30
0.0
 10
127.5939441734607
 20
114.1283535887374
 30
0.0
 10
127.5175028852779
 20
114.2185889400887
 30
0.0
 10
127.4002129124278
 20
114.3663953040661
 30
0.0
 10
127.3615609049871
 20
114.420677466252
 30
0.0
 10
127.3615609049871
 20
114.420677466252
 30
0.0
  0
SPLINE
  5
162
330
1F
100
AcDbEntity
  8
0
  6
Continuous
 62
     7
370
    25
100
AcDbSpline
210
0.0
220
0.0
230
1.0
 70
     8
 71
     3
 72
    14
 73
    10
 74
     0
 42
0.000000001
 43
0.00000001
 40
0.0
 40
0.0
 40
0.0
 40
0.0
 40
0.25
 40
0.25
 40
0.5
 40
0.5
 40
0.75
 40
0.75
 40
1.0
 40
1.0
 40
1.0
 40
1.0
 10
131.1115609049872
 20
112.9492277909618
 30
0.0
 10
131.1115609049874
 20
112.9492277909618
 30
0.0
 10
131.0856443824162
 20
112.9438510599734
 30
0.0
 10
130.9861995358387
 20
112.926306472373
 30
0.0
 10
130.9139011434264
 20
112.9144570687267
 30
0.0
 10
130.7291972489026
 20
112.8928132507264
 30
0.0
 10
130.6196199870266
 20
112.883523990042
 30
0.0
 10
130.3762898088085
 20
112.8762684536844
 30
0.0
 10
130.2447535498883
 20
112.8785398598438
 30
0.0
 10
130.1115609049871
 20
112.8883666237769
 30
0.0
  0
SPLINE
  5
163
330
1F
100
AcDbEntity
  8
0
  6
Continuous
 62
     7
370
    25
100
AcDbSpline
210
0.0
220
0.0
230
1.0
 70
     8
 71
     3
 72
    10
 73
     6
 74
     0
 42
0.000000001
 43
0.00000001
 40
0.0
 40
0.0
 40
0.0
 40
0.0
 40
0.5
 40
0.5
 40
1.0
 40
1.0
 40
1.0
 40
1.0
 10
130.1115609049871
 20
112.888366623777
 30
0.0
 10
129.7990970026989
 20
112.9114197661461
 30
0.0
 10
129.4962080207012
 20
112.9726544685525
 30
0.0
 10
128.9088648358971
 20
113.1688264324764
 30
0.0
 10
128.6243971753252
 20
113.3049240675762
 30
0.0
 10
128.3615609049871
 20
113.4743537762793
 30
0.0
  0
LINE
  5
164
330
1F
100
AcDbEntity
  8
0
  6
Continuous
 62
     7
370
    25
100
AcDbLine
 10
119.336560905
 20
143.4657358368
 30
0.0
 11
119.670599591
 21
142.4063004764
 31
0.0
  0
LINE
  5
165
330
1F
100
AcDbEntity
  8
0
  6
Continuous
 62
     7
370
    25
100
AcDbLine
 10
119.336560905
 20
143.4657358368
 30
0.0
 11
119.336560905
 21
141.4904471034
 31
0.0
  0
SPLINE
  5
166
330
1F
100
AcDbEntity
  8
0
  6
Continuous
 62
     7
370
    25
100
AcDbSpline
210
0.0
220
0.0
230
1.0
 70
     8
 71
     3
 72
    12
 73
     8
 74
     0
 42
0.000000001
 43
0.00000001
 40
0.0
 40
0.0
 40
0.0
 40
0.0
 40
0.2034350470517506
 40
0.4096039671050541
 40
0.6138214619399006
 40
0.8152750017094134
 40
1.0
 40
1.0
 40
1.0
 40
1.0
 10
186.836560963359
 20
142.6157358367743
 30
0.0
 10
186.8664373713481
 20
142.6057584427532
 30
0.0
 10
186.9265916830685
 20
142.5856695729559
 30
0.0
 10
187.413265790069
 20
142.4306863148585
 30
0.0
 10
188.1501029594946
 20
142.208129160969
 30
0.0
 10
189.1067241930494
 20
141.9473320841242
 30
0.0
 10
189.9077807394603
 20
141.7804377250817
 30
0.0
 10
190.2909588671465
 20
141.7006053233545
 30
0.0
  0
SPLINE
  5
167
330
1F
100
AcDbEntity
  8
0
  6
Continuous
 62
     7
370
    25
100
AcDbSpline
210
0.0
220
0.0
230
1.0
 70
     8
 71
     3
 72
    13
 73
     9
 74
     0
 42
0.000000001
 43
0.00000001
 40
0.0
 40
0.0
 40
0.0
 40
0.0
 40
0.1854035046783404
 40
0.3867098812572445
 40
0.5906308403565264
 40
0.7963249664870353
 40
0.9998333742137799
 40
1.0
 40
1.0
 40
1.0
 40
1.0
 10
199.37995127165
 20
141.7006053233545
 30
0.0
 10
199.7649818587897
 20
141.7806815253234
 30
0.0
 10
200.5680687955306
 20
141.9477024163721
 30
0.0
 10
201.5246716060445
 20
142.2080991153107
 30
0.0
 10
202.2654912999607
 20
142.4319028196482
 30
0.0
 10
202.7327101444467
 20
142.580892565802
 30
0.0
 10
202.8366234373985
 20
142.6157266179374
 30
0.0
 10
202.8365606758036
 20
142.6157358292386
 30
0.0
 10
202.8365606244585
 20
142.6157358367743
 30
0.0
  0
LINE
  5
168
330
1F
100
AcDbEntity
  8
0
  6
Continuous
 62
     7
370
    25
100
AcDbLine
 10
186.8365609634
 20
142.6157358368
 30
0.0
 11
140.336560905
 21
142.6157358368
 31
0.0
  0
LINE
  5
169
330
1F
100
AcDbEntity
  8
0
  6
Continuous
 62
     7
370
    25
100
AcDbLine
 10
206.4695193819
 20
90.6157358368
 30
0.0
 11
206.4695193819
 21
116.6157358368
 31
0.0
  0
LINE
  5
16A
330
1F
100
AcDbEntity
  8
0
  6
Continuous
 62
     7
370
    25
100
AcDbLine
 10
206.4695193819
 20
142.6157358368
 30
0.0
 11
202.8365606245
 21
142.6157358368
 31
0.0
  0
LINE
  5
16B
330
1F
100
AcDbEntity
  8
0
  6
Continuous
 62
     7
370
    25
100
AcDbLine
 10
218.1817974285
 20
137.1542108892
 30
0.0
 11
206.4695193819
 21
142.6157358368
 31
0.0
  0
ARC
  5
16C
330
1F
100
AcDbEntity
  8
0
  6
Continuous
 62
     7
370
    25
100
AcDbCircle
 10
118.9076260304
 20
142.1657358368
 30
0.0
 40
0.8000000000000181
100
AcDbArc
 50
252.5
 51
17.5
  0
SPLINE
  5
16D
330
1F
100
AcDbEntity
  8
0
  6
Continuous
 62
     7
370
    25
100
AcDbSpline
210
0.0
220
0.0
230
1.0
 70
     8
 71
     3
 72
    23
 73
    19
 74
     0
 42
0.000000001
 43
0.00000001
 40
0.0
 40
0.0
 40
0.0
 40
0.0
 40
0.0014752899205275
 40
0.0696288509416035
 40
0.1372792101573364
 40
0.2039819135400783
 40
0.2703117571759917
 40
0.3365672618513769
 40
0.4028772365390579
 40
0.4678771374618322
 40
0.5326481398333837
 40
0.5993656092925664
 40
0.6655280750059939
 40
0.7321209147635985
 40
0.7988898269457709
 40
0.866338659222382
 40
0.9345238227745254
 40
1.0
 40
1.0
 40
1.0
 40
1.0
 10
89.09631538114753
 20
140.040015471454
 30
0.0
 10
89.09748202541314
 20
140.0396555432348
 30
0.0
 10
89.15254381261903
 20
140.0226681104761
 30
0.0
 10
89.54897482452975
 20
139.9053985957166
 30
0.0
 10
90.26503622036667
 20
139.7047875502909
 30
0.0
 10
91.274714961435
 20
139.4641727852512
 30
0.0
 10
92.49069338147062
 20
139.2369004516881
 30
0.0
 10
93.89489326738692
 20
139.0645109627687
 30
0.0
 10
95.41195740319786
 20
138.9764426493898
 30
0.0
 10
96.98625523784257
 20
139.0074903126727
 30
0.0
 10
98.55207546790459
 20
139.1585135512104
 30
0.0
 10
100.0419325363125
 20
139.4128503501049
 30
0.0
 10
101.4136127289517
 20
139.7305871286745
 30
0.0
 10
102.5995358225902
 20
140.0745035488322
 30
0.0
 10
103.5771351666201
 20
140.4023461491346
 30
0.0
 10
104.2966463182046
 20
140.67127057862
 30
0.0
 10
104.7692813199085
 20
140.8538599142412
 30
0.0
 10
104.8267524342615
 20
140.8771083068261
 30
0.0
 10
104.854905592436
 20
140.8884969092764
 30
0.0
  0
LINE
  5
16E
330
1F
100
AcDbEntity
  8
0
  6
Continuous
 62
     7
370
    25
100
AcDbLine
 10
88.9369950197
 20
140.0891321983
 30
0.0
 11
80.886560905
 21
139.6848559644
 31
0.0
  0
LINE
  5
16F
330
1F
100
AcDbEntity
  8
0
  6
Continuous
 62
     7
370
    25
100
AcDbLine
 10
80.886560905
 20
93.5466157092
 30
0.0
 11
80.886560905
 21
107.4936128022
 31
0.0
  0
SPLINE
  5
170
330
1F
100
AcDbEntity
  8
0
  6
Continuous
 62
     7
370
    25
100
AcDbSpline
210
0.0
220
0.0
230
1.0
 70
     8
 71
     3
 72
     8
 73
     4
 74
     0
 42
0.000000001
 43
0.00000001
 40
0.0
 40
0.0
 40
0.0
 40
0.0
 40
1.0
 40
1.0
 40
1.0
 40
1.0
 10
86.70473535793406
 20
107.498198860471
 30
0.0
 10
84.76534387362264
 20
107.4960527646214
 30
0.0
 10
82.82595238931123
 20
107.4944565780966
 30
0.0
 10
80.88656090499983
 20
107.4934091256209
 30
0.0
  0
SPLINE
  5
171
330
1F
100
AcDbEntity
  8
0
  6
Continuous
 62
     7
370
    25
100
AcDbSpline
210
0.0
220
0.0
230
1.0
 70
     8
 71
     3
 72
    13
 73
     9
 74
     0
 42
0.000000001
 43
0.00000001
 40
0.0
 40
0.0
 40
0.0
 40
0.0
 40
0.1686319999748085
 40
0.3360343310905433
 40
0.502536782590866
 40
0.6684737453788339
 40
0.834182263691515
 40
1.0
 40
1.0
 40
1.0
 40
1.0
 10
87.78823040740106
 20
107.6356553062886
 30
0.0
 10
87.7287405113413
 20
107.6211409862498
 30
0.0
 10
87.61019452106625
 20
107.5922181849652
 30
0.0
 10
87.43031782548036
 20
107.5582567915569
 30
0.0
 10
87.24992753785236
 20
107.531391229198
 30
0.0
 10
87.06881536581851
 20
107.51243229209
 30
0.0
 10
86.88705452865106
 20
107.5005018406943
 30
0.0
 10
86.76552176075641
 20
107.4989666891255
 30
0.0
 10
86.70473535793406
 20
107.498198860471
 30
0.0
  0
SPLINE
  5
172
330
1F
100
AcDbEntity
  8
0
  6
Continuous
 62
     7
370
    25
100
AcDbSpline
210
0.0
220
0.0
230
1.0
 70
     8
 71
     3
 72
     8
 73
     4
 74
     0
 42
0.000000001
 43
0.00000001
 40
0.0
 40
0.0
 40
0.0
 40
0.0
 40
1.0
 40
1.0
 40
1.0
 40
1.0
 10
93.18042382389389
 20
107.6398933481741
 30
0.0
 10
91.38302915245606
 20
107.6380222876501
 30
0.0
 10
89.58563448101822
 20
107.6366001066259
 30
0.0
 10
87.78823980958039
 20
107.63562598363
 30
0.0
  0
SPLINE
  5
173
330
1F
100
AcDbEntity
  8
0
  6
Continuous
 62
     7
370
    25
100
AcDbSpline
210
0.0
220
0.0
230
1.0
 70
     8
 71
     3
 72
    18
 73
    14
 74
     0
 42
0.000000001
 43
0.00000001
 40
0.0
 40
0.0
 40
0.0
 40
0.0
 40
0.0923325137111192
 40
0.1843692047063016
 40
0.2763458873810836
 40
0.3684982175655623
 40
0.4610598988303626
 40
0.554260954653301
 40
0.6483261285442131
 40
0.74347346365053
 40
0.8399130993119804
 40
0.9201660718299768
 40
1.0
 40
1.0
 40
1.0
 40
1.0
 10
95.3767454724962
 20
107.1057011123304
 30
0.0
 10
95.30641516898314
 20
107.106117736762
 30
0.0
 10
95.1659798921312
 20
107.1069496508087
 30
0.0
 10
94.95561736562857
 20
107.1205584977232
 30
0.0
 10
94.74617370271221
 20
107.1432252550949
 30
0.0
 10
94.53762403233972
 20
107.1758260448956
 30
0.0
 10
94.32998041506444
 20
107.2181285235159
 30
0.0
 10
94.12324222752486
 20
107.2701999221711
 30
0.0
 10
93.91742013556001
 20
107.3320486950164
 30
0.0
 10
93.71248845676786
 20
107.4036467064726
 30
0.0
 10
93.52100771137215
 20
107.4802251967
 30
0.0
 10
93.34328455931754
 20
107.5588364455331
 30
0.0
 10
93.23495056475352
 20
107.6127506013205
 30
0.0
 10
93.18092535530025
 20
107.6396371162195
 30
0.0
  0
LINE
  5
174
330
1F
100
AcDbEntity
  8
0
  6
Continuous
 62
     7
370
    25
100
AcDbLine
 10
97.2916187518
 20
107.1071965472
 30
0.0
 11
95.3767454725
 21
107.1057011123
 31
0.0
  0
SPLINE
  5
175
330
1F
100
AcDbEntity
  8
0
  6
Continuous
 62
     7
370
    25
100
AcDbSpline
210
0.0
220
0.0
230
1.0
 70
     8
 71
     3
 72
    25
 73
    21
 74
     0
 42
0.000000001
 43
0.00000001
 40
0.0
 40
0.0
 40
0.0
 40
0.0
 40
0.0280105225422753
 40
0.0559601148854256
 40
0.0839014045034749
 40
0.1118870776777086
 40
0.1399695827579646
 40
0.1682008401731476
 40
0.1966319670417595
 40
0.2253130233137476
 40
0.2542927850735311
 40
0.3799486436564626
 40
0.5057850221666382
 40
0.631308588631066
 40
0.7532068238011618
 40
0.8039473267946936
 40
0.8535894438541253
 40
0.9025339722380873
 40
0.9511970353782256
 40
1.0
 40
1.0
 40
1.0
 40
1.0
 10
102.2315030581885
 20
112.2410603517057
 30
0.0
 10
102.2315402799223
 20
112.1664403246932
 30
0.0
 10
102.231614642423
 20
112.0173625887078
 30
0.0
 10
102.2191985917764
 20
111.7947444977436
 30
0.0
 10
102.1975940314226
 20
111.5734200797161
 30
0.0
 10
102.1659085617626
 20
111.3534518138282
 30
0.0
 10
102.1243824234427
 20
111.1348615265992
 30
0.0
 10
102.0729516677128
 20
110.9176795881941
 30
0.0
 10
102.0116377930016
 20
110.7019381683079
 30
0.0
 10
101.9404274575021
 20
110.4876482768557
 30
0.0
 10
101.7695908503009
 20
110.0392985038348
 30
0.0
 10
101.4318586168649
 20
109.3859676757627
 30
0.0
 10
100.8203039526702
 20
108.6140744651265
 30
0.0
 10
100.0840691175177
 20
107.9699148397413
 30
0.0
 10
99.3975830458734
 20
107.5782736716792
 30
0.0
 10
98.84887889972458
 20
107.3595787707062
 30
0.0
 10
98.466842721223
 20
107.2437227218758
 30
0.0
 10
98.07967662251845
 20
107.1628148163459
 30
0.0
 10
97.68744995372832
 20
107.1135863855482
 30
0.0
 10
97.42368868560955
 20
107.1093285305329
 30
0.0
 10
97.29161875178566
 20
107.1071965471902
 30
0.0
  0
LINE
  5
176
330
1F
100
AcDbEntity
  8
0
  6
Continuous
 62
     7
370
    25
100
AcDbLine
 10
102.2315030582
 20
116.6157358368
 30
0.0
 11
102.2315030582
 21
112.2410603517
 31
0.0
  0
LINE
  5
177
330
1F
100
AcDbEntity
  8
0
  6
Continuous
 62
     7
370
    25
100
AcDbLine
 10
118.176378865
 20
91.6739977912
 30
0.0
 11
118.176378865
 21
116.6157358368
 31
0.0
  0
LINE
  5
178
330
1F
100
AcDbEntity
  8
0
  6
Continuous
 62
     7
370
    25
100
AcDbLine
 10
118.176378865
 20
141.5574738823
 30
0.0
 11
104.8549055924
 21
140.8884969093
 31
0.0
  0
SPLINE
  5
179
330
1F
100
AcDbEntity
  8
0
  6
Continuous
 62
     7
370
    25
100
AcDbSpline
210
0.0
220
0.0
230
1.0
 70
     8
 71
     3
 72
    20
 73
    16
 74
     0
 42
0.000000001
 43
0.00000001
 40
0.0
 40
0.0
 40
0.0
 40
0.0
 40
0.0829621378684853
 40
0.1658495135106166
 40
0.2487180070857358
 40
0.3299477216398526
 40
0.4108693994445737
 40
0.4941953814850565
 40
0.576890167662623
 40
0.6601065810557781
 40
0.7435845489350859
 40
0.8279858465401893
 40
0.9132590745392889
 40
0.9972257035811811
 40
1.0
 40
1.0
 40
1.0
 40
1.0
 10
91.24897699971405
 20
93.7524754692675
 30
0.0
 10
91.63472283578534
 20
93.8293938958716
 30
0.0
 10
92.40586688890254
 20
93.98316143320922
 30
0.0
 10
93.81361504007236
 20
94.15907665459474
 30
0.0
 10
95.32146640794697
 20
94.25307294192378
 30
0.0
 10
96.89395538296482
 20
94.22922856005718
 30
0.0
 10
98.46125241417691
 20
94.08532351515659
 30
0.0
 10
99.95702844095838
 20
93.83626591235756
 30
0.0
 10
101.3372823166311
 20
93.52158521981892
 30
0.0
 10
102.5348764996867
 20
93.1773238678384
 30
0.0
 10
103.521738529509
 20
92.84827664201865
 30
0.0
 10
104.268976775707
 20
92.5698157338109
 30
0.0
 10
104.7161782050725
 20
92.39795993877922
 30
0.0
 10
104.9029328172225
 20
92.3241092671809
 30
0.0
 10
104.8518346033243
 20
92.34426055825394
 30
0.0
 10
104.8502002929792
 20
92.34490507126047
 30
0.0
  0
SPLINE
  5
17A
330
1F
100
AcDbEntity
  8
0
  6
Continuous
 62
     7
370
    25
100
AcDbSpline
210
0.0
220
0.0
230
1.0
 70
     8
 71
     3
 72
    11
 73
     7
 74
     0
 42
0.000000001
 43
0.00000001
 40
0.0
 40
0.0
 40
0.0
 40
0.0
 40
0.2435512231731354
 40
0.4981153923403513
 40
0.750909788171944
 40
1.0
 40
1.0
 40
1.0
 40
1.0
 10
88.94148288197047
 20
93.14381325988435
 30
0.0
 10
88.96743380349575
 20
93.1520487964225
 30
0.0
 10
89.02050910030086
 20
93.168892265572
 30
0.0
 10
89.49820408396333
 20
93.3097937077095
 30
0.0
 10
90.2095435322301
 20
93.51508425815771
 30
0.0
 10
90.90420817940478
 20
93.67373537635493
 30
0.0
 10
91.24897699971405
 20
93.7524754692675
 30
0.0
  0
LINE
  5
17B
330
1F
100
AcDbEntity
  8
0
  6
Continuous
 62
     7
370
    25
100
AcDbLine
 10
118.6670613908
 20
141.4027622762
 30
0.0
 11
118.176378865
 21
141.5574738823
 31
0.0
  0
LINE
  5
17C
330
1F
100
AcDbEntity
  8
0
  6
Continuous
 62
     7
370
    25
100
AcDbLine
 10
102.2315030582
 20
112.2410603517
 30
0.0
 11
101.336560905
 21
112.4032358368
 31
0.0
  0
LINE
  5
17D
330
1F
100
AcDbEntity
  8
0
  6
Continuous
 62
     7
370
    25
100
AcDbLine
 10
101.336560905
 20
112.4032358368
 30
0.0
 11
101.336560905
 21
116.6157358368
 31
0.0
  0
SPLINE
  5
17E
330
1F
100
AcDbEntity
  8
0
  6
Continuous
 62
     7
370
    25
100
AcDbSpline
210
0.0
220
0.0
230
1.0
 70
     8
 71
     3
 72
    25
 73
    21
 74
     0
 42
0.000000001
 43
0.00000001
 40
0.0
 40
0.0
 40
0.0
 40
0.0
 40
0.0288821753116583
 40
0.0583636594024247
 40
0.088464720432864
 40
0.1192044006641432
 40
0.1506005800108822
 40
0.1826700399688414
 40
0.2154285269587146
 40
0.2488908143380118
 40
0.3610594471217245
 40
0.498467013106778
 40
0.5822693905006526
 40
0.6661127642782239
 40
0.7499972937224496
 40
0.8007709755032478
 40
0.8511237700807983
 40
0.901089602450676
 40
0.9507031914109089
 40
1.0
 40
1.0
 40
1.0
 40
1.0
 10
97.33656090498708
 20
108.4032358367743
 30
0.0
 10
97.39936135822582
 20
108.4040923207261
 30
0.0
 10
97.52626538202571
 20
108.4058230607798
 30
0.0
 10
97.7176197897402
 20
108.4199729261836
 30
0.0
 10
97.91152460241881
 20
108.443110008505
 30
0.0
 10
98.10742532314721
 20
108.4765211607305
 30
0.0
 10
98.30476299115138
 20
108.5203949827632
 30
0.0
 10
98.50291633293652
 20
108.5751902537325
 30
0.0
 10
98.7012320769447
 20
108.6412592150961
 30
0.0
 10
99.05255306444728
 20
108.7792405473491
 30
0.0
 10
99.57766483476973
 20
109.0592924861903
 30
0.0
 10
100.1146566632552
 20
109.4978830885986
 30
0.0
 10
100.5267163932937
 20
109.9717432101453
 30
0.0
 10
100.8136349813462
 20
110.4034269579651
 30
0.0
 10
101.0120616685534
 20
110.8065501997253
 30
0.0
 10
101.1441475426017
 20
111.1642863605043
 30
0.0
 10
101.2297814223995
 20
111.4670387627866
 30
0.0
 10
101.2908636337525
 20
111.7755270730323
 30
0.0
 10
101.329364577118
 20
112.0878387831887
 30
0.0
 10
101.3341672562115
 20
112.2983281970901
 30
0.0
 10
101.3365609049871
 20
112.4032358367743
 30
0.0
  0
SPLINE
  5
17F
330
1F
100
AcDbEntity
  8
0
  6
Continuous
 62
     7
370
    25
100
AcDbSpline
210
0.0
220
0.0
230
1.0
 70
     8
 71
     3
 72
    13
 73
     9
 74
     0
 42
0.000000001
 43
0.00000001
 40
0.0
 40
0.0
 40
0.0
 40
0.0
 40
0.1722587823678385
 40
0.3421398271425444
 40
0.5097456258111679
 40
0.6751828993453325
 40
0.8385626190248169
 40
1.0
 40
1.0
 40
1.0
 40
1.0
 10
94.33657927389734
 20
108.5532306595241
 30
0.0
 10
94.39744266356989
 20
108.5369669318246
 30
0.0
 10
94.5183293280153
 20
108.5046639693439
 30
0.0
 10
94.70139048598773
 20
108.4672763146502
 30
0.0
 10
94.88349316892837
 20
108.4381433797401
 30
0.0
 10
95.06443461724504
 20
108.4179566641347
 30
0.0
 10
95.2437736209413
 20
108.4055098598341
 30
0.0
 10
95.36261984935467
 20
108.4039908166067
 30
0.0
 10
95.42168762569763
 20
108.4032358367743
 30
0.0
  0
LINE
  5
180
330
1F
100
AcDbEntity
  8
0
  6
Continuous
 62
     7
370
    25
100
AcDbLine
 10
95.3767454725
 20
107.1057011123
 30
0.0
 11
95.4216876257
 21
108.4032358368
 31
0.0
  0
SPLINE
  5
181
330
1F
100
AcDbEntity
  8
0
  6
Continuous
 62
     7
370
    25
100
AcDbSpline
210
0.0
220
0.0
230
1.0
 70
     8
 71
     3
 72
    11
 73
     7
 74
     0
 42
0.000000001
 43
0.00000001
 40
0.0
 40
0.0
 40
0.0
 40
0.0
 40
0.2392913844325938
 40
0.5001130135003002
 40
0.7515028526498353
 40
0.9999999999999999
 40
0.9999999999999999
 40
0.9999999999999999
 40
0.9999999999999999
 10
94.00908841284112
 20
108.5538094417974
 30
0.0
 10
93.9402634768942
 20
108.4822560046428
 30
0.0
 10
93.796421080721
 20
108.3327111091315
 30
0.0
 10
93.58867228235441
 20
108.103793682486
 30
0.0
 10
93.38068607773332
 20
107.8714753102462
 30
0.0
 10
93.24768515396306
 20
107.7166994276549
 30
0.0
 10
93.18156950973861
 20
107.639759306505
 30
0.0
  0
SPLINE
  5
182
330
1F
100
AcDbEntity
  8
0
  6
Continuous
 62
     7
370
    25
100
AcDbSpline
210
0.0
220
0.0
230
1.0
 70
    24
 71
     3
 72
     9
 73
     5
 74
     0
 42
0.000000001
 43
0.00000001
 40
0.0
 40
0.0
 40
0.0
 40
0.0
 40
0.509083966986604
 40
1.0
 40
1.0
 40
1.0
 40
1.0
 10
94.01131868116062
 20
108.5532358367743
 30
0.0
 10
94.06605208127297
 20
108.5532358367743
 30
0.0
 10
94.17356558329179
 20
108.5532358367743
 30
0.0
 10
94.28295814366274
 20
108.5532358367743
 30
0.0
 10
94.33666070544122
 20
108.5532358367743
 30
0.0
  0
LINE
  5
183
330
1F
100
AcDbEntity
  8
0
  6
Continuous
 62
     7
370
    25
100
AcDbLine
 10
87.7627108166
 20
108.533184063
 30
0.0
 11
87.7881253082
 21
107.6356258924
 31
0.0
  0
SPLINE
  5
184
330
1F
100
AcDbEntity
  8
0
  6
Continuous
 62
     7
370
    25
100
AcDbSpline
210
0.0
220
0.0
230
1.0
 70
     8
 71
     3
 72
     8
 73
     4
 74
     0
 42
0.000000001
 43
0.00000001
 40
0.0
 40
0.0
 40
0.0
 40
0.0
 40
1.0
 40
1.0
 40
1.0
 40
1.0
 10
87.76272200771528
 20
108.5331845531135
 30
0.0
 10
87.78452486419732
 20
108.5388818841462
 30
0.0
 10
87.80627957359485
 20
108.5447634669412
 30
0.0
 10
87.82798302891293
 20
108.5508284614943
 30
0.0
  0
LINE
  5
185
330
1F
100
AcDbEntity
  8
0
  6
Continuous
 62
     7
370
    25
100
AcDbLine
 10
87.836560905
 20
108.5532358368
 30
0.0
 11
94.0102338773
 21
108.5532358368
 31
0.0
  0
LINE
  5
186
330
1F
100
AcDbEntity
  8
0
  6
Continuous
 62
     7
370
    25
100
AcDbLine
 10
95.4216876257
 20
108.4032358368
 30
0.0
 11
97.336560905
 21
108.4032358368
 31
0.0
  0
SPLINE
  5
187
330
1F
100
AcDbEntity
  8
0
  6
Continuous
 62
     7
370
    25
100
AcDbSpline
210
0.0
220
0.0
230
1.0
 70
     8
 71
     3
 72
    13
 73
     9
 74
     0
 42
0.000000001
 43
0.00000001
 40
0.0
 40
0.0
 40
0.0
 40
0.0
 40
0.1621004456571512
 40
0.325943455157606
 40
0.4915935308260523
 40
0.6591130873964648
 40
0.8285624736043361
 40
1.0
 40
1.0
 40
1.0
 40
1.0
 10
86.75143418427655
 20
108.4032358367743
 30
0.0
 10
86.80698914234209
 20
108.4039048029756
 30
0.0
 10
86.91869626880683
 20
108.4052499266989
 30
0.0
 10
87.0865439582006
 20
108.4161964954902
 30
0.0
 10
87.25533037706897
 20
108.4338354248109
 30
0.0
 10
87.4246547336008
 20
108.4591409387988
 30
0.0
 10
87.5944013817782
 20
108.4914449415918
 30
0.0
 10
87.70639428043583
 20
108.5192165414778
 30
0.0
 10
87.76271731546558
 20
108.5331833269791
 30
0.0
  0
LINE
  5
188
330
1F
100
AcDbEntity
  8
0
  6
Continuous
 62
     7
370
    25
100
AcDbLine
 10
79.9729010834
 20
107.8757340928
 30
0.0
 11
80.886560905
 21
108.4032358368
 31
0.0
  0
LINE
  5
189
330
1F
100
AcDbEntity
  8
0
  6
Continuous
 62
     7
370
    25
100
AcDbLine
 10
80.886560905
 20
108.4032358368
 30
0.0
 11
86.7514341843
 21
108.4032358368
 31
0.0
  0
SPLINE
  5
18A
330
1F
100
AcDbEntity
  8
0
  6
Continuous
 62
     7
370
    25
100
AcDbSpline
210
0.0
220
0.0
230
1.0
 70
     8
 71
     3
 72
     8
 73
     4
 74
     0
 42
0.000000001
 43
0.00000001
 40
0.0
 40
0.0
 40
0.0
 40
0.0
 40
1.0
 40
1.0
 40
1.0
 40
1.0
 10
80.88656090453614
 20
107.4934091253983
 30
0.0
 10
80.58200763083059
 20
107.6220999899451
 30
0.0
 10
80.27745435712508
 20
107.7495447462068
 30
0.0
 10
79.97290108341953
 20
107.8757340928445
 30
0.0
  0
LINE
  5
18B
330
1F
100
AcDbEntity
  8
0
  6
Continuous
 62
     7
370
    25
100
AcDbLine
 10
79.386560905
 20
94.412641113
 30
0.0
 11
79.386560905
 21
107.537210433
 31
0.0
  0
SPLINE
  5
18C
330
1F
100
AcDbEntity
  8
0
  6
Continuous
 62
     7
370
    25
100
AcDbSpline
210
0.0
220
0.0
230
1.0
 70
    24
 71
     3
 72
     8
 73
     4
 74
     0
 42
0.000000001
 43
0.00000001
 40
0.0
 40
0.0
 40
0.0
 40
0.0
 40
1.0
 40
1.0
 40
1.0
 40
1.0
 10
79.97290108341953
 20
107.8757340928445
 30
0.0
 10
79.7765690577612
 20
107.7623817449801
 30
0.0
 10
79.58110803752098
 20
107.6495322723284
 30
0.0
 10
79.38656090498708
 20
107.5372104329899
 30
0.0
  0
LINE
  5
18D
330
1F
100
AcDbEntity
  8
0
  6
Continuous
 62
     7
370
    25
100
AcDbLine
 10
219.336560905
 20
97.8898763768
 30
0.0
 11
219.336560905
 21
116.6157358368
 31
0.0
  0
ARC
  5
18E
330
1F
100
AcDbEntity
  8
0
  6
Continuous
 62
     7
370
    25
100
AcDbCircle
 10
217.336560905
 20
135.3415953152
 30
0.0
 40
2.000000000000001
100
AcDbArc
 50
0.0
 51
65.0
  0
ARC
  5
18F
330
1F
100
AcDbEntity
  8
0
  6
Continuous
 62
     7
370
    25
100
AcDbCircle
 10
112.536560905
 20
134.0657358368
 30
0.0
 40
0.7999999999999972
100
AcDbArc
 50
0.0
 51
90.0
  0
LINE
  5
190
330
1F
100
AcDbEntity
  8
0
  6
Continuous
 62
     7
370
    25
100
AcDbLine
 10
111.1118013786
 20
134.8657358368
 30
0.0
 11
112.536560905
 21
134.8657358368
 31
0.0
  0
ARC
  5
191
330
1F
100
AcDbEntity
  8
0
  6
Continuous
 62
     7
370
    25
100
AcDbCircle
 10
111.1118013786
 20
134.0657358368
 30
0.0
 40
0.799999999999983
100
AcDbArc
 50
90.0
 51
120.0
  0
LINE
  5
192
330
1F
100
AcDbEntity
  8
0
  6
Continuous
 62
     7
370
    25
100
AcDbLine
 10
109.836560905
 20
134.2532358368
 30
0.0
 11
109.836560905
 21
116.6157358368
 31
0.0
  0
LINE
  5
193
330
1F
100
AcDbEntity
  8
0
  6
Continuous
 62
     7
370
    25
100
AcDbLine
 10
109.836560905
 20
134.2532358368
 30
0.0
 11
110.7118013786
 21
134.7585561598
 31
0.0
  0
LINE
  5
194
330
1F
100
AcDbEntity
  8
0
  6
Continuous
 62
     7
370
    25
100
AcDbLine
 10
80.1382269548
 20
107.9711850292
 30
0.0
 11
80.0017581825
 21
107.8923947467
 31
0.0
  0
SPLINE
  5
195
330
1F
100
AcDbEntity
  8
0
  6
Continuous
 62
     7
370
    25
100
AcDbSpline
210
0.0
220
0.0
230
1.0
 70
     8
 71
     3
 72
    32
 73
    28
 74
     0
 42
0.000000001
 43
0.00000001
 40
0.0
 40
0.0
 40
0.0
 40
0.0
 40
0.1250000000000014
 40
0.1250000000000014
 40
0.1875000000000016
 40
0.1875000000000016
 40
0.2500000000000018
 40
0.2500000000000018
 40
0.312500000000002
 40
0.312500000000002
 40
0.3750000000000023
 40
0.3750000000000023
 40
0.5000000000000017
 40
0.5000000000000017
 40
0.5625000000000014
 40
0.5625000000000014
 40
0.6250000000000012
 40
0.6250000000000012
 40
0.7500000000000008
 40
0.7500000000000008
 40
0.8125000000000006
 40
0.8125000000000006
 40
0.8750000000000003
 40
0.8750000000000003
 40
0.9375000000000002
 40
0.9375000000000002
 40
1.0
 40
1.0
 40
1.0
 40
1.0
 10
93.8041912363277
 20
132.7884045909838
 30
0.0
 10
93.3201169923737
 20
132.7887639836035
 30
0.0
 10
92.8367194218068
 20
132.8037231897848
 30
0.0
 10
92.1128140720708
 20
132.8507072362934
 30
0.0
 10
91.87215163853398
 20
132.870483791418
 30
0.0
 10
91.40080552945834
 20
132.9174478749171
 30
0.0
 10
91.1689697131681
 20
132.9447017241016
 30
0.0
 10
90.7132666266118
 20
133.0063296527141
 30
0.0
 10
90.48939830367046
 20
133.0407047535096
 30
0.0
 10
90.05007071166266
 20
133.1160241971627
 30
0.0
 10
89.83335331899625
 20
133.1572421479109
 30
0.0
 10
89.20701134032342
 20
133.2874789670917
 30
0.0
 10
88.82261870597003
 20
133.3825188789909
 30
0.0
 10
88.29507696035022
 20
133.5287858409433
 30
0.0
 10
88.12744280881911
 20
133.578154476134
 30
0.0
 10
87.80903806157852
 20
133.6765581836343
 30
0.0
 10
87.65945718703941
 20
133.7252414482668
 30
0.0
 10
87.24643711749097
 20
133.8648642514351
 30
0.0
 10
87.01488534633181
 20
133.9504509300157
 30
0.0
 10
86.73157583124214
 20
134.0594139779317
 30
0.0
 10
86.64800814947034
 20
134.0924626305062
 30
0.0
 10
86.50608331714614
 20
134.1494660267466
 30
0.0
 10
86.44709520570359
 20
134.1736627323569
 30
0.0
 10
86.35237930199378
 20
134.212865012736
 30
0.0
 10
86.31665133484701
 20
134.227872179233
 30
0.0
 10
86.26868705712954
 20
134.24808117696
 30
0.0
 10
86.25656074969608
 20
134.2532358367743
 30
0.0
 10
86.25656074969606
 20
134.2532358367743
 30
0.0
  0
SPLINE
  5
196
330
1F
100
AcDbEntity
  8
0
  6
Continuous
 62
     7
370
    25
100
AcDbSpline
210
0.0
220
0.0
230
1.0
 70
     8
 71
     3
 72
    31
 73
    27
 74
     0
 42
0.000000001
 43
0.00000001
 40
0.0
 40
0.0
 40
0.0
 40
0.0
 40
0.0161756722762526
 40
0.0323169137831901
 40
0.0484425619887058
 40
0.0645715089965098
 40
0.0807226353345217
 40
0.0969147439454887
 40
0.1131664955259477
 40
0.1294963463054467
 40
0.1459224892616117
 40
0.16246279963486
 40
0.1791347854483568
 40
0.1959555435640281
 40
0.2945755146277851
 40
0.3932797312250729
 40
0.492817622193321
 40
0.5924285912823333
 40
0.693902091744813
 40
0.7927115381487325
 40
0.8267756331435501
 40
0.860804332496487
 40
0.89498463140099
 40
0.9295010594357854
 40
0.964532832246829
 40
1.0
 40
1.0
 40
1.0
 40
1.0
 10
104.8125102950712
 20
134.2532358367743
 30
0.0
 10
104.81177719462
 20
134.2528894453464
 30
0.0
 10
104.8103125541605
 20
134.2521973998029
 30
0.0
 10
104.7972561744954
 20
134.2466150377565
 30
0.0
 10
104.7762416139726
 20
134.2377482747623
 30
0.0
 10
104.7464944086319
 20
134.2253071740474
 30
0.0
 10
104.7082220959763
 20
134.2094165154922
 30
0.0
 10
104.6613694150552
 20
134.190090771665
 30
0.0
 10
104.6059516850182
 20
134.1673746821455
 30
0.0
 10
104.5419657211877
 20
134.1413056777708
 30
0.0
 10
104.4694122370371
 20
134.1119232304026
 30
0.0
 10
104.3882955395575
 20
134.0792689830679
 30
0.0
 10
104.2986018848075
 20
134.0433765360334
 30
0.0
 10
104.041556038151
 20
133.9411386283666
 30
0.0
 10
103.5135200525582
 20
133.7346144148999
 30
0.0
 10
102.534885405312
 20
133.39752910155
 30
0.0
 10
101.3490091023932
 20
133.0543842422222
 30
0.0
 10
99.97854283731994
 20
132.7572723415616
 30
0.0
 10
98.49268556535534
 20
132.5472289138286
 30
0.0
 10
97.2725329315903
 20
132.4890035109601
 30
0.0
 10
96.40610889864547
 20
132.5026958522201
 30
0.0
 10
95.87786397016865
 20
132.5280639378312
 30
0.0
 10
95.35309073896245
 20
132.5700865535487
 30
0.0
 10
94.83210149937
 20
132.6283705167768
 30
0.0
 10
94.31486055431151
 20
132.7009940620222
 30
0.0
 10
93.97922344197765
 20
132.759874379712
 30
0.0
 10
93.81036845391593
 20
132.7894963582574
 30
0.0
  0
LINE
  5
197
330
1F
100
AcDbEntity
  8
0
  6
Continuous
 62
     7
370
    25
100
AcDbLine
 10
104.8125102951
 20
134.2532358368
 30
0.0
 11
109.836560905
 21
134.2532358368
 31
0.0
  0
LINE
  5
198
330
1F
100
AcDbEntity
  8
0
  6
Continuous
 62
     7
370
    25
100
AcDbLine
 10
101.986560905
 20
120.6785092476
 30
0.0
 11
101.986560905
 21
116.6157358368
 31
0.0
  0
SPLINE
  5
199
330
1F
100
AcDbEntity
  8
0
  6
Continuous
 62
     7
370
    25
100
AcDbSpline
210
0.0
220
0.0
230
1.0
 70
     8
 71
     3
 72
    25
 73
    21
 74
     0
 42
0.000000001
 43
0.00000001
 40
0.0
 40
0.0
 40
0.0
 40
0.0
 40
0.0278144320063462
 40
0.0555680196245754
 40
0.083331625367772
 40
0.111176035216759
 40
0.1391714221532265
 40
0.1673868326284763
 40
0.1958897140434718
 40
0.2247454979318961
 40
0.254017249222145
 40
0.3796724410016501
 40
0.5056484635002454
 40
0.629752729069345
 40
0.7535891720571729
 40
0.8038564806093713
 40
0.853339684343451
 40
0.9023264398358534
 40
0.9511131859219439
 40
1.0
 40
1.0
 40
1.0
 40
1.0
 10
97.33656090498707
 20
125.1632324191393
 30
0.0
 10
97.40521625894941
 20
125.1626993340322
 30
0.0
 10
97.54237678250206
 20
125.1616343299478
 30
0.0
 10
97.74761936508786
 20
125.1485394325556
 30
0.0
 10
97.95194038158493
 20
125.1270009459831
 30
0.0
 10
98.15534143367394
 20
125.0961794741345
 30
0.0
 10
98.3578170645198
 20
125.056266721627
 30
0.0
 10
98.55936592876745
 20
125.007166528686
 30
0.0
 10
98.75997994957012
 20
124.9488532811742
 30
0.0
 10
98.95967771390244
 20
124.8812613383074
 30
0.0
 10
99.37524253458172
 20
124.7204478221917
 30
0.0
 10
99.97801895112426
 20
124.4064709228504
 30
0.0
 10
100.6720755066292
 20
123.8428994473557
 30
0.0
 10
101.2388491360263
 20
123.1671552281017
 30
0.0
 10
101.5764269416975
 20
122.5497934006252
 30
0.0
 10
101.7648893509864
 20
122.0577319611151
 30
0.0
 10
101.8641505685109
 20
121.7200801785687
 30
0.0
 10
101.9344951572178
 20
121.3774490365452
 30
0.0
 10
101.9784937557364
 20
121.0300843361036
 30
0.0
 10
101.9838700192166
 20
120.7957809594968
 30
0.0
 10
101.9865609049871
 20
120.678509247574
 30
0.0
  0
LINE
  5
19A
330
1F
100
AcDbEntity
  8
0
  6
Continuous
 62
     7
370
    25
100
AcDbLine
 10
95.4216876257
 20
125.1632324191
 30
0.0
 11
97.336560905
 21
125.1632324191
 31
0.0
  0
SPLINE
  5
19B
330
1F
100
AcDbEntity
  8
0
  6
Continuous
 62
     7
370
    25
100
AcDbSpline
210
0.0
220
0.0
230
1.0
 70
     8
 71
     3
 72
    12
 73
     8
 74
     0
 42
0.000000001
 43
0.00000001
 40
0.0
 40
0.0
 40
0.0
 40
0.0
 40
0.1992838848975294
 40
0.3984605265796777
 40
0.5979968004971673
 40
0.7983570684833388
 40
1.0
 40
1.0
 40
1.0
 40
1.0
 10
94.42065378335862
 20
125.0610381064159
 30
0.0
 10
94.4861070606591
 20
125.0740604591805
 30
0.0
 10
94.61697839204106
 20
125.1000981568227
 30
0.0
 10
94.8158278436648
 20
125.1285287157967
 30
0.0
 10
95.01623435953587
 20
125.1489598767782
 30
0.0
 10
95.21840527695312
 20
125.1613989538488
 30
0.0
 10
95.3537828606042
 20
125.1626199654234
 30
0.0
 10
95.42168762569763
 20
125.1632324191393
 30
0.0
  0
LINE
  5
19C
330
1F
100
AcDbEntity
  8
0
  6
Continuous
 62
     7
370
    25
100
AcDbLine
 10
88.9958907758
 20
125.0608741823
 30
0.0
 11
94.4198807943
 21
125.0608741823
 31
0.0
  0
SPLINE
  5
19D
330
1F
100
AcDbEntity
  8
0
  6
Continuous
 62
     7
370
    25
100
AcDbSpline
210
0.0
220
0.0
230
1.0
 70
     8
 71
     3
 72
    24
 73
    20
 74
     0
 42
0.000000001
 43
0.00000001
 40
0.0
 40
0.0
 40
0.0
 40
0.0
 40
0.0410257106287842
 40
0.0818520099077639
 40
0.1225800578354648
 40
0.1633117464058233
 40
0.2041489402806705
 40
0.2451927184749161
 40
0.2865426449235763
 40
0.3282960933646444
 40
0.370547647549383
 40
0.4133885920102291
 40
0.4569065022351533
 40
0.5011849368587563
 40
0.6001856774947433
 40
0.6987388860447942
 40
0.7976800645453981
 40
0.8978349910029445
 40
1.0
 40
1.0
 40
1.0
 40
1.0
 10
85.22390386883696
 20
126.9985159994373
 30
0.0
 10
85.28694295679146
 20
126.9979812991222
 30
0.0
 10
85.41271472217338
 20
126.9969144974795
 30
0.0
 10
85.60065288368418
 20
126.9857710054814
 30
0.0
 10
85.78724297650878
 20
126.9676095071737
 30
0.0
 10
85.9724847590439
 20
126.9417345864522
 30
0.0
 10
86.15637394227183
 20
126.9082977006406
 30
0.0
 10
86.33890760824458
 20
126.867213679097
 30
0.0
 10
86.52008301518391
 20
126.8184509310035
 30
0.0
 10
86.69989779916006
 20
126.7619534428598
 30
0.0
 10
86.87835099823963
 20
126.6976623480575
 30
0.0
 10
87.05543903638929
 20
126.6255086681251
 30
0.0
 10
87.23117116067502
 20
126.5454214830864
 30
0.0
 10
87.47618579427136
 20
126.421580596404
 30
0.0
 10
87.78036887345355
 20
126.2429556142108
 30
0.0
 10
88.12767635489865
 20
125.9938664301535
 30
0.0
 10
88.44685061837107
 20
125.7142968451739
 30
0.0
 10
88.74076252063577
 20
125.4054712072017
 30
0.0
 10
88.9102866073276
 20
125.1773791639
 30
0.0
 10
88.99589077581042
 20
125.0622000758694
 30
0.0
  0
LINE
  5
19E
330
1F
100
AcDbEntity
  8
0
  6
Continuous
 62
     7
370
    25
100
AcDbLine
 10
82.4323621519
 20
126.9985159994
 30
0.0
 11
85.2239038688
 21
126.9985159994
 31
0.0
  0
SPLINE
  5
19F
330
1F
100
AcDbEntity
  8
0
  6
Continuous
 62
     7
370
    25
100
AcDbSpline
210
0.0
220
0.0
230
1.0
 70
     8
 71
     3
 72
     8
 73
     4
 74
     0
 42
0.000000001
 43
0.00000001
 40
0.0
 40
0.0
 40
0.0
 40
0.0
 40
1.0
 40
1.0
 40
1.0
 40
1.0
 10
82.38655808022834
 20
127.0619689904469
 30
0.0
 10
82.40182610412603
 20
127.0408525200488
 30
0.0
 10
82.4170941280237
 20
127.0197014529962
 30
0.0
 10
82.43236215192138
 20
126.9985159994373
 30
0.0
  0
LINE
  5
1A0
330
1F
100
AcDbEntity
  8
0
  6
Continuous
 62
     7
370
    25
100
AcDbLine
 10
82.386560905
 20
134.2532358368
 30
0.0
 11
82.386560905
 21
127.0619689904
 31
0.0
  0
LINE
  5
1A1
330
1F
100
AcDbEntity
  8
0
  6
Continuous
 62
     7
370
    25
100
AcDbLine
 10
82.386560905
 20
134.2532358368
 30
0.0
 11
86.2565607497
 21
134.2532358368
 31
0.0
  0
LINE
  5
1A2
330
1F
100
AcDbEntity
  8
0
  6
Continuous
 62
     7
370
    25
100
AcDbLine
 10
113.336560905
 20
132.1657358368
 30
0.0
 11
117.036560905
 21
132.1657358368
 31
0.0
  0
LINE
  5
1A3
330
1F
100
AcDbEntity
  8
0
  6
Continuous
 62
     7
370
    25
100
AcDbLine
 10
113.336560905
 20
132.1657358368
 30
0.0
 11
113.336560905
 21
116.6157358368
 31
0.0
  0
ARC
  5
1A4
330
1F
100
AcDbEntity
  8
0
  6
Continuous
 62
     7
370
    25
100
AcDbCircle
 10
117.036560905
 20
130.9657358368
 30
0.0
 40
1.200000000000003
100
AcDbArc
 50
0.0
 51
90.0
  0
LINE
  5
1A5
330
1F
100
AcDbEntity
  8
0
  6
Continuous
 62
     7
370
    25
100
AcDbLine
 10
168.736560905
 20
126.9157358368
 30
0.0
 11
171.4417868869
 21
126.9157358368
 31
0.0
  0
ARC
  5
1A6
330
1F
100
AcDbEntity
  8
0
  6
Continuous
 62
     7
370
    25
100
AcDbCircle
 10
168.736560905
 20
126.5157358368
 30
0.0
 40
0.4000000000000057
100
AcDbArc
 50
90.0
 51
180.0
  0
ARC
  5
1A7
330
1F
100
AcDbEntity
  8
0
  6
Continuous
 62
     7
370
    25
100
AcDbCircle
 10
171.4417868869
 20
126.5157358368
 30
0.0
 40
0.4000000000000208
100
AcDbArc
 50
70.0
 51
90.0
  0
ARC
  5
1A8
330
1F
100
AcDbEntity
  8
0
  6
Continuous
 62
     7
370
    25
100
AcDbCircle
 10
219.036560905
 20
126.9157358368
 30
0.0
 40
0.3000000000000256
100
AcDbArc
 50
270.0
 51
0.0
  0
LINE
  5
1A9
330
1F
100
AcDbEntity
  8
0
  6
Continuous
 62
     7
370
    25
100
AcDbLine
 10
219.336560905
 20
126.9157358368
 30
0.0
 11
219.336560905
 21
116.6157358368
 31
0.0
  0
LINE
  5
1AA
330
1F
100
AcDbEntity
  8
0
  6
Continuous
 62
     7
370
    25
100
AcDbLine
 10
172.336560905
 20
126.6157358368
 30
0.0
 11
172.336560905
 21
116.6157358368
 31
0.0
  0
LINE
  5
1AB
330
1F
100
AcDbEntity
  8
0
  6
Continuous
 62
     7
370
    25
100
AcDbLine
 10
171.5785949442
 20
126.8916128851
 30
0.0
 11
172.336560905
 21
126.6157358368
 31
0.0
  0
SPLINE
  5
1AC
330
1F
100
AcDbEntity
  8
0
  6
Continuous
 62
     7
370
    25
100
AcDbSpline
210
0.0
220
0.0
230
1.0
 70
     8
 71
     3
 72
    11
 73
     7
 74
     0
 42
0.000000001
 43
0.00000001
 40
0.0
 40
0.0
 40
0.0
 40
0.0
 40
0.0152631656789641
 40
0.2969833163161504
 40
0.5429255228039492
 40
1.0
 40
1.0
 40
1.0
 40
1.0
 10
187.8365609049871
 20
126.6157358367743
 30
0.0
 10
187.8365746090662
 20
126.615726233752
 30
0.0
 10
187.8368412564275
 20
126.6155393827754
 30
0.0
 10
187.8533815987901
 20
126.60398196479
 30
0.0
 10
187.9253579932401
 20
126.5535912435235
 30
0.0
 10
188.0388020404073
 20
126.4754267655258
 30
0.0
 10
188.1125590077075
 20
126.4246072206341
 30
0.0
  0
SPLINE
  5
1AD
330
1F
100
AcDbEntity
  8
0
  6
Continuous
 62
     7
370
    25
100
AcDbSpline
210
0.0
220
0.0
230
1.0
 70
     8
 71
     3
 72
    25
 73
    21
 74
     0
 42
0.000000001
 43
0.00000001
 40
0.0
 40
0.0
 40
0.0
 40
0.0
 40
0.0321843105049595
 40
0.0864797825304372
 40
0.147180975665959
 40
0.2083272284088872
 40
0.2710671376787084
 40
0.3344868180763014
 40
0.3753742592830586
 40
0.458055608654502
 40
0.4999979582340637
 40
0.5452363051994007
 40
0.5909142865536546
 40
0.6374500063444879
 40
0.6843803760551338
 40
0.7748356488860599
 40
0.8667377867641666
 40
0.9196793489118178
 40
0.9728971529467768
 40
1.0
 40
1.0
 40
1.0
 40
1.0
 10
190.0749422634497
 20
125.2006053233545
 30
0.0
 10
190.1542840450883
 20
125.1563987285616
 30
0.0
 10
190.3674767440785
 20
125.0376148663592
 30
0.0
 10
190.7628869248253
 20
124.8342880799733
 30
0.0
 10
191.2619437375812
 20
124.5969788292483
 30
0.0
 10
191.8196471380909
 20
124.3622264835631
 30
0.0
 10
192.4181991553097
 20
124.1478684634097
 30
0.0
 10
192.9804873476083
 20
123.9881415712669
 30
0.0
 10
193.6315682970173
 20
123.8483037610337
 30
0.0
 10
194.2289231887633
 20
123.7717740908764
 30
0.0
 10
194.848553099528
 20
123.7518491283418
 30
0.0
 10
195.3334052283315
 20
123.7687151417706
 30
0.0
 10
195.8300560670829
 20
123.8203594104038
 30
0.0
 10
196.3233379270932
 20
123.9050109862652
 30
0.0
 10
196.9577754746973
 20
124.0548659093577
 30
0.0
 10
197.7109377166378
 20
124.3000579132137
 30
0.0
 10
198.4235613293612
 20
124.6007500670582
 30
0.0
 10
198.9785393296665
 20
124.8689083364247
 30
0.0
 10
199.3348312345737
 20
125.0532533885614
 30
0.0
 10
199.5316636307024
 20
125.1634285694711
 30
0.0
 10
199.5980813981771
 20
125.2006053233545
 30
0.0
  0
SPLINE
  5
1AE
330
1F
100
AcDbEntity
  8
0
  6
Continuous
 62
     7
370
    25
100
AcDbSpline
210
0.0
220
0.0
230
1.0
 70
     8
 71
     3
 72
    11
 73
     7
 74
     0
 42
0.000000001
 43
0.00000001
 40
0.0
 40
0.0
 40
0.0
 40
0.0
 40
0.0664450876752515
 40
0.5722672008826534
 40
0.8293098860160257
 40
1.0
 40
1.0
 40
1.0
 40
1.0
 10
201.5606144933061
 20
126.4246589116736
 30
0.0
 10
201.5733240866554
 20
126.4333433652125
 30
0.0
 10
201.6827871585658
 20
126.5081393823719
 30
0.0
 10
201.7757160512369
 20
126.5732652124065
 30
0.0
 10
201.8311059480052
 20
126.6119066886028
 30
0.0
 10
201.8350049698639
 20
126.6146436363863
 30
0.0
 10
201.8365609049871
 20
126.6157358367743
 30
0.0
  0
LINE
  5
1AF
330
1F
100
AcDbEntity
  8
0
  6
Continuous
 62
     7
370
    25
100
AcDbLine
 10
201.836560905
 20
126.6157358368
 30
0.0
 11
219.036560905
 21
126.6157358368
 31
0.0
  0
LINE
  5
1B0
330
1F
100
AcDbEntity
  8
0
  6
Continuous
 62
     7
370
    25
100
AcDbLine
 10
172.336560905
 20
126.6157358368
 30
0.0
 11
187.836560905
 21
126.6157358368
 31
0.0
  0
LINE
  5
1B1
330
1F
100
AcDbEntity
  8
0
  6
Continuous
 62
     7
370
    25
100
AcDbLine
 10
122.061560905
 20
122.3657358368
 30
0.0
 11
122.886560905
 21
122.3657358368
 31
0.0
  0
LINE
  5
1B2
330
1F
100
AcDbEntity
  8
0
  6
Continuous
 62
     7
370
    25
100
AcDbLine
 10
118.636560905
 20
121.6157358368
 30
0.0
 11
118.636560905
 21
116.6157358368
 31
0.0
  0
LINE
  5
1B3
330
1F
100
AcDbEntity
  8
0
  6
Continuous
 62
     7
370
    25
100
AcDbLine
 10
118.236560905
 20
121.8466759445
 30
0.0
 11
118.636560905
 21
121.6157358368
 31
0.0
  0
LINE
  5
1B4
330
1F
100
AcDbEntity
  8
0
  6
Continuous
 62
     7
370
    25
100
AcDbLine
 10
118.236560905
 20
121.8466759445
 30
0.0
 11
118.236560905
 21
116.6157358368
 31
0.0
  0
LINE
  5
1B5
330
1F
100
AcDbEntity
  8
0
  6
Continuous
 62
     7
370
    25
100
AcDbLine
 10
118.636560905
 20
121.6157358368
 30
0.0
 11
122.061560905
 21
121.6157358368
 31
0.0
  0
LINE
  5
1B6
330
1F
100
AcDbEntity
  8
0
  6
Continuous
 62
     7
370
    25
100
AcDbLine
 10
122.061560905
 20
121.6157358368
 30
0.0
 11
122.061560905
 21
116.6157358368
 31
0.0
  0
LINE
  5
1B7
330
1F
100
AcDbEntity
  8
0
  6
Continuous
 62
     7
370
    25
100
AcDbLine
 10
122.886560905
 20
120.6157358368
 30
0.0
 11
168.336560905
 21
120.6157358368
 31
0.0
  0
LINE
  5
1B8
330
1F
100
AcDbEntity
  8
0
  6
Continuous
 62
     7
370
    25
100
AcDbLine
 10
122.886560905
 20
120.6157358368
 30
0.0
 11
122.886560905
 21
116.6157358368
 31
0.0
  0
LINE
  5
1B9
330
1F
100
AcDbEntity
  8
0
  6
Continuous
 62
     7
370
    25
100
AcDbLine
 10
168.336560905
 20
120.6157358368
 30
0.0
 11
168.336560905
 21
116.6157358368
 31
0.0
  0
LINE
  5
1BA
330
1F
100
AcDbEntity
  8
0
  6
Continuous
 62
     7
370
    25
100
AcDbLine
 10
201.836560905
 20
126.6157358368
 30
0.0
 11
201.836560905
 21
141.6157358374
 31
0.0
  0
LINE
  5
1BB
330
1F
100
AcDbEntity
  8
0
  6
Continuous
 62
     7
370
    25
100
AcDbLine
 10
187.836560905
 20
141.6157359352
 30
0.0
 11
187.836560905
 21
126.6157358368
 31
0.0
  0
SPLINE
  5
1BC
330
1F
100
AcDbEntity
  8
0
  6
Continuous
 62
     7
370
    25
100
AcDbSpline
210
0.0
220
0.0
230
1.0
 70
     8
 71
     3
 72
     9
 73
     5
 74
     0
 42
0.000000001
 43
0.00000001
 40
0.0
 40
0.0
 40
0.0
 40
0.0
 40
0.0089800279333294
 40
1.0
 40
1.0
 40
1.0
 40
1.0
 10
201.8365609049871
 20
141.6157358373556
 30
0.0
 10
201.8365610333354
 20
141.615735920657
 30
0.0
 10
201.836575325975
 20
141.6157451969443
 30
0.0
 10
201.830699742829
 20
141.6134613663031
 30
0.0
 10
201.8248769225838
 20
141.6111980445249
 30
0.0
  0
SPLINE
  5
1BD
330
1F
100
AcDbEntity
  8
0
  6
Continuous
 62
     7
370
    25
100
AcDbSpline
210
0.0
220
0.0
230
1.0
 70
     8
 71
     3
 72
    33
 73
    29
 74
     0
 42
0.000000001
 43
0.00000001
 40
0.0
 40
0.0
 40
0.0
 40
0.0
 40
0.0638195094904376
 40
0.0868637675888421
 40
0.1105222088646855
 40
0.1348079180733293
 40
0.1651648295611248
 40
0.1980904104831405
 40
0.233599269983712
 40
0.2717029433935877
 40
0.3076587565773255
 40
0.3393549479995282
 40
0.3667912337651462
 40
0.3899679041843764
 40
0.4088862132422095
 40
0.4812539140988328
 40
0.5144468074437019
 40
0.5456600579135114
 40
0.611169026197478
 40
0.6819195384029725
 40
0.7229010405379752
 40
0.7683685447262492
 40
0.8188218199522351
 40
0.8600450412660333
 40
0.8965851451827699
 40
0.9284434786559141
 40
0.9556230943223919
 40
1.0
 40
1.0
 40
1.0
 40
1.0
 10
104.1865609049871
 20
140.0793881401276
 30
0.0
 10
104.1640012830073
 20
140.068570240707
 30
0.0
 10
104.1332957232781
 20
140.0538461616821
 30
0.0
 10
103.9619877119899
 20
139.979832515731
 30
0.0
 10
103.8234421314606
 20
139.921964397314
 30
0.0
 10
103.6345123976782
 20
139.8452860101688
 30
0.0
 10
103.380414389204
 20
139.7446278600483
 30
0.0
 10
103.0402270616941
 20
139.6152440584212
 30
0.0
 10
102.6148812633893
 20
139.4618801341428
 30
0.0
 10
102.1181264574134
 20
139.2897355268425
 30
0.0
 10
101.5856712979631
 20
139.1195910922261
 30
0.0
 10
101.0666888616119
 20
138.9708435717029
 30
0.0
 10
100.5903695227965
 20
138.8449409890601
 30
0.0
 10
100.1702473090546
 20
138.7420229136168
 30
0.0
 10
99.45658842919546
 20
138.5819751096604
 30
0.0
 10
98.62797513864277
 20
138.4355609735076
 30
0.0
 10
97.68643448289863
 20
138.3201959073214
 30
0.0
 10
96.77999086988176
 20
138.2429401526981
 30
0.0
 10
95.60256651601182
 20
138.2203346988851
 30
0.0
 10
94.40211289537226
 20
138.2878040827769
 30
0.0
 10
93.41067214854277
 20
138.4003745495579
 30
0.0
 10
92.60658598785596
 20
138.5239554262509
 30
0.0
 10
91.88120815352244
 20
138.6710504968327
 30
0.0
 10
91.28614222762535
 20
138.8133866090036
 30
0.0
 10
90.84147714452484
 20
138.9273084335594
 30
0.0
 10
90.51170400720254
 20
139.0197363530193
 30
0.0
 10
90.19504381632112
 20
139.1132345700493
 30
0.0
 10
90.06795505783153
 20
139.1543108019905
 30
0.0
 10
89.98913895914141
 20
139.1797848752994
 30
0.0
  0
SPLINE
  5
1BE
330
1F
100
AcDbEntity
  8
0
  6
Continuous
 62
     7
370
    25
100
AcDbSpline
210
0.0
220
0.0
230
1.0
 70
     8
 71
     3
 72
    10
 73
     6
 74
     0
 42
0.000000001
 43
0.00000001
 40
0.0
 40
0.0
 40
0.0
 40
0.0
 40
0.0215375117298968
 40
0.970366971227643
 40
1.0
 40
1.0
 40
1.0
 40
1.0
 10
89.8309159493216
 20
139.2295532755254
 30
0.0
 10
89.82789509138614
 20
139.2305026288472
 30
0.0
 10
89.69179112533408
 20
139.2732754950487
 30
0.0
 10
89.68794564430387
 20
139.2797499734131
 30
0.0
 10
89.68660160948315
 20
139.2800014783548
 30
0.0
 10
89.68656090498708
 20
139.2800090952571
 30
0.0
  0
LINE
  5
1BF
330
1F
100
AcDbEntity
  8
0
  6
Continuous
 62
     7
370
    25
100
AcDbLine
 10
104.186560905
 20
140.0793881401
 30
0.0
 11
104.186560905
 21
134.7219618575
 31
0.0
  0
SPLINE
  5
1C0
330
1F
100
AcDbEntity
  8
0
  6
Continuous
 62
     7
370
    25
100
AcDbSpline
210
0.0
220
0.0
230
1.0
 70
     8
 71
     3
 72
    30
 73
    26
 74
     0
 42
0.000000001
 43
0.00000001
 40
0.0
 40
0.0
 40
0.0
 40
0.0
 40
0.0192411700742056
 40
0.0381353539376964
 40
0.0566868884861289
 40
0.0749003554931371
 40
0.0927805967284126
 40
0.1103327298326406
 40
0.127562164928992
 40
0.1444746219341848
 40
0.2455865830532022
 40
0.3577720192516864
 40
0.4505017408956519
 40
0.5720127868619944
 40
0.6168069840200017
 40
0.6590088499432826
 40
0.6986242498774748
 40
0.7356603299341613
 40
0.7701258931915136
 40
0.8073679165907882
 40
0.8483950324891437
 40
0.8881367798820078
 40
0.9266264622110474
 40
0.9639007443615107
 40
1.0
 40
1.0
 40
1.0
 40
1.0
 10
95.01574231437499
 20
133.0578705471823
 30
0.0
 10
95.09877479425462
 20
133.0467434418575
 30
0.0
 10
95.26334238532743
 20
133.0246898921913
 30
0.0
 10
95.51122390100798
 20
132.9966380029286
 30
0.0
 10
95.75650057645038
 20
132.9726864724027
 30
0.0
 10
95.99905841006165
 20
132.9531565202094
 30
0.0
 10
96.23849308717054
 20
132.9379642280327
 30
0.0
 10
96.47450628257762
 20
132.9271326668019
 30
0.0
 10
96.70682432788838
 20
132.9206521015488
 30
0.0
 10
97.31537509751243
 20
132.9150206099626
 30
0.0
 10
98.35368759473243
 20
132.9749940094473
 30
0.0
 10
99.66903912283372
 20
133.1744164826221
 30
0.0
 10
100.9485843357253
 20
133.4798978433059
 30
0.0
 10
101.8400248798154
 20
133.7598406462249
 30
0.0
 10
102.4576897486764
 20
133.9872897427402
 30
0.0
 10
102.8010128339598
 20
134.1175684032403
 30
0.0
 10
103.0927039188553
 20
134.2336593411982
 30
0.0
 10
103.3372492746811
 20
134.3350275706015
 30
0.0
 10
103.5496039551205
 20
134.4263656231191
 30
0.0
 10
103.7406669297451
 20
134.5104407070663
 30
0.0
 10
103.9059143339176
 20
134.5854336610316
 30
0.0
 10
104.0354548841617
 20
134.6464221605773
 30
0.0
 10
104.1238212533842
 20
134.6896598223427
 30
0.0
 10
104.1769670986479
 20
134.7168899082216
 30
0.0
 10
104.1833972945891
 20
134.7202893543515
 30
0.0
 10
104.1865609049871
 20
134.7219618575259
 30
0.0
  0
SPLINE
  5
1C1
330
1F
100
AcDbEntity
  8
0
  6
Continuous
 62
     7
370
    25
100
AcDbSpline
210
0.0
220
0.0
230
1.0
 70
     8
 71
     3
 72
    38
 73
    34
 74
     0
 42
0.000000001
 43
0.00000001
 40
0.0
 40
0.0
 40
0.0
 40
0.0
 40
0.1250000000000001
 40
0.1250000000000001
 40
0.2500000000000002
 40
0.2500000000000002
 40
0.3125000000000003
 40
0.3125000000000003
 40
0.3750000000000003
 40
0.3750000000000003
 40
0.4375000000000003
 40
0.4375000000000003
 40
0.5000000000000003
 40
0.5000000000000003
 40
0.5625000000000003
 40
0.5625000000000003
 40
0.6250000000000004
 40
0.6250000000000004
 40
0.6875000000000004
 40
0.6875000000000004
 40
0.7187500000000006
 40
0.7187500000000006
 40
0.7500000000000006
 40
0.7500000000000006
 40
0.7812500000000006
 40
0.7812500000000006
 40
0.8125000000000006
 40
0.8125000000000006
 40
0.8750000000000003
 40
0.8750000000000003
 40
0.9375000000000001
 40
0.9375000000000001
 40
1.0
 40
1.0
 40
1.0
 40
1.0
 10
89.68656090498708
 20
139.1517837216782
 30
0.0
 10
89.6865609049871
 20
139.1517837216782
 30
0.0
 10
89.74836666255052
 20
139.1291396390163
 30
0.0
 10
89.99798920798592
 20
139.0365552499603
 30
0.0
 10
90.18171683892403
 20
138.9681676700075
 30
0.0
 10
90.53810567550903
 20
138.8323255708058
 30
0.0
 10
90.67126613701457
 20
138.7811325857492
 30
0.0
 10
90.96234514771093
 20
138.6674439806368
 30
0.0
 10
91.11883509922025
 20
138.6055173731305
 30
0.0
 10
91.45221654050816
 20
138.47063226444
 30
0.0
 10
91.62912029887129
 20
138.3976940101533
 30
0.0
 10
92.0023619463446
 20
138.2387180753574
 30
0.0
 10
92.20010593722573
 20
138.1520783054809
 30
0.0
 10
92.60612937047888
 20
137.9651606329285
 30
0.0
 10
92.81418276386589
 20
137.8651257191194
 30
0.0
 10
93.23647703660005
 20
137.6458621689405
 30
0.0
 10
93.45084233967515
 20
137.5268589772759
 30
0.0
 10
93.8786846512546
 20
137.256585126952
 30
0.0
 10
94.09508630236122
 20
137.1033363014403
 30
0.0
 10
94.39371874524142
 20
136.8372677778571
 30
0.0
 10
94.4889113347111
 20
136.7424955315844
 30
0.0
 10
94.66653658656793
 20
136.5367386743945
 30
0.0
 10
94.74915089719634
 20
136.4248801326238
 30
0.0
 10
94.89123117221796
 20
136.1913646284015
 30
0.0
 10
94.95161672146291
 20
136.0688035624457
 30
0.0
 10
95.0510672136178
 20
135.8123327992205
 30
0.0
 10
95.0903586526426
 20
135.6770927856707
 30
0.0
 10
95.17705523879567
 20
135.2688107827062
 30
0.0
 10
95.1957635657904
 20
134.9925506049213
 30
0.0
 10
95.19226754515871
 20
134.4358028262856
 30
0.0
 10
95.16978792495013
 20
134.1575725822948
 30
0.0
 10
95.10416027716802
 20
133.60618676211
 30
0.0
 10
95.06066273347855
 20
133.3319330930075
 30
0.0
 10
95.01118318636847
 20
133.0585036210459
 30
0.0
  0
LINE
  5
1C2
330
1F
100
AcDbEntity
  8
0
  6
Continuous
 62
     7
370
    25
100
AcDbLine
 10
89.686560905
 20
139.1517837217
 30
0.0
 11
89.686560905
 21
139.2800090952
 31
0.0
  0
SPLINE
  5
1C3
330
1F
100
AcDbEntity
  8
0
  6
Continuous
 62
     7
370
    25
100
AcDbSpline
210
0.0
220
0.0
230
1.0
 70
     8
 71
     3
 72
    14
 73
    10
 74
     0
 42
0.000000001
 43
0.00000001
 40
0.0
 40
0.0
 40
0.0
 40
0.0
 40
0.0003951392850831
 40
0.0003951392850831
 40
0.0003951392850831
 40
0.0008159035679249
 40
0.0008159035679249
 40
0.0008159035679249
 40
0.0012369936130997
 40
0.0012369936130997
 40
0.0012369936130997
 40
0.0012369936130997
 10
93.8144448547186
 20
132.7907088337746
 30
0.0
 10
93.94295409282532
 20
132.819582801488
 30
0.0
 10
94.07151760055432
 20
132.8482710149644
 30
0.0
 10
94.20006797883771
 20
132.8767738590018
 30
0.0
 10
94.33695322650131
 20
132.9071247526925
 30
0.0
 10
94.47384887240112
 20
132.9372707177215
 30
0.0
 10
94.61066913375019
 20
132.96722253729
 30
0.0
 10
94.74759512269509
 20
132.99719750207
 30
0.0
 10
94.88447219465927
 20
133.0269835515151
 30
0.0
 10
95.02120904384643
 20
133.0566060246839
 30
0.0
  0
LINE
  5
1C4
330
1F
100
AcDbEntity
  8
0
  6
Continuous
 62
     7
370
    25
100
AcDbLine
 10
86.2565607497
 20
134.2532358368
 30
0.0
 11
89.686560905
 21
139.1517837217
 31
0.0
  0
LINE
  5
1C5
330
1F
100
AcDbEntity
  8
0
  6
Continuous
 62
     7
370
    25
100
AcDbLine
 10
88.9369990566
 20
140.0891215464
 30
0.0
 11
89.6865890356
 21
139.2800102087
 31
0.0
  0
LINE
  5
1C6
330
1F
100
AcDbEntity
  8
0
  6
Continuous
 62
     7
370
    25
100
AcDbLine
 10
104.1865738531
 20
140.079388396
 30
0.0
 11
104.854903999
 21
140.8885002183
 31
0.0
  0
LINE
  5
1C7
330
1F
100
AcDbEntity
  8
0
  6
Continuous
 62
     7
370
    25
100
AcDbLine
 10
80.1382269548
 20
135.5513120481
 30
0.0
 11
82.386560905
 21
134.2532358368
 31
0.0
  0
LINE
  5
1C8
330
1F
100
AcDbEntity
  8
0
  6
Continuous
 62
     7
370
    25
100
AcDbLine
 10
79.386560905
 20
136.8532358368
 30
0.0
 11
80.1382269548
 21
135.5513120481
 31
0.0
  0
LINE
  5
1C9
330
1F
100
AcDbEntity
  8
0
  6
Continuous
 62
     7
370
    25
100
AcDbLine
 10
79.386560905
 20
138.8188305606
 30
0.0
 11
79.386560905
 21
136.8532358368
 31
0.0
  0
LINE
  5
1CA
330
1F
100
AcDbEntity
  8
0
  6
Continuous
 62
     7
370
    25
100
AcDbLine
 10
80.886560905
 20
139.6848559644
 30
0.0
 11
79.386560905
 21
138.8188305606
 31
0.0
  0
ARC
  5
1CB
330
1F
100
AcDbEntity
  8
0
  6
Continuous
 62
     7
370
    25
100
AcDbCircle
 10
128.361560905
 20
145.4657358368
 30
0.0
 40
1.0
100
AcDbArc
 50
180.0
 51
270.0
  0
LINE
  5
1CC
330
1F
100
AcDbEntity
  8
0
  6
Continuous
 62
     7
370
    25
100
AcDbLine
 10
130.111560905
 20
144.4657358368
 30
0.0
 11
128.361560905
 21
144.4657358368
 31
0.0
  0
ARC
  5
1CD
330
1F
100
AcDbEntity
  8
0
  6
Continuous
 62
     7
370
    25
100
AcDbCircle
 10
130.111560905
 20
145.4657358368
 30
0.0
 40
1.0
100
AcDbArc
 50
270.0
 51
0.0
  0
LINE
  5
1CE
330
1F
100
AcDbEntity
  8
0
  6
Continuous
 62
     7
370
    25
100
AcDbLine
 10
131.111560905
 20
145.563331101
 30
0.0
 11
131.111560905
 21
145.4657358368
 31
0.0
  0
LINE
  5
1CF
330
1F
100
AcDbEntity
  8
0
  6
Continuous
 62
     7
370
    25
100
AcDbLine
 10
132.5707587096
 20
148.0907358368
 30
0.0
 11
131.111560905
 21
145.563331101
 31
0.0
  0
LINE
  5
1D0
330
1F
100
AcDbEntity
  8
0
  6
Continuous
 62
     7
370
    25
100
AcDbLine
 10
186.8365609634
 20
142.6157358368
 30
0.0
 11
187.836560905
 21
141.6157359352
 31
0.0
  0
LINE
  5
1D1
330
1F
100
AcDbEntity
  8
0
  6
Continuous
 62
     7
370
    25
100
AcDbLine
 10
104.8125100468
 20
134.2532371271
 30
0.0
 11
104.1865640332
 21
134.7219619824
 31
0.0
  0
LINE
  5
1D2
330
1F
100
AcDbEntity
  8
0
  6
Continuous
 62
     7
370
    25
100
AcDbLine
 10
127.361560905
 20
145.563331101
 30
0.0
 11
125.9023631004
 21
148.0907358368
 31
0.0
  0
LINE
  5
1D3
330
1F
100
AcDbEntity
  8
0
  6
Continuous
 62
     7
370
    25
100
AcDbLine
 10
127.361560905
 20
145.4657358368
 30
0.0
 11
127.361560905
 21
145.563331101
 31
0.0
  0
LINE
  5
1D4
330
1F
100
AcDbEntity
  8
0
  6
Continuous
 62
     7
370
    25
100
AcDbLine
 10
122.061560905
 20
121.6157358368
 30
0.0
 11
122.061560905
 21
122.3657358368
 31
0.0
  0
LINE
  5
1D5
330
1F
100
AcDbEntity
  8
0
  6
Continuous
 62
     7
370
    25
100
AcDbLine
 10
122.886560905
 20
122.3657358368
 30
0.0
 11
122.886560905
 21
120.6157358368
 31
0.0
  0
LINE
  5
1D6
330
1F
100
AcDbEntity
  8
0
  6
Continuous
 62
     7
370
    25
100
AcDbLine
 10
168.336560905
 20
120.6157358368
 30
0.0
 11
168.336560905
 21
126.5157358368
 31
0.0
  0
LINE
  5
1D7
330
1F
100
AcDbEntity
  8
0
  6
Continuous
 62
     7
370
    25
100
AcDbLine
 10
118.236560905
 20
130.9657358368
 30
0.0
 11
118.236560905
 21
121.8466759445
 31
0.0
  0
LINE
  5
1D8
330
1F
100
AcDbEntity
  8
0
  6
Continuous
 62
     7
370
    25
100
AcDbLine
 10
113.336560905
 20
134.0657358368
 30
0.0
 11
113.336560905
 21
132.1657358368
 31
0.0
  0
LINE
  5
1D9
330
1F
100
AcDbEntity
  8
0
  6
Continuous
 62
     7
370
    25
100
AcDbLine
 10
119.336560905
 20
147.8907358368
 30
0.0
 11
119.336560905
 21
143.4657358368
 31
0.0
  0
LINE
  5
1DA
330
1F
100
AcDbEntity
  8
0
  6
Continuous
 62
     7
370
    25
100
AcDbLine
 10
137.336560905
 20
145.6157358368
 30
0.0
 11
137.336560905
 21
148.0907358368
 31
0.0
  0
LINE
  5
1DB
330
1F
100
AcDbEntity
  8
0
  6
Continuous
 62
     7
370
    25
100
AcDbLine
 10
201.8365606415
 20
141.6157358692
 30
0.0
 11
202.8365605455
 21
142.6157357681
 31
0.0
  0
LINE
  5
1DC
330
1F
100
AcDbEntity
  8
0
  6
Continuous
 62
     7
370
    25
100
AcDbLine
 10
219.336560905
 20
126.9157358368
 30
0.0
 11
219.336560905
 21
135.3415953152
 31
0.0
  0
SPLINE
  5
1DD
330
1F
100
AcDbEntity
  8
0
  6
Continuous
 62
     7
370
    25
100
AcDbSpline
210
0.0
220
0.0
230
1.0
 70
     8
 71
     3
 72
     9
 73
     5
 74
     0
 42
0.000000001
 43
0.00000001
 40
0.0
 40
0.0
 40
0.0
 40
0.0
 40
0.5102121239851395
 40
0.9999999999999999
 40
0.9999999999999999
 40
0.9999999999999999
 40
0.9999999999999999
 10
80.19092430165819
 20
127.0773623534261
 30
0.0
 10
80.56578635863697
 20
127.0748724360445
 30
0.0
 10
81.30050440894676
 20
127.0699922749024
 30
0.0
 10
82.0295049994035
 20
127.064607383516
 30
0.0
 10
82.38656065021688
 20
127.0619699290014
 30
0.0
  0
LINE
  5
1DE
330
1F
100
AcDbEntity
  8
0
  6
Continuous
 62
     7
370
    25
100
AcDbLine
 10
80.1382269548
 20
127.1077866443
 30
0.0
 11
80.1909243035
 21
127.0773618159
 31
0.0
  0
LINE
  5
1DF
330
1F
100
AcDbEntity
  8
0
  6
Continuous
 62
     7
370
    25
100
AcDbLine
 10
80.1382269548
 20
135.5513120481
 30
0.0
 11
80.1382269548
 21
127.1077866443
 31
0.0
  0
SPLINE
  5
1E0
330
1F
100
AcDbEntity
  8
0
  6
Continuous
 62
     7
370
    25
100
AcDbSpline
210
0.0
220
0.0
230
1.0
 70
    24
 71
     3
 72
     8
 73
     4
 74
     0
 42
0.000000001
 43
0.00000001
 40
0.0000004089325119
 40
0.0000004089325119
 40
0.0000004089325119
 40
0.0000004089325119
 40
0.0015399868451459
 40
0.0015399868451459
 40
0.0015399868451459
 40
0.0015399868451459
 10
79.38656090498708
 20
127.5417612405587
 30
0.0
 10
79.63755198101154
 20
127.3968514752518
 30
0.0
 10
79.88814117751447
 20
127.2521737351948
 30
0.0
 10
80.1382269548266
 20
127.1077866443432
 30
0.0
  0
LINE
  5
1E1
330
1F
100
AcDbEntity
  8
0
  6
Continuous
 62
     7
370
    25
100
AcDbLine
 10
79.386560905
 20
136.8532358368
 30
0.0
 11
79.386560905
 21
127.5417612406
 31
0.0
  0
SPLINE
  5
1E2
330
1F
100
AcDbEntity
  8
0
  6
Continuous
 62
     7
370
    25
100
AcDbSpline
210
0.0
220
0.0
230
1.0
 70
     8
 71
     3
 72
     8
 73
     4
 74
     0
 42
0.000000001
 43
0.00000001
 40
0.0
 40
0.0
 40
0.0
 40
0.0
 40
1.0
 40
1.0
 40
1.0
 40
1.0
 10
82.51624264774385
 20
126.6757365145108
 30
0.0
 10
82.48829442762431
 20
126.7835528684863
 30
0.0
 10
82.4603343394556
 20
126.8911467186526
 30
0.0
 10
82.43236215192137
 20
126.9985159994373
 30
0.0
  0
LINE
  5
1E3
330
1F
100
AcDbEntity
  8
0
  6
Continuous
 62
     7
370
    25
100
AcDbLine
 10
82.5162457863
 20
126.6757358368
 30
0.0
 11
80.8865601182
 21
126.6757358368
 31
0.0
  0
LINE
  5
1E4
330
1F
100
AcDbEntity
  8
0
  6
Continuous
 62
     7
370
    25
100
AcDbLine
 10
80.8865603181
 20
126.6757361756
 30
0.0
 11
80.1909238401
 21
127.0773620834
 31
0.0
  0
LINE
  5
1E5
330
1F
100
AcDbEntity
  8
0
  6
Continuous
 62
     7
370
    25
100
AcDbLine
 10
88.9405218022
 20
124.6782358368
 30
0.0
 11
88.6883501742
 21
124.6782358368
 31
0.0
  0
SPLINE
  5
1E6
330
1F
100
AcDbEntity
  8
0
  6
Continuous
 62
     7
370
    25
100
AcDbSpline
210
0.0
220
0.0
230
1.0
 70
     8
 71
     3
 72
    26
 73
    22
 74
     0
 42
0.000000001
 43
0.00000001
 40
0.0
 40
0.0
 40
0.0
 40
0.0
 40
0.0524616379932503
 40
0.1026498591890872
 40
0.150565513457809
 40
0.1962095861957063
 40
0.2395832262568645
 40
0.2806877815599511
 40
0.3195248450380211
 40
0.3560963147430692
 40
0.3904044736547445
 40
0.4224520974433627
 40
0.4522426027417772
 40
0.4797802555366611
 40
0.5050704712281336
 40
0.5966394156799991
 40
0.6841917884819224
 40
0.7679874773571101
 40
0.8483228539139507
 40
0.925534163520116
 40
1.0
 40
1.0
 40
1.0
 40
1.0
 10
88.68654368031767
 20
124.6782656208097
 30
0.0
 10
88.65090728128638
 20
124.7378125408919
 30
0.0
 10
88.58117878094795
 20
124.8543259246786
 30
0.0
 10
88.46770062018811
 20
125.0187238854078
 30
0.0
 10
88.35217507046309
 20
125.1708856232093
 30
0.0
 10
88.23505337445295
 20
125.3107883201419
 30
0.0
 10
88.11768167397358
 20
125.4390026440459
 30
0.0
 10
88.00106070793994
 20
125.5560183229863
 30
0.0
 10
87.88615778749492
 20
125.6623954782303
 30
0.0
 10
87.77383356180557
 20
125.7587115587046
 30
0.0
 10
87.66486458777074
 20
125.8455609052571
 30
0.0
 10
87.55994554693405
 20
125.923541087451
 30
0.0
 10
87.45968822098531
 20
125.9932492845039
 30
0.0
 10
87.36465087840217
 20
126.055259273405
 30
0.0
 10
87.19454397397142
 20
126.1597457106708
 30
0.0
 10
86.94162494256632
 20
126.2948043771853
 30
0.0
 10
86.59564378550519
 20
126.4391912696023
 30
0.0
 10
86.24768523618084
 20
126.5481591818473
 30
0.0
 10
85.90154547580478
 20
126.6226887641841
 30
0.0
 10
85.56048069237069
 20
126.6676174687335
 30
0.0
 10
85.33473408085503
 20
126.6730625675879
 30
0.0
 10
85.22390386883697
 20
126.6757358367743
 30
0.0
  0
SPLINE
  5
1E7
330
1F
100
AcDbEntity
  8
0
  6
Continuous
 62
     7
370
    25
100
AcDbSpline
210
0.0
220
0.0
230
1.0
 70
     8
 71
     3
 72
     8
 73
     4
 74
     0
 42
0.000000001
 43
0.00000001
 40
0.0
 40
0.0
 40
0.0
 40
0.0
 40
1.0
 40
1.0
 40
1.0
 40
1.0
 10
88.94052180221956
 20
124.6782358367742
 30
0.0
 10
88.96952650864715
 20
124.8021735636365
 30
0.0
 10
88.9885590283286
 20
124.9301256938698
 30
0.0
 10
88.99681062052024
 20
125.0611950065612
 30
0.0
  0
LINE
  5
1E8
330
1F
100
AcDbEntity
  8
0
  6
Continuous
 62
     7
370
    25
100
AcDbLine
 10
85.2239038688
 20
126.6757358368
 30
0.0
 11
82.5162457863
 21
126.6757358368
 31
0.0
  0
LINE
  5
1E9
330
1F
100
AcDbEntity
  8
0
  6
Continuous
 62
     7
370
    25
100
AcDbLine
 10
101.986560905
 20
120.6785092476
 30
0.0
 11
101.336560905
 21
120.8282358368
 31
0.0
  0
SPLINE
  5
1EA
330
1F
100
AcDbEntity
  8
0
  6
Continuous
 62
     7
370
    25
100
AcDbSpline
210
0.0
220
0.0
230
1.0
 70
     8
 71
     3
 72
    26
 73
    22
 74
     0
 42
0.000000001
 43
0.00000001
 40
0.0
 40
0.0
 40
0.0
 40
0.0
 40
0.0305951740572542
 40
0.0629166281868252
 40
0.0969720532897518
 40
0.1327680143285475
 40
0.1703101548822826
 40
0.2096033578521445
 40
0.2506518729756858
 40
0.3342141733898277
 40
0.4179517165474626
 40
0.5018670561020881
 40
0.5659795686746639
 40
0.6277136397870199
 40
0.687135819210908
 40
0.7443207393864881
 40
0.7993521466017559
 40
0.8523240127975756
 40
0.903341702807647
 40
0.9525231537633125
 40
1.0
 40
1.0
 40
1.0
 40
1.0
 10
101.3365609049871
 20
120.8282358367743
 30
0.0
 10
101.3356526931424
 20
120.8927710041615
 30
0.0
 10
101.333785025162
 20
121.0254826247549
 30
0.0
 10
101.3181924361004
 20
121.2282967162785
 30
0.0
 10
101.2915485749132
 20
121.4400097571789
 30
0.0
 10
101.2513941458348
 20
121.6597217505518
 30
0.0
 10
101.1964960291516
 20
121.8864686214231
 30
0.0
 10
101.1252530605399
 20
122.1190996252061
 30
0.0
 10
101.0068406662573
 20
122.4344979396828
 30
0.0
 10
100.8187097698494
 20
122.8189798382178
 30
0.0
 10
100.5346930066149
 20
123.2490074527473
 30
0.0
 10
100.2252750500651
 20
123.6074941650882
 30
0.0
 10
99.90936543926354
 20
123.8992608213776
 30
0.0
 10
99.60262003114022
 20
124.1317199082147
 30
0.0
 10
99.28420091731812
 20
124.3285301427787
 30
0.0
 10
98.95823004116104
 20
124.490630845037
 30
0.0
 10
98.62869120603582
 20
124.6191007285167
 30
0.0
 10
98.29912929118925
 20
124.7156845478896
 30
0.0
 10
97.97271096789001
 20
124.7815367771758
 30
0.0
 10
97.65219277558612
 20
124.8211017250013
 30
0.0
 10
97.44052726205535
 20
124.8258859232166
 30
0.0
 10
97.33656090498707
 20
124.8282358367743
 30
0.0
  0
SPLINE
  5
1EB
330
1F
100
AcDbEntity
  8
0
  6
Continuous
 62
     7
370
    25
100
AcDbSpline
210
0.0
220
0.0
230
1.0
 70
     8
 71
     3
 72
    13
 73
     9
 74
     0
 42
0.000000001
 43
0.00000001
 40
0.0
 40
0.0
 40
0.0
 40
0.0
 40
0.1604061687300809
 40
0.3231296684563272
 40
0.4883154213007764
 40
0.6561019685773533
 40
0.8266215117792448
 40
1.0
 40
1.0
 40
1.0
 40
1.0
 10
95.42168762569763
 20
124.8282358367743
 30
0.0
 10
95.36263767418247
 20
124.8274802667363
 30
0.0
 10
95.24368469745774
 20
124.8259582112081
 30
0.0
 10
95.06443106385191
 20
124.8135131520807
 30
0.0
 10
94.88349808216424
 20
124.7933289709499
 30
0.0
 10
94.70136958776547
 20
124.7641936048093
 30
0.0
 10
94.51820257997112
 20
124.7267774529901
 30
0.0
 10
94.39746326509677
 20
124.6945115806331
 30
0.0
 10
94.3365917335119
 20
124.6782445256946
 30
0.0
  0
SPLINE
  5
1EC
330
1F
100
AcDbEntity
  8
0
  6
Continuous
 62
     7
370
    25
100
AcDbSpline
210
0.0
220
0.0
230
1.0
 70
    24
 71
     3
 72
    10
 73
     6
 74
     0
 42
0.000000001
 43
0.00000001
 40
0.0
 40
0.0
 40
0.0
 40
0.0
 40
0.3216623556917455
 40
0.6548175346390357
 40
1.0
 40
1.0
 40
1.0
 40
1.0
 10
94.33673973989185
 20
124.6782358367743
 30
0.0
 10
94.26819383203458
 20
124.6782358367743
 30
0.0
 10
94.12865290783729
 20
124.6782358367743
 30
0.0
 10
93.91904449248675
 20
124.6782358367743
 30
0.0
 10
93.77936749733293
 20
124.6782358367743
 30
0.0
 10
93.7082907261321
 20
124.6782358367743
 30
0.0
  0
SPLINE
  5
1ED
330
1F
100
AcDbEntity
  8
0
  6
Continuous
 62
     7
370
    25
100
AcDbSpline
210
0.0
220
0.0
230
1.0
 70
     8
 71
     3
 72
     8
 73
     4
 74
     0
 42
0.000000001
 43
0.00000001
 40
0.0
 40
0.0
 40
0.0
 40
0.0
 40
1.0
 40
1.0
 40
1.0
 40
1.0
 10
94.42289102138571
 20
125.0566821859572
 30
0.0
 10
94.15359469132925
 20
124.9599928007639
 30
0.0
 10
93.91743400591548
 20
124.8319936313871
 30
0.0
 10
93.70823648973156
 20
124.6785170337425
 30
0.0
  0
LINE
  5
1EE
330
1F
100
AcDbEntity
  8
0
  6
Continuous
 62
     7
370
    25
100
AcDbLine
 10
93.7087822013
 20
108.5532358368
 30
0.0
 11
93.8454530292
 21
108.5532358368
 31
0.0
  0
LINE
  5
1EF
330
1F
100
AcDbEntity
  8
0
  6
Continuous
 62
     7
370
    25
100
AcDbLine
 10
97.336560905
 20
124.8282358368
 30
0.0
 11
95.4216876257
 21
124.8282358368
 31
0.0
  0
LINE
  5
1F0
330
1F
100
AcDbEntity
  8
0
  6
Continuous
 62
     7
370
    25
100
AcDbLine
 10
93.7086490869
 20
124.6782358368
 30
0.0
 11
88.9405218022
 21
124.6782358368
 31
0.0
  0
LINE
  5
1F1
330
1F
100
AcDbEntity
  8
0
  6
Continuous
 62
     7
370
    25
100
AcDbLine
 10
101.336560905
 20
116.6157358368
 30
0.0
 11
101.336560905
 21
120.8282358368
 31
0.0
  0
LINE
  5
1F2
330
1F
100
AcDbEntity
  8
VERMASSUNG
  6
CENTERX2
100
AcDbLine
 10
233.331560905
 20
116.6157358368
 30
0.0
 11
65.391560905
 21
116.6157358368
 31
0.0
  0
HATCH
  5
1F3
330
1F
100
AcDbEntity
  8
0
  6
Continuous
 62
     7
370
    18
100
AcDbHatch
 10
0.0
 20
0.0
 30
0.0
210
0.0
220
0.0
230
1.0
  2
ANSI31
 70
     0
 71
     0
 91
        1
 92
        0
 93
       44
 72
     1
 10
127.361560904987
 20
145.4657358367743
 11
127.3615609049871
 21
145.5633311009659
 72
     1
 10
127.3615609049871
 20
145.5633311009659
 11
125.902363100417
 21
148.0907358367743
 72
     1
 10
125.902363100417
 20
148.0907358367743
 11
119.5365609049871
 21
148.0907358367743
 72
     2
 10
119.5365609049871
 20
147.8907358367743
 40
0.2000000000000028
 50
90.0
 51
180.0
 73
     1
 72
     1
 10
119.3365609049871
 20
147.8907358367743
 11
119.3365609049871
 21
143.4657358367743
 72
     1
 10
119.3365609049871
 20
143.4657358367743
 11
119.6705995910157
 21
142.4063004763777
 72
     2
 10
118.9076260304171
 20
142.1657358367743
 40
0.8000000000000032
 50
342.4999999999998
 51
467.5000000000015
 73
     0
 72
     1
 10
118.6670613908137
 20
141.4027622761757
 11
118.1763788649563
 21
141.5574738823026
 72
     1
 10
118.1763788649563
 20
141.5574738823026
 11
104.8549055924368
 21
140.8884969092764
 72
     1
 10
104.8549039990383
 20
140.8885002183449
 11
104.1865738531087
 21
140.0793883959537
 72
     1
 10
104.1865738531087
 20
140.0793883959537
 11
104.1865609049871
 21
134.7219618575258
 72
     1
 10
104.1865640332208
 20
134.7219619824063
 11
104.8125100467629
 21
134.2532371270663
 72
     1
 10
104.8125102950719
 20
134.2532358367743
 11
109.8365609049871
 21
134.2532358367743
 72
     1
 10
109.8365609049871
 20
134.2532358367743
 11
110.7118013785679
 21
134.7585561598018
 72
     2
 10
111.1118013785679
 20
134.0657358367743
 40
0.7999999999999918
 50
240.0000000000012
 51
270.0000000000008
 73
     0
 72
     1
 10
111.1118013785679
 20
134.8657358367743
 11
112.5365609049871
 21
134.8657358367743
 72
     2
 10
112.5365609049871
 20
134.0657358367743
 40
0.7999999999999977
 50
270.0000000000008
 51
360.0000000000008
 73
     0
 72
     1
 10
113.3365609049871
 20
134.0657358367743
 11
113.3365609049871
 21
132.1657358367743
 72
     1
 10
113.3365609049871
 20
132.1657358367743
 11
117.0365609049871
 21
132.1657358367743
 72
     2
 10
117.0365609049871
 20
130.9657358367743
 40
1.2
 50
270.0000000000008
 51
360.0000000000008
 73
     0
 72
     1
 10
118.2365609049871
 20
130.9657358367743
 11
118.2365609049871
 21
121.8466759444501
 72
     1
 10
118.2365609049871
 20
121.8466759444501
 11
118.6365609049871
 21
121.6157358367743
 72
     1
 10
118.6365609049871
 20
121.6157358367743
 11
122.0615609049871
 21
121.6157358367743
 72
     1
 10
122.0615609049871
 20
121.6157358367743
 11
122.0615609049871
 21
122.3657358367743
 72
     1
 10
122.0615609049871
 20
122.3657358367743
 11
122.8865609049871
 21
122.3657358367743
 72
     1
 10
122.8865609049871
 20
122.3657358367743
 11
122.8865609049871
 21
120.6157358367743
 72
     1
 10
122.8865609049871
 20
120.6157358367743
 11
168.3365609049871
 21
120.6157358367743
 72
     1
 10
168.3365609049871
 20
120.6157358367743
 11
168.3365609049871
 21
126.5157358367743
 72
     2
 10
168.7365609049871
 20
126.5157358367743
 40
0.4000000000000019
 50
180.0
 51
270.0000000000008
 73
     0
 72
     1
 10
168.7365609049871
 20
126.9157358367743
 11
171.4417868868673
 21
126.9157358367743
 72
     2
 10
171.4417868868673
 20
126.5157358367743
 40
0.3999999999999984
 50
269.9999999999968
 51
289.9999999999992
 73
     0
 72
     1
 10
171.5785949441976
 20
126.8916128850887
 11
172.3365609049871
 21
126.6157358367743
 72
     1
 10
172.3365609049871
 20
126.6157358367743
 11
187.8365609049871
 21
126.6157358367743
 72
     1
 10
187.8365609049871
 20
126.6157358367743
 11
187.8365609049871
 21
141.6157359352264
 72
     1
 10
187.8365609049871
 20
141.6157359352264
 11
186.8365609633589
 21
142.6157358367743
 72
     1
 10
186.8365609633589
 20
142.6157358367743
 11
140.3365609049871
 21
142.6157358367743
 72
     2
 10
140.3365609049871
 20
145.6157358367743
 40
3.0
 50
90.0
 51
180.0
 73
     0
 72
     1
 10
137.3365609049871
 20
145.6157358367743
 11
137.3365609049871
 21
148.0907358367743
 72
     1
 10
137.3365609049871
 20
148.0907358367743
 11
132.5707587095571
 21
148.0907358367743
 72
     1
 10
132.5707587095571
 20
148.0907358367743
 11
131.111560904987
 21
145.563331100966
 72
     1
 10
131.111560904987
 20
145.563331100966
 11
131.111560904987
 21
145.4657358367743
 72
     2
 10
130.111560904987
 20
145.4657358367743
 40
1.000000000000003
 50
0.0
 51
90.0
 73
     0
 72
     1
 10
130.111560904987
 20
144.4657358367743
 11
128.3615609049871
 21
144.4657358367743
 72
     2
 10
128.361560904987
 20
145.4657358367743
 40
1.000000000000003
 50
89.99999999999837
 51
180.0
 73
     0
 97
        0
 75
     0
 76
     1
 52
0.0
 41
1.0
 77
     0
 78
     1
 53
45.0
 43
0.0
 44
0.0
 45
-2.245064030267288
 46
2.245064030267288
 79
     0
 98
        1
 10
0.0
 20
0.0
  0
HATCH
  5
1F4
330
1F
100
AcDbEntity
  8
0
  6
Continuous
 62
     7
370
    18
100
AcDbHatch
 10
0.0
 20
0.0
 30
0.0
210
0.0
220
0.0
230
1.0
  2
ANSI31
 70
     0
 71
     0
 91
        1
 92
        0
 93
        8
 72
     1
 10
201.8365609049871
 20
126.6157358367743
 11
219.0365609049871
 21
126.6157358367744
 72
     2
 10
219.0365609049871
 20
126.9157358367744
 40
0.2999999999999973
 50
270.0000000000008
 51
360.0000000000008
 73
     1
 72
     1
 10
219.3365609049871
 20
126.9157358367744
 11
219.3365609049871
 21
135.3415953151594
 72
     2
 10
217.3365609049871
 20
135.3415953151594
 40
2.0
 50
0.0
 51
65.00000000000031
 73
     1
 72
     1
 10
218.1817974284685
 20
137.1542108892327
 11
206.4695193819298
 21
142.6157358367744
 72
     1
 10
206.4695193819298
 20
142.6157358367744
 11
202.8365606244586
 21
142.6157358367744
 72
     1
 10
202.8365605454611
 20
142.615735768058
 11
201.8365606414777
 21
141.6157358691533
 72
     1
 10
201.8365609049871
 20
141.6157358373557
 11
201.8365609049871
 21
126.6157358367743
 97
        0
 75
     0
 76
     1
 52
0.0
 41
1.0
 77
     0
 78
     1
 53
45.0
 43
0.0
 44
0.0
 45
-2.245064030267288
 46
2.245064030267288
 79
     0
 98
        1
 10
0.0
 20
0.0
  0
HATCH
  5
1F5
330
1F
100
AcDbEntity
  8
0
  6
Continuous
 62
     7
370
    18
100
AcDbHatch
 10
0.0
 20
0.0
 30
0.0
210
0.0
220
0.0
230
1.0
  2
ANSI31
 70
     0
 71
     0
 91
        1
 92
        0
 93
        9
 72
     1
 10
89.68658903557524
 20
139.2800102086572
 11
88.93699905663954
 21
140.0891215464248
 72
     1
 10
88.93699905663954
 20
140.0891215464248
 11
80.88656090498708
 21
139.6848559643566
 72
     1
 10
80.88656090498708
 20
139.6848559643566
 11
79.38656090498706
 21
138.8188305605722
 72
     1
 10
79.38656090498706
 20
138.8188305605722
 11
79.38656090498706
 21
136.8532358367743
 72
     1
 10
79.38656090498706
 20
136.8532358367743
 11
80.1382269548266
 21
135.5513120481276
 72
     1
 10
80.1382269548266
 20
135.5513120481276
 11
82.38656090498706
 21
134.2532358367743
 72
     1
 10
82.38656090498706
 20
134.2532358367743
 11
86.256560749696
 21
134.2532358367743
 72
     1
 10
86.256560749696
 20
134.2532358367743
 11
89.68656090498706
 21
139.1517837216782
 72
     1
 10
89.68656090498706
 20
139.1517837216782
 11
89.68656090498706
 21
139.2800090951639
 97
        0
 75
     0
 76
     1
 52
0.0
 41
1.0
 77
     0
 78
     1
 53
45.0
 43
0.0
 44
0.0
 45
-2.245064030267288
 46
2.245064030267288
 79
     0
 98
        1
 10
0.0
 20
0.0
  0
HATCH
  5
1F6
330
1F
100
AcDbEntity
  8
0
  6
Continuous
 62
     7
370
    18
100
AcDbHatch
 10
0.0
 20
0.0
 30
0.0
210
0.0
220
0.0
230
1.0
  2
ANSI31
 70
     0
 71
     0
 91
        1
 92
        0
 93
       15
 72
     1
 10
189.3365609049872
 20
125.2006053233546
 11
190.8365609049872
 21
125.2006053233546
 72
     1
 10
190.8365609049872
 20
125.2006053233546
 11
194.8365609049871
 21
127.5100064001131
 72
     1
 10
194.8365609049871
 20
127.5100064001131
 11
198.8365609049871
 21
125.2006053233546
 72
     1
 10
198.8365609049871
 20
125.2006053233546
 11
200.3365609049871
 21
125.2006053233546
 72
     1
 10
200.3365609049871
 20
125.2006053233546
 11
202.8365609049871
 21
127.7006053233546
 72
     1
 10
202.8365609049871
 20
127.7006053233546
 11
202.8365609049871
 21
140.7006053233546
 72
     1
 10
202.8365609049871
 20
140.7006053233546
 11
201.836560904987
 21
141.7006053233546
 72
     1
 10
201.836560904987
 20
141.7006053233546
 11
198.8488013880678
 21
141.7006053233546
 72
     1
 10
198.8488013880678
 20
141.7006053233546
 11
198.8488013880678
 21
131.7006053233546
 72
     1
 10
198.8488013880678
 20
131.7006053233546
 11
190.8243204219064
 21
131.7006053233546
 72
     1
 10
190.8243204219064
 20
131.7006053233546
 11
190.8243204219065
 21
141.7006053233546
 72
     1
 10
190.8243204219065
 20
141.7006053233546
 11
187.8365609049871
 21
141.7006053233546
 72
     1
 10
187.8365609049871
 20
141.7006053233546
 11
186.8365609049871
 21
140.7006053233546
 72
     1
 10
186.8365609049871
 20
140.7006053233546
 11
186.8365609049871
 21
127.7006053233546
 72
     1
 10
186.8365609049871
 20
127.7006053233546
 11
189.3365609049872
 21
125.2006053233546
 97
        0
 75
     0
 76
     1
 52
0.0
 41
1.0
 77
     0
 78
     1
 53
45.0
 43
0.0
 44
0.0
 45
-2.245064030267288
 46
2.245064030267288
 79
     0
 98
        1
 10
0.0
 20
0.0
  0
DIMENSION
  5
1F7
330
1F
100
AcDbEntity
  8
VERMASSUNG
100
AcDbDimension
  2
_D
 10
245.3378731313
 20
106.6157358368
 30
0.0
 11
245.3378731313
 21
116.6157358368
 31
0.0
 70
   160
  1
%%c<>
 71
     2
 42
-1.0
  3
SLDDIMSTYLE0
100
AcDbAlignedDimension
 13
187.836560905
 23
126.6157358368
 33
0.0
 14
219.036560905
 24
106.6157358368
 34
0.0
 50
90.0
100
AcDbRotatedDimension
  0
DIMENSION
  5
201
330
1F
100
AcDbEntity
  8
VERMASSUNG
100
AcDbDimension
  2
_D_1
 10
256.3662869043
 20
90.6157358368
 30
0.0
 11
256.3662869043
 21
116.6157358368
 31
0.0
 70
   160
  1
%%c<>
 71
     2
 42
-1.0
  3
SLDDIMSTYLE1
100
AcDbAlignedDimension
 13
206.4695193819
 23
142.6157358368
 33
0.0
 14
206.4695193819
 24
90.6157358368
 34
0.0
 50
90.0
100
AcDbRotatedDimension
  0
DIMENSION
  5
20D
330
1F
100
AcDbEntity
  8
VERMASSUNG
100
AcDbDimension
  2
_D_2
 10
57.386535905
 20
85.1407358368
 30
0.0
 11
57.386535905
 21
116.6157358368
 31
0.0
 70
   160
  1
KM%%c<> XMZ
 71
     2
 42
-1.0
  3
SLDDIMSTYLE2
100
AcDbAlignedDimension
 13
132.5707587096
 23
148.0907358368
 33
0.0
 14
132.5707587096
 24
85.1407358368
 34
0.0
 50
90.0
100
AcDbRotatedDimension
  0
DIMENSION
  5
21B
330
1F
100
AcDbEntity
  8
VERMASSUNG
100
AcDbDimension
  2
_D_3
 10
219.336560905
 20
158.0907358368
 30
0.0
 11
178.336560905
 21
158.0907358368
 31
0.0
 70
   160
  1
<>
 71
     2
 42
-1.0
  3
SLDDIMSTYLE1
100
AcDbAlignedDimension
 13
137.336560905
 23
148.0907358368
 33
0.0
 14
219.336560905
 24
135.3415953152
 34
0.0
 50
0.0
100
AcDbRotatedDimension
  0
DIMENSION
  5
225
330
1F
100
AcDbEntity
  8
VERMASSUNG
100
AcDbDimension
  2
_D_4
 10
219.336560905
 20
166.24478779
 30
0.0
 11
169.336560905
 21
166.24478779
 31
0.0
 70
   160
  1
<>
 71
     2
 42
-1.0
  3
SLDDIMSTYLE1
100
AcDbAlignedDimension
 13
119.336560905
 23
147.8907358368
 33
0.0
 14
219.336560905
 24
135.3415953152
 34
0.0
 50
0.0
100
AcDbRotatedDimension
  0
DIMENSION
  5
22F
330
1F
100
AcDbEntity
  8
VERMASSUNG
100
AcDbDimension
  2
_D_5
 10
219.336560905
 20
174.6016138358
 30
0.0
 11
149.361560905
 21
174.6016138358
 31
0.0
 70
   160
  1
<>
 71
     2
 42
-1.0
  3
SLDDIMSTYLE1
100
AcDbAlignedDimension
 13
79.386560905
 23
138.8188305606
 33
0.0
 14
219.336560905
 24
135.3415953152
 34
0.0
 50
0.0
100
AcDbRotatedDimension
  0
LINE
  5
239
330
1F
100
AcDbEntity
  8
VERMASSUNG
  6
CENTERX2
370
    18
100
AcDbLine
 10
194.836560905
 20
143.7006053234
 30
0.0
 11
194.836560905
 21
120.6467893488
 31
0.0
  0
LINE
  5
23A
330
1F
100
AcDbEntity
  8
0
  6
Continuous
 62
     7
370
    25
100
AcDbLine
 10
266.8517577153
 20
19.9326705299
 30
0.0
 11
271.8312994159
 21
20.0348032525
 31
0.0
  0
LINE
  5
23B
330
1F
100
AcDbEntity
  8
0
  6
Continuous
 62
     7
370
    25
100
AcDbLine
 10
281.5253511752
 20
36.8272129233
 30
0.0
 11
279.123620407
 21
41.1904635416
 31
0.0
  0
SPLINE
  5
23C
330
1F
100
AcDbEntity
  8
0
  6
Continuous
 62
     7
370
    25
100
AcDbSpline
210
0.0
220
0.0
230
1.0
 70
     8
 71
     3
 72
    31
 73
    27
 74
     0
 42
0.000000001
 43
0.00000001
 40
0.0
 40
0.0
 40
0.0
 40
0.0
 40
0.0097745728159916
 40
0.0519500205018708
 40
0.0949285477879847
 40
0.1385309730167074
 40
0.1825127107521271
 40
0.2266571369286683
 40
0.2707947025327136
 40
0.3148614891589239
 40
0.3588419510299826
 40
0.4027438228296133
 40
0.4465867121544736
 40
0.4903958689466789
 40
0.5341991417425217
 40
0.5780217458283957
 40
0.6218876097227365
 40
0.6658267152087947
 40
0.709868141845028
 40
0.7540374389789914
 40
0.7983509716734563
 40
0.8428049211950374
 40
0.8873562377215444
 40
0.931841344704777
 40
0.9760276871311073
 40
1.0
 40
1.0
 40
1.0
 40
1.0
 10
272.0025462342841
 20
20.05027138948026
 30
0.0
 10
272.0597638716728
 20
20.05051088884079
 30
0.0
 10
272.3638648785782
 20
20.05178378300441
 30
0.0
 10
272.9355201727399
 20
20.15784316252683
 30
0.0
 10
273.7131182544346
 20
20.37123972983438
 30
0.0
 10
274.5049619440133
 20
20.6967404088627
 30
0.0
 10
275.2993192992098
 20
21.11960438500882
 30
0.0
 10
276.0865165855819
 20
21.63720368775524
 30
0.0
 10
276.8569487714977
 20
22.24150849636963
 30
0.0
 10
277.6021954387114
 20
22.92478561299943
 30
0.0
 10
278.3147680676921
 20
23.67878185604858
 30
0.0
 10
278.9877307644015
 20
24.49500752190194
 30
0.0
 10
279.6145419113971
 20
25.3646125207596
 30
0.0
 10
280.1890335052234
 20
26.27842612060304
 30
0.0
 10
280.7054140507132
 20
27.22696500493493
 30
0.0
 10
281.158307342261
 20
28.20048694753458
 30
0.0
 10
281.5428207033198
 20
29.18912530061539
 30
0.0
 10
281.8545661420301
 20
30.1830215334835
 30
0.0
 10
282.0896529143488
 20
31.17244005279109
 30
0.0
 10
282.2445834491719
 20
32.14773574189477
 30
0.0
 10
282.3163701235616
 20
33.09947345370486
 30
0.0
 10
282.301862362616
 20
34.01774971435012
 30
0.0
 10
282.2002725999662
 20
34.89354450188468
 30
0.0
 10
282.0047268561307
 20
35.7110837529504
 30
0.0
 10
281.7762286785555
 20
36.36219721661384
 30
0.0
 10
281.5776225155649
 20
36.70827290593355
 30
0.0
 10
281.5077700653328
 20
36.8299923656963
 30
0.0
  0
LINE
  5
23D
330
1F
100
AcDbEntity
  8
0
  6
Continuous
 62
     7
370
    25
100
AcDbLine
 10
240.9630967658
 20
34.0382702581
 30
0.0
 11
264.3446284653
 21
20.5403993183
 31
0.0
  0
LINE
  5
23E
330
1F
100
AcDbEntity
  8
0
  6
Continuous
 62
     7
370
    25
100
AcDbLine
 10
277.3435719896
 20
43.0576697402
 30
0.0
 11
253.9620402901
 21
56.55554068
 31
0.0
  0
LINE
  5
23F
330
1F
100
AcDbEntity
  8
0
  6
Continuous
 62
     7
370
    25
100
AcDbLine
 10
236.8488323037
 20
33.2524774741
 30
0.0
 11
238.5337978287
 21
32.2797675812
 31
0.0
  0
LINE
  5
240
330
1F
100
AcDbEntity
  8
0
  6
Continuous
 62
     7
370
    25
100
AcDbLine
 10
254.2700188836
 20
59.5386555247
 30
0.0
 11
252.5850533585
 21
60.5113654176
 31
0.0
  0
LINE
  5
241
330
1F
100
AcDbEntity
  8
0
  6
Continuous
 62
     7
370
    25
100
AcDbLine
 10
232.2405474762
 20
35.9127836788
 30
0.0
 11
234.4911984262
 21
34.6135105412
 31
0.0
  0
LINE
  5
242
330
1F
100
AcDbEntity
  8
0
  6
Continuous
 62
     7
370
    25
100
AcDbLine
 10
250.2274194811
 20
61.8723984846
 30
0.0
 11
247.976768531
 21
63.1716716223
 31
0.0
  0
LINE
  5
243
330
1F
100
AcDbEntity
  8
0
  6
Continuous
 62
     7
370
    25
100
AcDbLine
 10
241.1993796581
 20
62.9515536577
 30
0.0
 11
232.0021671016
 21
67.5322063167
 31
0.0
  0
LINE
  5
244
330
1F
100
AcDbEntity
  8
0
  6
Continuous
 62
     7
370
    25
100
AcDbLine
 10
220.47581939
 20
47.5658230553
 30
0.0
 11
229.0419197022
 21
41.8919334693
 31
0.0
  0
LINE
  5
245
330
1F
100
AcDbEntity
  8
0
  6
Continuous
 62
     7
370
    25
100
AcDbLine
 10
225.4552569383
 20
48.5123130929
 30
0.0
 11
225.4552569383
 21
48.1469940761
 31
0.0
  0
LINE
  5
246
330
1F
100
AcDbEntity
  8
0
  6
Continuous
 62
     7
370
    25
100
AcDbLine
 10
229.3532234393
 20
67.9091747904
 30
0.0
 11
228.7136729867
 21
67.821963725
 31
0.0
  0
LWPOLYLINE
  5
247
330
1F
100
AcDbEntity
  8
0
  6
Continuous
 62
     7
370
    25
100
AcDbPolyline
 90
        3
 70
   128
 43
0.0
 10
271.981943923
 20
20.0403352742
 10
271.834391853
 20
20.03486772
 10
271.8312994159
 20
20.0348032525
  0
LWPOLYLINE
  5
248
330
1F
100
AcDbEntity
  8
0
  6
Continuous
 62
     7
370
    25
100
AcDbPolyline
 90
       29
 70
   128
 43
0.0
 10
261.651712072
 20
26.4923818024
 10
261.6959759335
 20
27.5583897252
 10
261.8283412329
 20
28.6652373756
 10
262.0475332198
 20
29.8022652057
 10
262.3514409558
 20
30.958523016
 10
262.737137643
 20
32.1228754116
 10
263.2009088117
 20
33.2841090425
 10
263.7382880919
 20
34.431040594
 10
264.3441002274
 20
35.5526244883
 10
265.0125109162
 20
36.6380592593
 10
265.7370829979
 20
37.676891577
 10
266.5108384473
 20
38.659116918
 10
267.3263255765
 20
39.5752759156
 10
268.1756907986
 20
40.4165454577
 10
269.0507542621
 20
41.1748236588
 10
269.9430886277
 20
41.8428078852
 10
270.8441002274
 20
42.4140650837
 10
271.7451118272
 20
42.8830937352
 10
272.6374461928
 20
43.2453768374
 10
273.5125096563
 20
43.497425406
 10
274.3618748784
 20
43.6368120754
 10
275.1773620076
 20
43.6621944759
 10
275.951117457
 20
43.573328161
 10
276.6756895387
 20
43.3710689619
 10
277.3441002274
 20
43.0573647454
 10
277.949912363
 20
42.6352366544
 10
278.4872916432
 20
42.1087500133
 10
278.9510628119
 20
41.4829751762
 10
279.123620407
 20
41.1904635416
  0
LWPOLYLINE
  5
249
330
1F
100
AcDbEntity
  8
0
  6
Continuous
 62
     7
370
    25
100
AcDbPolyline
 90
       13
 70
   128
 43
0.0
 10
266.8517577153
 20
19.9326705299
 10
266.5108384473
 20
19.9358745826
 10
265.7370829979
 20
20.0247408975
 10
265.0125109162
 20
20.2270000965
 10
264.3441002274
 20
20.5407043131
 10
263.7382880919
 20
20.962832404
 10
263.2009088117
 20
21.4893190451
 10
262.737137643
 20
22.1150938822
 10
262.3514409558
 20
22.8341303615
 10
262.0475332198
 20
23.6395037686
 10
261.8283412329
 20
24.5234579174
 10
261.6959759335
 20
25.4774798462
 10
261.651712072
 20
26.4923818024
  0
LWPOLYLINE
  5
24A
330
1F
100
AcDbEntity
  8
0
  6
Continuous
 62
     7
370
    25
100
AcDbPolyline
 90
       14
 70
   128
 43
0.0
 10
271.7516864617
 20
27.0705943726
 10
271.7965205997
 20
27.7543124638
 10
271.9299190482
 20
28.4729595402
 10
272.1485970949
 20
29.2088401258
 10
272.4471701603
 20
29.9438343985
 10
272.8182863848
 20
30.6598443597
 10
273.2528076553
 20
31.3392394681
 10
273.7400346159
 20
31.9652907613
 10
274.2679701219
 20
32.5225827786
 10
274.823614649
 20
32.9973931411
 10
275.3932863848
 20
33.3780304418
 10
275.9629581207
 20
33.6551221271
 10
276.5186026478
 20
33.8218452802
 10
277.0432993801
 20
33.8741282029
  0
LWPOLYLINE
  5
24B
330
1F
100
AcDbEntity
  8
0
  6
Continuous
 62
     7
370
    25
100
AcDbPolyline
 90
       16
 70
   128
 43
0.0
 10
278.8285021696
 20
32.5515178846
 10
278.8566537214
 20
32.4716783519
 10
278.99005217
 20
31.9070498458
 10
279.0348863079
 20
31.2750961485
 10
278.99005217
 20
30.5913780574
 10
278.8566537214
 20
29.8727309809
 10
278.6379756748
 20
29.1368503953
 10
278.3394026093
 20
28.4018561227
 10
277.9682863848
 20
27.6858461614
 10
277.5337651144
 20
27.006451053
 10
277.0465381538
 20
26.3803997599
 10
276.5186026478
 20
25.8231077426
 10
275.9629581207
 20
25.3482973801
 10
275.3932863848
 20
24.9676600794
 10
274.823614649
 20
24.690568394
 10
274.4174896483
 20
24.5581260268
  0
LWPOLYLINE
  5
24C
330
1F
100
AcDbEntity
  8
0
  6
Continuous
 62
     7
370
    25
100
AcDbPolyline
 90
       31
 70
   128
 43
0.0
 10
275.3392783374
 20
33.3463897602
 10
275.4295819642
 20
33.3956524483
 10
275.9944179901
 20
33.6425276389
 10
276.540937969
 20
33.7752262443
 10
277.0549873206
 20
33.7903114403
 10
277.5232524367
 20
33.6873925284
 10
277.9336054968
 20
33.4691350541
 10
278.275418572
 20
33.1411917716
 10
278.5398388835
 20
32.7120562395
 10
278.7200180838
 20
32.1928428427
 10
278.8112896265
 20
31.5969989354
 10
278.8112896265
 20
30.9399565619
 10
278.7200180838
 20
30.2387327745
 10
278.5398388835
 20
29.511488901
 10
278.275418572
 20
28.7770601757
 10
277.9336054968
 20
28.0544679167
 10
277.5232524367
 20
27.3624268842
 10
277.0549873206
 20
26.7188605771
 10
276.540937969
 20
26.140437025
 10
275.9944179901
 20
25.6421370939
 10
275.4295819642
 20
25.2368664903
 10
274.8610588477
 20
24.93512151
 10
274.3035730908
 20
24.7447171895
 10
273.7715632816
 20
24.6705849006
 10
273.2788081948
 20
24.7146446306
 10
272.8380699284
 20
24.8757552559
 10
272.4607633718
 20
25.1497440956
 10
272.1566605667
 20
25.5295149829
 10
271.9336376161
 20
26.0052320513
 10
271.7974706972
 20
26.5645744784
 10
271.7520782464
 20
27.1325036698
  0
LWPOLYLINE
  5
24D
330
1F
100
AcDbEntity
  8
0
  6
Continuous
 62
     7
370
    25
100
AcDbPolyline
 90
       34
 70
   128
 43
0.0
 10
235.2738153873
 20
39.485100223
 10
235.3186138179
 20
40.6628548062
 10
235.4526484194
 20
41.8828499692
 10
235.6748400238
 20
43.1352630281
 10
235.983399675
 20
44.4100102895
 10
236.3758430321
 20
45.696828238
 10
236.8490103719
 20
46.985356172
 10
237.3990920293
 20
48.2652196224
 10
238.0216590702
 20
49.526113881
 10
238.7116989509
 20
50.7578869688
 10
239.4636558759
 20
51.9506213732
 10
240.2714755303
 20
53.094713898
 10
241.1286538251
 20
54.1809529828
 10
242.0282892648
 20
55.2005928695
 10
242.9631385138
 20
56.1454240169
 10
243.9256747156
 20
57.0078392005
 10
244.9081480946
 20
57.78089476
 10
245.902648353
 20
58.4583665069
 10
246.9011683594
 20
59.0347998368
 10
247.8956686177
 20
59.5055536476
 10
248.8781419968
 20
59.8668377064
 10
249.8406781986
 20
60.1157431663
 10
250.7755274475
 20
60.250265987
 10
251.6751628872
 20
60.2693230698
 10
252.5323411821
 20
60.1727609783
 10
253.3401608364
 20
59.9613571736
 10
254.0921177615
 20
59.6368137549
 10
254.7821576421
 20
59.201743755
 10
255.404724683
 20
58.6596501017
 10
255.9548063404
 20
58.0148974143
 10
256.4279736803
 20
57.2726768624
 10
256.8204170374
 20
56.4389643694
 10
257.1289766886
 20
55.5204724981
 10
257.3365151828
 20
54.6074977897
  0
LWPOLYLINE
  5
24E
330
1F
100
AcDbEntity
  8
0
  6
Continuous
 62
     7
370
    25
100
AcDbPolyline
 90
       17
 70
   128
 43
0.0
 10
244.3375716585
 20
32.0902273678
 10
243.9256747156
 20
31.9515853995
 10
242.9631385138
 20
31.7026799395
 10
242.0282892648
 20
31.5681571189
 10
241.1286538251
 20
31.5491000361
 10
240.2714755303
 20
31.6456621276
 10
239.4636558759
 20
31.8570659323
 10
238.7116989509
 20
32.181609351
 10
238.0216590702
 20
32.6166793509
 10
237.3990920293
 20
33.1587730042
 10
236.8490103719
 20
33.8035256916
 10
236.3758430321
 20
34.5457462435
 10
235.983399675
 20
35.3794587365
 10
235.6748400238
 20
36.2979506077
 10
235.4526484194
 20
37.2938267008
 10
235.3186138179
 20
38.3590688069
 10
235.2738153873
 20
39.485100223
  0
SPLINE
  5
24F
330
1F
100
AcDbEntity
  8
0
  6
Continuous
 62
     7
370
    25
100
AcDbSpline
210
0.0
220
0.0
230
1.0
 70
     8
 71
     3
 72
    25
 73
    21
 74
     0
 42
0.000000001
 43
0.00000001
 40
0.0
 40
0.0
 40
0.0
 40
0.0
 40
0.1249999999999998
 40
0.1249999999999998
 40
0.2499999999999997
 40
0.2499999999999997
 40
0.3749999999999995
 40
0.3749999999999995
 40
0.4999999999999993
 40
0.4999999999999993
 40
0.5624999999999996
 40
0.5624999999999996
 40
0.6249999999999998
 40
0.6875000000000001
 40
0.6875000000000001
 40
0.7500000000000003
 40
0.7500000000000003
 40
0.8750000000000001
 40
0.8750000000000001
 40
1.0
 40
1.0
 40
1.0
 40
1.0
 10
240.1074042323235
 20
55.91691481860228
 30
0.0
 10
240.1365275305846
 20
55.8057292980731
 30
0.0
 10
240.1489165714439
 20
55.69048708564507
 30
0.0
 10
240.1419390863436
 20
55.45139151780927
 30
0.0
 10
240.1219214984915
 20
55.32661754793401
 30
0.0
 10
240.0516993407783
 20
55.08024863872159
 30
0.0
 10
240.0010486861846
 20
54.95603749136046
 30
0.0
 10
239.8711339425294
 20
54.7124089960503
 30
0.0
 10
239.7934329945402
 20
54.59535190099214
 30
0.0
 10
239.658059412314
 20
54.4266953831421
 30
0.0
 10
239.6094249150069
 20
54.37132836186994
 30
0.0
 10
239.5079855796249
 20
54.26560855047293
 30
0.0
 10
239.4021155968842
 20
54.16444759185247
 30
0.0
 10
239.2875238045567
 20
54.07227327017568
 30
0.0
 10
239.1684411353385
 20
53.98473642743556
 30
0.0
 10
239.106483122281
 20
53.94323795792337
 30
0.0
 10
238.9186194187605
 20
53.82911763618527
 30
0.0
 10
238.7892419824065
 20
53.76551020507067
 30
0.0
 10
238.5215587293444
 20
53.66424190409644
 30
0.0
 10
238.3856870428794
 20
53.62770099587165
 30
0.0
 10
238.2501697761518
 20
53.60653281152158
 30
0.0
  0
LWPOLYLINE
  5
250
330
1F
100
AcDbEntity
  8
0
  6
Continuous
 62
     7
370
    25
100
AcDbPolyline
 90
       15
 70
   128
 43
0.0
 10
240.1074042323
 20
55.9169148186
 10
241.0584070459
 20
56.9058752258
 10
242.0404179009
 20
57.80987728
 10
243.0451137317
 20
58.6212590819
 10
244.0639792056
 20
59.3331437382
 10
245.0883788943
 20
59.9394976467
 10
246.1096304644
 20
60.4351816348
 10
247.1190782642
 20
60.8159945164
 10
248.1081666855
 20
61.0787086993
 10
249.0685126764
 20
61.2210975407
 10
249.9919767927
 20
61.2419542193
 10
250.8707321836
 20
61.1411019636
 10
251.6973309286
 20
60.9193955502
 10
252.4647671627
 20
60.5787140593
 10
252.5850533585
 20
60.5113654176
  0
LWPOLYLINE
  5
251
330
1F
100
AcDbEntity
  8
0
  6
Continuous
 62
     7
370
    25
100
AcDbPolyline
 90
       21
 70
   128
 43
0.0
 10
236.8488323037
 20
33.2524774741
 10
236.8451845665
 20
33.2545852211
 10
236.1604484468
 20
33.7264151582
 10
235.5470697268
 20
34.3079562315
 10
235.0101637153
 20
34.9943586443
 10
234.5542079722
 20
35.7798981023
 10
234.183004968
 20
36.6580235519
 10
233.8996503724
 20
37.6214118131
 10
233.706507238
 20
38.6620286516
 10
233.6051862938
 20
39.7711957806
 10
233.5965325117
 20
40.9396632342
 10
233.6806180606
 20
42.1576865076
 10
233.856741704
 20
43.4151078225
 10
234.123434648
 20
44.7014408382
 10
234.4784727909
 20
46.0059581032
 10
234.9188952708
 20
47.3177805171
 10
235.4410291578
 20
48.6259680581
 10
236.0405200849
 20
49.9196110174
 10
236.7123685616
 20
51.1879209818
 10
237.450971667
 20
52.420320804
 10
238.2501697762
 20
53.6065328115
  0
LWPOLYLINE
  5
252
330
1F
100
AcDbEntity
  8
0
  6
Continuous
 62
     7
370
    25
100
AcDbPolyline
 90
       12
 70
   128
 43
0.0
 10
238.4447829875
 20
56.0411916581
 10
239.3603620814
 20
57.015672902
 10
240.3090747796
 20
57.9046484482
 10
241.28197781
 20
58.6997381514
 10
242.2698998643
 20
59.393446904
 10
243.2635280536
 20
59.9792352908
 10
244.2534956987
 20
60.4515812344
 10
245.2304706276
 20
60.8060320501
 10
246.1852431472
 20
61.0392464207
 10
247.1088128607
 20
61.1490258939
 10
247.9924735126
 20
61.1343356066
 10
248.2453334928
 20
61.1060780657
  0
SPLINE
  5
253
330
1F
100
AcDbEntity
  8
0
  6
Continuous
 62
     7
370
    25
100
AcDbSpline
210
0.0
220
0.0
230
1.0
 70
     8
 71
     3
 72
    26
 73
    22
 74
     0
 42
0.000000001
 43
0.00000001
 40
0.0
 40
0.0
 40
0.0
 40
0.0
 40
0.1250000000000009
 40
0.1250000000000009
 40
0.2500000000000019
 40
0.2500000000000019
 40
0.3125000000000011
 40
0.3125000000000011
 40
0.3750000000000004
 40
0.3750000000000004
 40
0.4375000000000002
 40
0.4375000000000002
 40
0.5000000000000001
 40
0.5000000000000001
 40
0.5625
 40
0.5625
 40
0.6249999999999999
 40
0.6249999999999999
 40
0.7500000000000001
 40
0.7500000000000001
 40
1.0
 40
1.0
 40
1.0
 40
1.0
 10
237.100589746696
 20
54.36902804547711
 30
0.0
 10
237.076952150464
 20
54.47860390505009
 30
0.0
 10
237.0593843715822
 20
54.58949316341462
 30
0.0
 10
237.0405717887127
 20
54.81482312327757
 30
0.0
 10
237.0393920139454
 20
54.93050003659594
 30
0.0
 10
237.0554900171807
 20
55.1018555464555
 30
0.0
 10
237.063808734281
 20
55.15865405854966
 30
0.0
 10
237.0875658835379
 20
55.27148027094675
 30
0.0
 10
237.1031882625869
 20
55.3279331246129
 30
0.0
 10
237.142045474984
 20
55.4365162410215
 30
0.0
 10
237.1652714316864
 20
55.48889620124704
 30
0.0
 10
237.2202700811648
 20
55.58935297651916
 30
0.0
 10
237.2523483481874
 20
55.6376318442906
 30
0.0
 10
237.3227630967225
 20
55.72532881987434
 30
0.0
 10
237.3613415188492
 20
55.7653179478503
 30
0.0
 10
237.4450497824454
 20
55.83779663196589
 30
0.0
 10
237.4901784923873
 20
55.87013325634251
 30
0.0
 10
237.6294591345774
 20
55.95333302369615
 30
0.0
 10
237.730248206139
 20
55.99216174633224
 30
0.0
 10
238.0333204773717
 20
56.06757803378743
 30
0.0
 10
238.2418445678567
 20
56.06744788741666
 30
0.0
 10
238.4447829875472
 20
56.04119165809044
 30
0.0
  0
LWPOLYLINE
  5
254
330
1F
100
AcDbEntity
  8
0
  6
Continuous
 62
     7
370
    25
100
AcDbPolyline
 90
       17
 70
   128
 43
0.0
 10
234.163611352
 20
36.7131768381
 10
233.729928746
 20
37.3601413678
 10
233.3324218168
 20
38.1650460822
 10
233.0224101514
 20
39.0596217238
 10
232.8027361626
 20
40.0356661715
 10
232.6754139816
 20
41.0842303388
 10
232.6416109909
 20
42.1957002257
 10
232.7016371209
 20
43.3598850664
 10
232.8549420083
 20
44.5661107662
 10
233.1001200422
 20
45.8033177694
 10
233.4349232519
 20
47.0601624607
 10
233.8562819176
 20
48.3251211726
 10
234.3603327161
 20
49.5865958419
 10
234.9424541424
 20
50.8330203501
 10
235.5973088834
 20
52.0529665692
 10
236.3188927537
 20
53.2352491436
 10
237.1005897467
 20
54.3690280455
  0
LINE
  5
255
330
1F
100
AcDbEntity
  8
0
  6
Continuous
 62
     7
370
    25
100
AcDbLine
 10
235.6251977771
 20
34.1251071898
 30
0.0
 11
235.745874702
 21
34.182138897
 31
0.0
  0
LWPOLYLINE
  5
256
330
1F
100
AcDbEntity
  8
0
  6
Continuous
 62
     7
370
    25
100
AcDbPolyline
 90
       40
 70
   128
 43
0.0
 10
235.6251977771
 20
34.1251071898
 10
234.8566512329
 20
34.4212830717
 10
234.1487606141
 20
34.8292015259
 10
233.5072489276
 20
35.3455646982
 10
232.9373025334
 20
35.9661980031
 10
232.4435292155
 20
36.6860838736
 10
232.0299209297
 20
37.4994023263
 10
231.6998215301
 20
38.3995780135
 10
231.4558997357
 20
39.3793333821
 10
231.3001275546
 20
40.4307475098
 10
231.2337643413
 20
41.5453201427
 10
231.2573466153
 20
42.7140404158
 10
231.3706837236
 20
43.9274597027
 10
231.5728593818
 20
45.1757680038
 10
231.8622390824
 20
46.448873256
 10
232.2364833085
 20
47.7364829229
 10
232.6925664483
 20
49.0281872059
 10
233.2268012558
 20
50.313543203
 10
233.8348686606
 20
51.5821593357
 10
234.511852686
 20
52.8237793603
 10
235.2522801923
 20
54.0283652856
 10
236.0501651254
 20
55.1861785262
 10
236.8990569114
 20
56.2878586345
 10
237.7920926064
 20
57.3244989765
 10
238.7220523816
 20
58.2877187381
 10
239.6814178916
 20
59.1697306808
 10
240.6624330578
 20
59.9634040978
 10
241.6571667731
 20
60.6623224637
 10
242.6575770214
 20
61.2608353086
 10
243.655575894
 20
61.7541039006
 10
244.6430949775
 20
62.1381403643
 10
245.6121505831
 20
62.4098399217
 10
246.5549082918
 20
62.5670059928
 10
247.4637462923
 20
62.608367954
 10
248.3313170003
 20
62.5335914108
 10
249.1506064607
 20
62.3432809009
 10
249.9149910526
 20
62.0389750073
 10
250.6182910385
 20
61.6231339188
 10
251.2548205252
 20
61.0991195409
 10
251.3174578383
 20
61.0380962743
  0
LWPOLYLINE
  5
257
330
1F
100
AcDbEntity
  8
0
  6
Continuous
 62
     7
370
    25
100
AcDbPolyline
 90
       26
 70
   128
 43
0.0
 10
228.9805650347
 20
43.1997571318
 10
229.025078805
 20
44.3700279687
 10
229.1582617171
 20
45.5822709781
 10
229.3790414606
 20
46.8267258921
 10
229.6856404469
 20
48.0933730915
 10
230.075590121
 20
49.3720142777
 10
230.5457508376
 20
50.6523545839
 10
231.0923371389
 20
51.9240854627
 10
231.7109482336
 20
53.1769676848
 10
232.3966034288
 20
54.4009137792
 10
233.1437822319
 20
55.5860692516
 10
233.9464687987
 20
56.7228919272
 10
234.7982003689
 20
57.802228778
 10
235.6921193006
 20
58.8153896185
 10
236.6210282843
 20
59.7542170732
 10
237.577448291
 20
60.6111522555
 10
238.5536787892
 20
61.3792956273
 10
239.5418597449
 20
62.0524625497
 10
240.5340349061
 20
62.6252330785
 10
241.5222158618
 20
63.0929956022
 10
242.49844636
 20
63.4519839719
 10
243.4548663667
 20
63.6993078245
 10
244.3837753504
 20
63.8329758536
 10
245.2776942821
 20
63.851911843
 10
246.1294258523
 20
63.755963331
 10
246.8790146975
 20
63.5638409336
  0
ARC
  5
258
330
1F
100
AcDbEntity
  8
0
  6
Continuous
 62
     7
370
    25
100
AcDbCircle
 10
241.1387006902
 20
43.0919522799
 30
0.0
 40
12.15706644166738
100
AcDbArc
 50
180.4744415793
 51
191.6440230834
  0
SPLINE
  5
259
330
1F
100
AcDbEntity
  8
0
  6
Continuous
 62
     7
370
    25
100
AcDbSpline
210
0.0
220
0.0
230
1.0
 70
     8
 71
     3
 72
    10
 73
     6
 74
     0
 42
0.000000001
 43
0.00000001
 40
0.0
 40
0.0
 40
0.0
 40
0.0
 40
0.5
 40
0.5
 40
1.0
 40
1.0
 40
1.0
 40
1.0
 10
237.8272778143273
 20
52.90597476465738
 30
0.0
 10
237.723313323543
 20
52.97931313772776
 30
0.0
 10
237.6335050471156
 20
53.06654889552117
 30
0.0
 10
237.481462619117
 20
53.26747943671716
 30
0.0
 10
237.419557030756
 20
53.38165020291413
 30
0.0
 10
237.3751073261656
 20
53.50466788607423
 30
0.0
  0
SPLINE
  5
25A
330
1F
100
AcDbEntity
  8
0
  6
Continuous
 62
     7
370
    25
100
AcDbSpline
210
0.0
220
0.0
230
1.0
 70
     8
 71
     3
 72
    14
 73
    10
 74
     0
 42
0.000000001
 43
0.00000001
 40
0.0
 40
0.0
 40
0.0
 40
0.0
 40
0.25
 40
0.25
 40
0.5
 40
0.5
 40
0.75
 40
0.75
 40
1.0
 40
1.0
 40
1.0
 40
1.0
 10
237.3751073261656
 20
53.50466788607423
 30
0.0
 10
237.3523865233004
 20
53.56754930573178
 30
0.0
 10
237.330472012951
 20
53.63659573520519
 30
0.0
 10
237.2883609588882
 20
53.78424825182396
 30
0.0
 10
237.2688394049751
 20
53.86064803868227
 30
0.0
 10
237.2304931628014
 20
54.01498033007787
 30
0.0
 10
237.2121335699176
 20
54.09193292640952
 30
0.0
 10
237.1701301253359
 20
54.2373230939255
 30
0.0
 10
237.1463538043229
 20
54.30391400011852
 30
0.0
 10
237.1178923002207
 20
54.34440961534988
 30
0.0
  0
LINE
  5
25B
330
1F
100
AcDbEntity
  8
0
  6
Continuous
 62
     7
370
    25
100
AcDbLine
 10
237.1178923002
 20
54.3444096153
 30
0.0
 11
237.1005897467
 21
54.3690280455
 31
0.0
  0
LINE
  5
25C
330
1F
100
AcDbEntity
  8
0
  6
Continuous
 62
     7
370
    25
100
AcDbLine
 10
238.4447829875
 20
56.0411916581
 30
0.0
 11
238.4620855411
 21
56.016573228
 31
0.0
  0
SPLINE
  5
25D
330
1F
100
AcDbEntity
  8
0
  6
Continuous
 62
     7
370
    25
100
AcDbSpline
210
0.0
220
0.0
230
1.0
 70
     8
 71
     3
 72
    16
 73
    12
 74
     0
 42
0.000000001
 43
0.00000001
 40
0.0
 40
0.0
 40
0.0
 40
0.0
 40
0.1250000000000001
 40
0.1250000000000001
 40
0.2500000000000003
 40
0.2500000000000003
 40
0.5000000000000002
 40
0.5000000000000002
 40
0.7500000000000001
 40
0.7500000000000001
 40
1.0
 40
1.0
 40
1.0
 40
1.0
 10
238.4620855410719
 20
56.01657322796316
 30
0.0
 10
238.476237947476
 20
55.99643689215036
 30
0.0
 10
238.4978963519497
 20
55.97963947147294
 30
0.0
 10
238.550314280985
 20
55.95279395014146
 30
0.0
 10
238.5809071601233
 20
55.94256846558047
 30
0.0
 10
238.6799880089808
 20
55.91806802514778
 30
0.0
 10
238.7538705465967
 20
55.90980810274628
 30
0.0
 10
238.9069701389881
 20
55.89862213604137
 30
0.0
 10
238.9850541136357
 20
55.89602546429018
 30
0.0
 10
239.1443977473778
 20
55.89399646345647
 30
0.0
 10
239.2230506422094
 20
55.8946340521187
 30
0.0
 10
239.298803110002
 20
55.89772715293373
 30
0.0
  0
SPLINE
  5
25E
330
1F
100
AcDbEntity
  8
0
  6
Continuous
 62
     7
370
    25
100
AcDbSpline
210
0.0
220
0.0
230
1.0
 70
     8
 71
     3
 72
    10
 73
     6
 74
     0
 42
0.000000001
 43
0.00000001
 40
0.0
 40
0.0
 40
0.0
 40
0.0
 40
0.5
 40
0.5
 40
1.0
 40
1.0
 40
1.0
 40
1.0
 10
239.298803110002
 20
55.89772715293373
 30
0.0
 10
239.4469974499027
 20
55.9037781773675
 30
0.0
 10
239.5892219156333
 20
55.89361594715436
 30
0.0
 10
239.8616133059741
 20
55.84256551121429
 30
0.0
 10
239.9917406358426
 20
55.80120440856973
 30
0.0
 10
240.109815978028
 20
55.74543054061746
 30
0.0
  0
LINE
  5
25F
330
1F
100
AcDbEntity
  8
0
  6
Continuous
 62
     7
370
    25
100
AcDbLine
 10
240.2650191961
 20
55.7738496034
 30
0.0
 11
240.2476260707
 21
55.7985969012
 31
0.0
  0
ARC
  5
260
330
1F
100
AcDbEntity
  8
0
  6
Continuous
 62
     7
370
    25
100
AcDbCircle
 10
222.78634519
 20
51.0156226387
 30
0.0
 40
4.152065346120264
100
AcDbArc
 50
211.7707720659
 51
236.1875437047
  0
SPLINE
  5
261
330
1F
100
AcDbEntity
  8
0
  6
Continuous
 62
     7
370
    25
100
AcDbSpline
210
0.0
220
0.0
230
1.0
 70
     8
 71
     3
 72
     8
 73
     4
 74
     0
 42
0.000000001
 43
0.00000001
 40
0.0
 40
0.0
 40
0.0
 40
0.0
 40
1.0
 40
1.0
 40
1.0
 40
1.0
 10
220.6868623088912
 20
47.90472612137879
 30
0.0
 10
220.210089017067
 20
48.21281892931142
 30
0.0
 10
219.7332866402222
 20
48.52104837488418
 30
0.0
 10
219.2564541956965
 20
48.82941353110409
 30
0.0
  0
SPLINE
  5
262
330
1F
100
AcDbEntity
  8
0
  6
Continuous
 62
     7
370
    25
100
AcDbSpline
210
0.0
220
0.0
230
1.0
 70
     8
 71
     3
 72
    23
 73
    19
 74
     0
 42
0.000000001
 43
0.00000001
 40
0.0
 40
0.0
 40
0.0
 40
0.0
 40
0.0521036415675031
 40
0.1035646240925967
 40
0.1544751946736949
 40
0.2049306267473421
 40
0.2550287880844035
 40
0.3048696389141012
 40
0.3545546704609132
 40
0.4041862979523234
 40
0.4538672252126086
 40
0.5036997999421611
 40
0.5901870230746071
 40
0.674271637822954
 40
0.7565997087222995
 40
0.8378563983721267
 40
0.9187511781367398
 40
1.0
 40
1.0
 40
1.0
 40
1.0
 10
221.5674271124328
 20
47.72999542325869
 30
0.0
 10
221.5621581734927
 20
47.72007396102386
 30
0.0
 10
221.5516852839924
 20
47.70035341029292
 30
0.0
 10
221.5324389882297
 20
47.67578558134068
 30
0.0
 10
221.510643247897
 20
47.65509699908146
 30
0.0
 10
221.485991956692
 20
47.63856606378449
 30
0.0
 10
221.4584954421531
 20
47.62604856420832
 30
0.0
 10
221.4280843881457
 20
47.61751394038593
 30
0.0
 10
221.3947140163732
 20
47.61290406773785
 30
0.0
 10
221.3583381281013
 20
47.61216932460138
 30
0.0
 10
221.3189097565122
 20
47.61526440715267
 30
0.0
 10
221.2660613649623
 20
47.6238001826318
 30
0.0
 10
221.1975223711921
 20
47.64139662147885
 30
0.0
 10
221.1098011392378
 20
47.67303322956473
 30
0.0
 10
221.0150702197438
 20
47.71521288689745
 30
0.0
 10
220.9130359724139
 20
47.76794932262443
 30
0.0
 10
220.8041220592248
 20
47.83026587853526
 30
0.0
 10
220.7260057482388
 20
47.87986993678638
 30
0.0
 10
220.6868623088912
 20
47.90472612137878
 30
0.0
  0
SPLINE
  5
263
330
1F
100
AcDbEntity
  8
0
  6
Continuous
 62
     7
370
    25
100
AcDbSpline
210
0.0
220
0.0
230
1.0
 70
     8
 71
     3
 72
     8
 73
     4
 74
     0
 42
0.000000001
 43
0.00000001
 40
0.0
 40
0.0
 40
0.0
 40
0.0
 40
1.0
 40
1.0
 40
1.0
 40
1.0
 10
223.0409301388866
 20
46.78267528670249
 30
0.0
 10
222.5495628268453
 20
47.09854990666997
 30
0.0
 10
222.058176626919
 20
47.41453592795945
 30
0.0
 10
221.566770916775
 20
47.73063280880213
 30
0.0
  0
SPLINE
  5
264
330
1F
100
AcDbEntity
  8
0
  6
Continuous
 62
     7
370
    25
100
AcDbSpline
210
0.0
220
0.0
230
1.0
 70
     8
 71
     3
 72
    18
 73
    14
 74
     0
 42
0.000000001
 43
0.00000001
 40
0.0
 40
0.0
 40
0.0
 40
0.0
 40
0.0923824559411628
 40
0.1844689291573508
 40
0.2764953615950219
 40
0.3686975365494161
 40
0.4613092840003458
 40
0.5545607518442569
 40
0.6486768051537182
 40
0.7438756050146744
 40
0.8403674044302629
 40
0.9203921078121001
 40
1.0
 40
1.0
 40
1.0
 40
1.0
 10
223.8544942580863
 20
46.13836756215814
 30
0.0
 10
223.8309267439632
 20
46.15364153642368
 30
0.0
 10
223.7838672233118
 20
46.18414054890432
 30
0.0
 10
223.711469435349
 20
46.23377312151523
 30
0.0
 10
223.6379872264534
 20
46.28610266418375
 30
0.0
 10
223.5632877787085
 20
46.34142034989163
 30
0.0
 10
223.4874269889404
 20
46.3996586650052
 30
0.0
 10
223.4104157081536
 20
46.46085157664279
 30
0.0
 10
223.3322835760726
 20
46.52501529322434
 30
0.0
 10
223.2530573414288
 20
46.59216425309145
 30
0.0
 10
223.1777608570189
 20
46.65801516283761
 30
0.0
 10
223.1069335488968
 20
46.72154674964594
 30
0.0
 10
223.0630291780897
 20
46.76220749465943
 30
0.0
 10
223.0411343112844
 20
46.78248478322799
 30
0.0
  0
LINE
  5
265
330
1F
100
AcDbEntity
  8
0
  6
Continuous
 62
     7
370
    25
100
AcDbLine
 10
224.4942005263
 20
45.7266136328
 30
0.0
 11
223.8544942581
 21
46.1383675622
 31
0.0
  0
SPLINE
  5
266
330
1F
100
AcDbEntity
  8
0
  6
Continuous
 62
     7
370
    25
100
AcDbSpline
210
0.0
220
0.0
230
1.0
 70
     8
 71
     3
 72
    25
 73
    21
 74
     0
 42
0.000000001
 43
0.00000001
 40
0.0
 40
0.0
 40
0.0
 40
0.0
 40
0.0280105225426465
 40
0.0559601148860768
 40
0.0839014045043132
 40
0.1118870776786367
 40
0.1399695827588937
 40
0.1682008401739883
 40
0.196631967042422
 40
0.2253130233141467
 40
0.2542927850735845
 40
0.3799486436587335
 40
0.5057850221667067
 40
0.6313085886338298
 40
0.7532068238012468
 40
0.8039473267955921
 40
0.8535894438554446
 40
0.9025339722394071
 40
0.9511970353791085
 40
1.0
 40
1.0
 40
1.0
 40
1.0
 10
225.5965663830765
 20
46.44251974603522
 30
0.0
 10
225.6015144906071
 20
46.41489588492773
 30
0.0
 10
225.6113999422426
 20
46.35970825182241
 30
0.0
 10
225.6229355918458
 20
46.2805475444525
 30
0.0
 10
225.6320087136586
 20
46.20424420535411
 30
0.0
 10
225.6383775223715
 20
46.1310484443845
 30
0.0
 10
225.6420937611817
 20
46.06090097617111
 30
0.0
 10
225.6431303821645
 20
45.99382468965833
 30
0.0
 10
225.6414819069376
 20
45.92982078043189
 30
0.0
 10
225.6371357550687
 20
45.86889192716505
 30
0.0
 10
225.6222794305011
 20
45.74700380566789
 30
0.0
 10
225.577191173436
 20
45.59210293401274
 30
0.0
 10
225.4638316529434
 20
45.46115981567068
 30
0.0
 10
225.3020074309491
 20
45.40528341486067
 30
0.0
 10
225.1279922118173
 20
45.42515746724345
 30
0.0
 10
224.9766312911312
 20
45.47247526959893
 30
0.0
 10
224.8662310584329
 20
45.51739069333428
 30
0.0
 10
224.7490715629841
 20
45.57476642462547
 30
0.0
 10
224.6255058960502
 20
45.64344348907828
 30
0.0
 10
224.5380108459552
 20
45.69886373503147
 30
0.0
 10
224.4942005262735
 20
45.72661363276176
 30
0.0
  0
ARC
  5
267
330
1F
100
AcDbEntity
  8
0
  6
Continuous
 62
     7
370
    25
100
AcDbCircle
 10
236.7895647151
 20
48.2285702822
 30
0.0
 40
11.33460136833713
100
AcDbArc
 50
170.9338278112
 51
189.0661721888
  0
SPLINE
  5
268
330
1F
100
AcDbEntity
  8
0
  6
Continuous
 62
     7
370
    25
100
AcDbSpline
210
0.0
220
0.0
230
1.0
 70
     8
 71
     3
 72
    26
 73
    22
 74
     0
 42
0.000000001
 43
0.00000001
 40
0.0
 40
0.0
 40
0.0
 40
0.0
 40
0.0241259796963635
 40
0.0482159912272988
 40
0.0723203915124065
 40
0.0964895678710797
 40
0.1207736231963513
 40
0.1452220711242836
 40
0.1698835501657706
 40
0.1948055644472379
 40
0.2200342569517627
 40
0.2456142191611387
 40
0.3690971486901655
 40
0.4940698769485187
 40
0.6192566784762451
 40
0.7454656653603225
 40
0.7971495824713707
 40
0.8481710308405392
 40
0.8988013269235234
 40
0.9493179290492194
 40
1.0
 40
1.0
 40
1.0
 40
1.0
 10
224.4942005262735
 20
53.49072402412634
 30
0.0
 10
224.5159187556496
 20
53.47639250073125
 30
0.0
 10
224.5593228358257
 20
53.44775082006222
 30
0.0
 10
224.6226299531871
 20
53.3997585221334
 30
0.0
 10
224.6844915209051
 20
53.34815932424772
 30
0.0
 10
224.7447960360415
 20
53.29258453137448
 30
0.0
 10
224.8035858879814
 20
53.23312929074734
 30
0.0
 10
224.8608664064112
 20
53.16976498190994
 30
0.0
 10
224.9166575457374
 20
53.10249620394601
 30
0.0
 10
224.9709787931592
 20
53.03132208998588
 30
0.0
 10
225.0238577683682
 20
52.9562329502376
 30
0.0
 10
225.1406525931045
 20
52.77697850153575
 30
0.0
 10
225.302522151031
 20
52.46667302969237
 30
0.0
 10
225.4657070585628
 20
51.99675924156067
 30
0.0
 10
225.5772184637363
 20
51.49779620765063
 30
0.0
 10
225.6243523018447
 20
51.08891253459363
 30
0.0
 10
225.6394712413773
 20
50.78464057800292
 30
0.0
 10
225.6414243803598
 20
50.58339133630761
 30
0.0
 10
225.6349463547207
 20
50.38773141658501
 30
0.0
 10
225.6208194320336
 20
50.19709512868754
 30
0.0
 10
225.6046595403486
 20
50.07551185494874
 30
0.0
 10
225.5965663830765
 20
50.01462081834984
 30
0.0
  0
LINE
  5
269
330
1F
100
AcDbEntity
  8
0
  6
Continuous
 62
     7
370
    25
100
AcDbLine
 10
223.8544942581
 20
53.9036990371
 30
0.0
 11
224.4942005263
 21
53.4907240241
 31
0.0
  0
SPLINE
  5
26A
330
1F
100
AcDbEntity
  8
0
  6
Continuous
 62
     7
370
    25
100
AcDbSpline
210
0.0
220
0.0
230
1.0
 70
     8
 71
     3
 72
    14
 73
    10
 74
     0
 42
0.000000001
 43
0.00000001
 40
0.0
 40
0.0
 40
0.0
 40
0.0
 40
0.0789261963172865
 40
0.158232872055133
 40
0.330847539457262
 40
0.5000195457610529
 40
0.6670357883572423
 40
0.8332395193657144
 40
1.0
 40
1.0
 40
1.0
 40
1.0
 10
223.040541542235
 20
54.11228130741093
 30
0.0
 10
223.0622584235708
 20
54.1138844712695
 30
0.0
 10
223.1057968767865
 20
54.11709852735676
 30
0.0
 10
223.1973219954355
 20
54.11791956742465
 30
0.0
 10
223.3142303288685
 20
54.10998358564134
 30
0.0
 10
223.4550506672502
 20
54.08370791676353
 30
0.0
 10
223.5922629750623
 20
54.04075031823128
 30
0.0
 10
223.7261936494788
 20
53.98239319342165
 30
0.0
 10
223.811679741438
 20
53.92995964727167
 30
0.0
 10
223.8544942580863
 20
53.90369903711723
 30
0.0
  0
SPLINE
  5
26B
330
1F
100
AcDbEntity
  8
0
  6
Continuous
 62
     7
370
    25
100
AcDbSpline
210
0.0
220
0.0
230
1.0
 70
     8
 71
     3
 72
     8
 73
     4
 74
     0
 42
0.000000001
 43
0.00000001
 40
0.0
 40
0.0
 40
0.0
 40
0.0
 40
1.0
 40
1.0
 40
1.0
 40
1.0
 10
221.2382379592306
 20
55.27467271882364
 30
0.0
 10
221.8389961829267
 20
54.88740523566474
 30
0.0
 10
222.4397250457871
 20
54.49993788574142
 30
0.0
 10
223.040425690134
 20
54.1122709931518
 30
0.0
  0
SPLINE
  5
26C
330
1F
100
AcDbEntity
  8
0
  6
Continuous
 62
     7
370
    25
100
AcDbSpline
210
0.0
220
0.0
230
1.0
 70
     8
 71
     3
 72
    13
 73
     9
 74
     0
 42
0.000000001
 43
0.00000001
 40
0.0
 40
0.0
 40
0.0
 40
0.0
 40
0.1667030582307992
 40
0.3329480818053035
 40
0.4990671507274896
 40
0.6653938523718403
 40
0.832261271055009
 40
1.0
 40
1.0
 40
1.0
 40
1.0
 10
220.8964094241962
 20
55.57573749790942
 30
0.0
 10
220.9167106066361
 20
55.56217239123018
 30
0.0
 10
220.9572571918248
 20
55.53507944946734
 30
0.0
 10
221.0164068288124
 20
55.48988487645963
 30
0.0
 10
221.0741783737149
 20
55.44147372797668
 30
0.0
 10
221.1304281111746
 20
55.38943861320622
 30
0.0
 10
221.1853553199207
 20
55.3341406459972
 30
0.0
 10
221.2205760295112
 20
55.29452339083684
 30
0.0
 10
221.2382322414522
 20
55.27466318183591
 30
0.0
  0
SPLINE
  5
26D
330
1F
100
AcDbEntity
  8
0
  6
Continuous
 62
     7
370
    25
100
AcDbSpline
210
0.0
220
0.0
230
1.0
 70
     8
 71
     3
 72
     8
 73
     4
 74
     0
 42
0.000000001
 43
0.00000001
 40
0.0
 40
0.0
 40
0.0
 40
0.0
 40
1.0
 40
1.0
 40
1.0
 40
1.0
 10
218.9524289084055
 20
56.83045935028888
 30
0.0
 10
219.6004589808057
 20
56.41246403440413
 30
0.0
 10
220.2484519579076
 20
55.9942232719865
 30
0.0
 10
220.8964094241962
 20
55.57573749790941
 30
0.0
  0
LWPOLYLINE
  5
26E
330
1F
100
AcDbEntity
  8
0
  6
Continuous
 62
     7
370
    25
100
AcDbPolyline
 90
       20
 70
   128
 43
0.0
 10
218.9524289085
 20
56.8304593505
 10
219.3350781137
 20
57.9444223888
 10
219.7972886434
 20
59.0526366201
 10
220.3338874184
 20
60.1426988653
 10
220.9388688031
 20
61.202409103
 10
221.6054618213
 20
62.2199070129
 10
222.3262059363
 20
63.1838047165
 10
223.0930345507
 20
64.0833142313
 10
223.8973652871
 20
64.90836821
 10
224.7301960429
 20
65.6497326146
 10
225.5822057422
 20
66.2991100643
 10
226.4438586575
 20
66.8492327
 10
227.3055111341
 20
67.2939435268
 10
228.1575195221
 20
67.6282653227
 10
228.9903481087
 20
67.8484563445
 10
229.7946758424
 20
67.9520522054
 10
230.561500654
 20
67.9378934561
 10
231.2822402089
 20
67.8061385621
 10
231.9488279604
 20
67.5582621293
 10
232.0021671016
 20
67.5322063167
  0
SPLINE
  5
26F
330
1F
100
AcDbEntity
  8
0
  6
Continuous
 62
     7
370
    25
100
AcDbSpline
210
0.0
220
0.0
230
1.0
 70
    11
 71
     3
 72
    39
 73
    35
 74
     0
 42
0.000000001
 43
0.00000001
 40
0.0
 40
0.0
 40
0.0
 40
0.0
 40
0.0310664058348413
 40
0.0621048158426138
 40
0.0931361551796939
 40
0.1235538293503726
 40
0.1538561545809849
 40
0.1850588072749156
 40
0.2160250992946587
 40
0.2471867223797568
 40
0.2784462884304475
 40
0.3100516090231247
 40
0.3419834369138969
 40
0.3734259894013238
 40
0.4048604886787081
 40
0.436874065183343
 40
0.4685120685926471
 40
0.499805535863323
 40
0.5309508213226204
 40
0.5618649784438111
 40
0.5930416446590877
 40
0.623374245013332
 40
0.6540913579072549
 40
0.6849496782718453
 40
0.7158160645166705
 40
0.7471731804043553
 40
0.7784514311866318
 40
0.810129591156098
 40
0.8419598919688388
 40
0.8735175891922303
 40
0.9050808037886594
 40
0.9370235169792582
 40
0.9687441590030581
 40
1.0
 40
1.0
 40
1.0
 40
1.0
 10
232.1610143896108
 20
65.8356497256303
 30
0.0
 10
232.423900009809
 20
65.8071152383402
 30
0.0
 10
232.9507886202925
 20
65.7211727500186
 30
0.0
 10
233.7148006893685
 20
65.52079762994614
 30
0.0
 10
234.4219508774194
 20
65.27379552372663
 30
0.0
 10
235.0348619420148
 20
64.99581364557352
 30
0.0
 10
235.5319932676853
 20
64.7016799482448
 30
0.0
 10
235.8911849887587
 20
64.40017342005258
 30
0.0
 10
236.1129042575176
 20
64.09317591515016
 30
0.0
 10
236.1781561348997
 20
63.78267065374847
 30
0.0
 10
236.0913089237858
 20
63.46352616899964
 30
0.0
 10
235.8489633360275
 20
63.13420620342744
 30
0.0
 10
235.469025473301
 20
62.79526548186978
 30
0.0
 10
234.9552195201412
 20
62.45742701745915
 30
0.0
 10
234.3293287092312
 20
62.13152911614831
 30
0.0
 10
233.6158577227393
 20
61.83488222290882
 30
0.0
 10
232.851955246475
 20
61.57877891447188
 30
0.0
 10
232.0661621635734
 20
61.38975134648108
 30
0.0
 10
231.2846247085334
 20
61.28157542442784
 30
0.0
 10
230.528511723781
 20
61.27391154105813
 30
0.0
 10
229.8261471373875
 20
61.37183357644427
 30
0.0
 10
229.2071267903448
 20
61.59348200994677
 30
0.0
 10
228.6980695253311
 20
61.9293500968585
 30
0.0
 10
228.3251259318972
 20
62.36916066303927
 30
0.0
 10
228.0965239806488
 20
62.88023530356192
 30
0.0
 10
228.0276776739294
 20
63.43142039132535
 30
0.0
 10
228.1122940871546
 20
63.98909231963711
 30
0.0
 10
228.3554028770894
 20
64.51917246055609
 30
0.0
 10
228.7375327199072
 20
64.99169680966882
 30
0.0
 10
229.2536682943175
 20
65.37781832056206
 30
0.0
 10
229.8806461548194
 20
65.66144250789519
 30
0.0
 10
230.5965535871832
 20
65.83117972662161
 30
0.0
 10
231.3649969793688
 20
65.89271856133291
 30
0.0
 10
231.8965257587413
 20
65.86435820907735
 30
0.0
 10
232.1610143896108
 20
65.8356497256303
 30
0.0
  0
LINE
  5
270
330
1F
100
AcDbEntity
  8
0
  6
Continuous
 62
     7
370
    25
100
AcDbLine
 10
222.9364774018
 20
49.3965226988
 30
0.0
 11
223.2505220089
 21
49.2283789145
 31
0.0
  0
LINE
  5
271
330
1F
100
AcDbEntity
  8
0
  6
Continuous
 62
     7
370
    25
100
AcDbLine
 10
221.9495183628
 20
49.9662820244
 30
0.0
 11
222.9364774018
 21
49.3965226988
 31
0.0
  0
ARC
  5
272
330
1F
100
AcDbEntity
  8
0
  6
Continuous
 62
     7
370
    25
100
AcDbCircle
 10
224.1704869824
 20
53.5597797975
 30
0.0
 40
4.484291989683817
100
AcDbArc
 50
267.6840937494
 51
286.9865889436
  0
SPLINE
  5
273
330
1F
100
AcDbEntity
  8
0
  6
Continuous
 62
     7
370
    25
100
AcDbSpline
210
0.0
220
0.0
230
1.0
 70
     8
 71
     3
 72
    25
 73
    21
 74
     0
 42
0.000000001
 43
0.00000001
 40
0.0
 40
0.0
 40
0.0
 40
0.0
 40
0.0749889634923831
 40
0.1506151987128994
 40
0.2067741001978619
 40
0.2632754695450089
 40
0.3209372172108098
 40
0.3790388980908424
 40
0.435212311149176
 40
0.4918390747094605
 40
0.5499385337278955
 40
0.6085642772234836
 40
0.660079400024914
 40
0.7119620781777398
 40
0.7649977203287219
 40
0.8184301331103909
 40
0.8694556121987843
 40
0.9208295048930724
 40
0.9732963533911112
 40
0.9999999999999999
 40
0.9999999999999999
 40
0.9999999999999999
 40
0.9999999999999999
 10
233.4995201844375
 20
62.83315409276749
 30
0.0
 10
233.399737769623
 20
62.88921555192549
 30
0.0
 10
233.1993249683865
 20
63.00181489212141
 30
0.0
 10
232.8977478620898
 20
63.15284629835119
 30
0.0
 10
232.609082762208
 20
63.28604326335308
 30
0.0
 10
232.3364721710446
 20
63.40172752150272
 30
0.0
 10
232.0505054382038
 20
63.51213901150624
 30
0.0
 10
231.7561122643781
 20
63.61368951784921
 30
0.0
 10
231.4565402026234
 20
63.70403443368284
 30
0.0
 10
231.1520622568385
 20
63.78187287928696
 30
0.0
 10
230.8403916008956
 20
63.84585008113697
 30
0.0
 10
230.5374922781508
 20
63.89120662288234
 30
0.0
 10
230.2476754521767
 20
63.91812913116915
 30
0.0
 10
229.9712710649134
 20
63.92791590000974
 30
0.0
 10
229.6967470565693
 20
63.92036366715445
 30
0.0
 10
229.4308658725701
 20
63.89453441103426
 30
0.0
 10
229.1761906966389
 20
63.85115654528978
 30
0.0
 10
228.9336848008232
 20
63.78944900295716
 30
0.0
 10
228.736686032601
 20
63.72526124735234
 30
0.0
 10
228.6261962323743
 20
63.67462280516194
 30
0.0
 10
228.5889288062308
 20
63.65754281768364
 30
0.0
  0
SPLINE
  5
274
330
1F
100
AcDbEntity
  8
0
  6
Continuous
 62
     7
370
    25
100
AcDbSpline
210
0.0
220
0.0
230
1.0
 70
     8
 71
     3
 72
    10
 73
     6
 74
     0
 42
0.000000001
 43
0.00000001
 40
0.0
 40
0.0
 40
0.0
 40
0.0
 40
0.3798174487108013
 40
0.9603712743694113
 40
1.0
 40
1.0
 40
1.0
 40
1.0
 10
234.6394006334841
 20
62.30492706998623
 30
0.0
 10
234.5097479751374
 20
62.37525577588532
 30
0.0
 10
234.1819202538348
 20
62.55308243745211
 30
0.0
 10
233.7739918501893
 20
62.72613473795035
 30
0.0
 10
233.5173590516175
 20
62.82534038455043
 30
0.0
 10
233.500960604513
 20
62.83167947510038
 30
0.0
  0
SPLINE
  5
275
330
1F
100
AcDbEntity
  8
0
  6
Continuous
 62
     7
370
    25
100
AcDbSpline
210
0.0
220
0.0
230
1.0
 70
     8
 71
     3
 72
    24
 73
    20
 74
     0
 42
0.000000001
 43
0.00000001
 40
0.0
 40
0.0
 40
0.0
 40
0.0
 40
0.0618857619093494
 40
0.1150115624342297
 40
0.1593831322308222
 40
0.2428114832232123
 40
0.3183318386985426
 40
0.3935543620449526
 40
0.420484316839609
 40
0.4483397365001899
 40
0.477128677518787
 40
0.5451537674268876
 40
0.6363475914367293
 40
0.6968782742038289
 40
0.7498596592257523
 40
0.7959701139281281
 40
0.8771179876705577
 40
0.9543004325059576
 40
1.0
 40
1.0
 40
1.0
 40
1.0
 10
232.1061354485658
 20
65.26179186310785
 30
0.0
 10
231.9221788827371
 20
65.28068623804775
 30
0.0
 10
231.5803048974578
 20
65.31580047945017
 30
0.0
 10
231.116086813763
 20
65.30931110161261
 30
0.0
 10
230.6066252808852
 20
65.26158620395097
 30
0.0
 10
230.0675301259739
 20
65.13696987058277
 30
0.0
 10
229.5246930166745
 20
64.89447907338241
 30
0.0
 10
229.1842988274101
 20
64.63710778356995
 30
0.0
 10
228.977672407691
 20
64.4222988463206
 30
0.0
 10
228.859688489992
 20
64.27579680890663
 30
0.0
 10
228.7075183947676
 20
64.0460447099606
 30
0.0
 10
228.5408368451384
 20
63.67310330283848
 30
0.0
 10
228.4724765247859
 20
63.21054424631821
 30
0.0
 10
228.5228307129198
 20
62.7822103746517
 30
0.0
 10
228.6282605877749
 20
62.46228446366408
 30
0.0
 10
228.8104593478693
 20
62.12181820229917
 30
0.0
 10
229.1113383628648
 20
61.78587033359373
 30
0.0
 10
229.5010230636477
 20
61.51281162176002
 30
0.0
 10
229.7939419093223
 20
61.41885595090326
 30
0.0
 10
229.9028778252015
 20
61.38391403027248
 30
0.0
  0
SPLINE
  5
276
330
1F
100
AcDbEntity
  8
0
  6
Continuous
 62
     7
370
    25
100
AcDbSpline
210
0.0
220
0.0
230
1.0
 70
     8
 71
     3
 72
    22
 73
    18
 74
     0
 42
0.000000001
 43
0.00000001
 40
0.0
 40
0.0
 40
0.0
 40
0.0
 40
0.0219614350649738
 40
0.0803652114651397
 40
0.1456638403585972
 40
0.21789694387348
 40
0.2799150498546654
 40
0.3332793472081466
 40
0.3779895055229293
 40
0.4140481372238363
 40
0.517328140944588
 40
0.609398085778404
 40
0.7028413953962249
 40
0.7526499641548304
 40
0.804559245215462
 40
0.8937466539091778
 40
1.0
 40
1.0
 40
1.0
 40
1.0
 10
235.4109844652864
 20
62.78446526132412
 30
0.0
 10
235.4341523286845
 20
62.80632048949748
 30
0.0
 10
235.5189323185019
 20
62.88629704970748
 30
0.0
 10
235.6255637605499
 20
63.02845908057287
 30
0.0
 10
235.722818851278
 20
63.21723780387671
 30
0.0
 10
235.7538451969619
 20
63.40320244252684
 30
0.0
 10
235.724497200855
 20
63.57501712503241
 30
0.0
 10
235.6559903300497
 20
63.72182428021869
 30
0.0
 10
235.5681800977236
 20
63.84303356604881
 30
0.0
 10
235.4138878069674
 20
64.00861841646733
 30
0.0
 10
235.1460620785308
 20
64.21878170481112
 30
0.0
 10
234.6944921285372
 20
64.4742262133511
 30
0.0
 10
234.2469292875702
 20
64.68086194185804
 30
0.0
 10
233.8380357940866
 20
64.83936678622929
 30
0.0
 10
233.4159558291425
 20
64.98188289552243
 30
0.0
 10
232.8376432941701
 20
65.14514036377008
 30
0.0
 10
232.3637644710147
 20
65.2207084872805
 30
0.0
 10
232.1061354485658
 20
65.26179186310783
 30
0.0
  0
LINE
  5
277
330
1F
100
AcDbEntity
  8
0
  6
Continuous
 62
     7
370
    25
100
AcDbLine
 10
225.5965663831
 20
50.0146208183
 30
0.0
 11
225.5913278396
 21
50.3107042372
 31
0.0
  0
LINE
  5
278
330
1F
100
AcDbEntity
  8
0
  6
Continuous
 62
     7
370
    25
100
AcDbLine
 10
225.5913278396
 20
50.3107042372
 30
0.0
 11
225.6344269886
 21
50.9623475286
 31
0.0
  0
LINE
  5
279
330
1F
100
AcDbEntity
  8
0
  6
Continuous
 62
     7
370
    25
100
AcDbLine
 10
225.1117794197
 20
52.791392492
 30
0.0
 11
224.8003646498
 21
53.1199887544
 31
0.0
  0
SPLINE
  5
27A
330
1F
100
AcDbEntity
  8
0
  6
Continuous
 62
     7
370
    25
100
AcDbSpline
210
0.0
220
0.0
230
1.0
 70
     8
 71
     3
 72
    40
 73
    36
 74
     0
 42
0.000000001
 43
0.00000001
 40
0.0
 40
0.0
 40
0.0
 40
0.0
 40
0.0207361951232769
 40
0.0513661859238714
 40
0.0822015816855869
 40
0.1136927926056238
 40
0.145415157376396
 40
0.176278367697087
 40
0.2073666050471181
 40
0.239174557279189
 40
0.2712350862589916
 40
0.3011573564590632
 40
0.3312916247723527
 40
0.3620939820501588
 40
0.3931264274039258
 40
0.4228042091245606
 40
0.4526835145336829
 40
0.4831892780041093
 40
0.5139074591148666
 40
0.5441787969830993
 40
0.5746505171609173
 40
0.6057442275084883
 40
0.6370503183347425
 40
0.6682568738938293
 40
0.6996898608659893
 40
0.7319286323160364
 40
0.7645547377490701
 40
0.7882326105415217
 40
0.8123919062449526
 40
0.836140021816173
 40
0.8608898036675151
 40
0.8896146896609319
 40
0.9190865871890891
 40
0.9594021650679301
 40
1.0
 40
1.0
 40
1.0
 40
1.0
 10
228.4958495064484
 20
63.01542889470466
 30
0.0
 10
228.495803186644
 20
63.06728566164622
 30
0.0
 10
228.4956884466123
 20
63.19574145193449
 30
0.0
 10
228.520831660955
 20
63.39397547069364
 30
0.0
 10
228.5685932723532
 20
63.61158208237
 30
0.0
 10
228.6410295826862
 20
63.82271911412794
 30
0.0
 10
228.7366887748497
 20
64.02380581921882
 30
0.0
 10
228.8547221010755
 20
64.21265635562968
 30
0.0
 10
228.9947603783393
 20
64.38916528302916
 30
0.0
 10
229.1582665343448
 20
64.5537637738962
 30
0.0
 10
229.3403846168918
 20
64.70087659342896
 30
0.0
 10
229.5375828150406
 20
64.82949571647787
 30
0.0
 10
229.7482780342802
 20
64.9403151168327
 30
0.0
 10
229.9766269180495
 20
65.03520443427824
 30
0.0
 10
230.2173279804247
 20
65.11147509552046
 30
0.0
 10
230.4668699391698
 20
65.1687927824062
 30
0.0
 10
230.7241850136
 20
65.20766497914896
 30
0.0
 10
230.9920358974396
 20
65.22812767758792
 30
0.0
 10
231.2667260580561
 20
65.22928549335799
 30
0.0
 10
231.5449255906696
 20
65.21101834608773
 30
0.0
 10
231.8258494093897
 20
65.17317494649818
 30
0.0
 10
232.1094321485855
 20
65.11481902122385
 30
0.0
 10
232.3924502772145
 20
65.03527482322146
 30
0.0
 10
232.6711923791098
 20
64.9341543229143
 30
0.0
 10
232.9445056335052
 20
64.80956946041842
 30
0.0
 10
233.2096801125316
 20
64.65822259544655
 30
0.0
 10
233.4368766726957
 20
64.49274328886257
 30
0.0
 10
233.6223855885351
 20
64.3185388376165
 30
0.0
 10
233.7645574242706
 20
64.14434776210302
 30
0.0
 10
233.8758382817192
 20
63.95095749243396
 30
0.0
 10
233.9519367242379
 20
63.73749998135637
 30
0.0
 10
233.9890565897108
 20
63.51156453399584
 30
0.0
 10
233.9935042645266
 20
63.25443125298069
 30
0.0
 10
233.9663932561451
 20
62.97873533389362
 30
0.0
 10
233.928110831827
 20
62.78504800981091
 30
0.0
 10
233.9089028477701
 20
62.68786651989009
 30
0.0
  0
SPLINE
  5
27B
330
1F
100
AcDbEntity
  8
0
  6
Continuous
 62
     7
370
    25
100
AcDbSpline
210
0.0
220
0.0
230
1.0
 70
     8
 71
     3
 72
    10
 73
     6
 74
     0
 42
0.000000001
 43
0.00000001
 40
0.0
 40
0.0
 40
0.0
 40
0.0
 40
0.2951234317486784
 40
0.9803957662378208
 40
1.0
 40
1.0
 40
1.0
 40
1.0
 10
233.9116307227499
 20
62.68662796188554
 30
0.0
 10
233.9944547350573
 20
62.64786298756789
 30
0.0
 10
234.2695949044701
 20
62.51908630428607
 30
0.0
 10
234.544595808245
 20
62.37785284073515
 30
0.0
 10
234.6931161237758
 20
62.2838329454766
 30
0.0
 10
234.6972468143325
 20
62.28121803658622
 30
0.0
  0
ARC
  5
27C
330
1F
100
AcDbEntity
  8
0
  6
Continuous
 62
     7
370
    25
100
AcDbCircle
 10
237.921638569
 20
48.473417892
 30
0.0
 40
12.46644230718181
100
AcDbArc
 50
171.5249591672
 51
179.8212373334
  0
SPLINE
  5
27D
330
1F
100
AcDbEntity
  8
0
  6
Continuous
 62
     7
370
    25
100
AcDbSpline
210
0.0
220
0.0
230
1.0
 70
     8
 71
     3
 72
    14
 73
    10
 74
     0
 42
0.000000001
 43
0.00000001
 40
0.0
 40
0.0
 40
0.0
 40
0.0
 40
0.0003951393068452
 40
0.0003951393068452
 40
0.0003951393068452
 40
0.0008163352168663
 40
0.0008163352168663
 40
0.0008163352168663
 40
0.0012378579337219
 40
0.0012378579337219
 40
0.0012378579337219
 40
0.0012378579337219
 10
233.5035529234499
 20
62.83187505691023
 30
0.0
 10
233.5490147376811
 20
62.8174381942852
 30
0.0
 10
233.5939023423022
 20
62.80257233371961
 30
0.0
 10
233.6381860349773
 20
62.78728854611412
 30
0.0
 10
233.6853893272167
 20
62.77099710677644
 30
0.0
 10
233.7319151402758
 20
62.75422762869253
 30
0.0
 10
233.7777260495175
 20
62.73699881789724
 30
0.0
 10
233.8235724375066
 20
62.7197566640656
 30
0.0
 10
233.868711673079
 20
62.70205095786109
 30
0.0
 10
233.9131052311213
 20
62.6839081011703
 30
0.0
  0
LINE
  5
27E
330
1F
100
AcDbEntity
  8
0
  6
Continuous
 62
     7
370
    25
100
AcDbLine
 10
224.8003646498
 20
53.1199887544
 30
0.0
 11
224.1604284544
 21
53.5322204915
 31
0.0
  0
LINE
  5
27F
330
1F
100
AcDbEntity
  8
0
  6
Continuous
 62
     7
370
    25
100
AcDbLine
 10
223.8544942581
 20
53.9036990371
 30
0.0
 11
224.1604284544
 21
53.5322204915
 31
0.0
  0
SPLINE
  5
280
330
1F
100
AcDbEntity
  8
0
  6
Continuous
 62
     7
370
    25
100
AcDbSpline
210
0.0
220
0.0
230
1.0
 70
     8
 71
     3
 72
    13
 73
     9
 74
     0
 42
0.000000001
 43
0.00000001
 40
0.0
 40
0.0
 40
0.0
 40
0.0
 40
0.161854229885178
 40
0.3254858841554281
 40
0.4910085196607404
 40
0.6585318472791263
 40
0.8281616954204583
 40
0.9999999999999999
 40
0.9999999999999999
 40
0.9999999999999999
 40
0.9999999999999999
 10
224.1604284544283
 20
53.53222049148033
 30
0.0
 10
224.1408510624108
 20
53.5447834685135
 30
0.0
 10
224.1014812865651
 20
53.57004738463211
 30
0.0
 10
224.0399453467948
 20
53.60274108154697
 30
0.0
 10
223.9763886875454
 20
53.63168715525386
 30
0.0
 10
223.9107705848886
 20
53.65619952271945
 30
0.0
 10
223.8433433158338
 20
53.67663458607296
 30
0.0
 10
223.7974587156353
 20
53.68623124106274
 30
0.0
 10
223.7743680354604
 20
53.69106060189753
 30
0.0
  0
SPLINE
  5
281
330
1F
100
AcDbEntity
  8
0
  6
Continuous
 62
     7
370
    25
100
AcDbSpline
210
0.0
220
0.0
230
1.0
 70
     8
 71
     3
 72
     9
 73
     5
 74
     0
 42
0.000000001
 43
0.00000001
 40
0.0
 40
0.0
 40
0.0
 40
0.0
 40
0.4907282259506175
 40
1.0
 40
1.0
 40
1.0
 40
1.0
 10
223.7743622081684
 20
53.69103260486651
 30
0.0
 10
223.7502686856906
 20
53.69912813708464
 30
0.0
 10
223.7011711991314
 20
53.71562511400592
 30
0.0
 10
223.6504705053112
 20
53.73041878302215
 30
0.0
 10
223.6246500730238
 20
53.73795278108675
 30
0.0
  0
SPLINE
  5
282
330
1F
100
AcDbEntity
  8
0
  6
Continuous
 62
     7
370
    25
100
AcDbSpline
210
0.0
220
0.0
230
1.0
 70
     8
 71
     3
 72
    14
 73
    10
 74
     0
 42
0.000000001
 43
0.00000001
 40
0.0
 40
0.0
 40
0.0
 40
0.0
 40
0.0310276388071746
 40
0.0622853718672815
 40
0.1248003166904892
 40
0.2498289731753984
 40
0.499889260361071
 40
0.7606803621682141
 40
1.0
 40
1.0
 40
1.0
 40
1.0
 10
223.0407093837356
 20
54.11206052373262
 30
0.0
 10
223.04670162314
 20
54.10822948007898
 30
0.0
 10
223.0587305390993
 20
54.10053898258127
 30
0.0
 10
223.0827903471484
 20
54.08510109307458
 30
0.0
 10
223.1250240197947
 20
54.05803064014376
 30
0.0
 10
223.2095865943068
 20
54.00381861534838
 30
0.0
 10
223.3328735637771
 20
53.92481543348235
 30
0.0
 10
223.4790052702311
 20
53.83120925880491
 30
0.0
 10
223.5773718867718
 20
53.76822618241244
 30
0.0
 10
223.624443587456
 20
53.73808668362332
 30
0.0
  0
LINE
  5
283
330
1F
100
AcDbEntity
  8
0
  6
Continuous
 62
     7
370
    25
100
AcDbLine
 10
221.238209117
 20
55.2746913248
 30
0.0
 11
221.5291759516
 21
55.0866128958
 31
0.0
  0
SPLINE
  5
284
330
1F
100
AcDbEntity
  8
0
  6
Continuous
 62
     7
370
    25
100
AcDbSpline
210
0.0
220
0.0
230
1.0
 70
     8
 71
     3
 72
     8
 73
     4
 74
     0
 42
0.000000001
 43
0.00000001
 40
0.0
 40
0.0
 40
0.0
 40
0.0
 40
1.0
 40
1.0
 40
1.0
 40
1.0
 10
221.5605648860308
 20
55.06639013142144
 30
0.0
 10
221.5501223801789
 20
55.07321555631885
 30
0.0
 10
221.5396564472892
 20
55.07995852310537
 30
0.0
 10
221.5291686824726
 20
55.08661761075835
 30
0.0
  0
SPLINE
  5
285
330
1F
100
AcDbEntity
  8
0
  6
Continuous
 62
     7
370
    25
100
AcDbSpline
210
0.0
220
0.0
230
1.0
 70
     8
 71
     3
 72
     8
 73
     4
 74
     0
 42
0.000000001
 43
0.00000001
 40
0.0
 40
0.0
 40
0.0
 40
0.0
 40
1.0
 40
1.0
 40
1.0
 40
1.0
 10
218.774560507207
 20
56.94464578323052
 30
0.0
 10
218.8335602713769
 20
56.90590511631156
 30
0.0
 10
218.8928478348875
 20
56.86784313901227
 30
0.0
 10
218.9524289083759
 20
56.83045935055198
 30
0.0
  0
SPLINE
  5
286
330
1F
100
AcDbEntity
  8
0
  6
Continuous
 62
     7
370
    25
100
AcDbSpline
210
0.0
220
0.0
230
1.0
 70
     8
 71
     3
 72
     8
 73
     4
 74
     0
 42
0.000000001
 43
0.00000001
 40
0.0
 40
0.0
 40
0.0
 40
0.0
 40
1.0
 40
1.0
 40
1.0
 40
1.0
 10
218.7497107611074
 20
57.30785596116883
 30
0.0
 10
218.757184973198
 20
57.18689812045699
 30
0.0
 10
218.7654810770881
 20
57.06582627804634
 30
0.0
 10
218.774560507207
 20
56.94464578323052
 30
0.0
  0
LWPOLYLINE
  5
287
330
1F
100
AcDbEntity
  8
0
  6
Continuous
 62
     7
370
    25
100
AcDbPolyline
 90
       15
 70
   128
 43
0.0
 10
218.7497107611
 20
57.3078559612
 10
219.1433101029
 20
58.4167646977
 10
219.6179782651
 20
59.5175327521
 10
220.1680313824
 20
60.5969790896
 10
220.7868828998
 20
61.6421779903
 10
221.4671224431
 20
62.6406138266
 10
222.2006045532
 20
63.5803309306
 10
222.9785462236
 20
64.4500767557
 10
223.791632071
 20
65.2394366194
 10
224.6301258821
 20
65.9389584125
 10
225.4839871983
 20
66.5402657827
 10
226.3429915443
 20
67.0361584363
 10
227.1968528605
 20
67.4206983574
 10
228.0353466716
 20
67.6892809119
 10
228.7136729867
 20
67.821963725
  0
SPLINE
  5
288
330
1F
100
AcDbEntity
  8
0
  6
Continuous
 62
     7
370
    25
100
AcDbSpline
210
0.0
220
0.0
230
1.0
 70
     8
 71
     3
 72
    10
 73
     6
 74
     0
 42
0.000000001
 43
0.00000001
 40
0.0
 40
0.0
 40
0.0
 40
0.0
 40
0.2409820260343464
 40
0.5031431986319208
 40
1.0
 40
1.0
 40
1.0
 40
1.0
 10
224.800364649757
 20
46.4141473367884
 30
0.0
 10
224.8826106779556
 20
46.3624708248194
 30
0.0
 10
225.0543310771223
 20
46.25457611601434
 30
0.0
 10
225.3320512588603
 20
46.12485283534044
 30
0.0
 10
225.4530290462403
 20
46.14763093883995
 30
0.0
 10
225.5322216853291
 20
46.16254159449525
 30
0.0
  0
LINE
  5
289
330
1F
100
AcDbEntity
  8
0
  6
Continuous
 62
     7
370
    25
100
AcDbLine
 10
220.0171911952
 20
56.1432196902
 30
0.0
 11
219.2553118136
 21
56.633854609
 31
0.0
  0
LINE
  5
28A
330
1F
100
AcDbEntity
  8
0
  6
Continuous
 62
     7
370
    25
100
AcDbLine
 10
219.2553118136
 20
56.633854609
 30
0.0
 11
218.7745605072
 21
56.9446457832
 31
0.0
  0
LINE
  5
28B
330
1F
100
AcDbEntity
  8
0
  6
Continuous
 62
     7
370
    25
100
AcDbLine
 10
223.8544942581
 20
46.1383675622
 30
0.0
 11
224.1604284544
 21
46.8263790739
 31
0.0
  0
LINE
  5
28C
330
1F
100
AcDbEntity
  8
0
  6
Continuous
 62
     7
370
    25
100
AcDbLine
 10
224.1604284544
 20
46.8263790739
 30
0.0
 11
224.8003646498
 21
46.4141473368
 31
0.0
  0
SPLINE
  5
28D
330
1F
100
AcDbEntity
  8
0
  6
Continuous
 62
     7
370
    25
100
AcDbSpline
210
0.0
220
0.0
230
1.0
 70
     8
 71
     3
 72
    13
 73
     9
 74
     0
 42
0.000000001
 43
0.00000001
 40
0.0
 40
0.0
 40
0.0
 40
0.0
 40
0.172258782378417
 40
0.342139827159501
 40
0.5097456258302661
 40
0.6751828993623331
 40
0.8385626190354498
 40
1.0
 40
1.0
 40
1.0
 40
1.0
 10
223.774356523655
 20
47.10768856973363
 30
0.0
 10
223.7975080476102
 20
47.08956897879618
 30
0.0
 10
223.8434915283658
 20
47.05357990685486
 30
0.0
 10
223.9110325410851
 20
47.0025799234332
 30
0.0
 10
223.9766921557734
 20
46.95425524324143
 30
0.0
 10
224.0402162270211
 20
46.9088242373356
 30
0.0
 10
224.1016466057349
 20
46.86599866958272
 30
0.0
 10
224.1409127727012
 20
46.83953285241248
 30
0.0
 10
224.1604284544283
 20
46.82637907386862
 30
0.0
  0
SPLINE
  5
28E
330
1F
100
AcDbEntity
  8
0
  6
Continuous
 62
     7
370
    25
100
AcDbSpline
210
0.0
220
0.0
230
1.0
 70
     8
 71
     3
 72
    11
 73
     7
 74
     0
 42
0.000000001
 43
0.00000001
 40
0.0
 40
0.0
 40
0.0
 40
0.0
 40
0.2392845094479873
 40
0.5001120454076898
 40
0.7515010915036774
 40
1.0
 40
1.0
 40
1.0
 40
1.0
 10
223.6249761121789
 20
47.15500256194651
 30
0.0
 10
223.5779068801744
 20
47.12668803923371
 30
0.0
 10
223.4795307255798
 20
47.06750980867753
 30
0.0
 10
223.3332335039959
 20
46.97432190821761
 30
0.0
 10
223.1853927603521
 20
46.87894999224515
 30
0.0
 10
223.0891062976332
 20
46.81441473698234
 30
0.0
 10
223.0412414097741
 20
46.78233366692451
 30
0.0
  0
SPLINE
  5
28F
330
1F
100
AcDbEntity
  8
0
  6
Continuous
 62
     7
370
    25
100
AcDbSpline
210
0.0
220
0.0
230
1.0
 70
     8
 71
     3
 72
     9
 73
     5
 74
     0
 42
0.000000001
 43
0.00000001
 40
0.0
 40
0.0
 40
0.0
 40
0.0
 40
0.5090669353869915
 40
1.0
 40
1.0
 40
1.0
 40
1.0
 10
223.6255471157631
 20
47.15430360773474
 30
0.0
 10
223.6511956903871
 20
47.14681089957486
 30
0.0
 10
223.7015791917325
 20
47.13209238686259
 30
0.0
 10
223.7503867032278
 20
47.11570002901042
 30
0.0
 10
223.7743479244224
 20
47.10765247853383
 30
0.0
  0
LINE
  5
290
330
1F
100
AcDbEntity
  8
0
  6
Continuous
 62
     7
370
    25
100
AcDbLine
 10
225.45546569
 20
48.0781818461
 30
0.0
 11
223.7743500293
 21
47.1076944326
 31
0.0
  0
LINE
  5
291
330
1F
100
AcDbEntity
  8
0
  6
Continuous
 62
     7
370
    25
100
AcDbLine
 10
221.7678622322
 20
48.2315157104
 30
0.0
 11
221.5675661799
 21
47.730358429
 31
0.0
  0
SPLINE
  5
292
330
1F
100
AcDbEntity
  8
0
  6
Continuous
 62
     7
370
    25
100
AcDbSpline
210
0.0
220
0.0
230
1.0
 70
     8
 71
     3
 72
     8
 73
     4
 74
     0
 42
0.000000001
 43
0.00000001
 40
0.0
 40
0.0
 40
0.0
 40
0.0
 40
1.0
 40
1.0
 40
1.0
 40
1.0
 10
221.7674189176229
 20
48.23229964159608
 30
0.0
 10
221.7935942521922
 20
48.25446701857435
 30
0.0
 10
221.8194152921576
 20
48.27709915966597
 30
0.0
 10
221.844872845866
 20
48.30018387975725
 30
0.0
  0
LINE
  5
293
330
1F
100
AcDbEntity
  8
0
  6
Continuous
 62
     7
370
    25
100
AcDbLine
 10
221.8448728459
 20
48.3001838797
 30
0.0
 11
223.6251658362
 21
47.1544126173
 31
0.0
  0
LINE
  5
294
330
1F
100
AcDbEntity
  8
0
  6
Continuous
 62
     7
370
    25
100
AcDbLine
 10
225.4552569383
 20
48.1762318806
 30
0.0
 11
225.3672579158
 21
48.2837230172
 31
0.0
  0
LINE
  5
295
330
1F
100
AcDbEntity
  8
0
  6
Continuous
 62
     7
370
    25
100
AcDbLine
 10
223.5388493273
 20
49.2780956871
 30
0.0
 11
221.8448728459
 21
48.3001838798
 31
0.0
  0
LINE
  5
296
330
1F
100
AcDbEntity
  8
0
  6
Continuous
 62
     7
370
    25
100
AcDbLine
 10
223.6815433529
 20
49.2568033263
 30
0.0
 11
223.5392696415
 21
49.2776079423
 31
0.0
  0
LINE
  5
297
330
1F
100
AcDbEntity
  8
0
  6
Continuous
 62
     7
370
    25
100
AcDbLine
 10
225.3673309212
 20
48.283618878
 30
0.0
 11
223.6815433529
 21
49.2568033263
 31
0.0
  0
LINE
  5
298
330
1F
100
AcDbEntity
  8
0
  6
Continuous
 62
     7
370
    25
100
AcDbLine
 10
225.4552569383
 20
48.232854537
 30
0.0
 11
225.3672844642
 21
48.2836456784
 31
0.0
  0
SPLINE
  5
299
330
1F
100
AcDbEntity
  8
0
  6
Continuous
 62
     7
370
    25
100
AcDbSpline
210
0.0
220
0.0
230
1.0
 70
     8
 71
     3
 72
    19
 73
    15
 74
     0
 42
0.000000001
 43
0.00000001
 40
0.0
 40
0.0
 40
0.0
 40
0.0
 40
0.0637852801523487
 40
0.1289627947928742
 40
0.1955871357727518
 40
0.2637094157112479
 40
0.3333774494312574
 40
0.4046359392583752
 40
0.477526660464624
 40
0.5520886439445272
 40
0.6283583539150506
 40
0.7063698590296017
 40
0.8377040422924708
 40
1.0
 40
1.0
 40
1.0
 40
1.0
 10
220.9833498116616
 20
48.40078772894796
 30
0.0
 10
221.0040391806667
 20
48.38742858893764
 30
0.0
 10
221.0458695033215
 20
48.36041872039673
 30
0.0
 10
221.1063604769162
 20
48.32289675487021
 30
0.0
 10
221.1658446750955
 20
48.28737701377954
 30
0.0
 10
221.2239258345671
 20
48.25439688486304
 30
0.0
 10
221.2804579516544
 20
48.22419044859266
 30
0.0
 10
221.3352030064081
 20
48.19707700863133
 30
0.0
 10
221.387925384001
 20
48.17334539088059
 30
0.0
 10
221.4383670169295
 20
48.15330513743881
 30
0.0
 10
221.4862499354047
 20
48.13718527588932
 30
0.0
 10
221.5412141155876
 20
48.12290729954292
 30
0.0
 10
221.6040454793181
 20
48.11276873846145
 30
0.0
 10
221.6425530224789
 20
48.11924301785094
 30
0.0
 10
221.6638370043467
 20
48.12282149712597
 30
0.0
  0
LINE
  5
29A
330
1F
100
AcDbEntity
  8
0
  6
Continuous
 62
     7
370
    25
100
AcDbLine
 10
221.6884729353
 20
48.1488916443
 30
0.0
 11
221.767276956
 21
48.2322833546
 31
0.0
  0
SPLINE
  5
29B
330
1F
100
AcDbEntity
  8
0
  6
Continuous
 62
     7
370
    25
100
AcDbSpline
210
0.0
220
0.0
230
1.0
 70
     8
 71
     3
 72
     9
 73
     5
 74
     0
 42
0.000000001
 43
0.00000001
 40
0.0
 40
0.0
 40
0.0
 40
0.0
 40
0.523202776288562
 40
0.9999999999999999
 40
0.9999999999999999
 40
0.9999999999999999
 40
0.9999999999999999
 10
223.3726719731669
 20
49.1821635424831
 30
0.0
 10
223.3036476601733
 20
49.20720570155733
 30
0.0
 10
223.1717211564889
 20
49.25506890146595
 30
0.0
 10
222.9302840041345
 20
49.39266709839586
 30
0.0
 10
222.8151674401911
 20
49.45827353667974
 30
0.0
  0
LINE
  5
29C
330
1F
100
AcDbEntity
  8
0
  6
Continuous
 62
     7
370
    25
100
AcDbLine
 10
219.0856663171
 20
49.2241630035
 30
0.0
 11
219.5371364868
 21
49.3364275371
 31
0.0
  0
LINE
  5
29D
330
1F
100
AcDbEntity
  8
0
  6
Continuous
 62
     7
370
    25
100
AcDbLine
 10
219.5371364868
 20
49.3364275371
 30
0.0
 11
220.9833498117
 21
48.4007877289
 31
0.0
  0
SPLINE
  5
29E
330
1F
100
AcDbEntity
  8
0
  6
Continuous
 62
     7
370
    25
100
AcDbSpline
210
0.0
220
0.0
230
1.0
 70
     8
 71
     3
 72
     8
 73
     4
 74
     0
 42
0.000000001
 43
0.00000001
 40
0.0
 40
0.0
 40
0.0
 40
0.0
 40
1.0
 40
1.0
 40
1.0
 40
1.0
 10
219.2564541956783
 20
48.82941353116463
 30
0.0
 10
219.1993289267542
 20
48.96119971496027
 30
0.0
 10
219.1424004350367
 20
49.09278393662107
 30
0.0
 10
219.0856663170873
 20
49.22416300352243
 30
0.0
  0
LINE
  5
29F
330
1F
100
AcDbEntity
  8
0
  6
Continuous
 62
     7
370
    25
100
AcDbLine
 10
220.8748376972
 20
50.1086660084
 30
0.0
 11
219.5371364867
 21
49.3364275371
 31
0.0
  0
LINE
  5
2A0
330
1F
100
AcDbEntity
  8
0
  6
Continuous
 62
     7
370
    25
100
AcDbLine
 10
221.8578664941
 20
50.010912475
 30
0.0
 11
220.8748372234
 21
50.108666056
 31
0.0
  0
LINE
  5
2A1
330
1F
100
AcDbEntity
  8
0
  6
Continuous
 62
     7
370
    25
100
AcDbLine
 10
222.8151674402
 20
49.4582735367
 30
0.0
 11
221.8578657445
 21
50.0109120423
 31
0.0
  0
SPLINE
  5
2A2
330
1F
100
AcDbEntity
  8
0
  6
Continuous
 62
     7
370
    25
100
AcDbSpline
210
0.0
220
0.0
230
1.0
 70
     8
 71
     3
 72
     8
 73
     4
 74
     0
 42
0.000000001
 43
0.00000001
 40
0.0
 40
0.0
 40
0.0
 40
0.0
 40
1.0
 40
1.0
 40
1.0
 40
1.0
 10
219.0856663170895
 20
49.22416300351731
 30
0.0
 10
219.0825289793393
 20
49.25937931038983
 30
0.0
 10
219.0805365754414
 20
49.29502356661752
 30
0.0
 10
219.0797551780693
 20
49.3311204686124
 30
0.0
  0
LINE
  5
2A3
330
1F
100
AcDbEntity
  8
0
  6
Continuous
 62
     7
370
    25
100
AcDbLine
 10
219.8908407106
 20
49.79935018
 30
0.0
 11
219.0797551781
 21
49.3311204686
 31
0.0
  0
SPLINE
  5
2A4
330
1F
100
AcDbEntity
  8
0
  6
Continuous
 62
     7
370
    25
100
AcDbSpline
210
0.0
220
0.0
230
1.0
 70
     8
 71
     3
 72
     8
 73
     4
 74
     0
 42
0.000000001
 43
0.00000001
 40
0.0000004089325119
 40
0.0000004089325119
 40
0.0000004089325119
 40
0.0000004089325119
 40
0.0015399868451459
 40
0.0015399868451459
 40
0.0015399868451459
 40
0.0015399868451459
 10
219.8908407105581
 20
49.79935017996852
 30
0.0
 10
220.1293172785813
 20
49.89372656578487
 30
0.0
 10
220.3677642362501
 20
49.98815517771508
 30
0.0
 10
220.6061729751003
 20
50.08264856067754
 30
0.0
  0
LINE
  5
2A5
330
1F
100
AcDbEntity
  8
0
  6
Continuous
 62
     7
370
    25
100
AcDbLine
 10
220.6061729751
 20
50.0826485607
 30
0.0
 11
220.6305692058
 21
50.0876424905
 31
0.0
  0
LINE
  5
2A6
330
1F
100
AcDbEntity
  8
0
  6
Continuous
 62
     7
370
    25
100
AcDbLine
 10
220.8748374897
 20
50.1086659898
 30
0.0
 11
220.6305697475
 21
50.0876428831
 31
0.0
  0
SPLINE
  5
2A7
330
1F
100
AcDbEntity
  8
0
  6
Continuous
 62
     7
370
    25
100
AcDbSpline
210
0.0
220
0.0
230
1.0
 70
     8
 71
     3
 72
     8
 73
     4
 74
     0
 42
0.000000001
 43
0.00000001
 40
0.0
 40
0.0
 40
0.0
 40
0.0
 40
1.0
 40
1.0
 40
1.0
 40
1.0
 10
221.8578648896084
 20
50.01091255326451
 30
0.0
 10
221.8884729237316
 20
49.99597254545839
 30
0.0
 10
221.9190244247035
 20
49.98109558806501
 30
0.0
 10
221.9495183628181
 20
49.96628202438409
 30
0.0
  0
LWPOLYLINE
  5
2A8
330
1F
100
AcDbEntity
  8
0
  6
Continuous
 62
     7
370
    25
100
AcDbPolyline
 90
        3
 70
   128
 43
0.0
 10
225.4976384833
 20
49.499362064
 10
225.0231088199
 20
49.3014002801
 10
224.2862540723
 20
49.0753577236
  0
LWPOLYLINE
  5
2A9
330
1F
100
AcDbEntity
  8
0
  6
Continuous
 62
     7
370
    18
100
AcDbPolyline
 90
       25
 70
   128
 43
0.0
 10
267.72356835
 20
25.2165904186
 10
267.7692268077
 20
26.1817987817
 10
267.9056279992
 20
27.1875852227
 10
268.1310566004
 20
28.2213013936
 10
268.4426777158
 20
29.2699477139
 10
268.8365725291
 20
30.3203368475
 10
269.3077875845
 20
31.3592595416
 10
269.8503970793
 20
32.3736507407
 10
270.4575773841
 20
33.3507538867
 10
271.1216928545
 20
34.2782813408
 10
271.834391853
 20
35.1445689069
 10
272.5867117761
 20
35.9387225164
 10
273.3691917645
 20
36.6507552268
 10
274.1719916781
 20
37.2717128137
 10
274.9850158424
 20
37.7937863751
 10
275.7980400066
 20
38.210410533
 10
276.6008399203
 20
38.5163459969
 10
277.3833199086
 20
38.707745451
 10
278.1356398318
 20
38.7822019359
 10
278.8483388303
 20
38.7387791182
 10
279.5124543006
 20
38.5780230651
 10
280.1196346055
 20
38.301955377
 10
280.6622441002
 20
37.9140477655
 10
281.1334591556
 20
37.4191783938
 10
281.5253511752
 20
36.8272129233
  0
LWPOLYLINE
  5
2AA
330
1F
100
AcDbEntity
  8
0
  6
Continuous
 62
     7
370
    18
100
AcDbPolyline
 90
       11
 70
   128
 43
0.0
 10
271.8312994159
 20
20.0348032525
 10
271.1216928545
 20
20.0782905376
 10
270.4575773841
 20
20.2390465908
 10
269.8503970793
 20
20.5151142788
 10
269.3077875845
 20
20.9030218903
 10
268.8365725291
 20
21.397891262
 10
268.4426777158
 20
21.9934991245
 10
268.1310566004
 20
22.6823553632
 10
267.9056279992
 20
23.4557972113
 10
267.7692268077
 20
24.3040981887
 10
267.72356835
 20
25.2165904186
  0
LWPOLYLINE
  5
2AB
330
1F
100
AcDbEntity
  8
0
  6
Continuous
 62
     7
370
    18
100
AcDbPolyline
 90
       55
 70
   128
 43
0.0
 10
268.7726952745
 20
25.3508593658
 10
268.8174613431
 20
26.2642574687
 10
268.9511541647
 20
27.2169892317
 10
269.1719657732
 20
28.1961705924
 10
269.4769100704
 20
29.1885598024
 10
269.8618632078
 20
30.1807365002
 10
270.3216193546
 20
31.1592831981
 10
270.8499610976
 20
32.1109667305
 10
271.4397435211
 20
33.0229172104
 10
272.0829908297
 20
33.8828020718
 10
272.7710042068
 20
34.6789928473
 10
273.4944794519
 20
35.4007224223
 10
274.2436328034
 20
36.0382306426
 10
275.0083332474
 20
36.582896303
 10
275.7782395222
 20
37.0273537349
 10
276.5429399662
 20
37.365592414
 10
277.2920933177
 20
37.5930382423
 10
278.0155685629
 20
37.7066154053
 10
278.70358194
 20
37.7047879666
 10
279.3468292485
 20
37.5875806392
 10
279.9366116721
 20
37.3565784512
 10
280.4649534151
 20
37.0149053108
 10
280.9247095619
 20
36.5671817612
 10
281.3096626993
 20
36.0194624952
 10
281.6146069965
 20
35.3791544765
 10
281.835418605
 20
34.6549167724
 10
281.9691114266
 20
33.8565434555
 10
282.0138774952
 20
32.9948311553
 10
281.9691114266
 20
32.0814330525
 10
281.835418605
 20
31.1287012894
 10
281.6146069965
 20
30.1495199288
 10
281.3096626993
 20
29.1571307187
 10
280.9247095619
 20
28.1649540209
 10
280.4649534151
 20
27.1864073231
 10
279.9366116721
 20
26.2347237906
 10
279.3468292485
 20
25.3227733108
 10
278.70358194
 20
24.4628884493
 10
278.0155685629
 20
23.6666976739
 10
277.2920933177
 20
22.9449680988
 10
276.5429399662
 20
22.3074598786
 10
275.7782395222
 20
21.7627942181
 10
275.0083332474
 20
21.3183367862
 10
274.2436328034
 20
20.9800981072
 10
273.4944794519
 20
20.7526522788
 10
272.7710042068
 20
20.6390751159
 10
272.0829908297
 20
20.6409025546
 10
271.4397435211
 20
20.7581098819
 10
270.8499610976
 20
20.98911207
 10
270.3216193546
 20
21.3307852104
 10
269.8618632078
 20
21.77850876
 10
269.4769100704
 20
22.3262280259
 10
269.1719657732
 20
22.9665360447
 10
268.9511541647
 20
23.6907737488
 10
268.8174613431
 20
24.4891470657
 10
268.7726952745
 20
25.3508593658
  0
LWPOLYLINE
  5
2AC
330
1F
100
AcDbEntity
  8
0
  6
Continuous
 62
     7
370
    18
100
AcDbPolyline
 90
       10
 70
   128
 43
0.0
 10
238.2701803725
 20
39.9902527422
 10
238.314444234
 20
38.9753507861
 10
238.4468095334
 20
38.0213288573
 10
238.6660015203
 20
37.1373747085
 10
238.9699092563
 20
36.3320013013
 10
239.3556059435
 20
35.612964822
 10
239.8193771122
 20
34.987189985
 10
240.3567563924
 20
34.4607033439
 10
240.962568528
 20
34.0385752529
 10
240.9630967658
 20
34.0382702581
  0
LWPOLYLINE
  5
2AD
330
1F
100
AcDbEntity
  8
0
  6
Continuous
 62
     7
370
    18
100
AcDbPolyline
 90
       25
 70
   128
 43
0.0
 10
253.9620402901
 20
56.55554068
 10
253.2941578392
 20
56.8689399018
 10
252.5695857575
 20
57.0711991008
 10
251.7958303081
 20
57.1600654157
 10
250.9803431789
 20
57.1346830152
 10
250.1309779569
 20
56.9952963458
 10
249.2559144933
 20
56.7432477773
 10
248.3635801278
 20
56.3809646751
 10
247.462568528
 20
55.9119360236
 10
246.5615569282
 20
55.3406788251
 10
245.6692225626
 20
54.6726945987
 10
244.7941590991
 20
53.9144163976
 10
243.944793877
 20
53.0731468555
 10
243.1293067479
 20
52.1569878579
 10
242.3555512984
 20
51.1747625168
 10
241.6309792167
 20
50.1359301992
 10
240.962568528
 20
49.0504954281
 10
240.3567563924
 20
47.9289115338
 10
239.8193771122
 20
46.7819799823
 10
239.3556059435
 20
45.6207463515
 10
238.9699092563
 20
44.4563939559
 10
238.6660015203
 20
43.3001361456
 10
238.4468095334
 20
42.1631083155
 10
238.314444234
 20
41.056260665
 10
238.2701803725
 20
39.9902527422
  0
ARC
  5
2AE
330
1F
100
AcDbEntity
  8
0
  6
Continuous
 62
     7
370
    18
100
AcDbCircle
 10
277.0210655671
 20
31.9780176424
 30
0.0
 40
1.896240912934606
100
AcDbArc
 50
17.6042504323
 51
89.3281798584
  0
LWPOLYLINE
  5
2AF
330
1F
100
AcDbEntity
  8
0
  6
Continuous
 62
     7
370
    18
100
AcDbPolyline
 90
       10
 70
   128
 43
0.0
 10
274.4174896483
 20
24.5581260268
 10
274.2679701219
 20
24.5238452409
 10
273.7400346159
 20
24.4715958975
 10
273.2528076553
 20
24.5351069159
 10
272.8182863848
 20
24.7128144442
 10
272.4471701603
 20
25.0003427331
 10
272.1485970949
 20
25.390611882
 10
271.9299190482
 20
25.8740121692
 10
271.7965205997
 20
26.4386406753
 10
271.7516864617
 20
27.0705943726
  0
LWPOLYLINE
  5
2B0
330
1F
100
AcDbEntity
  8
0
  6
Continuous
 62
     7
370
    18
100
AcDbPolyline
 90
       32
 70
   128
 43
0.0
 10
236.148860029
 20
39.9902527422
 10
236.1939121077
 20
41.1249611731
 10
236.3286724244
 20
42.3017137683
 10
236.5519567007
 20
43.5101691837
 10
236.8618027064
 20
44.7397074698
 10
237.2554875035
 20
45.9795233997
 10
237.7295513759
 20
47.2187214267
 10
238.2798282333
 20
48.4464114338
 10
238.9014822229
 20
49.6518044371
 10
239.589050227
 20
50.8243073995
 10
240.3364898733
 20
51.953616323
 10
241.1372326353
 20
53.0298068
 10
241.9842415569
 20
54.0434212299
 10
242.8700730931
 20
54.9855519327
 10
243.7869425246
 20
55.8479194299
 10
244.7267923699
 20
56.6229452049
 10
245.6813631947
 20
57.3038183034
 10
246.6422661962
 20
57.884555188
 10
247.6010569245
 20
58.3600523222
 10
248.549309492
 20
58.72613102
 10
249.4786906211
 20
58.9795741687
 10
250.381032877
 20
59.1181545008
 10
251.2484064436
 20
59.1406541673
 10
252.0731888107
 20
59.0468754403
 10
252.8481317613
 20
58.8376424508
 10
253.5664250688
 20
58.5147939456
 10
254.2217563458
 20
58.0811671291
 10
254.8083665175
 20
57.5405727294
 10
255.3211004326
 20
56.8977615094
 10
255.7554521671
 20
56.1583825173
 10
256.1076046222
 20
55.3289334422
 10
256.1129492163
 20
55.3138473871
  0
LWPOLYLINE
  5
2B1
330
1F
100
AcDbEntity
  8
0
  6
Continuous
 62
     7
370
    18
100
AcDbPolyline
 90
       15
 70
   128
 43
0.0
 10
243.1140056921
 20
32.7965769652
 10
242.8700730931
 20
32.7551009762
 10
241.9842415569
 20
32.6744723573
 10
241.1372326353
 20
32.7101511023
 10
240.3364898733
 20
32.8618236652
 10
239.589050227
 20
33.128157142
 10
238.9014822229
 20
33.5068109845
 10
238.2798282333
 20
33.9944575691
 10
237.7295513759
 20
34.5868114401
 10
237.2554875035
 20
35.2786669705
 10
236.8618027064
 20
36.0639441088
 10
236.5519567007
 20
36.9357418115
 10
236.3286724244
 20
37.8863986889
 10
236.1939121077
 20
38.9075603342
 10
236.148860029
 20
39.9902527422
  0
LWPOLYLINE
  5
2B2
330
1F
100
AcDbEntity
  8
0
  6
Continuous
 62
     7
370
    18
100
AcDbPolyline
 90
       28
 70
   128
 43
0.0
 10
228.9805650347
 20
43.1181163206
 10
229.0253634654
 20
44.2958709039
 10
229.1593980668
 20
45.5158660668
 10
229.3815896712
 20
46.7682791257
 10
229.6901493224
 20
48.0430263871
 10
230.0825926795
 20
49.3298443356
 10
230.5557600194
 20
50.6183722696
 10
231.1058416768
 20
51.89823572
 10
231.7284087177
 20
53.1591299786
 10
232.4184485983
 20
54.3909030665
 10
233.1704055234
 20
55.5836374708
 10
233.9782251777
 20
56.7277299956
 10
234.8354034726
 20
57.8139690805
 10
235.7350389123
 20
58.8336089671
 10
236.6698881612
 20
59.7784401145
 10
237.632424363
 20
60.6408552981
 10
238.6148977421
 20
61.4139108577
 10
239.6093980004
 20
62.0913826045
 10
240.6079180068
 20
62.6678159344
 10
241.6024182652
 20
63.1385697452
 10
242.5848916442
 20
63.499853804
 10
243.547427846
 20
63.7487592639
 10
244.482277095
 20
63.8832820846
 10
245.3819125347
 20
63.9023391674
 10
246.2390908295
 20
63.8057770759
 10
247.0469104839
 20
63.5943732712
 10
247.7988674089
 20
63.2698298525
 10
247.976768531
 20
63.1716716223
  0
LWPOLYLINE
  5
2B3
330
1F
100
AcDbEntity
  8
0
  6
Continuous
 62
     7
370
    18
100
AcDbPolyline
 90
       10
 70
   128
 43
0.0
 10
232.2405474762
 20
35.9127836788
 10
231.7284087177
 20
36.2496954485
 10
231.1058416768
 20
36.7917891018
 10
230.5557600194
 20
37.4365417892
 10
230.0825926795
 20
38.1787623411
 10
229.6901493224
 20
39.0124748341
 10
229.3815896712
 20
39.9309667054
 10
229.1593980668
 20
40.9268427984
 10
229.0253634654
 20
41.9920849045
 10
228.9805650347
 20
43.1181163206
  0
LWPOLYLINE
  5
2B4
330
1F
100
AcDbEntity
  8
0
  6
Continuous
 62
     7
370
    18
100
AcDbPolyline
 90
       13
 70
   128
 43
0.0
 10
233.6046461363
 20
39.7824795944
 10
233.4723311745
 20
40.5747121541
 10
233.3894515514
 20
41.6277747141
 10
233.3995093314
 20
42.7385800954
 10
233.5024095135
 20
43.8966361685
 10
233.6971801524
 20
45.0910044971
 10
233.9819815391
 20
46.3104036566
 10
234.3541235776
 20
47.5433157934
 10
234.8100911947
 20
48.7780954168
 10
235.345577541
 20
50.0030793969
 10
235.9555246722
 20
51.2066971285
 10
236.634171323
 20
52.3775798217
 10
237.3751073262
 20
53.5046678861
  0
LWPOLYLINE
  5
2B5
330
1F
100
AcDbEntity
  8
0
  6
Continuous
 62
     7
370
    18
100
AcDbPolyline
 90
       17
 70
   128
 43
0.0
 10
234.1164422106
 20
36.8525520456
 10
233.7598590026
 20
37.3973821749
 10
233.3639798779
 20
38.1994966854
 10
233.0552515618
 20
39.0909097891
 10
232.8365029117
 20
40.0634535259
 10
232.7097383071
 20
41.1082165413
 10
232.6761192838
 20
42.2156257403
 10
232.7359538907
 20
43.3755340049
 10
232.8886938673
 20
44.5773131717
 10
233.1329396671
 20
45.8099514169
 10
233.4664532819
 20
47.062154157
 10
233.8861787482
 20
48.3224475404
 10
234.3882701491
 20
49.5792835812
 10
234.968126854
 20
50.8211459733
 10
235.6204356739
 20
52.0366556128
 10
236.3392195458
 20
53.2146748646
 10
237.1178923002
 20
54.3444096153
  0
LINE
  5
2B6
330
1F
100
AcDbEntity
  8
0
  6
Continuous
 62
     7
370
    18
100
AcDbLine
 10
240.109815978
 20
55.7454305406
 30
0.0
 11
240.1513650175
 21
55.7889748537
 31
0.0
  0
ARC
  5
2B7
330
1F
100
AcDbEntity
  8
0
  6
Continuous
 62
     7
370
    18
100
AcDbCircle
 10
250.20101769
 20
46.5615412622
 30
0.0
 40
14.3534891136413
100
AcDbArc
 50
109.9319623821
 51
139.4246774734
  0
LWPOLYLINE
  5
2B8
330
1F
100
AcDbEntity
  8
0
  6
Continuous
 62
     7
370
    18
100
AcDbPolyline
 90
       12
 70
   128
 43
0.0
 10
238.4620855411
 20
56.016573228
 10
239.3744303209
 20
56.9873088285
 10
240.319758622
 20
57.8728512238
 10
241.2891637923
 20
58.6648570498
 10
242.2735123332
 20
59.3558642213
 10
243.2635299533
 20
59.9393622376
 10
244.2498889487
 20
60.409853523
 10
245.2232960861
 20
60.7629052236
 10
246.1745801613
 20
60.9951909727
 10
247.0947784084
 20
61.1045222307
 10
247.9752209443
 20
61.0898689052
 10
248.1010491585
 20
61.0772265971
  0
LINE
  5
2B9
330
1F
100
AcDbEntity
  8
0
  6
Continuous
 62
     7
370
    18
100
AcDbLine
 10
224.4942005263
 20
53.4907240241
 30
0.0
 11
224.8003646498
 21
53.1199887544
 31
0.0
  0
LINE
  5
2BA
330
1F
100
AcDbEntity
  8
0
  6
Continuous
 62
     7
370
    18
100
AcDbLine
 10
224.4942005263
 20
45.7266136328
 30
0.0
 11
224.8003646498
 21
46.4141473368
 31
0.0
  0
LINE
  5
2BB
330
1F
100
AcDbEntity
  8
0
  6
Continuous
 62
     7
370
    18
100
AcDbLine
 10
225.5362748035
 20
46.8389792258
 30
0.0
 11
224.8003719759
 21
46.4141515661
 31
0.0
  0
LINE
  5
2BC
330
1F
100
AcDbEntity
  8
0
  6
Continuous
 62
     7
370
    18
100
AcDbLine
 10
225.4696994283
 20
47.5822051189
 30
0.0
 11
224.1604284544
 21
46.8263790739
 31
0.0
  0
LINE
  5
2BD
330
1F
100
AcDbEntity
  8
0
  6
Continuous
 62
     7
370
    18
100
AcDbLine
 10
220.9833498117
 20
48.4007877289
 30
0.0
 11
220.6868623089
 21
47.9047261214
 31
0.0
  0
LINE
  5
2BE
330
1F
100
AcDbEntity
  8
0
  6
Continuous
 62
     7
370
    18
100
AcDbLine
 10
222.8151674402
 20
49.4582735367
 30
0.0
 11
220.9834100611
 21
48.4008225102
 31
0.0
  0
LINE
  5
2BF
330
1F
100
AcDbEntity
  8
0
  6
Continuous
 62
     7
370
    18
100
AcDbLine
 10
222.8151674402
 20
49.4582735367
 30
0.0
 11
222.9364774018
 21
49.3965226988
 31
0.0
  0
OLE2FRAME
  5
2C0
330
1F
100
AcDbEntity
  8
0
100
AcDbOle2Frame
 70
     2
  3
Paintbrush-Bild
 10
13.8511154363
 20
38.264191557
 30
0.0
 11
51.6290888628
 21
31.9806341108
 31
0.0
 71
     2
 72
     0
 73
     1
 90
    12928
310
80552BED0767C5B32B40DDAF6807D121434000000000000000006FFBDDFB85D0
310
4940DDAF6807D121434000000000000000006FFBDDFB85D04940416F4BD60AFB
310
3F4000000000000000002BED0767C5B32B40416F4BD60AFB3F40000000000000
310
0000000000000100000000010000010000000100000000000100000000320000
310
D0CF11E0A1B11AE1000000000000000000000000000000003E000300FEFF0900
310
0600000000000000000000000100000001000000000000000010000002000000
310
01000000FEFFFFFF0000000000000000FFFFFFFFFFFFFFFFFFFFFFFFFFFFFFFF
310
FFFFFFFFFFFFFFFFFFFFFFFFFFFFFFFFFFFFFFFFFFFFFFFFFFFFFFFFFFFFFFFF
310
FFFFFFFFFFFFFFFFFFFFFFFFFFFFFFFFFFFFFFFFFFFFFFFFFFFFFFFFFFFFFFFF
310
FFFFFFFFFFFFFFFFFFFFFFFFFFFFFFFFFFFFFFFFFFFFFFFFFFFFFFFFFFFFFFFF
310
FFFFFFFFFFFFFFFFFFFFFFFFFFFFFFFFFFFFFFFFFFFFFFFFFFFFFFFFFFFFFFFF
310
FFFFFFFFFFFFFFFFFFFFFFFFFFFFFFFFFFFFFFFFFFFFFFFFFFFFFFFFFFFFFFFF
310
FFFFFFFFFFFFFFFFFFFFFFFFFFFFFFFFFFFFFFFFFFFFFFFFFFFFFFFFFFFFFFFF
310
FFFFFFFFFFFFFFFFFFFFFFFFFFFFFFFFFFFFFFFFFFFFFFFFFFFFFFFFFFFFFFFF
310
FFFFFFFFFFFFFFFFFFFFFFFFFFFFFFFFFFFFFFFFFFFFFFFFFFFFFFFFFFFFFFFF
310
FFFFFFFFFFFFFFFFFFFFFFFFFFFFFFFFFFFFFFFFFFFFFFFFFFFFFFFFFFFFFFFF
310
FFFFFFFFFFFFFFFFFFFFFFFFFFFFFFFFFFFFFFFFFFFFFFFFFFFFFFFFFFFFFFFF
310
FFFFFFFFFFFFFFFFFFFFFFFFFFFFFFFFFFFFFFFFFFFFFFFFFFFFFFFFFFFFFFFF
310
FFFFFFFFFFFFFFFFFFFFFFFFFFFFFFFFFFFFFFFFFFFFFFFFFFFFFFFFFFFFFFFF
310
FFFFFFFFFFFFFFFFFFFFFFFFFFFFFFFFFFFFFFFFFFFFFFFFFFFFFFFFFFFFFFFF
310
FDFFFFFFFEFFFFFFFEFFFFFFFEFFFFFF05000000060000000700000008000000
310
090000000A0000000B0000000C0000000D0000000E0000000F00000010000000
310
11000000120000001300000014000000150000001600000017000000FEFFFFFF
310
FFFFFFFFFFFFFFFFFFFFFFFFFFFFFFFFFFFFFFFFFFFFFFFFFFFFFFFFFFFFFFFF
310
FFFFFFFFFFFFFFFFFFFFFFFFFFFFFFFFFFFFFFFFFFFFFFFFFFFFFFFFFFFFFFFF
310
FFFFFFFFFFFFFFFFFFFFFFFFFFFFFFFFFFFFFFFFFFFFFFFFFFFFFFFFFFFFFFFF
310
FFFFFFFFFFFFFFFFFFFFFFFFFFFFFFFFFFFFFFFFFFFFFFFFFFFFFFFFFFFFFFFF
310
FFFFFFFFFFFFFFFFFFFFFFFFFFFFFFFFFFFFFFFFFFFFFFFFFFFFFFFFFFFFFFFF
310
FFFFFFFFFFFFFFFFFFFFFFFFFFFFFFFFFFFFFFFFFFFFFFFFFFFFFFFFFFFFFFFF
310
FFFFFFFFFFFFFFFFFFFFFFFFFFFFFFFFFFFFFFFFFFFFFFFFFFFFFFFFFFFFFFFF
310
FFFFFFFFFFFFFFFFFFFFFFFFFFFFFFFFFFFFFFFFFFFFFFFFFFFFFFFFFFFFFFFF
310
FFFFFFFFFFFFFFFFFFFFFFFFFFFFFFFFFFFFFFFFFFFFFFFFFFFFFFFFFFFFFFFF
310
FFFFFFFFFFFFFFFFFFFFFFFFFFFFFFFFFFFFFFFFFFFFFFFFFFFFFFFFFFFFFFFF
310
FFFFFFFFFFFFFFFFFFFFFFFFFFFFFFFFFFFFFFFFFFFFFFFFFFFFFFFFFFFFFFFF
310
FFFFFFFFFFFFFFFFFFFFFFFFFFFFFFFFFFFFFFFFFFFFFFFFFFFFFFFFFFFFFFFF
310
FFFFFFFFFFFFFFFFFFFFFFFFFFFFFFFFFFFFFFFFFFFFFFFFFFFFFFFFFFFFFFFF
310
52006F006F007400200045006E00740072007900000000000000000000000000
310
0000000000000000000000000000000000000000000000000000000000000000
310
16000500FFFFFFFFFFFFFFFF020000000A00030000000000C000000000000046
310
0000000000000000000000005053A0580AA7D30103000000C000000000000000
310
01004F006C006500000000000000000000000000000000000000000000000000
310
0000000000000000000000000000000000000000000000000000000000000000
310
0A000200FFFFFFFFFFFFFFFFFFFFFFFF00000000000000000000000000000000
310
0000000000000000000000000000000000000000000000001400000000000000
310
010043006F006D0070004F0062006A0000000000000000000000000000000000
310
0000000000000000000000000000000000000000000000000000000000000000
310
120002010100000003000000FFFFFFFF00000000000000000000000000000000
310
0000000000000000000000000000000000000000010000004D00000000000000
310
01004F006C006500310030004E00610074006900760065000000000000000000
310
0000000000000000000000000000000000000000000000000000000000000000
310
1A000200FFFFFFFFFFFFFFFFFFFFFFFF00000000000000000000000000000000
310
0000000000000000000000000000000000000000040000002426000000000000
310
FEFFFFFF02000000FEFFFFFFFFFFFFFFFFFFFFFFFFFFFFFFFFFFFFFFFFFFFFFF
310
FFFFFFFFFFFFFFFFFFFFFFFFFFFFFFFFFFFFFFFFFFFFFFFFFFFFFFFFFFFFFFFF
310
FFFFFFFFFFFFFFFFFFFFFFFFFFFFFFFFFFFFFFFFFFFFFFFFFFFFFFFFFFFFFFFF
310
FFFFFFFFFFFFFFFFFFFFFFFFFFFFFFFFFFFFFFFFFFFFFFFFFFFFFFFFFFFFFFFF
310
FFFFFFFFFFFFFFFFFFFFFFFFFFFFFFFFFFFFFFFFFFFFFFFFFFFFFFFFFFFFFFFF
310
FFFFFFFFFFFFFFFFFFFFFFFFFFFFFFFFFFFFFFFFFFFFFFFFFFFFFFFFFFFFFFFF
310
FFFFFFFFFFFFFFFFFFFFFFFFFFFFFFFFFFFFFFFFFFFFFFFFFFFFFFFFFFFFFFFF
310
FFFFFFFFFFFFFFFFFFFFFFFFFFFFFFFFFFFFFFFFFFFFFFFFFFFFFFFFFFFFFFFF
310
FFFFFFFFFFFFFFFFFFFFFFFFFFFFFFFFFFFFFFFFFFFFFFFFFFFFFFFFFFFFFFFF
310
FFFFFFFFFFFFFFFFFFFFFFFFFFFFFFFFFFFFFFFFFFFFFFFFFFFFFFFFFFFFFFFF
310
FFFFFFFFFFFFFFFFFFFFFFFFFFFFFFFFFFFFFFFFFFFFFFFFFFFFFFFFFFFFFFFF
310
FFFFFFFFFFFFFFFFFFFFFFFFFFFFFFFFFFFFFFFFFFFFFFFFFFFFFFFFFFFFFFFF
310
FFFFFFFFFFFFFFFFFFFFFFFFFFFFFFFFFFFFFFFFFFFFFFFFFFFFFFFFFFFFFFFF
310
FFFFFFFFFFFFFFFFFFFFFFFFFFFFFFFFFFFFFFFFFFFFFFFFFFFFFFFFFFFFFFFF
310
FFFFFFFFFFFFFFFFFFFFFFFFFFFFFFFFFFFFFFFFFFFFFFFFFFFFFFFFFFFFFFFF
310
FFFFFFFFFFFFFFFFFFFFFFFFFFFFFFFFFFFFFFFFFFFFFFFFFFFFFFFFFFFFFFFF
310
0100000200000000000000000000000000000000000000000000000000000000
310
0000000000000000000000000000000000000000000000000000000000000000
310
0100FEFF030A0000FFFFFFFF0A00030000000000C00000000000004607000000
310
5042727573680007000000504272757368000700000050427275736800F439B2
310
7100000000000000000000000000000000000000000000000000000000000000
310
0000000000000000000000000000000000000000000000000000000000000000
310
0000000000000000000000000000000000000000000000000000000000000000
310
0000000000000000000000000000000000000000000000000000000000000000
310
0000000000000000000000000000000000000000000000000000000000000000
310
0000000000000000000000000000000000000000000000000000000000000000
310
0000000000000000000000000000000000000000000000000000000000000000
310
0000000000000000000000000000000000000000000000000000000000000000
310
0000000000000000000000000000000000000000000000000000000000000000
310
0000000000000000000000000000000000000000000000000000000000000000
310
0000000000000000000000000000000000000000000000000000000000000000
310
0000000000000000000000000000000000000000000000000000000000000000
310
20260000424D0E260000000000003E00000028000000B40200006E0000000100
310
01000000000000000000130B0000130B00000200000002000000000000FFFFFF
310
FFFFFFFFFFFFFFFFFFFFFFFFFFFFFFFFFFFFFFFFFFFFFFFFFFFFFFFFFFFFFFFF
310
FFFFFFFFFFFFFFFFFFFFFFFFFFFFFFFFFFFFFFFFFFFFFFFFFFFFFFFFFFFFFFFF
310
FFFFFFFFFFFFFFFFFFFFFFFFFFFFFFFFFFFFFFFFFFFFFFFFF000FFFFFFFFFFFF
310
FFFFFFFFFFFFFFFFFFFFFFFFFFFFFFFFFFFFFFFFFFFFFFFFFFFFFFFFFFFFFFFF
310
FFFFFFFFFFFFFFFFFFFFFFFFFFFFFFFFFFFFFFFFFFFFFFFFFFFFFFFFFFFFFFFF
310
FFFFFFFFFFFFFFFFFFFFFFFFFFFFFFFFF000FFFFFFFFFFFFFFFFFFFFFFFFFFFF
310
FFFFFFFFFFFFFFFFFFFFFFFFFFFFFFFFFFFFFFFFFFFFFFFFFFFFFFFFFFFFFFFF
310
FFFFFFFFFFFFFFFFFFFFFFFFFFFFFFFFFFFFFFFFFFFFFFFFFFFFFFFFFFFFFFFF
310
FFFFFFFFFFFFFFFFF000FFFFFFFFFFFFFFFFFFFFFFFFFFFFFFFFFFFFFFFFFFFF
310
FFFFFFFFFFFFFFFFFFFFFFFFFFFFFFFFFFFFFFFFFFFFFFFFFFFFFFFFFFFFFFFF
310
FFFFFFFFFFFFFFFFFFFFFFFFFFFFFFFFFFFFFFFFFFFFFFFFFFFFFFFFFFFFFFFF
310
F000FFFFFFFFFFFFFFFFFFFFFFFFFFFFFFFFFFFFFFFFFFFFFFFFFFFFFFFFFFFF
310
FFFFFFFFFFFFFFFFFFFFFFFFFFFFFFFFFFFFFFFFFFFFFFFFFFFFFFFFFFFFFFFF
310
FFFFFFFFFFFFFFFFFFFFFFFFFFFFFFFFFFFFFFFFFFFFFFFFF000FFFFFFFFFFFF
310
FFFFFFFFFFFFFFFFFFFFFFFFFFFFFFFFFFFFFFFFFFFFFFFFFFFFFFFFFFFFFFFF
310
FFFFFFFFFFFFFFFFFFFFFFFFFFFFFFFFFFFFFFFFFFFFFFFFFFFFFFFFFFFFFFFF
310
FFFFFFFFFFFFFFFFFFFFFFFFFFFFFFFFF000FFFFFFFFFFFFFFFFFFFFFFFFFFFF
310
FFFFFFFFFFFFFFFFFFFFFFFFFFFFFFFFFFFFFFFFFFFFFFFFFFFFFFFFFFFFFFFF
310
FFFFFFFFFFFFFFFFFFFFFFFFFFFFFFFFFFFFFFFFFFFFFFFFFFFFFFFFFFFFFFFF
310
FFFFFFFFFFFFFFFFF000FFFFFFFFFFFFFFFFFFFFFFFFFFFFFFFFFFFFFFFFFFFF
310
FFFFFFFFFFFFFFFFFFFFFFFFFFFFFFFFFFFFFFFFFFFFFFFFFFFFFFFFFFFFFFFF
310
FFFFFFFFFFFFFFFFFFFFFFFFFFFFFFFFFFFFFFFFFFFFFFFFFFFFFFFFFFFFFFFF
310
F000FFFFFFFFFFFFFFFFFFFFFFFFFFFFFFFFFFFFFFFFFFFFFFFFFFFFFFFFFFFF
310
FFFFFFFFFFFFFFFFFFFFFFFFFFFFFFFFFFFFFFFFFFFFFFFFFFFFFFFFFFFFFFFF
310
FFFFFFFFFFFFFFFFFFFFFFFFFFFFFFFFFFFFFFFFFFFFFFFFF000FFFFFFFFFFFF
310
FFFFFFFFFFFFFFFFFFFFFFFFFFFFFFFFFFFFFFFFFFFFFFFFFFFFFFFFFFFFFFFF
310
FFFFFFFFFFFFFFFFFFFFFFFFFFFFFFFFFFFFFFFFFFFFFFFFFFFFFFFFFFFFFFFF
310
FFFFFFFFFFFFFFFFFFFFFFFFFFFFFFFFF000FFFFFFFFFFFFFFFFFFFFFFFFFFFF
310
FFFFFFFFFFFFFFFFFFFFFFFFFFFFFFFFFFFFFFFFFFFFFFFFFFFFFFFFFFFFFFFF
310
FFFFFFFFFFFFFFFFFFFFFFFFFFFFFFFFFFFFFFFFFFFFFFFFFFFFFFFFFFFFFFFF
310
FFFFFFFFFFFFFFFFF000FFFFFFFFFFFFFFFFFFFFFFFFFFFFFFFFFFFFFFFFFFFF
310
FFFFFFFFFFFFFFFFFFFFFFFFFFFFFFFFFFFFFFFFFFFFFFFFFFFFFFFFFFFFFFFF
310
FFFFFFFFFFFFFFFFFFFFFFFFFFFFFFFFFFFFFFFFFFFFFFFFFFFFFFFFFFFFFFFF
310
F000FFFFFFFFFFFFFFFFFFFFFFFFFFFFFFFFFFFFFFFFFFFFFFFFFFFFFFFFFFFF
310
FFFFFFFFFFFFFFFFFFFFFFFFFFFFFFFFFFFFFFFFFFFFFFFFFFFFFFFFFFFFFFFF
310
FFFFFFFFFFFFFFFFFFFFFFFFFFFFFFFFFFFFFFFFFFFFFFFFF000FFFFFFFFFFFF
310
FFFFFFFFFFFFFFFFFFFFFFFFFFFFFFFFFFFFFFFFFFFFFFFFFFFFFFFFFFFFFFFF
310
FFFFFFFFFFFFFFFFFFFFFFFFFFFFFFFFFFFFFFFFFFFFFFFFFFFFFFFFFFFFFFFF
310
FFFFFFFFFFFFFFFFFFFFFFFFFFFFFFFFF000FFFFFFFFFFFFFFFFFFFFFFFFFFFF
310
FFFFFFFFFFFFFFFFFFFFFFFFFFFFFFFFFFFFFFFFFFFFFFFFFFFFFFFFFFFFFFFF
310
FFFFFFFFFFFFFFFFFFFFFFFFFFFFFFFFFFFFFFFFFFFFFFFFFFFFFFFFFFFFFFFF
310
FFFFFFFFFFFFFFFFF000FFFFFFFFFFFFFFFFFFFFFFFFFFFFFFFFFFFFFFFFFFFF
310
FFFFFFFFFFFFFFFFFFFFFFFFFFFFFFFFFFFFFFFFFFFFFFFFFFFFFFFFFFFFFFFF
310
FFFFFFFFFFFFFFFFFFFFFFFFFFFFFFFFFFFFFFFFFFFFFFFFFFFFFFFFFFFFFFFF
310
F000FFFFFFFFFFFFFFFFFFFFFFFFFFFFFFFFFFFFFFFFFFFFFFFFFFFFFFFFFFFF
310
FFFFFFFFFFFFFFFFFFFFFFFFFFFFFFFFFFFFFFFFFFFFFFFFFFFFFFFFFFFFFFFF
310
FFFFFFFFFFFFFFFFFFFFFFFFFFFFFFFFFFFFFFFFFFFFFFFFF000FFFFFFFFFFFF
310
FFFFFFFFFFFFFFFFFFFFFFFFFFFFFFFFFFFFFFFFFFFFFFFFFFFFFFFFFFFFFFFF
310
FFFFFFFFFFFFFFFFFFFFFFFFFFFFFFFFFFFFFFFFFFFFFFFFFFFFFFFFFFFFFFFF
310
FFFFFFFFFFFFFFFFFFFFFFFFFFFFFFFFF000FFFFFFFFFFFFFFFFFFFFFFFFFFFF
310
FFFFFFFFFFFFFFFFFFFFFFFFFFFFFFFFFFFFFFFFFFFFFFFFFFFFFFFFFFFFFFFF
310
FFFFFFFFFFFFFFFFFFFFFFFFFFFFFFFFFFFFFFFFFFFFFFFFFFFFFFFFFFFFFFFF
310
FFFFFFFFFFFFFFFFF000FFFFF80003FFFFFFFFFFFFFFFFFFFFFFFFFFFFFFFFFF
310
FFFFF00007FFFFFFFFFF00007FFFFFF800000000000000007FFFFFFFFFFFFFFF
310
FFFFFFFC001FFFFFFFFFFFFFFC001FFFFFFFFFFFFFFFFFFFFFFFFFFE0007FFFF
310
F000FFFF8000007FFFFFFFF8000FFFFFC0007FFFFF80007FFFFF0000007FFFFF
310
FFF8000007FFFFF800000000000000007FFFFFF0001FFFFFFFFFFFC00001FFFF
310
FFFFFFFFC00001FFFFFFFF000000000003FFFFE000007FFFF000FFFE0000000F
310
FFFFFFF0000FFFFF80007FFFFF80007FFFFC0000001FFFFFFFC0000001FFFFF8
310
00000000000000007FFFFFF0001FFFFFFFFFFE0000003FFFFFFFFFFE0000003F
310
FFFFFF000000000003FFFF0000000FFFF000FFF800000003FFFFFFF00007FFFF
310
80007FFFFF80007FFFF000000007FFFFFF000000003FFFF80000000000000000
310
7FFFFFF0001FFFFFFFFFF80000000FFFFFFFFFF80000000FFFFFFF0000000000
310
03FFFC00000003FFF000FFE000000000FFFFFFF00007FFFF80003FFFFF80007F
310
FFC000000001FFFFFC000000001FFFF800000000000000007FFFFFF0001FFFFF
310
FFFFE000000003FFFFFFFFE000000003FFFFFF000000000003FFF000000000FF
310
F000FF80000000007FFFFFF00007FFFF80003FFFFF80007FFF8000000000FFFF
310
F80000000007FFF800000000000000007FFFFFF0001FFFFFFFFFC000000001FF
310
FFFFFFC000000001FFFFFF000000000003FFC0000000007FF000FF0000000000
310
3FFFFFE00007FFFF00003FFFFF80007FFE00000000003FFFF00000000003FFF8
310
00000000000000007FFFFFF0001FFFFFFFFF8000000000FFFFFFFF8000000000
310
FFFFFF000000000003FF80000000003FF000FE00000000001FFFFFE00003FFFF
310
00003FFFFF80007FFC00000000001FFFE00000000001FFF8000001FFFE000000
310
7FFFFFF0001FFFFFFFFE00000000003FFFFFFE00000000003FFFFF0000000000
310
03FF00000000001FF000FC00000000000FFFFFE00003FFFF00001FFFFF80007F
310
F800000000001FFFC00000000000FFF8000001FFFE0000007FFFFFF0001FFFFF
310
FFFC00000000001FFFFFFC00000000001FFFFF000000000003FE00000000000F
310
F000F8000000000007FFFFE00003FFFF00001FFFFF80007FF800000000000FFF
310
800000000000FFF8000001FFFE0000007FFFFFF0001FFFFFFFF800000000000F
310
FFFFF800000000000FFFFF000000000003FC000000000007F000F80000000000
310
03FFFFC00003FFFE00001FFFFF80007FF0000000000007FF0000000000007FF8
310
000001FFFE0000007FFFFFF0001FFFFFFFF0000000000007FFFFF00000000000
310
07FFFF000000000003F8000000000003F000F0000000000003FFFFC00001FFFE
310
00001FFFFF80007FE0000000000007FE0000000000003FF8000001FFFE000000
310
7FFFFFF0001FFFFFFFF0000000000007FFFFF0000000000007FFFF0000000000
310
03F800001F800003F000E00001FFF00001FFFFC00001FFFE00000FFFFF80007F
310
E00001FFE00003FE00001FFF00003FF8000001FFFE0000007FFFFFF0001FFFFF
310
FFE000003E000003FFFFE000003E000003FFFF000000000003F00001FFF80001
310
F000E00007FFFC0001FFFFC00001FFFE00000FFFFF80007FC0000FFFFC0003FC
310
0000FFFFC0001FF8000001FFFE0000007FFFFFF0001FFFFFFFC00003FFE00001
310
FFFFC00003FFE00001FFFF0001FFFFFFFFF00007FFFE0001F000E0000FFFFF00
310
00FFFF800001FFFC00000FFFFF80007FC0001FFFFE0001FC0001FFFFE0001FF8
310
000001FFFE0000007FFFFFF0001FFFFFFF80000FFFF80000FFFF80000FFFF800
310
00FFFF0003FFFFFFFFE0000FFFFF8000F000C0003FFFFF8000FFFF800000FFFC
310
000007FFFF80007F80003FFFFF0001FC0003FFFFF0001FF8000001FFFE000000
310
7FFFFFF0001FFFFFFF80003FFFFE0000FFFF80003FFFFE0000FFFF0003FFFFFF
310
FFE0003FFFFF8000F000C0003FFFFF8000FFFF800000FFFC000007FFFF80007F
310
80007FFFFF8001F80007FFFFF8000FF8000001FFFE0000007FFFFFF0001FFFFF
310
FF00007FFFFF00007FFF00007FFFFF00007FFF0003FFFFFFFFE0003FFFFFC000
310
F000C0007FFFFFC000FFFF000000FFFC000007FFFF80007F8000FFFFFF8000F8
310
000FFFFFF8000FF8000001FFFE0000007FFFFFF0001FFFFFFF0000FFFFFF8000
310
7FFF0000FFFFFF80007FFF0003FFFFFFFFC0007FFFFFC00070008000FFFFFFC0
310
00FFFF000000FFF8000007FFFF80007F8000FFFFFF8000F8000FFFFFF8000FF8
310
000001FFFE0000007FFFFFF0001FFFFFFE0001FFFFFFC0003FFE0001FFFFFFC0
310
003FFF0003FFFFFFFFC0007FFFFFE00070008000FFFFFFC0007FFF0000007FF8
310
000003FFFF80007F0001FFFFFF8000F8000FFFFFF8000FF8000001FFFE000000
310
7FFFFFF0001FFFFFFE0001FFFFFFC0003FFE0001FFFFFFC0003FFF0003FFFFFF
310
FFC000FFFFFFE00070008000FFFFFFC0007FFF0000007FF8000003FFFF80007F
310
0001FFFFFF8000F8001FFFFFF8000FF8000001FFFE0000007FFFFFF0001FFFFF
310
FE0003FFFFFFE0003FFE0003FFFFFFE0003FFF0003FFFFFFFFC000FFFFFFE000
310
70008000FFFFFFC0007FFE0000007FF8000003FFFF80007F0001FFFFFF8000F0
310
001FFFFFF8000FF8000001FFFE0000007FFFFFF0001FFFFFFC0003FFFFFFE000
310
1FFC0003FFFFFFE0001FFF0003FFFFFFFFC000FFFFFFC00070008000FFFFFF80
310
007FFE0000007FF0000003FFFF80007F0001FFFFFF0000F0001FFFFFF8000FF8
310
000001FFFE0000007FFFFFF0001FFFFFFC0007FFFFFFF0001FFC0007FFFFFFF0
310
001FFF0003FFFFFFFFC000FFFFFFC00070008001FFFFFF0000FFFE0000003FF0
310
000001FFFF80007F0001FFFFFF0000F8001FFFFFF0000FF8000001FFFE000000
310
7FFFFFF0001FFFFFFC0007FFFFFFF0001FFC0007FFFFFFF0001FFF0003FFFFFF
310
FFC001FFFFFF80007000FFFFFFFFFE0000FFFE0008003FF0008001FFFF80007F
310
FFFFFFFFFC0000FFFFFFFFFFE0000FF8000001FFFE0000007FFFFFF0001FFFFF
310
F8000FFFFFFFF8000FF8000FFFFFFFF8000FFF0003FFFFFFFFFFFFFFFFFF0000
310
7000FFFFFFFFFC0000FFFC0008003FF0008001FFFF80007FFFFFFFFFF80001FF
310
FFFFFFFF80000FF8000001FFFE0000007FFFFFF0001FFFFFF8000FFFFFFFF800
310
0FF8000FFFFFFFF8000FFF0003FFFFFFFFFFFFFFFFFE0000F000FFFFFFFFE000
310
00FFFC000C003FE000C001FFFF80007FFFFFFFFFC00001FFFFFFFFFE00001FF8
310
000001FFFE0000007FFFFFF0001FFFFFF8000FFFFFFFF8000FF8000FFFFFFFF8
310
000FFF0003FFFFFFFFFFFFFFFFF00000F000FFFFFFFE000001FFFC000C001FE0
310
00C000FFFF80007FFFFFFFFE000001FFFFFFFFE000001FF80FFFFFFFFFFFFFC0
310
7FFFFFF0001FFFFFF8000FFFFFFFF8000FF8000FFFFFFFF8000FFF0003FFFFFF
310
FFFFFFFFFF800000F000FFFFFFC0000001FFFC001C001FE001C000FFFF80007F
310
FFFFFF80000003FFFFFFF80000001FF80FFFFFFFFFFFFFC07FFFFFF0001FFFFF
310
F8001FFFFFFFFC000FF8001FFFFFFFFC000FFF0003FFFFFFFFFFFFFFF0000001
310
F000FFFFF800000001FFF8001C001FE001C000FFFF80007FFFFFF800000003FF
310
FFFF800000003FF80FFFFFFFFFFFFFC07FFFFFF0001FFFFFF8001FFFFFFFFC00
310
0FF8001FFFFFFFFC000FFF0003FFFFFFFFFFFFFE00000001F000FFFFC0000000
310
03FFF8001E001FC001E000FFFF80007FFFFF8000000007FFFFFC000000003FF8
310
0FFFFFFFFFFFFFC07FFFFFF0001FFFFFF8001FFFFFFFFC000FF8001FFFFFFFFC
310
000FFF0003FFFFFFFFFFFFE000000003F000FFFE0000000007FFF8001E000FC0
310
01E0007FFF80007FFFFE0000000007FFFFE0000000007FF80FFFFFFFFFFFFFC0
310
7FFFFFF0001FFFFFF0001FFFFFFFFC0007F0001FFFFFFFFC0007FF0003FFFFFF
310
FFFFFF0000000003F000FFF80000000007FFF8001E000FC003E0007FFF80007F
310
FFF0000000000FFFFF8000000000FFF80FFFFFFFFFFFFFC07FFFFFF0001FFFFF
310
F0001FFFFFFFFC0007F0001FFFFFFFFC0007FF0003FFFFFFFFFFFC0000000007
310
F000FFE0000000000FFFF0003E000FC003E0007FFF80007FFFC0000000001FFF
310
FE0000000001FFF80FFFFFFFFFFFFFC07FFFFFF0001FFFFFF0001FFFFFFFFC00
310
07F0001FFFFFFFFC0007FF0003FFFFFFFFFFF0000000000FF000FFC000000000
310
1FFFF0003F000F8003F0003FFF80007FFF80000000003FFFF80000000003FFF8
310
0FFFFFFFFFFFFFC07FFFFFF0001FFFFFF0001FFFFFFFFC0007F0001FFFFFFFFC
310
0007FF0003FFFFFFFFFFE0000000001FF000FF00000000007FFFF0003F000780
310
03F0003FFF80007FFF00000000007FFFF00000000007FFF80FFFFFFFFFFFFFC0
310
7FFFFFF0001FFFFFF0001FFFFFFFFC0007F0001FFFFFFFFC0007FF0003FFFFFF
310
FFFF80000000007FF000FE0000000000FFFFE0003F00078007F0003FFF80007F
310
FE0000000001FFFFE0000000001FFFF80FFFFFFFFFFFFFC07FFFFFF0001FFFFF
310
F0001FFFFFFFFC0007F0001FFFFFFFFC0007FF0003FFFFFFFFFF0000000000FF
310
F000FC0000000003FFFFE0007F00078007F0003FFF80007FFC0000000007FFFF
310
C0000000007FFFF80FFFFFFFFFFFFFC07FFFFFF0001FFFFFF8001FFFFFFFFC00
310
0FF8001FFFFFFFFC000FFF0003FFFFFFFFFE0000000003FFF000FC000000000F
310
FFFFE0007F80070007F8001FFF80007FF8000000001FFFFF8000000001FFFFF8
310
0FFFFFFFFFFFFFC07FFFFFF0001FFFFFF8001FFFFFFFFC000FF8001FFFFFFFFC
310
000FFF0003FFFFFFFFFC000000000FFFF000F8000000007FFFFFE0007F800700
310
07F8001FFF80007FF000000000FFFFFF800000000FFFFFF80FFFFFFFFFFFFFC0
310
7FFFFFF0001FFFFFF8000FFFFFFFF8000FF8000FFFFFFFF8000FFF0003FFFFFF
310
FFFC000000007FFFF000F800000007FFFFFFC0007F8003000FF8001FFF80007F
310
F000000007FFFFFF000000007FFFFFF80FFFFFFFFFFFFFC07FFFFFF0001FFFFF
310
F8000FFFFFFFF8000FF8000FFFFFFFF8000FFF0003FFFFFFFFF80000000FFFFF
310
F000F0000000FFFFFFFFC000FF8003000FF8001FFF80007FE0000000FFFFFFFF
310
0000000FFFFFFFF8000001FFFE0000007FFFFFF0001FFFFFF8000FFFFFFFF800
310
0FF8000FFFFFFFF8000FFF0003FFFFFFFFF8000000FFFFFFF000F000000FFFFF
310
FFFFC000FFC002000FF8000FFF80007FE000001FFFFFFFFE000001FFFFFFFFF8
310
000001FFFE0000007FFFFFF0001FFFFFF8000FFFFFFFF8000FF8000FFFFFFFF8
310
000FFF0003FFFFFFFFF000001FFFFFFFF000E00000FFFFFFFFFFC000FFC00200
310
0FFC000FFF80007FE00001FFFFFFFFFE00001FFFFFFFFFF8000001FFFE000000
310
7FFFFFF0001FFFFFFC000FFFFFFFF8001FFC000FFFFFFFF8001FFF0003FFFFFF
310
FFF00001FFFFFFFFF000E00007FFFFFFFFFF8000FFC000001FFC000FFF80007F
310
C0000FFFFFFFFFFE0000FFFFFFFFFFF8000001FFFE0000007FFFFFF0001FFFFF
310
FC0007FFFFFFF0001FFC0007FFFFFFF0001FFF0003FFFFFFFFF00007FFFFFFFF
310
F000E0001FFFFFFFFFFF8000FFC000001FFC000FFF80007FC0003FFFFFFFFFFE
310
0001FFFFFFFFFFF8000001FFFE0000007FFFFFF0001FFFFFFC0007FFFFFFF000
310
1FFC0007FFFFFFF0001FFF0003FFFFFFFFF0001FFFFFFFFFF000E0003FFFFF00
310
03FF8001FFE000001FFC0007FF80007FC0007FFFFF0007FC0003FFFFF0003FF8
310
000001FFFE0000007FFFFFF0001FFFFFFC0003FFFFFFE0001FFC0003FFFFFFE0
310
001FFF0003FFFFFFFFF0003FFFFFFFFFF000E0003FFFFF0001FF8001FFE00000
310
1FFE0007FF80007FC0007FFFFE0003FC0007FFFFE0003FF8000001FFFE000000
310
7FFFFFF0001FFFFFFE0003FFFFFFE0003FFE0003FFFFFFE0003FFF0003FFFFFF
310
FFF0003FFFFF8001F000E0003FFFFF0001FF0001FFE000001FFE0007FF80007F
310
C0007FFFFE0003FC0007FFFFE0003FF8000001FFFE0000007FFFFFF0001FFFFF
310
FE0001FFFFFFC0003FFE0001FFFFFFC0003FFF0003FFFFFFFFF0003FFFFF0001
310
F000E0003FFFFF0003FF0001FFE000003FFE0007FF80007FC0007FFFFE0003FC
310
0007FFFFE0003FF8000001FFFE0000007FFFFFF0001FFFFFFF0001FFFFFFC000
310
7FFF0001FFFFFFC0007FFF0003FFFFFFFFF0003FFFFF0001F000E0003FFFFE00
310
03FF0003FFF000003FFE0003FF80007FC0007FFFFC0003FE0007FFFFE0003FF8
310
000001FFFE0000007FFFFFF0001FFFFFFF0000FFFFFF80007FFF0000FFFFFF80
310
007FFF0003FFFFFFFFF0003FFFFF0001F000E0003FFFFE0003FF0003FFF00000
310
3FFF0003FF80007FC0007FFFFC0007FE0007FFFFC0003FF8000001FFFE000000
310
7FFFFFF0001FFFFFFF80007FFFFF0000FFFF80007FFFFF0000FFFF0003FFFFFF
310
FFF0003FFFFF0003F000E0003FFFFC0003FE0003FFF000003FFF0003FF80007F
310
E0003FFFF80007FE0003FFFFC0007FF8000001FFFE0000007FFFFFF0001FFFFF
310
FF80003FFFFE0000FFFF80003FFFFE0000FFFF0003FFFFFFFFF0001FFFFE0003
310
F000F0001FFFF80003FE0003FFF000007FFF0001FF80007FE0003FFFF00007FE
310
0001FFFF80007FF8000001FFFE0000007FFFFFF0001FFFFFFFC0000FFFF80001
310
FFFFC0000FFFF80001FFFF0003FFFFFFFFF0001FFFFC0003F000F0000FFFF000
310
07FE0007FFF800007FFF0001FF80007FE0001FFFE00007FF0000FFFE00007FF8
310
000001FFFE0000007FFFFFF0001FFFFFFFC00003FFE00001FFFFC00003FFE000
310
01FFFF0003FFFFFFFFF8000FFFF80003F000F00003FFC00007FC0007FFF80000
310
7FFF8001FF80007FF00007FF80000FFF00007FF80000FFF8000001FFFE000000
310
7F80000000000001FFE000003E000003FFFFE000003E000003FFFF0003FFFFFF
310
FFF80003FFE00007F000F800000000000FFC0007FFF800007FFF8001FF80007F
310
F000000000000FFF000000000000FFF8000001FFFE0000007F80000000000001
310
FFF0000000000007FFFFF0000000000007FFFF0003FFFFFFFFFC00007E000007
310
F000F800000000000FFC0007FFF80000FFFF8000FF80007FF800000000001FFF
310
800000000001FFF8000001FFFE0000007F80000000000001FFF800000000000F
310
FFFFF800000000000FFFFF0003FFFFFFFFFC00000000000FF000FC0000000000
310
1FFC0007FFFC0000FFFF8000FF80007FF800000000003FFFC00000000001FFF8
310
000001FFFE0000007F80000000000001FFF800000000000FFFFFF80000000000
310
0FFFFF0003FFFFFFFFFE00000000001FF000FE00000000003FF8000FFFFC0000
310
FFFF8000FF80007FFC00000000003FFFC00000000003FFF8000001FFFE000000
310
7F80000000000001FFFC00000000001FFFFFFC00000000001FFFFF0003FFFFFF
310
FFFF00000000001FF000FF00000000003FF8000FFFFC0000FFFFC000FF80007F
310
FE00000000007FFFE00000000007FFF8000001FFFE0000007F80000000000001
310
FFFE00000000003FFFFFFE00000000003FFFFF0003FFFFFFFFFF80000000003F
310
F000FF80000000007FF8000FFFFC0001FFFFC0007F80007FFF0000000000FFFF
310
F0000000000FFFF800000000000000007F80000000000001FFFF8000000000FF
310
FFFFFF8000000000FFFFFF0003FFFFFFFFFFC0000000007FF000FFC000000000
310
FFF8000FFFFE0001FFFFC0007F80007FFF8000000001FFFFF8000000001FFFF8
310
00000000000000007F80000000000001FFFFC000000001FFFFFFFFC000000001
310
FFFFFF0003FFFFFFFFFFE000000000FFF000FFE000000003FFF0001FFFFE0001
310
FFFFC0007F80007FFFC000000007FFFFFE000000003FFFF80000000000000000
310
7F80000000000001FFFFE000000003FFFFFFFFE000000003FFFFFF0003FFFFFF
310
FFFFF000000003FFF000FFF80000000FFFF0001FFFFE0001FFFFE0007F80007F
310
FFF00000000FFFFFFF00000000FFFFF800000000000000007F80000000000001
310
FFFFF80000000FFFFFFFFFF80000000FFFFFFF0003FFFFFFFFFFFC0000000FFF
310
F000FFFE0000003FFFF0001FFFFE0003FFFFE0003F80007FFFFC0000003FFFFF
310
FFC0000003FFFFF800000000000000007F80000000000001FFFFFE0000003FFF
310
FFFFFFFE0000003FFFFFFF0003FFFFFFFFFFFF0000003FFFF000FFFF800000FF
310
FFF0001FFFFF0003FFFFE0003F80007FFFFF000001FFFFFFFFF800001FFFFFF8
310
00000000000000007F80000000000001FFFFFFC00001FFFFFFFFFFFFC00001FF
310
FFFFFF0003FFFFFFFFFFFFC00000FFFFF000FFFFF8000FFFFFFFFFFFFFFFFFFF
310
FFFFFFFFFFFFFFFFFFFFF0001FFFFFFFFFFF0000FFFFFFF80000000000000000
310
7FFFFFFFFFFFFFFFFFFFFFFC001FFFFFFFFFFFFFFC001FFFFFFFFFFFFFFFFFFF
310
FFFFFFFC001FFFFFF000FFFFFFFFFFFFFFFFFFFFFFFFFFFFFFFFFFFFFFFFFFFF
310
FFFFFFFFFFFFFFFFFFFFFFFFFFFFFFFFFFFFFFFFFFFFFFFFFFFFFFFFFFFFFFFF
310
FFFFFFFFFFFFFFFFFFFFFFFFFFFFFFFFFFFFFFFFFFFFFFFFFFFFFFFFFFFFFFFF
310
F000FFFFFFFFFFFFFFFFFFFFFFFFFFFFFFFFFFFFFFFFFFFFFFFFFFFFFFFFFFFF
310
FFFFFFFFFFFFFFFFFFFFFFFFFFFFFFFFFFFFFFFFFFFFFFFFFFFFFFFFFFFFFFFF
310
FFFFFFFFFFFFFFFFFFFFFFFFFFFFFFFFFFFFFFFFFFFFFFFFF000FFFFFFFFFFFF
310
FFFFFFFFFFFFFFFFFFFFFFFFFFFFFFFFFFFFFFFFFFFFFFFFFFFFFFFFFFFFFFFF
310
FFFFFFFFFFFFFFFFFFFFFFFFFFFFFFFFFFFFFFFFFFFFFFFFFFFFFFFFFFFFFFFF
310
FFFFFFFFFFFFFFFFFFFFFFFFFFFFFFFFF000FFFFFFFFFFFFFFFFFFFFFFFFFFFF
310
FFFFFFFFFFFFFFFFFFFFFFFFFFFFFFFFFFFFFFFFFFFFFFFFFFFFFFFFFFFFFFFF
310
FFFFFFFFFFFFFFFFFFFFFFFFFFFFFFFFFFFFFFFFFFFFFFFFFFFFFFFFFFFFFFFF
310
FFFFFFFFFFFFFFFFF000FFFFFFFFFFFFFFFFFFFFFFFFFFFFFFFFFFFFFFFFFFFF
310
FFFFFFFFFFFFFFFFFFFFFFFFFFFFFFFFFFFFFFFFFFFFFFFFFFFFFFFFFFFFFFFF
310
FFFFFFFFFFFFFFFFFFFFFFFFFFFFFFFFFFFFFFFFFFFFFFFFFFFFFFFFFFFFFFFF
310
F000FFFFFFFFFFFFFFFFFFFFFFFFFFFFFFFFFFFFFFFFFFFFFFFFFFFFFFFFFFFF
310
FFFFFFFFFFFFFFFFFFFFFFFFFFFFFFFFFFFFFFFFFFFFFFFFFFFFFFFFFFFFFFFF
310
FFFFFFFFFFFFFFFFFFFFFFFFFFFFFFFFFFFFFFFFFFFFFFFFF000FFFFFFFFFFFF
310
FFFFFFFFFFFFFFFFFFFFFFFFFFFFFFFFFFFFFFFFFFFFFFFFFFFFFFFFFFFFFFFF
310
FFFFFFFFFFFFFFFFFFFFFFFFFFFFFFFFFFFFFFFFFFFFFFFFFFFFFFFFFFFFFFFF
310
FFFFFFFFFFFFFFFFFFFFFFFFFFFFFFFFF000FFFFFFFFFFFFFFFFFFFFFFFFFFFF
310
FFFFFFFFFFFFFFFFFFFFFFFFFFFFFFFFFFFFFFFFFFFFFFFFFFFFFFFFFFFFFFFF
310
FFFFFFFFFFFFFFFFFFFFFFFFFFFFFFFFFFFFFFFFFFFFFFFFFFFFFFFFFFFFFFFF
310
FFFFFFFFFFFFFFFFF000FFFFFFFFFFFFFFFFFFFFFFFFFFFFFFFFFFFFFFFFFFFF
310
FFFFFFFFFFFFFFFFFFFFFFFFFFFFFFFFFFFFFFFFFFFFFFFFFFFFFFFFFFFFFFFF
310
FFFFFFFFFFFFFFFFFFFFFFFFFFFFFFFFFFFFFFFFFFFFFFFFFFFFFFFFFFFFFFFF
310
F000FFFFFFFFFFFFFFFFFFFFFFFFFFFFFFFFFFFFFFFFFFFFFFFFFFFFFFFFFFFF
310
FFFFFFFFFFFFFFFFFFFFFFFFFFFFFFFFFFFFFFFFFFFFFFFFFFFFFFFFFFFFFFFF
310
FFFFFFFFFFFFFFFFFFFFFFFFFFFFFFFFFFFFFFFFFFFFFFFFF000FFFFFFFFFFFF
310
FFFFFFFFFFFFFFFFFFFFFFFFFFFFFFFFFFFFFFFFFFFFFFFFFFFFFFFFFFFFFFFF
310
FFFFFFFFFFFFFFFFFFFFFFFFFFFFFFFFFFFFFFFFFFFFFFFFFFFFFFFFFFFFFFFF
310
FFFFFFFFFFFFFFFFFFFFFFFFFFFFFFFFF000FFFFFFFFFFFFFFFFFFFFFFFFFFFF
310
FFFFFFFFFFFFFFFFFFFFFFFFFFFFFFFFFFFFFFFFFFFFFFFFFFFFFFFFFFFFFFFF
310
FFFFFFFFFFFFFFFFFFFFFFFFFFFFFFFFFFFFFFFFFFFFFFFFFFFFFFFFFFFFFFFF
310
FFFFFFFFFFFFFFFFF000FFFFFFFFFFFFFFFFFFFFFFFFFFFFFFFFFFFFFFFFFFFF
310
FFFFFFFFFFFFFFFFFFFFFFFFFFFFFFFFFFFFFFFFFFFFFFFFFFFFFFFFFFFFFFFF
310
FFFFFFFFFFFFFFFFFFFFFFFFFFFFFFFFFFFFFFFFFFFFFFFFFFFFFFFFFFFFFFFF
310
F000FFFFFFFFFFFFFFFFFFFFFFFFFFFFFFFFFFFFFFFFFFFFFFFFFFFFFFFFFFFF
310
FFFFFFFFFFFFFFFFFFFFFFFFFFFFFFFFFFFFFFFFFFFFFFFFFFFFFFFFFFFFFFFF
310
FFFFFFFFFFFFFFFFFFFFFFFFFFFFFFFFFFFFFFFFFFFFFFFFF000FFFFFFFFFFFF
310
FFFFFFFFFFFFFFFFFFFFFFFFFFFFFFFFFFFFFFFFFFFFFFFFFFFFFFFFFFFFFFFF
310
FFFFFFFFFFFFFFFFFFFFFFFFFFFFFFFFFFFFFFFFFFFFFFFFFFFFFFFFFFFFFFFF
310
FFFFFFFFFFFFFFFFFFFFFFFFFFFFFFFFF000FFFFFFFFFFFFFFFFFFFFFFFFFFFF
310
FFFFFFFFFFFFFFFFFFFFFFFFFFFFFFFFFFFFFFFFFFFFFFFFFFFFFFFFFFFFFFFF
310
FFFFFFFFFFFFFFFFFFFFFFFFFFFFFFFFFFFFFFFFFFFFFFFFFFFFFFFFFFFFFFFF
310
FFFFFFFFFFFFFFFFF000FFFFFFFFFFFFFFFFFFFFFFFFFFFFFFFFFFFFFFFFFFFF
310
FFFFFFFFFFFFFFFFFFFFFFFFFFFFFFFFFFFFFFFFFFFFFFFFFFFFFFFFFFFFFFFF
310
FFFFFFFFFFFFFFFFFFFFFFFFFFFFFFFFFFFFFFFFFFFFFFFFFFFFFFFFFFFFFFFF
310
F000FFFFFFFFFFFFFFFFFFFFFFFFFFFFFFFFFFFFFFFFFFFFFFFFFFFFFFFFFFFF
310
FFFFFFFFFFFFFFFFFFFFFFFFFFFFFFFFFFFFFFFFFFFFFFFFFFFFFFFFFFFFFFFF
310
FFFFFFFFFFFFFFFFFFFFFFFFFFFFFFFFFFFFFFFFFFFFFFFFF000FFFFFFFFFFFF
310
FFFFFFFFFFFFFFFFFFFFFFFFFFFFFFFFFFFFFFFFFFFFFFFFFFFFFFFFFFFFFFFF
310
FFFFFFFFFFFFFFFFFFFFFFFFFFFFFFFFFFFFFFFFFFFFFFFFFFFFFFFFFFFFFFFF
310
FFFFFFFFFFFFFFFFFFFFFFFFFFFFFFFFF000FFFFFFFFFFFFFFFFFFFFFFFFFFFF
310
FFFFFFFFFFFFFFFFFFFFFFFFFFFFFFFFFFFFFFFFFFFFFFFFFFFFFFFFFFFFFFFF
310
FFFFFFFFFFFFFFFFFFFFFFFFFFFFFFFFFFFFFFFFFFFFFFFFFFFFFFFFFFFFFFFF
310
FFFFFFFFFFFFFFFFF000FFFFFFFFFFFFFFFFFFFFFFFFFFFFFFFFFFFFFFFFFFFF
310
FFFFFFFFFFFFFFFFFFFFFFFFFFFFFFFFFFFFFFFFFFFFFFFFFFFFFFFFFFFFFFFF
310
FFFFFFFFFFFFFFFFFFFFFFFFFFFFFFFFFFFFFFFFFFFFFFFFFFFFFFFFFFFFFFFF
310
F000FFFFFFFFFFFFFFFFFFFFFFFFFFFFFFFFFFFFFFFFFFFFFFFFFFFFFFFFFFFF
310
FFFFFFFFFFFFFFFFFFFFFFFFFFFFFFFFFFFFFFFFFFFFFFFFFFFFFFFFFFFFFFFF
310
FFFFFFFFFFFFFFFFFFFFFFFFFFFFFFFFFFFFFFFFFFFFFFFFF000FFFFFFFFFFFF
310
FFFFFFFFFFFFFFFFFFFFFFFFFFFFFFFFFFFFFFFFFFFFFFFFFFFFFFFFFFFFFFFF
310
FFFFFFFFFFFFFFFFFFFFFFFFFFFFFFFFFFFFFFFFFFFFFFFFFFFFFFFFFFFFFFFF
310
FFFFFFFFFFFFFFFFFFFFFFFFFFFFFFFFF0000000000000000000000000000000
310
0000000000000000000000000000000000000000000000000000000000000000
310
0000000000000000000000000000000000000000000000000000000000000000
310
0000000000000000000000000000000000000000000000000000000000000000
310
0000000000000000000000000000000000000000000000000000000000000000
310
0000000000000000000000000000000000000000000000000000000000000000
310
0000000000000000000000000000000000000000000000000000000000000000
310
0000000000000000000000000000000000000000000000000000000000000000
310
0000000000000000000000000000000000000000000000000000000000000000
310
0000000000000000000000000000000000000000000000000000000000000000
310
0000000000000000000000000000000000000000000000000000000000000000
310
0000000000000000000000000000000000000000000000000000000000000000
310
0000000000000000000000000000000000000000000000000000000000000000
310
0000000000000000000000000000000000000000000000000000000000000000
310
0000000000000000000000000000000000000000000000000000000000000000
310
0000000000000000000000000000000000000000000000000000000000000000
  1
OLE
  0
ENDSEC
  0
SECTION
  2
OBJECTS
  0
DICTIONARY
  5
C
330
0
100
AcDbDictionary
281
     1
  3
ACAD_GROUP
350
D
  3
ACAD_LAYOUT
350
1A
  3
ACAD_MLINESTYLE
350
17
  3
ACAD_PLOTSETTINGS
350
19
  3
ACAD_PLOTSTYLENAME
350
E
  3
ACAD_SCALELIST
350
47
  0
DICTIONARY
  5
D
102
{ACAD_REACTORS
330
C
102
}
330
C
100
AcDbDictionary
281
     1
  0
DICTIONARY
  5
1A
102
{ACAD_REACTORS
330
C
102
}
330
C
100
AcDbDictionary
281
     1
  3
Layout1
350
1E
  3
Layout2
350
26
  3
Model
350
22
  0
DICTIONARY
  5
17
102
{ACAD_REACTORS
330
C
102
}
330
C
100
AcDbDictionary
281
     1
  3
Standard
350
18
  0
DICTIONARY
  5
19
102
{ACAD_REACTORS
330
C
102
}
330
C
100
AcDbDictionary
281
     1
  0
ACDBDICTIONARYWDFLT
  5
E
102
{ACAD_REACTORS
330
C
102
}
330
C
100
AcDbDictionary
281
     1
  3
Normal
350
F
100
AcDbDictionaryWithDefault
340
F
  0
DICTIONARY
  5
47
102
{ACAD_REACTORS
330
C
102
}
330
C
100
AcDbDictionary
281
     1
  3
A0
350
48
  3
A1
350
49
  3
A2
350
4A
  3
A3
350
4B
  3
A4
350
4C
  3
A5
350
4D
  3
A6
350
4E
  3
A7
350
4F
  3
A8
350
50
  3
A9
350
51
  3
B0
350
52
  3
B1
350
53
  3
B2
350
54
  3
B3
350
55
  3
B4
350
56
  3
B5
350
57
  3
B6
350
58
  3
B7
350
59
  3
B8
350
5A
  3
B9
350
5B
  3
C0
350
5C
  3
C1
350
5D
  3
C2
350
5E
  3
C3
350
5F
  3
C4
350
60
  3
C5
350
61
  3
C6
350
62
  3
C7
350
63
  3
C8
350
64
  3
C9
350
65
  3
D0
350
66
  3
D1
350
67
  3
D2
350
68
  0
LAYOUT
  5
1E
102
{ACAD_REACTORS
330
1A
102
}
330
1A
100
AcDbPlotSettings
  1

  2
none_device
  4

  6

 40
0.0
 41
0.0
 42
0.0
 43
0.0
 44
0.0
 45
0.0
 46
0.0
 47
0.0
 48
0.0
 49
0.0
140
0.0
141
0.0
142
1.0
143
1.0
 70
   688
 72
     1
 73
     0
 74
     5
  7

 75
    16
147
1.0
148
0.0
149
0.0
100
AcDbLayout
  1
Layout1
 70
     1
 71
     1
 10
0.0
 20
0.0
 11
420.0
 21
297.0
 12
0.0
 22
0.0
 32
0.0
 14
1.0000000000E+20
 24
1.0000000000E+20
 34
1.0000000000E+20
 15
-1.0000000000E+20
 25
-1.0000000000E+20
 35
-1.0000000000E+20
146
0.0
 13
0.0
 23
0.0
 33
0.0
 16
1.0
 26
0.0
 36
0.0
 17
0.0
 27
1.0
 37
0.0
 76
     0
330
1B
  0
LAYOUT
  5
26
102
{ACAD_REACTORS
330
1A
102
}
330
1A
100
AcDbPlotSettings
  1

  2
none_device
  4

  6

 40
0.0
 41
0.0
 42
0.0
 43
0.0
 44
0.0
 45
0.0
 46
0.0
 47
0.0
 48
0.0
 49
0.0
140
0.0
141
0.0
142
1.0
143
1.0
 70
   688
 72
     1
 73
     0
 74
     5
  7

 75
    16
147
1.0
148
0.0
149
0.0
100
AcDbLayout
  1
Layout2
 70
     1
 71
     2
 10
0.0
 20
0.0
 11
0.0
 21
0.0
 12
0.0
 22
0.0
 32
0.0
 14
0.0
 24
0.0
 34
0.0
 15
0.0
 25
0.0
 35
0.0
146
0.0
 13
0.0
 23
0.0
 33
0.0
 16
1.0
 26
0.0
 36
0.0
 17
0.0
 27
1.0
 37
0.0
 76
     0
330
23
  0
LAYOUT
  5
22
102
{ACAD_REACTORS
330
1A
102
}
330
1A
100
AcDbPlotSettings
  1

  2
none_device
  4
Letter_(8.50_x_11.00_Inches)
  6

 40
6.35
 41
6.35
 42
6.35000508
 43
6.35000508
 44
215.9
 45
279.4
 46
0.0
 47
0.0
 48
0.0
 49
0.0
140
0.0
141
0.0
142
1.0
143
1.0
 70
  1712
 72
     1
 73
     0
 74
     0
  7

 75
     0
147
1.0
148
0.0
149
0.0
100
AcDbLayout
  1
Model
 70
     1
 71
     0
 10
0.0
 20
0.0
 11
297.0
 21
210.0
 12
0.0
 22
0.0
 32
0.0
 14
0.0
 24
0.0
 34
0.0
 15
297.0
 25
210.0
 35
0.0
146
0.0
 13
0.0
 23
0.0
 33
0.0
 16
1.0
 26
0.0
 36
0.0
 17
0.0
 27
1.0
 37
0.0
 76
     0
330
1F
331
29
  0
MLINESTYLE
  5
18
102
{ACAD_REACTORS
330
17
102
}
330
17
100
AcDbMlineStyle
  2
Standard
 70
     0
  3

 62
   256
 51
90.0
 52
90.0
 71
     2
 49
0.5
 62
   256
  6
BYLAYER
 49
-0.5
 62
   256
  6
BYLAYER
  0
ACDBPLACEHOLDER
  5
F
102
{ACAD_REACTORS
330
E
102
}
330
E
  0
SCALE
  5
48
102
{ACAD_REACTORS
330
47
102
}
330
47
100
AcDbScale
 70
     0
300
1:1
140
1.0
141
1.0
290
     1
  0
SCALE
  5
49
102
{ACAD_REACTORS
330
47
102
}
330
47
100
AcDbScale
 70
     0
300
1:2
140
1.0
141
2.0
290
     0
  0
SCALE
  5
4A
102
{ACAD_REACTORS
330
47
102
}
330
47
100
AcDbScale
 70
     0
300
1:4
140
1.0
141
4.0
290
     0
  0
SCALE
  5
4B
102
{ACAD_REACTORS
330
47
102
}
330
47
100
AcDbScale
 70
     0
300
1:5
140
1.0
141
5.0
290
     0
  0
SCALE
  5
4C
102
{ACAD_REACTORS
330
47
102
}
330
47
100
AcDbScale
 70
     0
300
1:8
140
1.0
141
8.0
290
     0
  0
SCALE
  5
4D
102
{ACAD_REACTORS
330
47
102
}
330
47
100
AcDbScale
 70
     0
300
1:10
140
1.0
141
10.0
290
     0
  0
SCALE
  5
4E
102
{ACAD_REACTORS
330
47
102
}
330
47
100
AcDbScale
 70
     0
300
1:16
140
1.0
141
16.0
290
     0
  0
SCALE
  5
4F
102
{ACAD_REACTORS
330
47
102
}
330
47
100
AcDbScale
 70
     0
300
1:20
140
1.0
141
20.0
290
     0
  0
SCALE
  5
50
102
{ACAD_REACTORS
330
47
102
}
330
47
100
AcDbScale
 70
     0
300
1:30
140
1.0
141
30.0
290
     0
  0
SCALE
  5
51
102
{ACAD_REACTORS
330
47
102
}
330
47
100
AcDbScale
 70
     0
300
1:40
140
1.0
141
40.0
290
     0
  0
SCALE
  5
52
102
{ACAD_REACTORS
330
47
102
}
330
47
100
AcDbScale
 70
     0
300
1:50
140
1.0
141
50.0
290
     0
  0
SCALE
  5
53
102
{ACAD_REACTORS
330
47
102
}
330
47
100
AcDbScale
 70
     0
300
1:100
140
1.0
141
100.0
290
     0
  0
SCALE
  5
54
102
{ACAD_REACTORS
330
47
102
}
330
47
100
AcDbScale
 70
     0
300
2:1
140
2.0
141
1.0
290
     0
  0
SCALE
  5
55
102
{ACAD_REACTORS
330
47
102
}
330
47
100
AcDbScale
 70
     0
300
4:1
140
4.0
141
1.0
290
     0
  0
SCALE
  5
56
102
{ACAD_REACTORS
330
47
102
}
330
47
100
AcDbScale
 70
     0
300
8:1
140
8.0
141
1.0
290
     0
  0
SCALE
  5
57
102
{ACAD_REACTORS
330
47
102
}
330
47
100
AcDbScale
 70
     0
300
10:1
140
10.0
141
1.0
290
     0
  0
SCALE
  5
58
102
{ACAD_REACTORS
330
47
102
}
330
47
100
AcDbScale
 70
     0
300
100:1
140
100.0
141
1.0
290
     0
  0
SCALE
  5
59
102
{ACAD_REACTORS
330
47
102
}
330
47
100
AcDbScale
 70
     0
300
1/128" = 1'-0"
140
0.0078125
141
12.0
290
     0
  0
SCALE
  5
5A
102
{ACAD_REACTORS
330
47
102
}
330
47
100
AcDbScale
 70
     0
300
1/64" = 1'-0"
140
0.015625
141
12.0
290
     0
  0
SCALE
  5
5B
102
{ACAD_REACTORS
330
47
102
}
330
47
100
AcDbScale
 70
     0
300
1/32" = 1'-0"
140
0.03125
141
12.0
290
     0
  0
SCALE
  5
5C
102
{ACAD_REACTORS
330
47
102
}
330
47
100
AcDbScale
 70
     0
300
1/16" = 1'-0"
140
0.0625
141
12.0
290
     0
  0
SCALE
  5
5D
102
{ACAD_REACTORS
330
47
102
}
330
47
100
AcDbScale
 70
     0
300
3/32" = 1'-0"
140
0.09375
141
12.0
290
     0
  0
SCALE
  5
5E
102
{ACAD_REACTORS
330
47
102
}
330
47
100
AcDbScale
 70
     0
300
1/8" = 1'-0"
140
0.125
141
12.0
290
     0
  0
SCALE
  5
5F
102
{ACAD_REACTORS
330
47
102
}
330
47
100
AcDbScale
 70
     0
300
3/16" = 1'-0"
140
0.1875
141
12.0
290
     0
  0
SCALE
  5
60
102
{ACAD_REACTORS
330
47
102
}
330
47
100
AcDbScale
 70
     0
300
1/4" = 1'-0"
140
0.25
141
12.0
290
     0
  0
SCALE
  5
61
102
{ACAD_REACTORS
330
47
102
}
330
47
100
AcDbScale
 70
     0
300
3/8" = 1'-0"
140
0.375
141
12.0
290
     0
  0
SCALE
  5
62
102
{ACAD_REACTORS
330
47
102
}
330
47
100
AcDbScale
 70
     0
300
1/2" = 1'-0"
140
0.5
141
12.0
290
     0
  0
SCALE
  5
63
102
{ACAD_REACTORS
330
47
102
}
330
47
100
AcDbScale
 70
     0
300
3/4" = 1'-0"
140
0.75
141
12.0
290
     0
  0
SCALE
  5
64
102
{ACAD_REACTORS
330
47
102
}
330
47
100
AcDbScale
 70
     0
300
1" = 1'-0"
140
1.0
141
12.0
290
     0
  0
SCALE
  5
65
102
{ACAD_REACTORS
330
47
102
}
330
47
100
AcDbScale
 70
     0
300
1-1/2" = 1'-0"
140
1.5
141
12.0
290
     0
  0
SCALE
  5
66
102
{ACAD_REACTORS
330
47
102
}
330
47
100
AcDbScale
 70
     0
300
3" = 1'-0"
140
3.0
141
12.0
290
     0
  0
SCALE
  5
67
102
{ACAD_REACTORS
330
47
102
}
330
47
100
AcDbScale
 70
     0
300
6" = 1'-0"
140
6.0
141
12.0
290
     0
  0
SCALE
  5
68
102
{ACAD_REACTORS
330
47
102
}
330
47
100
AcDbScale
 70
     0
300
1'-0" = 1'-0"
140
12.0
141
12.0
290
     0
  0
ENDSEC
  0
EOF
