  0
SECTION
  2
HEADER
  9
$ACADVER
  1
AC1015
  9
$ACADMAINTVER
 70
     6
  9
$DWGCODEPAGE
  3
ANSI_1252
  9
$INSBASE
 10
0.0
 20
0.0
 30
0.0
  9
$EXTMIN
 10
0.0
 20
0.0
 30
0.0
  9
$EXTMAX
 10
297.0
 20
210.0
 30
0.0
  9
$LIMMIN
 10
0.0
 20
0.0
  9
$LIMMAX
 10
297.0
 20
210.0
  9
$ORTHOMODE
 70
     0
  9
$REGENMODE
 70
     1
  9
$FILLMODE
 70
     1
  9
$QTEXTMODE
 70
     0
  9
$MIRRTEXT
 70
     1
  9
$LTSCALE
 40
1.0
  9
$ATTMODE
 70
     1
  9
$TEXTSIZE
 40
2.0
  9
$TRACEWID
 40
1.0
  9
$TEXTSTYLE
  7
Standard
  9
$CLAYER
  8
0
  9
$CELTYPE
  6
ByLayer
  9
$CECOLOR
 62
   256
  9
$CELTSCALE
 40
1.0
  9
$DISPSILH
 70
     0
  9
$DIMSCALE
 40
1.0
  9
$DIMASZ
 40
3.0
  9
$DIMEXO
 40
0.0
  9
$DIMDLI
 40
3.75
  9
$DIMRND
 40
0.0
  9
$DIMDLE
 40
0.0
  9
$DIMEXE
 40
1.0
  9
$DIMTP
 40
0.0
  9
$DIMTM
 40
0.0
  9
$DIMTXT
 40
2.0
  9
$DIMCEN
 40
2.5
  9
$DIMTSZ
 40
0.0
  9
$DIMTOL
 70
     0
  9
$DIMLIM
 70
     0
  9
$DIMTIH
 70
     1
  9
$DIMTOH
 70
     1
  9
$DIMSE1
 70
     0
  9
$DIMSE2
 70
     0
  9
$DIMTAD
 70
     1
  9
$DIMZIN
 70
     0
  9
$DIMBLK
  1

  9
$DIMASO
 70
     1
  9
$DIMSHO
 70
     1
  9
$DIMPOST
  1

  9
$DIMAPOST
  1

  9
$DIMALT
 70
     0
  9
$DIMALTD
 70
     3
  9
$DIMALTF
 40
0.0393700787
  9
$DIMLFAC
 40
2.0
  9
$DIMTOFL
 70
     1
  9
$DIMTVP
 40
0.0
  9
$DIMTIX
 70
     0
  9
$DIMSOXD
 70
     0
  9
$DIMSAH
 70
     0
  9
$DIMBLK1
  1

  9
$DIMBLK2
  1

  9
$DIMSTYLE
  2
ISO-25
  9
$DIMCLRD
 70
     0
  9
$DIMCLRE
 70
     0
  9
$DIMCLRT
 70
     0
  9
$DIMTFAC
 40
1.0
  9
$DIMGAP
 40
1.524
  9
$DIMJUST
 70
     0
  9
$DIMSD1
 70
     0
  9
$DIMSD2
 70
     0
  9
$DIMTOLJ
 70
     0
  9
$DIMTZIN
 70
     0
  9
$DIMALTZ
 70
     0
  9
$DIMALTTZ
 70
     0
  9
$DIMUPT
 70
     0
  9
$DIMDEC
 70
     2
  9
$DIMTDEC
 70
     3
  9
$DIMALTU
 70
     2
  9
$DIMALTTD
 70
     3
  9
$DIMTXSTY
  7
Standard
  9
$DIMAUNIT
 70
     0
  9
$DIMADEC
 70
     2
  9
$DIMALTRND
 40
0.0
  9
$DIMAZIN
 70
     0
  9
$DIMDSEP
 70
    44
  9
$DIMATFIT
 70
     3
  9
$DIMFRAC
 70
     0
  9
$DIMLDRBLK
  1

  9
$DIMLUNIT
 70
     2
  9
$DIMLWD
 70
    -2
  9
$DIMLWE
 70
    -2
  9
$DIMTMOVE
 70
     0
  9
$LUNITS
 70
     2
  9
$LUPREC
 70
     2
  9
$SKETCHINC
 40
1.0
  9
$FILLETRAD
 40
10.0
  9
$AUNITS
 70
     0
  9
$AUPREC
 70
     2
  9
$MENU
  1
.
  9
$ELEVATION
 40
0.0
  9
$PELEVATION
 40
0.0
  9
$THICKNESS
 40
0.0
  9
$LIMCHECK
 70
     0
  9
$CHAMFERA
 40
0.0
  9
$CHAMFERB
 40
0.0
  9
$CHAMFERC
 40
0.0
  9
$CHAMFERD
 40
0.0
  9
$SKPOLY
 70
     0
  9
$TDCREATE
 40
2458166.437803333
  9
$TDUCREATE
 40
2458166.396136667
  9
$TDUPDATE
 40
2458166.437806505
  9
$TDUUPDATE
 40
2458166.396139838
  9
$TDINDWG
 40
0.0000000116
  9
$TDUSRTIMER
 40
0.0000000116
  9
$USRTIMER
 70
     1
  9
$ANGBASE
 50
0.0
  9
$ANGDIR
 70
     0
  9
$PDMODE
 70
     0
  9
$PDSIZE
 40
-1.0
  9
$PLINEWID
 40
0.0
  9
$SPLFRAME
 70
     0
  9
$SPLINETYPE
 70
     6
  9
$SPLINESEGS
 70
     8
  9
$HANDSEED
  5
2BD
  9
$SURFTAB1
 70
     6
  9
$SURFTAB2
 70
     6
  9
$SURFTYPE
 70
     6
  9
$SURFU
 70
     6
  9
$SURFV
 70
     6
  9
$UCSBASE
  2

  9
$UCSNAME
  2

  9
$UCSORG
 10
0.0
 20
0.0
 30
0.0
  9
$UCSXDIR
 10
1.0
 20
0.0
 30
0.0
  9
$UCSYDIR
 10
0.0
 20
1.0
 30
0.0
  9
$UCSORTHOREF
  2

  9
$UCSORTHOVIEW
 70
     0
  9
$UCSORGTOP
 10
0.0
 20
0.0
 30
0.0
  9
$UCSORGBOTTOM
 10
0.0
 20
0.0
 30
0.0
  9
$UCSORGLEFT
 10
0.0
 20
0.0
 30
0.0
  9
$UCSORGRIGHT
 10
0.0
 20
0.0
 30
0.0
  9
$UCSORGFRONT
 10
0.0
 20
0.0
 30
0.0
  9
$UCSORGBACK
 10
0.0
 20
0.0
 30
0.0
  9
$PUCSBASE
  2

  9
$PUCSNAME
  2

  9
$PUCSORG
 10
0.0
 20
0.0
 30
0.0
  9
$PUCSXDIR
 10
1.0
 20
0.0
 30
0.0
  9
$PUCSYDIR
 10
0.0
 20
1.0
 30
0.0
  9
$PUCSORTHOREF
  2

  9
$PUCSORTHOVIEW
 70
     0
  9
$PUCSORGTOP
 10
0.0
 20
0.0
 30
0.0
  9
$PUCSORGBOTTOM
 10
0.0
 20
0.0
 30
0.0
  9
$PUCSORGLEFT
 10
0.0
 20
0.0
 30
0.0
  9
$PUCSORGRIGHT
 10
0.0
 20
0.0
 30
0.0
  9
$PUCSORGFRONT
 10
0.0
 20
0.0
 30
0.0
  9
$PUCSORGBACK
 10
0.0
 20
0.0
 30
0.0
  9
$USERI1
 70
     0
  9
$USERI2
 70
     0
  9
$USERI3
 70
     0
  9
$USERI4
 70
     0
  9
$USERI5
 70
     0
  9
$USERR1
 40
0.0
  9
$USERR2
 40
0.0
  9
$USERR3
 40
0.0
  9
$USERR4
 40
0.0
  9
$USERR5
 40
0.0
  9
$WORLDVIEW
 70
     1
  9
$SHADEDGE
 70
     3
  9
$SHADEDIF
 70
    70
  9
$TILEMODE
 70
     1
  9
$MAXACTVP
 70
    64
  9
$PINSBASE
 10
0.0
 20
0.0
 30
0.0
  9
$PLIMCHECK
 70
     0
  9
$PEXTMIN
 10
1.0000000000E+20
 20
1.0000000000E+20
 30
1.0000000000E+20
  9
$PEXTMAX
 10
-1.0000000000E+20
 20
-1.0000000000E+20
 30
-1.0000000000E+20
  9
$PLIMMIN
 10
0.0
 20
0.0
  9
$PLIMMAX
 10
420.0
 20
297.0
  9
$UNITMODE
 70
     0
  9
$VISRETAIN
 70
     1
  9
$PLINEGEN
 70
     0
  9
$PSLTSCALE
 70
     1
  9
$TREEDEPTH
 70
  3020
  9
$CMLSTYLE
  2
Standard
  9
$CMLJUST
 70
     0
  9
$CMLSCALE
 40
20.0
  9
$PROXYGRAPHICS
 70
     1
  9
$MEASUREMENT
 70
     1
  9
$CELWEIGHT
370
    -1
  9
$ENDCAPS
280
     0
  9
$JOINSTYLE
280
     0
  9
$LWDISPLAY
290
     1
  9
$INSUNITS
 70
     4
  9
$HYPERLINKBASE
  1

  9
$STYLESHEET
  1

  9
$XEDIT
290
     1
  9
$CEPSNTYPE
380
     0
  9
$PSTYLEMODE
290
     1
  9
$FINGERPRINTGUID
  2
{0E98DA3A-F3D9-4ED4-844C-2987B6AC829F}
  9
$VERSIONGUID
  2
{FAEB1C32-E019-11D5-929B-00C0DF256EC4}
  9
$EXTNAMES
290
     1
  9
$PSVPSCALE
 40
0.0
  9
$OLESTARTUP
290
     0
  0
ENDSEC
  0
SECTION
  2
CLASSES
  0
CLASS
  1
ACDBDICTIONARYWDFLT
  2
AcDbDictionaryWithDefault
  3
ObjectDBX Classes
 90
        0
280
     0
281
     0
  0
CLASS
  1
VISUALSTYLE
  2
AcDbVisualStyle
  3
ObjectDBX Classes
 90
     4095
280
     0
281
     0
  0
CLASS
  1
MATERIAL
  2
AcDbMaterial
  3
ObjectDBX Classes
 90
     1153
280
     0
281
     0
  0
CLASS
  1
SCALE
  2
AcDbScale
  3
ObjectDBX Classes
 90
     1153
280
     0
281
     0
  0
CLASS
  1
TABLESTYLE
  2
AcDbTableStyle
  3
ObjectDBX Classes
 90
     4095
280
     0
281
     0
  0
CLASS
  1
MLEADERSTYLE
  2
AcDbMLeaderStyle
  3
ACDB_MLEADERSTYLE_CLASS
 90
     4095
280
     0
281
     0
  0
CLASS
  1
SUN
  2
AcDbSun
  3
SCENEOE
 90
     1153
280
     0
281
     0
  0
CLASS
  1
ACDBPLACEHOLDER
  2
AcDbPlaceHolder
  3
ObjectDBX Classes
 90
        0
280
     0
281
     0
  0
CLASS
  1
LAYOUT
  2
AcDbLayout
  3
ObjectDBX Classes
 90
        0
280
     0
281
     0
  0
ENDSEC
  0
SECTION
  2
TABLES
  0
TABLE
  2
VPORT
  5
8
330
0
100
AcDbSymbolTable
 70
     1
  0
VPORT
  5
29
330
8
100
AcDbSymbolTableRecord
100
AcDbViewportTableRecord
  2
*Active
 70
     0
 10
0.0
 20
0.0
 11
1.0
 21
1.0
 12
148.5
 22
105.0
 13
0.0
 23
0.0
 14
10.0
 24
10.0
 15
10.0
 25
10.0
 16
0.0
 26
0.0
 36
1.0
 17
0.0
 27
0.0
 37
0.0
 40
210.0
 41
1.4142857143
 42
50.0
 43
0.0
 44
0.0
 50
0.0
 51
0.0
 71
     0
 72
  2000
 73
     1
 74
     3
 75
     0
 76
     0
 77
     0
 78
     0
281
     0
 65
     1
110
0.0
120
0.0
130
0.0
111
1.0
121
0.0
131
0.0
112
0.0
122
1.0
132
0.0
 79
     0
146
0.0
  0
ENDTAB
  0
TABLE
  2
LTYPE
  5
5
330
0
100
AcDbSymbolTable
 70
     6
  0
LTYPE
  5
14
330
5
100
AcDbSymbolTableRecord
100
AcDbLinetypeTableRecord
  2
ByBlock
 70
     0
  3

 72
    65
 73
     0
 40
0.0
  0
LTYPE
  5
15
330
5
100
AcDbSymbolTableRecord
100
AcDbLinetypeTableRecord
  2
ByLayer
 70
     0
  3

 72
    65
 73
     0
 40
0.0
  0
LTYPE
  5
16
330
5
100
AcDbSymbolTableRecord
100
AcDbLinetypeTableRecord
  2
Continuous
 70
     0
  3
Solid line
 72
    65
 73
     0
 40
0.0
  0
LTYPE
  5
6E
330
5
100
AcDbSymbolTableRecord
100
AcDbLinetypeTableRecord
  2
HIDDEN
 70
     0
  3
Hidden __ __ __ __ __ __ __ __ __ __ __ __ __ __
 72
    65
 73
     2
 40
1.905
 49
1.27
 74
     0
 49
-0.635
 74
     0
  0
LTYPE
  5
6F
330
5
100
AcDbSymbolTableRecord
100
AcDbLinetypeTableRecord
  2
PHANTOM
 70
     0
  3
Phantom ______  __  __  ______  __  __  ______
 72
    65
 73
     6
 40
12.7
 49
6.35
 74
     0
 49
-1.27
 74
     0
 49
1.27
 74
     0
 49
-1.27
 74
     0
 49
1.27
 74
     0
 49
-1.27
 74
     0
  0
LTYPE
  5
70
330
5
100
AcDbSymbolTableRecord
100
AcDbLinetypeTableRecord
  2
CENTER
 70
     0
  3
Center ____ _ ____ _ ____ _ ____ _ ____ _ ____
 72
    65
 73
     4
 40
10.16
 49
6.35
 74
     0
 49
-1.27
 74
     0
 49
1.27
 74
     0
 49
-1.27
 74
     0
  0
LTYPE
  5
71
330
5
100
AcDbSymbolTableRecord
100
AcDbLinetypeTableRecord
  2
CENTERX2
 70
     0
  3
Center (2x) ________  __  ________  __  _____
 72
    65
 73
     4
 40
20.32
 49
12.7
 74
     0
 49
-2.54
 74
     0
 49
2.54
 74
     0
 49
-2.54
 74
     0
  0
LTYPE
  5
72
330
5
100
AcDbSymbolTableRecord
100
AcDbLinetypeTableRecord
  2
DOT2
 70
     0
  3
Dot (.5x) ........................................
 72
    65
 73
     2
 40
0.635
 49
0.0
 74
     0
 49
-0.635
 74
     0
  0
ENDTAB
  0
TABLE
  2
LAYER
  5
2
330
0
100
AcDbSymbolTable
 70
     5
  0
LAYER
  5
10
330
2
100
AcDbSymbolTableRecord
100
AcDbLayerTableRecord
  2
0
 70
     0
 62
     7
  6
Continuous
370
    -3
390
F
  0
LAYER
  5
73
330
2
100
AcDbSymbolTableRecord
100
AcDbLayerTableRecord
  2
FORMAT
 70
     0
 62
     7
  6
Continuous
370
    -3
390
F
  0
LAYER
  5
74
330
2
100
AcDbSymbolTableRecord
100
AcDbLayerTableRecord
  2
VERMASSUNG
 70
     0
 62
     7
  6
Continuous
370
    -3
390
F
  0
LAYER
  5
75
330
2
100
AcDbSymbolTableRecord
100
AcDbLayerTableRecord
  2
KOPF_DÜNN
 70
     0
 62
     7
  6
Continuous
370
    -3
390
F
  0
LAYER
  5
76
330
2
100
AcDbSymbolTableRecord
100
AcDbLayerTableRecord
  2
KOPF_DICK
 70
     0
 62
     7
  6
Continuous
370
    25
390
F
  0
ENDTAB
  0
TABLE
  2
STYLE
  5
3
330
0
100
AcDbSymbolTable
 70
     2
  0
STYLE
  5
11
330
3
100
AcDbSymbolTableRecord
100
AcDbTextStyleTableRecord
  2
Standard
 70
     0
 40
0.0
 41
1.0
 50
0.0
 71
     0
 42
2.0
  3
txt
  4

  0
STYLE
  5
77
330
3
100
AcDbSymbolTableRecord
100
AcDbTextStyleTableRecord
  2
SLDTEXTSTYLE0
 70
     0
 40
0.0
 41
0.7
 50
0.0
 71
     0
 42
2.0
  3
TXT
  4

  0
ENDTAB
  0
TABLE
  2
VIEW
  5
6
330
0
100
AcDbSymbolTable
 70
     0
  0
ENDTAB
  0
TABLE
  2
UCS
  5
7
330
0
100
AcDbSymbolTable
 70
     0
  0
ENDTAB
  0
TABLE
  2
APPID
  5
9
330
0
100
AcDbSymbolTable
 70
     1
  0
APPID
  5
12
330
9
100
AcDbSymbolTableRecord
100
AcDbRegAppTableRecord
  2
ACAD
 70
     0
  0
ENDTAB
  0
TABLE
  2
DIMSTYLE
  5
A
330
0
100
AcDbSymbolTable
 70
     4
100
AcDbDimStyleTable
  0
DIMSTYLE
105
27
330
A
100
AcDbSymbolTableRecord
100
AcDbDimStyleTableRecord
  2
ISO-25
 70
     0
 41
2.5
 42
0.625
 43
3.75
 44
1.25
 73
     0
 74
     0
 77
     1
 78
     8
140
2.5
141
2.5
143
0.0393700787
147
0.625
171
     3
172
     1
178
     0
271
     2
272
     2
274
     3
278
    44
283
     0
284
     8
340
11
  0
DIMSTYLE
105
1F4
102
{ACAD_REACTORS
330
1F3
102
}
330
A
100
AcDbSymbolTableRecord
100
AcDbDimStyleTableRecord
  2
SLDDIMSTYLE0
 70
     0
 41
3.0
 44
0.0
 45
0.000000001
 73
     0
 74
     0
 76
     1
 77
     1
 78
    12
 79
     3
140
2.0
147
0.5
173
     1
178
     0
271
     2
272
     3
276
     2
282
     1
284
    12
340
77
  0
DIMSTYLE
105
1FE
102
{ACAD_REACTORS
330
1FD
330
217
330
221
330
22B
102
}
330
A
100
AcDbSymbolTableRecord
100
AcDbDimStyleTableRecord
  2
SLDDIMSTYLE1
 70
     0
 41
3.0
 44
0.0
 45
0.000000001
 73
     0
 74
     0
 77
     1
 78
    12
 79
     3
140
2.0
147
0.5
173
     1
178
     0
271
     2
272
     3
276
     2
284
    12
340
77
  0
DIMSTYLE
105
20A
102
{ACAD_REACTORS
330
209
102
}
330
A
100
AcDbSymbolTableRecord
100
AcDbDimStyleTableRecord
  2
SLDDIMSTYLE2
 70
     0
 41
3.0
 44
0.0
 45
0.000000001
 73
     0
 74
     0
 77
     1
 78
    12
 79
     3
140
2.0
147
0.5
173
     1
178
     0
271
     1
272
     3
276
     2
284
    12
340
77
  0
ENDTAB
  0
TABLE
  2
BLOCK_RECORD
  5
1
330
0
100
AcDbSymbolTable
 70
     7
  0
BLOCK_RECORD
  5
1F
330
1
100
AcDbSymbolTableRecord
100
AcDbBlockTableRecord
  2
*Model_Space
340
22
  0
BLOCK_RECORD
  5
1B
330
1
100
AcDbSymbolTableRecord
100
AcDbBlockTableRecord
  2
*Paper_Space
340
1E
  0
BLOCK_RECORD
  5
23
330
1
100
AcDbSymbolTableRecord
100
AcDbBlockTableRecord
  2
*Paper_Space0
340
26
  0
BLOCK_RECORD
  5
1F5
330
1
100
AcDbSymbolTableRecord
100
AcDbBlockTableRecord
  2
_D
340
0
  0
BLOCK_RECORD
  5
1FF
330
1
100
AcDbSymbolTableRecord
100
AcDbBlockTableRecord
  2
_D_1
340
0
  0
BLOCK_RECORD
  5
20B
330
1
100
AcDbSymbolTableRecord
100
AcDbBlockTableRecord
  2
_D_2
340
0
  0
BLOCK_RECORD
  5
218
330
1
100
AcDbSymbolTableRecord
100
AcDbBlockTableRecord
  2
_D_3
340
0
  0
BLOCK_RECORD
  5
222
330
1
100
AcDbSymbolTableRecord
100
AcDbBlockTableRecord
  2
_D_4
340
0
  0
BLOCK_RECORD
  5
22C
330
1
100
AcDbSymbolTableRecord
100
AcDbBlockTableRecord
  2
_D_5
340
0
  0
ENDTAB
  0
ENDSEC
  0
SECTION
  2
BLOCKS
  0
BLOCK
  5
20
330
1F
100
AcDbEntity
  8
0
100
AcDbBlockBegin
  2
*Model_Space
 70
     0
 10
0.0
 20
0.0
 30
0.0
  3
*Model_Space
  1

  0
ENDBLK
  5
21
330
1F
100
AcDbEntity
  8
0
100
AcDbBlockEnd
  0
BLOCK
  5
1C
330
1B
100
AcDbEntity
 67
     1
  8
0
100
AcDbBlockBegin
  2
*Paper_Space
 70
     0
 10
0.0
 20
0.0
 30
0.0
  3
*Paper_Space
  1

  0
ENDBLK
  5
1D
330
1B
100
AcDbEntity
 67
     1
  8
0
100
AcDbBlockEnd
  0
BLOCK
  5
24
330
23
100
AcDbEntity
  8
0
100
AcDbBlockBegin
  2
*Paper_Space0
 70
     0
 10
0.0
 20
0.0
 30
0.0
  3
*Paper_Space0
  1

  0
ENDBLK
  5
25
330
23
100
AcDbEntity
  8
0
100
AcDbBlockEnd
  0
BLOCK
  5
1F6
330
1F5
100
AcDbEntity
  8
0
100
AcDbBlockBegin
  2
_D
 70
     0
 10
0.0
 20
0.0
 30
0.0
  3
_D
  1

  0
SOLID
  5
1F8
330
1F5
100
AcDbEntity
  8
VERMASSUNG
100
AcDbTrace
 10
248.2182802055
 20
117.0193247706
 30
0.0
 11
247.7682802055
 21
114.0193247706
 31
0.0
 12
248.6682802055
 22
114.0193247706
 32
0.0
 13
248.6682802055
 23
114.0193247706
 33
0.0
  0
LINE
  5
1F9
330
1F5
100
AcDbEntity
  8
VERMASSUNG
100
AcDbLine
 10
190.7182802055
 20
117.0193247706
 30
0.0
 11
249.2182802055
 21
117.0193247706
 31
0.0
  0
LINE
  5
1FA
330
1F5
100
AcDbEntity
  8
VERMASSUNG
100
AcDbLine
 10
248.2182802055
 20
117.0193247706
 30
0.0
 11
248.2182802055
 21
105.0143247065
 31
0.0
  0
MTEXT
  5
1FB
330
1F5
100
AcDbEntity
  8
VERMASSUNG
100
AcDbMText
 10
245.6401449006
 20
105.0143247065
 30
0.0
 40
2.0
 41
0.0
 71
     1
 72
     1
  1
%%c
  7
SLDTEXTSTYLE0
 11
-7.044195017643634E-15
 21
1.0
 31
0.0
 73
     1
 44
1.0
  0
MTEXT
  5
1FC
330
1F5
100
AcDbEntity
  8
VERMASSUNG
100
AcDbMText
 10
245.4401449493
 20
108.6243247208
 30
0.0
 40
2.0
 41
0.0
 71
     1
 72
     1
  1
18
  7
SLDTEXTSTYLE0
 11
-7.044195017643634E-15
 21
1.0
 31
0.0
 73
     1
 44
1.0
  0
ENDBLK
  5
1F7
330
1F5
100
AcDbEntity
  8
0
100
AcDbBlockEnd
  0
BLOCK
  5
200
330
1FF
100
AcDbEntity
  8
0
100
AcDbBlockBegin
  2
_D_1
 70
     0
 10
0.0
 20
0.0
 30
0.0
  3
_D_1
  1

  0
SOLID
  5
202
330
1FF
100
AcDbEntity
  8
VERMASSUNG
100
AcDbTrace
 10
260.2182802055
 20
132.0193247706
 30
0.0
 11
259.7682802055
 21
129.0193247706
 31
0.0
 12
260.6682802055
 22
129.0193247706
 32
0.0
 13
260.6682802055
 23
129.0193247706
 33
0.0
  0
SOLID
  5
203
330
1FF
100
AcDbEntity
  8
VERMASSUNG
100
AcDbTrace
 10
260.2182802055
 20
84.0193247706
 30
0.0
 11
260.6682802055
 21
87.0193247706
 31
0.0
 12
259.7682802055
 22
87.0193247706
 32
0.0
 13
259.7682802055
 23
87.0193247706
 33
0.0
  0
LINE
  5
204
330
1FF
100
AcDbEntity
  8
VERMASSUNG
100
AcDbLine
 10
209.495745603
 20
132.0193247706
 30
0.0
 11
261.2182802055
 21
132.0193247706
 31
0.0
  0
LINE
  5
205
330
1FF
100
AcDbEntity
  8
VERMASSUNG
100
AcDbLine
 10
209.495745603
 20
84.0193247706
 30
0.0
 11
261.2182802055
 21
84.0193247706
 31
0.0
  0
LINE
  5
206
330
1FF
100
AcDbEntity
  8
VERMASSUNG
100
AcDbLine
 10
260.2182802055
 20
132.0193247706
 30
0.0
 11
260.2182802055
 21
84.0193247706
 31
0.0
  0
MTEXT
  5
207
330
1FF
100
AcDbEntity
  8
VERMASSUNG
100
AcDbMText
 10
257.6401449006
 20
104.7143247505
 30
0.0
 40
2.0
 41
0.0
 71
     1
 72
     1
  1
%%c
  7
SLDTEXTSTYLE0
 11
-7.044195017643634E-15
 21
1.0
 31
0.0
 73
     1
 44
1.0
  0
MTEXT
  5
208
330
1FF
100
AcDbEntity
  8
VERMASSUNG
100
AcDbMText
 10
257.4401449493
 20
108.3243247648
 30
0.0
 40
2.0
 41
0.0
 71
     1
 72
     1
  1
48
  7
SLDTEXTSTYLE0
 11
-7.044195017643634E-15
 21
1.0
 31
0.0
 73
     1
 44
1.0
  0
ENDBLK
  5
201
330
1FF
100
AcDbEntity
  8
0
100
AcDbBlockEnd
  0
BLOCK
  5
20C
330
20B
100
AcDbEntity
  8
0
100
AcDbBlockBegin
  2
_D_2
 70
     0
 10
0.0
 20
0.0
 30
0.0
  3
_D_2
  1

  0
SOLID
  5
20E
330
20B
100
AcDbEntity
  8
VERMASSUNG
100
AcDbTrace
 10
55.5907089151
 20
139.4943247706
 30
0.0
 11
55.1407089151
 21
136.4943247706
 31
0.0
 12
56.0407089151
 22
136.4943247706
 32
0.0
 13
56.0407089151
 23
136.4943247706
 33
0.0
  0
SOLID
  5
20F
330
20B
100
AcDbEntity
  8
VERMASSUNG
100
AcDbTrace
 10
55.5907089151
 20
76.5443247706
 30
0.0
 11
56.0407089151
 21
79.5443247706
 31
0.0
 12
55.1407089151
 22
79.5443247706
 32
0.0
 13
55.1407089151
 23
79.5443247706
 33
0.0
  0
LINE
  5
210
330
20B
100
AcDbEntity
  8
VERMASSUNG
100
AcDbLine
 10
133.4524780101
 20
139.4943247706
 30
0.0
 11
54.5907089151
 21
139.4943247706
 31
0.0
  0
LINE
  5
211
330
20B
100
AcDbEntity
  8
VERMASSUNG
100
AcDbLine
 10
133.4524780101
 20
76.5443247706
 30
0.0
 11
54.5907089151
 21
76.5443247706
 31
0.0
  0
LINE
  5
212
330
20B
100
AcDbEntity
  8
VERMASSUNG
100
AcDbLine
 10
55.5907089151
 20
139.4943247706
 30
0.0
 11
55.5907089151
 21
76.5443247706
 31
0.0
  0
MTEXT
  5
213
330
20B
100
AcDbEntity
  8
VERMASSUNG
100
AcDbMText
 10
52.8125736589
 20
99.9143261523
 30
0.0
 40
2.0
 41
0.0
 71
     1
 72
     1
  1
KM
  7
SLDTEXTSTYLE0
 11
-7.044195017643634E-15
 21
1.0
 31
0.0
 73
     1
 44
1.0
  0
MTEXT
  5
214
330
20B
100
AcDbEntity
  8
VERMASSUNG
100
AcDbMText
 10
53.0125736102
 20
103.3143259645
 30
0.0
 40
2.0
 41
0.0
 71
     1
 72
     1
  1
%%c
  7
SLDTEXTSTYLE0
 11
-7.044195017643634E-15
 21
1.0
 31
0.0
 73
     1
 44
1.0
  0
MTEXT
  5
215
330
20B
100
AcDbEntity
  8
VERMASSUNG
100
AcDbMText
 10
52.8125736589
 20
106.9243259788
 30
0.0
 40
2.0
 41
0.0
 71
     1
 72
     1
  1
63
  7
SLDTEXTSTYLE0
 11
-7.044195017643634E-15
 21
1.0
 31
0.0
 73
     1
 44
1.0
  0
MTEXT
  5
216
330
20B
100
AcDbEntity
  8
VERMASSUNG
100
AcDbMText
 10
52.8125736589
 20
110.911825879
 30
0.0
 40
2.0
 41
0.0
 71
     1
 72
     1
  1
XMZ
  7
SLDTEXTSTYLE0
 11
-7.044195017643634E-15
 21
1.0
 31
0.0
 73
     1
 44
1.0
  0
ENDBLK
  5
20D
330
20B
100
AcDbEntity
  8
0
100
AcDbBlockEnd
  0
BLOCK
  5
219
330
218
100
AcDbEntity
  8
0
100
AcDbBlockBegin
  2
_D_3
 70
     0
 10
0.0
 20
0.0
 30
0.0
  3
_D_3
  1

  0
SOLID
  5
21B
330
218
100
AcDbEntity
  8
VERMASSUNG
100
AcDbTrace
 10
138.2182802055
 20
149.4943247706
 30
0.0
 11
141.2182802055
 21
149.0443247706
 31
0.0
 12
141.2182802055
 22
149.9443247706
 32
0.0
 13
141.2182802055
 23
149.9443247706
 33
0.0
  0
SOLID
  5
21C
330
218
100
AcDbEntity
  8
VERMASSUNG
100
AcDbTrace
 10
220.2182802055
 20
149.4943247706
 30
0.0
 11
217.2182802055
 21
149.9443247706
 31
0.0
 12
217.2182802055
 22
149.0443247706
 32
0.0
 13
217.2182802055
 23
149.0443247706
 33
0.0
  0
LINE
  5
21D
330
218
100
AcDbEntity
  8
VERMASSUNG
100
AcDbLine
 10
138.2182802055
 20
139.4943247706
 30
0.0
 11
138.2182802055
 21
150.4943247706
 31
0.0
  0
LINE
  5
21E
330
218
100
AcDbEntity
  8
VERMASSUNG
100
AcDbLine
 10
220.2182802055
 20
125.745184249
 30
0.0
 11
220.2182802055
 21
150.4943247706
 31
0.0
  0
LINE
  5
21F
330
218
100
AcDbEntity
  8
VERMASSUNG
100
AcDbLine
 10
138.2182802055
 20
149.4943247706
 30
0.0
 11
220.2182802055
 21
149.4943247706
 31
0.0
  0
MTEXT
  5
220
330
218
100
AcDbEntity
  8
VERMASSUNG
100
AcDbMText
 10
177.8182802554
 20
152.0724603666
 30
0.0
 40
2.0
 41
0.0
 71
     1
 72
     1
  1
82
  7
SLDTEXTSTYLE0
 73
     1
 44
1.0
  0
ENDBLK
  5
21A
330
218
100
AcDbEntity
  8
0
100
AcDbBlockEnd
  0
BLOCK
  5
223
330
222
100
AcDbEntity
  8
0
100
AcDbBlockBegin
  2
_D_4
 70
     0
 10
0.0
 20
0.0
 30
0.0
  3
_D_4
  1

  0
SOLID
  5
225
330
222
100
AcDbEntity
  8
VERMASSUNG
100
AcDbTrace
 10
120.2182802055
 20
158.5228952709
 30
0.0
 11
123.2182802055
 21
158.0728952709
 31
0.0
 12
123.2182802055
 22
158.9728952709
 32
0.0
 13
123.2182802055
 23
158.9728952709
 33
0.0
  0
SOLID
  5
226
330
222
100
AcDbEntity
  8
VERMASSUNG
100
AcDbTrace
 10
220.2182802055
 20
158.5228952709
 30
0.0
 11
217.2182802055
 21
158.9728952709
 31
0.0
 12
217.2182802055
 22
158.0728952709
 32
0.0
 13
217.2182802055
 23
158.0728952709
 33
0.0
  0
LINE
  5
227
330
222
100
AcDbEntity
  8
VERMASSUNG
100
AcDbLine
 10
120.2182802055
 20
139.2943247706
 30
0.0
 11
120.2182802055
 21
159.5228952709
 31
0.0
  0
LINE
  5
228
330
222
100
AcDbEntity
  8
VERMASSUNG
100
AcDbLine
 10
220.2182802055
 20
125.745184249
 30
0.0
 11
220.2182802055
 21
159.5228952709
 31
0.0
  0
LINE
  5
229
330
222
100
AcDbEntity
  8
VERMASSUNG
100
AcDbLine
 10
120.2182802055
 20
158.5228952709
 30
0.0
 11
220.2182802055
 21
158.5228952709
 31
0.0
  0
MTEXT
  5
22A
330
222
100
AcDbEntity
  8
VERMASSUNG
100
AcDbMText
 10
168.3182801735
 20
161.1010308669
 30
0.0
 40
2.0
 41
0.0
 71
     1
 72
     1
  1
100
  7
SLDTEXTSTYLE0
 73
     1
 44
1.0
  0
ENDBLK
  5
224
330
222
100
AcDbEntity
  8
0
100
AcDbBlockEnd
  0
BLOCK
  5
22D
330
22C
100
AcDbEntity
  8
0
100
AcDbBlockBegin
  2
_D_5
 70
     0
 10
0.0
 20
0.0
 30
0.0
  3
_D_5
  1

  0
SOLID
  5
22F
330
22C
100
AcDbEntity
  8
VERMASSUNG
100
AcDbTrace
 10
220.2182802055
 20
167.4943247706
 30
0.0
 11
217.2182802055
 21
167.9443247706
 31
0.0
 12
217.2182802055
 22
167.0443247706
 32
0.0
 13
217.2182802055
 23
167.0443247706
 33
0.0
  0
SOLID
  5
230
330
22C
100
AcDbEntity
  8
VERMASSUNG
100
AcDbTrace
 10
80.2682802055
 20
167.4943247706
 30
0.0
 11
83.2682802055
 21
167.0443247706
 31
0.0
 12
83.2682802055
 22
167.9443247706
 32
0.0
 13
83.2682802055
 23
167.9443247706
 33
0.0
  0
LINE
  5
231
330
22C
100
AcDbEntity
  8
VERMASSUNG
100
AcDbLine
 10
220.2182802055
 20
125.745184249
 30
0.0
 11
220.2182802055
 21
168.4943247706
 31
0.0
  0
LINE
  5
232
330
22C
100
AcDbEntity
  8
VERMASSUNG
100
AcDbLine
 10
80.2682802055
 20
130.2224194944
 30
0.0
 11
80.2682802055
 21
168.4943247706
 31
0.0
  0
LINE
  5
233
330
22C
100
AcDbEntity
  8
VERMASSUNG
100
AcDbLine
 10
220.2182802055
 20
167.4943247706
 30
0.0
 11
80.2682802055
 21
167.4943247706
 31
0.0
  0
MTEXT
  5
234
330
22C
100
AcDbEntity
  8
VERMASSUNG
100
AcDbMText
 10
146.6432802673
 20
170.0724603666
 30
0.0
 40
2.0
 41
0.0
 71
     1
 72
     1
  1
139.95
  7
SLDTEXTSTYLE0
 73
     1
 44
1.0
  0
ENDBLK
  5
22E
330
22C
100
AcDbEntity
  8
0
100
AcDbBlockEnd
  0
ENDSEC
  0
SECTION
  2
ENTITIES
  0
MTEXT
  5
78
330
1F
100
AcDbEntity
  8
KOPF_DÜNN
100
AcDbMText
 10
13.8892156294
 20
23.8442973028
 30
0.0
 40
3.0
 41
0.0
 71
     1
 72
     1
  1
KY6.W18.K01.100
  7
SLDTEXTSTYLE0
 73
     1
 44
1.0
  0
MTEXT
  5
79
330
1F
100
AcDbEntity
  8
VERMASSUNG
100
AcDbMText
 10
13.9329988022
 20
28.8834360957
 30
0.0
 40
3.0
 41
0.0
 71
     1
 72
     1
  1
Flächenspannfutter Weldon_End mill adapter Weldon
  7
SLDTEXTSTYLE0
 73
     1
 44
1.0
  0
MTEXT
  5
7A
330
1F
100
AcDbEntity
  8
VERMASSUNG
100
AcDbMText
 10
98.8601118557
 20
13.8365368761
 30
0.0
 40
2.0
 41
0.0
 71
     1
 72
     1
  1
Datum: 16.02.2018
  7
SLDTEXTSTYLE0
 73
     1
 44
1.0
  0
MTEXT
  5
7B
330
1F
100
AcDbEntity
  8
VERMASSUNG
100
AcDbMText
 10
13.933048693
 20
18.0482802738
 30
0.0
 40
2.0
 41
0.0
 71
     1
 72
     1
  1
KM63 XMZ / Ø18
  7
SLDTEXTSTYLE0
 73
     1
 44
1.0
  0
MTEXT
  5
7C
330
1F
100
AcDbEntity
  8
VERMASSUNG
100
AcDbMText
 10
13.9808475933
 20
13.9090974274
 30
0.0
 40
2.0
 41
0.0
 71
     1
 72
     1
  1
Gewicht: 1643g
  7
SLDTEXTSTYLE0
 73
     1
 44
1.0
  0
SPLINE
  5
7D
330
1F
100
AcDbEntity
  8
0
  6
Continuous
 62
     7
370
    25
100
AcDbSpline
210
0.0
220
0.0
230
1.0
 70
     8
 71
     3
 72
     8
 73
     4
 74
     0
 42
0.000000001
 43
0.00000001
 40
0.0
 40
0.0
 40
0.0
 40
0.0
 40
1.0
 40
1.0
 40
1.0
 40
1.0
 10
397.3203718169726
 20
103.6493238986773
 30
0.0
 10
397.2515334467857
 20
103.5862292253584
 30
0.0
 10
397.1831020863297
 20
103.5225068472276
 30
0.0
 10
397.115085811665
 20
103.4581614149542
 30
0.0
  0
SPLINE
  5
7E
330
1F
100
AcDbEntity
  8
0
  6
Continuous
 62
     7
370
    25
100
AcDbSpline
210
0.0
220
0.0
230
1.0
 70
     8
 71
     3
 72
     8
 73
     4
 74
     0
 42
0.000000001
 43
0.00000001
 40
0.0
 40
0.0
 40
0.0
 40
0.0
 40
1.0
 40
1.0
 40
1.0
 40
1.0
 10
397.5783990582332
 20
103.48006206875
 30
0.0
 10
397.4916956240728
 20
103.5362229884192
 30
0.0
 10
397.405697576589
 20
103.5926477247451
 30
0.0
 10
397.3203718169726
 20
103.6493238986773
 30
0.0
  0
ARC
  5
7F
330
1F
100
AcDbEntity
  8
0
  6
Continuous
 62
     7
370
    25
100
AcDbCircle
 10
407.7095119266
 20
108.0193247706
 30
0.0
 40
11.10154736189901
100
AcDbArc
 50
204.1348482805
 51
335.8651517195
  0
SPLINE
  5
80
330
1F
100
AcDbEntity
  8
0
  6
Continuous
 62
     7
370
    25
100
AcDbSpline
210
0.0
220
0.0
230
1.0
 70
     8
 71
     3
 72
     8
 73
     4
 74
     0
 42
0.000000001
 43
0.00000001
 40
0.0
 40
0.0
 40
0.0
 40
0.0
 40
1.0
 40
1.0
 40
1.0
 40
1.0
 10
418.0986520362383
 20
103.6493238986773
 30
0.0
 10
418.0133262766219
 20
103.5926477247451
 30
0.0
 10
417.927328229138
 20
103.5362229884192
 30
0.0
 10
417.8406247949776
 20
103.48006206875
 30
0.0
  0
SPLINE
  5
81
330
1F
100
AcDbEntity
  8
0
  6
Continuous
 62
     7
370
    25
100
AcDbSpline
210
0.0
220
0.0
230
1.0
 70
     8
 71
     3
 72
     8
 73
     4
 74
     0
 42
0.000000001
 43
0.00000001
 40
0.0
 40
0.0
 40
0.0
 40
0.0
 40
1.0
 40
1.0
 40
1.0
 40
1.0
 10
418.3039380415458
 20
103.4581614149542
 30
0.0
 10
418.2359217668812
 20
103.5225068472276
 30
0.0
 10
418.1674904064251
 20
103.5862292253584
 30
0.0
 10
418.0986520362383
 20
103.6493238986773
 30
0.0
  0
ARC
  5
82
330
1F
100
AcDbEntity
  8
0
  6
Continuous
 62
     7
370
    25
100
AcDbCircle
 10
407.7095119266
 20
108.0193247706
 30
0.0
 40
11.53456006379116
100
AcDbArc
 50
203.2930774359
 51
336.7074733161
  0
ARC
  5
83
330
1F
100
AcDbEntity
  8
0
  6
Continuous
 62
     7
370
    25
100
AcDbCircle
 10
407.7095119266
 20
108.0193247706
 30
0.0
 40
11.10154736189894
100
AcDbArc
 50
29.4783538465
 51
150.5216461535
  0
SPLINE
  5
84
330
1F
100
AcDbEntity
  8
0
  6
Continuous
 62
     7
370
    25
100
AcDbSpline
210
0.0
220
0.0
230
1.0
 70
     8
 71
     3
 72
     8
 73
     4
 74
     0
 42
0.000000001
 43
0.00000001
 40
0.0
 40
0.0
 40
0.0
 40
0.0
 40
1.0
 40
1.0
 40
1.0
 40
1.0
 10
397.733578877281
 20
113.2976240200314
 30
0.0
 10
397.8364747911049
 20
113.3595926291223
 30
0.0
 10
397.9403144606598
 20
113.4211712812629
 30
0.0
 10
398.0451523488864
 20
113.4823374725344
 30
0.0
  0
SPLINE
  5
85
330
1F
100
AcDbEntity
  8
0
  6
Continuous
 62
     7
370
    25
100
AcDbSpline
210
0.0
220
0.0
230
1.0
 70
     8
 71
     3
 72
     8
 73
     4
 74
     0
 42
0.000000001
 43
0.00000001
 40
0.0
 40
0.0
 40
0.0
 40
0.0
 40
1.0
 40
1.0
 40
1.0
 40
1.0
 10
397.5450424961671
 20
113.471813840901
 30
0.0
 10
397.6076108045368
 20
113.4133633717934
 30
0.0
 10
397.6704573979006
 20
113.3552993612603
 30
0.0
 10
397.7335788772834
 20
113.2976240200291
 30
0.0
  0
ARC
  5
86
330
1F
100
AcDbEntity
  8
0
  6
Continuous
 62
     7
370
    25
100
AcDbCircle
 10
407.7095119266
 20
108.0193247706
 30
0.0
 40
11.53456006379123
100
AcDbArc
 50
28.2102805322
 51
151.7902347364
  0
SPLINE
  5
87
330
1F
100
AcDbEntity
  8
0
  6
Continuous
 62
     7
370
    25
100
AcDbSpline
210
0.0
220
0.0
230
1.0
 70
     8
 71
     3
 72
     8
 73
     4
 74
     0
 42
0.000000001
 43
0.00000001
 40
0.0
 40
0.0
 40
0.0
 40
0.0
 40
1.0
 40
1.0
 40
1.0
 40
1.0
 10
417.6854449759277
 20
113.2976240200294
 30
0.0
 10
417.7485664553105
 20
113.3552993612605
 30
0.0
 10
417.8114130486742
 20
113.4133633717935
 30
0.0
 10
417.8739813570438
 20
113.471813840901
 30
0.0
  0
SPLINE
  5
88
330
1F
100
AcDbEntity
  8
0
  6
Continuous
 62
     7
370
    25
100
AcDbSpline
210
0.0
220
0.0
230
1.0
 70
     8
 71
     3
 72
     8
 73
     4
 74
     0
 42
0.000000001
 43
0.00000001
 40
0.0
 40
0.0
 40
0.0
 40
0.0
 40
1.0
 40
1.0
 40
1.0
 40
1.0
 10
417.3738715043245
 20
113.4823374725344
 30
0.0
 10
417.4787093925507
 20
113.4211712812631
 30
0.0
 10
417.5825490621052
 20
113.3595926291227
 30
0.0
 10
417.6854449759288
 20
113.297624020032
 30
0.0
  0
LINE
  5
89
330
1F
100
AcDbEntity
  8
0
  6
Continuous
 62
     7
370
    25
100
AcDbLine
 10
397.7335788773
 20
113.29762402
 30
0.0
 11
397.9419871988
 21
113.0493247706
 31
0.0
  0
LINE
  5
8A
330
1F
100
AcDbEntity
  8
0
  6
Continuous
 62
     7
370
    25
100
AcDbLine
 10
399.1922005092
 20
113.4823374725
 30
0.0
 11
398.0451523489
 21
113.4823374725
 31
0.0
  0
SPLINE
  5
8B
330
1F
100
AcDbEntity
  8
0
  6
Continuous
 62
     7
370
    25
100
AcDbSpline
210
0.0
220
0.0
230
1.0
 70
     8
 71
     3
 72
     8
 73
     4
 74
     0
 42
0.000000001
 43
0.00000001
 40
0.0000004089325119
 40
0.0000004089325119
 40
0.0000004089325119
 40
0.0000004089325119
 40
0.0015399868451459
 40
0.0015399868451459
 40
0.0015399868451459
 40
0.0015399868451459
 10
399.1922005091765
 20
113.4823374725344
 30
0.0
 10
399.403961767971
 20
113.4098825898809
 30
0.0
 10
399.6158820911612
 20
113.3375437198524
 30
0.0
 10
399.8280000743755
 20
113.2653501744266
 30
0.0
  0
LINE
  5
8C
330
1F
100
AcDbEntity
  8
0
  6
Continuous
 62
     7
370
    25
100
AcDbLine
 10
399.8280000744
 20
113.2653501744
 30
0.0
 11
399.8361528804
 21
113.2501377602
 31
0.0
  0
LINE
  5
8D
330
1F
100
AcDbEntity
  8
0
  6
Continuous
 62
     7
370
    25
100
AcDbLine
 10
399.8337823931
 20
113.0493249401
 30
0.0
 11
399.8361538782
 21
113.250137894
 31
0.0
  0
LINE
  5
8E
330
1F
100
AcDbEntity
  8
0
  6
Continuous
 62
     7
370
    25
100
AcDbLine
 10
399.8337823931
 20
113.0493247706
 30
0.0
 11
397.9419871988
 21
113.0493247706
 31
0.0
  0
SPLINE
  5
8F
330
1F
100
AcDbEntity
  8
0
  6
Continuous
 62
     7
370
    25
100
AcDbSpline
210
0.0
220
0.0
230
1.0
 70
     8
 71
     3
 72
     8
 73
     4
 74
     0
 42
0.000000001
 43
0.00000001
 40
0.0000004028655191
 40
0.0000004028655191
 40
0.0000004028655191
 40
0.0000004028655191
 40
0.0015137684369673
 40
0.0015137684369673
 40
0.0015137684369673
 40
0.0015137684369673
 10
399.2859172694633
 20
103.6970493668577
 30
0.0
 10
399.0792457819121
 20
103.6247554251431
 30
0.0
 10
398.8726268133714
 20
103.5524239391863
 30
0.0
 10
398.6660504385628
 20
103.48006206875
 30
0.0
  0
LINE
  5
90
330
1F
100
AcDbEntity
  8
0
  6
Continuous
 62
     7
370
    25
100
AcDbLine
 10
398.6660504386
 20
103.4800620687
 30
0.0
 11
397.5783990582
 21
103.4800620687
 31
0.0
  0
LINE
  5
91
330
1F
100
AcDbEntity
  8
0
  6
Continuous
 62
     7
370
    25
100
AcDbLine
 10
397.5434269238
 20
103.9130747707
 30
0.0
 11
397.320371817
 21
103.6493238987
 31
0.0
  0
LINE
  5
92
330
1F
100
AcDbEntity
  8
0
  6
Continuous
 62
     7
370
    25
100
AcDbLine
 10
399.3110367511
 20
103.9130747706
 30
0.0
 11
397.5436413812
 21
103.9130747706
 31
0.0
  0
LINE
  5
93
330
1F
100
AcDbEntity
  8
0
  6
Continuous
 62
     7
370
    25
100
AcDbLine
 10
399.3216941013
 20
103.7554937356
 30
0.0
 11
399.3110367546
 21
103.913074695
 31
0.0
  0
SPLINE
  5
94
330
1F
100
AcDbEntity
  8
0
  6
Continuous
 62
     7
370
    25
100
AcDbSpline
210
0.0
220
0.0
230
1.0
 70
     8
 71
     3
 72
     8
 73
     4
 74
     0
 42
0.000000001
 43
0.00000001
 40
0.0006523765358269
 40
0.0006523765358269
 40
0.0006523765358269
 40
0.0006523765358269
 40
0.0009043636494504
 40
0.0009043636494504
 40
0.0009043636494504
 40
0.0009043636494504
 10
399.3227941444982
 20
103.7572874643064
 30
0.0
 10
399.3104771499808
 20
103.7372118833242
 30
0.0
 10
399.2981849525767
 20
103.7171324948017
 30
0.0
 10
399.2859172694633
 20
103.6970493668577
 30
0.0
  0
LINE
  5
95
330
1F
100
AcDbEntity
  8
0
  6
Continuous
 62
     7
370
    25
100
AcDbLine
 10
418.0986520362
 20
103.6493238987
 30
0.0
 11
417.8755969294
 21
103.9130747707
 31
0.0
  0
LINE
  5
96
330
1F
100
AcDbEntity
  8
0
  6
Continuous
 62
     7
370
    25
100
AcDbLine
 10
417.840624795
 20
103.4800620687
 30
0.0
 11
416.7529734146
 21
103.4800620687
 31
0.0
  0
SPLINE
  5
97
330
1F
100
AcDbEntity
  8
0
  6
Continuous
 62
     7
370
    25
100
AcDbSpline
210
0.0
220
0.0
230
1.0
 70
     8
 71
     3
 72
     8
 73
     4
 74
     0
 42
0.000000001
 43
0.00000001
 40
0.0000004024872366
 40
0.0000004024872366
 40
0.0000004024872366
 40
0.0000004024872366
 40
0.0015137680586847
 40
0.0015137680586847
 40
0.0015137680586847
 40
0.0015137680586847
 10
416.7529734146481
 20
103.48006206875
 30
0.0
 10
416.5463970398394
 20
103.5524239391863
 30
0.0
 10
416.3397780712987
 20
103.6247554251431
 30
0.0
 10
416.1331065837475
 20
103.6970493668577
 30
0.0
  0
SPLINE
  5
98
330
1F
100
AcDbEntity
  8
0
  6
Continuous
 62
     7
370
    25
100
AcDbSpline
210
0.0
220
0.0
230
1.0
 70
     8
 71
     3
 72
     8
 73
     4
 74
     0
 42
0.000000001
 43
0.00000001
 40
0.0000002414707367
 40
0.0000002414707367
 40
0.0000002414707367
 40
0.0000002414707367
 40
0.0002447240690309
 40
0.0002447240690309
 40
0.0002447240690309
 40
0.0002447240690309
 10
416.1331065837475
 20
103.6970493668577
 30
0.0
 10
416.1212042483924
 20
103.7165343928043
 30
0.0
 10
416.1092788371807
 20
103.7360158986287
 30
0.0
 10
416.0973300918857
 20
103.7554938221405
 30
0.0
  0
LINE
  5
99
330
1F
100
AcDbEntity
  8
0
  6
Continuous
 62
     7
370
    25
100
AcDbLine
 10
416.1079870842
 20
103.913074695
 30
0.0
 11
416.0973297326
 21
103.7554937671
 31
0.0
  0
LINE
  5
9A
330
1F
100
AcDbEntity
  8
0
  6
Continuous
 62
     7
370
    25
100
AcDbLine
 10
417.8755969294
 20
103.9130747706
 30
0.0
 11
416.102878493
 21
103.9130747706
 31
0.0
  0
SPLINE
  5
9B
330
1F
100
AcDbEntity
  8
0
  6
Continuous
 62
     7
370
    25
100
AcDbSpline
210
0.0
220
0.0
230
1.0
 70
     8
 71
     3
 72
     8
 73
     4
 74
     0
 42
0.000000001
 43
0.00000001
 40
0.000000410413179
 40
0.000000410413179
 40
0.000000410413179
 40
0.000000410413179
 40
0.0015399883258131
 40
0.0015399883258131
 40
0.0015399883258131
 40
0.0015399883258131
 10
415.5910237788353
 20
113.2653501744266
 30
0.0
 10
415.8031417620497
 20
113.3375437198524
 30
0.0
 10
416.0150620852398
 20
113.4098825898809
 30
0.0
 10
416.2268233440343
 20
113.4823374725344
 30
0.0
  0
LINE
  5
9C
330
1F
100
AcDbEntity
  8
0
  6
Continuous
 62
     7
370
    25
100
AcDbLine
 10
417.3738715043
 20
113.4823374725
 30
0.0
 11
416.226823344
 21
113.4823374725
 31
0.0
  0
LINE
  5
9D
330
1F
100
AcDbEntity
  8
0
  6
Continuous
 62
     7
370
    25
100
AcDbLine
 10
417.4770366544
 20
113.0493247706
 30
0.0
 11
417.6854449759
 21
113.29762402
 31
0.0
  0
LINE
  5
9E
330
1F
100
AcDbEntity
  8
0
  6
Continuous
 62
     7
370
    25
100
AcDbLine
 10
417.4768465987
 20
113.0493247706
 30
0.0
 11
415.5852416608
 21
113.0493247706
 31
0.0
  0
LINE
  5
9F
330
1F
100
AcDbEntity
  8
0
  6
Continuous
 62
     7
370
    25
100
AcDbLine
 10
415.5828698739
 20
113.2501377054
 30
0.0
 11
415.5852413841
 21
113.0493249401
 31
0.0
  0
LINE
  5
A0
330
1F
100
AcDbEntity
  8
0
  6
Continuous
 62
     7
370
    25
100
AcDbLine
 10
415.5828708717
 20
113.2501375716
 30
0.0
 11
415.5910237788
 21
113.2653501744
 31
0.0
  0
ARC
  5
A1
330
1F
100
AcDbEntity
  8
0
  6
Continuous
 62
     7
370
    25
100
AcDbCircle
 10
407.7095119266
 20
108.0193247706
 30
0.0
 40
10.11875000000005
100
AcDbArc
 50
206.6538426687
 51
333.3461573313
  0
ARC
  5
A2
330
1F
100
AcDbEntity
  8
0
  6
Continuous
 62
     7
370
    25
100
AcDbCircle
 10
407.7095119266
 20
108.0193247706
 30
0.0
 40
10.11875000000003
100
AcDbArc
 50
32.6761561262
 51
147.3238438738
  0
ARC
  5
A3
330
1F
100
AcDbEntity
  8
0
  6
Continuous
 62
     7
370
    25
100
AcDbCircle
 10
407.7095119266
 20
108.0193247706
 30
0.0
 40
9.467788105676684
100
AcDbArc
 50
33.6481949792
 51
146.3518050208
  0
ARC
  5
A4
330
1F
100
AcDbEntity
  8
0
  6
Continuous
 62
     7
370
    25
100
AcDbCircle
 10
407.7095119266
 20
108.0193247706
 30
0.0
 40
9.467788105676709
100
AcDbArc
 50
207.1630537883
 51
332.8369462117
  0
SPLINE
  5
A5
330
1F
100
AcDbEntity
  8
0
  6
Continuous
 62
     7
370
    25
100
AcDbSpline
210
0.0
220
0.0
230
1.0
 70
     8
 71
     3
 72
     8
 73
     4
 74
     0
 42
0.000000001
 43
0.00000001
 40
0.0
 40
0.0
 40
0.0
 40
0.0
 40
1.0
 40
1.0
 40
1.0
 40
1.0
 10
397.115085811475
 20
103.4581614150655
 30
0.0
 10
397.0618429865333
 20
103.4586851413033
 30
0.0
 10
397.0085477009176
 20
103.4594832345657
 30
0.0
 10
396.9552021954281
 20
103.4605562824905
 30
0.0
  0
LINE
  5
A6
330
1F
100
AcDbEntity
  8
0
  6
Continuous
 62
     7
370
    25
100
AcDbLine
 10
397.3832897935
 20
103.9130747706
 30
0.0
 11
397.5434269238
 21
103.9130747706
 31
0.0
  0
LINE
  5
A7
330
1F
100
AcDbEntity
  8
0
  6
Continuous
 62
     7
370
    25
100
AcDbLine
 10
417.8755969294
 20
103.9130747706
 30
0.0
 11
418.0357340597
 21
103.9130747706
 31
0.0
  0
SPLINE
  5
A8
330
1F
100
AcDbEntity
  8
0
  6
Continuous
 62
     7
370
    25
100
AcDbSpline
210
0.0
220
0.0
230
1.0
 70
     8
 71
     3
 72
     8
 73
     4
 74
     0
 42
0.000000001
 43
0.00000001
 40
0.0
 40
0.0
 40
0.0
 40
0.0
 40
1.0
 40
1.0
 40
1.0
 40
1.0
 10
418.4638216577827
 20
103.4605562824905
 30
0.0
 10
418.4104761522932
 20
103.4594832345657
 30
0.0
 10
418.3571808666775
 20
103.4586851413033
 30
0.0
 10
418.3039380417359
 20
103.4581614150655
 30
0.0
  0
LINE
  5
A9
330
1F
100
AcDbEntity
  8
0
  6
Continuous
 62
     7
370
    25
100
AcDbLine
 10
397.9419871988
 20
113.0493247706
 30
0.0
 11
397.818570215
 21
113.0493247706
 31
0.0
  0
SPLINE
  5
AA
330
1F
100
AcDbEntity
  8
0
  6
Continuous
 62
     7
370
    25
100
AcDbSpline
210
0.0
220
0.0
230
1.0
 70
     8
 71
     3
 72
     8
 73
     4
 74
     0
 42
0.000000001
 43
0.00000001
 40
0.0
 40
0.0
 40
0.0
 40
0.0
 40
1.0
 40
1.0
 40
1.0
 40
1.0
 10
397.4218210019257
 20
113.4697702875785
 30
0.0
 10
397.4629364289675
 20
113.4706392252185
 30
0.0
 10
397.5040107235786
 20
113.4713202628014
 30
0.0
 10
397.5450424960677
 20
113.4718138408628
 30
0.0
  0
SPLINE
  5
AB
330
1F
100
AcDbEntity
  8
0
  6
Continuous
 62
     7
370
    25
100
AcDbSpline
210
0.0
220
0.0
230
1.0
 70
     8
 71
     3
 72
     8
 73
     4
 74
     0
 42
0.000000001
 43
0.00000001
 40
0.0
 40
0.0
 40
0.0
 40
0.0
 40
1.0
 40
1.0
 40
1.0
 40
1.0
 10
417.8739813571432
 20
113.4718138408629
 30
0.0
 10
417.9150131296323
 20
113.4713202628014
 30
0.0
 10
417.9560874242433
 20
113.4706392252185
 30
0.0
 10
417.9972028512852
 20
113.4697702875786
 30
0.0
  0
LINE
  5
AC
330
1F
100
AcDbEntity
  8
0
  6
Continuous
 62
     7
370
    25
100
AcDbLine
 10
417.6004536382
 20
113.0493247706
 30
0.0
 11
417.4770366544
 21
113.0493247706
 31
0.0
  0
SPLINE
  5
AD
330
1F
100
AcDbEntity
  8
0
  6
Continuous
 62
     7
370
    25
100
AcDbSpline
210
0.0
220
0.0
230
1.0
 70
     8
 71
     3
 72
     9
 73
     5
 74
     0
 42
0.000000001
 43
0.00000001
 40
0.0
 40
0.0
 40
0.0
 40
0.0
 40
0.4897878789203994
 40
0.9999999999999999
 40
0.9999999999999999
 40
0.9999999999999999
 40
0.9999999999999999
 10
414.8151014912568
 20
113.2424416368799
 30
0.0
 10
414.9414565734781
 20
113.2437603626332
 30
0.0
 10
415.1994357674502
 20
113.2464528052395
 30
0.0
 10
415.4533305157397
 20
113.2488928830755
 30
0.0
 10
415.5828706937954
 20
113.2501378403638
 30
0.0
  0
ARC
  5
AE
330
1F
100
AcDbEntity
  8
0
  6
Continuous
 62
     7
370
    25
100
AcDbCircle
 10
407.7095119266
 20
108.0193247706
 30
0.0
 40
8.818750000000028
100
AcDbArc
 50
36.3185452201
 51
143.6814533294
  0
SPLINE
  5
AF
330
1F
100
AcDbEntity
  8
0
  6
Continuous
 62
     7
370
    25
100
AcDbSpline
210
0.0
220
0.0
230
1.0
 70
     8
 71
     3
 72
     9
 73
     5
 74
     0
 42
0.000000001
 43
0.00000001
 40
0.0
 40
0.0
 40
0.0
 40
0.0
 40
0.5102121239851395
 40
0.9999999999999999
 40
0.9999999999999999
 40
0.9999999999999999
 40
0.9999999999999999
 10
399.8361530582907
 20
113.2501380289681
 30
0.0
 10
399.9656932761415
 20
113.2488930702772
 30
0.0
 10
400.2195881009823
 20
113.2464529897062
 30
0.0
 10
400.477567373992
 20
113.243760544013
 30
0.0
 10
400.6039224941753
 20
113.2424418167557
 30
0.0
  0
SPLINE
  5
B0
330
1F
100
AcDbEntity
  8
0
  6
Continuous
 62
     7
370
    25
100
AcDbSpline
210
0.0
220
0.0
230
1.0
 70
     8
 71
     3
 72
     8
 73
     4
 74
     0
 42
0.000000001
 43
0.00000001
 40
0.0
 40
0.0
 40
0.0
 40
0.0
 40
1.0
 40
1.0
 40
1.0
 40
1.0
 10
400.6039222405007
 20
113.2424413474785
 30
0.0
 10
400.5961611825552
 20
113.2318831122794
 30
0.0
 10
400.5884236574594
 20
113.2213075787531
 30
0.0
 10
400.5807097420899
 20
113.2107148519736
 30
0.0
  0
SPLINE
  5
B1
330
1F
100
AcDbEntity
  8
0
  6
Continuous
 62
     7
370
    25
100
AcDbSpline
210
0.0
220
0.0
230
1.0
 70
     8
 71
     3
 72
     8
 73
     4
 74
     0
 42
0.000000001
 43
0.00000001
 40
0.0
 40
0.0
 40
0.0
 40
0.0
 40
1.0
 40
1.0
 40
1.0
 40
1.0
 10
400.4091519093269
 20
113.0493251095104
 30
0.0
 10
400.4664123163613
 20
113.1032332864982
 30
0.0
 10
400.523598707471
 20
113.1570302115813
 30
0.0
 10
400.5807097420899
 20
113.2107148519736
 30
0.0
  0
LINE
  5
B2
330
1F
100
AcDbEntity
  8
0
  6
Continuous
 62
     7
370
    25
100
AcDbLine
 10
400.4091526091
 20
113.0493247706
 30
0.0
 11
399.8337821164
 21
113.0493247706
 31
0.0
  0
SPLINE
  5
B3
330
1F
100
AcDbEntity
  8
0
  6
Continuous
 62
     7
370
    25
100
AcDbSpline
210
0.0
220
0.0
230
1.0
 70
     8
 71
     3
 72
     8
 73
     4
 74
     0
 42
0.000000001
 43
0.00000001
 40
0.0
 40
0.0
 40
0.0
 40
0.0
 40
1.0
 40
1.0
 40
1.0
 40
1.0
 10
414.838429542902
 20
113.2105563376748
 30
0.0
 10
414.8306774302014
 20
113.2212020143474
 30
0.0
 10
414.8229014715341
 20
113.2318303265416
 30
0.0
 10
414.8151017449308
 20
113.242441167604
 30
0.0
  0
LINE
  5
B4
330
1F
100
AcDbEntity
  8
0
  6
Continuous
 62
     7
370
    25
100
AcDbLine
 10
415.5852416608
 20
113.0493247706
 30
0.0
 11
415.0098426444
 21
113.0493247706
 31
0.0
  0
SPLINE
  5
B5
330
1F
100
AcDbEntity
  8
0
  6
Continuous
 62
     7
370
    25
100
AcDbSpline
210
0.0
220
0.0
230
1.0
 70
     8
 71
     3
 72
     8
 73
     4
 74
     0
 42
0.000000001
 43
0.00000001
 40
0.0
 40
0.0
 40
0.0
 40
0.0
 40
1.0
 40
1.0
 40
1.0
 40
1.0
 10
414.838429542902
 20
113.2105563376748
 30
0.0
 10
414.8954926705881
 20
113.156924387259
 30
0.0
 10
414.9526310503184
 20
113.1031803008941
 30
0.0
 10
415.0098433437922
 20
113.0493251096439
 30
0.0
  0
ARC
  5
B6
330
1F
100
AcDbEntity
  8
0
  6
Continuous
 62
     7
370
    25
100
AcDbCircle
 10
407.7095119266
 20
108.0193247706
 30
0.0
 40
8.818749999999996
100
AcDbArc
 50
209.2047569376
 51
330.7952430624
  0
SPLINE
  5
B7
330
1F
100
AcDbEntity
  8
0
  6
Continuous
 62
     7
370
    25
100
AcDbSpline
210
0.0
220
0.0
230
1.0
 70
    24
 71
     3
 72
     8
 73
     4
 74
     0
 42
0.000000001
 43
0.00000001
 40
0.0
 40
0.0
 40
0.0
 40
0.0
 40
0.000136040218399
 40
0.000136040218399
 40
0.000136040218399
 40
0.000136040218399
 10
415.4506473234497
 20
103.759784339791
 30
0.0
 10
415.4362083237656
 20
103.7453453401069
 30
0.0
 10
415.4217378714034
 20
103.7308748877447
 30
0.0
 10
415.4072362728519
 20
103.7163732891932
 30
0.0
  0
SPLINE
  5
B8
330
1F
100
AcDbEntity
  8
0
  6
Continuous
 62
     7
370
    25
100
AcDbSpline
210
0.0
220
0.0
230
1.0
 70
     8
 71
     3
 72
     9
 73
     5
 74
     0
 42
0.000000001
 43
0.00000001
 40
0.0
 40
0.0
 40
0.0
 40
0.0
 40
0.5086448740973026
 40
1.0
 40
1.0
 40
1.0
 40
1.0
 10
416.097330052206
 20
103.7554937340059
 30
0.0
 10
415.9881640032082
 20
103.7561875828509
 30
0.0
 10
415.7735426542924
 20
103.7575516953788
 30
0.0
 10
415.557031341615
 20
103.7590485153166
 30
0.0
 10
415.450647398315
 20
103.7597839854656
 30
0.0
  0
SPLINE
  5
B9
330
1F
100
AcDbEntity
  8
0
  6
Continuous
 62
     7
370
    25
100
AcDbSpline
210
0.0
220
0.0
230
1.0
 70
     8
 71
     3
 72
     9
 73
     5
 74
     0
 42
0.000000001
 43
0.00000001
 40
0.0
 40
0.0
 40
0.0
 40
0.0
 40
0.4913551252639757
 40
1.0
 40
1.0
 40
1.0
 40
1.0
 10
399.9683764853602
 20
103.759783955001
 30
0.0
 10
399.8619925339682
 20
103.7590484846722
 30
0.0
 10
399.6454812045405
 20
103.7575516643665
 30
0.0
 10
399.4308598391738
 20
103.7561875515122
 30
0.0
 10
399.3216937816712
 20
103.7554937025003
 30
0.0
  0
SPLINE
  5
BA
330
1F
100
AcDbEntity
  8
0
  6
Continuous
 62
     7
370
    25
100
AcDbSpline
210
0.0
220
0.0
230
1.0
 70
    24
 71
     3
 72
     8
 73
     4
 74
     0
 42
0.000000001
 43
0.00000001
 40
0.0
 40
0.0
 40
0.0
 40
0.0
 40
0.0001360401227241
 40
0.0001360401227241
 40
0.0001360401227241
 40
0.0001360401227241
 10
400.0117875803589
 20
103.7163732891932
 30
0.0
 10
399.9972859920063
 20
103.7308748775459
 30
0.0
 10
399.982815549799
 20
103.7453453197531
 30
0.0
 10
399.9683765602256
 20
103.7597843093265
 30
0.0
  0
LINE
  5
BB
330
1F
100
AcDbEntity
  8
0
  6
Continuous
 62
     7
370
    25
100
AcDbLine
 10
399.3110366326
 20
103.9130747706
 30
0.0
 11
399.8150865046
 21
103.9130747706
 31
0.0
  0
SPLINE
  5
BC
330
1F
100
AcDbEntity
  8
0
  6
Continuous
 62
     7
370
    25
100
AcDbSpline
210
0.0
220
0.0
230
1.0
 70
     8
 71
     3
 72
     8
 73
     4
 74
     0
 42
0.000000001
 43
0.00000001
 40
0.0
 40
0.0
 40
0.0
 40
0.0
 40
1.0
 40
1.0
 40
1.0
 40
1.0
 10
399.9683767600576
 20
103.7597841097394
 30
0.0
 10
399.9173079974532
 20
103.8108266014834
 30
0.0
 10
399.8662110378172
 20
103.8619235735094
 30
0.0
 10
399.8150861963015
 20
103.9130746732506
 30
0.0
  0
SPLINE
  5
BD
330
1F
100
AcDbEntity
  8
0
  6
Continuous
 62
     7
370
    25
100
AcDbSpline
210
0.0
220
0.0
230
1.0
 70
     8
 71
     3
 72
     8
 73
     4
 74
     0
 42
0.000000001
 43
0.00000001
 40
0.0
 40
0.0
 40
0.0
 40
0.0
 40
1.0
 40
1.0
 40
1.0
 40
1.0
 10
415.6039376569094
 20
103.9130746732507
 30
0.0
 10
415.5528128255642
 20
103.8619235836954
 30
0.0
 10
415.5017158760831
 20
103.8108266218244
 30
0.0
 10
415.4506471236178
 20
103.7597841402039
 30
0.0
  0
LINE
  5
BE
330
1F
100
AcDbEntity
  8
0
  6
Continuous
 62
     7
370
    25
100
AcDbLine
 10
415.6039373486
 20
103.9130747706
 30
0.0
 11
416.1079872062
 21
103.9130747706
 31
0.0
  0
CIRCLE
  5
BF
330
1F
100
AcDbEntity
  8
0
  6
Continuous
 62
     7
370
    25
100
AcDbCircle
 10
407.7095119266
 20
108.0193247706
 30
0.0
 40
12.47086902276419
  0
SPLINE
  5
C0
330
1F
100
AcDbEntity
  8
0
  6
Continuous
 62
     7
370
    25
100
AcDbSpline
210
0.0
220
0.0
230
1.0
 70
     8
 71
     3
 72
    23
 73
    19
 74
     0
 42
0.000000001
 43
0.00000001
 40
0.0
 40
0.0
 40
0.0
 40
0.0
 40
0.0521036415675031
 40
0.1035646240925967
 40
0.1544751946736949
 40
0.2049306267473421
 40
0.2550287880844035
 40
0.3048696389141012
 40
0.3545546704609132
 40
0.4041862979523234
 40
0.4538672252126086
 40
0.5036997999421611
 40
0.5901870230746071
 40
0.674271637822954
 40
0.7565997087222995
 40
0.8378563983721267
 40
0.9187511781367398
 40
1.0
 40
1.0
 40
1.0
 40
1.0
 10
396.870259779948
 20
112.5097354833921
 30
0.0
 10
396.8835541348977
 20
112.5389033765536
 30
0.0
 10
396.9099788689758
 20
112.5968793989576
 30
0.0
 10
396.9491898751997
 20
112.6797786999696
 30
0.0
 10
396.9876318300053
 20
112.7589606809871
 30
0.0
 10
397.025219411472
 20
112.8342154977891
 30
0.0
 10
397.0618752977796
 20
112.9056351520469
 30
0.0
 10
397.0975251618382
 20
112.9732317608285
 30
0.0
 10
397.1320989085994
 20
113.037038082293
 30
0.0
 10
397.1655306025554
 20
113.0970816243621
 30
0.0
 10
397.1977574797804
 20
113.1533883210888
 30
0.0
 10
397.23625891667
 20
113.2187933029125
 30
0.0
 10
397.2789203973834
 20
113.2883543807486
 30
0.0
 10
397.3224134395065
 20
113.3551138774131
 30
0.0
 10
397.3588259363344
 20
113.4068379255109
 30
0.0
 10
397.3877267428117
 20
113.4432862375627
 30
0.0
 10
397.4096441989099
 20
113.4658836344459
 30
0.0
 10
397.4177561634032
 20
113.4684728520073
 30
0.0
 10
397.4218210019257
 20
113.4697702875785
 30
0.0
  0
SPLINE
  5
C1
330
1F
100
AcDbEntity
  8
0
  6
Continuous
 62
     7
370
    25
100
AcDbSpline
210
0.0
220
0.0
230
1.0
 70
     8
 71
     3
 72
     8
 73
     4
 74
     0
 42
0.000000001
 43
0.00000001
 40
0.0
 40
0.0
 40
0.0
 40
0.0
 40
1.0
 40
1.0
 40
1.0
 40
1.0
 10
396.7496218400852
 20
112.5075251259823
 30
0.0
 10
396.7898108536781
 20
112.5082554361998
 30
0.0
 10
396.8299731557682
 20
112.5088359620293
 30
0.0
 10
396.8701078662436
 20
112.509266926979
 30
0.0
  0
SPLINE
  5
C2
330
1F
100
AcDbEntity
  8
0
  6
Continuous
 62
     7
370
    25
100
AcDbSpline
210
0.0
220
0.0
230
1.0
 70
     8
 71
     3
 72
    18
 73
    14
 74
     0
 42
0.000000001
 43
0.00000001
 40
0.0
 40
0.0
 40
0.0
 40
0.0
 40
0.0923824559411628
 40
0.1844689291573508
 40
0.2764953615950219
 40
0.3686975365494161
 40
0.4613092840003458
 40
0.5545607518442569
 40
0.6486768051537182
 40
0.7438756050146744
 40
0.8403674044302629
 40
0.9203921078121001
 40
1.0
 40
1.0
 40
1.0
 40
1.0
 10
396.8025608288846
 20
112.7743421328641
 30
0.0
 10
396.8043964825373
 20
112.7741338206489
 30
0.0
 10
396.8080619086202
 20
112.7737178636267
 30
0.0
 10
396.8108572382394
 20
112.7669134401606
 30
0.0
 10
396.8116595333179
 20
112.7555800615084
 30
0.0
 10
396.8102933962747
 20
112.7392796664819
 30
0.0
 10
396.8068318476459
 20
112.718128427646
 30
0.0
 10
396.8012905418764
 20
112.6920927265295
 30
0.0
 10
396.7937060738075
 20
112.6611683468783
 30
0.0
 10
396.7841290718707
 20
112.6253693154336
 30
0.0
 10
396.7732885958519
 20
112.5871184079025
 30
0.0
 10
396.7617999549129
 20
112.5479001945081
 30
0.0
 10
396.7536999700349
 20
112.5210452176586
 30
0.0
 10
396.7496605523921
 20
112.5076527892883
 30
0.0
  0
LINE
  5
C3
330
1F
100
AcDbEntity
  8
0
  6
Continuous
 62
     7
370
    25
100
AcDbLine
 10
396.7498054696
 20
112.7735944154
 30
0.0
 11
396.8025608289
 21
112.7743421329
 31
0.0
  0
SPLINE
  5
C4
330
1F
100
AcDbEntity
  8
0
  6
Continuous
 62
     7
370
    25
100
AcDbSpline
210
0.0
220
0.0
230
1.0
 70
     8
 71
     3
 72
    25
 73
    21
 74
     0
 42
0.000000001
 43
0.00000001
 40
0.0
 40
0.0
 40
0.0
 40
0.0
 40
0.0280105225426465
 40
0.0559601148860768
 40
0.0839014045043132
 40
0.1118870776786367
 40
0.1399695827588937
 40
0.1682008401739883
 40
0.196631967042422
 40
0.2253130233141467
 40
0.2542927850735845
 40
0.3799486436587335
 40
0.5057850221667067
 40
0.6313085886338298
 40
0.7532068238012468
 40
0.8039473267955921
 40
0.8535894438554446
 40
0.9025339722394071
 40
0.9511970353791085
 40
1.0
 40
1.0
 40
1.0
 40
1.0
 10
395.8388440618317
 20
110.2066625131765
 30
0.0
 10
395.8458231317427
 20
110.2439725266833
 30
0.0
 10
395.8597660902655
 20
110.3185113946769
 30
0.0
 10
395.8822879877084
 20
110.4298204401601
 30
0.0
 10
395.9059215998059
 20
110.5404826491745
 30
0.0
 10
395.930771190294
 20
110.6504667821188
 30
0.0
 10
395.9567898147802
 20
110.7597619257333
 30
0.0
 10
395.9839711960981
 20
110.8683528949355
 30
0.0
 10
396.0122968374306
 20
110.9762236048779
 30
0.0
 10
396.0417556182632
 20
111.0833685506029
 30
0.0
 10
396.1061639061753
 20
111.3075434371148
 30
0.0
 10
396.2112655982472
 20
111.6342088511508
 30
0.0
 10
396.3567283590434
 20
112.0201554564707
 30
0.0
 10
396.495991767153
 20
112.3422352691608
 30
0.0
 10
396.5931401200206
 20
112.5380558531925
 30
0.0
 10
396.6534355262469
 20
112.6474033036759
 30
0.0
 10
396.6883241091282
 20
112.7053313280912
 30
0.0
 10
396.716218611056
 20
112.7457852808562
 30
0.0
 10
396.7375837034277
 20
112.7703994962552
 30
0.0
 10
396.7457276510003
 20
112.7725284237628
 30
0.0
 10
396.7498054696454
 20
112.7735944154342
 30
0.0
  0
ARC
  5
C5
330
1F
100
AcDbEntity
  8
0
  6
Continuous
 62
     7
370
    25
100
AcDbCircle
 10
407.7095119266
 20
108.0193247706
 30
0.0
 40
12.07050959801147
100
AcDbArc
 50
169.5595567507
 51
190.4404432494
  0
SPLINE
  5
C6
330
1F
100
AcDbEntity
  8
0
  6
Continuous
 62
     7
370
    25
100
AcDbSpline
210
0.0
220
0.0
230
1.0
 70
     8
 71
     3
 72
    26
 73
    22
 74
     0
 42
0.000000001
 43
0.00000001
 40
0.0
 40
0.0
 40
0.0
 40
0.0
 40
0.0241259796963635
 40
0.0482159912272988
 40
0.0723203915124065
 40
0.0964895678710797
 40
0.1207736231963513
 40
0.1452220711242836
 40
0.1698835501657706
 40
0.1948055644472379
 40
0.2200342569517627
 40
0.2456142191611387
 40
0.3690971486901655
 40
0.4940698769485187
 40
0.6192566784762451
 40
0.7454656653603225
 40
0.7971495824713707
 40
0.8481710308405392
 40
0.8988013269235234
 40
0.9493179290492194
 40
1.0
 40
1.0
 40
1.0
 40
1.0
 10
396.7498054696454
 20
103.2650551258501
 30
0.0
 10
396.7478951549049
 20
103.2653420190395
 30
0.0
 10
396.7440773734128
 20
103.2659153777043
 30
0.0
 10
396.7361172482319
 20
103.2719740659507
 30
0.0
 10
396.7265381476564
 20
103.2818533266816
 30
0.0
 10
396.7151909407877
 20
103.295934417792
 30
0.0
 10
396.7021347574938
 20
103.3141299658161
 30
0.0
 10
396.6873788542665
 20
103.3364805085548
 30
0.0
 10
396.6709516739692
 20
103.3629947442469
 30
0.0
 10
396.6528835192489
 20
103.3936902549602
 30
0.0
 10
396.6332063728259
 20
103.4285913582001
 30
0.0
 10
396.5850069913977
 20
103.5173558933078
 30
0.0
 10
396.4966889519623
 20
103.6946361947566
 30
0.0
 10
396.3576293351955
 20
104.0157221016017
 30
0.0
 10
396.2119566553333
 20
104.4023047534922
 30
0.0
 10
396.0982180603239
 20
104.7560124576222
 30
0.0
 10
396.0185124417773
 20
105.0382661572349
 30
0.0
 10
395.967862869423
 20
105.2327095880092
 30
0.0
 10
395.9208961995577
 20
105.4299509649433
 30
0.0
 10
395.8773363775533
 20
105.6298540100385
 30
0.0
 10
395.8516888124218
 20
105.7645359497707
 30
0.0
 10
395.8388440618317
 20
105.8319870281079
 30
0.0
  0
LINE
  5
C7
330
1F
100
AcDbEntity
  8
0
  6
Continuous
 62
     7
370
    25
100
AcDbLine
 10
396.8025608289
 20
103.2643074084
 30
0.0
 11
396.7498054696
 21
103.2650551259
 31
0.0
  0
SPLINE
  5
C8
330
1F
100
AcDbEntity
  8
0
  6
Continuous
 62
     7
370
    25
100
AcDbSpline
210
0.0
220
0.0
230
1.0
 70
     8
 71
     3
 72
    14
 73
    10
 74
     0
 42
0.000000001
 43
0.00000001
 40
0.0
 40
0.0
 40
0.0
 40
0.0
 40
0.0789261963172865
 40
0.158232872055133
 40
0.330847539457262
 40
0.5000195457610529
 40
0.6670357883572423
 40
0.8332395193657144
 40
1.0
 40
1.0
 40
1.0
 40
1.0
 10
396.7495639720328
 20
103.5313308857249
 30
0.0
 10
396.7535785186288
 20
103.5180277610873
 30
0.0
 10
396.7616269647409
 20
103.4913573814548
 30
0.0
 10
396.7765276715504
 20
103.440542642135
 30
0.0
 10
396.792424653147
 20
103.3835028259481
 30
0.0
 10
396.8055031481447
 20
103.3291996092201
 30
0.0
 10
396.811735755262
 20
103.2910324664973
 30
0.0
 10
396.8115461754251
 20
103.2676237378204
 30
0.0
 10
396.8055592812943
 20
103.2654140831419
 30
0.0
 10
396.8025608288846
 20
103.2643074084202
 30
0.0
  0
SPLINE
  5
C9
330
1F
100
AcDbEntity
  8
0
  6
Continuous
 62
     7
370
    25
100
AcDbSpline
210
0.0
220
0.0
230
1.0
 70
     8
 71
     3
 72
     8
 73
     4
 74
     0
 42
0.000000001
 43
0.00000001
 40
0.0
 40
0.0
 40
0.0
 40
0.0
 40
1.0
 40
1.0
 40
1.0
 40
1.0
 10
396.8968686632572
 20
103.5292698072744
 30
0.0
 10
396.8478007482285
 20
103.5297568604864
 30
0.0
 10
396.7986913107077
 20
103.5304679283612
 30
0.0
 10
396.7495419661823
 20
103.5314034215956
 30
0.0
  0
SPLINE
  5
CA
330
1F
100
AcDbEntity
  8
0
  6
Continuous
 62
     7
370
    25
100
AcDbSpline
210
0.0
220
0.0
230
1.0
 70
     8
 71
     3
 72
    13
 73
     9
 74
     0
 42
0.000000001
 43
0.00000001
 40
0.0
 40
0.0
 40
0.0
 40
0.0
 40
0.1667030582307992
 40
0.3329480818053035
 40
0.4990671507274896
 40
0.6653938523718403
 40
0.832261271055009
 40
1.0
 40
1.0
 40
1.0
 40
1.0
 10
396.9552021954281
 20
103.4605562824905
 30
0.0
 10
396.9533588815913
 20
103.4609733922563
 30
0.0
 10
396.9496773186214
 20
103.4618064657337
 30
0.0
 10
396.9421600648269
 20
103.4678209445601
 30
0.0
 10
396.9332092607104
 20
103.4773156768523
 30
0.0
 10
396.9226589722875
 20
103.4907252839619
 30
0.0
 10
396.9106857867703
 20
103.5076431875855
 30
0.0
 10
396.901479379164
 20
103.522055922725
 30
0.0
 10
396.8968641886751
 20
103.5292810555865
 30
0.0
  0
SPLINE
  5
CB
330
1F
100
AcDbEntity
  8
0
  6
Continuous
 62
     7
370
    25
100
AcDbSpline
210
0.0
220
0.0
230
1.0
 70
     8
 71
     3
 72
    13
 73
     9
 74
     0
 42
0.000000001
 43
0.00000001
 40
0.0
 40
0.0
 40
0.0
 40
0.0
 40
0.1686319999748085
 40
0.3360343310905433
 40
0.502536782590866
 40
0.6684737453788339
 40
0.834182263691515
 40
1.0
 40
1.0
 40
1.0
 40
1.0
 10
418.5221610456537
 20
103.5292845053993
 30
0.0
 10
418.5175238005555
 20
103.5220273453799
 30
0.0
 10
418.5082831252691
 20
103.5075659447376
 30
0.0
 10
418.496267751902
 20
103.4905852480335
 30
0.0
 10
418.4857021981475
 20
103.477152466854
 30
0.0
 10
418.4767628488545
 20
103.4676729983
 30
0.0
 10
418.4692819682659
 20
103.4617077726022
 30
0.0
 10
418.4656421609764
 20
103.4609401968178
 30
0.0
 10
418.4638216577827
 20
103.4605562824905
 30
0.0
  0
SPLINE
  5
CC
330
1F
100
AcDbEntity
  8
0
  6
Continuous
 62
     7
370
    25
100
AcDbSpline
210
0.0
220
0.0
230
1.0
 70
     8
 71
     3
 72
     8
 73
     4
 74
     0
 42
0.000000001
 43
0.00000001
 40
0.0
 40
0.0
 40
0.0
 40
0.0
 40
1.0
 40
1.0
 40
1.0
 40
1.0
 10
418.6694866576262
 20
103.531403526342
 30
0.0
 10
418.6203357280179
 20
103.53046799608
 30
0.0
 10
418.5712247079386
 20
103.529756905568
 30
0.0
 10
418.5221552130308
 20
103.52926984407
 30
0.0
  0
SPLINE
  5
CD
330
1F
100
AcDbEntity
  8
0
  6
Continuous
 62
     7
370
    25
100
AcDbSpline
210
0.0
220
0.0
230
1.0
 70
     8
 71
     3
 72
    18
 73
    14
 74
     0
 42
0.000000001
 43
0.00000001
 40
0.0
 40
0.0
 40
0.0
 40
0.0
 40
0.0923325137111192
 40
0.1843692047063016
 40
0.2763458873810836
 40
0.3684982175655623
 40
0.4610598988303626
 40
0.554260954653301
 40
0.6483261285442131
 40
0.74347346365053
 40
0.8399130993119804
 40
0.9201660718299768
 40
1.0
 40
1.0
 40
1.0
 40
1.0
 10
418.6164630243263
 20
103.2643074084202
 30
0.0
 10
418.6146273706738
 20
103.264515720636
 30
0.0
 10
418.6109619445912
 20
103.2649316776594
 30
0.0
 10
418.6081666149689
 20
103.2717361011166
 30
0.0
 10
418.6073643199022
 20
103.2830694798025
 30
0.0
 10
418.6087304569014
 20
103.2993698747028
 30
0.0
 10
418.6121920056954
 20
103.320521114013
 30
0.0
 10
418.6177333108418
 20
103.3465568133406
 30
0.0
 10
418.625317781269
 20
103.3774811997632
 30
0.0
 10
418.6348947742495
 20
103.4132802054913
 30
0.0
 10
418.6457461212753
 20
103.451569450605
 30
0.0
 10
418.6572608829072
 20
103.4908750750216
 30
0.0
 10
418.6653925917283
 20
103.5178321529153
 30
0.0
 10
418.6694478033361
 20
103.5312754103647
 30
0.0
  0
LINE
  5
CE
330
1F
100
AcDbEntity
  8
0
  6
Continuous
 62
     7
370
    25
100
AcDbLine
 10
418.6692183836
 20
103.2650551259
 30
0.0
 11
418.6164630243
 21
103.2643074084
 31
0.0
  0
SPLINE
  5
CF
330
1F
100
AcDbEntity
  8
0
  6
Continuous
 62
     7
370
    25
100
AcDbSpline
210
0.0
220
0.0
230
1.0
 70
     8
 71
     3
 72
    25
 73
    21
 74
     0
 42
0.000000001
 43
0.00000001
 40
0.0
 40
0.0
 40
0.0
 40
0.0
 40
0.0280105225422753
 40
0.0559601148854256
 40
0.0839014045034749
 40
0.1118870776777086
 40
0.1399695827579646
 40
0.1682008401731476
 40
0.1966319670417595
 40
0.2253130233137476
 40
0.2542927850735311
 40
0.3799486436564626
 40
0.5057850221666382
 40
0.631308588631066
 40
0.7532068238011618
 40
0.8039473267946936
 40
0.8535894438541253
 40
0.9025339722380873
 40
0.9511970353782256
 40
1.0
 40
1.0
 40
1.0
 40
1.0
 10
419.5801797913791
 20
105.8319870281079
 30
0.0
 10
419.5732007214683
 20
105.7946770146016
 30
0.0
 10
419.5592577629456
 20
105.7201381466089
 30
0.0
 10
419.536735865503
 20
105.6088291011268
 30
0.0
 10
419.5131022534056
 20
105.4981668921131
 30
0.0
 10
419.4882526629177
 20
105.3881827591692
 30
0.0
 10
419.4622340384315
 20
105.2788876155546
 30
0.0
 10
419.4350526571135
 20
105.1702966463521
 30
0.0
 10
419.4067270157809
 20
105.062425936409
 30
0.0
 10
419.377268234948
 20
104.9552809906829
 30
0.0
 10
419.3128599470364
 20
104.7311061041724
 30
0.0
 10
419.2077582549646
 20
104.4044406901364
 30
0.0
 10
419.0622954941694
 20
104.0184940848183
 30
0.0
 10
418.9230320860588
 20
103.6964142721257
 30
0.0
 10
418.8258837331916
 20
103.5005936880946
 30
0.0
 10
418.765588326964
 20
103.3912462376081
 30
0.0
 10
418.7306997440828
 20
103.3333182131929
 30
0.0
 10
418.702805242155
 20
103.292864260428
 30
0.0
 10
418.6814401497833
 20
103.2682500450291
 30
0.0
 10
418.6732962022106
 20
103.2661211175215
 30
0.0
 10
418.6692183835655
 20
103.2650551258501
 30
0.0
  0
ARC
  5
D0
330
1F
100
AcDbEntity
  8
0
  6
Continuous
 62
     7
370
    25
100
AcDbCircle
 10
407.7095119266
 20
108.0193247706
 30
0.0
 40
12.07050959801141
100
AcDbArc
 50
349.5595567507
 51
10.4404432493
  0
SPLINE
  5
D1
330
1F
100
AcDbEntity
  8
0
  6
Continuous
 62
     7
370
    25
100
AcDbSpline
210
0.0
220
0.0
230
1.0
 70
     8
 71
     3
 72
    26
 73
    22
 74
     0
 42
0.000000001
 43
0.00000001
 40
0.0
 40
0.0
 40
0.0
 40
0.0
 40
0.0241259796962591
 40
0.0482159912271133
 40
0.0723203915121637
 40
0.0964895678708023
 40
0.1207736231960627
 40
0.1452220711240065
 40
0.1698835501655268
 40
0.1948055644470484
 40
0.220034256951649
 40
0.2456142191611191
 40
0.3690971486898426
 40
0.4940698769485092
 40
0.6192566784753767
 40
0.7454656653602836
 40
0.7971495824708205
 40
0.848171030839725
 40
0.8988013269227118
 40
0.9493179290486752
 40
1.0
 40
1.0
 40
1.0
 40
1.0
 10
418.6692183835655
 20
112.7735944154342
 30
0.0
 10
418.6711286983058
 20
112.7733075222448
 30
0.0
 10
418.6749464797981
 20
112.7727341635801
 30
0.0
 10
418.6829066049789
 20
112.7666754753336
 30
0.0
 10
418.6924857055544
 20
112.7567962146028
 30
0.0
 10
418.7038329124231
 20
112.7427151234924
 30
0.0
 10
418.716889095717
 20
112.7245195754682
 30
0.0
 10
418.7316449989443
 20
112.7021690327295
 30
0.0
 10
418.7480721792417
 20
112.6756547970375
 30
0.0
 10
418.7661403339619
 20
112.6449592863242
 30
0.0
 10
418.7858174803849
 20
112.6100581830842
 30
0.0
 10
418.834016861813
 20
112.521293647977
 30
0.0
 10
418.9223349012484
 20
112.3440133465282
 30
0.0
 10
419.0613945180149
 20
112.0229274396838
 30
0.0
 10
419.2070671978773
 20
111.6363447877926
 30
0.0
 10
419.3208057928865
 20
111.2826370836637
 30
0.0
 10
419.4005114114331
 20
111.0003833840513
 30
0.0
 10
419.4511609837871
 20
110.805939953278
 30
0.0
 10
419.4981276536526
 20
110.6086985763439
 30
0.0
 10
419.5416874756572
 20
110.4087955312477
 30
0.0
 10
419.5673350407889
 20
110.2741135915144
 30
0.0
 10
419.5801797913791
 20
110.2066625131765
 30
0.0
  0
LINE
  5
D2
330
1F
100
AcDbEntity
  8
0
  6
Continuous
 62
     7
370
    25
100
AcDbLine
 10
418.6164630243
 20
112.7743421329
 30
0.0
 11
418.6692183836
 21
112.7735944154
 31
0.0
  0
SPLINE
  5
D3
330
1F
100
AcDbEntity
  8
0
  6
Continuous
 62
     7
370
    25
100
AcDbSpline
210
0.0
220
0.0
230
1.0
 70
     8
 71
     3
 72
    14
 73
    10
 74
     0
 42
0.000000001
 43
0.00000001
 40
0.0
 40
0.0
 40
0.0
 40
0.0
 40
0.0786889129232242
 40
0.1577561817122941
 40
0.3304686003115578
 40
0.4997364082435315
 40
0.6668472316653192
 40
0.8331450833767118
 40
1.0
 40
1.0
 40
1.0
 40
1.0
 10
418.669371311103
 20
112.5076106236466
 30
0.0
 10
418.6653733021485
 20
112.5208605281624
 30
0.0
 10
418.6573580608177
 20
112.5474240460307
 30
0.0
 10
418.6424853875283
 20
112.5981455737995
 30
0.0
 10
418.626599222766
 20
112.6551466528233
 30
0.0
 10
418.6135206991218
 20
112.7094499484324
 30
0.0
 10
418.6072880995167
 20
112.7476170704697
 30
0.0
 10
418.607477677393
 20
112.7710258045452
 30
0.0
 10
418.6134645717855
 20
112.7732354585033
 30
0.0
 10
418.6164630243263
 20
112.7743421328641
 30
0.0
  0
SPLINE
  5
D4
330
1F
100
AcDbEntity
  8
0
  6
Continuous
 62
     7
370
    25
100
AcDbSpline
210
0.0
220
0.0
230
1.0
 70
     8
 71
     3
 72
     8
 73
     4
 74
     0
 42
0.000000001
 43
0.00000001
 40
0.0
 40
0.0
 40
0.0
 40
0.0
 40
1.0
 40
1.0
 40
1.0
 40
1.0
 10
418.5489159704202
 20
112.5092669636119
 30
0.0
 10
418.5890490889269
 20
112.5088360096646
 30
0.0
 10
418.6292097968555
 20
112.5082555066521
 30
0.0
 10
418.6693972141985
 20
112.5075252310926
 30
0.0
  0
SPLINE
  5
D5
330
1F
100
AcDbEntity
  8
0
  6
Continuous
 62
     7
370
    25
100
AcDbSpline
210
0.0
220
0.0
230
1.0
 70
     8
 71
     3
 72
    23
 73
    19
 74
     0
 42
0.000000001
 43
0.00000001
 40
0.0
 40
0.0
 40
0.0
 40
0.0
 40
0.0441308420121292
 40
0.0880968635211716
 40
0.1320155028408941
 40
0.1760048571434164
 40
0.2201827305793597
 40
0.2646656976937351
 40
0.3095682184569769
 40
0.355001836559425
 40
0.401074485474427
 40
0.4478899182339682
 40
0.4955472680213688
 40
0.5953670562452651
 40
0.6949121173401501
 40
0.7950007648984784
 40
0.8964386255170008
 40
1.0
 40
1.0
 40
1.0
 40
1.0
 10
417.9972028512852
 20
113.4697702875786
 30
0.0
 10
417.999187241392
 20
113.4694874303486
 30
0.0
 10
418.0031486102769
 20
113.4689227723081
 30
0.0
 10
418.0120089145074
 20
113.4625034191293
 30
0.0
 10
418.0229813926297
 20
113.4519821696227
 30
0.0
 10
418.0362607906501
 20
113.436950633313
 30
0.0
 10
418.0517715143164
 20
113.4174983882506
 30
0.0
 10
418.0695029760695
 20
113.3935784102985
 30
0.0
 10
418.0894196227727
 20
113.3651773195846
 30
0.0
 10
418.1114851567849
 20
113.332269579784
 30
0.0
 10
418.1356560804789
 20
113.2948295971278
 30
0.0
 10
418.1618830905262
 20
113.2528295254979
 30
0.0
 10
418.2002196707573
 20
113.1895524169748
 30
0.0
 10
418.2525524501357
 20
113.0994935546116
 30
0.0
 10
418.3209530613439
 20
112.9751474350448
 30
0.0
 10
418.3936381361394
 20
112.8354343570643
 30
0.0
 10
418.4699983720393
 20
112.681098341836
 30
0.0
 10
418.5222871866895
 20
112.5673756876082
 30
0.0
 10
418.548702414593
 20
112.5099253543138
 30
0.0
  0
SPLINE
  5
D6
330
1F
100
AcDbEntity
  8
0
  6
Continuous
 62
     7
370
    25
100
AcDbSpline
210
0.0
220
0.0
230
1.0
 70
    11
 71
     3
 72
    39
 73
    35
 74
     0
 42
0.000000001
 43
0.00000001
 40
0.0
 40
0.0
 40
0.0
 40
0.0
 40
0.0310664058348413
 40
0.0621048158426138
 40
0.0931361551796939
 40
0.1235538293503726
 40
0.1538561545809849
 40
0.1850588072749156
 40
0.2160250992946587
 40
0.2471867223797568
 40
0.2784462884304475
 40
0.3100516090231247
 40
0.3419834369138969
 40
0.3734259894013238
 40
0.4048604886787081
 40
0.436874065183343
 40
0.4685120685926471
 40
0.499805535863323
 40
0.5309508213226204
 40
0.5618649784438111
 40
0.5930416446590877
 40
0.623374245013332
 40
0.6540913579072549
 40
0.6849496782718453
 40
0.7158160645166705
 40
0.7471731804043553
 40
0.7784514311866318
 40
0.810129591156098
 40
0.8419598919688388
 40
0.8735175891922303
 40
0.9050808037886594
 40
0.9370235169792582
 40
0.9687441590030581
 40
1.0
 40
1.0
 40
1.0
 40
1.0
 10
410.6136384914028
 20
96.58769458688874
 30
0.0
 10
410.8033503203575
 20
96.62646316363626
 30
0.0
 10
411.1470911708062
 20
96.70289410941928
 30
0.0
 10
411.5300481580139
 20
96.79103364941251
 30
0.0
 10
411.774488624729
 20
96.83798313605747
 30
0.0
 10
411.8554775615452
 20
96.82607421134372
 30
0.0
 10
411.7747551160635
 20
96.75411630462825
 30
0.0
 10
411.5348929224439
 20
96.62959603843089
 30
0.0
 10
411.1582431883467
 20
96.47222704860572
 30
0.0
 10
410.6520002515188
 20
96.3002029639107
 30
0.0
 10
410.0347258578353
 20
96.13527855632506
 30
0.0
 10
409.3222500436955
 20
95.99756598024656
 30
0.0
 10
408.546784803923
 20
95.90593316773789
 30
0.0
 10
407.7363203703086
 20
95.87260058964239
 30
0.0
 10
406.9238158973462
 20
95.90184803519568
 30
0.0
 10
406.1443029072091
 20
95.99017699218327
 30
0.0
 10
405.4259746078736
 20
96.1256824918181
 30
0.0
 10
404.8026025004735
 20
96.28945901330935
 30
0.0
 10
404.289503905878
 20
96.46146515745468
 30
0.0
 10
403.9043017960166
 20
96.62027717192585
 30
0.0
 10
403.6548771907756
 20
96.74753613709132
 30
0.0
 10
403.5642751508291
 20
96.8231430940463
 30
0.0
 10
403.6324867217883
 20
96.83991249072619
 30
0.0
 10
403.8647025881911
 20
96.79713214851094
 30
0.0
 10
404.2419196253753
 20
96.71000546360106
 30
0.0
 10
404.7536244931429
 20
96.59527640829407
 30
0.0
 10
405.3770956238898
 20
96.47585426324154
 30
0.0
 10
406.0936403270226
 20
96.37122881319223
 30
0.0
 10
406.8719714396336
 20
96.30058032026537
 30
0.0
 10
407.6838029264836
 20
96.27450149583534
 30
0.0
 10
408.4975774484806
 20
96.29752706752608
 30
0.0
 10
409.2799512926461
 20
96.36575950566375
 30
0.0
 10
410.0019643273801
 20
96.46900668537347
 30
0.0
 10
410.4227698472291
 20
96.54868960907
 30
0.0
 10
410.6136384914028
 20
96.58769458688876
 30
0.0
  0
SPLINE
  5
D7
330
1F
100
AcDbEntity
  8
0
  6
Continuous
 62
     7
370
    25
100
AcDbSpline
210
0.0
220
0.0
230
1.0
 70
    11
 71
     3
 72
    39
 73
    35
 74
     0
 42
0.000000001
 43
0.00000001
 40
0.0
 40
0.0
 40
0.0
 40
0.0
 40
0.0312651429934057
 40
0.0629601069329321
 40
0.0948697276489808
 40
0.1264264963751833
 40
0.1579651393672472
 40
0.1898765439016956
 40
0.221552335268876
 40
0.2527844076550827
 40
0.2838418966734154
 40
0.3148645781100674
 40
0.3459127639308091
 40
0.3763475365526575
 40
0.4066751324671412
 40
0.4379141187435632
 40
0.4688932367345488
 40
0.5000738678969536
 40
0.5313369410958942
 40
0.5629183719104849
 40
0.5948445736343699
 40
0.6262809966135365
 40
0.6577486436587271
 40
0.6897584692806508
 40
0.7214430019610059
 40
0.7527623343195418
 40
0.7839279690572818
 40
0.8148885765585865
 40
0.8460375004982862
 40
0.8763409566916784
 40
0.906758919146387
 40
0.9378312724751761
 40
0.9689189660506093
 40
1.0
 40
1.0
 40
1.0
 40
1.0
 10
410.6135342416159
 20
119.4509870068313
 30
0.0
 10
410.4224603053342
 20
119.490050964712
 30
0.0
 10
410.0015257428947
 20
119.5697699592721
 30
0.0
 10
409.2801363377311
 20
119.6728853746225
 30
0.0
 10
408.4984802894406
 20
119.7410862470465
 30
0.0
 10
407.6853925697298
 20
119.7641431396883
 30
0.0
 10
406.8731123528777
 20
119.7381588660422
 30
0.0
 10
406.0944819278283
 20
119.667568700804
 30
0.0
 10
405.3778061379169
 20
119.5629531385648
 30
0.0
 10
404.7559308682552
 20
119.4437808135484
 30
0.0
 10
404.2464199347693
 20
119.3298436458221
 30
0.0
 10
403.8713005885251
 20
119.2437293668757
 30
0.0
 10
403.6353400136742
 20
119.1996736455398
 30
0.0
 10
403.5639394704927
 20
119.215203446251
 30
0.0
 10
403.6545359002905
 20
119.2907123284349
 30
0.0
 10
403.9035121806499
 20
119.4178858562791
 30
0.0
 10
404.2884270004927
 20
119.5767365348914
 30
0.0
 10
404.8012123073149
 20
119.7487607961014
 30
0.0
 10
405.4236714302397
 20
119.9124338756361
 30
0.0
 10
406.1401715750462
 20
120.0478354490163
 30
0.0
 10
406.9182706091563
 20
120.1363531164991
 30
0.0
 10
407.7299932978033
 20
120.1660605249819
 30
0.0
 10
408.5414354855046
 20
120.1331740803318
 30
0.0
 10
409.3185613769867
 20
120.0416931722871
 30
0.0
 10
410.0329994661572
 20
119.9038089823256
 30
0.0
 10
410.6512224243926
 20
119.7386811574757
 30
0.0
 10
411.1575897851184
 20
119.5666306201231
 30
0.0
 10
411.5341423065321
 20
119.4093470984129
 30
0.0
 10
411.7738381179635
 20
119.2849433009289
 30
0.0
 10
411.8553048261579
 20
119.2127551274926
 30
0.0
 10
411.775245583666
 20
119.2004826191146
 30
0.0
 10
411.5308995777123
 20
119.2473780296206
 30
0.0
 10
411.1479261442633
 20
119.3355115777662
 30
0.0
 10
410.8034830130534
 20
119.4121530823761
 30
0.0
 10
410.6135342416159
 20
119.4509870068313
 30
0.0
  0
SPLINE
  5
D8
330
1F
100
AcDbEntity
  8
0
  6
Continuous
 62
     7
370
    25
100
AcDbSpline
210
0.0
220
0.0
230
1.0
 70
     8
 71
     3
 72
    23
 73
    19
 74
     0
 42
0.000000001
 43
0.00000001
 40
0.0
 40
0.0
 40
0.0
 40
0.0
 40
0.0449850911516383
 40
0.0909520670767777
 40
0.1379394291255006
 40
0.1859832248910951
 40
0.2351171761689533
 40
0.2853728096402591
 40
0.3367795876576951
 40
0.3893650370792399
 40
0.4431548745925064
 40
0.498173127394291
 40
0.5575107590849617
 40
0.6265492281305397
 40
0.7053073138942775
 40
0.7937970253739629
 40
0.8920262115920568
 40
1.0
 40
1.0
 40
1.0
 40
1.0
 10
397.8185702150482
 20
113.0493247706422
 30
0.0
 10
397.8164075256826
 20
113.0488958689826
 30
0.0
 10
397.812034942162
 20
113.0480287040728
 30
0.0
 10
397.8017539829706
 20
113.0409351364718
 30
0.0
 10
397.7886937049407
 20
113.0293223948928
 30
0.0
 10
397.7725745433865
 20
113.0125330247202
 30
0.0
 10
397.7534741157305
 20
112.9904610381055
 30
0.0
 10
397.7313717629746
 20
112.9628635643422
 30
0.0
 10
397.7062712844389
 20
112.9295551331328
 30
0.0
 10
397.678180153061
 20
112.8903547947261
 30
0.0
 10
397.6470642522088
 20
112.8451127492528
 30
0.0
 10
397.6124253213267
 20
112.7927168168636
 30
0.0
 10
397.571703813048
 20
112.7299343486444
 30
0.0
 10
397.5229828920232
 20
112.6521773493858
 30
0.0
 10
397.4652085537053
 20
112.5548927918072
 30
0.0
 10
397.3982979040602
 20
112.4351479580882
 30
0.0
 10
397.3223539397669
 20
112.2912277531839
 30
0.0
 10
397.2679927750816
 20
112.1804935482909
 30
0.0
 10
397.2395277109671
 20
112.1225099443671
 30
0.0
  0
LINE
  5
D9
330
1F
100
AcDbEntity
  8
0
  6
Continuous
 62
     7
370
    25
100
AcDbLine
 10
397.239527711
 20
112.1230362763
 30
0.0
 11
396.870187973
 21
112.5091208032
 31
0.0
  0
LINE
  5
DA
330
1F
100
AcDbEntity
  8
0
  6
Continuous
 62
     7
370
    25
100
AcDbLine
 10
418.5488033085
 20
112.5090613984
 30
0.0
 11
418.1795366269
 21
112.1230532934
 31
0.0
  0
SPLINE
  5
DB
330
1F
100
AcDbEntity
  8
0
  6
Continuous
 62
     7
370
    25
100
AcDbSpline
210
0.0
220
0.0
230
1.0
 70
     8
 71
     3
 72
    26
 73
    22
 74
     0
 42
0.000000001
 43
0.00000001
 40
0.0
 40
0.0
 40
0.0
 40
0.0
 40
0.0509383868653979
 40
0.0998291548270505
 40
0.1466728126490638
 40
0.1914699456369332
 40
0.2342212299774179
 40
0.274927450668867
 40
0.3135895241747119
 40
0.3502085273716571
 40
0.3847857350077695
 40
0.4173226688482998
 40
0.4478211631571791
 40
0.4762834534603437
 40
0.5027122992246547
 40
0.593906700502561
 40
0.6816015993191188
 40
0.7659159552051488
 40
0.846983628966416
 40
0.9249552229440475
 40
1.0
 40
1.0
 40
1.0
 40
1.0
 10
418.1795366269121
 20
112.1223192141173
 30
0.0
 10
418.1660787627139
 20
112.1499399952817
 30
0.0
 10
418.1397040129163
 20
112.2040712587349
 30
0.0
 10
418.1013318331373
 20
112.2803792958101
 30
0.0
 10
418.0648656506451
 20
112.3511314754019
 30
0.0
 10
418.0303294010213
 20
112.41630330209
 30
0.0
 10
417.9977169491685
 20
112.4761615473417
 30
0.0
 10
417.9670296653755
 20
112.5309267068831
 30
0.0
 10
417.9382670490744
 20
112.5808510981951
 30
0.0
 10
417.9114288846021
 20
112.6261933287902
 30
0.0
 10
417.8865153041738
 20
112.667219267731
 30
0.0
 10
417.8635246573851
 20
112.7041966526781
 30
0.0
 10
417.8424611518955
 20
112.7373927686614
 30
0.0
 10
417.8233087815162
 20
112.7670685009287
 30
0.0
 10
417.7916377045714
 20
112.8157388259784
 30
0.0
 10
417.7501677591347
 20
112.8776341438972
 30
0.0
 10
417.703178242991
 20
112.9429747513209
 30
0.0
 10
417.6645596732761
 20
112.9920931426127
 30
0.0
 10
417.6345112135548
 20
113.0255694311249
 30
0.0
 10
417.6122211025856
 20
113.0456868633629
 30
0.0
 10
417.6043257871522
 20
113.0481276972125
 30
0.0
 10
417.6004536381627
 20
113.0493247706422
 30
0.0
  0
SPLINE
  5
DC
330
1F
100
AcDbEntity
  8
0
  6
Continuous
 62
     7
370
    25
100
AcDbSpline
210
0.0
220
0.0
230
1.0
 70
     8
 71
     3
 72
     8
 73
     4
 74
     0
 42
0.000000001
 43
0.00000001
 40
0.0
 40
0.0
 40
0.0
 40
0.0
 40
1.0
 40
1.0
 40
1.0
 40
1.0
 10
415.4511923784058
 20
112.2423230971249
 30
0.0
 10
415.5147853587459
 20
112.1766543192781
 30
0.0
 10
415.5787417851812
 20
112.1123120216179
 30
0.0
 10
415.6429407048885
 20
112.0505747706422
 30
0.0
  0
SPLINE
  5
DD
330
1F
100
AcDbEntity
  8
0
  6
Continuous
 62
     7
370
    25
100
AcDbSpline
210
0.0
220
0.0
230
1.0
 70
     8
 71
     3
 72
    25
 73
    21
 74
     0
 42
0.000000001
 43
0.00000001
 40
0.0
 40
0.0
 40
0.0
 40
0.0
 40
0.0367725003254103
 40
0.074208401060063
 40
0.1123590542807964
 40
0.1512729822568881
 40
0.190995910016845
 40
0.2315708273504481
 40
0.2730380740418892
 40
0.3154354426077851
 40
0.3587982934432034
 40
0.4031596779810961
 40
0.4485504661847858
 40
0.494999475376923
 40
0.5532504315673752
 40
0.621829488573267
 40
0.7007739996560722
 40
0.7901076726660372
 40
0.8898461547533933
 40
1.0
 40
1.0
 40
1.0
 40
1.0
 10
415.0092711910943
 20
113.0493247706418
 30
0.0
 10
415.0094949651591
 20
113.0490000830081
 30
0.0
 10
415.009946550322
 20
113.0483448501593
 30
0.0
 10
415.0146635901943
 20
113.0429824783715
 30
0.0
 10
415.0223161992769
 20
113.0342268846711
 30
0.0
 10
415.0332091784139
 20
113.0216026665792
 30
0.0
 10
415.0472577648297
 20
113.0050463284488
 30
0.0
 10
415.0644846624389
 20
112.984389151071
 30
0.0
 10
415.0848832152204
 20
112.9595014151032
 30
0.0
 10
415.1084540285126
 20
112.9302538689098
 30
0.0
 10
415.1351993770724
 20
112.8965309337133
 30
0.0
 10
415.1651072305046
 20
112.8582251185879
 30
0.0
 10
415.1982233228492
 20
112.8152542232499
 30
0.0
 10
415.2371492444231
 20
112.7638329415792
 30
0.0
 10
415.2859773241398
 20
112.6996167098901
 30
0.0
 10
415.3478979287408
 20
112.6167221807955
 30
0.0
 10
415.4222824870618
 20
112.512776430581
 30
0.0
 10
415.5092569150503
 20
112.3846902203238
 30
0.0
 10
415.6086817650329
 20
112.2306004404175
 30
0.0
 10
415.6801009407624
 20
112.112536204547
 30
0.0
 10
415.7175825244433
 20
112.0505747706422
 30
0.0
  0
LINE
  5
DE
330
1F
100
AcDbEntity
  8
0
  6
Continuous
 62
     7
370
    25
100
AcDbLine
 10
415.7175825244
 20
112.0505747706
 30
0.0
 11
415.6429407049
 21
112.0505747706
 31
0.0
  0
SPLINE
  5
DF
330
1F
100
AcDbEntity
  8
0
  6
Continuous
 62
     7
370
    25
100
AcDbSpline
210
0.0
220
0.0
230
1.0
 70
     8
 71
     3
 72
    23
 73
    19
 74
     0
 42
0.000000001
 43
0.00000001
 40
0.0
 40
0.0
 40
0.0
 40
0.0
 40
0.0511129009857221
 40
0.1016896331838983
 40
0.1518293139104713
 40
0.201633670189439
 40
0.2512064936754081
 40
0.3006530343006331
 40
0.3500793489716449
 40
0.3995916247932065
 40
0.4492954981442684
 40
0.4992953912354716
 40
0.5872572780521574
 40
0.6724255494349275
 40
0.7555067762540824
 40
0.8372616735271673
 40
0.9184882400167564
 40
1.0
 40
1.0
 40
1.0
 40
1.0
 10
415.4512550545313
 20
112.24256581322
 30
0.0
 10
415.4352394706307
 20
112.2716944154509
 30
0.0
 10
415.4033763045678
 20
112.3296460640348
 30
0.0
 10
415.3563324661489
 20
112.412403899253
 30
0.0
 10
415.3103539419739
 20
112.4914927577372
 30
0.0
 10
415.2655732751703
 20
112.5667097456714
 30
0.0
 10
415.2220895107344
 20
112.6381728007171
 30
0.0
 10
415.1800035471498
 20
112.7059142049054
 30
0.0
 10
415.1394090827524
 20
112.7699877166504
 30
0.0
 10
415.1003941764022
 20
112.8304413157216
 30
0.0
 10
415.0630443539147
 20
112.8873188206499
 30
0.0
 10
415.0185160973227
 20
112.9540332937104
 30
0.0
 10
414.9698758367815
 20
113.0253535775749
 30
0.0
 10
414.9220367370257
 20
113.0939338300339
 30
0.0
 10
414.8843852249448
 20
113.1469501580761
 30
0.0
 10
414.8575625235573
 20
113.1842228142036
 30
0.0
 10
414.8408336927337
 20
113.2072602137836
 30
0.0
 10
414.8389852827698
 20
113.2097949390489
 30
0.0
 10
414.8380594581495
 20
113.2110645226923
 30
0.0
  0
SPLINE
  5
E0
330
1F
100
AcDbEntity
  8
0
  6
Continuous
 62
     7
370
    25
100
AcDbSpline
210
0.0
220
0.0
230
1.0
 70
     8
 71
     3
 72
     8
 73
     4
 74
     0
 42
0.000000001
 43
0.00000001
 40
0.0
 40
0.0
 40
0.0
 40
0.0
 40
1.0
 40
1.0
 40
1.0
 40
1.0
 10
418.1134045736775
 20
112.050574770642
 30
0.0
 10
418.1352899453206
 20
112.0748957868397
 30
0.0
 10
418.1571753169638
 20
112.0989203851622
 30
0.0
 10
418.1790606886069
 20
112.1226272372507
 30
0.0
  0
LINE
  5
E1
330
1F
100
AcDbEntity
  8
0
  6
Continuous
 62
     7
370
    25
100
AcDbLine
 10
418.1132443633
 20
112.0505747706
 30
0.0
 11
415.7175825244
 21
112.0505747706
 31
0.0
  0
SPLINE
  5
E2
330
1F
100
AcDbEntity
  8
0
  6
Continuous
 62
     7
370
    25
100
AcDbSpline
210
0.0
220
0.0
230
1.0
 70
     8
 71
     3
 72
     8
 73
     4
 74
     0
 42
0.000000001
 43
0.00000001
 40
0.0
 40
0.0
 40
0.0
 40
0.0
 40
1.0
 40
1.0
 40
1.0
 40
1.0
 10
397.2398689387792
 20
112.1227308047308
 30
0.0
 10
397.2617857112667
 20
112.0989903561717
 30
0.0
 10
397.2837024837543
 20
112.0749312043851
 30
0.0
 10
397.3056192562418
 20
112.0505747706422
 30
0.0
  0
SPLINE
  5
E3
330
1F
100
AcDbEntity
  8
0
  6
Continuous
 62
     7
370
    25
100
AcDbSpline
210
0.0
220
0.0
230
1.0
 70
     8
 71
     3
 72
    26
 73
    22
 74
     0
 42
0.000000001
 43
0.00000001
 40
0.0
 40
0.0
 40
0.0
 40
0.0
 40
0.0524616379932503
 40
0.1026498591890872
 40
0.150565513457809
 40
0.1962095861957063
 40
0.2395832262568645
 40
0.2806877815599511
 40
0.3195248450380211
 40
0.3560963147430692
 40
0.3904044736547445
 40
0.4224520974433627
 40
0.4522426027417772
 40
0.4797802555366611
 40
0.5050704712281336
 40
0.5966394156799991
 40
0.6841917884819224
 40
0.7679874773571101
 40
0.8483228539139507
 40
0.925534163520116
 40
1.0
 40
1.0
 40
1.0
 40
1.0
 10
399.7012637706893
 20
112.0505896626599
 30
0.0
 10
399.7191252549776
 20
112.080363122701
 30
0.0
 10
399.7540741989534
 20
112.1386198145943
 30
0.0
 10
399.8048390324354
 20
112.2208187949589
 30
0.0
 10
399.8529089900773
 20
112.2968996638597
 30
0.0
 10
399.8982529628421
 20
112.366851012326
 30
0.0
 10
399.9408789423474
 20
112.430958174278
 30
0.0
 10
399.9807852408565
 20
112.4894660137482
 30
0.0
 10
400.0179725699718
 20
112.5426545913702
 30
0.0
 10
400.0524413925627
 20
112.5908126316073
 30
0.0
 10
400.084191481195
 20
112.6342373048836
 30
0.0
 10
400.1132258857961
 20
112.6732273959805
 30
0.0
 10
400.1395371749972
 20
112.708081494507
 30
0.0
 10
400.1631538045414
 20
112.7390864889575
 30
0.0
 10
400.2027994835472
 20
112.7913297075904
 30
0.0
 10
400.2543377803463
 20
112.8588590408477
 30
0.0
 10
400.3111639173275
 20
112.9310524870562
 30
0.0
 10
400.3553213452905
 20
112.9855364431787
 30
0.0
 10
400.3864989682325
 20
113.0228012343471
 30
0.0
 10
400.4059585348716
 20
113.0452655866218
 30
0.0
 10
400.408100132552
 20
113.047988136049
 30
0.0
 10
400.4091515491088
 20
113.0493247706422
 30
0.0
  0
LINE
  5
E4
330
1F
100
AcDbEntity
  8
0
  6
Continuous
 62
     7
370
    25
100
AcDbLine
 10
399.7012637707
 20
112.0505747706
 30
0.0
 11
397.3056192562
 21
112.0505747706
 31
0.0
  0
LINE
  5
E5
330
1F
100
AcDbEntity
  8
0
  6
Continuous
 62
     7
370
    25
100
AcDbLine
 10
399.7760831483
 20
112.0505747706
 30
0.0
 11
399.70096355
 21
112.0505747706
 31
0.0
  0
SPLINE
  5
E6
330
1F
100
AcDbEntity
  8
0
  6
Continuous
 62
     7
370
    25
100
AcDbSpline
210
0.0
220
0.0
230
1.0
 70
     8
 71
     3
 72
     8
 73
     4
 74
     0
 42
0.000000001
 43
0.00000001
 40
0.0
 40
0.0
 40
0.0
 40
0.0
 40
1.0
 40
1.0
 40
1.0
 40
1.0
 10
399.7760831483223
 20
112.0505747706421
 30
0.0
 10
399.8399919509822
 20
112.1125436340732
 30
0.0
 10
399.9037668703342
 20
112.1765196991899
 30
0.0
 10
399.9671269362151
 20
112.2420543555357
 30
0.0
  0
SPLINE
  5
E7
330
1F
100
AcDbEntity
  8
0
  6
Continuous
 62
     7
370
    25
100
AcDbSpline
210
0.0
220
0.0
230
1.0
 70
     8
 71
     3
 72
    24
 73
    20
 74
     0
 42
0.000000001
 43
0.00000001
 40
0.0
 40
0.0
 40
0.0
 40
0.0
 40
0.0410257106287842
 40
0.0818520099077639
 40
0.1225800578354648
 40
0.1633117464058233
 40
0.2041489402806705
 40
0.2451927184749161
 40
0.2865426449235763
 40
0.3282960933646444
 40
0.370547647549383
 40
0.4133885920102291
 40
0.4569065022351533
 40
0.5011849368587563
 40
0.6001856774947433
 40
0.6987388860447942
 40
0.7976800645453981
 40
0.8978349910029445
 40
1.0
 40
1.0
 40
1.0
 40
1.0
 10
400.5807097420899
 20
113.2107148519736
 30
0.0
 10
400.5805149786489
 20
113.2104475018161
 30
0.0
 10
400.5801263984424
 20
113.2099141009948
 30
0.0
 10
400.5760716107681
 20
113.2043423549957
 30
0.0
 10
400.5694776517882
 20
113.1952616058419
 30
0.0
 10
400.5601133908783
 20
113.1823241454811
 30
0.0
 10
400.5480652771082
 20
113.1656057025753
 30
0.0
 10
400.5333427076478
 20
113.1450636918035
 30
0.0
 10
400.5159837148006
 20
113.1206823177567
 30
0.0
 10
400.4960265436472
 20
113.0924335736849
 30
0.0
 10
400.4735174939517
 20
113.0602880262838
 30
0.0
 10
400.4485082581903
 20
113.0242111863176
 30
0.0
 10
400.4210588886654
 20
112.9841675937982
 30
0.0
 10
400.3791357755982
 20
112.922247150457
 30
0.0
 10
400.319929600387
 20
112.8329346593604
 30
0.0
 10
400.2401500072668
 20
112.7083900673318
 30
0.0
 10
400.1541692222803
 20
112.568605274842
 30
0.0
 10
400.0628844350583
 20
112.4141924558559
 30
0.0
 10
399.9996800810003
 20
112.300146434205
 30
0.0
 10
399.9677639310348
 20
112.2425568901897
 30
0.0
  0
LINE
  5
E8
330
1F
100
AcDbEntity
  8
0
  6
Continuous
 62
     7
370
    25
100
AcDbLine
 10
396.8968710245
 20
103.5292697729
 30
0.0
 11
397.3211084395
 21
103.9780626715
 31
0.0
  0
SPLINE
  5
E9
330
1F
100
AcDbEntity
  8
0
  6
Continuous
 62
     7
370
    25
100
AcDbSpline
210
0.0
220
0.0
230
1.0
 70
     8
 71
     3
 72
    13
 73
     9
 74
     0
 42
0.000000001
 43
0.00000001
 40
0.0
 40
0.0
 40
0.0
 40
0.0
 40
0.170632084649598
 40
0.3395984165075754
 40
0.5069574111411415
 40
0.6727691830249297
 40
0.8370955447763889
 40
1.0
 40
1.0
 40
1.0
 40
1.0
 10
397.3211084394831
 20
103.9780420291129
 30
0.0
 10
397.326113909892
 20
103.9710906560315
 30
0.0
 10
397.3360759860643
 20
103.9572557708994
 30
0.0
 10
397.3489498139562
 20
103.9411280124425
 30
0.0
 10
397.3602161264521
 20
103.9284592822835
 30
0.0
 10
397.3696934898874
 20
103.9196028444445
 30
0.0
 10
397.3775757225822
 20
103.9140908159647
 30
0.0
 10
397.3813906288156
 20
103.9134124698839
 30
0.0
 10
397.3832897935318
 20
103.9130747706422
 30
0.0
  0
SPLINE
  5
EA
330
1F
100
AcDbEntity
  8
0
  6
Continuous
 62
     7
370
    25
100
AcDbSpline
210
0.0
220
0.0
230
1.0
 70
     8
 71
     3
 72
    13
 73
     9
 74
     0
 42
0.000000001
 43
0.00000001
 40
0.0
 40
0.0
 40
0.0
 40
0.0
 40
0.1621004456571512
 40
0.325943455157606
 40
0.4915935308260523
 40
0.6591130873964648
 40
0.8285624736043361
 40
1.0
 40
1.0
 40
1.0
 40
1.0
 10
418.035734059679
 20
103.9130747706422
 30
0.0
 10
418.0376111660212
 20
103.9134092537428
 30
0.0
 10
418.0413855574141
 20
103.9140818156045
 30
0.0
 10
418.049232634593
 20
103.9195551000001
 30
0.0
 10
418.0586986943681
 20
103.9283745646605
 30
0.0
 10
418.0699796091704
 20
103.9410273216544
 30
0.0
 10
418.0828942276682
 20
103.9571793230509
 30
0.0
 10
418.0928899419139
 20
103.9710651229939
 30
0.0
 10
418.0979169478255
 20
103.9780485157445
 30
0.0
  0
LINE
  5
EB
330
1F
100
AcDbEntity
  8
0
  6
Continuous
 62
     7
370
    25
100
AcDbLine
 10
418.0979299157
 20
103.9780488838
 30
0.0
 11
418.5221520804
 21
103.5292697984
 31
0.0
  0
LINE
  5
EC
330
1F
100
AcDbEntity
  8
0
  6
Continuous
 62
     7
370
    25
100
AcDbLine
 10
415.6429407049
 20
103.9880747706
 30
0.0
 11
415.6516620145
 21
103.9880747706
 31
0.0
  0
SPLINE
  5
ED
330
1F
100
AcDbEntity
  8
0
  6
Continuous
 62
     7
370
    25
100
AcDbSpline
210
0.0
220
0.0
230
1.0
 70
     8
 71
     3
 72
     8
 73
     4
 74
     0
 42
0.000000001
 43
0.00000001
 40
0.0
 40
0.0
 40
0.0
 40
0.0
 40
1.0
 40
1.0
 40
1.0
 40
1.0
 10
418.0979299888185
 20
103.9780491288118
 30
0.0
 10
418.0957465045773
 20
103.9808977943281
 30
0.0
 10
418.0935630203362
 20
103.9838385857256
 30
0.0
 10
418.0913795360951
 20
103.9868710830022
 30
0.0
  0
LINE
  5
EE
330
1F
100
AcDbEntity
  8
0
  6
Continuous
 62
     7
370
    25
100
AcDbLine
 10
418.090476793
 20
103.9880747706
 30
0.0
 11
415.6516664337
 21
103.9880747706
 31
0.0
  0
SPLINE
  5
EF
330
1F
100
AcDbEntity
  8
0
  6
Continuous
 62
     7
370
    25
100
AcDbSpline
210
0.0
220
0.0
230
1.0
 70
     8
 71
     3
 72
     8
 73
     4
 74
     0
 42
0.000000001
 43
0.00000001
 40
0.0
 40
0.0
 40
0.0
 40
0.0
 40
1.0
 40
1.0
 40
1.0
 40
1.0
 10
397.3285470835252
 20
103.9880747706498
 30
0.0
 10
397.3260611648387
 20
103.9846130713378
 30
0.0
 10
397.3235752461521
 20
103.9812689194289
 30
0.0
 10
397.3210893274656
 20
103.9780429274885
 30
0.0
  0
LINE
  5
F0
330
1F
100
AcDbEntity
  8
0
  6
Continuous
 62
     7
370
    25
100
AcDbLine
 10
399.7658511401
 20
103.9880747706
 30
0.0
 11
397.3287635298
 21
103.9880747706
 31
0.0
  0
LINE
  5
F1
330
1F
100
AcDbEntity
  8
0
  6
Continuous
 62
     7
370
    25
100
AcDbLine
 10
399.7673609981
 20
103.9880747706
 30
0.0
 11
399.7760831483
 21
103.9880747706
 31
0.0
  0
SPLINE
  5
F2
330
1F
100
AcDbEntity
  8
0
  6
Continuous
 62
     7
370
    25
100
AcDbSpline
210
0.0
220
0.0
230
1.0
 70
     8
 71
     3
 72
    14
 73
    10
 74
     0
 42
0.000000001
 43
0.00000001
 40
0.0
 40
0.0
 40
0.0
 40
0.0
 40
0.0310276388071871
 40
0.0622853718672875
 40
0.1248003166904921
 40
0.249828973175415
 40
0.4998892603610702
 40
0.7606803621692766
 40
1.0
 40
1.0
 40
1.0
 40
1.0
 10
396.7494179321462
 20
103.5313365960268
 30
0.0
 10
396.7537472256114
 20
103.5361205183049
 30
0.0
 10
396.7624379176449
 20
103.5457238393931
 30
0.0
 10
396.779838696307
 20
103.565018153391
 30
0.0
 10
396.810314856152
 20
103.5987830998446
 30
0.0
 10
396.8711362489714
 20
103.6662018587064
 30
0.0
 10
396.9590265913848
 20
103.7636685335735
 30
0.0
 10
397.0618642714683
 20
103.8778130454703
 30
0.0
 10
397.1290703829099
 20
103.952597858477
 30
0.0
 10
397.1612307445567
 20
103.988384881121
 30
0.0
  0
LINE
  5
F3
330
1F
100
AcDbEntity
  8
0
  6
Continuous
 62
     7
370
    25
100
AcDbLine
 10
397.1609022454
 20
103.9880747706
 30
0.0
 11
397.3285470835
 21
103.9880747706
 31
0.0
  0
LINE
  5
F4
330
1F
100
AcDbEntity
  8
0
  6
Continuous
 62
     7
370
    25
100
AcDbLine
 10
418.090476793
 20
103.9880747706
 30
0.0
 11
418.2581289923
 21
103.9880747706
 31
0.0
  0
SPLINE
  5
F5
330
1F
100
AcDbEntity
  8
0
  6
Continuous
 62
     7
370
    25
100
AcDbSpline
210
0.0
220
0.0
230
1.0
 70
     8
 71
     3
 72
    11
 73
     7
 74
     0
 42
0.000000001
 43
0.00000001
 40
0.0
 40
0.0
 40
0.0
 40
0.0
 40
0.2392913844325938
 40
0.5001130135003002
 40
0.7515028526498353
 40
0.9999999999999999
 40
0.9999999999999999
 40
0.9999999999999999
 40
0.9999999999999999
 10
418.2578251792758
 20
103.9883615731537
 30
0.0
 10
418.2899817322555
 20
103.9525848545764
 30
0.0
 10
418.357188124381
 20
103.8778124068208
 30
0.0
 10
418.4602162141285
 20
103.763353693498
 30
0.0
 10
418.5653068787456
 20
103.6471945073781
 30
0.0
 10
418.6349816988254
 20
103.5698065660825
 30
0.0
 10
418.669617515519
 20
103.5313365055075
 30
0.0
  0
LINE
  5
F6
330
1F
100
AcDbEntity
  8
0
  6
Continuous
 62
     7
370
    25
100
AcDbLine
 10
397.3056192562
 20
112.0505747706
 30
0.0
 11
397.1610469602
 21
112.0505747706
 31
0.0
  0
SPLINE
  5
F7
330
1F
100
AcDbEntity
  8
0
  6
Continuous
 62
     7
370
    25
100
AcDbSpline
210
0.0
220
0.0
230
1.0
 70
     8
 71
     3
 72
    11
 73
     7
 74
     0
 42
0.000000001
 43
0.00000001
 40
0.0
 40
0.0
 40
0.0
 40
0.0
 40
0.2392845094479873
 40
0.5001120454076898
 40
0.7515010915036774
 40
1.0
 40
1.0
 40
1.0
 40
1.0
 10
397.1613495823958
 20
112.0502889844455
 30
0.0
 10
397.1291884526258
 20
112.0860868335074
 30
0.0
 10
397.0619706940296
 20
112.1609054482051
 30
0.0
 10
396.9589260455315
 20
112.2754337124603
 30
0.0
 10
396.8538178166448
 20
112.3916647061346
 30
0.0
 10
396.7841323000174
 20
112.4690992018257
 30
0.0
 10
396.7494909875776
 20
112.5075926031617
 30
0.0
  0
SPLINE
  5
F8
330
1F
100
AcDbEntity
  8
0
  6
Continuous
 62
     7
370
    25
100
AcDbSpline
210
0.0
220
0.0
230
1.0
 70
     8
 71
     3
 72
    14
 73
    10
 74
     0
 42
0.000000001
 43
0.00000001
 40
0.0
 40
0.0
 40
0.0
 40
0.0
 40
0.031029414748255
 40
0.0622870907562092
 40
0.1248019217225762
 40
0.249830351143087
 40
0.4998901825554788
 40
0.7606872170552411
 40
1.0
 40
1.0
 40
1.0
 40
1.0
 10
418.669521250308
 20
112.5075924948856
 30
0.0
 10
418.6651910539924
 20
112.5028053083156
 30
0.0
 10
418.6564988071973
 20
112.4931957192604
 30
0.0
 10
418.6390951788499
 20
112.4738897255545
 30
0.0
 10
418.6086144433148
 20
112.4401045099025
 30
0.0
 10
418.5477838215925
 20
112.372645378955
 30
0.0
 10
418.4598789184259
 20
112.2751188732447
 30
0.0
 10
418.357024673809
 20
112.1609048664702
 30
0.0
 10
418.2898072156625
 20
112.0860739063652
 30
0.0
 10
418.2576422862602
 20
112.050265760457
 30
0.0
  0
LINE
  5
F9
330
1F
100
AcDbEntity
  8
0
  6
Continuous
 62
     7
370
    25
100
AcDbLine
 10
418.2579694963
 20
112.0505747706
 30
0.0
 11
418.1134045737
 21
112.0505747706
 31
0.0
  0
LINE
  5
FA
330
1F
100
AcDbEntity
  8
0
  6
Continuous
 62
     7
370
    25
100
AcDbLine
 10
395.8388440618
 20
105.8319870281
 30
0.0
 11
396.2789067192
 21
105.9130747706
 31
0.0
  0
SPLINE
  5
FB
330
1F
100
AcDbEntity
  8
0
  6
Continuous
 62
     7
370
    25
100
AcDbSpline
210
0.0
220
0.0
230
1.0
 70
     8
 71
     3
 72
    25
 73
    21
 74
     0
 42
0.000000001
 43
0.00000001
 40
0.0
 40
0.0
 40
0.0
 40
0.0
 40
0.0274788704223154
 40
0.0560416006850518
 40
0.0856947086352136
 40
0.116444016653826
 40
0.1482947438681133
 40
0.1812515840470034
 40
0.2153187716748716
 40
0.2505001382254911
 40
0.333051455250936
 40
0.5015081958163736
 40
0.5771663066143947
 40
0.648898130302521
 40
0.716747770006283
 40
0.7807674423488066
 40
0.84101941313403
 40
0.8975784849924567
 40
0.9505352047788314
 40
1.0
 40
1.0
 40
1.0
 40
1.0
 10
396.2789067191942
 20
105.9130747706422
 30
0.0
 10
396.2856148865376
 20
105.8838925661247
 30
0.0
 10
396.2992958140944
 20
105.8243771119759
 30
0.0
 10
396.3220605427483
 20
105.7339866149173
 30
0.0
 10
396.3469381799887
 20
105.6408550057961
 30
0.0
 10
396.3740774180062
 20
105.5452689615212
 30
0.0
 10
396.4034388250374
 20
105.447515491908
 30
0.0
 10
396.4350239953255
 20
105.3479348158505
 30
0.0
 10
396.4688708651904
 20
105.2469256762719
 30
0.0
 10
396.5205720951232
 20
105.1001588690208
 30
0.0
 10
396.6249311081368
 20
104.8358924561065
 30
0.0
 10
396.7458043358207
 20
104.565922826278
 30
0.0
 10
396.8592973822776
 20
104.3485131515617
 30
0.0
 10
396.9305703498935
 20
104.2188095808312
 30
0.0
 10
396.9926449220194
 20
104.1149345035064
 30
0.0
 10
397.0452289341867
 20
104.0350738696879
 30
0.0
 10
397.0884754801141
 20
103.9770552435373
 30
0.0
 10
397.1220822923343
 20
103.9389516848849
 30
0.0
 10
397.1470292752069
 20
103.9169491538902
 30
0.0
 10
397.155988812069
 20
103.9143365405389
 30
0.0
 10
397.160315848787
 20
103.9130747706422
 30
0.0
  0
LINE
  5
FC
330
1F
100
AcDbEntity
  8
0
  6
Continuous
 62
     7
370
    25
100
AcDbLine
 10
419.5801797914
 20
110.2066625132
 30
0.0
 11
419.140117134
 21
110.1255747706
 31
0.0
  0
SPLINE
  5
FD
330
1F
100
AcDbEntity
  8
0
  6
Continuous
 62
     7
370
    25
100
AcDbSpline
210
0.0
220
0.0
230
1.0
 70
     8
 71
     3
 72
    25
 73
    21
 74
     0
 42
0.000000001
 43
0.00000001
 40
0.0
 40
0.0
 40
0.0
 40
0.0
 40
0.0274788704223041
 40
0.0560416006850305
 40
0.0856947086351823
 40
0.1164440166537841
 40
0.1482947438680617
 40
0.1812515840469434
 40
0.2153187716748025
 40
0.2505001382254136
 40
0.3330514552861967
 40
0.5015081958164245
 40
0.5771663066128696
 40
0.6488981302998588
 40
0.7167477700029257
 40
0.7807674423452041
 40
0.8410194131306359
 40
0.8975784849897311
 40
0.950535204777236
 40
1.0
 40
1.0
 40
1.0
 40
1.0
 10
419.1401171340167
 20
110.1255747706422
 30
0.0
 10
419.1334089666732
 20
110.1547569751597
 30
0.0
 10
419.1197280391165
 20
110.2142724293084
 30
0.0
 10
419.0969633104625
 20
110.3046629263671
 30
0.0
 10
419.0720856732222
 20
110.3977945354882
 30
0.0
 10
419.0449464352047
 20
110.4933805797631
 30
0.0
 10
419.0155850281734
 20
110.5911340493764
 30
0.0
 10
418.9839998578854
 20
110.6907147254338
 30
0.0
 10
418.9501529880206
 20
110.7917238650124
 30
0.0
 10
418.8984517580753
 20
110.9384906722976
 30
0.0
 10
418.7940927450643
 20
111.2027570852101
 30
0.0
 10
418.6732195173786
 20
111.4727267150292
 30
0.0
 10
418.5597264709333
 20
111.6901363897195
 30
0.0
 10
418.4884535033177
 20
111.8198399604484
 30
0.0
 10
418.4263789311919
 20
111.9237150377731
 30
0.0
 10
418.3737949190248
 20
112.0035756715924
 30
0.0
 10
418.3305483730973
 20
112.0615942977443
 30
0.0
 10
418.296941560877
 20
112.0996978563981
 30
0.0
 10
418.2719945780041
 20
112.1217003873939
 30
0.0
 10
418.263035041142
 20
112.1243130007454
 30
0.0
 10
418.2587080044239
 20
112.1255747706422
 30
0.0
  0
SPLINE
  5
FE
330
1F
100
AcDbEntity
  8
0
  6
Continuous
 62
     7
370
    25
100
AcDbSpline
210
0.0
220
0.0
230
1.0
 70
     8
 71
     3
 72
    25
 73
    21
 74
     0
 42
0.000000001
 43
0.00000001
 40
0.0
 40
0.0
 40
0.0
 40
0.0
 40
0.0288821753110086
 40
0.0583636594013118
 40
0.0884647204314734
 40
0.1192044006626603
 40
0.150600580009491
 40
0.1826700399677263
 40
0.2154285269580574
 40
0.248890814337993
 40
0.361059447124065
 40
0.4984670131067773
 40
0.5822693905007604
 40
0.666112764278331
 40
0.7499972937224478
 40
0.8007709755049082
 40
0.8511237700832938
 40
0.9010896024531745
 40
0.9507031914125761
 40
1.0
 40
1.0
 40
1.0
 40
1.0
 10
397.160315848787
 20
112.1255747706422
 30
0.0
 10
397.1580255804093
 20
112.1251465286663
 30
0.0
 10
397.1533975202963
 20
112.1242811586395
 30
0.0
 10
397.143087257209
 20
112.1172062259378
 30
0.0
 10
397.1302511879781
 20
112.1056376847774
 30
0.0
 10
397.1146376292355
 20
112.088932108665
 30
0.0
 10
397.0963161858228
 20
112.0669951976488
 30
0.0
 10
397.0752685999917
 20
112.0395975621641
 30
0.0
 10
397.0514970279996
 20
112.006563081482
 30
0.0
 10
397.0044404985631
 20
111.9375724153542
 30
0.0
 10
396.9167460807063
 20
111.7975464459325
 30
0.0
 10
396.7991944261728
 20
111.578251144728
 30
0.0
 10
396.6876722618314
 20
111.3413210839568
 30
0.0
 10
396.5962129444834
 20
111.1254792100469
 30
0.0
 10
396.5153312933058
 20
110.9239175891651
 30
0.0
 10
396.4491863914378
 20
110.745049508773
 30
0.0
 10
396.3998358306106
 20
110.5936733076291
 30
0.0
 10
396.3548688137458
 20
110.4394291525061
 30
0.0
 10
396.3141110998266
 20
110.2832732974305
 30
0.0
 10
396.2906164306093
 20
110.1780285904825
 30
0.0
 10
396.2789067191942
 20
110.1255747706422
 30
0.0
  0
LINE
  5
FF
330
1F
100
AcDbEntity
  8
0
  6
Continuous
 62
     7
370
    25
100
AcDbLine
 10
395.8388440618
 20
110.2066625132
 30
0.0
 11
396.2789067192
 21
110.1255747706
 31
0.0
  0
SPLINE
  5
100
330
1F
100
AcDbEntity
  8
0
  6
Continuous
 62
     7
370
    25
100
AcDbSpline
210
0.0
220
0.0
230
1.0
 70
     8
 71
     3
 72
    25
 73
    21
 74
     0
 42
0.000000001
 43
0.00000001
 40
0.0
 40
0.0
 40
0.0
 40
0.0
 40
0.0288821753116583
 40
0.0583636594024247
 40
0.088464720432864
 40
0.1192044006641432
 40
0.1506005800108822
 40
0.1826700399688414
 40
0.2154285269587146
 40
0.2488908143380118
 40
0.3610594471217245
 40
0.498467013106778
 40
0.5822693905006526
 40
0.6661127642782239
 40
0.7499972937224496
 40
0.8007709755032478
 40
0.8511237700807983
 40
0.901089602450676
 40
0.9507031914109089
 40
1.0
 40
1.0
 40
1.0
 40
1.0
 10
418.2587080044239
 20
103.9130747706422
 30
0.0
 10
418.2609982728016
 20
103.9135030126181
 30
0.0
 10
418.2656263329146
 20
103.9143683826449
 30
0.0
 10
418.2759365960021
 20
103.9214433153468
 30
0.0
 10
418.288772665233
 20
103.9330118565075
 30
0.0
 10
418.3043862239757
 20
103.9497174326203
 30
0.0
 10
418.3227076673883
 20
103.9716543436366
 30
0.0
 10
418.3437552532193
 20
103.9990519791213
 30
0.0
 10
418.3675268252113
 20
104.0320864598031
 30
0.0
 10
418.4145833546476
 20
104.1010771259296
 30
0.0
 10
418.5022777725054
 20
104.2411030953502
 30
0.0
 10
418.6198294270374
 20
104.4603983965543
 30
0.0
 10
418.7313515913783
 20
104.6973284573277
 30
0.0
 10
418.8228109087263
 20
104.9131703312376
 30
0.0
 10
418.9036925599042
 20
105.1147319521177
 30
0.0
 10
418.9698374617723
 20
105.2936000325072
 30
0.0
 10
419.0191880225988
 20
105.4449762336483
 30
0.0
 10
419.0641550394636
 20
105.5992203887712
 30
0.0
 10
419.1049127533834
 20
105.7553762438494
 30
0.0
 10
419.1284074226012
 20
105.8606209508001
 30
0.0
 10
419.1401171340167
 20
105.9130747706422
 30
0.0
  0
LINE
  5
101
330
1F
100
AcDbEntity
  8
0
  6
Continuous
 62
     7
370
    25
100
AcDbLine
 10
419.5801797914
 20
105.8319870281
 30
0.0
 11
419.140117134
 21
105.9130747706
 31
0.0
  0
SPLINE
  5
102
330
1F
100
AcDbEntity
  8
0
  6
Continuous
 62
     7
370
    25
100
AcDbSpline
210
0.0
220
0.0
230
1.0
 70
     8
 71
     3
 72
    14
 73
    10
 74
     0
 42
0.000000001
 43
0.00000001
 40
0.0
 40
0.0
 40
0.0
 40
0.0
 40
0.1359145300112974
 40
0.2970841336547354
 40
0.4458230192132127
 40
0.5950336724695611
 40
0.7620249554136269
 40
0.9152755812521424
 40
1.0
 40
1.0
 40
1.0
 40
1.0
 10
398.8116540383269
 20
110.1255747706422
 30
0.0
 10
398.8468980579805
 20
110.2460031394174
 30
0.0
 10
398.9239349946821
 20
110.5092373764198
 30
0.0
 10
399.064642854057
 20
110.8828352325459
 30
0.0
 10
399.2135963564996
 20
111.2347962804735
 30
0.0
 10
399.3714066254537
 20
111.5474938170844
 30
0.0
 10
399.5180261499631
 20
111.8050686038253
 30
0.0
 10
399.6199447734446
 20
111.9806250500968
 30
0.0
 10
399.6533143473144
 20
112.033411273805
 30
0.0
 10
399.6651946591971
 20
112.0522043456977
 30
0.0
  0
SPLINE
  5
103
330
1F
100
AcDbEntity
  8
0
  6
Continuous
 62
     7
370
    25
100
AcDbSpline
210
0.0
220
0.0
230
1.0
 70
     8
 71
     3
 72
    14
 73
    10
 74
     0
 42
0.000000001
 43
0.00000001
 40
0.0
 40
0.0
 40
0.0
 40
0.0
 40
0.1359145300005337
 40
0.2970841336540051
 40
0.445823019211832
 40
0.5950336724681434
 40
0.7620249554082487
 40
0.9152755812451852
 40
1.0
 40
1.0
 40
1.0
 40
1.0
 10
416.607369814884
 20
105.9130747706422
 30
0.0
 10
416.5721257952325
 20
105.7926464018764
 30
0.0
 10
416.4950888585298
 20
105.5294121648745
 30
0.0
 10
416.3543809991569
 20
105.1558143087467
 30
0.0
 10
416.2054274967145
 20
104.80385326081
 30
0.0
 10
416.0476172277584
 20
104.4911557242026
 30
0.0
 10
415.9009977032466
 20
104.233580937464
 30
0.0
 10
415.7990790797643
 20
104.0580244911902
 30
0.0
 10
415.7657095058942
 20
104.0052382674797
 30
0.0
 10
415.7538291940107
 20
103.9864451955851
 30
0.0
  0
SPLINE
  5
104
330
1F
100
AcDbEntity
  8
0
  6
Continuous
 62
     7
370
    25
100
AcDbSpline
210
0.0
220
0.0
230
1.0
 70
     8
 71
     3
 72
    13
 73
     9
 74
     0
 42
0.000000001
 43
0.00000001
 40
0.0
 40
0.0
 40
0.0
 40
0.0
 40
0.0217286921435962
 40
0.1003820497560808
 40
0.2372357405520672
 40
0.3994036557033713
 40
0.7008666741923809
 40
1.0
 40
1.0
 40
1.0
 40
1.0
 10
399.6630151569886
 20
103.9876341759491
 30
0.0
 10
399.6600784660086
 20
103.9922561798854
 30
0.0
 10
399.6465115629418
 20
104.0136088791664
 30
0.0
 10
399.5990577190301
 20
104.0909039640199
 30
0.0
 10
399.5055006523064
 20
104.2468368905883
 30
0.0
 10
399.3259033206164
 20
104.5793047535071
 30
0.0
 10
399.0568738097529
 20
105.1273010840077
 30
0.0
 10
398.8931823108935
 20
105.6518284162924
 30
0.0
 10
398.8116540383269
 20
105.9130747706422
 30
0.0
  0
LINE
  5
105
330
1F
100
AcDbEntity
  8
0
  6
Continuous
 62
     7
370
    25
100
AcDbLine
 10
399.1279141957
 20
110.050711476
 30
0.0
 11
398.8116540383
 21
110.1255747706
 31
0.0
  0
SPLINE
  5
106
330
1F
100
AcDbEntity
  8
0
  6
Continuous
 62
     7
370
    25
100
AcDbSpline
210
0.0
220
0.0
230
1.0
 70
     8
 71
     3
 72
    25
 73
    21
 74
     0
 42
0.000000001
 43
0.00000001
 40
0.0
 40
0.0
 40
0.0
 40
0.0
 40
0.0278144320063462
 40
0.0555680196245754
 40
0.083331625367772
 40
0.111176035216759
 40
0.1391714221532265
 40
0.1673868326284763
 40
0.1958897140434718
 40
0.2247454979318961
 40
0.254017249222145
 40
0.3796724410016501
 40
0.5056484635002454
 40
0.629752729069345
 40
0.7535891720571729
 40
0.8038564806093713
 40
0.853339684343451
 40
0.9023264398358534
 40
0.9511131859219439
 40
1.0
 40
1.0
 40
1.0
 40
1.0
 10
399.9955358373169
 20
112.2930730618247
 30
0.0
 10
399.9953880860022
 20
112.2928065192711
 30
0.0
 10
399.9950929065805
 20
112.2922740172289
 30
0.0
 10
399.9914682075647
 20
112.2857265685328
 30
0.0
 10
399.9855223118943
 20
112.2749573252466
 30
0.0
 10
399.9770475889793
 20
112.2595465893223
 30
0.0
 10
399.9661326021401
 20
112.2395902130685
 30
0.0
 10
399.9527965339017
 20
112.215040116598
 30
0.0
 10
399.9370887692148
 20
112.1858834928421
 30
0.0
 10
399.919057181057
 20
112.1520875214087
 30
0.0
 10
399.8766396363085
 20
112.0716807633509
 30
0.0
 10
399.7961185965551
 20
111.9146923136802
 30
0.0
 10
399.6626922496806
 20
111.6329065759329
 30
0.0
 10
399.5186152729974
 20
111.2950344663059
 30
0.0
 10
399.4029375215461
 20
110.9863535525676
 30
0.0
 10
399.3204260463288
 20
110.7403228328126
 30
0.0
 10
399.2675044218037
 20
110.5714969415394
 30
0.0
 10
399.2176472874262
 20
110.4001813705276
 30
0.0
 10
399.1706292941957
 20
110.2264990203068
 30
0.0
 10
399.1421622834671
 20
110.1093473320034
 30
0.0
 10
399.1279141956683
 20
110.050711476042
 30
0.0
  0
LINE
  5
107
330
1F
100
AcDbEntity
  8
0
  6
Continuous
 62
     7
370
    25
100
AcDbLine
 10
399.1279141957
 20
105.9879380652
 30
0.0
 11
398.8116540383
 21
105.9130747706
 31
0.0
  0
SPLINE
  5
108
330
1F
100
AcDbEntity
  8
0
  6
Continuous
 62
     7
370
    25
100
AcDbSpline
210
0.0
220
0.0
230
1.0
 70
     8
 71
     3
 72
    25
 73
    21
 74
     0
 42
0.000000001
 43
0.00000001
 40
0.0
 40
0.0
 40
0.0
 40
0.0
 40
0.0269872354797669
 40
0.0539362690259618
 40
0.0809037148829035
 40
0.1079460716545392
 40
0.1351193706855853
 40
0.162478838835575
 40
0.190078585418252
 40
0.2179713214290535
 40
0.2462081170984584
 40
0.3700050494705653
 40
0.4947542611659071
 40
0.6210439034695193
 40
0.7446557472315123
 40
0.7967060293738726
 40
0.8478613449329371
 40
0.8985210411990388
 40
0.9490962115257747
 40
1.0
 40
1.0
 40
1.0
 40
1.0
 10
399.1279141956683
 20
105.9879380652423
 30
0.0
 10
399.1356949403924
 20
105.9555416602146
 30
0.0
 10
399.1512454157634
 20
105.8907947090733
 30
0.0
 10
399.1759308217366
 20
105.7941481726446
 30
0.0
 10
399.2015507787356
 20
105.6980540841533
 30
0.0
 10
399.2281936423631
 20
105.6025418134366
 30
0.0
 10
399.2558188276475
 20
105.5076170860439
 30
0.0
 10
399.2844206067068
 20
105.4132909299082
 30
0.0
 10
399.3139826963484
 20
105.319574585459
 30
0.0
 10
399.3444958433955
 20
105.2264705015687
 30
0.0
 10
399.4112300479848
 20
105.0302052594557
 30
0.0
 10
399.5184132240806
 20
104.7441321438524
 30
0.0
 10
399.6621933143893
 20
104.406842247859
 30
0.0
 10
399.7954417706011
 20
104.1253330710355
 30
0.0
 10
399.8831129468144
 20
103.9543421408571
 30
0.0
 10
399.9339879826067
 20
103.8584293224746
 30
0.0
 10
399.9616571372581
 20
103.80721211902
 30
0.0
 10
399.9813560553756
 20
103.7712293249349
 30
0.0
 10
399.9936035640791
 20
103.7490594366129
 30
0.0
 10
399.9948903572352
 20
103.7467399688793
 30
0.0
 10
399.9955358373169
 20
103.7455764794597
 30
0.0
  0
SPLINE
  5
109
330
1F
100
AcDbEntity
  8
0
  6
Continuous
 62
     7
370
    25
100
AcDbSpline
210
0.0
220
0.0
230
1.0
 70
     8
 71
     3
 72
    13
 73
     9
 74
     0
 42
0.000000001
 43
0.00000001
 40
0.0
 40
0.0
 40
0.0
 40
0.0
 40
0.0217286921488609
 40
0.1003820497583595
 40
0.2372357405601296
 40
0.399403655704887
 40
0.7008666741931369
 40
1.0
 40
1.0
 40
1.0
 40
1.0
 10
415.7560086962199
 20
112.0510153653367
 30
0.0
 10
415.7589453872006
 20
112.0463933613992
 30
0.0
 10
415.7725122902678
 20
112.0250406621175
 30
0.0
 10
415.8199661341834
 20
111.9477455772616
 30
0.0
 10
415.9135232009071
 20
111.791812650693
 30
0.0
 10
416.0931205325962
 20
111.4593447877728
 30
0.0
 10
416.3621500434581
 20
110.9113484572767
 30
0.0
 10
416.5258415423175
 20
110.386821124992
 30
0.0
 10
416.607369814884
 20
110.1255747706422
 30
0.0
  0
LINE
  5
10A
330
1F
100
AcDbEntity
  8
0
  6
Continuous
 62
     7
370
    25
100
AcDbLine
 10
416.2911096575
 20
110.050711476
 30
0.0
 11
416.6073698149
 21
110.1255747706
 31
0.0
  0
SPLINE
  5
10B
330
1F
100
AcDbEntity
  8
0
  6
Continuous
 62
     7
370
    25
100
AcDbSpline
210
0.0
220
0.0
230
1.0
 70
     8
 71
     3
 72
    14
 73
    10
 74
     0
 42
0.000000001
 43
0.00000001
 40
0.0
 40
0.0
 40
0.0
 40
0.0
 40
0.1400505389350903
 40
0.2837941391411564
 40
0.4267315409806389
 40
0.5707684557847207
 40
0.7165839699846748
 40
0.8593076663242981
 40
1.0
 40
1.0
 40
1.0
 40
1.0
 10
416.2911096575425
 20
110.050711476042
 30
0.0
 10
416.2543427283402
 20
110.1962715072856
 30
0.0
 10
416.1798393447676
 20
110.4912299135455
 30
0.0
 10
416.0446501255822
 20
110.9092939224195
 30
0.0
 10
415.9007657224782
 20
111.2943466158541
 30
0.0
 10
415.756628982506
 20
111.6321546244394
 30
0.0
 10
415.6242333097238
 20
111.9120954150636
 30
0.0
 10
415.5133125288999
 20
112.1282359026998
 30
0.0
 10
415.4719770484625
 20
112.2042990483839
 30
0.0
 10
415.451457442687
 20
112.2420580328437
 30
0.0
  0
LINE
  5
10C
330
1F
100
AcDbEntity
  8
0
  6
Continuous
 62
     7
370
    25
100
AcDbLine
 10
416.2911096575
 20
105.9879380652
 30
0.0
 11
416.6073698149
 21
105.9130747706
 31
0.0
  0
SPLINE
  5
10D
330
1F
100
AcDbEntity
  8
0
  6
Continuous
 62
     7
370
    25
100
AcDbSpline
210
0.0
220
0.0
230
1.0
 70
     8
 71
     3
 72
    25
 73
    21
 74
     0
 42
0.000000001
 43
0.00000001
 40
0.0
 40
0.0
 40
0.0
 40
0.0
 40
0.0278144320057649
 40
0.0555680196235595
 40
0.083331625366468
 40
0.1111760352153128
 40
0.1391714221517827
 40
0.1673868326271739
 40
0.195889714042447
 40
0.2247454979312803
 40
0.2540172492220635
 40
0.3796724409988544
 40
0.505648463500191
 40
0.6297527290689083
 40
0.7535891720572004
 40
0.803856480609888
 40
0.85333968434422
 40
0.902326439836625
 40
0.9511131859224594
 40
1.0
 40
1.0
 40
1.0
 40
1.0
 10
415.4234880158939
 20
103.7455764794597
 30
0.0
 10
415.4236357672086
 20
103.7458430220132
 30
0.0
 10
415.4239309466304
 20
103.7463755240555
 30
0.0
 10
415.4275556456462
 20
103.7529229727516
 30
0.0
 10
415.4335015413165
 20
103.7636922160378
 30
0.0
 10
415.4419762642316
 20
103.7791029519622
 30
0.0
 10
415.4528912510708
 20
103.7990593282159
 30
0.0
 10
415.4662273193092
 20
103.8236094246864
 30
0.0
 10
415.4819350839961
 20
103.8527660484423
 30
0.0
 10
415.499966672154
 20
103.8865620198758
 30
0.0
 10
415.542384216901
 20
103.966968777931
 30
0.0
 10
415.6229052566549
 20
104.1239572276022
 30
0.0
 10
415.7563316035292
 20
104.405742965349
 30
0.0
 10
415.9004085802128
 20
104.7436150749769
 30
0.0
 10
416.0160863316648
 20
105.0522959887167
 30
0.0
 10
416.0985978068826
 20
105.2983267084733
 30
0.0
 10
416.151519431408
 20
105.4671525997474
 30
0.0
 10
416.2013765657853
 20
105.6384681707592
 30
0.0
 10
416.2483945590156
 20
105.8121505209791
 30
0.0
 10
416.2768615697439
 20
105.9293022092816
 30
0.0
 10
416.2911096575425
 20
105.9879380652423
 30
0.0
  0
ARC
  5
10E
330
1F
100
AcDbEntity
  8
0
  6
Continuous
 62
     7
370
    25
100
AcDbCircle
 10
407.7095119266
 20
108.0193247706
 30
0.0
 40
11.62303852141071
100
AcDbArc
 50
169.5595567507
 51
190.4404432494
  0
ARC
  5
10F
330
1F
100
AcDbEntity
  8
0
  6
Continuous
 62
     7
370
    25
100
AcDbCircle
 10
407.7095119266
 20
108.0193247706
 30
0.0
 40
9.143750000000006
100
AcDbArc
 50
166.6824039243
 51
193.3175960757
  0
ARC
  5
110
330
1F
100
AcDbEntity
  8
0
  6
Continuous
 62
     7
370
    25
100
AcDbCircle
 10
407.7095119266
 20
108.0193247706
 30
0.0
 40
8.818750000000026
100
AcDbArc
 50
166.6824039243
 51
193.3175960757
  0
ARC
  5
111
330
1F
100
AcDbEntity
  8
0
  6
Continuous
 62
     7
370
    25
100
AcDbCircle
 10
407.7095119266
 20
108.0193247706
 30
0.0
 40
9.143750000000006
100
AcDbArc
 50
346.6824039243
 51
13.3175960757
  0
ARC
  5
112
330
1F
100
AcDbEntity
  8
0
  6
Continuous
 62
     7
370
    25
100
AcDbCircle
 10
407.7095119266
 20
108.0193247706
 30
0.0
 40
8.81874999999997
100
AcDbArc
 50
346.6824039243
 51
13.3175960757
  0
ARC
  5
113
330
1F
100
AcDbEntity
  8
0
  6
Continuous
 62
     7
370
    25
100
AcDbCircle
 10
407.7095119266
 20
108.0193247706
 30
0.0
 40
11.6230385214107
100
AcDbArc
 50
349.5595567507
 51
10.4404432493
  0
CIRCLE
  5
114
330
1F
100
AcDbEntity
  8
0
  6
Continuous
 62
     7
370
    25
100
AcDbCircle
 10
407.7095119266
 20
108.0193247706
 30
0.0
 40
7.774999999999977
  0
CIRCLE
  5
115
330
1F
100
AcDbEntity
  8
0
  6
Continuous
 62
     7
370
    25
100
AcDbCircle
 10
407.7095119266
 20
108.0193247706
 30
0.0
 40
2.615470053837953
  0
CIRCLE
  5
116
330
1F
100
AcDbEntity
  8
0
  6
Continuous
 62
     7
370
    25
100
AcDbCircle
 10
407.7095119266
 20
108.0193247706
 30
0.0
 40
2.5
  0
CIRCLE
  5
117
330
1F
100
AcDbEntity
  8
0
  6
Continuous
 62
     7
370
    25
100
AcDbCircle
 10
407.7095119266
 20
108.0193247706
 30
0.0
 40
15.73750000000001
  0
CIRCLE
  5
118
330
1F
100
AcDbEntity
  8
0
  6
Continuous
 62
     7
370
    25
100
AcDbCircle
 10
407.7095119266
 20
108.0193247706
 30
0.0
 40
13.42500000000001
  0
CIRCLE
  5
119
330
1F
100
AcDbEntity
  8
0
  6
Continuous
 62
     7
370
    25
100
AcDbCircle
 10
407.7095119266
 20
108.0193247706
 30
0.0
 40
2.0
  0
LINE
  5
11A
330
1F
100
AcDbEntity
  8
0
  6
CENTER
 62
     7
370
    18
100
AcDbLine
 10
407.7095119266
 20
108.0193247706
 30
0.0
 11
407.7095119266
 21
127.5233254719
 31
0.0
  0
LINE
  5
11B
330
1F
100
AcDbEntity
  8
0
  6
CENTER
 62
     7
370
    18
100
AcDbLine
 10
407.7095119266
 20
108.0193247706
 30
0.0
 11
427.2240119266
 21
108.0193247706
 31
0.0
  0
LINE
  5
11C
330
1F
100
AcDbEntity
  8
0
  6
Continuous
 62
     7
370
    18
100
AcDbLine
 10
419.7095119266
 20
125.5233254719
 30
0.0
 11
407.7095119266
 21
125.5233254719
 31
0.0
  0
SOLID
  5
11D
330
1F
100
AcDbEntity
  8
0
  6
Continuous
 62
     7
370
    18
100
AcDbTrace
 10
407.7095119266
 20
125.5233254719
 30
0.0
 11
413.7095119266
 21
124.0233254719
 31
0.0
 12
413.7095119266
 22
127.0233254719
 32
0.0
 13
413.7095119266
 23
127.0233254719
 33
0.0
  0
LINE
  5
11E
330
1F
100
AcDbEntity
  8
0
  6
Continuous
 62
     7
370
    18
100
AcDbLine
 10
437.2240119266
 20
108.0193247706
 30
0.0
 11
425.2240119266
 21
108.0193247706
 31
0.0
  0
SOLID
  5
11F
330
1F
100
AcDbEntity
  8
0
  6
Continuous
 62
     7
370
    18
100
AcDbTrace
 10
425.2240119266
 20
108.0193247706
 30
0.0
 11
431.2240119266
 21
106.5193247706
 31
0.0
 12
431.2240119266
 22
109.5193247706
 32
0.0
 13
431.2240119266
 23
109.5193247706
 33
0.0
  0
MTEXT
  5
120
330
1F
100
AcDbEntity
  8
0
  6
Continuous
 62
     7
100
AcDbMText
 10
416.5597826033
 20
132.1724984042
 30
0.0
 40
3.5
 41
0.0
 71
     1
 72
     1
  1
A
  7
SLDTEXTSTYLE0
 73
     1
 44
1.0
  0
MTEXT
  5
121
330
1F
100
AcDbEntity
  8
0
  6
Continuous
 62
     7
100
AcDbMText
 10
434.0742826033
 20
105.8051501842
 30
0.0
 40
3.5
 41
0.0
 71
     1
 72
     1
  1
A
  7
SLDTEXTSTYLE0
 73
     1
 44
1.0
  0
LINE
  5
122
330
1F
100
AcDbEntity
  8
VERMASSUNG
  6
CENTERX2
370
    18
100
AcDbLine
 10
419.3776907493
 20
111.0493247706
 30
0.0
 11
413.0312437452
 21
111.0493247706
 31
0.0
  0
LINE
  5
123
330
1F
100
AcDbEntity
  8
VERMASSUNG
  6
CENTERX2
370
    18
100
AcDbLine
 10
420.3469285422
 20
110.1255747706
 30
0.0
 11
413.5779788012
 21
110.1255747706
 31
0.0
  0
LINE
  5
124
330
1F
100
AcDbEntity
  8
VERMASSUNG
  6
CENTERX2
370
    18
100
AcDbLine
 10
420.3462829
 20
105.9130747706
 30
0.0
 11
413.5764375552
 21
105.9130747706
 31
0.0
  0
LINE
  5
125
330
1F
100
AcDbEntity
  8
VERMASSUNG
  6
CENTERX2
370
    18
100
AcDbLine
 10
401.1038314083
 20
105.9130747706
 30
0.0
 11
394.149112064
 21
105.9130747706
 31
0.0
  0
LINE
  5
126
330
1F
100
AcDbEntity
  8
VERMASSUNG
  6
CENTERX2
370
    18
100
AcDbLine
 10
400.9193045164
 20
110.1255747706
 30
0.0
 11
394.1494591716
 21
110.1255747706
 31
0.0
  0
LINE
  5
127
330
1F
100
AcDbEntity
  8
VERMASSUNG
  6
CENTERX2
370
    18
100
AcDbLine
 10
401.6058096007
 20
111.0493247706
 30
0.0
 11
395.261491552
 21
111.0493247706
 31
0.0
  0
LINE
  5
128
330
1F
100
AcDbEntity
  8
0
  6
Continuous
 62
     7
370
    25
100
AcDbLine
 10
133.4524780101
 20
76.5443247706
 30
0.0
 11
138.2182802055
 21
76.5443247706
 31
0.0
  0
ARC
  5
129
330
1F
100
AcDbEntity
  8
0
  6
Continuous
 62
     7
370
    25
100
AcDbCircle
 10
120.4182802055
 20
76.7443247706
 30
0.0
 40
0.2000000000000171
100
AcDbArc
 50
180.0
 51
270.0
  0
LINE
  5
12A
330
1F
100
AcDbEntity
  8
0
  6
Continuous
 62
     7
370
    25
100
AcDbLine
 10
120.4182802055
 20
76.5443247706
 30
0.0
 11
126.7840824009
 21
76.5443247706
 31
0.0
  0
LINE
  5
12B
330
1F
100
AcDbEntity
  8
0
  6
Continuous
 62
     7
370
    25
100
AcDbLine
 10
126.7840824009
 20
76.5443247706
 30
0.0
 11
128.2432802055
 21
79.0717295065
 31
0.0
  0
LINE
  5
12C
330
1F
100
AcDbEntity
  8
0
  6
Continuous
 62
     7
370
    25
100
AcDbLine
 10
131.9932802055
 20
79.0717295065
 30
0.0
 11
133.4524780101
 21
76.5443247706
 31
0.0
  0
ARC
  5
12D
330
1F
100
AcDbEntity
  8
0
  6
Continuous
 62
     7
370
    25
100
AcDbCircle
 10
129.2432802055
 20
79.1693247706
 30
0.0
 40
1.0
100
AcDbArc
 50
90.0
 51
180.0
  0
ARC
  5
12E
330
1F
100
AcDbEntity
  8
0
  6
Continuous
 62
     7
370
    25
100
AcDbCircle
 10
130.9932802055
 20
79.1693247706
 30
0.0
 40
1.0
100
AcDbArc
 50
0.0
 51
90.0
  0
LINE
  5
12F
330
1F
100
AcDbEntity
  8
0
  6
Continuous
 62
     7
370
    25
100
AcDbLine
 10
129.2432802055
 20
80.1693247706
 30
0.0
 11
130.9932802055
 21
80.1693247706
 31
0.0
  0
ARC
  5
130
330
1F
100
AcDbEntity
  8
0
  6
Continuous
 62
     7
370
    25
100
AcDbCircle
 10
141.2182802055
 20
81.0193247706
 30
0.0
 40
3.0
100
AcDbArc
 50
90.0
 51
180.0
  0
ARC
  5
131
330
1F
100
AcDbEntity
  8
0
  6
Continuous
 62
     7
370
    25
100
AcDbCircle
 10
119.7893453309
 20
82.4693247706
 30
0.0
 40
0.8000000000000004
100
AcDbArc
 50
57.576802718
 51
107.5
  0
LINE
  5
132
330
1F
100
AcDbEntity
  8
0
  6
Continuous
 62
     7
370
    25
100
AcDbLine
 10
119.0580981655
 20
83.0775867251
 30
0.0
 11
119.5487806913
 21
83.2322983312
 31
0.0
  0
LINE
  5
133
330
1F
100
AcDbEntity
  8
0
  6
Continuous
 62
     7
370
    25
100
AcDbLine
 10
105.7318347375
 20
83.7468042499
 30
0.0
 11
119.0580981655
 21
83.0775867251
 31
0.0
  0
LINE
  5
134
330
1F
100
AcDbEntity
  8
0
  6
Continuous
 62
     7
370
    25
100
AcDbLine
 10
81.7682802055
 20
84.9502046431
 30
0.0
 11
89.823117069
 21
84.5457073121
 31
0.0
  0
LINE
  5
135
330
1F
100
AcDbEntity
  8
0
  6
Continuous
 62
     7
370
    25
100
AcDbLine
 10
209.495745603
 20
84.0193247706
 30
0.0
 11
219.063516729
 21
88.4808497182
 31
0.0
  0
LINE
  5
136
330
1F
100
AcDbEntity
  8
0
  6
Continuous
 62
     7
370
    25
100
AcDbLine
 10
141.2182802055
 20
84.0193247706
 30
0.0
 11
209.495745603
 21
84.0193247706
 31
0.0
  0
LINE
  5
137
330
1F
100
AcDbEntity
  8
0
  6
Continuous
 62
     7
370
    25
100
AcDbLine
 10
80.2682802055
 20
85.8162300468
 30
0.0
 11
81.7682802055
 21
84.9502046431
 31
0.0
  0
ARC
  5
138
330
1F
100
AcDbEntity
  8
0
  6
Continuous
 62
     7
370
    25
100
AcDbCircle
 10
218.2182802055
 20
90.2934652923
 30
0.0
 40
2.0
100
AcDbArc
 50
295.0
 51
0.0
  0
LINE
  5
139
330
1F
100
AcDbEntity
  8
0
  6
Continuous
 62
     7
370
    25
100
AcDbLine
 10
191.7182802055
 20
115.5193247706
 30
0.0
 11
189.7182802055
 21
117.5193247706
 31
0.0
  0
LINE
  5
13A
330
1F
100
AcDbEntity
  8
0
  6
Continuous
 62
     7
370
    25
100
AcDbLine
 10
189.7182802055
 20
117.5193247706
 30
0.0
 11
189.7182802055
 21
131.0193247706
 31
0.0
  0
LINE
  5
13B
330
1F
100
AcDbEntity
  8
0
  6
Continuous
 62
     7
370
    25
100
AcDbLine
 10
189.7182802055
 20
131.0193247706
 30
0.0
 11
190.7182802055
 21
132.0193247706
 31
0.0
  0
LINE
  5
13C
330
1F
100
AcDbEntity
  8
0
  6
Continuous
 62
     7
370
    25
100
AcDbLine
 10
190.7182802055
 20
132.0193247706
 30
0.0
 11
193.7150017636
 21
132.0193247706
 31
0.0
  0
LINE
  5
13D
330
1F
100
AcDbEntity
  8
0
  6
Continuous
 62
     7
370
    25
100
AcDbLine
 10
193.7150017636
 20
132.0193247706
 30
0.0
 11
193.7150017636
 21
124.0193247706
 31
0.0
  0
LINE
  5
13E
330
1F
100
AcDbEntity
  8
0
  6
Continuous
 62
     7
370
    25
100
AcDbLine
 10
199.7215586474
 20
124.0193247706
 30
0.0
 11
193.7150017636
 21
124.0193247706
 31
0.0
  0
LINE
  5
13F
330
1F
100
AcDbEntity
  8
0
  6
Continuous
 62
     7
370
    25
100
AcDbLine
 10
199.7215586474
 20
124.0193247706
 30
0.0
 11
199.7215586474
 21
132.0193247706
 31
0.0
  0
LINE
  5
140
330
1F
100
AcDbEntity
  8
0
  6
Continuous
 62
     7
370
    25
100
AcDbLine
 10
199.7215586474
 20
132.0193247706
 30
0.0
 11
202.7182802055
 21
132.0193247706
 31
0.0
  0
LINE
  5
141
330
1F
100
AcDbEntity
  8
0
  6
Continuous
 62
     7
370
    25
100
AcDbLine
 10
202.7182802055
 20
132.0193247706
 30
0.0
 11
203.7182802055
 21
131.0193247706
 31
0.0
  0
LINE
  5
142
330
1F
100
AcDbEntity
  8
0
  6
Continuous
 62
     7
370
    25
100
AcDbLine
 10
203.7182802055
 20
131.0193247706
 30
0.0
 11
203.7182802055
 21
117.5193247706
 31
0.0
  0
LINE
  5
143
330
1F
100
AcDbEntity
  8
0
  6
Continuous
 62
     7
370
    25
100
AcDbLine
 10
203.7182802055
 20
117.5193247706
 30
0.0
 11
201.7182802055
 21
115.5193247706
 31
0.0
  0
LINE
  5
144
330
1F
100
AcDbEntity
  8
0
  6
Continuous
 62
     7
370
    25
100
AcDbLine
 10
201.7182802055
 20
115.5193247706
 30
0.0
 11
200.4682802055
 21
115.5193247706
 31
0.0
  0
LINE
  5
145
330
1F
100
AcDbEntity
  8
0
  6
Continuous
 62
     7
370
    25
100
AcDbLine
 10
196.7182802055
 20
117.6843882801
 30
0.0
 11
200.4682802055
 21
115.5193247706
 31
0.0
  0
LINE
  5
146
330
1F
100
AcDbEntity
  8
0
  6
Continuous
 62
     7
370
    25
100
AcDbLine
 10
192.9682802055
 20
115.5193247706
 30
0.0
 11
196.7182802055
 21
117.6843882801
 31
0.0
  0
LINE
  5
147
330
1F
100
AcDbEntity
  8
0
  6
Continuous
 62
     7
370
    25
100
AcDbLine
 10
192.9682802055
 20
115.5193247706
 30
0.0
 11
191.7182802055
 21
115.5193247706
 31
0.0
  0
LINE
  5
148
330
1F
100
AcDbEntity
  8
0
  6
Continuous
 62
     7
370
    25
100
AcDbLine
 10
200.4682802055
 20
115.5193247706
 30
0.0
 11
192.9682802055
 21
115.5193247706
 31
0.0
  0
LINE
  5
149
330
1F
100
AcDbEntity
  8
0
  6
Continuous
 62
     7
370
    25
100
AcDbLine
 10
199.6340970535
 20
124.0193247706
 30
0.0
 11
199.6340970535
 21
132.0193247706
 31
0.0
  0
LINE
  5
14A
330
1F
100
AcDbEntity
  8
0
  6
Continuous
 62
     7
370
    25
100
AcDbLine
 10
199.6340970535
 20
132.0193247706
 30
0.0
 11
199.7215586474
 21
132.0193247706
 31
0.0
  0
LINE
  5
14B
330
1F
100
AcDbEntity
  8
0
  6
Continuous
 62
     7
370
    25
100
AcDbLine
 10
196.5564636277
 20
124.0193247706
 30
0.0
 11
196.5564636277
 21
132.0193247706
 31
0.0
  0
LINE
  5
14C
330
1F
100
AcDbEntity
  8
0
  6
Continuous
 62
     7
370
    25
100
AcDbLine
 10
196.5564636277
 20
132.0193247706
 30
0.0
 11
193.7150017636
 21
132.0193247706
 31
0.0
  0
LINE
  5
14D
330
1F
100
AcDbEntity
  8
0
  6
Continuous
 62
     7
370
    25
100
AcDbLine
 10
196.5564636277
 20
132.0193247706
 30
0.0
 11
199.6340970535
 21
132.0193247706
 31
0.0
  0
LINE
  5
14E
330
1F
100
AcDbEntity
  8
0
  6
Continuous
 62
     7
370
    25
100
AcDbLine
 10
133.4524780101
 20
76.5443247706
 30
0.0
 11
133.4524780101
 21
103.129617491
 31
0.0
  0
SPLINE
  5
14F
330
1F
100
AcDbEntity
  8
0
  6
Continuous
 62
     7
370
    25
100
AcDbSpline
210
0.0
220
0.0
230
1.0
 70
     8
 71
     3
 72
    20
 73
    16
 74
     0
 42
0.000000001
 43
0.00000001
 40
0.0
 40
0.0
 40
0.0
 40
0.0
 40
0.1249999999999996
 40
0.1249999999999996
 40
0.2499999999999992
 40
0.2499999999999992
 40
0.3749999999999989
 40
0.3749999999999989
 40
0.4999999999999987
 40
0.4999999999999987
 40
0.7499999999999994
 40
0.7499999999999994
 40
0.8749999999999997
 40
0.8749999999999997
 40
1.0
 40
1.0
 40
1.0
 40
1.0
 10
137.0057802055049
 20
108.0193247706424
 30
0.0
 10
137.0057802055049
 20
107.7526566831611
 30
0.0
 10
136.9837331764612
 20
107.4843445078871
 30
0.0
 10
136.8947271387564
 20
106.9515014726537
 30
0.0
 10
136.8288481705569
 20
106.6922112626678
 30
0.0
 10
136.6566732628497
 20
106.1870842966463
 30
0.0
 10
136.5499666919428
 20
105.9405040807251
 30
0.0
 10
136.2972897890666
 20
105.4640874299853
 30
0.0
 10
136.1538325248718
 20
105.2386673682205
 30
0.0
 10
135.6755103325914
 20
104.5980596866068
 30
0.0
 10
135.2874833496258
 20
104.2152939715037
 30
0.0
 10
134.6456787011804
 20
103.739391723332
 30
0.0
 10
134.4208740735333
 20
103.5957960871803
 30
0.0
 10
133.949565015911
 20
103.3384647017898
 30
0.0
 10
133.7038684160221
 20
103.2254123232679
 30
0.0
 10
133.452478010075
 20
103.1296174909572
 30
0.0
  0
LINE
  5
150
330
1F
100
AcDbEntity
  8
0
  6
Continuous
 62
     7
370
    25
100
AcDbLine
 10
138.2182802055
 20
76.5443247706
 30
0.0
 11
138.2182802055
 21
108.0193247706
 31
0.0
  0
LINE
  5
151
330
1F
100
AcDbEntity
  8
0
  6
Continuous
 62
     7
370
    25
100
AcDbLine
 10
138.2182802055
 20
139.4943247706
 30
0.0
 11
133.4524780101
 21
139.4943247706
 31
0.0
  0
LINE
  5
152
330
1F
100
AcDbEntity
  8
0
  6
Continuous
 62
     7
370
    25
100
AcDbLine
 10
120.2182802055
 20
76.7443247706
 30
0.0
 11
120.2182802055
 21
108.0193247706
 31
0.0
  0
LINE
  5
153
330
1F
100
AcDbEntity
  8
0
  6
Continuous
 62
     7
370
    25
100
AcDbLine
 10
120.2182802055
 20
108.0193247706
 30
0.0
 11
120.4182802055
 21
108.0193247706
 31
0.0
  0
ARC
  5
154
330
1F
100
AcDbEntity
  8
0
  6
Continuous
 62
     7
370
    25
100
AcDbCircle
 10
120.4182802055
 20
139.2943247706
 30
0.0
 40
0.2000000000000028
100
AcDbArc
 50
90.0
 51
180.0
  0
SPLINE
  5
155
330
1F
100
AcDbEntity
  8
0
  6
Continuous
 62
     7
370
    25
100
AcDbSpline
210
0.0
220
0.0
230
1.0
 70
     8
 71
     3
 72
    14
 73
    10
 74
     0
 42
0.000000001
 43
0.00000001
 40
0.0
 40
0.0
 40
0.0
 40
0.0
 40
0.25
 40
0.25
 40
0.5
 40
0.5
 40
0.75
 40
0.75
 40
1.0
 40
1.0
 40
1.0
 40
1.0
 10
126.7840824009348
 20
104.7244266851255
 30
0.0
 10
126.5872065154098
 20
104.9519232530547
 30
0.0
 10
126.4110981940204
 20
105.1935100281258
 30
0.0
 10
126.1013618002471
 20
105.7056672624999
 30
0.0
 10
125.9668037987536
 20
105.9792000656081
 30
0.0
 10
125.7515616460445
 20
106.5393052001455
 30
0.0
 10
125.6699184085255
 20
106.8262776955555
 30
0.0
 10
125.5593953862555
 20
107.4143166805998
 30
0.0
 10
125.5307802055049
 20
107.7187601363705
 30
0.0
 10
125.5307802055049
 20
108.0193247706422
 30
0.0
  0
LINE
  5
156
330
1F
100
AcDbEntity
  8
0
  6
Continuous
 62
     7
370
    25
100
AcDbLine
 10
126.7840824009
 20
76.5443247706
 30
0.0
 11
126.7840824009
 21
104.7244266851
 31
0.0
  0
LINE
  5
157
330
1F
100
AcDbEntity
  8
0
  6
Continuous
 62
     7
370
    25
100
AcDbLine
 10
126.7840824009
 20
139.4943247706
 30
0.0
 11
120.4182802055
 21
139.4943247706
 31
0.0
  0
ARC
  5
158
330
1F
100
AcDbEntity
  8
0
  6
Continuous
 62
     7
370
    25
100
AcDbCircle
 10
131.2682802055
 20
108.0193247706
 30
0.0
 40
3.737500000000011
100
AcDbArc
 50
180.0
 51
206.113804444
  0
SPLINE
  5
159
330
1F
100
AcDbEntity
  8
0
  6
Continuous
 62
     7
370
    25
100
AcDbSpline
210
0.0
220
0.0
230
1.0
 70
     8
 71
     3
 72
    10
 73
     6
 74
     0
 42
0.000000001
 43
0.00000001
 40
0.0
 40
0.0
 40
0.0
 40
0.0
 40
0.5
 40
0.5
 40
1.0
 40
1.0
 40
1.0
 40
1.0
 10
127.9122983980517
 20
106.3742435088066
 30
0.0
 10
127.7354132516282
 20
106.0757931934501
 30
0.0
 10
127.5498638767508
 20
105.7968004893227
 30
0.0
 10
127.1719149367033
 20
105.2514811951969
 30
0.0
 10
126.9791283945241
 20
104.9861458093755
 30
0.0
 10
126.7840824009348
 20
104.7244266851255
 30
0.0
  0
SPLINE
  5
15A
330
1F
100
AcDbEntity
  8
0
  6
Continuous
 62
     7
370
    25
100
AcDbSpline
210
0.0
220
0.0
230
1.0
 70
     8
 71
     3
 72
     8
 73
     4
 74
     0
 42
0.000000001
 43
0.00000001
 40
0.0
 40
0.0
 40
0.0
 40
0.0
 40
1.0
 40
1.0
 40
1.0
 40
1.0
 10
133.4524780100746
 20
103.1296174909561
 30
0.0
 10
133.1040766053943
 20
103.56759281737
 30
0.0
 10
132.7595082201614
 20
104.0106759559548
 30
0.0
 10
132.4211239208406
 20
104.4640670278034
 30
0.0
  0
ARC
  5
15B
330
1F
100
AcDbEntity
  8
0
  6
Continuous
 62
     7
370
    25
100
AcDbCircle
 10
131.2682802055
 20
108.0193247706
 30
0.0
 40
3.737500000000011
100
AcDbArc
 50
287.9660359156
 51
0.0
  0
SPLINE
  5
15C
330
1F
100
AcDbEntity
  8
0
  6
Continuous
 62
     7
370
    25
100
AcDbSpline
210
0.0
220
0.0
230
1.0
 70
     8
 71
     3
 72
     8
 73
     4
 74
     0
 42
0.000000001
 43
0.00000001
 40
0.0
 40
0.0
 40
0.0
 40
0.0
 40
1.0
 40
1.0
 40
1.0
 40
1.0
 10
128.243280205505
 20
105.8242664001199
 30
0.0
 10
128.124983446075
 20
105.9872906285784
 30
0.0
 10
128.0135549639036
 20
106.1676791276008
 30
0.0
 10
127.9122983980517
 20
106.3742435088066
 30
0.0
  0
LINE
  5
15D
330
1F
100
AcDbEntity
  8
0
  6
Continuous
 62
     7
370
    25
100
AcDbLine
 10
128.2432802055
 20
79.0717295065
 30
0.0
 11
128.2432802055
 21
105.8242664001
 31
0.0
  0
SPLINE
  5
15E
330
1F
100
AcDbEntity
  8
0
  6
Continuous
 62
     7
370
    25
100
AcDbSpline
210
0.0
220
0.0
230
1.0
 70
     8
 71
     3
 72
     8
 73
     4
 74
     0
 42
0.000000001
 43
0.00000001
 40
0.0
 40
0.0
 40
0.0
 40
0.0
 40
1.0
 40
1.0
 40
1.0
 40
1.0
 10
132.4211239208409
 20
104.4640670278042
 30
0.0
 10
132.279585832559
 20
104.4181712567071
 30
0.0
 10
132.1369753638221
 20
104.3812304057698
 30
0.0
 10
131.9932802055051
 20
104.3528167248292
 30
0.0
  0
LINE
  5
15F
330
1F
100
AcDbEntity
  8
0
  6
Continuous
 62
     7
370
    25
100
AcDbLine
 10
131.9932802055
 20
79.0717295065
 30
0.0
 11
131.9932802055
 21
104.3528167248
 31
0.0
  0
SPLINE
  5
160
330
1F
100
AcDbEntity
  8
0
  6
Continuous
 62
     7
370
    25
100
AcDbSpline
210
0.0
220
0.0
230
1.0
 70
     8
 71
     3
 72
    14
 73
    10
 74
     0
 42
0.000000001
 43
0.00000001
 40
0.0
 40
0.0
 40
0.0
 40
0.0
 40
0.25
 40
0.25
 40
0.5
 40
0.5
 40
0.75
 40
0.75
 40
1.0
 40
1.0
 40
1.0
 40
1.0
 10
129.2432802055049
 20
104.8779427101472
 30
0.0
 10
129.1089321191484
 20
104.9645462717748
 30
0.0
 10
128.9857554452925
 20
105.0560146690982
 30
0.0
 10
128.7570088403745
 20
105.2472060557291
 30
0.0
 10
128.6550868764073
 20
105.3440679078701
 30
0.0
 10
128.4756634739785
 20
105.5319425226053
 30
0.0
 10
128.3992221857957
 20
105.6221778739566
 30
0.0
 10
128.2819322129456
 20
105.769984237934
 30
0.0
 10
128.2432802055049
 20
105.82426640012
 30
0.0
 10
128.2432802055049
 20
105.82426640012
 30
0.0
  0
SPLINE
  5
161
330
1F
100
AcDbEntity
  8
0
  6
Continuous
 62
     7
370
    25
100
AcDbSpline
210
0.0
220
0.0
230
1.0
 70
     8
 71
     3
 72
    14
 73
    10
 74
     0
 42
0.000000001
 43
0.00000001
 40
0.0
 40
0.0
 40
0.0
 40
0.0
 40
0.25
 40
0.25
 40
0.5
 40
0.5
 40
0.75
 40
0.75
 40
1.0
 40
1.0
 40
1.0
 40
1.0
 10
131.993280205505
 20
104.3528167248297
 30
0.0
 10
131.9932802055052
 20
104.3528167248298
 30
0.0
 10
131.9673636829341
 20
104.3474399938414
 30
0.0
 10
131.8679188363565
 20
104.3298954062409
 30
0.0
 10
131.7956204439443
 20
104.3180460025946
 30
0.0
 10
131.6109165494204
 20
104.2964021845944
 30
0.0
 10
131.5013392875445
 20
104.28711292391
 30
0.0
 10
131.2580091093263
 20
104.2798573875524
 30
0.0
 10
131.1264728504062
 20
104.2821287937117
 30
0.0
 10
130.9932802055049
 20
104.2919555576449
 30
0.0
  0
SPLINE
  5
162
330
1F
100
AcDbEntity
  8
0
  6
Continuous
 62
     7
370
    25
100
AcDbSpline
210
0.0
220
0.0
230
1.0
 70
     8
 71
     3
 72
    10
 73
     6
 74
     0
 42
0.000000001
 43
0.00000001
 40
0.0
 40
0.0
 40
0.0
 40
0.0
 40
0.5
 40
0.5
 40
1.0
 40
1.0
 40
1.0
 40
1.0
 10
130.9932802055049
 20
104.291955557645
 30
0.0
 10
130.6808163032168
 20
104.315008700014
 30
0.0
 10
130.377927321219
 20
104.3762434024204
 30
0.0
 10
129.790584136415
 20
104.5724153663443
 30
0.0
 10
129.506116475843
 20
104.7085130014442
 30
0.0
 10
129.2432802055049
 20
104.8779427101472
 30
0.0
  0
ARC
  5
163
330
1F
100
AcDbEntity
  8
0
  6
Continuous
 62
     7
370
    25
100
AcDbCircle
 10
141.2182802055
 20
135.0193247706
 30
0.0
 40
3.0
100
AcDbArc
 50
180.0
 51
270.0
  0
LINE
  5
164
330
1F
100
AcDbEntity
  8
0
  6
Continuous
 62
     7
370
    25
100
AcDbLine
 10
120.2182802055
 20
134.8693247706
 30
0.0
 11
120.5523188915
 21
133.8098894102
 31
0.0
  0
LINE
  5
165
330
1F
100
AcDbEntity
  8
0
  6
Continuous
 62
     7
370
    25
100
AcDbLine
 10
120.2182802055
 20
134.8693247706
 30
0.0
 11
120.2182802055
 21
132.8940360373
 31
0.0
  0
ARC
  5
166
330
1F
100
AcDbEntity
  8
0
  6
Continuous
 62
     7
370
    25
100
AcDbCircle
 10
119.7893453309
 20
133.5693247706
 30
0.0
 40
0.8000000000000181
100
AcDbArc
 50
252.5
 51
17.5
  0
LINE
  5
167
330
1F
100
AcDbEntity
  8
0
  6
Continuous
 62
     7
370
    25
100
AcDbLine
 10
119.0580981655
 20
83.0775867251
 30
0.0
 11
119.0580981655
 21
108.0193247706
 31
0.0
  0
LINE
  5
168
330
1F
100
AcDbEntity
  8
0
  6
Continuous
 62
     7
370
    25
100
AcDbLine
 10
119.5487806913
 20
132.80635121
 30
0.0
 11
119.0580981655
 21
132.9610628162
 31
0.0
  0
SPLINE
  5
169
330
1F
100
AcDbEntity
  8
0
  6
Continuous
 62
     7
370
    25
100
AcDbSpline
210
0.0
220
0.0
230
1.0
 70
     8
 71
     3
 72
    23
 73
    19
 74
     0
 42
0.000000001
 43
0.00000001
 40
0.0
 40
0.0
 40
0.0
 40
0.0
 40
0.001475289920534
 40
0.0696288509416086
 40
0.1372792101573401
 40
0.2039819135400808
 40
0.2703117571759928
 40
0.3365672618513768
 40
0.4028772365390564
 40
0.4678771374618295
 40
0.5326481398333796
 40
0.599365609292561
 40
0.6655280750059871
 40
0.7321209147635904
 40
0.7988898269457615
 40
0.8663386592223712
 40
0.9345238227745133
 40
1.0
 40
1.0
 40
1.0
 40
1.0
 10
89.97803468166536
 20
131.443604405322
 30
0.0
 10
89.97920132593096
 20
131.4432444771028
 30
0.0
 10
90.03426311313703
 20
131.426257044344
 30
0.0
 10
90.43069412504751
 20
131.3089875295846
 30
0.0
 10
91.14675552088451
 20
131.1083764841588
 30
0.0
 10
92.15643426195282
 20
130.8677617191191
 30
0.0
 10
93.37241268198845
 20
130.6404893855561
 30
0.0
 10
94.77661256790476
 20
130.4680998966367
 30
0.0
 10
96.29367670371569
 20
130.3800315832578
 30
0.0
 10
97.86797453836041
 20
130.4110792465407
 30
0.0
 10
99.43379476842243
 20
130.5621024850783
 30
0.0
 10
100.9236518368303
 20
130.8164392839728
 30
0.0
 10
102.2953320294696
 20
131.1341760625425
 30
0.0
 10
103.481255123108
 20
131.4780924827002
 30
0.0
 10
104.4588544671379
 20
131.8059350830025
 30
0.0
 10
105.1783656187224
 20
132.0748595124879
 30
0.0
 10
105.6510006204264
 20
132.2574488481092
 30
0.0
 10
105.7084717347794
 20
132.2806972406941
 30
0.0
 10
105.7366248929539
 20
132.2920858431444
 30
0.0
  0
LINE
  5
16A
330
1F
100
AcDbEntity
  8
0
  6
Continuous
 62
     7
370
    25
100
AcDbLine
 10
89.8187143203
 20
131.4927211322
 30
0.0
 11
81.7682802055
 21
131.0884448982
 31
0.0
  0
LINE
  5
16B
330
1F
100
AcDbEntity
  8
0
  6
Continuous
 62
     7
370
    25
100
AcDbLine
 10
81.7682802055
 20
84.9502046431
 30
0.0
 11
81.7682802055
 21
98.8972017361
 31
0.0
  0
SPLINE
  5
16C
330
1F
100
AcDbEntity
  8
0
  6
Continuous
 62
     7
370
    25
100
AcDbSpline
210
0.0
220
0.0
230
1.0
 70
     8
 71
     3
 72
     8
 73
     4
 74
     0
 42
0.000000001
 43
0.00000001
 40
0.0
 40
0.0
 40
0.0
 40
0.0
 40
1.0
 40
1.0
 40
1.0
 40
1.0
 10
87.58645465845188
 20
98.90178779433893
 30
0.0
 10
85.64706317414047
 20
98.89964169848933
 30
0.0
 10
83.70767168982907
 20
98.89804551196457
 30
0.0
 10
81.76828020551766
 20
98.89699805948887
 30
0.0
  0
SPLINE
  5
16D
330
1F
100
AcDbEntity
  8
0
  6
Continuous
 62
     7
370
    25
100
AcDbSpline
210
0.0
220
0.0
230
1.0
 70
     8
 71
     3
 72
    13
 73
     9
 74
     0
 42
0.000000001
 43
0.00000001
 40
0.0
 40
0.0
 40
0.0
 40
0.0
 40
0.1686319999748085
 40
0.3360343310905433
 40
0.502536782590866
 40
0.6684737453788339
 40
0.834182263691515
 40
1.0
 40
1.0
 40
1.0
 40
1.0
 10
88.66994970791889
 20
99.03924424015659
 30
0.0
 10
88.61045981185914
 20
99.02472992011774
 30
0.0
 10
88.49191382158408
 20
98.99580711883317
 30
0.0
 10
88.31203712599819
 20
98.96184572542492
 30
0.0
 10
88.13164683837019
 20
98.93498016306593
 30
0.0
 10
87.95053466633634
 20
98.91602122595798
 30
0.0
 10
87.7687738291689
 20
98.9040907745623
 30
0.0
 10
87.64724106127424
 20
98.90255562299348
 30
0.0
 10
87.58645465845188
 20
98.90178779433893
 30
0.0
  0
SPLINE
  5
16E
330
1F
100
AcDbEntity
  8
0
  6
Continuous
 62
     7
370
    25
100
AcDbSpline
210
0.0
220
0.0
230
1.0
 70
     8
 71
     3
 72
     8
 73
     4
 74
     0
 42
0.000000001
 43
0.00000001
 40
0.0
 40
0.0
 40
0.0
 40
0.0
 40
1.0
 40
1.0
 40
1.0
 40
1.0
 10
94.06214312441173
 20
99.04348228204202
 30
0.0
 10
92.2647484529739
 20
99.04161122151802
 30
0.0
 10
90.46735378153606
 20
99.04018904049391
 30
0.0
 10
88.66995911009823
 20
99.03921491749792
 30
0.0
  0
SPLINE
  5
16F
330
1F
100
AcDbEntity
  8
0
  6
Continuous
 62
     7
370
    25
100
AcDbSpline
210
0.0
220
0.0
230
1.0
 70
     8
 71
     3
 72
    18
 73
    14
 74
     0
 42
0.000000001
 43
0.00000001
 40
0.0
 40
0.0
 40
0.0
 40
0.0
 40
0.0923325137111192
 40
0.1843692047063016
 40
0.2763458873810836
 40
0.3684982175655623
 40
0.4610598988303626
 40
0.554260954653301
 40
0.6483261285442131
 40
0.74347346365053
 40
0.8399130993119804
 40
0.9201660718299768
 40
1.0
 40
1.0
 40
1.0
 40
1.0
 10
96.25846477301403
 20
98.50929004619837
 30
0.0
 10
96.18813446950098
 20
98.50970667062998
 30
0.0
 10
96.04769919264903
 20
98.51053858467664
 30
0.0
 10
95.83733666614641
 20
98.5241474315912
 30
0.0
 10
95.62789300323004
 20
98.54681418896286
 30
0.0
 10
95.41934333285755
 20
98.5794149787636
 30
0.0
 10
95.21169971558227
 20
98.62171745738385
 30
0.0
 10
95.00496152804268
 20
98.67378885603901
 30
0.0
 10
94.79913943607785
 20
98.73563762888439
 30
0.0
 10
94.59420775728569
 20
98.80723564034061
 30
0.0
 10
94.40272701188998
 20
98.883814130568
 30
0.0
 10
94.22500385983537
 20
98.96242537940105
 30
0.0
 10
94.11666986527135
 20
99.01633953518846
 30
0.0
 10
94.06264465581808
 20
99.04322605008743
 30
0.0
  0
LINE
  5
170
330
1F
100
AcDbEntity
  8
0
  6
Continuous
 62
     7
370
    25
100
AcDbLine
 10
98.1733380523
 20
98.5107854811
 30
0.0
 11
96.258464773
 21
98.5092900462
 31
0.0
  0
SPLINE
  5
171
330
1F
100
AcDbEntity
  8
0
  6
Continuous
 62
     7
370
    25
100
AcDbSpline
210
0.0
220
0.0
230
1.0
 70
     8
 71
     3
 72
    25
 73
    21
 74
     0
 42
0.000000001
 43
0.00000001
 40
0.0
 40
0.0
 40
0.0
 40
0.0
 40
0.0280105225422753
 40
0.0559601148854256
 40
0.0839014045034749
 40
0.1118870776777086
 40
0.1399695827579646
 40
0.1682008401731476
 40
0.1966319670417595
 40
0.2253130233137476
 40
0.2542927850735311
 40
0.3799486436564626
 40
0.5057850221666382
 40
0.631308588631066
 40
0.7532068238011618
 40
0.8039473267946936
 40
0.8535894438541253
 40
0.9025339722380873
 40
0.9511970353782256
 40
1.0
 40
1.0
 40
1.0
 40
1.0
 10
103.1132223587064
 20
103.6446492855737
 30
0.0
 10
103.1132595804402
 20
103.5700292585612
 30
0.0
 10
103.1133339429408
 20
103.4209515225757
 30
0.0
 10
103.1009178922942
 20
103.1983334316115
 30
0.0
 10
103.0793133319405
 20
102.9770090135841
 30
0.0
 10
103.0476278622805
 20
102.7570407476962
 30
0.0
 10
103.0061017239605
 20
102.5384504604671
 30
0.0
 10
102.9546709682306
 20
102.3212685220621
 30
0.0
 10
102.8933570935194
 20
102.1055271021759
 30
0.0
 10
102.8221467580199
 20
101.8912372107237
 30
0.0
 10
102.6513101508188
 20
101.4428874377027
 30
0.0
 10
102.3135779173827
 20
100.7895566096306
 30
0.0
 10
101.702023253188
 20
100.0176633989945
 30
0.0
 10
100.9657884180355
 20
99.37350377360922
 30
0.0
 10
100.2793023463912
 20
98.9818626055472
 30
0.0
 10
99.73059820024243
 20
98.76316770457414
 30
0.0
 10
99.34856202174083
 20
98.64731165574372
 30
0.0
 10
98.96139592303628
 20
98.56640375021387
 30
0.0
 10
98.56916925424615
 20
98.51717531941611
 30
0.0
 10
98.30540798612739
 20
98.51291746440089
 30
0.0
 10
98.17333805230349
 20
98.51078548105812
 30
0.0
  0
LINE
  5
172
330
1F
100
AcDbEntity
  8
0
  6
Continuous
 62
     7
370
    25
100
AcDbLine
 10
103.1132223587
 20
108.0193247706
 30
0.0
 11
103.1132223587
 21
103.6446492856
 31
0.0
  0
LINE
  5
173
330
1F
100
AcDbEntity
  8
0
  6
Continuous
 62
     7
370
    25
100
AcDbLine
 10
119.0580981655
 20
132.9610628162
 30
0.0
 11
105.736624893
 21
132.2920858431
 31
0.0
  0
SPLINE
  5
174
330
1F
100
AcDbEntity
  8
0
  6
Continuous
 62
     7
370
    25
100
AcDbSpline
210
0.0
220
0.0
230
1.0
 70
     8
 71
     3
 72
    20
 73
    16
 74
     0
 42
0.000000001
 43
0.00000001
 40
0.0
 40
0.0
 40
0.0
 40
0.0
 40
0.0829621378684852
 40
0.1658495135106163
 40
0.2487180070857355
 40
0.3299477216398521
 40
0.4108693994445732
 40
0.4941953814850558
 40
0.5768901676626222
 40
0.6601065810557772
 40
0.7435845489350849
 40
0.8279858465401881
 40
0.9132590745392877
 40
0.9972257035811797
 40
1.0
 40
1.0
 40
1.0
 40
1.0
 10
92.13069630023188
 20
85.15606440313545
 30
0.0
 10
92.51644213630318
 20
85.23298282973958
 30
0.0
 10
93.28758618942038
 20
85.38675036707718
 30
0.0
 10
94.69533434059021
 20
85.5626655884627
 30
0.0
 10
96.20318570846482
 20
85.65666187579174
 30
0.0
 10
97.77567468348266
 20
85.63281749392515
 30
0.0
 10
99.34297171469474
 20
85.48891244902455
 30
0.0
 10
100.8387477414762
 20
85.23985484622551
 30
0.0
 10
102.2190016171489
 20
84.92517415368688
 30
0.0
 10
103.4165958002045
 20
84.58091280170635
 30
0.0
 10
104.4034578300268
 20
84.25186557588663
 30
0.0
 10
105.1506960762248
 20
83.97340466767882
 30
0.0
 10
105.5978975055904
 20
83.8015488726473
 30
0.0
 10
105.7846521177403
 20
83.72769820104864
 30
0.0
 10
105.7335539038422
 20
83.74784949212192
 30
0.0
 10
105.731919593497
 20
83.74849400512844
 30
0.0
  0
SPLINE
  5
175
330
1F
100
AcDbEntity
  8
0
  6
Continuous
 62
     7
370
    25
100
AcDbSpline
210
0.0
220
0.0
230
1.0
 70
     8
 71
     3
 72
    11
 73
     7
 74
     0
 42
0.000000001
 43
0.00000001
 40
0.0
 40
0.0
 40
0.0
 40
0.0
 40
0.2435512231731388
 40
0.4981153923403536
 40
0.7509097881719451
 40
1.0
 40
1.0
 40
1.0
 40
1.0
 10
89.8232021824883
 20
84.54740219375233
 30
0.0
 10
89.84915310401358
 20
84.55563773029047
 30
0.0
 10
89.9022284008187
 20
84.57248119943995
 30
0.0
 10
90.37992338448117
 20
84.71338264157747
 30
0.0
 10
91.09126283274794
 20
84.9186731920257
 30
0.0
 10
91.78592747992262
 20
85.07732431022289
 30
0.0
 10
92.13069630023188
 20
85.15606440313545
 30
0.0
  0
LINE
  5
176
330
1F
100
AcDbEntity
  8
0
  6
Continuous
 62
     7
370
    25
100
AcDbLine
 10
103.1132223587
 20
103.6446492856
 30
0.0
 11
102.2182802055
 21
103.8068247706
 31
0.0
  0
LINE
  5
177
330
1F
100
AcDbEntity
  8
0
  6
Continuous
 62
     7
370
    25
100
AcDbLine
 10
102.2182802055
 20
103.8068247706
 30
0.0
 11
102.2182802055
 21
108.0193247706
 31
0.0
  0
LINE
  5
178
330
1F
100
AcDbEntity
  8
0
  6
Continuous
 62
     7
370
    25
100
AcDbLine
 10
209.495745603
 20
84.0193247706
 30
0.0
 11
209.495745603
 21
108.0193247706
 31
0.0
  0
LINE
  5
179
330
1F
100
AcDbEntity
  8
0
  6
Continuous
 62
     7
370
    25
100
AcDbLine
 10
219.063516729
 20
127.5577998231
 30
0.0
 11
209.495745603
 21
132.0193247706
 31
0.0
  0
SPLINE
  5
17A
330
1F
100
AcDbEntity
  8
0
  6
Continuous
 62
     7
370
    25
100
AcDbSpline
210
0.0
220
0.0
230
1.0
 70
     8
 71
     3
 72
    10
 73
     6
 74
     0
 42
0.000000001
 43
0.00000001
 40
0.0
 40
0.0
 40
0.0
 40
0.0
 40
0.4224952488526703
 40
0.8503714505082747
 40
1.0
 40
1.0
 40
1.0
 40
1.0
 10
189.7182802603611
 20
132.0193247706423
 30
0.0
 10
189.7472532736277
 20
132.0103656943823
 30
0.0
 10
189.8055683041137
 20
131.9923334379367
 30
0.0
 10
190.1052136696769
 20
131.8985175308964
 30
0.0
 10
190.4102461211428
 20
131.8125871671068
 30
0.0
 10
190.4892784809115
 20
131.7903230460488
 30
0.0
  0
SPLINE
  5
17B
330
1F
100
AcDbEntity
  8
0
  6
Continuous
 62
     7
370
    25
100
AcDbSpline
210
0.0
220
0.0
230
1.0
 70
     8
 71
     3
 72
    11
 73
     7
 74
     0
 42
0.000000001
 43
0.00000001
 40
0.0
 40
0.0
 40
0.0
 40
0.0
 40
0.1502677776993693
 40
0.5770707111638209
 40
0.999701623552845
 40
1.0
 40
1.0
 40
1.0
 40
1.0
 10
202.9476098902598
 20
131.7899950858874
 30
0.0
 10
203.0272928432919
 20
131.8124337510062
 30
0.0
 10
203.3332978902678
 20
131.8986045631117
 30
0.0
 10
203.6171790280214
 20
131.9879207525152
 30
0.0
 10
203.7183456161132
 20
132.019318410188
 30
0.0
 10
203.7182800163412
 20
132.0193247661581
 30
0.0
 10
203.7182799700605
 20
132.0193247706423
 30
0.0
  0
LINE
  5
17C
330
1F
100
AcDbEntity
  8
0
  6
Continuous
 62
     7
370
    25
100
AcDbLine
 10
189.7182802604
 20
132.0193247706
 30
0.0
 11
141.2182802055
 21
132.0193247706
 31
0.0
  0
LINE
  5
17D
330
1F
100
AcDbEntity
  8
0
  6
Continuous
 62
     7
370
    25
100
AcDbLine
 10
209.495745603
 20
132.0193247706
 30
0.0
 11
203.7182799701
 21
132.0193247706
 31
0.0
  0
SPLINE
  5
17E
330
1F
100
AcDbEntity
  8
0
  6
Continuous
 62
     7
370
    25
100
AcDbSpline
210
0.0
220
0.0
230
1.0
 70
     8
 71
     3
 72
    25
 73
    21
 74
     0
 42
0.000000001
 43
0.00000001
 40
0.0
 40
0.0
 40
0.0
 40
0.0
 40
0.0288821753116583
 40
0.0583636594024247
 40
0.088464720432864
 40
0.1192044006641432
 40
0.1506005800108822
 40
0.1826700399688414
 40
0.2154285269587146
 40
0.2488908143380118
 40
0.3610594471217245
 40
0.498467013106778
 40
0.5822693905006526
 40
0.6661127642782239
 40
0.7499972937224496
 40
0.8007709755032478
 40
0.8511237700807983
 40
0.901089602450676
 40
0.9507031914109089
 40
1.0
 40
1.0
 40
1.0
 40
1.0
 10
98.21828020550493
 20
99.80682477064227
 30
0.0
 10
98.28108065874365
 20
99.8076812545941
 30
0.0
 10
98.40798468254356
 20
99.80941199464777
 30
0.0
 10
98.59933909025803
 20
99.82356186005158
 30
0.0
 10
98.79324390293664
 20
99.846698942373
 30
0.0
 10
98.98914462366506
 20
99.88011009459844
 30
0.0
 10
99.18648229166921
 20
99.92398391663117
 30
0.0
 10
99.38463563345435
 20
99.9787791876005
 30
0.0
 10
99.58295137746254
 20
100.044848148964
 30
0.0
 10
99.93427236496512
 20
100.1828294812171
 30
0.0
 10
100.4593841352876
 20
100.4628814200582
 30
0.0
 10
100.9963759637731
 20
100.9014720224666
 30
0.0
 10
101.4084356938115
 20
101.3753321440133
 30
0.0
 10
101.695354281864
 20
101.8070158918331
 30
0.0
 10
101.8937809690712
 20
102.2101391335932
 30
0.0
 10
102.0258668431195
 20
102.5678752943722
 30
0.0
 10
102.1115007229173
 20
102.8706276966546
 30
0.0
 10
102.1725829342704
 20
103.1791160069003
 30
0.0
 10
102.2110838776359
 20
103.4914277170567
 30
0.0
 10
102.2158865567293
 20
103.701917130958
 30
0.0
 10
102.2182802055049
 20
103.8068247706423
 30
0.0
  0
SPLINE
  5
17F
330
1F
100
AcDbEntity
  8
0
  6
Continuous
 62
     7
370
    25
100
AcDbSpline
210
0.0
220
0.0
230
1.0
 70
     8
 71
     3
 72
    13
 73
     9
 74
     0
 42
0.000000001
 43
0.00000001
 40
0.0
 40
0.0
 40
0.0
 40
0.0
 40
0.1722587823678385
 40
0.3421398271425444
 40
0.5097456258111679
 40
0.6751828993453325
 40
0.8385626190248169
 40
1.0
 40
1.0
 40
1.0
 40
1.0
 10
95.21829857441517
 20
99.95681959339207
 30
0.0
 10
95.27916196408773
 20
99.94055586569256
 30
0.0
 10
95.40004862853313
 20
99.90825290321183
 30
0.0
 10
95.58310978650557
 20
99.8708652485182
 30
0.0
 10
95.76521246944621
 20
99.8417323136081
 30
0.0
 10
95.94615391776287
 20
99.8215455980027
 30
0.0
 10
96.12549292145914
 20
99.80909879370206
 30
0.0
 10
96.24433914987252
 20
99.80757975047467
 30
0.0
 10
96.30340692621546
 20
99.80682477064227
 30
0.0
  0
LINE
  5
180
330
1F
100
AcDbEntity
  8
0
  6
Continuous
 62
     7
370
    25
100
AcDbLine
 10
96.258464773
 20
98.5092900462
 30
0.0
 11
96.3034069262
 21
99.8068247706
 31
0.0
  0
SPLINE
  5
181
330
1F
100
AcDbEntity
  8
0
  6
Continuous
 62
     7
370
    25
100
AcDbSpline
210
0.0
220
0.0
230
1.0
 70
     8
 71
     3
 72
    11
 73
     7
 74
     0
 42
0.000000001
 43
0.00000001
 40
0.0
 40
0.0
 40
0.0
 40
0.0
 40
0.2392913844325938
 40
0.5001130135003002
 40
0.7515028526498353
 40
0.9999999999999999
 40
0.9999999999999999
 40
0.9999999999999999
 40
0.9999999999999999
 10
94.89080771335897
 20
99.95739837566539
 30
0.0
 10
94.82198277741203
 20
99.88584493851073
 30
0.0
 10
94.67814038123883
 20
99.73630004299946
 30
0.0
 10
94.47039158287225
 20
99.50738261635395
 30
0.0
 10
94.26240537825115
 20
99.27506424411415
 30
0.0
 10
94.12940445448089
 20
99.12028836152287
 30
0.0
 10
94.06328881025644
 20
99.043348240373
 30
0.0
  0
SPLINE
  5
182
330
1F
100
AcDbEntity
  8
0
  6
Continuous
 62
     7
370
    25
100
AcDbSpline
210
0.0
220
0.0
230
1.0
 70
    24
 71
     3
 72
     9
 73
     5
 74
     0
 42
0.000000001
 43
0.00000001
 40
0.0
 40
0.0
 40
0.0
 40
0.0
 40
0.509083966986604
 40
1.0
 40
1.0
 40
1.0
 40
1.0
 10
94.89303798167845
 20
99.95682477064227
 30
0.0
 10
94.9477713817908
 20
99.95682477064227
 30
0.0
 10
95.05528488380962
 20
99.95682477064227
 30
0.0
 10
95.16467744418057
 20
99.95682477064227
 30
0.0
 10
95.21838000595906
 20
99.95682477064227
 30
0.0
  0
LINE
  5
183
330
1F
100
AcDbEntity
  8
0
  6
Continuous
 62
     7
370
    25
100
AcDbLine
 10
88.6444301171
 20
99.9367729969
 30
0.0
 11
88.6698446087
 21
99.0392148262
 31
0.0
  0
SPLINE
  5
184
330
1F
100
AcDbEntity
  8
0
  6
Continuous
 62
     7
370
    25
100
AcDbSpline
210
0.0
220
0.0
230
1.0
 70
     8
 71
     3
 72
     8
 73
     4
 74
     0
 42
0.000000001
 43
0.00000001
 40
0.0
 40
0.0
 40
0.0
 40
0.0
 40
1.0
 40
1.0
 40
1.0
 40
1.0
 10
88.64444130823313
 20
99.93677348698148
 30
0.0
 10
88.66624416471517
 20
99.94247081801416
 30
0.0
 10
88.6879988741127
 20
99.94835240080916
 30
0.0
 10
88.70970232943077
 20
99.95441739536221
 30
0.0
  0
LINE
  5
185
330
1F
100
AcDbEntity
  8
0
  6
Continuous
 62
     7
370
    25
100
AcDbLine
 10
88.7182802056
 20
99.9568247706
 30
0.0
 11
94.8919531779
 21
99.9568247706
 31
0.0
  0
LINE
  5
186
330
1F
100
AcDbEntity
  8
0
  6
Continuous
 62
     7
370
    25
100
AcDbLine
 10
96.3034069262
 20
99.8068247706
 30
0.0
 11
98.2182802055
 21
99.8068247706
 31
0.0
  0
SPLINE
  5
187
330
1F
100
AcDbEntity
  8
0
  6
Continuous
 62
     7
370
    25
100
AcDbSpline
210
0.0
220
0.0
230
1.0
 70
     8
 71
     3
 72
    13
 73
     9
 74
     0
 42
0.000000001
 43
0.00000001
 40
0.0
 40
0.0
 40
0.0
 40
0.0
 40
0.1621004456571512
 40
0.325943455157606
 40
0.4915935308260523
 40
0.6591130873964648
 40
0.8285624736043361
 40
1.0
 40
1.0
 40
1.0
 40
1.0
 10
87.63315348479438
 20
99.80682477064227
 30
0.0
 10
87.68870844285992
 20
99.80749373684351
 30
0.0
 10
87.80041556932467
 20
99.80883886056685
 30
0.0
 10
87.96826325871842
 20
99.81978542935819
 30
0.0
 10
88.13704967758682
 20
99.8374243586789
 30
0.0
 10
88.30637403411865
 20
99.86272987266679
 30
0.0
 10
88.47612068229603
 20
99.89503387545976
 30
0.0
 10
88.58811358095367
 20
99.92280547534578
 30
0.0
 10
88.64443661598341
 20
99.93677226084702
 30
0.0
  0
LINE
  5
188
330
1F
100
AcDbEntity
  8
0
  6
Continuous
 62
     7
370
    25
100
AcDbLine
 10
80.8546203839
 20
99.2793230267
 30
0.0
 11
81.7682802055
 21
99.8068247707
 31
0.0
  0
LINE
  5
189
330
1F
100
AcDbEntity
  8
0
  6
Continuous
 62
     7
370
    25
100
AcDbLine
 10
81.7682802056
 20
99.8068247706
 30
0.0
 11
87.6331534848
 21
99.8068247706
 31
0.0
  0
SPLINE
  5
18A
330
1F
100
AcDbEntity
  8
0
  6
Continuous
 62
     7
370
    25
100
AcDbSpline
210
0.0
220
0.0
230
1.0
 70
     8
 71
     3
 72
     8
 73
     4
 74
     0
 42
0.000000001
 43
0.00000001
 40
0.0
 40
0.0
 40
0.0
 40
0.0
 40
1.0
 40
1.0
 40
1.0
 40
1.0
 10
81.76828020505397
 20
98.89699805926627
 30
0.0
 10
81.46372693134843
 20
99.02568892381305
 30
0.0
 10
81.15917365764291
 20
99.15313368007477
 30
0.0
 10
80.85462038393737
 20
99.27932302671249
 30
0.0
  0
LINE
  5
18B
330
1F
100
AcDbEntity
  8
0
  6
Continuous
 62
     7
370
    25
100
AcDbLine
 10
80.2682802055
 20
85.8162300468
 30
0.0
 11
80.2682802055
 21
98.9407993669
 31
0.0
  0
SPLINE
  5
18C
330
1F
100
AcDbEntity
  8
0
  6
Continuous
 62
     7
370
    25
100
AcDbSpline
210
0.0
220
0.0
230
1.0
 70
    24
 71
     3
 72
     8
 73
     4
 74
     0
 42
0.000000001
 43
0.00000001
 40
0.0
 40
0.0
 40
0.0
 40
0.0
 40
1.0
 40
1.0
 40
1.0
 40
1.0
 10
80.85462038393737
 20
99.27932302671249
 30
0.0
 10
80.65828835827902
 20
99.16597067884811
 30
0.0
 10
80.4628273380388
 20
99.05312120619635
 30
0.0
 10
80.26828020550492
 20
98.94079936685783
 30
0.0
  0
LINE
  5
18D
330
1F
100
AcDbEntity
  8
0
  6
Continuous
 62
     7
370
    25
100
AcDbLine
 10
220.2182802055
 20
108.0193247706
 30
0.0
 11
220.2182802055
 21
90.2934652923
 31
0.0
  0
ARC
  5
18E
330
1F
100
AcDbEntity
  8
0
  6
Continuous
 62
     7
370
    25
100
AcDbCircle
 10
218.2182802055
 20
125.745184249
 30
0.0
 40
2.000000000000013
100
AcDbArc
 50
0.0
 51
65.0
  0
ARC
  5
18F
330
1F
100
AcDbEntity
  8
0
  6
Continuous
 62
     7
370
    25
100
AcDbCircle
 10
113.4182802055
 20
125.4693247706
 30
0.0
 40
0.8000000000000114
100
AcDbArc
 50
0.0
 51
90.0
  0
LINE
  5
190
330
1F
100
AcDbEntity
  8
0
  6
Continuous
 62
     7
370
    25
100
AcDbLine
 10
111.9935206791
 20
126.2693247706
 30
0.0
 11
113.4182802055
 21
126.2693247706
 31
0.0
  0
ARC
  5
191
330
1F
100
AcDbEntity
  8
0
  6
Continuous
 62
     7
370
    25
100
AcDbCircle
 10
111.9935206791
 20
125.4693247706
 30
0.0
 40
0.7999999999999972
100
AcDbArc
 50
90.0
 51
120.0
  0
LINE
  5
192
330
1F
100
AcDbEntity
  8
0
  6
Continuous
 62
     7
370
    25
100
AcDbLine
 10
110.7182802055
 20
125.6568247706
 30
0.0
 11
110.7182802055
 21
108.0193247706
 31
0.0
  0
LINE
  5
193
330
1F
100
AcDbEntity
  8
0
  6
Continuous
 62
     7
370
    25
100
AcDbLine
 10
110.7182802055
 20
125.6568247706
 30
0.0
 11
111.5935206791
 21
126.1621450937
 31
0.0
  0
LINE
  5
194
330
1F
100
AcDbEntity
  8
0
  6
Continuous
 62
     7
370
    25
100
AcDbLine
 10
81.0199462553
 20
99.3747739631
 30
0.0
 11
80.883477483
 21
99.2959836806
 31
0.0
  0
SPLINE
  5
195
330
1F
100
AcDbEntity
  8
0
  6
Continuous
 62
     7
370
    25
100
AcDbSpline
210
0.0
220
0.0
230
1.0
 70
     8
 71
     3
 72
    32
 73
    28
 74
     0
 42
0.000000001
 43
0.00000001
 40
0.0
 40
0.0
 40
0.0
 40
0.0
 40
0.1249999999999997
 40
0.1249999999999997
 40
0.1874999999999995
 40
0.1874999999999995
 40
0.2499999999999993
 40
0.2499999999999993
 40
0.3124999999999992
 40
0.3124999999999992
 40
0.374999999999999
 40
0.374999999999999
 40
0.4999999999999988
 40
0.4999999999999988
 40
0.562499999999999
 40
0.562499999999999
 40
0.6249999999999993
 40
0.6249999999999993
 40
0.7499999999999997
 40
0.7499999999999997
 40
0.8124999999999997
 40
0.8124999999999997
 40
0.8749999999999998
 40
0.8749999999999998
 40
0.9374999999999998
 40
0.9374999999999998
 40
1.0
 40
1.0
 40
1.0
 40
1.0
 10
94.68591053684554
 20
124.1919935248518
 30
0.0
 10
94.20183629289153
 20
124.1923529174715
 30
0.0
 10
93.71843872232463
 20
124.2073121236528
 30
0.0
 10
92.99453337258859
 20
124.2542961701614
 30
0.0
 10
92.75387093905174
 20
124.274072725286
 30
0.0
 10
92.28252482997611
 20
124.3210368087851
 30
0.0
 10
92.05068901368587
 20
124.3482906579695
 30
0.0
 10
91.59498592712954
 20
124.4099185865821
 30
0.0
 10
91.3711176041882
 20
124.4442936873776
 30
0.0
 10
90.93179001218041
 20
124.5196131310306
 30
0.0
 10
90.715072619514
 20
124.5608310817789
 30
0.0
 10
90.08873064084118
 20
124.6910679009597
 30
0.0
 10
89.70433800648777
 20
124.7861078128589
 30
0.0
 10
89.17679626086795
 20
124.9323747748113
 30
0.0
 10
89.00916210933684
 20
124.981743410002
 30
0.0
 10
88.69075736209628
 20
125.0801471175022
 30
0.0
 10
88.54117648755714
 20
125.1288303821347
 30
0.0
 10
88.1281564180087
 20
125.2684531853031
 30
0.0
 10
87.89660464684957
 20
125.3540398638837
 30
0.0
 10
87.61329513175988
 20
125.4630029117997
 30
0.0
 10
87.5297274499881
 20
125.4960515643742
 30
0.0
 10
87.38780261766391
 20
125.5530549606145
 30
0.0
 10
87.32881450622138
 20
125.5772516662249
 30
0.0
 10
87.23409860251155
 20
125.616453946604
 30
0.0
 10
87.1983706353648
 20
125.631461113101
 30
0.0
 10
87.15040635764738
 20
125.651670110828
 30
0.0
 10
87.13828005021392
 20
125.6568247706423
 30
0.0
 10
87.13828005021391
 20
125.6568247706423
 30
0.0
  0
SPLINE
  5
196
330
1F
100
AcDbEntity
  8
0
  6
Continuous
 62
     7
370
    25
100
AcDbSpline
210
0.0
220
0.0
230
1.0
 70
     8
 71
     3
 72
    31
 73
    27
 74
     0
 42
0.000000001
 43
0.00000001
 40
0.0
 40
0.0
 40
0.0
 40
0.0
 40
0.0161756722762523
 40
0.0323169137831935
 40
0.0484425619887097
 40
0.0645715089965155
 40
0.080722635334528
 40
0.0969147439454967
 40
0.1131664955259563
 40
0.1294963463054569
 40
0.1459224892616237
 40
0.1624627996348737
 40
0.1791347854483713
 40
0.1959555435640442
 40
0.2945755146277992
 40
0.3932797312250851
 40
0.4928176221933313
 40
0.5924285912823416
 40
0.6939020917448192
 40
0.7927115381487368
 40
0.8267756331435536
 40
0.8608043324964899
 40
0.8949846314009923
 40
0.929501059435787
 40
0.9645328322468298
 40
1.0
 40
1.0
 40
1.0
 40
1.0
 10
105.694229595589
 20
125.6568247706423
 30
0.0
 10
105.6934964951378
 20
125.6564783792143
 30
0.0
 10
105.6920318546783
 20
125.6557863336709
 30
0.0
 10
105.6789754750133
 20
125.6502039716245
 30
0.0
 10
105.6579609144905
 20
125.6413372086303
 30
0.0
 10
105.6282137091498
 20
125.6288961079154
 30
0.0
 10
105.5899413964942
 20
125.6130054493602
 30
0.0
 10
105.543088715573
 20
125.5936797055329
 30
0.0
 10
105.487670985536
 20
125.5709636160135
 30
0.0
 10
105.4236850217056
 20
125.5448946116388
 30
0.0
 10
105.351131537555
 20
125.5155121642706
 30
0.0
 10
105.2700148400753
 20
125.4828579169358
 30
0.0
 10
105.1803211853254
 20
125.4469654699014
 30
0.0
 10
104.9232753386689
 20
125.3447275622346
 30
0.0
 10
104.395239353076
 20
125.1382033487679
 30
0.0
 10
103.4166047058298
 20
124.801118035418
 30
0.0
 10
102.230728402911
 20
124.4579731760902
 30
0.0
 10
100.8602621378378
 20
124.1608612754296
 30
0.0
 10
99.37440486587317
 20
123.9508178476966
 30
0.0
 10
98.15425223210815
 20
123.8925924448281
 30
0.0
 10
97.2878281991633
 20
123.9062847860881
 30
0.0
 10
96.75958327068648
 20
123.9316528716992
 30
0.0
 10
96.2348100394803
 20
123.9736754874167
 30
0.0
 10
95.71382079988781
 20
124.0319594506447
 30
0.0
 10
95.19657985482935
 20
124.1045829958902
 30
0.0
 10
94.86094274249548
 20
124.16346331358
 30
0.0
 10
94.69208775443376
 20
124.1930852921254
 30
0.0
  0
LINE
  5
197
330
1F
100
AcDbEntity
  8
0
  6
Continuous
 62
     7
370
    25
100
AcDbLine
 10
105.6942295956
 20
125.6568247706
 30
0.0
 11
110.7182802055
 21
125.6568247706
 31
0.0
  0
LINE
  5
198
330
1F
100
AcDbEntity
  8
0
  6
Continuous
 62
     7
370
    25
100
AcDbLine
 10
102.8682802055
 20
112.0820981814
 30
0.0
 11
102.8682802055
 21
108.0193247706
 31
0.0
  0
SPLINE
  5
199
330
1F
100
AcDbEntity
  8
0
  6
Continuous
 62
     7
370
    25
100
AcDbSpline
210
0.0
220
0.0
230
1.0
 70
     8
 71
     3
 72
    25
 73
    21
 74
     0
 42
0.000000001
 43
0.00000001
 40
0.0
 40
0.0
 40
0.0
 40
0.0
 40
0.0278144320063462
 40
0.0555680196245754
 40
0.083331625367772
 40
0.111176035216759
 40
0.1391714221532265
 40
0.1673868326284763
 40
0.1958897140434718
 40
0.2247454979318961
 40
0.254017249222145
 40
0.3796724410016501
 40
0.5056484635002454
 40
0.629752729069345
 40
0.7535891720571729
 40
0.8038564806093713
 40
0.853339684343451
 40
0.9023264398358534
 40
0.9511131859219439
 40
1.0
 40
1.0
 40
1.0
 40
1.0
 10
98.21828020550491
 20
116.5668213530073
 30
0.0
 10
98.28693555946724
 20
116.5662882679002
 30
0.0
 10
98.4240960830199
 20
116.5652232638157
 30
0.0
 10
98.62933866560569
 20
116.5521283664235
 30
0.0
 10
98.83365968210276
 20
116.530589879851
 30
0.0
 10
99.03706073419177
 20
116.4997684080024
 30
0.0
 10
99.23953636503764
 20
116.4598556554949
 30
0.0
 10
99.44108522928528
 20
116.410755462554
 30
0.0
 10
99.64169925008797
 20
116.3524422150421
 30
0.0
 10
99.84139701442027
 20
116.2848502721753
 30
0.0
 10
100.2569618350995
 20
116.1240367560597
 30
0.0
 10
100.8597382516421
 20
115.8100598567184
 30
0.0
 10
101.553794807147
 20
115.2464883812237
 30
0.0
 10
102.1205684365441
 20
114.5707441619697
 30
0.0
 10
102.4581462422154
 20
113.9533823344931
 30
0.0
 10
102.6466086515042
 20
113.4613208949831
 30
0.0
 10
102.7458698690287
 20
113.1236691124367
 30
0.0
 10
102.8162144577356
 20
112.7810379704132
 30
0.0
 10
102.8602130562542
 20
112.4336732699716
 30
0.0
 10
102.8655893197345
 20
112.1993698933647
 30
0.0
 10
102.8682802055049
 20
112.082098181442
 30
0.0
  0
LINE
  5
19A
330
1F
100
AcDbEntity
  8
0
  6
Continuous
 62
     7
370
    25
100
AcDbLine
 10
96.3034069262
 20
116.566821353
 30
0.0
 11
98.2182802055
 21
116.566821353
 31
0.0
  0
SPLINE
  5
19B
330
1F
100
AcDbEntity
  8
0
  6
Continuous
 62
     7
370
    25
100
AcDbSpline
210
0.0
220
0.0
230
1.0
 70
     8
 71
     3
 72
    12
 73
     8
 74
     0
 42
0.000000001
 43
0.00000001
 40
0.0
 40
0.0
 40
0.0
 40
0.0
 40
0.1992838848975294
 40
0.3984605265796777
 40
0.5979968004971673
 40
0.7983570684833388
 40
1.0
 40
1.0
 40
1.0
 40
1.0
 10
95.30237308387646
 20
116.4646270402838
 30
0.0
 10
95.36782636117692
 20
116.4776493930485
 30
0.0
 10
95.49869769255889
 20
116.5036870906907
 30
0.0
 10
95.69754714418265
 20
116.5321176496647
 30
0.0
 10
95.89795366005372
 20
116.5525488106462
 30
0.0
 10
96.10012457747095
 20
116.5649878877168
 30
0.0
 10
96.23550216112203
 20
116.5662088992914
 30
0.0
 10
96.30340692621546
 20
116.5668213530073
 30
0.0
  0
LINE
  5
19C
330
1F
100
AcDbEntity
  8
0
  6
Continuous
 62
     7
370
    25
100
AcDbLine
 10
89.8776100763
 20
116.4644631162
 30
0.0
 11
95.3016000948
 21
116.4644631162
 31
0.0
  0
SPLINE
  5
19D
330
1F
100
AcDbEntity
  8
0
  6
Continuous
 62
     7
370
    25
100
AcDbSpline
210
0.0
220
0.0
230
1.0
 70
     8
 71
     3
 72
    24
 73
    20
 74
     0
 42
0.000000001
 43
0.00000001
 40
0.0
 40
0.0
 40
0.0
 40
0.0
 40
0.0410257106287842
 40
0.0818520099077639
 40
0.1225800578354648
 40
0.1633117464058233
 40
0.2041489402806705
 40
0.2451927184749161
 40
0.2865426449235763
 40
0.3282960933646444
 40
0.370547647549383
 40
0.4133885920102291
 40
0.4569065022351533
 40
0.5011849368587563
 40
0.6001856774947433
 40
0.6987388860447942
 40
0.7976800645453981
 40
0.8978349910029445
 40
1.0
 40
1.0
 40
1.0
 40
1.0
 10
86.10562316935479
 20
118.4021049333052
 30
0.0
 10
86.16866225730931
 20
118.4015702329901
 30
0.0
 10
86.2944340226912
 20
118.4005034313475
 30
0.0
 10
86.48237218420202
 20
118.3893599393493
 30
0.0
 10
86.66896227702661
 20
118.3711984410416
 30
0.0
 10
86.85420405956174
 20
118.3453235203202
 30
0.0
 10
87.03809324278966
 20
118.3118866345085
 30
0.0
 10
87.22062690876243
 20
118.270802612965
 30
0.0
 10
87.40180231570174
 20
118.2220398648714
 30
0.0
 10
87.58161709967789
 20
118.1655423767277
 30
0.0
 10
87.76007029875746
 20
118.1012512819255
 30
0.0
 10
87.93715833690713
 20
118.0290976019931
 30
0.0
 10
88.11289046119286
 20
117.9490104169544
 30
0.0
 10
88.35790509478919
 20
117.825169530272
 30
0.0
 10
88.6620881739714
 20
117.6465445480788
 30
0.0
 10
89.00939565541648
 20
117.3974553640215
 30
0.0
 10
89.3285699188889
 20
117.1178857790419
 30
0.0
 10
89.62248182115361
 20
116.8090601410697
 30
0.0
 10
89.79200590784545
 20
116.5809680977679
 30
0.0
 10
89.87761007632825
 20
116.4657890097373
 30
0.0
  0
LINE
  5
19E
330
1F
100
AcDbEntity
  8
0
  6
Continuous
 62
     7
370
    25
100
AcDbLine
 10
83.3140814524
 20
118.4021049333
 30
0.0
 11
86.1056231694
 21
118.4021049333
 31
0.0
  0
SPLINE
  5
19F
330
1F
100
AcDbEntity
  8
0
  6
Continuous
 62
     7
370
    25
100
AcDbSpline
210
0.0
220
0.0
230
1.0
 70
     8
 71
     3
 72
     8
 73
     4
 74
     0
 42
0.000000001
 43
0.00000001
 40
0.0
 40
0.0
 40
0.0
 40
0.0
 40
1.0
 40
1.0
 40
1.0
 40
1.0
 10
83.26827738074617
 20
118.4655579243149
 30
0.0
 10
83.28354540464386
 20
118.4444414539168
 30
0.0
 10
83.29881342854154
 20
118.4232903868641
 30
0.0
 10
83.31408145243923
 20
118.4021049333052
 30
0.0
  0
LINE
  5
1A0
330
1F
100
AcDbEntity
  8
0
  6
Continuous
 62
     7
370
    25
100
AcDbLine
 10
83.2682802055
 20
125.6568247706
 30
0.0
 11
83.2682802055
 21
118.4655579243
 31
0.0
  0
LINE
  5
1A1
330
1F
100
AcDbEntity
  8
0
  6
Continuous
 62
     7
370
    25
100
AcDbLine
 10
83.2682802055
 20
125.6568247706
 30
0.0
 11
87.1382800502
 21
125.6568247706
 31
0.0
  0
LINE
  5
1A2
330
1F
100
AcDbEntity
  8
0
  6
Continuous
 62
     7
370
    25
100
AcDbLine
 10
114.2182802055
 20
123.5693247706
 30
0.0
 11
117.9182802055
 21
123.5693247706
 31
0.0
  0
LINE
  5
1A3
330
1F
100
AcDbEntity
  8
0
  6
Continuous
 62
     7
370
    25
100
AcDbLine
 10
114.2182802055
 20
123.5693247706
 30
0.0
 11
114.2182802055
 21
108.0193247706
 31
0.0
  0
ARC
  5
1A4
330
1F
100
AcDbEntity
  8
0
  6
Continuous
 62
     7
370
    25
100
AcDbCircle
 10
117.9182802055
 20
122.3693247706
 30
0.0
 40
1.200000000000017
100
AcDbArc
 50
0.0
 51
90.0
  0
ARC
  5
1A5
330
1F
100
AcDbEntity
  8
0
  6
Continuous
 62
     7
370
    25
100
AcDbCircle
 10
219.9182802055
 20
117.3193247706
 30
0.0
 40
0.3000000000000114
100
AcDbArc
 50
270.0
 51
0.0000000001
  0
LINE
  5
1A6
330
1F
100
AcDbEntity
  8
0
  6
Continuous
 62
     7
370
    25
100
AcDbLine
 10
220.2182802055
 20
117.3193247706
 30
0.0
 11
220.2182802055
 21
108.0193247706
 31
0.0
  0
ARC
  5
1A7
330
1F
100
AcDbEntity
  8
0
  6
Continuous
 62
     7
370
    25
100
AcDbCircle
 10
174.3235061874
 20
116.9193247706
 30
0.0
 40
0.4000000000000208
100
AcDbArc
 50
70.0
 51
90.0
  0
LINE
  5
1A8
330
1F
100
AcDbEntity
  8
0
  6
Continuous
 62
     7
370
    25
100
AcDbLine
 10
171.6182802055
 20
117.3193247706
 30
0.0
 11
174.3235061874
 21
117.3193247706
 31
0.0
  0
ARC
  5
1A9
330
1F
100
AcDbEntity
  8
0
  6
Continuous
 62
     7
370
    25
100
AcDbCircle
 10
171.6182802055
 20
116.9193247706
 30
0.0
 40
0.3999999999999915
100
AcDbArc
 50
90.0
 51
180.0
  0
LINE
  5
1AA
330
1F
100
AcDbEntity
  8
0
  6
Continuous
 62
     7
370
    25
100
AcDbLine
 10
175.2182802055
 20
117.0193247706
 30
0.0
 11
175.2182802055
 21
108.0193247706
 31
0.0
  0
LINE
  5
1AB
330
1F
100
AcDbEntity
  8
0
  6
Continuous
 62
     7
370
    25
100
AcDbLine
 10
174.4603142447
 20
117.295201819
 30
0.0
 11
175.2182802055
 21
117.0193247706
 31
0.0
  0
SPLINE
  5
1AC
330
1F
100
AcDbEntity
  8
0
  6
Continuous
 62
     7
370
    25
100
AcDbSpline
210
0.0
220
0.0
230
1.0
 70
     8
 71
     3
 72
    25
 73
    21
 74
     0
 42
0.000000001
 43
0.00000001
 40
0.0
 40
0.0
 40
0.0
 40
0.0
 40
0.0352561094154864
 40
0.0996015731348824
 40
0.1643068983953708
 40
0.2302661100892801
 40
0.2967325603144048
 40
0.3467571748548477
 40
0.397067476900211
 40
0.4483347023079766
 40
0.4999574614820061
 40
0.5586185061590008
 40
0.6178180839206698
 40
0.6786310966618644
 40
0.7399522149474008
 40
0.7985918949170769
 40
0.8575801885191818
 40
0.9175408314777236
 40
0.977793830720939
 40
1.0
 40
1.0
 40
1.0
 40
1.0
 10
193.3691734963116
 20
115.5193247706422
 30
0.0
 10
193.4355210892788
 20
115.4892104151413
 30
0.0
 10
193.6229588055444
 20
115.4041347436742
 30
0.0
 10
193.9554318932211
 20
115.2715691035788
 30
0.0
 10
194.364767810521
 20
115.1245818678932
 30
0.0
 10
194.7981319942165
 20
114.9925816608393
 30
0.0
 10
195.2147441135408
 20
114.8901056251219
 30
0.0
 10
195.6063557413643
 20
114.8160182669057
 30
0.0
 10
195.9691458095369
 20
114.7659336560758
 30
0.0
 10
196.3407840298998
 20
114.7346414266943
 30
0.0
 10
196.7354668604491
 20
114.72347163203
 30
0.0
 10
197.14958851965
 20
114.7367958955756
 30
0.0
 10
197.5821260127407
 20
114.7783811010066
 30
0.0
 10
198.0131833289246
 20
114.8470093984925
 30
0.0
 10
198.4317272393547
 20
114.9390951008537
 30
0.0
 10
198.8327664930342
 20
115.0496684610413
 30
0.0
 10
199.2168488283651
 20
115.1746815696937
 30
0.0
 10
199.5875326932335
 20
115.3133498994709
 30
0.0
 10
199.8729998128799
 20
115.4296398597354
 30
0.0
 10
200.0270712146695
 20
115.5002969018634
 30
0.0
 10
200.0685624847188
 20
115.5193247706423
 30
0.0
  0
LINE
  5
1AD
330
1F
100
AcDbEntity
  8
0
  6
Continuous
 62
     7
370
    25
100
AcDbLine
 10
202.7182802055
 20
117.0193247706
 30
0.0
 11
219.9182802055
 21
117.0193247706
 31
0.0
  0
LINE
  5
1AE
330
1F
100
AcDbEntity
  8
0
  6
Continuous
 62
     7
370
    25
100
AcDbLine
 10
175.2182802055
 20
117.0193247706
 30
0.0
 11
190.7182802055
 21
117.0193247706
 31
0.0
  0
LINE
  5
1AF
330
1F
100
AcDbEntity
  8
0
  6
Continuous
 62
     7
370
    25
100
AcDbLine
 10
122.9432802055
 20
113.7693247706
 30
0.0
 11
123.7682802055
 21
113.7693247706
 31
0.0
  0
LINE
  5
1B0
330
1F
100
AcDbEntity
  8
0
  6
Continuous
 62
     7
370
    25
100
AcDbLine
 10
119.5182802055
 20
113.0193247706
 30
0.0
 11
119.5182802055
 21
108.0193247706
 31
0.0
  0
LINE
  5
1B1
330
1F
100
AcDbEntity
  8
0
  6
Continuous
 62
     7
370
    25
100
AcDbLine
 10
119.1182802055
 20
113.2502648783
 30
0.0
 11
119.5182802055
 21
113.0193247706
 31
0.0
  0
LINE
  5
1B2
330
1F
100
AcDbEntity
  8
0
  6
Continuous
 62
     7
370
    25
100
AcDbLine
 10
119.1182802055
 20
113.2502648783
 30
0.0
 11
119.1182802055
 21
108.0193247706
 31
0.0
  0
LINE
  5
1B3
330
1F
100
AcDbEntity
  8
0
  6
Continuous
 62
     7
370
    25
100
AcDbLine
 10
119.5182802055
 20
113.0193247706
 30
0.0
 11
122.9432802055
 21
113.0193247706
 31
0.0
  0
LINE
  5
1B4
330
1F
100
AcDbEntity
  8
0
  6
Continuous
 62
     7
370
    25
100
AcDbLine
 10
122.9432802055
 20
113.0193247706
 30
0.0
 11
122.9432802055
 21
108.0193247706
 31
0.0
  0
LINE
  5
1B5
330
1F
100
AcDbEntity
  8
0
  6
Continuous
 62
     7
370
    25
100
AcDbLine
 10
123.7682802055
 20
112.0193247706
 30
0.0
 11
171.2182802055
 21
112.0193247706
 31
0.0
  0
LINE
  5
1B6
330
1F
100
AcDbEntity
  8
0
  6
Continuous
 62
     7
370
    25
100
AcDbLine
 10
123.7682802055
 20
112.0193247706
 30
0.0
 11
123.7682802055
 21
108.0193247706
 31
0.0
  0
LINE
  5
1B7
330
1F
100
AcDbEntity
  8
0
  6
Continuous
 62
     7
370
    25
100
AcDbLine
 10
171.2182802055
 20
112.0193247706
 30
0.0
 11
171.2182802055
 21
108.0193247706
 31
0.0
  0
SPLINE
  5
1B8
330
1F
100
AcDbEntity
  8
0
  6
Continuous
 62
     7
370
    25
100
AcDbSpline
210
0.0
220
0.0
230
1.0
 70
     8
 71
     3
 72
    37
 73
    33
 74
     0
 42
0.000000001
 43
0.00000001
 40
0.0
 40
0.0
 40
0.0
 40
0.0
 40
0.0114878548102808
 40
0.0231559765621665
 40
0.035007648435438
 40
0.047046003379534
 40
0.0592740307999954
 40
0.0716945830965835
 40
0.0843103820274713
 40
0.0971240248798069
 40
0.1101379904320595
 40
0.1233546446979483
 40
0.1811510010973311
 40
0.2483631736114487
 40
0.2888373415819308
 40
0.3232297457604671
 40
0.3515392131491983
 40
0.3737664266256222
 40
0.4399300285953867
 40
0.4987424063270026
 40
0.5023253005651626
 40
0.5613100074513698
 40
0.6252595444338102
 40
0.6818650083849741
 40
0.748389001698783
 40
0.7860781471964602
 40
0.8194856599799691
 40
0.8486127715281624
 40
0.8734622727747317
 40
0.9389926156604024
 40
0.9981523731393415
 40
1.0
 40
1.0
 40
1.0
 40
1.0
 10
105.0682802055049
 20
131.4829770739955
 30
0.0
 10
105.0673537542264
 20
131.4825335569871
 30
0.0
 10
105.0654863138343
 20
131.4816395633196
 30
0.0
 10
105.0502132534946
 20
131.4744475858613
 30
0.0
 10
105.0253115510307
 20
131.4629963422689
 30
0.0
 10
104.9894572790948
 20
131.4468465834944
 30
0.0
 10
104.9424897682572
 20
131.4261189039407
 30
0.0
 10
104.8839468578363
 20
131.400780384939
 30
0.0
 10
104.8134687182587
 20
131.3708399643845
 30
0.0
 10
104.7306941539812
 20
131.3362959903424
 30
0.0
 10
104.635277608863
 20
131.2971462487278
 30
0.0
 10
104.4057087754746
 20
131.2044475775666
 30
0.0
 10
103.9212905615019
 20
131.0157246870521
 30
0.0
 10
103.1422905899565
 20
130.737634887081
 30
0.0
 10
102.3510721385364
 20
130.4870480197516
 30
0.0
 10
101.7200216452936
 20
130.3120312584217
 30
0.0
 10
101.1669836889572
 20
130.1721966178227
 30
0.0
 10
100.3740257600608
 20
129.9917857724767
 30
0.0
 10
99.30369141972757
 20
129.8027194508346
 30
0.0
 10
98.32270114029237
 20
129.6974326431248
 30
0.0
 10
97.39473391117271
 20
129.6403998711719
 30
0.0
 10
96.42227841741236
 20
129.6258052728021
 30
0.0
 10
95.09614821197896
 20
129.7039984892933
 30
0.0
 10
93.82611272748522
 20
129.8644782108875
 30
0.0
 10
92.8663367268156
 20
130.0495897491011
 30
0.0
 10
92.16768507947079
 20
130.2170793528312
 30
0.0
 10
91.72387694131567
 20
130.3307025590395
 30
0.0
 10
91.3913398793857
 20
130.423886393948
 30
0.0
 10
91.00418146914245
 20
130.5385512582066
 30
0.0
 10
90.66693350703066
 20
130.6458970672667
 30
0.0
 10
90.56920944070168
 20
130.6834626405533
 30
0.0
 10
90.5683075204298
 20
130.6835940493698
 30
0.0
 10
90.5682802055049
 20
130.6835980291251
 30
0.0
  0
LINE
  5
1B9
330
1F
100
AcDbEntity
  8
0
  6
Continuous
 62
     7
370
    25
100
AcDbLine
 10
105.0682802055
 20
131.482977074
 30
0.0
 11
105.0682802055
 21
126.1255507914
 31
0.0
  0
SPLINE
  5
1BA
330
1F
100
AcDbEntity
  8
0
  6
Continuous
 62
     7
370
    25
100
AcDbSpline
210
0.0
220
0.0
230
1.0
 70
     8
 71
     3
 72
    30
 73
    26
 74
     0
 42
0.000000001
 43
0.00000001
 40
0.0
 40
0.0
 40
0.0
 40
0.0
 40
0.0192411700742051
 40
0.0381353539376955
 40
0.0566868884861276
 40
0.0749003554931353
 40
0.0927805967284104
 40
0.1103327298326379
 40
0.127562164928989
 40
0.1444746219341814
 40
0.2455865830531964
 40
0.3577720192516778
 40
0.4505017408956412
 40
0.5720127868619808
 40
0.6168069840199893
 40
0.6590088499432715
 40
0.6986242498774657
 40
0.7356603299341531
 40
0.7701258931915056
 40
0.8073679165907838
 40
0.8483950324891402
 40
0.8881367798820049
 40
0.9266264622110462
 40
0.9639007443615101
 40
0.9999999999999999
 40
0.9999999999999999
 40
0.9999999999999999
 40
0.9999999999999999
 10
95.89746161489282
 20
124.4614594810503
 30
0.0
 10
95.98049409477245
 20
124.4503323757254
 30
0.0
 10
96.14506168584528
 20
124.4282788260593
 30
0.0
 10
96.39294320152584
 20
124.4002269367966
 30
0.0
 10
96.63821987696821
 20
124.3762754062707
 30
0.0
 10
96.88077771057948
 20
124.3567454540774
 30
0.0
 10
97.12021238768838
 20
124.3415531619007
 30
0.0
 10
97.35622558309545
 20
124.3307216006698
 30
0.0
 10
97.58854362840623
 20
124.3242410354167
 30
0.0
 10
98.19709439803026
 20
124.3186095438306
 30
0.0
 10
99.23540689525028
 20
124.3785829433153
 30
0.0
 10
100.5507584233516
 20
124.5780054164901
 30
0.0
 10
101.8303036362431
 20
124.8834867771739
 30
0.0
 10
102.7217441803333
 20
125.1634295800928
 30
0.0
 10
103.3394090491943
 20
125.3908786766082
 30
0.0
 10
103.6827321344777
 20
125.5211573371082
 30
0.0
 10
103.9744232193732
 20
125.6372482750662
 30
0.0
 10
104.218968575199
 20
125.7386165044695
 30
0.0
 10
104.4313232556384
 20
125.8299545569871
 30
0.0
 10
104.622386230263
 20
125.9140296409343
 30
0.0
 10
104.7876336344355
 20
125.9890225948996
 30
0.0
 10
104.9171741846796
 20
126.0500110944453
 30
0.0
 10
105.0055405539021
 20
126.0932487562107
 30
0.0
 10
105.0586863991658
 20
126.1204788420895
 30
0.0
 10
105.0651165951069
 20
126.1238782882194
 30
0.0
 10
105.0682802055049
 20
126.1255507913939
 30
0.0
  0
SPLINE
  5
1BB
330
1F
100
AcDbEntity
  8
0
  6
Continuous
 62
     7
370
    25
100
AcDbSpline
210
0.0
220
0.0
230
1.0
 70
     8
 71
     3
 72
    38
 73
    34
 74
     0
 42
0.000000001
 43
0.00000001
 40
0.0
 40
0.0
 40
0.0
 40
0.0
 40
0.1250000000000001
 40
0.1250000000000001
 40
0.2500000000000002
 40
0.2500000000000002
 40
0.3125000000000001
 40
0.3125000000000001
 40
0.3749999999999998
 40
0.3749999999999998
 40
0.4374999999999997
 40
0.4374999999999997
 40
0.4999999999999995
 40
0.4999999999999995
 40
0.5624999999999992
 40
0.5624999999999992
 40
0.6249999999999991
 40
0.6249999999999991
 40
0.6874999999999989
 40
0.6874999999999989
 40
0.7187499999999992
 40
0.7187499999999992
 40
0.7499999999999996
 40
0.7499999999999996
 40
0.78125
 40
0.78125
 40
0.8125000000000003
 40
0.8125000000000003
 40
0.8750000000000002
 40
0.8750000000000002
 40
0.9375000000000002
 40
0.9375000000000002
 40
1.0
 40
1.0
 40
1.0
 40
1.0
 10
90.5682802055049
 20
130.5553726555462
 30
0.0
 10
90.56828020550492
 20
130.5553726555462
 30
0.0
 10
90.63008596306832
 20
130.5327285728843
 30
0.0
 10
90.87970850850367
 20
130.4401441838283
 30
0.0
 10
91.06343613944178
 20
130.3717566038756
 30
0.0
 10
91.41982497602677
 20
130.2359145046738
 30
0.0
 10
91.55298543753229
 20
130.1847215196173
 30
0.0
 10
91.84406444822865
 20
130.0710329145049
 30
0.0
 10
92.00055439973798
 20
130.0091063069985
 30
0.0
 10
92.33393584102586
 20
129.874221198308
 30
0.0
 10
92.51083959938899
 20
129.8012829440214
 30
0.0
 10
92.88408124686231
 20
129.6423070092255
 30
0.0
 10
93.08182523774346
 20
129.5556672393489
 30
0.0
 10
93.4878486709966
 20
129.3687495667965
 30
0.0
 10
93.6959020643836
 20
129.2687146529875
 30
0.0
 10
94.11819633711781
 20
129.0494511028085
 30
0.0
 10
94.33256164019289
 20
128.9304479111439
 30
0.0
 10
94.76040395177235
 20
128.66017406082
 30
0.0
 10
94.976805602879
 20
128.5069252353083
 30
0.0
 10
95.27543804575916
 20
128.2408567117251
 30
0.0
 10
95.37063063522888
 20
128.1460844654524
 30
0.0
 10
95.54825588708572
 20
127.9403276082625
 30
0.0
 10
95.63087019771412
 20
127.8284690664919
 30
0.0
 10
95.77295047273574
 20
127.5949535622695
 30
0.0
 10
95.83333602198071
 20
127.4723924963137
 30
0.0
 10
95.9327865141356
 20
127.2159217330885
 30
0.0
 10
95.97207795316042
 20
127.0806817195387
 30
0.0
 10
96.0587745393135
 20
126.6723997165742
 30
0.0
 10
96.07748286630824
 20
126.3961395387893
 30
0.0
 10
96.07398684567654
 20
125.8393917601535
 30
0.0
 10
96.05150722546796
 20
125.5611615161628
 30
0.0
 10
95.98587957768585
 20
125.0097756959779
 30
0.0
 10
95.94238203399635
 20
124.7355220268755
 30
0.0
 10
95.89290248688631
 20
124.4620925549139
 30
0.0
  0
LINE
  5
1BC
330
1F
100
AcDbEntity
  8
0
  6
Continuous
 62
     7
370
    25
100
AcDbLine
 10
90.5682802055
 20
130.5553726555
 30
0.0
 11
90.5682802055
 21
130.683598029
 31
0.0
  0
SPLINE
  5
1BD
330
1F
100
AcDbEntity
  8
0
  6
Continuous
 62
     7
370
    25
100
AcDbSpline
210
0.0
220
0.0
230
1.0
 70
     8
 71
     3
 72
    14
 73
    10
 74
     0
 42
0.000000001
 43
0.00000001
 40
0.0
 40
0.0
 40
0.0
 40
0.0
 40
0.0003951392850831
 40
0.0003951392850831
 40
0.0003951392850831
 40
0.0008159035679249
 40
0.0008159035679249
 40
0.0008159035679249
 40
0.0012369936130997
 40
0.0012369936130997
 40
0.0012369936130997
 40
0.0012369936130997
 10
94.69616415523643
 20
124.1942977676425
 30
0.0
 10
94.82467339334315
 20
124.223171735356
 30
0.0
 10
94.95323690107216
 20
124.2518599488323
 30
0.0
 10
95.08178727935554
 20
124.2803627928698
 30
0.0
 10
95.21867252701914
 20
124.3107136865605
 30
0.0
 10
95.35556817291896
 20
124.3408596515895
 30
0.0
 10
95.49238843426802
 20
124.370811471158
 30
0.0
 10
95.62931442321293
 20
124.4007864359379
 30
0.0
 10
95.76619149517711
 20
124.4305724853831
 30
0.0
 10
95.90292834436426
 20
124.4601949585518
 30
0.0
  0
LINE
  5
1BE
330
1F
100
AcDbEntity
  8
0
  6
Continuous
 62
     7
370
    25
100
AcDbLine
 10
87.1382800502
 20
125.6568247706
 30
0.0
 11
90.5682802055
 21
130.5553726555
 31
0.0
  0
LINE
  5
1BF
330
1F
100
AcDbEntity
  8
0
  6
Continuous
 62
     7
370
    25
100
AcDbLine
 10
202.7182802055
 20
117.0193247706
 30
0.0
 11
202.7182802055
 21
131.0193247832
 31
0.0
  0
LINE
  5
1C0
330
1F
100
AcDbEntity
  8
0
  6
Continuous
 62
     7
370
    25
100
AcDbLine
 10
190.7182802055
 20
131.0193248609
 30
0.0
 11
190.7182802055
 21
117.0193247706
 31
0.0
  0
LINE
  5
1C1
330
1F
100
AcDbEntity
  8
0
  6
Continuous
 62
     7
370
    25
100
AcDbLine
 10
89.8187183572
 20
131.4927104803
 30
0.0
 11
90.5683083361
 21
130.6835991425
 31
0.0
  0
LINE
  5
1C2
330
1F
100
AcDbEntity
  8
0
  6
Continuous
 62
     7
370
    25
100
AcDbLine
 10
105.0682931536
 20
131.4829773298
 30
0.0
 11
105.7366232996
 21
132.2920891522
 31
0.0
  0
LINE
  5
1C3
330
1F
100
AcDbEntity
  8
0
  6
Continuous
 62
     7
370
    25
100
AcDbLine
 10
81.0199462553
 20
126.954900982
 30
0.0
 11
83.2682802055
 21
125.6568247706
 31
0.0
  0
LINE
  5
1C4
330
1F
100
AcDbEntity
  8
0
  6
Continuous
 62
     7
370
    25
100
AcDbLine
 10
80.2682802055
 20
128.2568247706
 30
0.0
 11
81.0199462553
 21
126.954900982
 31
0.0
  0
LINE
  5
1C5
330
1F
100
AcDbEntity
  8
0
  6
Continuous
 62
     7
370
    25
100
AcDbLine
 10
80.2682802055
 20
130.2224194944
 30
0.0
 11
80.2682802055
 21
128.2568247706
 31
0.0
  0
LINE
  5
1C6
330
1F
100
AcDbEntity
  8
0
  6
Continuous
 62
     7
370
    25
100
AcDbLine
 10
81.7682802055
 20
131.0884448982
 30
0.0
 11
80.2682802055
 21
130.2224194944
 31
0.0
  0
ARC
  5
1C7
330
1F
100
AcDbEntity
  8
0
  6
Continuous
 62
     7
370
    25
100
AcDbCircle
 10
129.2432802055
 20
136.8693247706
 30
0.0
 40
1.0
100
AcDbArc
 50
180.0
 51
270.0
  0
LINE
  5
1C8
330
1F
100
AcDbEntity
  8
0
  6
Continuous
 62
     7
370
    25
100
AcDbLine
 10
130.9932802055
 20
135.8693247706
 30
0.0
 11
129.2432802055
 21
135.8693247706
 31
0.0
  0
ARC
  5
1C9
330
1F
100
AcDbEntity
  8
0
  6
Continuous
 62
     7
370
    25
100
AcDbCircle
 10
130.9932802055
 20
136.8693247706
 30
0.0
 40
1.0
100
AcDbArc
 50
270.0
 51
0.0
  0
LINE
  5
1CA
330
1F
100
AcDbEntity
  8
0
  6
Continuous
 62
     7
370
    25
100
AcDbLine
 10
131.9932802055
 20
136.9669200348
 30
0.0
 11
131.9932802055
 21
136.8693247706
 31
0.0
  0
LINE
  5
1CB
330
1F
100
AcDbEntity
  8
0
  6
Continuous
 62
     7
370
    25
100
AcDbLine
 10
133.4524780101
 20
139.4943247706
 30
0.0
 11
131.9932802055
 21
136.9669200348
 31
0.0
  0
LINE
  5
1CC
330
1F
100
AcDbEntity
  8
0
  6
Continuous
 62
     7
370
    25
100
AcDbLine
 10
189.7182802604
 20
132.0193247706
 30
0.0
 11
190.7182802055
 21
131.0193248609
 31
0.0
  0
LINE
  5
1CD
330
1F
100
AcDbEntity
  8
0
  6
Continuous
 62
     7
370
    25
100
AcDbLine
 10
105.6942293473
 20
125.6568260609
 30
0.0
 11
105.0682833337
 21
126.1255509163
 31
0.0
  0
LINE
  5
1CE
330
1F
100
AcDbEntity
  8
0
  6
Continuous
 62
     7
370
    25
100
AcDbLine
 10
128.2432802055
 20
136.9669200348
 30
0.0
 11
126.7840824009
 21
139.4943247706
 31
0.0
  0
LINE
  5
1CF
330
1F
100
AcDbEntity
  8
0
  6
Continuous
 62
     7
370
    25
100
AcDbLine
 10
128.2432802055
 20
136.8693247706
 30
0.0
 11
128.2432802055
 21
136.9669200348
 31
0.0
  0
LINE
  5
1D0
330
1F
100
AcDbEntity
  8
0
  6
Continuous
 62
     7
370
    25
100
AcDbLine
 10
122.9432802055
 20
113.0193247706
 30
0.0
 11
122.9432802055
 21
113.7693247706
 31
0.0
  0
LINE
  5
1D1
330
1F
100
AcDbEntity
  8
0
  6
Continuous
 62
     7
370
    25
100
AcDbLine
 10
123.7682802055
 20
113.7693247706
 30
0.0
 11
123.7682802055
 21
112.0193247706
 31
0.0
  0
LINE
  5
1D2
330
1F
100
AcDbEntity
  8
0
  6
Continuous
 62
     7
370
    25
100
AcDbLine
 10
171.2182802055
 20
112.0193247706
 30
0.0
 11
171.2182802055
 21
116.9193247706
 31
0.0
  0
LINE
  5
1D3
330
1F
100
AcDbEntity
  8
0
  6
Continuous
 62
     7
370
    25
100
AcDbLine
 10
119.1182802055
 20
122.3693247706
 30
0.0
 11
119.1182802055
 21
113.2502648783
 31
0.0
  0
LINE
  5
1D4
330
1F
100
AcDbEntity
  8
0
  6
Continuous
 62
     7
370
    25
100
AcDbLine
 10
114.2182802055
 20
125.4693247706
 30
0.0
 11
114.2182802055
 21
123.5693247706
 31
0.0
  0
LINE
  5
1D5
330
1F
100
AcDbEntity
  8
0
  6
Continuous
 62
     7
370
    25
100
AcDbLine
 10
120.2182802055
 20
139.2943247706
 30
0.0
 11
120.2182802055
 21
134.8693247706
 31
0.0
  0
LINE
  5
1D6
330
1F
100
AcDbEntity
  8
0
  6
Continuous
 62
     7
370
    25
100
AcDbLine
 10
138.2182802055
 20
135.0193247706
 30
0.0
 11
138.2182802055
 21
139.4943247706
 31
0.0
  0
LINE
  5
1D7
330
1F
100
AcDbEntity
  8
0
  6
Continuous
 62
     7
370
    25
100
AcDbLine
 10
202.7182799932
 20
131.0193248096
 30
0.0
 11
203.718279903
 21
132.019324717
 31
0.0
  0
LINE
  5
1D8
330
1F
100
AcDbEntity
  8
0
  6
Continuous
 62
     7
370
    25
100
AcDbLine
 10
220.2182802055
 20
117.3193247706
 30
0.0
 11
220.2182802055
 21
125.745184249
 31
0.0
  0
SPLINE
  5
1D9
330
1F
100
AcDbEntity
  8
0
  6
Continuous
 62
     7
370
    25
100
AcDbSpline
210
0.0
220
0.0
230
1.0
 70
     8
 71
     3
 72
     9
 73
     5
 74
     0
 42
0.000000001
 43
0.00000001
 40
0.0
 40
0.0
 40
0.0
 40
0.0
 40
0.5102121239851395
 40
0.9999999999999999
 40
0.9999999999999999
 40
0.9999999999999999
 40
0.9999999999999999
 10
81.07264360217602
 20
118.4809512872941
 30
0.0
 10
81.4475056591548
 20
118.4784613699124
 30
0.0
 10
82.1822237094646
 20
118.4735812087704
 30
0.0
 10
82.91122429992133
 20
118.468196317384
 30
0.0
 10
83.26827995073471
 20
118.4655588628693
 30
0.0
  0
LINE
  5
1DA
330
1F
100
AcDbEntity
  8
0
  6
Continuous
 62
     7
370
    25
100
AcDbLine
 10
81.0199462553
 20
118.5113755782
 30
0.0
 11
81.072643604
 21
118.4809507498
 31
0.0
  0
LINE
  5
1DB
330
1F
100
AcDbEntity
  8
0
  6
Continuous
 62
     7
370
    25
100
AcDbLine
 10
81.0199462553
 20
126.954900982
 30
0.0
 11
81.0199462553
 21
118.5113755782
 31
0.0
  0
SPLINE
  5
1DC
330
1F
100
AcDbEntity
  8
0
  6
Continuous
 62
     7
370
    25
100
AcDbSpline
210
0.0
220
0.0
230
1.0
 70
    24
 71
     3
 72
     8
 73
     4
 74
     0
 42
0.000000001
 43
0.00000001
 40
0.0000004089325119
 40
0.0000004089325119
 40
0.0000004089325119
 40
0.0000004089325119
 40
0.0015399868451459
 40
0.0015399868451459
 40
0.0015399868451459
 40
0.0015399868451459
 10
80.26828020550492
 20
118.9453501744267
 30
0.0
 10
80.51927128152937
 20
118.8004404091198
 30
0.0
 10
80.76986047803231
 20
118.6557626690628
 30
0.0
 10
81.01994625534445
 20
118.5113755782111
 30
0.0
  0
LINE
  5
1DD
330
1F
100
AcDbEntity
  8
0
  6
Continuous
 62
     7
370
    25
100
AcDbLine
 10
80.2682802055
 20
128.2568247706
 30
0.0
 11
80.2682802055
 21
118.9453501744
 31
0.0
  0
SPLINE
  5
1DE
330
1F
100
AcDbEntity
  8
0
  6
Continuous
 62
     7
370
    25
100
AcDbSpline
210
0.0
220
0.0
230
1.0
 70
     8
 71
     3
 72
     8
 73
     4
 74
     0
 42
0.000000001
 43
0.00000001
 40
0.0
 40
0.0
 40
0.0
 40
0.0
 40
1.0
 40
1.0
 40
1.0
 40
1.0
 10
83.39796194826168
 20
118.0793254483788
 30
0.0
 10
83.37001372814215
 20
118.1871418023543
 30
0.0
 10
83.34205363997343
 20
118.2947356525206
 30
0.0
 10
83.31408145243921
 20
118.4021049333052
 30
0.0
  0
LINE
  5
1DF
330
1F
100
AcDbEntity
  8
0
  6
Continuous
 62
     7
370
    25
100
AcDbLine
 10
83.3979650868
 20
118.0793247706
 30
0.0
 11
81.7682794187
 21
118.0793247706
 31
0.0
  0
LINE
  5
1E0
330
1F
100
AcDbEntity
  8
0
  6
Continuous
 62
     7
370
    25
100
AcDbLine
 10
81.7682796186
 20
118.0793251095
 30
0.0
 11
81.0726431407
 21
118.4809510173
 31
0.0
  0
LINE
  5
1E1
330
1F
100
AcDbEntity
  8
0
  6
Continuous
 62
     7
370
    25
100
AcDbLine
 10
89.8222411027
 20
116.0818247706
 30
0.0
 11
89.5700694748
 21
116.0818247706
 31
0.0
  0
SPLINE
  5
1E2
330
1F
100
AcDbEntity
  8
0
  6
Continuous
 62
     7
370
    25
100
AcDbSpline
210
0.0
220
0.0
230
1.0
 70
     8
 71
     3
 72
    26
 73
    22
 74
     0
 42
0.000000001
 43
0.00000001
 40
0.0
 40
0.0
 40
0.0
 40
0.0
 40
0.0524616379932503
 40
0.1026498591890872
 40
0.150565513457809
 40
0.1962095861957063
 40
0.2395832262568645
 40
0.2806877815599511
 40
0.3195248450380211
 40
0.3560963147430692
 40
0.3904044736547445
 40
0.4224520974433627
 40
0.4522426027417772
 40
0.4797802555366611
 40
0.5050704712281336
 40
0.5966394156799991
 40
0.6841917884819224
 40
0.7679874773571101
 40
0.8483228539139507
 40
0.925534163520116
 40
1.0
 40
1.0
 40
1.0
 40
1.0
 10
89.5682629808355
 20
116.0818545546776
 30
0.0
 10
89.53262658180422
 20
116.1414014747599
 30
0.0
 10
89.4628980814658
 20
116.2579148585465
 30
0.0
 10
89.34941992070594
 20
116.4223128192757
 30
0.0
 10
89.23389437098092
 20
116.5744745570773
 30
0.0
 10
89.11677267497079
 20
116.7143772540098
 30
0.0
 10
88.99940097449141
 20
116.8425915779139
 30
0.0
 10
88.88278000845779
 20
116.9596072568542
 30
0.0
 10
88.76787708801275
 20
117.0659844120983
 30
0.0
 10
88.6555528623234
 20
117.1623004925726
 30
0.0
 10
88.54658388828857
 20
117.2491498391251
 30
0.0
 10
88.44166484745188
 20
117.3271300213189
 30
0.0
 10
88.34140752150314
 20
117.3968382183719
 30
0.0
 10
88.24637017892
 20
117.458848207273
 30
0.0
 10
88.07626327448925
 20
117.5633346445388
 30
0.0
 10
87.82334424308416
 20
117.6983933110532
 30
0.0
 10
87.47736308602302
 20
117.8427802034703
 30
0.0
 10
87.12940453669867
 20
117.9517481157153
 30
0.0
 10
86.78326477632261
 20
118.026277698052
 30
0.0
 10
86.44219999288852
 20
118.0712064026014
 30
0.0
 10
86.21645338137286
 20
118.0766515014559
 30
0.0
 10
86.1056231693548
 20
118.0793247706423
 30
0.0
  0
SPLINE
  5
1E3
330
1F
100
AcDbEntity
  8
0
  6
Continuous
 62
     7
370
    25
100
AcDbSpline
210
0.0
220
0.0
230
1.0
 70
     8
 71
     3
 72
     8
 73
     4
 74
     0
 42
0.000000001
 43
0.00000001
 40
0.0
 40
0.0
 40
0.0
 40
0.0
 40
1.0
 40
1.0
 40
1.0
 40
1.0
 10
89.8222411027374
 20
116.0818247706421
 30
0.0
 10
89.85124580916498
 20
116.2057624975044
 30
0.0
 10
89.87027832884644
 20
116.3337146277377
 30
0.0
 10
89.87852992103808
 20
116.4647839404292
 30
0.0
  0
LINE
  5
1E4
330
1F
100
AcDbEntity
  8
0
  6
Continuous
 62
     7
370
    25
100
AcDbLine
 10
86.1056231694
 20
118.0793247706
 30
0.0
 11
83.3979650868
 21
118.0793247706
 31
0.0
  0
LINE
  5
1E5
330
1F
100
AcDbEntity
  8
0
  6
Continuous
 62
     7
370
    25
100
AcDbLine
 10
102.8682802055
 20
112.0820981814
 30
0.0
 11
102.2182802055
 21
112.2318247706
 31
0.0
  0
SPLINE
  5
1E6
330
1F
100
AcDbEntity
  8
0
  6
Continuous
 62
     7
370
    25
100
AcDbSpline
210
0.0
220
0.0
230
1.0
 70
     8
 71
     3
 72
    26
 73
    22
 74
     0
 42
0.000000001
 43
0.00000001
 40
0.0
 40
0.0
 40
0.0
 40
0.0
 40
0.0305951740572542
 40
0.0629166281868252
 40
0.0969720532897518
 40
0.1327680143285475
 40
0.1703101548822826
 40
0.2096033578521445
 40
0.2506518729756858
 40
0.3342141733898277
 40
0.4179517165474626
 40
0.5018670561020881
 40
0.5659795686746639
 40
0.6277136397870199
 40
0.687135819210908
 40
0.7443207393864881
 40
0.7993521466017559
 40
0.8523240127975756
 40
0.903341702807647
 40
0.9525231537633125
 40
1.0
 40
1.0
 40
1.0
 40
1.0
 10
102.2182802055049
 20
112.2318247706423
 30
0.0
 10
102.2173719936603
 20
112.2963599380295
 30
0.0
 10
102.2155043256798
 20
112.4290715586228
 30
0.0
 10
102.1999117366182
 20
112.6318856501465
 30
0.0
 10
102.1732678754311
 20
112.8435986910468
 30
0.0
 10
102.1331134463527
 20
113.0633106844198
 30
0.0
 10
102.0782153296695
 20
113.290057555291
 30
0.0
 10
102.0069723610577
 20
113.5226885590741
 30
0.0
 10
101.8885599667751
 20
113.8380868735508
 30
0.0
 10
101.7004290703673
 20
114.2225687720857
 30
0.0
 10
101.4164123071327
 20
114.6525963866153
 30
0.0
 10
101.106994350583
 20
115.0110830989561
 30
0.0
 10
100.7910847397814
 20
115.3028497552455
 30
0.0
 10
100.484339331658
 20
115.5353088420827
 30
0.0
 10
100.1659202178359
 20
115.7321190766467
 30
0.0
 10
99.83994934167887
 20
115.894219778905
 30
0.0
 10
99.51041050655365
 20
116.0226896623846
 30
0.0
 10
99.18084859170709
 20
116.1192734817576
 30
0.0
 10
98.85443026840784
 20
116.1851257110438
 30
0.0
 10
98.53391207610396
 20
116.2246906588692
 30
0.0
 10
98.32224656257318
 20
116.2294748570846
 30
0.0
 10
98.21828020550491
 20
116.2318247706423
 30
0.0
  0
SPLINE
  5
1E7
330
1F
100
AcDbEntity
  8
0
  6
Continuous
 62
     7
370
    25
100
AcDbSpline
210
0.0
220
0.0
230
1.0
 70
     8
 71
     3
 72
    13
 73
     9
 74
     0
 42
0.000000001
 43
0.00000001
 40
0.0
 40
0.0
 40
0.0
 40
0.0
 40
0.1604061687300809
 40
0.3231296684563272
 40
0.4883154213007764
 40
0.6561019685773533
 40
0.8266215117792448
 40
1.0
 40
1.0
 40
1.0
 40
1.0
 10
96.30340692621546
 20
116.2318247706423
 30
0.0
 10
96.2443569747003
 20
116.2310692006043
 30
0.0
 10
96.12540399797558
 20
116.229547145076
 30
0.0
 10
95.94615036436976
 20
116.2171020859486
 30
0.0
 10
95.76521738268208
 20
116.1969179048179
 30
0.0
 10
95.5830888882833
 20
116.1677825386772
 30
0.0
 10
95.39992188048896
 20
116.1303663868581
 30
0.0
 10
95.27918256561462
 20
116.0981005145011
 30
0.0
 10
95.21831103402974
 20
116.0818334595625
 30
0.0
  0
SPLINE
  5
1E8
330
1F
100
AcDbEntity
  8
0
  6
Continuous
 62
     7
370
    25
100
AcDbSpline
210
0.0
220
0.0
230
1.0
 70
    24
 71
     3
 72
    10
 73
     6
 74
     0
 42
0.000000001
 43
0.00000001
 40
0.0
 40
0.0
 40
0.0
 40
0.0
 40
0.3216623556917455
 40
0.6548175346390357
 40
1.0
 40
1.0
 40
1.0
 40
1.0
 10
95.2184590404097
 20
116.0818247706423
 30
0.0
 10
95.14991313255241
 20
116.0818247706423
 30
0.0
 10
95.01037220835514
 20
116.0818247706423
 30
0.0
 10
94.80076379300459
 20
116.0818247706423
 30
0.0
 10
94.66108679785076
 20
116.0818247706423
 30
0.0
 10
94.59001002664994
 20
116.0818247706423
 30
0.0
  0
SPLINE
  5
1E9
330
1F
100
AcDbEntity
  8
0
  6
Continuous
 62
     7
370
    25
100
AcDbSpline
210
0.0
220
0.0
230
1.0
 70
     8
 71
     3
 72
     8
 73
     4
 74
     0
 42
0.000000001
 43
0.00000001
 40
0.0
 40
0.0
 40
0.0
 40
0.0
 40
1.0
 40
1.0
 40
1.0
 40
1.0
 10
95.30461032190354
 20
116.4602711198252
 30
0.0
 10
95.03531399184709
 20
116.3635817346319
 30
0.0
 10
94.79915330643333
 20
116.2355825652551
 30
0.0
 10
94.58995579024939
 20
116.0821059676105
 30
0.0
  0
LINE
  5
1EA
330
1F
100
AcDbEntity
  8
0
  6
Continuous
 62
     7
370
    25
100
AcDbLine
 10
94.5905015018
 20
99.9568247706
 30
0.0
 11
94.7271723297
 21
99.9568247706
 31
0.0
  0
LINE
  5
1EB
330
1F
100
AcDbEntity
  8
0
  6
Continuous
 62
     7
370
    25
100
AcDbLine
 10
98.2182802055
 20
116.2318247706
 30
0.0
 11
96.3034069262
 21
116.2318247706
 31
0.0
  0
LINE
  5
1EC
330
1F
100
AcDbEntity
  8
0
  6
Continuous
 62
     7
370
    25
100
AcDbLine
 10
94.5903683874
 20
116.0818247706
 30
0.0
 11
89.8222411027
 21
116.0818247706
 31
0.0
  0
LINE
  5
1ED
330
1F
100
AcDbEntity
  8
0
  6
Continuous
 62
     7
370
    25
100
AcDbLine
 10
102.2182802055
 20
108.0193247706
 30
0.0
 11
102.2182802055
 21
112.2318247706
 31
0.0
  0
LINE
  5
1EE
330
1F
100
AcDbEntity
  8
VERMASSUNG
  6
CENTERX2
100
AcDbLine
 10
234.2132802055
 20
108.0193247706
 30
0.0
 11
66.2732802055
 21
108.0193247706
 31
0.0
  0
HATCH
  5
1EF
330
1F
100
AcDbEntity
  8
0
  6
Continuous
 62
     7
370
    18
100
AcDbHatch
 10
0.0
 20
0.0
 30
0.0
210
0.0
220
0.0
230
1.0
  2
ANSI31
 70
     0
 71
     0
 91
        1
 92
        0
 93
       44
 72
     1
 10
128.2432802055049
 20
136.8693247706423
 11
128.2432802055049
 21
136.9669200348339
 72
     1
 10
128.2432802055049
 20
136.9669200348339
 11
126.7840824009348
 21
139.4943247706423
 72
     1
 10
126.7840824009348
 20
139.4943247706423
 11
120.4182802055049
 21
139.4943247706423
 72
     2
 10
120.4182802055049
 20
139.2943247706423
 40
0.2000000000000028
 50
90.0
 51
180.0
 73
     1
 72
     1
 10
120.2182802055049
 20
139.2943247706423
 11
120.2182802055049
 21
134.8693247706423
 72
     1
 10
120.2182802055049
 20
134.8693247706423
 11
120.5523188915335
 21
133.8098894102457
 72
     2
 10
119.7893453309349
 20
133.5693247706423
 40
0.8000000000000032
 50
342.4999999999998
 51
467.5000000000012
 73
     0
 72
     1
 10
119.5487806913315
 20
132.8063512100437
 11
119.0580981654742
 21
132.9610628161706
 72
     1
 10
119.0580981654742
 20
132.9610628161706
 11
105.7366248929547
 21
132.2920858431444
 72
     1
 10
105.7366232995561
 20
132.2920891522129
 11
105.0682931536266
 21
131.4829773298217
 72
     1
 10
105.0682931536266
 20
131.4829773298217
 11
105.0682802055049
 21
126.1255507913938
 72
     1
 10
105.0682833337386
 20
126.1255509162743
 11
105.6942293472808
 21
125.6568260609343
 72
     1
 10
105.6942295955897
 20
125.6568247706423
 11
110.718280205505
 21
125.6568247706423
 72
     1
 10
110.718280205505
 20
125.6568247706423
 11
111.5935206790857
 21
126.1621450936698
 72
     2
 10
111.9935206790858
 20
125.4693247706423
 40
0.7999999999999923
 50
239.9999999999999
 51
269.9999999999998
 73
     0
 72
     1
 10
111.9935206790857
 20
126.2693247706423
 11
113.4182802055049
 21
126.2693247706423
 72
     2
 10
113.4182802055049
 20
125.4693247706423
 40
0.7999999999999977
 50
269.9999999999998
 51
360.0000000000008
 73
     0
 72
     1
 10
114.2182802055049
 20
125.4693247706423
 11
114.2182802055049
 21
123.5693247706423
 72
     1
 10
114.2182802055049
 20
123.5693247706423
 11
117.9182802055049
 21
123.5693247706423
 72
     2
 10
117.9182802055049
 20
122.3693247706423
 40
1.2
 50
270.0000000000008
 51
360.0000000000008
 73
     0
 72
     1
 10
119.1182802055049
 20
122.3693247706423
 11
119.1182802055049
 21
113.2502648783181
 72
     1
 10
119.1182802055049
 20
113.2502648783181
 11
119.5182802055049
 21
113.0193247706423
 72
     1
 10
119.5182802055049
 20
113.0193247706423
 11
122.9432802055049
 21
113.0193247706423
 72
     1
 10
122.9432802055049
 20
113.0193247706423
 11
122.9432802055049
 21
113.7693247706423
 72
     1
 10
122.9432802055049
 20
113.7693247706423
 11
123.7682802055049
 21
113.7693247706423
 72
     1
 10
123.7682802055049
 20
113.7693247706423
 11
123.7682802055049
 21
112.0193247706423
 72
     1
 10
123.7682802055049
 20
112.0193247706423
 11
171.218280205505
 21
112.0193247706423
 72
     1
 10
171.218280205505
 20
112.0193247706423
 11
171.2182802055049
 21
116.9193247706423
 72
     2
 10
171.6182802055049
 20
116.9193247706423
 40
0.3999999999999985
 50
180.0
 51
270.0000000000008
 73
     0
 72
     1
 10
171.6182802055049
 20
117.3193247706423
 11
174.3235061873851
 21
117.3193247706423
 72
     2
 10
174.3235061873851
 20
116.9193247706423
 40
0.3999999999999995
 50
270.0000000000008
 51
290.0000000000031
 73
     0
 72
     1
 10
174.4603142447154
 20
117.2952018189566
 11
175.218280205505
 21
117.0193247706423
 72
     1
 10
175.218280205505
 20
117.0193247706423
 11
190.7182802055049
 21
117.0193247706423
 72
     1
 10
190.7182802055049
 20
117.0193247706423
 11
190.7182802055049
 21
131.0193248609297
 72
     1
 10
190.7182802055049
 20
131.0193248609297
 11
189.7182802603611
 21
132.0193247706423
 72
     1
 10
189.7182802603611
 20
132.0193247706423
 11
141.2182802055049
 21
132.0193247706423
 72
     2
 10
141.2182802055049
 20
135.0193247706423
 40
3.0
 50
90.0
 51
180.0
 73
     0
 72
     1
 10
138.2182802055049
 20
135.0193247706423
 11
138.2182802055049
 21
139.4943247706423
 72
     1
 10
138.2182802055049
 20
139.4943247706423
 11
133.452478010075
 21
139.4943247706423
 72
     1
 10
133.452478010075
 20
139.4943247706423
 11
131.9932802055049
 21
136.9669200348339
 72
     1
 10
131.9932802055049
 20
136.9669200348339
 11
131.9932802055049
 21
136.8693247706423
 72
     2
 10
130.9932802055049
 20
136.8693247706423
 40
1.000000000000003
 50
0.0
 51
90.0
 73
     0
 72
     1
 10
130.9932802055049
 20
135.8693247706423
 11
129.2432802055049
 21
135.8693247706423
 72
     2
 10
129.2432802055049
 20
136.8693247706423
 40
1.000000000000003
 50
89.99999999999837
 51
180.0
 73
     0
 97
        0
 75
     0
 76
     1
 52
0.0
 41
1.0
 77
     0
 78
     1
 53
45.0
 43
0.0
 44
0.0
 45
-2.245064030267288
 46
2.245064030267288
 79
     0
 98
        1
 10
0.0
 20
0.0
  0
HATCH
  5
1F0
330
1F
100
AcDbEntity
  8
0
  6
Continuous
 62
     7
370
    18
100
AcDbHatch
 10
0.0
 20
0.0
 30
0.0
210
0.0
220
0.0
230
1.0
  2
ANSI31
 70
     0
 71
     0
 91
        1
 92
        0
 93
        8
 72
     1
 10
202.7182802055049
 20
117.0193247706423
 11
219.9182802055049
 21
117.0193247706422
 72
     2
 10
219.9182802055049
 20
117.3193247706423
 40
0.2999999999999973
 50
270.0000000000008
 51
360.0000000000008
 73
     1
 72
     1
 10
220.2182802055049
 20
117.3193247706423
 11
220.2182802055049
 21
125.7451842490272
 72
     2
 10
218.2182802055049
 20
125.7451842490272
 40
2.0
 50
0.0
 51
64.99999999999974
 73
     1
 72
     1
 10
219.0635167289863
 20
127.5577998231006
 11
209.4957456029571
 21
132.0193247706422
 72
     1
 10
209.4957456029571
 20
132.0193247706422
 11
203.7182799700605
 21
132.0193247706422
 72
     1
 10
203.7182799030012
 20
132.0193247170328
 11
202.7182799932359
 21
131.019324809554
 72
     1
 10
202.718280205505
 20
131.0193247832217
 11
202.7182802055049
 21
117.0193247706423
 97
        0
 75
     0
 76
     1
 52
0.0
 41
1.0
 77
     0
 78
     1
 53
45.0
 43
0.0
 44
0.0
 45
-2.245064030267288
 46
2.245064030267288
 79
     0
 98
        1
 10
0.0
 20
0.0
  0
HATCH
  5
1F1
330
1F
100
AcDbEntity
  8
0
  6
Continuous
 62
     7
370
    18
100
AcDbHatch
 10
0.0
 20
0.0
 30
0.0
210
0.0
220
0.0
230
1.0
  2
ANSI31
 70
     0
 71
     0
 91
        1
 92
        0
 93
        9
 72
     1
 10
90.56830833609308
 20
130.6835991425252
 11
89.81871835715738
 21
131.4927104802928
 72
     1
 10
89.81871835715738
 20
131.4927104802928
 11
81.76828020550494
 21
131.0884448982247
 72
     1
 10
81.76828020550494
 20
131.0884448982247
 11
80.26828020550492
 21
130.2224194944402
 72
     1
 10
80.26828020550492
 20
130.2224194944402
 11
80.26828020550492
 21
128.2568247706423
 72
     1
 10
80.26828020550492
 20
128.2568247706423
 11
81.01994625534446
 21
126.9549009819956
 72
     1
 10
81.01994625534446
 20
126.9549009819956
 11
83.26828020550492
 21
125.6568247706423
 72
     1
 10
83.26828020550492
 20
125.6568247706423
 11
87.13828005021388
 21
125.6568247706423
 72
     1
 10
87.13828005021388
 20
125.6568247706423
 11
90.56828020550492
 21
130.5553726555462
 72
     1
 10
90.56828020550492
 20
130.5553726555462
 11
90.56828020550492
 21
130.6835980290319
 97
        0
 75
     0
 76
     1
 52
0.0
 41
1.0
 77
     0
 78
     1
 53
45.0
 43
0.0
 44
0.0
 45
-2.245064030267288
 46
2.245064030267288
 79
     0
 98
        1
 10
0.0
 20
0.0
  0
HATCH
  5
1F2
330
1F
100
AcDbEntity
  8
0
  6
Continuous
 62
     7
370
    18
100
AcDbHatch
 10
0.0
 20
0.0
 30
0.0
210
0.0
220
0.0
230
1.0
  2
ANSI31
 70
     0
 71
     0
 91
        1
 92
        0
 93
       15
 72
     1
 10
191.7182802055049
 20
115.5193247706422
 11
192.9682802055049
 21
115.5193247706422
 72
     1
 10
192.9682802055049
 20
115.5193247706422
 11
196.7182802055049
 21
117.6843882801033
 72
     1
 10
196.7182802055049
 20
117.6843882801033
 11
200.468280205505
 21
115.5193247706422
 72
     1
 10
200.468280205505
 20
115.5193247706422
 11
201.7182802055049
 21
115.5193247706422
 72
     1
 10
201.7182802055049
 20
115.5193247706422
 11
203.7182802055049
 21
117.5193247706422
 72
     1
 10
203.7182802055049
 20
117.5193247706422
 11
203.7182802055049
 21
131.0193247706422
 72
     1
 10
203.7182802055049
 20
131.0193247706422
 11
202.7182802055049
 21
132.0193247706422
 72
     1
 10
202.7182802055049
 20
132.0193247706422
 11
199.721558647382
 21
132.0193247706422
 72
     1
 10
199.721558647382
 20
132.0193247706422
 11
199.721558647382
 21
124.0193247706422
 72
     1
 10
199.721558647382
 20
124.0193247706422
 11
193.7150017636279
 21
124.0193247706422
 72
     1
 10
193.7150017636279
 20
124.0193247706422
 11
193.7150017636279
 21
132.0193247706422
 72
     1
 10
193.7150017636279
 20
132.0193247706422
 11
190.7182802055049
 21
132.0193247706422
 72
     1
 10
190.7182802055049
 20
132.0193247706422
 11
189.7182802055049
 21
131.0193247706422
 72
     1
 10
189.7182802055049
 20
131.0193247706422
 11
189.7182802055049
 21
117.5193247706422
 72
     1
 10
189.7182802055049
 20
117.5193247706422
 11
191.7182802055049
 21
115.5193247706422
 97
        0
 75
     0
 76
     1
 52
0.0
 41
1.0
 77
     0
 78
     1
 53
45.0
 43
0.0
 44
0.0
 45
-2.245064030267288
 46
2.245064030267288
 79
     0
 98
        1
 10
0.0
 20
0.0
  0
DIMENSION
  5
1F3
330
1F
100
AcDbEntity
  8
VERMASSUNG
100
AcDbDimension
  2
_D
 10
248.2182802055
 20
99.0193247706
 30
0.0
 11
248.2182802055
 21
108.0193247706
 31
0.0
 70
   160
  1
%%c<>
 71
     2
 42
-1.0
  3
SLDDIMSTYLE0
100
AcDbAlignedDimension
 13
190.7182802055
 23
117.0193247706
 33
0.0
 14
219.9182802055
 24
99.0193247706
 34
0.0
 50
90.0
100
AcDbRotatedDimension
  0
DIMENSION
  5
1FD
330
1F
100
AcDbEntity
  8
VERMASSUNG
100
AcDbDimension
  2
_D_1
 10
260.2182802055
 20
84.0193247706
 30
0.0
 11
260.2182802055
 21
108.0193247706
 31
0.0
 70
   160
  1
%%c<>
 71
     2
 42
-1.0
  3
SLDDIMSTYLE1
100
AcDbAlignedDimension
 13
209.495745603
 23
132.0193247706
 33
0.0
 14
209.495745603
 24
84.0193247706
 34
0.0
 50
90.0
100
AcDbRotatedDimension
  0
DIMENSION
  5
209
330
1F
100
AcDbEntity
  8
VERMASSUNG
100
AcDbDimension
  2
_D_2
 10
55.5907089151
 20
76.5443247706
 30
0.0
 11
55.5907089151
 21
108.0193247706
 31
0.0
 70
   160
  1
KM%%c<> XMZ
 71
     2
 42
-1.0
  3
SLDDIMSTYLE2
100
AcDbAlignedDimension
 13
133.4524780101
 23
139.4943247706
 33
0.0
 14
133.4524780101
 24
76.5443247706
 34
0.0
 50
90.0
100
AcDbRotatedDimension
  0
DIMENSION
  5
217
330
1F
100
AcDbEntity
  8
VERMASSUNG
100
AcDbDimension
  2
_D_3
 10
220.2182802055
 20
149.4943247706
 30
0.0
 11
179.2182802055
 21
149.4943247706
 31
0.0
 70
   160
  1
<>
 71
     2
 42
-1.0
  3
SLDDIMSTYLE1
100
AcDbAlignedDimension
 13
138.2182802055
 23
139.4943247706
 33
0.0
 14
220.2182802055
 24
125.745184249
 34
0.0
 50
0.0
100
AcDbRotatedDimension
  0
DIMENSION
  5
221
330
1F
100
AcDbEntity
  8
VERMASSUNG
100
AcDbDimension
  2
_D_4
 10
220.2182802055
 20
158.522895271
 30
0.0
 11
170.2182802055
 21
158.522895271
 31
0.0
 70
   160
  1
<>
 71
     2
 42
-1.0
  3
SLDDIMSTYLE1
100
AcDbAlignedDimension
 13
120.2182802055
 23
139.2943247706
 33
0.0
 14
220.2182802055
 24
125.745184249
 34
0.0
 50
0.0
100
AcDbRotatedDimension
  0
DIMENSION
  5
22B
330
1F
100
AcDbEntity
  8
VERMASSUNG
100
AcDbDimension
  2
_D_5
 10
80.2682802055
 20
167.4943247706
 30
0.0
 11
150.2432802055
 21
167.4943247706
 31
0.0
 70
   160
  1
<>
 71
     2
 42
-1.0
  3
SLDDIMSTYLE1
100
AcDbAlignedDimension
 13
220.2182802055
 23
125.745184249
 33
0.0
 14
80.2682802055
 24
130.2224194944
 34
0.0
 50
0.0
100
AcDbRotatedDimension
  0
LINE
  5
235
330
1F
100
AcDbEntity
  8
VERMASSUNG
  6
CENTERX2
370
    18
100
AcDbLine
 10
196.7182802055
 20
134.0193247706
 30
0.0
 11
196.7182802055
 21
111.975338456
 31
0.0
  0
LINE
  5
236
330
1F
100
AcDbEntity
  8
0
  6
Continuous
 62
     7
370
    25
100
AcDbLine
 10
265.8463819866
 20
18.3370928575
 30
0.0
 11
269.9141743593
 21
18.4205251761
 31
0.0
  0
LINE
  5
237
330
1F
100
AcDbEntity
  8
0
  6
Continuous
 62
     7
370
    25
100
AcDbLine
 10
279.1362313996
 20
34.3953274234
 30
0.0
 11
277.1742552405
 21
37.9596710221
 31
0.0
  0
SPLINE
  5
238
330
1F
100
AcDbEntity
  8
0
  6
Continuous
 62
     7
370
    25
100
AcDbSpline
210
0.0
220
0.0
230
1.0
 70
     8
 71
     3
 72
    30
 73
    26
 74
     0
 42
0.000000001
 43
0.00000001
 40
0.0
 40
0.0
 40
0.0
 40
0.0
 40
0.0303136709019117
 40
0.0734533975939027
 40
0.117426791925591
 40
0.1620090542761247
 40
0.2069303101229093
 40
0.2519644711632976
 40
0.2969560451173159
 40
0.3418607402427766
 40
0.3866732375165499
 40
0.4314090099431909
 40
0.4760936342154612
 40
0.5207573187467273
 40
0.5654324037282817
 40
0.6101418654408189
 40
0.6549190875161616
 40
0.6997976605347828
 40
0.7448085163046879
 40
0.7899747155083725
 40
0.8353007514214466
 40
0.8807529904379104
 40
0.9261861504801033
 40
0.9713518828852247
 40
1.0
 40
1.0
 40
1.0
 40
1.0
 10
269.9209047505652
 20
18.43104522079105
 30
0.0
 10
270.0923312487304
 20
18.43574489491581
 30
0.0
 10
270.5077167283906
 20
18.4471327282523
 30
0.0
 10
271.1873391083384
 20
18.58639930415822
 30
0.0
 10
271.9524974611261
 20
18.82987228960169
 30
0.0
 10
272.7279524419074
 20
19.17971000900613
 30
0.0
 10
273.502582308595
 20
19.62670516177167
 30
0.0
 10
274.2662237046832
 20
20.16569412810821
 30
0.0
 10
275.0094058850839
 20
20.78849654823539
 30
0.0
 10
275.7238357075281
 20
21.48681448596106
 30
0.0
 10
276.4021320314781
 20
22.2520503864473
 30
0.0
 10
277.0374048622066
 20
23.07530735684017
 30
0.0
 10
277.6231669907154
 20
23.94734799036226
 30
0.0
 10
278.1533275993478
 20
24.85863002528816
 30
0.0
 10
278.6221827173557
 20
25.79928866818893
 30
0.0
 10
279.0245086142847
 20
26.75928623625645
 30
0.0
 10
279.3555894513888
 20
27.72852630841906
 30
0.0
 10
279.6112379664159
 20
28.69704260954414
 30
0.0
 10
279.7876847427591
 20
29.65496564403841
 30
0.0
 10
279.8816624086909
 20
30.59263645387929
 30
0.0
 10
279.8898034436033
 20
31.50003861125287
 30
0.0
 10
279.810766467516
 20
32.36789556882148
 30
0.0
 10
279.6380036211384
 20
33.1810479190281
 30
0.0
 10
279.4185706200191
 20
33.85196622629228
 30
0.0
 10
279.2183027271857
 20
34.21801150237552
 30
0.0
 10
279.1405761476137
 20
34.36007844518842
 30
0.0
  0
LINE
  5
239
330
1F
100
AcDbEntity
  8
0
  6
Continuous
 62
     7
370
    25
100
AcDbLine
 10
239.3923794404
 20
32.8336424288
 30
0.0
 11
263.5321088328
 21
18.8980732775
 31
0.0
  0
LINE
  5
23A
330
1F
100
AcDbEntity
  8
0
  6
Continuous
 62
     7
370
    25
100
AcDbLine
 10
275.5311336244
 20
39.6832459746
 30
0.0
 11
251.391404232
 21
53.6188151259
 31
0.0
  0
LINE
  5
23B
330
1F
100
AcDbEntity
  8
0
  6
Continuous
 62
     7
370
    25
100
AcDbLine
 10
234.7781556119
 20
31.1818007824
 30
0.0
 11
236.463121137
 21
30.2090908895
 31
0.0
  0
LINE
  5
23C
330
1F
100
AcDbEntity
  8
0
  6
Continuous
 62
     7
370
    25
100
AcDbLine
 10
252.1993421919
 20
57.4679788329
 30
0.0
 11
250.5143766668
 21
58.4406887258
 31
0.0
  0
LINE
  5
23D
330
1F
100
AcDbEntity
  8
0
  6
Continuous
 62
     7
370
    25
100
AcDbLine
 10
230.1698707845
 20
33.8421069871
 30
0.0
 11
232.4205217345
 21
32.5428338495
 31
0.0
  0
LINE
  5
23E
330
1F
100
AcDbEntity
  8
0
  6
Continuous
 62
     7
370
    25
100
AcDbLine
 10
248.1567427894
 20
59.8017217929
 30
0.0
 11
245.9060918393
 21
61.1009949305
 31
0.0
  0
LINE
  5
23F
330
1F
100
AcDbEntity
  8
0
  6
Continuous
 62
     7
370
    25
100
AcDbLine
 10
239.1287029664
 20
60.8808769659
 30
0.0
 11
229.9314904099
 21
65.461529625
 31
0.0
  0
LINE
  5
240
330
1F
100
AcDbEntity
  8
0
  6
Continuous
 62
     7
370
    25
100
AcDbLine
 10
218.4051426983
 20
45.4951463635
 30
0.0
 11
226.9712430105
 21
39.8212567775
 31
0.0
  0
LINE
  5
241
330
1F
100
AcDbEntity
  8
0
  6
Continuous
 62
     7
370
    25
100
AcDbLine
 10
223.3845802466
 20
46.4416364012
 30
0.0
 11
223.3845802466
 21
46.0763173844
 31
0.0
  0
LINE
  5
242
330
1F
100
AcDbEntity
  8
0
  6
Continuous
 62
     7
370
    25
100
AcDbLine
 10
227.2825467475
 20
65.8384980987
 30
0.0
 11
226.642996295
 21
65.7512870333
 31
0.0
  0
LWPOLYLINE
  5
243
330
1F
100
AcDbEntity
  8
0
  6
Continuous
 62
     7
370
    25
100
AcDbPolyline
 90
       28
 70
   128
 43
0.0
 10
261.0463398544
 20
24.3922109551
 10
261.0913129011
 20
25.4256638281
 10
261.2257553158
 20
26.5000866181
 10
261.4482419754
 20
27.6040901762
 10
261.7564144661
 20
28.72597179
 10
262.1470060826
 20
29.8538392354
 10
262.6158764568
 20
30.9757368368
 10
263.158055446
 20
32.0797722005
 10
263.7677958181
 20
33.1542422772
 10
264.4386341733
 20
34.1877574166
 10
265.1634594584
 20
35.1693621011
 10
265.9345883449
 20
36.088651077
 10
266.7438466747
 20
36.9358796523
 10
267.5826561084
 20
37.7020669934
 10
268.4421250572
 20
38.379091324
 10
269.3131429365
 20
38.9597760176
 10
270.1864767399
 20
39.4379656721
 10
271.0528689121
 20
39.8085913581
 10
271.9031354804
 20
40.0677243512
 10
272.7282634076
 20
40.2126177772
 10
273.5195061325
 20
40.2417357297
 10
274.2684762854
 20
40.1547695513
 10
274.9672345963
 20
39.9526411049
 10
275.6083740532
 20
39.6374930025
 10
276.1850984185
 20
39.2126658923
 10
276.6912942704
 20
38.6826630474
 10
277.1215958069
 20
38.0531026297
 10
277.1742552405
 20
37.9596710221
  0
LWPOLYLINE
  5
244
330
1F
100
AcDbEntity
  8
0
  6
Continuous
 62
     7
370
    25
100
AcDbPolyline
 90
       12
 70
   128
 43
0.0
 10
265.8463819866
 20
18.3370928575
 10
265.1634594584
 20
18.3685849223
 10
264.4386341733
 20
18.5133241459
 10
263.7677958181
 20
18.7723058067
 10
263.158055446
 20
19.1427846346
 10
262.6158764568
 20
19.6208334619
 10
262.1470060826
 20
20.2013848522
 10
261.7564144661
 20
20.8782848162
 10
261.4482419754
 20
21.6443580459
 10
261.2257553158
 20
22.4914839746
 10
261.0913129011
 20
23.4106828566
 10
261.0463398544
 20
24.3922109551
  0
LINE
  5
245
330
1F
100
AcDbEntity
  8
0
  6
Continuous
 62
     7
370
    25
100
AcDbLine
 10
239.3923794404
 20
32.8336424288
 30
0.0
 11
239.4338530881
 21
32.8100289015
 31
0.0
  0
LWPOLYLINE
  5
246
330
1F
100
AcDbEntity
  8
0
  6
Continuous
 62
     7
370
    25
100
AcDbPolyline
 90
       13
 70
   128
 43
0.0
 10
270.0345631606
 20
25.2040197089
 10
270.0794078296
 20
25.854859617
 10
270.2127185911
 20
26.5397228619
 10
270.430859075
 20
27.2399281595
 10
270.7278789775
 20
27.9363757345
 10
271.09567637
 20
28.6100683127
 10
271.5242186983
 20
29.2426293167
 10
272.0018164449
 20
29.8168041312
 10
272.5154419883
 20
30.3169307642
 10
273.0510849626
 20
30.7293670647
 10
273.5941344236
 20
31.0428628456
 10
274.1297773979
 20
31.2488667593
 10
274.398592593
 20
31.3111806815
  0
LWPOLYLINE
  5
247
330
1F
100
AcDbEntity
  8
0
  6
Continuous
 62
     7
370
    25
100
AcDbPolyline
 90
       14
 70
   128
 43
0.0
 10
276.5508046944
 20
29.6869216972
 10
276.5658115566
 20
29.5993807842
 10
276.6106562256
 20
29.0003174288
 10
276.5658115566
 20
28.3494775207
 10
276.4325007951
 20
27.6646142758
 10
276.2143603112
 20
26.9644089782
 10
275.9173404087
 20
26.2679614032
 10
275.5495430162
 20
25.594268825
 10
275.1210006879
 20
24.961707821
 10
274.6434029413
 20
24.3875330064
 10
274.1297773979
 20
23.8874063735
 10
273.5941344236
 20
23.474970073
 10
273.0510849626
 20
23.1614742921
 10
272.6415783128
 20
22.9944395076
  0
LWPOLYLINE
  5
248
330
1F
100
AcDbEntity
  8
0
  6
Continuous
 62
     7
370
    25
100
AcDbPolyline
 90
       29
 70
   128
 43
0.0
 10
273.2686162785
 20
30.86740165
 10
273.6207119035
 20
31.0413928688
 10
274.1483000286
 20
31.2146618987
 10
274.6490832199
 20
31.2713834763
 10
275.1086548567
 20
31.2099258249
 10
275.5137938998
 20
31.0320569694
 10
275.8528452366
 20
30.7428938728
 10
276.1160549774
 20
30.3507552311
 10
276.2958510571
 20
29.8669221588
 10
276.38706107
 20
29.3053136527
 10
276.38706107
 20
28.6820861669
 10
276.2958510571
 20
28.0151688214
 10
276.1160549774
 20
27.3237476141
 10
275.8528452366
 20
26.6277134743
 10
275.5137938998
 20
25.9470900367
 10
275.1086548567
 20
25.3014575987
 10
274.6490832199
 20
24.7093898298
 10
274.1483000286
 20
24.1879194418
 10
273.6207119035
 20
23.7520481884
 10
273.0814965943
 20
23.4143152919
 10
272.5461663438
 20
23.1844367128
 10
272.0301216286
 20
23.0690256394
 10
271.5482081156
 20
23.071402238
 10
271.1142895791
 20
23.1914981383
 10
270.7408490654
 20
23.4258583999
 10
270.4386297782
 20
23.7677409047
 10
270.2163260161
 20
24.2073103155
 10
270.0803330536
 20
24.7319210208
 10
270.0349977742
 20
25.2660031956
  0
LWPOLYLINE
  5
249
330
1F
100
AcDbEntity
  8
0
  6
Continuous
 62
     7
370
    25
100
AcDbPolyline
 90
       36
 70
   128
 43
0.0
 10
233.2031386955
 20
37.4144235313
 10
233.2479371262
 20
38.5921781145
 10
233.3819717277
 20
39.8121732774
 10
233.604163332
 20
41.0645863364
 10
233.9127229832
 20
42.3393335978
 10
234.3051663403
 20
43.6261515463
 10
234.7783336802
 20
44.9146794803
 10
235.3284153376
 20
46.1945429306
 10
235.9509823785
 20
47.4554371893
 10
236.6410222592
 20
48.6872102771
 10
237.3929791842
 20
49.8799446815
 10
238.2007988386
 20
51.0240372062
 10
239.0579771334
 20
52.1102762911
 10
239.9576125731
 20
53.1299161777
 10
240.8924618221
 20
54.0747473252
 10
241.8549980239
 20
54.9371625087
 10
242.8374714029
 20
55.7102180683
 10
243.8319716613
 20
56.3876898152
 10
244.8304916676
 20
56.9641231451
 10
245.824991926
 20
57.4348769559
 10
246.807465305
 20
57.7961610147
 10
247.7700015068
 20
58.0450664746
 10
248.7048507558
 20
58.1795892953
 10
249.6044861955
 20
58.1986463781
 10
250.4616644903
 20
58.1020842865
 10
251.2694841447
 20
57.8906804819
 10
252.0214410697
 20
57.5661370632
 10
252.7114809504
 20
57.1310670633
 10
253.3340479913
 20
56.5889734099
 10
253.8841296487
 20
55.9442207225
 10
254.3572969886
 20
55.2020001706
 10
254.7497403457
 20
54.3682876777
 10
255.0582999969
 20
53.4497958064
 10
255.2804916013
 20
52.4539197133
 10
255.4145262027
 20
51.3886776072
 10
255.4220541904
 20
51.2919704333
  0
LWPOLYLINE
  5
24A
330
1F
100
AcDbEntity
  8
0
  6
Continuous
 62
     7
370
    25
100
AcDbPolyline
 90
       18
 70
   128
 43
0.0
 10
243.4230293987
 20
30.5067977361
 10
242.8374714029
 20
30.2421927665
 10
241.8549980239
 20
29.8809087077
 10
240.8924618221
 20
29.6320032478
 10
239.9576125731
 20
29.4974804271
 10
239.0579771334
 20
29.4784233443
 10
238.2007988386
 20
29.5749854359
 10
237.3929791842
 20
29.7863892406
 10
236.6410222592
 20
30.1109326592
 10
235.9509823785
 20
30.5460026592
 10
235.3284153376
 20
31.0880963125
 10
234.7783336802
 20
31.7328489999
 10
234.3051663403
 20
32.4750695518
 10
233.9127229832
 20
33.3087820448
 10
233.604163332
 20
34.227273916
 10
233.3819717277
 20
35.2231500091
 10
233.2479371262
 20
36.2883921152
 10
233.2031386955
 20
37.4144235313
  0
SPLINE
  5
24B
330
1F
100
AcDbEntity
  8
0
  6
Continuous
 62
     7
370
    25
100
AcDbSpline
210
0.0
220
0.0
230
1.0
 70
     8
 71
     3
 72
    25
 73
    21
 74
     0
 42
0.000000001
 43
0.00000001
 40
0.0
 40
0.0
 40
0.0
 40
0.0
 40
0.1249999999999998
 40
0.1249999999999998
 40
0.2499999999999997
 40
0.2499999999999997
 40
0.3749999999999995
 40
0.3749999999999995
 40
0.4999999999999993
 40
0.4999999999999993
 40
0.5624999999999996
 40
0.5624999999999996
 40
0.6249999999999998
 40
0.6875000000000001
 40
0.6875000000000001
 40
0.7500000000000003
 40
0.7500000000000003
 40
0.8750000000000001
 40
0.8750000000000001
 40
1.0
 40
1.0
 40
1.0
 40
1.0
 10
238.0367275405942
 20
53.84623812687292
 30
0.0
 10
238.0658508388553
 20
53.73505260634374
 30
0.0
 10
238.0782398797145
 20
53.61981039391571
 30
0.0
 10
238.0712623946142
 20
53.38071482607991
 30
0.0
 10
238.0512448067622
 20
53.25594085620465
 30
0.0
 10
237.981022649049
 20
53.00957194699222
 30
0.0
 10
237.9303719944553
 20
52.8853607996311
 30
0.0
 10
237.8004572508001
 20
52.64173230432094
 30
0.0
 10
237.7227563028108
 20
52.52467520926277
 30
0.0
 10
237.5873827205847
 20
52.35601869141274
 30
0.0
 10
237.5387482232776
 20
52.30065167014058
 30
0.0
 10
237.4373088878955
 20
52.19493185874357
 30
0.0
 10
237.3314389051548
 20
52.09377090012311
 30
0.0
 10
237.2168471128273
 20
52.00159657844632
 30
0.0
 10
237.0977644436092
 20
51.9140597357062
 30
0.0
 10
237.0358064305517
 20
51.87256126619401
 30
0.0
 10
236.8479427270311
 20
51.75844094445591
 30
0.0
 10
236.7185652906771
 20
51.69483351334131
 30
0.0
 10
236.4508820376151
 20
51.59356521236708
 30
0.0
 10
236.31501035115
 20
51.55702430414229
 30
0.0
 10
236.1794930844224
 20
51.53585611979222
 30
0.0
  0
LWPOLYLINE
  5
24C
330
1F
100
AcDbEntity
  8
0
  6
Continuous
 62
     7
370
    25
100
AcDbPolyline
 90
       15
 70
   128
 43
0.0
 10
238.0367275406
 20
53.8462381269
 10
238.9877303541
 20
54.835198534
 10
239.9697412091
 20
55.7392005883
 10
240.97443704
 20
56.5505823902
 10
241.9933025139
 20
57.2624670464
 10
243.0177022026
 20
57.8688209549
 10
244.0389537727
 20
58.3645049431
 10
245.0484015725
 20
58.7453178247
 10
246.0374899937
 20
59.0080320076
 10
246.9978359846
 20
59.150420849
 10
247.9213001009
 20
59.1712775276
 10
248.8000554918
 20
59.0704252719
 10
249.6266542369
 20
58.8487188585
 10
250.394090471
 20
58.5080373675
 10
250.5143766668
 20
58.4406887258
  0
LWPOLYLINE
  5
24D
330
1F
100
AcDbEntity
  8
0
  6
Continuous
 62
     7
370
    25
100
AcDbPolyline
 90
       21
 70
   128
 43
0.0
 10
234.7781556119
 20
31.1818007824
 10
234.7745078748
 20
31.1839085294
 10
234.089771755
 20
31.6557384665
 10
233.4763930351
 20
32.2372795398
 10
232.9394870235
 20
32.9236819526
 10
232.4835312805
 20
33.7092214105
 10
232.1123282763
 20
34.5873468601
 10
231.8289736806
 20
35.5507351214
 10
231.6358305463
 20
36.5913519599
 10
231.5345096021
 20
37.7005190889
 10
231.52585582
 20
38.8689865424
 10
231.6099413689
 20
40.0870098158
 10
231.7860650122
 20
41.3444311308
 10
232.0527579563
 20
42.6307641465
 10
232.4077960992
 20
43.9352814114
 10
232.8482185791
 20
45.2471038254
 10
233.370352466
 20
46.5552913664
 10
233.9698433932
 20
47.8489343257
 10
234.6416918699
 20
49.1172442901
 10
235.3802949753
 20
50.3496441123
 10
236.1794930844
 20
51.5358561198
  0
LWPOLYLINE
  5
24E
330
1F
100
AcDbEntity
  8
0
  6
Continuous
 62
     7
370
    25
100
AcDbPolyline
 90
       12
 70
   128
 43
0.0
 10
236.3741062958
 20
53.9705149664
 10
237.2896853896
 20
54.9449962103
 10
238.2383980879
 20
55.8339717565
 10
239.2113011183
 20
56.6290614597
 10
240.1992231726
 20
57.3227702123
 10
241.1928513618
 20
57.9085585991
 10
242.182819007
 20
58.3809045427
 10
243.1597939359
 20
58.7353553584
 10
244.1145664554
 20
58.968569729
 10
245.038136169
 20
59.0783492022
 10
245.9217968209
 20
59.0636589149
 10
246.174656801
 20
59.0354013739
  0
SPLINE
  5
24F
330
1F
100
AcDbEntity
  8
0
  6
Continuous
 62
     7
370
    25
100
AcDbSpline
210
0.0
220
0.0
230
1.0
 70
     8
 71
     3
 72
    26
 73
    22
 74
     0
 42
0.000000001
 43
0.00000001
 40
0.0
 40
0.0
 40
0.0
 40
0.0
 40
0.1250000000000009
 40
0.1250000000000009
 40
0.2500000000000019
 40
0.2500000000000019
 40
0.3125000000000011
 40
0.3125000000000011
 40
0.3750000000000004
 40
0.3750000000000004
 40
0.4375000000000002
 40
0.4375000000000002
 40
0.5000000000000001
 40
0.5000000000000001
 40
0.5625
 40
0.5625
 40
0.6249999999999999
 40
0.6249999999999999
 40
0.7500000000000001
 40
0.7500000000000001
 40
1.0
 40
1.0
 40
1.0
 40
1.0
 10
235.0299130549666
 20
52.29835135374775
 30
0.0
 10
235.0062754587346
 20
52.40792721332073
 30
0.0
 10
234.9887076798529
 20
52.51881647168526
 30
0.0
 10
234.9698950969834
 20
52.7441464315482
 30
0.0
 10
234.968715322216
 20
52.85982334486658
 30
0.0
 10
234.9848133254514
 20
53.03117885472614
 30
0.0
 10
234.9931320425516
 20
53.0879773668203
 30
0.0
 10
235.0168891918086
 20
53.20080357921739
 30
0.0
 10
235.0325115708576
 20
53.25725643288354
 30
0.0
 10
235.0713687832546
 20
53.36583954929214
 30
0.0
 10
235.094594739957
 20
53.41821950951768
 30
0.0
 10
235.1495933894354
 20
53.5186762847898
 30
0.0
 10
235.1816716564581
 20
53.56695515256124
 30
0.0
 10
235.2520864049932
 20
53.65465212814498
 30
0.0
 10
235.2906648271198
 20
53.69464125612094
 30
0.0
 10
235.374373090716
 20
53.76711994023653
 30
0.0
 10
235.4195018006579
 20
53.79945656461314
 30
0.0
 10
235.558782442848
 20
53.88265633196679
 30
0.0
 10
235.6595715144097
 20
53.92148505460288
 30
0.0
 10
235.9626437856423
 20
53.99690134205806
 30
0.0
 10
236.1711678761274
 20
53.9967711956873
 30
0.0
 10
236.3741062958178
 20
53.97051496636108
 30
0.0
  0
LWPOLYLINE
  5
250
330
1F
100
AcDbEntity
  8
0
  6
Continuous
 62
     7
370
    25
100
AcDbPolyline
 90
       17
 70
   128
 43
0.0
 10
232.0929346602
 20
34.6425001464
 10
231.6592520543
 20
35.2894646761
 10
231.2617451251
 20
36.0943693904
 10
230.9517334597
 20
36.988945032
 10
230.7320594709
 20
37.9649894798
 10
230.6047372899
 20
39.0135536471
 10
230.5709342992
 20
40.1250235339
 10
230.6309604292
 20
41.2892083746
 10
230.7842653166
 20
42.4954340745
 10
231.0294433505
 20
43.7326410777
 10
231.3642465602
 20
44.989485769
 10
231.7856052259
 20
46.2544444808
 10
232.2896560243
 20
47.5159191502
 10
232.8717774507
 20
48.7623436584
 10
233.5266321917
 20
49.9822898775
 10
234.248216062
 20
51.1645724519
 10
235.029913055
 20
52.2983513537
  0
LINE
  5
251
330
1F
100
AcDbEntity
  8
0
  6
Continuous
 62
     7
370
    25
100
AcDbLine
 10
233.5545210854
 20
32.0544304981
 30
0.0
 11
233.6751980103
 21
32.1114622053
 31
0.0
  0
LWPOLYLINE
  5
252
330
1F
100
AcDbEntity
  8
0
  6
Continuous
 62
     7
370
    25
100
AcDbPolyline
 90
       40
 70
   128
 43
0.0
 10
233.5545210854
 20
32.0544304981
 10
232.7859745412
 20
32.35060638
 10
232.0780839224
 20
32.7585248342
 10
231.4365722358
 20
33.2748880065
 10
230.8666258416
 20
33.8955213114
 10
230.3728525238
 20
34.6154071819
 10
229.9592442379
 20
35.4287256346
 10
229.6291448384
 20
36.3289013218
 10
229.3852230439
 20
37.3086566904
 10
229.2294508628
 20
38.3600708181
 10
229.1630876496
 20
39.474643451
 10
229.1866699236
 20
40.643363724
 10
229.3000070318
 20
41.856783011
 10
229.5021826901
 20
43.1050913121
 10
229.7915623907
 20
44.3781965643
 10
230.1658066168
 20
45.6658062312
 10
230.6218897566
 20
46.9575105141
 10
231.1561245641
 20
48.2428665113
 10
231.7641919689
 20
49.511482644
 10
232.4411759942
 20
50.7531026685
 10
233.1816035006
 20
51.9576885939
 10
233.9794884337
 20
53.1155018345
 10
234.8283802196
 20
54.2171819428
 10
235.7214159147
 20
55.2538222848
 10
236.6513756899
 20
56.2170420464
 10
237.6107411999
 20
57.099053989
 10
238.5917563661
 20
57.8927274061
 10
239.5864900814
 20
58.591645772
 10
240.5869003296
 20
59.1901586169
 10
241.5848992023
 20
59.6834272088
 10
242.5724182858
 20
60.0674636726
 10
243.5414738914
 20
60.33916323
 10
244.4842316001
 20
60.496329301
 10
245.3930696006
 20
60.5376912623
 10
246.2606403085
 20
60.462914719
 10
247.0799297689
 20
60.2726042092
 10
247.8443143608
 20
59.9682983156
 10
248.5476143468
 20
59.5524572271
 10
249.1841438335
 20
59.0284428492
 10
249.2467811466
 20
58.9674195826
  0
LWPOLYLINE
  5
253
330
1F
100
AcDbEntity
  8
0
  6
Continuous
 62
     7
370
    25
100
AcDbPolyline
 90
       26
 70
   128
 43
0.0
 10
226.909888343
 20
41.1290804401
 10
226.9544021133
 20
42.299351277
 10
227.0875850254
 20
43.5115942863
 10
227.3083647689
 20
44.7560492004
 10
227.6149637551
 20
46.0226963997
 10
228.0049134293
 20
47.301337586
 10
228.4750741458
 20
48.5816778922
 10
229.0216604472
 20
49.853408771
 10
229.6402715419
 20
51.106290993
 10
230.325926737
 20
52.3302370874
 10
231.0731055402
 20
53.5153925599
 10
231.875792107
 20
54.6522152354
 10
232.7275236772
 20
55.7315520863
 10
233.6214426089
 20
56.7447129267
 10
234.5503515926
 20
57.6835403815
 10
235.5067715993
 20
58.5404755638
 10
236.4830020975
 20
59.3086189356
 10
237.4711830532
 20
59.981785858
 10
238.4633582144
 20
60.5545563868
 10
239.4515391701
 20
61.0223189104
 10
240.4277696682
 20
61.3813072802
 10
241.3841896749
 20
61.6286311328
 10
242.3130986586
 20
61.7622991619
 10
243.2070175904
 20
61.7812351512
 10
244.0587491605
 20
61.6852866393
 10
244.8083380058
 20
61.4931642419
  0
ARC
  5
254
330
1F
100
AcDbEntity
  8
0
  6
Continuous
 62
     7
370
    25
100
AcDbCircle
 10
239.0680239985
 20
41.0212755882
 30
0.0
 40
12.1570664416678
100
AcDbArc
 50
180.4744415793
 51
191.6440230834
  0
SPLINE
  5
255
330
1F
100
AcDbEntity
  8
0
  6
Continuous
 62
     7
370
    25
100
AcDbSpline
210
0.0
220
0.0
230
1.0
 70
     8
 71
     3
 72
    10
 73
     6
 74
     0
 42
0.000000001
 43
0.00000001
 40
0.0
 40
0.0
 40
0.0
 40
0.0
 40
0.5
 40
0.5
 40
1.0
 40
1.0
 40
1.0
 40
1.0
 10
235.7566011225979
 20
50.83529807292802
 30
0.0
 10
235.6526366318137
 20
50.9086364459984
 30
0.0
 10
235.5628283553863
 20
50.9958722037918
 30
0.0
 10
235.4107859273876
 20
51.1968027449878
 30
0.0
 10
235.3488803390267
 20
51.31097351118477
 30
0.0
 10
235.3044306344362
 20
51.43399119434487
 30
0.0
  0
SPLINE
  5
256
330
1F
100
AcDbEntity
  8
0
  6
Continuous
 62
     7
370
    25
100
AcDbSpline
210
0.0
220
0.0
230
1.0
 70
     8
 71
     3
 72
    14
 73
    10
 74
     0
 42
0.000000001
 43
0.00000001
 40
0.0
 40
0.0
 40
0.0
 40
0.0
 40
0.25
 40
0.25
 40
0.5
 40
0.5
 40
0.75
 40
0.75
 40
1.0
 40
1.0
 40
1.0
 40
1.0
 10
235.3044306344362
 20
51.43399119434487
 30
0.0
 10
235.2817098315711
 20
51.49687261400242
 30
0.0
 10
235.2597953212216
 20
51.56591904347583
 30
0.0
 10
235.2176842671589
 20
51.71357156009459
 30
0.0
 10
235.1981627132458
 20
51.78997134695291
 30
0.0
 10
235.159816471072
 20
51.94430363834851
 30
0.0
 10
235.1414568781882
 20
52.02125623468016
 30
0.0
 10
235.0994534336066
 20
52.16664640219614
 30
0.0
 10
235.0756771125935
 20
52.23323730838916
 30
0.0
 10
235.0472156084913
 20
52.27373292362051
 30
0.0
  0
LINE
  5
257
330
1F
100
AcDbEntity
  8
0
  6
Continuous
 62
     7
370
    25
100
AcDbLine
 10
235.0472156085
 20
52.2737329236
 30
0.0
 11
235.029913055
 21
52.2983513537
 31
0.0
  0
LINE
  5
258
330
1F
100
AcDbEntity
  8
0
  6
Continuous
 62
     7
370
    25
100
AcDbLine
 10
236.3741062958
 20
53.9705149664
 30
0.0
 11
236.3914088493
 21
53.9458965362
 31
0.0
  0
SPLINE
  5
259
330
1F
100
AcDbEntity
  8
0
  6
Continuous
 62
     7
370
    25
100
AcDbSpline
210
0.0
220
0.0
230
1.0
 70
     8
 71
     3
 72
    16
 73
    12
 74
     0
 42
0.000000001
 43
0.00000001
 40
0.0
 40
0.0
 40
0.0
 40
0.0
 40
0.1250000000000001
 40
0.1250000000000001
 40
0.2500000000000003
 40
0.2500000000000003
 40
0.5000000000000002
 40
0.5000000000000002
 40
0.7500000000000001
 40
0.7500000000000001
 40
1.0
 40
1.0
 40
1.0
 40
1.0
 10
236.3914088493425
 20
53.9458965362338
 30
0.0
 10
236.4055612557466
 20
53.925760200421
 30
0.0
 10
236.4272196602203
 20
53.90896277974358
 30
0.0
 10
236.4796375892556
 20
53.88211725841209
 30
0.0
 10
236.510230468394
 20
53.8718917738511
 30
0.0
 10
236.6093113172515
 20
53.84739133341842
 30
0.0
 10
236.6831938548674
 20
53.83913141101692
 30
0.0
 10
236.8362934472587
 20
53.82794544431201
 30
0.0
 10
236.9143774219063
 20
53.82534877256082
 30
0.0
 10
237.0737210556484
 20
53.82331977172711
 30
0.0
 10
237.15237395048
 20
53.82395736038934
 30
0.0
 10
237.2281264182726
 20
53.82705046120437
 30
0.0
  0
SPLINE
  5
25A
330
1F
100
AcDbEntity
  8
0
  6
Continuous
 62
     7
370
    25
100
AcDbSpline
210
0.0
220
0.0
230
1.0
 70
     8
 71
     3
 72
    10
 73
     6
 74
     0
 42
0.000000001
 43
0.00000001
 40
0.0
 40
0.0
 40
0.0
 40
0.0
 40
0.5
 40
0.5
 40
1.0
 40
1.0
 40
1.0
 40
1.0
 10
237.2281264182726
 20
53.82705046120437
 30
0.0
 10
237.3763207581734
 20
53.83310148563814
 30
0.0
 10
237.518545223904
 20
53.822939255425
 30
0.0
 10
237.7909366142447
 20
53.77188881948493
 30
0.0
 10
237.9210639441133
 20
53.73052771684037
 30
0.0
 10
238.0391392862986
 20
53.67475384888809
 30
0.0
  0
LINE
  5
25B
330
1F
100
AcDbEntity
  8
0
  6
Continuous
 62
     7
370
    25
100
AcDbLine
 10
238.1943425044
 20
53.7031729117
 30
0.0
 11
238.1769493789
 21
53.7279202094
 31
0.0
  0
ARC
  5
25C
330
1F
100
AcDbEntity
  8
0
  6
Continuous
 62
     7
370
    25
100
AcDbCircle
 10
220.7156684982
 20
48.944945947
 30
0.0
 40
4.15206534612079
100
AcDbArc
 50
211.7707720659
 51
236.1875437047
  0
SPLINE
  5
25D
330
1F
100
AcDbEntity
  8
0
  6
Continuous
 62
     7
370
    25
100
AcDbSpline
210
0.0
220
0.0
230
1.0
 70
     8
 71
     3
 72
     8
 73
     4
 74
     0
 42
0.000000001
 43
0.00000001
 40
0.0
 40
0.0
 40
0.0
 40
0.0
 40
1.0
 40
1.0
 40
1.0
 40
1.0
 10
218.6161856171618
 20
45.83404942964943
 30
0.0
 10
218.1394123253377
 20
46.14214223758206
 30
0.0
 10
217.6626099484928
 20
46.45037168315482
 30
0.0
 10
217.1857775039671
 20
46.75873683937473
 30
0.0
  0
SPLINE
  5
25E
330
1F
100
AcDbEntity
  8
0
  6
Continuous
 62
     7
370
    25
100
AcDbSpline
210
0.0
220
0.0
230
1.0
 70
     8
 71
     3
 72
    23
 73
    19
 74
     0
 42
0.000000001
 43
0.00000001
 40
0.0
 40
0.0
 40
0.0
 40
0.0
 40
0.0521036415675031
 40
0.1035646240925967
 40
0.1544751946736949
 40
0.2049306267473421
 40
0.2550287880844035
 40
0.3048696389141012
 40
0.3545546704609132
 40
0.4041862979523234
 40
0.4538672252126086
 40
0.5036997999421611
 40
0.5901870230746071
 40
0.674271637822954
 40
0.7565997087222995
 40
0.8378563983721267
 40
0.9187511781367398
 40
1.0
 40
1.0
 40
1.0
 40
1.0
 10
219.4967504207034
 20
45.65931873152932
 30
0.0
 10
219.4914814817633
 20
45.6493972692945
 30
0.0
 10
219.481008592263
 20
45.62967671856356
 30
0.0
 10
219.4617622965003
 20
45.60510888961132
 30
0.0
 10
219.4399665561676
 20
45.5844203073521
 30
0.0
 10
219.4153152649627
 20
45.56788937205512
 30
0.0
 10
219.3878187504237
 20
45.55537187247896
 30
0.0
 10
219.3574076964164
 20
45.54683724865657
 30
0.0
 10
219.3240373246438
 20
45.54222737600849
 30
0.0
 10
219.287661436372
 20
45.54149263287202
 30
0.0
 10
219.2482330647829
 20
45.5445877154233
 30
0.0
 10
219.1953846732329
 20
45.55312349090244
 30
0.0
 10
219.1268456794627
 20
45.57071992974949
 30
0.0
 10
219.0391244475084
 20
45.60235653783537
 30
0.0
 10
218.9443935280144
 20
45.64453619516808
 30
0.0
 10
218.8423592806845
 20
45.69727263089507
 30
0.0
 10
218.7334453674954
 20
45.7595891868059
 30
0.0
 10
218.6553290565094
 20
45.80919324505702
 30
0.0
 10
218.6161856171618
 20
45.83404942964941
 30
0.0
  0
SPLINE
  5
25F
330
1F
100
AcDbEntity
  8
0
  6
Continuous
 62
     7
370
    25
100
AcDbSpline
210
0.0
220
0.0
230
1.0
 70
     8
 71
     3
 72
     8
 73
     4
 74
     0
 42
0.000000001
 43
0.00000001
 40
0.0
 40
0.0
 40
0.0
 40
0.0
 40
1.0
 40
1.0
 40
1.0
 40
1.0
 10
220.9702534471573
 20
44.71199859497312
 30
0.0
 10
220.4788861351159
 20
45.02787321494061
 30
0.0
 10
219.9874999351896
 20
45.34385923623008
 30
0.0
 10
219.4960942250457
 20
45.65995611707277
 30
0.0
  0
SPLINE
  5
260
330
1F
100
AcDbEntity
  8
0
  6
Continuous
 62
     7
370
    25
100
AcDbSpline
210
0.0
220
0.0
230
1.0
 70
     8
 71
     3
 72
    18
 73
    14
 74
     0
 42
0.000000001
 43
0.00000001
 40
0.0
 40
0.0
 40
0.0
 40
0.0
 40
0.0923824559411628
 40
0.1844689291573508
 40
0.2764953615950219
 40
0.3686975365494161
 40
0.4613092840003458
 40
0.5545607518442569
 40
0.6486768051537182
 40
0.7438756050146744
 40
0.8403674044302629
 40
0.9203921078121001
 40
1.0
 40
1.0
 40
1.0
 40
1.0
 10
221.7838175663569
 20
44.06769087042878
 30
0.0
 10
221.7602500522338
 20
44.08296484469432
 30
0.0
 10
221.7131905315825
 20
44.11346385717496
 30
0.0
 10
221.6407927436196
 20
44.16309642978587
 30
0.0
 10
221.5673105347241
 20
44.21542597245439
 30
0.0
 10
221.4926110869791
 20
44.27074365816227
 30
0.0
 10
221.416750297211
 20
44.32898197327584
 30
0.0
 10
221.3397390164243
 20
44.39017488491343
 30
0.0
 10
221.2616068843432
 20
44.45433860149497
 30
0.0
 10
221.1823806496994
 20
44.52148756136209
 30
0.0
 10
221.1070841652895
 20
44.58733847110825
 30
0.0
 10
221.0362568571674
 20
44.65087005791658
 30
0.0
 10
220.9923524863603
 20
44.69153080293007
 30
0.0
 10
220.970457619555
 20
44.71180809149863
 30
0.0
  0
LINE
  5
261
330
1F
100
AcDbEntity
  8
0
  6
Continuous
 62
     7
370
    25
100
AcDbLine
 10
222.4235238345
 20
43.655936941
 30
0.0
 11
221.7838175664
 21
44.0676908704
 31
0.0
  0
SPLINE
  5
262
330
1F
100
AcDbEntity
  8
0
  6
Continuous
 62
     7
370
    25
100
AcDbSpline
210
0.0
220
0.0
230
1.0
 70
     8
 71
     3
 72
    25
 73
    21
 74
     0
 42
0.000000001
 43
0.00000001
 40
0.0
 40
0.0
 40
0.0
 40
0.0
 40
0.0280105225426465
 40
0.0559601148860768
 40
0.0839014045043132
 40
0.1118870776786367
 40
0.1399695827588937
 40
0.1682008401739883
 40
0.196631967042422
 40
0.2253130233141467
 40
0.2542927850735845
 40
0.3799486436587335
 40
0.5057850221667067
 40
0.6313085886338298
 40
0.7532068238012468
 40
0.8039473267955921
 40
0.8535894438554446
 40
0.9025339722394071
 40
0.9511970353791085
 40
1.0
 40
1.0
 40
1.0
 40
1.0
 10
223.5258896913471
 20
44.37184305430586
 30
0.0
 10
223.5308377988777
 20
44.34421919319837
 30
0.0
 10
223.5407232505133
 20
44.28903156009305
 30
0.0
 10
223.5522589001165
 20
44.20987085272314
 30
0.0
 10
223.5613320219292
 20
44.13356751362475
 30
0.0
 10
223.5677008306422
 20
44.06037175265514
 30
0.0
 10
223.5714170694523
 20
43.99022428444175
 30
0.0
 10
223.5724536904351
 20
43.92314799792896
 30
0.0
 10
223.5708052152082
 20
43.85914408870253
 30
0.0
 10
223.5664590633393
 20
43.79821523543569
 30
0.0
 10
223.5516027387717
 20
43.67632711393853
 30
0.0
 10
223.5065144817066
 20
43.52142624228338
 30
0.0
 10
223.3931549612141
 20
43.39048312394132
 30
0.0
 10
223.2313307392197
 20
43.33460672313131
 30
0.0
 10
223.0573155200879
 20
43.35448077551409
 30
0.0
 10
222.9059545994018
 20
43.40179857786957
 30
0.0
 10
222.7955543667035
 20
43.44671400160492
 30
0.0
 10
222.6783948712548
 20
43.5040897328961
 30
0.0
 10
222.5548292043209
 20
43.57276679734891
 30
0.0
 10
222.4673341542259
 20
43.62818704330211
 30
0.0
 10
222.4235238345442
 20
43.65593694103239
 30
0.0
  0
ARC
  5
263
330
1F
100
AcDbEntity
  8
0
  6
Continuous
 62
     7
370
    25
100
AcDbCircle
 10
234.7188880234
 20
46.1578935905
 30
0.0
 40
11.33460136834127
100
AcDbArc
 50
170.9338278112
 51
189.0661721888
  0
SPLINE
  5
264
330
1F
100
AcDbEntity
  8
0
  6
Continuous
 62
     7
370
    25
100
AcDbSpline
210
0.0
220
0.0
230
1.0
 70
     8
 71
     3
 72
    26
 73
    22
 74
     0
 42
0.000000001
 43
0.00000001
 40
0.0
 40
0.0
 40
0.0
 40
0.0
 40
0.0241259796963635
 40
0.0482159912272988
 40
0.0723203915124065
 40
0.0964895678710797
 40
0.1207736231963513
 40
0.1452220711242836
 40
0.1698835501657706
 40
0.1948055644472379
 40
0.2200342569517627
 40
0.2456142191611387
 40
0.3690971486901655
 40
0.4940698769485187
 40
0.6192566784762451
 40
0.7454656653603225
 40
0.7971495824713707
 40
0.8481710308405392
 40
0.8988013269235234
 40
0.9493179290492194
 40
1.0
 40
1.0
 40
1.0
 40
1.0
 10
222.4235238345442
 20
51.42004733239698
 30
0.0
 10
222.4452420639202
 20
51.40571580900189
 30
0.0
 10
222.4886461440963
 20
51.37707412833285
 30
0.0
 10
222.5519532614577
 20
51.32908183040404
 30
0.0
 10
222.6138148291757
 20
51.27748263251836
 30
0.0
 10
222.6741193443122
 20
51.22190783964512
 30
0.0
 10
222.7329091962521
 20
51.16245259901797
 30
0.0
 10
222.7901897146818
 20
51.09908829018057
 30
0.0
 10
222.845980854008
 20
51.03181951221665
 30
0.0
 10
222.9003021014299
 20
50.96064539825652
 30
0.0
 10
222.9531810766388
 20
50.88555625850823
 30
0.0
 10
223.0699759013752
 20
50.70630180980639
 30
0.0
 10
223.2318454593016
 20
50.39599633796301
 30
0.0
 10
223.3950303668335
 20
49.92608254983131
 30
0.0
 10
223.5065417720069
 20
49.42711951592127
 30
0.0
 10
223.5536756101154
 20
49.01823584286427
 30
0.0
 10
223.5687945496479
 20
48.71396388627356
 30
0.0
 10
223.5707476886305
 20
48.51271464457825
 30
0.0
 10
223.5642696629913
 20
48.31705472485565
 30
0.0
 10
223.5501427403042
 20
48.12641843695818
 30
0.0
 10
223.5339828486192
 20
48.00483516321937
 30
0.0
 10
223.5258896913471
 20
47.94394412662048
 30
0.0
  0
LINE
  5
265
330
1F
100
AcDbEntity
  8
0
  6
Continuous
 62
     7
370
    25
100
AcDbLine
 10
221.7838175664
 20
51.8330223454
 30
0.0
 11
222.4235238345
 21
51.4200473324
 31
0.0
  0
SPLINE
  5
266
330
1F
100
AcDbEntity
  8
0
  6
Continuous
 62
     7
370
    25
100
AcDbSpline
210
0.0
220
0.0
230
1.0
 70
     8
 71
     3
 72
    14
 73
    10
 74
     0
 42
0.000000001
 43
0.00000001
 40
0.0
 40
0.0
 40
0.0
 40
0.0
 40
0.0789261963172865
 40
0.158232872055133
 40
0.330847539457262
 40
0.5000195457610529
 40
0.6670357883572423
 40
0.8332395193657144
 40
1.0
 40
1.0
 40
1.0
 40
1.0
 10
220.9698648505056
 20
52.04160461568156
 30
0.0
 10
220.9915817318415
 20
52.04320777954014
 30
0.0
 10
221.0351201850571
 20
52.0464218356274
 30
0.0
 10
221.1266453037061
 20
52.04724287569529
 30
0.0
 10
221.2435536371391
 20
52.03930689391198
 30
0.0
 10
221.3843739755209
 20
52.01303122503417
 30
0.0
 10
221.521586283333
 20
51.97007362650191
 30
0.0
 10
221.6555169577494
 20
51.91171650169229
 30
0.0
 10
221.7410030497086
 20
51.85928295554231
 30
0.0
 10
221.7838175663569
 20
51.83302234538786
 30
0.0
  0
SPLINE
  5
267
330
1F
100
AcDbEntity
  8
0
  6
Continuous
 62
     7
370
    25
100
AcDbSpline
210
0.0
220
0.0
230
1.0
 70
     8
 71
     3
 72
     8
 73
     4
 74
     0
 42
0.000000001
 43
0.00000001
 40
0.0
 40
0.0
 40
0.0
 40
0.0
 40
1.0
 40
1.0
 40
1.0
 40
1.0
 10
219.1675612675012
 20
53.20399602709428
 30
0.0
 10
219.7683194911973
 20
52.81672854393538
 30
0.0
 10
220.3690483540577
 20
52.42926119401206
 30
0.0
 10
220.9697489984046
 20
52.04159430142244
 30
0.0
  0
SPLINE
  5
268
330
1F
100
AcDbEntity
  8
0
  6
Continuous
 62
     7
370
    25
100
AcDbSpline
210
0.0
220
0.0
230
1.0
 70
     8
 71
     3
 72
    13
 73
     9
 74
     0
 42
0.000000001
 43
0.00000001
 40
0.0
 40
0.0
 40
0.0
 40
0.0
 40
0.1667030582307992
 40
0.3329480818053035
 40
0.4990671507274896
 40
0.6653938523718403
 40
0.832261271055009
 40
1.0
 40
1.0
 40
1.0
 40
1.0
 10
218.8257327324668
 20
53.50506080618005
 30
0.0
 10
218.8460339149068
 20
53.49149569950082
 30
0.0
 10
218.8865805000954
 20
53.46440275773798
 30
0.0
 10
218.9457301370831
 20
53.41920818473026
 30
0.0
 10
219.0035016819856
 20
53.37079703624732
 30
0.0
 10
219.0597514194452
 20
53.31876192147686
 30
0.0
 10
219.1146786281913
 20
53.26346395426784
 30
0.0
 10
219.1498993377819
 20
53.22384669910747
 30
0.0
 10
219.1675555497228
 20
53.20398649010654
 30
0.0
  0
SPLINE
  5
269
330
1F
100
AcDbEntity
  8
0
  6
Continuous
 62
     7
370
    25
100
AcDbSpline
210
0.0
220
0.0
230
1.0
 70
     8
 71
     3
 72
     8
 73
     4
 74
     0
 42
0.000000001
 43
0.00000001
 40
0.0
 40
0.0
 40
0.0
 40
0.0
 40
1.0
 40
1.0
 40
1.0
 40
1.0
 10
216.8817522166761
 20
54.75978265855952
 30
0.0
 10
217.5297822890763
 20
54.34178734267476
 30
0.0
 10
218.1777752661782
 20
53.92354658025714
 30
0.0
 10
218.8257327324668
 20
53.50506080618005
 30
0.0
  0
LWPOLYLINE
  5
26A
330
1F
100
AcDbEntity
  8
0
  6
Continuous
 62
     7
370
    25
100
AcDbPolyline
 90
       20
 70
   128
 43
0.0
 10
216.8817522167
 20
54.7597826587
 10
217.264401422
 20
55.8737456971
 10
217.7266119517
 20
56.9819599284
 10
218.2632107266
 20
58.0720221736
 10
218.8681921114
 20
59.1317324113
 10
219.5347851295
 20
60.1492303211
 10
220.2555292446
 20
61.1131280248
 10
221.022357859
 20
62.0126375396
 10
221.8266885954
 20
62.8376915183
 10
222.6595193512
 20
63.5790559229
 10
223.5115290505
 20
64.2284333725
 10
224.3731819658
 20
64.7785560083
 10
225.2348344423
 20
65.223266835
 10
226.0868428304
 20
65.5575886309
 10
226.919671417
 20
65.7777796528
 10
227.7239991506
 20
65.8813755137
 10
228.4908239622
 20
65.8672167644
 10
229.2115635171
 20
65.7354618703
 10
229.8781512687
 20
65.4875854376
 10
229.9314904099
 20
65.461529625
  0
SPLINE
  5
26B
330
1F
100
AcDbEntity
  8
0
  6
Continuous
 62
     7
370
    25
100
AcDbSpline
210
0.0
220
0.0
230
1.0
 70
    11
 71
     3
 72
    39
 73
    35
 74
     0
 42
0.000000001
 43
0.00000001
 40
0.0
 40
0.0
 40
0.0
 40
0.0
 40
0.0310664058348413
 40
0.0621048158426138
 40
0.0931361551796939
 40
0.1235538293503726
 40
0.1538561545809849
 40
0.1850588072749156
 40
0.2160250992946587
 40
0.2471867223797568
 40
0.2784462884304475
 40
0.3100516090231247
 40
0.3419834369138969
 40
0.3734259894013238
 40
0.4048604886787081
 40
0.436874065183343
 40
0.4685120685926471
 40
0.499805535863323
 40
0.5309508213226204
 40
0.5618649784438111
 40
0.5930416446590877
 40
0.623374245013332
 40
0.6540913579072549
 40
0.6849496782718453
 40
0.7158160645166705
 40
0.7471731804043553
 40
0.7784514311866318
 40
0.810129591156098
 40
0.8419598919688388
 40
0.8735175891922303
 40
0.9050808037886594
 40
0.9370235169792582
 40
0.9687441590030581
 40
1.0
 40
1.0
 40
1.0
 40
1.0
 10
230.0903376978815
 20
63.76497303390094
 30
0.0
 10
230.3532233180796
 20
63.73643854661084
 30
0.0
 10
230.8801119285631
 20
63.65049605828924
 30
0.0
 10
231.6441239976391
 20
63.45012093821678
 30
0.0
 10
232.35127418569
 20
63.20311883199727
 30
0.0
 10
232.9641852502855
 20
62.92513695384416
 30
0.0
 10
233.4613165759559
 20
62.63100325651544
 30
0.0
 10
233.8205082970294
 20
62.32949672832321
 30
0.0
 10
234.0422275657882
 20
62.02249922342079
 30
0.0
 10
234.1074794431703
 20
61.71199396201911
 30
0.0
 10
234.0206322320564
 20
61.39284947727027
 30
0.0
 10
233.7782866442981
 20
61.06352951169809
 30
0.0
 10
233.3983487815717
 20
60.72458879014043
 30
0.0
 10
232.8845428284119
 20
60.38675032572979
 30
0.0
 10
232.2586520175018
 20
60.06085242441895
 30
0.0
 10
231.54518103101
 20
59.76420553117946
 30
0.0
 10
230.7812785547457
 20
59.50810222274252
 30
0.0
 10
229.995485471844
 20
59.31907465475172
 30
0.0
 10
229.2139480168041
 20
59.21089873269847
 30
0.0
 10
228.4578350320516
 20
59.20323484932877
 30
0.0
 10
227.7554704456581
 20
59.30115688471491
 30
0.0
 10
227.1364500986154
 20
59.52280531821741
 30
0.0
 10
226.6273928336017
 20
59.85867340512914
 30
0.0
 10
226.2544492401678
 20
60.29848397130991
 30
0.0
 10
226.0258472889194
 20
60.80955861183256
 30
0.0
 10
225.9570009822001
 20
61.36074369959599
 30
0.0
 10
226.0416173954252
 20
61.91841562790774
 30
0.0
 10
226.2847261853601
 20
62.44849576882673
 30
0.0
 10
226.6668560281778
 20
62.92102011793946
 30
0.0
 10
227.1829916025881
 20
63.30714162883269
 30
0.0
 10
227.8099694630901
 20
63.59076581616582
 30
0.0
 10
228.5258768954538
 20
63.76050303489225
 30
0.0
 10
229.2943202876395
 20
63.82204186960355
 30
0.0
 10
229.8258490670119
 20
63.79368151734798
 30
0.0
 10
230.0903376978815
 20
63.76497303390093
 30
0.0
  0
LINE
  5
26C
330
1F
100
AcDbEntity
  8
0
  6
Continuous
 62
     7
370
    25
100
AcDbLine
 10
220.8658007101
 20
47.3258460071
 30
0.0
 11
221.1798453172
 21
47.1577022227
 31
0.0
  0
LINE
  5
26D
330
1F
100
AcDbEntity
  8
0
  6
Continuous
 62
     7
370
    25
100
AcDbLine
 10
219.8788416711
 20
47.8956053327
 30
0.0
 11
220.8658007101
 21
47.3258460071
 31
0.0
  0
ARC
  5
26E
330
1F
100
AcDbEntity
  8
0
  6
Continuous
 62
     7
370
    25
100
AcDbCircle
 10
222.0998102906
 20
51.4891031058
 30
0.0
 40
4.484291989683707
100
AcDbArc
 50
267.6840937494
 51
286.9865889436
  0
SPLINE
  5
26F
330
1F
100
AcDbEntity
  8
0
  6
Continuous
 62
     7
370
    25
100
AcDbSpline
210
0.0
220
0.0
230
1.0
 70
     8
 71
     3
 72
    16
 73
    12
 74
     0
 42
0.000000001
 43
0.00000001
 40
0.0
 40
0.0
 40
0.0
 40
0.0
 40
0.150516077399123
 40
0.2631372176921929
 40
0.3788385653419725
 40
0.4915726627001887
 40
0.608215717310718
 40
0.7115656327827979
 40
0.8179798858712685
 40
0.9203357686923436
 40
1.0
 40
1.0
 40
1.0
 40
1.0
 10
231.4288434927082
 20
60.76247740103813
 30
0.0
 10
231.2240104101927
 20
60.87486635371064
 30
0.0
 10
230.8659143957616
 20
61.07134846257645
 30
0.0
 10
230.2671792016496
 20
61.33550711436499
 30
0.0
 10
229.6909638514101
 20
61.54773895778111
 30
0.0
 10
229.0784036467347
 20
61.71969382101086
 30
0.0
 10
228.4770287306108
 20
61.82763074716177
 30
0.0
 10
227.8943337027024
 20
61.86636473726736
 30
0.0
 10
227.3597069770444
 20
61.83191519530354
 30
0.0
 10
226.8914083428396
 20
61.74089506837996
 30
0.0
 10
226.6325600272633
 20
61.63002332953579
 30
0.0
 10
226.5192706131545
 20
61.58149840749054
 30
0.0
  0
SPLINE
  5
270
330
1F
100
AcDbEntity
  8
0
  6
Continuous
 62
     7
370
    25
100
AcDbSpline
210
0.0
220
0.0
230
1.0
 70
     8
 71
     3
 72
    10
 73
     6
 74
     0
 42
0.000000001
 43
0.00000001
 40
0.0
 40
0.0
 40
0.0
 40
0.0
 40
0.3798174487108013
 40
0.9603712743694113
 40
1.0
 40
1.0
 40
1.0
 40
1.0
 10
232.5687239417548
 20
60.23425037825687
 30
0.0
 10
232.4390712834081
 20
60.30457908415595
 30
0.0
 10
232.1112435621055
 20
60.48240574572274
 30
0.0
 10
231.70331515846
 20
60.65545804622099
 30
0.0
 10
231.4466823598881
 20
60.75466369282106
 30
0.0
 10
231.4302839127837
 20
60.76100278337101
 30
0.0
  0
SPLINE
  5
271
330
1F
100
AcDbEntity
  8
0
  6
Continuous
 62
     7
370
    25
100
AcDbSpline
210
0.0
220
0.0
230
1.0
 70
     8
 71
     3
 72
    24
 73
    20
 74
     0
 42
0.000000001
 43
0.00000001
 40
0.0
 40
0.0
 40
0.0
 40
0.0
 40
0.0618857619093494
 40
0.1150115624342297
 40
0.1593831322308222
 40
0.2428114832232123
 40
0.3183318386985426
 40
0.3935543620449526
 40
0.420484316839609
 40
0.4483397365001899
 40
0.477128677518787
 40
0.5451537674268876
 40
0.6363475914367293
 40
0.6968782742038289
 40
0.7498596592257523
 40
0.7959701139281281
 40
0.8771179876705577
 40
0.9543004325059576
 40
1.0
 40
1.0
 40
1.0
 40
1.0
 10
230.0354587568364
 20
63.19111517137848
 30
0.0
 10
229.8515021910077
 20
63.21000954631839
 30
0.0
 10
229.5096282057284
 20
63.24512378772082
 30
0.0
 10
229.0454101220337
 20
63.23863440988324
 30
0.0
 10
228.5359485891558
 20
63.1909095122216
 30
0.0
 10
227.9968534342445
 20
63.06629317885341
 30
0.0
 10
227.4540163249452
 20
62.82380238165305
 30
0.0
 10
227.1136221356808
 20
62.56643109184058
 30
0.0
 10
226.9069957159616
 20
62.35162215459124
 30
0.0
 10
226.7890117982626
 20
62.20512011717727
 30
0.0
 10
226.6368417030383
 20
61.97536801823124
 30
0.0
 10
226.4701601534091
 20
61.60242661110912
 30
0.0
 10
226.4017998330566
 20
61.13986755458885
 30
0.0
 10
226.4521540211904
 20
60.71153368292234
 30
0.0
 10
226.5575838960455
 20
60.39160777193472
 30
0.0
 10
226.73978265614
 20
60.05114151056981
 30
0.0
 10
227.0406616711355
 20
59.71519364186437
 30
0.0
 10
227.4303463719183
 20
59.44213493003065
 30
0.0
 10
227.723265217593
 20
59.3481792591739
 30
0.0
 10
227.8322011334722
 20
59.31323733854312
 30
0.0
  0
SPLINE
  5
272
330
1F
100
AcDbEntity
  8
0
  6
Continuous
 62
     7
370
    25
100
AcDbSpline
210
0.0
220
0.0
230
1.0
 70
     8
 71
     3
 72
    22
 73
    18
 74
     0
 42
0.000000001
 43
0.00000001
 40
0.0
 40
0.0
 40
0.0
 40
0.0
 40
0.0219614350649738
 40
0.0803652114651397
 40
0.1456638403585972
 40
0.21789694387348
 40
0.2799150498546654
 40
0.3332793472081466
 40
0.3779895055229293
 40
0.4140481372238363
 40
0.517328140944588
 40
0.609398085778404
 40
0.7028413953962249
 40
0.7526499641548304
 40
0.804559245215462
 40
0.8937466539091778
 40
1.0
 40
1.0
 40
1.0
 40
1.0
 10
233.340307773557
 20
60.71378856959475
 30
0.0
 10
233.3634756369551
 20
60.73564379776812
 30
0.0
 10
233.4482556267725
 20
60.81562035797812
 30
0.0
 10
233.5548870688205
 20
60.9577823888435
 30
0.0
 10
233.6521421595486
 20
61.14656111214735
 30
0.0
 10
233.6831685052325
 20
61.33252575079747
 30
0.0
 10
233.6538205091256
 20
61.50434043330305
 30
0.0
 10
233.5853136383204
 20
61.65114758848934
 30
0.0
 10
233.4975034059942
 20
61.77235687431945
 30
0.0
 10
233.343211115238
 20
61.93794172473796
 30
0.0
 10
233.0753853868015
 20
62.14810501308175
 30
0.0
 10
232.6238154368078
 20
62.40354952162173
 30
0.0
 10
232.1762525958408
 20
62.61018525012868
 30
0.0
 10
231.7673591023572
 20
62.76869009449992
 30
0.0
 10
231.3452791374131
 20
62.91120620379306
 30
0.0
 10
230.7669666024407
 20
63.07446367204073
 30
0.0
 10
230.2930877792854
 20
63.15003179555115
 30
0.0
 10
230.0354587568364
 20
63.19111517137847
 30
0.0
  0
LINE
  5
273
330
1F
100
AcDbEntity
  8
0
  6
Continuous
 62
     7
370
    25
100
AcDbLine
 10
223.5258896913
 20
47.9439441266
 30
0.0
 11
223.5206511479
 21
48.2400275455
 31
0.0
  0
LINE
  5
274
330
1F
100
AcDbEntity
  8
0
  6
Continuous
 62
     7
370
    25
100
AcDbLine
 10
223.5206511479
 20
48.2400275455
 30
0.0
 11
223.5637502969
 21
48.8916708368
 31
0.0
  0
LINE
  5
275
330
1F
100
AcDbEntity
  8
0
  6
Continuous
 62
     7
370
    25
100
AcDbLine
 10
223.041102728
 20
50.7207158003
 30
0.0
 11
222.729687958
 21
51.0493120627
 31
0.0
  0
SPLINE
  5
276
330
1F
100
AcDbEntity
  8
0
  6
Continuous
 62
     7
370
    25
100
AcDbSpline
210
0.0
220
0.0
230
1.0
 70
     8
 71
     3
 72
    24
 73
    20
 74
     0
 42
0.000000001
 43
0.00000001
 40
0.0
 40
0.0
 40
0.0
 40
0.0
 40
0.0208485373664272
 40
0.0823376247214632
 40
0.1455705549099646
 40
0.2075413813861011
 40
0.2714247518574422
 40
0.3315017366460747
 40
0.3933547140842038
 40
0.4529343674600938
 40
0.514180240079699
 40
0.5749476280820675
 40
0.6373706675511337
 40
0.7000294854399094
 40
0.764869753768216
 40
0.8126336564434572
 40
0.8609398673429536
 40
0.9190455624033324
 40
1.0
 40
1.0
 40
1.0
 40
1.0
 10
226.4324707199239
 20
60.94196690338117
 30
0.0
 10
226.4297513807107
 20
60.99481656884827
 30
0.0
 10
226.4190118296481
 20
61.20353701025883
 30
0.0
 10
226.4910323594814
 20
61.54661945958824
 30
0.0
 10
226.6531208317277
 20
61.95826816053678
 30
0.0
 10
226.915457067103
 20
62.32760366318998
 30
0.0
 10
227.256973022188
 20
62.63577485088898
 30
0.0
 10
227.6727456055596
 20
62.87948497927363
 30
0.0
 10
228.1385130918558
 20
63.04928641054325
 30
0.0
 10
228.6527444036417
 20
63.14671869732227
 30
0.0
 10
229.1941564305167
 20
63.16833284914425
 30
0.0
 10
229.7585570788807
 20
63.11192748430146
 30
0.0
 10
230.325404776145
 20
62.97485386066955
 30
0.0
 10
230.8833621945137
 20
62.74901798281303
 30
0.0
 10
231.3560438615182
 20
62.45140797957729
 30
0.0
 10
231.7130379584738
 20
62.08048631654245
 30
0.0
 10
231.9078803829323
 20
61.64816769347927
 30
0.0
 10
231.9369116278344
 20
61.14522554877942
 30
0.0
 10
231.8745375096879
 20
60.81148075509499
 30
0.0
 10
231.8382261560407
 20
60.61718982816073
 30
0.0
  0
SPLINE
  5
277
330
1F
100
AcDbEntity
  8
0
  6
Continuous
 62
     7
370
    25
100
AcDbSpline
210
0.0
220
0.0
230
1.0
 70
     8
 71
     3
 72
    10
 73
     6
 74
     0
 42
0.000000001
 43
0.00000001
 40
0.0
 40
0.0
 40
0.0
 40
0.0
 40
0.2951234317486784
 40
0.9803957662378208
 40
1.0
 40
1.0
 40
1.0
 40
1.0
 10
231.8409540310205
 20
60.61595127015618
 30
0.0
 10
231.923778043328
 20
60.57718629583852
 30
0.0
 10
232.1989182127408
 20
60.4484096125567
 30
0.0
 10
232.4739191165156
 20
60.30717614900579
 30
0.0
 10
232.6224394320464
 20
60.21315625374724
 30
0.0
 10
232.6265701226031
 20
60.21054134485686
 30
0.0
  0
ARC
  5
278
330
1F
100
AcDbEntity
  8
0
  6
Continuous
 62
     7
370
    25
100
AcDbCircle
 10
235.8509618773
 20
46.4027412003
 30
0.0
 40
12.46644230717351
100
AcDbArc
 50
171.5249591672
 51
179.8212373334
  0
SPLINE
  5
279
330
1F
100
AcDbEntity
  8
0
  6
Continuous
 62
     7
370
    25
100
AcDbSpline
210
0.0
220
0.0
230
1.0
 70
     8
 71
     3
 72
    14
 73
    10
 74
     0
 42
0.000000001
 43
0.00000001
 40
0.0
 40
0.0
 40
0.0
 40
0.0
 40
0.0003951393068452
 40
0.0003951393068452
 40
0.0003951393068452
 40
0.0008163352168663
 40
0.0008163352168663
 40
0.0008163352168663
 40
0.0012378579337219
 40
0.0012378579337219
 40
0.0012378579337219
 40
0.0012378579337219
 10
231.4328762317205
 20
60.76119836518087
 30
0.0
 10
231.4783380459518
 20
60.74676150255584
 30
0.0
 10
231.5232256505728
 20
60.73189564199024
 30
0.0
 10
231.5675093432479
 20
60.71661185438477
 30
0.0
 10
231.6147126354873
 20
60.70032041504708
 30
0.0
 10
231.6612384485465
 20
60.68355093696317
 30
0.0
 10
231.7070493577881
 20
60.66632212616788
 30
0.0
 10
231.7528957457772
 20
60.64907997233623
 30
0.0
 10
231.7980349813496
 20
60.63137426613173
 30
0.0
 10
231.842428539392
 20
60.61323140944095
 30
0.0
  0
LINE
  5
27A
330
1F
100
AcDbEntity
  8
0
  6
Continuous
 62
     7
370
    25
100
AcDbLine
 10
222.729687958
 20
51.0493120627
 30
0.0
 11
222.0897517627
 21
51.4615437998
 31
0.0
  0
LINE
  5
27B
330
1F
100
AcDbEntity
  8
0
  6
Continuous
 62
     7
370
    25
100
AcDbLine
 10
221.7838175664
 20
51.8330223454
 30
0.0
 11
222.0897517627
 21
51.4615437998
 31
0.0
  0
SPLINE
  5
27C
330
1F
100
AcDbEntity
  8
0
  6
Continuous
 62
     7
370
    25
100
AcDbSpline
210
0.0
220
0.0
230
1.0
 70
     8
 71
     3
 72
    13
 73
     9
 74
     0
 42
0.000000001
 43
0.00000001
 40
0.0
 40
0.0
 40
0.0
 40
0.0
 40
0.161854229885178
 40
0.3254858841554281
 40
0.4910085196607404
 40
0.6585318472791263
 40
0.8281616954204583
 40
0.9999999999999999
 40
0.9999999999999999
 40
0.9999999999999999
 40
0.9999999999999999
 10
222.0897517626989
 20
51.46154379975097
 30
0.0
 10
222.0701743706815
 20
51.47410677678413
 30
0.0
 10
222.0308045948358
 20
51.49937069290275
 30
0.0
 10
221.9692686550654
 20
51.53206438981761
 30
0.0
 10
221.905711995816
 20
51.5610104635245
 30
0.0
 10
221.8400938931593
 20
51.58552283099009
 30
0.0
 10
221.7726666241045
 20
51.6059578943436
 30
0.0
 10
221.726782023906
 20
51.61555454933338
 30
0.0
 10
221.703691343731
 20
51.62038391016817
 30
0.0
  0
SPLINE
  5
27D
330
1F
100
AcDbEntity
  8
0
  6
Continuous
 62
     7
370
    25
100
AcDbSpline
210
0.0
220
0.0
230
1.0
 70
     8
 71
     3
 72
     9
 73
     5
 74
     0
 42
0.000000001
 43
0.00000001
 40
0.0
 40
0.0
 40
0.0
 40
0.0
 40
0.4907282259506175
 40
1.0
 40
1.0
 40
1.0
 40
1.0
 10
221.703685516439
 20
51.62035591313715
 30
0.0
 10
221.6795919939612
 20
51.62845144535527
 30
0.0
 10
221.630494507402
 20
51.64494842227656
 30
0.0
 10
221.5797938135818
 20
51.65974209129278
 30
0.0
 10
221.5539733812945
 20
51.66727608935739
 30
0.0
  0
SPLINE
  5
27E
330
1F
100
AcDbEntity
  8
0
  6
Continuous
 62
     7
370
    25
100
AcDbSpline
210
0.0
220
0.0
230
1.0
 70
     8
 71
     3
 72
    14
 73
    10
 74
     0
 42
0.000000001
 43
0.00000001
 40
0.0
 40
0.0
 40
0.0
 40
0.0
 40
0.0310276388071871
 40
0.0622853718672875
 40
0.1248003166904921
 40
0.249828973175415
 40
0.4998892603610702
 40
0.7606803621692766
 40
1.0
 40
1.0
 40
1.0
 40
1.0
 10
220.9700326920062
 20
52.04138383200326
 30
0.0
 10
220.9760249314107
 20
52.03755278834962
 30
0.0
 10
220.9880538473699
 20
52.02986229085191
 30
0.0
 10
221.012113655419
 20
52.01442440134522
 30
0.0
 10
221.0543473280653
 20
51.98735394841439
 30
0.0
 10
221.1389099025775
 20
51.93314192361901
 30
0.0
 10
221.2621968720479
 20
51.85413874175285
 30
0.0
 10
221.408328578502
 20
51.76053256707543
 30
0.0
 10
221.5066951950427
 20
51.69754949068295
 30
0.0
 10
221.5537668957267
 20
51.66740999189395
 30
0.0
  0
LINE
  5
27F
330
1F
100
AcDbEntity
  8
0
  6
Continuous
 62
     7
370
    25
100
AcDbLine
 10
219.1675324253
 20
53.2040146331
 30
0.0
 11
219.4584992599
 21
53.0159362041
 31
0.0
  0
SPLINE
  5
280
330
1F
100
AcDbEntity
  8
0
  6
Continuous
 62
     7
370
    25
100
AcDbSpline
210
0.0
220
0.0
230
1.0
 70
     8
 71
     3
 72
     8
 73
     4
 74
     0
 42
0.000000001
 43
0.00000001
 40
0.0
 40
0.0
 40
0.0
 40
0.0
 40
1.0
 40
1.0
 40
1.0
 40
1.0
 10
219.4898881943014
 20
52.99571343969208
 30
0.0
 10
219.4794456884496
 20
53.00253886458948
 30
0.0
 10
219.4689797555598
 20
53.00928183137601
 30
0.0
 10
219.4584919907433
 20
53.01594091902899
 30
0.0
  0
SPLINE
  5
281
330
1F
100
AcDbEntity
  8
0
  6
Continuous
 62
     7
370
    25
100
AcDbSpline
210
0.0
220
0.0
230
1.0
 70
     8
 71
     3
 72
     8
 73
     4
 74
     0
 42
0.000000001
 43
0.00000001
 40
0.0
 40
0.0
 40
0.0
 40
0.0
 40
1.0
 40
1.0
 40
1.0
 40
1.0
 10
216.7038838154776
 20
54.87396909150115
 30
0.0
 10
216.7628835796476
 20
54.8352284245822
 30
0.0
 10
216.8221711431581
 20
54.7971664472829
 30
0.0
 10
216.8817522166465
 20
54.75978265882262
 30
0.0
  0
SPLINE
  5
282
330
1F
100
AcDbEntity
  8
0
  6
Continuous
 62
     7
370
    25
100
AcDbSpline
210
0.0
220
0.0
230
1.0
 70
     8
 71
     3
 72
     8
 73
     4
 74
     0
 42
0.000000001
 43
0.00000001
 40
0.0
 40
0.0
 40
0.0
 40
0.0
 40
1.0
 40
1.0
 40
1.0
 40
1.0
 10
216.679034069378
 20
55.23717926943947
 30
0.0
 10
216.6865082814686
 20
55.11622142872763
 30
0.0
 10
216.6948043853587
 20
54.99514958631698
 30
0.0
 10
216.7038838154776
 20
54.87396909150115
 30
0.0
  0
LWPOLYLINE
  5
283
330
1F
100
AcDbEntity
  8
0
  6
Continuous
 62
     7
370
    25
100
AcDbPolyline
 90
       15
 70
   128
 43
0.0
 10
216.6790340694
 20
55.2371792694
 10
217.0726334111
 20
56.346088006
 10
217.5473015734
 20
57.4468560603
 10
218.0973546907
 20
58.5263023979
 10
218.7162062081
 20
59.5715012986
 10
219.3964457514
 20
60.5699371349
 10
220.1299278615
 20
61.5096542389
 10
220.9078695319
 20
62.379400064
 10
221.7209553793
 20
63.1687599277
 10
222.5594491904
 20
63.8682817208
 10
223.4133105065
 20
64.469589091
 10
224.2723148526
 20
64.9654817446
 10
225.1261761688
 20
65.3500216657
 10
225.9646699798
 20
65.6186042202
 10
226.642996295
 20
65.7512870333
  0
SPLINE
  5
284
330
1F
100
AcDbEntity
  8
0
  6
Continuous
 62
     7
370
    25
100
AcDbSpline
210
0.0
220
0.0
230
1.0
 70
     8
 71
     3
 72
    10
 73
     6
 74
     0
 42
0.000000001
 43
0.00000001
 40
0.0
 40
0.0
 40
0.0
 40
0.0
 40
0.2409820260343464
 40
0.5031431986319208
 40
1.0
 40
1.0
 40
1.0
 40
1.0
 10
222.7296879580276
 20
44.34347064505904
 30
0.0
 10
222.8119339862262
 20
44.29179413309004
 30
0.0
 10
222.983654385393
 20
44.18389942428498
 30
0.0
 10
223.2613745671309
 20
44.05417614361108
 30
0.0
 10
223.3823523545109
 20
44.07695424711059
 30
0.0
 10
223.4615449935998
 20
44.09186490276589
 30
0.0
  0
LINE
  5
285
330
1F
100
AcDbEntity
  8
0
  6
Continuous
 62
     7
370
    25
100
AcDbLine
 10
217.9465145035
 20
54.0725429985
 30
0.0
 11
217.1846351219
 21
54.5631779172
 31
0.0
  0
LINE
  5
286
330
1F
100
AcDbEntity
  8
0
  6
Continuous
 62
     7
370
    25
100
AcDbLine
 10
217.1846351219
 20
54.5631779172
 30
0.0
 11
216.7038838155
 21
54.8739690915
 31
0.0
  0
LINE
  5
287
330
1F
100
AcDbEntity
  8
0
  6
Continuous
 62
     7
370
    25
100
AcDbLine
 10
221.7838175664
 20
44.0676908704
 30
0.0
 11
222.0897517627
 21
44.7557023821
 31
0.0
  0
LINE
  5
288
330
1F
100
AcDbEntity
  8
0
  6
Continuous
 62
     7
370
    25
100
AcDbLine
 10
222.0897517627
 20
44.7557023821
 30
0.0
 11
222.729687958
 21
44.3434706451
 31
0.0
  0
SPLINE
  5
289
330
1F
100
AcDbEntity
  8
0
  6
Continuous
 62
     7
370
    25
100
AcDbSpline
210
0.0
220
0.0
230
1.0
 70
     8
 71
     3
 72
    13
 73
     9
 74
     0
 42
0.000000001
 43
0.00000001
 40
0.0
 40
0.0
 40
0.0
 40
0.0
 40
0.172258782378417
 40
0.342139827159501
 40
0.5097456258302661
 40
0.6751828993623331
 40
0.8385626190354498
 40
1.0
 40
1.0
 40
1.0
 40
1.0
 10
221.7036798319257
 20
45.03701187800427
 30
0.0
 10
221.7268313558808
 20
45.01889228706682
 30
0.0
 10
221.7728148366365
 20
44.9829032151255
 30
0.0
 10
221.8403558493558
 20
44.93190323170383
 30
0.0
 10
221.906015464044
 20
44.88357855151207
 30
0.0
 10
221.9695395352918
 20
44.83814754560624
 30
0.0
 10
222.0309699140056
 20
44.79532197785336
 30
0.0
 10
222.0702360809719
 20
44.76885616068312
 30
0.0
 10
222.0897517626989
 20
44.75570238213925
 30
0.0
  0
SPLINE
  5
28A
330
1F
100
AcDbEntity
  8
0
  6
Continuous
 62
     7
370
    25
100
AcDbSpline
210
0.0
220
0.0
230
1.0
 70
     8
 71
     3
 72
    11
 73
     7
 74
     0
 42
0.000000001
 43
0.00000001
 40
0.0
 40
0.0
 40
0.0
 40
0.0
 40
0.2392845094479873
 40
0.5001120454076898
 40
0.7515010915036774
 40
1.0
 40
1.0
 40
1.0
 40
1.0
 10
221.5542994204496
 20
45.08432587021715
 30
0.0
 10
221.507230188445
 20
45.05601134750435
 30
0.0
 10
221.4088540338504
 20
44.99683311694817
 30
0.0
 10
221.2625568122666
 20
44.90364521648825
 30
0.0
 10
221.1147160686228
 20
44.80827330051579
 30
0.0
 10
221.0184296059038
 20
44.74373804525298
 30
0.0
 10
220.9705647180448
 20
44.71165697519515
 30
0.0
  0
SPLINE
  5
28B
330
1F
100
AcDbEntity
  8
0
  6
Continuous
 62
     7
370
    25
100
AcDbSpline
210
0.0
220
0.0
230
1.0
 70
     8
 71
     3
 72
     9
 73
     5
 74
     0
 42
0.000000001
 43
0.00000001
 40
0.0
 40
0.0
 40
0.0
 40
0.0
 40
0.5090669353869915
 40
1.0
 40
1.0
 40
1.0
 40
1.0
 10
221.5548704240337
 20
45.08362691600538
 30
0.0
 10
221.5805189986577
 20
45.07613420784549
 30
0.0
 10
221.6309025000032
 20
45.06141569513323
 30
0.0
 10
221.6797100114985
 20
45.04502333728106
 30
0.0
 10
221.703671232693
 20
45.03697578680447
 30
0.0
  0
LINE
  5
28C
330
1F
100
AcDbEntity
  8
0
  6
Continuous
 62
     7
370
    25
100
AcDbLine
 10
223.3847889983
 20
46.0075051544
 30
0.0
 11
221.7036733375
 21
45.0370177409
 31
0.0
  0
LINE
  5
28D
330
1F
100
AcDbEntity
  8
0
  6
Continuous
 62
     7
370
    25
100
AcDbLine
 10
219.6971855405
 20
46.1608390187
 30
0.0
 11
219.4968894882
 21
45.6596817373
 31
0.0
  0
SPLINE
  5
28E
330
1F
100
AcDbEntity
  8
0
  6
Continuous
 62
     7
370
    25
100
AcDbSpline
210
0.0
220
0.0
230
1.0
 70
     8
 71
     3
 72
     8
 73
     4
 74
     0
 42
0.000000001
 43
0.00000001
 40
0.0
 40
0.0
 40
0.0
 40
0.0
 40
1.0
 40
1.0
 40
1.0
 40
1.0
 10
219.6967422258936
 20
46.16162294986672
 30
0.0
 10
219.7229175604628
 20
46.18379032684499
 30
0.0
 10
219.7487386004282
 20
46.2064224679366
 30
0.0
 10
219.7741961541366
 20
46.22950718802789
 30
0.0
  0
LINE
  5
28F
330
1F
100
AcDbEntity
  8
0
  6
Continuous
 62
     7
370
    25
100
AcDbLine
 10
219.7741961541
 20
46.229507188
 30
0.0
 11
221.5544891445
 21
45.0837359255
 31
0.0
  0
LINE
  5
290
330
1F
100
AcDbEntity
  8
0
  6
Continuous
 62
     7
370
    25
100
AcDbLine
 10
223.3845802466
 20
46.1055551888
 30
0.0
 11
223.2965812241
 21
46.2130463255
 31
0.0
  0
LINE
  5
291
330
1F
100
AcDbEntity
  8
0
  6
Continuous
 62
     7
370
    25
100
AcDbLine
 10
221.4681726356
 20
47.2074189953
 30
0.0
 11
219.7741961541
 21
46.229507188
 31
0.0
  0
LINE
  5
292
330
1F
100
AcDbEntity
  8
0
  6
Continuous
 62
     7
370
    25
100
AcDbLine
 10
221.6108666612
 20
47.1861266346
 30
0.0
 11
221.4685929497
 21
47.2069312506
 31
0.0
  0
LINE
  5
293
330
1F
100
AcDbEntity
  8
0
  6
Continuous
 62
     7
370
    25
100
AcDbLine
 10
223.2966542295
 20
46.2129421863
 30
0.0
 11
221.6108666612
 21
47.1861266346
 31
0.0
  0
LINE
  5
294
330
1F
100
AcDbEntity
  8
0
  6
Continuous
 62
     7
370
    25
100
AcDbLine
 10
223.3845802466
 20
46.1621778453
 30
0.0
 11
223.2966077725
 21
46.2129689866
 31
0.0
  0
SPLINE
  5
295
330
1F
100
AcDbEntity
  8
0
  6
Continuous
 62
     7
370
    25
100
AcDbSpline
210
0.0
220
0.0
230
1.0
 70
     8
 71
     3
 72
    19
 73
    15
 74
     0
 42
0.000000001
 43
0.00000001
 40
0.0
 40
0.0
 40
0.0
 40
0.0
 40
0.0637852801523487
 40
0.1289627947928742
 40
0.1955871357727518
 40
0.2637094157112479
 40
0.3333774494312574
 40
0.4046359392583752
 40
0.477526660464624
 40
0.5520886439445272
 40
0.6283583539150506
 40
0.7063698590296017
 40
0.8377040422924708
 40
1.0
 40
1.0
 40
1.0
 40
1.0
 10
218.9126731199322
 20
46.33011103721859
 30
0.0
 10
218.9333624889373
 20
46.31675189720828
 30
0.0
 10
218.9751928115921
 20
46.28974202866737
 30
0.0
 10
219.0356837851868
 20
46.25222006314085
 30
0.0
 10
219.0951679833661
 20
46.21670032205018
 30
0.0
 10
219.1532491428378
 20
46.18372019313368
 30
0.0
 10
219.2097812599251
 20
46.1535137568633
 30
0.0
 10
219.2645263146787
 20
46.12640031690196
 30
0.0
 10
219.3172486922716
 20
46.10266869915123
 30
0.0
 10
219.3676903252001
 20
46.08262844570944
 30
0.0
 10
219.4155732436754
 20
46.06650858415996
 30
0.0
 10
219.4705374238582
 20
46.05223060781356
 30
0.0
 10
219.5333687875888
 20
46.04209204673208
 30
0.0
 10
219.5718763307496
 20
46.04856632612158
 30
0.0
 10
219.5931603126173
 20
46.05214480539661
 30
0.0
  0
LINE
  5
296
330
1F
100
AcDbEntity
  8
0
  6
Continuous
 62
     7
370
    25
100
AcDbLine
 10
219.6177962436
 20
46.0782149526
 30
0.0
 11
219.6966002643
 21
46.1616066629
 31
0.0
  0
SPLINE
  5
297
330
1F
100
AcDbEntity
  8
0
  6
Continuous
 62
     7
370
    25
100
AcDbSpline
210
0.0
220
0.0
230
1.0
 70
     8
 71
     3
 72
     9
 73
     5
 74
     0
 42
0.000000001
 43
0.00000001
 40
0.0
 40
0.0
 40
0.0
 40
0.0
 40
0.523202776288562
 40
0.9999999999999999
 40
0.9999999999999999
 40
0.9999999999999999
 40
0.9999999999999999
 10
221.3019952814376
 20
47.11148685075374
 30
0.0
 10
221.2329709684439
 20
47.13652900982797
 30
0.0
 10
221.1010444647596
 20
47.18439220973659
 30
0.0
 10
220.8596073124051
 20
47.3219904066665
 30
0.0
 10
220.7444907484617
 20
47.38759684495038
 30
0.0
  0
LINE
  5
298
330
1F
100
AcDbEntity
  8
0
  6
Continuous
 62
     7
370
    25
100
AcDbLine
 10
217.0149896254
 20
47.1534863118
 30
0.0
 11
217.466459795
 21
47.2657508454
 31
0.0
  0
LINE
  5
299
330
1F
100
AcDbEntity
  8
0
  6
Continuous
 62
     7
370
    25
100
AcDbLine
 10
217.466459795
 20
47.2657508454
 30
0.0
 11
218.9126731199
 21
46.3301110372
 31
0.0
  0
SPLINE
  5
29A
330
1F
100
AcDbEntity
  8
0
  6
Continuous
 62
     7
370
    25
100
AcDbSpline
210
0.0
220
0.0
230
1.0
 70
     8
 71
     3
 72
     8
 73
     4
 74
     0
 42
0.000000001
 43
0.00000001
 40
0.0
 40
0.0
 40
0.0
 40
0.0
 40
1.0
 40
1.0
 40
1.0
 40
1.0
 10
217.185777503949
 20
46.75873683943527
 30
0.0
 10
217.1286522350249
 20
46.89052302323091
 30
0.0
 10
217.0717237433073
 20
47.02210724489171
 30
0.0
 10
217.0149896253579
 20
47.15348631179307
 30
0.0
  0
LINE
  5
29B
330
1F
100
AcDbEntity
  8
0
  6
Continuous
 62
     7
370
    25
100
AcDbLine
 10
218.8041610055
 20
48.0379893167
 30
0.0
 11
217.466459795
 21
47.2657508454
 31
0.0
  0
LINE
  5
29C
330
1F
100
AcDbEntity
  8
0
  6
Continuous
 62
     7
370
    25
100
AcDbLine
 10
219.7871898023
 20
47.9402357833
 30
0.0
 11
218.8041605317
 21
48.0379893643
 31
0.0
  0
LINE
  5
29D
330
1F
100
AcDbEntity
  8
0
  6
Continuous
 62
     7
370
    25
100
AcDbLine
 10
220.7444907485
 20
47.387596845
 30
0.0
 11
219.7871890528
 21
47.9402353506
 31
0.0
  0
SPLINE
  5
29E
330
1F
100
AcDbEntity
  8
0
  6
Continuous
 62
     7
370
    25
100
AcDbSpline
210
0.0
220
0.0
230
1.0
 70
     8
 71
     3
 72
     8
 73
     4
 74
     0
 42
0.000000001
 43
0.00000001
 40
0.0
 40
0.0
 40
0.0
 40
0.0
 40
1.0
 40
1.0
 40
1.0
 40
1.0
 10
217.0149896253601
 20
47.15348631178795
 30
0.0
 10
217.01185228761
 20
47.18870261866047
 30
0.0
 10
217.009859883712
 20
47.22434687488816
 30
0.0
 10
217.00907848634
 20
47.26044377688304
 30
0.0
  0
LINE
  5
29F
330
1F
100
AcDbEntity
  8
0
  6
Continuous
 62
     7
370
    25
100
AcDbLine
 10
217.8201640188
 20
47.7286734882
 30
0.0
 11
217.0090784863
 21
47.2604437769
 31
0.0
  0
SPLINE
  5
2A0
330
1F
100
AcDbEntity
  8
0
  6
Continuous
 62
     7
370
    25
100
AcDbSpline
210
0.0
220
0.0
230
1.0
 70
     8
 71
     3
 72
     8
 73
     4
 74
     0
 42
0.000000001
 43
0.00000001
 40
0.0000004089325119
 40
0.0000004089325119
 40
0.0000004089325119
 40
0.0000004089325119
 40
0.0015399868451459
 40
0.0015399868451459
 40
0.0015399868451459
 40
0.0015399868451459
 10
217.8201640188287
 20
47.72867348823916
 30
0.0
 10
218.058640586852
 20
47.82304987405551
 30
0.0
 10
218.2970875445207
 20
47.91747848598572
 30
0.0
 10
218.535496283371
 20
48.01197186894818
 30
0.0
  0
LINE
  5
2A1
330
1F
100
AcDbEntity
  8
0
  6
Continuous
 62
     7
370
    25
100
AcDbLine
 10
218.5354962834
 20
48.0119718689
 30
0.0
 11
218.5598925141
 21
48.0169657987
 31
0.0
  0
LINE
  5
2A2
330
1F
100
AcDbEntity
  8
0
  6
Continuous
 62
     7
370
    25
100
AcDbLine
 10
218.804160798
 20
48.0379892981
 30
0.0
 11
218.5598930558
 21
48.0169661914
 31
0.0
  0
SPLINE
  5
2A3
330
1F
100
AcDbEntity
  8
0
  6
Continuous
 62
     7
370
    25
100
AcDbSpline
210
0.0
220
0.0
230
1.0
 70
     8
 71
     3
 72
     8
 73
     4
 74
     0
 42
0.000000001
 43
0.00000001
 40
0.0
 40
0.0
 40
0.0
 40
0.0
 40
1.0
 40
1.0
 40
1.0
 40
1.0
 10
219.787188197879
 20
47.94023586153514
 30
0.0
 10
219.8177962320023
 20
47.92529585372903
 30
0.0
 10
219.8483477329742
 20
47.91041889633565
 30
0.0
 10
219.8788416710887
 20
47.89560533265473
 30
0.0
  0
LWPOLYLINE
  5
2A4
330
1F
100
AcDbEntity
  8
0
  6
Continuous
 62
     7
370
    25
100
AcDbPolyline
 90
        3
 70
   128
 43
0.0
 10
223.4269617915
 20
47.4286853722
 10
222.9524321282
 20
47.2307235884
 10
222.2155773806
 20
47.0046810318
  0
LWPOLYLINE
  5
2A5
330
1F
100
AcDbEntity
  8
0
  6
Continuous
 62
     7
370
    18
100
AcDbPolyline
 90
       25
 70
   128
 43
0.0
 10
266.0064450488
 20
23.3500157548
 10
266.0514725308
 20
24.2853168938
 10
266.1859679745
 20
25.2604125762
 10
266.4081780262
 20
26.2625909384
 10
266.7152058381
 20
27.278787053
 10
267.1030488331
 20
28.2957532495
 10
267.5666508845
 20
29.3002318183
 10
268.0999682308
 20
30.2791278451
 10
268.6960482646
 20
31.2196799231
 10
269.3471201712
 20
32.1096265176
 10
270.0446962325
 20
32.9373658139
 10
270.7796824778
 20
33.6921069642
 10
271.5424972374
 20
34.3640107634
 10
272.3231960543
 20
34.9443179181
 10
273.1116013255
 20
35.4254632369
 10
273.8974349826
 20
35.8011742548
 10
274.670452482
 20
36.0665530041
 10
275.4205763585
 20
36.218139867
 10
276.1380276003
 20
36.253958677
 10
276.8134531331
 20
36.1735424809
 10
277.4380477522
 20
35.977939627
 10
278.0036689115
 20
35.6697000975
 10
278.5029428744
 20
35.2528422662
 10
278.929360841
 20
34.7328005123
 10
279.1362313996
 20
34.3953274234
  0
LWPOLYLINE
  5
2A6
330
1F
100
AcDbEntity
  8
0
  6
Continuous
 62
     7
370
    18
100
AcDbPolyline
 90
       11
 70
   128
 43
0.0
 10
269.9141743593
 20
18.4205251761
 10
269.3471201712
 20
18.4474663885
 10
268.6960482646
 20
18.5857013603
 10
268.0999682308
 20
18.8380340805
 10
267.5666508845
 20
19.201175006
 10
267.1030488331
 20
19.6703900395
 10
266.7152058381
 20
20.2395622456
 10
266.4081780262
 20
20.9012715941
 10
266.1859679745
 20
21.6468916916
 10
266.0514725308
 20
22.4667022399
 10
266.0064450488
 20
23.3500157548
  0
LWPOLYLINE
  5
2A7
330
1F
100
AcDbEntity
  8
0
  6
Continuous
 62
     7
370
    18
100
AcDbPolyline
 90
       53
 70
   128
 43
0.0
 10
267.0555719733
 20
23.484284702
 10
267.1012657344
 20
24.3829803351
 10
267.2376806996
 20
25.3213278556
 10
267.4628276316
 20
26.2856440439
 10
267.7734233811
 20
27.2618669984
 10
268.1649387628
 20
28.2357611902
 10
268.6316646007
 20
29.1931250489
 10
269.1667949811
 20
30.1199980537
 10
269.7625264981
 20
31.0028643091
 10
270.4101720447
 20
31.828849637
 10
271.1002874904
 20
32.5859093113
 10
271.8228093981
 20
33.2630036973
 10
272.5672017713
 20
33.8502592342
 10
273.3226096931
 20
34.3391124138
 10
274.0780176149
 20
34.7224346559
 10
274.8224099881
 20
34.9946362591
 10
275.5449318958
 20
35.1517479112
 10
276.2350473415
 20
35.1914785703
 10
276.8826928881
 20
35.1132488741
 10
277.4784244051
 20
34.9181995876
 10
278.0135547855
 20
34.6091749688
 10
278.4802806234
 20
34.1906812923
 10
278.8717960051
 20
33.6688211383
 10
279.1823917546
 20
33.0512044031
 10
279.4075386866
 20
32.3468373294
 10
279.5439536518
 20
31.5659911751
 10
279.5896474129
 20
30.7200524356
 10
279.5439536518
 20
29.8213568026
 10
279.4075386866
 20
28.883009282
 10
279.1823917546
 20
27.9186930938
 10
278.8717960051
 20
26.9424701393
 10
278.4802806234
 20
25.9685759475
 10
278.0135547855
 20
25.0112120888
 10
277.4784244051
 20
24.084339084
 10
276.8826928881
 20
23.2014728286
 10
276.2350473415
 20
22.3754875007
 10
275.5449318958
 20
21.6184278264
 10
274.8224099881
 20
20.9413334403
 10
274.0780176149
 20
20.3540779035
 10
273.3226096931
 20
19.8652247239
 10
272.5672017713
 20
19.4819024818
 10
271.8228093981
 20
19.2097008785
 10
271.1002874904
 20
19.0525892265
 10
270.4101720447
 20
19.0128585674
 10
269.7625264981
 20
19.0910882636
 10
269.1667949811
 20
19.28613755
 10
268.6316646007
 20
19.5951621689
 10
268.1649387628
 20
20.0136558454
 10
267.7734233811
 20
20.5355159994
 10
267.4628276316
 20
21.1531327346
 10
267.2376806996
 20
21.8574998083
 10
267.1012657344
 20
22.6383459626
 10
267.0555719733
 20
23.484284702
  0
LWPOLYLINE
  5
2A8
330
1F
100
AcDbEntity
  8
0
  6
Continuous
 62
     7
370
    18
100
AcDbPolyline
 90
        9
 70
   128
 43
0.0
 10
236.906610462
 20
38.3277801064
 10
236.9515835087
 20
37.3462520079
 10
237.0860259234
 20
36.4270531259
 10
237.3085125831
 20
35.5799271972
 10
237.6166850737
 20
34.8138539675
 10
238.0072766902
 20
34.1369540035
 10
238.4761470644
 20
33.5564026132
 10
239.0183260536
 20
33.0783537859
 10
239.3923794404
 20
32.8336424288
  0
LWPOLYLINE
  5
2A9
330
1F
100
AcDbEntity
  8
0
  6
Continuous
 62
     7
370
    18
100
AcDbPolyline
 90
       24
 70
   128
 43
0.0
 10
251.391404232
 20
53.6188151259
 10
250.8275052039
 20
53.8882102562
 10
250.128746893
 20
54.0903387026
 10
249.3797767402
 20
54.177304881
 10
248.5885340152
 20
54.1481869285
 10
247.763406088
 20
54.0032935025
 10
246.9131395197
 20
53.7441605094
 10
246.0467473476
 20
53.3735348234
 10
245.1734135441
 20
52.8953451689
 10
244.3023956648
 20
52.3146604753
 10
243.442926716
 20
51.6376361447
 10
242.6041172824
 20
50.8714488036
 10
241.7948589525
 20
50.0242202282
 10
241.023730066
 20
49.1049312524
 10
240.2989047809
 20
48.1233265678
 10
239.6280664257
 20
47.0898114285
 10
239.0183260536
 20
46.0153413518
 10
238.4761470644
 20
44.9113059881
 10
238.0072766902
 20
43.7894083867
 10
237.6166850737
 20
42.6615409413
 10
237.3085125831
 20
41.5396593275
 10
237.0860259234
 20
40.4356557694
 10
236.9515835087
 20
39.3612329794
 10
236.906610462
 20
38.3277801064
  0
ARC
  5
2AA
330
1F
100
AcDbEntity
  8
0
  6
Continuous
 62
     7
370
    18
100
AcDbCircle
 10
274.7361223586
 20
29.5204062602
 30
0.0
 40
1.82230605842643
100
AcDbArc
 50
5.2427848865
 51
100.6740307286
  0
LWPOLYLINE
  5
2AB
330
1F
100
AcDbEntity
  8
0
  6
Continuous
 62
     7
370
    18
100
AcDbPolyline
 90
       10
 70
   128
 43
0.0
 10
272.6415783128
 20
22.9944395076
 10
272.5154419883
 20
22.9554703784
 10
272.0018164449
 20
22.8625775817
 10
271.5242186983
 20
22.8853297754
 10
271.09567637
 20
23.0231063388
 10
270.7278789775
 20
23.2721490866
 10
270.430859075
 20
23.6256647817
 10
270.2127185911
 20
24.0740104376
 10
270.0794078296
 20
24.6049563535
 10
270.0345631606
 20
25.2040197089
  0
LWPOLYLINE
  5
2AC
330
1F
100
AcDbEntity
  8
0
  6
Continuous
 62
     7
370
    18
100
AcDbPolyline
 90
       31
 70
   128
 43
0.0
 10
234.7852901184
 20
38.3277801064
 10
234.8298540605
 20
39.4174083197
 10
234.9631298053
 20
40.5483154003
 10
235.1838729931
 20
41.7099423735
 10
235.4900226041
 20
42.8914434413
 10
235.878720202
 20
44.0817872464
 10
236.346336622
 20
45.2698598696
 10
236.8885058556
 20
46.4445685968
 10
237.5001658148
 20
47.5949454892
 10
238.1756055953
 20
48.7102497877
 10
238.9085187978
 20
49.7800681965
 10
239.6920624093
 20
50.7944121094
 10
240.5189206942
 20
51.7438108706
 10
241.3813734994
 20
52.6194001997
 10
242.2713683356
 20
53.4130049549
 10
243.1805955606
 20
54.1172154627
 10
244.1005659649
 20
54.725456699
 10
245.0226900327
 20
55.2320496795
 10
245.93835814
 20
55.632264482
 10
246.8390209404
 20
55.9223644086
 10
247.7162691881
 20
56.0996408746
 10
248.5619122524
 20
56.1624386973
 10
249.368054592
 20
56.1101715503
 10
250.127169473
 20
55.9433274381
 10
250.8321692443
 20
55.6634641389
 10
251.4764715131
 20
55.2731946612
 10
252.0540606025
 20
54.7761628458
 10
252.5595437189
 20
54.1770093449
 10
252.9882013027
 20
53.4813282933
 10
253.3360310935
 20
52.6956150776
 10
253.4233245645
 20
52.445812486
  0
LWPOLYLINE
  5
2AD
330
1F
100
AcDbEntity
  8
0
  6
Continuous
 62
     7
370
    18
100
AcDbPolyline
 90
       15
 70
   128
 43
0.0
 10
241.4242997729
 20
31.6606397889
 10
241.3813734994
 20
31.6518357806
 10
240.5189206942
 20
31.5316582962
 10
239.6920624093
 20
31.5263868025
 10
238.9085187978
 20
31.6360705178
 10
238.1756055953
 20
31.8596853549
 10
237.5001658148
 20
32.1951434823
 10
236.8885058556
 20
32.6393128179
 10
236.346336622
 20
33.1880462723
 10
235.878720202
 20
33.8362204689
 10
235.4900226041
 20
34.5777835801
 10
235.1838729931
 20
35.4058118308
 10
234.9631298053
 20
36.3125741444
 10
234.8298540605
 20
37.2896043255
 10
234.7852901184
 20
38.3277801064
  0
LWPOLYLINE
  5
2AE
330
1F
100
AcDbEntity
  8
0
  6
Continuous
 62
     7
370
    18
100
AcDbPolyline
 90
       28
 70
   128
 43
0.0
 10
226.909888343
 20
41.0474396289
 10
226.9546867737
 20
42.2251942121
 10
227.0887213751
 20
43.4451893751
 10
227.3109129795
 20
44.697602434
 10
227.6194726307
 20
45.9723496954
 10
228.0119159878
 20
47.2591676439
 10
228.4850833276
 20
48.5476955779
 10
229.035164985
 20
49.8275590282
 10
229.657732026
 20
51.0884532869
 10
230.3477719066
 20
52.3202263747
 10
231.0997288316
 20
53.5129607791
 10
231.907548486
 20
54.6570533038
 10
232.7647267808
 20
55.7432923887
 10
233.6643622205
 20
56.7629322753
 10
234.5992114695
 20
57.7077634228
 10
235.5617476713
 20
58.5701786063
 10
236.5442210503
 20
59.3432341659
 10
237.5387213087
 20
60.0207059128
 10
238.5372413151
 20
60.5971392427
 10
239.5317415734
 20
61.0678930535
 10
240.5142149525
 20
61.4291771123
 10
241.4767511543
 20
61.6780825722
 10
242.4116004032
 20
61.8126053929
 10
243.3112358429
 20
61.8316624757
 10
244.1684141378
 20
61.7351003842
 10
244.9762337921
 20
61.5236965795
 10
245.7281907172
 20
61.1991531608
 10
245.9060918393
 20
61.1009949305
  0
LWPOLYLINE
  5
2AF
330
1F
100
AcDbEntity
  8
0
  6
Continuous
 62
     7
370
    18
100
AcDbPolyline
 90
       10
 70
   128
 43
0.0
 10
230.1698707845
 20
33.8421069871
 10
229.657732026
 20
34.1790187568
 10
229.035164985
 20
34.7211124101
 10
228.4850833276
 20
35.3658650975
 10
228.0119159878
 20
36.1080856494
 10
227.6194726307
 20
36.9417981424
 10
227.3109129795
 20
37.8602900136
 10
227.0887213751
 20
38.8561661067
 10
226.9546867737
 20
39.9214082128
 10
226.909888343
 20
41.0474396289
  0
LWPOLYLINE
  5
2B0
330
1F
100
AcDbEntity
  8
0
  6
Continuous
 62
     7
370
    18
100
AcDbPolyline
 90
       13
 70
   128
 43
0.0
 10
231.5339694446
 20
37.7118029027
 10
231.4016544828
 20
38.5040354624
 10
231.3187748597
 20
39.5570980224
 10
231.3288326397
 20
40.6679034036
 10
231.4317328217
 20
41.8259594768
 10
231.6265034607
 20
43.0203278054
 10
231.9113048473
 20
44.2397269649
 10
232.2834468859
 20
45.4726391017
 10
232.7394145029
 20
46.7074187251
 10
233.2749008493
 20
47.9324027051
 10
233.8848479804
 20
49.1360204367
 10
234.5634946313
 20
50.30690313
 10
235.3044306344
 20
51.4339911943
  0
LWPOLYLINE
  5
2B1
330
1F
100
AcDbEntity
  8
0
  6
Continuous
 62
     7
370
    18
100
AcDbPolyline
 90
       17
 70
   128
 43
0.0
 10
232.0457655189
 20
34.7818753539
 10
231.6891823109
 20
35.3267054832
 10
231.2933031861
 20
36.1288199937
 10
230.98457487
 20
37.0202330973
 10
230.7658262199
 20
37.9927768341
 10
230.6390616153
 20
39.0375398496
 10
230.6054425921
 20
40.1449490486
 10
230.665277199
 20
41.3048573132
 10
230.8180171756
 20
42.50663648
 10
231.0622629754
 20
43.7392747252
 10
231.3957765901
 20
44.9914774653
 10
231.8155020565
 20
46.2517708487
 10
232.3175934574
 20
47.5086068895
 10
232.8974501623
 20
48.7504692816
 10
233.5497589822
 20
49.9659789211
 10
234.2685428541
 20
51.1439981728
 10
235.0472156085
 20
52.2737329236
  0
LINE
  5
2B2
330
1F
100
AcDbEntity
  8
0
  6
Continuous
 62
     7
370
    18
100
AcDbLine
 10
238.0391392863
 20
53.6747538489
 30
0.0
 11
238.0806883258
 21
53.718298162
 31
0.0
  0
ARC
  5
2B3
330
1F
100
AcDbEntity
  8
0
  6
Continuous
 62
     7
370
    18
100
AcDbCircle
 10
248.1303409983
 20
44.4908645704
 30
0.0
 40
14.35348911364188
100
AcDbArc
 50
109.9319623821
 51
139.4246774734
  0
LWPOLYLINE
  5
2B4
330
1F
100
AcDbEntity
  8
0
  6
Continuous
 62
     7
370
    18
100
AcDbPolyline
 90
       12
 70
   128
 43
0.0
 10
236.3914088493
 20
53.9458965362
 10
237.3037536292
 20
54.9166321368
 10
238.2490819303
 20
55.8021745321
 10
239.2184871006
 20
56.5941803581
 10
240.2028356414
 20
57.2851875296
 10
241.1928532616
 20
57.8686855459
 10
242.179212257
 20
58.3391768313
 10
243.1526193944
 20
58.6922285319
 10
244.1039034696
 20
58.924514281
 10
245.0241017166
 20
59.033845539
 10
245.9045442526
 20
59.0191922135
 10
246.0303724668
 20
59.0065499053
  0
LINE
  5
2B5
330
1F
100
AcDbEntity
  8
0
  6
Continuous
 62
     7
370
    18
100
AcDbLine
 10
222.4235238345
 20
51.4200473324
 30
0.0
 11
222.729687958
 21
51.0493120627
 31
0.0
  0
LINE
  5
2B6
330
1F
100
AcDbEntity
  8
0
  6
Continuous
 62
     7
370
    18
100
AcDbLine
 10
222.4235238345
 20
43.655936941
 30
0.0
 11
222.729687958
 21
44.3434706451
 31
0.0
  0
LINE
  5
2B7
330
1F
100
AcDbEntity
  8
0
  6
Continuous
 62
     7
370
    18
100
AcDbLine
 10
223.4655981118
 20
44.768302534
 30
0.0
 11
222.7296952842
 21
44.3434748743
 31
0.0
  0
LINE
  5
2B8
330
1F
100
AcDbEntity
  8
0
  6
Continuous
 62
     7
370
    18
100
AcDbLine
 10
223.3990227366
 20
45.5115284272
 30
0.0
 11
222.0897517627
 21
44.7557023821
 31
0.0
  0
LINE
  5
2B9
330
1F
100
AcDbEntity
  8
0
  6
Continuous
 62
     7
370
    18
100
AcDbLine
 10
218.9126731199
 20
46.3301110372
 30
0.0
 11
218.6161856172
 21
45.8340494296
 31
0.0
  0
LINE
  5
2BA
330
1F
100
AcDbEntity
  8
0
  6
Continuous
 62
     7
370
    18
100
AcDbLine
 10
220.7444907485
 20
47.387596845
 30
0.0
 11
218.9127333694
 21
46.3301458185
 31
0.0
  0
LINE
  5
2BB
330
1F
100
AcDbEntity
  8
0
  6
Continuous
 62
     7
370
    18
100
AcDbLine
 10
220.7444907485
 20
47.387596845
 30
0.0
 11
220.8658007101
 21
47.3258460071
 31
0.0
  0
OLE2FRAME
  5
2BC
330
1F
100
AcDbEntity
  8
0
100
AcDbOle2Frame
 70
     2
  3
Paintbrush-Bild
 10
13.8511154363
 20
38.264191557
 30
0.0
 11
51.6290888628
 21
31.9806341108
 31
0.0
 71
     2
 72
     0
 73
     1
 90
    12928
310
80552BED0767C5B32B40DDAF6807D121434000000000000000006FFBDDFB85D0
310
4940DDAF6807D121434000000000000000006FFBDDFB85D04940416F4BD60AFB
310
3F4000000000000000002BED0767C5B32B40416F4BD60AFB3F40000000000000
310
0000000000000100000000010000010000000100000000000100000000320000
310
D0CF11E0A1B11AE1000000000000000000000000000000003E000300FEFF0900
310
0600000000000000000000000100000001000000000000000010000002000000
310
01000000FEFFFFFF0000000000000000FFFFFFFFFFFFFFFFFFFFFFFFFFFFFFFF
310
FFFFFFFFFFFFFFFFFFFFFFFFFFFFFFFFFFFFFFFFFFFFFFFFFFFFFFFFFFFFFFFF
310
FFFFFFFFFFFFFFFFFFFFFFFFFFFFFFFFFFFFFFFFFFFFFFFFFFFFFFFFFFFFFFFF
310
FFFFFFFFFFFFFFFFFFFFFFFFFFFFFFFFFFFFFFFFFFFFFFFFFFFFFFFFFFFFFFFF
310
FFFFFFFFFFFFFFFFFFFFFFFFFFFFFFFFFFFFFFFFFFFFFFFFFFFFFFFFFFFFFFFF
310
FFFFFFFFFFFFFFFFFFFFFFFFFFFFFFFFFFFFFFFFFFFFFFFFFFFFFFFFFFFFFFFF
310
FFFFFFFFFFFFFFFFFFFFFFFFFFFFFFFFFFFFFFFFFFFFFFFFFFFFFFFFFFFFFFFF
310
FFFFFFFFFFFFFFFFFFFFFFFFFFFFFFFFFFFFFFFFFFFFFFFFFFFFFFFFFFFFFFFF
310
FFFFFFFFFFFFFFFFFFFFFFFFFFFFFFFFFFFFFFFFFFFFFFFFFFFFFFFFFFFFFFFF
310
FFFFFFFFFFFFFFFFFFFFFFFFFFFFFFFFFFFFFFFFFFFFFFFFFFFFFFFFFFFFFFFF
310
FFFFFFFFFFFFFFFFFFFFFFFFFFFFFFFFFFFFFFFFFFFFFFFFFFFFFFFFFFFFFFFF
310
FFFFFFFFFFFFFFFFFFFFFFFFFFFFFFFFFFFFFFFFFFFFFFFFFFFFFFFFFFFFFFFF
310
FFFFFFFFFFFFFFFFFFFFFFFFFFFFFFFFFFFFFFFFFFFFFFFFFFFFFFFFFFFFFFFF
310
FFFFFFFFFFFFFFFFFFFFFFFFFFFFFFFFFFFFFFFFFFFFFFFFFFFFFFFFFFFFFFFF
310
FDFFFFFFFEFFFFFFFEFFFFFFFEFFFFFF05000000060000000700000008000000
310
090000000A0000000B0000000C0000000D0000000E0000000F00000010000000
310
11000000120000001300000014000000150000001600000017000000FEFFFFFF
310
FFFFFFFFFFFFFFFFFFFFFFFFFFFFFFFFFFFFFFFFFFFFFFFFFFFFFFFFFFFFFFFF
310
FFFFFFFFFFFFFFFFFFFFFFFFFFFFFFFFFFFFFFFFFFFFFFFFFFFFFFFFFFFFFFFF
310
FFFFFFFFFFFFFFFFFFFFFFFFFFFFFFFFFFFFFFFFFFFFFFFFFFFFFFFFFFFFFFFF
310
FFFFFFFFFFFFFFFFFFFFFFFFFFFFFFFFFFFFFFFFFFFFFFFFFFFFFFFFFFFFFFFF
310
FFFFFFFFFFFFFFFFFFFFFFFFFFFFFFFFFFFFFFFFFFFFFFFFFFFFFFFFFFFFFFFF
310
FFFFFFFFFFFFFFFFFFFFFFFFFFFFFFFFFFFFFFFFFFFFFFFFFFFFFFFFFFFFFFFF
310
FFFFFFFFFFFFFFFFFFFFFFFFFFFFFFFFFFFFFFFFFFFFFFFFFFFFFFFFFFFFFFFF
310
FFFFFFFFFFFFFFFFFFFFFFFFFFFFFFFFFFFFFFFFFFFFFFFFFFFFFFFFFFFFFFFF
310
FFFFFFFFFFFFFFFFFFFFFFFFFFFFFFFFFFFFFFFFFFFFFFFFFFFFFFFFFFFFFFFF
310
FFFFFFFFFFFFFFFFFFFFFFFFFFFFFFFFFFFFFFFFFFFFFFFFFFFFFFFFFFFFFFFF
310
FFFFFFFFFFFFFFFFFFFFFFFFFFFFFFFFFFFFFFFFFFFFFFFFFFFFFFFFFFFFFFFF
310
FFFFFFFFFFFFFFFFFFFFFFFFFFFFFFFFFFFFFFFFFFFFFFFFFFFFFFFFFFFFFFFF
310
FFFFFFFFFFFFFFFFFFFFFFFFFFFFFFFFFFFFFFFFFFFFFFFFFFFFFFFFFFFFFFFF
310
52006F006F007400200045006E00740072007900000000000000000000000000
310
0000000000000000000000000000000000000000000000000000000000000000
310
16000500FFFFFFFFFFFFFFFF020000000A00030000000000C000000000000046
310
000000000000000000000000108A0AC708A7D30103000000C000000000000000
310
01004F006C006500000000000000000000000000000000000000000000000000
310
0000000000000000000000000000000000000000000000000000000000000000
310
0A000200FFFFFFFFFFFFFFFFFFFFFFFF00000000000000000000000000000000
310
0000000000000000000000000000000000000000000000001400000000000000
310
010043006F006D0070004F0062006A0000000000000000000000000000000000
310
0000000000000000000000000000000000000000000000000000000000000000
310
120002010100000003000000FFFFFFFF00000000000000000000000000000000
310
0000000000000000000000000000000000000000010000004D00000000000000
310
01004F006C006500310030004E00610074006900760065000000000000000000
310
0000000000000000000000000000000000000000000000000000000000000000
310
1A000200FFFFFFFFFFFFFFFFFFFFFFFF00000000000000000000000000000000
310
0000000000000000000000000000000000000000040000002426000000000000
310
FEFFFFFF02000000FEFFFFFFFFFFFFFFFFFFFFFFFFFFFFFFFFFFFFFFFFFFFFFF
310
FFFFFFFFFFFFFFFFFFFFFFFFFFFFFFFFFFFFFFFFFFFFFFFFFFFFFFFFFFFFFFFF
310
FFFFFFFFFFFFFFFFFFFFFFFFFFFFFFFFFFFFFFFFFFFFFFFFFFFFFFFFFFFFFFFF
310
FFFFFFFFFFFFFFFFFFFFFFFFFFFFFFFFFFFFFFFFFFFFFFFFFFFFFFFFFFFFFFFF
310
FFFFFFFFFFFFFFFFFFFFFFFFFFFFFFFFFFFFFFFFFFFFFFFFFFFFFFFFFFFFFFFF
310
FFFFFFFFFFFFFFFFFFFFFFFFFFFFFFFFFFFFFFFFFFFFFFFFFFFFFFFFFFFFFFFF
310
FFFFFFFFFFFFFFFFFFFFFFFFFFFFFFFFFFFFFFFFFFFFFFFFFFFFFFFFFFFFFFFF
310
FFFFFFFFFFFFFFFFFFFFFFFFFFFFFFFFFFFFFFFFFFFFFFFFFFFFFFFFFFFFFFFF
310
FFFFFFFFFFFFFFFFFFFFFFFFFFFFFFFFFFFFFFFFFFFFFFFFFFFFFFFFFFFFFFFF
310
FFFFFFFFFFFFFFFFFFFFFFFFFFFFFFFFFFFFFFFFFFFFFFFFFFFFFFFFFFFFFFFF
310
FFFFFFFFFFFFFFFFFFFFFFFFFFFFFFFFFFFFFFFFFFFFFFFFFFFFFFFFFFFFFFFF
310
FFFFFFFFFFFFFFFFFFFFFFFFFFFFFFFFFFFFFFFFFFFFFFFFFFFFFFFFFFFFFFFF
310
FFFFFFFFFFFFFFFFFFFFFFFFFFFFFFFFFFFFFFFFFFFFFFFFFFFFFFFFFFFFFFFF
310
FFFFFFFFFFFFFFFFFFFFFFFFFFFFFFFFFFFFFFFFFFFFFFFFFFFFFFFFFFFFFFFF
310
FFFFFFFFFFFFFFFFFFFFFFFFFFFFFFFFFFFFFFFFFFFFFFFFFFFFFFFFFFFFFFFF
310
FFFFFFFFFFFFFFFFFFFFFFFFFFFFFFFFFFFFFFFFFFFFFFFFFFFFFFFFFFFFFFFF
310
0100000200000000000000000000000000000000000000000000000000000000
310
0000000000000000000000000000000000000000000000000000000000000000
310
0100FEFF030A0000FFFFFFFF0A00030000000000C00000000000004607000000
310
5042727573680007000000504272757368000700000050427275736800F439B2
310
7100000000000000000000000000000000000000000000000000000000000000
310
0000000000000000000000000000000000000000000000000000000000000000
310
0000000000000000000000000000000000000000000000000000000000000000
310
0000000000000000000000000000000000000000000000000000000000000000
310
0000000000000000000000000000000000000000000000000000000000000000
310
0000000000000000000000000000000000000000000000000000000000000000
310
0000000000000000000000000000000000000000000000000000000000000000
310
0000000000000000000000000000000000000000000000000000000000000000
310
0000000000000000000000000000000000000000000000000000000000000000
310
0000000000000000000000000000000000000000000000000000000000000000
310
0000000000000000000000000000000000000000000000000000000000000000
310
0000000000000000000000000000000000000000000000000000000000000000
310
20260000424D0E260000000000003E00000028000000B40200006E0000000100
310
01000000000000000000130B0000130B00000200000002000000000000FFFFFF
310
FFFFFFFFFFFFFFFFFFFFFFFFFFFFFFFFFFFFFFFFFFFFFFFFFFFFFFFFFFFFFFFF
310
FFFFFFFFFFFFFFFFFFFFFFFFFFFFFFFFFFFFFFFFFFFFFFFFFFFFFFFFFFFFFFFF
310
FFFFFFFFFFFFFFFFFFFFFFFFFFFFFFFFFFFFFFFFFFFFFFFFF000FFFFFFFFFFFF
310
FFFFFFFFFFFFFFFFFFFFFFFFFFFFFFFFFFFFFFFFFFFFFFFFFFFFFFFFFFFFFFFF
310
FFFFFFFFFFFFFFFFFFFFFFFFFFFFFFFFFFFFFFFFFFFFFFFFFFFFFFFFFFFFFFFF
310
FFFFFFFFFFFFFFFFFFFFFFFFFFFFFFFFF000FFFFFFFFFFFFFFFFFFFFFFFFFFFF
310
FFFFFFFFFFFFFFFFFFFFFFFFFFFFFFFFFFFFFFFFFFFFFFFFFFFFFFFFFFFFFFFF
310
FFFFFFFFFFFFFFFFFFFFFFFFFFFFFFFFFFFFFFFFFFFFFFFFFFFFFFFFFFFFFFFF
310
FFFFFFFFFFFFFFFFF000FFFFFFFFFFFFFFFFFFFFFFFFFFFFFFFFFFFFFFFFFFFF
310
FFFFFFFFFFFFFFFFFFFFFFFFFFFFFFFFFFFFFFFFFFFFFFFFFFFFFFFFFFFFFFFF
310
FFFFFFFFFFFFFFFFFFFFFFFFFFFFFFFFFFFFFFFFFFFFFFFFFFFFFFFFFFFFFFFF
310
F000FFFFFFFFFFFFFFFFFFFFFFFFFFFFFFFFFFFFFFFFFFFFFFFFFFFFFFFFFFFF
310
FFFFFFFFFFFFFFFFFFFFFFFFFFFFFFFFFFFFFFFFFFFFFFFFFFFFFFFFFFFFFFFF
310
FFFFFFFFFFFFFFFFFFFFFFFFFFFFFFFFFFFFFFFFFFFFFFFFF000FFFFFFFFFFFF
310
FFFFFFFFFFFFFFFFFFFFFFFFFFFFFFFFFFFFFFFFFFFFFFFFFFFFFFFFFFFFFFFF
310
FFFFFFFFFFFFFFFFFFFFFFFFFFFFFFFFFFFFFFFFFFFFFFFFFFFFFFFFFFFFFFFF
310
FFFFFFFFFFFFFFFFFFFFFFFFFFFFFFFFF000FFFFFFFFFFFFFFFFFFFFFFFFFFFF
310
FFFFFFFFFFFFFFFFFFFFFFFFFFFFFFFFFFFFFFFFFFFFFFFFFFFFFFFFFFFFFFFF
310
FFFFFFFFFFFFFFFFFFFFFFFFFFFFFFFFFFFFFFFFFFFFFFFFFFFFFFFFFFFFFFFF
310
FFFFFFFFFFFFFFFFF000FFFFFFFFFFFFFFFFFFFFFFFFFFFFFFFFFFFFFFFFFFFF
310
FFFFFFFFFFFFFFFFFFFFFFFFFFFFFFFFFFFFFFFFFFFFFFFFFFFFFFFFFFFFFFFF
310
FFFFFFFFFFFFFFFFFFFFFFFFFFFFFFFFFFFFFFFFFFFFFFFFFFFFFFFFFFFFFFFF
310
F000FFFFFFFFFFFFFFFFFFFFFFFFFFFFFFFFFFFFFFFFFFFFFFFFFFFFFFFFFFFF
310
FFFFFFFFFFFFFFFFFFFFFFFFFFFFFFFFFFFFFFFFFFFFFFFFFFFFFFFFFFFFFFFF
310
FFFFFFFFFFFFFFFFFFFFFFFFFFFFFFFFFFFFFFFFFFFFFFFFF000FFFFFFFFFFFF
310
FFFFFFFFFFFFFFFFFFFFFFFFFFFFFFFFFFFFFFFFFFFFFFFFFFFFFFFFFFFFFFFF
310
FFFFFFFFFFFFFFFFFFFFFFFFFFFFFFFFFFFFFFFFFFFFFFFFFFFFFFFFFFFFFFFF
310
FFFFFFFFFFFFFFFFFFFFFFFFFFFFFFFFF000FFFFFFFFFFFFFFFFFFFFFFFFFFFF
310
FFFFFFFFFFFFFFFFFFFFFFFFFFFFFFFFFFFFFFFFFFFFFFFFFFFFFFFFFFFFFFFF
310
FFFFFFFFFFFFFFFFFFFFFFFFFFFFFFFFFFFFFFFFFFFFFFFFFFFFFFFFFFFFFFFF
310
FFFFFFFFFFFFFFFFF000FFFFFFFFFFFFFFFFFFFFFFFFFFFFFFFFFFFFFFFFFFFF
310
FFFFFFFFFFFFFFFFFFFFFFFFFFFFFFFFFFFFFFFFFFFFFFFFFFFFFFFFFFFFFFFF
310
FFFFFFFFFFFFFFFFFFFFFFFFFFFFFFFFFFFFFFFFFFFFFFFFFFFFFFFFFFFFFFFF
310
F000FFFFFFFFFFFFFFFFFFFFFFFFFFFFFFFFFFFFFFFFFFFFFFFFFFFFFFFFFFFF
310
FFFFFFFFFFFFFFFFFFFFFFFFFFFFFFFFFFFFFFFFFFFFFFFFFFFFFFFFFFFFFFFF
310
FFFFFFFFFFFFFFFFFFFFFFFFFFFFFFFFFFFFFFFFFFFFFFFFF000FFFFFFFFFFFF
310
FFFFFFFFFFFFFFFFFFFFFFFFFFFFFFFFFFFFFFFFFFFFFFFFFFFFFFFFFFFFFFFF
310
FFFFFFFFFFFFFFFFFFFFFFFFFFFFFFFFFFFFFFFFFFFFFFFFFFFFFFFFFFFFFFFF
310
FFFFFFFFFFFFFFFFFFFFFFFFFFFFFFFFF000FFFFFFFFFFFFFFFFFFFFFFFFFFFF
310
FFFFFFFFFFFFFFFFFFFFFFFFFFFFFFFFFFFFFFFFFFFFFFFFFFFFFFFFFFFFFFFF
310
FFFFFFFFFFFFFFFFFFFFFFFFFFFFFFFFFFFFFFFFFFFFFFFFFFFFFFFFFFFFFFFF
310
FFFFFFFFFFFFFFFFF000FFFFFFFFFFFFFFFFFFFFFFFFFFFFFFFFFFFFFFFFFFFF
310
FFFFFFFFFFFFFFFFFFFFFFFFFFFFFFFFFFFFFFFFFFFFFFFFFFFFFFFFFFFFFFFF
310
FFFFFFFFFFFFFFFFFFFFFFFFFFFFFFFFFFFFFFFFFFFFFFFFFFFFFFFFFFFFFFFF
310
F000FFFFFFFFFFFFFFFFFFFFFFFFFFFFFFFFFFFFFFFFFFFFFFFFFFFFFFFFFFFF
310
FFFFFFFFFFFFFFFFFFFFFFFFFFFFFFFFFFFFFFFFFFFFFFFFFFFFFFFFFFFFFFFF
310
FFFFFFFFFFFFFFFFFFFFFFFFFFFFFFFFFFFFFFFFFFFFFFFFF000FFFFFFFFFFFF
310
FFFFFFFFFFFFFFFFFFFFFFFFFFFFFFFFFFFFFFFFFFFFFFFFFFFFFFFFFFFFFFFF
310
FFFFFFFFFFFFFFFFFFFFFFFFFFFFFFFFFFFFFFFFFFFFFFFFFFFFFFFFFFFFFFFF
310
FFFFFFFFFFFFFFFFFFFFFFFFFFFFFFFFF000FFFFFFFFFFFFFFFFFFFFFFFFFFFF
310
FFFFFFFFFFFFFFFFFFFFFFFFFFFFFFFFFFFFFFFFFFFFFFFFFFFFFFFFFFFFFFFF
310
FFFFFFFFFFFFFFFFFFFFFFFFFFFFFFFFFFFFFFFFFFFFFFFFFFFFFFFFFFFFFFFF
310
FFFFFFFFFFFFFFFFF000FFFFF80003FFFFFFFFFFFFFFFFFFFFFFFFFFFFFFFFFF
310
FFFFF00007FFFFFFFFFF00007FFFFFF800000000000000007FFFFFFFFFFFFFFF
310
FFFFFFFC001FFFFFFFFFFFFFFC001FFFFFFFFFFFFFFFFFFFFFFFFFFE0007FFFF
310
F000FFFF8000007FFFFFFFF8000FFFFFC0007FFFFF80007FFFFF0000007FFFFF
310
FFF8000007FFFFF800000000000000007FFFFFF0001FFFFFFFFFFFC00001FFFF
310
FFFFFFFFC00001FFFFFFFF000000000003FFFFE000007FFFF000FFFE0000000F
310
FFFFFFF0000FFFFF80007FFFFF80007FFFFC0000001FFFFFFFC0000001FFFFF8
310
00000000000000007FFFFFF0001FFFFFFFFFFE0000003FFFFFFFFFFE0000003F
310
FFFFFF000000000003FFFF0000000FFFF000FFF800000003FFFFFFF00007FFFF
310
80007FFFFF80007FFFF000000007FFFFFF000000003FFFF80000000000000000
310
7FFFFFF0001FFFFFFFFFF80000000FFFFFFFFFF80000000FFFFFFF0000000000
310
03FFFC00000003FFF000FFE000000000FFFFFFF00007FFFF80003FFFFF80007F
310
FFC000000001FFFFFC000000001FFFF800000000000000007FFFFFF0001FFFFF
310
FFFFE000000003FFFFFFFFE000000003FFFFFF000000000003FFF000000000FF
310
F000FF80000000007FFFFFF00007FFFF80003FFFFF80007FFF8000000000FFFF
310
F80000000007FFF800000000000000007FFFFFF0001FFFFFFFFFC000000001FF
310
FFFFFFC000000001FFFFFF000000000003FFC0000000007FF000FF0000000000
310
3FFFFFE00007FFFF00003FFFFF80007FFE00000000003FFFF00000000003FFF8
310
00000000000000007FFFFFF0001FFFFFFFFF8000000000FFFFFFFF8000000000
310
FFFFFF000000000003FF80000000003FF000FE00000000001FFFFFE00003FFFF
310
00003FFFFF80007FFC00000000001FFFE00000000001FFF8000001FFFE000000
310
7FFFFFF0001FFFFFFFFE00000000003FFFFFFE00000000003FFFFF0000000000
310
03FF00000000001FF000FC00000000000FFFFFE00003FFFF00001FFFFF80007F
310
F800000000001FFFC00000000000FFF8000001FFFE0000007FFFFFF0001FFFFF
310
FFFC00000000001FFFFFFC00000000001FFFFF000000000003FE00000000000F
310
F000F8000000000007FFFFE00003FFFF00001FFFFF80007FF800000000000FFF
310
800000000000FFF8000001FFFE0000007FFFFFF0001FFFFFFFF800000000000F
310
FFFFF800000000000FFFFF000000000003FC000000000007F000F80000000000
310
03FFFFC00003FFFE00001FFFFF80007FF0000000000007FF0000000000007FF8
310
000001FFFE0000007FFFFFF0001FFFFFFFF0000000000007FFFFF00000000000
310
07FFFF000000000003F8000000000003F000F0000000000003FFFFC00001FFFE
310
00001FFFFF80007FE0000000000007FE0000000000003FF8000001FFFE000000
310
7FFFFFF0001FFFFFFFF0000000000007FFFFF0000000000007FFFF0000000000
310
03F800001F800003F000E00001FFF00001FFFFC00001FFFE00000FFFFF80007F
310
E00001FFE00003FE00001FFF00003FF8000001FFFE0000007FFFFFF0001FFFFF
310
FFE000003E000003FFFFE000003E000003FFFF000000000003F00001FFF80001
310
F000E00007FFFC0001FFFFC00001FFFE00000FFFFF80007FC0000FFFFC0003FC
310
0000FFFFC0001FF8000001FFFE0000007FFFFFF0001FFFFFFFC00003FFE00001
310
FFFFC00003FFE00001FFFF0001FFFFFFFFF00007FFFE0001F000E0000FFFFF00
310
00FFFF800001FFFC00000FFFFF80007FC0001FFFFE0001FC0001FFFFE0001FF8
310
000001FFFE0000007FFFFFF0001FFFFFFF80000FFFF80000FFFF80000FFFF800
310
00FFFF0003FFFFFFFFE0000FFFFF8000F000C0003FFFFF8000FFFF800000FFFC
310
000007FFFF80007F80003FFFFF0001FC0003FFFFF0001FF8000001FFFE000000
310
7FFFFFF0001FFFFFFF80003FFFFE0000FFFF80003FFFFE0000FFFF0003FFFFFF
310
FFE0003FFFFF8000F000C0003FFFFF8000FFFF800000FFFC000007FFFF80007F
310
80007FFFFF8001F80007FFFFF8000FF8000001FFFE0000007FFFFFF0001FFFFF
310
FF00007FFFFF00007FFF00007FFFFF00007FFF0003FFFFFFFFE0003FFFFFC000
310
F000C0007FFFFFC000FFFF000000FFFC000007FFFF80007F8000FFFFFF8000F8
310
000FFFFFF8000FF8000001FFFE0000007FFFFFF0001FFFFFFF0000FFFFFF8000
310
7FFF0000FFFFFF80007FFF0003FFFFFFFFC0007FFFFFC00070008000FFFFFFC0
310
00FFFF000000FFF8000007FFFF80007F8000FFFFFF8000F8000FFFFFF8000FF8
310
000001FFFE0000007FFFFFF0001FFFFFFE0001FFFFFFC0003FFE0001FFFFFFC0
310
003FFF0003FFFFFFFFC0007FFFFFE00070008000FFFFFFC0007FFF0000007FF8
310
000003FFFF80007F0001FFFFFF8000F8000FFFFFF8000FF8000001FFFE000000
310
7FFFFFF0001FFFFFFE0001FFFFFFC0003FFE0001FFFFFFC0003FFF0003FFFFFF
310
FFC000FFFFFFE00070008000FFFFFFC0007FFF0000007FF8000003FFFF80007F
310
0001FFFFFF8000F8001FFFFFF8000FF8000001FFFE0000007FFFFFF0001FFFFF
310
FE0003FFFFFFE0003FFE0003FFFFFFE0003FFF0003FFFFFFFFC000FFFFFFE000
310
70008000FFFFFFC0007FFE0000007FF8000003FFFF80007F0001FFFFFF8000F0
310
001FFFFFF8000FF8000001FFFE0000007FFFFFF0001FFFFFFC0003FFFFFFE000
310
1FFC0003FFFFFFE0001FFF0003FFFFFFFFC000FFFFFFC00070008000FFFFFF80
310
007FFE0000007FF0000003FFFF80007F0001FFFFFF0000F0001FFFFFF8000FF8
310
000001FFFE0000007FFFFFF0001FFFFFFC0007FFFFFFF0001FFC0007FFFFFFF0
310
001FFF0003FFFFFFFFC000FFFFFFC00070008001FFFFFF0000FFFE0000003FF0
310
000001FFFF80007F0001FFFFFF0000F8001FFFFFF0000FF8000001FFFE000000
310
7FFFFFF0001FFFFFFC0007FFFFFFF0001FFC0007FFFFFFF0001FFF0003FFFFFF
310
FFC001FFFFFF80007000FFFFFFFFFE0000FFFE0008003FF0008001FFFF80007F
310
FFFFFFFFFC0000FFFFFFFFFFE0000FF8000001FFFE0000007FFFFFF0001FFFFF
310
F8000FFFFFFFF8000FF8000FFFFFFFF8000FFF0003FFFFFFFFFFFFFFFFFF0000
310
7000FFFFFFFFFC0000FFFC0008003FF0008001FFFF80007FFFFFFFFFF80001FF
310
FFFFFFFF80000FF8000001FFFE0000007FFFFFF0001FFFFFF8000FFFFFFFF800
310
0FF8000FFFFFFFF8000FFF0003FFFFFFFFFFFFFFFFFE0000F000FFFFFFFFE000
310
00FFFC000C003FE000C001FFFF80007FFFFFFFFFC00001FFFFFFFFFE00001FF8
310
000001FFFE0000007FFFFFF0001FFFFFF8000FFFFFFFF8000FF8000FFFFFFFF8
310
000FFF0003FFFFFFFFFFFFFFFFF00000F000FFFFFFFE000001FFFC000C001FE0
310
00C000FFFF80007FFFFFFFFE000001FFFFFFFFE000001FF80FFFFFFFFFFFFFC0
310
7FFFFFF0001FFFFFF8000FFFFFFFF8000FF8000FFFFFFFF8000FFF0003FFFFFF
310
FFFFFFFFFF800000F000FFFFFFC0000001FFFC001C001FE001C000FFFF80007F
310
FFFFFF80000003FFFFFFF80000001FF80FFFFFFFFFFFFFC07FFFFFF0001FFFFF
310
F8001FFFFFFFFC000FF8001FFFFFFFFC000FFF0003FFFFFFFFFFFFFFF0000001
310
F000FFFFF800000001FFF8001C001FE001C000FFFF80007FFFFFF800000003FF
310
FFFF800000003FF80FFFFFFFFFFFFFC07FFFFFF0001FFFFFF8001FFFFFFFFC00
310
0FF8001FFFFFFFFC000FFF0003FFFFFFFFFFFFFE00000001F000FFFFC0000000
310
03FFF8001E001FC001E000FFFF80007FFFFF8000000007FFFFFC000000003FF8
310
0FFFFFFFFFFFFFC07FFFFFF0001FFFFFF8001FFFFFFFFC000FF8001FFFFFFFFC
310
000FFF0003FFFFFFFFFFFFE000000003F000FFFE0000000007FFF8001E000FC0
310
01E0007FFF80007FFFFE0000000007FFFFE0000000007FF80FFFFFFFFFFFFFC0
310
7FFFFFF0001FFFFFF0001FFFFFFFFC0007F0001FFFFFFFFC0007FF0003FFFFFF
310
FFFFFF0000000003F000FFF80000000007FFF8001E000FC003E0007FFF80007F
310
FFF0000000000FFFFF8000000000FFF80FFFFFFFFFFFFFC07FFFFFF0001FFFFF
310
F0001FFFFFFFFC0007F0001FFFFFFFFC0007FF0003FFFFFFFFFFFC0000000007
310
F000FFE0000000000FFFF0003E000FC003E0007FFF80007FFFC0000000001FFF
310
FE0000000001FFF80FFFFFFFFFFFFFC07FFFFFF0001FFFFFF0001FFFFFFFFC00
310
07F0001FFFFFFFFC0007FF0003FFFFFFFFFFF0000000000FF000FFC000000000
310
1FFFF0003F000F8003F0003FFF80007FFF80000000003FFFF80000000003FFF8
310
0FFFFFFFFFFFFFC07FFFFFF0001FFFFFF0001FFFFFFFFC0007F0001FFFFFFFFC
310
0007FF0003FFFFFFFFFFE0000000001FF000FF00000000007FFFF0003F000780
310
03F0003FFF80007FFF00000000007FFFF00000000007FFF80FFFFFFFFFFFFFC0
310
7FFFFFF0001FFFFFF0001FFFFFFFFC0007F0001FFFFFFFFC0007FF0003FFFFFF
310
FFFF80000000007FF000FE0000000000FFFFE0003F00078007F0003FFF80007F
310
FE0000000001FFFFE0000000001FFFF80FFFFFFFFFFFFFC07FFFFFF0001FFFFF
310
F0001FFFFFFFFC0007F0001FFFFFFFFC0007FF0003FFFFFFFFFF0000000000FF
310
F000FC0000000003FFFFE0007F00078007F0003FFF80007FFC0000000007FFFF
310
C0000000007FFFF80FFFFFFFFFFFFFC07FFFFFF0001FFFFFF8001FFFFFFFFC00
310
0FF8001FFFFFFFFC000FFF0003FFFFFFFFFE0000000003FFF000FC000000000F
310
FFFFE0007F80070007F8001FFF80007FF8000000001FFFFF8000000001FFFFF8
310
0FFFFFFFFFFFFFC07FFFFFF0001FFFFFF8001FFFFFFFFC000FF8001FFFFFFFFC
310
000FFF0003FFFFFFFFFC000000000FFFF000F8000000007FFFFFE0007F800700
310
07F8001FFF80007FF000000000FFFFFF800000000FFFFFF80FFFFFFFFFFFFFC0
310
7FFFFFF0001FFFFFF8000FFFFFFFF8000FF8000FFFFFFFF8000FFF0003FFFFFF
310
FFFC000000007FFFF000F800000007FFFFFFC0007F8003000FF8001FFF80007F
310
F000000007FFFFFF000000007FFFFFF80FFFFFFFFFFFFFC07FFFFFF0001FFFFF
310
F8000FFFFFFFF8000FF8000FFFFFFFF8000FFF0003FFFFFFFFF80000000FFFFF
310
F000F0000000FFFFFFFFC000FF8003000FF8001FFF80007FE0000000FFFFFFFF
310
0000000FFFFFFFF8000001FFFE0000007FFFFFF0001FFFFFF8000FFFFFFFF800
310
0FF8000FFFFFFFF8000FFF0003FFFFFFFFF8000000FFFFFFF000F000000FFFFF
310
FFFFC000FFC002000FF8000FFF80007FE000001FFFFFFFFE000001FFFFFFFFF8
310
000001FFFE0000007FFFFFF0001FFFFFF8000FFFFFFFF8000FF8000FFFFFFFF8
310
000FFF0003FFFFFFFFF000001FFFFFFFF000E00000FFFFFFFFFFC000FFC00200
310
0FFC000FFF80007FE00001FFFFFFFFFE00001FFFFFFFFFF8000001FFFE000000
310
7FFFFFF0001FFFFFFC000FFFFFFFF8001FFC000FFFFFFFF8001FFF0003FFFFFF
310
FFF00001FFFFFFFFF000E00007FFFFFFFFFF8000FFC000001FFC000FFF80007F
310
C0000FFFFFFFFFFE0000FFFFFFFFFFF8000001FFFE0000007FFFFFF0001FFFFF
310
FC0007FFFFFFF0001FFC0007FFFFFFF0001FFF0003FFFFFFFFF00007FFFFFFFF
310
F000E0001FFFFFFFFFFF8000FFC000001FFC000FFF80007FC0003FFFFFFFFFFE
310
0001FFFFFFFFFFF8000001FFFE0000007FFFFFF0001FFFFFFC0007FFFFFFF000
310
1FFC0007FFFFFFF0001FFF0003FFFFFFFFF0001FFFFFFFFFF000E0003FFFFF00
310
03FF8001FFE000001FFC0007FF80007FC0007FFFFF0007FC0003FFFFF0003FF8
310
000001FFFE0000007FFFFFF0001FFFFFFC0003FFFFFFE0001FFC0003FFFFFFE0
310
001FFF0003FFFFFFFFF0003FFFFFFFFFF000E0003FFFFF0001FF8001FFE00000
310
1FFE0007FF80007FC0007FFFFE0003FC0007FFFFE0003FF8000001FFFE000000
310
7FFFFFF0001FFFFFFE0003FFFFFFE0003FFE0003FFFFFFE0003FFF0003FFFFFF
310
FFF0003FFFFF8001F000E0003FFFFF0001FF0001FFE000001FFE0007FF80007F
310
C0007FFFFE0003FC0007FFFFE0003FF8000001FFFE0000007FFFFFF0001FFFFF
310
FE0001FFFFFFC0003FFE0001FFFFFFC0003FFF0003FFFFFFFFF0003FFFFF0001
310
F000E0003FFFFF0003FF0001FFE000003FFE0007FF80007FC0007FFFFE0003FC
310
0007FFFFE0003FF8000001FFFE0000007FFFFFF0001FFFFFFF0001FFFFFFC000
310
7FFF0001FFFFFFC0007FFF0003FFFFFFFFF0003FFFFF0001F000E0003FFFFE00
310
03FF0003FFF000003FFE0003FF80007FC0007FFFFC0003FE0007FFFFE0003FF8
310
000001FFFE0000007FFFFFF0001FFFFFFF0000FFFFFF80007FFF0000FFFFFF80
310
007FFF0003FFFFFFFFF0003FFFFF0001F000E0003FFFFE0003FF0003FFF00000
310
3FFF0003FF80007FC0007FFFFC0007FE0007FFFFC0003FF8000001FFFE000000
310
7FFFFFF0001FFFFFFF80007FFFFF0000FFFF80007FFFFF0000FFFF0003FFFFFF
310
FFF0003FFFFF0003F000E0003FFFFC0003FE0003FFF000003FFF0003FF80007F
310
E0003FFFF80007FE0003FFFFC0007FF8000001FFFE0000007FFFFFF0001FFFFF
310
FF80003FFFFE0000FFFF80003FFFFE0000FFFF0003FFFFFFFFF0001FFFFE0003
310
F000F0001FFFF80003FE0003FFF000007FFF0001FF80007FE0003FFFF00007FE
310
0001FFFF80007FF8000001FFFE0000007FFFFFF0001FFFFFFFC0000FFFF80001
310
FFFFC0000FFFF80001FFFF0003FFFFFFFFF0001FFFFC0003F000F0000FFFF000
310
07FE0007FFF800007FFF0001FF80007FE0001FFFE00007FF0000FFFE00007FF8
310
000001FFFE0000007FFFFFF0001FFFFFFFC00003FFE00001FFFFC00003FFE000
310
01FFFF0003FFFFFFFFF8000FFFF80003F000F00003FFC00007FC0007FFF80000
310
7FFF8001FF80007FF00007FF80000FFF00007FF80000FFF8000001FFFE000000
310
7F80000000000001FFE000003E000003FFFFE000003E000003FFFF0003FFFFFF
310
FFF80003FFE00007F000F800000000000FFC0007FFF800007FFF8001FF80007F
310
F000000000000FFF000000000000FFF8000001FFFE0000007F80000000000001
310
FFF0000000000007FFFFF0000000000007FFFF0003FFFFFFFFFC00007E000007
310
F000F800000000000FFC0007FFF80000FFFF8000FF80007FF800000000001FFF
310
800000000001FFF8000001FFFE0000007F80000000000001FFF800000000000F
310
FFFFF800000000000FFFFF0003FFFFFFFFFC00000000000FF000FC0000000000
310
1FFC0007FFFC0000FFFF8000FF80007FF800000000003FFFC00000000001FFF8
310
000001FFFE0000007F80000000000001FFF800000000000FFFFFF80000000000
310
0FFFFF0003FFFFFFFFFE00000000001FF000FE00000000003FF8000FFFFC0000
310
FFFF8000FF80007FFC00000000003FFFC00000000003FFF8000001FFFE000000
310
7F80000000000001FFFC00000000001FFFFFFC00000000001FFFFF0003FFFFFF
310
FFFF00000000001FF000FF00000000003FF8000FFFFC0000FFFFC000FF80007F
310
FE00000000007FFFE00000000007FFF8000001FFFE0000007F80000000000001
310
FFFE00000000003FFFFFFE00000000003FFFFF0003FFFFFFFFFF80000000003F
310
F000FF80000000007FF8000FFFFC0001FFFFC0007F80007FFF0000000000FFFF
310
F0000000000FFFF800000000000000007F80000000000001FFFF8000000000FF
310
FFFFFF8000000000FFFFFF0003FFFFFFFFFFC0000000007FF000FFC000000000
310
FFF8000FFFFE0001FFFFC0007F80007FFF8000000001FFFFF8000000001FFFF8
310
00000000000000007F80000000000001FFFFC000000001FFFFFFFFC000000001
310
FFFFFF0003FFFFFFFFFFE000000000FFF000FFE000000003FFF0001FFFFE0001
310
FFFFC0007F80007FFFC000000007FFFFFE000000003FFFF80000000000000000
310
7F80000000000001FFFFE000000003FFFFFFFFE000000003FFFFFF0003FFFFFF
310
FFFFF000000003FFF000FFF80000000FFFF0001FFFFE0001FFFFE0007F80007F
310
FFF00000000FFFFFFF00000000FFFFF800000000000000007F80000000000001
310
FFFFF80000000FFFFFFFFFF80000000FFFFFFF0003FFFFFFFFFFFC0000000FFF
310
F000FFFE0000003FFFF0001FFFFE0003FFFFE0003F80007FFFFC0000003FFFFF
310
FFC0000003FFFFF800000000000000007F80000000000001FFFFFE0000003FFF
310
FFFFFFFE0000003FFFFFFF0003FFFFFFFFFFFF0000003FFFF000FFFF800000FF
310
FFF0001FFFFF0003FFFFE0003F80007FFFFF000001FFFFFFFFF800001FFFFFF8
310
00000000000000007F80000000000001FFFFFFC00001FFFFFFFFFFFFC00001FF
310
FFFFFF0003FFFFFFFFFFFFC00000FFFFF000FFFFF8000FFFFFFFFFFFFFFFFFFF
310
FFFFFFFFFFFFFFFFFFFFF0001FFFFFFFFFFF0000FFFFFFF80000000000000000
310
7FFFFFFFFFFFFFFFFFFFFFFC001FFFFFFFFFFFFFFC001FFFFFFFFFFFFFFFFFFF
310
FFFFFFFC001FFFFFF000FFFFFFFFFFFFFFFFFFFFFFFFFFFFFFFFFFFFFFFFFFFF
310
FFFFFFFFFFFFFFFFFFFFFFFFFFFFFFFFFFFFFFFFFFFFFFFFFFFFFFFFFFFFFFFF
310
FFFFFFFFFFFFFFFFFFFFFFFFFFFFFFFFFFFFFFFFFFFFFFFFFFFFFFFFFFFFFFFF
310
F000FFFFFFFFFFFFFFFFFFFFFFFFFFFFFFFFFFFFFFFFFFFFFFFFFFFFFFFFFFFF
310
FFFFFFFFFFFFFFFFFFFFFFFFFFFFFFFFFFFFFFFFFFFFFFFFFFFFFFFFFFFFFFFF
310
FFFFFFFFFFFFFFFFFFFFFFFFFFFFFFFFFFFFFFFFFFFFFFFFF000FFFFFFFFFFFF
310
FFFFFFFFFFFFFFFFFFFFFFFFFFFFFFFFFFFFFFFFFFFFFFFFFFFFFFFFFFFFFFFF
310
FFFFFFFFFFFFFFFFFFFFFFFFFFFFFFFFFFFFFFFFFFFFFFFFFFFFFFFFFFFFFFFF
310
FFFFFFFFFFFFFFFFFFFFFFFFFFFFFFFFF000FFFFFFFFFFFFFFFFFFFFFFFFFFFF
310
FFFFFFFFFFFFFFFFFFFFFFFFFFFFFFFFFFFFFFFFFFFFFFFFFFFFFFFFFFFFFFFF
310
FFFFFFFFFFFFFFFFFFFFFFFFFFFFFFFFFFFFFFFFFFFFFFFFFFFFFFFFFFFFFFFF
310
FFFFFFFFFFFFFFFFF000FFFFFFFFFFFFFFFFFFFFFFFFFFFFFFFFFFFFFFFFFFFF
310
FFFFFFFFFFFFFFFFFFFFFFFFFFFFFFFFFFFFFFFFFFFFFFFFFFFFFFFFFFFFFFFF
310
FFFFFFFFFFFFFFFFFFFFFFFFFFFFFFFFFFFFFFFFFFFFFFFFFFFFFFFFFFFFFFFF
310
F000FFFFFFFFFFFFFFFFFFFFFFFFFFFFFFFFFFFFFFFFFFFFFFFFFFFFFFFFFFFF
310
FFFFFFFFFFFFFFFFFFFFFFFFFFFFFFFFFFFFFFFFFFFFFFFFFFFFFFFFFFFFFFFF
310
FFFFFFFFFFFFFFFFFFFFFFFFFFFFFFFFFFFFFFFFFFFFFFFFF000FFFFFFFFFFFF
310
FFFFFFFFFFFFFFFFFFFFFFFFFFFFFFFFFFFFFFFFFFFFFFFFFFFFFFFFFFFFFFFF
310
FFFFFFFFFFFFFFFFFFFFFFFFFFFFFFFFFFFFFFFFFFFFFFFFFFFFFFFFFFFFFFFF
310
FFFFFFFFFFFFFFFFFFFFFFFFFFFFFFFFF000FFFFFFFFFFFFFFFFFFFFFFFFFFFF
310
FFFFFFFFFFFFFFFFFFFFFFFFFFFFFFFFFFFFFFFFFFFFFFFFFFFFFFFFFFFFFFFF
310
FFFFFFFFFFFFFFFFFFFFFFFFFFFFFFFFFFFFFFFFFFFFFFFFFFFFFFFFFFFFFFFF
310
FFFFFFFFFFFFFFFFF000FFFFFFFFFFFFFFFFFFFFFFFFFFFFFFFFFFFFFFFFFFFF
310
FFFFFFFFFFFFFFFFFFFFFFFFFFFFFFFFFFFFFFFFFFFFFFFFFFFFFFFFFFFFFFFF
310
FFFFFFFFFFFFFFFFFFFFFFFFFFFFFFFFFFFFFFFFFFFFFFFFFFFFFFFFFFFFFFFF
310
F000FFFFFFFFFFFFFFFFFFFFFFFFFFFFFFFFFFFFFFFFFFFFFFFFFFFFFFFFFFFF
310
FFFFFFFFFFFFFFFFFFFFFFFFFFFFFFFFFFFFFFFFFFFFFFFFFFFFFFFFFFFFFFFF
310
FFFFFFFFFFFFFFFFFFFFFFFFFFFFFFFFFFFFFFFFFFFFFFFFF000FFFFFFFFFFFF
310
FFFFFFFFFFFFFFFFFFFFFFFFFFFFFFFFFFFFFFFFFFFFFFFFFFFFFFFFFFFFFFFF
310
FFFFFFFFFFFFFFFFFFFFFFFFFFFFFFFFFFFFFFFFFFFFFFFFFFFFFFFFFFFFFFFF
310
FFFFFFFFFFFFFFFFFFFFFFFFFFFFFFFFF000FFFFFFFFFFFFFFFFFFFFFFFFFFFF
310
FFFFFFFFFFFFFFFFFFFFFFFFFFFFFFFFFFFFFFFFFFFFFFFFFFFFFFFFFFFFFFFF
310
FFFFFFFFFFFFFFFFFFFFFFFFFFFFFFFFFFFFFFFFFFFFFFFFFFFFFFFFFFFFFFFF
310
FFFFFFFFFFFFFFFFF000FFFFFFFFFFFFFFFFFFFFFFFFFFFFFFFFFFFFFFFFFFFF
310
FFFFFFFFFFFFFFFFFFFFFFFFFFFFFFFFFFFFFFFFFFFFFFFFFFFFFFFFFFFFFFFF
310
FFFFFFFFFFFFFFFFFFFFFFFFFFFFFFFFFFFFFFFFFFFFFFFFFFFFFFFFFFFFFFFF
310
F000FFFFFFFFFFFFFFFFFFFFFFFFFFFFFFFFFFFFFFFFFFFFFFFFFFFFFFFFFFFF
310
FFFFFFFFFFFFFFFFFFFFFFFFFFFFFFFFFFFFFFFFFFFFFFFFFFFFFFFFFFFFFFFF
310
FFFFFFFFFFFFFFFFFFFFFFFFFFFFFFFFFFFFFFFFFFFFFFFFF000FFFFFFFFFFFF
310
FFFFFFFFFFFFFFFFFFFFFFFFFFFFFFFFFFFFFFFFFFFFFFFFFFFFFFFFFFFFFFFF
310
FFFFFFFFFFFFFFFFFFFFFFFFFFFFFFFFFFFFFFFFFFFFFFFFFFFFFFFFFFFFFFFF
310
FFFFFFFFFFFFFFFFFFFFFFFFFFFFFFFFF000FFFFFFFFFFFFFFFFFFFFFFFFFFFF
310
FFFFFFFFFFFFFFFFFFFFFFFFFFFFFFFFFFFFFFFFFFFFFFFFFFFFFFFFFFFFFFFF
310
FFFFFFFFFFFFFFFFFFFFFFFFFFFFFFFFFFFFFFFFFFFFFFFFFFFFFFFFFFFFFFFF
310
FFFFFFFFFFFFFFFFF000FFFFFFFFFFFFFFFFFFFFFFFFFFFFFFFFFFFFFFFFFFFF
310
FFFFFFFFFFFFFFFFFFFFFFFFFFFFFFFFFFFFFFFFFFFFFFFFFFFFFFFFFFFFFFFF
310
FFFFFFFFFFFFFFFFFFFFFFFFFFFFFFFFFFFFFFFFFFFFFFFFFFFFFFFFFFFFFFFF
310
F000FFFFFFFFFFFFFFFFFFFFFFFFFFFFFFFFFFFFFFFFFFFFFFFFFFFFFFFFFFFF
310
FFFFFFFFFFFFFFFFFFFFFFFFFFFFFFFFFFFFFFFFFFFFFFFFFFFFFFFFFFFFFFFF
310
FFFFFFFFFFFFFFFFFFFFFFFFFFFFFFFFFFFFFFFFFFFFFFFFF000FFFFFFFFFFFF
310
FFFFFFFFFFFFFFFFFFFFFFFFFFFFFFFFFFFFFFFFFFFFFFFFFFFFFFFFFFFFFFFF
310
FFFFFFFFFFFFFFFFFFFFFFFFFFFFFFFFFFFFFFFFFFFFFFFFFFFFFFFFFFFFFFFF
310
FFFFFFFFFFFFFFFFFFFFFFFFFFFFFFFFF000FFFFFFFFFFFFFFFFFFFFFFFFFFFF
310
FFFFFFFFFFFFFFFFFFFFFFFFFFFFFFFFFFFFFFFFFFFFFFFFFFFFFFFFFFFFFFFF
310
FFFFFFFFFFFFFFFFFFFFFFFFFFFFFFFFFFFFFFFFFFFFFFFFFFFFFFFFFFFFFFFF
310
FFFFFFFFFFFFFFFFF000FFFFFFFFFFFFFFFFFFFFFFFFFFFFFFFFFFFFFFFFFFFF
310
FFFFFFFFFFFFFFFFFFFFFFFFFFFFFFFFFFFFFFFFFFFFFFFFFFFFFFFFFFFFFFFF
310
FFFFFFFFFFFFFFFFFFFFFFFFFFFFFFFFFFFFFFFFFFFFFFFFFFFFFFFFFFFFFFFF
310
F000FFFFFFFFFFFFFFFFFFFFFFFFFFFFFFFFFFFFFFFFFFFFFFFFFFFFFFFFFFFF
310
FFFFFFFFFFFFFFFFFFFFFFFFFFFFFFFFFFFFFFFFFFFFFFFFFFFFFFFFFFFFFFFF
310
FFFFFFFFFFFFFFFFFFFFFFFFFFFFFFFFFFFFFFFFFFFFFFFFF000FFFFFFFFFFFF
310
FFFFFFFFFFFFFFFFFFFFFFFFFFFFFFFFFFFFFFFFFFFFFFFFFFFFFFFFFFFFFFFF
310
FFFFFFFFFFFFFFFFFFFFFFFFFFFFFFFFFFFFFFFFFFFFFFFFFFFFFFFFFFFFFFFF
310
FFFFFFFFFFFFFFFFFFFFFFFFFFFFFFFFF0000000000000000000000000000000
310
0000000000000000000000000000000000000000000000000000000000000000
310
0000000000000000000000000000000000000000000000000000000000000000
310
0000000000000000000000000000000000000000000000000000000000000000
310
0000000000000000000000000000000000000000000000000000000000000000
310
0000000000000000000000000000000000000000000000000000000000000000
310
0000000000000000000000000000000000000000000000000000000000000000
310
0000000000000000000000000000000000000000000000000000000000000000
310
0000000000000000000000000000000000000000000000000000000000000000
310
0000000000000000000000000000000000000000000000000000000000000000
310
0000000000000000000000000000000000000000000000000000000000000000
310
0000000000000000000000000000000000000000000000000000000000000000
310
0000000000000000000000000000000000000000000000000000000000000000
310
0000000000000000000000000000000000000000000000000000000000000000
310
0000000000000000000000000000000000000000000000000000000000000000
310
0000000000000000000000000000000000000000000000000000000000000000
  1
OLE
  0
ENDSEC
  0
SECTION
  2
OBJECTS
  0
DICTIONARY
  5
C
330
0
100
AcDbDictionary
281
     1
  3
ACAD_GROUP
350
D
  3
ACAD_LAYOUT
350
1A
  3
ACAD_MLINESTYLE
350
17
  3
ACAD_PLOTSETTINGS
350
19
  3
ACAD_PLOTSTYLENAME
350
E
  3
ACAD_SCALELIST
350
47
  0
DICTIONARY
  5
D
102
{ACAD_REACTORS
330
C
102
}
330
C
100
AcDbDictionary
281
     1
  0
DICTIONARY
  5
1A
102
{ACAD_REACTORS
330
C
102
}
330
C
100
AcDbDictionary
281
     1
  3
Layout1
350
1E
  3
Layout2
350
26
  3
Model
350
22
  0
DICTIONARY
  5
17
102
{ACAD_REACTORS
330
C
102
}
330
C
100
AcDbDictionary
281
     1
  3
Standard
350
18
  0
DICTIONARY
  5
19
102
{ACAD_REACTORS
330
C
102
}
330
C
100
AcDbDictionary
281
     1
  0
ACDBDICTIONARYWDFLT
  5
E
102
{ACAD_REACTORS
330
C
102
}
330
C
100
AcDbDictionary
281
     1
  3
Normal
350
F
100
AcDbDictionaryWithDefault
340
F
  0
DICTIONARY
  5
47
102
{ACAD_REACTORS
330
C
102
}
330
C
100
AcDbDictionary
281
     1
  3
A0
350
48
  3
A1
350
49
  3
A2
350
4A
  3
A3
350
4B
  3
A4
350
4C
  3
A5
350
4D
  3
A6
350
4E
  3
A7
350
4F
  3
A8
350
50
  3
A9
350
51
  3
B0
350
52
  3
B1
350
53
  3
B2
350
54
  3
B3
350
55
  3
B4
350
56
  3
B5
350
57
  3
B6
350
58
  3
B7
350
59
  3
B8
350
5A
  3
B9
350
5B
  3
C0
350
5C
  3
C1
350
5D
  3
C2
350
5E
  3
C3
350
5F
  3
C4
350
60
  3
C5
350
61
  3
C6
350
62
  3
C7
350
63
  3
C8
350
64
  3
C9
350
65
  3
D0
350
66
  3
D1
350
67
  3
D2
350
68
  0
LAYOUT
  5
1E
102
{ACAD_REACTORS
330
1A
102
}
330
1A
100
AcDbPlotSettings
  1

  2
none_device
  4

  6

 40
0.0
 41
0.0
 42
0.0
 43
0.0
 44
0.0
 45
0.0
 46
0.0
 47
0.0
 48
0.0
 49
0.0
140
0.0
141
0.0
142
1.0
143
1.0
 70
   688
 72
     1
 73
     0
 74
     5
  7

 75
    16
147
1.0
148
0.0
149
0.0
100
AcDbLayout
  1
Layout1
 70
     1
 71
     1
 10
0.0
 20
0.0
 11
420.0
 21
297.0
 12
0.0
 22
0.0
 32
0.0
 14
1.0000000000E+20
 24
1.0000000000E+20
 34
1.0000000000E+20
 15
-1.0000000000E+20
 25
-1.0000000000E+20
 35
-1.0000000000E+20
146
0.0
 13
0.0
 23
0.0
 33
0.0
 16
1.0
 26
0.0
 36
0.0
 17
0.0
 27
1.0
 37
0.0
 76
     0
330
1B
  0
LAYOUT
  5
26
102
{ACAD_REACTORS
330
1A
102
}
330
1A
100
AcDbPlotSettings
  1

  2
none_device
  4

  6

 40
0.0
 41
0.0
 42
0.0
 43
0.0
 44
0.0
 45
0.0
 46
0.0
 47
0.0
 48
0.0
 49
0.0
140
0.0
141
0.0
142
1.0
143
1.0
 70
   688
 72
     1
 73
     0
 74
     5
  7

 75
    16
147
1.0
148
0.0
149
0.0
100
AcDbLayout
  1
Layout2
 70
     1
 71
     2
 10
0.0
 20
0.0
 11
0.0
 21
0.0
 12
0.0
 22
0.0
 32
0.0
 14
0.0
 24
0.0
 34
0.0
 15
0.0
 25
0.0
 35
0.0
146
0.0
 13
0.0
 23
0.0
 33
0.0
 16
1.0
 26
0.0
 36
0.0
 17
0.0
 27
1.0
 37
0.0
 76
     0
330
23
  0
LAYOUT
  5
22
102
{ACAD_REACTORS
330
1A
102
}
330
1A
100
AcDbPlotSettings
  1

  2
none_device
  4
Letter_(8.50_x_11.00_Inches)
  6

 40
6.35
 41
6.35
 42
6.35000508
 43
6.35000508
 44
215.9
 45
279.4
 46
0.0
 47
0.0
 48
0.0
 49
0.0
140
0.0
141
0.0
142
1.0
143
1.0
 70
  1712
 72
     1
 73
     0
 74
     0
  7

 75
     0
147
1.0
148
0.0
149
0.0
100
AcDbLayout
  1
Model
 70
     1
 71
     0
 10
0.0
 20
0.0
 11
297.0
 21
210.0
 12
0.0
 22
0.0
 32
0.0
 14
0.0
 24
0.0
 34
0.0
 15
297.0
 25
210.0
 35
0.0
146
0.0
 13
0.0
 23
0.0
 33
0.0
 16
1.0
 26
0.0
 36
0.0
 17
0.0
 27
1.0
 37
0.0
 76
     0
330
1F
331
29
  0
MLINESTYLE
  5
18
102
{ACAD_REACTORS
330
17
102
}
330
17
100
AcDbMlineStyle
  2
Standard
 70
     0
  3

 62
   256
 51
90.0
 52
90.0
 71
     2
 49
0.5
 62
   256
  6
BYLAYER
 49
-0.5
 62
   256
  6
BYLAYER
  0
ACDBPLACEHOLDER
  5
F
102
{ACAD_REACTORS
330
E
102
}
330
E
  0
SCALE
  5
48
102
{ACAD_REACTORS
330
47
102
}
330
47
100
AcDbScale
 70
     0
300
1:1
140
1.0
141
1.0
290
     1
  0
SCALE
  5
49
102
{ACAD_REACTORS
330
47
102
}
330
47
100
AcDbScale
 70
     0
300
1:2
140
1.0
141
2.0
290
     0
  0
SCALE
  5
4A
102
{ACAD_REACTORS
330
47
102
}
330
47
100
AcDbScale
 70
     0
300
1:4
140
1.0
141
4.0
290
     0
  0
SCALE
  5
4B
102
{ACAD_REACTORS
330
47
102
}
330
47
100
AcDbScale
 70
     0
300
1:5
140
1.0
141
5.0
290
     0
  0
SCALE
  5
4C
102
{ACAD_REACTORS
330
47
102
}
330
47
100
AcDbScale
 70
     0
300
1:8
140
1.0
141
8.0
290
     0
  0
SCALE
  5
4D
102
{ACAD_REACTORS
330
47
102
}
330
47
100
AcDbScale
 70
     0
300
1:10
140
1.0
141
10.0
290
     0
  0
SCALE
  5
4E
102
{ACAD_REACTORS
330
47
102
}
330
47
100
AcDbScale
 70
     0
300
1:16
140
1.0
141
16.0
290
     0
  0
SCALE
  5
4F
102
{ACAD_REACTORS
330
47
102
}
330
47
100
AcDbScale
 70
     0
300
1:20
140
1.0
141
20.0
290
     0
  0
SCALE
  5
50
102
{ACAD_REACTORS
330
47
102
}
330
47
100
AcDbScale
 70
     0
300
1:30
140
1.0
141
30.0
290
     0
  0
SCALE
  5
51
102
{ACAD_REACTORS
330
47
102
}
330
47
100
AcDbScale
 70
     0
300
1:40
140
1.0
141
40.0
290
     0
  0
SCALE
  5
52
102
{ACAD_REACTORS
330
47
102
}
330
47
100
AcDbScale
 70
     0
300
1:50
140
1.0
141
50.0
290
     0
  0
SCALE
  5
53
102
{ACAD_REACTORS
330
47
102
}
330
47
100
AcDbScale
 70
     0
300
1:100
140
1.0
141
100.0
290
     0
  0
SCALE
  5
54
102
{ACAD_REACTORS
330
47
102
}
330
47
100
AcDbScale
 70
     0
300
2:1
140
2.0
141
1.0
290
     0
  0
SCALE
  5
55
102
{ACAD_REACTORS
330
47
102
}
330
47
100
AcDbScale
 70
     0
300
4:1
140
4.0
141
1.0
290
     0
  0
SCALE
  5
56
102
{ACAD_REACTORS
330
47
102
}
330
47
100
AcDbScale
 70
     0
300
8:1
140
8.0
141
1.0
290
     0
  0
SCALE
  5
57
102
{ACAD_REACTORS
330
47
102
}
330
47
100
AcDbScale
 70
     0
300
10:1
140
10.0
141
1.0
290
     0
  0
SCALE
  5
58
102
{ACAD_REACTORS
330
47
102
}
330
47
100
AcDbScale
 70
     0
300
100:1
140
100.0
141
1.0
290
     0
  0
SCALE
  5
59
102
{ACAD_REACTORS
330
47
102
}
330
47
100
AcDbScale
 70
     0
300
1/128" = 1'-0"
140
0.0078125
141
12.0
290
     0
  0
SCALE
  5
5A
102
{ACAD_REACTORS
330
47
102
}
330
47
100
AcDbScale
 70
     0
300
1/64" = 1'-0"
140
0.015625
141
12.0
290
     0
  0
SCALE
  5
5B
102
{ACAD_REACTORS
330
47
102
}
330
47
100
AcDbScale
 70
     0
300
1/32" = 1'-0"
140
0.03125
141
12.0
290
     0
  0
SCALE
  5
5C
102
{ACAD_REACTORS
330
47
102
}
330
47
100
AcDbScale
 70
     0
300
1/16" = 1'-0"
140
0.0625
141
12.0
290
     0
  0
SCALE
  5
5D
102
{ACAD_REACTORS
330
47
102
}
330
47
100
AcDbScale
 70
     0
300
3/32" = 1'-0"
140
0.09375
141
12.0
290
     0
  0
SCALE
  5
5E
102
{ACAD_REACTORS
330
47
102
}
330
47
100
AcDbScale
 70
     0
300
1/8" = 1'-0"
140
0.125
141
12.0
290
     0
  0
SCALE
  5
5F
102
{ACAD_REACTORS
330
47
102
}
330
47
100
AcDbScale
 70
     0
300
3/16" = 1'-0"
140
0.1875
141
12.0
290
     0
  0
SCALE
  5
60
102
{ACAD_REACTORS
330
47
102
}
330
47
100
AcDbScale
 70
     0
300
1/4" = 1'-0"
140
0.25
141
12.0
290
     0
  0
SCALE
  5
61
102
{ACAD_REACTORS
330
47
102
}
330
47
100
AcDbScale
 70
     0
300
3/8" = 1'-0"
140
0.375
141
12.0
290
     0
  0
SCALE
  5
62
102
{ACAD_REACTORS
330
47
102
}
330
47
100
AcDbScale
 70
     0
300
1/2" = 1'-0"
140
0.5
141
12.0
290
     0
  0
SCALE
  5
63
102
{ACAD_REACTORS
330
47
102
}
330
47
100
AcDbScale
 70
     0
300
3/4" = 1'-0"
140
0.75
141
12.0
290
     0
  0
SCALE
  5
64
102
{ACAD_REACTORS
330
47
102
}
330
47
100
AcDbScale
 70
     0
300
1" = 1'-0"
140
1.0
141
12.0
290
     0
  0
SCALE
  5
65
102
{ACAD_REACTORS
330
47
102
}
330
47
100
AcDbScale
 70
     0
300
1-1/2" = 1'-0"
140
1.5
141
12.0
290
     0
  0
SCALE
  5
66
102
{ACAD_REACTORS
330
47
102
}
330
47
100
AcDbScale
 70
     0
300
3" = 1'-0"
140
3.0
141
12.0
290
     0
  0
SCALE
  5
67
102
{ACAD_REACTORS
330
47
102
}
330
47
100
AcDbScale
 70
     0
300
6" = 1'-0"
140
6.0
141
12.0
290
     0
  0
SCALE
  5
68
102
{ACAD_REACTORS
330
47
102
}
330
47
100
AcDbScale
 70
     0
300
1'-0" = 1'-0"
140
12.0
141
12.0
290
     0
  0
ENDSEC
  0
EOF
