  0
SECTION
  2
HEADER
  9
$ACADVER
  1
AC1015
  9
$ACADMAINTVER
 70
     6
  9
$DWGCODEPAGE
  3
ANSI_1252
  9
$INSBASE
 10
0.0
 20
0.0
 30
0.0
  9
$EXTMIN
 10
0.0
 20
0.0
 30
0.0
  9
$EXTMAX
 10
297.0
 20
210.0
 30
0.0
  9
$LIMMIN
 10
0.0
 20
0.0
  9
$LIMMAX
 10
297.0
 20
210.0
  9
$ORTHOMODE
 70
     0
  9
$REGENMODE
 70
     1
  9
$FILLMODE
 70
     1
  9
$QTEXTMODE
 70
     0
  9
$MIRRTEXT
 70
     1
  9
$LTSCALE
 40
1.0
  9
$ATTMODE
 70
     1
  9
$TEXTSIZE
 40
2.0
  9
$TRACEWID
 40
1.0
  9
$TEXTSTYLE
  7
Standard
  9
$CLAYER
  8
0
  9
$CELTYPE
  6
ByLayer
  9
$CECOLOR
 62
   256
  9
$CELTSCALE
 40
1.0
  9
$DISPSILH
 70
     0
  9
$DIMSCALE
 40
1.0
  9
$DIMASZ
 40
3.0
  9
$DIMEXO
 40
0.0
  9
$DIMDLI
 40
3.75
  9
$DIMRND
 40
0.0
  9
$DIMDLE
 40
0.0
  9
$DIMEXE
 40
1.0
  9
$DIMTP
 40
0.0
  9
$DIMTM
 40
0.0
  9
$DIMTXT
 40
2.0
  9
$DIMCEN
 40
2.5
  9
$DIMTSZ
 40
0.0
  9
$DIMTOL
 70
     0
  9
$DIMLIM
 70
     0
  9
$DIMTIH
 70
     1
  9
$DIMTOH
 70
     1
  9
$DIMSE1
 70
     0
  9
$DIMSE2
 70
     0
  9
$DIMTAD
 70
     1
  9
$DIMZIN
 70
     0
  9
$DIMBLK
  1

  9
$DIMASO
 70
     1
  9
$DIMSHO
 70
     1
  9
$DIMPOST
  1

  9
$DIMAPOST
  1

  9
$DIMALT
 70
     0
  9
$DIMALTD
 70
     3
  9
$DIMALTF
 40
0.0393700787
  9
$DIMLFAC
 40
2.0
  9
$DIMTOFL
 70
     1
  9
$DIMTVP
 40
0.0
  9
$DIMTIX
 70
     0
  9
$DIMSOXD
 70
     0
  9
$DIMSAH
 70
     0
  9
$DIMBLK1
  1

  9
$DIMBLK2
  1

  9
$DIMSTYLE
  2
ISO-25
  9
$DIMCLRD
 70
     0
  9
$DIMCLRE
 70
     0
  9
$DIMCLRT
 70
     0
  9
$DIMTFAC
 40
1.0
  9
$DIMGAP
 40
1.524
  9
$DIMJUST
 70
     0
  9
$DIMSD1
 70
     0
  9
$DIMSD2
 70
     0
  9
$DIMTOLJ
 70
     0
  9
$DIMTZIN
 70
     0
  9
$DIMALTZ
 70
     0
  9
$DIMALTTZ
 70
     0
  9
$DIMUPT
 70
     0
  9
$DIMDEC
 70
     2
  9
$DIMTDEC
 70
     3
  9
$DIMALTU
 70
     2
  9
$DIMALTTD
 70
     3
  9
$DIMTXSTY
  7
Standard
  9
$DIMAUNIT
 70
     0
  9
$DIMADEC
 70
     2
  9
$DIMALTRND
 40
0.0
  9
$DIMAZIN
 70
     0
  9
$DIMDSEP
 70
    44
  9
$DIMATFIT
 70
     3
  9
$DIMFRAC
 70
     0
  9
$DIMLDRBLK
  1

  9
$DIMLUNIT
 70
     2
  9
$DIMLWD
 70
    -2
  9
$DIMLWE
 70
    -2
  9
$DIMTMOVE
 70
     0
  9
$LUNITS
 70
     2
  9
$LUPREC
 70
     2
  9
$SKETCHINC
 40
1.0
  9
$FILLETRAD
 40
10.0
  9
$AUNITS
 70
     0
  9
$AUPREC
 70
     2
  9
$MENU
  1
.
  9
$ELEVATION
 40
0.0
  9
$PELEVATION
 40
0.0
  9
$THICKNESS
 40
0.0
  9
$LIMCHECK
 70
     0
  9
$CHAMFERA
 40
0.0
  9
$CHAMFERB
 40
0.0
  9
$CHAMFERC
 40
0.0
  9
$CHAMFERD
 40
0.0
  9
$SKPOLY
 70
     0
  9
$TDCREATE
 40
2458166.434811771
  9
$TDUCREATE
 40
2458166.393145104
  9
$TDUPDATE
 40
2458166.43481478
  9
$TDUUPDATE
 40
2458166.393148114
  9
$TDINDWG
 40
0.0000000116
  9
$TDUSRTIMER
 40
0.0000000116
  9
$USRTIMER
 70
     1
  9
$ANGBASE
 50
0.0
  9
$ANGDIR
 70
     0
  9
$PDMODE
 70
     0
  9
$PDSIZE
 40
-1.0
  9
$PLINEWID
 40
0.0
  9
$SPLFRAME
 70
     0
  9
$SPLINETYPE
 70
     6
  9
$SPLINESEGS
 70
     8
  9
$HANDSEED
  5
2C5
  9
$SURFTAB1
 70
     6
  9
$SURFTAB2
 70
     6
  9
$SURFTYPE
 70
     6
  9
$SURFU
 70
     6
  9
$SURFV
 70
     6
  9
$UCSBASE
  2

  9
$UCSNAME
  2

  9
$UCSORG
 10
0.0
 20
0.0
 30
0.0
  9
$UCSXDIR
 10
1.0
 20
0.0
 30
0.0
  9
$UCSYDIR
 10
0.0
 20
1.0
 30
0.0
  9
$UCSORTHOREF
  2

  9
$UCSORTHOVIEW
 70
     0
  9
$UCSORGTOP
 10
0.0
 20
0.0
 30
0.0
  9
$UCSORGBOTTOM
 10
0.0
 20
0.0
 30
0.0
  9
$UCSORGLEFT
 10
0.0
 20
0.0
 30
0.0
  9
$UCSORGRIGHT
 10
0.0
 20
0.0
 30
0.0
  9
$UCSORGFRONT
 10
0.0
 20
0.0
 30
0.0
  9
$UCSORGBACK
 10
0.0
 20
0.0
 30
0.0
  9
$PUCSBASE
  2

  9
$PUCSNAME
  2

  9
$PUCSORG
 10
0.0
 20
0.0
 30
0.0
  9
$PUCSXDIR
 10
1.0
 20
0.0
 30
0.0
  9
$PUCSYDIR
 10
0.0
 20
1.0
 30
0.0
  9
$PUCSORTHOREF
  2

  9
$PUCSORTHOVIEW
 70
     0
  9
$PUCSORGTOP
 10
0.0
 20
0.0
 30
0.0
  9
$PUCSORGBOTTOM
 10
0.0
 20
0.0
 30
0.0
  9
$PUCSORGLEFT
 10
0.0
 20
0.0
 30
0.0
  9
$PUCSORGRIGHT
 10
0.0
 20
0.0
 30
0.0
  9
$PUCSORGFRONT
 10
0.0
 20
0.0
 30
0.0
  9
$PUCSORGBACK
 10
0.0
 20
0.0
 30
0.0
  9
$USERI1
 70
     0
  9
$USERI2
 70
     0
  9
$USERI3
 70
     0
  9
$USERI4
 70
     0
  9
$USERI5
 70
     0
  9
$USERR1
 40
0.0
  9
$USERR2
 40
0.0
  9
$USERR3
 40
0.0
  9
$USERR4
 40
0.0
  9
$USERR5
 40
0.0
  9
$WORLDVIEW
 70
     1
  9
$SHADEDGE
 70
     3
  9
$SHADEDIF
 70
    70
  9
$TILEMODE
 70
     1
  9
$MAXACTVP
 70
    64
  9
$PINSBASE
 10
0.0
 20
0.0
 30
0.0
  9
$PLIMCHECK
 70
     0
  9
$PEXTMIN
 10
1.0000000000E+20
 20
1.0000000000E+20
 30
1.0000000000E+20
  9
$PEXTMAX
 10
-1.0000000000E+20
 20
-1.0000000000E+20
 30
-1.0000000000E+20
  9
$PLIMMIN
 10
0.0
 20
0.0
  9
$PLIMMAX
 10
420.0
 20
297.0
  9
$UNITMODE
 70
     0
  9
$VISRETAIN
 70
     1
  9
$PLINEGEN
 70
     0
  9
$PSLTSCALE
 70
     1
  9
$TREEDEPTH
 70
  3020
  9
$CMLSTYLE
  2
Standard
  9
$CMLJUST
 70
     0
  9
$CMLSCALE
 40
20.0
  9
$PROXYGRAPHICS
 70
     1
  9
$MEASUREMENT
 70
     1
  9
$CELWEIGHT
370
    -1
  9
$ENDCAPS
280
     0
  9
$JOINSTYLE
280
     0
  9
$LWDISPLAY
290
     1
  9
$INSUNITS
 70
     4
  9
$HYPERLINKBASE
  1

  9
$STYLESHEET
  1

  9
$XEDIT
290
     1
  9
$CEPSNTYPE
380
     0
  9
$PSTYLEMODE
290
     1
  9
$FINGERPRINTGUID
  2
{A89A5E8F-AE28-46BA-9220-D2DA1B280541}
  9
$VERSIONGUID
  2
{FAEB1C32-E019-11D5-929B-00C0DF256EC4}
  9
$EXTNAMES
290
     1
  9
$PSVPSCALE
 40
0.0
  9
$OLESTARTUP
290
     0
  0
ENDSEC
  0
SECTION
  2
CLASSES
  0
CLASS
  1
ACDBDICTIONARYWDFLT
  2
AcDbDictionaryWithDefault
  3
ObjectDBX Classes
 90
        0
280
     0
281
     0
  0
CLASS
  1
VISUALSTYLE
  2
AcDbVisualStyle
  3
ObjectDBX Classes
 90
     4095
280
     0
281
     0
  0
CLASS
  1
MATERIAL
  2
AcDbMaterial
  3
ObjectDBX Classes
 90
     1153
280
     0
281
     0
  0
CLASS
  1
SCALE
  2
AcDbScale
  3
ObjectDBX Classes
 90
     1153
280
     0
281
     0
  0
CLASS
  1
TABLESTYLE
  2
AcDbTableStyle
  3
ObjectDBX Classes
 90
     4095
280
     0
281
     0
  0
CLASS
  1
MLEADERSTYLE
  2
AcDbMLeaderStyle
  3
ACDB_MLEADERSTYLE_CLASS
 90
     4095
280
     0
281
     0
  0
CLASS
  1
SUN
  2
AcDbSun
  3
SCENEOE
 90
     1153
280
     0
281
     0
  0
CLASS
  1
ACDBPLACEHOLDER
  2
AcDbPlaceHolder
  3
ObjectDBX Classes
 90
        0
280
     0
281
     0
  0
CLASS
  1
LAYOUT
  2
AcDbLayout
  3
ObjectDBX Classes
 90
        0
280
     0
281
     0
  0
ENDSEC
  0
SECTION
  2
TABLES
  0
TABLE
  2
VPORT
  5
8
330
0
100
AcDbSymbolTable
 70
     1
  0
VPORT
  5
29
330
8
100
AcDbSymbolTableRecord
100
AcDbViewportTableRecord
  2
*Active
 70
     0
 10
0.0
 20
0.0
 11
1.0
 21
1.0
 12
148.5
 22
105.0
 13
0.0
 23
0.0
 14
10.0
 24
10.0
 15
10.0
 25
10.0
 16
0.0
 26
0.0
 36
1.0
 17
0.0
 27
0.0
 37
0.0
 40
210.0
 41
1.4142857143
 42
50.0
 43
0.0
 44
0.0
 50
0.0
 51
0.0
 71
     0
 72
  2000
 73
     1
 74
     3
 75
     0
 76
     0
 77
     0
 78
     0
281
     0
 65
     1
110
0.0
120
0.0
130
0.0
111
1.0
121
0.0
131
0.0
112
0.0
122
1.0
132
0.0
 79
     0
146
0.0
  0
ENDTAB
  0
TABLE
  2
LTYPE
  5
5
330
0
100
AcDbSymbolTable
 70
     6
  0
LTYPE
  5
14
330
5
100
AcDbSymbolTableRecord
100
AcDbLinetypeTableRecord
  2
ByBlock
 70
     0
  3

 72
    65
 73
     0
 40
0.0
  0
LTYPE
  5
15
330
5
100
AcDbSymbolTableRecord
100
AcDbLinetypeTableRecord
  2
ByLayer
 70
     0
  3

 72
    65
 73
     0
 40
0.0
  0
LTYPE
  5
16
330
5
100
AcDbSymbolTableRecord
100
AcDbLinetypeTableRecord
  2
Continuous
 70
     0
  3
Solid line
 72
    65
 73
     0
 40
0.0
  0
LTYPE
  5
6E
330
5
100
AcDbSymbolTableRecord
100
AcDbLinetypeTableRecord
  2
HIDDEN
 70
     0
  3
Hidden __ __ __ __ __ __ __ __ __ __ __ __ __ __
 72
    65
 73
     2
 40
1.905
 49
1.27
 74
     0
 49
-0.635
 74
     0
  0
LTYPE
  5
6F
330
5
100
AcDbSymbolTableRecord
100
AcDbLinetypeTableRecord
  2
PHANTOM
 70
     0
  3
Phantom ______  __  __  ______  __  __  ______
 72
    65
 73
     6
 40
12.7
 49
6.35
 74
     0
 49
-1.27
 74
     0
 49
1.27
 74
     0
 49
-1.27
 74
     0
 49
1.27
 74
     0
 49
-1.27
 74
     0
  0
LTYPE
  5
70
330
5
100
AcDbSymbolTableRecord
100
AcDbLinetypeTableRecord
  2
CENTER
 70
     0
  3
Center ____ _ ____ _ ____ _ ____ _ ____ _ ____
 72
    65
 73
     4
 40
10.16
 49
6.35
 74
     0
 49
-1.27
 74
     0
 49
1.27
 74
     0
 49
-1.27
 74
     0
  0
LTYPE
  5
71
330
5
100
AcDbSymbolTableRecord
100
AcDbLinetypeTableRecord
  2
CENTERX2
 70
     0
  3
Center (2x) ________  __  ________  __  _____
 72
    65
 73
     4
 40
20.32
 49
12.7
 74
     0
 49
-2.54
 74
     0
 49
2.54
 74
     0
 49
-2.54
 74
     0
  0
LTYPE
  5
72
330
5
100
AcDbSymbolTableRecord
100
AcDbLinetypeTableRecord
  2
DOT2
 70
     0
  3
Dot (.5x) ........................................
 72
    65
 73
     2
 40
0.635
 49
0.0
 74
     0
 49
-0.635
 74
     0
  0
ENDTAB
  0
TABLE
  2
LAYER
  5
2
330
0
100
AcDbSymbolTable
 70
     5
  0
LAYER
  5
10
330
2
100
AcDbSymbolTableRecord
100
AcDbLayerTableRecord
  2
0
 70
     0
 62
     7
  6
Continuous
370
    -3
390
F
  0
LAYER
  5
73
330
2
100
AcDbSymbolTableRecord
100
AcDbLayerTableRecord
  2
FORMAT
 70
     0
 62
     7
  6
Continuous
370
    -3
390
F
  0
LAYER
  5
74
330
2
100
AcDbSymbolTableRecord
100
AcDbLayerTableRecord
  2
VERMASSUNG
 70
     0
 62
     7
  6
Continuous
370
    -3
390
F
  0
LAYER
  5
75
330
2
100
AcDbSymbolTableRecord
100
AcDbLayerTableRecord
  2
KOPF_DÜNN
 70
     0
 62
     7
  6
Continuous
370
    -3
390
F
  0
LAYER
  5
76
330
2
100
AcDbSymbolTableRecord
100
AcDbLayerTableRecord
  2
KOPF_DICK
 70
     0
 62
     7
  6
Continuous
370
    25
390
F
  0
ENDTAB
  0
TABLE
  2
STYLE
  5
3
330
0
100
AcDbSymbolTable
 70
     2
  0
STYLE
  5
11
330
3
100
AcDbSymbolTableRecord
100
AcDbTextStyleTableRecord
  2
Standard
 70
     0
 40
0.0
 41
1.0
 50
0.0
 71
     0
 42
2.0
  3
txt
  4

  0
STYLE
  5
77
330
3
100
AcDbSymbolTableRecord
100
AcDbTextStyleTableRecord
  2
SLDTEXTSTYLE0
 70
     0
 40
0.0
 41
0.7
 50
0.0
 71
     0
 42
2.0
  3
TXT
  4

  0
ENDTAB
  0
TABLE
  2
VIEW
  5
6
330
0
100
AcDbSymbolTable
 70
     0
  0
ENDTAB
  0
TABLE
  2
UCS
  5
7
330
0
100
AcDbSymbolTable
 70
     0
  0
ENDTAB
  0
TABLE
  2
APPID
  5
9
330
0
100
AcDbSymbolTable
 70
     1
  0
APPID
  5
12
330
9
100
AcDbSymbolTableRecord
100
AcDbRegAppTableRecord
  2
ACAD
 70
     0
  0
ENDTAB
  0
TABLE
  2
DIMSTYLE
  5
A
330
0
100
AcDbSymbolTable
 70
     4
100
AcDbDimStyleTable
  0
DIMSTYLE
105
27
330
A
100
AcDbSymbolTableRecord
100
AcDbDimStyleTableRecord
  2
ISO-25
 70
     0
 41
2.5
 42
0.625
 43
3.75
 44
1.25
 73
     0
 74
     0
 77
     1
 78
     8
140
2.5
141
2.5
143
0.0393700787
147
0.625
171
     3
172
     1
178
     0
271
     2
272
     2
274
     3
278
    44
283
     0
284
     8
340
11
  0
DIMSTYLE
105
1F6
102
{ACAD_REACTORS
330
1F5
102
}
330
A
100
AcDbSymbolTableRecord
100
AcDbDimStyleTableRecord
  2
SLDDIMSTYLE0
 70
     0
 41
3.0
 44
0.0
 45
0.000000001
 73
     0
 74
     0
 76
     1
 77
     1
 78
    12
 79
     3
140
2.0
147
0.5
173
     1
178
     0
271
     2
272
     3
276
     2
282
     1
284
    12
340
77
  0
DIMSTYLE
105
200
102
{ACAD_REACTORS
330
1FF
330
219
330
223
330
22D
102
}
330
A
100
AcDbSymbolTableRecord
100
AcDbDimStyleTableRecord
  2
SLDDIMSTYLE1
 70
     0
 41
3.0
 44
0.0
 45
0.000000001
 73
     0
 74
     0
 77
     1
 78
    12
 79
     3
140
2.0
147
0.5
173
     1
178
     0
271
     2
272
     3
276
     2
284
    12
340
77
  0
DIMSTYLE
105
20C
102
{ACAD_REACTORS
330
20B
102
}
330
A
100
AcDbSymbolTableRecord
100
AcDbDimStyleTableRecord
  2
SLDDIMSTYLE2
 70
     0
 41
3.0
 44
0.0
 45
0.000000001
 73
     0
 74
     0
 77
     1
 78
    12
 79
     3
140
2.0
147
0.5
173
     1
178
     0
271
     1
272
     3
276
     2
284
    12
340
77
  0
ENDTAB
  0
TABLE
  2
BLOCK_RECORD
  5
1
330
0
100
AcDbSymbolTable
 70
     7
  0
BLOCK_RECORD
  5
1F
330
1
100
AcDbSymbolTableRecord
100
AcDbBlockTableRecord
  2
*Model_Space
340
22
  0
BLOCK_RECORD
  5
1B
330
1
100
AcDbSymbolTableRecord
100
AcDbBlockTableRecord
  2
*Paper_Space
340
1E
  0
BLOCK_RECORD
  5
23
330
1
100
AcDbSymbolTableRecord
100
AcDbBlockTableRecord
  2
*Paper_Space0
340
26
  0
BLOCK_RECORD
  5
1F7
330
1
100
AcDbSymbolTableRecord
100
AcDbBlockTableRecord
  2
_D
340
0
  0
BLOCK_RECORD
  5
201
330
1
100
AcDbSymbolTableRecord
100
AcDbBlockTableRecord
  2
_D_1
340
0
  0
BLOCK_RECORD
  5
20D
330
1
100
AcDbSymbolTableRecord
100
AcDbBlockTableRecord
  2
_D_2
340
0
  0
BLOCK_RECORD
  5
21A
330
1
100
AcDbSymbolTableRecord
100
AcDbBlockTableRecord
  2
_D_3
340
0
  0
BLOCK_RECORD
  5
224
330
1
100
AcDbSymbolTableRecord
100
AcDbBlockTableRecord
  2
_D_4
340
0
  0
BLOCK_RECORD
  5
22E
330
1
100
AcDbSymbolTableRecord
100
AcDbBlockTableRecord
  2
_D_5
340
0
  0
ENDTAB
  0
ENDSEC
  0
SECTION
  2
BLOCKS
  0
BLOCK
  5
20
330
1F
100
AcDbEntity
  8
0
100
AcDbBlockBegin
  2
*Model_Space
 70
     0
 10
0.0
 20
0.0
 30
0.0
  3
*Model_Space
  1

  0
ENDBLK
  5
21
330
1F
100
AcDbEntity
  8
0
100
AcDbBlockEnd
  0
BLOCK
  5
1C
330
1B
100
AcDbEntity
 67
     1
  8
0
100
AcDbBlockBegin
  2
*Paper_Space
 70
     0
 10
0.0
 20
0.0
 30
0.0
  3
*Paper_Space
  1

  0
ENDBLK
  5
1D
330
1B
100
AcDbEntity
 67
     1
  8
0
100
AcDbBlockEnd
  0
BLOCK
  5
24
330
23
100
AcDbEntity
  8
0
100
AcDbBlockBegin
  2
*Paper_Space0
 70
     0
 10
0.0
 20
0.0
 30
0.0
  3
*Paper_Space0
  1

  0
ENDBLK
  5
25
330
23
100
AcDbEntity
  8
0
100
AcDbBlockEnd
  0
BLOCK
  5
1F8
330
1F7
100
AcDbEntity
  8
0
100
AcDbBlockBegin
  2
_D
 70
     0
 10
0.0
 20
0.0
 30
0.0
  3
_D
  1

  0
SOLID
  5
1FA
330
1F7
100
AcDbEntity
  8
VERMASSUNG
100
AcDbTrace
 10
219.2055920414
 20
118.359286437
 30
0.0
 11
218.7555920414
 21
115.359286437
 31
0.0
 12
219.6555920414
 22
115.359286437
 32
0.0
 13
219.6555920414
 23
115.359286437
 33
0.0
  0
LINE
  5
1FB
330
1F7
100
AcDbEntity
  8
VERMASSUNG
100
AcDbLine
 10
167.7055920414
 20
118.359286437
 30
0.0
 11
220.2055920414
 21
118.359286437
 31
0.0
  0
LINE
  5
1FC
330
1F7
100
AcDbEntity
  8
VERMASSUNG
100
AcDbLine
 10
219.2055920414
 20
118.359286437
 30
0.0
 11
219.2055920414
 21
106.3542863729
 31
0.0
  0
MTEXT
  5
1FD
330
1F7
100
AcDbEntity
  8
VERMASSUNG
100
AcDbMText
 10
216.6274567365
 20
106.3542863729
 30
0.0
 40
2.0
 41
0.0
 71
     1
 72
     1
  1
%%c
  7
SLDTEXTSTYLE0
 11
-7.932373437343760E-15
 21
1.0
 31
0.0
 73
     1
 44
1.0
  0
MTEXT
  5
1FE
330
1F7
100
AcDbEntity
  8
VERMASSUNG
100
AcDbMText
 10
216.4274567852
 20
109.9642863872
 30
0.0
 40
2.0
 41
0.0
 71
     1
 72
     1
  1
18
  7
SLDTEXTSTYLE0
 11
-7.932373437343760E-15
 21
1.0
 31
0.0
 73
     1
 44
1.0
  0
ENDBLK
  5
1F9
330
1F7
100
AcDbEntity
  8
0
100
AcDbBlockEnd
  0
BLOCK
  5
202
330
201
100
AcDbEntity
  8
0
100
AcDbBlockBegin
  2
_D_1
 70
     0
 10
0.0
 20
0.0
 30
0.0
  3
_D_1
  1

  0
SOLID
  5
204
330
201
100
AcDbEntity
  8
VERMASSUNG
100
AcDbTrace
 10
231.2055920414
 20
133.359286437
 30
0.0
 11
230.7555920414
 21
130.359286437
 31
0.0
 12
231.6555920414
 22
130.359286437
 32
0.0
 13
231.6555920414
 23
130.359286437
 33
0.0
  0
SOLID
  5
205
330
201
100
AcDbEntity
  8
VERMASSUNG
100
AcDbTrace
 10
231.2055920414
 20
85.359286437
 30
0.0
 11
231.6555920414
 21
88.359286437
 31
0.0
 12
230.7555920414
 22
88.359286437
 32
0.0
 13
230.7555920414
 23
88.359286437
 33
0.0
  0
LINE
  5
206
330
201
100
AcDbEntity
  8
VERMASSUNG
100
AcDbLine
 10
186.4830574389
 20
133.359286437
 30
0.0
 11
232.2055920414
 21
133.359286437
 31
0.0
  0
LINE
  5
207
330
201
100
AcDbEntity
  8
VERMASSUNG
100
AcDbLine
 10
186.4830574389
 20
85.359286437
 30
0.0
 11
232.2055920414
 21
85.359286437
 31
0.0
  0
LINE
  5
208
330
201
100
AcDbEntity
  8
VERMASSUNG
100
AcDbLine
 10
231.2055920414
 20
133.359286437
 30
0.0
 11
231.2055920414
 21
85.359286437
 31
0.0
  0
MTEXT
  5
209
330
201
100
AcDbEntity
  8
VERMASSUNG
100
AcDbMText
 10
228.6274567365
 20
106.0542864168
 30
0.0
 40
2.0
 41
0.0
 71
     1
 72
     1
  1
%%c
  7
SLDTEXTSTYLE0
 11
-7.932373437343760E-15
 21
1.0
 31
0.0
 73
     1
 44
1.0
  0
MTEXT
  5
20A
330
201
100
AcDbEntity
  8
VERMASSUNG
100
AcDbMText
 10
228.4274567852
 20
109.6642864311
 30
0.0
 40
2.0
 41
0.0
 71
     1
 72
     1
  1
48
  7
SLDTEXTSTYLE0
 11
-7.932373437343760E-15
 21
1.0
 31
0.0
 73
     1
 44
1.0
  0
ENDBLK
  5
203
330
201
100
AcDbEntity
  8
0
100
AcDbBlockEnd
  0
BLOCK
  5
20E
330
20D
100
AcDbEntity
  8
0
100
AcDbBlockBegin
  2
_D_2
 70
     0
 10
0.0
 20
0.0
 30
0.0
  3
_D_2
  1

  0
SOLID
  5
210
330
20D
100
AcDbEntity
  8
VERMASSUNG
100
AcDbTrace
 10
78.4765301595
 20
140.834286437
 30
0.0
 11
78.0265301595
 21
137.834286437
 31
0.0
 12
78.9265301595
 22
137.834286437
 32
0.0
 13
78.9265301595
 23
137.834286437
 33
0.0
  0
SOLID
  5
211
330
20D
100
AcDbEntity
  8
VERMASSUNG
100
AcDbTrace
 10
78.4765301595
 20
77.884286437
 30
0.0
 11
78.9265301595
 21
80.884286437
 31
0.0
 12
78.0265301595
 22
80.884286437
 32
0.0
 13
78.0265301595
 23
80.884286437
 33
0.0
  0
LINE
  5
212
330
20D
100
AcDbEntity
  8
VERMASSUNG
100
AcDbLine
 10
150.439789846
 20
140.834286437
 30
0.0
 11
77.4765301595
 21
140.834286437
 31
0.0
  0
LINE
  5
213
330
20D
100
AcDbEntity
  8
VERMASSUNG
100
AcDbLine
 10
150.439789846
 20
77.884286437
 30
0.0
 11
77.4765301595
 21
77.884286437
 31
0.0
  0
LINE
  5
214
330
20D
100
AcDbEntity
  8
VERMASSUNG
100
AcDbLine
 10
78.4765301595
 20
140.834286437
 30
0.0
 11
78.4765301595
 21
77.884286437
 31
0.0
  0
MTEXT
  5
215
330
20D
100
AcDbEntity
  8
VERMASSUNG
100
AcDbMText
 10
75.6983949033
 20
101.2542878187
 30
0.0
 40
2.0
 41
0.0
 71
     1
 72
     1
  1
KM
  7
SLDTEXTSTYLE0
 11
-7.932373437343760E-15
 21
1.0
 31
0.0
 73
     1
 44
1.0
  0
MTEXT
  5
216
330
20D
100
AcDbEntity
  8
VERMASSUNG
100
AcDbMText
 10
75.8983948546
 20
104.6542876309
 30
0.0
 40
2.0
 41
0.0
 71
     1
 72
     1
  1
%%c
  7
SLDTEXTSTYLE0
 11
-7.932373437343760E-15
 21
1.0
 31
0.0
 73
     1
 44
1.0
  0
MTEXT
  5
217
330
20D
100
AcDbEntity
  8
VERMASSUNG
100
AcDbMText
 10
75.6983949033
 20
108.2642876452
 30
0.0
 40
2.0
 41
0.0
 71
     1
 72
     1
  1
63
  7
SLDTEXTSTYLE0
 11
-7.932373437343760E-15
 21
1.0
 31
0.0
 73
     1
 44
1.0
  0
MTEXT
  5
218
330
20D
100
AcDbEntity
  8
VERMASSUNG
100
AcDbMText
 10
75.6983949033
 20
112.2517875454
 30
0.0
 40
2.0
 41
0.0
 71
     1
 72
     1
  1
XMZ
  7
SLDTEXTSTYLE0
 11
-7.932373437343760E-15
 21
1.0
 31
0.0
 73
     1
 44
1.0
  0
ENDBLK
  5
20F
330
20D
100
AcDbEntity
  8
0
100
AcDbBlockEnd
  0
BLOCK
  5
21B
330
21A
100
AcDbEntity
  8
0
100
AcDbBlockBegin
  2
_D_3
 70
     0
 10
0.0
 20
0.0
 30
0.0
  3
_D_3
  1

  0
SOLID
  5
21D
330
21A
100
AcDbEntity
  8
VERMASSUNG
100
AcDbTrace
 10
155.2055920414
 20
149.0371442663
 30
0.0
 11
158.2055920414
 21
148.5871442663
 31
0.0
 12
158.2055920414
 22
149.4871442663
 32
0.0
 13
158.2055920414
 23
149.4871442663
 33
0.0
  0
SOLID
  5
21E
330
21A
100
AcDbEntity
  8
VERMASSUNG
100
AcDbTrace
 10
197.2055920414
 20
149.0371442663
 30
0.0
 11
194.2055920414
 21
149.4871442663
 31
0.0
 12
194.2055920414
 22
148.5871442663
 32
0.0
 13
194.2055920414
 23
148.5871442663
 33
0.0
  0
LINE
  5
21F
330
21A
100
AcDbEntity
  8
VERMASSUNG
100
AcDbLine
 10
155.2055920414
 20
140.834286437
 30
0.0
 11
155.2055920414
 21
150.0371442663
 31
0.0
  0
LINE
  5
220
330
21A
100
AcDbEntity
  8
VERMASSUNG
100
AcDbLine
 10
197.2055920414
 20
127.0851459154
 30
0.0
 11
197.2055920414
 21
150.0371442663
 31
0.0
  0
LINE
  5
221
330
21A
100
AcDbEntity
  8
VERMASSUNG
100
AcDbLine
 10
155.2055920414
 20
149.0371442663
 30
0.0
 11
197.2055920414
 21
149.0371442663
 31
0.0
  0
MTEXT
  5
222
330
21A
100
AcDbEntity
  8
VERMASSUNG
100
AcDbMText
 10
174.7055920284
 20
151.6152798623
 30
0.0
 40
2.0
 41
0.0
 71
     1
 72
     1
  1
42
  7
SLDTEXTSTYLE0
 73
     1
 44
1.0
  0
ENDBLK
  5
21C
330
21A
100
AcDbEntity
  8
0
100
AcDbBlockEnd
  0
BLOCK
  5
225
330
224
100
AcDbEntity
  8
0
100
AcDbBlockBegin
  2
_D_4
 70
     0
 10
0.0
 20
0.0
 30
0.0
  3
_D_4
  1

  0
SOLID
  5
227
330
224
100
AcDbEntity
  8
VERMASSUNG
100
AcDbTrace
 10
137.2055920414
 20
158.1678992442
 30
0.0
 11
140.2055920414
 21
157.7178992442
 31
0.0
 12
140.2055920414
 22
158.6178992442
 32
0.0
 13
140.2055920414
 23
158.6178992442
 33
0.0
  0
SOLID
  5
228
330
224
100
AcDbEntity
  8
VERMASSUNG
100
AcDbTrace
 10
197.2055920414
 20
158.1678992442
 30
0.0
 11
194.2055920414
 21
158.6178992442
 31
0.0
 12
194.2055920414
 22
157.7178992442
 32
0.0
 13
194.2055920414
 23
157.7178992442
 33
0.0
  0
LINE
  5
229
330
224
100
AcDbEntity
  8
VERMASSUNG
100
AcDbLine
 10
137.2055920414
 20
140.634286437
 30
0.0
 11
137.2055920414
 21
159.1678992442
 31
0.0
  0
LINE
  5
22A
330
224
100
AcDbEntity
  8
VERMASSUNG
100
AcDbLine
 10
197.2055920414
 20
127.0851459154
 30
0.0
 11
197.2055920414
 21
159.1678992442
 31
0.0
  0
LINE
  5
22B
330
224
100
AcDbEntity
  8
VERMASSUNG
100
AcDbLine
 10
137.2055920414
 20
158.1678992442
 30
0.0
 11
197.2055920414
 21
158.1678992442
 31
0.0
  0
MTEXT
  5
22C
330
224
100
AcDbEntity
  8
VERMASSUNG
100
AcDbMText
 10
165.8055920913
 20
160.7460348401
 30
0.0
 40
2.0
 41
0.0
 71
     1
 72
     1
  1
60
  7
SLDTEXTSTYLE0
 73
     1
 44
1.0
  0
ENDBLK
  5
226
330
224
100
AcDbEntity
  8
0
100
AcDbBlockEnd
  0
BLOCK
  5
22F
330
22E
100
AcDbEntity
  8
0
100
AcDbBlockBegin
  2
_D_5
 70
     0
 10
0.0
 20
0.0
 30
0.0
  3
_D_5
  1

  0
SOLID
  5
231
330
22E
100
AcDbEntity
  8
VERMASSUNG
100
AcDbTrace
 10
197.2055920414
 20
166.2755689593
 30
0.0
 11
194.2055920414
 21
166.7255689593
 31
0.0
 12
194.2055920414
 22
165.8255689593
 32
0.0
 13
194.2055920414
 23
165.8255689593
 33
0.0
  0
SOLID
  5
232
330
22E
100
AcDbEntity
  8
VERMASSUNG
100
AcDbTrace
 10
97.2555920414
 20
166.2755689593
 30
0.0
 11
100.2555920414
 21
165.8255689593
 31
0.0
 12
100.2555920414
 22
166.7255689593
 32
0.0
 13
100.2555920414
 23
166.7255689593
 33
0.0
  0
LINE
  5
233
330
22E
100
AcDbEntity
  8
VERMASSUNG
100
AcDbLine
 10
197.2055920414
 20
127.0851459154
 30
0.0
 11
197.2055920414
 21
167.2755689593
 31
0.0
  0
LINE
  5
234
330
22E
100
AcDbEntity
  8
VERMASSUNG
100
AcDbLine
 10
97.2555920414
 20
131.5623811608
 30
0.0
 11
97.2555920414
 21
167.2755689593
 31
0.0
  0
LINE
  5
235
330
22E
100
AcDbEntity
  8
VERMASSUNG
100
AcDbLine
 10
197.2055920414
 20
166.2755689593
 30
0.0
 11
97.2555920414
 21
166.2755689593
 31
0.0
  0
MTEXT
  5
236
330
22E
100
AcDbEntity
  8
VERMASSUNG
100
AcDbMText
 10
144.1305921852
 20
168.8537045552
 30
0.0
 40
2.0
 41
0.0
 71
     1
 72
     1
  1
99.95
  7
SLDTEXTSTYLE0
 73
     1
 44
1.0
  0
ENDBLK
  5
230
330
22E
100
AcDbEntity
  8
0
100
AcDbBlockEnd
  0
ENDSEC
  0
SECTION
  2
ENTITIES
  0
MTEXT
  5
78
330
1F
100
AcDbEntity
  8
KOPF_DÜNN
100
AcDbMText
 10
13.8892156294
 20
23.8442973028
 30
0.0
 40
3.0
 41
0.0
 71
     1
 72
     1
  1
KY6.W18.K01.060
  7
SLDTEXTSTYLE0
 73
     1
 44
1.0
  0
MTEXT
  5
79
330
1F
100
AcDbEntity
  8
VERMASSUNG
100
AcDbMText
 10
13.9329988022
 20
28.8834360957
 30
0.0
 40
3.0
 41
0.0
 71
     1
 72
     1
  1
Flächenspannfutter Weldon_End mill adapter Weldon
  7
SLDTEXTSTYLE0
 73
     1
 44
1.0
  0
MTEXT
  5
7A
330
1F
100
AcDbEntity
  8
VERMASSUNG
100
AcDbMText
 10
98.8601118557
 20
13.8365368761
 30
0.0
 40
2.0
 41
0.0
 71
     1
 72
     1
  1
Datum: 16.02.2018
  7
SLDTEXTSTYLE0
 73
     1
 44
1.0
  0
MTEXT
  5
7B
330
1F
100
AcDbEntity
  8
VERMASSUNG
100
AcDbMText
 10
13.933048693
 20
18.0482802738
 30
0.0
 40
2.0
 41
0.0
 71
     1
 72
     1
  1
KM63 XMZ / Ø18
  7
SLDTEXTSTYLE0
 73
     1
 44
1.0
  0
MTEXT
  5
7C
330
1F
100
AcDbEntity
  8
VERMASSUNG
100
AcDbMText
 10
13.9808475933
 20
13.9090974274
 30
0.0
 40
2.0
 41
0.0
 71
     1
 72
     1
  1
Gewicht: 1091g
  7
SLDTEXTSTYLE0
 73
     1
 44
1.0
  0
SPLINE
  5
7D
330
1F
100
AcDbEntity
  8
0
  6
Continuous
 62
     7
370
    25
100
AcDbSpline
210
0.0
220
0.0
230
1.0
 70
     8
 71
     3
 72
     8
 73
     4
 74
     0
 42
0.000000001
 43
0.00000001
 40
0.0
 40
0.0
 40
0.0
 40
0.0
 40
1.0
 40
1.0
 40
1.0
 40
1.0
 10
380.9762838077714
 20
104.9892855650601
 30
0.0
 10
380.9074454375847
 20
104.9261908917412
 30
0.0
 10
380.8390140771286
 20
104.8624685136104
 30
0.0
 10
380.7709978024639
 20
104.798123081337
 30
0.0
  0
SPLINE
  5
7E
330
1F
100
AcDbEntity
  8
0
  6
Continuous
 62
     7
370
    25
100
AcDbSpline
210
0.0
220
0.0
230
1.0
 70
     8
 71
     3
 72
     8
 73
     4
 74
     0
 42
0.000000001
 43
0.00000001
 40
0.0
 40
0.0
 40
0.0
 40
0.0
 40
1.0
 40
1.0
 40
1.0
 40
1.0
 10
381.2343110490322
 20
104.8200237351328
 30
0.0
 10
381.1476076148717
 20
104.876184654802
 30
0.0
 10
381.0616095673879
 20
104.9326093911279
 30
0.0
 10
380.9762838077714
 20
104.9892855650601
 30
0.0
  0
ARC
  5
7F
330
1F
100
AcDbEntity
  8
0
  6
Continuous
 62
     7
370
    25
100
AcDbCircle
 10
391.3654239174
 20
109.359286437
 30
0.0
 40
11.10154736189901
100
AcDbArc
 50
204.1348482805
 51
335.8651517195
  0
SPLINE
  5
80
330
1F
100
AcDbEntity
  8
0
  6
Continuous
 62
     7
370
    25
100
AcDbSpline
210
0.0
220
0.0
230
1.0
 70
     8
 71
     3
 72
     8
 73
     4
 74
     0
 42
0.000000001
 43
0.00000001
 40
0.0
 40
0.0
 40
0.0
 40
0.0
 40
1.0
 40
1.0
 40
1.0
 40
1.0
 10
401.7545640270372
 20
104.9892855650601
 30
0.0
 10
401.6692382674208
 20
104.9326093911279
 30
0.0
 10
401.5832402199369
 20
104.876184654802
 30
0.0
 10
401.4965367857765
 20
104.8200237351328
 30
0.0
  0
SPLINE
  5
81
330
1F
100
AcDbEntity
  8
0
  6
Continuous
 62
     7
370
    25
100
AcDbSpline
210
0.0
220
0.0
230
1.0
 70
     8
 71
     3
 72
     8
 73
     4
 74
     0
 42
0.000000001
 43
0.00000001
 40
0.0
 40
0.0
 40
0.0
 40
0.0
 40
1.0
 40
1.0
 40
1.0
 40
1.0
 10
401.9598500323448
 20
104.798123081337
 30
0.0
 10
401.89183375768
 20
104.8624685136104
 30
0.0
 10
401.823402397224
 20
104.9261908917412
 30
0.0
 10
401.7545640270372
 20
104.9892855650601
 30
0.0
  0
ARC
  5
82
330
1F
100
AcDbEntity
  8
0
  6
Continuous
 62
     7
370
    25
100
AcDbCircle
 10
391.3654239174
 20
109.359286437
 30
0.0
 40
11.53456006379122
100
AcDbArc
 50
203.2930774359
 51
336.7074733161
  0
ARC
  5
83
330
1F
100
AcDbEntity
  8
0
  6
Continuous
 62
     7
370
    25
100
AcDbCircle
 10
391.3654239174
 20
109.359286437
 30
0.0
 40
11.10154736189899
100
AcDbArc
 50
29.4783538465
 51
150.5216461535
  0
SPLINE
  5
84
330
1F
100
AcDbEntity
  8
0
  6
Continuous
 62
     7
370
    25
100
AcDbSpline
210
0.0
220
0.0
230
1.0
 70
     8
 71
     3
 72
     8
 73
     4
 74
     0
 42
0.000000001
 43
0.00000001
 40
0.0
 40
0.0
 40
0.0
 40
0.0
 40
1.0
 40
1.0
 40
1.0
 40
1.0
 10
381.3894908680799
 20
114.6375856864142
 30
0.0
 10
381.4923867819039
 20
114.6995542955051
 30
0.0
 10
381.5962264514587
 20
114.7611329476457
 30
0.0
 10
381.7010643396853
 20
114.8222991389172
 30
0.0
  0
SPLINE
  5
85
330
1F
100
AcDbEntity
  8
0
  6
Continuous
 62
     7
370
    25
100
AcDbSpline
210
0.0
220
0.0
230
1.0
 70
     8
 71
     3
 72
     8
 73
     4
 74
     0
 42
0.000000001
 43
0.00000001
 40
0.0
 40
0.0
 40
0.0
 40
0.0
 40
1.0
 40
1.0
 40
1.0
 40
1.0
 10
381.200954486966
 20
114.8117755072838
 30
0.0
 10
381.2635227953356
 20
114.7533250381762
 30
0.0
 10
381.3263693886994
 20
114.6952610276431
 30
0.0
 10
381.3894908680823
 20
114.6375856864119
 30
0.0
  0
ARC
  5
86
330
1F
100
AcDbEntity
  8
0
  6
Continuous
 62
     7
370
    25
100
AcDbCircle
 10
391.3654239174
 20
109.359286437
 30
0.0
 40
11.53456006379119
100
AcDbArc
 50
28.2102805322
 51
151.7902347364
  0
SPLINE
  5
87
330
1F
100
AcDbEntity
  8
0
  6
Continuous
 62
     7
370
    25
100
AcDbSpline
210
0.0
220
0.0
230
1.0
 70
     8
 71
     3
 72
     8
 73
     4
 74
     0
 42
0.000000001
 43
0.00000001
 40
0.0
 40
0.0
 40
0.0
 40
0.0
 40
1.0
 40
1.0
 40
1.0
 40
1.0
 10
401.3413569667267
 20
114.6375856864123
 30
0.0
 10
401.4044784461094
 20
114.6952610276433
 30
0.0
 10
401.4673250394731
 20
114.7533250381763
 30
0.0
 10
401.5298933478426
 20
114.8117755072838
 30
0.0
  0
SPLINE
  5
88
330
1F
100
AcDbEntity
  8
0
  6
Continuous
 62
     7
370
    25
100
AcDbSpline
210
0.0
220
0.0
230
1.0
 70
     8
 71
     3
 72
     8
 73
     4
 74
     0
 42
0.000000001
 43
0.00000001
 40
0.0
 40
0.0
 40
0.0
 40
0.0
 40
1.0
 40
1.0
 40
1.0
 40
1.0
 10
401.0297834951234
 20
114.8222991389172
 30
0.0
 10
401.1346213833496
 20
114.7611329476459
 30
0.0
 10
401.2384610529041
 20
114.6995542955056
 30
0.0
 10
401.3413569667276
 20
114.6375856864149
 30
0.0
  0
LINE
  5
89
330
1F
100
AcDbEntity
  8
0
  6
Continuous
 62
     7
370
    25
100
AcDbLine
 10
381.3894908681
 20
114.6375856864
 30
0.0
 11
381.5978991896
 21
114.389286437
 31
0.0
  0
LINE
  5
8A
330
1F
100
AcDbEntity
  8
0
  6
Continuous
 62
     7
370
    25
100
AcDbLine
 10
382.8481125
 20
114.8222991389
 30
0.0
 11
381.7010643397
 21
114.8222991389
 31
0.0
  0
SPLINE
  5
8B
330
1F
100
AcDbEntity
  8
0
  6
Continuous
 62
     7
370
    25
100
AcDbSpline
210
0.0
220
0.0
230
1.0
 70
     8
 71
     3
 72
     8
 73
     4
 74
     0
 42
0.000000001
 43
0.00000001
 40
0.0000004089325119
 40
0.0000004089325119
 40
0.0000004089325119
 40
0.0000004089325119
 40
0.0015399868451459
 40
0.0015399868451459
 40
0.0015399868451459
 40
0.0015399868451459
 10
382.8481124999755
 20
114.8222991389172
 30
0.0
 10
383.0598737587699
 20
114.7498442562638
 30
0.0
 10
383.2717940819601
 20
114.6775053862353
 30
0.0
 10
383.4839120651744
 20
114.6053118408094
 30
0.0
  0
LINE
  5
8C
330
1F
100
AcDbEntity
  8
0
  6
Continuous
 62
     7
370
    25
100
AcDbLine
 10
383.4839120652
 20
114.6053118408
 30
0.0
 11
383.4920648712
 21
114.5900994266
 31
0.0
  0
LINE
  5
8D
330
1F
100
AcDbEntity
  8
0
  6
Continuous
 62
     7
370
    25
100
AcDbLine
 10
383.4896943839
 20
114.3892866064
 30
0.0
 11
383.492065869
 21
114.5900995603
 31
0.0
  0
LINE
  5
8E
330
1F
100
AcDbEntity
  8
0
  6
Continuous
 62
     7
370
    25
100
AcDbLine
 10
383.4896943839
 20
114.389286437
 30
0.0
 11
381.5978991896
 21
114.389286437
 31
0.0
  0
SPLINE
  5
8F
330
1F
100
AcDbEntity
  8
0
  6
Continuous
 62
     7
370
    25
100
AcDbSpline
210
0.0
220
0.0
230
1.0
 70
     8
 71
     3
 72
     8
 73
     4
 74
     0
 42
0.000000001
 43
0.00000001
 40
0.0000004028655191
 40
0.0000004028655191
 40
0.0000004028655191
 40
0.0000004028655191
 40
0.0015137684369673
 40
0.0015137684369673
 40
0.0015137684369673
 40
0.0015137684369673
 10
382.9418292602623
 20
105.0370110332405
 30
0.0
 10
382.735157772711
 20
104.9647170915259
 30
0.0
 10
382.5285388041703
 20
104.8923856055691
 30
0.0
 10
382.3219624293617
 20
104.8200237351328
 30
0.0
  0
LINE
  5
90
330
1F
100
AcDbEntity
  8
0
  6
Continuous
 62
     7
370
    25
100
AcDbLine
 10
382.3219624294
 20
104.8200237351
 30
0.0
 11
381.234311049
 21
104.8200237351
 31
0.0
  0
LINE
  5
91
330
1F
100
AcDbEntity
  8
0
  6
Continuous
 62
     7
370
    25
100
AcDbLine
 10
381.1993389146
 20
105.253036437
 30
0.0
 11
380.9762838078
 21
104.9892855651
 31
0.0
  0
LINE
  5
92
330
1F
100
AcDbEntity
  8
0
  6
Continuous
 62
     7
370
    25
100
AcDbLine
 10
382.9669487419
 20
105.253036437
 30
0.0
 11
381.199553372
 21
105.253036437
 31
0.0
  0
LINE
  5
93
330
1F
100
AcDbEntity
  8
0
  6
Continuous
 62
     7
370
    25
100
AcDbLine
 10
382.9776060921
 20
105.095455402
 30
0.0
 11
382.9669487454
 21
105.2530363614
 31
0.0
  0
SPLINE
  5
94
330
1F
100
AcDbEntity
  8
0
  6
Continuous
 62
     7
370
    25
100
AcDbSpline
210
0.0
220
0.0
230
1.0
 70
     8
 71
     3
 72
     8
 73
     4
 74
     0
 42
0.000000001
 43
0.00000001
 40
0.0006523765358269
 40
0.0006523765358269
 40
0.0006523765358269
 40
0.0006523765358269
 40
0.0009043636494504
 40
0.0009043636494504
 40
0.0009043636494504
 40
0.0009043636494504
 10
382.9787061352971
 20
105.0972491306892
 30
0.0
 10
382.9663891407797
 20
105.077173549707
 30
0.0
 10
382.9540969433756
 20
105.0570941611845
 30
0.0
 10
382.9418292602623
 20
105.0370110332405
 30
0.0
  0
LINE
  5
95
330
1F
100
AcDbEntity
  8
0
  6
Continuous
 62
     7
370
    25
100
AcDbLine
 10
401.754564027
 20
104.9892855651
 30
0.0
 11
401.5315089202
 21
105.253036437
 31
0.0
  0
LINE
  5
96
330
1F
100
AcDbEntity
  8
0
  6
Continuous
 62
     7
370
    25
100
AcDbLine
 10
401.4965367858
 20
104.8200237351
 30
0.0
 11
400.4088854054
 21
104.8200237351
 31
0.0
  0
SPLINE
  5
97
330
1F
100
AcDbEntity
  8
0
  6
Continuous
 62
     7
370
    25
100
AcDbSpline
210
0.0
220
0.0
230
1.0
 70
     8
 71
     3
 72
     8
 73
     4
 74
     0
 42
0.000000001
 43
0.00000001
 40
0.0000004024872366
 40
0.0000004024872366
 40
0.0000004024872366
 40
0.0000004024872366
 40
0.0015137680586847
 40
0.0015137680586847
 40
0.0015137680586847
 40
0.0015137680586847
 10
400.4088854054469
 20
104.8200237351328
 30
0.0
 10
400.2023090306383
 20
104.8923856055691
 30
0.0
 10
399.9956900620977
 20
104.9647170915259
 30
0.0
 10
399.7890185745464
 20
105.0370110332405
 30
0.0
  0
SPLINE
  5
98
330
1F
100
AcDbEntity
  8
0
  6
Continuous
 62
     7
370
    25
100
AcDbSpline
210
0.0
220
0.0
230
1.0
 70
     8
 71
     3
 72
     8
 73
     4
 74
     0
 42
0.000000001
 43
0.00000001
 40
0.0000002414707367
 40
0.0000002414707367
 40
0.0000002414707367
 40
0.0000002414707367
 40
0.0002447240690309
 40
0.0002447240690309
 40
0.0002447240690309
 40
0.0002447240690309
 10
399.7890185745464
 20
105.0370110332405
 30
0.0
 10
399.7771162391913
 20
105.0564960591871
 30
0.0
 10
399.7651908279796
 20
105.0759775650115
 30
0.0
 10
399.7532420826847
 20
105.0954554885234
 30
0.0
  0
LINE
  5
99
330
1F
100
AcDbEntity
  8
0
  6
Continuous
 62
     7
370
    25
100
AcDbLine
 10
399.763899075
 20
105.2530363614
 30
0.0
 11
399.7532417234
 21
105.0954554335
 31
0.0
  0
LINE
  5
9A
330
1F
100
AcDbEntity
  8
0
  6
Continuous
 62
     7
370
    25
100
AcDbLine
 10
401.5315089202
 20
105.253036437
 30
0.0
 11
399.7587904838
 21
105.253036437
 31
0.0
  0
SPLINE
  5
9B
330
1F
100
AcDbEntity
  8
0
  6
Continuous
 62
     7
370
    25
100
AcDbSpline
210
0.0
220
0.0
230
1.0
 70
     8
 71
     3
 72
     8
 73
     4
 74
     0
 42
0.000000001
 43
0.00000001
 40
0.000000410413179
 40
0.000000410413179
 40
0.000000410413179
 40
0.000000410413179
 40
0.0015399883258131
 40
0.0015399883258131
 40
0.0015399883258131
 40
0.0015399883258131
 10
399.2469357696343
 20
114.6053118408094
 30
0.0
 10
399.4590537528485
 20
114.6775053862353
 30
0.0
 10
399.6709740760388
 20
114.7498442562638
 30
0.0
 10
399.8827353348332
 20
114.8222991389172
 30
0.0
  0
LINE
  5
9C
330
1F
100
AcDbEntity
  8
0
  6
Continuous
 62
     7
370
    25
100
AcDbLine
 10
401.0297834951
 20
114.8222991389
 30
0.0
 11
399.8827353348
 21
114.8222991389
 31
0.0
  0
LINE
  5
9D
330
1F
100
AcDbEntity
  8
0
  6
Continuous
 62
     7
370
    25
100
AcDbLine
 10
401.1329486452
 20
114.389286437
 30
0.0
 11
401.3413569667
 21
114.6375856864
 31
0.0
  0
LINE
  5
9E
330
1F
100
AcDbEntity
  8
0
  6
Continuous
 62
     7
370
    25
100
AcDbLine
 10
401.1327585895
 20
114.389286437
 30
0.0
 11
399.2411536516
 21
114.389286437
 31
0.0
  0
LINE
  5
9F
330
1F
100
AcDbEntity
  8
0
  6
Continuous
 62
     7
370
    25
100
AcDbLine
 10
399.2387818647
 20
114.5900993717
 30
0.0
 11
399.2411533749
 21
114.3892866064
 31
0.0
  0
LINE
  5
A0
330
1F
100
AcDbEntity
  8
0
  6
Continuous
 62
     7
370
    25
100
AcDbLine
 10
399.2387828625
 20
114.590099238
 30
0.0
 11
399.2469357696
 21
114.6053118408
 31
0.0
  0
ARC
  5
A1
330
1F
100
AcDbEntity
  8
0
  6
Continuous
 62
     7
370
    25
100
AcDbCircle
 10
391.3654239174
 20
109.359286437
 30
0.0
 40
10.11875
100
AcDbArc
 50
206.6538426687
 51
333.3461573313
  0
ARC
  5
A2
330
1F
100
AcDbEntity
  8
0
  6
Continuous
 62
     7
370
    25
100
AcDbCircle
 10
391.3654239174
 20
109.359286437
 30
0.0
 40
10.11875000000003
100
AcDbArc
 50
32.6761561262
 51
147.3238438738
  0
ARC
  5
A3
330
1F
100
AcDbEntity
  8
0
  6
Continuous
 62
     7
370
    25
100
AcDbCircle
 10
391.3654239174
 20
109.359286437
 30
0.0
 40
9.467788105676675
100
AcDbArc
 50
33.6481949792
 51
146.3518050208
  0
ARC
  5
A4
330
1F
100
AcDbEntity
  8
0
  6
Continuous
 62
     7
370
    25
100
AcDbCircle
 10
391.3654239174
 20
109.359286437
 30
0.0
 40
9.467788105676664
100
AcDbArc
 50
207.1630537883
 51
332.8369462117
  0
SPLINE
  5
A5
330
1F
100
AcDbEntity
  8
0
  6
Continuous
 62
     7
370
    25
100
AcDbSpline
210
0.0
220
0.0
230
1.0
 70
     8
 71
     3
 72
     8
 73
     4
 74
     0
 42
0.000000001
 43
0.00000001
 40
0.0
 40
0.0
 40
0.0
 40
0.0
 40
1.0
 40
1.0
 40
1.0
 40
1.0
 10
380.7709978022739
 20
104.7981230814483
 30
0.0
 10
380.7177549773322
 20
104.7986468076861
 30
0.0
 10
380.6644596917165
 20
104.7994449009485
 30
0.0
 10
380.611114186227
 20
104.8005179488733
 30
0.0
  0
LINE
  5
A6
330
1F
100
AcDbEntity
  8
0
  6
Continuous
 62
     7
370
    25
100
AcDbLine
 10
381.0392017843
 20
105.253036437
 30
0.0
 11
381.1993389146
 21
105.253036437
 31
0.0
  0
LINE
  5
A7
330
1F
100
AcDbEntity
  8
0
  6
Continuous
 62
     7
370
    25
100
AcDbLine
 10
401.5315089202
 20
105.253036437
 30
0.0
 11
401.6916460505
 21
105.253036437
 31
0.0
  0
SPLINE
  5
A8
330
1F
100
AcDbEntity
  8
0
  6
Continuous
 62
     7
370
    25
100
AcDbSpline
210
0.0
220
0.0
230
1.0
 70
     8
 71
     3
 72
     8
 73
     4
 74
     0
 42
0.000000001
 43
0.00000001
 40
0.0
 40
0.0
 40
0.0
 40
0.0
 40
1.0
 40
1.0
 40
1.0
 40
1.0
 10
402.1197336485816
 20
104.8005179488733
 30
0.0
 10
402.0663881430921
 20
104.7994449009485
 30
0.0
 10
402.0130928574765
 20
104.7986468076861
 30
0.0
 10
401.9598500325347
 20
104.7981230814483
 30
0.0
  0
LINE
  5
A9
330
1F
100
AcDbEntity
  8
0
  6
Continuous
 62
     7
370
    25
100
AcDbLine
 10
381.5978991896
 20
114.389286437
 30
0.0
 11
381.4744822058
 21
114.389286437
 31
0.0
  0
SPLINE
  5
AA
330
1F
100
AcDbEntity
  8
0
  6
Continuous
 62
     7
370
    25
100
AcDbSpline
210
0.0
220
0.0
230
1.0
 70
     8
 71
     3
 72
     8
 73
     4
 74
     0
 42
0.000000001
 43
0.00000001
 40
0.0
 40
0.0
 40
0.0
 40
0.0
 40
1.0
 40
1.0
 40
1.0
 40
1.0
 10
381.0777329927246
 20
114.8097319539613
 30
0.0
 10
381.1188484197664
 20
114.8106008916013
 30
0.0
 10
381.1599227143775
 20
114.8112819291842
 30
0.0
 10
381.2009544868666
 20
114.8117755072457
 30
0.0
  0
SPLINE
  5
AB
330
1F
100
AcDbEntity
  8
0
  6
Continuous
 62
     7
370
    25
100
AcDbSpline
210
0.0
220
0.0
230
1.0
 70
     8
 71
     3
 72
     8
 73
     4
 74
     0
 42
0.000000001
 43
0.00000001
 40
0.0
 40
0.0
 40
0.0
 40
0.0
 40
1.0
 40
1.0
 40
1.0
 40
1.0
 10
401.5298933479421
 20
114.8117755072457
 30
0.0
 10
401.5709251204312
 20
114.8112819291842
 30
0.0
 10
401.6119994150422
 20
114.8106008916014
 30
0.0
 10
401.6531148420841
 20
114.8097319539614
 30
0.0
  0
LINE
  5
AC
330
1F
100
AcDbEntity
  8
0
  6
Continuous
 62
     7
370
    25
100
AcDbLine
 10
401.256365629
 20
114.389286437
 30
0.0
 11
401.1329486452
 21
114.389286437
 31
0.0
  0
SPLINE
  5
AD
330
1F
100
AcDbEntity
  8
0
  6
Continuous
 62
     7
370
    25
100
AcDbSpline
210
0.0
220
0.0
230
1.0
 70
     8
 71
     3
 72
     9
 73
     5
 74
     0
 42
0.000000001
 43
0.00000001
 40
0.0
 40
0.0
 40
0.0
 40
0.0
 40
0.4897878789203994
 40
0.9999999999999999
 40
0.9999999999999999
 40
0.9999999999999999
 40
0.9999999999999999
 10
398.4710134820558
 20
114.5824033032627
 30
0.0
 10
398.597368564277
 20
114.583722029016
 30
0.0
 10
398.8553477582491
 20
114.5864144716223
 30
0.0
 10
399.1092425065386
 20
114.5888545494583
 30
0.0
 10
399.2387826845943
 20
114.5900995067466
 30
0.0
  0
ARC
  5
AE
330
1F
100
AcDbEntity
  8
0
  6
Continuous
 62
     7
370
    25
100
AcDbCircle
 10
391.3654239174
 20
109.359286437
 30
0.0
 40
8.818749999999993
100
AcDbArc
 50
36.3185452201
 51
143.6814533294
  0
SPLINE
  5
AF
330
1F
100
AcDbEntity
  8
0
  6
Continuous
 62
     7
370
    25
100
AcDbSpline
210
0.0
220
0.0
230
1.0
 70
     8
 71
     3
 72
     9
 73
     5
 74
     0
 42
0.000000001
 43
0.00000001
 40
0.0
 40
0.0
 40
0.0
 40
0.0
 40
0.5102121239851395
 40
0.9999999999999999
 40
0.9999999999999999
 40
0.9999999999999999
 40
0.9999999999999999
 10
383.4920650490895
 20
114.5900996953509
 30
0.0
 10
383.6216052669404
 20
114.5888547366601
 30
0.0
 10
383.8755000917812
 20
114.586414656089
 30
0.0
 10
384.1334793647909
 20
114.5837222103958
 30
0.0
 10
384.2598344849742
 20
114.5824034831385
 30
0.0
  0
SPLINE
  5
B0
330
1F
100
AcDbEntity
  8
0
  6
Continuous
 62
     7
370
    25
100
AcDbSpline
210
0.0
220
0.0
230
1.0
 70
     8
 71
     3
 72
     8
 73
     4
 74
     0
 42
0.000000001
 43
0.00000001
 40
0.0
 40
0.0
 40
0.0
 40
0.0
 40
1.0
 40
1.0
 40
1.0
 40
1.0
 10
384.2598342312996
 20
114.5824030138613
 30
0.0
 10
384.2520731733542
 20
114.5718447786622
 30
0.0
 10
384.2443356482583
 20
114.5612692451359
 30
0.0
 10
384.2366217328888
 20
114.5506765183565
 30
0.0
  0
SPLINE
  5
B1
330
1F
100
AcDbEntity
  8
0
  6
Continuous
 62
     7
370
    25
100
AcDbSpline
210
0.0
220
0.0
230
1.0
 70
     8
 71
     3
 72
     8
 73
     4
 74
     0
 42
0.000000001
 43
0.00000001
 40
0.0
 40
0.0
 40
0.0
 40
0.0
 40
1.0
 40
1.0
 40
1.0
 40
1.0
 10
384.0650639001258
 20
114.3892867758933
 30
0.0
 10
384.1223243071602
 20
114.443194952881
 30
0.0
 10
384.1795106982699
 20
114.4969918779641
 30
0.0
 10
384.2366217328888
 20
114.5506765183565
 30
0.0
  0
LINE
  5
B2
330
1F
100
AcDbEntity
  8
0
  6
Continuous
 62
     7
370
    25
100
AcDbLine
 10
384.0650645999
 20
114.389286437
 30
0.0
 11
383.4896941072
 21
114.389286437
 31
0.0
  0
SPLINE
  5
B3
330
1F
100
AcDbEntity
  8
0
  6
Continuous
 62
     7
370
    25
100
AcDbSpline
210
0.0
220
0.0
230
1.0
 70
     8
 71
     3
 72
     8
 73
     4
 74
     0
 42
0.000000001
 43
0.00000001
 40
0.0
 40
0.0
 40
0.0
 40
0.0
 40
1.0
 40
1.0
 40
1.0
 40
1.0
 10
398.4943415337009
 20
114.5505180040576
 30
0.0
 10
398.4865894210003
 20
114.5611636807302
 30
0.0
 10
398.4788134623331
 20
114.5717919929244
 30
0.0
 10
398.4710137357296
 20
114.5824028339868
 30
0.0
  0
LINE
  5
B4
330
1F
100
AcDbEntity
  8
0
  6
Continuous
 62
     7
370
    25
100
AcDbLine
 10
399.2411536516
 20
114.389286437
 30
0.0
 11
398.6657546352
 21
114.389286437
 31
0.0
  0
SPLINE
  5
B5
330
1F
100
AcDbEntity
  8
0
  6
Continuous
 62
     7
370
    25
100
AcDbSpline
210
0.0
220
0.0
230
1.0
 70
     8
 71
     3
 72
     8
 73
     4
 74
     0
 42
0.000000001
 43
0.00000001
 40
0.0
 40
0.0
 40
0.0
 40
0.0
 40
1.0
 40
1.0
 40
1.0
 40
1.0
 10
398.4943415337009
 20
114.5505180040576
 30
0.0
 10
398.551404661387
 20
114.4968860536418
 30
0.0
 10
398.6085430411173
 20
114.4431419672769
 30
0.0
 10
398.6657553345912
 20
114.3892867760267
 30
0.0
  0
ARC
  5
B6
330
1F
100
AcDbEntity
  8
0
  6
Continuous
 62
     7
370
    25
100
AcDbCircle
 10
391.3654239174
 20
109.359286437
 30
0.0
 40
8.818750000000053
100
AcDbArc
 50
209.2047569376
 51
330.7952430624
  0
SPLINE
  5
B7
330
1F
100
AcDbEntity
  8
0
  6
Continuous
 62
     7
370
    25
100
AcDbSpline
210
0.0
220
0.0
230
1.0
 70
    24
 71
     3
 72
     8
 73
     4
 74
     0
 42
0.000000001
 43
0.00000001
 40
0.0
 40
0.0
 40
0.0
 40
0.0
 40
0.000136040218399
 40
0.000136040218399
 40
0.000136040218399
 40
0.000136040218399
 10
399.1065593142486
 20
105.0997460061738
 30
0.0
 10
399.0921203145645
 20
105.0853070064897
 30
0.0
 10
399.0776498622023
 20
105.0708365541275
 30
0.0
 10
399.0631482636509
 20
105.056334955576
 30
0.0
  0
SPLINE
  5
B8
330
1F
100
AcDbEntity
  8
0
  6
Continuous
 62
     7
370
    25
100
AcDbSpline
210
0.0
220
0.0
230
1.0
 70
     8
 71
     3
 72
     9
 73
     5
 74
     0
 42
0.000000001
 43
0.00000001
 40
0.0
 40
0.0
 40
0.0
 40
0.0
 40
0.5086448740973026
 40
1.0
 40
1.0
 40
1.0
 40
1.0
 10
399.7532420430049
 20
105.0954554003887
 30
0.0
 10
399.644075994007
 20
105.0961492492337
 30
0.0
 10
399.4294546450913
 20
105.0975133617616
 30
0.0
 10
399.2129433324139
 20
105.0990101816994
 30
0.0
 10
399.106559389114
 20
105.0997456518485
 30
0.0
  0
SPLINE
  5
B9
330
1F
100
AcDbEntity
  8
0
  6
Continuous
 62
     7
370
    25
100
AcDbSpline
210
0.0
220
0.0
230
1.0
 70
     8
 71
     3
 72
     9
 73
     5
 74
     0
 42
0.000000001
 43
0.00000001
 40
0.0
 40
0.0
 40
0.0
 40
0.0
 40
0.4913551252639757
 40
1.0
 40
1.0
 40
1.0
 40
1.0
 10
383.6242884761592
 20
105.0997456213839
 30
0.0
 10
383.5179045247671
 20
105.099010151055
 30
0.0
 10
383.3013931953395
 20
105.0975133307493
 30
0.0
 10
383.0867718299727
 20
105.096149217895
 30
0.0
 10
382.97760577247
 20
105.0954553688831
 30
0.0
  0
SPLINE
  5
BA
330
1F
100
AcDbEntity
  8
0
  6
Continuous
 62
     7
370
    25
100
AcDbSpline
210
0.0
220
0.0
230
1.0
 70
    24
 71
     3
 72
     8
 73
     4
 74
     0
 42
0.000000001
 43
0.00000001
 40
0.0
 40
0.0
 40
0.0
 40
0.0
 40
0.0001360401227241
 40
0.0001360401227241
 40
0.0001360401227241
 40
0.0001360401227241
 10
383.6676995711578
 20
105.056334955576
 30
0.0
 10
383.6531979828051
 20
105.0708365439287
 30
0.0
 10
383.6387275405979
 20
105.0853069861359
 30
0.0
 10
383.6242885510246
 20
105.0997459757093
 30
0.0
  0
LINE
  5
BB
330
1F
100
AcDbEntity
  8
0
  6
Continuous
 62
     7
370
    25
100
AcDbLine
 10
382.9669486234
 20
105.253036437
 30
0.0
 11
383.4709984954
 21
105.253036437
 31
0.0
  0
SPLINE
  5
BC
330
1F
100
AcDbEntity
  8
0
  6
Continuous
 62
     7
370
    25
100
AcDbSpline
210
0.0
220
0.0
230
1.0
 70
     8
 71
     3
 72
     8
 73
     4
 74
     0
 42
0.000000001
 43
0.00000001
 40
0.0
 40
0.0
 40
0.0
 40
0.0
 40
1.0
 40
1.0
 40
1.0
 40
1.0
 10
383.6242887508565
 20
105.0997457761222
 30
0.0
 10
383.573219988252
 20
105.1507882678662
 30
0.0
 10
383.5221230286161
 20
105.2018852398922
 30
0.0
 10
383.4709981871005
 20
105.2530363396334
 30
0.0
  0
SPLINE
  5
BD
330
1F
100
AcDbEntity
  8
0
  6
Continuous
 62
     7
370
    25
100
AcDbSpline
210
0.0
220
0.0
230
1.0
 70
     8
 71
     3
 72
     8
 73
     4
 74
     0
 42
0.000000001
 43
0.00000001
 40
0.0
 40
0.0
 40
0.0
 40
0.0
 40
1.0
 40
1.0
 40
1.0
 40
1.0
 10
399.2598496477083
 20
105.2530363396335
 30
0.0
 10
399.208724816363
 20
105.2018852500782
 30
0.0
 10
399.157627866882
 20
105.1507882882072
 30
0.0
 10
399.1065591144167
 20
105.0997458065868
 30
0.0
  0
LINE
  5
BE
330
1F
100
AcDbEntity
  8
0
  6
Continuous
 62
     7
370
    25
100
AcDbLine
 10
399.2598493394
 20
105.253036437
 30
0.0
 11
399.763899197
 21
105.253036437
 31
0.0
  0
CIRCLE
  5
BF
330
1F
100
AcDbEntity
  8
0
  6
Continuous
 62
     7
370
    25
100
AcDbCircle
 10
391.3654239174
 20
109.359286437
 30
0.0
 40
12.47086902276413
  0
SPLINE
  5
C0
330
1F
100
AcDbEntity
  8
0
  6
Continuous
 62
     7
370
    25
100
AcDbSpline
210
0.0
220
0.0
230
1.0
 70
     8
 71
     3
 72
    23
 73
    19
 74
     0
 42
0.000000001
 43
0.00000001
 40
0.0
 40
0.0
 40
0.0
 40
0.0
 40
0.0521036415675031
 40
0.1035646240925967
 40
0.1544751946736949
 40
0.2049306267473421
 40
0.2550287880844035
 40
0.3048696389141012
 40
0.3545546704609132
 40
0.4041862979523234
 40
0.4538672252126086
 40
0.5036997999421611
 40
0.5901870230746071
 40
0.674271637822954
 40
0.7565997087222995
 40
0.8378563983721267
 40
0.9187511781367398
 40
1.0
 40
1.0
 40
1.0
 40
1.0
 10
380.5261717707468
 20
113.8496971497749
 30
0.0
 10
380.5394661256965
 20
113.8788650429364
 30
0.0
 10
380.5658908597747
 20
113.9368410653404
 30
0.0
 10
380.6051018659986
 20
114.0197403663524
 30
0.0
 10
380.6435438208043
 20
114.09892234737
 30
0.0
 10
380.6811314022709
 20
114.1741771641719
 30
0.0
 10
380.7177872885784
 20
114.2455968184297
 30
0.0
 10
380.7534371526371
 20
114.3131934272113
 30
0.0
 10
380.7880108993983
 20
114.3769997486758
 30
0.0
 10
380.8214425933543
 20
114.4370432907449
 30
0.0
 10
380.8536694705792
 20
114.4933499874716
 30
0.0
 10
380.8921709074689
 20
114.5587549692953
 30
0.0
 10
380.9348323881823
 20
114.6283160471314
 30
0.0
 10
380.9783254303053
 20
114.6950755437959
 30
0.0
 10
381.0147379271334
 20
114.7467995918937
 30
0.0
 10
381.0436387336106
 20
114.7832479039456
 30
0.0
 10
381.0655561897088
 20
114.8058453008287
 30
0.0
 10
381.0736681542021
 20
114.8084345183901
 30
0.0
 10
381.0777329927246
 20
114.8097319539613
 30
0.0
  0
SPLINE
  5
C1
330
1F
100
AcDbEntity
  8
0
  6
Continuous
 62
     7
370
    25
100
AcDbSpline
210
0.0
220
0.0
230
1.0
 70
     8
 71
     3
 72
     8
 73
     4
 74
     0
 42
0.000000001
 43
0.00000001
 40
0.0
 40
0.0
 40
0.0
 40
0.0
 40
1.0
 40
1.0
 40
1.0
 40
1.0
 10
380.4055338308841
 20
113.8474867923651
 30
0.0
 10
380.445722844477
 20
113.8482171025826
 30
0.0
 10
380.4858851465671
 20
113.8487976284121
 30
0.0
 10
380.5260198570426
 20
113.8492285933618
 30
0.0
  0
SPLINE
  5
C2
330
1F
100
AcDbEntity
  8
0
  6
Continuous
 62
     7
370
    25
100
AcDbSpline
210
0.0
220
0.0
230
1.0
 70
     8
 71
     3
 72
    18
 73
    14
 74
     0
 42
0.000000001
 43
0.00000001
 40
0.0
 40
0.0
 40
0.0
 40
0.0
 40
0.0923824559411628
 40
0.1844689291573508
 40
0.2764953615950219
 40
0.3686975365494161
 40
0.4613092840003458
 40
0.5545607518442569
 40
0.6486768051537182
 40
0.7438756050146744
 40
0.8403674044302629
 40
0.9203921078121001
 40
1.0
 40
1.0
 40
1.0
 40
1.0
 10
380.4584728196835
 20
114.1143037992469
 30
0.0
 10
380.4603084733362
 20
114.1140954870317
 30
0.0
 10
380.4639738994191
 20
114.1136795300095
 30
0.0
 10
380.4667692290383
 20
114.1068751065434
 30
0.0
 10
380.4675715241168
 20
114.0955417278913
 30
0.0
 10
380.4662053870737
 20
114.0792413328647
 30
0.0
 10
380.4627438384447
 20
114.0580900940288
 30
0.0
 10
380.4572025326754
 20
114.0320543929123
 30
0.0
 10
380.4496180646064
 20
114.0011300132611
 30
0.0
 10
380.4400410626696
 20
113.9653309818164
 30
0.0
 10
380.4292005866508
 20
113.9270800742853
 30
0.0
 10
380.4177119457119
 20
113.8878618608909
 30
0.0
 10
380.4096119608337
 20
113.8610068840414
 30
0.0
 10
380.405572543191
 20
113.8476144556711
 30
0.0
  0
LINE
  5
C3
330
1F
100
AcDbEntity
  8
0
  6
Continuous
 62
     7
370
    25
100
AcDbLine
 10
380.4057174604
 20
114.1135560818
 30
0.0
 11
380.4584728197
 21
114.1143037992
 31
0.0
  0
SPLINE
  5
C4
330
1F
100
AcDbEntity
  8
0
  6
Continuous
 62
     7
370
    25
100
AcDbSpline
210
0.0
220
0.0
230
1.0
 70
     8
 71
     3
 72
    25
 73
    21
 74
     0
 42
0.000000001
 43
0.00000001
 40
0.0
 40
0.0
 40
0.0
 40
0.0
 40
0.0280105225426465
 40
0.0559601148860768
 40
0.0839014045043132
 40
0.1118870776786367
 40
0.1399695827588937
 40
0.1682008401739883
 40
0.196631967042422
 40
0.2253130233141467
 40
0.2542927850735845
 40
0.3799486436587335
 40
0.5057850221667067
 40
0.6313085886338298
 40
0.7532068238012468
 40
0.8039473267955921
 40
0.8535894438554446
 40
0.9025339722394071
 40
0.9511970353791085
 40
1.0
 40
1.0
 40
1.0
 40
1.0
 10
379.4947560526307
 20
111.5466241795593
 30
0.0
 10
379.5017351225416
 20
111.5839341930661
 30
0.0
 10
379.5156780810644
 20
111.6584730610597
 30
0.0
 10
379.5381999785073
 20
111.7697821065429
 30
0.0
 10
379.5618335906049
 20
111.8804443155573
 30
0.0
 10
379.5866831810928
 20
111.9904284485016
 30
0.0
 10
379.6127018055791
 20
112.0997235921162
 30
0.0
 10
379.639883186897
 20
112.2083145613183
 30
0.0
 10
379.6682088282295
 20
112.3161852712607
 30
0.0
 10
379.6976676090621
 20
112.4233302169857
 30
0.0
 10
379.7620758969742
 20
112.6475051034976
 30
0.0
 10
379.8671775890461
 20
112.9741705175336
 30
0.0
 10
380.0126403498422
 20
113.3601171228535
 30
0.0
 10
380.151903757952
 20
113.6821969355436
 30
0.0
 10
380.2490521108195
 20
113.8780175195753
 30
0.0
 10
380.3093475170458
 20
113.9873649700587
 30
0.0
 10
380.3442360999271
 20
114.045292994474
 30
0.0
 10
380.3721306018549
 20
114.085746947239
 30
0.0
 10
380.3934956942266
 20
114.110361162638
 30
0.0
 10
380.4016396417992
 20
114.1124900901457
 30
0.0
 10
380.4057174604443
 20
114.113556081817
 30
0.0
  0
ARC
  5
C5
330
1F
100
AcDbEntity
  8
0
  6
Continuous
 62
     7
370
    25
100
AcDbCircle
 10
391.3654239174
 20
109.359286437
 30
0.0
 40
12.07050959801136
100
AcDbArc
 50
169.5595567507
 51
190.4404432494
  0
SPLINE
  5
C6
330
1F
100
AcDbEntity
  8
0
  6
Continuous
 62
     7
370
    25
100
AcDbSpline
210
0.0
220
0.0
230
1.0
 70
     8
 71
     3
 72
    26
 73
    22
 74
     0
 42
0.000000001
 43
0.00000001
 40
0.0
 40
0.0
 40
0.0
 40
0.0
 40
0.0241259796963635
 40
0.0482159912272988
 40
0.0723203915124065
 40
0.0964895678710797
 40
0.1207736231963513
 40
0.1452220711242836
 40
0.1698835501657706
 40
0.1948055644472379
 40
0.2200342569517627
 40
0.2456142191611387
 40
0.3690971486901655
 40
0.4940698769485187
 40
0.6192566784762451
 40
0.7454656653603225
 40
0.7971495824713707
 40
0.8481710308405392
 40
0.8988013269235234
 40
0.9493179290492194
 40
1.0
 40
1.0
 40
1.0
 40
1.0
 10
380.4057174604443
 20
104.6050167922329
 30
0.0
 10
380.4038071457039
 20
104.6053036854223
 30
0.0
 10
380.3999893642116
 20
104.6058770440871
 30
0.0
 10
380.3920292390308
 20
104.6119357323335
 30
0.0
 10
380.3824501384553
 20
104.6218149930644
 30
0.0
 10
380.3711029315867
 20
104.6358960841748
 30
0.0
 10
380.3580467482927
 20
104.6540916321989
 30
0.0
 10
380.3432908450654
 20
104.6764421749376
 30
0.0
 10
380.326863664768
 20
104.7029564106297
 30
0.0
 10
380.3087955100478
 20
104.733651921343
 30
0.0
 10
380.2891183636248
 20
104.7685530245829
 30
0.0
 10
380.2409189821965
 20
104.8573175596906
 30
0.0
 10
380.1526009427612
 20
105.0345978611394
 30
0.0
 10
380.0135413259944
 20
105.3556837679845
 30
0.0
 10
379.8678686461322
 20
105.742266419875
 30
0.0
 10
379.7541300511228
 20
106.095974124005
 30
0.0
 10
379.6744244325762
 20
106.3782278236177
 30
0.0
 10
379.6237748602219
 20
106.572671254392
 30
0.0
 10
379.5768081903565
 20
106.7699126313262
 30
0.0
 10
379.5332483683522
 20
106.9698156764213
 30
0.0
 10
379.5076008032207
 20
107.1044976161535
 30
0.0
 10
379.4947560526307
 20
107.1719486944907
 30
0.0
  0
LINE
  5
C7
330
1F
100
AcDbEntity
  8
0
  6
Continuous
 62
     7
370
    25
100
AcDbLine
 10
380.4584728197
 20
104.6042690748
 30
0.0
 11
380.4057174604
 21
104.6050167922
 31
0.0
  0
SPLINE
  5
C8
330
1F
100
AcDbEntity
  8
0
  6
Continuous
 62
     7
370
    25
100
AcDbSpline
210
0.0
220
0.0
230
1.0
 70
     8
 71
     3
 72
    14
 73
    10
 74
     0
 42
0.000000001
 43
0.00000001
 40
0.0
 40
0.0
 40
0.0
 40
0.0
 40
0.0789261963172865
 40
0.158232872055133
 40
0.330847539457262
 40
0.5000195457610529
 40
0.6670357883572423
 40
0.8332395193657144
 40
1.0
 40
1.0
 40
1.0
 40
1.0
 10
380.4054759628316
 20
104.8712925521077
 30
0.0
 10
380.4094905094277
 20
104.8579894274701
 30
0.0
 10
380.4175389555398
 20
104.8313190478376
 30
0.0
 10
380.4324396623493
 20
104.7805043085178
 30
0.0
 10
380.4483366439458
 20
104.7234644923309
 30
0.0
 10
380.4614151389437
 20
104.669161275603
 30
0.0
 10
380.4676477460609
 20
104.6309941328801
 30
0.0
 10
380.4674581662239
 20
104.6075854042033
 30
0.0
 10
380.4614712720932
 20
104.6053757495247
 30
0.0
 10
380.4584728196835
 20
104.604269074803
 30
0.0
  0
SPLINE
  5
C9
330
1F
100
AcDbEntity
  8
0
  6
Continuous
 62
     7
370
    25
100
AcDbSpline
210
0.0
220
0.0
230
1.0
 70
     8
 71
     3
 72
     8
 73
     4
 74
     0
 42
0.000000001
 43
0.00000001
 40
0.0
 40
0.0
 40
0.0
 40
0.0
 40
1.0
 40
1.0
 40
1.0
 40
1.0
 10
380.5527806540561
 20
104.8692314736573
 30
0.0
 10
380.5037127390274
 20
104.8697185268692
 30
0.0
 10
380.4546033015066
 20
104.8704295947441
 30
0.0
 10
380.4054539569813
 20
104.8713650879784
 30
0.0
  0
SPLINE
  5
CA
330
1F
100
AcDbEntity
  8
0
  6
Continuous
 62
     7
370
    25
100
AcDbSpline
210
0.0
220
0.0
230
1.0
 70
     8
 71
     3
 72
    13
 73
     9
 74
     0
 42
0.000000001
 43
0.00000001
 40
0.0
 40
0.0
 40
0.0
 40
0.0
 40
0.1667030582307992
 40
0.3329480818053035
 40
0.4990671507274896
 40
0.6653938523718403
 40
0.832261271055009
 40
1.0
 40
1.0
 40
1.0
 40
1.0
 10
380.611114186227
 20
104.8005179488733
 30
0.0
 10
380.6092708723901
 20
104.8009350586391
 30
0.0
 10
380.6055893094203
 20
104.8017681321165
 30
0.0
 10
380.5980720556258
 20
104.8077826109429
 30
0.0
 10
380.5891212515093
 20
104.8172773432351
 30
0.0
 10
380.5785709630863
 20
104.8306869503447
 30
0.0
 10
380.5665977775693
 20
104.8476048539683
 30
0.0
 10
380.5573913699629
 20
104.8620175891078
 30
0.0
 10
380.5527761794741
 20
104.8692427219693
 30
0.0
  0
SPLINE
  5
CB
330
1F
100
AcDbEntity
  8
0
  6
Continuous
 62
     7
370
    25
100
AcDbSpline
210
0.0
220
0.0
230
1.0
 70
     8
 71
     3
 72
    13
 73
     9
 74
     0
 42
0.000000001
 43
0.00000001
 40
0.0
 40
0.0
 40
0.0
 40
0.0
 40
0.1686319999748085
 40
0.3360343310905433
 40
0.502536782590866
 40
0.6684737453788339
 40
0.834182263691515
 40
1.0
 40
1.0
 40
1.0
 40
1.0
 10
402.1780730364526
 20
104.8692461717821
 30
0.0
 10
402.1734357913544
 20
104.8619890117627
 30
0.0
 10
402.164195116068
 20
104.8475276111204
 30
0.0
 10
402.152179742701
 20
104.8305469144163
 30
0.0
 10
402.1416141889463
 20
104.8171141332368
 30
0.0
 10
402.1326748396534
 20
104.8076346646829
 30
0.0
 10
402.1251939590648
 20
104.801669438985
 30
0.0
 10
402.1215541517753
 20
104.8009018632006
 30
0.0
 10
402.1197336485816
 20
104.8005179488733
 30
0.0
  0
SPLINE
  5
CC
330
1F
100
AcDbEntity
  8
0
  6
Continuous
 62
     7
370
    25
100
AcDbSpline
210
0.0
220
0.0
230
1.0
 70
     8
 71
     3
 72
     8
 73
     4
 74
     0
 42
0.000000001
 43
0.00000001
 40
0.0
 40
0.0
 40
0.0
 40
0.0
 40
1.0
 40
1.0
 40
1.0
 40
1.0
 10
402.3253986484251
 20
104.8713651927249
 30
0.0
 10
402.2762477188168
 20
104.8704296624629
 30
0.0
 10
402.2271366987375
 20
104.8697185719508
 30
0.0
 10
402.1780672038298
 20
104.8692315104528
 30
0.0
  0
SPLINE
  5
CD
330
1F
100
AcDbEntity
  8
0
  6
Continuous
 62
     7
370
    25
100
AcDbSpline
210
0.0
220
0.0
230
1.0
 70
     8
 71
     3
 72
    18
 73
    14
 74
     0
 42
0.000000001
 43
0.00000001
 40
0.0
 40
0.0
 40
0.0
 40
0.0
 40
0.0923325137111192
 40
0.1843692047063016
 40
0.2763458873810836
 40
0.3684982175655623
 40
0.4610598988303626
 40
0.554260954653301
 40
0.6483261285442131
 40
0.74347346365053
 40
0.8399130993119804
 40
0.9201660718299768
 40
1.0
 40
1.0
 40
1.0
 40
1.0
 10
402.2723750151251
 20
104.604269074803
 30
0.0
 10
402.2705393614727
 20
104.6044773870188
 30
0.0
 10
402.2668739353902
 20
104.6048933440422
 30
0.0
 10
402.2640786057678
 20
104.6116977674995
 30
0.0
 10
402.263276310701
 20
104.6230311461853
 30
0.0
 10
402.2646424477003
 20
104.6393315410857
 30
0.0
 10
402.2681039964943
 20
104.6604827803958
 30
0.0
 10
402.2736453016407
 20
104.6865184797234
 30
0.0
 10
402.281229772068
 20
104.7174428661461
 30
0.0
 10
402.2908067650484
 20
104.7532418718742
 30
0.0
 10
402.3016581120742
 20
104.7915311169879
 30
0.0
 10
402.3131728737062
 20
104.8308367414044
 30
0.0
 10
402.3213045825273
 20
104.8577938192981
 30
0.0
 10
402.325359794135
 20
104.8712370767476
 30
0.0
  0
LINE
  5
CE
330
1F
100
AcDbEntity
  8
0
  6
Continuous
 62
     7
370
    25
100
AcDbLine
 10
402.3251303744
 20
104.6050167922
 30
0.0
 11
402.2723750151
 21
104.6042690748
 31
0.0
  0
SPLINE
  5
CF
330
1F
100
AcDbEntity
  8
0
  6
Continuous
 62
     7
370
    25
100
AcDbSpline
210
0.0
220
0.0
230
1.0
 70
     8
 71
     3
 72
    25
 73
    21
 74
     0
 42
0.000000001
 43
0.00000001
 40
0.0
 40
0.0
 40
0.0
 40
0.0
 40
0.0280105225422753
 40
0.0559601148854256
 40
0.0839014045034749
 40
0.1118870776777086
 40
0.1399695827579646
 40
0.1682008401731476
 40
0.1966319670417595
 40
0.2253130233137476
 40
0.2542927850735311
 40
0.3799486436564626
 40
0.5057850221666382
 40
0.631308588631066
 40
0.7532068238011618
 40
0.8039473267946936
 40
0.8535894438541253
 40
0.9025339722380873
 40
0.9511970353782256
 40
1.0
 40
1.0
 40
1.0
 40
1.0
 10
403.236091782178
 20
107.1719486944907
 30
0.0
 10
403.2291127122672
 20
107.1346386809845
 30
0.0
 10
403.2151697537445
 20
107.0600998129917
 30
0.0
 10
403.1926478563019
 20
106.9487907675096
 30
0.0
 10
403.1690142442045
 20
106.8381285584959
 30
0.0
 10
403.1441646537166
 20
106.728144425552
 30
0.0
 10
403.1181460292304
 20
106.6188492819374
 30
0.0
 10
403.0909646479124
 20
106.5102583127349
 30
0.0
 10
403.0626390065798
 20
106.4023876027918
 30
0.0
 10
403.0331802257469
 20
106.2952426570657
 30
0.0
 10
402.9687719378354
 20
106.0710677705552
 30
0.0
 10
402.8636702457635
 20
105.7444023565192
 30
0.0
 10
402.7182074849683
 20
105.3584557512011
 30
0.0
 10
402.5789440768577
 20
105.0363759385085
 30
0.0
 10
402.4817957239904
 20
104.8405553544774
 30
0.0
 10
402.4215003177629
 20
104.7312079039909
 30
0.0
 10
402.3866117348818
 20
104.6732798795757
 30
0.0
 10
402.3587172329539
 20
104.6328259268108
 30
0.0
 10
402.3373521405822
 20
104.6082117114119
 30
0.0
 10
402.3292081930095
 20
104.6060827839043
 30
0.0
 10
402.3251303743643
 20
104.6050167922329
 30
0.0
  0
ARC
  5
D0
330
1F
100
AcDbEntity
  8
0
  6
Continuous
 62
     7
370
    25
100
AcDbCircle
 10
391.3654239174
 20
109.359286437
 30
0.0
 40
12.07050959801141
100
AcDbArc
 50
349.5595567507
 51
10.4404432493
  0
SPLINE
  5
D1
330
1F
100
AcDbEntity
  8
0
  6
Continuous
 62
     7
370
    25
100
AcDbSpline
210
0.0
220
0.0
230
1.0
 70
     8
 71
     3
 72
    26
 73
    22
 74
     0
 42
0.000000001
 43
0.00000001
 40
0.0
 40
0.0
 40
0.0
 40
0.0
 40
0.0241259796962591
 40
0.0482159912271133
 40
0.0723203915121637
 40
0.0964895678708023
 40
0.1207736231960627
 40
0.1452220711240065
 40
0.1698835501655268
 40
0.1948055644470484
 40
0.220034256951649
 40
0.2456142191611191
 40
0.3690971486898426
 40
0.4940698769485092
 40
0.6192566784753767
 40
0.7454656653602836
 40
0.7971495824708205
 40
0.848171030839725
 40
0.8988013269227118
 40
0.9493179290486752
 40
1.0
 40
1.0
 40
1.0
 40
1.0
 10
402.3251303743643
 20
114.1135560818171
 30
0.0
 10
402.3270406891048
 20
114.1132691886276
 30
0.0
 10
402.330858470597
 20
114.1126958299629
 30
0.0
 10
402.3388185957779
 20
114.1066371417164
 30
0.0
 10
402.3483976963533
 20
114.0967578809856
 30
0.0
 10
402.359744903222
 20
114.0826767898752
 30
0.0
 10
402.3728010865158
 20
114.064481241851
 30
0.0
 10
402.3875569897432
 20
114.0421306991123
 30
0.0
 10
402.4039841700406
 20
114.0156164634203
 30
0.0
 10
402.4220523247608
 20
113.984920952707
 30
0.0
 10
402.4417294711839
 20
113.9500198494671
 30
0.0
 10
402.4899288526119
 20
113.8612553143598
 30
0.0
 10
402.5782468920473
 20
113.683975012911
 30
0.0
 10
402.7173065088138
 20
113.3628891060666
 30
0.0
 10
402.8629791886762
 20
112.9763064541754
 30
0.0
 10
402.9767177836854
 20
112.6225987500465
 30
0.0
 10
403.056423402232
 20
112.3403450504341
 30
0.0
 10
403.1070729745861
 20
112.1459016196608
 30
0.0
 10
403.1540396444515
 20
111.9486602427267
 30
0.0
 10
403.1975994664561
 20
111.7487571976305
 30
0.0
 10
403.2232470315878
 20
111.6140752578972
 30
0.0
 10
403.236091782178
 20
111.5466241795593
 30
0.0
  0
LINE
  5
D2
330
1F
100
AcDbEntity
  8
0
  6
Continuous
 62
     7
370
    25
100
AcDbLine
 10
402.2723750151
 20
114.1143037992
 30
0.0
 11
402.3251303744
 21
114.1135560818
 31
0.0
  0
SPLINE
  5
D3
330
1F
100
AcDbEntity
  8
0
  6
Continuous
 62
     7
370
    25
100
AcDbSpline
210
0.0
220
0.0
230
1.0
 70
     8
 71
     3
 72
    14
 73
    10
 74
     0
 42
0.000000001
 43
0.00000001
 40
0.0
 40
0.0
 40
0.0
 40
0.0
 40
0.0786889129232242
 40
0.1577561817122941
 40
0.3304686003115578
 40
0.4997364082435315
 40
0.6668472316653192
 40
0.8331450833767118
 40
1.0
 40
1.0
 40
1.0
 40
1.0
 10
402.3252833019019
 20
113.8475722900294
 30
0.0
 10
402.3212852929473
 20
113.8608221945452
 30
0.0
 10
402.3132700516166
 20
113.8873857124135
 30
0.0
 10
402.2983973783271
 20
113.9381072401823
 30
0.0
 10
402.2825112135649
 20
113.9951083192062
 30
0.0
 10
402.2694326899206
 20
114.0494116148152
 30
0.0
 10
402.2632000903156
 20
114.0875787368525
 30
0.0
 10
402.2633896681919
 20
114.110987470928
 30
0.0
 10
402.2693765625844
 20
114.1131971248861
 30
0.0
 10
402.2723750151251
 20
114.1143037992469
 30
0.0
  0
SPLINE
  5
D4
330
1F
100
AcDbEntity
  8
0
  6
Continuous
 62
     7
370
    25
100
AcDbSpline
210
0.0
220
0.0
230
1.0
 70
     8
 71
     3
 72
     8
 73
     4
 74
     0
 42
0.000000001
 43
0.00000001
 40
0.0
 40
0.0
 40
0.0
 40
0.0
 40
1.0
 40
1.0
 40
1.0
 40
1.0
 10
402.2048279612192
 20
113.8492286299947
 30
0.0
 10
402.2449610797258
 20
113.8487976760474
 30
0.0
 10
402.2851217876544
 20
113.848217173035
 30
0.0
 10
402.3253092049974
 20
113.8474868974754
 30
0.0
  0
SPLINE
  5
D5
330
1F
100
AcDbEntity
  8
0
  6
Continuous
 62
     7
370
    25
100
AcDbSpline
210
0.0
220
0.0
230
1.0
 70
     8
 71
     3
 72
    23
 73
    19
 74
     0
 42
0.000000001
 43
0.00000001
 40
0.0
 40
0.0
 40
0.0
 40
0.0
 40
0.0441308420121292
 40
0.0880968635211716
 40
0.1320155028408941
 40
0.1760048571434164
 40
0.2201827305793597
 40
0.2646656976937351
 40
0.3095682184569769
 40
0.355001836559425
 40
0.401074485474427
 40
0.4478899182339682
 40
0.4955472680213688
 40
0.5953670562452651
 40
0.6949121173401501
 40
0.7950007648984784
 40
0.8964386255170008
 40
1.0
 40
1.0
 40
1.0
 40
1.0
 10
401.6531148420841
 20
114.8097319539614
 30
0.0
 10
401.6550992321909
 20
114.8094490967315
 30
0.0
 10
401.6590606010758
 20
114.8088844386909
 30
0.0
 10
401.6679209053063
 20
114.8024650855121
 30
0.0
 10
401.6788933834286
 20
114.7919438360055
 30
0.0
 10
401.6921727814491
 20
114.7769122996958
 30
0.0
 10
401.7076835051154
 20
114.7574600546334
 30
0.0
 10
401.7254149668684
 20
114.7335400766813
 30
0.0
 10
401.7453316135716
 20
114.7051389859675
 30
0.0
 10
401.7673971475837
 20
114.6722312461668
 30
0.0
 10
401.7915680712779
 20
114.6347912635106
 30
0.0
 10
401.8177950813251
 20
114.5927911918807
 30
0.0
 10
401.8561316615562
 20
114.5295140833576
 30
0.0
 10
401.9084644409347
 20
114.4394552209944
 30
0.0
 10
401.9768650521428
 20
114.3151091014277
 30
0.0
 10
402.0495501269382
 20
114.1753960234472
 30
0.0
 10
402.1259103628382
 20
114.0210600082188
 30
0.0
 10
402.1781991774884
 20
113.907337353991
 30
0.0
 10
402.2046144053919
 20
113.8498870206966
 30
0.0
  0
SPLINE
  5
D6
330
1F
100
AcDbEntity
  8
0
  6
Continuous
 62
     7
370
    25
100
AcDbSpline
210
0.0
220
0.0
230
1.0
 70
    11
 71
     3
 72
    39
 73
    35
 74
     0
 42
0.000000001
 43
0.00000001
 40
0.0
 40
0.0
 40
0.0
 40
0.0
 40
0.0310664058348413
 40
0.0621048158426138
 40
0.0931361551796939
 40
0.1235538293503726
 40
0.1538561545809849
 40
0.1850588072749156
 40
0.2160250992946587
 40
0.2471867223797568
 40
0.2784462884304475
 40
0.3100516090231247
 40
0.3419834369138969
 40
0.3734259894013238
 40
0.4048604886787081
 40
0.436874065183343
 40
0.4685120685926471
 40
0.499805535863323
 40
0.5309508213226204
 40
0.5618649784438111
 40
0.5930416446590877
 40
0.623374245013332
 40
0.6540913579072549
 40
0.6849496782718453
 40
0.7158160645166705
 40
0.7471731804043553
 40
0.7784514311866318
 40
0.810129591156098
 40
0.8419598919688388
 40
0.8735175891922303
 40
0.9050808037886594
 40
0.9370235169792582
 40
0.9687441590030581
 40
1.0
 40
1.0
 40
1.0
 40
1.0
 10
394.2695504822017
 20
97.92765625327158
 30
0.0
 10
394.4592623111564
 20
97.96642483001905
 30
0.0
 10
394.8030031616051
 20
98.04285577580208
 30
0.0
 10
395.1859601488128
 20
98.13099531579532
 30
0.0
 10
395.4304006155278
 20
98.17794480244028
 30
0.0
 10
395.5113895523441
 20
98.16603587772653
 30
0.0
 10
395.4306671068624
 20
98.09407797101106
 30
0.0
 10
395.1908049132427
 20
97.96955770481371
 30
0.0
 10
394.8141551791455
 20
97.81218871498852
 30
0.0
 10
394.3079122423176
 20
97.64016463029351
 30
0.0
 10
393.6906378486343
 20
97.47524022270787
 30
0.0
 10
392.9781620344944
 20
97.33752764662937
 30
0.0
 10
392.2026967947219
 20
97.24589483412069
 30
0.0
 10
391.3922323611076
 20
97.21256225602521
 30
0.0
 10
390.5797278881451
 20
97.24180970157849
 30
0.0
 10
389.800214898008
 20
97.33013865856607
 30
0.0
 10
389.0818865986726
 20
97.4656441582009
 30
0.0
 10
388.4585144912725
 20
97.62942067969217
 30
0.0
 10
387.9454158966769
 20
97.80142682383749
 30
0.0
 10
387.5602137868155
 20
97.96023883830867
 30
0.0
 10
387.3107891815745
 20
98.08749780347414
 30
0.0
 10
387.2201871416281
 20
98.1631047604291
 30
0.0
 10
387.2883987125873
 20
98.17987415710901
 30
0.0
 10
387.52061457899
 20
98.13709381489375
 30
0.0
 10
387.8978316161742
 20
98.04996712998387
 30
0.0
 10
388.4095364839419
 20
97.93523807467689
 30
0.0
 10
389.0330076146888
 20
97.81581592962435
 30
0.0
 10
389.7495523178216
 20
97.71119047957505
 30
0.0
 10
390.5278834304325
 20
97.64054198664817
 30
0.0
 10
391.3397149172825
 20
97.61446316221816
 30
0.0
 10
392.1534894392795
 20
97.63748873390888
 30
0.0
 10
392.935863283445
 20
97.70572117204655
 30
0.0
 10
393.6578763181789
 20
97.80896835175629
 30
0.0
 10
394.078681838028
 20
97.88865127545282
 30
0.0
 10
394.2695504822016
 20
97.92765625327156
 30
0.0
  0
SPLINE
  5
D7
330
1F
100
AcDbEntity
  8
0
  6
Continuous
 62
     7
370
    25
100
AcDbSpline
210
0.0
220
0.0
230
1.0
 70
    11
 71
     3
 72
    39
 73
    35
 74
     0
 42
0.000000001
 43
0.00000001
 40
0.0
 40
0.0
 40
0.0
 40
0.0
 40
0.0312651429934057
 40
0.0629601069329321
 40
0.0948697276489808
 40
0.1264264963751833
 40
0.1579651393672472
 40
0.1898765439016956
 40
0.221552335268876
 40
0.2527844076550827
 40
0.2838418966734154
 40
0.3148645781100674
 40
0.3459127639308091
 40
0.3763475365526575
 40
0.4066751324671412
 40
0.4379141187435632
 40
0.4688932367345488
 40
0.5000738678969536
 40
0.5313369410958942
 40
0.5629183719104849
 40
0.5948445736343699
 40
0.6262809966135365
 40
0.6577486436587271
 40
0.6897584692806508
 40
0.7214430019610059
 40
0.7527623343195418
 40
0.7839279690572818
 40
0.8148885765585865
 40
0.8460375004982862
 40
0.8763409566916784
 40
0.906758919146387
 40
0.9378312724751761
 40
0.9689189660506093
 40
1.0
 40
1.0
 40
1.0
 40
1.0
 10
394.2694462324149
 20
120.7909486732141
 30
0.0
 10
394.0783722961332
 20
120.8300126310948
 30
0.0
 10
393.6574377336936
 20
120.909731625655
 30
0.0
 10
392.93604832853
 20
121.0128470410053
 30
0.0
 10
392.1543922802395
 20
121.0810479134293
 30
0.0
 10
391.3413045605287
 20
121.1041048060712
 30
0.0
 10
390.5290243436767
 20
121.078120532425
 30
0.0
 10
389.7503939186272
 20
121.0075303671868
 30
0.0
 10
389.0337181287157
 20
120.9029148049476
 30
0.0
 10
388.4118428590542
 20
120.7837424799312
 30
0.0
 10
387.9023319255683
 20
120.6698053122049
 30
0.0
 10
387.527212579324
 20
120.5836910332585
 30
0.0
 10
387.2912520044731
 20
120.5396353119226
 30
0.0
 10
387.2198514612916
 20
120.5551651126338
 30
0.0
 10
387.3104478910894
 20
120.6306739948177
 30
0.0
 10
387.5594241714488
 20
120.7578475226619
 30
0.0
 10
387.9443389912916
 20
120.9166982012742
 30
0.0
 10
388.4571242981137
 20
121.0887224624842
 30
0.0
 10
389.0795834210386
 20
121.2523955420189
 30
0.0
 10
389.7960835658452
 20
121.3877971153991
 30
0.0
 10
390.5741825999552
 20
121.4763147828819
 30
0.0
 10
391.3859052886022
 20
121.5060221913647
 30
0.0
 10
392.1973474763035
 20
121.4731357467146
 30
0.0
 10
392.9744733677855
 20
121.3816548386699
 30
0.0
 10
393.6889114569561
 20
121.2437706487084
 30
0.0
 10
394.3071344151915
 20
121.0786428238585
 30
0.0
 10
394.8135017759174
 20
120.9065922865059
 30
0.0
 10
395.1900542973311
 20
120.7493087647957
 30
0.0
 10
395.4297501087624
 20
120.6249049673117
 30
0.0
 10
395.5112168169567
 20
120.5527167938754
 30
0.0
 10
395.431157574465
 20
120.5404442854974
 30
0.0
 10
395.1868115685111
 20
120.5873396960035
 30
0.0
 10
394.8038381350622
 20
120.675473244149
 30
0.0
 10
394.4593950038524
 20
120.7521147487589
 30
0.0
 10
394.2694462324149
 20
120.7909486732141
 30
0.0
  0
SPLINE
  5
D8
330
1F
100
AcDbEntity
  8
0
  6
Continuous
 62
     7
370
    25
100
AcDbSpline
210
0.0
220
0.0
230
1.0
 70
     8
 71
     3
 72
    23
 73
    19
 74
     0
 42
0.000000001
 43
0.00000001
 40
0.0
 40
0.0
 40
0.0
 40
0.0
 40
0.0449850911516383
 40
0.0909520670767777
 40
0.1379394291255006
 40
0.1859832248910951
 40
0.2351171761689533
 40
0.2853728096402591
 40
0.3367795876576951
 40
0.3893650370792399
 40
0.4431548745925064
 40
0.498173127394291
 40
0.5575107590849617
 40
0.6265492281305397
 40
0.7053073138942775
 40
0.7937970253739629
 40
0.8920262115920568
 40
1.0
 40
1.0
 40
1.0
 40
1.0
 10
381.474482205847
 20
114.389286437025
 30
0.0
 10
381.4723195164815
 20
114.3888575353654
 30
0.0
 10
381.467946932961
 20
114.3879903704556
 30
0.0
 10
381.4576659737695
 20
114.3808968028546
 30
0.0
 10
381.4446056957396
 20
114.3692840612756
 30
0.0
 10
381.4284865341854
 20
114.352494691103
 30
0.0
 10
381.4093861065294
 20
114.3304227044883
 30
0.0
 10
381.3872837537735
 20
114.302825230725
 30
0.0
 10
381.3621832752378
 20
114.2695167995156
 30
0.0
 10
381.3340921438599
 20
114.2303164611089
 30
0.0
 10
381.3029762430078
 20
114.1850744156357
 30
0.0
 10
381.2683373121256
 20
114.1326784832464
 30
0.0
 10
381.2276158038469
 20
114.0698960150272
 30
0.0
 10
381.1788948828221
 20
113.9921390157686
 30
0.0
 10
381.1211205445042
 20
113.8948544581901
 30
0.0
 10
381.0542098948592
 20
113.775109624471
 30
0.0
 10
380.9782659305657
 20
113.6311894195668
 30
0.0
 10
380.9239047658805
 20
113.5204552146737
 30
0.0
 10
380.895439701766
 20
113.4624716107499
 30
0.0
  0
LINE
  5
D9
330
1F
100
AcDbEntity
  8
0
  6
Continuous
 62
     7
370
    25
100
AcDbLine
 10
380.8954397018
 20
113.4629979426
 30
0.0
 11
380.5260999638
 21
113.8490824696
 31
0.0
  0
LINE
  5
DA
330
1F
100
AcDbEntity
  8
0
  6
Continuous
 62
     7
370
    25
100
AcDbLine
 10
402.2047152993
 20
113.8490230648
 30
0.0
 11
401.8354486177
 21
113.4630149598
 31
0.0
  0
SPLINE
  5
DB
330
1F
100
AcDbEntity
  8
0
  6
Continuous
 62
     7
370
    25
100
AcDbSpline
210
0.0
220
0.0
230
1.0
 70
     8
 71
     3
 72
    26
 73
    22
 74
     0
 42
0.000000001
 43
0.00000001
 40
0.0
 40
0.0
 40
0.0
 40
0.0
 40
0.0509383868653979
 40
0.0998291548270505
 40
0.1466728126490638
 40
0.1914699456369332
 40
0.2342212299774179
 40
0.274927450668867
 40
0.3135895241747119
 40
0.3502085273716571
 40
0.3847857350077695
 40
0.4173226688482998
 40
0.4478211631571791
 40
0.4762834534603437
 40
0.5027122992246547
 40
0.593906700502561
 40
0.6816015993191188
 40
0.7659159552051488
 40
0.846983628966416
 40
0.9249552229440475
 40
1.0
 40
1.0
 40
1.0
 40
1.0
 10
401.8354486177109
 20
113.4622808805002
 30
0.0
 10
401.8219907535128
 20
113.4899016616645
 30
0.0
 10
401.7956160037152
 20
113.5440329251177
 30
0.0
 10
401.7572438239362
 20
113.6203409621929
 30
0.0
 10
401.720777641444
 20
113.6910931417847
 30
0.0
 10
401.6862413918202
 20
113.7562649684728
 30
0.0
 10
401.6536289399673
 20
113.8161232137245
 30
0.0
 10
401.6229416561745
 20
113.8708883732659
 30
0.0
 10
401.5941790398733
 20
113.9208127645779
 30
0.0
 10
401.5673408754009
 20
113.966154995173
 30
0.0
 10
401.5424272949727
 20
114.0071809341138
 30
0.0
 10
401.519436648184
 20
114.0441583190609
 30
0.0
 10
401.4983731426943
 20
114.0773544350442
 30
0.0
 10
401.4792207723151
 20
114.1070301673115
 30
0.0
 10
401.4475496953703
 20
114.1557004923612
 30
0.0
 10
401.4060797499337
 20
114.21759581028
 30
0.0
 10
401.35909023379
 20
114.2829364177037
 30
0.0
 10
401.320471664075
 20
114.3320548089955
 30
0.0
 10
401.2904232043537
 20
114.3655310975077
 30
0.0
 10
401.2681330933845
 20
114.3856485297457
 30
0.0
 10
401.2602377779511
 20
114.3880893635953
 30
0.0
 10
401.2563656289615
 20
114.389286437025
 30
0.0
  0
SPLINE
  5
DC
330
1F
100
AcDbEntity
  8
0
  6
Continuous
 62
     7
370
    25
100
AcDbSpline
210
0.0
220
0.0
230
1.0
 70
     8
 71
     3
 72
     8
 73
     4
 74
     0
 42
0.000000001
 43
0.00000001
 40
0.0
 40
0.0
 40
0.0
 40
0.0
 40
1.0
 40
1.0
 40
1.0
 40
1.0
 10
399.1071043692047
 20
113.5822847635077
 30
0.0
 10
399.1706973495448
 20
113.5166159856609
 30
0.0
 10
399.2346537759801
 20
113.4522736880007
 30
0.0
 10
399.2988526956875
 20
113.390536437025
 30
0.0
  0
SPLINE
  5
DD
330
1F
100
AcDbEntity
  8
0
  6
Continuous
 62
     7
370
    25
100
AcDbSpline
210
0.0
220
0.0
230
1.0
 70
     8
 71
     3
 72
    25
 73
    21
 74
     0
 42
0.000000001
 43
0.00000001
 40
0.0
 40
0.0
 40
0.0
 40
0.0
 40
0.0367725003254103
 40
0.074208401060063
 40
0.1123590542807964
 40
0.1512729822568881
 40
0.190995910016845
 40
0.2315708273504481
 40
0.2730380740418892
 40
0.3154354426077851
 40
0.3587982934432034
 40
0.4031596779810961
 40
0.4485504661847858
 40
0.494999475376923
 40
0.5532504315673752
 40
0.621829488573267
 40
0.7007739996560722
 40
0.7901076726660372
 40
0.8898461547533933
 40
1.0
 40
1.0
 40
1.0
 40
1.0
 10
398.6651831818932
 20
114.3892864370246
 30
0.0
 10
398.665406955958
 20
114.3889617493909
 30
0.0
 10
398.6658585411209
 20
114.3883065165421
 30
0.0
 10
398.6705755809932
 20
114.3829441447543
 30
0.0
 10
398.6782281900759
 20
114.3741885510539
 30
0.0
 10
398.6891211692129
 20
114.361564332962
 30
0.0
 10
398.7031697556287
 20
114.3450079948316
 30
0.0
 10
398.7203966532379
 20
114.3243508174538
 30
0.0
 10
398.7407952060194
 20
114.299463081486
 30
0.0
 10
398.7643660193115
 20
114.2702155352926
 30
0.0
 10
398.7911113678712
 20
114.2364926000961
 30
0.0
 10
398.8210192213035
 20
114.1981867849707
 30
0.0
 10
398.854135313648
 20
114.1552158896327
 30
0.0
 10
398.893061235222
 20
114.103794607962
 30
0.0
 10
398.9418893149387
 20
114.0395783762729
 30
0.0
 10
399.0038099195397
 20
113.9566838471783
 30
0.0
 10
399.0781944778607
 20
113.8527380969638
 30
0.0
 10
399.1651689058493
 20
113.7246518867066
 30
0.0
 10
399.2645937558318
 20
113.5705621068003
 30
0.0
 10
399.3360129315613
 20
113.4524978709298
 30
0.0
 10
399.3734945152422
 20
113.390536437025
 30
0.0
  0
LINE
  5
DE
330
1F
100
AcDbEntity
  8
0
  6
Continuous
 62
     7
370
    25
100
AcDbLine
 10
399.3734945152
 20
113.390536437
 30
0.0
 11
399.2988526957
 21
113.390536437
 31
0.0
  0
SPLINE
  5
DF
330
1F
100
AcDbEntity
  8
0
  6
Continuous
 62
     7
370
    25
100
AcDbSpline
210
0.0
220
0.0
230
1.0
 70
     8
 71
     3
 72
    23
 73
    19
 74
     0
 42
0.000000001
 43
0.00000001
 40
0.0
 40
0.0
 40
0.0
 40
0.0
 40
0.0511129009857221
 40
0.1016896331838983
 40
0.1518293139104713
 40
0.201633670189439
 40
0.2512064936754081
 40
0.3006530343006331
 40
0.3500793489716449
 40
0.3995916247932065
 40
0.4492954981442684
 40
0.4992953912354716
 40
0.5872572780521574
 40
0.6724255494349275
 40
0.7555067762540824
 40
0.8372616735271673
 40
0.9184882400167564
 40
1.0
 40
1.0
 40
1.0
 40
1.0
 10
399.1071670453301
 20
113.5825274796028
 30
0.0
 10
399.0911514614296
 20
113.6116560818338
 30
0.0
 10
399.0592882953666
 20
113.6696077304176
 30
0.0
 10
399.0122444569478
 20
113.7523655656358
 30
0.0
 10
398.9662659327728
 20
113.8314544241201
 30
0.0
 10
398.9214852659692
 20
113.9066714120542
 30
0.0
 10
398.8780015015333
 20
113.9781344670999
 30
0.0
 10
398.8359155379487
 20
114.0458758712882
 30
0.0
 10
398.7953210735513
 20
114.1099493830332
 30
0.0
 10
398.7563061672011
 20
114.1704029821044
 30
0.0
 10
398.7189563447137
 20
114.2272804870327
 30
0.0
 10
398.6744280881216
 20
114.2939949600932
 30
0.0
 10
398.6257878275804
 20
114.3653152439577
 30
0.0
 10
398.5779487278246
 20
114.4338954964167
 30
0.0
 10
398.5402972157436
 20
114.4869118244589
 30
0.0
 10
398.5134745143562
 20
114.5241844805864
 30
0.0
 10
398.4967456835326
 20
114.5472218801665
 30
0.0
 10
398.4948972735687
 20
114.5497566054317
 30
0.0
 10
398.4939714489484
 20
114.5510261890751
 30
0.0
  0
SPLINE
  5
E0
330
1F
100
AcDbEntity
  8
0
  6
Continuous
 62
     7
370
    25
100
AcDbSpline
210
0.0
220
0.0
230
1.0
 70
     8
 71
     3
 72
     8
 73
     4
 74
     0
 42
0.000000001
 43
0.00000001
 40
0.0
 40
0.0
 40
0.0
 40
0.0
 40
1.0
 40
1.0
 40
1.0
 40
1.0
 10
401.7693165644764
 20
113.3905364370249
 30
0.0
 10
401.7912019361195
 20
113.4148574532225
 30
0.0
 10
401.8130873077627
 20
113.438882051545
 30
0.0
 10
401.8349726794058
 20
113.4625889036335
 30
0.0
  0
LINE
  5
E1
330
1F
100
AcDbEntity
  8
0
  6
Continuous
 62
     7
370
    25
100
AcDbLine
 10
401.7691563541
 20
113.390536437
 30
0.0
 11
399.3734945152
 21
113.390536437
 31
0.0
  0
SPLINE
  5
E2
330
1F
100
AcDbEntity
  8
0
  6
Continuous
 62
     7
370
    25
100
AcDbSpline
210
0.0
220
0.0
230
1.0
 70
     8
 71
     3
 72
     8
 73
     4
 74
     0
 42
0.000000001
 43
0.00000001
 40
0.0
 40
0.0
 40
0.0
 40
0.0
 40
1.0
 40
1.0
 40
1.0
 40
1.0
 10
380.8957809295781
 20
113.4626924711136
 30
0.0
 10
380.9176977020657
 20
113.4389520225545
 30
0.0
 10
380.9396144745531
 20
113.4148928707679
 30
0.0
 10
380.9615312470407
 20
113.390536437025
 30
0.0
  0
SPLINE
  5
E3
330
1F
100
AcDbEntity
  8
0
  6
Continuous
 62
     7
370
    25
100
AcDbSpline
210
0.0
220
0.0
230
1.0
 70
     8
 71
     3
 72
    26
 73
    22
 74
     0
 42
0.000000001
 43
0.00000001
 40
0.0
 40
0.0
 40
0.0
 40
0.0
 40
0.0524616379932503
 40
0.1026498591890872
 40
0.150565513457809
 40
0.1962095861957063
 40
0.2395832262568645
 40
0.2806877815599511
 40
0.3195248450380211
 40
0.3560963147430692
 40
0.3904044736547445
 40
0.4224520974433627
 40
0.4522426027417772
 40
0.4797802555366611
 40
0.5050704712281336
 40
0.5966394156799991
 40
0.6841917884819224
 40
0.7679874773571101
 40
0.8483228539139507
 40
0.925534163520116
 40
1.0
 40
1.0
 40
1.0
 40
1.0
 10
383.3571757614882
 20
113.3905513290427
 30
0.0
 10
383.3750372457765
 20
113.4203247890838
 30
0.0
 10
383.4099861897523
 20
113.4785814809771
 30
0.0
 10
383.4607510232344
 20
113.5607804613417
 30
0.0
 10
383.5088209808761
 20
113.6368613302425
 30
0.0
 10
383.554164953641
 20
113.7068126787088
 30
0.0
 10
383.5967909331463
 20
113.7709198406608
 30
0.0
 10
383.6366972316554
 20
113.829427680131
 30
0.0
 10
383.6738845607707
 20
113.882616257753
 30
0.0
 10
383.7083533833616
 20
113.9307742979901
 30
0.0
 10
383.7401034719939
 20
113.9741989712664
 30
0.0
 10
383.769137876595
 20
114.0131890623633
 30
0.0
 10
383.7954491657961
 20
114.0480431608898
 30
0.0
 10
383.8190657953402
 20
114.0790481553404
 30
0.0
 10
383.8587114743461
 20
114.1312913739733
 30
0.0
 10
383.9102497711452
 20
114.1988207072305
 30
0.0
 10
383.9670759081264
 20
114.271014153439
 30
0.0
 10
384.0112333360894
 20
114.3254981095615
 30
0.0
 10
384.0424109590314
 20
114.3627629007299
 30
0.0
 10
384.0618705256705
 20
114.3852272530046
 30
0.0
 10
384.0640121233509
 20
114.3879498024318
 30
0.0
 10
384.0650635399077
 20
114.389286437025
 30
0.0
  0
LINE
  5
E4
330
1F
100
AcDbEntity
  8
0
  6
Continuous
 62
     7
370
    25
100
AcDbLine
 10
383.3571757615
 20
113.390536437
 30
0.0
 11
380.961531247
 21
113.390536437
 31
0.0
  0
LINE
  5
E5
330
1F
100
AcDbEntity
  8
0
  6
Continuous
 62
     7
370
    25
100
AcDbLine
 10
383.4319951391
 20
113.390536437
 30
0.0
 11
383.3568755408
 21
113.390536437
 31
0.0
  0
SPLINE
  5
E6
330
1F
100
AcDbEntity
  8
0
  6
Continuous
 62
     7
370
    25
100
AcDbSpline
210
0.0
220
0.0
230
1.0
 70
     8
 71
     3
 72
     8
 73
     4
 74
     0
 42
0.000000001
 43
0.00000001
 40
0.0
 40
0.0
 40
0.0
 40
0.0
 40
1.0
 40
1.0
 40
1.0
 40
1.0
 10
383.4319951391212
 20
113.3905364370249
 30
0.0
 10
383.4959039417811
 20
113.4525053004561
 30
0.0
 10
383.5596788611331
 20
113.5164813655727
 30
0.0
 10
383.623038927014
 20
113.5820160219185
 30
0.0
  0
SPLINE
  5
E7
330
1F
100
AcDbEntity
  8
0
  6
Continuous
 62
     7
370
    25
100
AcDbSpline
210
0.0
220
0.0
230
1.0
 70
     8
 71
     3
 72
    24
 73
    20
 74
     0
 42
0.000000001
 43
0.00000001
 40
0.0
 40
0.0
 40
0.0
 40
0.0
 40
0.0410257106287842
 40
0.0818520099077639
 40
0.1225800578354648
 40
0.1633117464058233
 40
0.2041489402806705
 40
0.2451927184749161
 40
0.2865426449235763
 40
0.3282960933646444
 40
0.370547647549383
 40
0.4133885920102291
 40
0.4569065022351533
 40
0.5011849368587563
 40
0.6001856774947433
 40
0.6987388860447942
 40
0.7976800645453981
 40
0.8978349910029445
 40
1.0
 40
1.0
 40
1.0
 40
1.0
 10
384.2366217328888
 20
114.5506765183565
 30
0.0
 10
384.2364269694478
 20
114.5504091681989
 30
0.0
 10
384.2360383892413
 20
114.5498757673776
 30
0.0
 10
384.231983601567
 20
114.5443040213785
 30
0.0
 10
384.2253896425871
 20
114.5352232722247
 30
0.0
 10
384.2160253816772
 20
114.5222858118639
 30
0.0
 10
384.2039772679072
 20
114.5055673689581
 30
0.0
 10
384.1892546984467
 20
114.4850253581863
 30
0.0
 10
384.1718957055995
 20
114.4606439841396
 30
0.0
 10
384.1519385344461
 20
114.4323952400677
 30
0.0
 10
384.1294294847506
 20
114.4002496926666
 30
0.0
 10
384.1044202489892
 20
114.3641728527004
 30
0.0
 10
384.0769708794643
 20
114.324129260181
 30
0.0
 10
384.0350477663972
 20
114.2622088168398
 30
0.0
 10
383.9758415911859
 20
114.1728963257433
 30
0.0
 10
383.8960619980656
 20
114.0483517337146
 30
0.0
 10
383.8100812130792
 20
113.9085669412248
 30
0.0
 10
383.7187964258572
 20
113.7541541222387
 30
0.0
 10
383.6555920717992
 20
113.6401081005878
 30
0.0
 10
383.6236759218336
 20
113.5825185565725
 30
0.0
  0
LINE
  5
E8
330
1F
100
AcDbEntity
  8
0
  6
Continuous
 62
     7
370
    25
100
AcDbLine
 10
380.5527830153
 20
104.8692314393
 30
0.0
 11
380.9770204303
 21
105.3180243379
 31
0.0
  0
SPLINE
  5
E9
330
1F
100
AcDbEntity
  8
0
  6
Continuous
 62
     7
370
    25
100
AcDbSpline
210
0.0
220
0.0
230
1.0
 70
     8
 71
     3
 72
    13
 73
     9
 74
     0
 42
0.000000001
 43
0.00000001
 40
0.0
 40
0.0
 40
0.0
 40
0.0
 40
0.170632084649598
 40
0.3395984165075754
 40
0.5069574111411415
 40
0.6727691830249297
 40
0.8370955447763889
 40
1.0
 40
1.0
 40
1.0
 40
1.0
 10
380.977020430282
 20
105.3180036954957
 30
0.0
 10
380.9820259006909
 20
105.3110523224144
 30
0.0
 10
380.9919879768632
 20
105.2972174372822
 30
0.0
 10
381.0048618047551
 20
105.2810896788253
 30
0.0
 10
381.016128117251
 20
105.2684209486663
 30
0.0
 10
381.0256054806862
 20
105.2595645108273
 30
0.0
 10
381.033487713381
 20
105.2540524823475
 30
0.0
 10
381.0373026196144
 20
105.2533741362667
 30
0.0
 10
381.0392017843307
 20
105.253036437025
 30
0.0
  0
SPLINE
  5
EA
330
1F
100
AcDbEntity
  8
0
  6
Continuous
 62
     7
370
    25
100
AcDbSpline
210
0.0
220
0.0
230
1.0
 70
     8
 71
     3
 72
    13
 73
     9
 74
     0
 42
0.000000001
 43
0.00000001
 40
0.0
 40
0.0
 40
0.0
 40
0.0
 40
0.1621004456571512
 40
0.325943455157606
 40
0.4915935308260523
 40
0.6591130873964648
 40
0.8285624736043361
 40
1.0
 40
1.0
 40
1.0
 40
1.0
 10
401.6916460504779
 20
105.253036437025
 30
0.0
 10
401.6935231568201
 20
105.2533709201256
 30
0.0
 10
401.697297548213
 20
105.2540434819873
 30
0.0
 10
401.7051446253919
 20
105.259516766383
 30
0.0
 10
401.7146106851671
 20
105.2683362310433
 30
0.0
 10
401.7258915999694
 20
105.2809889880372
 30
0.0
 10
401.7388062184671
 20
105.2971409894337
 30
0.0
 10
401.7488019327129
 20
105.3110267893767
 30
0.0
 10
401.7538289386245
 20
105.3180101821274
 30
0.0
  0
LINE
  5
EB
330
1F
100
AcDbEntity
  8
0
  6
Continuous
 62
     7
370
    25
100
AcDbLine
 10
401.7538419065
 20
105.3180105501
 30
0.0
 11
402.1780640712
 21
104.8692314648
 31
0.0
  0
LINE
  5
EC
330
1F
100
AcDbEntity
  8
0
  6
Continuous
 62
     7
370
    25
100
AcDbLine
 10
399.2988526957
 20
105.328036437
 30
0.0
 11
399.3075740053
 21
105.328036437
 31
0.0
  0
SPLINE
  5
ED
330
1F
100
AcDbEntity
  8
0
  6
Continuous
 62
     7
370
    25
100
AcDbSpline
210
0.0
220
0.0
230
1.0
 70
     8
 71
     3
 72
    13
 73
     9
 74
     0
 42
0.000000001
 43
0.00000001
 40
0.0
 40
0.0
 40
0.0
 40
0.0
 40
0.170527330366418
 40
0.3393382731715298
 40
0.5065592454659379
 40
0.672320302183991
 40
0.8367549624218703
 40
1.0
 40
1.0
 40
1.0
 40
1.0
 10
399.3075868851153
 20
105.3280363027095
 30
0.0
 10
399.3025514815728
 20
105.3200301799426
 30
0.0
 10
399.2925313567099
 20
105.304098517442
 30
0.0
 10
399.2807283140544
 20
105.2854814923327
 30
0.0
 10
399.2713862103431
 20
105.2708424993461
 30
0.0
 10
399.2647905857203
 20
105.2605954298283
 30
0.0
 10
399.2606375630319
 20
105.2542124395596
 30
0.0
 10
399.260111714723
 20
105.2534274879624
 30
0.0
 10
399.2598497450998
 20
105.253036437025
 30
0.0
  0
SPLINE
  5
EE
330
1F
100
AcDbEntity
  8
0
  6
Continuous
 62
     7
370
    25
100
AcDbSpline
210
0.0
220
0.0
230
1.0
 70
     8
 71
     3
 72
     8
 73
     4
 74
     0
 42
0.000000001
 43
0.00000001
 40
0.0
 40
0.0
 40
0.0
 40
0.0
 40
1.0
 40
1.0
 40
1.0
 40
1.0
 10
401.7538419796173
 20
105.3180107951946
 30
0.0
 10
401.7516584953763
 20
105.3208594607109
 30
0.0
 10
401.7494750111351
 20
105.3238002521084
 30
0.0
 10
401.747291526894
 20
105.326832749385
 30
0.0
  0
LINE
  5
EF
330
1F
100
AcDbEntity
  8
0
  6
Continuous
 62
     7
370
    25
100
AcDbLine
 10
401.7463887838
 20
105.328036437
 30
0.0
 11
399.3075784245
 21
105.328036437
 31
0.0
  0
SPLINE
  5
F0
330
1F
100
AcDbEntity
  8
0
  6
Continuous
 62
     7
370
    25
100
AcDbSpline
210
0.0
220
0.0
230
1.0
 70
     8
 71
     3
 72
     8
 73
     4
 74
     0
 42
0.000000001
 43
0.00000001
 40
0.0
 40
0.0
 40
0.0
 40
0.0
 40
1.0
 40
1.0
 40
1.0
 40
1.0
 10
380.9844590743241
 20
105.3280364370326
 30
0.0
 10
380.9819731556376
 20
105.3245747377206
 30
0.0
 10
380.9794872369511
 20
105.3212305858117
 30
0.0
 10
380.9770013182646
 20
105.3180045938713
 30
0.0
  0
LINE
  5
F1
330
1F
100
AcDbEntity
  8
0
  6
Continuous
 62
     7
370
    25
100
AcDbLine
 10
383.4217631309
 20
105.328036437
 30
0.0
 11
380.9846755206
 21
105.328036437
 31
0.0
  0
SPLINE
  5
F2
330
1F
100
AcDbEntity
  8
0
  6
Continuous
 62
     7
370
    25
100
AcDbSpline
210
0.0
220
0.0
230
1.0
 70
     8
 71
     3
 72
    13
 73
     9
 74
     0
 42
0.000000001
 43
0.00000001
 40
0.0
 40
0.0
 40
0.0
 40
0.0
 40
0.1631595583870535
 40
0.3275424452489252
 40
0.4932858679997912
 40
0.6605236853065742
 40
0.8293862019229544
 40
1.0
 40
1.0
 40
1.0
 40
1.0
 10
383.4709980897089
 20
105.253036437025
 30
0.0
 10
383.4707402442222
 20
105.2534270874175
 30
0.0
 10
383.4702226199897
 20
105.2542113171989
 30
0.0
 10
383.4660760237458
 20
105.2605894864337
 30
0.0
 10
383.4594827450702
 20
105.2708319325811
 30
0.0
 10
383.4501383501927
 20
105.28546884863
 30
0.0
 10
383.438328537179
 20
105.3040887074797
 30
0.0
 10
383.4283018198645
 20
105.3200264151271
 30
0.0
 10
383.4232625984248
 20
105.3280363784638
 30
0.0
  0
LINE
  5
F3
330
1F
100
AcDbEntity
  8
0
  6
Continuous
 62
     7
370
    25
100
AcDbLine
 10
383.4232729889
 20
105.328036437
 30
0.0
 11
383.4319951391
 21
105.328036437
 31
0.0
  0
SPLINE
  5
F4
330
1F
100
AcDbEntity
  8
0
  6
Continuous
 62
     7
370
    25
100
AcDbSpline
210
0.0
220
0.0
230
1.0
 70
     8
 71
     3
 72
    14
 73
    10
 74
     0
 42
0.000000001
 43
0.00000001
 40
0.0
 40
0.0
 40
0.0
 40
0.0
 40
0.0310276388071871
 40
0.0622853718672875
 40
0.1248003166904921
 40
0.249828973175415
 40
0.4998892603610702
 40
0.7606803621692766
 40
1.0
 40
1.0
 40
1.0
 40
1.0
 10
380.4053299229452
 20
104.8712982624096
 30
0.0
 10
380.4096592164103
 20
104.8760821846877
 30
0.0
 10
380.4183499084438
 20
104.885685505776
 30
0.0
 10
380.435750687106
 20
104.9049798197738
 30
0.0
 10
380.4662268469509
 20
104.9387447662274
 30
0.0
 10
380.5270482397703
 20
105.0061635250892
 30
0.0
 10
380.6149385821837
 20
105.1036301999563
 30
0.0
 10
380.7177762622671
 20
105.2177747118532
 30
0.0
 10
380.7849823737088
 20
105.2925595248598
 30
0.0
 10
380.8171427353556
 20
105.3283465475038
 30
0.0
  0
LINE
  5
F5
330
1F
100
AcDbEntity
  8
0
  6
Continuous
 62
     7
370
    25
100
AcDbLine
 10
380.8168142362
 20
105.328036437
 30
0.0
 11
380.9844590743
 21
105.328036437
 31
0.0
  0
LINE
  5
F6
330
1F
100
AcDbEntity
  8
0
  6
Continuous
 62
     7
370
    25
100
AcDbLine
 10
401.7463887838
 20
105.328036437
 30
0.0
 11
401.9140409831
 21
105.328036437
 31
0.0
  0
SPLINE
  5
F7
330
1F
100
AcDbEntity
  8
0
  6
Continuous
 62
     7
370
    25
100
AcDbSpline
210
0.0
220
0.0
230
1.0
 70
     8
 71
     3
 72
    11
 73
     7
 74
     0
 42
0.000000001
 43
0.00000001
 40
0.0
 40
0.0
 40
0.0
 40
0.0
 40
0.2392913844325938
 40
0.5001130135003002
 40
0.7515028526498353
 40
0.9999999999999999
 40
0.9999999999999999
 40
0.9999999999999999
 40
0.9999999999999999
 10
401.9137371700747
 20
105.3283232395365
 30
0.0
 10
401.9458937230544
 20
105.2925465209592
 30
0.0
 10
402.01310011518
 20
105.2177740732036
 30
0.0
 10
402.1161282049274
 20
105.1033153598808
 30
0.0
 10
402.2212188695445
 20
104.9871561737609
 30
0.0
 10
402.2908936896242
 20
104.9097682324653
 30
0.0
 10
402.3255295063179
 20
104.8712981718903
 30
0.0
  0
LINE
  5
F8
330
1F
100
AcDbEntity
  8
0
  6
Continuous
 62
     7
370
    25
100
AcDbLine
 10
380.961531247
 20
113.390536437
 30
0.0
 11
380.816958951
 21
113.390536437
 31
0.0
  0
SPLINE
  5
F9
330
1F
100
AcDbEntity
  8
0
  6
Continuous
 62
     7
370
    25
100
AcDbSpline
210
0.0
220
0.0
230
1.0
 70
     8
 71
     3
 72
    11
 73
     7
 74
     0
 42
0.000000001
 43
0.00000001
 40
0.0
 40
0.0
 40
0.0
 40
0.0
 40
0.2392845094479873
 40
0.5001120454076898
 40
0.7515010915036774
 40
1.0
 40
1.0
 40
1.0
 40
1.0
 10
380.8172615731947
 20
113.3902506508283
 30
0.0
 10
380.7851004434247
 20
113.4260484998902
 30
0.0
 10
380.7178826848285
 20
113.5008671145879
 30
0.0
 10
380.6148380363305
 20
113.6153953788431
 30
0.0
 10
380.5097298074437
 20
113.7316263725174
 30
0.0
 10
380.4400442908163
 20
113.8090608682085
 30
0.0
 10
380.4054029783766
 20
113.8475542695445
 30
0.0
  0
SPLINE
  5
FA
330
1F
100
AcDbEntity
  8
0
  6
Continuous
 62
     7
370
    25
100
AcDbSpline
210
0.0
220
0.0
230
1.0
 70
     8
 71
     3
 72
    14
 73
    10
 74
     0
 42
0.000000001
 43
0.00000001
 40
0.0
 40
0.0
 40
0.0
 40
0.0
 40
0.031029414748255
 40
0.0622870907562092
 40
0.1248019217225762
 40
0.249830351143087
 40
0.4998901825554788
 40
0.7606872170552411
 40
1.0
 40
1.0
 40
1.0
 40
1.0
 10
402.3254332411069
 20
113.8475541612684
 30
0.0
 10
402.3211030447913
 20
113.8427669746984
 30
0.0
 10
402.3124107979962
 20
113.8331573856433
 30
0.0
 10
402.2950071696488
 20
113.8138513919373
 30
0.0
 10
402.2645264341136
 20
113.7800661762853
 30
0.0
 10
402.2036958123914
 20
113.7126070453378
 30
0.0
 10
402.1157909092248
 20
113.6150805396275
 30
0.0
 10
402.0129366646079
 20
113.500866532853
 30
0.0
 10
401.9457192064614
 20
113.426035572748
 30
0.0
 10
401.9135542770591
 20
113.3902274268398
 30
0.0
  0
LINE
  5
FB
330
1F
100
AcDbEntity
  8
0
  6
Continuous
 62
     7
370
    25
100
AcDbLine
 10
401.9138814871
 20
113.390536437
 30
0.0
 11
401.7693165645
 21
113.390536437
 31
0.0
  0
LINE
  5
FC
330
1F
100
AcDbEntity
  8
0
  6
Continuous
 62
     7
370
    25
100
AcDbLine
 10
379.4947560526
 20
107.1719486945
 30
0.0
 11
379.93481871
 21
107.253036437
 31
0.0
  0
SPLINE
  5
FD
330
1F
100
AcDbEntity
  8
0
  6
Continuous
 62
     7
370
    25
100
AcDbSpline
210
0.0
220
0.0
230
1.0
 70
     8
 71
     3
 72
    25
 73
    21
 74
     0
 42
0.000000001
 43
0.00000001
 40
0.0
 40
0.0
 40
0.0
 40
0.0
 40
0.0274788704223154
 40
0.0560416006850518
 40
0.0856947086352136
 40
0.116444016653826
 40
0.1482947438681133
 40
0.1812515840470034
 40
0.2153187716748716
 40
0.2505001382254911
 40
0.333051455250936
 40
0.5015081958163736
 40
0.5771663066143947
 40
0.648898130302521
 40
0.716747770006283
 40
0.7807674423488066
 40
0.84101941313403
 40
0.8975784849924567
 40
0.9505352047788314
 40
1.0
 40
1.0
 40
1.0
 40
1.0
 10
379.9348187099931
 20
107.253036437025
 30
0.0
 10
379.9415268773365
 20
107.2238542325075
 30
0.0
 10
379.9552078048933
 20
107.1643387783588
 30
0.0
 10
379.9779725335472
 20
107.0739482813001
 30
0.0
 10
380.0028501707876
 20
106.9808166721789
 30
0.0
 10
380.0299894088051
 20
106.885230627904
 30
0.0
 10
380.0593508158364
 20
106.7874771582908
 30
0.0
 10
380.0909359861244
 20
106.6878964822333
 30
0.0
 10
380.1247828559892
 20
106.5868873426547
 30
0.0
 10
380.176484085922
 20
106.4401205354037
 30
0.0
 10
380.2808430989357
 20
106.1758541224893
 30
0.0
 10
380.4017163266195
 20
105.9058844926608
 30
0.0
 10
380.5152093730766
 20
105.6884748179446
 30
0.0
 10
380.5864823406924
 20
105.558771247214
 30
0.0
 10
380.6485569128183
 20
105.4548961698892
 30
0.0
 10
380.7011409249856
 20
105.3750355360707
 30
0.0
 10
380.7443874709131
 20
105.3170169099201
 30
0.0
 10
380.7779942831332
 20
105.2789133512677
 30
0.0
 10
380.8029412660059
 20
105.256910820273
 30
0.0
 10
380.8119008028679
 20
105.2542982069217
 30
0.0
 10
380.8162278395859
 20
105.253036437025
 30
0.0
  0
LINE
  5
FE
330
1F
100
AcDbEntity
  8
0
  6
Continuous
 62
     7
370
    25
100
AcDbLine
 10
403.2360917822
 20
111.5466241796
 30
0.0
 11
402.7960291248
 21
111.465536437
 31
0.0
  0
SPLINE
  5
FF
330
1F
100
AcDbEntity
  8
0
  6
Continuous
 62
     7
370
    25
100
AcDbSpline
210
0.0
220
0.0
230
1.0
 70
     8
 71
     3
 72
    25
 73
    21
 74
     0
 42
0.000000001
 43
0.00000001
 40
0.0
 40
0.0
 40
0.0
 40
0.0
 40
0.0274788704223041
 40
0.0560416006850305
 40
0.0856947086351823
 40
0.1164440166537841
 40
0.1482947438680617
 40
0.1812515840469434
 40
0.2153187716748025
 40
0.2505001382254136
 40
0.3330514552861967
 40
0.5015081958164245
 40
0.5771663066128696
 40
0.6488981302998588
 40
0.7167477700029257
 40
0.7807674423452041
 40
0.8410194131306359
 40
0.8975784849897311
 40
0.950535204777236
 40
1.0
 40
1.0
 40
1.0
 40
1.0
 10
402.7960291248156
 20
111.465536437025
 30
0.0
 10
402.7893209574721
 20
111.4947186415425
 30
0.0
 10
402.7756400299153
 20
111.5542340956912
 30
0.0
 10
402.7528753012615
 20
111.6446245927499
 30
0.0
 10
402.7279976640211
 20
111.737756201871
 30
0.0
 10
402.7008584260035
 20
111.8333422461459
 30
0.0
 10
402.6714970189723
 20
111.9310957157592
 30
0.0
 10
402.6399118486843
 20
112.0306763918167
 30
0.0
 10
402.6060649788195
 20
112.1316855313952
 30
0.0
 10
402.5543637488742
 20
112.2784523386804
 30
0.0
 10
402.4500047358633
 20
112.5427187515929
 30
0.0
 10
402.3291315081775
 20
112.812688381412
 30
0.0
 10
402.2156384617322
 20
113.0300980561023
 30
0.0
 10
402.1443654941166
 20
113.1598016268312
 30
0.0
 10
402.0822909219909
 20
113.2636767041559
 30
0.0
 10
402.0297069098236
 20
113.3435373379752
 30
0.0
 10
401.9864603638961
 20
113.4015559641271
 30
0.0
 10
401.9528535516758
 20
113.4396595227809
 30
0.0
 10
401.9279065688031
 20
113.4616620537767
 30
0.0
 10
401.9189470319409
 20
113.4642746671282
 30
0.0
 10
401.9146199952228
 20
113.465536437025
 30
0.0
  0
SPLINE
  5
100
330
1F
100
AcDbEntity
  8
0
  6
Continuous
 62
     7
370
    25
100
AcDbSpline
210
0.0
220
0.0
230
1.0
 70
     8
 71
     3
 72
    25
 73
    21
 74
     0
 42
0.000000001
 43
0.00000001
 40
0.0
 40
0.0
 40
0.0
 40
0.0
 40
0.0288821753110086
 40
0.0583636594013118
 40
0.0884647204314734
 40
0.1192044006626603
 40
0.150600580009491
 40
0.1826700399677263
 40
0.2154285269580574
 40
0.248890814337993
 40
0.361059447124065
 40
0.4984670131067773
 40
0.5822693905007604
 40
0.666112764278331
 40
0.7499972937224478
 40
0.8007709755049082
 40
0.8511237700832938
 40
0.9010896024531745
 40
0.9507031914125761
 40
1.0
 40
1.0
 40
1.0
 40
1.0
 10
380.8162278395859
 20
113.465536437025
 30
0.0
 10
380.8139375712082
 20
113.4651081950491
 30
0.0
 10
380.8093095110952
 20
113.4642428250223
 30
0.0
 10
380.7989992480079
 20
113.4571678923206
 30
0.0
 10
380.786163178777
 20
113.4455993511602
 30
0.0
 10
380.7705496200344
 20
113.4288937750478
 30
0.0
 10
380.7522281766218
 20
113.4069568640316
 30
0.0
 10
380.7311805907906
 20
113.3795592285469
 30
0.0
 10
380.7074090187985
 20
113.3465247478648
 30
0.0
 10
380.660352489362
 20
113.277534081737
 30
0.0
 10
380.5726580715051
 20
113.1375081123153
 30
0.0
 10
380.4551064169717
 20
112.9182128111108
 30
0.0
 10
380.3435842526303
 20
112.6812827503396
 30
0.0
 10
380.2521249352823
 20
112.4654408764298
 30
0.0
 10
380.1712432841047
 20
112.2638792555479
 30
0.0
 10
380.1050983822367
 20
112.0850111751558
 30
0.0
 10
380.0557478214096
 20
111.9336349740119
 30
0.0
 10
380.0107808045447
 20
111.7793908188889
 30
0.0
 10
379.9700230906254
 20
111.6232349638133
 30
0.0
 10
379.9465284214082
 20
111.5179902568653
 30
0.0
 10
379.9348187099931
 20
111.465536437025
 30
0.0
  0
LINE
  5
101
330
1F
100
AcDbEntity
  8
0
  6
Continuous
 62
     7
370
    25
100
AcDbLine
 10
379.4947560526
 20
111.5466241796
 30
0.0
 11
379.93481871
 21
111.465536437
 31
0.0
  0
SPLINE
  5
102
330
1F
100
AcDbEntity
  8
0
  6
Continuous
 62
     7
370
    25
100
AcDbSpline
210
0.0
220
0.0
230
1.0
 70
     8
 71
     3
 72
    25
 73
    21
 74
     0
 42
0.000000001
 43
0.00000001
 40
0.0
 40
0.0
 40
0.0
 40
0.0
 40
0.0288821753116583
 40
0.0583636594024247
 40
0.088464720432864
 40
0.1192044006641432
 40
0.1506005800108822
 40
0.1826700399688414
 40
0.2154285269587146
 40
0.2488908143380118
 40
0.3610594471217245
 40
0.498467013106778
 40
0.5822693905006526
 40
0.6661127642782239
 40
0.7499972937224496
 40
0.8007709755032478
 40
0.8511237700807983
 40
0.901089602450676
 40
0.9507031914109089
 40
1.0
 40
1.0
 40
1.0
 40
1.0
 10
401.9146199952228
 20
105.253036437025
 30
0.0
 10
401.9169102636005
 20
105.2534646790009
 30
0.0
 10
401.9215383237136
 20
105.2543300490277
 30
0.0
 10
401.931848586801
 20
105.2614049817296
 30
0.0
 10
401.9446846560319
 20
105.2729735228904
 30
0.0
 10
401.9602982147746
 20
105.2896790990031
 30
0.0
 10
401.9786196581871
 20
105.3116160100194
 30
0.0
 10
401.9996672440183
 20
105.3390136455041
 30
0.0
 10
402.0234388160102
 20
105.3720481261859
 30
0.0
 10
402.0704953454465
 20
105.4410387923124
 30
0.0
 10
402.1581897633043
 20
105.581064761733
 30
0.0
 10
402.2757414178363
 20
105.8003600629371
 30
0.0
 10
402.3872635821771
 20
106.0372901237105
 30
0.0
 10
402.4787228995252
 20
106.2531319976204
 30
0.0
 10
402.5596045507031
 20
106.4546936185005
 30
0.0
 10
402.6257494525712
 20
106.63356169889
 30
0.0
 10
402.6751000133977
 20
106.7849379000311
 30
0.0
 10
402.7200670302626
 20
106.939182055154
 30
0.0
 10
402.7608247441823
 20
107.0953379102322
 30
0.0
 10
402.7843194134001
 20
107.2005826171829
 30
0.0
 10
402.7960291248156
 20
107.253036437025
 30
0.0
  0
LINE
  5
103
330
1F
100
AcDbEntity
  8
0
  6
Continuous
 62
     7
370
    25
100
AcDbLine
 10
403.2360917822
 20
107.1719486945
 30
0.0
 11
402.7960291248
 21
107.253036437
 31
0.0
  0
SPLINE
  5
104
330
1F
100
AcDbEntity
  8
0
  6
Continuous
 62
     7
370
    25
100
AcDbSpline
210
0.0
220
0.0
230
1.0
 70
     8
 71
     3
 72
    16
 73
    12
 74
     0
 42
0.000000001
 43
0.00000001
 40
0.0
 40
0.0
 40
0.0
 40
0.0
 40
0.0870061775074587
 40
0.1851056111355291
 40
0.2943803716251409
 40
0.3925759841529199
 40
0.4909775276861052
 40
0.5895880030703908
 40
0.7549180486651427
 40
0.9066441298749784
 40
0.9999999999999999
 40
0.9999999999999999
 40
0.9999999999999999
 40
0.9999999999999999
 10
382.4675660291258
 20
111.465536437025
 30
0.0
 10
382.4898537355612
 20
111.5434930246082
 30
0.0
 10
382.5372708229305
 20
111.7093456364574
 30
0.0
 10
382.624233048466
 20
111.9658406491955
 30
0.0
 10
382.7209940741309
 20
112.2208474229071
 30
0.0
 10
382.8216505992155
 20
112.460887718436
 30
0.0
 10
382.9191712942914
 20
112.675903222853
 30
0.0
 10
383.0432583699696
 20
112.9145143351248
 30
0.0
 10
383.173937519364
 20
113.1453289479413
 30
0.0
 10
383.277896286005
 20
113.3239936887046
 30
0.0
 10
383.3123774713036
 20
113.3784947951978
 30
0.0
 10
383.3255119393417
 20
113.3992551906155
 30
0.0
  0
SPLINE
  5
105
330
1F
100
AcDbEntity
  8
0
  6
Continuous
 62
     7
370
    25
100
AcDbSpline
210
0.0
220
0.0
230
1.0
 70
     8
 71
     3
 72
    16
 73
    12
 74
     0
 42
0.000000001
 43
0.00000001
 40
0.0
 40
0.0
 40
0.0
 40
0.0
 40
0.0880319371339328
 40
0.1872879143798576
 40
0.2978509700519604
 40
0.3972042600988014
 40
0.4967659089756308
 40
0.5965389529066326
 40
0.7638181576519493
 40
0.917333014028731
 40
1.0
 40
1.0
 40
1.0
 40
1.0
 10
400.2632818056828
 20
107.253036437025
 30
0.0
 10
400.2409941067002
 20
107.1750798635395
 30
0.0
 10
400.193577035184
 20
107.0092272816738
 30
0.0
 10
400.106614673962
 20
106.7527320123485
 30
0.0
 10
400.0098542135459
 20
106.4977263075334
 30
0.0
 10
399.9091957386369
 20
106.2576823248147
 30
0.0
 10
399.8116821639343
 20
106.0426802852623
 30
0.0
 10
399.6875624071107
 20
105.804007371855
 30
0.0
 10
399.5570831508148
 20
105.573570763594
 30
0.0
 10
399.45543798899
 20
105.3987722194967
 30
0.0
 10
399.4223389511835
 20
105.3463758926475
 30
0.0
 10
399.4107538197152
 20
105.328036437025
 30
0.0
  0
SPLINE
  5
106
330
1F
100
AcDbEntity
  8
0
  6
Continuous
 62
     7
370
    25
100
AcDbSpline
210
0.0
220
0.0
230
1.0
 70
     8
 71
     3
 72
    15
 73
    11
 74
     0
 42
0.000000001
 43
0.00000001
 40
0.0
 40
0.0
 40
0.0
 40
0.0
 40
0.0210215873997391
 40
0.0995174370234918
 40
0.2360970702300488
 40
0.3979402345642526
 40
0.5486163820120215
 40
0.700032141451838
 40
0.8517813609343974
 40
1.0
 40
1.0
 40
1.0
 40
1.0
 10
383.3186482117987
 20
105.328036437025
 30
0.0
 10
383.3157994009744
 20
105.3325210845261
 30
0.0
 10
383.3023129621814
 20
105.3537516708173
 30
0.0
 10
383.2549069882385
 20
105.4308866080428
 30
0.0
 10
383.1617636594372
 20
105.5868165899177
 30
0.0
 10
383.0253446390983
 20
105.8358318146218
 30
0.0
 10
382.8760214588619
 20
106.1454706671757
 30
0.0
 10
382.7228577623291
 20
106.4874350567045
 30
0.0
 10
382.5772237696586
 20
106.858543382598
 30
0.0
 10
382.5038306670641
 20
107.1225746226702
 30
0.0
 10
382.4675660291258
 20
107.253036437025
 30
0.0
  0
LINE
  5
107
330
1F
100
AcDbEntity
  8
0
  6
Continuous
 62
     7
370
    25
100
AcDbLine
 10
382.7838261865
 20
111.3906731424
 30
0.0
 11
382.4675660291
 21
111.465536437
 31
0.0
  0
SPLINE
  5
108
330
1F
100
AcDbEntity
  8
0
  6
Continuous
 62
     7
370
    25
100
AcDbSpline
210
0.0
220
0.0
230
1.0
 70
     8
 71
     3
 72
    25
 73
    21
 74
     0
 42
0.000000001
 43
0.00000001
 40
0.0
 40
0.0
 40
0.0
 40
0.0
 40
0.0278144320063462
 40
0.0555680196245754
 40
0.083331625367772
 40
0.111176035216759
 40
0.1391714221532265
 40
0.1673868326284763
 40
0.1958897140434718
 40
0.2247454979318961
 40
0.254017249222145
 40
0.3796724410016501
 40
0.5056484635002454
 40
0.629752729069345
 40
0.7535891720571729
 40
0.8038564806093713
 40
0.853339684343451
 40
0.9023264398358534
 40
0.9511131859219439
 40
1.0
 40
1.0
 40
1.0
 40
1.0
 10
383.6514478281158
 20
113.6330347282075
 30
0.0
 10
383.6513000768011
 20
113.6327681856539
 30
0.0
 10
383.6510048973794
 20
113.6322356836117
 30
0.0
 10
383.6473801983636
 20
113.6256882349156
 30
0.0
 10
383.6414343026933
 20
113.6149189916294
 30
0.0
 10
383.6329595797782
 20
113.5995082557051
 30
0.0
 10
383.622044592939
 20
113.5795518794513
 30
0.0
 10
383.6087085247007
 20
113.5550017829809
 30
0.0
 10
383.5930007600138
 20
113.5258451592249
 30
0.0
 10
383.5749691718559
 20
113.4920491877915
 30
0.0
 10
383.5325516271074
 20
113.4116424297337
 30
0.0
 10
383.4520305873539
 20
113.254653980063
 30
0.0
 10
383.3186042404794
 20
112.9728682423157
 30
0.0
 10
383.1745272637963
 20
112.6349961326887
 30
0.0
 10
383.0588495123449
 20
112.3263152189504
 30
0.0
 10
382.9763380371277
 20
112.0802844991954
 30
0.0
 10
382.9234164126025
 20
111.9114586079222
 30
0.0
 10
382.8735592782251
 20
111.7401430369105
 30
0.0
 10
382.8265412849946
 20
111.5664606866897
 30
0.0
 10
382.798074274266
 20
111.4493089983862
 30
0.0
 10
382.7838261864673
 20
111.3906731424248
 30
0.0
  0
LINE
  5
109
330
1F
100
AcDbEntity
  8
0
  6
Continuous
 62
     7
370
    25
100
AcDbLine
 10
382.7838261865
 20
107.3278997316
 30
0.0
 11
382.4675660291
 21
107.253036437
 31
0.0
  0
SPLINE
  5
10A
330
1F
100
AcDbEntity
  8
0
  6
Continuous
 62
     7
370
    25
100
AcDbSpline
210
0.0
220
0.0
230
1.0
 70
     8
 71
     3
 72
    25
 73
    21
 74
     0
 42
0.000000001
 43
0.00000001
 40
0.0
 40
0.0
 40
0.0
 40
0.0
 40
0.0269872354797669
 40
0.0539362690259618
 40
0.0809037148829035
 40
0.1079460716545392
 40
0.1351193706855853
 40
0.162478838835575
 40
0.190078585418252
 40
0.2179713214290535
 40
0.2462081170984584
 40
0.3700050494705653
 40
0.4947542611659071
 40
0.6210439034695193
 40
0.7446557472315123
 40
0.7967060293738726
 40
0.8478613449329371
 40
0.8985210411990388
 40
0.9490962115257747
 40
1.0
 40
1.0
 40
1.0
 40
1.0
 10
382.7838261864673
 20
107.3278997316251
 30
0.0
 10
382.7916069311913
 20
107.2955033265974
 30
0.0
 10
382.8071574065623
 20
107.2307563754561
 30
0.0
 10
382.8318428125355
 20
107.1341098390274
 30
0.0
 10
382.8574627695345
 20
107.0380157505361
 30
0.0
 10
382.884105633162
 20
106.9425034798194
 30
0.0
 10
382.9117308184465
 20
106.8475787524267
 30
0.0
 10
382.9403325975057
 20
106.753252596291
 30
0.0
 10
382.9698946871472
 20
106.6595362518418
 30
0.0
 10
383.0004078341944
 20
106.5664321679515
 30
0.0
 10
383.0671420387837
 20
106.3701669258385
 30
0.0
 10
383.1743252148794
 20
106.0840938102352
 30
0.0
 10
383.3181053051882
 20
105.7468039142418
 30
0.0
 10
383.4513537614001
 20
105.4652947374183
 30
0.0
 10
383.5390249376132
 20
105.2943038072399
 30
0.0
 10
383.5898999734056
 20
105.1983909888574
 30
0.0
 10
383.617569128057
 20
105.1471737854028
 30
0.0
 10
383.6372680461745
 20
105.1111909913177
 30
0.0
 10
383.649515554878
 20
105.0890211029957
 30
0.0
 10
383.6508023480341
 20
105.0867016352622
 30
0.0
 10
383.6514478281158
 20
105.0855381458425
 30
0.0
  0
SPLINE
  5
10B
330
1F
100
AcDbEntity
  8
0
  6
Continuous
 62
     7
370
    25
100
AcDbSpline
210
0.0
220
0.0
230
1.0
 70
     8
 71
     3
 72
    15
 73
    11
 74
     0
 42
0.000000001
 43
0.00000001
 40
0.0
 40
0.0
 40
0.0
 40
0.0
 40
0.0210215874028217
 40
0.0995174370237692
 40
0.2360970702364024
 40
0.3979402345644331
 40
0.5486163820121709
 40
0.7000321414519293
 40
0.8517813609347173
 40
1.0
 40
1.0
 40
1.0
 40
1.0
 10
399.4121996230085
 20
113.390536437025
 30
0.0
 10
399.4150484338332
 20
113.3860517895231
 30
0.0
 10
399.4285348726264
 20
113.3648212032316
 30
0.0
 10
399.4759408465728
 20
113.2876862660042
 30
0.0
 10
399.5690841753742
 20
113.1317562841293
 30
0.0
 10
399.7055031957121
 20
112.882741059424
 30
0.0
 10
399.8548263759469
 20
112.5731022068743
 30
0.0
 10
400.0079900724796
 20
112.2311378173452
 30
0.0
 10
400.15362406515
 20
111.8600294914517
 30
0.0
 10
400.2270171677446
 20
111.5959982513795
 30
0.0
 10
400.2632818056828
 20
111.465536437025
 30
0.0
  0
LINE
  5
10C
330
1F
100
AcDbEntity
  8
0
  6
Continuous
 62
     7
370
    25
100
AcDbLine
 10
399.9470216483
 20
111.3906731424
 30
0.0
 11
400.2632818057
 21
111.465536437
 31
0.0
  0
SPLINE
  5
10D
330
1F
100
AcDbEntity
  8
0
  6
Continuous
 62
     7
370
    25
100
AcDbSpline
210
0.0
220
0.0
230
1.0
 70
     8
 71
     3
 72
    14
 73
    10
 74
     0
 42
0.000000001
 43
0.00000001
 40
0.0
 40
0.0
 40
0.0
 40
0.0
 40
0.1400505389350903
 40
0.2837941391411564
 40
0.4267315409806389
 40
0.5707684557847207
 40
0.7165839699846748
 40
0.8593076663242981
 40
1.0
 40
1.0
 40
1.0
 40
1.0
 10
399.9470216483414
 20
111.3906731424248
 30
0.0
 10
399.9102547191391
 20
111.5362331736684
 30
0.0
 10
399.8357513355666
 20
111.8311915799284
 30
0.0
 10
399.7005621163811
 20
112.2492555888023
 30
0.0
 10
399.5566777132771
 20
112.6343082822369
 30
0.0
 10
399.4125409733049
 20
112.9721162908222
 30
0.0
 10
399.2801453005226
 20
113.2520570814464
 30
0.0
 10
399.1692245196988
 20
113.4681975690826
 30
0.0
 10
399.1278890392613
 20
113.5442607147667
 30
0.0
 10
399.107369433486
 20
113.5820196992265
 30
0.0
  0
LINE
  5
10E
330
1F
100
AcDbEntity
  8
0
  6
Continuous
 62
     7
370
    25
100
AcDbLine
 10
399.9470216483
 20
107.3278997316
 30
0.0
 11
400.2632818057
 21
107.253036437
 31
0.0
  0
SPLINE
  5
10F
330
1F
100
AcDbEntity
  8
0
  6
Continuous
 62
     7
370
    25
100
AcDbSpline
210
0.0
220
0.0
230
1.0
 70
     8
 71
     3
 72
    25
 73
    21
 74
     0
 42
0.000000001
 43
0.00000001
 40
0.0
 40
0.0
 40
0.0
 40
0.0
 40
0.0278144320057649
 40
0.0555680196235595
 40
0.083331625366468
 40
0.1111760352153128
 40
0.1391714221517827
 40
0.1673868326271739
 40
0.195889714042447
 40
0.2247454979312803
 40
0.2540172492220635
 40
0.3796724409988544
 40
0.505648463500191
 40
0.6297527290689083
 40
0.7535891720572004
 40
0.803856480609888
 40
0.85333968434422
 40
0.902326439836625
 40
0.9511131859224594
 40
1.0
 40
1.0
 40
1.0
 40
1.0
 10
399.0794000066928
 20
105.0855381458425
 30
0.0
 10
399.0795477580075
 20
105.085804688396
 30
0.0
 10
399.0798429374293
 20
105.0863371904383
 30
0.0
 10
399.0834676364451
 20
105.0928846391344
 30
0.0
 10
399.0894135321155
 20
105.1036538824207
 30
0.0
 10
399.0978882550305
 20
105.119064618345
 30
0.0
 10
399.1088032418696
 20
105.1390209945987
 30
0.0
 10
399.122139310108
 20
105.1635710910692
 30
0.0
 10
399.137847074795
 20
105.1927277148251
 30
0.0
 10
399.1558786629529
 20
105.2265236862586
 30
0.0
 10
399.1982962076999
 20
105.3069304443138
 30
0.0
 10
399.2788172474537
 20
105.463918893985
 30
0.0
 10
399.4122435943281
 20
105.7457046317319
 30
0.0
 10
399.5563205710117
 20
106.0835767413597
 30
0.0
 10
399.6719983224637
 20
106.3922576550995
 30
0.0
 10
399.7545097976815
 20
106.6382883748561
 30
0.0
 10
399.8074314222069
 20
106.8071142661302
 30
0.0
 10
399.8572885565842
 20
106.978429837142
 30
0.0
 10
399.9043065498145
 20
107.1521121873619
 30
0.0
 10
399.9327735605427
 20
107.2692638756644
 30
0.0
 10
399.9470216483414
 20
107.3278997316251
 30
0.0
  0
ARC
  5
110
330
1F
100
AcDbEntity
  8
0
  6
Continuous
 62
     7
370
    25
100
AcDbCircle
 10
391.3654239174
 20
109.359286437
 30
0.0
 40
11.6230385214107
100
AcDbArc
 50
169.5595567507
 51
190.4404432494
  0
ARC
  5
111
330
1F
100
AcDbEntity
  8
0
  6
Continuous
 62
     7
370
    25
100
AcDbCircle
 10
391.3654239174
 20
109.359286437
 30
0.0
 40
9.143750000000006
100
AcDbArc
 50
166.6824039243
 51
193.3175960757
  0
ARC
  5
112
330
1F
100
AcDbEntity
  8
0
  6
Continuous
 62
     7
370
    25
100
AcDbCircle
 10
391.3654239174
 20
109.359286437
 30
0.0
 40
8.81874999999997
100
AcDbArc
 50
166.6824039243
 51
193.3175960757
  0
ARC
  5
113
330
1F
100
AcDbEntity
  8
0
  6
Continuous
 62
     7
370
    25
100
AcDbCircle
 10
391.3654239174
 20
109.359286437
 30
0.0
 40
9.143750000000006
100
AcDbArc
 50
346.6824039243
 51
13.3175960757
  0
ARC
  5
114
330
1F
100
AcDbEntity
  8
0
  6
Continuous
 62
     7
370
    25
100
AcDbCircle
 10
391.3654239174
 20
109.359286437
 30
0.0
 40
8.81874999999997
100
AcDbArc
 50
346.6824039243
 51
13.3175960757
  0
ARC
  5
115
330
1F
100
AcDbEntity
  8
0
  6
Continuous
 62
     7
370
    25
100
AcDbCircle
 10
391.3654239174
 20
109.359286437
 30
0.0
 40
11.6230385214107
100
AcDbArc
 50
349.5595567507
 51
10.4404432493
  0
CIRCLE
  5
116
330
1F
100
AcDbEntity
  8
0
  6
Continuous
 62
     7
370
    25
100
AcDbCircle
 10
391.3654239174
 20
109.359286437
 30
0.0
 40
7.774999999999977
  0
CIRCLE
  5
117
330
1F
100
AcDbEntity
  8
0
  6
Continuous
 62
     7
370
    25
100
AcDbCircle
 10
391.3654239174
 20
109.359286437
 30
0.0
 40
2.615470053837896
  0
CIRCLE
  5
118
330
1F
100
AcDbEntity
  8
0
  6
Continuous
 62
     7
370
    25
100
AcDbCircle
 10
391.3654239174
 20
109.359286437
 30
0.0
 40
2.5
  0
CIRCLE
  5
119
330
1F
100
AcDbEntity
  8
0
  6
Continuous
 62
     7
370
    25
100
AcDbCircle
 10
391.3654239174
 20
109.359286437
 30
0.0
 40
15.73749999999995
  0
CIRCLE
  5
11A
330
1F
100
AcDbEntity
  8
0
  6
Continuous
 62
     7
370
    25
100
AcDbCircle
 10
391.3654239174
 20
109.359286437
 30
0.0
 40
13.42499999999995
  0
CIRCLE
  5
11B
330
1F
100
AcDbEntity
  8
0
  6
Continuous
 62
     7
370
    25
100
AcDbCircle
 10
391.3654239174
 20
109.359286437
 30
0.0
 40
2.0
  0
LINE
  5
11C
330
1F
100
AcDbEntity
  8
0
  6
CENTER
 62
     7
370
    18
100
AcDbLine
 10
391.3654239174
 20
109.359286437
 30
0.0
 11
391.3654239174
 21
128.873786437
 31
0.0
  0
LINE
  5
11D
330
1F
100
AcDbEntity
  8
0
  6
CENTER
 62
     7
370
    18
100
AcDbLine
 10
391.3654239174
 20
109.359286437
 30
0.0
 11
410.8799239174
 21
109.359286437
 31
0.0
  0
LINE
  5
11E
330
1F
100
AcDbEntity
  8
0
  6
Continuous
 62
     7
370
    18
100
AcDbLine
 10
403.3654239174
 20
126.873786437
 30
0.0
 11
391.3654239174
 21
126.873786437
 31
0.0
  0
SOLID
  5
11F
330
1F
100
AcDbEntity
  8
0
  6
Continuous
 62
     7
370
    18
100
AcDbTrace
 10
391.3654239174
 20
126.873786437
 30
0.0
 11
397.3654239174
 21
125.373786437
 31
0.0
 12
397.3654239174
 22
128.373786437
 32
0.0
 13
397.3654239174
 23
128.373786437
 33
0.0
  0
LINE
  5
120
330
1F
100
AcDbEntity
  8
0
  6
Continuous
 62
     7
370
    18
100
AcDbLine
 10
420.8799239174
 20
109.359286437
 30
0.0
 11
408.8799239174
 21
109.359286437
 31
0.0
  0
SOLID
  5
121
330
1F
100
AcDbEntity
  8
0
  6
Continuous
 62
     7
370
    18
100
AcDbTrace
 10
408.8799239174
 20
109.359286437
 30
0.0
 11
414.8799239174
 21
107.859286437
 31
0.0
 12
414.8799239174
 22
110.859286437
 32
0.0
 13
414.8799239174
 23
110.859286437
 33
0.0
  0
MTEXT
  5
122
330
1F
100
AcDbEntity
  8
0
  6
Continuous
 62
     7
100
AcDbMText
 10
400.2156945941
 20
133.5229593694
 30
0.0
 40
3.5
 41
0.0
 71
     1
 72
     1
  1
A
  7
SLDTEXTSTYLE0
 73
     1
 44
1.0
  0
MTEXT
  5
123
330
1F
100
AcDbEntity
  8
0
  6
Continuous
 62
     7
100
AcDbMText
 10
417.7301945941
 20
107.1451118506
 30
0.0
 40
3.5
 41
0.0
 71
     1
 72
     1
  1
A
  7
SLDTEXTSTYLE0
 73
     1
 44
1.0
  0
LINE
  5
124
330
1F
100
AcDbEntity
  8
VERMASSUNG
  6
CENTERX2
370
    18
100
AcDbLine
 10
403.0336027401
 20
112.389286437
 30
0.0
 11
396.6871557359
 21
112.389286437
 31
0.0
  0
LINE
  5
125
330
1F
100
AcDbEntity
  8
VERMASSUNG
  6
CENTERX2
370
    18
100
AcDbLine
 10
404.002840533
 20
111.465536437
 30
0.0
 11
397.233890792
 21
111.465536437
 31
0.0
  0
LINE
  5
126
330
1F
100
AcDbEntity
  8
VERMASSUNG
  6
CENTERX2
370
    18
100
AcDbLine
 10
404.0021948908
 20
107.253036437
 30
0.0
 11
397.232349546
 21
107.253036437
 31
0.0
  0
LINE
  5
127
330
1F
100
AcDbEntity
  8
VERMASSUNG
  6
CENTERX2
370
    18
100
AcDbLine
 10
384.7597433991
 20
107.253036437
 30
0.0
 11
377.8050240548
 21
107.253036437
 31
0.0
  0
LINE
  5
128
330
1F
100
AcDbEntity
  8
VERMASSUNG
  6
CENTERX2
370
    18
100
AcDbLine
 10
384.5752165072
 20
111.465536437
 30
0.0
 11
377.8053711624
 21
111.465536437
 31
0.0
  0
LINE
  5
129
330
1F
100
AcDbEntity
  8
VERMASSUNG
  6
CENTERX2
370
    18
100
AcDbLine
 10
385.2617215915
 20
112.389286437
 30
0.0
 11
378.9174035428
 21
112.389286437
 31
0.0
  0
LINE
  5
12A
330
1F
100
AcDbEntity
  8
0
  6
Continuous
 62
     7
370
    25
100
AcDbLine
 10
150.439789846
 20
77.884286437
 30
0.0
 11
155.2055920414
 21
77.884286437
 31
0.0
  0
ARC
  5
12B
330
1F
100
AcDbEntity
  8
0
  6
Continuous
 62
     7
370
    25
100
AcDbCircle
 10
137.4055920414
 20
78.084286437
 30
0.0
 40
0.2000000000000171
100
AcDbArc
 50
180.0
 51
270.0
  0
LINE
  5
12C
330
1F
100
AcDbEntity
  8
0
  6
Continuous
 62
     7
370
    25
100
AcDbLine
 10
137.4055920414
 20
77.884286437
 30
0.0
 11
143.7713942368
 21
77.884286437
 31
0.0
  0
LINE
  5
12D
330
1F
100
AcDbEntity
  8
0
  6
Continuous
 62
     7
370
    25
100
AcDbLine
 10
143.7713942368
 20
77.884286437
 30
0.0
 11
145.2305920414
 21
80.4116911728
 31
0.0
  0
LINE
  5
12E
330
1F
100
AcDbEntity
  8
0
  6
Continuous
 62
     7
370
    25
100
AcDbLine
 10
148.9805920414
 20
80.4116911728
 30
0.0
 11
150.439789846
 21
77.884286437
 31
0.0
  0
ARC
  5
12F
330
1F
100
AcDbEntity
  8
0
  6
Continuous
 62
     7
370
    25
100
AcDbCircle
 10
146.2305920414
 20
80.509286437
 30
0.0
 40
1.0
100
AcDbArc
 50
90.0
 51
180.0
  0
ARC
  5
130
330
1F
100
AcDbEntity
  8
0
  6
Continuous
 62
     7
370
    25
100
AcDbCircle
 10
147.9805920414
 20
80.509286437
 30
0.0
 40
1.0
100
AcDbArc
 50
0.0
 51
90.0
  0
LINE
  5
131
330
1F
100
AcDbEntity
  8
0
  6
Continuous
 62
     7
370
    25
100
AcDbLine
 10
146.2305920414
 20
81.509286437
 30
0.0
 11
147.9805920414
 21
81.509286437
 31
0.0
  0
ARC
  5
132
330
1F
100
AcDbEntity
  8
0
  6
Continuous
 62
     7
370
    25
100
AcDbCircle
 10
158.2055920414
 20
82.359286437
 30
0.0
 40
3.000000000000014
100
AcDbArc
 50
90.0
 51
180.0
  0
ARC
  5
133
330
1F
100
AcDbEntity
  8
0
  6
Continuous
 62
     7
370
    25
100
AcDbCircle
 10
136.7766571668
 20
83.809286437
 30
0.0
 40
0.8000000000000047
100
AcDbArc
 50
57.576802718
 51
107.5
  0
LINE
  5
134
330
1F
100
AcDbEntity
  8
0
  6
Continuous
 62
     7
370
    25
100
AcDbLine
 10
136.0454100014
 20
84.4175483915
 30
0.0
 11
136.5360925272
 21
84.5722599976
 31
0.0
  0
LINE
  5
135
330
1F
100
AcDbEntity
  8
0
  6
Continuous
 62
     7
370
    25
100
AcDbLine
 10
122.7191465734
 20
85.0867659163
 30
0.0
 11
136.0454100014
 21
84.4175483915
 31
0.0
  0
LINE
  5
136
330
1F
100
AcDbEntity
  8
0
  6
Continuous
 62
     7
370
    25
100
AcDbLine
 10
98.7555920414
 20
86.2901663094
 30
0.0
 11
106.8104289049
 21
85.8856689785
 31
0.0
  0
LINE
  5
137
330
1F
100
AcDbEntity
  8
0
  6
Continuous
 62
     7
370
    25
100
AcDbLine
 10
158.2055920414
 20
85.359286437
 30
0.0
 11
186.4830574389
 21
85.359286437
 31
0.0
  0
LINE
  5
138
330
1F
100
AcDbEntity
  8
0
  6
Continuous
 62
     7
370
    25
100
AcDbLine
 10
186.4830574389
 20
85.359286437
 30
0.0
 11
196.0508285649
 21
89.8208113846
 31
0.0
  0
LINE
  5
139
330
1F
100
AcDbEntity
  8
0
  6
Continuous
 62
     7
370
    25
100
AcDbLine
 10
97.2555920414
 20
87.1561917132
 30
0.0
 11
98.7555920414
 21
86.2901663094
 31
0.0
  0
ARC
  5
13A
330
1F
100
AcDbEntity
  8
0
  6
Continuous
 62
     7
370
    25
100
AcDbCircle
 10
195.2055920414
 20
91.6334269586
 30
0.0
 40
2.000000000000001
100
AcDbArc
 50
295.0
 51
0.0
  0
LINE
  5
13B
330
1F
100
AcDbEntity
  8
0
  6
Continuous
 62
     7
370
    25
100
AcDbLine
 10
168.7055920414
 20
116.859286437
 30
0.0
 11
166.7055920414
 21
118.859286437
 31
0.0
  0
LINE
  5
13C
330
1F
100
AcDbEntity
  8
0
  6
Continuous
 62
     7
370
    25
100
AcDbLine
 10
166.7055920414
 20
118.859286437
 30
0.0
 11
166.7055920414
 21
132.359286437
 31
0.0
  0
LINE
  5
13D
330
1F
100
AcDbEntity
  8
0
  6
Continuous
 62
     7
370
    25
100
AcDbLine
 10
166.7055920414
 20
132.359286437
 30
0.0
 11
167.7055920414
 21
133.359286437
 31
0.0
  0
LINE
  5
13E
330
1F
100
AcDbEntity
  8
0
  6
Continuous
 62
     7
370
    25
100
AcDbLine
 10
167.7055920414
 20
133.359286437
 30
0.0
 11
170.7023135995
 21
133.359286437
 31
0.0
  0
LINE
  5
13F
330
1F
100
AcDbEntity
  8
0
  6
Continuous
 62
     7
370
    25
100
AcDbLine
 10
170.7023135995
 20
133.359286437
 30
0.0
 11
170.7023135995
 21
125.359286437
 31
0.0
  0
LINE
  5
140
330
1F
100
AcDbEntity
  8
0
  6
Continuous
 62
     7
370
    25
100
AcDbLine
 10
176.7088704833
 20
125.359286437
 30
0.0
 11
170.7023135995
 21
125.359286437
 31
0.0
  0
LINE
  5
141
330
1F
100
AcDbEntity
  8
0
  6
Continuous
 62
     7
370
    25
100
AcDbLine
 10
176.7088704833
 20
125.359286437
 30
0.0
 11
176.7088704833
 21
133.359286437
 31
0.0
  0
LINE
  5
142
330
1F
100
AcDbEntity
  8
0
  6
Continuous
 62
     7
370
    25
100
AcDbLine
 10
176.7088704833
 20
133.359286437
 30
0.0
 11
179.7055920414
 21
133.359286437
 31
0.0
  0
LINE
  5
143
330
1F
100
AcDbEntity
  8
0
  6
Continuous
 62
     7
370
    25
100
AcDbLine
 10
179.7055920414
 20
133.359286437
 30
0.0
 11
180.7055920414
 21
132.359286437
 31
0.0
  0
LINE
  5
144
330
1F
100
AcDbEntity
  8
0
  6
Continuous
 62
     7
370
    25
100
AcDbLine
 10
180.7055920414
 20
132.359286437
 30
0.0
 11
180.7055920414
 21
118.859286437
 31
0.0
  0
LINE
  5
145
330
1F
100
AcDbEntity
  8
0
  6
Continuous
 62
     7
370
    25
100
AcDbLine
 10
180.7055920414
 20
118.859286437
 30
0.0
 11
178.7055920414
 21
116.859286437
 31
0.0
  0
LINE
  5
146
330
1F
100
AcDbEntity
  8
0
  6
Continuous
 62
     7
370
    25
100
AcDbLine
 10
178.7055920414
 20
116.859286437
 30
0.0
 11
177.4555920414
 21
116.859286437
 31
0.0
  0
LINE
  5
147
330
1F
100
AcDbEntity
  8
0
  6
Continuous
 62
     7
370
    25
100
AcDbLine
 10
173.7055920414
 20
119.0243499465
 30
0.0
 11
177.4555920414
 21
116.859286437
 31
0.0
  0
LINE
  5
148
330
1F
100
AcDbEntity
  8
0
  6
Continuous
 62
     7
370
    25
100
AcDbLine
 10
169.9555920414
 20
116.859286437
 30
0.0
 11
173.7055920414
 21
119.0243499465
 31
0.0
  0
LINE
  5
149
330
1F
100
AcDbEntity
  8
0
  6
Continuous
 62
     7
370
    25
100
AcDbLine
 10
169.9555920414
 20
116.859286437
 30
0.0
 11
168.7055920414
 21
116.859286437
 31
0.0
  0
LINE
  5
14A
330
1F
100
AcDbEntity
  8
0
  6
Continuous
 62
     7
370
    25
100
AcDbLine
 10
177.4555920414
 20
116.859286437
 30
0.0
 11
169.9555920414
 21
116.859286437
 31
0.0
  0
LINE
  5
14B
330
1F
100
AcDbEntity
  8
0
  6
Continuous
 62
     7
370
    25
100
AcDbLine
 10
176.6214088894
 20
125.359286437
 30
0.0
 11
176.6214088894
 21
133.359286437
 31
0.0
  0
LINE
  5
14C
330
1F
100
AcDbEntity
  8
0
  6
Continuous
 62
     7
370
    25
100
AcDbLine
 10
176.6214088894
 20
133.359286437
 30
0.0
 11
176.7088704833
 21
133.359286437
 31
0.0
  0
LINE
  5
14D
330
1F
100
AcDbEntity
  8
0
  6
Continuous
 62
     7
370
    25
100
AcDbLine
 10
173.5437754636
 20
125.359286437
 30
0.0
 11
173.5437754636
 21
133.359286437
 31
0.0
  0
LINE
  5
14E
330
1F
100
AcDbEntity
  8
0
  6
Continuous
 62
     7
370
    25
100
AcDbLine
 10
173.5437754636
 20
133.359286437
 30
0.0
 11
170.7023135995
 21
133.359286437
 31
0.0
  0
LINE
  5
14F
330
1F
100
AcDbEntity
  8
0
  6
Continuous
 62
     7
370
    25
100
AcDbLine
 10
173.5437754636
 20
133.359286437
 30
0.0
 11
176.6214088894
 21
133.359286437
 31
0.0
  0
LINE
  5
150
330
1F
100
AcDbEntity
  8
0
  6
Continuous
 62
     7
370
    25
100
AcDbLine
 10
150.439789846
 20
77.884286437
 30
0.0
 11
150.439789846
 21
104.4695791573
 31
0.0
  0
SPLINE
  5
151
330
1F
100
AcDbEntity
  8
0
  6
Continuous
 62
     7
370
    25
100
AcDbSpline
210
0.0
220
0.0
230
1.0
 70
     8
 71
     3
 72
    20
 73
    16
 74
     0
 42
0.000000001
 43
0.00000001
 40
0.0
 40
0.0
 40
0.0
 40
0.0
 40
0.1249999999999996
 40
0.1249999999999996
 40
0.2499999999999992
 40
0.2499999999999992
 40
0.3749999999999989
 40
0.3749999999999989
 40
0.4999999999999987
 40
0.4999999999999987
 40
0.7499999999999994
 40
0.7499999999999994
 40
0.8749999999999997
 40
0.8749999999999997
 40
1.0
 40
1.0
 40
1.0
 40
1.0
 10
153.9930920414087
 20
109.3592864370248
 30
0.0
 10
153.9930920414087
 20
109.0926183495435
 30
0.0
 10
153.971045012365
 20
108.8243061742695
 30
0.0
 10
153.8820389746602
 20
108.2914631390362
 30
0.0
 10
153.8161600064608
 20
108.0321729290502
 30
0.0
 10
153.6439850987535
 20
107.5270459630287
 30
0.0
 10
153.5372785278466
 20
107.2804657471075
 30
0.0
 10
153.2846016249704
 20
106.8040490963677
 30
0.0
 10
153.1411443607757
 20
106.5786290346029
 30
0.0
 10
152.6628221684952
 20
105.9380213529892
 30
0.0
 10
152.2747951855296
 20
105.5552556378861
 30
0.0
 10
151.6329905370842
 20
105.0793533897145
 30
0.0
 10
151.4081859094371
 20
104.9357577535627
 30
0.0
 10
150.9368768518148
 20
104.6784263681722
 30
0.0
 10
150.6911802519259
 20
104.5653739896503
 30
0.0
 10
150.4397898459788
 20
104.4695791573396
 30
0.0
  0
LINE
  5
152
330
1F
100
AcDbEntity
  8
0
  6
Continuous
 62
     7
370
    25
100
AcDbLine
 10
155.2055920414
 20
77.884286437
 30
0.0
 11
155.2055920414
 21
109.359286437
 31
0.0
  0
LINE
  5
153
330
1F
100
AcDbEntity
  8
0
  6
Continuous
 62
     7
370
    25
100
AcDbLine
 10
155.2055920414
 20
140.834286437
 30
0.0
 11
150.439789846
 21
140.834286437
 31
0.0
  0
LINE
  5
154
330
1F
100
AcDbEntity
  8
0
  6
Continuous
 62
     7
370
    25
100
AcDbLine
 10
137.2055920414
 20
78.084286437
 30
0.0
 11
137.2055920414
 21
109.359286437
 31
0.0
  0
LINE
  5
155
330
1F
100
AcDbEntity
  8
0
  6
Continuous
 62
     7
370
    25
100
AcDbLine
 10
137.2055920414
 20
109.359286437
 30
0.0
 11
137.4055920414
 21
109.359286437
 31
0.0
  0
ARC
  5
156
330
1F
100
AcDbEntity
  8
0
  6
Continuous
 62
     7
370
    25
100
AcDbCircle
 10
137.4055920414
 20
140.634286437
 30
0.0
 40
0.2000000000000171
100
AcDbArc
 50
90.0
 51
179.9999999999
  0
SPLINE
  5
157
330
1F
100
AcDbEntity
  8
0
  6
Continuous
 62
     7
370
    25
100
AcDbSpline
210
0.0
220
0.0
230
1.0
 70
     8
 71
     3
 72
    14
 73
    10
 74
     0
 42
0.000000001
 43
0.00000001
 40
0.0
 40
0.0
 40
0.0
 40
0.0
 40
0.25
 40
0.25
 40
0.5
 40
0.5
 40
0.75
 40
0.75
 40
1.0
 40
1.0
 40
1.0
 40
1.0
 10
143.7713942368386
 20
106.0643883515079
 30
0.0
 10
143.5745183513136
 20
106.2918849194371
 30
0.0
 10
143.3984100299242
 20
106.5334716945082
 30
0.0
 10
143.088673636151
 20
107.0456289288824
 30
0.0
 10
142.9541156346574
 20
107.3191617319905
 30
0.0
 10
142.7388734819483
 20
107.8792668665279
 30
0.0
 10
142.6572302444293
 20
108.1662393619379
 30
0.0
 10
142.5467072221593
 20
108.7542783469822
 30
0.0
 10
142.5180920414087
 20
109.0587218027529
 30
0.0
 10
142.5180920414087
 20
109.3592864370246
 30
0.0
  0
LINE
  5
158
330
1F
100
AcDbEntity
  8
0
  6
Continuous
 62
     7
370
    25
100
AcDbLine
 10
143.7713942368
 20
77.884286437
 30
0.0
 11
143.7713942368
 21
106.0643883515
 31
0.0
  0
LINE
  5
159
330
1F
100
AcDbEntity
  8
0
  6
Continuous
 62
     7
370
    25
100
AcDbLine
 10
143.7713942368
 20
140.834286437
 30
0.0
 11
137.4055920414
 21
140.834286437
 31
0.0
  0
ARC
  5
15A
330
1F
100
AcDbEntity
  8
0
  6
Continuous
 62
     7
370
    25
100
AcDbCircle
 10
148.2555920414
 20
109.359286437
 30
0.0
 40
3.737500000000011
100
AcDbArc
 50
180.0
 51
206.113804444
  0
SPLINE
  5
15B
330
1F
100
AcDbEntity
  8
0
  6
Continuous
 62
     7
370
    25
100
AcDbSpline
210
0.0
220
0.0
230
1.0
 70
     8
 71
     3
 72
    10
 73
     6
 74
     0
 42
0.000000001
 43
0.00000001
 40
0.0
 40
0.0
 40
0.0
 40
0.0
 40
0.5
 40
0.5
 40
1.0
 40
1.0
 40
1.0
 40
1.0
 10
144.8996102339555
 20
107.714205175189
 30
0.0
 10
144.7227250875321
 20
107.4157548598325
 30
0.0
 10
144.5371757126547
 20
107.1367621557051
 30
0.0
 10
144.1592267726071
 20
106.5914428615793
 30
0.0
 10
143.9664402304279
 20
106.3261074757579
 30
0.0
 10
143.7713942368386
 20
106.0643883515079
 30
0.0
  0
SPLINE
  5
15C
330
1F
100
AcDbEntity
  8
0
  6
Continuous
 62
     7
370
    25
100
AcDbSpline
210
0.0
220
0.0
230
1.0
 70
     8
 71
     3
 72
     8
 73
     4
 74
     0
 42
0.000000001
 43
0.00000001
 40
0.0
 40
0.0
 40
0.0
 40
0.0
 40
1.0
 40
1.0
 40
1.0
 40
1.0
 10
150.4397898459784
 20
104.4695791573385
 30
0.0
 10
150.0913884412981
 20
104.9075544837524
 30
0.0
 10
149.7468200560652
 20
105.3506376223372
 30
0.0
 10
149.4084357567444
 20
105.8040286941858
 30
0.0
  0
ARC
  5
15D
330
1F
100
AcDbEntity
  8
0
  6
Continuous
 62
     7
370
    25
100
AcDbCircle
 10
148.2555920414
 20
109.359286437
 30
0.0
 40
3.737500000000011
100
AcDbArc
 50
287.9660359156
 51
0.0
  0
SPLINE
  5
15E
330
1F
100
AcDbEntity
  8
0
  6
Continuous
 62
     7
370
    25
100
AcDbSpline
210
0.0
220
0.0
230
1.0
 70
     8
 71
     3
 72
     8
 73
     4
 74
     0
 42
0.000000001
 43
0.00000001
 40
0.0
 40
0.0
 40
0.0
 40
0.0
 40
1.0
 40
1.0
 40
1.0
 40
1.0
 10
145.2305920414088
 20
107.1642280665023
 30
0.0
 10
145.1122952819788
 20
107.3272522949607
 30
0.0
 10
145.0008667998074
 20
107.5076407939832
 30
0.0
 10
144.8996102339555
 20
107.714205175189
 30
0.0
  0
LINE
  5
15F
330
1F
100
AcDbEntity
  8
0
  6
Continuous
 62
     7
370
    25
100
AcDbLine
 10
145.2305920414
 20
80.4116911728
 30
0.0
 11
145.2305920414
 21
107.1642280665
 31
0.0
  0
SPLINE
  5
160
330
1F
100
AcDbEntity
  8
0
  6
Continuous
 62
     7
370
    25
100
AcDbSpline
210
0.0
220
0.0
230
1.0
 70
     8
 71
     3
 72
     8
 73
     4
 74
     0
 42
0.000000001
 43
0.00000001
 40
0.0
 40
0.0
 40
0.0
 40
0.0
 40
1.0
 40
1.0
 40
1.0
 40
1.0
 10
149.4084357567447
 20
105.8040286941866
 30
0.0
 10
149.2668976684629
 20
105.7581329230895
 30
0.0
 10
149.124287199726
 20
105.7211920721522
 30
0.0
 10
148.980592041409
 20
105.6927783912116
 30
0.0
  0
LINE
  5
161
330
1F
100
AcDbEntity
  8
0
  6
Continuous
 62
     7
370
    25
100
AcDbLine
 10
148.9805920414
 20
80.4116911728
 30
0.0
 11
148.9805920414
 21
105.6927783912
 31
0.0
  0
SPLINE
  5
162
330
1F
100
AcDbEntity
  8
0
  6
Continuous
 62
     7
370
    25
100
AcDbSpline
210
0.0
220
0.0
230
1.0
 70
     8
 71
     3
 72
    14
 73
    10
 74
     0
 42
0.000000001
 43
0.00000001
 40
0.0
 40
0.0
 40
0.0
 40
0.0
 40
0.25
 40
0.25
 40
0.5
 40
0.5
 40
0.75
 40
0.75
 40
1.0
 40
1.0
 40
1.0
 40
1.0
 10
146.2305920414087
 20
106.2179043765296
 30
0.0
 10
146.0962439550522
 20
106.3045079381572
 30
0.0
 10
145.9730672811963
 20
106.3959763354806
 30
0.0
 10
145.7443206762783
 20
106.5871677221115
 30
0.0
 10
145.6423987123111
 20
106.6840295742525
 30
0.0
 10
145.4629753098823
 20
106.8719041889878
 30
0.0
 10
145.3865340216995
 20
106.962139540339
 30
0.0
 10
145.2692440488494
 20
107.1099459043164
 30
0.0
 10
145.2305920414087
 20
107.1642280665024
 30
0.0
 10
145.2305920414087
 20
107.1642280665024
 30
0.0
  0
SPLINE
  5
163
330
1F
100
AcDbEntity
  8
0
  6
Continuous
 62
     7
370
    25
100
AcDbSpline
210
0.0
220
0.0
230
1.0
 70
     8
 71
     3
 72
    14
 73
    10
 74
     0
 42
0.000000001
 43
0.00000001
 40
0.0
 40
0.0
 40
0.0
 40
0.0
 40
0.25
 40
0.25
 40
0.5
 40
0.5
 40
0.75
 40
0.75
 40
1.0
 40
1.0
 40
1.0
 40
1.0
 10
148.9805920414088
 20
105.6927783912121
 30
0.0
 10
148.980592041409
 20
105.6927783912122
 30
0.0
 10
148.9546755188379
 20
105.6874016602238
 30
0.0
 10
148.8552306722603
 20
105.6698570726233
 30
0.0
 10
148.7829322798481
 20
105.658007668977
 30
0.0
 10
148.5982283853242
 20
105.6363638509768
 30
0.0
 10
148.4886511234483
 20
105.6270745902924
 30
0.0
 10
148.2453209452301
 20
105.6198190539348
 30
0.0
 10
148.11378468631
 20
105.6220904600941
 30
0.0
 10
147.9805920414087
 20
105.6319172240273
 30
0.0
  0
SPLINE
  5
164
330
1F
100
AcDbEntity
  8
0
  6
Continuous
 62
     7
370
    25
100
AcDbSpline
210
0.0
220
0.0
230
1.0
 70
     8
 71
     3
 72
    10
 73
     6
 74
     0
 42
0.000000001
 43
0.00000001
 40
0.0
 40
0.0
 40
0.0
 40
0.0
 40
0.5
 40
0.5
 40
1.0
 40
1.0
 40
1.0
 40
1.0
 10
147.9805920414087
 20
105.6319172240274
 30
0.0
 10
147.6681281391206
 20
105.6549703663964
 30
0.0
 10
147.3652391571228
 20
105.7162050688028
 30
0.0
 10
146.7778959723188
 20
105.9123770327267
 30
0.0
 10
146.4934283117468
 20
106.0484746678266
 30
0.0
 10
146.2305920414087
 20
106.2179043765296
 30
0.0
  0
ARC
  5
165
330
1F
100
AcDbEntity
  8
0
  6
Continuous
 62
     7
370
    25
100
AcDbCircle
 10
158.2055920414
 20
136.359286437
 30
0.0
 40
3.0
100
AcDbArc
 50
180.0
 51
270.0
  0
LINE
  5
166
330
1F
100
AcDbEntity
  8
0
  6
Continuous
 62
     7
370
    25
100
AcDbLine
 10
137.2055920414
 20
136.209286437
 30
0.0
 11
137.5396307274
 21
135.1498510766
 31
0.0
  0
LINE
  5
167
330
1F
100
AcDbEntity
  8
0
  6
Continuous
 62
     7
370
    25
100
AcDbLine
 10
137.2055920414
 20
136.209286437
 30
0.0
 11
137.2055920414
 21
134.2339977037
 31
0.0
  0
ARC
  5
168
330
1F
100
AcDbEntity
  8
0
  6
Continuous
 62
     7
370
    25
100
AcDbCircle
 10
136.7766571668
 20
134.909286437
 30
0.0
 40
0.799999999999991
100
AcDbArc
 50
252.5
 51
17.5
  0
LINE
  5
169
330
1F
100
AcDbEntity
  8
0
  6
Continuous
 62
     7
370
    25
100
AcDbLine
 10
136.0454100014
 20
84.4175483915
 30
0.0
 11
136.0454100014
 21
109.359286437
 31
0.0
  0
LINE
  5
16A
330
1F
100
AcDbEntity
  8
0
  6
Continuous
 62
     7
370
    25
100
AcDbLine
 10
136.5360925272
 20
134.1463128764
 30
0.0
 11
136.0454100014
 21
134.3010244826
 31
0.0
  0
SPLINE
  5
16B
330
1F
100
AcDbEntity
  8
0
  6
Continuous
 62
     7
370
    25
100
AcDbSpline
210
0.0
220
0.0
230
1.0
 70
     8
 71
     3
 72
    23
 73
    19
 74
     0
 42
0.000000001
 43
0.00000001
 40
0.0
 40
0.0
 40
0.0
 40
0.0
 40
0.0014465357521821
 40
0.0696020593676207
 40
0.137254366687189
 40
0.2039589908844515
 40
0.270290744597773
 40
0.3365481572098533
 40
0.4028600414027833
 40
0.4678618141050687
 40
0.5326346816646192
 40
0.5993540723635361
 40
0.6655184433344478
 40
0.7321132007428683
 40
0.7988840356461531
 40
0.8663348102232984
 40
0.9345219372798516
 40
1.0
 40
1.0
 40
1.0
 40
1.0
 10
106.9654161113176
 20
132.7835446233123
 30
0.0
 10
106.9665603922793
 20
132.7831916016659
 30
0.0
 10
107.0216190462491
 20
132.76620547909
 30
0.0
 10
107.4180236830671
 20
132.6489440384256
 30
0.0
 10
108.134062695936
 20
132.448339506956
 30
0.0
 10
109.1437473315951
 20
132.2077230264554
 30
0.0
 10
110.3597241885013
 20
131.9804511477988
 30
0.0
 10
111.7639244921665
 20
131.8080615373049
 30
0.0
 10
113.280988516455
 20
131.7199932563815
 30
0.0
 10
114.8552863803886
 20
131.7510409111407
 30
0.0
 10
116.4211066026323
 20
131.9020641519537
 30
0.0
 10
117.9109636731893
 20
132.1564009502228
 30
0.0
 10
119.282643865251
 20
132.4741377289605
 30
0.0
 10
120.4685669590448
 20
132.818054149073
 30
0.0
 10
121.4461663030328
 20
133.1458967493875
 30
0.0
 10
122.1656774546286
 20
133.4148211788696
 30
0.0
 10
122.6383124563296
 20
133.5974105144917
 30
0.0
 10
122.695783570683
 20
133.6206589070765
 30
0.0
 10
122.7239367288577
 20
133.6320475095268
 30
0.0
  0
LINE
  5
16C
330
1F
100
AcDbEntity
  8
0
  6
Continuous
 62
     7
370
    25
100
AcDbLine
 10
106.8060261562
 20
132.8326827986
 30
0.0
 11
98.7555920414
 21
132.4284065646
 31
0.0
  0
LINE
  5
16D
330
1F
100
AcDbEntity
  8
0
  6
Continuous
 62
     7
370
    25
100
AcDbLine
 10
98.7555920414
 20
86.2901663094
 30
0.0
 11
98.7555920414
 21
100.2371634025
 31
0.0
  0
SPLINE
  5
16E
330
1F
100
AcDbEntity
  8
0
  6
Continuous
 62
     7
370
    25
100
AcDbSpline
210
0.0
220
0.0
230
1.0
 70
     8
 71
     3
 72
     8
 73
     4
 74
     0
 42
0.000000001
 43
0.00000001
 40
0.0
 40
0.0
 40
0.0
 40
0.0
 40
1.0
 40
1.0
 40
1.0
 40
1.0
 10
104.5737664943557
 20
100.2417494607213
 30
0.0
 10
102.6343750100443
 20
100.2396033648717
 30
0.0
 10
100.6949835257329
 20
100.238007178347
 30
0.0
 10
98.75559204142147
 20
100.2369597258713
 30
0.0
  0
SPLINE
  5
16F
330
1F
100
AcDbEntity
  8
0
  6
Continuous
 62
     7
370
    25
100
AcDbSpline
210
0.0
220
0.0
230
1.0
 70
     8
 71
     3
 72
    13
 73
     9
 74
     0
 42
0.000000001
 43
0.00000001
 40
0.0
 40
0.0
 40
0.0
 40
0.0
 40
0.1686319999748085
 40
0.3360343310905433
 40
0.502536782590866
 40
0.6684737453788339
 40
0.834182263691515
 40
1.0
 40
1.0
 40
1.0
 40
1.0
 10
105.6572615438227
 20
100.379205906539
 30
0.0
 10
105.597771647763
 20
100.3646915865001
 30
0.0
 10
105.4792256574879
 20
100.3357687852156
 30
0.0
 10
105.299348961902
 20
100.3018073918073
 30
0.0
 10
105.118958674274
 20
100.2749418294483
 30
0.0
 10
104.9378465022402
 20
100.2559828923404
 30
0.0
 10
104.7560856650727
 20
100.2440524409447
 30
0.0
 10
104.6345528971781
 20
100.2425172893759
 30
0.0
 10
104.5737664943557
 20
100.2417494607213
 30
0.0
  0
SPLINE
  5
170
330
1F
100
AcDbEntity
  8
0
  6
Continuous
 62
     7
370
    25
100
AcDbSpline
210
0.0
220
0.0
230
1.0
 70
     8
 71
     3
 72
     8
 73
     4
 74
     0
 42
0.000000001
 43
0.00000001
 40
0.0
 40
0.0
 40
0.0
 40
0.0
 40
1.0
 40
1.0
 40
1.0
 40
1.0
 10
111.0494549603155
 20
100.3834439484244
 30
0.0
 10
109.2520602888777
 20
100.3815728879004
 30
0.0
 10
107.4546656174399
 20
100.3801507068763
 30
0.0
 10
105.6572709460021
 20
100.3791765838803
 30
0.0
  0
SPLINE
  5
171
330
1F
100
AcDbEntity
  8
0
  6
Continuous
 62
     7
370
    25
100
AcDbSpline
210
0.0
220
0.0
230
1.0
 70
     8
 71
     3
 72
    18
 73
    14
 74
     0
 42
0.000000001
 43
0.00000001
 40
0.0
 40
0.0
 40
0.0
 40
0.0
 40
0.0923325137111192
 40
0.1843692047063016
 40
0.2763458873810836
 40
0.3684982175655623
 40
0.4610598988303626
 40
0.554260954653301
 40
0.6483261285442131
 40
0.74347346365053
 40
0.8399130993119804
 40
0.9201660718299768
 40
1.0
 40
1.0
 40
1.0
 40
1.0
 10
113.2457766089178
 20
99.84925171258077
 30
0.0
 10
113.1754463054048
 20
99.84966833701239
 30
0.0
 10
113.0350110285528
 20
99.85050025105905
 30
0.0
 10
112.8246485020502
 20
99.86410909797361
 30
0.0
 10
112.6152048391339
 20
99.88677585534526
 30
0.0
 10
112.4066551687614
 20
99.919376645146
 30
0.0
 10
112.1990115514861
 20
99.96167912376625
 30
0.0
 10
111.9922733639465
 20
100.0137505224214
 30
0.0
 10
111.7864512719816
 20
100.0755992952668
 30
0.0
 10
111.5815195931895
 20
100.147197306723
 30
0.0
 10
111.3900388477938
 20
100.2237757969504
 30
0.0
 10
111.2123156957392
 20
100.3023870457835
 30
0.0
 10
111.1039817011752
 20
100.3563012015709
 30
0.0
 10
111.0499564917219
 20
100.3831877164698
 30
0.0
  0
LINE
  5
172
330
1F
100
AcDbEntity
  8
0
  6
Continuous
 62
     7
370
    25
100
AcDbLine
 10
115.1606498882
 20
99.8507471474
 30
0.0
 11
113.2457766089
 21
99.8492517126
 31
0.0
  0
SPLINE
  5
173
330
1F
100
AcDbEntity
  8
0
  6
Continuous
 62
     7
370
    25
100
AcDbSpline
210
0.0
220
0.0
230
1.0
 70
     8
 71
     3
 72
    25
 73
    21
 74
     0
 42
0.000000001
 43
0.00000001
 40
0.0
 40
0.0
 40
0.0
 40
0.0
 40
0.0280105225422753
 40
0.0559601148854256
 40
0.0839014045034749
 40
0.1118870776777086
 40
0.1399695827579646
 40
0.1682008401731476
 40
0.1966319670417595
 40
0.2253130233137476
 40
0.2542927850735311
 40
0.3799486436564626
 40
0.5057850221666382
 40
0.631308588631066
 40
0.7532068238011618
 40
0.8039473267946936
 40
0.8535894438541253
 40
0.9025339722380873
 40
0.9511970353782256
 40
1.0
 40
1.0
 40
1.0
 40
1.0
 10
120.1005341946102
 20
104.9846109519561
 30
0.0
 10
120.100571416344
 20
104.9099909249436
 30
0.0
 10
120.1006457788446
 20
104.7609131889581
 30
0.0
 10
120.0882297281981
 20
104.5382950979939
 30
0.0
 10
120.0666251678443
 20
104.3169706799665
 30
0.0
 10
120.0349396981843
 20
104.0970024140786
 30
0.0
 10
119.9934135598643
 20
103.8784121268496
 30
0.0
 10
119.9419828041344
 20
103.6612301884445
 30
0.0
 10
119.8806689294232
 20
103.4454887685583
 30
0.0
 10
119.8094585939237
 20
103.2311988771061
 30
0.0
 10
119.6386219867226
 20
102.7828491040851
 30
0.0
 10
119.3008897532865
 20
102.129518276013
 30
0.0
 10
118.6893350890918
 20
101.3576250653769
 30
0.0
 10
117.9531002539393
 20
100.7134654399916
 30
0.0
 10
117.266614182295
 20
100.3218242719296
 30
0.0
 10
116.7179100361462
 20
100.1031293709566
 30
0.0
 10
116.3358738576446
 20
99.98727332212613
 30
0.0
 10
115.9487077589401
 20
99.90636541659626
 30
0.0
 10
115.55648109015
 20
99.8571369857985
 30
0.0
 10
115.2927198220312
 20
99.8528791307833
 30
0.0
 10
115.1606498882073
 20
99.85074714744053
 30
0.0
  0
LINE
  5
174
330
1F
100
AcDbEntity
  8
0
  6
Continuous
 62
     7
370
    25
100
AcDbLine
 10
120.1005341946
 20
109.359286437
 30
0.0
 11
120.1005341946
 21
104.984610952
 31
0.0
  0
LINE
  5
175
330
1F
100
AcDbEntity
  8
0
  6
Continuous
 62
     7
370
    25
100
AcDbLine
 10
136.0454100014
 20
134.3010244826
 30
0.0
 11
122.7239367289
 21
133.6320475095
 31
0.0
  0
SPLINE
  5
176
330
1F
100
AcDbEntity
  8
0
  6
Continuous
 62
     7
370
    25
100
AcDbSpline
210
0.0
220
0.0
230
1.0
 70
     8
 71
     3
 72
    20
 73
    16
 74
     0
 42
0.000000001
 43
0.00000001
 40
0.0
 40
0.0
 40
0.0
 40
0.0
 40
0.0829621378684854
 40
0.1658495135106167
 40
0.248718007085736
 40
0.3299477216398529
 40
0.4108693994445741
 40
0.4941953814850569
 40
0.5768901676626235
 40
0.6601065810557787
 40
0.7435845489350865
 40
0.8279858465401899
 40
0.9132590745392897
 40
0.9972257035811819
 40
1.0
 40
1.0
 40
1.0
 40
1.0
 10
109.1180081361357
 20
86.49602606951784
 30
0.0
 10
109.503753972207
 20
86.57294449612198
 30
0.0
 10
110.2748980253242
 20
86.72671203345956
 30
0.0
 10
111.682646176494
 20
86.9026272548451
 30
0.0
 10
113.1904975443686
 20
86.99662354217415
 30
0.0
 10
114.7629865193865
 20
86.97277916030752
 30
0.0
 10
116.3302835505986
 20
86.82887411540696
 30
0.0
 10
117.8260595773801
 20
86.57981651260792
 30
0.0
 10
119.2063134530527
 20
86.26513582006929
 30
0.0
 10
120.4039076361084
 20
85.92087446808874
 30
0.0
 10
121.3907696659306
 20
85.591827242269
 30
0.0
 10
122.1380079121286
 20
85.31336633406124
 30
0.0
 10
122.5852093414942
 20
85.14151053902964
 30
0.0
 10
122.7719639536441
 20
85.06765986743116
 30
0.0
 10
122.720865739746
 20
85.08781115850431
 30
0.0
 10
122.7192314294008
 20
85.08845567151084
 30
0.0
  0
SPLINE
  5
177
330
1F
100
AcDbEntity
  8
0
  6
Continuous
 62
     7
370
    25
100
AcDbSpline
210
0.0
220
0.0
230
1.0
 70
     8
 71
     3
 72
    11
 73
     7
 74
     0
 42
0.000000001
 43
0.00000001
 40
0.0
 40
0.0
 40
0.0
 40
0.0
 40
0.2435512231731341
 40
0.4981153923403505
 40
0.7509097881719435
 40
1.0
 40
1.0
 40
1.0
 40
1.0
 10
106.8105140183921
 20
85.88736386013473
 30
0.0
 10
106.8364649399174
 20
85.89559939667288
 30
0.0
 10
106.8895402367225
 20
85.91244286582236
 30
0.0
 10
107.367235220385
 20
86.05334430795986
 30
0.0
 10
108.0785746686518
 20
86.25863485840807
 30
0.0
 10
108.7732393158264
 20
86.41728597660529
 30
0.0
 10
109.1180081361357
 20
86.49602606951784
 30
0.0
  0
LINE
  5
178
330
1F
100
AcDbEntity
  8
0
  6
Continuous
 62
     7
370
    25
100
AcDbLine
 10
120.1005341946
 20
104.984610952
 30
0.0
 11
119.2055920414
 21
105.146786437
 31
0.0
  0
LINE
  5
179
330
1F
100
AcDbEntity
  8
0
  6
Continuous
 62
     7
370
    25
100
AcDbLine
 10
119.2055920414
 20
105.146786437
 30
0.0
 11
119.2055920414
 21
109.359286437
 31
0.0
  0
SPLINE
  5
17A
330
1F
100
AcDbEntity
  8
0
  6
Continuous
 62
     7
370
    25
100
AcDbSpline
210
0.0
220
0.0
230
1.0
 70
     8
 71
     3
 72
    10
 73
     6
 74
     0
 42
0.000000001
 43
0.00000001
 40
0.0
 40
0.0
 40
0.0
 40
0.0
 40
0.4224952488355236
 40
0.8503714505060648
 40
1.0
 40
1.0
 40
1.0
 40
1.0
 10
166.705592096265
 20
133.3592864370247
 30
0.0
 10
166.7345651095347
 20
133.3503273607654
 30
0.0
 10
166.7928801400291
 20
133.3322951043205
 30
0.0
 10
167.0925255055766
 20
133.2384791972808
 30
0.0
 10
167.3975579570459
 20
133.1525488334885
 30
0.0
 10
167.4765903168142
 20
133.1302847124301
 30
0.0
  0
SPLINE
  5
17B
330
1F
100
AcDbEntity
  8
0
  6
Continuous
 62
     7
370
    25
100
AcDbSpline
210
0.0
220
0.0
230
1.0
 70
     8
 71
     3
 72
    11
 73
     7
 74
     0
 42
0.000000001
 43
0.00000001
 40
0.0
 40
0.0
 40
0.0
 40
0.0
 40
0.1502677776986634
 40
0.5770707111586417
 40
0.9997016235529771
 40
0.9999999999999999
 40
0.9999999999999999
 40
0.9999999999999999
 40
0.9999999999999999
 10
179.9349217261633
 20
133.1299567522701
 30
0.0
 10
180.0146046791955
 20
133.1523954173887
 30
0.0
 10
180.3206097261706
 20
133.2385662294934
 30
0.0
 10
180.6044908639236
 20
133.3278824188989
 30
0.0
 10
180.7056574520287
 20
133.3592800765669
 30
0.0
 10
180.7055918522448
 20
133.3592864325405
 30
0.0
 10
180.7055918059642
 20
133.3592864370247
 30
0.0
  0
LINE
  5
17C
330
1F
100
AcDbEntity
  8
0
  6
Continuous
 62
     7
370
    25
100
AcDbLine
 10
166.7055920963
 20
133.359286437
 30
0.0
 11
158.2055920414
 21
133.359286437
 31
0.0
  0
LINE
  5
17D
330
1F
100
AcDbEntity
  8
0
  6
Continuous
 62
     7
370
    25
100
AcDbLine
 10
186.4830574389
 20
85.359286437
 30
0.0
 11
186.4830574389
 21
109.359286437
 31
0.0
  0
LINE
  5
17E
330
1F
100
AcDbEntity
  8
0
  6
Continuous
 62
     7
370
    25
100
AcDbLine
 10
186.4830574389
 20
133.359286437
 30
0.0
 11
180.705591806
 21
133.359286437
 31
0.0
  0
LINE
  5
17F
330
1F
100
AcDbEntity
  8
0
  6
Continuous
 62
     7
370
    25
100
AcDbLine
 10
196.0508285649
 20
128.8977614895
 30
0.0
 11
186.4830574389
 21
133.359286437
 31
0.0
  0
SPLINE
  5
180
330
1F
100
AcDbEntity
  8
0
  6
Continuous
 62
     7
370
    25
100
AcDbSpline
210
0.0
220
0.0
230
1.0
 70
     8
 71
     3
 72
    25
 73
    21
 74
     0
 42
0.000000001
 43
0.00000001
 40
0.0
 40
0.0
 40
0.0
 40
0.0
 40
0.0288821753116583
 40
0.0583636594024247
 40
0.088464720432864
 40
0.1192044006641432
 40
0.1506005800108822
 40
0.1826700399688414
 40
0.2154285269587146
 40
0.2488908143380118
 40
0.3610594471217245
 40
0.498467013106778
 40
0.5822693905006526
 40
0.6661127642782239
 40
0.7499972937224496
 40
0.8007709755032478
 40
0.8511237700807983
 40
0.901089602450676
 40
0.9507031914109089
 40
1.0
 40
1.0
 40
1.0
 40
1.0
 10
115.2055920414087
 20
101.1467864370247
 30
0.0
 10
115.2683924946475
 20
101.1476429209765
 30
0.0
 10
115.3952965184474
 20
101.1493736610302
 30
0.0
 10
115.5866509261618
 20
101.163523526434
 30
0.0
 10
115.7805557388404
 20
101.1866606087554
 30
0.0
 10
115.9764564595689
 20
101.2200717609808
 30
0.0
 10
116.173794127573
 20
101.2639455830136
 30
0.0
 10
116.3719474693582
 20
101.3187408539829
 30
0.0
 10
116.5702632133663
 20
101.3848098153464
 30
0.0
 10
116.9215842008689
 20
101.5227911475995
 30
0.0
 10
117.4466959711914
 20
101.8028430864406
 30
0.0
 10
117.9836877996769
 20
102.241433688849
 30
0.0
 10
118.3957475297153
 20
102.7152938103957
 30
0.0
 10
118.6826661177678
 20
103.1469775582155
 30
0.0
 10
118.881092804975
 20
103.5501007999756
 30
0.0
 10
119.0131786790233
 20
103.9078369607546
 30
0.0
 10
119.0988125588211
 20
104.210589363037
 30
0.0
 10
119.1598947701742
 20
104.5190776732827
 30
0.0
 10
119.1983957135397
 20
104.831389383439
 30
0.0
 10
119.2031983926331
 20
105.0418787973404
 30
0.0
 10
119.2055920414087
 20
105.1467864370247
 30
0.0
  0
SPLINE
  5
181
330
1F
100
AcDbEntity
  8
0
  6
Continuous
 62
     7
370
    25
100
AcDbSpline
210
0.0
220
0.0
230
1.0
 70
     8
 71
     3
 72
    13
 73
     9
 74
     0
 42
0.000000001
 43
0.00000001
 40
0.0
 40
0.0
 40
0.0
 40
0.0
 40
0.1722587823678385
 40
0.3421398271425444
 40
0.5097456258111679
 40
0.6751828993453325
 40
0.8385626190248169
 40
1.0
 40
1.0
 40
1.0
 40
1.0
 10
112.205610410319
 20
101.2967812597745
 30
0.0
 10
112.2664737999915
 20
101.280517532075
 30
0.0
 10
112.3873604644369
 20
101.2482145695942
 30
0.0
 10
112.5704216224094
 20
101.2108269149006
 30
0.0
 10
112.75252430535
 20
101.1816939799905
 30
0.0
 10
112.9334657536667
 20
101.1615072643851
 30
0.0
 10
113.112804757363
 20
101.1490604600845
 30
0.0
 10
113.2316509857763
 20
101.1475414168571
 30
0.0
 10
113.2907187621193
 20
101.1467864370247
 30
0.0
  0
LINE
  5
182
330
1F
100
AcDbEntity
  8
0
  6
Continuous
 62
     7
370
    25
100
AcDbLine
 10
113.2457766089
 20
99.8492517126
 30
0.0
 11
113.2907187621
 21
101.146786437
 31
0.0
  0
SPLINE
  5
183
330
1F
100
AcDbEntity
  8
0
  6
Continuous
 62
     7
370
    25
100
AcDbSpline
210
0.0
220
0.0
230
1.0
 70
     8
 71
     3
 72
    11
 73
     7
 74
     0
 42
0.000000001
 43
0.00000001
 40
0.0
 40
0.0
 40
0.0
 40
0.0
 40
0.2392913844325938
 40
0.5001130135003002
 40
0.7515028526498353
 40
0.9999999999999999
 40
0.9999999999999999
 40
0.9999999999999999
 40
0.9999999999999999
 10
111.8781195492628
 20
101.2973600420478
 30
0.0
 10
111.8092946133158
 20
101.2258066048931
 30
0.0
 10
111.6654522171426
 20
101.0762617093819
 30
0.0
 10
111.4577034187761
 20
100.8473442827364
 30
0.0
 10
111.249717214155
 20
100.6150259104966
 30
0.0
 10
111.1167162903847
 20
100.4602500279053
 30
0.0
 10
111.0506006461602
 20
100.3833099067554
 30
0.0
  0
SPLINE
  5
184
330
1F
100
AcDbEntity
  8
0
  6
Continuous
 62
     7
370
    25
100
AcDbSpline
210
0.0
220
0.0
230
1.0
 70
    24
 71
     3
 72
     9
 73
     5
 74
     0
 42
0.000000001
 43
0.00000001
 40
0.0
 40
0.0
 40
0.0
 40
0.0
 40
0.509083966986604
 40
1.0
 40
1.0
 40
1.0
 40
1.0
 10
111.8803498175823
 20
101.2967864370247
 30
0.0
 10
111.9350832176946
 20
101.2967864370247
 30
0.0
 10
112.0425967197134
 20
101.2967864370247
 30
0.0
 10
112.1519892800844
 20
101.2967864370247
 30
0.0
 10
112.2056918418629
 20
101.2967864370247
 30
0.0
  0
LINE
  5
185
330
1F
100
AcDbEntity
  8
0
  6
Continuous
 62
     7
370
    25
100
AcDbLine
 10
105.631741953
 20
101.2767346633
 30
0.0
 11
105.6571564446
 21
100.3791764926
 31
0.0
  0
SPLINE
  5
186
330
1F
100
AcDbEntity
  8
0
  6
Continuous
 62
     7
370
    25
100
AcDbSpline
210
0.0
220
0.0
230
1.0
 70
     8
 71
     3
 72
     8
 73
     4
 74
     0
 42
0.000000001
 43
0.00000001
 40
0.0
 40
0.0
 40
0.0
 40
0.0
 40
1.0
 40
1.0
 40
1.0
 40
1.0
 10
105.631753144137
 20
101.2767351533639
 30
0.0
 10
105.653556000619
 20
101.2824324843966
 30
0.0
 10
105.6753107100165
 20
101.2883140671915
 30
0.0
 10
105.6970141653346
 20
101.2943790617446
 30
0.0
  0
LINE
  5
187
330
1F
100
AcDbEntity
  8
0
  6
Continuous
 62
     7
370
    25
100
AcDbLine
 10
105.7055920415
 20
101.296786437
 30
0.0
 11
111.8792650138
 21
101.296786437
 31
0.0
  0
LINE
  5
188
330
1F
100
AcDbEntity
  8
0
  6
Continuous
 62
     7
370
    25
100
AcDbLine
 10
113.2907187621
 20
101.146786437
 30
0.0
 11
115.2055920414
 21
101.146786437
 31
0.0
  0
SPLINE
  5
189
330
1F
100
AcDbEntity
  8
0
  6
Continuous
 62
     7
370
    25
100
AcDbSpline
210
0.0
220
0.0
230
1.0
 70
     8
 71
     3
 72
    13
 73
     9
 74
     0
 42
0.000000001
 43
0.00000001
 40
0.0
 40
0.0
 40
0.0
 40
0.0
 40
0.1621004456571512
 40
0.325943455157606
 40
0.4915935308260523
 40
0.6591130873964648
 40
0.8285624736043361
 40
1.0
 40
1.0
 40
1.0
 40
1.0
 10
104.6204653206982
 20
101.1467864370247
 30
0.0
 10
104.6760202787637
 20
101.1474554032259
 30
0.0
 10
104.7877274052285
 20
101.1488005269493
 30
0.0
 10
104.9555750946222
 20
101.1597470957406
 30
0.0
 10
105.1243615134906
 20
101.1773860250613
 30
0.0
 10
105.2936858700225
 20
101.2026915390492
 30
0.0
 10
105.4634325181998
 20
101.2349955418422
 30
0.0
 10
105.5754254168575
 20
101.2627671417282
 30
0.0
 10
105.6317484518872
 20
101.2767339272294
 30
0.0
  0
LINE
  5
18A
330
1F
100
AcDbEntity
  8
0
  6
Continuous
 62
     7
370
    25
100
AcDbLine
 10
97.8419322198
 20
100.6192846931
 30
0.0
 11
98.7555920414
 21
101.146786437
 31
0.0
  0
LINE
  5
18B
330
1F
100
AcDbEntity
  8
0
  6
Continuous
 62
     7
370
    25
100
AcDbLine
 10
98.7555920415
 20
101.146786437
 30
0.0
 11
104.6204653207
 21
101.146786437
 31
0.0
  0
SPLINE
  5
18C
330
1F
100
AcDbEntity
  8
0
  6
Continuous
 62
     7
370
    25
100
AcDbSpline
210
0.0
220
0.0
230
1.0
 70
     8
 71
     3
 72
     8
 73
     4
 74
     0
 42
0.000000001
 43
0.00000001
 40
0.0
 40
0.0
 40
0.0
 40
0.0
 40
1.0
 40
1.0
 40
1.0
 40
1.0
 10
98.75559204095777
 20
100.2369597256487
 30
0.0
 10
98.45103876725226
 20
100.3656505901955
 30
0.0
 10
98.1464854935467
 20
100.4930953464572
 30
0.0
 10
97.8419322198412
 20
100.6192846930949
 30
0.0
  0
LINE
  5
18D
330
1F
100
AcDbEntity
  8
0
  6
Continuous
 62
     7
370
    25
100
AcDbLine
 10
97.2555920414
 20
87.1561917132
 30
0.0
 11
97.2555920414
 21
100.2807610332
 31
0.0
  0
SPLINE
  5
18E
330
1F
100
AcDbEntity
  8
0
  6
Continuous
 62
     7
370
    25
100
AcDbSpline
210
0.0
220
0.0
230
1.0
 70
    24
 71
     3
 72
     8
 73
     4
 74
     0
 42
0.000000001
 43
0.00000001
 40
0.0
 40
0.0
 40
0.0
 40
0.0
 40
1.0
 40
1.0
 40
1.0
 40
1.0
 10
97.84193221984118
 20
100.6192846930949
 30
0.0
 10
97.64560019418283
 20
100.5059323452305
 30
0.0
 10
97.45013917394262
 20
100.3930828725788
 30
0.0
 10
97.25559204140872
 20
100.2807610332402
 30
0.0
  0
LINE
  5
18F
330
1F
100
AcDbEntity
  8
0
  6
Continuous
 62
     7
370
    25
100
AcDbLine
 10
197.2055920414
 20
109.359286437
 30
0.0
 11
197.2055920414
 21
91.6334269586
 31
0.0
  0
ARC
  5
190
330
1F
100
AcDbEntity
  8
0
  6
Continuous
 62
     7
370
    25
100
AcDbCircle
 10
195.2055920414
 20
127.0851459154
 30
0.0
 40
2.000000000000001
100
AcDbArc
 50
0.0
 51
65.0
  0
ARC
  5
191
330
1F
100
AcDbEntity
  8
0
  6
Continuous
 62
     7
370
    25
100
AcDbCircle
 10
130.4055920414
 20
126.809286437
 30
0.0
 40
0.7999999999999972
100
AcDbArc
 50
0.0
 51
90.0
  0
LINE
  5
192
330
1F
100
AcDbEntity
  8
0
  6
Continuous
 62
     7
370
    25
100
AcDbLine
 10
128.980832515
 20
127.609286437
 30
0.0
 11
130.4055920414
 21
127.609286437
 31
0.0
  0
ARC
  5
193
330
1F
100
AcDbEntity
  8
0
  6
Continuous
 62
     7
370
    25
100
AcDbCircle
 10
128.980832515
 20
126.809286437
 30
0.0
 40
0.7999999999999972
100
AcDbArc
 50
90.0
 51
120.0
  0
LINE
  5
194
330
1F
100
AcDbEntity
  8
0
  6
Continuous
 62
     7
370
    25
100
AcDbLine
 10
127.7055920414
 20
126.996786437
 30
0.0
 11
127.7055920414
 21
109.359286437
 31
0.0
  0
LINE
  5
195
330
1F
100
AcDbEntity
  8
0
  6
Continuous
 62
     7
370
    25
100
AcDbLine
 10
127.7055920414
 20
126.996786437
 30
0.0
 11
128.580832515
 21
127.5021067601
 31
0.0
  0
LINE
  5
196
330
1F
100
AcDbEntity
  8
0
  6
Continuous
 62
     7
370
    25
100
AcDbLine
 10
98.0072580912
 20
100.7147356295
 30
0.0
 11
97.8707893189
 21
100.635945347
 31
0.0
  0
SPLINE
  5
197
330
1F
100
AcDbEntity
  8
0
  6
Continuous
 62
     7
370
    25
100
AcDbSpline
210
0.0
220
0.0
230
1.0
 70
     8
 71
     3
 72
    32
 73
    28
 74
     0
 42
0.000000001
 43
0.00000001
 40
0.0
 40
0.0
 40
0.0
 40
0.0
 40
0.1250000000000013
 40
0.1250000000000013
 40
0.1875000000000015
 40
0.1875000000000015
 40
0.2500000000000017
 40
0.2500000000000017
 40
0.3125000000000019
 40
0.3125000000000019
 40
0.3750000000000021
 40
0.3750000000000021
 40
0.5000000000000018
 40
0.5000000000000018
 40
0.5625000000000017
 40
0.5625000000000017
 40
0.6250000000000016
 40
0.6250000000000016
 40
0.750000000000001
 40
0.750000000000001
 40
0.8125000000000007
 40
0.8125000000000007
 40
0.8750000000000004
 40
0.8750000000000004
 40
0.9375000000000002
 40
0.9375000000000002
 40
1.0
 40
1.0
 40
1.0
 40
1.0
 10
111.6732223727494
 20
125.5319551912342
 30
0.0
 10
111.1891481287953
 20
125.5323145838539
 30
0.0
 10
110.7057505582285
 20
125.5472737900352
 30
0.0
 10
109.9818452084924
 20
125.5942578365438
 30
0.0
 10
109.7411827749556
 20
125.6140343916684
 30
0.0
 10
109.26983666588
 20
125.6609984751675
 30
0.0
 10
109.0380008495897
 20
125.6882523243519
 30
0.0
 10
108.5822977630334
 20
125.7498802529645
 30
0.0
 10
108.3584294400921
 20
125.78425535376
 30
0.0
 10
107.9191018480843
 20
125.859574797413
 30
0.0
 10
107.7023844554179
 20
125.9007927481613
 30
0.0
 10
107.0760424767451
 20
126.0310295673421
 30
0.0
 10
106.6916498423917
 20
126.1260694792413
 30
0.0
 10
106.1641080967719
 20
126.2723364411937
 30
0.0
 10
105.9964739452407
 20
126.3217050763843
 30
0.0
 10
105.6780691980002
 20
126.4201087838846
 30
0.0
 10
105.5284883234611
 20
126.4687920485171
 30
0.0
 10
105.1154682539126
 20
126.6084148516855
 30
0.0
 10
104.8839164827534
 20
126.694001530266
 30
0.0
 10
104.6006069676638
 20
126.8029645781821
 30
0.0
 10
104.517039285892
 20
126.8360132307566
 30
0.0
 10
104.3751144535678
 20
126.8930166269969
 30
0.0
 10
104.3161263421252
 20
126.9172133326073
 30
0.0
 10
104.2214104384154
 20
126.9564156129863
 30
0.0
 10
104.1856824712686
 20
126.9714227794834
 30
0.0
 10
104.1377181935512
 20
126.9916317772103
 30
0.0
 10
104.1255918861177
 20
126.9967864370247
 30
0.0
 10
104.1255918861177
 20
126.9967864370247
 30
0.0
  0
SPLINE
  5
198
330
1F
100
AcDbEntity
  8
0
  6
Continuous
 62
     7
370
    25
100
AcDbSpline
210
0.0
220
0.0
230
1.0
 70
     8
 71
     3
 72
    31
 73
    27
 74
     0
 42
0.000000001
 43
0.00000001
 40
0.0
 40
0.0
 40
0.0
 40
0.0
 40
0.0161756722762516
 40
0.032316913783192
 40
0.0484425619887066
 40
0.0645715089965106
 40
0.0807226353345234
 40
0.0969147439454904
 40
0.1131664955259493
 40
0.1294963463054482
 40
0.1459224892616141
 40
0.1624627996348624
 40
0.1791347854483601
 40
0.1959555435640313
 40
0.2945755146277879
 40
0.3932797312250754
 40
0.4928176221933231
 40
0.5924285912823349
 40
0.6939020917448143
 40
0.7927115381487335
 40
0.8267756331435508
 40
0.8608043324964876
 40
0.8949846314009906
 40
0.9295010594357859
 40
0.9645328322468292
 40
1.0
 40
1.0
 40
1.0
 40
1.0
 10
122.6815414314928
 20
126.9967864370247
 30
0.0
 10
122.6808083310416
 20
126.9964400455967
 30
0.0
 10
122.6793436905821
 20
126.9957480000532
 30
0.0
 10
122.6662873109171
 20
126.9901656380069
 30
0.0
 10
122.6452727503942
 20
126.9812988750127
 30
0.0
 10
122.6155255450536
 20
126.9688577742978
 30
0.0
 10
122.577253232398
 20
126.9529671157426
 30
0.0
 10
122.5304005514768
 20
126.9336413719153
 30
0.0
 10
122.4749828214398
 20
126.9109252823958
 30
0.0
 10
122.4109968576094
 20
126.8848562780211
 30
0.0
 10
122.3384433734588
 20
126.855473830653
 30
0.0
 10
122.2573266759791
 20
126.8228195833182
 30
0.0
 10
122.1676330212292
 20
126.7869271362838
 30
0.0
 10
121.9105871745726
 20
126.684689228617
 30
0.0
 10
121.3825511889798
 20
126.4781650151503
 30
0.0
 10
120.4039165417336
 20
126.1410797018004
 30
0.0
 10
119.2180402388148
 20
125.7979348424726
 30
0.0
 10
117.8475739737416
 20
125.500822941812
 30
0.0
 10
116.361716701777
 20
125.290779514079
 30
0.0
 10
115.141564068012
 20
125.2325541112104
 30
0.0
 10
114.2751400350671
 20
125.2462464524705
 30
0.0
 10
113.7468951065903
 20
125.2716145380816
 30
0.0
 10
113.2221218753841
 20
125.3136371537991
 30
0.0
 10
112.7011326357916
 20
125.3719211170271
 30
0.0
 10
112.1838916907332
 20
125.4445446622726
 30
0.0
 10
111.8482545783993
 20
125.5034249799624
 30
0.0
 10
111.6793995903376
 20
125.5330469585078
 30
0.0
  0
LINE
  5
199
330
1F
100
AcDbEntity
  8
0
  6
Continuous
 62
     7
370
    25
100
AcDbLine
 10
122.6815414315
 20
126.996786437
 30
0.0
 11
127.7055920414
 21
126.996786437
 31
0.0
  0
LINE
  5
19A
330
1F
100
AcDbEntity
  8
0
  6
Continuous
 62
     7
370
    25
100
AcDbLine
 10
119.8555920414
 20
113.4220598478
 30
0.0
 11
119.8555920414
 21
109.359286437
 31
0.0
  0
SPLINE
  5
19B
330
1F
100
AcDbEntity
  8
0
  6
Continuous
 62
     7
370
    25
100
AcDbSpline
210
0.0
220
0.0
230
1.0
 70
     8
 71
     3
 72
    25
 73
    21
 74
     0
 42
0.000000001
 43
0.00000001
 40
0.0
 40
0.0
 40
0.0
 40
0.0
 40
0.0278144320063462
 40
0.0555680196245754
 40
0.083331625367772
 40
0.111176035216759
 40
0.1391714221532265
 40
0.1673868326284763
 40
0.1958897140434718
 40
0.2247454979318961
 40
0.254017249222145
 40
0.3796724410016501
 40
0.5056484635002454
 40
0.629752729069345
 40
0.7535891720571729
 40
0.8038564806093713
 40
0.853339684343451
 40
0.9023264398358534
 40
0.9511131859219439
 40
1.0
 40
1.0
 40
1.0
 40
1.0
 10
115.2055920414087
 20
117.9067830193897
 30
0.0
 10
115.274247395371
 20
117.9062499342826
 30
0.0
 10
115.4114079189237
 20
117.9051849301981
 30
0.0
 10
115.6166505015095
 20
117.8920900328059
 30
0.0
 10
115.8209715180066
 20
117.8705515462334
 30
0.0
 10
116.0243725700956
 20
117.8397300743848
 30
0.0
 10
116.2268482009414
 20
117.7998173218773
 30
0.0
 10
116.4283970651891
 20
117.7507171289364
 30
0.0
 10
116.6290110859918
 20
117.6924038814246
 30
0.0
 10
116.8287088503241
 20
117.6248119385578
 30
0.0
 10
117.2442736710034
 20
117.4639984224421
 30
0.0
 10
117.8470500875459
 20
117.1500215231008
 30
0.0
 10
118.5411066430508
 20
116.5864500476061
 30
0.0
 10
119.1078802724479
 20
115.9107058283521
 30
0.0
 10
119.4454580781192
 20
115.2933440008755
 30
0.0
 10
119.6339204874081
 20
114.8012825613655
 30
0.0
 10
119.7331817049325
 20
114.4636307788191
 30
0.0
 10
119.8035262936394
 20
114.1209996367956
 30
0.0
 10
119.847524892158
 20
113.773634936354
 30
0.0
 10
119.8529011556383
 20
113.5393315597471
 30
0.0
 10
119.8555920414087
 20
113.4220598478244
 30
0.0
  0
LINE
  5
19C
330
1F
100
AcDbEntity
  8
0
  6
Continuous
 62
     7
370
    25
100
AcDbLine
 10
113.2907187621
 20
117.9067830194
 30
0.0
 11
115.2055920414
 21
117.9067830194
 31
0.0
  0
SPLINE
  5
19D
330
1F
100
AcDbEntity
  8
0
  6
Continuous
 62
     7
370
    25
100
AcDbSpline
210
0.0
220
0.0
230
1.0
 70
     8
 71
     3
 72
    12
 73
     8
 74
     0
 42
0.000000001
 43
0.00000001
 40
0.0
 40
0.0
 40
0.0
 40
0.0
 40
0.1992838848975294
 40
0.3984605265796777
 40
0.5979968004971673
 40
0.7983570684833388
 40
1.0
 40
1.0
 40
1.0
 40
1.0
 10
112.2896849197803
 20
117.8045887066662
 30
0.0
 10
112.3551381970807
 20
117.8176110594309
 30
0.0
 10
112.4860095284627
 20
117.8436487570731
 30
0.0
 10
112.6848589800865
 20
117.8720793160471
 30
0.0
 10
112.8852654959575
 20
117.8925104770286
 30
0.0
 10
113.0874364133748
 20
117.9049495540992
 30
0.0
 10
113.2228139970258
 20
117.9061705656738
 30
0.0
 10
113.2907187621193
 20
117.9067830193897
 30
0.0
  0
LINE
  5
19E
330
1F
100
AcDbEntity
  8
0
  6
Continuous
 62
     7
370
    25
100
AcDbLine
 10
106.8649219122
 20
117.8044247826
 30
0.0
 11
112.2889119307
 21
117.8044247826
 31
0.0
  0
SPLINE
  5
19F
330
1F
100
AcDbEntity
  8
0
  6
Continuous
 62
     7
370
    25
100
AcDbSpline
210
0.0
220
0.0
230
1.0
 70
     8
 71
     3
 72
    24
 73
    20
 74
     0
 42
0.000000001
 43
0.00000001
 40
0.0
 40
0.0
 40
0.0
 40
0.0
 40
0.0410257106287842
 40
0.0818520099077639
 40
0.1225800578354648
 40
0.1633117464058233
 40
0.2041489402806705
 40
0.2451927184749161
 40
0.2865426449235763
 40
0.3282960933646444
 40
0.370547647549383
 40
0.4133885920102291
 40
0.4569065022351533
 40
0.5011849368587563
 40
0.6001856774947433
 40
0.6987388860447942
 40
0.7976800645453981
 40
0.8978349910029445
 40
1.0
 40
1.0
 40
1.0
 40
1.0
 10
103.0929350052586
 20
119.7420665996876
 30
0.0
 10
103.1559740932131
 20
119.7415318993725
 30
0.0
 10
103.281745858595
 20
119.7404650977299
 30
0.0
 10
103.4696840201058
 20
119.7293216057317
 30
0.0
 10
103.6562741129304
 20
119.711160107424
 30
0.0
 10
103.8415158954655
 20
119.6852851867026
 30
0.0
 10
104.0254050786935
 20
119.6518483008909
 30
0.0
 10
104.2079387446663
 20
119.6107642793474
 30
0.0
 10
104.3891141516056
 20
119.5620015312538
 30
0.0
 10
104.5689289355817
 20
119.5055040431101
 30
0.0
 10
104.7473821346613
 20
119.4412129483079
 30
0.0
 10
104.9244701728109
 20
119.3690592683755
 30
0.0
 10
105.1002022970967
 20
119.2889720833368
 30
0.0
 10
105.345216930693
 20
119.1651311966544
 30
0.0
 10
105.6494000098752
 20
118.9865062144612
 30
0.0
 10
105.9967074913203
 20
118.7374170304039
 30
0.0
 10
106.3158817547927
 20
118.4578474454243
 30
0.0
 10
106.6097936570574
 20
118.1490218074521
 30
0.0
 10
106.7793177437493
 20
117.9209297641503
 30
0.0
 10
106.8649219122321
 20
117.8057506761197
 30
0.0
  0
LINE
  5
1A0
330
1F
100
AcDbEntity
  8
0
  6
Continuous
 62
     7
370
    25
100
AcDbLine
 10
100.3013932883
 20
119.7420665997
 30
0.0
 11
103.0929350053
 21
119.7420665997
 31
0.0
  0
SPLINE
  5
1A1
330
1F
100
AcDbEntity
  8
0
  6
Continuous
 62
     7
370
    25
100
AcDbSpline
210
0.0
220
0.0
230
1.0
 70
     8
 71
     3
 72
     8
 73
     4
 74
     0
 42
0.000000001
 43
0.00000001
 40
0.0
 40
0.0
 40
0.0
 40
0.0
 40
1.0
 40
1.0
 40
1.0
 40
1.0
 10
100.25558921665
 20
119.8055195906973
 30
0.0
 10
100.2708572405477
 20
119.7844031202992
 30
0.0
 10
100.2861252644454
 20
119.7632520532465
 30
0.0
 10
100.301393288343
 20
119.7420665996876
 30
0.0
  0
LINE
  5
1A2
330
1F
100
AcDbEntity
  8
0
  6
Continuous
 62
     7
370
    25
100
AcDbLine
 10
100.2555920414
 20
126.996786437
 30
0.0
 11
100.2555920414
 21
119.8055195907
 31
0.0
  0
LINE
  5
1A3
330
1F
100
AcDbEntity
  8
0
  6
Continuous
 62
     7
370
    25
100
AcDbLine
 10
100.2555920414
 20
126.996786437
 30
0.0
 11
104.1255918861
 21
126.996786437
 31
0.0
  0
LINE
  5
1A4
330
1F
100
AcDbEntity
  8
0
  6
Continuous
 62
     7
370
    25
100
AcDbLine
 10
131.2055920414
 20
124.909286437
 30
0.0
 11
134.9055920414
 21
124.909286437
 31
0.0
  0
LINE
  5
1A5
330
1F
100
AcDbEntity
  8
0
  6
Continuous
 62
     7
370
    25
100
AcDbLine
 10
131.2055920414
 20
124.909286437
 30
0.0
 11
131.2055920414
 21
109.359286437
 31
0.0
  0
ARC
  5
1A6
330
1F
100
AcDbEntity
  8
0
  6
Continuous
 62
     7
370
    25
100
AcDbCircle
 10
134.9055920414
 20
123.709286437
 30
0.0
 40
1.200000000000003
100
AcDbArc
 50
0.0
 51
90.0
  0
LINE
  5
1A7
330
1F
100
AcDbEntity
  8
0
  6
Continuous
 62
     7
370
    25
100
AcDbLine
 10
148.6055920414
 20
118.659286437
 30
0.0
 11
151.3108180233
 21
118.659286437
 31
0.0
  0
ARC
  5
1A8
330
1F
100
AcDbEntity
  8
0
  6
Continuous
 62
     7
370
    25
100
AcDbCircle
 10
148.6055920414
 20
118.259286437
 30
0.0
 40
0.4000000000000341
100
AcDbArc
 50
90.0
 51
180.0
  0
ARC
  5
1A9
330
1F
100
AcDbEntity
  8
0
  6
Continuous
 62
     7
370
    25
100
AcDbCircle
 10
151.3108180233
 20
118.259286437
 30
0.0
 40
0.4000000000000074
100
AcDbArc
 50
70.0
 51
90.0
  0
ARC
  5
1AA
330
1F
100
AcDbEntity
  8
0
  6
Continuous
 62
     7
370
    25
100
AcDbCircle
 10
196.9055920414
 20
118.659286437
 30
0.0
 40
0.2999999999999972
100
AcDbArc
 50
270.0
 51
0.0
  0
LINE
  5
1AB
330
1F
100
AcDbEntity
  8
0
  6
Continuous
 62
     7
370
    25
100
AcDbLine
 10
197.2055920414
 20
118.659286437
 30
0.0
 11
197.2055920414
 21
109.359286437
 31
0.0
  0
LINE
  5
1AC
330
1F
100
AcDbEntity
  8
0
  6
Continuous
 62
     7
370
    25
100
AcDbLine
 10
152.2055920414
 20
118.359286437
 30
0.0
 11
152.2055920414
 21
109.359286437
 31
0.0
  0
LINE
  5
1AD
330
1F
100
AcDbEntity
  8
0
  6
Continuous
 62
     7
370
    25
100
AcDbLine
 10
151.4476260806
 20
118.6351634853
 30
0.0
 11
152.2055920414
 21
118.359286437
 31
0.0
  0
SPLINE
  5
1AE
330
1F
100
AcDbEntity
  8
0
  6
Continuous
 62
     7
370
    25
100
AcDbSpline
210
0.0
220
0.0
230
1.0
 70
     8
 71
     3
 72
    25
 73
    21
 74
     0
 42
0.000000001
 43
0.00000001
 40
0.0
 40
0.0
 40
0.0
 40
0.0
 40
0.035256109415482
 40
0.0996015731348796
 40
0.1643068983953666
 40
0.2302661100892766
 40
0.296732560314402
 40
0.3467571748548465
 40
0.3970674769002094
 40
0.4483347023079765
 40
0.4999574614820066
 40
0.5586185061590019
 40
0.6178180839206716
 40
0.6786310966618668
 40
0.7399522149474039
 40
0.798591894917081
 40
0.8575801885191865
 40
0.9175408314777302
 40
0.9777938307209456
 40
0.9999999999999999
 40
0.9999999999999999
 40
0.9999999999999999
 40
0.9999999999999999
 10
170.3564853322154
 20
116.8592864370246
 30
0.0
 10
170.4228329251827
 20
116.8291720815237
 30
0.0
 10
170.6102706414482
 20
116.7440964100566
 30
0.0
 10
170.9427437291248
 20
116.6115307699612
 30
0.0
 10
171.3520796464248
 20
116.4645435342756
 30
0.0
 10
171.7854438301203
 20
116.3325433272217
 30
0.0
 10
172.2020559494447
 20
116.2300672915043
 30
0.0
 10
172.5936675772681
 20
116.1559799332881
 30
0.0
 10
172.9564576454407
 20
116.1058953224582
 30
0.0
 10
173.3280958658036
 20
116.0746030930767
 30
0.0
 10
173.7227786963529
 20
116.0634332984124
 30
0.0
 10
174.1369003555538
 20
116.076757561958
 30
0.0
 10
174.5694378486444
 20
116.118342767389
 30
0.0
 10
175.0004951648284
 20
116.1869710648749
 30
0.0
 10
175.4190390752585
 20
116.2790567672361
 30
0.0
 10
175.820078328938
 20
116.3896301274237
 30
0.0
 10
176.2041606642689
 20
116.5146432360761
 30
0.0
 10
176.5748445291373
 20
116.6533115658534
 30
0.0
 10
176.8603116487837
 20
116.7696015261178
 30
0.0
 10
177.0143830505732
 20
116.8402585682458
 30
0.0
 10
177.0558743206226
 20
116.8592864370246
 30
0.0
  0
LINE
  5
1AF
330
1F
100
AcDbEntity
  8
0
  6
Continuous
 62
     7
370
    25
100
AcDbLine
 10
179.7055920414
 20
118.359286437
 30
0.0
 11
196.9055920414
 21
118.359286437
 31
0.0
  0
LINE
  5
1B0
330
1F
100
AcDbEntity
  8
0
  6
Continuous
 62
     7
370
    25
100
AcDbLine
 10
152.2055920414
 20
118.359286437
 30
0.0
 11
167.7055920414
 21
118.359286437
 31
0.0
  0
LINE
  5
1B1
330
1F
100
AcDbEntity
  8
0
  6
Continuous
 62
     7
370
    25
100
AcDbLine
 10
139.9305920414
 20
115.109286437
 30
0.0
 11
140.7555920414
 21
115.109286437
 31
0.0
  0
LINE
  5
1B2
330
1F
100
AcDbEntity
  8
0
  6
Continuous
 62
     7
370
    25
100
AcDbLine
 10
136.5055920414
 20
114.359286437
 30
0.0
 11
136.5055920414
 21
109.359286437
 31
0.0
  0
LINE
  5
1B3
330
1F
100
AcDbEntity
  8
0
  6
Continuous
 62
     7
370
    25
100
AcDbLine
 10
136.1055920414
 20
114.5902265447
 30
0.0
 11
136.5055920414
 21
114.359286437
 31
0.0
  0
LINE
  5
1B4
330
1F
100
AcDbEntity
  8
0
  6
Continuous
 62
     7
370
    25
100
AcDbLine
 10
136.1055920414
 20
114.5902265447
 30
0.0
 11
136.1055920414
 21
109.359286437
 31
0.0
  0
LINE
  5
1B5
330
1F
100
AcDbEntity
  8
0
  6
Continuous
 62
     7
370
    25
100
AcDbLine
 10
136.5055920414
 20
114.359286437
 30
0.0
 11
139.9305920414
 21
114.359286437
 31
0.0
  0
LINE
  5
1B6
330
1F
100
AcDbEntity
  8
0
  6
Continuous
 62
     7
370
    25
100
AcDbLine
 10
139.9305920414
 20
114.359286437
 30
0.0
 11
139.9305920414
 21
109.359286437
 31
0.0
  0
LINE
  5
1B7
330
1F
100
AcDbEntity
  8
0
  6
Continuous
 62
     7
370
    25
100
AcDbLine
 10
140.7555920414
 20
113.359286437
 30
0.0
 11
148.2055920414
 21
113.359286437
 31
0.0
  0
LINE
  5
1B8
330
1F
100
AcDbEntity
  8
0
  6
Continuous
 62
     7
370
    25
100
AcDbLine
 10
140.7555920414
 20
113.359286437
 30
0.0
 11
140.7555920414
 21
109.359286437
 31
0.0
  0
LINE
  5
1B9
330
1F
100
AcDbEntity
  8
0
  6
Continuous
 62
     7
370
    25
100
AcDbLine
 10
148.2055920414
 20
113.359286437
 30
0.0
 11
148.2055920414
 21
109.359286437
 31
0.0
  0
SPLINE
  5
1BA
330
1F
100
AcDbEntity
  8
0
  6
Continuous
 62
     7
370
    25
100
AcDbSpline
210
0.0
220
0.0
230
1.0
 70
     8
 71
     3
 72
    37
 73
    33
 74
     0
 42
0.000000001
 43
0.00000001
 40
0.0
 40
0.0
 40
0.0
 40
0.0
 40
0.0114878548102801
 40
0.0231559765621649
 40
0.0350076484354353
 40
0.0470460033795305
 40
0.059274030799991
 40
0.0716945830965781
 40
0.0843103820274648
 40
0.0971240248797992
 40
0.1101379904320508
 40
0.1233546446979384
 40
0.1811510010973227
 40
0.2483631736114421
 40
0.2888373415819253
 40
0.3232297457604624
 40
0.3515392131491944
 40
0.3737664266256188
 40
0.4399300285953851
 40
0.4987424063270026
 40
0.5023253005651626
 40
0.5613100074513715
 40
0.6252595444338135
 40
0.681865008384979
 40
0.7483890016987896
 40
0.7860781471964678
 40
0.8194856599799777
 40
0.8486127715281717
 40
0.8734622727747415
 40
0.938992615660414
 40
0.9981523731393548
 40
1.0
 40
1.0
 40
1.0
 40
1.0
 10
122.0555920414087
 20
132.8229387403779
 30
0.0
 10
122.0546655901302
 20
132.8224952233695
 30
0.0
 10
122.0527981497381
 20
132.821601229702
 30
0.0
 10
122.0375250893984
 20
132.8144092522437
 30
0.0
 10
122.0126233869345
 20
132.8029580086513
 30
0.0
 10
121.9767691149986
 20
132.7868082498768
 30
0.0
 10
121.929801604161
 20
132.7660805703231
 30
0.0
 10
121.8712586937401
 20
132.7407420513213
 30
0.0
 10
121.8007805541625
 20
132.7108016307668
 30
0.0
 10
121.718005989885
 20
132.6762576567248
 30
0.0
 10
121.6225894447668
 20
132.6371079151102
 30
0.0
 10
121.3930206113783
 20
132.544409243949
 30
0.0
 10
120.9086023974057
 20
132.3556863534345
 30
0.0
 10
120.1296024258603
 20
132.0775965534633
 30
0.0
 10
119.3383839744402
 20
131.8270096861339
 30
0.0
 10
118.7073334811974
 20
131.6519929248041
 30
0.0
 10
118.154295524861
 20
131.5121582842051
 30
0.0
 10
117.3613375959646
 20
131.3317474388591
 30
0.0
 10
116.2910032556314
 20
131.1426811172169
 30
0.0
 10
115.3100129761962
 20
131.0373943095072
 30
0.0
 10
114.3820457470765
 20
130.9803615375543
 30
0.0
 10
113.4095902533161
 20
130.9657669391845
 30
0.0
 10
112.0834600478828
 20
131.0439601556756
 30
0.0
 10
110.813424563389
 20
131.2044398772699
 30
0.0
 10
109.8536485627194
 20
131.3895514154835
 30
0.0
 10
109.1549969153746
 20
131.5570410192136
 30
0.0
 10
108.7111887772195
 20
131.6706642254218
 30
0.0
 10
108.3786517152895
 20
131.7638480603304
 30
0.0
 10
107.9914933050463
 20
131.878512924589
 30
0.0
 10
107.6542453429344
 20
131.9858587336491
 30
0.0
 10
107.5565212766056
 20
132.0234243069357
 30
0.0
 10
107.5556193563336
 20
132.0235557157522
 30
0.0
 10
107.5555920414087
 20
132.0235596955075
 30
0.0
  0
LINE
  5
1BB
330
1F
100
AcDbEntity
  8
0
  6
Continuous
 62
     7
370
    25
100
AcDbLine
 10
122.0555920414
 20
132.8229387404
 30
0.0
 11
122.0555920414
 21
127.4655124578
 31
0.0
  0
SPLINE
  5
1BC
330
1F
100
AcDbEntity
  8
0
  6
Continuous
 62
     7
370
    25
100
AcDbSpline
210
0.0
220
0.0
230
1.0
 70
     8
 71
     3
 72
    30
 73
    26
 74
     0
 42
0.000000001
 43
0.00000001
 40
0.0
 40
0.0
 40
0.0
 40
0.0
 40
0.0192411700742056
 40
0.0381353539376964
 40
0.0566868884861288
 40
0.074900355493137
 40
0.0927805967284125
 40
0.1103327298326405
 40
0.1275621649289919
 40
0.1444746219341846
 40
0.245586583053202
 40
0.357772019251686
 40
0.4505017408956515
 40
0.5720127868619939
 40
0.616806984020001
 40
0.6590088499432819
 40
0.6986242498774752
 40
0.7356603299341614
 40
0.7701258931915136
 40
0.8073679165907875
 40
0.848395032489143
 40
0.888136779882007
 40
0.9266264622110474
 40
0.9639007443615107
 40
1.0
 40
1.0
 40
1.0
 40
1.0
 10
112.8847734507966
 20
125.8014211474327
 30
0.0
 10
112.9678059306763
 20
125.7902940421078
 30
0.0
 10
113.1323735217491
 20
125.7682404924417
 30
0.0
 10
113.3802550374297
 20
125.740188603179
 30
0.0
 10
113.625531712872
 20
125.7162370726531
 30
0.0
 10
113.8680895464833
 20
125.6967071204597
 30
0.0
 10
114.1075242235922
 20
125.6815148282831
 30
0.0
 10
114.3435374189993
 20
125.6706832670522
 30
0.0
 10
114.57585546431
 20
125.6642027017991
 30
0.0
 10
115.1844062339341
 20
125.658571210213
 30
0.0
 10
116.2227187311541
 20
125.7185446096977
 30
0.0
 10
117.5380702592554
 20
125.9179670828725
 30
0.0
 10
118.817615472147
 20
126.2234484435563
 30
0.0
 10
119.7090560162371
 20
126.5033912464752
 30
0.0
 10
120.3267208850981
 20
126.7308403429906
 30
0.0
 10
120.6700439703814
 20
126.8611190034906
 30
0.0
 10
120.9617350552769
 20
126.9772099414486
 30
0.0
 10
121.2062804111028
 20
127.0785781708519
 30
0.0
 10
121.4186350915422
 20
127.1699162233695
 30
0.0
 10
121.6096980661668
 20
127.2539913073167
 30
0.0
 10
121.7749454703392
 20
127.3289842612819
 30
0.0
 10
121.9044860205834
 20
127.3899727608276
 30
0.0
 10
121.9928523898059
 20
127.4332104225931
 30
0.0
 10
122.0459982350695
 20
127.4604405084719
 30
0.0
 10
122.0524284310107
 20
127.4638399546018
 30
0.0
 10
122.0555920414087
 20
127.4655124577763
 30
0.0
  0
SPLINE
  5
1BD
330
1F
100
AcDbEntity
  8
0
  6
Continuous
 62
     7
370
    25
100
AcDbSpline
210
0.0
220
0.0
230
1.0
 70
     8
 71
     3
 72
    38
 73
    34
 74
     0
 42
0.000000001
 43
0.00000001
 40
0.0
 40
0.0
 40
0.0
 40
0.0
 40
0.125000000000001
 40
0.125000000000001
 40
0.2500000000000021
 40
0.2500000000000021
 40
0.3125000000000023
 40
0.3125000000000023
 40
0.3750000000000026
 40
0.3750000000000026
 40
0.4375000000000029
 40
0.4375000000000029
 40
0.5000000000000032
 40
0.5000000000000032
 40
0.5625000000000036
 40
0.5625000000000036
 40
0.6250000000000038
 40
0.6250000000000038
 40
0.6875000000000041
 40
0.6875000000000041
 40
0.7187500000000037
 40
0.7187500000000037
 40
0.7500000000000032
 40
0.7500000000000032
 40
0.7812500000000029
 40
0.7812500000000029
 40
0.8125000000000024
 40
0.8125000000000024
 40
0.8750000000000017
 40
0.8750000000000017
 40
0.9375000000000008
 40
0.9375000000000008
 40
1.0
 40
1.0
 40
1.0
 40
1.0
 10
107.5555920414087
 20
131.8953343219286
 30
0.0
 10
107.5555920414089
 20
131.8953343219285
 30
0.0
 10
107.6173977989724
 20
131.8726902392666
 30
0.0
 10
107.8670203444079
 20
131.7801058502105
 30
0.0
 10
108.0507479753461
 20
131.7117182702578
 30
0.0
 10
108.4071368119312
 20
131.5758761710559
 30
0.0
 10
108.5402972734367
 20
131.5246831859994
 30
0.0
 10
108.8313762841331
 20
131.410994580887
 30
0.0
 10
108.9878662356424
 20
131.3490679733806
 30
0.0
 10
109.3212476769304
 20
131.2141828646901
 30
0.0
 10
109.4981514352935
 20
131.1412446104035
 30
0.0
 10
109.8713930827668
 20
130.9822686756076
 30
0.0
 10
110.0691370736479
 20
130.895628905731
 30
0.0
 10
110.475160506901
 20
130.7087112331786
 30
0.0
 10
110.683213900288
 20
130.6086763193696
 30
0.0
 10
111.1055081730222
 20
130.3894127691906
 30
0.0
 10
111.3198734760972
 20
130.270409577526
 30
0.0
 10
111.7477157876766
 20
130.0001357272021
 30
0.0
 10
111.9641174387832
 20
129.8468869016904
 30
0.0
 10
112.2627498816634
 20
129.5808183781072
 30
0.0
 10
112.357942471133
 20
129.4860461318344
 30
0.0
 10
112.5355677229898
 20
129.2802892746445
 30
0.0
 10
112.6181820336182
 20
129.1684307328739
 30
0.0
 10
112.7602623086398
 20
128.9349152286515
 30
0.0
 10
112.8206478578847
 20
128.8123541626957
 30
0.0
 10
112.9200983500395
 20
128.5558833994706
 30
0.0
 10
112.9593897890643
 20
128.4206433859208
 30
0.0
 10
113.0460863752173
 20
128.0123613829564
 30
0.0
 10
113.0647947022121
 20
127.7361012051714
 30
0.0
 10
113.0612986815803
 20
127.1793534265357
 30
0.0
 10
113.0388190613718
 20
126.901123182545
 30
0.0
 10
112.9731914135896
 20
126.3497373623603
 30
0.0
 10
112.9296938699002
 20
126.0754836932579
 30
0.0
 10
112.8802143227901
 20
125.8020542212963
 30
0.0
  0
LINE
  5
1BE
330
1F
100
AcDbEntity
  8
0
  6
Continuous
 62
     7
370
    25
100
AcDbLine
 10
107.5555920414
 20
131.8953343219
 30
0.0
 11
107.5555920414
 21
132.0235596954
 31
0.0
  0
SPLINE
  5
1BF
330
1F
100
AcDbEntity
  8
0
  6
Continuous
 62
     7
370
    25
100
AcDbSpline
210
0.0
220
0.0
230
1.0
 70
     8
 71
     3
 72
    14
 73
    10
 74
     0
 42
0.000000001
 43
0.00000001
 40
0.0
 40
0.0
 40
0.0
 40
0.0
 40
0.0003951392850831
 40
0.0003951392850831
 40
0.0003951392850831
 40
0.0008159035679249
 40
0.0008159035679249
 40
0.0008159035679249
 40
0.0012369936130997
 40
0.0012369936130997
 40
0.0012369936130997
 40
0.0012369936130997
 10
111.6834759911403
 20
125.5342594340249
 30
0.0
 10
111.811985229247
 20
125.5631334017384
 30
0.0
 10
111.940548736976
 20
125.5918216152147
 30
0.0
 10
112.0690991152594
 20
125.6203244592522
 30
0.0
 10
112.2059843629229
 20
125.6506753529429
 30
0.0
 10
112.3428800088228
 20
125.6808213179719
 30
0.0
 10
112.4797002701718
 20
125.7107731375404
 30
0.0
 10
112.6166262591167
 20
125.7407481023203
 30
0.0
 10
112.7535033310809
 20
125.7705341517655
 30
0.0
 10
112.8902401802681
 20
125.8001566249342
 30
0.0
  0
LINE
  5
1C0
330
1F
100
AcDbEntity
  8
0
  6
Continuous
 62
     7
370
    25
100
AcDbLine
 10
104.1255918861
 20
126.996786437
 30
0.0
 11
107.5555920414
 21
131.8953343219
 31
0.0
  0
LINE
  5
1C1
330
1F
100
AcDbEntity
  8
0
  6
Continuous
 62
     7
370
    25
100
AcDbLine
 10
179.7055920414
 20
118.359286437
 30
0.0
 11
179.7055920414
 21
132.3592864496
 31
0.0
  0
LINE
  5
1C2
330
1F
100
AcDbEntity
  8
0
  6
Continuous
 62
     7
370
    25
100
AcDbLine
 10
167.7055920414
 20
132.3592865273
 30
0.0
 11
167.7055920414
 21
118.359286437
 31
0.0
  0
LINE
  5
1C3
330
1F
100
AcDbEntity
  8
0
  6
Continuous
 62
     7
370
    25
100
AcDbLine
 10
106.8060301931
 20
132.8326721467
 30
0.0
 11
107.555620172
 21
132.0235608089
 31
0.0
  0
LINE
  5
1C4
330
1F
100
AcDbEntity
  8
0
  6
Continuous
 62
     7
370
    25
100
AcDbLine
 10
122.0556049895
 20
132.8229389962
 30
0.0
 11
122.7239351355
 21
133.6320508186
 31
0.0
  0
LINE
  5
1C5
330
1F
100
AcDbEntity
  8
0
  6
Continuous
 62
     7
370
    25
100
AcDbLine
 10
98.0072580912
 20
128.2948626484
 30
0.0
 11
100.2555920414
 21
126.996786437
 31
0.0
  0
LINE
  5
1C6
330
1F
100
AcDbEntity
  8
0
  6
Continuous
 62
     7
370
    25
100
AcDbLine
 10
97.2555920414
 20
129.596786437
 30
0.0
 11
98.0072580912
 21
128.2948626484
 31
0.0
  0
LINE
  5
1C7
330
1F
100
AcDbEntity
  8
0
  6
Continuous
 62
     7
370
    25
100
AcDbLine
 10
97.2555920414
 20
131.5623811608
 30
0.0
 11
97.2555920414
 21
129.596786437
 31
0.0
  0
LINE
  5
1C8
330
1F
100
AcDbEntity
  8
0
  6
Continuous
 62
     7
370
    25
100
AcDbLine
 10
98.7555920414
 20
132.4284065646
 30
0.0
 11
97.2555920414
 21
131.5623811608
 31
0.0
  0
ARC
  5
1C9
330
1F
100
AcDbEntity
  8
0
  6
Continuous
 62
     7
370
    25
100
AcDbCircle
 10
146.2305920414
 20
138.209286437
 30
0.0
 40
1.000000000000028
100
AcDbArc
 50
180.0
 51
270.0
  0
LINE
  5
1CA
330
1F
100
AcDbEntity
  8
0
  6
Continuous
 62
     7
370
    25
100
AcDbLine
 10
147.9805920414
 20
137.209286437
 30
0.0
 11
146.2305920414
 21
137.209286437
 31
0.0
  0
ARC
  5
1CB
330
1F
100
AcDbEntity
  8
0
  6
Continuous
 62
     7
370
    25
100
AcDbCircle
 10
147.9805920414
 20
138.209286437
 30
0.0
 40
1.0
100
AcDbArc
 50
270.0
 51
0.0
  0
LINE
  5
1CC
330
1F
100
AcDbEntity
  8
0
  6
Continuous
 62
     7
370
    25
100
AcDbLine
 10
148.9805920414
 20
138.3068817012
 30
0.0
 11
148.9805920414
 21
138.209286437
 31
0.0
  0
LINE
  5
1CD
330
1F
100
AcDbEntity
  8
0
  6
Continuous
 62
     7
370
    25
100
AcDbLine
 10
150.439789846
 20
140.834286437
 30
0.0
 11
148.9805920414
 21
138.3068817012
 31
0.0
  0
LINE
  5
1CE
330
1F
100
AcDbEntity
  8
0
  6
Continuous
 62
     7
370
    25
100
AcDbLine
 10
166.7055920963
 20
133.359286437
 30
0.0
 11
167.7055920414
 21
132.3592865273
 31
0.0
  0
LINE
  5
1CF
330
1F
100
AcDbEntity
  8
0
  6
Continuous
 62
     7
370
    25
100
AcDbLine
 10
122.6815411832
 20
126.9967877273
 30
0.0
 11
122.0555951696
 21
127.4655125827
 31
0.0
  0
LINE
  5
1D0
330
1F
100
AcDbEntity
  8
0
  6
Continuous
 62
     7
370
    25
100
AcDbLine
 10
145.2305920414
 20
138.3068817012
 30
0.0
 11
143.7713942368
 21
140.834286437
 31
0.0
  0
LINE
  5
1D1
330
1F
100
AcDbEntity
  8
0
  6
Continuous
 62
     7
370
    25
100
AcDbLine
 10
145.2305920414
 20
138.209286437
 30
0.0
 11
145.2305920414
 21
138.3068817012
 31
0.0
  0
LINE
  5
1D2
330
1F
100
AcDbEntity
  8
0
  6
Continuous
 62
     7
370
    25
100
AcDbLine
 10
139.9305920414
 20
114.359286437
 30
0.0
 11
139.9305920414
 21
115.109286437
 31
0.0
  0
LINE
  5
1D3
330
1F
100
AcDbEntity
  8
0
  6
Continuous
 62
     7
370
    25
100
AcDbLine
 10
140.7555920414
 20
115.109286437
 30
0.0
 11
140.7555920414
 21
113.359286437
 31
0.0
  0
LINE
  5
1D4
330
1F
100
AcDbEntity
  8
0
  6
Continuous
 62
     7
370
    25
100
AcDbLine
 10
148.2055920414
 20
113.359286437
 30
0.0
 11
148.2055920414
 21
118.259286437
 31
0.0
  0
LINE
  5
1D5
330
1F
100
AcDbEntity
  8
0
  6
Continuous
 62
     7
370
    25
100
AcDbLine
 10
136.1055920414
 20
123.709286437
 30
0.0
 11
136.1055920414
 21
114.5902265447
 31
0.0
  0
LINE
  5
1D6
330
1F
100
AcDbEntity
  8
0
  6
Continuous
 62
     7
370
    25
100
AcDbLine
 10
131.2055920414
 20
126.809286437
 30
0.0
 11
131.2055920414
 21
124.909286437
 31
0.0
  0
LINE
  5
1D7
330
1F
100
AcDbEntity
  8
0
  6
Continuous
 62
     7
370
    25
100
AcDbLine
 10
137.2055920414
 20
140.634286437
 30
0.0
 11
137.2055920414
 21
136.209286437
 31
0.0
  0
LINE
  5
1D8
330
1F
100
AcDbEntity
  8
0
  6
Continuous
 62
     7
370
    25
100
AcDbLine
 10
155.2055920414
 20
136.359286437
 30
0.0
 11
155.2055920414
 21
140.834286437
 31
0.0
  0
LINE
  5
1D9
330
1F
100
AcDbEntity
  8
0
  6
Continuous
 62
     7
370
    25
100
AcDbLine
 10
179.7055918291
 20
132.3592864759
 30
0.0
 11
180.7055917389
 21
133.3592863834
 31
0.0
  0
LINE
  5
1DA
330
1F
100
AcDbEntity
  8
0
  6
Continuous
 62
     7
370
    25
100
AcDbLine
 10
197.2055920414
 20
118.659286437
 30
0.0
 11
197.2055920414
 21
127.0851459154
 31
0.0
  0
SPLINE
  5
1DB
330
1F
100
AcDbEntity
  8
0
  6
Continuous
 62
     7
370
    25
100
AcDbSpline
210
0.0
220
0.0
230
1.0
 70
     8
 71
     3
 72
     9
 73
     5
 74
     0
 42
0.000000001
 43
0.00000001
 40
0.0
 40
0.0
 40
0.0
 40
0.0
 40
0.5102121239851395
 40
0.9999999999999999
 40
0.9999999999999999
 40
0.9999999999999999
 40
0.9999999999999999
 10
98.05995543807983
 20
119.8209129536765
 30
0.0
 10
98.43481749505861
 20
119.8184230362948
 30
0.0
 10
99.1695355453684
 20
119.8135428751527
 30
0.0
 10
99.89853613582514
 20
119.8081579837664
 30
0.0
 10
100.2555917866385
 20
119.8055205292517
 30
0.0
  0
LINE
  5
1DC
330
1F
100
AcDbEntity
  8
0
  6
Continuous
 62
     7
370
    25
100
AcDbLine
 10
98.0072580912
 20
119.8513372446
 30
0.0
 11
98.0599554399
 21
119.8209124162
 31
0.0
  0
LINE
  5
1DD
330
1F
100
AcDbEntity
  8
0
  6
Continuous
 62
     7
370
    25
100
AcDbLine
 10
98.0072580912
 20
128.2948626484
 30
0.0
 11
98.0072580912
 21
119.8513372446
 31
0.0
  0
SPLINE
  5
1DE
330
1F
100
AcDbEntity
  8
0
  6
Continuous
 62
     7
370
    25
100
AcDbSpline
210
0.0
220
0.0
230
1.0
 70
    24
 71
     3
 72
     8
 73
     4
 74
     0
 42
0.000000001
 43
0.00000001
 40
0.0000004089325119
 40
0.0000004089325119
 40
0.0000004089325119
 40
0.0000004089325119
 40
0.0015399868451459
 40
0.0015399868451459
 40
0.0015399868451459
 40
0.0015399868451459
 10
97.25559204140873
 20
120.2853118408091
 30
0.0
 10
97.50658311743318
 20
120.1404020755022
 30
0.0
 10
97.75717231393612
 20
119.9957243354452
 30
0.0
 10
98.00725809124827
 20
119.8513372445935
 30
0.0
  0
LINE
  5
1DF
330
1F
100
AcDbEntity
  8
0
  6
Continuous
 62
     7
370
    25
100
AcDbLine
 10
97.2555920414
 20
129.596786437
 30
0.0
 11
97.2555920414
 21
120.2853118408
 31
0.0
  0
SPLINE
  5
1E0
330
1F
100
AcDbEntity
  8
0
  6
Continuous
 62
     7
370
    25
100
AcDbSpline
210
0.0
220
0.0
230
1.0
 70
     8
 71
     3
 72
     8
 73
     4
 74
     0
 42
0.000000001
 43
0.00000001
 40
0.0
 40
0.0
 40
0.0
 40
0.0
 40
1.0
 40
1.0
 40
1.0
 40
1.0
 10
100.3852737841655
 20
119.4192871147612
 30
0.0
 10
100.357325564046
 20
119.5271034687367
 30
0.0
 10
100.3293654758773
 20
119.634697318903
 30
0.0
 10
100.301393288343
 20
119.7420665996876
 30
0.0
  0
LINE
  5
1E1
330
1F
100
AcDbEntity
  8
0
  6
Continuous
 62
     7
370
    25
100
AcDbLine
 10
100.3852769227
 20
119.419286437
 30
0.0
 11
98.7555912546
 21
119.419286437
 31
0.0
  0
LINE
  5
1E2
330
1F
100
AcDbEntity
  8
0
  6
Continuous
 62
     7
370
    25
100
AcDbLine
 10
98.7555914545
 20
119.4192867758
 30
0.0
 11
98.0599549766
 21
119.8209126837
 31
0.0
  0
LINE
  5
1E3
330
1F
100
AcDbEntity
  8
0
  6
Continuous
 62
     7
370
    25
100
AcDbLine
 10
106.8095529386
 20
117.421786437
 30
0.0
 11
106.5573813107
 21
117.421786437
 31
0.0
  0
SPLINE
  5
1E4
330
1F
100
AcDbEntity
  8
0
  6
Continuous
 62
     7
370
    25
100
AcDbSpline
210
0.0
220
0.0
230
1.0
 70
     8
 71
     3
 72
    26
 73
    22
 74
     0
 42
0.000000001
 43
0.00000001
 40
0.0
 40
0.0
 40
0.0
 40
0.0
 40
0.0524616379932503
 40
0.1026498591890872
 40
0.150565513457809
 40
0.1962095861957063
 40
0.2395832262568645
 40
0.2806877815599511
 40
0.3195248450380211
 40
0.3560963147430692
 40
0.3904044736547445
 40
0.4224520974433627
 40
0.4522426027417772
 40
0.4797802555366611
 40
0.5050704712281336
 40
0.5966394156799991
 40
0.6841917884819224
 40
0.7679874773571101
 40
0.8483228539139507
 40
0.925534163520116
 40
1.0
 40
1.0
 40
1.0
 40
1.0
 10
106.5555748167393
 20
117.42181622106
 30
0.0
 10
106.519938417708
 20
117.4813631411423
 30
0.0
 10
106.4502099173696
 20
117.5978765249289
 30
0.0
 10
106.3367317566098
 20
117.7622744856581
 30
0.0
 10
106.2212062068847
 20
117.9144362234597
 30
0.0
 10
106.1040845108746
 20
118.0543389203922
 30
0.0
 10
105.9867128103952
 20
118.1825532442963
 30
0.0
 10
105.8700918443616
 20
118.2995689232366
 30
0.0
 10
105.7551889239165
 20
118.4059460784807
 30
0.0
 10
105.6428646982272
 20
118.5022621589549
 30
0.0
 10
105.5338957241924
 20
118.5891115055075
 30
0.0
 10
105.4289766833557
 20
118.6670916877013
 30
0.0
 10
105.328719357407
 20
118.7367998847543
 30
0.0
 10
105.2336820148238
 20
118.7988098736554
 30
0.0
 10
105.063575110393
 20
118.9032963109212
 30
0.0
 10
104.810656078988
 20
119.0383549774356
 30
0.0
 10
104.4646749219268
 20
119.1827418698527
 30
0.0
 10
104.1167163726025
 20
119.2917097820977
 30
0.0
 10
103.7705766122264
 20
119.3662393644344
 30
0.0
 10
103.4295118287923
 20
119.4111680689838
 30
0.0
 10
103.2037652172767
 20
119.4166131678383
 30
0.0
 10
103.0929350052586
 20
119.4192864370247
 30
0.0
  0
SPLINE
  5
1E5
330
1F
100
AcDbEntity
  8
0
  6
Continuous
 62
     7
370
    25
100
AcDbSpline
210
0.0
220
0.0
230
1.0
 70
     8
 71
     3
 72
     8
 73
     4
 74
     0
 42
0.000000001
 43
0.00000001
 40
0.0
 40
0.0
 40
0.0
 40
0.0
 40
1.0
 40
1.0
 40
1.0
 40
1.0
 10
106.8095529386412
 20
117.4217864370245
 30
0.0
 10
106.8385576450688
 20
117.5457241638868
 30
0.0
 10
106.8575901647502
 20
117.6736762941201
 30
0.0
 10
106.8658417569419
 20
117.8047456068116
 30
0.0
  0
LINE
  5
1E6
330
1F
100
AcDbEntity
  8
0
  6
Continuous
 62
     7
370
    25
100
AcDbLine
 10
103.0929350053
 20
119.419286437
 30
0.0
 11
100.3852769227
 21
119.419286437
 31
0.0
  0
LINE
  5
1E7
330
1F
100
AcDbEntity
  8
0
  6
Continuous
 62
     7
370
    25
100
AcDbLine
 10
119.8555920414
 20
113.4220598478
 30
0.0
 11
119.2055920414
 21
113.571786437
 31
0.0
  0
SPLINE
  5
1E8
330
1F
100
AcDbEntity
  8
0
  6
Continuous
 62
     7
370
    25
100
AcDbSpline
210
0.0
220
0.0
230
1.0
 70
     8
 71
     3
 72
    26
 73
    22
 74
     0
 42
0.000000001
 43
0.00000001
 40
0.0
 40
0.0
 40
0.0
 40
0.0
 40
0.0305951740572542
 40
0.0629166281868252
 40
0.0969720532897518
 40
0.1327680143285475
 40
0.1703101548822826
 40
0.2096033578521445
 40
0.2506518729756858
 40
0.3342141733898277
 40
0.4179517165474626
 40
0.5018670561020881
 40
0.5659795686746639
 40
0.6277136397870199
 40
0.687135819210908
 40
0.7443207393864881
 40
0.7993521466017559
 40
0.8523240127975756
 40
0.903341702807647
 40
0.9525231537633125
 40
1.0
 40
1.0
 40
1.0
 40
1.0
 10
119.2055920414087
 20
113.5717864370247
 30
0.0
 10
119.2046838295641
 20
113.6363216044119
 30
0.0
 10
119.2028161615836
 20
113.7690332250052
 30
0.0
 10
119.187223572522
 20
113.9718473165289
 30
0.0
 10
119.1605797113349
 20
114.1835603574292
 30
0.0
 10
119.1204252822565
 20
114.4032723508022
 30
0.0
 10
119.0655271655733
 20
114.6300192216735
 30
0.0
 10
118.9942841969615
 20
114.8626502254565
 30
0.0
 10
118.875871802679
 20
115.1780485399332
 30
0.0
 10
118.6877409062711
 20
115.5625304384681
 30
0.0
 10
118.4037241430365
 20
115.9925580529977
 30
0.0
 10
118.0943061864868
 20
116.3510447653385
 30
0.0
 10
117.7783965756852
 20
116.642811421628
 30
0.0
 10
117.4716511675619
 20
116.8752705084651
 30
0.0
 10
117.1532320537398
 20
117.0720807430291
 30
0.0
 10
116.8272611775827
 20
117.2341814452874
 30
0.0
 10
116.4977223424575
 20
117.362651328767
 30
0.0
 10
116.1681604276109
 20
117.45923514814
 30
0.0
 10
115.8417421043117
 20
117.5250873774262
 30
0.0
 10
115.5212239120078
 20
117.5646523252516
 30
0.0
 10
115.309558398477
 20
117.569436523467
 30
0.0
 10
115.2055920414087
 20
117.5717864370247
 30
0.0
  0
SPLINE
  5
1E9
330
1F
100
AcDbEntity
  8
0
  6
Continuous
 62
     7
370
    25
100
AcDbSpline
210
0.0
220
0.0
230
1.0
 70
     8
 71
     3
 72
    13
 73
     9
 74
     0
 42
0.000000001
 43
0.00000001
 40
0.0
 40
0.0
 40
0.0
 40
0.0
 40
0.1604061687300809
 40
0.3231296684563272
 40
0.4883154213007764
 40
0.6561019685773533
 40
0.8266215117792448
 40
1.0
 40
1.0
 40
1.0
 40
1.0
 10
113.2907187621193
 20
117.5717864370247
 30
0.0
 10
113.2316688106041
 20
117.5710308669867
 30
0.0
 10
113.1127158338794
 20
117.5695088114584
 30
0.0
 10
112.9334622002736
 20
117.557063752331
 30
0.0
 10
112.7525292185859
 20
117.5368795712003
 30
0.0
 10
112.5704007241871
 20
117.5077442050597
 30
0.0
 10
112.3872337163928
 20
117.4703280532405
 30
0.0
 10
112.2664944015184
 20
117.4380621808834
 30
0.0
 10
112.2056228699335
 20
117.421795125945
 30
0.0
  0
SPLINE
  5
1EA
330
1F
100
AcDbEntity
  8
0
  6
Continuous
 62
     7
370
    25
100
AcDbSpline
210
0.0
220
0.0
230
1.0
 70
    24
 71
     3
 72
    10
 73
     6
 74
     0
 42
0.000000001
 43
0.00000001
 40
0.0
 40
0.0
 40
0.0
 40
0.0
 40
0.3216623556917455
 40
0.6548175346390357
 40
1.0
 40
1.0
 40
1.0
 40
1.0
 10
112.2057708763135
 20
117.4217864370247
 30
0.0
 10
112.1372249684562
 20
117.4217864370247
 30
0.0
 10
111.9976840442589
 20
117.4217864370247
 30
0.0
 10
111.7880756289084
 20
117.4217864370247
 30
0.0
 10
111.6483986337546
 20
117.4217864370247
 30
0.0
 10
111.5773218625537
 20
117.4217864370247
 30
0.0
  0
SPLINE
  5
1EB
330
1F
100
AcDbEntity
  8
0
  6
Continuous
 62
     7
370
    25
100
AcDbSpline
210
0.0
220
0.0
230
1.0
 70
     8
 71
     3
 72
     8
 73
     4
 74
     0
 42
0.000000001
 43
0.00000001
 40
0.0
 40
0.0
 40
0.0
 40
0.0
 40
1.0
 40
1.0
 40
1.0
 40
1.0
 10
112.2919221578073
 20
117.8002327862076
 30
0.0
 10
112.0226258277509
 20
117.7035434010143
 30
0.0
 10
111.7864651423371
 20
117.5755442316375
 30
0.0
 10
111.5772676261532
 20
117.4220676339929
 30
0.0
  0
LINE
  5
1EC
330
1F
100
AcDbEntity
  8
0
  6
Continuous
 62
     7
370
    25
100
AcDbLine
 10
111.5778133377
 20
101.296786437
 30
0.0
 11
111.7465013492
 21
101.296786437
 31
0.0
  0
LINE
  5
1ED
330
1F
100
AcDbEntity
  8
0
  6
Continuous
 62
     7
370
    25
100
AcDbLine
 10
115.2055920414
 20
117.571786437
 30
0.0
 11
113.2907187621
 21
117.571786437
 31
0.0
  0
LINE
  5
1EE
330
1F
100
AcDbEntity
  8
0
  6
Continuous
 62
     7
370
    25
100
AcDbLine
 10
111.5776802233
 20
117.421786437
 30
0.0
 11
106.8095529386
 21
117.421786437
 31
0.0
  0
LINE
  5
1EF
330
1F
100
AcDbEntity
  8
0
  6
Continuous
 62
     7
370
    25
100
AcDbLine
 10
119.2055920414
 20
109.359286437
 30
0.0
 11
119.2055920414
 21
113.571786437
 31
0.0
  0
LINE
  5
1F0
330
1F
100
AcDbEntity
  8
VERMASSUNG
  6
CENTERX2
100
AcDbLine
 10
207.2005920414
 20
109.359286437
 30
0.0
 11
87.2605920414
 21
109.359286437
 31
0.0
  0
HATCH
  5
1F1
330
1F
100
AcDbEntity
  8
0
  6
Continuous
 62
     7
370
    18
100
AcDbHatch
 10
0.0
 20
0.0
 30
0.0
210
0.0
220
0.0
230
1.0
  2
ANSI31
 70
     0
 71
     0
 91
        1
 92
        0
 93
       44
 72
     1
 10
145.2305920414087
 20
138.2092864370247
 11
145.2305920414087
 21
138.3068817012163
 72
     1
 10
145.2305920414087
 20
138.3068817012163
 11
143.7713942368386
 21
140.8342864370247
 72
     1
 10
143.7713942368386
 20
140.8342864370247
 11
137.4055920414087
 21
140.8342864370247
 72
     2
 10
137.4055920414087
 20
140.6342864370247
 40
0.2000000000000028
 50
90.0
 51
180.0
 73
     1
 72
     1
 10
137.2055920414087
 20
140.6342864370247
 11
137.2055920414087
 21
136.2092864370247
 72
     1
 10
137.2055920414087
 20
136.2092864370247
 11
137.5396307274373
 21
135.1498510766281
 72
     2
 10
136.7766571668387
 20
134.9092864370247
 40
0.8000000000000032
 50
342.5000000000014
 51
467.5000000000022
 73
     0
 72
     1
 10
136.5360925272353
 20
134.1463128764261
 11
136.0454100013779
 21
134.301024482553
 72
     1
 10
136.0454100013779
 20
134.301024482553
 11
122.7239367288584
 21
133.6320475095268
 72
     1
 10
122.7239351354599
 20
133.6320508185952
 11
122.0556049895304
 21
132.822938996204
 72
     1
 10
122.0556049895304
 20
132.822938996204
 11
122.0555920414087
 21
127.4655124577762
 72
     1
 10
122.0555951696424
 20
127.4655125826567
 11
122.6815411831846
 21
126.9967877273167
 72
     1
 10
122.6815414314935
 20
126.9967864370246
 11
127.7055920414087
 21
126.9967864370247
 72
     1
 10
127.7055920414087
 20
126.9967864370247
 11
128.5808325149895
 21
127.5021067600522
 72
     2
 10
128.9808325149895
 20
126.8092864370247
 40
0.7999999999999923
 50
239.9999999999998
 51
270.0000000000008
 73
     0
 72
     1
 10
128.9808325149895
 20
127.6092864370247
 11
130.4055920414087
 21
127.6092864370247
 72
     2
 10
130.4055920414087
 20
126.8092864370247
 40
0.7999999999999977
 50
270.0000000000008
 51
360.0000000000008
 73
     0
 72
     1
 10
131.2055920414087
 20
126.8092864370247
 11
131.2055920414087
 21
124.9092864370247
 72
     1
 10
131.2055920414087
 20
124.9092864370247
 11
134.9055920414087
 21
124.9092864370247
 72
     2
 10
134.9055920414087
 20
123.7092864370247
 40
1.2
 50
270.0000000000008
 51
360.0000000000008
 73
     0
 72
     1
 10
136.1055920414087
 20
123.7092864370247
 11
136.1055920414087
 21
114.5902265447005
 72
     1
 10
136.1055920414087
 20
114.5902265447005
 11
136.5055920414087
 21
114.3592864370247
 72
     1
 10
136.5055920414087
 20
114.3592864370247
 11
139.9305920414087
 21
114.3592864370247
 72
     1
 10
139.9305920414087
 20
114.3592864370247
 11
139.9305920414087
 21
115.1092864370247
 72
     1
 10
139.9305920414087
 20
115.1092864370247
 11
140.7555920414087
 21
115.1092864370247
 72
     1
 10
140.7555920414087
 20
115.1092864370247
 11
140.7555920414087
 21
113.3592864370247
 72
     1
 10
140.7555920414087
 20
113.3592864370247
 11
148.2055920414087
 21
113.3592864370247
 72
     1
 10
148.2055920414087
 20
113.3592864370247
 11
148.2055920414087
 21
118.2592864370247
 72
     2
 10
148.6055920414088
 20
118.2592864370247
 40
0.4000000000000054
 50
180.0
 51
270.0000000000008
 73
     0
 72
     1
 10
148.6055920414088
 20
118.6592864370247
 11
151.3108180232889
 21
118.6592864370247
 72
     2
 10
151.3108180232889
 20
118.2592864370247
 40
0.3999999999999999
 50
270.0000000000008
 51
290.0000000000031
 73
     0
 72
     1
 10
151.4476260806192
 20
118.635163485339
 11
152.2055920414087
 21
118.3592864370247
 72
     1
 10
152.2055920414087
 20
118.3592864370247
 11
167.7055920414087
 21
118.3592864370247
 72
     1
 10
167.7055920414087
 20
118.3592864370247
 11
167.7055920414087
 21
132.3592865273122
 72
     1
 10
167.7055920414087
 20
132.3592865273122
 11
166.705592096265
 21
133.3592864370247
 72
     1
 10
166.705592096265
 20
133.3592864370247
 11
158.2055920414087
 21
133.3592864370247
 72
     2
 10
158.2055920414087
 20
136.3592864370247
 40
3.0
 50
90.0
 51
180.0
 73
     0
 72
     1
 10
155.2055920414087
 20
136.3592864370247
 11
155.2055920414087
 21
140.8342864370247
 72
     1
 10
155.2055920414087
 20
140.8342864370247
 11
150.4397898459788
 21
140.8342864370247
 72
     1
 10
150.4397898459788
 20
140.8342864370247
 11
148.9805920414087
 21
138.3068817012164
 72
     1
 10
148.9805920414087
 20
138.3068817012164
 11
148.9805920414087
 21
138.2092864370247
 72
     2
 10
147.9805920414087
 20
138.2092864370247
 40
1.000000000000003
 50
0.0
 51
90.0
 73
     0
 72
     1
 10
147.9805920414087
 20
137.2092864370247
 11
146.2305920414087
 21
137.2092864370247
 72
     2
 10
146.2305920414087
 20
138.2092864370247
 40
1.000000000000003
 50
90.0
 51
180.0
 73
     0
 97
        0
 75
     0
 76
     1
 52
0.0
 41
1.0
 77
     0
 78
     1
 53
45.0
 43
0.0
 44
0.0
 45
-2.245064030267288
 46
2.245064030267288
 79
     0
 98
        1
 10
0.0
 20
0.0
  0
HATCH
  5
1F2
330
1F
100
AcDbEntity
  8
0
  6
Continuous
 62
     7
370
    18
100
AcDbHatch
 10
0.0
 20
0.0
 30
0.0
210
0.0
220
0.0
230
1.0
  2
ANSI31
 70
     0
 71
     0
 91
        1
 92
        0
 93
        8
 72
     1
 10
179.7055920414087
 20
118.3592864370247
 11
196.9055920414087
 21
118.3592864370247
 72
     2
 10
196.9055920414087
 20
118.6592864370247
 40
0.2999999999999973
 50
270.0000000000008
 51
360.0000000000008
 73
     1
 72
     1
 10
197.2055920414087
 20
118.6592864370247
 11
197.2055920414087
 21
127.0851459154098
 72
     2
 10
195.2055920414087
 20
127.0851459154098
 40
2.000000000000002
 50
0.0
 51
65.00000000000031
 73
     1
 72
     1
 10
196.0508285648901
 20
128.8977614894831
 11
186.483057438861
 21
133.3592864370247
 72
     1
 10
186.483057438861
 20
133.3592864370247
 11
180.7055918059642
 21
133.3592864370247
 72
     1
 10
180.7055917389049
 20
133.3592863834152
 11
179.7055918291397
 21
132.3592864759366
 72
     1
 10
179.7055920414087
 20
132.3592864496043
 11
179.7055920414087
 21
118.3592864370247
 97
        0
 75
     0
 76
     1
 52
0.0
 41
1.0
 77
     0
 78
     1
 53
45.0
 43
0.0
 44
0.0
 45
-2.245064030267288
 46
2.245064030267288
 79
     0
 98
        1
 10
0.0
 20
0.0
  0
HATCH
  5
1F3
330
1F
100
AcDbEntity
  8
0
  6
Continuous
 62
     7
370
    18
100
AcDbHatch
 10
0.0
 20
0.0
 30
0.0
210
0.0
220
0.0
230
1.0
  2
ANSI31
 70
     0
 71
     0
 91
        1
 92
        0
 93
        9
 72
     1
 10
107.5556201719968
 20
132.0235608089075
 11
106.8060301930611
 21
132.8326721466751
 72
     1
 10
106.8060301930611
 20
132.8326721466751
 11
98.75559204140872
 21
132.428406564607
 72
     1
 10
98.75559204140872
 20
132.428406564607
 11
97.2555920414087
 21
131.5623811608226
 72
     1
 10
97.2555920414087
 20
131.5623811608226
 11
97.2555920414087
 21
129.5967864370246
 72
     1
 10
97.2555920414087
 20
129.5967864370246
 11
98.00725809124825
 21
128.2948626483779
 72
     1
 10
98.00725809124825
 20
128.2948626483779
 11
100.2555920414087
 21
126.9967864370246
 72
     1
 10
100.2555920414087
 20
126.9967864370246
 11
104.1255918861177
 21
126.9967864370246
 72
     1
 10
104.1255918861177
 20
126.9967864370246
 11
107.5555920414087
 21
131.8953343219286
 72
     1
 10
107.5555920414087
 20
131.8953343219286
 11
107.5555920414087
 21
132.0235596954143
 97
        0
 75
     0
 76
     1
 52
0.0
 41
1.0
 77
     0
 78
     1
 53
45.0
 43
0.0
 44
0.0
 45
-2.245064030267288
 46
2.245064030267288
 79
     0
 98
        1
 10
0.0
 20
0.0
  0
HATCH
  5
1F4
330
1F
100
AcDbEntity
  8
0
  6
Continuous
 62
     7
370
    18
100
AcDbHatch
 10
0.0
 20
0.0
 30
0.0
210
0.0
220
0.0
230
1.0
  2
ANSI31
 70
     0
 71
     0
 91
        1
 92
        0
 93
       15
 72
     1
 10
168.7055920414087
 20
116.8592864370247
 11
169.9555920414087
 21
116.8592864370247
 72
     1
 10
169.9555920414087
 20
116.8592864370247
 11
173.7055920414087
 21
119.0243499464858
 72
     1
 10
173.7055920414087
 20
119.0243499464858
 11
177.4555920414087
 21
116.8592864370247
 72
     1
 10
177.4555920414087
 20
116.8592864370247
 11
178.7055920414087
 21
116.8592864370247
 72
     1
 10
178.7055920414087
 20
116.8592864370247
 11
180.7055920414087
 21
118.8592864370247
 72
     1
 10
180.7055920414087
 20
118.8592864370247
 11
180.7055920414087
 21
132.3592864370247
 72
     1
 10
180.7055920414087
 20
132.3592864370247
 11
179.7055920414087
 21
133.3592864370247
 72
     1
 10
179.7055920414087
 20
133.3592864370247
 11
176.7088704832858
 21
133.3592864370247
 72
     1
 10
176.7088704832858
 20
133.3592864370247
 11
176.7088704832858
 21
125.3592864370247
 72
     1
 10
176.7088704832858
 20
125.3592864370247
 11
170.7023135995316
 21
125.3592864370247
 72
     1
 10
170.7023135995316
 20
125.3592864370247
 11
170.7023135995316
 21
133.3592864370247
 72
     1
 10
170.7023135995316
 20
133.3592864370247
 11
167.7055920414087
 21
133.3592864370247
 72
     1
 10
167.7055920414087
 20
133.3592864370247
 11
166.7055920414087
 21
132.3592864370247
 72
     1
 10
166.7055920414087
 20
132.3592864370247
 11
166.7055920414087
 21
118.8592864370247
 72
     1
 10
166.7055920414087
 20
118.8592864370247
 11
168.7055920414087
 21
116.8592864370247
 97
        0
 75
     0
 76
     1
 52
0.0
 41
1.0
 77
     0
 78
     1
 53
45.0
 43
0.0
 44
0.0
 45
-2.245064030267288
 46
2.245064030267288
 79
     0
 98
        1
 10
0.0
 20
0.0
  0
DIMENSION
  5
1F5
330
1F
100
AcDbEntity
  8
VERMASSUNG
100
AcDbDimension
  2
_D
 10
219.2055920414
 20
100.359286437
 30
0.0
 11
219.2055920414
 21
109.359286437
 31
0.0
 70
   160
  1
%%c<>
 71
     2
 42
-1.0
  3
SLDDIMSTYLE0
100
AcDbAlignedDimension
 13
167.7055920414
 23
118.359286437
 33
0.0
 14
196.9055920414
 24
100.359286437
 34
0.0
 50
90.0
100
AcDbRotatedDimension
  0
DIMENSION
  5
1FF
330
1F
100
AcDbEntity
  8
VERMASSUNG
100
AcDbDimension
  2
_D_1
 10
231.2055920414
 20
85.359286437
 30
0.0
 11
231.2055920414
 21
109.359286437
 31
0.0
 70
   160
  1
%%c<>
 71
     2
 42
-1.0
  3
SLDDIMSTYLE1
100
AcDbAlignedDimension
 13
186.4830574389
 23
133.359286437
 33
0.0
 14
186.4830574389
 24
85.359286437
 34
0.0
 50
90.0
100
AcDbRotatedDimension
  0
DIMENSION
  5
20B
330
1F
100
AcDbEntity
  8
VERMASSUNG
100
AcDbDimension
  2
_D_2
 10
78.4765301595
 20
77.884286437
 30
0.0
 11
78.4765301595
 21
109.359286437
 31
0.0
 70
   160
  1
KM%%c<> XMZ
 71
     2
 42
-1.0
  3
SLDDIMSTYLE2
100
AcDbAlignedDimension
 13
150.439789846
 23
140.834286437
 33
0.0
 14
150.439789846
 24
77.884286437
 34
0.0
 50
90.0
100
AcDbRotatedDimension
  0
DIMENSION
  5
219
330
1F
100
AcDbEntity
  8
VERMASSUNG
100
AcDbDimension
  2
_D_3
 10
197.2055920414
 20
149.0371442663
 30
0.0
 11
176.2055920414
 21
149.0371442663
 31
0.0
 70
   160
  1
<>
 71
     2
 42
-1.0
  3
SLDDIMSTYLE1
100
AcDbAlignedDimension
 13
155.2055920414
 23
140.834286437
 33
0.0
 14
197.2055920414
 24
127.0851459154
 34
0.0
 50
0.0
100
AcDbRotatedDimension
  0
DIMENSION
  5
223
330
1F
100
AcDbEntity
  8
VERMASSUNG
100
AcDbDimension
  2
_D_4
 10
197.2055920414
 20
158.1678992442
 30
0.0
 11
167.2055920414
 21
158.1678992442
 31
0.0
 70
   160
  1
<>
 71
     2
 42
-1.0
  3
SLDDIMSTYLE1
100
AcDbAlignedDimension
 13
137.2055920414
 23
140.634286437
 33
0.0
 14
197.2055920414
 24
127.0851459154
 34
0.0
 50
0.0
100
AcDbRotatedDimension
  0
DIMENSION
  5
22D
330
1F
100
AcDbEntity
  8
VERMASSUNG
100
AcDbDimension
  2
_D_5
 10
97.2555920414
 20
166.2755689593
 30
0.0
 11
147.2305920414
 21
166.2755689593
 31
0.0
 70
   160
  1
<>
 71
     2
 42
-1.0
  3
SLDDIMSTYLE1
100
AcDbAlignedDimension
 13
197.2055920414
 23
127.0851459154
 33
0.0
 14
97.2555920414
 24
131.5623811608
 34
0.0
 50
0.0
100
AcDbRotatedDimension
  0
LINE
  5
237
330
1F
100
AcDbEntity
  8
VERMASSUNG
  6
CENTERX2
370
    18
100
AcDbLine
 10
173.7055920414
 20
135.359286437
 30
0.0
 11
173.7055920414
 21
113.3153001224
 31
0.0
  0
LINE
  5
238
330
1F
100
AcDbEntity
  8
0
  6
Continuous
 62
     7
370
    25
100
AcDbLine
 10
264.7572690619
 20
21.2687574767
 30
0.0
 11
268.8250614346
 21
21.3521897953
 31
0.0
  0
LINE
  5
239
330
1F
100
AcDbEntity
  8
0
  6
Continuous
 62
     7
370
    25
100
AcDbLine
 10
278.047118475
 20
37.3269920426
 30
0.0
 11
276.0851423158
 21
40.8913356414
 31
0.0
  0
SPLINE
  5
23A
330
1F
100
AcDbEntity
  8
0
  6
Continuous
 62
     7
370
    25
100
AcDbSpline
210
0.0
220
0.0
230
1.0
 70
     8
 71
     3
 72
    32
 73
    28
 74
     0
 42
0.000000001
 43
0.00000001
 40
0.0
 40
0.0
 40
0.0
 40
0.0
 40
0.0290763248889314
 40
0.0687876192740871
 40
0.1092074036809948
 40
0.150163015463942
 40
0.191441818943048
 40
0.232859821680193
 40
0.2742705511714675
 40
0.3156166468370424
 40
0.3568818601604927
 40
0.3980707286057504
 40
0.4391989181191788
 40
0.4802876585605605
 40
0.5213608487009357
 40
0.5624436860205263
 40
0.6035536799777573
 40
0.6447168881510202
 40
0.6859593218863065
 40
0.7273054557121738
 40
0.7687753664056955
 40
0.8103790488738104
 40
0.852106121407191
 40
0.8939043944963175
 40
0.9356215943110611
 40
0.9770508144862652
 40
1.0
 40
1.0
 40
1.0
 40
1.0
 10
268.8308084052338
 20
21.36051890713813
 30
0.0
 10
268.9950298579253
 20
21.36546428213745
 30
0.0
 10
269.3835384747306
 20
21.37716385469071
 30
0.0
 10
270.0137226588571
 20
21.49906597865038
 30
0.0
 10
270.7156426382002
 20
21.70894667728177
 30
0.0
 10
271.4275337321596
 20
22.00899192373327
 30
0.0
 10
272.1407588539951
 20
22.39223220388624
 30
0.0
 10
272.8473343956754
 20
22.85502210907719
 30
0.0
 10
273.5396880583797
 20
23.39127359434772
 30
0.0
 10
274.2111096548766
 20
23.99471896158931
 30
0.0
 10
274.8556561037819
 20
24.65884796408011
 30
0.0
 10
275.467810686632
 20
25.37696204235199
 30
0.0
 10
276.0423564967837
 20
26.1421151574614
 30
0.0
 10
276.5743471348898
 20
26.94712437850447
 30
0.0
 10
277.0591125036606
 20
27.78458860484723
 30
0.0
 10
277.4922521816318
 20
28.64687262752085
 30
0.0
 10
277.8697053258858
 20
29.52621634022974
 30
0.0
 10
278.1877719827844
 20
30.41481057757641
 30
0.0
 10
278.4431238637926
 20
31.30492498205458
 30
0.0
 10
278.6327669731768
 20
32.18890794245772
 30
0.0
 10
278.7539679811285
 20
33.05916856793841
 30
0.0
 10
278.8043584834127
 20
33.90824448035688
 30
0.0
 10
278.781392729045
 20
34.72819335361137
 30
0.0
 10
278.6845001468686
 20
35.51171725269079
 30
0.0
 10
278.5080344317009
 20
36.24600853495946
 30
0.0
 10
278.3041909209581
 20
36.83563589447454
 30
0.0
 10
278.128862355893
 20
37.153524150555
 30
0.0
 10
278.0663623961242
 20
37.26684284000309
 30
0.0
  0
LINE
  5
23B
330
1F
100
AcDbEntity
  8
0
  6
Continuous
 62
     7
370
    25
100
AcDbLine
 10
252.4454021395
 20
27.6012259298
 30
0.0
 11
262.4429959082
 21
21.8297378967
 31
0.0
  0
LINE
  5
23C
330
1F
100
AcDbEntity
  8
0
  6
Continuous
 62
     7
370
    25
100
AcDbLine
 10
274.4420206998
 20
42.6149105939
 30
0.0
 11
264.4444269311
 21
48.3863986269
 31
0.0
  0
LINE
  5
23D
330
1F
100
AcDbEntity
  8
0
  6
Continuous
 62
     7
370
    25
100
AcDbLine
 10
247.831178311
 20
25.9493842835
 30
0.0
 11
249.5161438361
 21
24.9766743905
 31
0.0
  0
LINE
  5
23E
330
1F
100
AcDbEntity
  8
0
  6
Continuous
 62
     7
370
    25
100
AcDbLine
 10
265.252364891
 20
52.235562334
 30
0.0
 11
263.5673993659
 21
53.2082722269
 31
0.0
  0
LINE
  5
23F
330
1F
100
AcDbEntity
  8
0
  6
Continuous
 62
     7
370
    25
100
AcDbLine
 10
269.0128329644
 20
27.8117242257
 30
0.0
 11
268.9893842188
 21
28.1969149365
 31
0.0
  0
SPLINE
  5
240
330
1F
100
AcDbEntity
  8
0
  6
Continuous
 62
     7
370
    25
100
AcDbSpline
210
0.0
220
0.0
230
1.0
 70
     8
 71
     3
 72
     9
 73
     5
 74
     0
 42
0.000000001
 43
0.00000001
 40
0.0
 40
0.0
 40
0.0
 40
0.0
 40
0.1986499749792204
 40
1.0
 40
1.0
 40
1.0
 40
1.0
 10
269.0226811059055
 20
27.69858817572715
 30
0.0
 10
269.0211818648524
 20
27.70539288139805
 30
0.0
 10
269.0136347153841
 20
27.73964763361543
 30
0.0
 10
269.0131896319698
 20
27.77966017478441
 30
0.0
 10
269.0128329643646
 20
27.81172422565131
 30
0.0
  0
SPLINE
  5
241
330
1F
100
AcDbEntity
  8
0
  6
Continuous
 62
     7
370
    25
100
AcDbSpline
210
0.0
220
0.0
230
1.0
 70
     8
 71
     3
 72
     9
 73
     5
 74
     0
 42
0.000000001
 43
0.00000001
 40
0.0
 40
0.0
 40
0.0
 40
0.0
 40
0.9911194123316376
 40
1.0
 40
1.0
 40
1.0
 40
1.0
 10
272.7195144586659
 20
34.0023421071168
 30
0.0
 10
272.7815155306325
 20
34.03220497165995
 30
0.0
 10
272.8440721420713
 20
34.06233541222201
 30
0.0
 10
272.9027167427573
 20
34.0755461678861
 30
0.0
 10
272.903237541275
 20
34.07566348715994
 30
0.0
  0
LINE
  5
242
330
1F
100
AcDbEntity
  8
0
  6
Continuous
 62
     7
370
    25
100
AcDbLine
 10
268.9893842188
 20
28.1969149365
 30
0.0
 11
268.9913047138
 21
28.2571372683
 31
0.0
  0
LINE
  5
243
330
1F
100
AcDbEntity
  8
0
  6
Continuous
 62
     7
370
    25
100
AcDbLine
 10
243.2228934835
 20
28.6096904881
 30
0.0
 11
245.4735444336
 21
27.3104173505
 31
0.0
  0
LINE
  5
244
330
1F
100
AcDbEntity
  8
0
  6
Continuous
 62
     7
370
    25
100
AcDbLine
 10
261.2097654884
 20
54.5693052939
 30
0.0
 11
258.9591145384
 21
55.8685784316
 31
0.0
  0
LINE
  5
245
330
1F
100
AcDbEntity
  8
0
  6
Continuous
 62
     7
370
    25
100
AcDbLine
 10
252.1817256655
 20
55.648460467
 30
0.0
 11
242.984513109
 21
60.229113126
 31
0.0
  0
LINE
  5
246
330
1F
100
AcDbEntity
  8
0
  6
Continuous
 62
     7
370
    25
100
AcDbLine
 10
231.4581653974
 20
40.2627298646
 30
0.0
 11
240.0242657095
 21
34.5888402786
 31
0.0
  0
LINE
  5
247
330
1F
100
AcDbEntity
  8
0
  6
Continuous
 62
     7
370
    25
100
AcDbLine
 10
236.4376029457
 20
41.2092199022
 30
0.0
 11
236.4376029457
 21
40.8439008855
 31
0.0
  0
LINE
  5
248
330
1F
100
AcDbEntity
  8
0
  6
Continuous
 62
     7
370
    25
100
AcDbLine
 10
240.3355694466
 20
60.6060815997
 30
0.0
 11
239.6960189941
 21
60.5188705343
 31
0.0
  0
LINE
  5
249
330
1F
100
AcDbEntity
  8
0
  6
Continuous
 62
     7
370
    25
100
AcDbLine
 10
278.047118475
 20
37.3269920426
 30
0.0
 11
278.0726266085
 21
37.2799759857
 31
0.0
  0
LWPOLYLINE
  5
24A
330
1F
100
AcDbEntity
  8
0
  6
Continuous
 62
     7
370
    25
100
AcDbPolyline
 90
       30
 70
   128
 43
0.0
 10
259.9572269297
 20
27.3238755744
 10
259.9945114086
 20
28.2629446206
 10
260.106037188
 20
29.2368088373
 10
260.2908241753
 20
30.2369098708
 10
260.5472484558
 20
31.2544587972
 10
260.8730565638
 20
32.2805133599
 10
261.2653852858
 20
33.3060565546
 10
261.720786823
 20
34.3220758708
 10
262.2352590902
 20
35.3196424942
 10
262.8042808867
 20
36.2899897735
 10
263.4228516285
 20
37.2245902619
 10
264.0855352936
 20
38.1152306566
 10
264.7865081942
 20
38.954083978
 10
265.5196101552
 20
39.7337783527
 10
266.2783986503
 20
40.4474617987
 10
267.0562054188
 20
41.0888624401
 10
267.8461950669
 20
41.652343625
 10
268.6414251371
 20
42.1329534606
 10
269.4349071191
 20
42.5264683302
 10
270.2196678646
 20
42.8294300112
 10
270.988810868
 20
43.0391760653
 10
271.7355768729
 20
43.1538632366
 10
272.4534032729
 20
43.1724836503
 10
273.1359817836
 20
43.0948736694
 10
273.7773138806
 20
42.9217153332
 10
274.3717635144
 20
42.6545303634
 10
274.9141066402
 20
42.2956667911
 10
275.3995771271
 20
41.8482783224
 10
275.8239086431
 20
41.3162966231
 10
276.0851423158
 20
40.8913356414
  0
LWPOLYLINE
  5
24B
330
1F
100
AcDbEntity
  8
0
  6
Continuous
 62
     7
370
    25
100
AcDbPolyline
 90
       13
 70
   128
 43
0.0
 10
264.7572690619
 20
21.2687574767
 10
264.0855352936
 20
21.2989638724
 10
263.4228516285
 20
21.4244859934
 10
262.8042808867
 20
21.6448999052
 10
262.2352590902
 20
21.9582686024
 10
261.720786823
 20
22.3618381897
 10
261.2653852858
 20
22.852062083
 10
260.8730565638
 20
23.4246321771
 10
260.5472484558
 20
24.0745167054
 10
260.2908241753
 20
24.7960044593
 10
260.106037188
 20
25.5827549785
 10
259.9945114086
 20
26.4278542712
 10
259.9572269297
 20
27.3238755744
  0
LINE
  5
24C
330
1F
100
AcDbEntity
  8
0
  6
Continuous
 62
     7
370
    25
100
AcDbLine
 10
252.4111237758
 20
27.6212417977
 30
0.0
 11
252.4454021395
 21
27.6012259298
 31
0.0
  0
ARC
  5
24D
330
1F
100
AcDbEntity
  8
0
  6
Continuous
 62
     7
370
    25
100
AcDbCircle
 10
275.823322829
 20
27.9232781758
 30
0.0
 40
6.881151631781735
100
AcDbArc
 50
116.3707406553
 51
178.2311231913
  0
ARC
  5
24E
330
1F
100
AcDbEntity
  8
0
  6
Continuous
 62
     7
370
    25
100
AcDbCircle
 10
268.1168515928
 20
32.4057505022
 30
0.0
 40
7.444446090982581
100
AcDbArc
 50
309.6588075919
 51
351.6298946627
  0
LINE
  5
24F
330
1F
100
AcDbEntity
  8
0
  6
Continuous
 62
     7
370
    25
100
AcDbLine
 10
268.9657131527
 20
27.7265024113
 30
0.0
 11
268.9454502359
 21
28.1356843281
 31
0.0
  0
LWPOLYLINE
  5
250
330
1F
100
AcDbEntity
  8
0
  6
Continuous
 62
     7
370
    25
100
AcDbPolyline
 90
       39
 70
   128
 43
0.0
 10
246.2561613946
 20
32.1820070323
 10
246.294169474
 20
33.2651189032
 10
246.4079340783
 20
34.3847152162
 10
246.5966780801
 20
35.533147993
 10
246.8591121663
 20
36.7025722734
 10
247.1934436461
 20
37.8849997038
 10
247.5973886964
 20
39.0723531058
 10
248.068187963
 20
40.2565216518
 10
248.6026254094
 20
41.4294162698
 10
249.1970502861
 20
42.5830249003
 10
249.8474020683
 20
43.7094672266
 10
250.549238194
 20
44.8010485055
 10
251.2977644108
 20
45.8503121299
 10
252.0878675255
 20
46.8500905653
 10
252.9141503328
 20
47.7935543114
 10
253.7709684833
 20
48.6742585539
 10
254.6524690401
 20
49.48618719
 10
255.5526304607
 20
50.2237939238
 10
256.4653037298
 20
50.8820401533
 10
257.3842543635
 20
51.4564293893
 10
258.3032049973
 20
51.943037971
 10
259.2158782664
 20
52.3385418683
 10
260.116039687
 20
52.6402393885
 10
260.9975402438
 20
52.8460696318
 10
261.8543583943
 20
52.9546265687
 10
262.6806412016
 20
52.9651686454
 10
263.4707443163
 20
52.8776238488
 10
264.219270533
 20
52.6925901986
 10
264.9211066587
 20
52.4113316622
 10
265.571458441
 20
52.0357695208
 10
266.1658833176
 20
51.5684692444
 10
266.7003207641
 20
51.0126229678
 10
267.1711200307
 20
50.3720276848
 10
267.575065081
 20
49.6510593106
 10
267.9093965608
 20
48.8546427903
 10
268.171830647
 20
47.9882184563
 10
268.3605746487
 20
47.0577048653
 10
268.4743392531
 20
46.0694583687
 10
268.4750768894
 20
46.0595539343
  0
LWPOLYLINE
  5
251
330
1F
100
AcDbEntity
  8
0
  6
Continuous
 62
     7
370
    25
100
AcDbPolyline
 90
       20
 70
   128
 43
0.0
 10
256.4760520978
 20
25.2743812372
 10
256.4653037298
 20
25.2691987535
 10
255.5526304607
 20
24.8736948562
 10
254.6524690401
 20
24.5719973359
 10
253.7709684833
 20
24.3661670927
 10
252.9141503328
 20
24.2576101558
 10
252.0878675255
 20
24.2470680791
 10
251.2977644108
 20
24.3346128757
 10
250.549238194
 20
24.5196465259
 10
249.8474020683
 20
24.8009050622
 10
249.1970502861
 20
25.1764672037
 10
248.6026254094
 20
25.6437674801
 10
248.068187963
 20
26.1996137567
 10
247.5973886964
 20
26.8402090397
 10
247.1934436461
 20
27.5611774139
 10
246.8591121663
 20
28.3575939342
 10
246.5966780801
 20
29.2240182682
 10
246.4079340783
 20
30.1545318592
 10
246.294169474
 20
31.1427783558
 10
246.2561613946
 20
32.1820070323
  0
SPLINE
  5
252
330
1F
100
AcDbEntity
  8
0
  6
Continuous
 62
     7
370
    25
100
AcDbSpline
210
0.0
220
0.0
230
1.0
 70
     8
 71
     3
 72
    25
 73
    21
 74
     0
 42
0.000000001
 43
0.00000001
 40
0.0
 40
0.0
 40
0.0
 40
0.0
 40
0.1249999999999998
 40
0.1249999999999998
 40
0.2499999999999997
 40
0.2499999999999997
 40
0.3749999999999995
 40
0.3749999999999995
 40
0.4999999999999993
 40
0.4999999999999993
 40
0.5624999999999996
 40
0.5624999999999996
 40
0.6249999999999998
 40
0.6875000000000001
 40
0.6875000000000001
 40
0.7500000000000003
 40
0.7500000000000003
 40
0.8750000000000001
 40
0.8750000000000001
 40
1.0
 40
1.0
 40
1.0
 40
1.0
 10
251.0897502396775
 20
48.61382162790973
 30
0.0
 10
251.1188735379386
 20
48.50263610738055
 30
0.0
 10
251.1312625787978
 20
48.38739389495252
 30
0.0
 10
251.1242850936975
 20
48.14829832711671
 30
0.0
 10
251.1042675058455
 20
48.02352435724146
 30
0.0
 10
251.0340453481322
 20
47.77715544802903
 30
0.0
 10
250.9833946935386
 20
47.65294430066791
 30
0.0
 10
250.8534799498834
 20
47.40931580535775
 30
0.0
 10
250.7757790018941
 20
47.29225871029958
 30
0.0
 10
250.640405419668
 20
47.12360219244955
 30
0.0
 10
250.5917709223608
 20
47.06823517117738
 30
0.0
 10
250.4903315869789
 20
46.96251535978037
 30
0.0
 10
250.3844616042381
 20
46.86135440115993
 30
0.0
 10
250.2698698119106
 20
46.76918007948312
 30
0.0
 10
250.1507871426925
 20
46.68164323674301
 30
0.0
 10
250.088829129635
 20
46.64014476723082
 30
0.0
 10
249.9009654261144
 20
46.52602444549272
 30
0.0
 10
249.7715879897604
 20
46.46241701437813
 30
0.0
 10
249.5039047366984
 20
46.3611487134039
 30
0.0
 10
249.3680330502333
 20
46.32460780517909
 30
0.0
 10
249.2325157835057
 20
46.30343962082903
 30
0.0
  0
LWPOLYLINE
  5
253
330
1F
100
AcDbEntity
  8
0
  6
Continuous
 62
     7
370
    25
100
AcDbPolyline
 90
       16
 70
   128
 43
0.0
 10
251.0897502397
 20
48.6138216279
 10
251.9528937189
 20
49.5162662288
 10
252.8422823154
 20
50.3490947811
 10
253.7516854776
 20
51.1064729607
 10
254.6747324432
 20
51.783095006
 10
255.6049568692
 20
52.3742208872
 10
256.5358421315
 20
52.8757095119
 10
257.4608669764
 20
53.2840477355
 10
258.3735512049
 20
53.5963749723
 10
259.2675010695
 20
53.810503235
 10
260.136454065
 20
53.9249324625
 10
260.9743228
 20
53.9388610286
 10
261.7752376419
 20
53.8521913577
 10
262.533587836
 20
53.6655306084
 10
263.2440608113
 20
53.3801864197
 10
263.5673993659
 20
53.2082722269
  0
LWPOLYLINE
  5
254
330
1F
100
AcDbEntity
  8
0
  6
Continuous
 62
     7
370
    25
100
AcDbPolyline
 90
       22
 70
   128
 43
0.0
 10
247.831178311
 20
25.9493842835
 10
247.262144015
 20
26.3292466797
 10
246.6893207351
 20
26.8356411597
 10
246.1786034402
 20
27.4298748171
 10
245.7335125203
 20
28.1078515812
 10
245.3571160006
 20
28.8648981376
 10
245.0520083938
 20
29.6957961411
 10
244.820292816
 20
30.5948181866
 10
244.6635664897
 20
31.5557672876
 10
244.5829097342
 20
32.5720195926
 10
244.5788785191
 20
33.6365700435
 10
244.6515006316
 20
34.7420806615
 10
244.8002754853
 20
35.8809311283
 10
245.0241775706
 20
37.0452713129
 10
245.3216635236
 20
38.2270753827
 10
245.6906827645
 20
39.4181971263
 10
246.1286916324
 20
40.6104261052
 10
246.6326709189
 20
41.7955442486
 10
247.1991466793
 20
42.9653825011
 10
247.824214179
 20
44.1118771318
 10
248.5035648086
 20
45.2271253183
 10
249.2325157835
 20
46.3034396208
  0
ARC
  5
255
330
1F
100
AcDbEntity
  8
0
  6
Continuous
 62
     7
370
    25
100
AcDbCircle
 10
273.4595402826
 20
32.3513266656
 30
0.0
 40
1.84353256313104
100
AcDbArc
 50
356.0951295625
 51
109.712725918
  0
ARC
  5
256
330
1F
100
AcDbEntity
  8
0
  6
Continuous
 62
     7
370
    25
100
AcDbCircle
 10
270.783868033
 20
27.8029770919
 30
0.0
 40
1.806694513254496
100
AcDbArc
 50
181.5565199194
 51
283.0473039139
  0
LWPOLYLINE
  5
257
330
1F
100
AcDbEntity
  8
0
  6
Continuous
 62
     7
370
    25
100
AcDbPolyline
 90
       13
 70
   128
 43
0.0
 10
249.4271289949
 20
48.7380984674
 10
250.2579722887
 20
49.6273912977
 10
251.1168627049
 20
50.446672386
 10
251.9971079744
 20
51.1895580896
 10
252.8918494363
 20
51.8502600205
 10
253.7941154788
 20
52.4236301471
 10
254.6968758603
 20
52.9052009062
 10
255.5930964876
 20
53.2912200136
 10
256.4757942235
 20
53.5786797004
 10
257.338091298
 20
53.7653401495
 10
258.1732688983
 20
53.8497469472
 10
258.97481952
 20
53.831242416
 10
259.2276795001
 20
53.802984875
  0
SPLINE
  5
258
330
1F
100
AcDbEntity
  8
0
  6
Continuous
 62
     7
370
    25
100
AcDbSpline
210
0.0
220
0.0
230
1.0
 70
     8
 71
     3
 72
    26
 73
    22
 74
     0
 42
0.000000001
 43
0.00000001
 40
0.0
 40
0.0
 40
0.0
 40
0.0
 40
0.1250000000000009
 40
0.1250000000000009
 40
0.2500000000000019
 40
0.2500000000000019
 40
0.3125000000000011
 40
0.3125000000000011
 40
0.3750000000000004
 40
0.3750000000000004
 40
0.4375000000000002
 40
0.4375000000000002
 40
0.5000000000000001
 40
0.5000000000000001
 40
0.5625
 40
0.5625
 40
0.6249999999999999
 40
0.6249999999999999
 40
0.7500000000000001
 40
0.7500000000000001
 40
1.0
 40
1.0
 40
1.0
 40
1.0
 10
248.0829357540499
 20
47.06593485478455
 30
0.0
 10
248.0592981578179
 20
47.17551071435754
 30
0.0
 10
248.0417303789362
 20
47.28639997272207
 30
0.0
 10
248.0229177960667
 20
47.51172993258502
 30
0.0
 10
248.0217380212993
 20
47.62740684590339
 30
0.0
 10
248.0378360245347
 20
47.79876235576295
 30
0.0
 10
248.0461547416349
 20
47.85556086785711
 30
0.0
 10
248.0699118908919
 20
47.9683870802542
 30
0.0
 10
248.0855342699409
 20
48.02483993392035
 30
0.0
 10
248.1243914823379
 20
48.13342305032895
 30
0.0
 10
248.1476174390404
 20
48.18580301055449
 30
0.0
 10
248.2026160885188
 20
48.28625978582661
 30
0.0
 10
248.2346943555414
 20
48.33453865359805
 30
0.0
 10
248.3051091040765
 20
48.42223562918178
 30
0.0
 10
248.3436875262031
 20
48.46222475715775
 30
0.0
 10
248.4273957897993
 20
48.53470344127334
 30
0.0
 10
248.4725244997412
 20
48.56704006564996
 30
0.0
 10
248.6118051419313
 20
48.6502398330036
 30
0.0
 10
248.712594213493
 20
48.68906855563969
 30
0.0
 10
249.0156664847256
 20
48.76448484309487
 30
0.0
 10
249.2241905752107
 20
48.76435469672411
 30
0.0
 10
249.4271289949011
 20
48.73809846739789
 30
0.0
  0
LWPOLYLINE
  5
259
330
1F
100
AcDbEntity
  8
0
  6
Continuous
 62
     7
370
    25
100
AcDbPolyline
 90
       19
 70
   128
 43
0.0
 10
245.1459573593
 20
29.4100836474
 10
244.9209267829
 20
29.7228538603
 10
244.5209577485
 20
30.4113064982
 10
244.191745844
 20
31.1772923861
 10
243.935785991
 20
32.0150065251
 10
243.7550179728
 20
32.9181003258
 10
243.650811734
 20
33.8797297214
 10
243.6239569983
 20
34.892607035
 10
243.6746572832
 20
35.9490562088
 10
243.8025283584
 20
37.0410709774
 10
244.006601157
 20
38.1603755425
 10
244.2853291202
 20
39.298487291
 10
244.636599917
 20
40.4467810802
 10
245.0577514533
 20
41.5965546031
 10
245.5455920458
 20
42.7390943387
 10
246.0964246106
 20
43.8657415868
 10
246.7060746811
 20
44.9679580881
 10
247.3699220441
 20
46.0373907309
 10
248.082935754
 20
47.0659348548
  0
LINE
  5
25A
330
1F
100
AcDbEntity
  8
0
  6
Continuous
 62
     7
370
    25
100
AcDbLine
 10
246.6075437845
 20
26.8220139991
 30
0.0
 11
246.7215309706
 21
26.8758841473
 31
0.0
  0
LWPOLYLINE
  5
25B
330
1F
100
AcDbEntity
  8
0
  6
Continuous
 62
     7
370
    25
100
AcDbPolyline
 90
       43
 70
   128
 43
0.0
 10
246.6075437845
 20
26.8220139991
 10
245.9008086563
 20
27.089201553
 10
245.2446268948
 20
27.4504909673
 10
244.6434566213
 20
27.9034276293
 10
244.1013822075
 20
28.4449342716
 10
243.6220865257
 20
29.0713318795
 10
243.2088259272
 20
29.778364686
 10
242.8644081188
 20
30.5612290858
 10
242.591173087
 20
31.4146062712
 10
242.3909772001
 20
32.332698368
 10
242.2651805957
 20
33.309267827
 10
242.2146379404
 20
34.3376798015
 10
242.2396926227
 20
35.4109472251
 10
242.3401744202
 20
36.5217782818
 10
242.5154006561
 20
37.6626259472
 10
242.7641808374
 20
38.8257392628
 10
243.0848247429
 20
40.0032159966
 10
243.4751539068
 20
41.1870563311
 10
243.9325164194
 20
42.3692172142
 10
244.4538049439
 20
43.541667004
 10
245.0354778281
 20
44.6964400363
 10
245.6735831664
 20
45.8256907431
 10
246.363785649
 20
46.9217469562
 10
247.1013960166
 20
47.977162032
 10
247.8814029187
 20
48.9847654438
 10
248.6985069617
 20
49.9377114995
 10
249.5471567124
 20
50.8295258505
 10
250.4215864151
 20
51.6541494795
 10
251.3158551643
 20
52.405979865
 10
252.2238872672
 20
53.0799090454
 10
253.1395135224
 20
53.6713583227
 10
254.0565131335
 20
54.1763093701
 10
254.9686559735
 20
54.5913315326
 10
255.8697449125
 20
54.9136051355
 10
256.7536579211
 20
55.1409406407
 10
257.6143896639
 20
55.271793523
 10
258.4460922997
 20
55.3052747633
 10
259.243115212
 20
55.241156889
 10
260.0000433997
 20
55.0798755191
 10
260.7117342667
 20
54.8225264048
 10
261.3733525605
 20
54.4708579849
 10
261.9804032236
 20
54.0272595067
 10
262.2998038456
 20
53.7350030836
  0
LWPOLYLINE
  5
25C
330
1F
100
AcDbEntity
  8
0
  6
Continuous
 62
     7
370
    25
100
AcDbPolyline
 90
       25
 70
   128
 43
0.0
 10
239.9629110421
 20
35.8966639411
 10
240.0006776086
 20
36.9728934491
 10
240.1137193243
 20
38.0853755678
 10
240.3012639996
 20
39.2265109163
 10
240.5620305141
 20
40.3885043832
 10
240.8942375683
 20
41.5634183748
 10
241.295615851
 20
42.7432270372
 10
241.7634235417
 20
43.9198710809
 10
242.2944650393
 20
45.0853128339
 10
242.8851127921
 20
46.2315911475
 10
243.5313320769
 20
47.3508757783
 10
244.2287085608
 20
48.4355208775
 10
244.9724784552
 20
49.4781172191
 10
245.7575610577
 20
50.4715428131
 10
246.578593458
 20
51.4090115552
 10
247.4299671722
 20
52.2841195833
 10
248.3058664547
 20
53.0908890223
 10
249.2003080251
 20
53.8238088189
 10
250.1071819406
 20
54.4778723877
 10
251.0202933329
 20
55.0486118113
 10
251.9334047251
 20
55.5321283607
 10
252.8402786406
 20
55.9251191276
 10
253.734720211
 20
56.2248995866
 10
254.6106194935
 20
56.4294219331
 10
255.3193419871
 20
56.5258196933
  0
ARC
  5
25D
330
1F
100
AcDbEntity
  8
0
  6
Continuous
 62
     7
370
    25
100
AcDbCircle
 10
252.1206854674
 20
35.7876252446
 30
0.0
 40
12.15623180558234
100
AcDbArc
 50
180.8571235828
 51
191.8646627492
  0
SPLINE
  5
25E
330
1F
100
AcDbEntity
  8
0
  6
Continuous
 62
     7
370
    25
100
AcDbSpline
210
0.0
220
0.0
230
1.0
 70
     8
 71
     3
 72
    10
 73
     6
 74
     0
 42
0.000000001
 43
0.00000001
 40
0.0
 40
0.0
 40
0.0
 40
0.0
 40
0.5
 40
0.5
 40
1.0
 40
1.0
 40
1.0
 40
1.0
 10
248.8096238216813
 20
45.60288157396482
 30
0.0
 10
248.705659330897
 20
45.67621994703521
 30
0.0
 10
248.6158510544696
 20
45.76345570482862
 30
0.0
 10
248.463808626471
 20
45.96438624602462
 30
0.0
 10
248.40190303811
 20
46.07855701222159
 30
0.0
 10
248.3574533335195
 20
46.20157469538168
 30
0.0
  0
SPLINE
  5
25F
330
1F
100
AcDbEntity
  8
0
  6
Continuous
 62
     7
370
    25
100
AcDbSpline
210
0.0
220
0.0
230
1.0
 70
     8
 71
     3
 72
    14
 73
    10
 74
     0
 42
0.000000001
 43
0.00000001
 40
0.0
 40
0.0
 40
0.0
 40
0.0
 40
0.25
 40
0.25
 40
0.5
 40
0.5
 40
0.75
 40
0.75
 40
1.0
 40
1.0
 40
1.0
 40
1.0
 10
248.3574533335195
 20
46.20157469538168
 30
0.0
 10
248.3347325306544
 20
46.26445611503922
 30
0.0
 10
248.3128180203049
 20
46.33350254451264
 30
0.0
 10
248.2707069662422
 20
46.48115506113141
 30
0.0
 10
248.2511854123291
 20
46.55755484798972
 30
0.0
 10
248.2128391701553
 20
46.71188713938532
 30
0.0
 10
248.1944795772715
 20
46.78883973571697
 30
0.0
 10
248.1524761326899
 20
46.93422990323295
 30
0.0
 10
248.1286998116768
 20
47.00082080942597
 30
0.0
 10
248.1002383075747
 20
47.04131642465732
 30
0.0
  0
LINE
  5
260
330
1F
100
AcDbEntity
  8
0
  6
Continuous
 62
     7
370
    25
100
AcDbLine
 10
248.1002383076
 20
47.0413164247
 30
0.0
 11
248.082935754
 21
47.0659348548
 31
0.0
  0
LINE
  5
261
330
1F
100
AcDbEntity
  8
0
  6
Continuous
 62
     7
370
    25
100
AcDbLine
 10
249.4271289949
 20
48.7380984674
 30
0.0
 11
249.4444315484
 21
48.7134800373
 31
0.0
  0
SPLINE
  5
262
330
1F
100
AcDbEntity
  8
0
  6
Continuous
 62
     7
370
    25
100
AcDbSpline
210
0.0
220
0.0
230
1.0
 70
     8
 71
     3
 72
    16
 73
    12
 74
     0
 42
0.000000001
 43
0.00000001
 40
0.0
 40
0.0
 40
0.0
 40
0.0
 40
0.1250000000000001
 40
0.1250000000000001
 40
0.2500000000000003
 40
0.2500000000000003
 40
0.5000000000000002
 40
0.5000000000000002
 40
0.7500000000000001
 40
0.7500000000000001
 40
1.0
 40
1.0
 40
1.0
 40
1.0
 10
249.4444315484258
 20
48.7134800372706
 30
0.0
 10
249.4585839548299
 20
48.69334370145781
 30
0.0
 10
249.4802423593036
 20
48.67654628078039
 30
0.0
 10
249.5326602883389
 20
48.6497007594489
 30
0.0
 10
249.5632531674773
 20
48.63947527488792
 30
0.0
 10
249.6623340163348
 20
48.61497483445523
 30
0.0
 10
249.7362165539507
 20
48.60671491205373
 30
0.0
 10
249.889316146342
 20
48.59552894534881
 30
0.0
 10
249.9674001209897
 20
48.59293227359763
 30
0.0
 10
250.1267437547318
 20
48.59090327276391
 30
0.0
 10
250.2053966495633
 20
48.59154086142615
 30
0.0
 10
250.2811491173559
 20
48.59463396224118
 30
0.0
  0
SPLINE
  5
263
330
1F
100
AcDbEntity
  8
0
  6
Continuous
 62
     7
370
    25
100
AcDbSpline
210
0.0
220
0.0
230
1.0
 70
     8
 71
     3
 72
    10
 73
     6
 74
     0
 42
0.000000001
 43
0.00000001
 40
0.0
 40
0.0
 40
0.0
 40
0.0
 40
0.5
 40
0.5
 40
1.0
 40
1.0
 40
1.0
 40
1.0
 10
250.2811491173559
 20
48.59463396224118
 30
0.0
 10
250.4293434572567
 20
48.60068498667494
 30
0.0
 10
250.5715679229873
 20
48.59052275646182
 30
0.0
 10
250.843959313328
 20
48.53947232052173
 30
0.0
 10
250.9740866431966
 20
48.49811121787719
 30
0.0
 10
251.0921619853819
 20
48.4423373499249
 30
0.0
  0
ARC
  5
264
330
1F
100
AcDbEntity
  8
0
  6
Continuous
 62
     7
370
    25
100
AcDbCircle
 10
233.7804529248
 20
43.7238793508
 30
0.0
 40
4.168042121425352
100
AcDbArc
 50
211.8182858313
 51
236.1400299393
  0
SPLINE
  5
265
330
1F
100
AcDbEntity
  8
0
  6
Continuous
 62
     7
370
    25
100
AcDbSpline
210
0.0
220
0.0
230
1.0
 70
     8
 71
     3
 72
     8
 73
     4
 74
     0
 42
0.000000001
 43
0.00000001
 40
0.0
 40
0.0
 40
0.0
 40
0.0
 40
1.0
 40
1.0
 40
1.0
 40
1.0
 10
231.6692083162451
 20
40.60163293068624
 30
0.0
 10
231.192435024421
 20
40.90972573861887
 30
0.0
 10
230.7156326475761
 20
41.21795518419163
 30
0.0
 10
230.2388002030504
 20
41.52632034041154
 30
0.0
  0
SPLINE
  5
266
330
1F
100
AcDbEntity
  8
0
  6
Continuous
 62
     7
370
    25
100
AcDbSpline
210
0.0
220
0.0
230
1.0
 70
     8
 71
     3
 72
    23
 73
    19
 74
     0
 42
0.000000001
 43
0.00000001
 40
0.0
 40
0.0
 40
0.0
 40
0.0
 40
0.0521036415675031
 40
0.1035646240925967
 40
0.1544751946736949
 40
0.2049306267473421
 40
0.2550287880844035
 40
0.3048696389141012
 40
0.3545546704609132
 40
0.4041862979523234
 40
0.4538672252126086
 40
0.5036997999421611
 40
0.5901870230746071
 40
0.674271637822954
 40
0.7565997087222995
 40
0.8378563983721267
 40
0.9187511781367398
 40
1.0
 40
1.0
 40
1.0
 40
1.0
 10
232.5497731197867
 20
40.42690223256614
 30
0.0
 10
232.5445041808466
 20
40.41698077033131
 30
0.0
 10
232.5340312913463
 20
40.39726021960037
 30
0.0
 10
232.5147849955836
 20
40.37269239064813
 30
0.0
 10
232.4929892552509
 20
40.35200380838891
 30
0.0
 10
232.468337964046
 20
40.33547287309193
 30
0.0
 10
232.440841449507
 20
40.32295537351577
 30
0.0
 10
232.4104303954997
 20
40.31442074969338
 30
0.0
 10
232.3770600237271
 20
40.3098108770453
 30
0.0
 10
232.3406841354553
 20
40.30907613390882
 30
0.0
 10
232.3012557638662
 20
40.31217121646011
 30
0.0
 10
232.2484073723162
 20
40.32070699193925
 30
0.0
 10
232.1798683785461
 20
40.33830343078631
 30
0.0
 10
232.0921471465917
 20
40.36994003887217
 30
0.0
 10
231.9974162270977
 20
40.4121196962049
 30
0.0
 10
231.8953819797678
 20
40.46485613193188
 30
0.0
 10
231.7864680665787
 20
40.52717268784271
 30
0.0
 10
231.7083517555927
 20
40.57677674609382
 30
0.0
 10
231.6692083162451
 20
40.60163293068623
 30
0.0
  0
SPLINE
  5
267
330
1F
100
AcDbEntity
  8
0
  6
Continuous
 62
     7
370
    25
100
AcDbSpline
210
0.0
220
0.0
230
1.0
 70
     8
 71
     3
 72
     8
 73
     4
 74
     0
 42
0.000000001
 43
0.00000001
 40
0.0
 40
0.0
 40
0.0
 40
0.0
 40
1.0
 40
1.0
 40
1.0
 40
1.0
 10
234.0232761462406
 20
39.47958209600993
 30
0.0
 10
233.5319088341992
 20
39.79545671597742
 30
0.0
 10
233.040522634273
 20
40.11144273726689
 30
0.0
 10
232.549116924129
 20
40.42753961810958
 30
0.0
  0
SPLINE
  5
268
330
1F
100
AcDbEntity
  8
0
  6
Continuous
 62
     7
370
    25
100
AcDbSpline
210
0.0
220
0.0
230
1.0
 70
     8
 71
     3
 72
    18
 73
    14
 74
     0
 42
0.000000001
 43
0.00000001
 40
0.0
 40
0.0
 40
0.0
 40
0.0
 40
0.0923824559411628
 40
0.1844689291573508
 40
0.2764953615950219
 40
0.3686975365494161
 40
0.4613092840003458
 40
0.5545607518442569
 40
0.6486768051537182
 40
0.7438756050146744
 40
0.8403674044302629
 40
0.9203921078121001
 40
1.0
 40
1.0
 40
1.0
 40
1.0
 10
234.8368402654402
 20
38.83527437146558
 30
0.0
 10
234.8132727513171
 20
38.85054834573113
 30
0.0
 10
234.7662132306658
 20
38.88104735821177
 30
0.0
 10
234.6938154427029
 20
38.93067993082268
 30
0.0
 10
234.6203332338074
 20
38.9830094734912
 30
0.0
 10
234.5456337860624
 20
39.03832715919908
 30
0.0
 10
234.4697729962943
 20
39.09656547431265
 30
0.0
 10
234.3927617155076
 20
39.15775838595023
 30
0.0
 10
234.3146295834265
 20
39.22192210253178
 30
0.0
 10
234.2354033487827
 20
39.2890710623989
 30
0.0
 10
234.1601068643728
 20
39.35492197214506
 30
0.0
 10
234.0892795562507
 20
39.41845355895339
 30
0.0
 10
234.0453751854437
 20
39.45911430396689
 30
0.0
 10
234.0234803186383
 20
39.47939159253544
 30
0.0
  0
LINE
  5
269
330
1F
100
AcDbEntity
  8
0
  6
Continuous
 62
     7
370
    25
100
AcDbLine
 10
235.4765465336
 20
38.4235204421
 30
0.0
 11
234.8368402654
 21
38.8352743715
 31
0.0
  0
SPLINE
  5
26A
330
1F
100
AcDbEntity
  8
0
  6
Continuous
 62
     7
370
    25
100
AcDbSpline
210
0.0
220
0.0
230
1.0
 70
     8
 71
     3
 72
    25
 73
    21
 74
     0
 42
0.000000001
 43
0.00000001
 40
0.0
 40
0.0
 40
0.0
 40
0.0
 40
0.0280105225426465
 40
0.0559601148860768
 40
0.0839014045043132
 40
0.1118870776786367
 40
0.1399695827588937
 40
0.1682008401739883
 40
0.196631967042422
 40
0.2253130233141467
 40
0.2542927850735845
 40
0.3799486436587335
 40
0.5057850221667067
 40
0.6313085886338298
 40
0.7532068238012468
 40
0.8039473267955921
 40
0.8535894438554446
 40
0.9025339722394071
 40
0.9511970353791085
 40
1.0
 40
1.0
 40
1.0
 40
1.0
 10
236.5789123904304
 20
39.13942655534267
 30
0.0
 10
236.583860497961
 20
39.11180269423518
 30
0.0
 10
236.5937459495966
 20
39.05661506112985
 30
0.0
 10
236.6052815991998
 20
38.97745435375994
 30
0.0
 10
236.6143547210125
 20
38.90115101466156
 30
0.0
 10
236.6207235297255
 20
38.82795525369195
 30
0.0
 10
236.6244397685356
 20
38.75780778547855
 30
0.0
 10
236.6254763895184
 20
38.69073149896577
 30
0.0
 10
236.6238279142916
 20
38.62672758973933
 30
0.0
 10
236.6194817624227
 20
38.5657987364725
 30
0.0
 10
236.604625437855
 20
38.44391061497533
 30
0.0
 10
236.55953718079
 20
38.28900974332018
 30
0.0
 10
236.4461776602974
 20
38.15806662497813
 30
0.0
 10
236.2843534383031
 20
38.10219022416813
 30
0.0
 10
236.1103382191713
 20
38.1220642765509
 30
0.0
 10
235.9589772984852
 20
38.16938207890638
 30
0.0
 10
235.8485770657868
 20
38.21429750264173
 30
0.0
 10
235.7314175703381
 20
38.27167323393291
 30
0.0
 10
235.6078519034042
 20
38.34035029838573
 30
0.0
 10
235.5203568533091
 20
38.39577054433892
 30
0.0
 10
235.4765465336275
 20
38.42352044206921
 30
0.0
  0
ARC
  5
26B
330
1F
100
AcDbEntity
  8
0
  6
Continuous
 62
     7
370
    25
100
AcDbCircle
 10
247.7719107225
 20
40.9254770915
 30
0.0
 40
11.33460136833754
100
AcDbArc
 50
170.9338278112
 51
189.0661721888
  0
SPLINE
  5
26C
330
1F
100
AcDbEntity
  8
0
  6
Continuous
 62
     7
370
    25
100
AcDbSpline
210
0.0
220
0.0
230
1.0
 70
     8
 71
     3
 72
    26
 73
    22
 74
     0
 42
0.000000001
 43
0.00000001
 40
0.0
 40
0.0
 40
0.0
 40
0.0
 40
0.0241259796963635
 40
0.0482159912272988
 40
0.0723203915124065
 40
0.0964895678710797
 40
0.1207736231963513
 40
0.1452220711242836
 40
0.1698835501657706
 40
0.1948055644472379
 40
0.2200342569517627
 40
0.2456142191611387
 40
0.3690971486901655
 40
0.4940698769485187
 40
0.6192566784762451
 40
0.7454656653603225
 40
0.7971495824713707
 40
0.8481710308405392
 40
0.8988013269235234
 40
0.9493179290492194
 40
1.0
 40
1.0
 40
1.0
 40
1.0
 10
235.4765465336275
 20
46.18763083343379
 30
0.0
 10
235.4982647630035
 20
46.1732993100387
 30
0.0
 10
235.5416688431797
 20
46.14465762936966
 30
0.0
 10
235.604975960541
 20
46.09666533144085
 30
0.0
 10
235.666837528259
 20
46.04506613355517
 30
0.0
 10
235.7271420433955
 20
45.98949134068193
 30
0.0
 10
235.7859318953354
 20
45.93003610005479
 30
0.0
 10
235.8432124137651
 20
45.86667179121738
 30
0.0
 10
235.8990035530913
 20
45.79940301325345
 30
0.0
 10
235.9533248005132
 20
45.72822889929333
 30
0.0
 10
236.0062037757221
 20
45.65313975954505
 30
0.0
 10
236.1229986004584
 20
45.4738853108432
 30
0.0
 10
236.2848681583849
 20
45.16357983899981
 30
0.0
 10
236.4480530659168
 20
44.69366605086812
 30
0.0
 10
236.5595644710902
 20
44.19470301695808
 30
0.0
 10
236.6066983091987
 20
43.78581934390107
 30
0.0
 10
236.6218172487312
 20
43.48154738731037
 30
0.0
 10
236.6237703877138
 20
43.28029814561505
 30
0.0
 10
236.6172923620747
 20
43.08463822589246
 30
0.0
 10
236.6031654393875
 20
42.89400193799499
 30
0.0
 10
236.5870055477025
 20
42.77241866425618
 30
0.0
 10
236.5789123904304
 20
42.71152762765729
 30
0.0
  0
LINE
  5
26D
330
1F
100
AcDbEntity
  8
0
  6
Continuous
 62
     7
370
    25
100
AcDbLine
 10
234.8368402654
 20
46.6006058464
 30
0.0
 11
235.4765465336
 21
46.1876308334
 31
0.0
  0
SPLINE
  5
26E
330
1F
100
AcDbEntity
  8
0
  6
Continuous
 62
     7
370
    25
100
AcDbSpline
210
0.0
220
0.0
230
1.0
 70
     8
 71
     3
 72
    14
 73
    10
 74
     0
 42
0.000000001
 43
0.00000001
 40
0.0
 40
0.0
 40
0.0
 40
0.0
 40
0.0789261963172865
 40
0.158232872055133
 40
0.330847539457262
 40
0.5000195457610529
 40
0.6670357883572423
 40
0.8332395193657144
 40
1.0
 40
1.0
 40
1.0
 40
1.0
 10
234.0228875495889
 20
46.80918811671838
 30
0.0
 10
234.0446044309248
 20
46.81079128057696
 30
0.0
 10
234.0881428841404
 20
46.8140053366642
 30
0.0
 10
234.1796680027894
 20
46.81482637673209
 30
0.0
 10
234.2965763362225
 20
46.80689039494879
 30
0.0
 10
234.4373966746042
 20
46.78061472607098
 30
0.0
 10
234.5746089824162
 20
46.73765712753872
 30
0.0
 10
234.7085396568328
 20
46.67930000272909
 30
0.0
 10
234.7940257487919
 20
46.62686645657911
 30
0.0
 10
234.8368402654402
 20
46.60060584642467
 30
0.0
  0
SPLINE
  5
26F
330
1F
100
AcDbEntity
  8
0
  6
Continuous
 62
     7
370
    25
100
AcDbSpline
210
0.0
220
0.0
230
1.0
 70
     8
 71
     3
 72
     8
 73
     4
 74
     0
 42
0.000000001
 43
0.00000001
 40
0.0
 40
0.0
 40
0.0
 40
0.0
 40
1.0
 40
1.0
 40
1.0
 40
1.0
 10
232.2205839665845
 20
47.97157952813108
 30
0.0
 10
232.8213421902806
 20
47.58431204497218
 30
0.0
 10
233.422071053141
 20
47.19684469504887
 30
0.0
 10
234.0227716974879
 20
46.80917780245925
 30
0.0
  0
SPLINE
  5
270
330
1F
100
AcDbEntity
  8
0
  6
Continuous
 62
     7
370
    25
100
AcDbSpline
210
0.0
220
0.0
230
1.0
 70
     8
 71
     3
 72
    13
 73
     9
 74
     0
 42
0.000000001
 43
0.00000001
 40
0.0
 40
0.0
 40
0.0
 40
0.0
 40
0.1667030582307992
 40
0.3329480818053035
 40
0.4990671507274896
 40
0.6653938523718403
 40
0.832261271055009
 40
1.0
 40
1.0
 40
1.0
 40
1.0
 10
231.8787554315501
 20
48.27264430721686
 30
0.0
 10
231.8990566139901
 20
48.25907920053763
 30
0.0
 10
231.9396031991787
 20
48.23198625877479
 30
0.0
 10
231.9987528361664
 20
48.18679168576707
 30
0.0
 10
232.0565243810689
 20
48.13838053728413
 30
0.0
 10
232.1127741185285
 20
48.08634542251367
 30
0.0
 10
232.1677013272746
 20
48.03104745530465
 30
0.0
 10
232.2029220368651
 20
47.99143020014428
 30
0.0
 10
232.2205782488061
 20
47.97156999114335
 30
0.0
  0
SPLINE
  5
271
330
1F
100
AcDbEntity
  8
0
  6
Continuous
 62
     7
370
    25
100
AcDbSpline
210
0.0
220
0.0
230
1.0
 70
     8
 71
     3
 72
     8
 73
     4
 74
     0
 42
0.000000001
 43
0.00000001
 40
0.0
 40
0.0
 40
0.0
 40
0.0
 40
1.0
 40
1.0
 40
1.0
 40
1.0
 10
229.9347749157594
 20
49.52736615959633
 30
0.0
 10
230.5828049881596
 20
49.10937084371158
 30
0.0
 10
231.2307979652616
 20
48.69113008129395
 30
0.0
 10
231.8787554315501
 20
48.27264430721686
 30
0.0
  0
LWPOLYLINE
  5
272
330
1F
100
AcDbEntity
  8
0
  6
Continuous
 62
     7
370
    25
100
AcDbPolyline
 90
       21
 70
   128
 43
0.0
 10
229.9347749158
 20
49.5273661598
 10
230.2824327883
 20
50.5485466009
 10
230.6972833668
 20
51.5657684238
 10
231.1754246392
 20
52.569463817
 10
231.7123592918
 20
53.5501921963
 10
232.3030370107
 20
54.4987290012
 10
232.9419019841
 20
55.4061524598
 10
233.6229451593
 20
56.2639275049
 10
234.3397607627
 20
57.0639860536
 10
235.0856065515
 20
57.7988028947
 10
235.85346723
 20
58.4614664687
 10
236.6361204344
 20
59.0457438775
 10
237.4262046649
 20
59.5461395093
 10
238.2162885266
 20
59.9579467301
 10
238.9989406283
 20
60.2772921527
 10
239.7667994806
 20
60.5011720698
 10
240.5126427368
 20
60.6274807057
 10
241.2294551249
 20
60.6550300234
 10
241.9104944325
 20
60.5835608989
 10
242.5493549224
 20
60.4137455583
 10
242.984513109
 20
60.229113126
  0
SPLINE
  5
273
330
1F
100
AcDbEntity
  8
0
  6
Continuous
 62
     7
370
    25
100
AcDbSpline
210
0.0
220
0.0
230
1.0
 70
    11
 71
     3
 72
    39
 73
    35
 74
     0
 42
0.000000001
 43
0.00000001
 40
0.0
 40
0.0
 40
0.0
 40
0.0
 40
0.0310664058348413
 40
0.0621048158426138
 40
0.0931361551796939
 40
0.1235538293503726
 40
0.1538561545809849
 40
0.1850588072749156
 40
0.2160250992946587
 40
0.2471867223797568
 40
0.2784462884304475
 40
0.3100516090231247
 40
0.3419834369138969
 40
0.3734259894013238
 40
0.4048604886787081
 40
0.436874065183343
 40
0.4685120685926471
 40
0.499805535863323
 40
0.5309508213226204
 40
0.5618649784438111
 40
0.5930416446590877
 40
0.623374245013332
 40
0.6540913579072549
 40
0.6849496782718453
 40
0.7158160645166705
 40
0.7471731804043553
 40
0.7784514311866318
 40
0.810129591156098
 40
0.8419598919688388
 40
0.8735175891922303
 40
0.9050808037886594
 40
0.9370235169792582
 40
0.9687441590030581
 40
1.0
 40
1.0
 40
1.0
 40
1.0
 10
243.1433603969648
 20
58.53255653493775
 30
0.0
 10
243.4062460171629
 20
58.50402204764765
 30
0.0
 10
243.9331346276464
 20
58.41807955932604
 30
0.0
 10
244.6971466967224
 20
58.21770443925359
 30
0.0
 10
245.4042968847733
 20
57.97070233303407
 30
0.0
 10
246.0172079493688
 20
57.69272045488097
 30
0.0
 10
246.5143392750392
 20
57.39858675755224
 30
0.0
 10
246.8735309961127
 20
57.09708022936002
 30
0.0
 10
247.0952502648715
 20
56.7900827244576
 30
0.0
 10
247.1605021422536
 20
56.47957746305592
 30
0.0
 10
247.0736549311397
 20
56.16043297830709
 30
0.0
 10
246.8313093433814
 20
55.8311130127349
 30
0.0
 10
246.451371480655
 20
55.49217229117724
 30
0.0
 10
245.9375655274952
 20
55.1543338267666
 30
0.0
 10
245.3116747165852
 20
54.82843592545576
 30
0.0
 10
244.5982037300933
 20
54.53178903221627
 30
0.0
 10
243.834301253829
 20
54.27568572377932
 30
0.0
 10
243.0485081709273
 20
54.08665815578853
 30
0.0
 10
242.2669707158874
 20
53.97848223373529
 30
0.0
 10
241.510857731135
 20
53.97081835036558
 30
0.0
 10
240.8084931447414
 20
54.06874038575172
 30
0.0
 10
240.1894727976987
 20
54.29038881925423
 30
0.0
 10
239.680415532685
 20
54.62625690616596
 30
0.0
 10
239.3074719392511
 20
55.06606747234672
 30
0.0
 10
239.0788699880027
 20
55.57714211286936
 30
0.0
 10
239.0100236812834
 20
56.1283272006328
 30
0.0
 10
239.0946400945085
 20
56.68599912894455
 30
0.0
 10
239.3377488844434
 20
57.21607926986354
 30
0.0
 10
239.7198787272611
 20
57.68860361897627
 30
0.0
 10
240.2360143016714
 20
58.0747251298695
 30
0.0
 10
240.8629921621734
 20
58.35834931720264
 30
0.0
 10
241.5788995945371
 20
58.52808653592905
 30
0.0
 10
242.3473429867228
 20
58.58962537064037
 30
0.0
 10
242.8788717660952
 20
58.56126501838479
 30
0.0
 10
243.1433603969647
 20
58.53255653493774
 30
0.0
  0
LINE
  5
274
330
1F
100
AcDbEntity
  8
0
  6
Continuous
 62
     7
370
    25
100
AcDbLine
 10
233.9188234092
 20
42.0934295081
 30
0.0
 11
234.2328680163
 21
41.9252857238
 31
0.0
  0
LINE
  5
275
330
1F
100
AcDbEntity
  8
0
  6
Continuous
 62
     7
370
    25
100
AcDbLine
 10
232.9318643702
 20
42.6631888337
 30
0.0
 11
233.9188234092
 21
42.0934295081
 31
0.0
  0
ARC
  5
276
330
1F
100
AcDbEntity
  8
0
  6
Continuous
 62
     7
370
    25
100
AcDbCircle
 10
235.1556856119
 20
46.2345268669
 30
0.0
 40
4.462267193780113
100
AcDbArc
 50
267.6359980982
 51
287.0346845948
  0
SPLINE
  5
277
330
1F
100
AcDbEntity
  8
0
  6
Continuous
 62
     7
370
    25
100
AcDbSpline
210
0.0
220
0.0
230
1.0
 70
     8
 71
     3
 72
    16
 73
    12
 74
     0
 42
0.000000001
 43
0.00000001
 40
0.0
 40
0.0
 40
0.0
 40
0.0
 40
0.150516077399123
 40
0.2631372176921929
 40
0.3788385653419725
 40
0.4915726627001887
 40
0.608215717310718
 40
0.7115656327827979
 40
0.8179798858712685
 40
0.9203357686923436
 40
1.0
 40
1.0
 40
1.0
 40
1.0
 10
244.4818661917915
 20
55.53006090207494
 30
0.0
 10
244.277033109276
 20
55.64244985474745
 30
0.0
 10
243.9189370948449
 20
55.83893196361326
 30
0.0
 10
243.3202019007329
 20
56.1030906154018
 30
0.0
 10
242.7439865504934
 20
56.31532245881793
 30
0.0
 10
242.131426345818
 20
56.48727732204767
 30
0.0
 10
241.5300514296941
 20
56.59521424819858
 30
0.0
 10
240.9473564017857
 20
56.63394823830417
 30
0.0
 10
240.4127296761277
 20
56.59949869634035
 30
0.0
 10
239.9444310419229
 20
56.50847856941677
 30
0.0
 10
239.6855827263467
 20
56.3976068305726
 30
0.0
 10
239.5722933122378
 20
56.34908190852735
 30
0.0
  0
SPLINE
  5
278
330
1F
100
AcDbEntity
  8
0
  6
Continuous
 62
     7
370
    25
100
AcDbSpline
210
0.0
220
0.0
230
1.0
 70
     8
 71
     3
 72
    10
 73
     6
 74
     0
 42
0.000000001
 43
0.00000001
 40
0.0
 40
0.0
 40
0.0
 40
0.0
 40
0.3798174487108013
 40
0.9603712743694113
 40
1.0
 40
1.0
 40
1.0
 40
1.0
 10
245.6217466408381
 20
55.00183387929368
 30
0.0
 10
245.4920939824914
 20
55.07216258519276
 30
0.0
 10
245.1642662611888
 20
55.24998924675955
 30
0.0
 10
244.7563378575433
 20
55.4230415472578
 30
0.0
 10
244.4997050589714
 20
55.52224719385787
 30
0.0
 10
244.483306611867
 20
55.52858628440782
 30
0.0
  0
SPLINE
  5
279
330
1F
100
AcDbEntity
  8
0
  6
Continuous
 62
     7
370
    25
100
AcDbSpline
210
0.0
220
0.0
230
1.0
 70
     8
 71
     3
 72
    25
 73
    21
 74
     0
 42
0.000000001
 43
0.00000001
 40
0.0
 40
0.0
 40
0.0
 40
0.0
 40
0.0472533917872508
 40
0.0895736156386787
 40
0.1269632240823441
 40
0.1594267770588481
 40
0.2428507964512297
 40
0.3183672309096812
 40
0.3935858487026566
 40
0.4205144052940519
 40
0.4483683787012357
 40
0.4771558249980066
 40
0.5451773830434189
 40
0.6363664722698907
 40
0.696894012283923
 40
0.7498726465123202
 40
0.7959807071598741
 40
0.8771243677046747
 40
0.9543028052275159
 40
1.0
 40
1.0
 40
1.0
 40
1.0
 10
243.0884814559197
 20
57.95869867241529
 30
0.0
 10
242.9480773715567
 20
57.97401479956118
 30
0.0
 10
242.6819271332107
 20
58.00304807810798
 30
0.0
 10
242.3091485300487
 20
58.01031473130613
 30
0.0
 10
241.9865879206449
 20
57.99692827886111
 30
0.0
 10
241.5574711251566
 20
57.95097048351472
 30
0.0
 10
241.0498536977459
 20
57.83394988787596
 30
0.0
 10
240.5070449340157
 20
57.59136659822223
 30
0.0
 10
240.1666443286902
 20
57.33401624421189
 30
0.0
 10
239.9600184950356
 20
57.11920539461592
 30
0.0
 10
239.842034475405
 20
56.97270368980806
 30
0.0
 10
239.6898644174531
 20
56.74295146924067
 30
0.0
 10
239.5231828449468
 20
56.37001013676738
 30
0.0
 10
239.4548225335912
 20
55.90745105088991
 30
0.0
 10
239.5051767199973
 20
55.47911718486134
 30
0.0
 10
239.6106065951875
 20
55.15919127278021
 30
0.0
 10
239.7928053551955
 20
54.81872501169734
 30
0.0
 10
240.0936843702275
 20
54.48277714287266
 30
0.0
 10
240.4833690710005
 20
54.20971843107124
 30
0.0
 10
240.776287916676
 20
54.11576276021174
 30
0.0
 10
240.8852238325555
 20
54.08082083957994
 30
0.0
  0
SPLINE
  5
27A
330
1F
100
AcDbEntity
  8
0
  6
Continuous
 62
     7
370
    25
100
AcDbSpline
210
0.0
220
0.0
230
1.0
 70
     8
 71
     3
 72
    22
 73
    18
 74
     0
 42
0.000000001
 43
0.00000001
 40
0.0
 40
0.0
 40
0.0
 40
0.0
 40
0.0348562881197234
 40
0.0924900456867643
 40
0.1569277512440201
 40
0.2282085045255817
 40
0.2894089389015432
 40
0.3420696599366521
 40
0.3861903415761853
 40
0.4217735618017079
 40
0.5236918804936475
 40
0.6145479382150776
 40
0.7067592537278896
 40
0.7559111263212961
 40
0.8071360145824484
 40
0.8951475406773878
 40
1.0
 40
1.0
 40
1.0
 40
1.0
 10
246.3522258798713
 20
55.44155436680246
 30
0.0
 10
246.3898616852556
 20
55.47672774530881
 30
0.0
 10
246.4897270911042
 20
55.57005918019468
 30
0.0
 10
246.6085514635671
 20
55.72540405480687
 30
0.0
 10
246.704962551569
 20
55.91413258094732
 30
0.0
 10
246.7362392035504
 20
56.10011210659451
 30
0.0
 10
246.7068329770127
 20
56.27192332583824
 30
0.0
 10
246.6383384533289
 20
56.41873121537105
 30
0.0
 10
246.5505257083432
 20
56.53994035176044
 30
0.0
 10
246.3962341253493
 20
56.7055252442732
 30
0.0
 10
246.1284079841799
 20
56.91568850806966
 30
0.0
 10
245.6768381627601
 20
57.1711330242566
 30
0.0
 10
245.2292752913362
 20
57.3777687509521
 30
0.0
 10
244.8203818021636
 20
57.53627359557972
 30
0.0
 10
244.39830183614
 20
57.67878970480866
 30
0.0
 10
243.8199893016558
 20
57.84204717308538
 30
0.0
 10
243.3461104784151
 20
57.91761529659073
 30
0.0
 10
243.0884814559197
 20
57.95869867241529
 30
0.0
  0
LINE
  5
27B
330
1F
100
AcDbEntity
  8
0
  6
Continuous
 62
     7
370
    25
100
AcDbLine
 10
236.5789123904
 20
42.7115276277
 30
0.0
 11
236.5736738469
 21
43.0076110465
 31
0.0
  0
LINE
  5
27C
330
1F
100
AcDbEntity
  8
0
  6
Continuous
 62
     7
370
    25
100
AcDbLine
 10
236.5736738469
 20
43.0076110465
 30
0.0
 11
236.6167705844
 21
43.6592178754
 31
0.0
  0
LINE
  5
27D
330
1F
100
AcDbEntity
  8
0
  6
Continuous
 62
     7
370
    25
100
AcDbLine
 10
236.0941254271
 20
45.4882993013
 30
0.0
 11
235.7827106571
 21
45.8168955637
 31
0.0
  0
SPLINE
  5
27E
330
1F
100
AcDbEntity
  8
0
  6
Continuous
 62
     7
370
    25
100
AcDbSpline
210
0.0
220
0.0
230
1.0
 70
     8
 71
     3
 72
    24
 73
    20
 74
     0
 42
0.000000001
 43
0.00000001
 40
0.0
 40
0.0
 40
0.0
 40
0.0
 40
0.0208485373664272
 40
0.0823376247214632
 40
0.1455705549099646
 40
0.2075413813861011
 40
0.2714247518574422
 40
0.3315017366460747
 40
0.3933547140842038
 40
0.4529343674600938
 40
0.514180240079699
 40
0.5749476280820675
 40
0.6373706675511337
 40
0.7000294854399094
 40
0.764869753768216
 40
0.8126336564434572
 40
0.8609398673429536
 40
0.9190455624033324
 40
1.0
 40
1.0
 40
1.0
 40
1.0
 10
239.4854934190072
 20
55.70955040441797
 30
0.0
 10
239.482774079794
 20
55.76240006988508
 30
0.0
 10
239.4720345287315
 20
55.97112051129564
 30
0.0
 10
239.5440550585647
 20
56.31420296062505
 30
0.0
 10
239.706143530811
 20
56.72585166157359
 30
0.0
 10
239.9684797661863
 20
57.09518716422679
 30
0.0
 10
240.3099957212713
 20
57.4033583519258
 30
0.0
 10
240.725768304643
 20
57.64706848031044
 30
0.0
 10
241.1915357909391
 20
57.81686991158005
 30
0.0
 10
241.705767102725
 20
57.91430219835909
 30
0.0
 10
242.2471791296
 20
57.93591635018106
 30
0.0
 10
242.811579777964
 20
57.87951098533827
 30
0.0
 10
243.3784274752283
 20
57.74243736170635
 30
0.0
 10
243.936384893597
 20
57.51660148384984
 30
0.0
 10
244.4090665606015
 20
57.2189914806141
 30
0.0
 10
244.766060657557
 20
56.84806981757927
 30
0.0
 10
244.9609030820156
 20
56.41575119451607
 30
0.0
 10
244.9899343269177
 20
55.91280904981623
 30
0.0
 10
244.9275602087712
 20
55.57906425613179
 30
0.0
 10
244.891248855124
 20
55.38477332919753
 30
0.0
  0
SPLINE
  5
27F
330
1F
100
AcDbEntity
  8
0
  6
Continuous
 62
     7
370
    25
100
AcDbSpline
210
0.0
220
0.0
230
1.0
 70
     8
 71
     3
 72
    10
 73
     6
 74
     0
 42
0.000000001
 43
0.00000001
 40
0.0
 40
0.0
 40
0.0
 40
0.0
 40
0.294947504039395
 40
0.9798113369353982
 40
1.0
 40
1.0
 40
1.0
 40
1.0
 10
244.8939767301038
 20
55.383534771193
 30
0.0
 10
244.9768016849299
 20
55.34476968182452
 30
0.0
 10
245.2519449853758
 20
55.21599261634555
 30
0.0
 10
245.5270812681514
 20
55.07467840846291
 30
0.0
 10
245.6757149092597
 20
54.98058046087726
 30
0.0
 10
245.6799709249715
 20
54.97788603490223
 30
0.0
  0
ARC
  5
280
330
1F
100
AcDbEntity
  8
0
  6
Continuous
 62
     7
370
    25
100
AcDbCircle
 10
248.9039845764
 20
41.1703247013
 30
0.0
 40
12.46644230718178
100
AcDbArc
 50
171.5249591672
 51
179.8212373334
  0
SPLINE
  5
281
330
1F
100
AcDbEntity
  8
0
  6
Continuous
 62
     7
370
    25
100
AcDbSpline
210
0.0
220
0.0
230
1.0
 70
     8
 71
     3
 72
    14
 73
    10
 74
     0
 42
0.000000001
 43
0.00000001
 40
0.0
 40
0.0
 40
0.0
 40
0.0
 40
0.0003951393068452
 40
0.0003951393068452
 40
0.0003951393068452
 40
0.0008163352168663
 40
0.0008163352168663
 40
0.0008163352168663
 40
0.0012378579337219
 40
0.0012378579337219
 40
0.0012378579337219
 40
0.0012378579337219
 10
244.4858989308038
 20
55.52878186621768
 30
0.0
 10
244.5313607450351
 20
55.51434500359265
 30
0.0
 10
244.5762483496561
 20
55.49947914302705
 30
0.0
 10
244.6205320423313
 20
55.48419535542158
 30
0.0
 10
244.6677353345706
 20
55.46790391608389
 30
0.0
 10
244.7142611476298
 20
55.45113443799998
 30
0.0
 10
244.7600720568714
 20
55.43390562720469
 30
0.0
 10
244.8059184448605
 20
55.41666347337304
 30
0.0
 10
244.8510576804329
 20
55.39895776716854
 30
0.0
 10
244.8954512384753
 20
55.38081491047775
 30
0.0
  0
LINE
  5
282
330
1F
100
AcDbEntity
  8
0
  6
Continuous
 62
     7
370
    25
100
AcDbLine
 10
235.7827106571
 20
45.8168955637
 30
0.0
 11
235.1427744618
 21
46.2291273008
 31
0.0
  0
LINE
  5
283
330
1F
100
AcDbEntity
  8
0
  6
Continuous
 62
     7
370
    25
100
AcDbLine
 10
234.8368402654
 20
46.6006058464
 30
0.0
 11
235.1427744618
 21
46.2291273008
 31
0.0
  0
SPLINE
  5
284
330
1F
100
AcDbEntity
  8
0
  6
Continuous
 62
     7
370
    25
100
AcDbSpline
210
0.0
220
0.0
230
1.0
 70
     8
 71
     3
 72
    13
 73
     9
 74
     0
 42
0.000000001
 43
0.00000001
 40
0.0
 40
0.0
 40
0.0
 40
0.0
 40
0.161854229885178
 40
0.3254858841554281
 40
0.4910085196607404
 40
0.6585318472791263
 40
0.8281616954204583
 40
0.9999999999999999
 40
0.9999999999999999
 40
0.9999999999999999
 40
0.9999999999999999
 10
235.1427744617822
 20
46.22912730078779
 30
0.0
 10
235.1231970697648
 20
46.24169027782095
 30
0.0
 10
235.0838272939191
 20
46.26695419393955
 30
0.0
 10
235.0222913541488
 20
46.29964789085442
 30
0.0
 10
234.9587346948994
 20
46.3285939645613
 30
0.0
 10
234.8931165922426
 20
46.3531063320269
 30
0.0
 10
234.8256893231878
 20
46.37354139538041
 30
0.0
 10
234.7798047229893
 20
46.38313805037019
 30
0.0
 10
234.7567140428143
 20
46.38796741120498
 30
0.0
  0
SPLINE
  5
285
330
1F
100
AcDbEntity
  8
0
  6
Continuous
 62
     7
370
    25
100
AcDbSpline
210
0.0
220
0.0
230
1.0
 70
     8
 71
     3
 72
     9
 73
     5
 74
     0
 42
0.000000001
 43
0.00000001
 40
0.0
 40
0.0
 40
0.0
 40
0.0
 40
0.4907282259506175
 40
1.0
 40
1.0
 40
1.0
 40
1.0
 10
234.7567082155224
 20
46.38793941417396
 30
0.0
 10
234.7326146930445
 20
46.39603494639208
 30
0.0
 10
234.6835172064853
 20
46.41253192331337
 30
0.0
 10
234.6328165126651
 20
46.4273255923296
 30
0.0
 10
234.6069960803778
 20
46.4348595903942
 30
0.0
  0
SPLINE
  5
286
330
1F
100
AcDbEntity
  8
0
  6
Continuous
 62
     7
370
    25
100
AcDbSpline
210
0.0
220
0.0
230
1.0
 70
     8
 71
     3
 72
    14
 73
    10
 74
     0
 42
0.000000001
 43
0.00000001
 40
0.0
 40
0.0
 40
0.0
 40
0.0
 40
0.0310276388071871
 40
0.0622853718672875
 40
0.1248003166904921
 40
0.249828973175415
 40
0.4998892603610702
 40
0.7606803621692766
 40
1.0
 40
1.0
 40
1.0
 40
1.0
 10
234.0230553910895
 20
46.80896733304006
 30
0.0
 10
234.0290476304939
 20
46.80513628938643
 30
0.0
 10
234.0410765464532
 20
46.79744579188872
 30
0.0
 10
234.0651363545024
 20
46.78200790238203
 30
0.0
 10
234.1073700271486
 20
46.75493744945121
 30
0.0
 10
234.1919326016608
 20
46.70072542465582
 30
0.0
 10
234.3152195711312
 20
46.62172224278965
 30
0.0
 10
234.4613512775853
 20
46.52811606811223
 30
0.0
 10
234.559717894126
 20
46.46513299171976
 30
0.0
 10
234.60678959481
 20
46.43499349293077
 30
0.0
  0
LINE
  5
287
330
1F
100
AcDbEntity
  8
0
  6
Continuous
 62
     7
370
    25
100
AcDbLine
 10
232.2205551244
 20
47.9715981341
 30
0.0
 11
232.511521959
 21
47.7835197051
 31
0.0
  0
SPLINE
  5
288
330
1F
100
AcDbEntity
  8
0
  6
Continuous
 62
     7
370
    25
100
AcDbSpline
210
0.0
220
0.0
230
1.0
 70
     8
 71
     3
 72
     8
 73
     4
 74
     0
 42
0.000000001
 43
0.00000001
 40
0.0
 40
0.0
 40
0.0
 40
0.0
 40
1.0
 40
1.0
 40
1.0
 40
1.0
 10
232.5429108933847
 20
47.76329694072889
 30
0.0
 10
232.5324683875329
 20
47.77012236562629
 30
0.0
 10
232.5220024546431
 20
47.77686533241281
 30
0.0
 10
232.5115146898266
 20
47.7835244200658
 30
0.0
  0
SPLINE
  5
289
330
1F
100
AcDbEntity
  8
0
  6
Continuous
 62
     7
370
    25
100
AcDbSpline
210
0.0
220
0.0
230
1.0
 70
     8
 71
     3
 72
     8
 73
     4
 74
     0
 42
0.000000001
 43
0.00000001
 40
0.0
 40
0.0
 40
0.0
 40
0.0
 40
1.0
 40
1.0
 40
1.0
 40
1.0
 10
229.7569065145609
 20
49.64155259253797
 30
0.0
 10
229.8159062787309
 20
49.60281192561901
 30
0.0
 10
229.8751938422414
 20
49.56474994831972
 30
0.0
 10
229.9347749157298
 20
49.52736615985942
 30
0.0
  0
SPLINE
  5
28A
330
1F
100
AcDbEntity
  8
0
  6
Continuous
 62
     7
370
    25
100
AcDbSpline
210
0.0
220
0.0
230
1.0
 70
     8
 71
     3
 72
     8
 73
     4
 74
     0
 42
0.000000001
 43
0.00000001
 40
0.0
 40
0.0
 40
0.0
 40
0.0
 40
1.0
 40
1.0
 40
1.0
 40
1.0
 10
229.7320567684613
 20
50.00476277047629
 30
0.0
 10
229.7395309805519
 20
49.88380492976444
 30
0.0
 10
229.747827084442
 20
49.76273308735379
 30
0.0
 10
229.7569065145609
 20
49.64155259253797
 30
0.0
  0
LWPOLYLINE
  5
28B
330
1F
100
AcDbEntity
  8
0
  6
Continuous
 62
     7
370
    25
100
AcDbPolyline
 90
       17
 70
   128
 43
0.0
 10
229.7320567685
 20
50.0047627705
 10
230.0881372016
 20
51.0173770528
 10
230.5121863519
 20
52.0241651537
 10
230.9999704715
 20
53.0150752035
 10
231.5466194766
 20
53.9802138602
 10
232.1466755708
 20
54.9099450863
 10
232.7941477358
 20
55.7949863551
 10
233.482571547
 20
56.6265013292
 10
234.2050737145
 20
57.3961880825
 10
234.9544407067
 20
58.0963619881
 10
235.7231907711
 20
58.7200324419
 10
236.5036486327
 20
59.2609726578
 10
237.2880221246
 20
59.7137818364
 10
238.0684799862
 20
60.0739390871
 10
238.8372300506
 20
60.3378485649
 10
239.5865970428
 20
60.5028753722
 10
239.6960189941
 20
60.5188705343
  0
SPLINE
  5
28C
330
1F
100
AcDbEntity
  8
0
  6
Continuous
 62
     7
370
    25
100
AcDbSpline
210
0.0
220
0.0
230
1.0
 70
     8
 71
     3
 72
    10
 73
     6
 74
     0
 42
0.000000001
 43
0.00000001
 40
0.0
 40
0.0
 40
0.0
 40
0.0
 40
0.2409820260343464
 40
0.5031431986319208
 40
1.0
 40
1.0
 40
1.0
 40
1.0
 10
235.7827106571109
 20
39.11105414609585
 30
0.0
 10
235.8649566853096
 20
39.05937763412684
 30
0.0
 10
236.0366770844763
 20
38.95148292532179
 30
0.0
 10
236.3143972662142
 20
38.82175964464789
 30
0.0
 10
236.4353750535942
 20
38.84453774814739
 30
0.0
 10
236.5145676926831
 20
38.8594484038027
 30
0.0
  0
LINE
  5
28D
330
1F
100
AcDbEntity
  8
0
  6
Continuous
 62
     7
370
    25
100
AcDbLine
 10
230.9995372025
 20
48.8401264995
 30
0.0
 11
230.237657821
 21
49.3307614183
 31
0.0
  0
LINE
  5
28E
330
1F
100
AcDbEntity
  8
0
  6
Continuous
 62
     7
370
    25
100
AcDbLine
 10
230.237657821
 20
49.3307614183
 30
0.0
 11
229.7569065146
 21
49.6415525925
 31
0.0
  0
LINE
  5
28F
330
1F
100
AcDbEntity
  8
0
  6
Continuous
 62
     7
370
    25
100
AcDbLine
 10
234.8368402654
 20
38.8352743715
 30
0.0
 11
235.1427744618
 21
39.5232858832
 31
0.0
  0
LINE
  5
290
330
1F
100
AcDbEntity
  8
0
  6
Continuous
 62
     7
370
    25
100
AcDbLine
 10
235.1427744618
 20
39.5232858832
 30
0.0
 11
235.7827106571
 21
39.1110541461
 31
0.0
  0
SPLINE
  5
291
330
1F
100
AcDbEntity
  8
0
  6
Continuous
 62
     7
370
    25
100
AcDbSpline
210
0.0
220
0.0
230
1.0
 70
     8
 71
     3
 72
    13
 73
     9
 74
     0
 42
0.000000001
 43
0.00000001
 40
0.0
 40
0.0
 40
0.0
 40
0.0
 40
0.172258782378417
 40
0.342139827159501
 40
0.5097456258302661
 40
0.6751828993623331
 40
0.8385626190354498
 40
1.0
 40
1.0
 40
1.0
 40
1.0
 10
234.756702531009
 20
39.80459537904108
 30
0.0
 10
234.7798540549641
 20
39.78647578810362
 30
0.0
 10
234.8258375357198
 20
39.75048671616231
 30
0.0
 10
234.893378548439
 20
39.69948673274065
 30
0.0
 10
234.9590381631273
 20
39.65116205254888
 30
0.0
 10
235.0225622343751
 20
39.60573104664306
 30
0.0
 10
235.0839926130888
 20
39.56290547889016
 30
0.0
 10
235.1232587800552
 20
39.53643966171993
 30
0.0
 10
235.1427744617822
 20
39.52328588317607
 30
0.0
  0
SPLINE
  5
292
330
1F
100
AcDbEntity
  8
0
  6
Continuous
 62
     7
370
    25
100
AcDbSpline
210
0.0
220
0.0
230
1.0
 70
     8
 71
     3
 72
    11
 73
     7
 74
     0
 42
0.000000001
 43
0.00000001
 40
0.0
 40
0.0
 40
0.0
 40
0.0
 40
0.2392845094479873
 40
0.5001120454076898
 40
0.7515010915036774
 40
1.0
 40
1.0
 40
1.0
 40
1.0
 10
234.6073221195329
 20
39.85190937125395
 30
0.0
 10
234.5602528875283
 20
39.82359484854116
 30
0.0
 10
234.4618767329337
 20
39.76441661798497
 30
0.0
 10
234.3155795113499
 20
39.67122871752505
 30
0.0
 10
234.1677387677061
 20
39.5758568015526
 30
0.0
 10
234.0714523049871
 20
39.51132154628979
 30
0.0
 10
234.0235874171281
 20
39.47924047623196
 30
0.0
  0
SPLINE
  5
293
330
1F
100
AcDbEntity
  8
0
  6
Continuous
 62
     7
370
    25
100
AcDbSpline
210
0.0
220
0.0
230
1.0
 70
     8
 71
     3
 72
     9
 73
     5
 74
     0
 42
0.000000001
 43
0.00000001
 40
0.0
 40
0.0
 40
0.0
 40
0.0
 40
0.5090669353869915
 40
1.0
 40
1.0
 40
1.0
 40
1.0
 10
234.607893123117
 20
39.85121041704219
 30
0.0
 10
234.633541697741
 20
39.8437177088823
 30
0.0
 10
234.6839251990865
 20
39.82899919617005
 30
0.0
 10
234.7327327105818
 20
39.81260683831788
 30
0.0
 10
234.7566939317763
 20
39.80455928784127
 30
0.0
  0
LINE
  5
294
330
1F
100
AcDbEntity
  8
0
  6
Continuous
 62
     7
370
    25
100
AcDbLine
 10
236.4378116974
 20
40.7750886554
 30
0.0
 11
234.7566960366
 21
39.8046012419
 31
0.0
  0
LINE
  5
295
330
1F
100
AcDbEntity
  8
0
  6
Continuous
 62
     7
370
    25
100
AcDbLine
 10
232.7502082396
 20
40.9284225197
 30
0.0
 11
232.5499121872
 21
40.4272652383
 31
0.0
  0
SPLINE
  5
296
330
1F
100
AcDbEntity
  8
0
  6
Continuous
 62
     7
370
    25
100
AcDbSpline
210
0.0
220
0.0
230
1.0
 70
     8
 71
     3
 72
     8
 73
     4
 74
     0
 42
0.000000001
 43
0.00000001
 40
0.0
 40
0.0
 40
0.0
 40
0.0
 40
1.0
 40
1.0
 40
1.0
 40
1.0
 10
232.7497649249768
 20
40.92920645090354
 30
0.0
 10
232.7759402595461
 20
40.9513738278818
 30
0.0
 10
232.8017612995116
 20
40.97400596897342
 30
0.0
 10
232.8272188532199
 20
40.9970906890647
 30
0.0
  0
LINE
  5
297
330
1F
100
AcDbEntity
  8
0
  6
Continuous
 62
     7
370
    25
100
AcDbLine
 10
232.8272188532
 20
40.9970906891
 30
0.0
 11
234.6075118436
 21
39.8513194266
 31
0.0
  0
LINE
  5
298
330
1F
100
AcDbEntity
  8
0
  6
Continuous
 62
     7
370
    25
100
AcDbLine
 10
236.4376029457
 20
40.8731386899
 30
0.0
 11
236.3496039232
 21
40.9806298265
 31
0.0
  0
LINE
  5
299
330
1F
100
AcDbEntity
  8
0
  6
Continuous
 62
     7
370
    25
100
AcDbLine
 10
234.5211953347
 20
41.9750024964
 30
0.0
 11
232.8272188532
 21
40.9970906891
 31
0.0
  0
LINE
  5
29A
330
1F
100
AcDbEntity
  8
0
  6
Continuous
 62
     7
370
    25
100
AcDbLine
 10
234.6638893603
 20
41.9537101356
 30
0.0
 11
234.5216156488
 21
41.9745147516
 31
0.0
  0
LINE
  5
29B
330
1F
100
AcDbEntity
  8
0
  6
Continuous
 62
     7
370
    25
100
AcDbLine
 10
236.3496769286
 20
40.9805256873
 30
0.0
 11
234.6638893603
 21
41.9537101356
 31
0.0
  0
LINE
  5
29C
330
1F
100
AcDbEntity
  8
0
  6
Continuous
 62
     7
370
    25
100
AcDbLine
 10
236.4376029457
 20
40.9297613464
 30
0.0
 11
236.3496304716
 21
40.9805524877
 31
0.0
  0
SPLINE
  5
29D
330
1F
100
AcDbEntity
  8
0
  6
Continuous
 62
     7
370
    25
100
AcDbSpline
210
0.0
220
0.0
230
1.0
 70
     8
 71
     3
 72
    19
 73
    15
 74
     0
 42
0.000000001
 43
0.00000001
 40
0.0
 40
0.0
 40
0.0
 40
0.0
 40
0.0637852801523487
 40
0.1289627947928742
 40
0.1955871357727518
 40
0.2637094157112479
 40
0.3333774494312574
 40
0.4046359392583752
 40
0.477526660464624
 40
0.5520886439445272
 40
0.6283583539150506
 40
0.7063698590296017
 40
0.8377040422924708
 40
1.0
 40
1.0
 40
1.0
 40
1.0
 10
231.9656958190155
 20
41.0976945382554
 30
0.0
 10
231.9863851880206
 20
41.08433539824509
 30
0.0
 10
232.0282155106754
 20
41.05732552970418
 30
0.0
 10
232.0887064842701
 20
41.01980356417766
 30
0.0
 10
232.1481906824494
 20
40.98428382308699
 30
0.0
 10
232.2062718419211
 20
40.95130369417049
 30
0.0
 10
232.2628039590083
 20
40.92109725790011
 30
0.0
 10
232.317549013762
 20
40.89398381793878
 30
0.0
 10
232.3702713913549
 20
40.87025220018803
 30
0.0
 10
232.4207130242834
 20
40.85021194674625
 30
0.0
 10
232.4685959427586
 20
40.83409208519677
 30
0.0
 10
232.5235601229415
 20
40.81981410885037
 30
0.0
 10
232.5863914866721
 20
40.8096755477689
 30
0.0
 10
232.6248990298328
 20
40.81614982715839
 30
0.0
 10
232.6461830117007
 20
40.81972830643341
 30
0.0
  0
LINE
  5
29E
330
1F
100
AcDbEntity
  8
0
  6
Continuous
 62
     7
370
    25
100
AcDbLine
 10
232.6708189427
 20
40.8457984536
 30
0.0
 11
232.7384934323
 21
40.9174127112
 31
0.0
  0
SPLINE
  5
29F
330
1F
100
AcDbEntity
  8
0
  6
Continuous
 62
     7
370
    25
100
AcDbSpline
210
0.0
220
0.0
230
1.0
 70
     8
 71
     3
 72
     9
 73
     5
 74
     0
 42
0.000000001
 43
0.00000001
 40
0.0
 40
0.0
 40
0.0
 40
0.0
 40
0.523202776288562
 40
0.9999999999999999
 40
0.9999999999999999
 40
0.9999999999999999
 40
0.9999999999999999
 10
234.3550179805209
 20
41.87907035179055
 30
0.0
 10
234.2859936675272
 20
41.90411251086478
 30
0.0
 10
234.1540671638429
 20
41.9519757107734
 30
0.0
 10
233.9126300114884
 20
42.0895739077033
 30
0.0
 10
233.797513447545
 20
42.15518034598719
 30
0.0
  0
LINE
  5
2A0
330
1F
100
AcDbEntity
  8
0
  6
Continuous
 62
     7
370
    25
100
AcDbLine
 10
230.0680123244
 20
41.9210698128
 30
0.0
 11
230.5194824941
 21
42.0333343465
 31
0.0
  0
LINE
  5
2A1
330
1F
100
AcDbEntity
  8
0
  6
Continuous
 62
     7
370
    25
100
AcDbLine
 10
230.5194824941
 20
42.0333343464
 30
0.0
 11
231.965695819
 21
41.0976945383
 31
0.0
  0
SPLINE
  5
2A2
330
1F
100
AcDbEntity
  8
0
  6
Continuous
 62
     7
370
    25
100
AcDbSpline
210
0.0
220
0.0
230
1.0
 70
     8
 71
     3
 72
     8
 73
     4
 74
     0
 42
0.000000001
 43
0.00000001
 40
0.0
 40
0.0
 40
0.0
 40
0.0
 40
1.0
 40
1.0
 40
1.0
 40
1.0
 10
230.2388002030323
 20
41.52632034047209
 30
0.0
 10
230.1816749341082
 20
41.65810652426773
 30
0.0
 10
230.1247464423906
 20
41.78969074592852
 30
0.0
 10
230.0680123244412
 20
41.92106981282987
 30
0.0
  0
LINE
  5
2A3
330
1F
100
AcDbEntity
  8
0
  6
Continuous
 62
     7
370
    25
100
AcDbLine
 10
231.8571837046
 20
42.8055728177
 30
0.0
 11
230.5194824941
 21
42.0333343464
 31
0.0
  0
LINE
  5
2A4
330
1F
100
AcDbEntity
  8
0
  6
Continuous
 62
     7
370
    25
100
AcDbLine
 10
232.8402125014
 20
42.7078192843
 30
0.0
 11
231.8571832308
 21
42.8055728653
 31
0.0
  0
LINE
  5
2A5
330
1F
100
AcDbEntity
  8
0
  6
Continuous
 62
     7
370
    25
100
AcDbLine
 10
233.7975134475
 20
42.155180346
 30
0.0
 11
232.8402117519
 21
42.7078188516
 31
0.0
  0
SPLINE
  5
2A6
330
1F
100
AcDbEntity
  8
0
  6
Continuous
 62
     7
370
    25
100
AcDbSpline
210
0.0
220
0.0
230
1.0
 70
     8
 71
     3
 72
     8
 73
     4
 74
     0
 42
0.000000001
 43
0.00000001
 40
0.0
 40
0.0
 40
0.0
 40
0.0
 40
1.0
 40
1.0
 40
1.0
 40
1.0
 10
230.0680123244434
 20
41.92106981282476
 30
0.0
 10
230.0648749866933
 20
41.95628611969727
 30
0.0
 10
230.0628825827953
 20
41.99193037592497
 30
0.0
 10
230.0621011854233
 20
42.02802727791985
 30
0.0
  0
LINE
  5
2A7
330
1F
100
AcDbEntity
  8
0
  6
Continuous
 62
     7
370
    25
100
AcDbLine
 10
230.8731867179
 20
42.4962569893
 30
0.0
 11
230.0621011854
 21
42.0280272779
 31
0.0
  0
SPLINE
  5
2A8
330
1F
100
AcDbEntity
  8
0
  6
Continuous
 62
     7
370
    25
100
AcDbSpline
210
0.0
220
0.0
230
1.0
 70
     8
 71
     3
 72
     8
 73
     4
 74
     0
 42
0.000000001
 43
0.00000001
 40
0.0000004089325119
 40
0.0000004089325119
 40
0.0000004089325119
 40
0.0000004089325119
 40
0.0015399868451459
 40
0.0015399868451459
 40
0.0015399868451459
 40
0.0015399868451459
 10
230.873186717912
 20
42.49625698927596
 30
0.0
 10
231.1116632859353
 20
42.59063337509232
 30
0.0
 10
231.350110243604
 20
42.68506198702253
 30
0.0
 10
231.5885189824543
 20
42.77955536998498
 30
0.0
  0
LINE
  5
2A9
330
1F
100
AcDbEntity
  8
0
  6
Continuous
 62
     7
370
    25
100
AcDbLine
 10
231.5885189825
 20
42.77955537
 30
0.0
 11
231.6129152132
 21
42.7845492998
 31
0.0
  0
LINE
  5
2AA
330
1F
100
AcDbEntity
  8
0
  6
Continuous
 62
     7
370
    25
100
AcDbLine
 10
231.8571834971
 20
42.8055727992
 30
0.0
 11
231.6129157549
 21
42.7845496924
 31
0.0
  0
SPLINE
  5
2AB
330
1F
100
AcDbEntity
  8
0
  6
Continuous
 62
     7
370
    25
100
AcDbSpline
210
0.0
220
0.0
230
1.0
 70
     8
 71
     3
 72
     8
 73
     4
 74
     0
 42
0.000000001
 43
0.00000001
 40
0.0
 40
0.0
 40
0.0
 40
0.0
 40
1.0
 40
1.0
 40
1.0
 40
1.0
 10
232.8402108969623
 20
42.70781936257195
 30
0.0
 10
232.8708189310856
 20
42.69287935476583
 30
0.0
 10
232.9013704320575
 20
42.67800239737246
 30
0.0
 10
232.931864370172
 20
42.66318883369154
 30
0.0
  0
ARC
  5
2AC
330
1F
100
AcDbEntity
  8
0
  6
Continuous
 62
     7
370
    25
100
AcDbCircle
 10
233.6957285899
 20
48.2084437864
 30
0.0
 40
6.625581341064073
100
AcDbArc
 50
283.7327672817
 51
294.8489934469
  0
LWPOLYLINE
  5
2AD
330
1F
100
AcDbEntity
  8
0
  6
Continuous
 62
     7
370
    18
100
AcDbPolyline
 90
       27
 70
   128
 43
0.0
 10
264.9173321242
 20
26.2816803741
 10
264.9551742909
 20
27.1373477721
 10
265.0682861842
 20
28.0273319347
 10
265.2554285266
 20
28.9418820091
 10
265.5145509474
 20
29.8709779934
 10
265.8428144472
 20
30.8044405175
 10
266.2366225023
 20
31.7320423707
 10
266.6916604693
 20
32.6436205528
 10
267.202942857
 20
33.5291876228
 10
267.7648679485
 20
34.3790411223
 10
268.3712791751
 20
35.1838698786
 10
269.0155325683
 20
35.9348560194
 10
269.6905695532
 20
36.6237715834
 10
270.3889942833
 20
37.2430686676
 10
271.1031546711
 20
37.7859621234
 10
271.825226226
 20
38.2465038966
 10
272.5472977809
 20
38.6196481952
 10
273.2614581687
 20
38.901306772
 10
273.9598828988
 20
39.0883937169
 10
274.6349198837
 20
39.178859266
 10
275.2791732769
 20
39.1717122599
 10
275.8855845034
 20
39.0670310027
 10
276.447509595
 20
38.8659624042
 10
276.9587919827
 20
38.5707094139
 10
277.4138299497
 20
38.1845068855
 10
277.8076380048
 20
37.7115861346
 10
278.047118475
 20
37.3269920426
  0
LWPOLYLINE
  5
2AE
330
1F
100
AcDbEntity
  8
0
  6
Continuous
 62
     7
370
    18
100
AcDbPolyline
 90
       12
 70
   128
 43
0.0
 10
268.8250614346
 20
21.3521897953
 10
268.3712791751
 20
21.367333251
 10
267.7648679485
 20
21.4720145082
 10
267.202942857
 20
21.6730831068
 10
266.6916604693
 20
21.968336097
 10
266.2366225023
 20
22.3545386255
 10
265.8428144472
 20
22.8274593763
 10
265.5145509474
 20
23.3819169309
 10
265.2554285266
 20
24.0118365363
 10
265.0682861842
 20
24.7103166614
 10
264.9551742909
 20
25.4697046117
 10
264.9173321242
 20
26.2816803741
  0
LWPOLYLINE
  5
2AF
330
1F
100
AcDbEntity
  8
0
  6
Continuous
 62
     7
370
    18
100
AcDbPolyline
 90
       58
 70
   128
 43
0.0
 10
265.9664590487
 20
26.4159493213
 10
266.0044957229
 20
27.2340307437
 10
266.1181440317
 20
28.0860979751
 10
266.3060244387
 20
28.9618080735
 10
266.5658563302
 20
29.8505311046
 10
266.8944856991
 20
30.7414791747
 10
267.2879234299
 20
31.6238373811
 10
267.7413937216
 20
32.4868950905
 10
268.2493920591
 20
33.3201759514
 10
268.8057520307
 20
34.1135650629
 10
269.4037201802
 20
34.857431756
 10
270.0360379841
 20
35.5427464968
 10
270.6950299609
 20
36.1611904925
 10
271.3726968407
 20
36.7052566709
 10
272.0608126655
 20
37.1683408056
 10
272.7510246414
 20
37.5448216824
 10
273.43495453
 20
37.8301293336
 10
274.1043003489
 20
38.0208005107
 10
274.7509371466
 20
38.114520724
 10
275.3670156283
 20
38.110152337
 10
275.9450574359
 20
38.0077483759
 10
276.4780459247
 20
37.8085518863
 10
276.9595113366
 20
37.5149808435
 10
277.3836093337
 20
37.1305988025
 10
277.7451919408
 20
36.6600716404
 10
278.0398700348
 20
36.1091109197
 10
278.2640666229
 20
35.4844045571
 10
278.4150602622
 20
34.7935356416
 10
278.4910180944
 20
34.0448903859
 10
278.4910180944
 20
33.2475563295
 10
278.4150602622
 20
32.4112120275
 10
278.2640666229
 20
31.5460095669
 10
278.0398700348
 20
30.6624513335
 10
277.7451919408
 20
29.7712625273
 10
277.3836093337
 20
28.8832609733
 10
276.9595113366
 20
28.0092258074
 10
276.4780459247
 20
27.1597666325
 10
275.9450574359
 20
26.3451947322
 10
275.3670156283
 20
25.575397906
 10
274.7509371466
 20
24.8597204446
 10
274.1043003489
 20
24.2068497029
 10
273.43495453
 20
23.6247106472
 10
272.7510246414
 20
23.1203696572
 10
272.0608126655
 20
22.6999487492
 10
271.3726968407
 20
22.3685512635
 10
270.6950299609
 20
22.1301999168
 10
270.0360379841
 20
21.9877879714
 10
269.4037201802
 20
21.9430441155
 10
268.8057520307
 20
21.9965114788
 10
268.2493920591
 20
22.1475410401
 10
267.7413937216
 20
22.3942995049
 10
267.2879234299
 20
22.73379156
 10
266.8944856991
 20
23.1618962314
 10
266.5658563302
 20
23.6734169086
 10
266.3060244387
 20
24.2621444233
 10
266.1181440317
 20
24.9209324211
 10
266.0044957229
 20
25.6417841081
 10
265.9664590487
 20
26.4159493213
  0
LWPOLYLINE
  5
2B0
330
1F
100
AcDbEntity
  8
0
  6
Continuous
 62
     7
370
    18
100
AcDbPolyline
 90
       10
 70
   128
 43
0.0
 10
249.9596331611
 20
33.0953636074
 10
249.99691764
 20
32.1993423043
 10
250.1084434194
 20
31.3542430116
 10
250.2932304067
 20
30.5674924924
 10
250.5496546872
 20
29.8460047384
 10
250.8754627951
 20
29.1961202101
 10
251.2677915171
 20
28.6235501161
 10
251.7231930543
 20
28.1333262228
 10
252.2376653215
 20
27.7297566355
 10
252.4111237758
 20
27.6212417977
  0
LWPOLYLINE
  5
2B1
330
1F
100
AcDbEntity
  8
0
  6
Continuous
 62
     7
370
    18
100
AcDbPolyline
 90
       27
 70
   128
 43
0.0
 10
264.4444269311
 20
48.3863986269
 10
264.3741697457
 20
48.4260183964
 10
263.7797201119
 20
48.6932033662
 10
263.1383880149
 20
48.8663617024
 10
262.4558095042
 20
48.9439716834
 10
261.7379831043
 20
48.9253512697
 10
260.9912170994
 20
48.8106640983
 10
260.222074096
 20
48.6009180443
 10
259.4373133505
 20
48.2979563633
 10
258.6438313685
 20
47.9044414936
 10
257.8486012982
 20
47.4238316581
 10
257.0586116501
 20
46.8603504731
 10
256.2808048816
 20
46.2189498317
 10
255.5220163866
 20
45.5052663858
 10
254.7889144255
 20
44.725572011
 10
254.0879415249
 20
43.8867186897
 10
253.4252578598
 20
42.996078295
 10
252.806687118
 20
42.0614778066
 10
252.2376653215
 20
41.0911305273
 10
251.7231930543
 20
40.0935639039
 10
251.2677915171
 20
39.0775445877
 10
250.8754627951
 20
38.052001393
 10
250.5496546872
 20
37.0259468302
 10
250.2932304067
 20
36.0083979038
 10
250.1084434194
 20
35.0082968704
 10
249.99691764
 20
34.0344326537
 10
249.9596331611
 20
33.0953636074
  0
LWPOLYLINE
  5
2B2
330
1F
100
AcDbEntity
  8
0
  6
Continuous
 62
     7
370
    18
100
AcDbPolyline
 90
       12
 70
   128
 43
0.0
 10
272.7668686798
 20
34.0883682654
 10
273.1047682779
 20
34.1979958684
 10
273.5785334825
 20
34.2750048193
 10
274.0207721664
 20
34.2526043018
 10
274.4211186299
 20
34.1313193651
 10
274.770189091
 20
33.9139928252
 10
275.0598016342
 20
33.6057186321
 10
275.2831679867
 20
33.2137224716
 10
275.4350526307
 20
32.7471924015
 10
275.5118955187
 20
32.2170634911
 10
275.5118955187
 20
31.6357615128
 10
275.4820025605
 20
31.3220859669
  0
LWPOLYLINE
  5
2B3
330
1F
100
AcDbEntity
  8
0
  6
Continuous
 62
     7
370
    18
100
AcDbPolyline
 90
       13
 70
   128
 43
0.0
 10
272.8680050172
 20
26.6745797022
 10
272.6105812077
 20
26.4796563289
 10
272.1075555978
 20
26.1670003706
 10
271.6074819421
 20
25.9449796961
 10
271.1220815435
 20
25.8187982819
 10
270.6627317757
 20
25.7914137135
 10
270.240199408
 20
25.8634678618
 10
269.864388241
 20
26.0332718387
 10
269.5441069699
 20
26.2968455829
 10
269.2868627163
 20
26.6480111493
 10
269.0986850674
 20
27.0785375146
 10
268.9839847479
 20
27.5783335057
 10
268.9657131527
 20
27.7265024113
  0
LWPOLYLINE
  5
2B4
330
1F
100
AcDbEntity
  8
0
  6
Continuous
 62
     7
370
    18
100
AcDbPolyline
 90
       34
 70
   128
 43
0.0
 10
247.8383128175
 20
33.0953636074
 10
247.8756677852
 20
34.0911686632
 10
247.9874403352
 20
35.1223093219
 10
248.1727556955
 20
36.1807155099
 10
248.4301635224
 20
37.2581037637
 10
248.7576492505
 20
38.3460420595
 10
249.15264986
 20
39.4360158049
 10
249.6120739355
 20
40.5194944777
 10
250.1323258608
 20
41.587998388
 10
250.7093339592
 20
42.6331650442
 10
251.3385823599
 20
43.6468146001
 10
252.0151463411
 20
44.6210138734
 10
252.7337308723
 20
45.5481384341
 10
253.4887120552
 20
46.4209322754
 10
254.2741811384
 20
47.232564602
 10
255.0839907614
 20
47.9766832907
 10
255.9118030659
 20
48.6474646038
 10
256.7511392982
 20
49.2396587679
 10
257.5954305144
 20
49.7486310609
 10
258.4380689908
 20
50.1703980845
 10
259.272459939
 20
50.5016589397
 10
260.0920731184
 20
50.7398210614
 10
260.8904939446
 20
50.883020508
 10
261.6614736922
 20
50.9301365497
 10
262.3989783993
 20
50.8808004395
 10
263.0972360915
 20
50.7353982995
 10
263.7507819559
 20
50.4950680984
 10
264.3545011097
 20
50.161690746
 10
264.9036686322
 20
49.7378753721
 10
265.3939865428
 20
49.2269389066
 10
265.8216174391
 20
48.6328801201
 10
266.1832145295
 20
47.9603483281
 10
266.4759478265
 20
47.2146070036
 10
266.4763472636
 20
47.2133959871
  0
LWPOLYLINE
  5
2B5
330
1F
100
AcDbEntity
  8
0
  6
Continuous
 62
     7
370
    18
100
AcDbPolyline
 90
       16
 70
   128
 43
0.0
 10
254.477322472
 20
26.4282232899
 10
254.2741811384
 20
26.3888580093
 10
253.4887120552
 20
26.2936070361
 10
252.7337308723
 20
26.2947181579
 10
252.0151463411
 20
26.3921826787
 10
251.3385823599
 20
26.5852378065
 10
250.7093339592
 20
26.8723726231
 10
250.1323258608
 20
27.2513399094
 10
249.6120739355
 20
27.7191737324
 10
249.15264986
 20
28.2722126583
 10
248.7576492505
 20
28.9061284075
 10
248.4301635224
 20
29.6159597298
 10
248.1727556955
 20
30.3961512327
 10
247.9874403352
 20
31.2405968599
 10
247.8756677852
 20
32.1426876794
 10
247.8383128175
 20
33.0953636074
  0
LWPOLYLINE
  5
2B6
330
1F
100
AcDbEntity
  8
0
  6
Continuous
 62
     7
370
    18
100
AcDbPolyline
 90
       15
 70
   128
 43
0.0
 10
275.2987930731
 20
32.225781916
 10
275.3000747032
 20
32.2078673155
 10
275.3000747032
 20
31.645317014
 10
275.2257106179
 20
31.0464300909
 10
275.0787254786
 20
30.4252439483
 10
274.8625644923
 20
29.7963186628
 10
274.5822942893
 20
29.17439571
 10
274.2444841656
 20
28.5740524368
 10
273.8570521041
 20
28.0093603807
 10
273.4290791842
 20
27.493555445
 10
272.9705967282
 20
27.03872766
 10
272.4923511763
 20
26.6555378037
 10
272.005552199
 20
26.3529675214
 10
271.5216099516
 20
26.1381088042
 10
271.191739123
 20
26.0429241841
  0
LWPOLYLINE
  5
2B7
330
1F
100
AcDbEntity
  8
0
  6
Continuous
 62
     7
370
    18
100
AcDbPolyline
 90
       30
 70
   128
 43
0.0
 10
239.9629110421
 20
35.81502313
 10
240.0009191214
 20
36.8981350009
 10
240.1146837258
 20
38.0177313138
 10
240.3034277275
 20
39.1661640906
 10
240.5658618137
 20
40.335588371
 10
240.9001932935
 20
41.5180158014
 10
241.3041383438
 20
42.7053692034
 10
241.7749376104
 20
43.8895377494
 10
242.3093750569
 20
45.0624323674
 10
242.9037999335
 20
46.2160409979
 10
243.5541517158
 20
47.3424833242
 10
244.2559878415
 20
48.4340646031
 10
245.0045140582
 20
49.4833282275
 10
245.7946171729
 20
50.4831066629
 10
246.6208999802
 20
51.426570409
 10
247.4777181307
 20
52.3072746515
 10
248.3592186875
 20
53.1192032876
 10
249.2593801081
 20
53.8568100214
 10
250.1720533772
 20
54.5150562509
 10
251.091004011
 20
55.0894454869
 10
252.0099546447
 20
55.5760540686
 10
252.9226279138
 20
55.9715579659
 10
253.8227893344
 20
56.2732554862
 10
254.7042898912
 20
56.4790857294
 10
255.5611080417
 20
56.5876426663
 10
256.387390849
 20
56.598184743
 10
257.1774939637
 20
56.5106399464
 10
257.9260201805
 20
56.3256062962
 10
258.6278563062
 20
56.0443477599
 10
258.9591145384
 20
55.8685784316
  0
LWPOLYLINE
  5
2B8
330
1F
100
AcDbEntity
  8
0
  6
Continuous
 62
     7
370
    18
100
AcDbPolyline
 90
       11
 70
   128
 43
0.0
 10
243.2228934835
 20
28.6096904881
 10
242.9037999335
 20
28.8094833013
 10
242.3093750569
 20
29.2767835777
 10
241.7749376104
 20
29.8326298543
 10
241.3041383438
 20
30.4732251373
 10
240.9001932935
 20
31.1941935115
 10
240.5658618137
 20
31.9906100318
 10
240.3034277275
 20
32.8570343658
 10
240.1146837258
 20
33.7875479568
 10
240.0009191214
 20
34.7757944534
 10
239.9629110421
 20
35.81502313
  0
LWPOLYLINE
  5
2B9
330
1F
100
AcDbEntity
  8
0
  6
Continuous
 62
     7
370
    18
100
AcDbPolyline
 90
       15
 70
   128
 43
0.0
 10
244.5869921436
 20
32.4793864037
 10
244.5797517036
 20
32.5142117589
 10
244.4371673825
 20
33.4181377079
 10
244.370166431
 20
34.3763487839
 10
244.3792669774
 20
35.3814349986
 10
244.464398646
 20
36.425623871
 10
244.6249031008
 20
37.5008405336
 10
244.8595391371
 20
38.5987701764
 10
245.1664922796
 20
39.7109223466
 10
245.5433888141
 20
40.8286966062
 10
245.9873141437
 20
41.9434490411
 10
246.494835328
 20
43.0465591052
 10
247.0620276304
 20
44.1294962847
 10
247.6845048685
 20
45.1838860657
 10
248.3574533335
 20
46.2015746954
  0
LWPOLYLINE
  5
2BA
330
1F
100
AcDbEntity
  8
0
  6
Continuous
 62
     7
370
    18
100
AcDbPolyline
 90
       19
 70
   128
 43
0.0
 10
245.098788218
 20
29.5494588549
 10
244.9500077853
 20
29.7612315263
 10
244.5516696008
 20
30.4473272138
 10
244.2238112252
 20
31.2106343401
 10
243.968915752
 20
32.045371863
 10
243.7889136774
 20
32.9452177497
 10
243.685168279
 20
33.9033568575
 10
243.6584652912
 20
34.9125325496
 10
243.7090069536
 20
35.9651016546
 10
243.8364104801
 20
37.0530923535
 10
244.0397109574
 20
38.1682645553
 10
244.3173686533
 20
39.3021723053
 10
244.6672806777
 20
40.4462277517
 10
245.08679691
 20
41.5917661874
 10
245.5727400693
 20
42.7301116735
 10
246.1214297787
 20
43.8526427482
 10
246.7287104394
 20
44.950857723
 10
247.3899827034
 20
46.0164390717
 10
248.1002383076
 20
47.0413164247
  0
ARC
  5
2BB
330
1F
100
AcDbEntity
  8
0
  6
Continuous
 62
     7
370
    18
100
AcDbCircle
 10
261.3281530608
 20
39.0491765297
 30
0.0
 40
14.59972786471486
100
AcDbArc
 50
110.186167714
 51
139.1704721415
  0
LWPOLYLINE
  5
2BC
330
1F
100
AcDbEntity
  8
0
  6
Continuous
 62
     7
370
    18
100
AcDbPolyline
 90
       13
 70
   128
 43
0.0
 10
249.4444315484
 20
48.7134800373
 10
250.2723412976
 20
49.5993554048
 10
251.1281714228
 20
50.4154744216
 10
252.0052570298
 20
51.1554814492
 10
252.8967676942
 20
51.8136135815
 10
253.7957606549
 20
52.3847455243
 10
254.6952348808
 20
52.8644295096
 10
255.5881855934
 20
53.2489299325
 10
256.4676588168
 20
53.5352524434
 10
257.3268055326
 20
53.7211672664
 10
258.1589350184
 20
53.8052265646
 10
258.9575669517
 20
53.7867757145
 10
259.0833951658
 20
53.7741334064
  0
LINE
  5
2BD
330
1F
100
AcDbEntity
  8
0
  6
Continuous
 62
     7
370
    18
100
AcDbLine
 10
235.4765465336
 20
46.1876308334
 30
0.0
 11
235.7827106571
 21
45.8168955637
 31
0.0
  0
LINE
  5
2BE
330
1F
100
AcDbEntity
  8
0
  6
Continuous
 62
     7
370
    18
100
AcDbLine
 10
235.4765465336
 20
38.4235204421
 30
0.0
 11
235.7827106571
 21
39.1110541461
 31
0.0
  0
LINE
  5
2BF
330
1F
100
AcDbEntity
  8
0
  6
Continuous
 62
     7
370
    18
100
AcDbLine
 10
236.5186208109
 20
39.5358860351
 30
0.0
 11
235.7827179832
 21
39.1110583754
 31
0.0
  0
LINE
  5
2C0
330
1F
100
AcDbEntity
  8
0
  6
Continuous
 62
     7
370
    18
100
AcDbLine
 10
236.4520454357
 20
40.2791119282
 30
0.0
 11
235.1427744618
 21
39.5232858832
 31
0.0
  0
LINE
  5
2C1
330
1F
100
AcDbEntity
  8
0
  6
Continuous
 62
     7
370
    18
100
AcDbLine
 10
231.965695819
 20
41.0976945383
 30
0.0
 11
231.6692083162
 21
40.6016329307
 31
0.0
  0
LINE
  5
2C2
330
1F
100
AcDbEntity
  8
0
  6
Continuous
 62
     7
370
    18
100
AcDbLine
 10
233.7975134475
 20
42.155180346
 30
0.0
 11
231.9657560685
 21
41.0977293195
 31
0.0
  0
LINE
  5
2C3
330
1F
100
AcDbEntity
  8
0
  6
Continuous
 62
     7
370
    18
100
AcDbLine
 10
233.7975134475
 20
42.155180346
 30
0.0
 11
233.9188234092
 21
42.0934295081
 31
0.0
  0
OLE2FRAME
  5
2C4
330
1F
100
AcDbEntity
  8
0
100
AcDbOle2Frame
 70
     2
  3
Paintbrush-Bild
 10
13.8511154363
 20
38.264191557
 30
0.0
 11
51.6290888628
 21
31.9806341108
 31
0.0
 71
     2
 72
     0
 73
     1
 90
    12928
310
80552BED0767C5B32B40DDAF6807D121434000000000000000006FFBDDFB85D0
310
4940DDAF6807D121434000000000000000006FFBDDFB85D04940416F4BD60AFB
310
3F4000000000000000002BED0767C5B32B40416F4BD60AFB3F40000000000000
310
0000000000000100000000010000010000000100000000000100000000320000
310
D0CF11E0A1B11AE1000000000000000000000000000000003E000300FEFF0900
310
0600000000000000000000000100000001000000000000000010000002000000
310
01000000FEFFFFFF0000000000000000FFFFFFFFFFFFFFFFFFFFFFFFFFFFFFFF
310
FFFFFFFFFFFFFFFFFFFFFFFFFFFFFFFFFFFFFFFFFFFFFFFFFFFFFFFFFFFFFFFF
310
FFFFFFFFFFFFFFFFFFFFFFFFFFFFFFFFFFFFFFFFFFFFFFFFFFFFFFFFFFFFFFFF
310
FFFFFFFFFFFFFFFFFFFFFFFFFFFFFFFFFFFFFFFFFFFFFFFFFFFFFFFFFFFFFFFF
310
FFFFFFFFFFFFFFFFFFFFFFFFFFFFFFFFFFFFFFFFFFFFFFFFFFFFFFFFFFFFFFFF
310
FFFFFFFFFFFFFFFFFFFFFFFFFFFFFFFFFFFFFFFFFFFFFFFFFFFFFFFFFFFFFFFF
310
FFFFFFFFFFFFFFFFFFFFFFFFFFFFFFFFFFFFFFFFFFFFFFFFFFFFFFFFFFFFFFFF
310
FFFFFFFFFFFFFFFFFFFFFFFFFFFFFFFFFFFFFFFFFFFFFFFFFFFFFFFFFFFFFFFF
310
FFFFFFFFFFFFFFFFFFFFFFFFFFFFFFFFFFFFFFFFFFFFFFFFFFFFFFFFFFFFFFFF
310
FFFFFFFFFFFFFFFFFFFFFFFFFFFFFFFFFFFFFFFFFFFFFFFFFFFFFFFFFFFFFFFF
310
FFFFFFFFFFFFFFFFFFFFFFFFFFFFFFFFFFFFFFFFFFFFFFFFFFFFFFFFFFFFFFFF
310
FFFFFFFFFFFFFFFFFFFFFFFFFFFFFFFFFFFFFFFFFFFFFFFFFFFFFFFFFFFFFFFF
310
FFFFFFFFFFFFFFFFFFFFFFFFFFFFFFFFFFFFFFFFFFFFFFFFFFFFFFFFFFFFFFFF
310
FFFFFFFFFFFFFFFFFFFFFFFFFFFFFFFFFFFFFFFFFFFFFFFFFFFFFFFFFFFFFFFF
310
FDFFFFFFFEFFFFFFFEFFFFFFFEFFFFFF05000000060000000700000008000000
310
090000000A0000000B0000000C0000000D0000000E0000000F00000010000000
310
11000000120000001300000014000000150000001600000017000000FEFFFFFF
310
FFFFFFFFFFFFFFFFFFFFFFFFFFFFFFFFFFFFFFFFFFFFFFFFFFFFFFFFFFFFFFFF
310
FFFFFFFFFFFFFFFFFFFFFFFFFFFFFFFFFFFFFFFFFFFFFFFFFFFFFFFFFFFFFFFF
310
FFFFFFFFFFFFFFFFFFFFFFFFFFFFFFFFFFFFFFFFFFFFFFFFFFFFFFFFFFFFFFFF
310
FFFFFFFFFFFFFFFFFFFFFFFFFFFFFFFFFFFFFFFFFFFFFFFFFFFFFFFFFFFFFFFF
310
FFFFFFFFFFFFFFFFFFFFFFFFFFFFFFFFFFFFFFFFFFFFFFFFFFFFFFFFFFFFFFFF
310
FFFFFFFFFFFFFFFFFFFFFFFFFFFFFFFFFFFFFFFFFFFFFFFFFFFFFFFFFFFFFFFF
310
FFFFFFFFFFFFFFFFFFFFFFFFFFFFFFFFFFFFFFFFFFFFFFFFFFFFFFFFFFFFFFFF
310
FFFFFFFFFFFFFFFFFFFFFFFFFFFFFFFFFFFFFFFFFFFFFFFFFFFFFFFFFFFFFFFF
310
FFFFFFFFFFFFFFFFFFFFFFFFFFFFFFFFFFFFFFFFFFFFFFFFFFFFFFFFFFFFFFFF
310
FFFFFFFFFFFFFFFFFFFFFFFFFFFFFFFFFFFFFFFFFFFFFFFFFFFFFFFFFFFFFFFF
310
FFFFFFFFFFFFFFFFFFFFFFFFFFFFFFFFFFFFFFFFFFFFFFFFFFFFFFFFFFFFFFFF
310
FFFFFFFFFFFFFFFFFFFFFFFFFFFFFFFFFFFFFFFFFFFFFFFFFFFFFFFFFFFFFFFF
310
FFFFFFFFFFFFFFFFFFFFFFFFFFFFFFFFFFFFFFFFFFFFFFFFFFFFFFFFFFFFFFFF
310
52006F006F007400200045006E00740072007900000000000000000000000000
310
0000000000000000000000000000000000000000000000000000000000000000
310
16000500FFFFFFFFFFFFFFFF020000000A00030000000000C000000000000046
310
000000000000000000000000B0B4F82C08A7D30103000000C000000000000000
310
01004F006C006500000000000000000000000000000000000000000000000000
310
0000000000000000000000000000000000000000000000000000000000000000
310
0A000200FFFFFFFFFFFFFFFFFFFFFFFF00000000000000000000000000000000
310
0000000000000000000000000000000000000000000000001400000000000000
310
010043006F006D0070004F0062006A0000000000000000000000000000000000
310
0000000000000000000000000000000000000000000000000000000000000000
310
120002010100000003000000FFFFFFFF00000000000000000000000000000000
310
0000000000000000000000000000000000000000010000004D00000000000000
310
01004F006C006500310030004E00610074006900760065000000000000000000
310
0000000000000000000000000000000000000000000000000000000000000000
310
1A000200FFFFFFFFFFFFFFFFFFFFFFFF00000000000000000000000000000000
310
0000000000000000000000000000000000000000040000002426000000000000
310
FEFFFFFF02000000FEFFFFFFFFFFFFFFFFFFFFFFFFFFFFFFFFFFFFFFFFFFFFFF
310
FFFFFFFFFFFFFFFFFFFFFFFFFFFFFFFFFFFFFFFFFFFFFFFFFFFFFFFFFFFFFFFF
310
FFFFFFFFFFFFFFFFFFFFFFFFFFFFFFFFFFFFFFFFFFFFFFFFFFFFFFFFFFFFFFFF
310
FFFFFFFFFFFFFFFFFFFFFFFFFFFFFFFFFFFFFFFFFFFFFFFFFFFFFFFFFFFFFFFF
310
FFFFFFFFFFFFFFFFFFFFFFFFFFFFFFFFFFFFFFFFFFFFFFFFFFFFFFFFFFFFFFFF
310
FFFFFFFFFFFFFFFFFFFFFFFFFFFFFFFFFFFFFFFFFFFFFFFFFFFFFFFFFFFFFFFF
310
FFFFFFFFFFFFFFFFFFFFFFFFFFFFFFFFFFFFFFFFFFFFFFFFFFFFFFFFFFFFFFFF
310
FFFFFFFFFFFFFFFFFFFFFFFFFFFFFFFFFFFFFFFFFFFFFFFFFFFFFFFFFFFFFFFF
310
FFFFFFFFFFFFFFFFFFFFFFFFFFFFFFFFFFFFFFFFFFFFFFFFFFFFFFFFFFFFFFFF
310
FFFFFFFFFFFFFFFFFFFFFFFFFFFFFFFFFFFFFFFFFFFFFFFFFFFFFFFFFFFFFFFF
310
FFFFFFFFFFFFFFFFFFFFFFFFFFFFFFFFFFFFFFFFFFFFFFFFFFFFFFFFFFFFFFFF
310
FFFFFFFFFFFFFFFFFFFFFFFFFFFFFFFFFFFFFFFFFFFFFFFFFFFFFFFFFFFFFFFF
310
FFFFFFFFFFFFFFFFFFFFFFFFFFFFFFFFFFFFFFFFFFFFFFFFFFFFFFFFFFFFFFFF
310
FFFFFFFFFFFFFFFFFFFFFFFFFFFFFFFFFFFFFFFFFFFFFFFFFFFFFFFFFFFFFFFF
310
FFFFFFFFFFFFFFFFFFFFFFFFFFFFFFFFFFFFFFFFFFFFFFFFFFFFFFFFFFFFFFFF
310
FFFFFFFFFFFFFFFFFFFFFFFFFFFFFFFFFFFFFFFFFFFFFFFFFFFFFFFFFFFFFFFF
310
0100000200000000000000000000000000000000000000000000000000000000
310
0000000000000000000000000000000000000000000000000000000000000000
310
0100FEFF030A0000FFFFFFFF0A00030000000000C00000000000004607000000
310
5042727573680007000000504272757368000700000050427275736800F439B2
310
7100000000000000000000000000000000000000000000000000000000000000
310
0000000000000000000000000000000000000000000000000000000000000000
310
0000000000000000000000000000000000000000000000000000000000000000
310
0000000000000000000000000000000000000000000000000000000000000000
310
0000000000000000000000000000000000000000000000000000000000000000
310
0000000000000000000000000000000000000000000000000000000000000000
310
0000000000000000000000000000000000000000000000000000000000000000
310
0000000000000000000000000000000000000000000000000000000000000000
310
0000000000000000000000000000000000000000000000000000000000000000
310
0000000000000000000000000000000000000000000000000000000000000000
310
0000000000000000000000000000000000000000000000000000000000000000
310
0000000000000000000000000000000000000000000000000000000000000000
310
20260000424D0E260000000000003E00000028000000B40200006E0000000100
310
01000000000000000000130B0000130B00000200000002000000000000FFFFFF
310
FFFFFFFFFFFFFFFFFFFFFFFFFFFFFFFFFFFFFFFFFFFFFFFFFFFFFFFFFFFFFFFF
310
FFFFFFFFFFFFFFFFFFFFFFFFFFFFFFFFFFFFFFFFFFFFFFFFFFFFFFFFFFFFFFFF
310
FFFFFFFFFFFFFFFFFFFFFFFFFFFFFFFFFFFFFFFFFFFFFFFFF000FFFFFFFFFFFF
310
FFFFFFFFFFFFFFFFFFFFFFFFFFFFFFFFFFFFFFFFFFFFFFFFFFFFFFFFFFFFFFFF
310
FFFFFFFFFFFFFFFFFFFFFFFFFFFFFFFFFFFFFFFFFFFFFFFFFFFFFFFFFFFFFFFF
310
FFFFFFFFFFFFFFFFFFFFFFFFFFFFFFFFF000FFFFFFFFFFFFFFFFFFFFFFFFFFFF
310
FFFFFFFFFFFFFFFFFFFFFFFFFFFFFFFFFFFFFFFFFFFFFFFFFFFFFFFFFFFFFFFF
310
FFFFFFFFFFFFFFFFFFFFFFFFFFFFFFFFFFFFFFFFFFFFFFFFFFFFFFFFFFFFFFFF
310
FFFFFFFFFFFFFFFFF000FFFFFFFFFFFFFFFFFFFFFFFFFFFFFFFFFFFFFFFFFFFF
310
FFFFFFFFFFFFFFFFFFFFFFFFFFFFFFFFFFFFFFFFFFFFFFFFFFFFFFFFFFFFFFFF
310
FFFFFFFFFFFFFFFFFFFFFFFFFFFFFFFFFFFFFFFFFFFFFFFFFFFFFFFFFFFFFFFF
310
F000FFFFFFFFFFFFFFFFFFFFFFFFFFFFFFFFFFFFFFFFFFFFFFFFFFFFFFFFFFFF
310
FFFFFFFFFFFFFFFFFFFFFFFFFFFFFFFFFFFFFFFFFFFFFFFFFFFFFFFFFFFFFFFF
310
FFFFFFFFFFFFFFFFFFFFFFFFFFFFFFFFFFFFFFFFFFFFFFFFF000FFFFFFFFFFFF
310
FFFFFFFFFFFFFFFFFFFFFFFFFFFFFFFFFFFFFFFFFFFFFFFFFFFFFFFFFFFFFFFF
310
FFFFFFFFFFFFFFFFFFFFFFFFFFFFFFFFFFFFFFFFFFFFFFFFFFFFFFFFFFFFFFFF
310
FFFFFFFFFFFFFFFFFFFFFFFFFFFFFFFFF000FFFFFFFFFFFFFFFFFFFFFFFFFFFF
310
FFFFFFFFFFFFFFFFFFFFFFFFFFFFFFFFFFFFFFFFFFFFFFFFFFFFFFFFFFFFFFFF
310
FFFFFFFFFFFFFFFFFFFFFFFFFFFFFFFFFFFFFFFFFFFFFFFFFFFFFFFFFFFFFFFF
310
FFFFFFFFFFFFFFFFF000FFFFFFFFFFFFFFFFFFFFFFFFFFFFFFFFFFFFFFFFFFFF
310
FFFFFFFFFFFFFFFFFFFFFFFFFFFFFFFFFFFFFFFFFFFFFFFFFFFFFFFFFFFFFFFF
310
FFFFFFFFFFFFFFFFFFFFFFFFFFFFFFFFFFFFFFFFFFFFFFFFFFFFFFFFFFFFFFFF
310
F000FFFFFFFFFFFFFFFFFFFFFFFFFFFFFFFFFFFFFFFFFFFFFFFFFFFFFFFFFFFF
310
FFFFFFFFFFFFFFFFFFFFFFFFFFFFFFFFFFFFFFFFFFFFFFFFFFFFFFFFFFFFFFFF
310
FFFFFFFFFFFFFFFFFFFFFFFFFFFFFFFFFFFFFFFFFFFFFFFFF000FFFFFFFFFFFF
310
FFFFFFFFFFFFFFFFFFFFFFFFFFFFFFFFFFFFFFFFFFFFFFFFFFFFFFFFFFFFFFFF
310
FFFFFFFFFFFFFFFFFFFFFFFFFFFFFFFFFFFFFFFFFFFFFFFFFFFFFFFFFFFFFFFF
310
FFFFFFFFFFFFFFFFFFFFFFFFFFFFFFFFF000FFFFFFFFFFFFFFFFFFFFFFFFFFFF
310
FFFFFFFFFFFFFFFFFFFFFFFFFFFFFFFFFFFFFFFFFFFFFFFFFFFFFFFFFFFFFFFF
310
FFFFFFFFFFFFFFFFFFFFFFFFFFFFFFFFFFFFFFFFFFFFFFFFFFFFFFFFFFFFFFFF
310
FFFFFFFFFFFFFFFFF000FFFFFFFFFFFFFFFFFFFFFFFFFFFFFFFFFFFFFFFFFFFF
310
FFFFFFFFFFFFFFFFFFFFFFFFFFFFFFFFFFFFFFFFFFFFFFFFFFFFFFFFFFFFFFFF
310
FFFFFFFFFFFFFFFFFFFFFFFFFFFFFFFFFFFFFFFFFFFFFFFFFFFFFFFFFFFFFFFF
310
F000FFFFFFFFFFFFFFFFFFFFFFFFFFFFFFFFFFFFFFFFFFFFFFFFFFFFFFFFFFFF
310
FFFFFFFFFFFFFFFFFFFFFFFFFFFFFFFFFFFFFFFFFFFFFFFFFFFFFFFFFFFFFFFF
310
FFFFFFFFFFFFFFFFFFFFFFFFFFFFFFFFFFFFFFFFFFFFFFFFF000FFFFFFFFFFFF
310
FFFFFFFFFFFFFFFFFFFFFFFFFFFFFFFFFFFFFFFFFFFFFFFFFFFFFFFFFFFFFFFF
310
FFFFFFFFFFFFFFFFFFFFFFFFFFFFFFFFFFFFFFFFFFFFFFFFFFFFFFFFFFFFFFFF
310
FFFFFFFFFFFFFFFFFFFFFFFFFFFFFFFFF000FFFFFFFFFFFFFFFFFFFFFFFFFFFF
310
FFFFFFFFFFFFFFFFFFFFFFFFFFFFFFFFFFFFFFFFFFFFFFFFFFFFFFFFFFFFFFFF
310
FFFFFFFFFFFFFFFFFFFFFFFFFFFFFFFFFFFFFFFFFFFFFFFFFFFFFFFFFFFFFFFF
310
FFFFFFFFFFFFFFFFF000FFFFFFFFFFFFFFFFFFFFFFFFFFFFFFFFFFFFFFFFFFFF
310
FFFFFFFFFFFFFFFFFFFFFFFFFFFFFFFFFFFFFFFFFFFFFFFFFFFFFFFFFFFFFFFF
310
FFFFFFFFFFFFFFFFFFFFFFFFFFFFFFFFFFFFFFFFFFFFFFFFFFFFFFFFFFFFFFFF
310
F000FFFFFFFFFFFFFFFFFFFFFFFFFFFFFFFFFFFFFFFFFFFFFFFFFFFFFFFFFFFF
310
FFFFFFFFFFFFFFFFFFFFFFFFFFFFFFFFFFFFFFFFFFFFFFFFFFFFFFFFFFFFFFFF
310
FFFFFFFFFFFFFFFFFFFFFFFFFFFFFFFFFFFFFFFFFFFFFFFFF000FFFFFFFFFFFF
310
FFFFFFFFFFFFFFFFFFFFFFFFFFFFFFFFFFFFFFFFFFFFFFFFFFFFFFFFFFFFFFFF
310
FFFFFFFFFFFFFFFFFFFFFFFFFFFFFFFFFFFFFFFFFFFFFFFFFFFFFFFFFFFFFFFF
310
FFFFFFFFFFFFFFFFFFFFFFFFFFFFFFFFF000FFFFFFFFFFFFFFFFFFFFFFFFFFFF
310
FFFFFFFFFFFFFFFFFFFFFFFFFFFFFFFFFFFFFFFFFFFFFFFFFFFFFFFFFFFFFFFF
310
FFFFFFFFFFFFFFFFFFFFFFFFFFFFFFFFFFFFFFFFFFFFFFFFFFFFFFFFFFFFFFFF
310
FFFFFFFFFFFFFFFFF000FFFFF80003FFFFFFFFFFFFFFFFFFFFFFFFFFFFFFFFFF
310
FFFFF00007FFFFFFFFFF00007FFFFFF800000000000000007FFFFFFFFFFFFFFF
310
FFFFFFFC001FFFFFFFFFFFFFFC001FFFFFFFFFFFFFFFFFFFFFFFFFFE0007FFFF
310
F000FFFF8000007FFFFFFFF8000FFFFFC0007FFFFF80007FFFFF0000007FFFFF
310
FFF8000007FFFFF800000000000000007FFFFFF0001FFFFFFFFFFFC00001FFFF
310
FFFFFFFFC00001FFFFFFFF000000000003FFFFE000007FFFF000FFFE0000000F
310
FFFFFFF0000FFFFF80007FFFFF80007FFFFC0000001FFFFFFFC0000001FFFFF8
310
00000000000000007FFFFFF0001FFFFFFFFFFE0000003FFFFFFFFFFE0000003F
310
FFFFFF000000000003FFFF0000000FFFF000FFF800000003FFFFFFF00007FFFF
310
80007FFFFF80007FFFF000000007FFFFFF000000003FFFF80000000000000000
310
7FFFFFF0001FFFFFFFFFF80000000FFFFFFFFFF80000000FFFFFFF0000000000
310
03FFFC00000003FFF000FFE000000000FFFFFFF00007FFFF80003FFFFF80007F
310
FFC000000001FFFFFC000000001FFFF800000000000000007FFFFFF0001FFFFF
310
FFFFE000000003FFFFFFFFE000000003FFFFFF000000000003FFF000000000FF
310
F000FF80000000007FFFFFF00007FFFF80003FFFFF80007FFF8000000000FFFF
310
F80000000007FFF800000000000000007FFFFFF0001FFFFFFFFFC000000001FF
310
FFFFFFC000000001FFFFFF000000000003FFC0000000007FF000FF0000000000
310
3FFFFFE00007FFFF00003FFFFF80007FFE00000000003FFFF00000000003FFF8
310
00000000000000007FFFFFF0001FFFFFFFFF8000000000FFFFFFFF8000000000
310
FFFFFF000000000003FF80000000003FF000FE00000000001FFFFFE00003FFFF
310
00003FFFFF80007FFC00000000001FFFE00000000001FFF8000001FFFE000000
310
7FFFFFF0001FFFFFFFFE00000000003FFFFFFE00000000003FFFFF0000000000
310
03FF00000000001FF000FC00000000000FFFFFE00003FFFF00001FFFFF80007F
310
F800000000001FFFC00000000000FFF8000001FFFE0000007FFFFFF0001FFFFF
310
FFFC00000000001FFFFFFC00000000001FFFFF000000000003FE00000000000F
310
F000F8000000000007FFFFE00003FFFF00001FFFFF80007FF800000000000FFF
310
800000000000FFF8000001FFFE0000007FFFFFF0001FFFFFFFF800000000000F
310
FFFFF800000000000FFFFF000000000003FC000000000007F000F80000000000
310
03FFFFC00003FFFE00001FFFFF80007FF0000000000007FF0000000000007FF8
310
000001FFFE0000007FFFFFF0001FFFFFFFF0000000000007FFFFF00000000000
310
07FFFF000000000003F8000000000003F000F0000000000003FFFFC00001FFFE
310
00001FFFFF80007FE0000000000007FE0000000000003FF8000001FFFE000000
310
7FFFFFF0001FFFFFFFF0000000000007FFFFF0000000000007FFFF0000000000
310
03F800001F800003F000E00001FFF00001FFFFC00001FFFE00000FFFFF80007F
310
E00001FFE00003FE00001FFF00003FF8000001FFFE0000007FFFFFF0001FFFFF
310
FFE000003E000003FFFFE000003E000003FFFF000000000003F00001FFF80001
310
F000E00007FFFC0001FFFFC00001FFFE00000FFFFF80007FC0000FFFFC0003FC
310
0000FFFFC0001FF8000001FFFE0000007FFFFFF0001FFFFFFFC00003FFE00001
310
FFFFC00003FFE00001FFFF0001FFFFFFFFF00007FFFE0001F000E0000FFFFF00
310
00FFFF800001FFFC00000FFFFF80007FC0001FFFFE0001FC0001FFFFE0001FF8
310
000001FFFE0000007FFFFFF0001FFFFFFF80000FFFF80000FFFF80000FFFF800
310
00FFFF0003FFFFFFFFE0000FFFFF8000F000C0003FFFFF8000FFFF800000FFFC
310
000007FFFF80007F80003FFFFF0001FC0003FFFFF0001FF8000001FFFE000000
310
7FFFFFF0001FFFFFFF80003FFFFE0000FFFF80003FFFFE0000FFFF0003FFFFFF
310
FFE0003FFFFF8000F000C0003FFFFF8000FFFF800000FFFC000007FFFF80007F
310
80007FFFFF8001F80007FFFFF8000FF8000001FFFE0000007FFFFFF0001FFFFF
310
FF00007FFFFF00007FFF00007FFFFF00007FFF0003FFFFFFFFE0003FFFFFC000
310
F000C0007FFFFFC000FFFF000000FFFC000007FFFF80007F8000FFFFFF8000F8
310
000FFFFFF8000FF8000001FFFE0000007FFFFFF0001FFFFFFF0000FFFFFF8000
310
7FFF0000FFFFFF80007FFF0003FFFFFFFFC0007FFFFFC00070008000FFFFFFC0
310
00FFFF000000FFF8000007FFFF80007F8000FFFFFF8000F8000FFFFFF8000FF8
310
000001FFFE0000007FFFFFF0001FFFFFFE0001FFFFFFC0003FFE0001FFFFFFC0
310
003FFF0003FFFFFFFFC0007FFFFFE00070008000FFFFFFC0007FFF0000007FF8
310
000003FFFF80007F0001FFFFFF8000F8000FFFFFF8000FF8000001FFFE000000
310
7FFFFFF0001FFFFFFE0001FFFFFFC0003FFE0001FFFFFFC0003FFF0003FFFFFF
310
FFC000FFFFFFE00070008000FFFFFFC0007FFF0000007FF8000003FFFF80007F
310
0001FFFFFF8000F8001FFFFFF8000FF8000001FFFE0000007FFFFFF0001FFFFF
310
FE0003FFFFFFE0003FFE0003FFFFFFE0003FFF0003FFFFFFFFC000FFFFFFE000
310
70008000FFFFFFC0007FFE0000007FF8000003FFFF80007F0001FFFFFF8000F0
310
001FFFFFF8000FF8000001FFFE0000007FFFFFF0001FFFFFFC0003FFFFFFE000
310
1FFC0003FFFFFFE0001FFF0003FFFFFFFFC000FFFFFFC00070008000FFFFFF80
310
007FFE0000007FF0000003FFFF80007F0001FFFFFF0000F0001FFFFFF8000FF8
310
000001FFFE0000007FFFFFF0001FFFFFFC0007FFFFFFF0001FFC0007FFFFFFF0
310
001FFF0003FFFFFFFFC000FFFFFFC00070008001FFFFFF0000FFFE0000003FF0
310
000001FFFF80007F0001FFFFFF0000F8001FFFFFF0000FF8000001FFFE000000
310
7FFFFFF0001FFFFFFC0007FFFFFFF0001FFC0007FFFFFFF0001FFF0003FFFFFF
310
FFC001FFFFFF80007000FFFFFFFFFE0000FFFE0008003FF0008001FFFF80007F
310
FFFFFFFFFC0000FFFFFFFFFFE0000FF8000001FFFE0000007FFFFFF0001FFFFF
310
F8000FFFFFFFF8000FF8000FFFFFFFF8000FFF0003FFFFFFFFFFFFFFFFFF0000
310
7000FFFFFFFFFC0000FFFC0008003FF0008001FFFF80007FFFFFFFFFF80001FF
310
FFFFFFFF80000FF8000001FFFE0000007FFFFFF0001FFFFFF8000FFFFFFFF800
310
0FF8000FFFFFFFF8000FFF0003FFFFFFFFFFFFFFFFFE0000F000FFFFFFFFE000
310
00FFFC000C003FE000C001FFFF80007FFFFFFFFFC00001FFFFFFFFFE00001FF8
310
000001FFFE0000007FFFFFF0001FFFFFF8000FFFFFFFF8000FF8000FFFFFFFF8
310
000FFF0003FFFFFFFFFFFFFFFFF00000F000FFFFFFFE000001FFFC000C001FE0
310
00C000FFFF80007FFFFFFFFE000001FFFFFFFFE000001FF80FFFFFFFFFFFFFC0
310
7FFFFFF0001FFFFFF8000FFFFFFFF8000FF8000FFFFFFFF8000FFF0003FFFFFF
310
FFFFFFFFFF800000F000FFFFFFC0000001FFFC001C001FE001C000FFFF80007F
310
FFFFFF80000003FFFFFFF80000001FF80FFFFFFFFFFFFFC07FFFFFF0001FFFFF
310
F8001FFFFFFFFC000FF8001FFFFFFFFC000FFF0003FFFFFFFFFFFFFFF0000001
310
F000FFFFF800000001FFF8001C001FE001C000FFFF80007FFFFFF800000003FF
310
FFFF800000003FF80FFFFFFFFFFFFFC07FFFFFF0001FFFFFF8001FFFFFFFFC00
310
0FF8001FFFFFFFFC000FFF0003FFFFFFFFFFFFFE00000001F000FFFFC0000000
310
03FFF8001E001FC001E000FFFF80007FFFFF8000000007FFFFFC000000003FF8
310
0FFFFFFFFFFFFFC07FFFFFF0001FFFFFF8001FFFFFFFFC000FF8001FFFFFFFFC
310
000FFF0003FFFFFFFFFFFFE000000003F000FFFE0000000007FFF8001E000FC0
310
01E0007FFF80007FFFFE0000000007FFFFE0000000007FF80FFFFFFFFFFFFFC0
310
7FFFFFF0001FFFFFF0001FFFFFFFFC0007F0001FFFFFFFFC0007FF0003FFFFFF
310
FFFFFF0000000003F000FFF80000000007FFF8001E000FC003E0007FFF80007F
310
FFF0000000000FFFFF8000000000FFF80FFFFFFFFFFFFFC07FFFFFF0001FFFFF
310
F0001FFFFFFFFC0007F0001FFFFFFFFC0007FF0003FFFFFFFFFFFC0000000007
310
F000FFE0000000000FFFF0003E000FC003E0007FFF80007FFFC0000000001FFF
310
FE0000000001FFF80FFFFFFFFFFFFFC07FFFFFF0001FFFFFF0001FFFFFFFFC00
310
07F0001FFFFFFFFC0007FF0003FFFFFFFFFFF0000000000FF000FFC000000000
310
1FFFF0003F000F8003F0003FFF80007FFF80000000003FFFF80000000003FFF8
310
0FFFFFFFFFFFFFC07FFFFFF0001FFFFFF0001FFFFFFFFC0007F0001FFFFFFFFC
310
0007FF0003FFFFFFFFFFE0000000001FF000FF00000000007FFFF0003F000780
310
03F0003FFF80007FFF00000000007FFFF00000000007FFF80FFFFFFFFFFFFFC0
310
7FFFFFF0001FFFFFF0001FFFFFFFFC0007F0001FFFFFFFFC0007FF0003FFFFFF
310
FFFF80000000007FF000FE0000000000FFFFE0003F00078007F0003FFF80007F
310
FE0000000001FFFFE0000000001FFFF80FFFFFFFFFFFFFC07FFFFFF0001FFFFF
310
F0001FFFFFFFFC0007F0001FFFFFFFFC0007FF0003FFFFFFFFFF0000000000FF
310
F000FC0000000003FFFFE0007F00078007F0003FFF80007FFC0000000007FFFF
310
C0000000007FFFF80FFFFFFFFFFFFFC07FFFFFF0001FFFFFF8001FFFFFFFFC00
310
0FF8001FFFFFFFFC000FFF0003FFFFFFFFFE0000000003FFF000FC000000000F
310
FFFFE0007F80070007F8001FFF80007FF8000000001FFFFF8000000001FFFFF8
310
0FFFFFFFFFFFFFC07FFFFFF0001FFFFFF8001FFFFFFFFC000FF8001FFFFFFFFC
310
000FFF0003FFFFFFFFFC000000000FFFF000F8000000007FFFFFE0007F800700
310
07F8001FFF80007FF000000000FFFFFF800000000FFFFFF80FFFFFFFFFFFFFC0
310
7FFFFFF0001FFFFFF8000FFFFFFFF8000FF8000FFFFFFFF8000FFF0003FFFFFF
310
FFFC000000007FFFF000F800000007FFFFFFC0007F8003000FF8001FFF80007F
310
F000000007FFFFFF000000007FFFFFF80FFFFFFFFFFFFFC07FFFFFF0001FFFFF
310
F8000FFFFFFFF8000FF8000FFFFFFFF8000FFF0003FFFFFFFFF80000000FFFFF
310
F000F0000000FFFFFFFFC000FF8003000FF8001FFF80007FE0000000FFFFFFFF
310
0000000FFFFFFFF8000001FFFE0000007FFFFFF0001FFFFFF8000FFFFFFFF800
310
0FF8000FFFFFFFF8000FFF0003FFFFFFFFF8000000FFFFFFF000F000000FFFFF
310
FFFFC000FFC002000FF8000FFF80007FE000001FFFFFFFFE000001FFFFFFFFF8
310
000001FFFE0000007FFFFFF0001FFFFFF8000FFFFFFFF8000FF8000FFFFFFFF8
310
000FFF0003FFFFFFFFF000001FFFFFFFF000E00000FFFFFFFFFFC000FFC00200
310
0FFC000FFF80007FE00001FFFFFFFFFE00001FFFFFFFFFF8000001FFFE000000
310
7FFFFFF0001FFFFFFC000FFFFFFFF8001FFC000FFFFFFFF8001FFF0003FFFFFF
310
FFF00001FFFFFFFFF000E00007FFFFFFFFFF8000FFC000001FFC000FFF80007F
310
C0000FFFFFFFFFFE0000FFFFFFFFFFF8000001FFFE0000007FFFFFF0001FFFFF
310
FC0007FFFFFFF0001FFC0007FFFFFFF0001FFF0003FFFFFFFFF00007FFFFFFFF
310
F000E0001FFFFFFFFFFF8000FFC000001FFC000FFF80007FC0003FFFFFFFFFFE
310
0001FFFFFFFFFFF8000001FFFE0000007FFFFFF0001FFFFFFC0007FFFFFFF000
310
1FFC0007FFFFFFF0001FFF0003FFFFFFFFF0001FFFFFFFFFF000E0003FFFFF00
310
03FF8001FFE000001FFC0007FF80007FC0007FFFFF0007FC0003FFFFF0003FF8
310
000001FFFE0000007FFFFFF0001FFFFFFC0003FFFFFFE0001FFC0003FFFFFFE0
310
001FFF0003FFFFFFFFF0003FFFFFFFFFF000E0003FFFFF0001FF8001FFE00000
310
1FFE0007FF80007FC0007FFFFE0003FC0007FFFFE0003FF8000001FFFE000000
310
7FFFFFF0001FFFFFFE0003FFFFFFE0003FFE0003FFFFFFE0003FFF0003FFFFFF
310
FFF0003FFFFF8001F000E0003FFFFF0001FF0001FFE000001FFE0007FF80007F
310
C0007FFFFE0003FC0007FFFFE0003FF8000001FFFE0000007FFFFFF0001FFFFF
310
FE0001FFFFFFC0003FFE0001FFFFFFC0003FFF0003FFFFFFFFF0003FFFFF0001
310
F000E0003FFFFF0003FF0001FFE000003FFE0007FF80007FC0007FFFFE0003FC
310
0007FFFFE0003FF8000001FFFE0000007FFFFFF0001FFFFFFF0001FFFFFFC000
310
7FFF0001FFFFFFC0007FFF0003FFFFFFFFF0003FFFFF0001F000E0003FFFFE00
310
03FF0003FFF000003FFE0003FF80007FC0007FFFFC0003FE0007FFFFE0003FF8
310
000001FFFE0000007FFFFFF0001FFFFFFF0000FFFFFF80007FFF0000FFFFFF80
310
007FFF0003FFFFFFFFF0003FFFFF0001F000E0003FFFFE0003FF0003FFF00000
310
3FFF0003FF80007FC0007FFFFC0007FE0007FFFFC0003FF8000001FFFE000000
310
7FFFFFF0001FFFFFFF80007FFFFF0000FFFF80007FFFFF0000FFFF0003FFFFFF
310
FFF0003FFFFF0003F000E0003FFFFC0003FE0003FFF000003FFF0003FF80007F
310
E0003FFFF80007FE0003FFFFC0007FF8000001FFFE0000007FFFFFF0001FFFFF
310
FF80003FFFFE0000FFFF80003FFFFE0000FFFF0003FFFFFFFFF0001FFFFE0003
310
F000F0001FFFF80003FE0003FFF000007FFF0001FF80007FE0003FFFF00007FE
310
0001FFFF80007FF8000001FFFE0000007FFFFFF0001FFFFFFFC0000FFFF80001
310
FFFFC0000FFFF80001FFFF0003FFFFFFFFF0001FFFFC0003F000F0000FFFF000
310
07FE0007FFF800007FFF0001FF80007FE0001FFFE00007FF0000FFFE00007FF8
310
000001FFFE0000007FFFFFF0001FFFFFFFC00003FFE00001FFFFC00003FFE000
310
01FFFF0003FFFFFFFFF8000FFFF80003F000F00003FFC00007FC0007FFF80000
310
7FFF8001FF80007FF00007FF80000FFF00007FF80000FFF8000001FFFE000000
310
7F80000000000001FFE000003E000003FFFFE000003E000003FFFF0003FFFFFF
310
FFF80003FFE00007F000F800000000000FFC0007FFF800007FFF8001FF80007F
310
F000000000000FFF000000000000FFF8000001FFFE0000007F80000000000001
310
FFF0000000000007FFFFF0000000000007FFFF0003FFFFFFFFFC00007E000007
310
F000F800000000000FFC0007FFF80000FFFF8000FF80007FF800000000001FFF
310
800000000001FFF8000001FFFE0000007F80000000000001FFF800000000000F
310
FFFFF800000000000FFFFF0003FFFFFFFFFC00000000000FF000FC0000000000
310
1FFC0007FFFC0000FFFF8000FF80007FF800000000003FFFC00000000001FFF8
310
000001FFFE0000007F80000000000001FFF800000000000FFFFFF80000000000
310
0FFFFF0003FFFFFFFFFE00000000001FF000FE00000000003FF8000FFFFC0000
310
FFFF8000FF80007FFC00000000003FFFC00000000003FFF8000001FFFE000000
310
7F80000000000001FFFC00000000001FFFFFFC00000000001FFFFF0003FFFFFF
310
FFFF00000000001FF000FF00000000003FF8000FFFFC0000FFFFC000FF80007F
310
FE00000000007FFFE00000000007FFF8000001FFFE0000007F80000000000001
310
FFFE00000000003FFFFFFE00000000003FFFFF0003FFFFFFFFFF80000000003F
310
F000FF80000000007FF8000FFFFC0001FFFFC0007F80007FFF0000000000FFFF
310
F0000000000FFFF800000000000000007F80000000000001FFFF8000000000FF
310
FFFFFF8000000000FFFFFF0003FFFFFFFFFFC0000000007FF000FFC000000000
310
FFF8000FFFFE0001FFFFC0007F80007FFF8000000001FFFFF8000000001FFFF8
310
00000000000000007F80000000000001FFFFC000000001FFFFFFFFC000000001
310
FFFFFF0003FFFFFFFFFFE000000000FFF000FFE000000003FFF0001FFFFE0001
310
FFFFC0007F80007FFFC000000007FFFFFE000000003FFFF80000000000000000
310
7F80000000000001FFFFE000000003FFFFFFFFE000000003FFFFFF0003FFFFFF
310
FFFFF000000003FFF000FFF80000000FFFF0001FFFFE0001FFFFE0007F80007F
310
FFF00000000FFFFFFF00000000FFFFF800000000000000007F80000000000001
310
FFFFF80000000FFFFFFFFFF80000000FFFFFFF0003FFFFFFFFFFFC0000000FFF
310
F000FFFE0000003FFFF0001FFFFE0003FFFFE0003F80007FFFFC0000003FFFFF
310
FFC0000003FFFFF800000000000000007F80000000000001FFFFFE0000003FFF
310
FFFFFFFE0000003FFFFFFF0003FFFFFFFFFFFF0000003FFFF000FFFF800000FF
310
FFF0001FFFFF0003FFFFE0003F80007FFFFF000001FFFFFFFFF800001FFFFFF8
310
00000000000000007F80000000000001FFFFFFC00001FFFFFFFFFFFFC00001FF
310
FFFFFF0003FFFFFFFFFFFFC00000FFFFF000FFFFF8000FFFFFFFFFFFFFFFFFFF
310
FFFFFFFFFFFFFFFFFFFFF0001FFFFFFFFFFF0000FFFFFFF80000000000000000
310
7FFFFFFFFFFFFFFFFFFFFFFC001FFFFFFFFFFFFFFC001FFFFFFFFFFFFFFFFFFF
310
FFFFFFFC001FFFFFF000FFFFFFFFFFFFFFFFFFFFFFFFFFFFFFFFFFFFFFFFFFFF
310
FFFFFFFFFFFFFFFFFFFFFFFFFFFFFFFFFFFFFFFFFFFFFFFFFFFFFFFFFFFFFFFF
310
FFFFFFFFFFFFFFFFFFFFFFFFFFFFFFFFFFFFFFFFFFFFFFFFFFFFFFFFFFFFFFFF
310
F000FFFFFFFFFFFFFFFFFFFFFFFFFFFFFFFFFFFFFFFFFFFFFFFFFFFFFFFFFFFF
310
FFFFFFFFFFFFFFFFFFFFFFFFFFFFFFFFFFFFFFFFFFFFFFFFFFFFFFFFFFFFFFFF
310
FFFFFFFFFFFFFFFFFFFFFFFFFFFFFFFFFFFFFFFFFFFFFFFFF000FFFFFFFFFFFF
310
FFFFFFFFFFFFFFFFFFFFFFFFFFFFFFFFFFFFFFFFFFFFFFFFFFFFFFFFFFFFFFFF
310
FFFFFFFFFFFFFFFFFFFFFFFFFFFFFFFFFFFFFFFFFFFFFFFFFFFFFFFFFFFFFFFF
310
FFFFFFFFFFFFFFFFFFFFFFFFFFFFFFFFF000FFFFFFFFFFFFFFFFFFFFFFFFFFFF
310
FFFFFFFFFFFFFFFFFFFFFFFFFFFFFFFFFFFFFFFFFFFFFFFFFFFFFFFFFFFFFFFF
310
FFFFFFFFFFFFFFFFFFFFFFFFFFFFFFFFFFFFFFFFFFFFFFFFFFFFFFFFFFFFFFFF
310
FFFFFFFFFFFFFFFFF000FFFFFFFFFFFFFFFFFFFFFFFFFFFFFFFFFFFFFFFFFFFF
310
FFFFFFFFFFFFFFFFFFFFFFFFFFFFFFFFFFFFFFFFFFFFFFFFFFFFFFFFFFFFFFFF
310
FFFFFFFFFFFFFFFFFFFFFFFFFFFFFFFFFFFFFFFFFFFFFFFFFFFFFFFFFFFFFFFF
310
F000FFFFFFFFFFFFFFFFFFFFFFFFFFFFFFFFFFFFFFFFFFFFFFFFFFFFFFFFFFFF
310
FFFFFFFFFFFFFFFFFFFFFFFFFFFFFFFFFFFFFFFFFFFFFFFFFFFFFFFFFFFFFFFF
310
FFFFFFFFFFFFFFFFFFFFFFFFFFFFFFFFFFFFFFFFFFFFFFFFF000FFFFFFFFFFFF
310
FFFFFFFFFFFFFFFFFFFFFFFFFFFFFFFFFFFFFFFFFFFFFFFFFFFFFFFFFFFFFFFF
310
FFFFFFFFFFFFFFFFFFFFFFFFFFFFFFFFFFFFFFFFFFFFFFFFFFFFFFFFFFFFFFFF
310
FFFFFFFFFFFFFFFFFFFFFFFFFFFFFFFFF000FFFFFFFFFFFFFFFFFFFFFFFFFFFF
310
FFFFFFFFFFFFFFFFFFFFFFFFFFFFFFFFFFFFFFFFFFFFFFFFFFFFFFFFFFFFFFFF
310
FFFFFFFFFFFFFFFFFFFFFFFFFFFFFFFFFFFFFFFFFFFFFFFFFFFFFFFFFFFFFFFF
310
FFFFFFFFFFFFFFFFF000FFFFFFFFFFFFFFFFFFFFFFFFFFFFFFFFFFFFFFFFFFFF
310
FFFFFFFFFFFFFFFFFFFFFFFFFFFFFFFFFFFFFFFFFFFFFFFFFFFFFFFFFFFFFFFF
310
FFFFFFFFFFFFFFFFFFFFFFFFFFFFFFFFFFFFFFFFFFFFFFFFFFFFFFFFFFFFFFFF
310
F000FFFFFFFFFFFFFFFFFFFFFFFFFFFFFFFFFFFFFFFFFFFFFFFFFFFFFFFFFFFF
310
FFFFFFFFFFFFFFFFFFFFFFFFFFFFFFFFFFFFFFFFFFFFFFFFFFFFFFFFFFFFFFFF
310
FFFFFFFFFFFFFFFFFFFFFFFFFFFFFFFFFFFFFFFFFFFFFFFFF000FFFFFFFFFFFF
310
FFFFFFFFFFFFFFFFFFFFFFFFFFFFFFFFFFFFFFFFFFFFFFFFFFFFFFFFFFFFFFFF
310
FFFFFFFFFFFFFFFFFFFFFFFFFFFFFFFFFFFFFFFFFFFFFFFFFFFFFFFFFFFFFFFF
310
FFFFFFFFFFFFFFFFFFFFFFFFFFFFFFFFF000FFFFFFFFFFFFFFFFFFFFFFFFFFFF
310
FFFFFFFFFFFFFFFFFFFFFFFFFFFFFFFFFFFFFFFFFFFFFFFFFFFFFFFFFFFFFFFF
310
FFFFFFFFFFFFFFFFFFFFFFFFFFFFFFFFFFFFFFFFFFFFFFFFFFFFFFFFFFFFFFFF
310
FFFFFFFFFFFFFFFFF000FFFFFFFFFFFFFFFFFFFFFFFFFFFFFFFFFFFFFFFFFFFF
310
FFFFFFFFFFFFFFFFFFFFFFFFFFFFFFFFFFFFFFFFFFFFFFFFFFFFFFFFFFFFFFFF
310
FFFFFFFFFFFFFFFFFFFFFFFFFFFFFFFFFFFFFFFFFFFFFFFFFFFFFFFFFFFFFFFF
310
F000FFFFFFFFFFFFFFFFFFFFFFFFFFFFFFFFFFFFFFFFFFFFFFFFFFFFFFFFFFFF
310
FFFFFFFFFFFFFFFFFFFFFFFFFFFFFFFFFFFFFFFFFFFFFFFFFFFFFFFFFFFFFFFF
310
FFFFFFFFFFFFFFFFFFFFFFFFFFFFFFFFFFFFFFFFFFFFFFFFF000FFFFFFFFFFFF
310
FFFFFFFFFFFFFFFFFFFFFFFFFFFFFFFFFFFFFFFFFFFFFFFFFFFFFFFFFFFFFFFF
310
FFFFFFFFFFFFFFFFFFFFFFFFFFFFFFFFFFFFFFFFFFFFFFFFFFFFFFFFFFFFFFFF
310
FFFFFFFFFFFFFFFFFFFFFFFFFFFFFFFFF000FFFFFFFFFFFFFFFFFFFFFFFFFFFF
310
FFFFFFFFFFFFFFFFFFFFFFFFFFFFFFFFFFFFFFFFFFFFFFFFFFFFFFFFFFFFFFFF
310
FFFFFFFFFFFFFFFFFFFFFFFFFFFFFFFFFFFFFFFFFFFFFFFFFFFFFFFFFFFFFFFF
310
FFFFFFFFFFFFFFFFF000FFFFFFFFFFFFFFFFFFFFFFFFFFFFFFFFFFFFFFFFFFFF
310
FFFFFFFFFFFFFFFFFFFFFFFFFFFFFFFFFFFFFFFFFFFFFFFFFFFFFFFFFFFFFFFF
310
FFFFFFFFFFFFFFFFFFFFFFFFFFFFFFFFFFFFFFFFFFFFFFFFFFFFFFFFFFFFFFFF
310
F000FFFFFFFFFFFFFFFFFFFFFFFFFFFFFFFFFFFFFFFFFFFFFFFFFFFFFFFFFFFF
310
FFFFFFFFFFFFFFFFFFFFFFFFFFFFFFFFFFFFFFFFFFFFFFFFFFFFFFFFFFFFFFFF
310
FFFFFFFFFFFFFFFFFFFFFFFFFFFFFFFFFFFFFFFFFFFFFFFFF000FFFFFFFFFFFF
310
FFFFFFFFFFFFFFFFFFFFFFFFFFFFFFFFFFFFFFFFFFFFFFFFFFFFFFFFFFFFFFFF
310
FFFFFFFFFFFFFFFFFFFFFFFFFFFFFFFFFFFFFFFFFFFFFFFFFFFFFFFFFFFFFFFF
310
FFFFFFFFFFFFFFFFFFFFFFFFFFFFFFFFF000FFFFFFFFFFFFFFFFFFFFFFFFFFFF
310
FFFFFFFFFFFFFFFFFFFFFFFFFFFFFFFFFFFFFFFFFFFFFFFFFFFFFFFFFFFFFFFF
310
FFFFFFFFFFFFFFFFFFFFFFFFFFFFFFFFFFFFFFFFFFFFFFFFFFFFFFFFFFFFFFFF
310
FFFFFFFFFFFFFFFFF000FFFFFFFFFFFFFFFFFFFFFFFFFFFFFFFFFFFFFFFFFFFF
310
FFFFFFFFFFFFFFFFFFFFFFFFFFFFFFFFFFFFFFFFFFFFFFFFFFFFFFFFFFFFFFFF
310
FFFFFFFFFFFFFFFFFFFFFFFFFFFFFFFFFFFFFFFFFFFFFFFFFFFFFFFFFFFFFFFF
310
F000FFFFFFFFFFFFFFFFFFFFFFFFFFFFFFFFFFFFFFFFFFFFFFFFFFFFFFFFFFFF
310
FFFFFFFFFFFFFFFFFFFFFFFFFFFFFFFFFFFFFFFFFFFFFFFFFFFFFFFFFFFFFFFF
310
FFFFFFFFFFFFFFFFFFFFFFFFFFFFFFFFFFFFFFFFFFFFFFFFF000FFFFFFFFFFFF
310
FFFFFFFFFFFFFFFFFFFFFFFFFFFFFFFFFFFFFFFFFFFFFFFFFFFFFFFFFFFFFFFF
310
FFFFFFFFFFFFFFFFFFFFFFFFFFFFFFFFFFFFFFFFFFFFFFFFFFFFFFFFFFFFFFFF
310
FFFFFFFFFFFFFFFFFFFFFFFFFFFFFFFFF0000000000000000000000000000000
310
0000000000000000000000000000000000000000000000000000000000000000
310
0000000000000000000000000000000000000000000000000000000000000000
310
0000000000000000000000000000000000000000000000000000000000000000
310
0000000000000000000000000000000000000000000000000000000000000000
310
0000000000000000000000000000000000000000000000000000000000000000
310
0000000000000000000000000000000000000000000000000000000000000000
310
0000000000000000000000000000000000000000000000000000000000000000
310
0000000000000000000000000000000000000000000000000000000000000000
310
0000000000000000000000000000000000000000000000000000000000000000
310
0000000000000000000000000000000000000000000000000000000000000000
310
0000000000000000000000000000000000000000000000000000000000000000
310
0000000000000000000000000000000000000000000000000000000000000000
310
0000000000000000000000000000000000000000000000000000000000000000
310
0000000000000000000000000000000000000000000000000000000000000000
310
0000000000000000000000000000000000000000000000000000000000000000
  1
OLE
  0
ENDSEC
  0
SECTION
  2
OBJECTS
  0
DICTIONARY
  5
C
330
0
100
AcDbDictionary
281
     1
  3
ACAD_GROUP
350
D
  3
ACAD_LAYOUT
350
1A
  3
ACAD_MLINESTYLE
350
17
  3
ACAD_PLOTSETTINGS
350
19
  3
ACAD_PLOTSTYLENAME
350
E
  3
ACAD_SCALELIST
350
47
  0
DICTIONARY
  5
D
102
{ACAD_REACTORS
330
C
102
}
330
C
100
AcDbDictionary
281
     1
  0
DICTIONARY
  5
1A
102
{ACAD_REACTORS
330
C
102
}
330
C
100
AcDbDictionary
281
     1
  3
Layout1
350
1E
  3
Layout2
350
26
  3
Model
350
22
  0
DICTIONARY
  5
17
102
{ACAD_REACTORS
330
C
102
}
330
C
100
AcDbDictionary
281
     1
  3
Standard
350
18
  0
DICTIONARY
  5
19
102
{ACAD_REACTORS
330
C
102
}
330
C
100
AcDbDictionary
281
     1
  0
ACDBDICTIONARYWDFLT
  5
E
102
{ACAD_REACTORS
330
C
102
}
330
C
100
AcDbDictionary
281
     1
  3
Normal
350
F
100
AcDbDictionaryWithDefault
340
F
  0
DICTIONARY
  5
47
102
{ACAD_REACTORS
330
C
102
}
330
C
100
AcDbDictionary
281
     1
  3
A0
350
48
  3
A1
350
49
  3
A2
350
4A
  3
A3
350
4B
  3
A4
350
4C
  3
A5
350
4D
  3
A6
350
4E
  3
A7
350
4F
  3
A8
350
50
  3
A9
350
51
  3
B0
350
52
  3
B1
350
53
  3
B2
350
54
  3
B3
350
55
  3
B4
350
56
  3
B5
350
57
  3
B6
350
58
  3
B7
350
59
  3
B8
350
5A
  3
B9
350
5B
  3
C0
350
5C
  3
C1
350
5D
  3
C2
350
5E
  3
C3
350
5F
  3
C4
350
60
  3
C5
350
61
  3
C6
350
62
  3
C7
350
63
  3
C8
350
64
  3
C9
350
65
  3
D0
350
66
  3
D1
350
67
  3
D2
350
68
  0
LAYOUT
  5
1E
102
{ACAD_REACTORS
330
1A
102
}
330
1A
100
AcDbPlotSettings
  1

  2
none_device
  4

  6

 40
0.0
 41
0.0
 42
0.0
 43
0.0
 44
0.0
 45
0.0
 46
0.0
 47
0.0
 48
0.0
 49
0.0
140
0.0
141
0.0
142
1.0
143
1.0
 70
   688
 72
     1
 73
     0
 74
     5
  7

 75
    16
147
1.0
148
0.0
149
0.0
100
AcDbLayout
  1
Layout1
 70
     1
 71
     1
 10
0.0
 20
0.0
 11
420.0
 21
297.0
 12
0.0
 22
0.0
 32
0.0
 14
1.0000000000E+20
 24
1.0000000000E+20
 34
1.0000000000E+20
 15
-1.0000000000E+20
 25
-1.0000000000E+20
 35
-1.0000000000E+20
146
0.0
 13
0.0
 23
0.0
 33
0.0
 16
1.0
 26
0.0
 36
0.0
 17
0.0
 27
1.0
 37
0.0
 76
     0
330
1B
  0
LAYOUT
  5
26
102
{ACAD_REACTORS
330
1A
102
}
330
1A
100
AcDbPlotSettings
  1

  2
none_device
  4

  6

 40
0.0
 41
0.0
 42
0.0
 43
0.0
 44
0.0
 45
0.0
 46
0.0
 47
0.0
 48
0.0
 49
0.0
140
0.0
141
0.0
142
1.0
143
1.0
 70
   688
 72
     1
 73
     0
 74
     5
  7

 75
    16
147
1.0
148
0.0
149
0.0
100
AcDbLayout
  1
Layout2
 70
     1
 71
     2
 10
0.0
 20
0.0
 11
0.0
 21
0.0
 12
0.0
 22
0.0
 32
0.0
 14
0.0
 24
0.0
 34
0.0
 15
0.0
 25
0.0
 35
0.0
146
0.0
 13
0.0
 23
0.0
 33
0.0
 16
1.0
 26
0.0
 36
0.0
 17
0.0
 27
1.0
 37
0.0
 76
     0
330
23
  0
LAYOUT
  5
22
102
{ACAD_REACTORS
330
1A
102
}
330
1A
100
AcDbPlotSettings
  1

  2
none_device
  4
Letter_(8.50_x_11.00_Inches)
  6

 40
6.35
 41
6.35
 42
6.35000508
 43
6.35000508
 44
215.9
 45
279.4
 46
0.0
 47
0.0
 48
0.0
 49
0.0
140
0.0
141
0.0
142
1.0
143
1.0
 70
  1712
 72
     1
 73
     0
 74
     0
  7

 75
     0
147
1.0
148
0.0
149
0.0
100
AcDbLayout
  1
Model
 70
     1
 71
     0
 10
0.0
 20
0.0
 11
297.0
 21
210.0
 12
0.0
 22
0.0
 32
0.0
 14
0.0
 24
0.0
 34
0.0
 15
297.0
 25
210.0
 35
0.0
146
0.0
 13
0.0
 23
0.0
 33
0.0
 16
1.0
 26
0.0
 36
0.0
 17
0.0
 27
1.0
 37
0.0
 76
     0
330
1F
331
29
  0
MLINESTYLE
  5
18
102
{ACAD_REACTORS
330
17
102
}
330
17
100
AcDbMlineStyle
  2
Standard
 70
     0
  3

 62
   256
 51
90.0
 52
90.0
 71
     2
 49
0.5
 62
   256
  6
BYLAYER
 49
-0.5
 62
   256
  6
BYLAYER
  0
ACDBPLACEHOLDER
  5
F
102
{ACAD_REACTORS
330
E
102
}
330
E
  0
SCALE
  5
48
102
{ACAD_REACTORS
330
47
102
}
330
47
100
AcDbScale
 70
     0
300
1:1
140
1.0
141
1.0
290
     1
  0
SCALE
  5
49
102
{ACAD_REACTORS
330
47
102
}
330
47
100
AcDbScale
 70
     0
300
1:2
140
1.0
141
2.0
290
     0
  0
SCALE
  5
4A
102
{ACAD_REACTORS
330
47
102
}
330
47
100
AcDbScale
 70
     0
300
1:4
140
1.0
141
4.0
290
     0
  0
SCALE
  5
4B
102
{ACAD_REACTORS
330
47
102
}
330
47
100
AcDbScale
 70
     0
300
1:5
140
1.0
141
5.0
290
     0
  0
SCALE
  5
4C
102
{ACAD_REACTORS
330
47
102
}
330
47
100
AcDbScale
 70
     0
300
1:8
140
1.0
141
8.0
290
     0
  0
SCALE
  5
4D
102
{ACAD_REACTORS
330
47
102
}
330
47
100
AcDbScale
 70
     0
300
1:10
140
1.0
141
10.0
290
     0
  0
SCALE
  5
4E
102
{ACAD_REACTORS
330
47
102
}
330
47
100
AcDbScale
 70
     0
300
1:16
140
1.0
141
16.0
290
     0
  0
SCALE
  5
4F
102
{ACAD_REACTORS
330
47
102
}
330
47
100
AcDbScale
 70
     0
300
1:20
140
1.0
141
20.0
290
     0
  0
SCALE
  5
50
102
{ACAD_REACTORS
330
47
102
}
330
47
100
AcDbScale
 70
     0
300
1:30
140
1.0
141
30.0
290
     0
  0
SCALE
  5
51
102
{ACAD_REACTORS
330
47
102
}
330
47
100
AcDbScale
 70
     0
300
1:40
140
1.0
141
40.0
290
     0
  0
SCALE
  5
52
102
{ACAD_REACTORS
330
47
102
}
330
47
100
AcDbScale
 70
     0
300
1:50
140
1.0
141
50.0
290
     0
  0
SCALE
  5
53
102
{ACAD_REACTORS
330
47
102
}
330
47
100
AcDbScale
 70
     0
300
1:100
140
1.0
141
100.0
290
     0
  0
SCALE
  5
54
102
{ACAD_REACTORS
330
47
102
}
330
47
100
AcDbScale
 70
     0
300
2:1
140
2.0
141
1.0
290
     0
  0
SCALE
  5
55
102
{ACAD_REACTORS
330
47
102
}
330
47
100
AcDbScale
 70
     0
300
4:1
140
4.0
141
1.0
290
     0
  0
SCALE
  5
56
102
{ACAD_REACTORS
330
47
102
}
330
47
100
AcDbScale
 70
     0
300
8:1
140
8.0
141
1.0
290
     0
  0
SCALE
  5
57
102
{ACAD_REACTORS
330
47
102
}
330
47
100
AcDbScale
 70
     0
300
10:1
140
10.0
141
1.0
290
     0
  0
SCALE
  5
58
102
{ACAD_REACTORS
330
47
102
}
330
47
100
AcDbScale
 70
     0
300
100:1
140
100.0
141
1.0
290
     0
  0
SCALE
  5
59
102
{ACAD_REACTORS
330
47
102
}
330
47
100
AcDbScale
 70
     0
300
1/128" = 1'-0"
140
0.0078125
141
12.0
290
     0
  0
SCALE
  5
5A
102
{ACAD_REACTORS
330
47
102
}
330
47
100
AcDbScale
 70
     0
300
1/64" = 1'-0"
140
0.015625
141
12.0
290
     0
  0
SCALE
  5
5B
102
{ACAD_REACTORS
330
47
102
}
330
47
100
AcDbScale
 70
     0
300
1/32" = 1'-0"
140
0.03125
141
12.0
290
     0
  0
SCALE
  5
5C
102
{ACAD_REACTORS
330
47
102
}
330
47
100
AcDbScale
 70
     0
300
1/16" = 1'-0"
140
0.0625
141
12.0
290
     0
  0
SCALE
  5
5D
102
{ACAD_REACTORS
330
47
102
}
330
47
100
AcDbScale
 70
     0
300
3/32" = 1'-0"
140
0.09375
141
12.0
290
     0
  0
SCALE
  5
5E
102
{ACAD_REACTORS
330
47
102
}
330
47
100
AcDbScale
 70
     0
300
1/8" = 1'-0"
140
0.125
141
12.0
290
     0
  0
SCALE
  5
5F
102
{ACAD_REACTORS
330
47
102
}
330
47
100
AcDbScale
 70
     0
300
3/16" = 1'-0"
140
0.1875
141
12.0
290
     0
  0
SCALE
  5
60
102
{ACAD_REACTORS
330
47
102
}
330
47
100
AcDbScale
 70
     0
300
1/4" = 1'-0"
140
0.25
141
12.0
290
     0
  0
SCALE
  5
61
102
{ACAD_REACTORS
330
47
102
}
330
47
100
AcDbScale
 70
     0
300
3/8" = 1'-0"
140
0.375
141
12.0
290
     0
  0
SCALE
  5
62
102
{ACAD_REACTORS
330
47
102
}
330
47
100
AcDbScale
 70
     0
300
1/2" = 1'-0"
140
0.5
141
12.0
290
     0
  0
SCALE
  5
63
102
{ACAD_REACTORS
330
47
102
}
330
47
100
AcDbScale
 70
     0
300
3/4" = 1'-0"
140
0.75
141
12.0
290
     0
  0
SCALE
  5
64
102
{ACAD_REACTORS
330
47
102
}
330
47
100
AcDbScale
 70
     0
300
1" = 1'-0"
140
1.0
141
12.0
290
     0
  0
SCALE
  5
65
102
{ACAD_REACTORS
330
47
102
}
330
47
100
AcDbScale
 70
     0
300
1-1/2" = 1'-0"
140
1.5
141
12.0
290
     0
  0
SCALE
  5
66
102
{ACAD_REACTORS
330
47
102
}
330
47
100
AcDbScale
 70
     0
300
3" = 1'-0"
140
3.0
141
12.0
290
     0
  0
SCALE
  5
67
102
{ACAD_REACTORS
330
47
102
}
330
47
100
AcDbScale
 70
     0
300
6" = 1'-0"
140
6.0
141
12.0
290
     0
  0
SCALE
  5
68
102
{ACAD_REACTORS
330
47
102
}
330
47
100
AcDbScale
 70
     0
300
1'-0" = 1'-0"
140
12.0
141
12.0
290
     0
  0
ENDSEC
  0
EOF
