  0
SECTION
  2
HEADER
  9
$ACADVER
  1
AC1015
  9
$ACADMAINTVER
 70
     6
  9
$DWGCODEPAGE
  3
ANSI_1252
  9
$INSBASE
 10
0.0
 20
0.0
 30
0.0
  9
$EXTMIN
 10
0.0
 20
0.0
 30
0.0
  9
$EXTMAX
 10
297.0
 20
210.0
 30
0.0
  9
$LIMMIN
 10
0.0
 20
0.0
  9
$LIMMAX
 10
297.0
 20
210.0
  9
$ORTHOMODE
 70
     0
  9
$REGENMODE
 70
     1
  9
$FILLMODE
 70
     1
  9
$QTEXTMODE
 70
     0
  9
$MIRRTEXT
 70
     1
  9
$LTSCALE
 40
1.0
  9
$ATTMODE
 70
     1
  9
$TEXTSIZE
 40
2.0
  9
$TRACEWID
 40
1.0
  9
$TEXTSTYLE
  7
Standard
  9
$CLAYER
  8
0
  9
$CELTYPE
  6
ByLayer
  9
$CECOLOR
 62
   256
  9
$CELTSCALE
 40
1.0
  9
$DISPSILH
 70
     0
  9
$DIMSCALE
 40
1.0
  9
$DIMASZ
 40
3.0
  9
$DIMEXO
 40
0.0
  9
$DIMDLI
 40
3.75
  9
$DIMRND
 40
0.0
  9
$DIMDLE
 40
0.0
  9
$DIMEXE
 40
1.0
  9
$DIMTP
 40
0.0
  9
$DIMTM
 40
0.0
  9
$DIMTXT
 40
2.0
  9
$DIMCEN
 40
2.5
  9
$DIMTSZ
 40
0.0
  9
$DIMTOL
 70
     0
  9
$DIMLIM
 70
     0
  9
$DIMTIH
 70
     1
  9
$DIMTOH
 70
     1
  9
$DIMSE1
 70
     0
  9
$DIMSE2
 70
     0
  9
$DIMTAD
 70
     1
  9
$DIMZIN
 70
     0
  9
$DIMBLK
  1

  9
$DIMASO
 70
     1
  9
$DIMSHO
 70
     1
  9
$DIMPOST
  1

  9
$DIMAPOST
  1

  9
$DIMALT
 70
     0
  9
$DIMALTD
 70
     3
  9
$DIMALTF
 40
0.0393700787
  9
$DIMLFAC
 40
2.0
  9
$DIMTOFL
 70
     1
  9
$DIMTVP
 40
0.0
  9
$DIMTIX
 70
     0
  9
$DIMSOXD
 70
     0
  9
$DIMSAH
 70
     0
  9
$DIMBLK1
  1

  9
$DIMBLK2
  1

  9
$DIMSTYLE
  2
ISO-25
  9
$DIMCLRD
 70
     0
  9
$DIMCLRE
 70
     0
  9
$DIMCLRT
 70
     0
  9
$DIMTFAC
 40
1.0
  9
$DIMGAP
 40
1.524
  9
$DIMJUST
 70
     0
  9
$DIMSD1
 70
     0
  9
$DIMSD2
 70
     0
  9
$DIMTOLJ
 70
     0
  9
$DIMTZIN
 70
     0
  9
$DIMALTZ
 70
     0
  9
$DIMALTTZ
 70
     0
  9
$DIMUPT
 70
     0
  9
$DIMDEC
 70
     2
  9
$DIMTDEC
 70
     3
  9
$DIMALTU
 70
     2
  9
$DIMALTTD
 70
     3
  9
$DIMTXSTY
  7
Standard
  9
$DIMAUNIT
 70
     0
  9
$DIMADEC
 70
     2
  9
$DIMALTRND
 40
0.0
  9
$DIMAZIN
 70
     0
  9
$DIMDSEP
 70
    44
  9
$DIMATFIT
 70
     3
  9
$DIMFRAC
 70
     0
  9
$DIMLDRBLK
  1

  9
$DIMLUNIT
 70
     2
  9
$DIMLWD
 70
    -2
  9
$DIMLWE
 70
    -2
  9
$DIMTMOVE
 70
     0
  9
$LUNITS
 70
     2
  9
$LUPREC
 70
     2
  9
$SKETCHINC
 40
1.0
  9
$FILLETRAD
 40
10.0
  9
$AUNITS
 70
     0
  9
$AUPREC
 70
     2
  9
$MENU
  1
.
  9
$ELEVATION
 40
0.0
  9
$PELEVATION
 40
0.0
  9
$THICKNESS
 40
0.0
  9
$LIMCHECK
 70
     0
  9
$CHAMFERA
 40
0.0
  9
$CHAMFERB
 40
0.0
  9
$CHAMFERC
 40
0.0
  9
$CHAMFERD
 40
0.0
  9
$SKPOLY
 70
     0
  9
$TDCREATE
 40
2458166.43135037
  9
$TDUCREATE
 40
2458166.389683704
  9
$TDUPDATE
 40
2458166.431353727
  9
$TDUUPDATE
 40
2458166.38968706
  9
$TDINDWG
 40
0.0000000116
  9
$TDUSRTIMER
 40
0.0000000116
  9
$USRTIMER
 70
     1
  9
$ANGBASE
 50
0.0
  9
$ANGDIR
 70
     0
  9
$PDMODE
 70
     0
  9
$PDSIZE
 40
-1.0
  9
$PLINEWID
 40
0.0
  9
$SPLFRAME
 70
     0
  9
$SPLINETYPE
 70
     6
  9
$SPLINESEGS
 70
     8
  9
$HANDSEED
  5
2C1
  9
$SURFTAB1
 70
     6
  9
$SURFTAB2
 70
     6
  9
$SURFTYPE
 70
     6
  9
$SURFU
 70
     6
  9
$SURFV
 70
     6
  9
$UCSBASE
  2

  9
$UCSNAME
  2

  9
$UCSORG
 10
0.0
 20
0.0
 30
0.0
  9
$UCSXDIR
 10
1.0
 20
0.0
 30
0.0
  9
$UCSYDIR
 10
0.0
 20
1.0
 30
0.0
  9
$UCSORTHOREF
  2

  9
$UCSORTHOVIEW
 70
     0
  9
$UCSORGTOP
 10
0.0
 20
0.0
 30
0.0
  9
$UCSORGBOTTOM
 10
0.0
 20
0.0
 30
0.0
  9
$UCSORGLEFT
 10
0.0
 20
0.0
 30
0.0
  9
$UCSORGRIGHT
 10
0.0
 20
0.0
 30
0.0
  9
$UCSORGFRONT
 10
0.0
 20
0.0
 30
0.0
  9
$UCSORGBACK
 10
0.0
 20
0.0
 30
0.0
  9
$PUCSBASE
  2

  9
$PUCSNAME
  2

  9
$PUCSORG
 10
0.0
 20
0.0
 30
0.0
  9
$PUCSXDIR
 10
1.0
 20
0.0
 30
0.0
  9
$PUCSYDIR
 10
0.0
 20
1.0
 30
0.0
  9
$PUCSORTHOREF
  2

  9
$PUCSORTHOVIEW
 70
     0
  9
$PUCSORGTOP
 10
0.0
 20
0.0
 30
0.0
  9
$PUCSORGBOTTOM
 10
0.0
 20
0.0
 30
0.0
  9
$PUCSORGLEFT
 10
0.0
 20
0.0
 30
0.0
  9
$PUCSORGRIGHT
 10
0.0
 20
0.0
 30
0.0
  9
$PUCSORGFRONT
 10
0.0
 20
0.0
 30
0.0
  9
$PUCSORGBACK
 10
0.0
 20
0.0
 30
0.0
  9
$USERI1
 70
     0
  9
$USERI2
 70
     0
  9
$USERI3
 70
     0
  9
$USERI4
 70
     0
  9
$USERI5
 70
     0
  9
$USERR1
 40
0.0
  9
$USERR2
 40
0.0
  9
$USERR3
 40
0.0
  9
$USERR4
 40
0.0
  9
$USERR5
 40
0.0
  9
$WORLDVIEW
 70
     1
  9
$SHADEDGE
 70
     3
  9
$SHADEDIF
 70
    70
  9
$TILEMODE
 70
     1
  9
$MAXACTVP
 70
    64
  9
$PINSBASE
 10
0.0
 20
0.0
 30
0.0
  9
$PLIMCHECK
 70
     0
  9
$PEXTMIN
 10
1.0000000000E+20
 20
1.0000000000E+20
 30
1.0000000000E+20
  9
$PEXTMAX
 10
-1.0000000000E+20
 20
-1.0000000000E+20
 30
-1.0000000000E+20
  9
$PLIMMIN
 10
0.0
 20
0.0
  9
$PLIMMAX
 10
420.0
 20
297.0
  9
$UNITMODE
 70
     0
  9
$VISRETAIN
 70
     1
  9
$PLINEGEN
 70
     0
  9
$PSLTSCALE
 70
     1
  9
$TREEDEPTH
 70
  3020
  9
$CMLSTYLE
  2
Standard
  9
$CMLJUST
 70
     0
  9
$CMLSCALE
 40
20.0
  9
$PROXYGRAPHICS
 70
     1
  9
$MEASUREMENT
 70
     1
  9
$CELWEIGHT
370
    -1
  9
$ENDCAPS
280
     0
  9
$JOINSTYLE
280
     0
  9
$LWDISPLAY
290
     1
  9
$INSUNITS
 70
     4
  9
$HYPERLINKBASE
  1

  9
$STYLESHEET
  1

  9
$XEDIT
290
     1
  9
$CEPSNTYPE
380
     0
  9
$PSTYLEMODE
290
     1
  9
$FINGERPRINTGUID
  2
{48355A88-497C-4576-8BC8-C64C0C3301AA}
  9
$VERSIONGUID
  2
{FAEB1C32-E019-11D5-929B-00C0DF256EC4}
  9
$EXTNAMES
290
     1
  9
$PSVPSCALE
 40
0.0
  9
$OLESTARTUP
290
     0
  0
ENDSEC
  0
SECTION
  2
CLASSES
  0
CLASS
  1
ACDBDICTIONARYWDFLT
  2
AcDbDictionaryWithDefault
  3
ObjectDBX Classes
 90
        0
280
     0
281
     0
  0
CLASS
  1
VISUALSTYLE
  2
AcDbVisualStyle
  3
ObjectDBX Classes
 90
     4095
280
     0
281
     0
  0
CLASS
  1
MATERIAL
  2
AcDbMaterial
  3
ObjectDBX Classes
 90
     1153
280
     0
281
     0
  0
CLASS
  1
SCALE
  2
AcDbScale
  3
ObjectDBX Classes
 90
     1153
280
     0
281
     0
  0
CLASS
  1
TABLESTYLE
  2
AcDbTableStyle
  3
ObjectDBX Classes
 90
     4095
280
     0
281
     0
  0
CLASS
  1
MLEADERSTYLE
  2
AcDbMLeaderStyle
  3
ACDB_MLEADERSTYLE_CLASS
 90
     4095
280
     0
281
     0
  0
CLASS
  1
SUN
  2
AcDbSun
  3
SCENEOE
 90
     1153
280
     0
281
     0
  0
CLASS
  1
ACDBPLACEHOLDER
  2
AcDbPlaceHolder
  3
ObjectDBX Classes
 90
        0
280
     0
281
     0
  0
CLASS
  1
LAYOUT
  2
AcDbLayout
  3
ObjectDBX Classes
 90
        0
280
     0
281
     0
  0
ENDSEC
  0
SECTION
  2
TABLES
  0
TABLE
  2
VPORT
  5
8
330
0
100
AcDbSymbolTable
 70
     1
  0
VPORT
  5
29
330
8
100
AcDbSymbolTableRecord
100
AcDbViewportTableRecord
  2
*Active
 70
     0
 10
0.0
 20
0.0
 11
1.0
 21
1.0
 12
148.5
 22
105.0
 13
0.0
 23
0.0
 14
10.0
 24
10.0
 15
10.0
 25
10.0
 16
0.0
 26
0.0
 36
1.0
 17
0.0
 27
0.0
 37
0.0
 40
210.0
 41
1.4142857143
 42
50.0
 43
0.0
 44
0.0
 50
0.0
 51
0.0
 71
     0
 72
  2000
 73
     1
 74
     3
 75
     0
 76
     0
 77
     0
 78
     0
281
     0
 65
     1
110
0.0
120
0.0
130
0.0
111
1.0
121
0.0
131
0.0
112
0.0
122
1.0
132
0.0
 79
     0
146
0.0
  0
ENDTAB
  0
TABLE
  2
LTYPE
  5
5
330
0
100
AcDbSymbolTable
 70
     6
  0
LTYPE
  5
14
330
5
100
AcDbSymbolTableRecord
100
AcDbLinetypeTableRecord
  2
ByBlock
 70
     0
  3

 72
    65
 73
     0
 40
0.0
  0
LTYPE
  5
15
330
5
100
AcDbSymbolTableRecord
100
AcDbLinetypeTableRecord
  2
ByLayer
 70
     0
  3

 72
    65
 73
     0
 40
0.0
  0
LTYPE
  5
16
330
5
100
AcDbSymbolTableRecord
100
AcDbLinetypeTableRecord
  2
Continuous
 70
     0
  3
Solid line
 72
    65
 73
     0
 40
0.0
  0
LTYPE
  5
6E
330
5
100
AcDbSymbolTableRecord
100
AcDbLinetypeTableRecord
  2
HIDDEN
 70
     0
  3
Hidden __ __ __ __ __ __ __ __ __ __ __ __ __ __
 72
    65
 73
     2
 40
1.905
 49
1.27
 74
     0
 49
-0.635
 74
     0
  0
LTYPE
  5
6F
330
5
100
AcDbSymbolTableRecord
100
AcDbLinetypeTableRecord
  2
PHANTOM
 70
     0
  3
Phantom ______  __  __  ______  __  __  ______
 72
    65
 73
     6
 40
12.7
 49
6.35
 74
     0
 49
-1.27
 74
     0
 49
1.27
 74
     0
 49
-1.27
 74
     0
 49
1.27
 74
     0
 49
-1.27
 74
     0
  0
LTYPE
  5
70
330
5
100
AcDbSymbolTableRecord
100
AcDbLinetypeTableRecord
  2
CENTER
 70
     0
  3
Center ____ _ ____ _ ____ _ ____ _ ____ _ ____
 72
    65
 73
     4
 40
10.16
 49
6.35
 74
     0
 49
-1.27
 74
     0
 49
1.27
 74
     0
 49
-1.27
 74
     0
  0
LTYPE
  5
71
330
5
100
AcDbSymbolTableRecord
100
AcDbLinetypeTableRecord
  2
CENTERX2
 70
     0
  3
Center (2x) ________  __  ________  __  _____
 72
    65
 73
     4
 40
20.32
 49
12.7
 74
     0
 49
-2.54
 74
     0
 49
2.54
 74
     0
 49
-2.54
 74
     0
  0
LTYPE
  5
72
330
5
100
AcDbSymbolTableRecord
100
AcDbLinetypeTableRecord
  2
DOT2
 70
     0
  3
Dot (.5x) ........................................
 72
    65
 73
     2
 40
0.635
 49
0.0
 74
     0
 49
-0.635
 74
     0
  0
ENDTAB
  0
TABLE
  2
LAYER
  5
2
330
0
100
AcDbSymbolTable
 70
     5
  0
LAYER
  5
10
330
2
100
AcDbSymbolTableRecord
100
AcDbLayerTableRecord
  2
0
 70
     0
 62
     7
  6
Continuous
370
    -3
390
F
  0
LAYER
  5
73
330
2
100
AcDbSymbolTableRecord
100
AcDbLayerTableRecord
  2
FORMAT
 70
     0
 62
     7
  6
Continuous
370
    -3
390
F
  0
LAYER
  5
74
330
2
100
AcDbSymbolTableRecord
100
AcDbLayerTableRecord
  2
VERMASSUNG
 70
     0
 62
     7
  6
Continuous
370
    -3
390
F
  0
LAYER
  5
75
330
2
100
AcDbSymbolTableRecord
100
AcDbLayerTableRecord
  2
KOPF_DÜNN
 70
     0
 62
     7
  6
Continuous
370
    -3
390
F
  0
LAYER
  5
76
330
2
100
AcDbSymbolTableRecord
100
AcDbLayerTableRecord
  2
KOPF_DICK
 70
     0
 62
     7
  6
Continuous
370
    25
390
F
  0
ENDTAB
  0
TABLE
  2
STYLE
  5
3
330
0
100
AcDbSymbolTable
 70
     2
  0
STYLE
  5
11
330
3
100
AcDbSymbolTableRecord
100
AcDbTextStyleTableRecord
  2
Standard
 70
     0
 40
0.0
 41
1.0
 50
0.0
 71
     0
 42
2.0
  3
txt
  4

  0
STYLE
  5
77
330
3
100
AcDbSymbolTableRecord
100
AcDbTextStyleTableRecord
  2
SLDTEXTSTYLE0
 70
     0
 40
0.0
 41
0.7
 50
0.0
 71
     0
 42
2.0
  3
TXT
  4

  0
ENDTAB
  0
TABLE
  2
VIEW
  5
6
330
0
100
AcDbSymbolTable
 70
     0
  0
ENDTAB
  0
TABLE
  2
UCS
  5
7
330
0
100
AcDbSymbolTable
 70
     0
  0
ENDTAB
  0
TABLE
  2
APPID
  5
9
330
0
100
AcDbSymbolTable
 70
     1
  0
APPID
  5
12
330
9
100
AcDbSymbolTableRecord
100
AcDbRegAppTableRecord
  2
ACAD
 70
     0
  0
ENDTAB
  0
TABLE
  2
DIMSTYLE
  5
A
330
0
100
AcDbSymbolTable
 70
     4
100
AcDbDimStyleTable
  0
DIMSTYLE
105
27
330
A
100
AcDbSymbolTableRecord
100
AcDbDimStyleTableRecord
  2
ISO-25
 70
     0
 41
2.5
 42
0.625
 43
3.75
 44
1.25
 73
     0
 74
     0
 77
     1
 78
     8
140
2.5
141
2.5
143
0.0393700787
147
0.625
171
     3
172
     1
178
     0
271
     2
272
     2
274
     3
278
    44
283
     0
284
     8
340
11
  0
DIMSTYLE
105
1F4
102
{ACAD_REACTORS
330
1F3
102
}
330
A
100
AcDbSymbolTableRecord
100
AcDbDimStyleTableRecord
  2
SLDDIMSTYLE0
 70
     0
 41
3.0
 44
0.0
 45
0.000000001
 73
     0
 74
     0
 76
     1
 77
     1
 78
    12
 79
     3
140
2.0
147
0.5
173
     1
178
     0
271
     2
272
     3
276
     2
282
     1
284
    12
340
77
  0
DIMSTYLE
105
1FE
102
{ACAD_REACTORS
330
1FD
330
217
330
221
330
22B
102
}
330
A
100
AcDbSymbolTableRecord
100
AcDbDimStyleTableRecord
  2
SLDDIMSTYLE1
 70
     0
 41
3.0
 44
0.0
 45
0.000000001
 73
     0
 74
     0
 77
     1
 78
    12
 79
     3
140
2.0
147
0.5
173
     1
178
     0
271
     2
272
     3
276
     2
284
    12
340
77
  0
DIMSTYLE
105
20A
102
{ACAD_REACTORS
330
209
102
}
330
A
100
AcDbSymbolTableRecord
100
AcDbDimStyleTableRecord
  2
SLDDIMSTYLE2
 70
     0
 41
3.0
 44
0.0
 45
0.000000001
 73
     0
 74
     0
 77
     1
 78
    12
 79
     3
140
2.0
147
0.5
173
     1
178
     0
271
     1
272
     3
276
     2
284
    12
340
77
  0
ENDTAB
  0
TABLE
  2
BLOCK_RECORD
  5
1
330
0
100
AcDbSymbolTable
 70
     7
  0
BLOCK_RECORD
  5
1F
330
1
100
AcDbSymbolTableRecord
100
AcDbBlockTableRecord
  2
*Model_Space
340
22
  0
BLOCK_RECORD
  5
1B
330
1
100
AcDbSymbolTableRecord
100
AcDbBlockTableRecord
  2
*Paper_Space
340
1E
  0
BLOCK_RECORD
  5
23
330
1
100
AcDbSymbolTableRecord
100
AcDbBlockTableRecord
  2
*Paper_Space0
340
26
  0
BLOCK_RECORD
  5
1F5
330
1
100
AcDbSymbolTableRecord
100
AcDbBlockTableRecord
  2
_D
340
0
  0
BLOCK_RECORD
  5
1FF
330
1
100
AcDbSymbolTableRecord
100
AcDbBlockTableRecord
  2
_D_1
340
0
  0
BLOCK_RECORD
  5
20B
330
1
100
AcDbSymbolTableRecord
100
AcDbBlockTableRecord
  2
_D_2
340
0
  0
BLOCK_RECORD
  5
218
330
1
100
AcDbSymbolTableRecord
100
AcDbBlockTableRecord
  2
_D_3
340
0
  0
BLOCK_RECORD
  5
222
330
1
100
AcDbSymbolTableRecord
100
AcDbBlockTableRecord
  2
_D_4
340
0
  0
BLOCK_RECORD
  5
22C
330
1
100
AcDbSymbolTableRecord
100
AcDbBlockTableRecord
  2
_D_5
340
0
  0
ENDTAB
  0
ENDSEC
  0
SECTION
  2
BLOCKS
  0
BLOCK
  5
20
330
1F
100
AcDbEntity
  8
0
100
AcDbBlockBegin
  2
*Model_Space
 70
     0
 10
0.0
 20
0.0
 30
0.0
  3
*Model_Space
  1

  0
ENDBLK
  5
21
330
1F
100
AcDbEntity
  8
0
100
AcDbBlockEnd
  0
BLOCK
  5
1C
330
1B
100
AcDbEntity
 67
     1
  8
0
100
AcDbBlockBegin
  2
*Paper_Space
 70
     0
 10
0.0
 20
0.0
 30
0.0
  3
*Paper_Space
  1

  0
ENDBLK
  5
1D
330
1B
100
AcDbEntity
 67
     1
  8
0
100
AcDbBlockEnd
  0
BLOCK
  5
24
330
23
100
AcDbEntity
  8
0
100
AcDbBlockBegin
  2
*Paper_Space0
 70
     0
 10
0.0
 20
0.0
 30
0.0
  3
*Paper_Space0
  1

  0
ENDBLK
  5
25
330
23
100
AcDbEntity
  8
0
100
AcDbBlockEnd
  0
BLOCK
  5
1F6
330
1F5
100
AcDbEntity
  8
0
100
AcDbBlockBegin
  2
_D
 70
     0
 10
0.0
 20
0.0
 30
0.0
  3
_D
  1

  0
SOLID
  5
1F8
330
1F5
100
AcDbEntity
  8
VERMASSUNG
100
AcDbTrace
 10
249.1526555566
 20
112.5054069129
 30
0.0
 11
248.7026555566
 21
109.5054069129
 31
0.0
 12
249.6026555566
 22
109.5054069129
 32
0.0
 13
249.6026555566
 23
109.5054069129
 33
0.0
  0
LINE
  5
1F9
330
1F5
100
AcDbEntity
  8
VERMASSUNG
100
AcDbLine
 10
191.6526555566
 20
112.5054069129
 30
0.0
 11
250.1526555566
 21
112.5054069129
 31
0.0
  0
LINE
  5
1FA
330
1F5
100
AcDbEntity
  8
VERMASSUNG
100
AcDbLine
 10
249.1526555566
 20
112.5054069129
 30
0.0
 11
249.1526555566
 21
101.5004068487
 31
0.0
  0
MTEXT
  5
1FB
330
1F5
100
AcDbEntity
  8
VERMASSUNG
100
AcDbMText
 10
246.5745202517
 20
101.5004068487
 30
0.0
 40
2.0
 41
0.0
 71
     1
 72
     1
  1
%%c
  7
SLDTEXTSTYLE0
 11
-7.932373437343760E-15
 21
1.0
 31
0.0
 73
     1
 44
1.0
  0
MTEXT
  5
1FC
330
1F5
100
AcDbEntity
  8
VERMASSUNG
100
AcDbMText
 10
246.3745203004
 20
105.110406863
 30
0.0
 40
2.0
 41
0.0
 71
     1
 72
     1
  1
16
  7
SLDTEXTSTYLE0
 11
-7.932373437343760E-15
 21
1.0
 31
0.0
 73
     1
 44
1.0
  0
ENDBLK
  5
1F7
330
1F5
100
AcDbEntity
  8
0
100
AcDbBlockEnd
  0
BLOCK
  5
200
330
1FF
100
AcDbEntity
  8
0
100
AcDbBlockBegin
  2
_D_1
 70
     0
 10
0.0
 20
0.0
 30
0.0
  3
_D_1
  1

  0
SOLID
  5
202
330
1FF
100
AcDbEntity
  8
VERMASSUNG
100
AcDbTrace
 10
261.1526555566
 20
128.5054069129
 30
0.0
 11
260.7026555566
 21
125.5054069129
 31
0.0
 12
261.6026555566
 22
125.5054069129
 32
0.0
 13
261.6026555566
 23
125.5054069129
 33
0.0
  0
SOLID
  5
203
330
1FF
100
AcDbEntity
  8
VERMASSUNG
100
AcDbTrace
 10
261.1526555566
 20
80.5054069129
 30
0.0
 11
261.6026555566
 21
83.5054069129
 31
0.0
 12
260.7026555566
 22
83.5054069129
 32
0.0
 13
260.7026555566
 23
83.5054069129
 33
0.0
  0
LINE
  5
204
330
1FF
100
AcDbEntity
  8
VERMASSUNG
100
AcDbLine
 10
208.2856140335
 20
128.5054069129
 30
0.0
 11
262.1526555566
 21
128.5054069129
 31
0.0
  0
LINE
  5
205
330
1FF
100
AcDbEntity
  8
VERMASSUNG
100
AcDbLine
 10
208.2856140335
 20
80.5054069129
 30
0.0
 11
262.1526555566
 21
80.5054069129
 31
0.0
  0
LINE
  5
206
330
1FF
100
AcDbEntity
  8
VERMASSUNG
100
AcDbLine
 10
261.1526555566
 20
128.5054069129
 30
0.0
 11
261.1526555566
 21
80.5054069129
 31
0.0
  0
MTEXT
  5
207
330
1FF
100
AcDbEntity
  8
VERMASSUNG
100
AcDbMText
 10
258.5745202517
 20
101.2004068927
 30
0.0
 40
2.0
 41
0.0
 71
     1
 72
     1
  1
%%c
  7
SLDTEXTSTYLE0
 11
-7.932373437343760E-15
 21
1.0
 31
0.0
 73
     1
 44
1.0
  0
MTEXT
  5
208
330
1FF
100
AcDbEntity
  8
VERMASSUNG
100
AcDbMText
 10
258.3745203004
 20
104.810406907
 30
0.0
 40
2.0
 41
0.0
 71
     1
 72
     1
  1
48
  7
SLDTEXTSTYLE0
 11
-7.932373437343760E-15
 21
1.0
 31
0.0
 73
     1
 44
1.0
  0
ENDBLK
  5
201
330
1FF
100
AcDbEntity
  8
0
100
AcDbBlockEnd
  0
BLOCK
  5
20C
330
20B
100
AcDbEntity
  8
0
100
AcDbBlockBegin
  2
_D_2
 70
     0
 10
0.0
 20
0.0
 30
0.0
  3
_D_2
  1

  0
SOLID
  5
20E
330
20B
100
AcDbEntity
  8
VERMASSUNG
100
AcDbTrace
 10
59.2026305566
 20
135.9804069129
 30
0.0
 11
58.7526305566
 21
132.9804069129
 31
0.0
 12
59.6526305566
 22
132.9804069129
 32
0.0
 13
59.6526305566
 23
132.9804069129
 33
0.0
  0
SOLID
  5
20F
330
20B
100
AcDbEntity
  8
VERMASSUNG
100
AcDbTrace
 10
59.2026305566
 20
73.0304069129
 30
0.0
 11
59.6526305566
 21
76.0304069129
 31
0.0
 12
58.7526305566
 22
76.0304069129
 32
0.0
 13
58.7526305566
 23
76.0304069129
 33
0.0
  0
LINE
  5
210
330
20B
100
AcDbEntity
  8
VERMASSUNG
100
AcDbLine
 10
134.3868533612
 20
135.9804069129
 30
0.0
 11
58.2026305566
 21
135.9804069129
 31
0.0
  0
LINE
  5
211
330
20B
100
AcDbEntity
  8
VERMASSUNG
100
AcDbLine
 10
134.3868533612
 20
73.0304069129
 30
0.0
 11
58.2026305566
 21
73.0304069129
 31
0.0
  0
LINE
  5
212
330
20B
100
AcDbEntity
  8
VERMASSUNG
100
AcDbLine
 10
59.2026305566
 20
135.9804069129
 30
0.0
 11
59.2026305566
 21
73.0304069129
 31
0.0
  0
MTEXT
  5
213
330
20B
100
AcDbEntity
  8
VERMASSUNG
100
AcDbMText
 10
56.4244953004
 20
96.4004082945
 30
0.0
 40
2.0
 41
0.0
 71
     1
 72
     1
  1
KM
  7
SLDTEXTSTYLE0
 11
-7.932373437343760E-15
 21
1.0
 31
0.0
 73
     1
 44
1.0
  0
MTEXT
  5
214
330
20B
100
AcDbEntity
  8
VERMASSUNG
100
AcDbMText
 10
56.6244952517
 20
99.8004081067
 30
0.0
 40
2.0
 41
0.0
 71
     1
 72
     1
  1
%%c
  7
SLDTEXTSTYLE0
 11
-7.932373437343760E-15
 21
1.0
 31
0.0
 73
     1
 44
1.0
  0
MTEXT
  5
215
330
20B
100
AcDbEntity
  8
VERMASSUNG
100
AcDbMText
 10
56.4244953004
 20
103.410408121
 30
0.0
 40
2.0
 41
0.0
 71
     1
 72
     1
  1
63
  7
SLDTEXTSTYLE0
 11
-7.932373437343760E-15
 21
1.0
 31
0.0
 73
     1
 44
1.0
  0
MTEXT
  5
216
330
20B
100
AcDbEntity
  8
VERMASSUNG
100
AcDbMText
 10
56.4244953004
 20
107.3979080212
 30
0.0
 40
2.0
 41
0.0
 71
     1
 72
     1
  1
XMZ
  7
SLDTEXTSTYLE0
 11
-7.932373437343760E-15
 21
1.0
 31
0.0
 73
     1
 44
1.0
  0
ENDBLK
  5
20D
330
20B
100
AcDbEntity
  8
0
100
AcDbBlockEnd
  0
BLOCK
  5
219
330
218
100
AcDbEntity
  8
0
100
AcDbBlockBegin
  2
_D_3
 70
     0
 10
0.0
 20
0.0
 30
0.0
  3
_D_3
  1

  0
SOLID
  5
21B
330
218
100
AcDbEntity
  8
VERMASSUNG
100
AcDbTrace
 10
139.1526555566
 20
144.2807631804
 30
0.0
 11
142.1526555566
 21
143.8307631804
 31
0.0
 12
142.1526555566
 22
144.7307631804
 32
0.0
 13
142.1526555566
 23
144.7307631804
 33
0.0
  0
SOLID
  5
21C
330
218
100
AcDbEntity
  8
VERMASSUNG
100
AcDbTrace
 10
221.1526555566
 20
144.2807631804
 30
0.0
 11
218.1526555566
 21
144.7307631804
 31
0.0
 12
218.1526555566
 22
143.8307631804
 32
0.0
 13
218.1526555566
 23
143.8307631804
 33
0.0
  0
LINE
  5
21D
330
218
100
AcDbEntity
  8
VERMASSUNG
100
AcDbLine
 10
139.1526555566
 20
135.9804069129
 30
0.0
 11
139.1526555566
 21
145.2807631804
 31
0.0
  0
LINE
  5
21E
330
218
100
AcDbEntity
  8
VERMASSUNG
100
AcDbLine
 10
221.1526555566
 20
121.2312663912
 30
0.0
 11
221.1526555566
 21
145.2807631804
 31
0.0
  0
LINE
  5
21F
330
218
100
AcDbEntity
  8
VERMASSUNG
100
AcDbLine
 10
139.1526555566
 20
144.2807631804
 30
0.0
 11
221.1526555566
 21
144.2807631804
 31
0.0
  0
MTEXT
  5
220
330
218
100
AcDbEntity
  8
VERMASSUNG
100
AcDbMText
 10
178.7526556065
 20
146.8588987764
 30
0.0
 40
2.0
 41
0.0
 71
     1
 72
     1
  1
82
  7
SLDTEXTSTYLE0
 73
     1
 44
1.0
  0
ENDBLK
  5
21A
330
218
100
AcDbEntity
  8
0
100
AcDbBlockEnd
  0
BLOCK
  5
223
330
222
100
AcDbEntity
  8
0
100
AcDbBlockBegin
  2
_D_4
 70
     0
 10
0.0
 20
0.0
 30
0.0
  3
_D_4
  1

  0
SOLID
  5
225
330
222
100
AcDbEntity
  8
VERMASSUNG
100
AcDbTrace
 10
121.1526555566
 20
155.6680282627
 30
0.0
 11
124.1526555566
 21
155.2180282627
 31
0.0
 12
124.1526555566
 22
156.1180282627
 32
0.0
 13
124.1526555566
 23
156.1180282627
 33
0.0
  0
SOLID
  5
226
330
222
100
AcDbEntity
  8
VERMASSUNG
100
AcDbTrace
 10
221.1526555566
 20
155.6680282627
 30
0.0
 11
218.1526555566
 21
156.1180282627
 31
0.0
 12
218.1526555566
 22
155.2180282627
 32
0.0
 13
218.1526555566
 23
155.2180282627
 33
0.0
  0
LINE
  5
227
330
222
100
AcDbEntity
  8
VERMASSUNG
100
AcDbLine
 10
121.1526555566
 20
135.7804069129
 30
0.0
 11
121.1526555566
 21
156.6680282627
 31
0.0
  0
LINE
  5
228
330
222
100
AcDbEntity
  8
VERMASSUNG
100
AcDbLine
 10
221.1526555566
 20
121.2312663912
 30
0.0
 11
221.1526555566
 21
156.6680282627
 31
0.0
  0
LINE
  5
229
330
222
100
AcDbEntity
  8
VERMASSUNG
100
AcDbLine
 10
121.1526555566
 20
155.6680282627
 30
0.0
 11
221.1526555566
 21
155.6680282627
 31
0.0
  0
MTEXT
  5
22A
330
222
100
AcDbEntity
  8
VERMASSUNG
100
AcDbMText
 10
169.2526555246
 20
158.2461638586
 30
0.0
 40
2.0
 41
0.0
 71
     1
 72
     1
  1
100
  7
SLDTEXTSTYLE0
 73
     1
 44
1.0
  0
ENDBLK
  5
224
330
222
100
AcDbEntity
  8
0
100
AcDbBlockEnd
  0
BLOCK
  5
22D
330
22C
100
AcDbEntity
  8
0
100
AcDbBlockBegin
  2
_D_5
 70
     0
 10
0.0
 20
0.0
 30
0.0
  3
_D_5
  1

  0
SOLID
  5
22F
330
22C
100
AcDbEntity
  8
VERMASSUNG
100
AcDbTrace
 10
81.2026555566
 20
166.9879120867
 30
0.0
 11
84.2026555566
 21
166.5379120867
 31
0.0
 12
84.2026555566
 22
167.4379120867
 32
0.0
 13
84.2026555566
 23
167.4379120867
 33
0.0
  0
SOLID
  5
230
330
22C
100
AcDbEntity
  8
VERMASSUNG
100
AcDbTrace
 10
221.1526555566
 20
166.9879120867
 30
0.0
 11
218.1526555566
 21
167.4379120867
 31
0.0
 12
218.1526555566
 22
166.5379120867
 32
0.0
 13
218.1526555566
 23
166.5379120867
 33
0.0
  0
LINE
  5
231
330
22C
100
AcDbEntity
  8
VERMASSUNG
100
AcDbLine
 10
81.2026555566
 20
126.7085016367
 30
0.0
 11
81.2026555566
 21
167.9879120867
 31
0.0
  0
LINE
  5
232
330
22C
100
AcDbEntity
  8
VERMASSUNG
100
AcDbLine
 10
221.1526555566
 20
121.2312663912
 30
0.0
 11
221.1526555566
 21
167.9879120867
 31
0.0
  0
LINE
  5
233
330
22C
100
AcDbEntity
  8
VERMASSUNG
100
AcDbLine
 10
81.2026555566
 20
166.9879120867
 30
0.0
 11
221.1526555566
 21
166.9879120867
 31
0.0
  0
MTEXT
  5
234
330
22C
100
AcDbEntity
  8
VERMASSUNG
100
AcDbMText
 10
147.5776556184
 20
169.5660476827
 30
0.0
 40
2.0
 41
0.0
 71
     1
 72
     1
  1
139.95
  7
SLDTEXTSTYLE0
 73
     1
 44
1.0
  0
ENDBLK
  5
22E
330
22C
100
AcDbEntity
  8
0
100
AcDbBlockEnd
  0
ENDSEC
  0
SECTION
  2
ENTITIES
  0
MTEXT
  5
78
330
1F
100
AcDbEntity
  8
KOPF_DÜNN
100
AcDbMText
 10
13.8892156294
 20
23.8442973028
 30
0.0
 40
3.0
 41
0.0
 71
     1
 72
     1
  1
KY6.W16.K01.100
  7
SLDTEXTSTYLE0
 73
     1
 44
1.0
  0
MTEXT
  5
79
330
1F
100
AcDbEntity
  8
VERMASSUNG
100
AcDbMText
 10
13.9329988022
 20
28.8834360957
 30
0.0
 40
3.0
 41
0.0
 71
     1
 72
     1
  1
Flächenspannfutter Weldon_End mill adapter Weldon
  7
SLDTEXTSTYLE0
 73
     1
 44
1.0
  0
MTEXT
  5
7A
330
1F
100
AcDbEntity
  8
VERMASSUNG
100
AcDbMText
 10
98.8601118557
 20
13.8365368761
 30
0.0
 40
2.0
 41
0.0
 71
     1
 72
     1
  1
Datum: 16.02.2018
  7
SLDTEXTSTYLE0
 73
     1
 44
1.0
  0
MTEXT
  5
7B
330
1F
100
AcDbEntity
  8
VERMASSUNG
100
AcDbMText
 10
13.933048693
 20
18.0482802738
 30
0.0
 40
2.0
 41
0.0
 71
     1
 72
     1
  1
KM63 XMZ / Ø16
  7
SLDTEXTSTYLE0
 73
     1
 44
1.0
  0
MTEXT
  5
7C
330
1F
100
AcDbEntity
  8
VERMASSUNG
100
AcDbMText
 10
13.9808475933
 20
13.9090974274
 30
0.0
 40
2.0
 41
0.0
 71
     1
 72
     1
  1
Gewicht: 1650g
  7
SLDTEXTSTYLE0
 73
     1
 44
1.0
  0
SPLINE
  5
7D
330
1F
100
AcDbEntity
  8
0
  6
Continuous
 62
     7
370
    25
100
AcDbSpline
210
0.0
220
0.0
230
1.0
 70
     8
 71
     3
 72
     8
 73
     4
 74
     0
 42
0.000000001
 43
0.00000001
 40
0.0
 40
0.0
 40
0.0
 40
0.0
 40
1.0
 40
1.0
 40
1.0
 40
1.0
 10
372.7310988807833
 20
100.1354060408929
 30
0.0
 10
372.6622605105965
 20
100.0723113675741
 30
0.0
 10
372.5938291501404
 20
100.0085889894432
 30
0.0
 10
372.5258128754757
 20
99.94424355716983
 30
0.0
  0
SPLINE
  5
7E
330
1F
100
AcDbEntity
  8
0
  6
Continuous
 62
     7
370
    25
100
AcDbSpline
210
0.0
220
0.0
230
1.0
 70
     8
 71
     3
 72
     8
 73
     4
 74
     0
 42
0.000000001
 43
0.00000001
 40
0.0
 40
0.0
 40
0.0
 40
0.0
 40
1.0
 40
1.0
 40
1.0
 40
1.0
 10
372.989126122044
 20
99.96614421096561
 30
0.0
 10
372.9024226878836
 20
100.0223051306349
 30
0.0
 10
372.8164246403998
 20
100.0787298669607
 30
0.0
 10
372.7310988807833
 20
100.1354060408929
 30
0.0
  0
ARC
  5
7F
330
1F
100
AcDbEntity
  8
0
  6
Continuous
 62
     7
370
    25
100
AcDbCircle
 10
383.1202389904
 20
104.5054069129
 30
0.0
 40
11.10154736189896
100
AcDbArc
 50
204.1348482805
 51
335.8651517195
  0
SPLINE
  5
80
330
1F
100
AcDbEntity
  8
0
  6
Continuous
 62
     7
370
    25
100
AcDbSpline
210
0.0
220
0.0
230
1.0
 70
     8
 71
     3
 72
     8
 73
     4
 74
     0
 42
0.000000001
 43
0.00000001
 40
0.0
 40
0.0
 40
0.0
 40
0.0
 40
1.0
 40
1.0
 40
1.0
 40
1.0
 10
393.509379100049
 20
100.1354060408929
 30
0.0
 10
393.4240533404326
 20
100.0787298669607
 30
0.0
 10
393.3380552929488
 20
100.0223051306349
 30
0.0
 10
393.2513518587883
 20
99.96614421096561
 30
0.0
  0
SPLINE
  5
81
330
1F
100
AcDbEntity
  8
0
  6
Continuous
 62
     7
370
    25
100
AcDbSpline
210
0.0
220
0.0
230
1.0
 70
     8
 71
     3
 72
     8
 73
     4
 74
     0
 42
0.000000001
 43
0.00000001
 40
0.0
 40
0.0
 40
0.0
 40
0.0
 40
1.0
 40
1.0
 40
1.0
 40
1.0
 10
393.7146651053566
 20
99.94424355716983
 30
0.0
 10
393.646648830692
 20
100.0085889894432
 30
0.0
 10
393.5782174702359
 20
100.0723113675741
 30
0.0
 10
393.509379100049
 20
100.1354060408929
 30
0.0
  0
ARC
  5
82
330
1F
100
AcDbEntity
  8
0
  6
Continuous
 62
     7
370
    25
100
AcDbCircle
 10
383.1202389904
 20
104.5054069129
 30
0.0
 40
11.53456006379121
100
AcDbArc
 50
203.2930774359
 51
336.7074733161
  0
SPLINE
  5
83
330
1F
100
AcDbEntity
  8
0
  6
Continuous
 62
     7
370
    25
100
AcDbSpline
210
0.0
220
0.0
230
1.0
 70
     8
 71
     3
 72
     8
 73
     4
 74
     0
 42
0.000000001
 43
0.00000001
 40
0.0000004028655191
 40
0.0000004028655191
 40
0.0000004028655191
 40
0.0000004028655191
 40
0.0015137684369673
 40
0.0015137684369673
 40
0.0015137684369673
 40
0.0015137684369673
 10
374.6966443332741
 20
100.1831315090734
 30
0.0
 10
374.4899728457228
 20
100.1108375673587
 30
0.0
 10
374.2833538771822
 20
100.0385060814019
 30
0.0
 10
374.0767775023735
 20
99.96614421096561
 30
0.0
  0
LINE
  5
84
330
1F
100
AcDbEntity
  8
0
  6
Continuous
 62
     7
370
    25
100
AcDbLine
 10
374.0767775024
 20
99.966144211
 30
0.0
 11
372.989126122
 21
99.966144211
 31
0.0
  0
LINE
  5
85
330
1F
100
AcDbEntity
  8
0
  6
Continuous
 62
     7
370
    25
100
AcDbLine
 10
372.9541539877
 20
100.3991569129
 30
0.0
 11
372.7310988808
 21
100.1354060409
 31
0.0
  0
LINE
  5
86
330
1F
100
AcDbEntity
  8
0
  6
Continuous
 62
     7
370
    25
100
AcDbLine
 10
374.721763815
 20
100.3991569129
 30
0.0
 11
372.954368445
 21
100.3991569129
 31
0.0
  0
LINE
  5
87
330
1F
100
AcDbEntity
  8
0
  6
Continuous
 62
     7
370
    25
100
AcDbLine
 10
374.7324211651
 20
100.2415758778
 30
0.0
 11
374.7217638184
 21
100.3991568372
 31
0.0
  0
SPLINE
  5
88
330
1F
100
AcDbEntity
  8
0
  6
Continuous
 62
     7
370
    25
100
AcDbSpline
210
0.0
220
0.0
230
1.0
 70
     8
 71
     3
 72
     8
 73
     4
 74
     0
 42
0.000000001
 43
0.00000001
 40
0.0006523765358269
 40
0.0006523765358269
 40
0.0006523765358269
 40
0.0006523765358269
 40
0.0009043636494504
 40
0.0009043636494504
 40
0.0009043636494504
 40
0.0009043636494504
 10
374.733521208309
 20
100.243369606522
 30
0.0
 10
374.7212042137916
 20
100.2232940255399
 30
0.0
 10
374.7089120163875
 20
100.2032146370174
 30
0.0
 10
374.6966443332741
 20
100.1831315090734
 30
0.0
  0
LINE
  5
89
330
1F
100
AcDbEntity
  8
0
  6
Continuous
 62
     7
370
    25
100
AcDbLine
 10
373.1443059411
 20
109.7837061622
 30
0.0
 11
373.3527142626
 21
109.5354069129
 31
0.0
  0
SPLINE
  5
8A
330
1F
100
AcDbEntity
  8
0
  6
Continuous
 62
     7
370
    25
100
AcDbSpline
210
0.0
220
0.0
230
1.0
 70
     8
 71
     3
 72
     8
 73
     4
 74
     0
 42
0.000000001
 43
0.00000001
 40
0.0
 40
0.0
 40
0.0
 40
0.0
 40
1.0
 40
1.0
 40
1.0
 40
1.0
 10
373.1443059410918
 20
109.783706162247
 30
0.0
 10
373.2472018549157
 20
109.845674771338
 30
0.0
 10
373.3510415244706
 20
109.9072534234785
 30
0.0
 10
373.4558794126971
 20
109.96841961475
 30
0.0
  0
LINE
  5
8B
330
1F
100
AcDbEntity
  8
0
  6
Continuous
 62
     7
370
    25
100
AcDbLine
 10
374.602927573
 20
109.9684196148
 30
0.0
 11
373.4558794127
 21
109.9684196148
 31
0.0
  0
SPLINE
  5
8C
330
1F
100
AcDbEntity
  8
0
  6
Continuous
 62
     7
370
    25
100
AcDbSpline
210
0.0
220
0.0
230
1.0
 70
     8
 71
     3
 72
     8
 73
     4
 74
     0
 42
0.000000001
 43
0.00000001
 40
0.0000004089325119
 40
0.0000004089325119
 40
0.0000004089325119
 40
0.0000004089325119
 40
0.0015399868451459
 40
0.0015399868451459
 40
0.0015399868451459
 40
0.0015399868451459
 10
374.6029275729873
 20
109.96841961475
 30
0.0
 10
374.8146888317818
 20
109.8959647320966
 30
0.0
 10
375.0266091549719
 20
109.8236258620681
 30
0.0
 10
375.2387271381863
 20
109.7514323166423
 30
0.0
  0
LINE
  5
8D
330
1F
100
AcDbEntity
  8
0
  6
Continuous
 62
     7
370
    25
100
AcDbLine
 10
375.2387271382
 20
109.7514323166
 30
0.0
 11
375.2468799442
 21
109.7362199024
 31
0.0
  0
LINE
  5
8E
330
1F
100
AcDbEntity
  8
0
  6
Continuous
 62
     7
370
    25
100
AcDbLine
 10
375.2445094569
 20
109.5354070823
 30
0.0
 11
375.246880942
 21
109.7362200362
 31
0.0
  0
LINE
  5
8F
330
1F
100
AcDbEntity
  8
0
  6
Continuous
 62
     7
370
    25
100
AcDbLine
 10
375.2445094569
 20
109.5354069129
 30
0.0
 11
373.3527142626
 21
109.5354069129
 31
0.0
  0
ARC
  5
90
330
1F
100
AcDbEntity
  8
0
  6
Continuous
 62
     7
370
    25
100
AcDbCircle
 10
383.1202389904
 20
104.5054069129
 30
0.0
 40
11.101547361899
100
AcDbArc
 50
29.4783538465
 51
150.5216461535
  0
SPLINE
  5
91
330
1F
100
AcDbEntity
  8
0
  6
Continuous
 62
     7
370
    25
100
AcDbSpline
210
0.0
220
0.0
230
1.0
 70
     8
 71
     3
 72
     8
 73
     4
 74
     0
 42
0.000000001
 43
0.00000001
 40
0.0
 40
0.0
 40
0.0
 40
0.0
 40
1.0
 40
1.0
 40
1.0
 40
1.0
 10
372.9557695599779
 20
109.9578959831166
 30
0.0
 10
373.0183378683475
 20
109.899445514009
 30
0.0
 10
373.0811844617114
 20
109.841381503476
 30
0.0
 10
373.1443059410942
 20
109.7837061622448
 30
0.0
  0
ARC
  5
92
330
1F
100
AcDbEntity
  8
0
  6
Continuous
 62
     7
370
    25
100
AcDbCircle
 10
383.1202389904
 20
104.5054069129
 30
0.0
 40
11.53456006379119
100
AcDbArc
 50
28.2102805322
 51
151.7902347364
  0
SPLINE
  5
93
330
1F
100
AcDbEntity
  8
0
  6
Continuous
 62
     7
370
    25
100
AcDbSpline
210
0.0
220
0.0
230
1.0
 70
     8
 71
     3
 72
     8
 73
     4
 74
     0
 42
0.000000001
 43
0.00000001
 40
0.0
 40
0.0
 40
0.0
 40
0.0
 40
1.0
 40
1.0
 40
1.0
 40
1.0
 10
393.0961720397385
 20
109.7837061622451
 30
0.0
 10
393.1592935191213
 20
109.8413815034762
 30
0.0
 10
393.222140112485
 20
109.8994455140092
 30
0.0
 10
393.2847084208545
 20
109.9578959831166
 30
0.0
  0
SPLINE
  5
94
330
1F
100
AcDbEntity
  8
0
  6
Continuous
 62
     7
370
    25
100
AcDbSpline
210
0.0
220
0.0
230
1.0
 70
     8
 71
     3
 72
     8
 73
     4
 74
     0
 42
0.000000001
 43
0.00000001
 40
0.0
 40
0.0
 40
0.0
 40
0.0
 40
1.0
 40
1.0
 40
1.0
 40
1.0
 10
392.7845985681353
 20
109.96841961475
 30
0.0
 10
392.8894364563614
 20
109.9072534234788
 30
0.0
 10
392.9932761259159
 20
109.8456747713384
 30
0.0
 10
393.0961720397395
 20
109.7837061622477
 30
0.0
  0
LINE
  5
95
330
1F
100
AcDbEntity
  8
0
  6
Continuous
 62
     7
370
    25
100
AcDbLine
 10
393.5093791
 20
100.1354060409
 30
0.0
 11
393.2863239932
 21
100.3991569129
 31
0.0
  0
LINE
  5
96
330
1F
100
AcDbEntity
  8
0
  6
Continuous
 62
     7
370
    25
100
AcDbLine
 10
393.2513518588
 20
99.966144211
 30
0.0
 11
392.1637004785
 21
99.966144211
 31
0.0
  0
SPLINE
  5
97
330
1F
100
AcDbEntity
  8
0
  6
Continuous
 62
     7
370
    25
100
AcDbSpline
210
0.0
220
0.0
230
1.0
 70
     8
 71
     3
 72
     8
 73
     4
 74
     0
 42
0.000000001
 43
0.00000001
 40
0.0000004024872366
 40
0.0000004024872366
 40
0.0000004024872366
 40
0.0000004024872366
 40
0.0015137680586847
 40
0.0015137680586847
 40
0.0015137680586847
 40
0.0015137680586847
 10
392.1637004784588
 20
99.96614421096561
 30
0.0
 10
391.9571241036502
 20
100.0385060814019
 30
0.0
 10
391.7505051351096
 20
100.1108375673587
 30
0.0
 10
391.5438336475583
 20
100.1831315090734
 30
0.0
  0
SPLINE
  5
98
330
1F
100
AcDbEntity
  8
0
  6
Continuous
 62
     7
370
    25
100
AcDbSpline
210
0.0
220
0.0
230
1.0
 70
     8
 71
     3
 72
     8
 73
     4
 74
     0
 42
0.000000001
 43
0.00000001
 40
0.0000002414707367
 40
0.0000002414707367
 40
0.0000002414707367
 40
0.0000002414707367
 40
0.0002447240690309
 40
0.0002447240690309
 40
0.0002447240690309
 40
0.0002447240690309
 10
391.5438336475583
 20
100.1831315090734
 30
0.0
 10
391.5319313122031
 20
100.20261653502
 30
0.0
 10
391.5200059009915
 20
100.2220980408443
 30
0.0
 10
391.5080571556965
 20
100.2415759643562
 30
0.0
  0
LINE
  5
99
330
1F
100
AcDbEntity
  8
0
  6
Continuous
 62
     7
370
    25
100
AcDbLine
 10
391.518714148
 20
100.3991568372
 30
0.0
 11
391.5080567964
 21
100.2415759093
 31
0.0
  0
LINE
  5
9A
330
1F
100
AcDbEntity
  8
0
  6
Continuous
 62
     7
370
    25
100
AcDbLine
 10
393.2863239932
 20
100.3991569129
 30
0.0
 11
391.5136055568
 21
100.3991569129
 31
0.0
  0
SPLINE
  5
9B
330
1F
100
AcDbEntity
  8
0
  6
Continuous
 62
     7
370
    25
100
AcDbSpline
210
0.0
220
0.0
230
1.0
 70
     8
 71
     3
 72
     8
 73
     4
 74
     0
 42
0.000000001
 43
0.00000001
 40
0.000000410413179
 40
0.000000410413179
 40
0.000000410413179
 40
0.000000410413179
 40
0.0015399883258131
 40
0.0015399883258131
 40
0.0015399883258131
 40
0.0015399883258131
 10
391.0017508426461
 20
109.7514323166423
 30
0.0
 10
391.2138688258605
 20
109.8236258620681
 30
0.0
 10
391.4257891490506
 20
109.8959647320966
 30
0.0
 10
391.6375504078451
 20
109.96841961475
 30
0.0
  0
LINE
  5
9C
330
1F
100
AcDbEntity
  8
0
  6
Continuous
 62
     7
370
    25
100
AcDbLine
 10
392.7845985681
 20
109.9684196148
 30
0.0
 11
391.6375504078
 21
109.9684196148
 31
0.0
  0
LINE
  5
9D
330
1F
100
AcDbEntity
  8
0
  6
Continuous
 62
     7
370
    25
100
AcDbLine
 10
392.8877637182
 20
109.5354069129
 30
0.0
 11
393.0961720397
 21
109.7837061622
 31
0.0
  0
LINE
  5
9E
330
1F
100
AcDbEntity
  8
0
  6
Continuous
 62
     7
370
    25
100
AcDbLine
 10
392.8875736626
 20
109.5354069129
 30
0.0
 11
390.9959687246
 21
109.5354069129
 31
0.0
  0
LINE
  5
9F
330
1F
100
AcDbEntity
  8
0
  6
Continuous
 62
     7
370
    25
100
AcDbLine
 10
390.9935969377
 20
109.7362198476
 30
0.0
 11
390.9959684479
 21
109.5354070823
 31
0.0
  0
LINE
  5
A0
330
1F
100
AcDbEntity
  8
0
  6
Continuous
 62
     7
370
    25
100
AcDbLine
 10
390.9935979355
 20
109.7362197138
 30
0.0
 11
391.0017508426
 21
109.7514323166
 31
0.0
  0
ARC
  5
A1
330
1F
100
AcDbEntity
  8
0
  6
Continuous
 62
     7
370
    25
100
AcDbCircle
 10
383.1202389904
 20
104.5054069129
 30
0.0
 40
10.11875000000004
100
AcDbArc
 50
32.6761561262
 51
147.3238438738
  0
ARC
  5
A2
330
1F
100
AcDbEntity
  8
0
  6
Continuous
 62
     7
370
    25
100
AcDbCircle
 10
383.1202389904
 20
104.5054069129
 30
0.0
 40
10.11875000000005
100
AcDbArc
 50
206.6538426687
 51
333.3461573313
  0
ARC
  5
A3
330
1F
100
AcDbEntity
  8
0
  6
Continuous
 62
     7
370
    25
100
AcDbCircle
 10
383.1202389904
 20
104.5054069129
 30
0.0
 40
9.467788105676684
100
AcDbArc
 50
33.6481949792
 51
146.3518050208
  0
ARC
  5
A4
330
1F
100
AcDbEntity
  8
0
  6
Continuous
 62
     7
370
    25
100
AcDbCircle
 10
383.1202389904
 20
104.5054069129
 30
0.0
 40
9.467788105676709
100
AcDbArc
 50
207.1630537883
 51
332.8369462117
  0
SPLINE
  5
A5
330
1F
100
AcDbEntity
  8
0
  6
Continuous
 62
     7
370
    25
100
AcDbSpline
210
0.0
220
0.0
230
1.0
 70
     8
 71
     3
 72
     8
 73
     4
 74
     0
 42
0.000000001
 43
0.00000001
 40
0.0
 40
0.0
 40
0.0
 40
0.0
 40
1.0
 40
1.0
 40
1.0
 40
1.0
 10
372.5258128752857
 20
99.94424355728113
 30
0.0
 10
372.4725700503441
 20
99.94476728351897
 30
0.0
 10
372.4192747647284
 20
99.94556537678136
 30
0.0
 10
372.3659292592389
 20
99.94663842470617
 30
0.0
  0
LINE
  5
A6
330
1F
100
AcDbEntity
  8
0
  6
Continuous
 62
     7
370
    25
100
AcDbLine
 10
372.7940168573
 20
100.3991569129
 30
0.0
 11
372.9541539876
 21
100.3991569129
 31
0.0
  0
LINE
  5
A7
330
1F
100
AcDbEntity
  8
0
  6
Continuous
 62
     7
370
    25
100
AcDbLine
 10
393.2863239932
 20
100.3991569129
 30
0.0
 11
393.4464611235
 21
100.3991569129
 31
0.0
  0
SPLINE
  5
A8
330
1F
100
AcDbEntity
  8
0
  6
Continuous
 62
     7
370
    25
100
AcDbSpline
210
0.0
220
0.0
230
1.0
 70
     8
 71
     3
 72
     8
 73
     4
 74
     0
 42
0.000000001
 43
0.00000001
 40
0.0
 40
0.0
 40
0.0
 40
0.0
 40
1.0
 40
1.0
 40
1.0
 40
1.0
 10
393.8745487215935
 20
99.94663842470617
 30
0.0
 10
393.821203216104
 20
99.94556537678136
 30
0.0
 10
393.7679079304883
 20
99.94476728351897
 30
0.0
 10
393.7146651055467
 20
99.94424355728113
 30
0.0
  0
LINE
  5
A9
330
1F
100
AcDbEntity
  8
0
  6
Continuous
 62
     7
370
    25
100
AcDbLine
 10
373.3527142626
 20
109.5354069129
 30
0.0
 11
373.2292972789
 21
109.5354069129
 31
0.0
  0
SPLINE
  5
AA
330
1F
100
AcDbEntity
  8
0
  6
Continuous
 62
     7
370
    25
100
AcDbSpline
210
0.0
220
0.0
230
1.0
 70
     8
 71
     3
 72
     8
 73
     4
 74
     0
 42
0.000000001
 43
0.00000001
 40
0.0
 40
0.0
 40
0.0
 40
0.0
 40
1.0
 40
1.0
 40
1.0
 40
1.0
 10
372.8325480657364
 20
109.9558524297942
 30
0.0
 10
372.8736634927783
 20
109.9567213674342
 30
0.0
 10
372.9147377873893
 20
109.957402405017
 30
0.0
 10
372.9557695598784
 20
109.9578959830785
 30
0.0
  0
SPLINE
  5
AB
330
1F
100
AcDbEntity
  8
0
  6
Continuous
 62
     7
370
    25
100
AcDbSpline
210
0.0
220
0.0
230
1.0
 70
     8
 71
     3
 72
     8
 73
     4
 74
     0
 42
0.000000001
 43
0.00000001
 40
0.0
 40
0.0
 40
0.0
 40
0.0
 40
1.0
 40
1.0
 40
1.0
 40
1.0
 10
393.2847084209539
 20
109.9578959830785
 30
0.0
 10
393.325740193443
 20
109.957402405017
 30
0.0
 10
393.3668144880541
 20
109.9567213674342
 30
0.0
 10
393.4079299150959
 20
109.9558524297942
 30
0.0
  0
LINE
  5
AC
330
1F
100
AcDbEntity
  8
0
  6
Continuous
 62
     7
370
    25
100
AcDbLine
 10
393.011180702
 20
109.5354069129
 30
0.0
 11
392.8877637182
 21
109.5354069129
 31
0.0
  0
SPLINE
  5
AD
330
1F
100
AcDbEntity
  8
0
  6
Continuous
 62
     7
370
    25
100
AcDbSpline
210
0.0
220
0.0
230
1.0
 70
     8
 71
     3
 72
     9
 73
     5
 74
     0
 42
0.000000001
 43
0.00000001
 40
0.0
 40
0.0
 40
0.0
 40
0.0
 40
0.4897878789203994
 40
0.9999999999999999
 40
0.9999999999999999
 40
0.9999999999999999
 40
0.9999999999999999
 10
390.2258285550676
 20
109.7285237790956
 30
0.0
 10
390.3521836372889
 20
109.7298425048488
 30
0.0
 10
390.610162831261
 20
109.7325349474552
 30
0.0
 10
390.8640575795504
 20
109.7349750252912
 30
0.0
 10
390.9935977576062
 20
109.7362199825795
 30
0.0
  0
ARC
  5
AE
330
1F
100
AcDbEntity
  8
0
  6
Continuous
 62
     7
370
    25
100
AcDbCircle
 10
383.1202389904
 20
104.5054069129
 30
0.0
 40
8.818750000000046
100
AcDbArc
 50
36.3185452201
 51
143.6814533294
  0
SPLINE
  5
AF
330
1F
100
AcDbEntity
  8
0
  6
Continuous
 62
     7
370
    25
100
AcDbSpline
210
0.0
220
0.0
230
1.0
 70
     8
 71
     3
 72
     9
 73
     5
 74
     0
 42
0.000000001
 43
0.00000001
 40
0.0
 40
0.0
 40
0.0
 40
0.0
 40
0.5102121239851395
 40
0.9999999999999999
 40
0.9999999999999999
 40
0.9999999999999999
 40
0.9999999999999999
 10
375.2468801221015
 20
109.7362201711837
 30
0.0
 10
375.3764203399523
 20
109.7349752124929
 30
0.0
 10
375.630315164793
 20
109.7325351319219
 30
0.0
 10
375.8882944378028
 20
109.7298426862287
 30
0.0
 10
376.0146495579861
 20
109.7285239589714
 30
0.0
  0
SPLINE
  5
B0
330
1F
100
AcDbEntity
  8
0
  6
Continuous
 62
     7
370
    25
100
AcDbSpline
210
0.0
220
0.0
230
1.0
 70
     8
 71
     3
 72
     8
 73
     4
 74
     0
 42
0.000000001
 43
0.00000001
 40
0.0
 40
0.0
 40
0.0
 40
0.0
 40
1.0
 40
1.0
 40
1.0
 40
1.0
 10
376.0146493043115
 20
109.7285234896942
 30
0.0
 10
376.006888246366
 20
109.7179652544951
 30
0.0
 10
375.9991507212702
 20
109.7073897209687
 30
0.0
 10
375.9914368059007
 20
109.6967969941893
 30
0.0
  0
SPLINE
  5
B1
330
1F
100
AcDbEntity
  8
0
  6
Continuous
 62
     7
370
    25
100
AcDbSpline
210
0.0
220
0.0
230
1.0
 70
     8
 71
     3
 72
     8
 73
     4
 74
     0
 42
0.000000001
 43
0.00000001
 40
0.0
 40
0.0
 40
0.0
 40
0.0
 40
1.0
 40
1.0
 40
1.0
 40
1.0
 10
375.8198789731376
 20
109.5354072517261
 30
0.0
 10
375.8771393801721
 20
109.5893154287138
 30
0.0
 10
375.9343257712817
 20
109.643112353797
 30
0.0
 10
375.9914368059007
 20
109.6967969941893
 30
0.0
  0
LINE
  5
B2
330
1F
100
AcDbEntity
  8
0
  6
Continuous
 62
     7
370
    25
100
AcDbLine
 10
375.8198796729
 20
109.5354069129
 30
0.0
 11
375.2445091802
 21
109.5354069129
 31
0.0
  0
SPLINE
  5
B3
330
1F
100
AcDbEntity
  8
0
  6
Continuous
 62
     7
370
    25
100
AcDbSpline
210
0.0
220
0.0
230
1.0
 70
     8
 71
     3
 72
     8
 73
     4
 74
     0
 42
0.000000001
 43
0.00000001
 40
0.0
 40
0.0
 40
0.0
 40
0.0
 40
1.0
 40
1.0
 40
1.0
 40
1.0
 10
390.2491566067128
 20
109.6966384798905
 30
0.0
 10
390.2414044940122
 20
109.707284156563
 30
0.0
 10
390.2336285353449
 20
109.7179124687572
 30
0.0
 10
390.2258288087415
 20
109.7285233098197
 30
0.0
  0
LINE
  5
B4
330
1F
100
AcDbEntity
  8
0
  6
Continuous
 62
     7
370
    25
100
AcDbLine
 10
390.9959687246
 20
109.5354069129
 30
0.0
 11
390.4205697082
 21
109.5354069129
 31
0.0
  0
SPLINE
  5
B5
330
1F
100
AcDbEntity
  8
0
  6
Continuous
 62
     7
370
    25
100
AcDbSpline
210
0.0
220
0.0
230
1.0
 70
     8
 71
     3
 72
     8
 73
     4
 74
     0
 42
0.000000001
 43
0.00000001
 40
0.0
 40
0.0
 40
0.0
 40
0.0
 40
1.0
 40
1.0
 40
1.0
 40
1.0
 10
390.2491566067128
 20
109.6966384798905
 30
0.0
 10
390.3062197343989
 20
109.6430065294747
 30
0.0
 10
390.3633581141292
 20
109.5892624431097
 30
0.0
 10
390.420570407603
 20
109.5354072518595
 30
0.0
  0
ARC
  5
B6
330
1F
100
AcDbEntity
  8
0
  6
Continuous
 62
     7
370
    25
100
AcDbCircle
 10
383.1202389904
 20
104.5054069129
 30
0.0
 40
8.818749999999989
100
AcDbArc
 50
209.2047569376
 51
330.7952430624
  0
SPLINE
  5
B7
330
1F
100
AcDbEntity
  8
0
  6
Continuous
 62
     7
370
    25
100
AcDbSpline
210
0.0
220
0.0
230
1.0
 70
    24
 71
     3
 72
     8
 73
     4
 74
     0
 42
0.000000001
 43
0.00000001
 40
0.0
 40
0.0
 40
0.0
 40
0.0
 40
0.000136040218399
 40
0.000136040218399
 40
0.000136040218399
 40
0.000136040218399
 10
390.8613743872605
 20
100.2458664820066
 30
0.0
 10
390.8469353875764
 20
100.2314274823226
 30
0.0
 10
390.8324649352141
 20
100.2169570299603
 30
0.0
 10
390.8179633366627
 20
100.2024554314089
 30
0.0
  0
SPLINE
  5
B8
330
1F
100
AcDbEntity
  8
0
  6
Continuous
 62
     7
370
    25
100
AcDbSpline
210
0.0
220
0.0
230
1.0
 70
     8
 71
     3
 72
     9
 73
     5
 74
     0
 42
0.000000001
 43
0.00000001
 40
0.0
 40
0.0
 40
0.0
 40
0.0
 40
0.5086448740973026
 40
1.0
 40
1.0
 40
1.0
 40
1.0
 10
391.5080571160167
 20
100.2415758762215
 30
0.0
 10
391.3988910670189
 20
100.2422697250665
 30
0.0
 10
391.1842697181032
 20
100.2436338375944
 30
0.0
 10
390.9677584054257
 20
100.2451306575323
 30
0.0
 10
390.8613744621258
 20
100.2458661276813
 30
0.0
  0
SPLINE
  5
B9
330
1F
100
AcDbEntity
  8
0
  6
Continuous
 62
     7
370
    25
100
AcDbSpline
210
0.0
220
0.0
230
1.0
 70
     8
 71
     3
 72
     9
 73
     5
 74
     0
 42
0.000000001
 43
0.00000001
 40
0.0
 40
0.0
 40
0.0
 40
0.0
 40
0.4913551252639577
 40
1.0
 40
1.0
 40
1.0
 40
1.0
 10
375.379103549171
 20
100.2458660972167
 30
0.0
 10
375.272719597779
 20
100.2451306268879
 30
0.0
 10
375.0562082683513
 20
100.2436338065822
 30
0.0
 10
374.8415869029845
 20
100.2422696937278
 30
0.0
 10
374.7324208454819
 20
100.2415758447159
 30
0.0
  0
SPLINE
  5
BA
330
1F
100
AcDbEntity
  8
0
  6
Continuous
 62
     7
370
    25
100
AcDbSpline
210
0.0
220
0.0
230
1.0
 70
    24
 71
     3
 72
     8
 73
     4
 74
     0
 42
0.000000001
 43
0.00000001
 40
0.0
 40
0.0
 40
0.0
 40
0.0
 40
0.0001360401227241
 40
0.0001360401227241
 40
0.0001360401227241
 40
0.0001360401227241
 10
375.4225146441697
 20
100.2024554314089
 30
0.0
 10
375.408013055817
 20
100.2169570197616
 30
0.0
 10
375.3935426136097
 20
100.2314274619688
 30
0.0
 10
375.3791036240364
 20
100.2458664515422
 30
0.0
  0
LINE
  5
BB
330
1F
100
AcDbEntity
  8
0
  6
Continuous
 62
     7
370
    25
100
AcDbLine
 10
374.7217636964
 20
100.3991569129
 30
0.0
 11
375.2258135685
 21
100.3991569129
 31
0.0
  0
SPLINE
  5
BC
330
1F
100
AcDbEntity
  8
0
  6
Continuous
 62
     7
370
    25
100
AcDbSpline
210
0.0
220
0.0
230
1.0
 70
     8
 71
     3
 72
     8
 73
     4
 74
     0
 42
0.000000001
 43
0.00000001
 40
0.0
 40
0.0
 40
0.0
 40
0.0
 40
1.0
 40
1.0
 40
1.0
 40
1.0
 10
375.3791038238684
 20
100.2458662519551
 30
0.0
 10
375.328035061264
 20
100.2969087436991
 30
0.0
 10
375.2769381016279
 20
100.3480057157251
 30
0.0
 10
375.2258132601123
 20
100.3991568154663
 30
0.0
  0
SPLINE
  5
BD
330
1F
100
AcDbEntity
  8
0
  6
Continuous
 62
     7
370
    25
100
AcDbSpline
210
0.0
220
0.0
230
1.0
 70
     8
 71
     3
 72
     8
 73
     4
 74
     0
 42
0.000000001
 43
0.00000001
 40
0.0
 40
0.0
 40
0.0
 40
0.0
 40
1.0
 40
1.0
 40
1.0
 40
1.0
 10
391.0146647207201
 20
100.3991568154663
 30
0.0
 10
390.9635398893749
 20
100.348005725911
 30
0.0
 10
390.9124429398939
 20
100.29690876404
 30
0.0
 10
390.8613741874286
 20
100.2458662824196
 30
0.0
  0
LINE
  5
BE
330
1F
100
AcDbEntity
  8
0
  6
Continuous
 62
     7
370
    25
100
AcDbLine
 10
391.0146644124
 20
100.3991569129
 30
0.0
 11
391.51871427
 21
100.3991569129
 31
0.0
  0
CIRCLE
  5
BF
330
1F
100
AcDbEntity
  8
0
  6
Continuous
 62
     7
370
    25
100
AcDbCircle
 10
383.1202389904
 20
104.5054069129
 30
0.0
 40
12.47086902276413
  0
SPLINE
  5
C0
330
1F
100
AcDbEntity
  8
0
  6
Continuous
 62
     7
370
    25
100
AcDbSpline
210
0.0
220
0.0
230
1.0
 70
     8
 71
     3
 72
    23
 73
    19
 74
     0
 42
0.000000001
 43
0.00000001
 40
0.0
 40
0.0
 40
0.0
 40
0.0
 40
0.0521036415680443
 40
0.103564624093566
 40
0.1544751946749824
 40
0.2049306267488185
 40
0.2550287880859467
 40
0.3048696389155856
 40
0.3545546704622095
 40
0.4041862979533031
 40
0.4538672252131345
 40
0.503699799942109
 40
0.5901870230745642
 40
0.6742716378229198
 40
0.7565997087222741
 40
0.8378563983721098
 40
0.9187511781367312
 40
1.0
 40
1.0
 40
1.0
 40
1.0
 10
372.2809868437587
 20
108.9958176256077
 30
0.0
 10
372.2942811987086
 20
109.0249855187695
 30
0.0
 10
372.3207059327869
 20
109.0829615411738
 30
0.0
 10
372.359916939011
 20
109.1658608421863
 30
0.0
 10
372.3983588938169
 20
109.2450428232042
 30
0.0
 10
372.4359464752837
 20
109.3202976400063
 30
0.0
 10
372.4726023615913
 20
109.3917172942641
 30
0.0
 10
372.5082522256499
 20
109.4593139030456
 30
0.0
 10
372.5428259724109
 20
109.5231202245099
 30
0.0
 10
372.5762576663668
 20
109.5831637665788
 30
0.0
 10
372.6084845435914
 20
109.639470463305
 30
0.0
 10
372.6469859804809
 20
109.7048754451283
 30
0.0
 10
372.6896474611942
 20
109.7744365229643
 30
0.0
 10
372.7331405033173
 20
109.8411960196287
 30
0.0
 10
372.7695530001452
 20
109.8929200677265
 30
0.0
 10
372.7984538066224
 20
109.9293683797784
 30
0.0
 10
372.8203712627206
 20
109.9519657766616
 30
0.0
 10
372.828483227214
 20
109.9545549942229
 30
0.0
 10
372.8325480657364
 20
109.9558524297942
 30
0.0
  0
SPLINE
  5
C1
330
1F
100
AcDbEntity
  8
0
  6
Continuous
 62
     7
370
    25
100
AcDbSpline
210
0.0
220
0.0
230
1.0
 70
     8
 71
     3
 72
     8
 73
     4
 74
     0
 42
0.000000001
 43
0.00000001
 40
0.0
 40
0.0
 40
0.0
 40
0.0
 40
1.0
 40
1.0
 40
1.0
 40
1.0
 10
372.1603489038957
 20
108.9936072681979
 30
0.0
 10
372.2005379174888
 20
108.9943375784154
 30
0.0
 10
372.2407002195789
 20
108.9949181042449
 30
0.0
 10
372.2808349300544
 20
108.9953490691947
 30
0.0
  0
SPLINE
  5
C2
330
1F
100
AcDbEntity
  8
0
  6
Continuous
 62
     7
370
    25
100
AcDbSpline
210
0.0
220
0.0
230
1.0
 70
     8
 71
     3
 72
    18
 73
    14
 74
     0
 42
0.000000001
 43
0.00000001
 40
0.0
 40
0.0
 40
0.0
 40
0.0
 40
0.0923824559454013
 40
0.1844689291647927
 40
0.2764953616046289
 40
0.368697536560166
 40
0.4613092840112267
 40
0.5545607518542827
 40
0.648676805161927
 40
0.7438756050201499
 40
0.8403674044321215
 40
0.9203921078133473
 40
1.0
 40
1.0
 40
1.0
 40
1.0
 10
372.2132878926953
 20
109.2604242750797
 30
0.0
 10
372.2151235463481
 20
109.2602159628645
 30
0.0
 10
372.2187889724312
 20
109.2598000058424
 30
0.0
 10
372.2215843020506
 20
109.2529955823763
 30
0.0
 10
372.2223865971293
 20
109.2416622037242
 30
0.0
 10
372.2210204600862
 20
109.2253618086977
 30
0.0
 10
372.2175589114573
 20
109.2042105698618
 30
0.0
 10
372.2120176056878
 20
109.1781748687454
 30
0.0
 10
372.2044331376188
 20
109.1472504890942
 30
0.0
 10
372.1948561356818
 20
109.1114514576495
 30
0.0
 10
372.1840156596625
 20
109.0732005501177
 30
0.0
 10
372.1725270187232
 20
109.0339823367228
 30
0.0
 10
372.1644270338451
 20
109.0071273598732
 30
0.0
 10
372.1603876162023
 20
108.9937349315029
 30
0.0
  0
LINE
  5
C3
330
1F
100
AcDbEntity
  8
0
  6
Continuous
 62
     7
370
    25
100
AcDbLine
 10
372.1605325335
 20
109.2596765576
 30
0.0
 11
372.2132878927
 21
109.2604242751
 31
0.0
  0
SPLINE
  5
C4
330
1F
100
AcDbEntity
  8
0
  6
Continuous
 62
     7
370
    25
100
AcDbSpline
210
0.0
220
0.0
230
1.0
 70
     8
 71
     3
 72
    25
 73
    21
 74
     0
 42
0.000000001
 43
0.00000001
 40
0.0
 40
0.0
 40
0.0
 40
0.0
 40
0.0280105225429284
 40
0.0559601148865716
 40
0.0839014045049481
 40
0.1118870776793418
 40
0.139969582759596
 40
0.1682008401746174
 40
0.1966319670429139
 40
0.2253130233144346
 40
0.2542927850736023
 40
0.3799486436577953
 40
0.5057850221666315
 40
0.6313085886301525
 40
0.7532068238011418
 40
0.8039473267944002
 40
0.8535894438536894
 40
0.9025339722376491
 40
0.9511970353779324
 40
1.0
 40
1.0
 40
1.0
 40
1.0
 10
371.2495711256425
 20
106.6927446553922
 30
0.0
 10
371.2565501955535
 20
106.7300546688993
 30
0.0
 10
371.2704931540765
 20
106.8045935368936
 30
0.0
 10
371.2930150515195
 20
106.9159025823776
 30
0.0
 10
371.3166486636172
 20
107.0265647913926
 30
0.0
 10
371.3414982541053
 20
107.1365489243372
 30
0.0
 10
371.3675168785916
 20
107.2458440679517
 30
0.0
 10
371.3946982599094
 20
107.3544350371536
 30
0.0
 10
371.4230239012418
 20
107.4623057470954
 30
0.0
 10
371.4524826820743
 20
107.5694506928196
 30
0.0
 10
371.5168909699858
 20
107.7936255793295
 30
0.0
 10
371.6219926620573
 20
108.1202909933639
 30
0.0
 10
371.7674554228524
 20
108.5062375986823
 30
0.0
 10
371.9067188309625
 20
108.8283174113735
 30
0.0
 10
372.0038671838296
 20
109.0241379954044
 30
0.0
 10
372.0641625900577
 20
109.133485445892
 30
0.0
 10
372.0990511729387
 20
109.1914134703071
 30
0.0
 10
372.1269456748665
 20
109.2318674230721
 30
0.0
 10
372.1483107672382
 20
109.2564816384709
 30
0.0
 10
372.156454714811
 20
109.2586105659785
 30
0.0
 10
372.1605325334561
 20
109.2596765576499
 30
0.0
  0
ARC
  5
C5
330
1F
100
AcDbEntity
  8
0
  6
Continuous
 62
     7
370
    25
100
AcDbCircle
 10
383.1202389904
 20
104.5054069129
 30
0.0
 40
12.07050959801142
100
AcDbArc
 50
169.5595567507
 51
190.4404432494
  0
SPLINE
  5
C6
330
1F
100
AcDbEntity
  8
0
  6
Continuous
 62
     7
370
    25
100
AcDbSpline
210
0.0
220
0.0
230
1.0
 70
     8
 71
     3
 72
    26
 73
    22
 74
     0
 42
0.000000001
 43
0.00000001
 40
0.0
 40
0.0
 40
0.0
 40
0.0
 40
0.0241259796961556
 40
0.0482159912269293
 40
0.0723203915119221
 40
0.0964895678705268
 40
0.1207736231957763
 40
0.1452220711237314
 40
0.1698835501652852
 40
0.1948055644468628
 40
0.220034256951538
 40
0.2456142191611052
 40
0.3690971486895253
 40
0.4940698769485128
 40
0.6192566784762408
 40
0.7454656653603202
 40
0.7971495824713681
 40
0.848171030840538
 40
0.8988013269235222
 40
0.9493179290492182
 40
1.0
 40
1.0
 40
1.0
 40
1.0
 10
372.1605325334561
 20
99.75113726806579
 30
0.0
 10
372.1586222187157
 20
99.75142416125523
 30
0.0
 10
372.1548044372236
 20
99.75199751991998
 30
0.0
 10
372.1468443120427
 20
99.75805620816641
 30
0.0
 10
372.1372652114673
 20
99.76793546889725
 30
0.0
 10
372.1259180045986
 20
99.78201656000768
 30
0.0
 10
372.1128618213047
 20
99.80021210803181
 30
0.0
 10
372.0981059180774
 20
99.82256265077052
 30
0.0
 10
372.08167873778
 20
99.84907688646258
 30
0.0
 10
372.0636105830597
 20
99.87977239717588
 30
0.0
 10
372.0439334366367
 20
99.91467350041577
 30
0.0
 10
371.9957340552088
 20
100.0034380355226
 30
0.0
 10
371.9074160157734
 20
100.1807183369713
 30
0.0
 10
371.7683563990064
 20
100.5018042438169
 30
0.0
 10
371.6226837191441
 20
100.8883868957078
 30
0.0
 10
371.5089451241346
 20
101.2420945998378
 30
0.0
 10
371.4292395055881
 20
101.5243482994506
 30
0.0
 10
371.3785899332338
 20
101.7187917302249
 30
0.0
 10
371.3316232633684
 20
101.916033107159
 30
0.0
 10
371.288063441364
 20
102.1159361522541
 30
0.0
 10
371.2624158762325
 20
102.2506180919864
 30
0.0
 10
371.2495711256425
 20
102.3180691703235
 30
0.0
  0
LINE
  5
C7
330
1F
100
AcDbEntity
  8
0
  6
Continuous
 62
     7
370
    25
100
AcDbLine
 10
372.2132878927
 20
99.7503895506
 30
0.0
 11
372.1605325335
 21
99.7511372681
 31
0.0
  0
SPLINE
  5
C8
330
1F
100
AcDbEntity
  8
0
  6
Continuous
 62
     7
370
    25
100
AcDbSpline
210
0.0
220
0.0
230
1.0
 70
     8
 71
     3
 72
    14
 73
    10
 74
     0
 42
0.000000001
 43
0.00000001
 40
0.0
 40
0.0
 40
0.0
 40
0.0
 40
0.0789261963157259
 40
0.1582328720528836
 40
0.330847539454808
 40
0.5000195457586954
 40
0.6670357883553091
 40
0.833239519364563
 40
1.0
 40
1.0
 40
1.0
 40
1.0
 10
372.1602910358436
 20
100.0174130279404
 30
0.0
 10
372.1643055824395
 20
100.0041099033031
 30
0.0
 10
372.1723540285514
 20
99.97743952367128
 30
0.0
 10
372.1872547353609
 20
99.92662478435163
 30
0.0
 10
372.2031517169576
 20
99.86958496816435
 30
0.0
 10
372.2162302119555
 20
99.81528175143615
 30
0.0
 10
372.2224628190728
 20
99.7771146087131
 30
0.0
 10
372.2222732392359
 20
99.75370588003614
 30
0.0
 10
372.2162863451051
 20
99.75149622535754
 30
0.0
 10
372.2132878926953
 20
99.7503895506359
 30
0.0
  0
SPLINE
  5
C9
330
1F
100
AcDbEntity
  8
0
  6
Continuous
 62
     7
370
    25
100
AcDbSpline
210
0.0
220
0.0
230
1.0
 70
     8
 71
     3
 72
     8
 73
     4
 74
     0
 42
0.000000001
 43
0.00000001
 40
0.0
 40
0.0
 40
0.0
 40
0.0
 40
1.0
 40
1.0
 40
1.0
 40
1.0
 10
372.307595727068
 20
100.0153519494901
 30
0.0
 10
372.2585278120393
 20
100.0158390027021
 30
0.0
 10
372.2094183745185
 20
100.0165500705769
 30
0.0
 10
372.1602690299932
 20
100.0174855638112
 30
0.0
  0
SPLINE
  5
CA
330
1F
100
AcDbEntity
  8
0
  6
Continuous
 62
     7
370
    25
100
AcDbSpline
210
0.0
220
0.0
230
1.0
 70
     8
 71
     3
 72
    13
 73
     9
 74
     0
 42
0.000000001
 43
0.00000001
 40
0.0
 40
0.0
 40
0.0
 40
0.0
 40
0.1667030582308063
 40
0.3329480818053115
 40
0.4990671507274935
 40
0.6653938523718516
 40
0.8322612710550141
 40
1.0
 40
1.0
 40
1.0
 40
1.0
 10
372.3659292592389
 20
99.94663842470617
 30
0.0
 10
372.3640859454021
 20
99.94705553447193
 30
0.0
 10
372.3604043824322
 20
99.94788860794932
 30
0.0
 10
372.3528871286377
 20
99.95390308677574
 30
0.0
 10
372.3439363245212
 20
99.96339781906794
 30
0.0
 10
372.3333860360981
 20
99.9768074261776
 30
0.0
 10
372.3214128505811
 20
99.99372532980117
 30
0.0
 10
372.3122064429747
 20
100.0081380649406
 30
0.0
 10
372.3075912524859
 20
100.0153631978022
 30
0.0
  0
SPLINE
  5
CB
330
1F
100
AcDbEntity
  8
0
  6
Continuous
 62
     7
370
    25
100
AcDbSpline
210
0.0
220
0.0
230
1.0
 70
     8
 71
     3
 72
    13
 73
     9
 74
     0
 42
0.000000001
 43
0.00000001
 40
0.0
 40
0.0
 40
0.0
 40
0.0
 40
0.1686319999748089
 40
0.3360343310905561
 40
0.5025367825908729
 40
0.6684737453788404
 40
0.8341822636915154
 40
1.0
 40
1.0
 40
1.0
 40
1.0
 10
393.9328881094645
 20
100.015366647615
 30
0.0
 10
393.9282508643664
 20
100.0081094875956
 30
0.0
 10
393.9190101890799
 20
99.99364808695329
 30
0.0
 10
393.9069948157128
 20
99.97666739024916
 30
0.0
 10
393.8964292619582
 20
99.96323460906966
 30
0.0
 10
393.8874899126652
 20
99.95375514051568
 30
0.0
 10
393.8800090320767
 20
99.94778991481785
 30
0.0
 10
393.8763692247872
 20
99.94702233903344
 30
0.0
 10
393.8745487215935
 20
99.94663842470617
 30
0.0
  0
SPLINE
  5
CC
330
1F
100
AcDbEntity
  8
0
  6
Continuous
 62
     7
370
    25
100
AcDbSpline
210
0.0
220
0.0
230
1.0
 70
     8
 71
     3
 72
     8
 73
     4
 74
     0
 42
0.000000001
 43
0.00000001
 40
0.0
 40
0.0
 40
0.0
 40
0.0
 40
1.0
 40
1.0
 40
1.0
 40
1.0
 10
394.0802137214371
 20
100.0174856685577
 30
0.0
 10
394.0310627918287
 20
100.0165501382957
 30
0.0
 10
393.9819517717494
 20
100.0158390477836
 30
0.0
 10
393.9328822768416
 20
100.0153519862857
 30
0.0
  0
SPLINE
  5
CD
330
1F
100
AcDbEntity
  8
0
  6
Continuous
 62
     7
370
    25
100
AcDbSpline
210
0.0
220
0.0
230
1.0
 70
     8
 71
     3
 72
    18
 73
    14
 74
     0
 42
0.000000001
 43
0.00000001
 40
0.0
 40
0.0
 40
0.0
 40
0.0
 40
0.0923325137124559
 40
0.1843692047086504
 40
0.2763458873841173
 40
0.3684982175689556
 40
0.4610598988338003
 40
0.5542609546564705
 40
0.6483261285468145
 40
0.7434734636522684
 40
0.839913099312583
 40
0.920166071830381
 40
1.0
 40
1.0
 40
1.0
 40
1.0
 10
394.027190088137
 20
99.7503895506359
 30
0.0
 10
394.0253544344845
 20
99.75059786285172
 30
0.0
 10
394.0216890084019
 20
99.75101381987503
 30
0.0
 10
394.0188936787796
 20
99.75781824333228
 30
0.0
 10
394.0180913837127
 20
99.7691516220181
 30
0.0
 10
394.0194575207119
 20
99.78545201691847
 30
0.0
 10
394.022919069506
 20
99.80660325622857
 30
0.0
 10
394.0284603746524
 20
99.83263895555615
 30
0.0
 10
394.0360448450797
 20
99.86356334197883
 30
0.0
 10
394.0456218380602
 20
99.89936234770694
 30
0.0
 10
394.0564731850861
 20
99.93765159282083
 30
0.0
 10
394.0679879467182
 20
99.97695721723755
 30
0.0
 10
394.0761196555393
 20
100.0039142951313
 30
0.0
 10
394.0801748671471
 20
100.0173575525807
 30
0.0
  0
LINE
  5
CE
330
1F
100
AcDbEntity
  8
0
  6
Continuous
 62
     7
370
    25
100
AcDbLine
 10
394.0799454474
 20
99.7511372681
 30
0.0
 11
394.0271900881
 21
99.7503895506
 31
0.0
  0
SPLINE
  5
CF
330
1F
100
AcDbEntity
  8
0
  6
Continuous
 62
     7
370
    25
100
AcDbSpline
210
0.0
220
0.0
230
1.0
 70
     8
 71
     3
 72
    25
 73
    21
 74
     0
 42
0.000000001
 43
0.00000001
 40
0.0
 40
0.0
 40
0.0
 40
0.0
 40
0.0280105225422327
 40
0.0559601148853515
 40
0.0839014045033802
 40
0.1118870776776037
 40
0.1399695827578598
 40
0.168200840173054
 40
0.1966319670416873
 40
0.2253130233137065
 40
0.2542927850735304
 40
0.3799486436555246
 40
0.5057850221666196
 40
0.6313085886311499
 40
0.7532068238012074
 40
0.8039473267951883
 40
0.8535894438548528
 40
0.9025339722388155
 40
0.9511970353787135
 40
1.0
 40
1.0
 40
1.0
 40
1.0
 10
394.9909068551899
 20
102.3180691703235
 30
0.0
 10
394.983927785279
 20
102.2807591568174
 30
0.0
 10
394.9699848267564
 20
102.2062202888247
 30
0.0
 10
394.9474629293138
 20
102.0949112433428
 30
0.0
 10
394.9238293172164
 20
101.9842490343291
 30
0.0
 10
394.8989797267286
 20
101.8742649013852
 30
0.0
 10
394.8729611022424
 20
101.7649697577707
 30
0.0
 10
394.8457797209244
 20
101.6563787885681
 30
0.0
 10
394.8174540795918
 20
101.5485080786249
 30
0.0
 10
394.7879952987588
 20
101.4413631328987
 30
0.0
 10
394.7235870108476
 20
101.2171882463892
 30
0.0
 10
394.6184853187759
 20
100.8905228323534
 30
0.0
 10
394.4730225579806
 20
100.5045762270349
 30
0.0
 10
394.333759149869
 20
100.1824964143398
 30
0.0
 10
394.2366107970021
 20
99.98667583030965
 30
0.0
 10
394.1763153907747
 20
99.87732837982398
 30
0.0
 10
394.1414268078935
 20
99.81940035540872
 30
0.0
 10
394.1135323059657
 20
99.77894640264375
 30
0.0
 10
394.0921672135941
 20
99.75433218724483
 30
0.0
 10
394.0840232660213
 20
99.75220325973717
 30
0.0
 10
394.0799454473762
 20
99.75113726806578
 30
0.0
  0
ARC
  5
D0
330
1F
100
AcDbEntity
  8
0
  6
Continuous
 62
     7
370
    25
100
AcDbCircle
 10
383.1202389904
 20
104.5054069129
 30
0.0
 40
12.07050959801147
100
AcDbArc
 50
349.5595567507
 51
10.4404432493
  0
SPLINE
  5
D1
330
1F
100
AcDbEntity
  8
0
  6
Continuous
 62
     7
370
    25
100
AcDbSpline
210
0.0
220
0.0
230
1.0
 70
     8
 71
     3
 72
    26
 73
    22
 74
     0
 42
0.000000001
 43
0.00000001
 40
0.0
 40
0.0
 40
0.0
 40
0.0
 40
0.0241259796960501
 40
0.0482159912267432
 40
0.0723203915116785
 40
0.0964895678702493
 40
0.1207736231954871
 40
0.1452220711234535
 40
0.1698835501650412
 40
0.1948055644466733
 40
0.2200342569514245
 40
0.2456142191610881
 40
0.369097148689205
 40
0.4940698769485085
 40
0.6192566784761016
 40
0.7454656653603114
 40
0.7971495824712787
 40
0.8481710308404068
 40
0.8988013269233927
 40
0.9493179290491323
 40
1.0
 40
1.0
 40
1.0
 40
1.0
 10
394.0799454473762
 20
109.2596765576499
 30
0.0
 10
394.0818557621166
 20
109.2593896644604
 30
0.0
 10
394.0856735436088
 20
109.2588163057957
 30
0.0
 10
394.0936336687896
 20
109.2527576175492
 30
0.0
 10
394.103212769365
 20
109.2428783568184
 30
0.0
 10
394.1145599762337
 20
109.228797265708
 30
0.0
 10
394.1276161595276
 20
109.2106017176838
 30
0.0
 10
394.142372062755
 20
109.1882511749451
 30
0.0
 10
394.1587992430524
 20
109.1617369392531
 30
0.0
 10
394.1768673977726
 20
109.1310414285398
 30
0.0
 10
394.1965445441957
 20
109.0961403252999
 30
0.0
 10
394.2447439256234
 20
109.0073757901935
 30
0.0
 10
394.3330619650588
 20
108.8300954887448
 30
0.0
 10
394.4721215818258
 20
108.5090095818992
 30
0.0
 10
394.6177942616882
 20
108.1224269300079
 30
0.0
 10
394.7315328566977
 20
107.7687192258781
 30
0.0
 10
394.8112384752442
 20
107.4864655262654
 30
0.0
 10
394.8618880475985
 20
107.2920220954912
 30
0.0
 10
394.9088547174638
 20
107.0947807185571
 30
0.0
 10
394.9524145394683
 20
106.8948776734618
 30
0.0
 10
394.9780621045999
 20
106.7601957337294
 30
0.0
 10
394.9909068551899
 20
106.6927446553921
 30
0.0
  0
LINE
  5
D2
330
1F
100
AcDbEntity
  8
0
  6
Continuous
 62
     7
370
    25
100
AcDbLine
 10
394.0271900881
 20
109.2604242751
 30
0.0
 11
394.0799454474
 21
109.2596765576
 31
0.0
  0
SPLINE
  5
D3
330
1F
100
AcDbEntity
  8
0
  6
Continuous
 62
     7
370
    25
100
AcDbSpline
210
0.0
220
0.0
230
1.0
 70
     8
 71
     3
 72
    14
 73
    10
 74
     0
 42
0.000000001
 43
0.00000001
 40
0.0
 40
0.0
 40
0.0
 40
0.0
 40
0.0786889129238317
 40
0.1577561817131888
 40
0.330468600315448
 40
0.4997364082489096
 40
0.666847231670587
 40
0.8331450833801949
 40
1.0
 40
1.0
 40
1.0
 40
1.0
 10
394.0800983749135
 20
108.9936927658627
 30
0.0
 10
394.0761003659588
 20
109.0069426703786
 30
0.0
 10
394.0680851246282
 20
109.0335061882468
 30
0.0
 10
394.053212451339
 20
109.0842277160152
 30
0.0
 10
394.0373262865771
 20
109.1412287950387
 30
0.0
 10
394.0242477629329
 20
109.1955320906478
 30
0.0
 10
394.0180151633278
 20
109.2336992126851
 30
0.0
 10
394.018204741204
 20
109.2571079467608
 30
0.0
 10
394.0241916355963
 20
109.2593176007189
 30
0.0
 10
394.027190088137
 20
109.2604242750797
 30
0.0
  0
SPLINE
  5
D4
330
1F
100
AcDbEntity
  8
0
  6
Continuous
 62
     7
370
    25
100
AcDbSpline
210
0.0
220
0.0
230
1.0
 70
     8
 71
     3
 72
     8
 73
     4
 74
     0
 42
0.000000001
 43
0.00000001
 40
0.0
 40
0.0
 40
0.0
 40
0.0
 40
1.0
 40
1.0
 40
1.0
 40
1.0
 10
393.959643034231
 20
108.9953491058276
 30
0.0
 10
393.9997761527377
 20
108.9949181518803
 30
0.0
 10
394.0399368606661
 20
108.9943376488678
 30
0.0
 10
394.0801242780091
 20
108.9936073733082
 30
0.0
  0
SPLINE
  5
D5
330
1F
100
AcDbEntity
  8
0
  6
Continuous
 62
     7
370
    25
100
AcDbSpline
210
0.0
220
0.0
230
1.0
 70
     8
 71
     3
 72
    23
 73
    19
 74
     0
 42
0.000000001
 43
0.00000001
 40
0.0
 40
0.0
 40
0.0
 40
0.0
 40
0.0441308420121337
 40
0.0880968635211806
 40
0.1320155028409076
 40
0.1760048571434343
 40
0.2201827305793822
 40
0.2646656976937621
 40
0.3095682184570084
 40
0.3550018365594612
 40
0.4010744854744679
 40
0.4478899182340139
 40
0.4955472680214194
 40
0.5953670562442849
 40
0.6949121173386639
 40
0.7950007648970017
 40
0.8964386255160219
 40
1.0
 40
1.0
 40
1.0
 40
1.0
 10
393.4079299150959
 20
109.9558524297942
 30
0.0
 10
393.4099143052027
 20
109.9555695725643
 30
0.0
 10
393.4138756740876
 20
109.9550049145237
 30
0.0
 10
393.4227359783181
 20
109.948585561345
 30
0.0
 10
393.4337084564405
 20
109.9380643118384
 30
0.0
 10
393.4469878544609
 20
109.9230327755287
 30
0.0
 10
393.4624985781272
 20
109.9035805304662
 30
0.0
 10
393.4802300398803
 20
109.8796605525141
 30
0.0
 10
393.5001466865834
 20
109.8512594618003
 30
0.0
 10
393.5222122205956
 20
109.8183517219996
 30
0.0
 10
393.5463831442897
 20
109.7809117393434
 30
0.0
 10
393.572610154337
 20
109.7389116677136
 30
0.0
 10
393.6109467345678
 20
109.6756345591908
 30
0.0
 10
393.663279513946
 20
109.5855756968281
 30
0.0
 10
393.7316801251539
 20
109.4612295772618
 30
0.0
 10
393.8043651999494
 20
109.3215164992813
 30
0.0
 10
393.8807254358496
 20
109.1671804840525
 30
0.0
 10
393.9330142505
 20
109.0534578298242
 30
0.0
 10
393.9594294784038
 20
108.9960074965294
 30
0.0
  0
SPLINE
  5
D6
330
1F
100
AcDbEntity
  8
0
  6
Continuous
 62
     7
370
    25
100
AcDbSpline
210
0.0
220
0.0
230
1.0
 70
    11
 71
     3
 72
    39
 73
    35
 74
     0
 42
0.000000001
 43
0.00000001
 40
0.0
 40
0.0
 40
0.0
 40
0.0
 40
0.0310664058348413
 40
0.0621048158426138
 40
0.0931361551796939
 40
0.1235538293503726
 40
0.1538561545809849
 40
0.1850588072749156
 40
0.2160250992946587
 40
0.2471867223797568
 40
0.2784462884304475
 40
0.3100516090231247
 40
0.3419834369138969
 40
0.3734259894013238
 40
0.4048604886787081
 40
0.436874065183343
 40
0.4685120685926471
 40
0.499805535863323
 40
0.5309508213226204
 40
0.5618649784438111
 40
0.5930416446590877
 40
0.623374245013332
 40
0.6540913579072549
 40
0.6849496782718453
 40
0.7158160645166705
 40
0.7471731804043553
 40
0.7784514311866318
 40
0.810129591156098
 40
0.8419598919688388
 40
0.8735175891922303
 40
0.9050808037886594
 40
0.9370235169792582
 40
0.9687441590030581
 40
1.0
 40
1.0
 40
1.0
 40
1.0
 10
386.0243655552135
 20
93.07377672910441
 30
0.0
 10
386.2140773841682
 20
93.11254530585191
 30
0.0
 10
386.557818234617
 20
93.18897625163493
 30
0.0
 10
386.9407752218247
 20
93.27711579162816
 30
0.0
 10
387.1852156885398
 20
93.32406527827312
 30
0.0
 10
387.266204625356
 20
93.31215635355937
 30
0.0
 10
387.1854821798743
 20
93.2401984468439
 30
0.0
 10
386.9456199862547
 20
93.11567818064654
 30
0.0
 10
386.5689702521574
 20
92.95830919082137
 30
0.0
 10
386.0627273153295
 20
92.78628510612636
 30
0.0
 10
385.4454529216461
 20
92.62136069854071
 30
0.0
 10
384.7329771075063
 20
92.48364812246221
 30
0.0
 10
383.9575118677337
 20
92.39201530995354
 30
0.0
 10
383.1470474341194
 20
92.35868273185804
 30
0.0
 10
382.334542961157
 20
92.38793017741133
 30
0.0
 10
381.5550299710198
 20
92.47625913439892
 30
0.0
 10
380.8367016716844
 20
92.61176463403375
 30
0.0
 10
380.2133295642843
 20
92.77554115552502
 30
0.0
 10
379.7002309696888
 20
92.94754729967033
 30
0.0
 10
379.3150288598273
 20
93.1063593141415
 30
0.0
 10
379.0656042545863
 20
93.23361827930697
 30
0.0
 10
378.9750022146399
 20
93.30922523626195
 30
0.0
 10
379.0432137855991
 20
93.32599463294184
 30
0.0
 10
379.2754296520018
 20
93.28321429072659
 30
0.0
 10
379.6526466891861
 20
93.19608760581671
 30
0.0
 10
380.1643515569537
 20
93.08135855050972
 30
0.0
 10
380.7878226877006
 20
92.9619364054572
 30
0.0
 10
381.5043673908334
 20
92.8573109554079
 30
0.0
 10
382.2826985034444
 20
92.78666246248102
 30
0.0
 10
383.0945299902943
 20
92.76058363805099
 30
0.0
 10
383.9083045122914
 20
92.78360920974173
 30
0.0
 10
384.6906783564569
 20
92.8518416478794
 30
0.0
 10
385.4126913911908
 20
92.95508882758912
 30
0.0
 10
385.8334969110398
 20
93.03477175128565
 30
0.0
 10
386.0243655552135
 20
93.0737767291044
 30
0.0
  0
SPLINE
  5
D7
330
1F
100
AcDbEntity
  8
0
  6
Continuous
 62
     7
370
    25
100
AcDbSpline
210
0.0
220
0.0
230
1.0
 70
    11
 71
     3
 72
    39
 73
    35
 74
     0
 42
0.000000001
 43
0.00000001
 40
0.0
 40
0.0
 40
0.0
 40
0.0
 40
0.0312651429934057
 40
0.0629601069329321
 40
0.0948697276489808
 40
0.1264264963751833
 40
0.1579651393672472
 40
0.1898765439016956
 40
0.221552335268876
 40
0.2527844076550827
 40
0.2838418966734154
 40
0.3148645781100674
 40
0.3459127639308091
 40
0.3763475365526575
 40
0.4066751324671412
 40
0.4379141187435632
 40
0.4688932367345488
 40
0.5000738678969536
 40
0.5313369410958942
 40
0.5629183719104849
 40
0.5948445736343699
 40
0.6262809966135365
 40
0.6577486436587271
 40
0.6897584692806508
 40
0.7214430019610059
 40
0.7527623343195418
 40
0.7839279690572818
 40
0.8148885765585865
 40
0.8460375004982862
 40
0.8763409566916784
 40
0.906758919146387
 40
0.9378312724751761
 40
0.9689189660506093
 40
1.0
 40
1.0
 40
1.0
 40
1.0
 10
386.0242613054267
 20
115.937069149047
 30
0.0
 10
385.833187369145
 20
115.9761331069277
 30
0.0
 10
385.4122528067055
 20
116.0558521014878
 30
0.0
 10
384.6908634015418
 20
116.1589675168382
 30
0.0
 10
383.9092073532514
 20
116.2271683892621
 30
0.0
 10
383.0961196335406
 20
116.250225281904
 30
0.0
 10
382.2838394166885
 20
116.2242410082578
 30
0.0
 10
381.5052089916391
 20
116.1536508430196
 30
0.0
 10
380.7885332017276
 20
116.0490352807804
 30
0.0
 10
380.166657932066
 20
115.9298629557641
 30
0.0
 10
379.6571469985801
 20
115.8159257880378
 30
0.0
 10
379.2820276523359
 20
115.7298115090913
 30
0.0
 10
379.046067077485
 20
115.6857557877555
 30
0.0
 10
378.9746665343034
 20
115.7012855884666
 30
0.0
 10
379.0652629641012
 20
115.7767944706506
 30
0.0
 10
379.3142392444607
 20
115.9039679984948
 30
0.0
 10
379.6991540643035
 20
116.062818677107
 30
0.0
 10
380.2119393711257
 20
116.234842938317
 30
0.0
 10
380.8343984940505
 20
116.3985160178517
 30
0.0
 10
381.550898638857
 20
116.533917591232
 30
0.0
 10
382.3289976729671
 20
116.6224352587148
 30
0.0
 10
383.1407203616141
 20
116.6521426671976
 30
0.0
 10
383.9521625493153
 20
116.6192562225475
 30
0.0
 10
384.7292884407975
 20
116.5277753145027
 30
0.0
 10
385.4437265299679
 20
116.3898911245413
 30
0.0
 10
386.0619494882033
 20
116.2247632996913
 30
0.0
 10
386.5683168489292
 20
116.0527127623388
 30
0.0
 10
386.9448693703429
 20
115.8954292406285
 30
0.0
 10
387.1845651817743
 20
115.7710254431445
 30
0.0
 10
387.2660318899686
 20
115.6988372697082
 30
0.0
 10
387.1859726474768
 20
115.6865647613302
 30
0.0
 10
386.941626641523
 20
115.7334601718363
 30
0.0
 10
386.5586532080741
 20
115.8215937199819
 30
0.0
 10
386.2142100768642
 20
115.8982352245918
 30
0.0
 10
386.0242613054267
 20
115.937069149047
 30
0.0
  0
SPLINE
  5
D8
330
1F
100
AcDbEntity
  8
0
  6
Continuous
 62
     7
370
    25
100
AcDbSpline
210
0.0
220
0.0
230
1.0
 70
     8
 71
     3
 72
    23
 73
    19
 74
     0
 42
0.000000001
 43
0.00000001
 40
0.0
 40
0.0
 40
0.0
 40
0.0
 40
0.0449850911547978
 40
0.0909520670823913
 40
0.1379394291328585
 40
0.1859832248994873
 40
0.2351171761776766
 40
0.285372809648614
 40
0.3367795876649866
 40
0.389365037084781
 40
0.4431548745956124
 40
0.4981731273942906
 40
0.557510759134935
 40
0.6265492282104752
 40
0.7053073139841747
 40
0.7937970254538392
 40
0.8920262116419598
 40
1.0
 40
1.0
 40
1.0
 40
1.0
 10
373.229297278859
 20
109.5354069128578
 30
0.0
 10
373.2271345894932
 20
109.5349780111982
 30
0.0
 10
373.2227620059724
 20
109.5341108462883
 30
0.0
 10
373.2124810467807
 20
109.5270172786864
 30
0.0
 10
373.1994207687506
 20
109.5154045371063
 30
0.0
 10
373.1833016071963
 20
109.4986151669325
 30
0.0
 10
373.1642011795403
 20
109.4765431803167
 30
0.0
 10
373.1420988267844
 20
109.4489457065527
 30
0.0
 10
373.1169983482489
 20
109.4156372753433
 30
0.0
 10
373.0889072168712
 20
109.3764369369372
 30
0.0
 10
373.0577913160196
 20
109.3311948914656
 30
0.0
 10
373.023152385126
 20
109.2787989590627
 30
0.0
 10
372.9824308768299
 20
109.2160164908145
 30
0.0
 10
372.9337099557857
 20
109.1382594915144
 30
0.0
 10
372.8759356174612
 20
109.0409749339131
 30
0.0
 10
372.8090249678229
 20
108.9212301001971
 30
0.0
 10
372.7330810035496
 20
108.7773098953293
 30
0.0
 10
372.6787198388814
 20
108.6665756904796
 30
0.0
 10
372.6502547747779
 20
108.6085920865827
 30
0.0
  0
LINE
  5
D9
330
1F
100
AcDbEntity
  8
0
  6
Continuous
 62
     7
370
    25
100
AcDbLine
 10
372.6502547748
 20
108.6091184185
 30
0.0
 11
372.2809150368
 21
108.9952029454
 31
0.0
  0
LINE
  5
DA
330
1F
100
AcDbEntity
  8
0
  6
Continuous
 62
     7
370
    25
100
AcDbLine
 10
393.9595303724
 20
108.9951435406
 30
0.0
 11
393.5902636907
 21
108.6091354356
 31
0.0
  0
SPLINE
  5
DB
330
1F
100
AcDbEntity
  8
0
  6
Continuous
 62
     7
370
    25
100
AcDbSpline
210
0.0
220
0.0
230
1.0
 70
     8
 71
     3
 72
    26
 73
    22
 74
     0
 42
0.000000001
 43
0.00000001
 40
0.0
 40
0.0
 40
0.0
 40
0.0
 40
0.0509383868653979
 40
0.0998291548270505
 40
0.1466728126490638
 40
0.1914699456369332
 40
0.2342212299774179
 40
0.274927450668867
 40
0.3135895241747119
 40
0.3502085273716571
 40
0.3847857350077695
 40
0.4173226688482998
 40
0.4478211631571791
 40
0.4762834534603437
 40
0.5027122992246547
 40
0.593906700502561
 40
0.6816015993191188
 40
0.7659159552051488
 40
0.846983628966416
 40
0.9249552229440475
 40
1.0
 40
1.0
 40
1.0
 40
1.0
 10
393.5902636907228
 20
108.608401356333
 30
0.0
 10
393.5768058265247
 20
108.6360221374973
 30
0.0
 10
393.550431076727
 20
108.6901534009506
 30
0.0
 10
393.5120588969481
 20
108.7664614380258
 30
0.0
 10
393.4755927144558
 20
108.8372136176175
 30
0.0
 10
393.4410564648321
 20
108.9023854443057
 30
0.0
 10
393.4084440129793
 20
108.9622436895574
 30
0.0
 10
393.3777567291863
 20
109.0170088490987
 30
0.0
 10
393.3489941128852
 20
109.0669332404107
 30
0.0
 10
393.3221559484128
 20
109.1122754710058
 30
0.0
 10
393.2972423679846
 20
109.1533014099466
 30
0.0
 10
393.2742517211959
 20
109.1902787948937
 30
0.0
 10
393.2531882157062
 20
109.2234749108771
 30
0.0
 10
393.234035845327
 20
109.2531506431443
 30
0.0
 10
393.2023647683821
 20
109.3018209681941
 30
0.0
 10
393.1608948229455
 20
109.3637162861128
 30
0.0
 10
393.1139053068018
 20
109.4290568935366
 30
0.0
 10
393.0752867370869
 20
109.4781752848284
 30
0.0
 10
393.0452382773655
 20
109.5116515733406
 30
0.0
 10
393.0229481663964
 20
109.5317690055786
 30
0.0
 10
393.015052850963
 20
109.5342098394281
 30
0.0
 10
393.0111807019734
 20
109.5354069128578
 30
0.0
  0
SPLINE
  5
DC
330
1F
100
AcDbEntity
  8
0
  6
Continuous
 62
     7
370
    25
100
AcDbSpline
210
0.0
220
0.0
230
1.0
 70
     8
 71
     3
 72
     8
 73
     4
 74
     0
 42
0.000000001
 43
0.00000001
 40
0.0
 40
0.0
 40
0.0
 40
0.0
 40
1.0
 40
1.0
 40
1.0
 40
1.0
 10
390.8619194422166
 20
108.7284052393405
 30
0.0
 10
390.9255124225566
 20
108.6627364614938
 30
0.0
 10
390.9894688489919
 20
108.5983941638335
 30
0.0
 10
391.0536677686993
 20
108.5366569128578
 30
0.0
  0
SPLINE
  5
DD
330
1F
100
AcDbEntity
  8
0
  6
Continuous
 62
     7
370
    25
100
AcDbSpline
210
0.0
220
0.0
230
1.0
 70
     8
 71
     3
 72
    25
 73
    21
 74
     0
 42
0.000000001
 43
0.00000001
 40
0.0
 40
0.0
 40
0.0
 40
0.0
 40
0.0367725003254103
 40
0.074208401060063
 40
0.1123590542807964
 40
0.1512729822568881
 40
0.190995910016845
 40
0.2315708273504481
 40
0.2730380740418892
 40
0.3154354426077851
 40
0.3587982934432034
 40
0.4031596779810961
 40
0.4485504661847858
 40
0.494999475376923
 40
0.5532504315673752
 40
0.621829488573267
 40
0.7007739996560722
 40
0.7901076726660372
 40
0.8898461547533933
 40
1.0
 40
1.0
 40
1.0
 40
1.0
 10
390.419998254905
 20
109.5354069128575
 30
0.0
 10
390.4202220289699
 20
109.5350822252237
 30
0.0
 10
390.4206736141328
 20
109.534426992375
 30
0.0
 10
390.4253906540051
 20
109.5290646205872
 30
0.0
 10
390.4330432630877
 20
109.5203090268867
 30
0.0
 10
390.4439362422247
 20
109.5076848087948
 30
0.0
 10
390.4579848286405
 20
109.4911284706644
 30
0.0
 10
390.4752117262497
 20
109.4704712932866
 30
0.0
 10
390.4956102790312
 20
109.4455835573188
 30
0.0
 10
390.5191810923234
 20
109.4163360111255
 30
0.0
 10
390.5459264408831
 20
109.382613075929
 30
0.0
 10
390.5758342943154
 20
109.3443072608035
 30
0.0
 10
390.60895038666
 20
109.3013363654656
 30
0.0
 10
390.6478763082339
 20
109.2499150837948
 30
0.0
 10
390.6967043879505
 20
109.1856988521057
 30
0.0
 10
390.7586249925516
 20
109.1028043230112
 30
0.0
 10
390.8330095508725
 20
108.9988585727967
 30
0.0
 10
390.9199839788611
 20
108.8707723625394
 30
0.0
 10
391.0194088288437
 20
108.7166825826331
 30
0.0
 10
391.0908280045732
 20
108.5986183467627
 30
0.0
 10
391.1283095882541
 20
108.5366569128578
 30
0.0
  0
LINE
  5
DE
330
1F
100
AcDbEntity
  8
0
  6
Continuous
 62
     7
370
    25
100
AcDbLine
 10
391.1283095883
 20
108.5366569129
 30
0.0
 11
391.0536677687
 21
108.5366569129
 31
0.0
  0
SPLINE
  5
DF
330
1F
100
AcDbEntity
  8
0
  6
Continuous
 62
     7
370
    25
100
AcDbSpline
210
0.0
220
0.0
230
1.0
 70
     8
 71
     3
 72
    23
 73
    19
 74
     0
 42
0.000000001
 43
0.00000001
 40
0.0
 40
0.0
 40
0.0
 40
0.0
 40
0.0511129009818375
 40
0.1016896331769429
 40
0.1518293139012816
 40
0.201633670178886
 40
0.2512064936643741
 40
0.3006530342900144
 40
0.3500793489623502
 40
0.3995916247861424
 40
0.4492954981403415
 40
0.4992953912355765
 40
0.5872572780511617
 40
0.672425549433218
 40
0.7555067762520883
 40
0.8372616735253525
 40
0.9184882400156057
 40
1.0
 40
1.0
 40
1.0
 40
1.0
 10
390.8619821183419
 20
108.7286479554357
 30
0.0
 10
390.8459665344424
 20
108.7577765576649
 30
0.0
 10
390.814103368381
 20
108.8157282062459
 30
0.0
 10
390.7670595299645
 20
108.8984860414602
 30
0.0
 10
390.7210810057912
 20
108.9775748999417
 30
0.0
 10
390.6763003389888
 20
109.0527918878743
 30
0.0
 10
390.6328165745533
 20
109.1242549429195
 30
0.0
 10
390.5907306109685
 20
109.1919963471084
 30
0.0
 10
390.5501361465703
 20
109.2560698588551
 30
0.0
 10
390.5111212402184
 20
109.316523457929
 30
0.0
 10
390.4737714177285
 20
109.373400962861
 30
0.0
 10
390.4292431611345
 20
109.4401154359245
 30
0.0
 10
390.3806029005921
 20
109.5114357197907
 30
0.0
 10
390.3327638008363
 20
109.5800159722497
 30
0.0
 10
390.2951122887554
 20
109.6330323002919
 30
0.0
 10
390.268289587368
 20
109.6703049564194
 30
0.0
 10
390.2515607565444
 20
109.6933423559993
 30
0.0
 10
390.2497123465806
 20
109.6958770812645
 30
0.0
 10
390.2487865219603
 20
109.6971466649079
 30
0.0
  0
SPLINE
  5
E0
330
1F
100
AcDbEntity
  8
0
  6
Continuous
 62
     7
370
    25
100
AcDbSpline
210
0.0
220
0.0
230
1.0
 70
     8
 71
     3
 72
     8
 73
     4
 74
     0
 42
0.000000001
 43
0.00000001
 40
0.0
 40
0.0
 40
0.0
 40
0.0
 40
1.0
 40
1.0
 40
1.0
 40
1.0
 10
393.5241316374882
 20
108.5366569128577
 30
0.0
 10
393.5460170091314
 20
108.5609779290554
 30
0.0
 10
393.5679023807746
 20
108.5850025273778
 30
0.0
 10
393.5897877524176
 20
108.6087093794663
 30
0.0
  0
LINE
  5
E1
330
1F
100
AcDbEntity
  8
0
  6
Continuous
 62
     7
370
    25
100
AcDbLine
 10
393.5239714271
 20
108.5366569129
 30
0.0
 11
391.1283095883
 21
108.5366569129
 31
0.0
  0
SPLINE
  5
E2
330
1F
100
AcDbEntity
  8
0
  6
Continuous
 62
     7
370
    25
100
AcDbSpline
210
0.0
220
0.0
230
1.0
 70
     8
 71
     3
 72
     8
 73
     4
 74
     0
 42
0.000000001
 43
0.00000001
 40
0.0
 40
0.0
 40
0.0
 40
0.0
 40
1.0
 40
1.0
 40
1.0
 40
1.0
 10
372.6505960025899
 20
108.6088129469465
 30
0.0
 10
372.6725127750775
 20
108.5850724983873
 30
0.0
 10
372.6944295475651
 20
108.5610133466007
 30
0.0
 10
372.7163463200526
 20
108.5366569128578
 30
0.0
  0
SPLINE
  5
E3
330
1F
100
AcDbEntity
  8
0
  6
Continuous
 62
     7
370
    25
100
AcDbSpline
210
0.0
220
0.0
230
1.0
 70
     8
 71
     3
 72
    26
 73
    22
 74
     0
 42
0.000000001
 43
0.00000001
 40
0.0
 40
0.0
 40
0.0
 40
0.0
 40
0.0524616379932503
 40
0.1026498591890872
 40
0.150565513457809
 40
0.1962095861957063
 40
0.2395832262568645
 40
0.2806877815599511
 40
0.3195248450380211
 40
0.3560963147430692
 40
0.3904044736547445
 40
0.4224520974433627
 40
0.4522426027417772
 40
0.4797802555366611
 40
0.5050704712281336
 40
0.5966394156799991
 40
0.6841917884819224
 40
0.7679874773571101
 40
0.8483228539139507
 40
0.925534163520116
 40
1.0
 40
1.0
 40
1.0
 40
1.0
 10
375.1119908345
 20
108.5366718048755
 30
0.0
 10
375.1298523187884
 20
108.5664452649166
 30
0.0
 10
375.1648012627641
 20
108.62470195681
 30
0.0
 10
375.2155660962462
 20
108.7069009371746
 30
0.0
 10
375.263636053888
 20
108.7829818060753
 30
0.0
 10
375.3089800266529
 20
108.8529331545416
 30
0.0
 10
375.3516060061581
 20
108.9170403164936
 30
0.0
 10
375.3915123046673
 20
108.9755481559638
 30
0.0
 10
375.4286996337826
 20
109.0287367335858
 30
0.0
 10
375.4631684563735
 20
109.076894773823
 30
0.0
 10
375.4949185450058
 20
109.1203194470992
 30
0.0
 10
375.5239529496069
 20
109.1593095381962
 30
0.0
 10
375.550264238808
 20
109.1941636367226
 30
0.0
 10
375.5738808683521
 20
109.2251686311732
 30
0.0
 10
375.613526547358
 20
109.2774118498061
 30
0.0
 10
375.6650648441571
 20
109.3449411830633
 30
0.0
 10
375.7218909811382
 20
109.4171346292718
 30
0.0
 10
375.7660484091012
 20
109.4716185853944
 30
0.0
 10
375.7972260320432
 20
109.5088833765627
 30
0.0
 10
375.8166855986823
 20
109.5313477288374
 30
0.0
 10
375.8188271963628
 20
109.5340702782646
 30
0.0
 10
375.8198786129195
 20
109.5354069128578
 30
0.0
  0
LINE
  5
E4
330
1F
100
AcDbEntity
  8
0
  6
Continuous
 62
     7
370
    25
100
AcDbLine
 10
375.1119908345
 20
108.5366569129
 30
0.0
 11
372.7163463201
 21
108.5366569129
 31
0.0
  0
LINE
  5
E5
330
1F
100
AcDbEntity
  8
0
  6
Continuous
 62
     7
370
    25
100
AcDbLine
 10
375.1868102121
 20
108.5366569129
 30
0.0
 11
375.1116906138
 21
108.5366569129
 31
0.0
  0
SPLINE
  5
E6
330
1F
100
AcDbEntity
  8
0
  6
Continuous
 62
     7
370
    25
100
AcDbSpline
210
0.0
220
0.0
230
1.0
 70
     8
 71
     3
 72
     8
 73
     4
 74
     0
 42
0.000000001
 43
0.00000001
 40
0.0
 40
0.0
 40
0.0
 40
0.0
 40
1.0
 40
1.0
 40
1.0
 40
1.0
 10
375.1868102121331
 20
108.5366569128578
 30
0.0
 10
375.2507190147929
 20
108.5986257762889
 30
0.0
 10
375.3144939341449
 20
108.6626018414056
 30
0.0
 10
375.3778540000259
 20
108.7281364977513
 30
0.0
  0
SPLINE
  5
E7
330
1F
100
AcDbEntity
  8
0
  6
Continuous
 62
     7
370
    25
100
AcDbSpline
210
0.0
220
0.0
230
1.0
 70
     8
 71
     3
 72
    24
 73
    20
 74
     0
 42
0.000000001
 43
0.00000001
 40
0.0
 40
0.0
 40
0.0
 40
0.0
 40
0.0410257106276927
 40
0.0818520099057808
 40
0.1225800578327865
 40
0.1633117464026497
 40
0.2041489402771959
 40
0.2451927184713359
 40
0.2865426449200764
 40
0.3282960933614036
 40
0.3705476475465791
 40
0.413388592008023
 40
0.4569065022337061
 40
0.5011849368582145
 40
0.6001856774961036
 40
0.6987388860470333
 40
0.7976800645476073
 40
0.8978349910043563
 40
1.0
 40
1.0
 40
1.0
 40
1.0
 10
375.9914368059007
 20
109.6967969941893
 30
0.0
 10
375.9912420424596
 20
109.6965296440318
 30
0.0
 10
375.9908534622532
 20
109.6959962432104
 30
0.0
 10
375.9867986745788
 20
109.6904244972113
 30
0.0
 10
375.980204715599
 20
109.6813437480575
 30
0.0
 10
375.970840454689
 20
109.6684062876967
 30
0.0
 10
375.9587923409189
 20
109.6516878447909
 30
0.0
 10
375.9440697714585
 20
109.6311458340191
 30
0.0
 10
375.9267107786113
 20
109.6067644599723
 30
0.0
 10
375.906753607458
 20
109.5785157159005
 30
0.0
 10
375.8842445577624
 20
109.5463701684993
 30
0.0
 10
375.859235322001
 20
109.5102933285332
 30
0.0
 10
375.8317859524761
 20
109.4702497360138
 30
0.0
 10
375.789862839409
 20
109.4083292926728
 30
0.0
 10
375.730656664198
 20
109.3190168015765
 30
0.0
 10
375.6508770710777
 20
109.1944722095477
 30
0.0
 10
375.5648962860913
 20
109.0546874170579
 30
0.0
 10
375.4736114988693
 20
108.9002745980718
 30
0.0
 10
375.4104071448111
 20
108.7862285764207
 30
0.0
 10
375.3784909948455
 20
108.7286390324054
 30
0.0
  0
LINE
  5
E8
330
1F
100
AcDbEntity
  8
0
  6
Continuous
 62
     7
370
    25
100
AcDbLine
 10
372.3075980883
 20
100.0153519152
 30
0.0
 11
372.7318355033
 21
100.4641448137
 31
0.0
  0
SPLINE
  5
E9
330
1F
100
AcDbEntity
  8
0
  6
Continuous
 62
     7
370
    25
100
AcDbSpline
210
0.0
220
0.0
230
1.0
 70
     8
 71
     3
 72
    13
 73
     9
 74
     0
 42
0.000000001
 43
0.00000001
 40
0.0
 40
0.0
 40
0.0
 40
0.0
 40
0.1706320847147904
 40
0.3395984166119918
 40
0.5069574112587142
 40
0.6727691831295072
 40
0.8370955448417806
 40
1.0
 40
1.0
 40
1.0
 40
1.0
 10
372.7318355032939
 20
100.4641241713285
 30
0.0
 10
372.7368409737034
 20
100.4571727982446
 30
0.0
 10
372.7468030498761
 20
100.4433379131084
 30
0.0
 10
372.7596768777695
 20
100.4272101546496
 30
0.0
 10
372.7709431902659
 20
100.414541424492
 30
0.0
 10
372.7804205537009
 20
100.4056849866562
 30
0.0
 10
372.7883027863946
 20
100.4001729581796
 30
0.0
 10
372.792117692627
 20
100.3994946120993
 30
0.0
 10
372.7940168573426
 20
100.3991569128578
 30
0.0
  0
SPLINE
  5
EA
330
1F
100
AcDbEntity
  8
0
  6
Continuous
 62
     7
370
    25
100
AcDbSpline
210
0.0
220
0.0
230
1.0
 70
     8
 71
     3
 72
    13
 73
     9
 74
     0
 42
0.000000001
 43
0.00000001
 40
0.0
 40
0.0
 40
0.0
 40
0.0
 40
0.1621004456454283
 40
0.3259434551388595
 40
0.4915935308049779
 40
0.6591130873777451
 40
0.8285624735926473
 40
1.0
 40
1.0
 40
1.0
 40
1.0
 10
393.4464611234898
 20
100.3991569128578
 30
0.0
 10
393.4483382298319
 20
100.3994913959584
 30
0.0
 10
393.4521126212246
 20
100.40016395782
 30
0.0
 10
393.4599596984033
 20
100.4056372422151
 30
0.0
 10
393.4694257581783
 20
100.4144567068749
 30
0.0
 10
393.4807066729808
 20
100.4271094638686
 30
0.0
 10
393.4936212914788
 20
100.4432614652654
 30
0.0
 10
393.5036170057246
 20
100.4571472652091
 30
0.0
 10
393.5086440116363
 20
100.4641306579602
 30
0.0
  0
LINE
  5
EB
330
1F
100
AcDbEntity
  8
0
  6
Continuous
 62
     7
370
    25
100
AcDbLine
 10
393.5086569795
 20
100.464131026
 30
0.0
 11
393.9328791442
 21
100.0153519407
 31
0.0
  0
LINE
  5
EC
330
1F
100
AcDbEntity
  8
0
  6
Continuous
 62
     7
370
    25
100
AcDbLine
 10
391.0536677687
 20
100.4741569129
 30
0.0
 11
391.0623890783
 21
100.4741569129
 31
0.0
  0
SPLINE
  5
ED
330
1F
100
AcDbEntity
  8
0
  6
Continuous
 62
     7
370
    25
100
AcDbSpline
210
0.0
220
0.0
230
1.0
 70
     8
 71
     3
 72
     8
 73
     4
 74
     0
 42
0.000000001
 43
0.00000001
 40
0.0
 40
0.0
 40
0.0
 40
0.0
 40
1.0
 40
1.0
 40
1.0
 40
1.0
 10
393.5086570526292
 20
100.4641312710274
 30
0.0
 10
393.5064735683881
 20
100.4669799365438
 30
0.0
 10
393.5042900841469
 20
100.4699207279413
 30
0.0
 10
393.5021065999059
 20
100.4729532252178
 30
0.0
  0
LINE
  5
EE
330
1F
100
AcDbEntity
  8
0
  6
Continuous
 62
     7
370
    25
100
AcDbLine
 10
393.5012038569
 20
100.4741569129
 30
0.0
 11
391.0623934975
 21
100.4741569129
 31
0.0
  0
SPLINE
  5
EF
330
1F
100
AcDbEntity
  8
0
  6
Continuous
 62
     7
370
    25
100
AcDbSpline
210
0.0
220
0.0
230
1.0
 70
     8
 71
     3
 72
     8
 73
     4
 74
     0
 42
0.000000001
 43
0.00000001
 40
0.0
 40
0.0
 40
0.0
 40
0.0
 40
1.0
 40
1.0
 40
1.0
 40
1.0
 10
372.739274147336
 20
100.4741569128655
 30
0.0
 10
372.7367882286495
 20
100.4706952135534
 30
0.0
 10
372.7343023099629
 20
100.4673510616445
 30
0.0
 10
372.7318163912764
 20
100.4641250697042
 30
0.0
  0
LINE
  5
F0
330
1F
100
AcDbEntity
  8
0
  6
Continuous
 62
     7
370
    25
100
AcDbLine
 10
375.1765782039
 20
100.4741569129
 30
0.0
 11
372.7394905936
 21
100.4741569129
 31
0.0
  0
LINE
  5
F1
330
1F
100
AcDbEntity
  8
0
  6
Continuous
 62
     7
370
    25
100
AcDbLine
 10
375.1780880619
 20
100.4741569129
 30
0.0
 11
375.1868102121
 21
100.4741569129
 31
0.0
  0
SPLINE
  5
F2
330
1F
100
AcDbEntity
  8
0
  6
Continuous
 62
     7
370
    25
100
AcDbSpline
210
0.0
220
0.0
230
1.0
 70
     8
 71
     3
 72
    14
 73
    10
 74
     0
 42
0.000000001
 43
0.00000001
 40
0.0
 40
0.0
 40
0.0
 40
0.0
 40
0.0310276388067353
 40
0.062285371866867
 40
0.124800316690094
 40
0.2498289731750666
 40
0.4998892603608338
 40
0.7606803621459556
 40
1.0
 40
1.0
 40
1.0
 40
1.0
 10
372.160144995957
 20
100.0174187382425
 30
0.0
 10
372.1644742894221
 20
100.0222026605205
 30
0.0
 10
372.1731649814556
 20
100.0318059816087
 30
0.0
 10
372.1905657601176
 20
100.0511002956064
 30
0.0
 10
372.2210419199626
 20
100.0848652420601
 30
0.0
 10
372.281863312782
 20
100.1522840009219
 30
0.0
 10
372.3697536551922
 20
100.2497506757852
 30
0.0
 10
372.4725913352759
 20
100.3638951876835
 30
0.0
 10
372.5397974467176
 20
100.4386800006895
 30
0.0
 10
372.5719578083675
 20
100.4744670233366
 30
0.0
  0
LINE
  5
F3
330
1F
100
AcDbEntity
  8
0
  6
Continuous
 62
     7
370
    25
100
AcDbLine
 10
372.5716293092
 20
100.4741569129
 30
0.0
 11
372.7392741473
 21
100.4741569129
 31
0.0
  0
LINE
  5
F4
330
1F
100
AcDbEntity
  8
0
  6
Continuous
 62
     7
370
    25
100
AcDbLine
 10
393.5012038569
 20
100.4741569129
 30
0.0
 11
393.6688560562
 21
100.4741569129
 31
0.0
  0
SPLINE
  5
F5
330
1F
100
AcDbEntity
  8
0
  6
Continuous
 62
     7
370
    25
100
AcDbSpline
210
0.0
220
0.0
230
1.0
 70
     8
 71
     3
 72
    11
 73
     7
 74
     0
 42
0.000000001
 43
0.00000001
 40
0.0
 40
0.0
 40
0.0
 40
0.0
 40
0.2392913842439378
 40
0.5001130134995628
 40
0.7515028526562008
 40
1.0
 40
1.0
 40
1.0
 40
1.0
 10
393.6685522430865
 20
100.4744437153694
 30
0.0
 10
393.7007087960411
 20
100.4386669968179
 30
0.0
 10
393.7679151881671
 20
100.3638945490575
 30
0.0
 10
393.8709432779141
 20
100.2494358357392
 30
0.0
 10
393.9760339425564
 20
100.133276649609
 30
0.0
 10
394.0457087626367
 20
100.0558887083024
 30
0.0
 10
394.0803445793297
 20
100.0174186477231
 30
0.0
  0
LINE
  5
F6
330
1F
100
AcDbEntity
  8
0
  6
Continuous
 62
     7
370
    25
100
AcDbLine
 10
372.7163463201
 20
108.5366569129
 30
0.0
 11
372.571774024
 21
108.5366569129
 31
0.0
  0
SPLINE
  5
F7
330
1F
100
AcDbEntity
  8
0
  6
Continuous
 62
     7
370
    25
100
AcDbSpline
210
0.0
220
0.0
230
1.0
 70
     8
 71
     3
 72
    11
 73
     7
 74
     0
 42
0.000000001
 43
0.00000001
 40
0.0
 40
0.0
 40
0.0
 40
0.0
 40
0.2392845095296998
 40
0.5001120454061866
 40
0.751501091500065
 40
1.0
 40
1.0
 40
1.0
 40
1.0
 10
372.5720766462065
 20
108.5363711266612
 30
0.0
 10
372.5399155164257
 20
108.5721689757342
 30
0.0
 10
372.4726977578299
 20
108.6469875904296
 30
0.0
 10
372.3696531093319
 20
108.7615158546865
 30
0.0
 10
372.264544880456
 20
108.8777468483564
 30
0.0
 10
372.1948593638287
 20
108.9551813440433
 30
0.0
 10
372.1602180513885
 20
108.9936747453777
 30
0.0
  0
SPLINE
  5
F8
330
1F
100
AcDbEntity
  8
0
  6
Continuous
 62
     7
370
    25
100
AcDbSpline
210
0.0
220
0.0
230
1.0
 70
     8
 71
     3
 72
    14
 73
    10
 74
     0
 42
0.000000001
 43
0.00000001
 40
0.0
 40
0.0
 40
0.0
 40
0.0
 40
0.0310294147466985
 40
0.0622870907546828
 40
0.1248019217211628
 40
0.249830351141896
 40
0.4998901825547203
 40
0.760687217145559
 40
1.0
 40
1.0
 40
1.0
 40
1.0
 10
394.0802483141188
 20
108.9936746371011
 30
0.0
 10
394.0759181178034
 20
108.9888874505314
 30
0.0
 10
394.0672258710086
 20
108.9792778614767
 30
0.0
 10
394.0498222426613
 20
108.9599718677708
 30
0.0
 10
394.0193415071261
 20
108.9261866521189
 30
0.0
 10
393.9585108854038
 20
108.8587275211713
 30
0.0
 10
393.8706059822243
 20
108.7612010154457
 30
0.0
 10
393.767751737608
 20
108.6469870086765
 30
0.0
 10
393.7005342794612
 20
108.5721560485686
 30
0.0
 10
393.668369350071
 20
108.5363479026726
 30
0.0
  0
LINE
  5
F9
330
1F
100
AcDbEntity
  8
0
  6
Continuous
 62
     7
370
    25
100
AcDbLine
 10
393.6686965601
 20
108.5366569129
 30
0.0
 11
393.5241316375
 21
108.5366569129
 31
0.0
  0
LINE
  5
FA
330
1F
100
AcDbEntity
  8
0
  6
Continuous
 62
     7
370
    25
100
AcDbLine
 10
371.2495711256
 20
102.3180691703
 30
0.0
 11
371.689633783
 21
102.3991569129
 31
0.0
  0
SPLINE
  5
FB
330
1F
100
AcDbEntity
  8
0
  6
Continuous
 62
     7
370
    25
100
AcDbSpline
210
0.0
220
0.0
230
1.0
 70
     8
 71
     3
 72
    25
 73
    21
 74
     0
 42
0.000000001
 43
0.00000001
 40
0.0
 40
0.0
 40
0.0
 40
0.0
 40
0.0274788704224787
 40
0.0560416006853318
 40
0.0856947086355637
 40
0.1164440166541994
 40
0.1482947438684638
 40
0.181251584047285
 40
0.2153187716750382
 40
0.2505001382254961
 40
0.3330514552490632
 40
0.5015081958163724
 40
0.5771663066145021
 40
0.648898130302707
 40
0.7167477700065175
 40
0.7807674423490577
 40
0.8410194131342656
 40
0.8975784849926469
 40
0.9505352047789419
 40
1.0
 40
1.0
 40
1.0
 40
1.0
 10
371.689633783005
 20
102.3991569128578
 30
0.0
 10
371.6963419503484
 20
102.3699747083402
 30
0.0
 10
371.7100228779053
 20
102.3104592541911
 30
0.0
 10
371.7327876065593
 20
102.2200687571321
 30
0.0
 10
371.7576652437996
 20
102.1269371480107
 30
0.0
 10
371.7848044818172
 20
102.0313511037357
 30
0.0
 10
371.8141658888484
 20
101.9335976341226
 30
0.0
 10
371.8457510591364
 20
101.8340169580653
 30
0.0
 10
371.8795979290011
 20
101.7330078184871
 30
0.0
 10
371.9312991589334
 20
101.5862410112382
 30
0.0
 10
372.035658171947
 20
101.3219745983239
 30
0.0
 10
372.1565313996308
 20
101.0520049684949
 30
0.0
 10
372.2700244460884
 20
100.8345952937772
 30
0.0
 10
372.3412974137043
 20
100.7048917230466
 30
0.0
 10
372.4033719858302
 20
100.6010166457217
 30
0.0
 10
372.4559559979975
 20
100.5211560119033
 30
0.0
 10
372.499202543925
 20
100.4631373857528
 30
0.0
 10
372.5328093561451
 20
100.4250338271005
 30
0.0
 10
372.5577563390177
 20
100.4030312961058
 30
0.0
 10
372.5667158758797
 20
100.4004186827545
 30
0.0
 10
372.5710429125978
 20
100.3991569128578
 30
0.0
  0
LINE
  5
FC
330
1F
100
AcDbEntity
  8
0
  6
Continuous
 62
     7
370
    25
100
AcDbLine
 10
394.9909068552
 20
106.6927446554
 30
0.0
 11
394.5508441978
 21
106.6116569129
 31
0.0
  0
SPLINE
  5
FD
330
1F
100
AcDbEntity
  8
0
  6
Continuous
 62
     7
370
    25
100
AcDbSpline
210
0.0
220
0.0
230
1.0
 70
     8
 71
     3
 72
    25
 73
    21
 74
     0
 42
0.000000001
 43
0.00000001
 40
0.0
 40
0.0
 40
0.0
 40
0.0
 40
0.0274788704243672
 40
0.0560416006885685
 40
0.0856947086396085
 40
0.1164440166585125
 40
0.1482947438725051
 40
0.1812515840505162
 40
0.2153187716769223
 40
0.2505001382254963
 40
0.333051455256513
 40
0.501508195816399
 40
0.577166306614471
 40
0.6488981303026332
 40
0.7167477700064154
 40
0.7807674423489445
 40
0.8410194131341566
 40
0.8975784849925574
 40
0.9505352047788891
 40
1.0
 40
1.0
 40
1.0
 40
1.0
 10
394.5508441978274
 20
106.6116569128578
 30
0.0
 10
394.5441360304835
 20
106.6408391173775
 30
0.0
 10
394.5304551029259
 20
106.70035457153
 30
0.0
 10
394.507690374271
 20
106.7907450685933
 30
0.0
 10
394.48281273703
 20
106.8838766777172
 30
0.0
 10
394.4556734990123
 20
106.9794627219929
 30
0.0
 10
394.4263120919812
 20
107.0772161916051
 30
0.0
 10
394.3947269216939
 20
107.1767968676597
 30
0.0
 10
394.3608800518301
 20
107.2778060072337
 30
0.0
 10
394.3091788218954
 20
107.4245728144863
 30
0.0
 10
394.2048198088829
 20
107.6888392273984
 30
0.0
 10
394.0839465811989
 20
107.9588088572258
 30
0.0
 10
393.970453534744
 20
108.1762185319384
 30
0.0
 10
393.8991805671281
 20
108.3059221026689
 30
0.0
 10
393.8371059950022
 20
108.4097971799938
 30
0.0
 10
393.7845219828349
 20
108.4896578138123
 30
0.0
 10
393.7412754369074
 20
108.5476764399628
 30
0.0
 10
393.7076686246873
 20
108.5857799986151
 30
0.0
 10
393.6827216418147
 20
108.6077825296098
 30
0.0
 10
393.6737621049527
 20
108.6103951429611
 30
0.0
 10
393.6694350682346
 20
108.6116569128578
 30
0.0
  0
SPLINE
  5
FE
330
1F
100
AcDbEntity
  8
0
  6
Continuous
 62
     7
370
    25
100
AcDbSpline
210
0.0
220
0.0
230
1.0
 70
     8
 71
     3
 72
    25
 73
    21
 74
     0
 42
0.000000001
 43
0.00000001
 40
0.0
 40
0.0
 40
0.0
 40
0.0
 40
0.0288821753103607
 40
0.058363659400202
 40
0.0884647204300861
 40
0.1192044006611817
 40
0.1506005800081054
 40
0.1826700399666173
 40
0.2154285269574062
 40
0.2488908143379818
 40
0.3610594471128721
 40
0.4984670131067379
 40
0.5822693905005261
 40
0.666112764278099
 40
0.7499972937224157
 40
0.8007709755018196
 40
0.851123770078672
 40
0.901089602448554
 40
0.9507031914094958
 40
1.0
 40
1.0
 40
1.0
 40
1.0
 10
372.5710429125978
 20
108.6116569128578
 30
0.0
 10
372.5687526442201
 20
108.6112286708819
 30
0.0
 10
372.5641245841072
 20
108.6103633008552
 30
0.0
 10
372.5538143210199
 20
108.6032883681538
 30
0.0
 10
372.5409782517891
 20
108.5917198269937
 30
0.0
 10
372.5253646930465
 20
108.5750142508815
 30
0.0
 10
372.5070432496338
 20
108.5530773398655
 30
0.0
 10
372.4859956638026
 20
108.5256797043808
 30
0.0
 10
372.4622240918104
 20
108.4926452236983
 30
0.0
 10
372.4151675623775
 20
108.4236545575744
 30
0.0
 10
372.3274731445189
 20
108.2836285881552
 30
0.0
 10
372.2099214899871
 20
108.0643332869527
 30
0.0
 10
372.0983993256444
 20
107.8274032261722
 30
0.0
 10
372.0069400082963
 20
107.6115613522623
 30
0.0
 10
371.9260583571181
 20
107.4099997313837
 30
0.0
 10
371.85991345525
 20
107.2311316509965
 30
0.0
 10
371.8105628944241
 20
107.0797554498576
 30
0.0
 10
371.7655958775592
 20
106.9255112947348
 30
0.0
 10
371.724838163639
 20
106.7693554396544
 30
0.0
 10
371.7013434944208
 20
106.6641107327014
 30
0.0
 10
371.689633783005
 20
106.6116569128578
 30
0.0
  0
LINE
  5
FF
330
1F
100
AcDbEntity
  8
0
  6
Continuous
 62
     7
370
    25
100
AcDbLine
 10
371.2495711256
 20
106.6927446554
 30
0.0
 11
371.689633783
 21
106.6116569129
 31
0.0
  0
SPLINE
  5
100
330
1F
100
AcDbEntity
  8
0
  6
Continuous
 62
     7
370
    25
100
AcDbSpline
210
0.0
220
0.0
230
1.0
 70
     8
 71
     3
 72
    25
 73
    21
 74
     0
 42
0.000000001
 43
0.00000001
 40
0.0
 40
0.0
 40
0.0
 40
0.0
 40
0.0288821753108476
 40
0.0583636594010358
 40
0.088464720431129
 40
0.1192044006622933
 40
0.1506005800091479
 40
0.1826700399674522
 40
0.2154285269578988
 40
0.2488908143379949
 40
0.3610594471186867
 40
0.4984670131067664
 40
0.582269390500644
 40
0.666112764278217
 40
0.7499972937224437
 40
0.8007709755032449
 40
0.8511237700807972
 40
0.9010896024506762
 40
0.9507031914109091
 40
0.9999999999999999
 40
0.9999999999999999
 40
0.9999999999999999
 40
0.9999999999999999
 10
393.6694350682346
 20
100.3991569128578
 30
0.0
 10
393.6717253366123
 20
100.3995851548337
 30
0.0
 10
393.6763533967253
 20
100.4004505248605
 30
0.0
 10
393.6866636598127
 20
100.4075254575621
 30
0.0
 10
393.6994997290435
 20
100.4190939987224
 30
0.0
 10
393.7151132877862
 20
100.4357995748348
 30
0.0
 10
393.7334347311988
 20
100.4577364858509
 30
0.0
 10
393.7544823170298
 20
100.4851341213357
 30
0.0
 10
393.778253889022
 20
100.5181686020179
 30
0.0
 10
393.8253104184569
 20
100.5871592681437
 30
0.0
 10
393.9130048363147
 20
100.727185237564
 30
0.0
 10
394.0305564908472
 20
100.9464805387676
 30
0.0
 10
394.142078655189
 20
101.1834105995433
 30
0.0
 10
394.2335379725371
 20
101.3992524734532
 30
0.0
 10
394.314419623715
 20
101.6008140943333
 30
0.0
 10
394.3805645255831
 20
101.7796821747228
 30
0.0
 10
394.4299150864095
 20
101.931058375864
 30
0.0
 10
394.4748821032744
 20
102.0853025309868
 30
0.0
 10
394.5156398171942
 20
102.241458386065
 30
0.0
 10
394.539134486412
 20
102.3467030930157
 30
0.0
 10
394.5508441978274
 20
102.3991569128578
 30
0.0
  0
LINE
  5
101
330
1F
100
AcDbEntity
  8
0
  6
Continuous
 62
     7
370
    25
100
AcDbLine
 10
394.9909068552
 20
102.3180691703
 30
0.0
 11
394.5508441978
 21
102.3991569129
 31
0.0
  0
SPLINE
  5
102
330
1F
100
AcDbEntity
  8
0
  6
Continuous
 62
     7
370
    25
100
AcDbSpline
210
0.0
220
0.0
230
1.0
 70
     8
 71
     3
 72
    14
 73
    10
 74
     0
 42
0.000000001
 43
0.00000001
 40
0.0
 40
0.0
 40
0.0
 40
0.0
 40
0.1359145300112984
 40
0.2970841336547358
 40
0.4458230192132124
 40
0.5950336724695601
 40
0.7620249554136277
 40
0.9152755812521447
 40
1.0
 40
1.0
 40
1.0
 40
1.0
 10
374.2223811021377
 20
106.6116569128578
 30
0.0
 10
374.2576251217913
 20
106.7320852816331
 30
0.0
 10
374.3346620584929
 20
106.9953195186354
 30
0.0
 10
374.4753699178678
 20
107.3689173747616
 30
0.0
 10
374.6243234203103
 20
107.7208784226892
 30
0.0
 10
374.7821336892645
 20
108.0335759593001
 30
0.0
 10
374.9287532137739
 20
108.291150746041
 30
0.0
 10
375.0306718372553
 20
108.4667071923124
 30
0.0
 10
375.0640414111252
 20
108.5194934160206
 30
0.0
 10
375.0759217230079
 20
108.5382864879133
 30
0.0
  0
SPLINE
  5
103
330
1F
100
AcDbEntity
  8
0
  6
Continuous
 62
     7
370
    25
100
AcDbSpline
210
0.0
220
0.0
230
1.0
 70
     8
 71
     3
 72
    14
 73
    10
 74
     0
 42
0.000000001
 43
0.00000001
 40
0.0
 40
0.0
 40
0.0
 40
0.0
 40
0.135914529999609
 40
0.2970841336539419
 40
0.4458230192117103
 40
0.5950336724680189
 40
0.7620249554077805
 40
0.9152755812445796
 40
1.0
 40
1.0
 40
1.0
 40
1.0
 10
392.0180968786947
 20
102.3991569128578
 30
0.0
 10
391.9828528590434
 20
102.2787285440928
 30
0.0
 10
391.9058159223407
 20
102.015494307091
 30
0.0
 10
391.765108062968
 20
101.6418964509631
 30
0.0
 10
391.6161545605256
 20
101.2899354030256
 30
0.0
 10
391.4583442915693
 20
100.9772378664185
 30
0.0
 10
391.3117247670572
 20
100.7196630796801
 30
0.0
 10
391.209806143575
 20
100.5441066334061
 30
0.0
 10
391.1764365697048
 20
100.4913204096954
 30
0.0
 10
391.1645562578213
 20
100.4725273378006
 30
0.0
  0
SPLINE
  5
104
330
1F
100
AcDbEntity
  8
0
  6
Continuous
 62
     7
370
    25
100
AcDbSpline
210
0.0
220
0.0
230
1.0
 70
     8
 71
     3
 72
    13
 73
     9
 74
     0
 42
0.000000001
 43
0.00000001
 40
0.0
 40
0.0
 40
0.0
 40
0.0
 40
0.0217286921546251
 40
0.1003820497607994
 40
0.2372357405679617
 40
0.3994036557065064
 40
0.7008666741939426
 40
1.0
 40
1.0
 40
1.0
 40
1.0
 10
375.0737422208043
 20
100.4737163181617
 30
0.0
 10
375.0708055298227
 20
100.4783383221005
 30
0.0
 10
375.0572386267552
 20
100.4996910213831
 30
0.0
 10
375.0097847828355
 20
100.5769861062413
 30
0.0
 10
374.9162277161115
 20
100.7329190328098
 30
0.0
 10
374.7366303844242
 20
101.0653868957314
 30
0.0
 10
374.4676008735633
 20
101.6133832262233
 30
0.0
 10
374.3039093747041
 20
102.137910558508
 30
0.0
 10
374.2223811021377
 20
102.3991569128578
 30
0.0
  0
LINE
  5
105
330
1F
100
AcDbEntity
  8
0
  6
Continuous
 62
     7
370
    25
100
AcDbLine
 10
374.5386412595
 20
102.4740202075
 30
0.0
 11
374.2223811021
 21
102.3991569129
 31
0.0
  0
SPLINE
  5
106
330
1F
100
AcDbEntity
  8
0
  6
Continuous
 62
     7
370
    25
100
AcDbSpline
210
0.0
220
0.0
230
1.0
 70
     8
 71
     3
 72
    25
 73
    21
 74
     0
 42
0.000000001
 43
0.00000001
 40
0.0
 40
0.0
 40
0.0
 40
0.0
 40
0.026987235480051
 40
0.0539362690264582
 40
0.080903714883541
 40
0.1079460716552471
 40
0.1351193706862933
 40
0.1624788388362141
 40
0.1900785854187556
 40
0.2179713214293564
 40
0.2462081170984975
 40
0.3700050494713508
 40
0.4947542611659214
 40
0.6210439034702567
 40
0.7446557472315537
 40
0.7967060293743095
 40
0.8478613449335788
 40
0.8985210411996799
 40
0.949096211526203
 40
1.0
 40
1.0
 40
1.0
 40
1.0
 10
374.5386412594791
 20
102.474020207458
 30
0.0
 10
374.5464220042032
 20
102.4416238024299
 30
0.0
 10
374.5619724795744
 20
102.376876851288
 30
0.0
 10
374.5866578855478
 20
102.2802303148586
 30
0.0
 10
374.612277842547
 20
102.1841362263668
 30
0.0
 10
374.6389207061745
 20
102.0886239556498
 30
0.0
 10
374.666545891459
 20
101.9936992282571
 30
0.0
 10
374.6951476705183
 20
101.8993730721217
 30
0.0
 10
374.7247097601597
 20
101.8056567276729
 30
0.0
 10
374.7552229072066
 20
101.7125526437834
 30
0.0
 10
374.8219571117958
 20
101.5162874016704
 30
0.0
 10
374.9291402878914
 20
101.2302142860676
 30
0.0
 10
375.0729203782006
 20
100.8929243900734
 30
0.0
 10
375.2061688344124
 20
100.6114152132502
 30
0.0
 10
375.2938400106256
 20
100.4404242830719
 30
0.0
 10
375.3447150464174
 20
100.3445114646904
 30
0.0
 10
375.3723842010688
 20
100.2932942612357
 30
0.0
 10
375.3920831191863
 20
100.2573114671507
 30
0.0
 10
375.4043306278899
 20
100.2351415788286
 30
0.0
 10
375.4056174210459
 20
100.232822111095
 30
0.0
 10
375.4062629011277
 20
100.2316586216753
 30
0.0
  0
LINE
  5
107
330
1F
100
AcDbEntity
  8
0
  6
Continuous
 62
     7
370
    25
100
AcDbLine
 10
374.5386412595
 20
106.5367936183
 30
0.0
 11
374.2223811021
 21
106.6116569129
 31
0.0
  0
SPLINE
  5
108
330
1F
100
AcDbEntity
  8
0
  6
Continuous
 62
     7
370
    25
100
AcDbSpline
210
0.0
220
0.0
230
1.0
 70
     8
 71
     3
 72
    25
 73
    21
 74
     0
 42
0.000000001
 43
0.00000001
 40
0.0
 40
0.0
 40
0.0
 40
0.0
 40
0.0278144320063454
 40
0.0555680196245743
 40
0.0833316253677699
 40
0.1111760352167569
 40
0.1391714221532235
 40
0.1673868326284729
 40
0.1958897140434683
 40
0.2247454979318932
 40
0.2540172492221413
 40
0.3796724410010679
 40
0.5056484635002158
 40
0.6297527290673055
 40
0.7535891720571115
 40
0.8038564806084937
 40
0.8533396843421529
 40
0.902326439834555
 40
0.9511131859210757
 40
1.0
 40
1.0
 40
1.0
 40
1.0
 10
375.4062629011277
 20
108.7791552040403
 30
0.0
 10
375.406115149813
 20
108.7788886614868
 30
0.0
 10
375.4058199703912
 20
108.7783561594446
 30
0.0
 10
375.4021952713754
 20
108.7718087107485
 30
0.0
 10
375.3962493757051
 20
108.7610394674622
 30
0.0
 10
375.38777465279
 20
108.7456287315379
 30
0.0
 10
375.3768596659509
 20
108.7256723552842
 30
0.0
 10
375.3635235977125
 20
108.7011222588137
 30
0.0
 10
375.3478158330255
 20
108.6719656350578
 30
0.0
 10
375.3297842448677
 20
108.6381696636244
 30
0.0
 10
375.2873667001195
 20
108.5577629055668
 30
0.0
 10
375.2068456603657
 20
108.4007744558957
 30
0.0
 10
375.0734193134924
 20
108.1189887181508
 30
0.0
 10
374.9293423368088
 20
107.7811166085231
 30
0.0
 10
374.8136645853577
 20
107.472435694786
 30
0.0
 10
374.7311531101404
 20
107.2264049750309
 30
0.0
 10
374.6782314856157
 20
107.0575790837592
 30
0.0
 10
374.6283743512382
 20
106.8862635127474
 30
0.0
 10
374.5813563580071
 20
106.7125811625251
 30
0.0
 10
374.5528893472782
 20
106.5954294742201
 30
0.0
 10
374.5386412594791
 20
106.5367936182577
 30
0.0
  0
SPLINE
  5
109
330
1F
100
AcDbEntity
  8
0
  6
Continuous
 62
     7
370
    25
100
AcDbSpline
210
0.0
220
0.0
230
1.0
 70
     8
 71
     3
 72
    13
 73
     9
 74
     0
 42
0.000000001
 43
0.00000001
 40
0.0
 40
0.0
 40
0.0
 40
0.0
 40
0.021728692150119
 40
0.1003820497588964
 40
0.2372357405683472
 40
0.3994036557052652
 40
0.7008666741933248
 40
1.0
 40
1.0
 40
1.0
 40
1.0
 10
391.1667357600301
 20
108.5370975075527
 30
0.0
 10
391.169672451011
 20
108.5324755036149
 30
0.0
 10
391.1832393540782
 20
108.511122804333
 30
0.0
 10
391.2306931979963
 20
108.4338277194746
 30
0.0
 10
391.3242502647184
 20
108.2778947929043
 30
0.0
 10
391.5038475964106
 20
107.9454269299832
 30
0.0
 10
391.7728771072685
 20
107.3974305994922
 30
0.0
 10
391.9365686061281
 20
106.8729032672076
 30
0.0
 10
392.0180968786947
 20
106.6116569128578
 30
0.0
  0
LINE
  5
10A
330
1F
100
AcDbEntity
  8
0
  6
Continuous
 62
     7
370
    25
100
AcDbLine
 10
391.7018367214
 20
106.5367936183
 30
0.0
 11
392.0180968787
 21
106.6116569129
 31
0.0
  0
SPLINE
  5
10B
330
1F
100
AcDbEntity
  8
0
  6
Continuous
 62
     7
370
    25
100
AcDbSpline
210
0.0
220
0.0
230
1.0
 70
     8
 71
     3
 72
    14
 73
    10
 74
     0
 42
0.000000001
 43
0.00000001
 40
0.0
 40
0.0
 40
0.0
 40
0.0
 40
0.1400505389358422
 40
0.2837941391410397
 40
0.4267315409798957
 40
0.5707684557843765
 40
0.7165839699832423
 40
0.8593076663238621
 40
0.9999999999999999
 40
0.9999999999999999
 40
0.9999999999999999
 40
0.9999999999999999
 10
391.7018367213533
 20
106.5367936182577
 30
0.0
 10
391.6650697921507
 20
106.6823536495021
 30
0.0
 10
391.5905664085781
 20
106.9773120557621
 30
0.0
 10
391.4553771893928
 20
107.3953760646355
 30
0.0
 10
391.3114927862896
 20
107.7804287580682
 30
0.0
 10
391.1673560463173
 20
108.118236766654
 30
0.0
 10
391.0349603735343
 20
108.3981775572798
 30
0.0
 10
390.9240395927108
 20
108.6143180449152
 30
0.0
 10
390.8827041122732
 20
108.6903811905995
 30
0.0
 10
390.8621845064978
 20
108.7281401750593
 30
0.0
  0
LINE
  5
10C
330
1F
100
AcDbEntity
  8
0
  6
Continuous
 62
     7
370
    25
100
AcDbLine
 10
391.7018367214
 20
102.4740202075
 30
0.0
 11
392.0180968787
 21
102.3991569129
 31
0.0
  0
SPLINE
  5
10D
330
1F
100
AcDbEntity
  8
0
  6
Continuous
 62
     7
370
    25
100
AcDbSpline
210
0.0
220
0.0
230
1.0
 70
     8
 71
     3
 72
    25
 73
    21
 74
     0
 42
0.000000001
 43
0.00000001
 40
0.0
 40
0.0
 40
0.0
 40
0.0
 40
0.0278144320063468
 40
0.0555680196245764
 40
0.0833316253677732
 40
0.1111760352167606
 40
0.1391714221532288
 40
0.1673868326284795
 40
0.1958897140434744
 40
0.2247454979319009
 40
0.254017249222149
 40
0.3796724410010808
 40
0.5056484635002305
 40
0.6297527290695841
 40
0.7535891720572087
 40
0.8038564806098943
 40
0.8533396843442248
 40
0.902326439836628
 40
0.951113185922461
 40
1.0
 40
1.0
 40
1.0
 40
1.0
 10
390.8342150797047
 20
100.2316586216753
 30
0.0
 10
390.8343628310194
 20
100.2319251642289
 30
0.0
 10
390.8346580104412
 20
100.2324576662711
 30
0.0
 10
390.838282709457
 20
100.2390051149672
 30
0.0
 10
390.8442286051273
 20
100.2497743582534
 30
0.0
 10
390.8527033280424
 20
100.2651850941778
 30
0.0
 10
390.8636183148815
 20
100.2851414704315
 30
0.0
 10
390.8769543831199
 20
100.309691566902
 30
0.0
 10
390.8926621478068
 20
100.3388481906579
 30
0.0
 10
390.9106937359646
 20
100.3726441620913
 30
0.0
 10
390.9531112807129
 20
100.4530509201488
 30
0.0
 10
391.0336323204666
 20
100.6100393698199
 30
0.0
 10
391.167058667341
 20
100.8918251075669
 30
0.0
 10
391.311135644024
 20
101.2296972171936
 30
0.0
 10
391.4268133954758
 20
101.538378130933
 30
0.0
 10
391.5093248706933
 20
101.784408850689
 30
0.0
 10
391.5622464952187
 20
101.9532347419631
 30
0.0
 10
391.6121036295961
 20
102.1245503129748
 30
0.0
 10
391.6591216228263
 20
102.2982326631947
 30
0.0
 10
391.6875886335546
 20
102.4153843514972
 30
0.0
 10
391.7018367213533
 20
102.474020207458
 30
0.0
  0
ARC
  5
10E
330
1F
100
AcDbEntity
  8
0
  6
Continuous
 62
     7
370
    25
100
AcDbCircle
 10
383.1202389904
 20
104.5054069129
 30
0.0
 40
11.62303852141066
100
AcDbArc
 50
169.5595567507
 51
190.4404432494
  0
ARC
  5
10F
330
1F
100
AcDbEntity
  8
0
  6
Continuous
 62
     7
370
    25
100
AcDbCircle
 10
383.1202389904
 20
104.5054069129
 30
0.0
 40
9.143750000000006
100
AcDbArc
 50
166.6824039243
 51
193.3175960757
  0
ARC
  5
110
330
1F
100
AcDbEntity
  8
0
  6
Continuous
 62
     7
370
    25
100
AcDbCircle
 10
383.1202389904
 20
104.5054069129
 30
0.0
 40
8.81874999999997
100
AcDbArc
 50
166.6824039243
 51
193.3175960757
  0
ARC
  5
111
330
1F
100
AcDbEntity
  8
0
  6
Continuous
 62
     7
370
    25
100
AcDbCircle
 10
383.1202389904
 20
104.5054069129
 30
0.0
 40
9.143750000000061
100
AcDbArc
 50
346.6824039243
 51
13.3175960757
  0
ARC
  5
112
330
1F
100
AcDbEntity
  8
0
  6
Continuous
 62
     7
370
    25
100
AcDbCircle
 10
383.1202389904
 20
104.5054069129
 30
0.0
 40
8.818750000000026
100
AcDbArc
 50
346.6824039243
 51
13.3175960757
  0
ARC
  5
113
330
1F
100
AcDbEntity
  8
0
  6
Continuous
 62
     7
370
    25
100
AcDbCircle
 10
383.1202389904
 20
104.5054069129
 30
0.0
 40
11.6230385214107
100
AcDbArc
 50
349.5595567507
 51
10.4404432493
  0
CIRCLE
  5
114
330
1F
100
AcDbEntity
  8
0
  6
Continuous
 62
     7
370
    25
100
AcDbCircle
 10
383.1202389904
 20
104.5054069129
 30
0.0
 40
7.774999999999977
  0
CIRCLE
  5
115
330
1F
100
AcDbEntity
  8
0
  6
Continuous
 62
     7
370
    25
100
AcDbCircle
 10
383.1202389904
 20
104.5054069129
 30
0.0
 40
2.615470053837896
  0
CIRCLE
  5
116
330
1F
100
AcDbEntity
  8
0
  6
Continuous
 62
     7
370
    25
100
AcDbCircle
 10
383.1202389904
 20
104.5054069129
 30
0.0
 40
2.5
  0
CIRCLE
  5
117
330
1F
100
AcDbEntity
  8
0
  6
Continuous
 62
     7
370
    25
100
AcDbCircle
 10
383.1202389904
 20
104.5054069129
 30
0.0
 40
15.73750000000001
  0
CIRCLE
  5
118
330
1F
100
AcDbEntity
  8
0
  6
Continuous
 62
     7
370
    25
100
AcDbCircle
 10
383.1202389904
 20
104.5054069129
 30
0.0
 40
13.42500000000001
  0
CIRCLE
  5
119
330
1F
100
AcDbEntity
  8
0
  6
Continuous
 62
     7
370
    25
100
AcDbCircle
 10
383.1202389904
 20
104.5054069129
 30
0.0
 40
2.0
  0
LINE
  5
11A
330
1F
100
AcDbEntity
  8
0
  6
CENTER
 62
     7
370
    18
100
AcDbLine
 10
383.1202389904
 20
104.5054069129
 30
0.0
 11
383.1202389904
 21
124.0094076141
 31
0.0
  0
LINE
  5
11B
330
1F
100
AcDbEntity
  8
0
  6
CENTER
 62
     7
370
    18
100
AcDbLine
 10
383.1202389904
 20
104.5054069129
 30
0.0
 11
402.6347389904
 21
104.5054069129
 31
0.0
  0
LINE
  5
11C
330
1F
100
AcDbEntity
  8
0
  6
Continuous
 62
     7
370
    18
100
AcDbLine
 10
395.1202389904
 20
122.0094076141
 30
0.0
 11
383.1202389904
 21
122.0094076141
 31
0.0
  0
SOLID
  5
11D
330
1F
100
AcDbEntity
  8
0
  6
Continuous
 62
     7
370
    18
100
AcDbTrace
 10
383.1202389904
 20
122.0094076141
 30
0.0
 11
389.1202389904
 21
120.5094076141
 31
0.0
 12
389.1202389904
 22
123.5094076141
 32
0.0
 13
389.1202389904
 23
123.5094076141
 33
0.0
  0
LINE
  5
11E
330
1F
100
AcDbEntity
  8
0
  6
Continuous
 62
     7
370
    18
100
AcDbLine
 10
412.6347389904
 20
104.5054069129
 30
0.0
 11
400.6347389904
 21
104.5054069129
 31
0.0
  0
SOLID
  5
11F
330
1F
100
AcDbEntity
  8
0
  6
Continuous
 62
     7
370
    18
100
AcDbTrace
 10
400.6347389904
 20
104.5054069129
 30
0.0
 11
406.6347389904
 21
103.0054069129
 31
0.0
 12
406.6347389904
 22
106.0054069129
 32
0.0
 13
406.6347389904
 23
106.0054069129
 33
0.0
  0
MTEXT
  5
120
330
1F
100
AcDbEntity
  8
0
  6
Continuous
 62
     7
100
AcDbMText
 10
391.9705096671
 20
128.6585805464
 30
0.0
 40
3.5
 41
0.0
 71
     1
 72
     1
  1
A
  7
SLDTEXTSTYLE0
 73
     1
 44
1.0
  0
MTEXT
  5
121
330
1F
100
AcDbEntity
  8
0
  6
Continuous
 62
     7
100
AcDbMText
 10
409.4850096671
 20
102.2912323264
 30
0.0
 40
3.5
 41
0.0
 71
     1
 72
     1
  1
A
  7
SLDTEXTSTYLE0
 73
     1
 44
1.0
  0
LINE
  5
122
330
1F
100
AcDbEntity
  8
VERMASSUNG
  6
CENTERX2
370
    18
100
AcDbLine
 10
394.7884178131
 20
107.5354069129
 30
0.0
 11
388.441970809
 21
107.5354069129
 31
0.0
  0
LINE
  5
123
330
1F
100
AcDbEntity
  8
VERMASSUNG
  6
CENTERX2
370
    18
100
AcDbLine
 10
395.7576556061
 20
106.6116569129
 30
0.0
 11
388.988705865
 21
106.6116569129
 31
0.0
  0
LINE
  5
124
330
1F
100
AcDbEntity
  8
VERMASSUNG
  6
CENTERX2
370
    18
100
AcDbLine
 10
395.7570099638
 20
102.3991569129
 30
0.0
 11
388.987164619
 21
102.3991569129
 31
0.0
  0
LINE
  5
125
330
1F
100
AcDbEntity
  8
VERMASSUNG
  6
CENTERX2
370
    18
100
AcDbLine
 10
376.5145584722
 20
102.3991569129
 30
0.0
 11
369.5598391278
 21
102.3991569129
 31
0.0
  0
LINE
  5
126
330
1F
100
AcDbEntity
  8
VERMASSUNG
  6
CENTERX2
370
    18
100
AcDbLine
 10
376.3300315802
 20
106.6116569129
 30
0.0
 11
369.5601862354
 21
106.6116569129
 31
0.0
  0
LINE
  5
127
330
1F
100
AcDbEntity
  8
VERMASSUNG
  6
CENTERX2
370
    18
100
AcDbLine
 10
377.0165366645
 20
107.5354069129
 30
0.0
 11
370.6722186158
 21
107.5354069129
 31
0.0
  0
ARC
  5
128
330
1F
100
AcDbEntity
  8
0
  6
Continuous
 62
     7
370
    25
100
AcDbCircle
 10
121.3526555566
 20
73.2304069129
 30
0.0
 40
0.2000000000000028
100
AcDbArc
 50
180.0
 51
270.0
  0
LINE
  5
129
330
1F
100
AcDbEntity
  8
0
  6
Continuous
 62
     7
370
    25
100
AcDbLine
 10
134.3868533612
 20
73.0304069129
 30
0.0
 11
139.1526555566
 21
73.0304069129
 31
0.0
  0
LINE
  5
12A
330
1F
100
AcDbEntity
  8
0
  6
Continuous
 62
     7
370
    25
100
AcDbLine
 10
121.3526555566
 20
73.0304069129
 30
0.0
 11
127.718457752
 21
73.0304069129
 31
0.0
  0
LINE
  5
12B
330
1F
100
AcDbEntity
  8
0
  6
Continuous
 62
     7
370
    25
100
AcDbLine
 10
127.718457752
 20
73.0304069129
 30
0.0
 11
129.1776555566
 21
75.5578116487
 31
0.0
  0
LINE
  5
12C
330
1F
100
AcDbEntity
  8
0
  6
Continuous
 62
     7
370
    25
100
AcDbLine
 10
132.9276555566
 20
75.5578116487
 30
0.0
 11
134.3868533612
 21
73.0304069129
 31
0.0
  0
ARC
  5
12D
330
1F
100
AcDbEntity
  8
0
  6
Continuous
 62
     7
370
    25
100
AcDbCircle
 10
130.1776555566
 20
75.6554069129
 30
0.0
 40
1.000000000000028
100
AcDbArc
 50
90.0
 51
180.0
  0
ARC
  5
12E
330
1F
100
AcDbEntity
  8
0
  6
Continuous
 62
     7
370
    25
100
AcDbCircle
 10
131.9276555566
 20
75.6554069129
 30
0.0
 40
1.0
100
AcDbArc
 50
0.0
 51
90.0
  0
LINE
  5
12F
330
1F
100
AcDbEntity
  8
0
  6
Continuous
 62
     7
370
    25
100
AcDbLine
 10
130.1776555566
 20
76.6554069129
 30
0.0
 11
131.9276555566
 21
76.6554069129
 31
0.0
  0
ARC
  5
130
330
1F
100
AcDbEntity
  8
0
  6
Continuous
 62
     7
370
    25
100
AcDbCircle
 10
142.1526555566
 20
77.5054069129
 30
0.0
 40
3.0
100
AcDbArc
 50
90.0
 51
180.0
  0
ARC
  5
131
330
1F
100
AcDbEntity
  8
0
  6
Continuous
 62
     7
370
    25
100
AcDbCircle
 10
120.723720682
 20
78.9554069129
 30
0.0
 40
0.8000000000000038
100
AcDbArc
 50
57.576802718
 51
107.5
  0
LINE
  5
132
330
1F
100
AcDbEntity
  8
0
  6
Continuous
 62
     7
370
    25
100
AcDbLine
 10
106.6662100886
 20
80.2328863921
 30
0.0
 11
119.9924735166
 21
79.5636688673
 31
0.0
  0
LINE
  5
133
330
1F
100
AcDbEntity
  8
0
  6
Continuous
 62
     7
370
    25
100
AcDbLine
 10
82.7026555566
 20
81.4362867853
 30
0.0
 11
90.7574924201
 21
81.0317894543
 31
0.0
  0
LINE
  5
134
330
1F
100
AcDbEntity
  8
0
  6
Continuous
 62
     7
370
    25
100
AcDbLine
 10
119.9924735166
 20
79.5636688673
 30
0.0
 11
120.4831560424
 21
79.7183804735
 31
0.0
  0
LINE
  5
135
330
1F
100
AcDbEntity
  8
0
  6
Continuous
 62
     7
370
    25
100
AcDbLine
 10
142.1526555566
 20
80.5054069129
 30
0.0
 11
208.2856140335
 21
80.5054069129
 31
0.0
  0
LINE
  5
136
330
1F
100
AcDbEntity
  8
0
  6
Continuous
 62
     7
370
    25
100
AcDbLine
 10
208.2856140335
 20
80.5054069129
 30
0.0
 11
219.9978920801
 21
85.9669318604
 31
0.0
  0
LINE
  5
137
330
1F
100
AcDbEntity
  8
0
  6
Continuous
 62
     7
370
    25
100
AcDbLine
 10
81.2026555566
 20
82.3023121891
 30
0.0
 11
82.7026555566
 21
81.4362867853
 31
0.0
  0
ARC
  5
138
330
1F
100
AcDbEntity
  8
0
  6
Continuous
 62
     7
370
    25
100
AcDbCircle
 10
219.1526555566
 20
87.7795474345
 30
0.0
 40
2.000000000000001
100
AcDbArc
 50
295.0
 51
0.0
  0
LINE
  5
139
330
1F
100
AcDbEntity
  8
0
  6
Continuous
 62
     7
370
    25
100
AcDbLine
 10
192.6526555566
 20
112.0054069129
 30
0.0
 11
190.6526555566
 21
114.0054069129
 31
0.0
  0
LINE
  5
13A
330
1F
100
AcDbEntity
  8
0
  6
Continuous
 62
     7
370
    25
100
AcDbLine
 10
190.6526555566
 20
114.0054069129
 30
0.0
 11
190.6526555566
 21
127.5054069129
 31
0.0
  0
LINE
  5
13B
330
1F
100
AcDbEntity
  8
0
  6
Continuous
 62
     7
370
    25
100
AcDbLine
 10
190.6526555566
 20
127.5054069129
 30
0.0
 11
191.6526555566
 21
128.5054069129
 31
0.0
  0
LINE
  5
13C
330
1F
100
AcDbEntity
  8
0
  6
Continuous
 62
     7
370
    25
100
AcDbLine
 10
191.6526555566
 20
128.5054069129
 30
0.0
 11
194.6493771147
 21
128.5054069129
 31
0.0
  0
LINE
  5
13D
330
1F
100
AcDbEntity
  8
0
  6
Continuous
 62
     7
370
    25
100
AcDbLine
 10
194.6493771147
 20
128.5054069129
 30
0.0
 11
194.6493771147
 21
120.5054069129
 31
0.0
  0
LINE
  5
13E
330
1F
100
AcDbEntity
  8
0
  6
Continuous
 62
     7
370
    25
100
AcDbLine
 10
200.6559339985
 20
120.5054069129
 30
0.0
 11
194.6493771147
 21
120.5054069129
 31
0.0
  0
LINE
  5
13F
330
1F
100
AcDbEntity
  8
0
  6
Continuous
 62
     7
370
    25
100
AcDbLine
 10
200.6559339985
 20
120.5054069129
 30
0.0
 11
200.6559339985
 21
128.5054069129
 31
0.0
  0
LINE
  5
140
330
1F
100
AcDbEntity
  8
0
  6
Continuous
 62
     7
370
    25
100
AcDbLine
 10
200.6559339985
 20
128.5054069129
 30
0.0
 11
203.6526555566
 21
128.5054069129
 31
0.0
  0
LINE
  5
141
330
1F
100
AcDbEntity
  8
0
  6
Continuous
 62
     7
370
    25
100
AcDbLine
 10
203.6526555566
 20
128.5054069129
 30
0.0
 11
204.6526555566
 21
127.5054069129
 31
0.0
  0
LINE
  5
142
330
1F
100
AcDbEntity
  8
0
  6
Continuous
 62
     7
370
    25
100
AcDbLine
 10
204.6526555566
 20
127.5054069129
 30
0.0
 11
204.6526555566
 21
114.0054069129
 31
0.0
  0
LINE
  5
143
330
1F
100
AcDbEntity
  8
0
  6
Continuous
 62
     7
370
    25
100
AcDbLine
 10
204.6526555566
 20
114.0054069129
 30
0.0
 11
202.6526555566
 21
112.0054069129
 31
0.0
  0
LINE
  5
144
330
1F
100
AcDbEntity
  8
0
  6
Continuous
 62
     7
370
    25
100
AcDbLine
 10
202.6526555566
 20
112.0054069129
 30
0.0
 11
201.4026555566
 21
112.0054069129
 31
0.0
  0
LINE
  5
145
330
1F
100
AcDbEntity
  8
0
  6
Continuous
 62
     7
370
    25
100
AcDbLine
 10
197.6526555566
 20
114.1704704223
 30
0.0
 11
201.4026555566
 21
112.0054069129
 31
0.0
  0
LINE
  5
146
330
1F
100
AcDbEntity
  8
0
  6
Continuous
 62
     7
370
    25
100
AcDbLine
 10
193.9026555566
 20
112.0054069129
 30
0.0
 11
197.6526555566
 21
114.1704704223
 31
0.0
  0
LINE
  5
147
330
1F
100
AcDbEntity
  8
0
  6
Continuous
 62
     7
370
    25
100
AcDbLine
 10
193.9026555566
 20
112.0054069129
 30
0.0
 11
192.6526555566
 21
112.0054069129
 31
0.0
  0
LINE
  5
148
330
1F
100
AcDbEntity
  8
0
  6
Continuous
 62
     7
370
    25
100
AcDbLine
 10
201.4026555566
 20
112.0054069129
 30
0.0
 11
193.9026555566
 21
112.0054069129
 31
0.0
  0
LINE
  5
149
330
1F
100
AcDbEntity
  8
0
  6
Continuous
 62
     7
370
    25
100
AcDbLine
 10
200.5684724046
 20
120.5054069129
 30
0.0
 11
200.5684724046
 21
128.5054069129
 31
0.0
  0
LINE
  5
14A
330
1F
100
AcDbEntity
  8
0
  6
Continuous
 62
     7
370
    25
100
AcDbLine
 10
200.5684724046
 20
128.5054069129
 30
0.0
 11
200.6559339985
 21
128.5054069129
 31
0.0
  0
LINE
  5
14B
330
1F
100
AcDbEntity
  8
0
  6
Continuous
 62
     7
370
    25
100
AcDbLine
 10
197.4908389788
 20
120.5054069129
 30
0.0
 11
197.4908389788
 21
128.5054069129
 31
0.0
  0
LINE
  5
14C
330
1F
100
AcDbEntity
  8
0
  6
Continuous
 62
     7
370
    25
100
AcDbLine
 10
197.4908389788
 20
128.5054069129
 30
0.0
 11
194.6493771147
 21
128.5054069129
 31
0.0
  0
LINE
  5
14D
330
1F
100
AcDbEntity
  8
0
  6
Continuous
 62
     7
370
    25
100
AcDbLine
 10
197.4908389788
 20
128.5054069129
 30
0.0
 11
200.5684724046
 21
128.5054069129
 31
0.0
  0
LINE
  5
14E
330
1F
100
AcDbEntity
  8
0
  6
Continuous
 62
     7
370
    25
100
AcDbLine
 10
121.1526555566
 20
73.2304069129
 30
0.0
 11
121.1526555566
 21
104.5054069129
 31
0.0
  0
LINE
  5
14F
330
1F
100
AcDbEntity
  8
0
  6
Continuous
 62
     7
370
    25
100
AcDbLine
 10
121.1526555566
 20
104.5054069129
 30
0.0
 11
121.3526555566
 21
104.5054069129
 31
0.0
  0
ARC
  5
150
330
1F
100
AcDbEntity
  8
0
  6
Continuous
 62
     7
370
    25
100
AcDbCircle
 10
121.3526555566
 20
135.7804069129
 30
0.0
 40
0.2000000000000171
100
AcDbArc
 50
90.0
 51
179.9999999999
  0
LINE
  5
151
330
1F
100
AcDbEntity
  8
0
  6
Continuous
 62
     7
370
    25
100
AcDbLine
 10
134.3868533612
 20
73.0304069129
 30
0.0
 11
134.3868533612
 21
99.6156996332
 31
0.0
  0
SPLINE
  5
152
330
1F
100
AcDbEntity
  8
0
  6
Continuous
 62
     7
370
    25
100
AcDbSpline
210
0.0
220
0.0
230
1.0
 70
     8
 71
     3
 72
    20
 73
    16
 74
     0
 42
0.000000001
 43
0.00000001
 40
0.0
 40
0.0
 40
0.0
 40
0.0
 40
0.1249999999999996
 40
0.1249999999999996
 40
0.2499999999999992
 40
0.2499999999999992
 40
0.3749999999999989
 40
0.3749999999999989
 40
0.4999999999999987
 40
0.4999999999999987
 40
0.7499999999999994
 40
0.7499999999999994
 40
0.8749999999999997
 40
0.8749999999999997
 40
1.0
 40
1.0
 40
1.0
 40
1.0
 10
137.9401555566049
 20
104.5054069128577
 30
0.0
 10
137.9401555566049
 20
104.2387388253765
 30
0.0
 10
137.9181085275612
 20
103.9704266501025
 30
0.0
 10
137.8291024898564
 20
103.4375836148691
 30
0.0
 10
137.7632235216569
 20
103.1782934048832
 30
0.0
 10
137.5910486139497
 20
102.6731664388617
 30
0.0
 10
137.4843420430428
 20
102.4265862229404
 30
0.0
 10
137.2316651401665
 20
101.9501695722007
 30
0.0
 10
137.0882078759718
 20
101.7247495104359
 30
0.0
 10
136.6098856836913
 20
101.0841418288221
 30
0.0
 10
136.2218587007258
 20
100.7013761137191
 30
0.0
 10
135.5800540522804
 20
100.2254738655474
 30
0.0
 10
135.3552494246332
 20
100.0818782293957
 30
0.0
 10
134.883940367011
 20
99.82454684400516
 30
0.0
 10
134.6382437671221
 20
99.71149446548323
 30
0.0
 10
134.386853361175
 20
99.61569963317253
 30
0.0
  0
LINE
  5
153
330
1F
100
AcDbEntity
  8
0
  6
Continuous
 62
     7
370
    25
100
AcDbLine
 10
139.1526555566
 20
73.0304069129
 30
0.0
 11
139.1526555566
 21
104.5054069129
 31
0.0
  0
LINE
  5
154
330
1F
100
AcDbEntity
  8
0
  6
Continuous
 62
     7
370
    25
100
AcDbLine
 10
139.1526555566
 20
135.9804069129
 30
0.0
 11
134.3868533612
 21
135.9804069129
 31
0.0
  0
SPLINE
  5
155
330
1F
100
AcDbEntity
  8
0
  6
Continuous
 62
     7
370
    25
100
AcDbSpline
210
0.0
220
0.0
230
1.0
 70
     8
 71
     3
 72
    14
 73
    10
 74
     0
 42
0.000000001
 43
0.00000001
 40
0.0
 40
0.0
 40
0.0
 40
0.0
 40
0.25
 40
0.25
 40
0.5
 40
0.5
 40
0.75
 40
0.75
 40
1.0
 40
1.0
 40
1.0
 40
1.0
 10
127.7184577520348
 20
101.2105088273409
 30
0.0
 10
127.5215818665098
 20
101.43800539527
 30
0.0
 10
127.3454735451203
 20
101.6795921703412
 30
0.0
 10
127.0357371513471
 20
102.1917494047153
 30
0.0
 10
126.9011791498535
 20
102.4652822078234
 30
0.0
 10
126.6859369971444
 20
103.0253873423609
 30
0.0
 10
126.6042937596254
 20
103.3123598377709
 30
0.0
 10
126.4937707373554
 20
103.9003988228151
 30
0.0
 10
126.4651555566049
 20
104.2048422785858
 30
0.0
 10
126.4651555566049
 20
104.5054069128576
 30
0.0
  0
LINE
  5
156
330
1F
100
AcDbEntity
  8
0
  6
Continuous
 62
     7
370
    25
100
AcDbLine
 10
127.718457752
 20
73.0304069129
 30
0.0
 11
127.718457752
 21
101.2105088273
 31
0.0
  0
LINE
  5
157
330
1F
100
AcDbEntity
  8
0
  6
Continuous
 62
     7
370
    25
100
AcDbLine
 10
127.718457752
 20
135.9804069129
 30
0.0
 11
121.3526555566
 21
135.9804069129
 31
0.0
  0
ARC
  5
158
330
1F
100
AcDbEntity
  8
0
  6
Continuous
 62
     7
370
    25
100
AcDbCircle
 10
132.2026555566
 20
104.5054069129
 30
0.0
 40
3.737499999999983
100
AcDbArc
 50
180.0
 51
206.113804444
  0
SPLINE
  5
159
330
1F
100
AcDbEntity
  8
0
  6
Continuous
 62
     7
370
    25
100
AcDbSpline
210
0.0
220
0.0
230
1.0
 70
     8
 71
     3
 72
    10
 73
     6
 74
     0
 42
0.000000001
 43
0.00000001
 40
0.0
 40
0.0
 40
0.0
 40
0.0
 40
0.5
 40
0.5
 40
1.0
 40
1.0
 40
1.0
 40
1.0
 10
128.8466737491516
 20
102.860325651022
 30
0.0
 10
128.6697886027282
 20
102.5618753356654
 30
0.0
 10
128.4842392278508
 20
102.282882631538
 30
0.0
 10
128.1062902878032
 20
101.7375633374123
 30
0.0
 10
127.913503745624
 20
101.4722279515909
 30
0.0
 10
127.7184577520348
 20
101.2105088273409
 30
0.0
  0
SPLINE
  5
15A
330
1F
100
AcDbEntity
  8
0
  6
Continuous
 62
     7
370
    25
100
AcDbSpline
210
0.0
220
0.0
230
1.0
 70
     8
 71
     3
 72
     8
 73
     4
 74
     0
 42
0.000000001
 43
0.00000001
 40
0.0
 40
0.0
 40
0.0
 40
0.0
 40
1.0
 40
1.0
 40
1.0
 40
1.0
 10
134.3868533611745
 20
99.6156996331714
 30
0.0
 10
134.0384519564943
 20
100.0536749595853
 30
0.0
 10
133.6938835712614
 20
100.4967580981701
 30
0.0
 10
133.3554992719405
 20
100.9501491700187
 30
0.0
  0
ARC
  5
15B
330
1F
100
AcDbEntity
  8
0
  6
Continuous
 62
     7
370
    25
100
AcDbCircle
 10
132.2026555566
 20
104.5054069129
 30
0.0
 40
3.737500000000011
100
AcDbArc
 50
287.9660359156
 51
0.0
  0
SPLINE
  5
15C
330
1F
100
AcDbEntity
  8
0
  6
Continuous
 62
     7
370
    25
100
AcDbSpline
210
0.0
220
0.0
230
1.0
 70
     8
 71
     3
 72
     8
 73
     4
 74
     0
 42
0.000000001
 43
0.00000001
 40
0.0
 40
0.0
 40
0.0
 40
0.0
 40
1.0
 40
1.0
 40
1.0
 40
1.0
 10
129.1776555566049
 20
102.3103485423353
 30
0.0
 10
129.059358797175
 20
102.4733727707937
 30
0.0
 10
128.9479303150036
 20
102.6537612698162
 30
0.0
 10
128.8466737491516
 20
102.860325651022
 30
0.0
  0
LINE
  5
15D
330
1F
100
AcDbEntity
  8
0
  6
Continuous
 62
     7
370
    25
100
AcDbLine
 10
129.1776555566
 20
75.5578116487
 30
0.0
 11
129.1776555566
 21
102.3103485423
 31
0.0
  0
SPLINE
  5
15E
330
1F
100
AcDbEntity
  8
0
  6
Continuous
 62
     7
370
    25
100
AcDbSpline
210
0.0
220
0.0
230
1.0
 70
     8
 71
     3
 72
     8
 73
     4
 74
     0
 42
0.000000001
 43
0.00000001
 40
0.0
 40
0.0
 40
0.0
 40
0.0
 40
1.0
 40
1.0
 40
1.0
 40
1.0
 10
133.3554992719409
 20
100.9501491700195
 30
0.0
 10
133.213961183659
 20
100.9042533989224
 30
0.0
 10
133.0713507149221
 20
100.8673125479851
 30
0.0
 10
132.9276555566051
 20
100.8388988670445
 30
0.0
  0
LINE
  5
15F
330
1F
100
AcDbEntity
  8
0
  6
Continuous
 62
     7
370
    25
100
AcDbLine
 10
132.9276555566
 20
75.5578116487
 30
0.0
 11
132.9276555566
 21
100.838898867
 31
0.0
  0
SPLINE
  5
160
330
1F
100
AcDbEntity
  8
0
  6
Continuous
 62
     7
370
    25
100
AcDbSpline
210
0.0
220
0.0
230
1.0
 70
     8
 71
     3
 72
    14
 73
    10
 74
     0
 42
0.000000001
 43
0.00000001
 40
0.0
 40
0.0
 40
0.0
 40
0.0
 40
0.25
 40
0.25
 40
0.5
 40
0.5
 40
0.75
 40
0.75
 40
1.0
 40
1.0
 40
1.0
 40
1.0
 10
130.1776555566049
 20
101.3640248523626
 30
0.0
 10
130.0433074702484
 20
101.4506284139902
 30
0.0
 10
129.9201307963924
 20
101.5420968113136
 30
0.0
 10
129.6913841914744
 20
101.7332881979445
 30
0.0
 10
129.5894622275072
 20
101.8301500500854
 30
0.0
 10
129.4100388250785
 20
102.0180246648207
 30
0.0
 10
129.3335975368957
 20
102.108260016172
 30
0.0
 10
129.2163075640456
 20
102.2560663801494
 30
0.0
 10
129.1776555566049
 20
102.3103485423353
 30
0.0
 10
129.1776555566049
 20
102.3103485423353
 30
0.0
  0
SPLINE
  5
161
330
1F
100
AcDbEntity
  8
0
  6
Continuous
 62
     7
370
    25
100
AcDbSpline
210
0.0
220
0.0
230
1.0
 70
     8
 71
     3
 72
    14
 73
    10
 74
     0
 42
0.000000001
 43
0.00000001
 40
0.0
 40
0.0
 40
0.0
 40
0.0
 40
0.25
 40
0.25
 40
0.5
 40
0.5
 40
0.75
 40
0.75
 40
1.0
 40
1.0
 40
1.0
 40
1.0
 10
132.927655556605
 20
100.8388988670451
 30
0.0
 10
132.9276555566052
 20
100.8388988670451
 30
0.0
 10
132.9017390340341
 20
100.8335221360567
 30
0.0
 10
132.8022941874565
 20
100.8159775484563
 30
0.0
 10
132.7299957950442
 20
100.80412814481
 30
0.0
 10
132.5452919005204
 20
100.7824843268097
 30
0.0
 10
132.4357146386444
 20
100.7731950661253
 30
0.0
 10
132.1923844604263
 20
100.7659395297677
 30
0.0
 10
132.0608482015062
 20
100.7682109359271
 30
0.0
 10
131.9276555566049
 20
100.7780376998602
 30
0.0
  0
SPLINE
  5
162
330
1F
100
AcDbEntity
  8
0
  6
Continuous
 62
     7
370
    25
100
AcDbSpline
210
0.0
220
0.0
230
1.0
 70
     8
 71
     3
 72
    10
 73
     6
 74
     0
 42
0.000000001
 43
0.00000001
 40
0.0
 40
0.0
 40
0.0
 40
0.0
 40
0.5
 40
0.5
 40
1.0
 40
1.0
 40
1.0
 40
1.0
 10
131.9276555566049
 20
100.7780376998603
 30
0.0
 10
131.6151916543168
 20
100.8010908422294
 30
0.0
 10
131.312302672319
 20
100.8623255446358
 30
0.0
 10
130.724959487515
 20
101.0584975085597
 30
0.0
 10
130.440491826943
 20
101.1945951436595
 30
0.0
 10
130.1776555566049
 20
101.3640248523626
 30
0.0
  0
ARC
  5
163
330
1F
100
AcDbEntity
  8
0
  6
Continuous
 62
     7
370
    25
100
AcDbCircle
 10
142.1526555566
 20
131.5054069129
 30
0.0
 40
3.0
100
AcDbArc
 50
180.0
 51
270.0
  0
LINE
  5
164
330
1F
100
AcDbEntity
  8
0
  6
Continuous
 62
     7
370
    25
100
AcDbLine
 10
121.1526555566
 20
131.3554069129
 30
0.0
 11
121.4866942426
 21
130.2959715525
 31
0.0
  0
LINE
  5
165
330
1F
100
AcDbEntity
  8
0
  6
Continuous
 62
     7
370
    25
100
AcDbLine
 10
121.1526555566
 20
131.3554069129
 30
0.0
 11
121.1526555566
 21
129.3801181795
 31
0.0
  0
ARC
  5
166
330
1F
100
AcDbEntity
  8
0
  6
Continuous
 62
     7
370
    25
100
AcDbCircle
 10
120.723720682
 20
130.0554069129
 30
0.0
 40
0.8000000000000139
100
AcDbArc
 50
252.5
 51
17.5
  0
SPLINE
  5
167
330
1F
100
AcDbEntity
  8
0
  6
Continuous
 62
     7
370
    25
100
AcDbSpline
210
0.0
220
0.0
230
1.0
 70
     8
 71
     3
 72
    23
 73
    19
 74
     0
 42
0.000000001
 43
0.00000001
 40
0.0
 40
0.0
 40
0.0
 40
0.0
 40
0.0014752899205275
 40
0.0696288509416035
 40
0.1372792101573364
 40
0.2039819135400783
 40
0.2703117571759917
 40
0.3365672618513769
 40
0.4028772365390579
 40
0.4678771374618322
 40
0.5326481398333837
 40
0.5993656092925664
 40
0.6655280750059939
 40
0.7321209147635985
 40
0.7988898269457709
 40
0.866338659222382
 40
0.9345238227745254
 40
1.0
 40
1.0
 40
1.0
 40
1.0
 10
90.91241003276535
 20
127.9296865475373
 30
0.0
 10
90.91357667703096
 20
127.9293266193181
 30
0.0
 10
90.96863846423683
 20
127.9123391865594
 30
0.0
 10
91.36506947614755
 20
127.7950696717999
 30
0.0
 10
92.08113087198447
 20
127.5944586263742
 30
0.0
 10
93.0908096130528
 20
127.3538438613345
 30
0.0
 10
94.30678803308842
 20
127.1265715277715
 30
0.0
 10
95.71098791900474
 20
126.954182038852
 30
0.0
 10
97.22805205481566
 20
126.8661137254731
 30
0.0
 10
98.80234988946037
 20
126.897161388756
 30
0.0
 10
100.3681701195224
 20
127.0481846272937
 30
0.0
 10
101.8580271879303
 20
127.3025214261882
 30
0.0
 10
103.2297073805696
 20
127.6202582047578
 30
0.0
 10
104.415630474208
 20
127.9641746249155
 30
0.0
 10
105.3932298182379
 20
128.2920172252178
 30
0.0
 10
106.1127409698224
 20
128.5609416547033
 30
0.0
 10
106.5853759715263
 20
128.7435309903245
 30
0.0
 10
106.6428470858793
 20
128.7667793829094
 30
0.0
 10
106.6710002440538
 20
128.7781679853597
 30
0.0
  0
LINE
  5
168
330
1F
100
AcDbEntity
  8
0
  6
Continuous
 62
     7
370
    25
100
AcDbLine
 10
90.7530896714
 20
127.9788032744
 30
0.0
 11
82.7026555566
 21
127.5745270404
 31
0.0
  0
LINE
  5
169
330
1F
100
AcDbEntity
  8
0
  6
Continuous
 62
     7
370
    25
100
AcDbLine
 10
82.7026555566
 20
81.4362867853
 30
0.0
 11
82.7026555566
 21
95.3832838783
 31
0.0
  0
SPLINE
  5
16A
330
1F
100
AcDbEntity
  8
0
  6
Continuous
 62
     7
370
    25
100
AcDbSpline
210
0.0
220
0.0
230
1.0
 70
     8
 71
     3
 72
     8
 73
     4
 74
     0
 42
0.000000001
 43
0.00000001
 40
0.0
 40
0.0
 40
0.0
 40
0.0
 40
1.0
 40
1.0
 40
1.0
 40
1.0
 10
88.52083000955186
 20
95.3878699365543
 30
0.0
 10
86.58143852524044
 20
95.38572384070469
 30
0.0
 10
84.64204704092904
 20
95.38412765417993
 30
0.0
 10
82.70265555661763
 20
95.38308020170423
 30
0.0
  0
SPLINE
  5
16B
330
1F
100
AcDbEntity
  8
0
  6
Continuous
 62
     7
370
    25
100
AcDbSpline
210
0.0
220
0.0
230
1.0
 70
     8
 71
     3
 72
    13
 73
     9
 74
     0
 42
0.000000001
 43
0.00000001
 40
0.0
 40
0.0
 40
0.0
 40
0.0
 40
0.1686319999748089
 40
0.3360343310905561
 40
0.5025367825908729
 40
0.6684737453788404
 40
0.8341822636915154
 40
1.0
 40
1.0
 40
1.0
 40
1.0
 10
89.60432505901885
 20
95.52532638237194
 30
0.0
 10
89.5448351629591
 20
95.51081206233309
 30
0.0
 10
89.42628917268402
 20
95.48188926104854
 30
0.0
 10
89.24641247709816
 20
95.44792786764027
 30
0.0
 10
89.06602218947013
 20
95.42106230528127
 30
0.0
 10
88.88491001743633
 20
95.40210336817334
 30
0.0
 10
88.70314918026887
 20
95.39017291677766
 30
0.0
 10
88.58161641237422
 20
95.38863776520884
 30
0.0
 10
88.52083000955186
 20
95.3878699365543
 30
0.0
  0
SPLINE
  5
16C
330
1F
100
AcDbEntity
  8
0
  6
Continuous
 62
     7
370
    25
100
AcDbSpline
210
0.0
220
0.0
230
1.0
 70
     8
 71
     3
 72
     8
 73
     4
 74
     0
 42
0.000000001
 43
0.00000001
 40
0.0
 40
0.0
 40
0.0
 40
0.0
 40
1.0
 40
1.0
 40
1.0
 40
1.0
 10
94.99651847551506
 20
95.52956442425737
 30
0.0
 10
93.19912380407612
 20
95.52769336373339
 30
0.0
 10
91.40172913263719
 20
95.52627118270928
 30
0.0
 10
89.60433446119823
 20
95.52529705971327
 30
0.0
  0
SPLINE
  5
16D
330
1F
100
AcDbEntity
  8
0
  6
Continuous
 62
     7
370
    25
100
AcDbSpline
210
0.0
220
0.0
230
1.0
 70
     8
 71
     3
 72
    18
 73
    14
 74
     0
 42
0.000000001
 43
0.00000001
 40
0.0
 40
0.0
 40
0.0
 40
0.0
 40
0.0923325137124559
 40
0.1843692047086504
 40
0.2763458873841173
 40
0.3684982175689556
 40
0.4610598988338003
 40
0.5542609546564705
 40
0.6483261285468145
 40
0.7434734636522684
 40
0.839913099312583
 40
0.920166071830381
 40
1.0
 40
1.0
 40
1.0
 40
1.0
 10
97.192840124114
 20
94.99537218841378
 30
0.0
 10
97.12250982059996
 20
94.9957888128454
 30
0.0
 10
96.98207454374631
 20
94.99662072689202
 30
0.0
 10
96.77171201724146
 20
95.01022957380653
 30
0.0
 10
96.56226835432363
 20
95.03289633117818
 30
0.0
 10
96.3537186839504
 20
95.06549712097889
 30
0.0
 10
96.14607506667511
 20
95.10779959959913
 30
0.0
 10
95.93933687913625
 20
95.15987099825428
 30
0.0
 10
95.73351478717288
 20
95.22171977109966
 30
0.0
 10
95.52858310838295
 20
95.29331778255586
 30
0.0
 10
95.33710236298931
 20
95.36989627278362
 30
0.0
 10
95.15937921093649
 20
95.44850752161707
 30
0.0
 10
95.05104521637307
 20
95.50242167740448
 30
0.0
 10
94.99702000692017
 20
95.52930819230342
 30
0.0
  0
LINE
  5
16E
330
1F
100
AcDbEntity
  8
0
  6
Continuous
 62
     7
370
    25
100
AcDbLine
 10
99.1077134034
 20
94.9968676233
 30
0.0
 11
97.1928401241
 21
94.9953721884
 31
0.0
  0
SPLINE
  5
16F
330
1F
100
AcDbEntity
  8
0
  6
Continuous
 62
     7
370
    25
100
AcDbSpline
210
0.0
220
0.0
230
1.0
 70
     8
 71
     3
 72
    25
 73
    21
 74
     0
 42
0.000000001
 43
0.00000001
 40
0.0
 40
0.0
 40
0.0
 40
0.0
 40
0.0280105225422327
 40
0.0559601148853515
 40
0.0839014045033802
 40
0.1118870776776037
 40
0.1399695827578598
 40
0.168200840173054
 40
0.1966319670416873
 40
0.2253130233137065
 40
0.2542927850735304
 40
0.3799486436555246
 40
0.5057850221666196
 40
0.6313085886311499
 40
0.7532068238012074
 40
0.8039473267951883
 40
0.8535894438548528
 40
0.9025339722388155
 40
0.9511970353787135
 40
1.0
 40
1.0
 40
1.0
 40
1.0
 10
104.0475977098063
 20
100.130731427789
 30
0.0
 10
104.0476349315401
 20
100.0561114007767
 30
0.0
 10
104.0477092940407
 20
99.90703366479138
 30
0.0
 10
104.0352932433942
 20
99.68441557382747
 30
0.0
 10
104.0136886830404
 20
99.46309115580021
 30
0.0
 10
103.9820032133803
 20
99.24312288991241
 30
0.0
 10
103.9404770750604
 20
99.02453260268335
 30
0.0
 10
103.8890463193305
 20
98.8073506642782
 30
0.0
 10
103.8277324446193
 20
98.5916092443918
 30
0.0
 10
103.7565221091198
 20
98.3773193529394
 30
0.0
 10
103.5856855019199
 20
97.9289695799204
 30
0.0
 10
103.2479532684826
 20
97.27563875184885
 30
0.0
 10
102.6363986042893
 20
96.50374554121173
 30
0.0
 10
101.9001637691377
 20
95.85958591582163
 30
0.0
 10
101.2136776974903
 20
95.46794474776127
 30
0.0
 10
100.6649735513389
 20
95.24924984678994
 30
0.0
 10
100.2829373728354
 20
95.1333937979594
 30
0.0
 10
99.89577127413094
 20
95.0524858924295
 30
0.0
 10
99.50354460534281
 20
95.00325746163163
 30
0.0
 10
99.23978333722604
 20
94.99899960661632
 30
0.0
 10
99.10771340340347
 20
94.99686762327354
 30
0.0
  0
LINE
  5
170
330
1F
100
AcDbEntity
  8
0
  6
Continuous
 62
     7
370
    25
100
AcDbLine
 10
104.0475977098
 20
104.5054069129
 30
0.0
 11
104.0475977098
 21
100.1307314278
 31
0.0
  0
LINE
  5
171
330
1F
100
AcDbEntity
  8
0
  6
Continuous
 62
     7
370
    25
100
AcDbLine
 10
119.9924735166
 20
79.5636688673
 30
0.0
 11
119.9924735166
 21
104.5054069129
 31
0.0
  0
LINE
  5
172
330
1F
100
AcDbEntity
  8
0
  6
Continuous
 62
     7
370
    25
100
AcDbLine
 10
119.9924735166
 20
129.4471449584
 30
0.0
 11
106.6710002441
 21
128.7781679854
 31
0.0
  0
SPLINE
  5
173
330
1F
100
AcDbEntity
  8
0
  6
Continuous
 62
     7
370
    25
100
AcDbSpline
210
0.0
220
0.0
230
1.0
 70
     8
 71
     3
 72
    20
 73
    16
 74
     0
 42
0.000000001
 43
0.00000001
 40
0.0
 40
0.0
 40
0.0
 40
0.0
 40
0.0829621378684853
 40
0.1658495135106166
 40
0.2487180070857358
 40
0.3299477216398526
 40
0.4108693994445737
 40
0.4941953814850565
 40
0.576890167662623
 40
0.6601065810557781
 40
0.7435845489350859
 40
0.8279858465401893
 40
0.9132590745392889
 40
0.9972257035811811
 40
1.0
 40
1.0
 40
1.0
 40
1.0
 10
93.06507165133185
 20
81.6421465453508
 30
0.0
 10
93.45081748740316
 20
81.71906497195494
 30
0.0
 10
94.22196154052034
 20
81.87283250929254
 30
0.0
 10
95.62970969169017
 20
82.04874773067804
 30
0.0
 10
97.13756105956477
 20
82.1427440180071
 30
0.0
 10
98.71005003458262
 20
82.1188996361405
 30
0.0
 10
100.2773470657947
 20
81.97499459123992
 30
0.0
 10
101.7731230925762
 20
81.72593698844088
 30
0.0
 10
103.1533769682489
 20
81.41125629590223
 30
0.0
 10
104.3509711513045
 20
81.06699494392171
 30
0.0
 10
105.3378331811268
 20
80.73794771810196
 30
0.0
 10
106.0850714273248
 20
80.45948680989422
 30
0.0
 10
106.5322728566903
 20
80.28763101486254
 30
0.0
 10
106.7190274688403
 20
80.21378034326422
 30
0.0
 10
106.6679292549421
 20
80.23393163433725
 30
0.0
 10
106.666294944597
 20
80.23457614734379
 30
0.0
  0
SPLINE
  5
174
330
1F
100
AcDbEntity
  8
0
  6
Continuous
 62
     7
370
    25
100
AcDbSpline
210
0.0
220
0.0
230
1.0
 70
     8
 71
     3
 72
    11
 73
     7
 74
     0
 42
0.000000001
 43
0.00000001
 40
0.0
 40
0.0
 40
0.0
 40
0.0
 40
0.2435512231731354
 40
0.4981153923403513
 40
0.750909788171944
 40
1.0
 40
1.0
 40
1.0
 40
1.0
 10
90.75757753358828
 20
81.03348433596769
 30
0.0
 10
90.78352845511355
 20
81.04171987250582
 30
0.0
 10
90.83660375191867
 20
81.05856334165532
 30
0.0
 10
91.31429873558113
 20
81.19946478379282
 30
0.0
 10
92.0256381838479
 20
81.40475533424102
 30
0.0
 10
92.7203028310226
 20
81.56340645243824
 30
0.0
 10
93.06507165133185
 20
81.6421465453508
 30
0.0
  0
LINE
  5
175
330
1F
100
AcDbEntity
  8
0
  6
Continuous
 62
     7
370
    25
100
AcDbLine
 10
120.4831560424
 20
129.2924333523
 30
0.0
 11
119.9924735166
 21
129.4471449584
 31
0.0
  0
LINE
  5
176
330
1F
100
AcDbEntity
  8
0
  6
Continuous
 62
     7
370
    25
100
AcDbLine
 10
104.0475977098
 20
100.1307314278
 30
0.0
 11
103.1526555566
 21
100.2929069129
 31
0.0
  0
LINE
  5
177
330
1F
100
AcDbEntity
  8
0
  6
Continuous
 62
     7
370
    25
100
AcDbLine
 10
103.1526555566
 20
100.2929069129
 30
0.0
 11
103.1526555566
 21
104.5054069129
 31
0.0
  0
SPLINE
  5
178
330
1F
100
AcDbEntity
  8
0
  6
Continuous
 62
     7
370
    25
100
AcDbSpline
210
0.0
220
0.0
230
1.0
 70
     8
 71
     3
 72
    10
 73
     6
 74
     0
 42
0.000000001
 43
0.00000001
 40
0.0
 40
0.0
 40
0.0
 40
0.0
 40
0.4224952488526703
 40
0.8503714505082747
 40
1.0
 40
1.0
 40
1.0
 40
1.0
 10
190.6526556114611
 20
128.5054069128576
 30
0.0
 10
190.6816286247276
 20
128.4964478365977
 30
0.0
 10
190.7399436552137
 20
128.478415580152
 30
0.0
 10
191.0395890207769
 20
128.3845996731118
 30
0.0
 10
191.3446214722428
 20
128.2986693093222
 30
0.0
 10
191.4236538320114
 20
128.2764051882642
 30
0.0
  0
SPLINE
  5
179
330
1F
100
AcDbEntity
  8
0
  6
Continuous
 62
     7
370
    25
100
AcDbSpline
210
0.0
220
0.0
230
1.0
 70
     8
 71
     3
 72
    11
 73
     7
 74
     0
 42
0.000000001
 43
0.00000001
 40
0.0
 40
0.0
 40
0.0
 40
0.0
 40
0.150267777699385
 40
0.5770707111638762
 40
0.9997016235529395
 40
1.0
 40
1.0
 40
1.0
 40
1.0
 10
203.8819852413598
 20
128.2760772281027
 30
0.0
 10
203.961668194392
 20
128.2985158932215
 30
0.0
 10
204.2676732413684
 20
128.384686705327
 30
0.0
 10
204.5515543791126
 20
128.4740028947323
 30
0.0
 10
204.6527209672312
 20
128.5054005523999
 30
0.0
 10
204.6526553674411
 20
128.5054069083735
 30
0.0
 10
204.6526553211604
 20
128.5054069128576
 30
0.0
  0
LINE
  5
17A
330
1F
100
AcDbEntity
  8
0
  6
Continuous
 62
     7
370
    25
100
AcDbLine
 10
190.6526556115
 20
128.5054069129
 30
0.0
 11
142.1526555566
 21
128.5054069129
 31
0.0
  0
LINE
  5
17B
330
1F
100
AcDbEntity
  8
0
  6
Continuous
 62
     7
370
    25
100
AcDbLine
 10
208.2856140335
 20
80.5054069129
 30
0.0
 11
208.2856140335
 21
104.5054069129
 31
0.0
  0
LINE
  5
17C
330
1F
100
AcDbEntity
  8
0
  6
Continuous
 62
     7
370
    25
100
AcDbLine
 10
208.2856140335
 20
128.5054069129
 30
0.0
 11
204.6526553212
 21
128.5054069129
 31
0.0
  0
LINE
  5
17D
330
1F
100
AcDbEntity
  8
0
  6
Continuous
 62
     7
370
    25
100
AcDbLine
 10
219.9978920801
 20
123.0438819653
 30
0.0
 11
208.2856140335
 21
128.5054069129
 31
0.0
  0
SPLINE
  5
17E
330
1F
100
AcDbEntity
  8
0
  6
Continuous
 62
     7
370
    25
100
AcDbSpline
210
0.0
220
0.0
230
1.0
 70
     8
 71
     3
 72
    25
 73
    21
 74
     0
 42
0.000000001
 43
0.00000001
 40
0.0
 40
0.0
 40
0.0
 40
0.0
 40
0.0288821753108476
 40
0.0583636594010358
 40
0.088464720431129
 40
0.1192044006622933
 40
0.1506005800091479
 40
0.1826700399674522
 40
0.2154285269578988
 40
0.2488908143379949
 40
0.3610594471186867
 40
0.4984670131067664
 40
0.582269390500644
 40
0.666112764278217
 40
0.7499972937224437
 40
0.8007709755032449
 40
0.8511237700807972
 40
0.9010896024506762
 40
0.9507031914109091
 40
0.9999999999999999
 40
0.9999999999999999
 40
0.9999999999999999
 40
0.9999999999999999
 10
99.1526555566049
 20
96.29290691285762
 30
0.0
 10
99.21545600984187
 20
96.29376339680942
 30
0.0
 10
99.34236003363874
 20
96.295494136863
 30
0.0
 10
99.53371444134945
 20
96.30964400226615
 30
0.0
 10
99.72761925402585
 20
96.33278108458681
 30
0.0
 10
99.92351997475363
 20
96.36619223681156
 30
0.0
 10
100.1208576427586
 20
96.41006605884387
 30
0.0
 10
100.3190109845461
 20
96.4648613298133
 30
0.0
 10
100.517326728558
 20
96.53093029117768
 30
0.0
 10
100.8686477160579
 20
96.66891162342937
 30
0.0
 10
101.3937594863824
 20
96.94896356227008
 30
0.0
 10
101.930751314869
 20
97.38755416467724
 30
0.0
 10
102.3428110449115
 20
97.86141428622865
 30
0.0
 10
102.629729632964
 20
98.29309803404846
 30
0.0
 10
102.8281563201712
 20
98.6962212758086
 30
0.0
 10
102.9602421942195
 20
99.05395743658758
 30
0.0
 10
103.0458760740173
 20
99.35670983886995
 30
0.0
 10
103.1069582853703
 20
99.66519814911564
 30
0.0
 10
103.1454592287358
 20
99.977509859272
 30
0.0
 10
103.1502619078293
 20
100.1879992731734
 30
0.0
 10
103.1526555566049
 20
100.2929069128576
 30
0.0
  0
SPLINE
  5
17F
330
1F
100
AcDbEntity
  8
0
  6
Continuous
 62
     7
370
    25
100
AcDbSpline
210
0.0
220
0.0
230
1.0
 70
     8
 71
     3
 72
    13
 73
     9
 74
     0
 42
0.000000001
 43
0.00000001
 40
0.0
 40
0.0
 40
0.0
 40
0.0
 40
0.172258782357889
 40
0.342139827126599
 40
0.509745625793203
 40
0.6751828993293467
 40
0.8385626190148152
 40
1.0
 40
1.0
 40
1.0
 40
1.0
 10
96.15267392551513
 20
96.44290173560744
 30
0.0
 10
96.21353731518411
 20
96.42663800790882
 30
0.0
 10
96.3344239796238
 20
96.39433504542951
 30
0.0
 10
96.51748513758965
 20
96.35694739073652
 30
0.0
 10
96.699587820528
 20
96.32781445582593
 30
0.0
 10
96.88052926884674
 20
96.30762774021944
 30
0.0
 10
97.0598682725496
 20
96.29518093591767
 30
0.0
 10
97.17871450096882
 20
96.29366189269014
 30
0.0
 10
97.23778227731543
 20
96.29290691285762
 30
0.0
  0
LINE
  5
180
330
1F
100
AcDbEntity
  8
0
  6
Continuous
 62
     7
370
    25
100
AcDbLine
 10
97.1928401241
 20
94.9953721884
 30
0.0
 11
97.2377822773
 21
96.2929069129
 31
0.0
  0
SPLINE
  5
181
330
1F
100
AcDbEntity
  8
0
  6
Continuous
 62
     7
370
    25
100
AcDbSpline
210
0.0
220
0.0
230
1.0
 70
     8
 71
     3
 72
    11
 73
     7
 74
     0
 42
0.000000001
 43
0.00000001
 40
0.0
 40
0.0
 40
0.0
 40
0.0
 40
0.2392913842439378
 40
0.5001130134995628
 40
0.7515028526562008
 40
1.0
 40
1.0
 40
1.0
 40
1.0
 10
95.82518306445903
 20
96.44348051788073
 30
0.0
 10
95.75635812857172
 20
96.3719270807778
 30
0.0
 10
95.61251573240993
 20
96.22238218525692
 30
0.0
 10
95.40476693402763
 20
95.99346475862033
 30
0.0
 10
95.19678072931143
 20
95.76114638635988
 30
0.0
 10
95.06377980556682
 20
95.6063705037468
 30
0.0
 10
94.99766416135692
 20
95.52943038258817
 30
0.0
  0
SPLINE
  5
182
330
1F
100
AcDbEntity
  8
0
  6
Continuous
 62
     7
370
    25
100
AcDbSpline
210
0.0
220
0.0
230
1.0
 70
    24
 71
     3
 72
     9
 73
     5
 74
     0
 42
0.000000001
 43
0.00000001
 40
0.0
 40
0.0
 40
0.0
 40
0.0
 40
0.5090839669866035
 40
1.0
 40
1.0
 40
1.0
 40
1.0
 10
95.8274133327784
 20
96.44290691285762
 30
0.0
 10
95.88214673289075
 20
96.44290691285762
 30
0.0
 10
95.98966023490958
 20
96.44290691285762
 30
0.0
 10
96.09905279528053
 20
96.44290691285762
 30
0.0
 10
96.152755357059
 20
96.44290691285762
 30
0.0
  0
LINE
  5
183
330
1F
100
AcDbEntity
  8
0
  6
Continuous
 62
     7
370
    25
100
AcDbLine
 10
89.5788054682
 20
96.4228551391
 30
0.0
 11
89.6042199598
 21
95.5252969684
 31
0.0
  0
SPLINE
  5
184
330
1F
100
AcDbEntity
  8
0
  6
Continuous
 62
     7
370
    25
100
AcDbSpline
210
0.0
220
0.0
230
1.0
 70
     8
 71
     3
 72
     8
 73
     4
 74
     0
 42
0.000000001
 43
0.00000001
 40
0.0
 40
0.0
 40
0.0
 40
0.0
 40
1.0
 40
1.0
 40
1.0
 40
1.0
 10
89.57881665933313
 20
96.42285562919683
 30
0.0
 10
89.60061951581515
 20
96.42855296022952
 30
0.0
 10
89.62237422521265
 20
96.43443454302451
 30
0.0
 10
89.64407768053073
 20
96.44049953757758
 30
0.0
  0
LINE
  5
185
330
1F
100
AcDbEntity
  8
0
  6
Continuous
 62
     7
370
    25
100
AcDbLine
 10
89.6526555567
 20
96.4429069129
 30
0.0
 11
95.826328529
 21
96.4429069129
 31
0.0
  0
LINE
  5
186
330
1F
100
AcDbEntity
  8
0
  6
Continuous
 62
     7
370
    25
100
AcDbLine
 10
97.2377822773
 20
96.2929069129
 30
0.0
 11
99.1526555566
 21
96.2929069129
 31
0.0
  0
SPLINE
  5
187
330
1F
100
AcDbEntity
  8
0
  6
Continuous
 62
     7
370
    25
100
AcDbSpline
210
0.0
220
0.0
230
1.0
 70
     8
 71
     3
 72
    13
 73
     9
 74
     0
 42
0.000000001
 43
0.00000001
 40
0.0
 40
0.0
 40
0.0
 40
0.0
 40
0.1621004456454283
 40
0.3259434551388595
 40
0.4915935308049779
 40
0.6591130873777451
 40
0.8285624735926473
 40
1.0
 40
1.0
 40
1.0
 40
1.0
 10
88.56752883589435
 20
96.29290691285762
 30
0.0
 10
88.62308379395587
 20
96.29357587905878
 30
0.0
 10
88.7347909204142
 20
96.29492100278195
 30
0.0
 10
88.90263860980075
 20
96.30586757157212
 30
0.0
 10
89.07142502866682
 20
96.32350650089172
 30
0.0
 10
89.24074938520116
 20
96.34881201487909
 30
0.0
 10
89.41049603338577
 20
96.38111601767272
 30
0.0
 10
89.52248893204974
 20
96.40888761756023
 30
0.0
 10
89.57881196708341
 20
96.42285440306237
 30
0.0
  0
LINE
  5
188
330
1F
100
AcDbEntity
  8
0
  6
Continuous
 62
     7
370
    25
100
AcDbLine
 10
81.788995735
 20
95.7654051689
 30
0.0
 11
82.7026555566
 21
96.2929069129
 31
0.0
  0
LINE
  5
189
330
1F
100
AcDbEntity
  8
0
  6
Continuous
 62
     7
370
    25
100
AcDbLine
 10
82.7026555567
 20
96.2929069129
 30
0.0
 11
88.5675288359
 21
96.2929069129
 31
0.0
  0
SPLINE
  5
18A
330
1F
100
AcDbEntity
  8
0
  6
Continuous
 62
     7
370
    25
100
AcDbSpline
210
0.0
220
0.0
230
1.0
 70
     8
 71
     3
 72
     8
 73
     4
 74
     0
 42
0.000000001
 43
0.00000001
 40
0.0
 40
0.0
 40
0.0
 40
0.0
 40
1.0
 40
1.0
 40
1.0
 40
1.0
 10
82.70265555615394
 20
95.38308020148162
 30
0.0
 10
82.3981022824484
 20
95.51177106602842
 30
0.0
 10
82.09354900874288
 20
95.63921582229014
 30
0.0
 10
81.78899573503735
 20
95.76540516892786
 30
0.0
  0
LINE
  5
18B
330
1F
100
AcDbEntity
  8
0
  6
Continuous
 62
     7
370
    25
100
AcDbLine
 10
81.2026555566
 20
82.3023121891
 30
0.0
 11
81.2026555566
 21
95.4268815091
 31
0.0
  0
SPLINE
  5
18C
330
1F
100
AcDbEntity
  8
0
  6
Continuous
 62
     7
370
    25
100
AcDbSpline
210
0.0
220
0.0
230
1.0
 70
    24
 71
     3
 72
     8
 73
     4
 74
     0
 42
0.000000001
 43
0.00000001
 40
0.0
 40
0.0
 40
0.0
 40
0.0
 40
1.0
 40
1.0
 40
1.0
 40
1.0
 10
81.78899573503735
 20
95.76540516892786
 30
0.0
 10
81.592663709379
 20
95.65205282106346
 30
0.0
 10
81.39720268913878
 20
95.5392033484117
 30
0.0
 10
81.20265555660488
 20
95.4268815090732
 30
0.0
  0
LINE
  5
18D
330
1F
100
AcDbEntity
  8
0
  6
Continuous
 62
     7
370
    25
100
AcDbLine
 10
221.1526555566
 20
87.7795474676
 30
0.0
 11
221.1526555566
 21
104.5054069129
 31
0.0
  0
ARC
  5
18E
330
1F
100
AcDbEntity
  8
0
  6
Continuous
 62
     7
370
    25
100
AcDbCircle
 10
219.1526555566
 20
121.2312663912
 30
0.0
 40
2.000000000000001
100
AcDbArc
 50
0.0
 51
65.0
  0
ARC
  5
18F
330
1F
100
AcDbEntity
  8
0
  6
Continuous
 62
     7
370
    25
100
AcDbCircle
 10
112.9278960302
 20
121.9554069129
 30
0.0
 40
0.7999999999999996
100
AcDbArc
 50
90.0
 51
120.0
  0
ARC
  5
190
330
1F
100
AcDbEntity
  8
0
  6
Continuous
 62
     7
370
    25
100
AcDbCircle
 10
114.3526555566
 20
121.9554069129
 30
0.0
 40
0.8000000000000114
100
AcDbArc
 50
0.0
 51
90.0
  0
LINE
  5
191
330
1F
100
AcDbEntity
  8
0
  6
Continuous
 62
     7
370
    25
100
AcDbLine
 10
112.9278960302
 20
122.7554069129
 30
0.0
 11
114.3526555566
 21
122.7554069129
 31
0.0
  0
LINE
  5
192
330
1F
100
AcDbEntity
  8
0
  6
Continuous
 62
     7
370
    25
100
AcDbLine
 10
111.6526555566
 20
122.1429069129
 30
0.0
 11
111.6526555566
 21
104.5054069129
 31
0.0
  0
LINE
  5
193
330
1F
100
AcDbEntity
  8
0
  6
Continuous
 62
     7
370
    25
100
AcDbLine
 10
111.6526555566
 20
122.1429069129
 30
0.0
 11
112.5278960302
 21
122.6482272359
 31
0.0
  0
LINE
  5
194
330
1F
100
AcDbEntity
  8
0
  6
Continuous
 62
     7
370
    25
100
AcDbLine
 10
81.9543216064
 20
95.8608561053
 30
0.0
 11
81.8178528341
 21
95.7820658228
 31
0.0
  0
SPLINE
  5
195
330
1F
100
AcDbEntity
  8
0
  6
Continuous
 62
     7
370
    25
100
AcDbSpline
210
0.0
220
0.0
230
1.0
 70
     8
 71
     3
 72
    32
 73
    28
 74
     0
 42
0.000000001
 43
0.00000001
 40
0.0
 40
0.0
 40
0.0
 40
0.0
 40
0.1249999999999995
 40
0.1249999999999995
 40
0.1874999999999992
 40
0.1874999999999992
 40
0.2499999999999989
 40
0.2499999999999989
 40
0.3124999999999987
 40
0.3124999999999987
 40
0.3749999999999984
 40
0.3749999999999984
 40
0.4999999999999974
 40
0.4999999999999974
 40
0.5624999999999973
 40
0.5624999999999973
 40
0.6249999999999977
 40
0.6249999999999977
 40
0.7499999999999984
 40
0.7499999999999984
 40
0.8124999999999988
 40
0.8124999999999988
 40
0.8749999999999991
 40
0.8749999999999991
 40
0.9374999999999996
 40
0.9374999999999996
 40
1.0
 40
1.0
 40
1.0
 40
1.0
 10
95.62028588794541
 20
120.6780756670672
 30
0.0
 10
95.13621164399142
 20
120.6784350596868
 30
0.0
 10
94.65281407342454
 20
120.6933942658681
 30
0.0
 10
93.92890872368854
 20
120.7403783123768
 30
0.0
 10
93.68824629015168
 20
120.7601548675013
 30
0.0
 10
93.21690018107607
 20
120.8071189510004
 30
0.0
 10
92.98506436478581
 20
120.8343728001849
 30
0.0
 10
92.52936127822953
 20
120.8960007287975
 30
0.0
 10
92.3054929552882
 20
120.9303758295929
 30
0.0
 10
91.8661653632804
 20
121.005695273246
 30
0.0
 10
91.64944797061402
 20
121.0469132239943
 30
0.0
 10
91.02310599194118
 20
121.177150043175
 30
0.0
 10
90.6387133575878
 20
121.2721899550742
 30
0.0
 10
90.11117161196798
 20
121.4184569170267
 30
0.0
 10
89.94353746043689
 20
121.4678255522173
 30
0.0
 10
89.62513271319634
 20
121.5662292597176
 30
0.0
 10
89.47555183865718
 20
121.6149125243501
 30
0.0
 10
89.06253176910874
 20
121.7545353275185
 30
0.0
 10
88.83097999794961
 20
121.840122006099
 30
0.0
 10
88.54767048285994
 20
121.9490850540151
 30
0.0
 10
88.46410280108813
 20
121.9821337065895
 30
0.0
 10
88.32217796876394
 20
122.0391371028299
 30
0.0
 10
88.26318985732141
 20
122.0633338084403
 30
0.0
 10
88.16847395361157
 20
122.1025360888193
 30
0.0
 10
88.1327459864648
 20
122.1175432553163
 30
0.0
 10
88.08478170874734
 20
122.1377522530433
 30
0.0
 10
88.0726554013139
 20
122.1429069128576
 30
0.0
 10
88.07265540131387
 20
122.1429069128576
 30
0.0
  0
SPLINE
  5
196
330
1F
100
AcDbEntity
  8
0
  6
Continuous
 62
     7
370
    25
100
AcDbSpline
210
0.0
220
0.0
230
1.0
 70
     8
 71
     3
 72
    31
 73
    27
 74
     0
 42
0.000000001
 43
0.00000001
 40
0.0
 40
0.0
 40
0.0
 40
0.0
 40
0.0161756722761241
 40
0.0323169137829603
 40
0.0484425619883959
 40
0.0645715089961422
 40
0.0807226353341205
 40
0.0969147439450768
 40
0.1131664955255468
 40
0.1294963463050799
 40
0.1459224892613001
 40
0.1624627996346251
 40
0.1791347854482183
 40
0.195955543564008
 40
0.2945755146269812
 40
0.3932797312250583
 40
0.4928176221931602
 40
0.5924285912823425
 40
0.6939020917450097
 40
0.7927115381487349
 40
0.8267756331434468
 40
0.8608043324963245
 40
0.894984631400814
 40
0.9295010594356421
 40
0.9645328322467613
 40
0.9999999999999999
 40
0.9999999999999999
 40
0.9999999999999999
 40
0.9999999999999999
 10
106.628604946689
 20
122.1429069128576
 30
0.0
 10
106.6278718462378
 20
122.1425605214297
 30
0.0
 10
106.6264072057783
 20
122.1418684758862
 30
0.0
 10
106.6133508261132
 20
122.1362861138399
 30
0.0
 10
106.5923362655904
 20
122.1274193508458
 30
0.0
 10
106.5625890602497
 20
122.114978250131
 30
0.0
 10
106.5243167475941
 20
122.099087591576
 30
0.0
 10
106.477464066673
 20
122.0797618477488
 30
0.0
 10
106.422046336636
 20
122.0570457582294
 30
0.0
 10
106.3580603728055
 20
122.0309767538548
 30
0.0
 10
106.2855068886549
 20
122.0015943064866
 30
0.0
 10
106.2043901911753
 20
121.9689400591517
 30
0.0
 10
106.1146965364253
 20
121.933047612117
 30
0.0
 10
105.857650689772
 20
121.8308097044506
 30
0.0
 10
105.3296147041782
 20
121.6242854909841
 30
0.0
 10
104.350980056933
 20
121.2872001776346
 30
0.0
 10
103.1651037540133
 20
120.9440553183049
 30
0.0
 10
101.7946374889374
 20
120.6469434176449
 30
0.0
 10
100.308780216972
 20
120.4368999899123
 30
0.0
 10
99.08862758320765
 20
120.3786745870434
 30
0.0
 10
98.2222035502647
 20
120.3923669283034
 30
0.0
 10
97.6939586217888
 20
120.4177350139145
 30
0.0
 10
97.16918539058285
 20
120.4597576296321
 30
0.0
 10
96.64819615098989
 20
120.5180415928602
 30
0.0
 10
96.13095520593046
 20
120.5906651381056
 30
0.0
 10
95.79531809359574
 20
120.6495454557953
 30
0.0
 10
95.62646310553357
 20
120.6791674343407
 30
0.0
  0
LINE
  5
197
330
1F
100
AcDbEntity
  8
0
  6
Continuous
 62
     7
370
    25
100
AcDbLine
 10
106.6286049467
 20
122.1429069129
 30
0.0
 11
111.6526555566
 21
122.1429069129
 31
0.0
  0
LINE
  5
198
330
1F
100
AcDbEntity
  8
0
  6
Continuous
 62
     7
370
    25
100
AcDbLine
 10
103.8026555566
 20
108.5681803237
 30
0.0
 11
103.8026555566
 21
104.5054069129
 31
0.0
  0
SPLINE
  5
199
330
1F
100
AcDbEntity
  8
0
  6
Continuous
 62
     7
370
    25
100
AcDbSpline
210
0.0
220
0.0
230
1.0
 70
     8
 71
     3
 72
    25
 73
    21
 74
     0
 42
0.000000001
 43
0.00000001
 40
0.0
 40
0.0
 40
0.0
 40
0.0
 40
0.0278144320063454
 40
0.0555680196245743
 40
0.0833316253677699
 40
0.1111760352167569
 40
0.1391714221532235
 40
0.1673868326284729
 40
0.1958897140434683
 40
0.2247454979318932
 40
0.2540172492221413
 40
0.3796724410010679
 40
0.5056484635002158
 40
0.6297527290673055
 40
0.7535891720571115
 40
0.8038564806084937
 40
0.8533396843421529
 40
0.902326439834555
 40
0.9511131859210757
 40
1.0
 40
1.0
 40
1.0
 40
1.0
 10
99.15265555660488
 20
113.0529034952226
 30
0.0
 10
99.22131091056721
 20
113.0523704101155
 30
0.0
 10
99.35847143411988
 20
113.0513054060311
 30
0.0
 10
99.56371401670565
 20
113.0382105086389
 30
0.0
 10
99.76803503320274
 20
113.0166720220664
 30
0.0
 10
99.97143608529173
 20
112.9858505502178
 30
0.0
 10
100.1739117161376
 20
112.9459377977103
 30
0.0
 10
100.3754605803853
 20
112.8968376047693
 30
0.0
 10
100.5760746011879
 20
112.8385243572575
 30
0.0
 10
100.7757723655202
 20
112.7709324143907
 30
0.0
 10
101.1913371861983
 20
112.6101188982756
 30
0.0
 10
101.7941136027399
 20
112.2961419989333
 30
0.0
 10
102.4881701582429
 20
111.7325705234435
 30
0.0
 10
103.0549437876403
 20
111.0568263041882
 30
0.0
 10
103.3925215933112
 20
110.439464476714
 30
0.0
 10
103.5809840026048
 20
109.9474030372038
 30
0.0
 10
103.680245220129
 20
109.6097512546603
 30
0.0
 10
103.7505898088358
 20
109.2671201126368
 30
0.0
 10
103.7945884073542
 20
108.9197554121921
 30
0.0
 10
103.7999646708345
 20
108.6854520355822
 30
0.0
 10
103.8026555566049
 20
108.5681803236573
 30
0.0
  0
LINE
  5
19A
330
1F
100
AcDbEntity
  8
0
  6
Continuous
 62
     7
370
    25
100
AcDbLine
 10
97.2377822773
 20
113.0529034952
 30
0.0
 11
99.1526555566
 21
113.0529034952
 31
0.0
  0
SPLINE
  5
19B
330
1F
100
AcDbEntity
  8
0
  6
Continuous
 62
     7
370
    25
100
AcDbSpline
210
0.0
220
0.0
230
1.0
 70
     8
 71
     3
 72
    12
 73
     8
 74
     0
 42
0.000000001
 43
0.00000001
 40
0.0
 40
0.0
 40
0.0
 40
0.0
 40
0.1992838848939808
 40
0.3984605265743477
 40
0.5979968004918437
 40
0.7983570684797959
 40
1.0
 40
1.0
 40
1.0
 40
1.0
 10
96.23674843495141
 20
112.9507091824994
 30
0.0
 10
96.30220171225234
 20
112.9637315352641
 30
0.0
 10
96.43307304363583
 20
112.9897692329064
 30
0.0
 10
96.63192249526281
 20
113.0181997918803
 30
0.0
 10
96.8323290111389
 20
113.0386309528617
 30
0.0
 10
97.03449992856294
 20
113.0510700299322
 30
0.0
 10
97.16987751221914
 20
113.0522910415068
 30
0.0
 10
97.23778227731542
 20
113.0529034952226
 30
0.0
  0
LINE
  5
19C
330
1F
100
AcDbEntity
  8
0
  6
Continuous
 62
     7
370
    25
100
AcDbLine
 10
90.8119854274
 20
112.9505452584
 30
0.0
 11
96.2359754459
 21
112.9505452584
 31
0.0
  0
SPLINE
  5
19D
330
1F
100
AcDbEntity
  8
0
  6
Continuous
 62
     7
370
    25
100
AcDbSpline
210
0.0
220
0.0
230
1.0
 70
     8
 71
     3
 72
    24
 73
    20
 74
     0
 42
0.000000001
 43
0.00000001
 40
0.0
 40
0.0
 40
0.0
 40
0.0
 40
0.0410257106276927
 40
0.0818520099057808
 40
0.1225800578327865
 40
0.1633117464026497
 40
0.2041489402771959
 40
0.2451927184713359
 40
0.2865426449200764
 40
0.3282960933614036
 40
0.3705476475465791
 40
0.413388592008023
 40
0.4569065022337061
 40
0.5011849368582145
 40
0.6001856774961036
 40
0.6987388860470333
 40
0.7976800645476073
 40
0.8978349910043563
 40
1.0
 40
1.0
 40
1.0
 40
1.0
 10
87.03999852045477
 20
114.8881870755206
 30
0.0
 10
87.10303760840762
 20
114.8876523752055
 30
0.0
 10
87.22880937378652
 20
114.8865855735628
 30
0.0
 10
87.41674753529324
 20
114.8754420815646
 30
0.0
 10
87.60333762811467
 20
114.8572805832569
 30
0.0
 10
87.78857941064751
 20
114.8314056625354
 30
0.0
 10
87.97246859387408
 20
114.7979687767238
 30
0.0
 10
88.15500225984637
 20
114.7568847551801
 30
0.0
 10
88.33617766678611
 20
114.7081220070866
 30
0.0
 10
88.5159924507636
 20
114.6516245189429
 30
0.0
 10
88.69444564984538
 20
114.5873334241407
 30
0.0
 10
88.87153368799822
 20
114.5151797442083
 30
0.0
 10
89.04726581228797
 20
114.4350925591696
 30
0.0
 10
89.29228044589102
 20
114.3112516724875
 30
0.0
 10
89.5964635250809
 20
114.1326266902949
 30
0.0
 10
89.9437710065316
 20
113.8835375062374
 30
0.0
 10
90.26294527000431
 20
113.6039679212577
 30
0.0
 10
90.55685717226426
 20
113.2951422832856
 30
0.0
 10
90.72638125894913
 20
113.0670502399833
 30
0.0
 10
90.81198542742818
 20
112.9518711519527
 30
0.0
  0
LINE
  5
19E
330
1F
100
AcDbEntity
  8
0
  6
Continuous
 62
     7
370
    25
100
AcDbLine
 10
84.2484568035
 20
114.8881870755
 30
0.0
 11
87.0399985205
 21
114.8881870755
 31
0.0
  0
SPLINE
  5
19F
330
1F
100
AcDbEntity
  8
0
  6
Continuous
 62
     7
370
    25
100
AcDbSpline
210
0.0
220
0.0
230
1.0
 70
     8
 71
     3
 72
     8
 73
     4
 74
     0
 42
0.000000001
 43
0.00000001
 40
0.0
 40
0.0
 40
0.0
 40
0.0
 40
1.0
 40
1.0
 40
1.0
 40
1.0
 10
84.20265273184614
 20
114.9516400665303
 30
0.0
 10
84.21792075574383
 20
114.9305235961321
 30
0.0
 10
84.23318877964151
 20
114.9093725290795
 30
0.0
 10
84.2484568035392
 20
114.8881870755206
 30
0.0
  0
LINE
  5
1A0
330
1F
100
AcDbEntity
  8
0
  6
Continuous
 62
     7
370
    25
100
AcDbLine
 10
84.2026555566
 20
122.1429069129
 30
0.0
 11
84.2026555566
 21
114.9516400665
 31
0.0
  0
LINE
  5
1A1
330
1F
100
AcDbEntity
  8
0
  6
Continuous
 62
     7
370
    25
100
AcDbLine
 10
84.2026555566
 20
122.1429069129
 30
0.0
 11
88.0726554013
 21
122.1429069129
 31
0.0
  0
ARC
  5
1A2
330
1F
100
AcDbEntity
  8
0
  6
Continuous
 62
     7
370
    25
100
AcDbCircle
 10
118.8526555566
 20
118.8554069129
 30
0.0
 40
1.200000000000003
100
AcDbArc
 50
0.0
 51
90.0
  0
LINE
  5
1A3
330
1F
100
AcDbEntity
  8
0
  6
Continuous
 62
     7
370
    25
100
AcDbLine
 10
115.1526555566
 20
120.0554069129
 30
0.0
 11
118.8526555566
 21
120.0554069129
 31
0.0
  0
LINE
  5
1A4
330
1F
100
AcDbEntity
  8
0
  6
Continuous
 62
     7
370
    25
100
AcDbLine
 10
115.1526555566
 20
120.0554069129
 30
0.0
 11
115.1526555566
 21
104.5054069129
 31
0.0
  0
ARC
  5
1A5
330
1F
100
AcDbEntity
  8
0
  6
Continuous
 62
     7
370
    25
100
AcDbCircle
 10
220.8526555566
 20
112.8054069129
 30
0.0
 40
0.3000000000000398
100
AcDbArc
 50
270.0
 51
0.0
  0
LINE
  5
1A6
330
1F
100
AcDbEntity
  8
0
  6
Continuous
 62
     7
370
    25
100
AcDbLine
 10
221.1526555566
 20
112.8054069129
 30
0.0
 11
221.1526555566
 21
104.5054069129
 31
0.0
  0
LINE
  5
1A7
330
1F
100
AcDbEntity
  8
0
  6
Continuous
 62
     7
370
    25
100
AcDbLine
 10
172.5526555566
 20
112.8054069129
 30
0.0
 11
175.2578815385
 21
112.8054069129
 31
0.0
  0
ARC
  5
1A8
330
1F
100
AcDbEntity
  8
0
  6
Continuous
 62
     7
370
    25
100
AcDbCircle
 10
172.5526555566
 20
112.4054069129
 30
0.0
 40
0.3999999999999915
100
AcDbArc
 50
90.0
 51
180.0
  0
ARC
  5
1A9
330
1F
100
AcDbEntity
  8
0
  6
Continuous
 62
     7
370
    25
100
AcDbCircle
 10
175.2578815385
 20
112.4054069129
 30
0.0
 40
0.3999999999999915
100
AcDbArc
 50
70.0
 51
90.0
  0
LINE
  5
1AA
330
1F
100
AcDbEntity
  8
0
  6
Continuous
 62
     7
370
    25
100
AcDbLine
 10
176.1526555566
 20
112.5054069129
 30
0.0
 11
176.1526555566
 21
104.5054069129
 31
0.0
  0
LINE
  5
1AB
330
1F
100
AcDbEntity
  8
0
  6
Continuous
 62
     7
370
    25
100
AcDbLine
 10
175.3946895958
 20
112.7812839612
 30
0.0
 11
176.1526555566
 21
112.5054069129
 31
0.0
  0
SPLINE
  5
1AC
330
1F
100
AcDbEntity
  8
0
  6
Continuous
 62
     7
370
    25
100
AcDbSpline
210
0.0
220
0.0
230
1.0
 70
     8
 71
     3
 72
    46
 73
    42
 74
     0
 42
0.000000001
 43
0.00000001
 40
0.0
 40
0.0
 40
0.0
 40
0.0
 40
0.0625000000000003
 40
0.0625000000000003
 40
0.1250000000000006
 40
0.1250000000000006
 40
0.1875000000000009
 40
0.1875000000000009
 40
0.2500000000000012
 40
0.2500000000000012
 40
0.3125000000000014
 40
0.3125000000000014
 40
0.3750000000000018
 40
0.3750000000000018
 40
0.4375000000000021
 40
0.4375000000000021
 40
0.5000000000000023
 40
0.5000000000000023
 40
0.5625000000000027
 40
0.5625000000000027
 40
0.5937500000000028
 40
0.5937500000000028
 40
0.6250000000000029
 40
0.6250000000000029
 40
0.6875000000000031
 40
0.6875000000000031
 40
0.7500000000000032
 40
0.7500000000000032
 40
0.7812500000000033
 40
0.7812500000000033
 40
0.8125000000000033
 40
0.8125000000000033
 40
0.8750000000000022
 40
0.8750000000000022
 40
0.9062500000000016
 40
0.9062500000000016
 40
0.937500000000001
 40
0.937500000000001
 40
0.9687500000000006
 40
0.9687500000000006
 40
1.0
 40
1.0
 40
1.0
 40
1.0
 10
191.6526555566049
 20
112.5054069128576
 30
0.0
 10
191.6526555566049
 20
112.5054069128576
 30
0.0
 10
191.6947417781317
 20
112.4736943932492
 30
0.0
 10
191.8619562513787
 20
112.349453522994
 30
0.0
 10
191.9849937210873
 20
112.2585090491319
 30
0.0
 10
192.2986445907665
 20
112.0322678439521
 30
0.0
 10
192.4910951207135
 20
111.8956991704205
 30
0.0
 10
192.9263432376505
 20
111.5985544268415
 30
0.0
 10
193.1720451721016
 20
111.4358714139931
 30
0.0
 10
193.7114225142338
 20
111.1000097574616
 30
0.0
 10
194.0013384997189
 20
110.928987170526
 30
0.0
 10
194.6258382967947
 20
110.5957180544237
 30
0.0
 10
194.9640201274577
 20
110.4318325199832
 30
0.0
 10
195.6764295367042
 20
110.1444874485178
 30
0.0
 10
196.0505755241196
 20
110.0204071475592
 30
0.0
 10
196.8487230951462
 20
109.8434659759308
 30
0.0
 10
197.2588418262488
 20
109.7952163848395
 30
0.0
 10
198.0907265055899
 20
109.7986952246726
 30
0.0
 10
198.4932912236783
 20
109.849678486512
 30
0.0
 10
199.0806242021592
 20
109.9828823381553
 30
0.0
 10
199.2748805023973
 20
110.0371253309835
 30
0.0
 10
199.6512656288393
 20
110.1589665971201
 30
0.0
 10
199.8333141674171
 20
110.2263488131683
 30
0.0
 10
200.3638615166307
 20
110.4422625416363
 30
0.0
 10
200.6994017477473
 20
110.6056827604365
 30
0.0
 10
201.3229821358102
 20
110.9398455256143
 30
0.0
 10
201.6111924848061
 20
111.1104377207054
 30
0.0
 10
202.0119389499461
 20
111.3605112916131
 30
0.0
 10
202.1407723662972
 20
111.4433313208551
 30
0.0
 10
202.3838369463451
 20
111.6029895954523
 30
0.0
 10
202.4982292582744
 20
111.6799063433918
 30
0.0
 10
202.8202780465208
 20
111.8999827979227
 30
0.0
 10
203.0071087229986
 20
112.0325877880957
 30
0.0
 10
203.241534115485
 20
112.2016809691962
 30
0.0
 10
203.3123252035831
 20
112.2533199353768
 30
0.0
 10
203.4339170011258
 20
112.3425798458418
 30
0.0
 10
203.4850770064879
 20
112.3804544386907
 30
0.0
 10
203.5678013381333
 20
112.4419164215653
 30
0.0
 10
203.599368780548
 20
112.4655073552496
 30
0.0
 10
203.6419079278828
 20
112.4973368957846
 30
0.0
 10
203.6526555566049
 20
112.5054069128576
 30
0.0
 10
203.6526555566049
 20
112.5054069128576
 30
0.0
  0
LINE
  5
1AD
330
1F
100
AcDbEntity
  8
0
  6
Continuous
 62
     7
370
    25
100
AcDbLine
 10
203.6526555566
 20
112.5054069129
 30
0.0
 11
220.8526555566
 21
112.5054069129
 31
0.0
  0
LINE
  5
1AE
330
1F
100
AcDbEntity
  8
0
  6
Continuous
 62
     7
370
    25
100
AcDbLine
 10
176.1526555566
 20
112.5054069129
 30
0.0
 11
191.6526555566
 21
112.5054069129
 31
0.0
  0
LINE
  5
1AF
330
1F
100
AcDbEntity
  8
0
  6
Continuous
 62
     7
370
    25
100
AcDbLine
 10
123.8776555566
 20
110.2554069129
 30
0.0
 11
124.7026555566
 21
110.2554069129
 31
0.0
  0
LINE
  5
1B0
330
1F
100
AcDbEntity
  8
0
  6
Continuous
 62
     7
370
    25
100
AcDbLine
 10
120.4526555566
 20
109.5054069129
 30
0.0
 11
120.4526555566
 21
104.5054069129
 31
0.0
  0
LINE
  5
1B1
330
1F
100
AcDbEntity
  8
0
  6
Continuous
 62
     7
370
    25
100
AcDbLine
 10
120.0526555566
 20
109.7363470205
 30
0.0
 11
120.4526555566
 21
109.5054069129
 31
0.0
  0
LINE
  5
1B2
330
1F
100
AcDbEntity
  8
0
  6
Continuous
 62
     7
370
    25
100
AcDbLine
 10
120.0526555566
 20
109.7363470205
 30
0.0
 11
120.0526555566
 21
104.5054069129
 31
0.0
  0
LINE
  5
1B3
330
1F
100
AcDbEntity
  8
0
  6
Continuous
 62
     7
370
    25
100
AcDbLine
 10
120.4526555566
 20
109.5054069129
 30
0.0
 11
123.8776555566
 21
109.5054069129
 31
0.0
  0
LINE
  5
1B4
330
1F
100
AcDbEntity
  8
0
  6
Continuous
 62
     7
370
    25
100
AcDbLine
 10
123.8776555566
 20
109.5054069129
 30
0.0
 11
123.8776555566
 21
104.5054069129
 31
0.0
  0
LINE
  5
1B5
330
1F
100
AcDbEntity
  8
0
  6
Continuous
 62
     7
370
    25
100
AcDbLine
 10
124.7026555566
 20
108.5054069129
 30
0.0
 11
172.1526555566
 21
108.5054069129
 31
0.0
  0
LINE
  5
1B6
330
1F
100
AcDbEntity
  8
0
  6
Continuous
 62
     7
370
    25
100
AcDbLine
 10
124.7026555566
 20
108.5054069129
 30
0.0
 11
124.7026555566
 21
104.5054069129
 31
0.0
  0
LINE
  5
1B7
330
1F
100
AcDbEntity
  8
0
  6
Continuous
 62
     7
370
    25
100
AcDbLine
 10
172.1526555566
 20
108.5054069129
 30
0.0
 11
172.1526555566
 21
104.5054069129
 31
0.0
  0
SPLINE
  5
1B8
330
1F
100
AcDbEntity
  8
0
  6
Continuous
 62
     7
370
    25
100
AcDbSpline
210
0.0
220
0.0
230
1.0
 70
     8
 71
     3
 72
    37
 73
    33
 74
     0
 42
0.000000001
 43
0.00000001
 40
0.0
 40
0.0
 40
0.0
 40
0.0
 40
0.0114878548102799
 40
0.0231559765621647
 40
0.0350076484354353
 40
0.0470460033795304
 40
0.0592740307999908
 40
0.0716945830965779
 40
0.0843103820274647
 40
0.0971240248797991
 40
0.1101379904320507
 40
0.1233546446979382
 40
0.1811510010973226
 40
0.2483631736114421
 40
0.2888373415819253
 40
0.3232297457604625
 40
0.3515392131491945
 40
0.3737664266256189
 40
0.4399300285953852
 40
0.4987424063270027
 40
0.5023253005651628
 40
0.5613100074513717
 40
0.6252595444338138
 40
0.6818650083849792
 40
0.74838900169879
 40
0.7860781471964682
 40
0.8194856599799781
 40
0.848612771528172
 40
0.873462272774742
 40
0.9389926156604146
 40
0.9981523731393552
 40
1.0
 40
1.0
 40
1.0
 40
1.0
 10
106.0026555566049
 20
127.9690592162109
 30
0.0
 10
106.0017291053264
 20
127.9686156992024
 30
0.0
 10
105.9998616649343
 20
127.967721705535
 30
0.0
 10
105.9845886045945
 20
127.9605297280767
 30
0.0
 10
105.9596869021306
 20
127.9490784844842
 30
0.0
 10
105.9238326301948
 20
127.9329287257097
 30
0.0
 10
105.8768651193571
 20
127.912201046156
 30
0.0
 10
105.8183222089363
 20
127.8868625271543
 30
0.0
 10
105.7478440693586
 20
127.8569221065998
 30
0.0
 10
105.6650695050811
 20
127.8223781325578
 30
0.0
 10
105.569652959963
 20
127.7832283909432
 30
0.0
 10
105.3400841265745
 20
127.6905297197819
 30
0.0
 10
104.8556659126019
 20
127.5018068292675
 30
0.0
 10
104.0766659410565
 20
127.2237170292963
 30
0.0
 10
103.2854474896363
 20
126.9731301619669
 30
0.0
 10
102.6543969963935
 20
126.7981134006371
 30
0.0
 10
102.1013590400572
 20
126.6582787600381
 30
0.0
 10
101.3084011111607
 20
126.477867914692
 30
0.0
 10
100.2380667708276
 20
126.2888015930499
 30
0.0
 10
99.25707649139228
 20
126.1835147853402
 30
0.0
 10
98.32910926227274
 20
126.1264820133872
 30
0.0
 10
97.35665376851229
 20
126.1118874150175
 30
0.0
 10
96.03052356307893
 20
126.1900806315086
 30
0.0
 10
94.76048807858521
 20
126.3505603531028
 30
0.0
 10
93.80071207791558
 20
126.5356718913164
 30
0.0
 10
93.10206043057076
 20
126.7031614950465
 30
0.0
 10
92.65825229241564
 20
126.8167847012548
 30
0.0
 10
92.32571523048566
 20
126.9099685361634
 30
0.0
 10
91.93855682024244
 20
127.024633400422
 30
0.0
 10
91.60130885813066
 20
127.1319792094821
 30
0.0
 10
91.50358479180161
 20
127.1695447827687
 30
0.0
 10
91.50268287152977
 20
127.1696761915852
 30
0.0
 10
91.50265555660489
 20
127.1696801713404
 30
0.0
  0
LINE
  5
1B9
330
1F
100
AcDbEntity
  8
0
  6
Continuous
 62
     7
370
    25
100
AcDbLine
 10
106.0026555566
 20
127.9690592162
 30
0.0
 11
106.0026555566
 21
122.6116329336
 31
0.0
  0
SPLINE
  5
1BA
330
1F
100
AcDbEntity
  8
0
  6
Continuous
 62
     7
370
    25
100
AcDbSpline
210
0.0
220
0.0
230
1.0
 70
     8
 71
     3
 72
    30
 73
    26
 74
     0
 42
0.000000001
 43
0.00000001
 40
0.0
 40
0.0
 40
0.0
 40
0.0
 40
0.0192411700742048
 40
0.0381353539376952
 40
0.0566868884861284
 40
0.0749003554931359
 40
0.0927805967284107
 40
0.1103327298326386
 40
0.1275621649289898
 40
0.1444746219341821
 40
0.2455865830542373
 40
0.3577720192516904
 40
0.45050174089725
 40
0.572012786861997
 40
0.6168069840212203
 40
0.6590088499451769
 40
0.6986242498795036
 40
0.7356603299357845
 40
0.7701258931921916
 40
0.8073679165915277
 40
0.8483950324909334
 40
0.8881367798842493
 40
0.9266264622131405
 40
0.9639007443628562
 40
1.0
 40
1.0
 40
1.0
 40
1.0
 10
96.8318369659928
 20
120.9475416232657
 30
0.0
 10
96.91486944587244
 20
120.9364145179408
 30
0.0
 10
97.07943703694525
 20
120.9143609682747
 30
0.0
 10
97.3273185526258
 20
120.886309079012
 30
0.0
 10
97.57259522806817
 20
120.8623575484861
 30
0.0
 10
97.81515306167945
 20
120.8428275962927
 30
0.0
 10
98.05458773878836
 20
120.8276353041161
 30
0.0
 10
98.29060093419542
 20
120.8168037428852
 30
0.0
 10
98.52291897950622
 20
120.8103231776321
 30
0.0
 10
99.13146974913488
 20
120.804691686046
 30
0.0
 10
100.1697822463552
 20
120.8646650855287
 30
0.0
 10
101.4851337744624
 20
121.0640875587077
 30
0.0
 10
102.7646789873489
 20
121.3695689193921
 30
0.0
 10
103.6561195314421
 20
121.6495117223112
 30
0.0
 10
104.2737844003033
 20
121.8769608188269
 30
0.0
 10
104.6171074855909
 20
122.0072394793292
 30
0.0
 10
104.9087985704859
 20
122.1233304172876
 30
0.0
 10
105.1533439263077
 20
122.2246986466897
 30
0.0
 10
105.3656986067437
 20
122.3160366992056
 30
0.0
 10
105.5567615813681
 20
122.4001117831508
 30
0.0
 10
105.7220089855416
 20
122.4751047371165
 30
0.0
 10
105.8515495357853
 20
122.5360932366627
 30
0.0
 10
105.9399159050054
 20
122.5793308984281
 30
0.0
 10
105.9930617502663
 20
122.6065609843064
 30
0.0
 10
105.9994919462071
 20
122.6099604304354
 30
0.0
 10
106.0026555566049
 20
122.6116329336093
 30
0.0
  0
SPLINE
  5
1BB
330
1F
100
AcDbEntity
  8
0
  6
Continuous
 62
     7
370
    25
100
AcDbSpline
210
0.0
220
0.0
230
1.0
 70
     8
 71
     3
 72
    38
 73
    34
 74
     0
 42
0.000000001
 43
0.00000001
 40
0.0
 40
0.0
 40
0.0
 40
0.0
 40
0.1250000000000001
 40
0.1250000000000001
 40
0.2500000000000001
 40
0.2500000000000001
 40
0.3125000000000001
 40
0.3125000000000001
 40
0.3750000000000002
 40
0.3750000000000002
 40
0.4375000000000002
 40
0.4375000000000002
 40
0.5000000000000002
 40
0.5000000000000002
 40
0.5625000000000002
 40
0.5625000000000002
 40
0.6250000000000002
 40
0.6250000000000002
 40
0.6875000000000003
 40
0.6875000000000003
 40
0.7187500000000003
 40
0.7187500000000003
 40
0.7500000000000003
 40
0.7500000000000003
 40
0.7812500000000003
 40
0.7812500000000003
 40
0.8125000000000003
 40
0.8125000000000003
 40
0.8750000000000002
 40
0.8750000000000002
 40
0.9375000000000002
 40
0.9375000000000002
 40
1.0
 40
1.0
 40
1.0
 40
1.0
 10
91.50265555660488
 20
127.0414547977615
 30
0.0
 10
91.50265555660503
 20
127.0414547977615
 30
0.0
 10
91.56446131416854
 20
127.0188107150995
 30
0.0
 10
91.8140838596041
 20
126.9262263260434
 30
0.0
 10
91.99781149054226
 20
126.8578387460907
 30
0.0
 10
92.35420032712734
 20
126.7219966468889
 30
0.0
 10
92.4873607886329
 20
126.6708036618324
 30
0.0
 10
92.77843979932929
 20
126.55711505672
 30
0.0
 10
92.93492975083862
 20
126.4951884492136
 30
0.0
 10
93.26831119212652
 20
126.3603033405231
 30
0.0
 10
93.44521495048964
 20
126.2873650862364
 30
0.0
 10
93.81845659796295
 20
126.1283891514406
 30
0.0
 10
94.01620058884407
 20
126.041749381564
 30
0.0
 10
94.4222240220972
 20
125.8548317090116
 30
0.0
 10
94.63027741548419
 20
125.7547967952025
 30
0.0
 10
95.05257168821835
 20
125.5355332450235
 30
0.0
 10
95.2669369912934
 20
125.4165300533589
 30
0.0
 10
95.69477930287279
 20
125.146256203035
 30
0.0
 10
95.9111809539794
 20
124.9930073775233
 30
0.0
 10
96.20981339685949
 20
124.7269388539401
 30
0.0
 10
96.30500598632918
 20
124.6321666076674
 30
0.0
 10
96.48263123818597
 20
124.4264097504774
 30
0.0
 10
96.56524554881435
 20
124.3145512087068
 30
0.0
 10
96.70732582383592
 20
124.0810357044845
 30
0.0
 10
96.76771137308086
 20
123.9584746385287
 30
0.0
 10
96.8671618652357
 20
123.7020038753035
 30
0.0
 10
96.90645330426048
 20
123.5667638617538
 30
0.0
 10
96.99314989041349
 20
123.1584818587893
 30
0.0
 10
97.01185821740822
 20
122.8822216810044
 30
0.0
 10
97.0083621967765
 20
122.3254739023687
 30
0.0
 10
96.98588257656792
 20
122.047243658378
 30
0.0
 10
96.92025492878581
 20
121.4958578381932
 30
0.0
 10
96.87675738509634
 20
121.2216041690908
 30
0.0
 10
96.8272778379863
 20
120.9481746971292
 30
0.0
  0
LINE
  5
1BC
330
1F
100
AcDbEntity
  8
0
  6
Continuous
 62
     7
370
    25
100
AcDbLine
 10
91.5026555566
 20
127.0414547978
 30
0.0
 11
91.5026555566
 21
127.1696801712
 31
0.0
  0
SPLINE
  5
1BD
330
1F
100
AcDbEntity
  8
0
  6
Continuous
 62
     7
370
    25
100
AcDbSpline
210
0.0
220
0.0
230
1.0
 70
     8
 71
     3
 72
    14
 73
    10
 74
     0
 42
0.000000001
 43
0.00000001
 40
0.0
 40
0.0
 40
0.0
 40
0.0
 40
0.0003951392850831
 40
0.0003951392850831
 40
0.0003951392850831
 40
0.000815903567925
 40
0.000815903567925
 40
0.000815903567925
 40
0.0012369936130998
 40
0.0012369936130998
 40
0.0012369936130998
 40
0.0012369936130998
 10
95.63053950633635
 20
120.6803799098579
 30
0.0
 10
95.75904874444306
 20
120.7092538775714
 30
0.0
 10
95.88761225217209
 20
120.7379420910477
 30
0.0
 10
96.01616263045548
 20
120.7664449350851
 30
0.0
 10
96.1530478781191
 20
120.7967958287759
 30
0.0
 10
96.28994352401892
 20
120.8269417938049
 30
0.0
 10
96.42676378536801
 20
120.8568936133734
 30
0.0
 10
96.56368977431292
 20
120.8868685781533
 30
0.0
 10
96.7005668462771
 20
120.9166546275985
 30
0.0
 10
96.83730369546424
 20
120.9462771007672
 30
0.0
  0
LINE
  5
1BE
330
1F
100
AcDbEntity
  8
0
  6
Continuous
 62
     7
370
    25
100
AcDbLine
 10
88.0726554013
 20
122.1429069129
 30
0.0
 11
91.5026555566
 21
127.0414547978
 31
0.0
  0
LINE
  5
1BF
330
1F
100
AcDbEntity
  8
0
  6
Continuous
 62
     7
370
    25
100
AcDbLine
 10
203.6526555566
 20
112.5054069129
 30
0.0
 11
203.6526555566
 21
127.5054069254
 31
0.0
  0
LINE
  5
1C0
330
1F
100
AcDbEntity
  8
0
  6
Continuous
 62
     7
370
    25
100
AcDbLine
 10
191.6526555566
 20
127.5054070031
 30
0.0
 11
191.6526555566
 21
112.5054069129
 31
0.0
  0
LINE
  5
1C1
330
1F
100
AcDbEntity
  8
0
  6
Continuous
 62
     7
370
    25
100
AcDbLine
 10
90.7530937083
 20
127.9787926225
 30
0.0
 11
91.5026836872
 21
127.1696812847
 31
0.0
  0
LINE
  5
1C2
330
1F
100
AcDbEntity
  8
0
  6
Continuous
 62
     7
370
    25
100
AcDbLine
 10
106.0026685047
 20
127.969059472
 30
0.0
 11
106.6709986507
 21
128.7781712944
 31
0.0
  0
LINE
  5
1C3
330
1F
100
AcDbEntity
  8
0
  6
Continuous
 62
     7
370
    25
100
AcDbLine
 10
81.9543216064
 20
123.4409831242
 30
0.0
 11
84.2026555566
 21
122.1429069129
 31
0.0
  0
LINE
  5
1C4
330
1F
100
AcDbEntity
  8
0
  6
Continuous
 62
     7
370
    25
100
AcDbLine
 10
81.2026555566
 20
124.7429069129
 30
0.0
 11
81.9543216064
 21
123.4409831242
 31
0.0
  0
LINE
  5
1C5
330
1F
100
AcDbEntity
  8
0
  6
Continuous
 62
     7
370
    25
100
AcDbLine
 10
81.2026555566
 20
126.7085016367
 30
0.0
 11
81.2026555566
 21
124.7429069129
 31
0.0
  0
LINE
  5
1C6
330
1F
100
AcDbEntity
  8
0
  6
Continuous
 62
     7
370
    25
100
AcDbLine
 10
82.7026555566
 20
127.5745270404
 30
0.0
 11
81.2026555566
 21
126.7085016367
 31
0.0
  0
ARC
  5
1C7
330
1F
100
AcDbEntity
  8
0
  6
Continuous
 62
     7
370
    25
100
AcDbCircle
 10
130.1776555566
 20
133.3554069129
 30
0.0
 40
1.000000000000028
100
AcDbArc
 50
180.0
 51
270.0
  0
LINE
  5
1C8
330
1F
100
AcDbEntity
  8
0
  6
Continuous
 62
     7
370
    25
100
AcDbLine
 10
131.9276555566
 20
132.3554069129
 30
0.0
 11
130.1776555566
 21
132.3554069129
 31
0.0
  0
ARC
  5
1C9
330
1F
100
AcDbEntity
  8
0
  6
Continuous
 62
     7
370
    25
100
AcDbCircle
 10
131.9276555566
 20
133.3554069129
 30
0.0
 40
1.0
100
AcDbArc
 50
270.0
 51
0.0
  0
LINE
  5
1CA
330
1F
100
AcDbEntity
  8
0
  6
Continuous
 62
     7
370
    25
100
AcDbLine
 10
132.9276555566
 20
133.453002177
 30
0.0
 11
132.9276555566
 21
133.3554069129
 31
0.0
  0
LINE
  5
1CB
330
1F
100
AcDbEntity
  8
0
  6
Continuous
 62
     7
370
    25
100
AcDbLine
 10
134.3868533612
 20
135.9804069129
 30
0.0
 11
132.9276555566
 21
133.453002177
 31
0.0
  0
LINE
  5
1CC
330
1F
100
AcDbEntity
  8
0
  6
Continuous
 62
     7
370
    25
100
AcDbLine
 10
190.6526556115
 20
128.5054069129
 30
0.0
 11
191.6526555566
 21
127.5054070031
 31
0.0
  0
LINE
  5
1CD
330
1F
100
AcDbEntity
  8
0
  6
Continuous
 62
     7
370
    25
100
AcDbLine
 10
106.6286046984
 20
122.1429082031
 30
0.0
 11
106.0026586848
 21
122.6116330585
 31
0.0
  0
LINE
  5
1CE
330
1F
100
AcDbEntity
  8
0
  6
Continuous
 62
     7
370
    25
100
AcDbLine
 10
129.1776555566
 20
133.453002177
 30
0.0
 11
127.718457752
 21
135.9804069129
 31
0.0
  0
LINE
  5
1CF
330
1F
100
AcDbEntity
  8
0
  6
Continuous
 62
     7
370
    25
100
AcDbLine
 10
129.1776555566
 20
133.3554069129
 30
0.0
 11
129.1776555566
 21
133.453002177
 31
0.0
  0
LINE
  5
1D0
330
1F
100
AcDbEntity
  8
0
  6
Continuous
 62
     7
370
    25
100
AcDbLine
 10
123.8776555566
 20
109.5054069129
 30
0.0
 11
123.8776555566
 21
110.2554069129
 31
0.0
  0
LINE
  5
1D1
330
1F
100
AcDbEntity
  8
0
  6
Continuous
 62
     7
370
    25
100
AcDbLine
 10
124.7026555566
 20
110.2554069129
 30
0.0
 11
124.7026555566
 21
108.5054069129
 31
0.0
  0
LINE
  5
1D2
330
1F
100
AcDbEntity
  8
0
  6
Continuous
 62
     7
370
    25
100
AcDbLine
 10
172.1526555566
 20
108.5054069129
 30
0.0
 11
172.1526555566
 21
112.4054069129
 31
0.0
  0
LINE
  5
1D3
330
1F
100
AcDbEntity
  8
0
  6
Continuous
 62
     7
370
    25
100
AcDbLine
 10
120.0526555566
 20
118.8554069129
 30
0.0
 11
120.0526555566
 21
109.7363470205
 31
0.0
  0
LINE
  5
1D4
330
1F
100
AcDbEntity
  8
0
  6
Continuous
 62
     7
370
    25
100
AcDbLine
 10
115.1526555566
 20
121.9554069129
 30
0.0
 11
115.1526555566
 21
120.0554069129
 31
0.0
  0
LINE
  5
1D5
330
1F
100
AcDbEntity
  8
0
  6
Continuous
 62
     7
370
    25
100
AcDbLine
 10
121.1526555566
 20
135.7804069129
 30
0.0
 11
121.1526555566
 21
131.3554069129
 31
0.0
  0
LINE
  5
1D6
330
1F
100
AcDbEntity
  8
0
  6
Continuous
 62
     7
370
    25
100
AcDbLine
 10
139.1526555566
 20
131.5054069129
 30
0.0
 11
139.1526555566
 21
135.9804069129
 31
0.0
  0
LINE
  5
1D7
330
1F
100
AcDbEntity
  8
0
  6
Continuous
 62
     7
370
    25
100
AcDbLine
 10
203.6526553443
 20
127.5054069518
 30
0.0
 11
204.6526552541
 21
128.5054068592
 31
0.0
  0
LINE
  5
1D8
330
1F
100
AcDbEntity
  8
0
  6
Continuous
 62
     7
370
    25
100
AcDbLine
 10
221.1526555566
 20
112.8054069129
 30
0.0
 11
221.1526555566
 21
121.2312663912
 31
0.0
  0
SPLINE
  5
1D9
330
1F
100
AcDbEntity
  8
0
  6
Continuous
 62
     7
370
    25
100
AcDbSpline
210
0.0
220
0.0
230
1.0
 70
     8
 71
     3
 72
     9
 73
     5
 74
     0
 42
0.000000001
 43
0.00000001
 40
0.0
 40
0.0
 40
0.0
 40
0.0
 40
0.5102121239851395
 40
0.9999999999999999
 40
0.9999999999999999
 40
0.9999999999999999
 40
0.9999999999999999
 10
82.00701895327599
 20
114.9670334295094
 30
0.0
 10
82.38188101025477
 20
114.9645435121278
 30
0.0
 10
83.11659906056457
 20
114.9596633509857
 30
0.0
 10
83.8455996510213
 20
114.9542784595994
 30
0.0
 10
84.20265530183468
 20
114.9516410050847
 30
0.0
  0
LINE
  5
1DA
330
1F
100
AcDbEntity
  8
0
  6
Continuous
 62
     7
370
    25
100
AcDbLine
 10
81.9543216064
 20
114.9974577204
 30
0.0
 11
82.0070189551
 21
114.967032892
 31
0.0
  0
LINE
  5
1DB
330
1F
100
AcDbEntity
  8
0
  6
Continuous
 62
     7
370
    25
100
AcDbLine
 10
81.9543216064
 20
123.4409831242
 30
0.0
 11
81.9543216064
 21
114.9974577204
 31
0.0
  0
SPLINE
  5
1DC
330
1F
100
AcDbEntity
  8
0
  6
Continuous
 62
     7
370
    25
100
AcDbSpline
210
0.0
220
0.0
230
1.0
 70
    24
 71
     3
 72
     8
 73
     4
 74
     0
 42
0.000000001
 43
0.00000001
 40
0.0000004089325119
 40
0.0000004089325119
 40
0.0000004089325119
 40
0.0000004089325119
 40
0.0015399868451459
 40
0.0015399868451459
 40
0.0015399868451459
 40
0.0015399868451459
 10
81.20265555660488
 20
115.431432316642
 30
0.0
 10
81.45364663262934
 20
115.2865225513351
 30
0.0
 10
81.70423582913227
 20
115.1418448112781
 30
0.0
 10
81.95432160644442
 20
114.9974577204265
 30
0.0
  0
LINE
  5
1DD
330
1F
100
AcDbEntity
  8
0
  6
Continuous
 62
     7
370
    25
100
AcDbLine
 10
81.2026555566
 20
124.7429069129
 30
0.0
 11
81.2026555566
 21
115.4314323166
 31
0.0
  0
SPLINE
  5
1DE
330
1F
100
AcDbEntity
  8
0
  6
Continuous
 62
     7
370
    25
100
AcDbSpline
210
0.0
220
0.0
230
1.0
 70
     8
 71
     3
 72
     8
 73
     4
 74
     0
 42
0.000000001
 43
0.00000001
 40
0.0
 40
0.0
 40
0.0
 40
0.0
 40
1.0
 40
1.0
 40
1.0
 40
1.0
 10
84.33233729936165
 20
114.5654075905942
 30
0.0
 10
84.30438907924211
 20
114.6732239445697
 30
0.0
 10
84.2764289910734
 20
114.7808177947359
 30
0.0
 10
84.24845680353918
 20
114.8881870755206
 30
0.0
  0
LINE
  5
1DF
330
1F
100
AcDbEntity
  8
0
  6
Continuous
 62
     7
370
    25
100
AcDbLine
 10
84.3323404379
 20
114.5654069129
 30
0.0
 11
82.7026547698
 21
114.5654069129
 31
0.0
  0
LINE
  5
1E0
330
1F
100
AcDbEntity
  8
0
  6
Continuous
 62
     7
370
    25
100
AcDbLine
 10
82.7026549697
 20
114.5654072517
 30
0.0
 11
82.0070184918
 21
114.9670331595
 31
0.0
  0
LINE
  5
1E1
330
1F
100
AcDbEntity
  8
0
  6
Continuous
 62
     7
370
    25
100
AcDbLine
 10
90.7566164538
 20
112.5679069129
 30
0.0
 11
90.5044448259
 21
112.5679069129
 31
0.0
  0
SPLINE
  5
1E2
330
1F
100
AcDbEntity
  8
0
  6
Continuous
 62
     7
370
    25
100
AcDbSpline
210
0.0
220
0.0
230
1.0
 70
     8
 71
     3
 72
    26
 73
    22
 74
     0
 42
0.000000001
 43
0.00000001
 40
0.0
 40
0.0
 40
0.0
 40
0.0
 40
0.0524616379932503
 40
0.1026498591890872
 40
0.150565513457809
 40
0.1962095861957063
 40
0.2395832262568645
 40
0.2806877815599511
 40
0.3195248450380211
 40
0.3560963147430692
 40
0.3904044736547445
 40
0.4224520974433627
 40
0.4522426027417772
 40
0.4797802555366611
 40
0.5050704712281336
 40
0.5966394156799991
 40
0.6841917884819224
 40
0.7679874773571101
 40
0.8483228539139507
 40
0.925534163520116
 40
1.0
 40
1.0
 40
1.0
 40
1.0
 10
90.50263833193547
 20
112.567936696893
 30
0.0
 10
90.4670019329042
 20
112.6274836169752
 30
0.0
 10
90.39727343256575
 20
112.7439970007619
 30
0.0
 10
90.28379527180591
 20
112.9083949614911
 30
0.0
 10
90.1682697220809
 20
113.0605566992926
 30
0.0
 10
90.05114802607075
 20
113.2004593962252
 30
0.0
 10
89.93377632559138
 20
113.3286737201292
 30
0.0
 10
89.81715535955776
 20
113.4456893990696
 30
0.0
 10
89.70225243911273
 20
113.5520665543136
 30
0.0
 10
89.58992821342338
 20
113.6483826347879
 30
0.0
 10
89.48095923938854
 20
113.7352319813404
 30
0.0
 10
89.37604019855185
 20
113.8132121635343
 30
0.0
 10
89.27578287260312
 20
113.8829203605872
 30
0.0
 10
89.18074553001998
 20
113.9449303494884
 30
0.0
 10
89.01063862558922
 20
114.0494167867542
 30
0.0
 10
88.75771959418414
 20
114.1844754532686
 30
0.0
 10
88.41173843712299
 20
114.3288623456856
 30
0.0
 10
88.06377988779865
 20
114.4378302579307
 30
0.0
 10
87.71764012742258
 20
114.5123598402674
 30
0.0
 10
87.37657534398849
 20
114.5572885448168
 30
0.0
 10
87.15082873247283
 20
114.5627336436712
 30
0.0
 10
87.03999852045477
 20
114.5654069128576
 30
0.0
  0
SPLINE
  5
1E3
330
1F
100
AcDbEntity
  8
0
  6
Continuous
 62
     7
370
    25
100
AcDbSpline
210
0.0
220
0.0
230
1.0
 70
     8
 71
     3
 72
     8
 73
     4
 74
     0
 42
0.000000001
 43
0.00000001
 40
0.0
 40
0.0
 40
0.0
 40
0.0
 40
1.0
 40
1.0
 40
1.0
 40
1.0
 10
90.75661645383735
 20
112.5679069128575
 30
0.0
 10
90.78562116026494
 20
112.6918446397198
 30
0.0
 10
90.80465367994636
 20
112.8197967699531
 30
0.0
 10
90.81290527213801
 20
112.9508660826446
 30
0.0
  0
LINE
  5
1E4
330
1F
100
AcDbEntity
  8
0
  6
Continuous
 62
     7
370
    25
100
AcDbLine
 10
87.0399985205
 20
114.5654069129
 30
0.0
 11
84.3323404379
 21
114.5654069129
 31
0.0
  0
LINE
  5
1E5
330
1F
100
AcDbEntity
  8
0
  6
Continuous
 62
     7
370
    25
100
AcDbLine
 10
103.8026555566
 20
108.5681803237
 30
0.0
 11
103.1526555566
 21
108.7179069129
 31
0.0
  0
SPLINE
  5
1E6
330
1F
100
AcDbEntity
  8
0
  6
Continuous
 62
     7
370
    25
100
AcDbSpline
210
0.0
220
0.0
230
1.0
 70
     8
 71
     3
 72
    26
 73
    22
 74
     0
 42
0.000000001
 43
0.00000001
 40
0.0
 40
0.0
 40
0.0
 40
0.0
 40
0.0305951740572551
 40
0.062916628186826
 40
0.0969720532897527
 40
0.1327680143285485
 40
0.1703101548822845
 40
0.2096033578521455
 40
0.2506518729756868
 40
0.3342141733898285
 40
0.4179517165474627
 40
0.5018670561020883
 40
0.5659795686746655
 40
0.6277136397870229
 40
0.6871358192109112
 40
0.7443207393864916
 40
0.7993521466017587
 40
0.8523240127975784
 40
0.9033417028076491
 40
0.952523153763314
 40
0.9999999999999999
 40
0.9999999999999999
 40
0.9999999999999999
 40
0.9999999999999999
 10
103.1526555566049
 20
108.7179069128576
 30
0.0
 10
103.1517473447603
 20
108.7824420802448
 30
0.0
 10
103.1498796767798
 20
108.9151537008382
 30
0.0
 10
103.1342870877182
 20
109.1179677923618
 30
0.0
 10
103.107643226531
 20
109.3296808332622
 30
0.0
 10
103.0674887974526
 20
109.5493928266352
 30
0.0
 10
103.0125906807694
 20
109.7761396975064
 30
0.0
 10
102.9413477121577
 20
110.0087707012894
 30
0.0
 10
102.8229353178751
 20
110.3241690157661
 30
0.0
 10
102.6348044214672
 20
110.7086509143011
 30
0.0
 10
102.3507876582327
 20
111.1386785288306
 30
0.0
 10
102.0413697016829
 20
111.4971652411715
 30
0.0
 10
101.7254600908813
 20
111.7889318974609
 30
0.0
 10
101.418714682758
 20
112.0213909842981
 30
0.0
 10
101.1002955689359
 20
112.218201218862
 30
0.0
 10
100.7743246927788
 20
112.3803019211203
 30
0.0
 10
100.4447858576536
 20
112.5087718046
 30
0.0
 10
100.115223942807
 20
112.6053556239729
 30
0.0
 10
99.7888056195078
 20
112.6712078532592
 30
0.0
 10
99.46828742720393
 20
112.7107728010846
 30
0.0
 10
99.25662191367314
 20
112.7155569992999
 30
0.0
 10
99.15265555660488
 20
112.7179069128576
 30
0.0
  0
SPLINE
  5
1E7
330
1F
100
AcDbEntity
  8
0
  6
Continuous
 62
     7
370
    25
100
AcDbSpline
210
0.0
220
0.0
230
1.0
 70
     8
 71
     3
 72
    13
 73
     9
 74
     0
 42
0.000000001
 43
0.00000001
 40
0.0
 40
0.0
 40
0.0
 40
0.0
 40
0.1604061687326152
 40
0.3231296684603721
 40
0.4883154213053191
 40
0.6561019685813868
 40
0.8266215117817601
 40
0.9999999999999999
 40
0.9999999999999999
 40
0.9999999999999999
 40
0.9999999999999999
 10
97.23778227731543
 20
112.7179069128576
 30
0.0
 10
97.17873232579933
 20
112.7171513428196
 30
0.0
 10
97.0597793490731
 20
112.7156292872913
 30
0.0
 10
96.88052571546562
 20
112.7031842281636
 30
0.0
 10
96.69959273377742
 20
112.6830000470326
 30
0.0
 10
96.51746423937924
 20
112.6538646808918
 30
0.0
 10
96.33429723158658
 20
112.6164485290729
 30
0.0
 10
96.21355791671368
 20
112.5841826567162
 30
0.0
 10
96.15268638512973
 20
112.5679156017779
 30
0.0
  0
SPLINE
  5
1E8
330
1F
100
AcDbEntity
  8
0
  6
Continuous
 62
     7
370
    25
100
AcDbSpline
210
0.0
220
0.0
230
1.0
 70
    24
 71
     3
 72
    10
 73
     6
 74
     0
 42
0.000000001
 43
0.00000001
 40
0.0
 40
0.0
 40
0.0
 40
0.0
 40
0.3216623556917544
 40
0.6548175346390315
 40
0.9999999999999999
 40
0.9999999999999999
 40
0.9999999999999999
 40
0.9999999999999999
 10
96.15283439150966
 20
112.5679069128576
 30
0.0
 10
96.08428848365237
 20
112.5679069128576
 30
0.0
 10
95.94474755945512
 20
112.5679069128576
 30
0.0
 10
95.73513914410458
 20
112.5679069128576
 30
0.0
 10
95.59546214895077
 20
112.5679069128576
 30
0.0
 10
95.52438537774997
 20
112.5679069128576
 30
0.0
  0
SPLINE
  5
1E9
330
1F
100
AcDbEntity
  8
0
  6
Continuous
 62
     7
370
    25
100
AcDbSpline
210
0.0
220
0.0
230
1.0
 70
     8
 71
     3
 72
     8
 73
     4
 74
     0
 42
0.000000001
 43
0.00000001
 40
0.0
 40
0.0
 40
0.0
 40
0.0
 40
1.0
 40
1.0
 40
1.0
 40
1.0
 10
96.23898567298255
 20
112.946353262033
 30
0.0
 10
95.96968934293467
 20
112.8496638768405
 30
0.0
 10
95.73352865752774
 20
112.7216647074663
 30
0.0
 10
95.52433114134942
 20
112.5681881098258
 30
0.0
  0
LINE
  5
1EA
330
1F
100
AcDbEntity
  8
0
  6
Continuous
 62
     7
370
    25
100
AcDbLine
 10
95.5248768529
 20
96.4429069129
 30
0.0
 11
95.6615476808
 21
96.4429069129
 31
0.0
  0
LINE
  5
1EB
330
1F
100
AcDbEntity
  8
0
  6
Continuous
 62
     7
370
    25
100
AcDbLine
 10
99.1526555566
 20
112.7179069129
 30
0.0
 11
97.2377822773
 21
112.7179069129
 31
0.0
  0
LINE
  5
1EC
330
1F
100
AcDbEntity
  8
0
  6
Continuous
 62
     7
370
    25
100
AcDbLine
 10
95.5247437385
 20
112.5679069129
 30
0.0
 11
90.7566164538
 21
112.5679069129
 31
0.0
  0
LINE
  5
1ED
330
1F
100
AcDbEntity
  8
0
  6
Continuous
 62
     7
370
    25
100
AcDbLine
 10
103.1526555566
 20
104.5054069129
 30
0.0
 11
103.1526555566
 21
108.7179069129
 31
0.0
  0
LINE
  5
1EE
330
1F
100
AcDbEntity
  8
VERMASSUNG
  6
CENTERX2
100
AcDbLine
 10
235.1476555566
 20
104.5054069129
 30
0.0
 11
67.2076555566
 21
104.5054069129
 31
0.0
  0
HATCH
  5
1EF
330
1F
100
AcDbEntity
  8
0
  6
Continuous
 62
     7
370
    18
100
AcDbHatch
 10
0.0
 20
0.0
 30
0.0
210
0.0
220
0.0
230
1.0
  2
ANSI31
 70
     0
 71
     0
 91
        1
 92
        0
 93
       44
 72
     1
 10
129.1776555566049
 20
133.3554069128576
 11
129.1776555566049
 21
133.4530021770493
 72
     1
 10
129.1776555566049
 20
133.4530021770493
 11
127.7184577520348
 21
135.9804069128576
 72
     1
 10
127.7184577520348
 20
135.9804069128576
 11
121.3526555566049
 21
135.9804069128576
 72
     2
 10
121.3526555566049
 20
135.7804069128576
 40
0.2000000000000028
 50
90.0
 51
180.0
 73
     1
 72
     1
 10
121.1526555566049
 20
135.7804069128576
 11
121.1526555566049
 21
131.3554069128576
 72
     1
 10
121.1526555566049
 20
131.3554069128576
 11
121.4866942426335
 21
130.295971552461
 72
     2
 10
120.7237206820349
 20
130.0554069128576
 40
0.8000000000000049
 50
342.5000000000017
 51
467.5000000000012
 73
     0
 72
     1
 10
120.4831560424315
 20
129.2924333522591
 11
119.9924735165741
 21
129.4471449583859
 72
     1
 10
119.9924735165741
 20
129.4471449583859
 11
106.6710002440546
 21
128.7781679853597
 72
     1
 10
106.6709986506561
 20
128.7781712944282
 11
106.0026685047265
 21
127.969059472037
 72
     1
 10
106.0026685047265
 20
127.969059472037
 11
106.0026555566049
 21
122.6116329336092
 72
     1
 10
106.0026586848386
 20
122.6116330584897
 11
106.6286046983808
 21
122.1429082031496
 72
     1
 10
106.6286049466897
 20
122.1429069128576
 11
111.6526555566049
 21
122.1429069128576
 72
     1
 10
111.6526555566049
 20
122.1429069128576
 11
112.5278960301857
 21
122.6482272358852
 72
     2
 10
112.9278960301857
 20
121.9554069128576
 40
0.7999999999999937
 50
240.0000000000003
 51
270.0000000000008
 73
     0
 72
     1
 10
112.9278960301857
 20
122.7554069128576
 11
114.3526555566049
 21
122.7554069128576
 72
     2
 10
114.3526555566049
 20
121.9554069128576
 40
0.7999999999999977
 50
270.0000000000008
 51
360.0000000000008
 73
     0
 72
     1
 10
115.1526555566049
 20
121.9554069128576
 11
115.1526555566049
 21
120.0554069128576
 72
     1
 10
115.1526555566049
 20
120.0554069128576
 11
118.8526555566049
 21
120.0554069128576
 72
     2
 10
118.8526555566049
 20
118.8554069128576
 40
1.2
 50
270.0000000000008
 51
360.0000000000008
 73
     0
 72
     1
 10
120.0526555566049
 20
118.8554069128576
 11
120.0526555566049
 21
109.7363470205335
 72
     1
 10
120.0526555566049
 20
109.7363470205335
 11
120.4526555566049
 21
109.5054069128576
 72
     1
 10
120.4526555566049
 20
109.5054069128576
 11
123.8776555566049
 21
109.5054069128576
 72
     1
 10
123.8776555566049
 20
109.5054069128576
 11
123.8776555566049
 21
110.2554069128576
 72
     1
 10
123.8776555566049
 20
110.2554069128576
 11
124.7026555566049
 21
110.2554069128576
 72
     1
 10
124.7026555566049
 20
110.2554069128576
 11
124.7026555566049
 21
108.5054069128576
 72
     1
 10
124.7026555566049
 20
108.5054069128576
 11
172.1526555566049
 21
108.5054069128577
 72
     1
 10
172.1526555566049
 20
108.5054069128577
 11
172.1526555566049
 21
112.4054069128577
 72
     2
 10
172.5526555566049
 20
112.4054069128577
 40
0.3999999999999985
 50
180.0
 51
270.0000000000008
 73
     0
 72
     1
 10
172.5526555566049
 20
112.8054069128576
 11
175.2578815384851
 21
112.8054069128577
 72
     2
 10
175.2578815384851
 20
112.4054069128577
 40
0.3999999999999979
 50
270.0000000000008
 51
289.9999999999954
 73
     0
 72
     1
 10
175.3946895958154
 20
112.781283961172
 11
176.1526555566049
 21
112.5054069128577
 72
     1
 10
176.1526555566049
 20
112.5054069128577
 11
191.6526555566043
 21
112.5054069128581
 72
     1
 10
191.6526555566049
 20
112.5054069128577
 11
191.6526555566049
 21
127.5054070031451
 72
     1
 10
191.6526555566049
 20
127.5054070031451
 11
190.6526556114611
 21
128.5054069128577
 72
     1
 10
190.6526556114611
 20
128.5054069128577
 11
142.1526555566049
 21
128.5054069128576
 72
     2
 10
142.1526555566049
 20
131.5054069128576
 40
3.0
 50
90.0
 51
180.0
 73
     0
 72
     1
 10
139.1526555566049
 20
131.5054069128576
 11
139.1526555566049
 21
135.9804069128576
 72
     1
 10
139.1526555566049
 20
135.9804069128576
 11
134.386853361175
 21
135.9804069128576
 72
     1
 10
134.386853361175
 20
135.9804069128576
 11
132.9276555566049
 21
133.4530021770493
 72
     1
 10
132.9276555566049
 20
133.4530021770493
 11
132.9276555566049
 21
133.3554069128576
 72
     2
 10
131.9276555566049
 20
133.3554069128576
 40
1.000000000000003
 50
0.0
 51
90.0
 73
     0
 72
     1
 10
131.9276555566049
 20
132.3554069128576
 11
130.1776555566049
 21
132.3554069128576
 72
     2
 10
130.1776555566049
 20
133.3554069128576
 40
1.000000000000003
 50
89.99999999999837
 51
180.0
 73
     0
 97
        0
 75
     0
 76
     1
 52
0.0
 41
1.0
 77
     0
 78
     1
 53
45.0
 43
0.0
 44
0.0
 45
-2.245064030267288
 46
2.245064030267288
 79
     0
 98
        1
 10
0.0
 20
0.0
  0
HATCH
  5
1F0
330
1F
100
AcDbEntity
  8
0
  6
Continuous
 62
     7
370
    18
100
AcDbHatch
 10
0.0
 20
0.0
 30
0.0
210
0.0
220
0.0
230
1.0
  2
ANSI31
 70
     0
 71
     0
 91
        1
 92
        0
 93
        8
 72
     1
 10
203.6526555566049
 20
112.5054069128577
 11
220.8526555566049
 21
112.5054069128577
 72
     2
 10
220.8526555566049
 20
112.8054069128577
 40
0.2999999999999973
 50
270.0000000000008
 51
360.0000000000008
 73
     1
 72
     1
 10
221.1526555566049
 20
112.8054069128577
 11
221.1526555566049
 21
121.2312663912427
 72
     2
 10
219.1526555566049
 20
121.2312663912427
 40
1.999999999999998
 50
0.0
 51
65.00000000000031
 73
     1
 72
     1
 10
219.9978920800863
 20
123.043881965316
 11
208.2856140335475
 21
128.5054069128577
 72
     1
 10
208.2856140335475
 20
128.5054069128577
 11
204.6526553211605
 21
128.5054069128577
 72
     1
 10
204.6526552541011
 20
128.5054068592482
 11
203.6526553443358
 21
127.5054069517695
 72
     1
 10
203.6526555566049
 20
127.5054069254371
 11
203.6526555566049
 21
112.5054069128577
 97
        0
 75
     0
 76
     1
 52
0.0
 41
1.0
 77
     0
 78
     1
 53
45.0
 43
0.0
 44
0.0
 45
-2.245064030267288
 46
2.245064030267288
 79
     0
 98
        1
 10
0.0
 20
0.0
  0
HATCH
  5
1F1
330
1F
100
AcDbEntity
  8
0
  6
Continuous
 62
     7
370
    18
100
AcDbHatch
 10
0.0
 20
0.0
 30
0.0
210
0.0
220
0.0
230
1.0
  2
ANSI31
 70
     0
 71
     0
 91
        1
 92
        0
 93
        9
 72
     1
 10
91.50268368719304
 20
127.1696812847405
 11
90.75309370825734
 21
127.9787926225081
 72
     1
 10
90.75309370825734
 20
127.9787926225081
 11
82.70265555660488
 21
127.57452704044
 72
     1
 10
82.70265555660488
 20
127.57452704044
 11
81.20265555660487
 21
126.7085016366555
 72
     1
 10
81.20265555660487
 20
126.7085016366555
 11
81.20265555660487
 21
124.7429069128576
 72
     1
 10
81.20265555660487
 20
124.7429069128576
 11
81.95432160644442
 21
123.4409831242109
 72
     1
 10
81.95432160644442
 20
123.4409831242109
 11
84.20265555660488
 21
122.1429069128576
 72
     1
 10
84.20265555660488
 20
122.1429069128576
 11
88.07265540131381
 21
122.1429069128576
 72
     1
 10
88.07265540131381
 20
122.1429069128576
 11
91.50265555660486
 21
127.0414547977615
 72
     1
 10
91.50265555660486
 20
127.0414547977615
 11
91.50265555660486
 21
127.1696801712473
 97
        0
 75
     0
 76
     1
 52
0.0
 41
1.0
 77
     0
 78
     1
 53
45.0
 43
0.0
 44
0.0
 45
-2.245064030267288
 46
2.245064030267288
 79
     0
 98
        1
 10
0.0
 20
0.0
  0
HATCH
  5
1F2
330
1F
100
AcDbEntity
  8
0
  6
Continuous
 62
     7
370
    18
100
AcDbHatch
 10
0.0
 20
0.0
 30
0.0
210
0.0
220
0.0
230
1.0
  2
ANSI31
 70
     0
 71
     0
 91
        1
 92
        0
 93
       15
 72
     1
 10
192.6526555566049
 20
112.0054069128577
 11
193.9026555566049
 21
112.0054069128577
 72
     1
 10
193.9026555566049
 20
112.0054069128577
 11
197.6526555566049
 21
114.1704704223187
 72
     1
 10
197.6526555566049
 20
114.1704704223187
 11
201.4026555566049
 21
112.0054069128577
 72
     1
 10
201.4026555566049
 20
112.0054069128577
 11
202.6526555566049
 21
112.0054069128577
 72
     1
 10
202.6526555566049
 20
112.0054069128577
 11
204.6526555566049
 21
114.0054069128577
 72
     1
 10
204.6526555566049
 20
114.0054069128577
 11
204.6526555566048
 21
127.5054069128577
 72
     1
 10
204.6526555566048
 20
127.5054069128577
 11
203.6526555566049
 21
128.5054069128577
 72
     1
 10
203.6526555566049
 20
128.5054069128577
 11
200.6559339984819
 21
128.5054069128577
 72
     1
 10
200.6559339984819
 20
128.5054069128577
 11
200.6559339984819
 21
120.5054069128577
 72
     1
 10
200.6559339984819
 20
120.5054069128577
 11
194.6493771147278
 21
120.5054069128577
 72
     1
 10
194.6493771147278
 20
120.5054069128577
 11
194.6493771147278
 21
128.5054069128577
 72
     1
 10
194.6493771147278
 20
128.5054069128577
 11
191.6526555566049
 21
128.5054069128577
 72
     1
 10
191.6526555566049
 20
128.5054069128577
 11
190.6526555566049
 21
127.5054069128577
 72
     1
 10
190.6526555566049
 20
127.5054069128577
 11
190.6526555566049
 21
114.0054069128577
 72
     1
 10
190.6526555566049
 20
114.0054069128577
 11
192.6526555566049
 21
112.0054069128577
 97
        0
 75
     0
 76
     1
 52
0.0
 41
1.0
 77
     0
 78
     1
 53
45.0
 43
0.0
 44
0.0
 45
-2.245064030267288
 46
2.245064030267288
 79
     0
 98
        1
 10
0.0
 20
0.0
  0
DIMENSION
  5
1F3
330
1F
100
AcDbEntity
  8
VERMASSUNG
100
AcDbDimension
  2
_D
 10
249.1526555566
 20
96.5054069129
 30
0.0
 11
249.1526555566
 21
104.5054069129
 31
0.0
 70
   160
  1
%%c<>
 71
     2
 42
-1.0
  3
SLDDIMSTYLE0
100
AcDbAlignedDimension
 13
191.6526555566
 23
112.5054069129
 33
0.0
 14
220.8526555566
 24
96.5054069129
 34
0.0
 50
90.0
100
AcDbRotatedDimension
  0
DIMENSION
  5
1FD
330
1F
100
AcDbEntity
  8
VERMASSUNG
100
AcDbDimension
  2
_D_1
 10
261.1526555566
 20
80.5054069129
 30
0.0
 11
261.1526555566
 21
104.5054069129
 31
0.0
 70
   160
  1
%%c<>
 71
     2
 42
-1.0
  3
SLDDIMSTYLE1
100
AcDbAlignedDimension
 13
208.2856140335
 23
128.5054069129
 33
0.0
 14
208.2856140335
 24
80.5054069129
 34
0.0
 50
90.0
100
AcDbRotatedDimension
  0
DIMENSION
  5
209
330
1F
100
AcDbEntity
  8
VERMASSUNG
100
AcDbDimension
  2
_D_2
 10
59.2026305566
 20
73.0304069129
 30
0.0
 11
59.2026305566
 21
104.5054069129
 31
0.0
 70
   160
  1
KM%%c<> XMZ
 71
     2
 42
-1.0
  3
SLDDIMSTYLE2
100
AcDbAlignedDimension
 13
134.3868533612
 23
135.9804069129
 33
0.0
 14
134.3868533612
 24
73.0304069129
 34
0.0
 50
90.0
100
AcDbRotatedDimension
  0
DIMENSION
  5
217
330
1F
100
AcDbEntity
  8
VERMASSUNG
100
AcDbDimension
  2
_D_3
 10
221.1526555566
 20
144.2807631804
 30
0.0
 11
180.1526555566
 21
144.2807631804
 31
0.0
 70
   160
  1
<>
 71
     2
 42
-1.0
  3
SLDDIMSTYLE1
100
AcDbAlignedDimension
 13
139.1526555566
 23
135.9804069129
 33
0.0
 14
221.1526555566
 24
121.2312663912
 34
0.0
 50
0.0
100
AcDbRotatedDimension
  0
DIMENSION
  5
221
330
1F
100
AcDbEntity
  8
VERMASSUNG
100
AcDbDimension
  2
_D_4
 10
221.1526555566
 20
155.6680282627
 30
0.0
 11
171.1526555566
 21
155.6680282627
 31
0.0
 70
   160
  1
<>
 71
     2
 42
-1.0
  3
SLDDIMSTYLE1
100
AcDbAlignedDimension
 13
121.1526555566
 23
135.7804069129
 33
0.0
 14
221.1526555566
 24
121.2312663912
 34
0.0
 50
0.0
100
AcDbRotatedDimension
  0
DIMENSION
  5
22B
330
1F
100
AcDbEntity
  8
VERMASSUNG
100
AcDbDimension
  2
_D_5
 10
221.1526555566
 20
166.9879120867
 30
0.0
 11
151.1776555566
 21
166.9879120867
 31
0.0
 70
   160
  1
<>
 71
     2
 42
-1.0
  3
SLDDIMSTYLE1
100
AcDbAlignedDimension
 13
81.2026555566
 23
126.7085016367
 33
0.0
 14
221.1526555566
 24
121.2312663912
 34
0.0
 50
0.0
100
AcDbRotatedDimension
  0
LINE
  5
235
330
1F
100
AcDbEntity
  8
VERMASSUNG
  6
CENTERX2
370
    18
100
AcDbLine
 10
98.7526555566
 20
129.9187146924
 30
0.0
 11
98.7526555566
 21
114.9164575062
 31
0.0
  0
LINE
  5
236
330
1F
100
AcDbEntity
  8
VERMASSUNG
  6
CENTERX2
370
    18
100
AcDbLine
 10
98.9668396899
 20
125.4319076655
 30
0.0
 11
91.6125728482
 21
114.9289261345
 31
0.0
  0
LINE
  5
237
330
1F
100
AcDbEntity
  8
VERMASSUNG
  6
CENTERX2
370
    18
100
AcDbLine
 10
197.6526555566
 20
130.5054069129
 30
0.0
 11
197.6526555566
 21
107.2712218311
 31
0.0
  0
LINE
  5
238
330
1F
100
AcDbEntity
  8
0
  6
Continuous
 62
     7
370
    25
100
AcDbLine
 10
269.6896880531
 20
15.7838136253
 30
0.0
 11
274.6692297538
 21
15.8859463478
 31
0.0
  0
LINE
  5
239
330
1F
100
AcDbEntity
  8
0
  6
Continuous
 62
     7
370
    25
100
AcDbLine
 10
283.4192920752
 20
31.0431411716
 30
0.0
 11
281.017561307
 21
35.4063917899
 31
0.0
  0
SPLINE
  5
23A
330
1F
100
AcDbEntity
  8
0
  6
Continuous
 62
     7
370
    25
100
AcDbSpline
210
0.0
220
0.0
230
1.0
 70
     8
 71
     3
 72
    29
 73
    25
 74
     0
 42
0.000000001
 43
0.00000001
 40
0.0
 40
0.0
 40
0.0
 40
0.0
 40
0.0343328144705633
 40
0.0796918848842644
 40
0.1259285957827989
 40
0.1727626094579803
 40
0.2198943890124737
 40
0.2670798072909558
 40
0.3141933820952117
 40
0.3612039755832467
 40
0.4081173211010254
 40
0.4549577256547724
 40
0.5017581062558721
 40
0.5485552352954868
 40
0.5953811356423557
 40
0.642269060869818
 40
0.6892587189675954
 40
0.7363879363780139
 40
0.7836877418623872
 40
0.8311716986241616
 40
0.8788153034819011
 40
0.9264883528368241
 40
0.9739192460819571
 40
1.0
 40
1.0
 40
1.0
 40
1.0
 10
274.8196200830374
 20
15.90030070459922
 30
0.0
 10
275.0022014872624
 20
15.91210339026178
 30
0.0
 10
275.4260017632337
 20
15.93949928779157
 30
0.0
 10
276.1082144300699
 20
16.1054778797453
 30
0.0
 10
276.8590428267115
 20
16.37589544143412
 30
0.0
 10
277.6166089787017
 20
16.7512566494263
 30
0.0
 10
278.3694796672187
 20
17.22192363437627
 30
0.0
 10
279.1073644076278
 20
17.78177813862059
 30
0.0
 10
279.8209096018452
 20
18.42206310100145
 30
0.0
 10
280.5020200037594
 20
19.13407930884977
 30
0.0
 10
281.1433818097431
 20
19.9088048572156
 30
0.0
 10
281.7381619808936
 20
20.73692574531057
 30
0.0
 10
282.2799438918591
 20
21.60880226883179
 30
0.0
 10
282.7627129265971
 20
22.51447652949256
 30
0.0
 10
283.1809063187026
 20
23.44374313705953
 30
0.0
 10
283.5294740726234
 20
24.38629541957516
 30
0.0
 10
283.803907650085
 20
25.33189793323314
 30
0.0
 10
284.0001454718863
 20
26.27043910035297
 30
0.0
 10
284.1146619412156
 20
27.19204509746422
 30
0.0
 10
284.1437485550655
 20
28.0864773698024
 30
0.0
 10
284.0859581231484
 20
28.944522251315
 30
0.0
 10
283.9334226376183
 20
29.75035175478979
 30
0.0
 10
283.7397291504722
 20
30.39691552720354
 30
0.0
 10
283.5600385081519
 20
30.7433138779963
 30
0.0
 10
283.4962871489512
 20
30.86621045960313
 30
0.0
  0
LINE
  5
23B
330
1F
100
AcDbEntity
  8
0
  6
Continuous
 62
     7
370
    25
100
AcDbLine
 10
243.9938831998
 20
29.8426649852
 30
0.0
 11
267.3754148993
 21
16.3447940453
 31
0.0
  0
LINE
  5
23C
330
1F
100
AcDbEntity
  8
0
  6
Continuous
 62
     7
370
    25
100
AcDbLine
 10
279.3744396909
 20
37.1299667424
 30
0.0
 11
255.9929079914
 21
50.6278376823
 31
0.0
  0
LINE
  5
23D
330
1F
100
AcDbEntity
  8
0
  6
Continuous
 62
     7
370
    25
100
AcDbLine
 10
239.3796593713
 20
28.1908233388
 30
0.0
 11
241.0646248964
 21
27.2181134459
 31
0.0
  0
LINE
  5
23E
330
1F
100
AcDbEntity
  8
0
  6
Continuous
 62
     7
370
    25
100
AcDbLine
 10
256.8008459513
 20
54.4770013893
 30
0.0
 11
255.1158804262
 21
55.4497112822
 31
0.0
  0
LINE
  5
23F
330
1F
100
AcDbEntity
  8
0
  6
Continuous
 62
     7
370
    25
100
AcDbLine
 10
234.7713745439
 20
30.8511295435
 30
0.0
 11
237.0220254939
 21
29.5518564058
 31
0.0
  0
LINE
  5
240
330
1F
100
AcDbEntity
  8
0
  6
Continuous
 62
     7
370
    25
100
AcDbLine
 10
252.7582465488
 20
56.8107443493
 30
0.0
 11
250.5075955987
 21
58.1100174869
 31
0.0
  0
LINE
  5
241
330
1F
100
AcDbEntity
  8
0
  6
Continuous
 62
     7
370
    25
100
AcDbLine
 10
243.7302067258
 20
57.8898995223
 30
0.0
 11
234.5329941693
 21
62.4705521814
 31
0.0
  0
LINE
  5
242
330
1F
100
AcDbEntity
  8
0
  6
Continuous
 62
     7
370
    25
100
AcDbLine
 10
223.0066464577
 20
42.5041689199
 30
0.0
 11
231.5727467699
 21
36.8302793339
 31
0.0
  0
LINE
  5
243
330
1F
100
AcDbEntity
  8
0
  6
Continuous
 62
     7
370
    25
100
AcDbLine
 10
227.986084006
 20
43.4506589575
 30
0.0
 11
227.986084006
 21
43.0853399408
 31
0.0
  0
LINE
  5
244
330
1F
100
AcDbEntity
  8
0
  6
Continuous
 62
     7
370
    25
100
AcDbLine
 10
231.8840505069
 20
62.8475206551
 30
0.0
 11
231.2445000544
 21
62.7603095897
 31
0.0
  0
LINE
  5
245
330
1F
100
AcDbEntity
  8
0
  6
Continuous
 62
     7
370
    25
100
AcDbLine
 10
283.4192920752
 20
31.0431411716
 30
0.0
 11
283.4965626515
 21
30.8959591394
 31
0.0
  0
LINE
  5
246
330
1F
100
AcDbEntity
  8
0
  6
Continuous
 62
     7
370
    25
100
AcDbLine
 10
274.7994656586
 20
15.8906407142
 30
0.0
 11
274.6692297538
 21
15.8859463478
 31
0.0
  0
LWPOLYLINE
  5
247
330
1F
100
AcDbEntity
  8
0
  6
Continuous
 62
     7
370
    25
100
AcDbPolyline
 90
       28
 70
   128
 43
0.0
 10
264.8896459209
 20
21.8389317229
 10
264.9346189676
 20
22.872384596
 10
265.0690613823
 20
23.946807386
 10
265.2915480419
 20
25.050810944
 10
265.5997205326
 20
26.1726925579
 10
265.9903121491
 20
27.3005600032
 10
266.4591825233
 20
28.4224576046
 10
267.0013615125
 20
29.5264929684
 10
267.6111018846
 20
30.600963045
 10
268.2819402398
 20
31.6344781844
 10
269.0067655249
 20
32.6160828689
 10
269.7778944114
 20
33.5353718448
 10
270.5871527412
 20
34.3826004201
 10
271.4259621749
 20
35.1487877613
 10
272.2854311237
 20
35.8258120918
 10
273.156449003
 20
36.4064967854
 10
274.0297828064
 20
36.8846864399
 10
274.8961749786
 20
37.2553121259
 10
275.7464415469
 20
37.514445119
 10
276.5715694741
 20
37.659338545
 10
277.3628121991
 20
37.6884564976
 10
278.1117823519
 20
37.6014903191
 10
278.8105406628
 20
37.3993618727
 10
279.4516801197
 20
37.0842137703
 10
280.028404485
 20
36.6593866601
 10
280.5346003369
 20
36.1293838152
 10
280.9649018734
 20
35.4998233975
 10
281.017561307
 20
35.4063917899
  0
LWPOLYLINE
  5
248
330
1F
100
AcDbEntity
  8
0
  6
Continuous
 62
     7
370
    25
100
AcDbPolyline
 90
       12
 70
   128
 43
0.0
 10
269.6896880531
 20
15.7838136253
 10
269.0067655249
 20
15.8153056901
 10
268.2819402398
 20
15.9600449137
 10
267.6111018846
 20
16.2190265745
 10
267.0013615125
 20
16.5895054024
 10
266.4591825233
 20
17.0675542298
 10
265.9903121491
 20
17.64810562
 10
265.5997205326
 20
18.325005584
 10
265.2915480419
 20
19.0910788138
 10
265.0690613823
 20
19.9382047424
 10
264.9346189676
 20
20.8574036244
 10
264.8896459209
 20
21.8389317229
  0
LINE
  5
249
330
1F
100
AcDbEntity
  8
0
  6
Continuous
 62
     7
370
    25
100
AcDbLine
 10
243.9938831998
 20
29.8426649852
 30
0.0
 11
244.0353568475
 21
29.8190514579
 31
0.0
  0
LWPOLYLINE
  5
24A
330
1F
100
AcDbEntity
  8
0
  6
Continuous
 62
     7
370
    25
100
AcDbPolyline
 90
       13
 70
   128
 43
0.0
 10
274.9896203106
 20
22.4171442932
 10
275.0342018552
 20
23.0313125906
 10
275.1665919013
 20
23.6782924508
 10
275.3827678444
 20
24.3384257182
 10
275.6761612878
 20
24.9916545774
 10
276.0378576202
 20
25.6181310002
 10
276.4568668815
 20
26.1988198174
 10
276.9204576875
 20
26.7160770933
 10
277.414544066
 20
27.1541862271
 10
277.9241134525
 20
27.4998354946
 10
278.433682839
 20
27.7425225176
 10
278.9277692175
 20
27.8748733738
 10
279.0833874998
 20
27.8934352793
  0
ARC
  5
24B
330
1F
100
AcDbEntity
  8
0
  6
Continuous
 62
     7
370
    25
100
AcDbCircle
 10
274.7471475674
 20
25.9716917976
 30
0.0
 40
6.110732441560632
100
AcDbArc
 50
296.4701800876
 51
359.3234561007
  0
LWPOLYLINE
  5
24C
330
1F
100
AcDbEntity
  8
0
  6
Continuous
 62
     7
370
    25
100
AcDbPolyline
 90
       28
 70
   128
 43
0.0
 10
277.8701241477
 20
27.468094569
 10
277.9449443384
 20
27.508552195
 10
278.4474316807
 20
27.7200312405
 10
278.9296900956
 20
27.8174871974
 10
279.3762194006
 20
27.7977877512
 10
279.7726677766
 20
27.6615660582
 10
280.1062930466
 20
27.4132003957
 10
280.3663722198
 20
27.0606734405
 10
280.5445461378
 20
26.615315699
 10
280.635088144
 20
26.0914413355
 10
280.635088144
 20
25.5058881029
 10
280.5445461378
 20
24.8774761641
 10
280.3663722198
 20
24.2264031957
 10
280.1062930466
 20
23.5735952188
 10
279.7726677766
 20
22.9400340187
 10
279.3762194006
 20
22.3460827738
 10
278.9296900956
 20
21.8108315658
 10
278.4474316807
 20
21.3514838089
 10
277.9449443384
 20
20.982803318
 10
277.4383784252
 20
20.7166397874
 10
276.9440153864
 20
20.561547932
 10
276.4777444568
 20
20.5225125316
 10
276.0545519677
 20
20.6007882161
 10
275.688039674
 20
20.7938591406
 10
275.3899875823
 20
21.0955198467
 10
275.1699753321
 20
21.4960747112
 10
275.0350742981
 20
21.982649571
 10
274.9901082678
 20
22.4792201993
  0
LWPOLYLINE
  5
24D
330
1F
100
AcDbEntity
  8
0
  6
Continuous
 62
     7
370
    25
100
AcDbPolyline
 90
       36
 70
   128
 43
0.0
 10
237.8046424549
 20
34.4234460877
 10
237.8494408856
 20
35.6012006709
 10
237.983475487
 20
36.8211958338
 10
238.2056670914
 20
38.0736088928
 10
238.5142267426
 20
39.3483561542
 10
238.9066700997
 20
40.6351741027
 10
239.3798374396
 20
41.9237020367
 10
239.929919097
 20
43.203565487
 10
240.5524861379
 20
44.4644597457
 10
241.2425260186
 20
45.6962328335
 10
241.9944829436
 20
46.8889672379
 10
242.802302598
 20
48.0330597626
 10
243.6594808928
 20
49.1192988475
 10
244.5591163325
 20
50.1389387341
 10
245.4939655815
 20
51.0837698816
 10
246.4565017833
 20
51.9461850651
 10
247.4389751623
 20
52.7192406247
 10
248.4334754207
 20
53.3967123716
 10
249.431995427
 20
53.9731457015
 10
250.4264956854
 20
54.4438995123
 10
251.4089690644
 20
54.8051835711
 10
252.3715052662
 20
55.054089031
 10
253.3063545152
 20
55.1886118517
 10
254.2059899549
 20
55.2076689345
 10
255.0631682497
 20
55.1111068429
 10
255.8709879041
 20
54.8997030383
 10
256.6229448291
 20
54.5751596196
 10
257.3129847098
 20
54.1400896196
 10
257.9355517507
 20
53.5979959663
 10
258.4856334081
 20
52.9532432789
 10
258.958800748
 20
52.211022727
 10
259.3512441051
 20
51.377310234
 10
259.6598037563
 20
50.4588183628
 10
259.8819953606
 20
49.4629422697
 10
260.0160299621
 20
48.3977001636
 10
260.0235579497
 20
48.3009929897
  0
LWPOLYLINE
  5
24E
330
1F
100
AcDbEntity
  8
0
  6
Continuous
 62
     7
370
    25
100
AcDbPolyline
 90
       18
 70
   128
 43
0.0
 10
248.0245331581
 20
27.5158202925
 10
247.4389751623
 20
27.2512153229
 10
246.4565017833
 20
26.8899312641
 10
245.4939655815
 20
26.6410258042
 10
244.5591163325
 20
26.5065029835
 10
243.6594808928
 20
26.4874459007
 10
242.802302598
 20
26.5840079923
 10
241.9944829436
 20
26.7954117969
 10
241.2425260186
 20
27.1199552156
 10
240.5524861379
 20
27.5550252155
 10
239.929919097
 20
28.0971188689
 10
239.3798374396
 20
28.7418715563
 10
238.9066700997
 20
29.4840921082
 10
238.5142267426
 20
30.3178046011
 10
238.2056670914
 20
31.2362964724
 10
237.983475487
 20
32.2321725655
 10
237.8494408856
 20
33.2974146716
 10
237.8046424549
 20
34.4234460877
  0
SPLINE
  5
24F
330
1F
100
AcDbEntity
  8
0
  6
Continuous
 62
     7
370
    25
100
AcDbSpline
210
0.0
220
0.0
230
1.0
 70
     8
 71
     3
 72
    25
 73
    21
 74
     0
 42
0.000000001
 43
0.00000001
 40
0.0
 40
0.0
 40
0.0
 40
0.0
 40
0.1249999999999998
 40
0.1249999999999998
 40
0.2499999999999997
 40
0.2499999999999997
 40
0.3749999999999995
 40
0.3749999999999995
 40
0.4999999999999993
 40
0.4999999999999993
 40
0.5624999999999996
 40
0.5624999999999996
 40
0.6249999999999998
 40
0.6875000000000001
 40
0.6875000000000001
 40
0.7500000000000003
 40
0.7500000000000003
 40
0.8750000000000001
 40
0.8750000000000001
 40
1.0
 40
1.0
 40
1.0
 40
1.0
 10
242.6382312999928
 20
50.85526068326393
 30
0.0
 10
242.6673545982538
 20
50.74407516273475
 30
0.0
 10
242.6797436391131
 20
50.62883295030672
 30
0.0
 10
242.6727661540128
 20
50.38973738247092
 30
0.0
 10
242.6527485661607
 20
50.26496341259566
 30
0.0
 10
242.5825264084475
 20
50.01859450338323
 30
0.0
 10
242.5318757538539
 20
49.89438335602212
 30
0.0
 10
242.4019610101986
 20
49.65075486071195
 30
0.0
 10
242.3242600622094
 20
49.53369776565378
 30
0.0
 10
242.1888864799832
 20
49.36504124780375
 30
0.0
 10
242.1402519826761
 20
49.30967422653159
 30
0.0
 10
242.0388126472941
 20
49.20395441513458
 30
0.0
 10
241.9329426645534
 20
49.10279345651412
 30
0.0
 10
241.8183508722259
 20
49.01061913483733
 30
0.0
 10
241.6992682030077
 20
48.92308229209721
 30
0.0
 10
241.6373101899503
 20
48.88158382258502
 30
0.0
 10
241.4494464864297
 20
48.76746350084692
 30
0.0
 10
241.3200690500757
 20
48.70385606973232
 30
0.0
 10
241.0523857970137
 20
48.60258776875809
 30
0.0
 10
240.9165141105486
 20
48.5660468605333
 30
0.0
 10
240.780996843821
 20
48.54487867618323
 30
0.0
  0
LWPOLYLINE
  5
250
330
1F
100
AcDbEntity
  8
0
  6
Continuous
 62
     7
370
    25
100
AcDbPolyline
 90
       15
 70
   128
 43
0.0
 10
242.6382313
 20
50.8552606833
 10
243.5892341135
 20
51.8442210904
 10
244.5712449685
 20
52.7482231447
 10
245.5759407994
 20
53.5596049466
 10
246.5948062733
 20
54.2714896028
 10
247.619205962
 20
54.8778435113
 10
248.6404575321
 20
55.3735274994
 10
249.6499053319
 20
55.7543403811
 10
250.6389937531
 20
56.017054564
 10
251.599339744
 20
56.1594434054
 10
252.5228038603
 20
56.180300084
 10
253.4015592512
 20
56.0794478283
 10
254.2281579963
 20
55.8577414149
 10
254.9955942303
 20
55.5170599239
 10
255.1158804262
 20
55.4497112822
  0
LWPOLYLINE
  5
251
330
1F
100
AcDbEntity
  8
0
  6
Continuous
 62
     7
370
    25
100
AcDbPolyline
 90
       21
 70
   128
 43
0.0
 10
239.3796593713
 20
28.1908233388
 10
239.3760116342
 20
28.1929310858
 10
238.6912755144
 20
28.6647610229
 10
238.0778967945
 20
29.2463020962
 10
237.5409907829
 20
29.9327045089
 10
237.0850350399
 20
30.7182439669
 10
236.7138320357
 20
31.5963694165
 10
236.43047744
 20
32.5597576778
 10
236.2373343057
 20
33.6003745163
 10
236.1360133615
 20
34.7095416453
 10
236.1273595794
 20
35.8780090988
 10
236.2114451283
 20
37.0960323722
 10
236.3875687716
 20
38.3534536872
 10
236.6542617157
 20
39.6397867029
 10
237.0092998586
 20
40.9443039678
 10
237.4497223385
 20
42.2561263818
 10
237.9718562254
 20
43.5643139228
 10
238.5713471526
 20
44.8579568821
 10
239.2431956293
 20
46.1262668465
 10
239.9817987347
 20
47.3586666687
 10
240.7809968438
 20
48.5448786762
  0
LWPOLYLINE
  5
252
330
1F
100
AcDbEntity
  8
0
  6
Continuous
 62
     7
370
    25
100
AcDbPolyline
 90
       12
 70
   128
 43
0.0
 10
240.9756100552
 20
50.9795375228
 10
241.891189149
 20
51.9540187667
 10
242.8399018473
 20
52.8429943129
 10
243.8128048777
 20
53.6380840161
 10
244.800726932
 20
54.3317927687
 10
245.7943551212
 20
54.9175811555
 10
246.7843227664
 20
55.3899270991
 10
247.7612976953
 20
55.7443779148
 10
248.7160702148
 20
55.9775922854
 10
249.6396399284
 20
56.0873717586
 10
250.5233005803
 20
56.0726814713
 10
250.7761605604
 20
56.0444239303
  0
SPLINE
  5
253
330
1F
100
AcDbEntity
  8
0
  6
Continuous
 62
     7
370
    25
100
AcDbSpline
210
0.0
220
0.0
230
1.0
 70
     8
 71
     3
 72
    26
 73
    22
 74
     0
 42
0.000000001
 43
0.00000001
 40
0.0
 40
0.0
 40
0.0
 40
0.0
 40
0.1250000000000009
 40
0.1250000000000009
 40
0.2500000000000019
 40
0.2500000000000019
 40
0.3125000000000011
 40
0.3125000000000011
 40
0.3750000000000004
 40
0.3750000000000004
 40
0.4375000000000002
 40
0.4375000000000002
 40
0.5000000000000001
 40
0.5000000000000001
 40
0.5625
 40
0.5625
 40
0.6249999999999999
 40
0.6249999999999999
 40
0.7500000000000001
 40
0.7500000000000001
 40
1.0
 40
1.0
 40
1.0
 40
1.0
 10
239.6314168143652
 20
49.30737391013876
 30
0.0
 10
239.6077792181332
 20
49.41694976971174
 30
0.0
 10
239.5902114392514
 20
49.52783902807627
 30
0.0
 10
239.571398856382
 20
49.75316898793922
 30
0.0
 10
239.5702190816146
 20
49.86884590125759
 30
0.0
 10
239.58631708485
 20
50.04020141111715
 30
0.0
 10
239.5946358019502
 20
50.09699992321131
 30
0.0
 10
239.6183929512071
 20
50.2098261356084
 30
0.0
 10
239.6340153302561
 20
50.26627898927455
 30
0.0
 10
239.6728725426532
 20
50.37486210568315
 30
0.0
 10
239.6960984993556
 20
50.42724206590869
 30
0.0
 10
239.751097148834
 20
50.52769884118081
 30
0.0
 10
239.7831754158567
 20
50.57597770895225
 30
0.0
 10
239.8535901643917
 20
50.66367468453599
 30
0.0
 10
239.8921685865184
 20
50.70366381251195
 30
0.0
 10
239.9758768501146
 20
50.77614249662754
 30
0.0
 10
240.0210055600565
 20
50.80847912100415
 30
0.0
 10
240.1602862022466
 20
50.8916788883578
 30
0.0
 10
240.2610752738082
 20
50.93050761099389
 30
0.0
 10
240.5641475450409
 20
51.00592389844908
 30
0.0
 10
240.772671635526
 20
51.00579375207831
 30
0.0
 10
240.9756100552164
 20
50.97953752275209
 30
0.0
  0
LWPOLYLINE
  5
254
330
1F
100
AcDbEntity
  8
0
  6
Continuous
 62
     7
370
    25
100
AcDbPolyline
 90
       17
 70
   128
 43
0.0
 10
236.6944384196
 20
31.6515227028
 10
236.2607558137
 20
32.2984872325
 10
235.8632488845
 20
33.1033919468
 10
235.5532372191
 20
33.9979675884
 10
235.3335632303
 20
34.9740120362
 10
235.2062410493
 20
36.0225762035
 10
235.1724380586
 20
37.1340460903
 10
235.2324641885
 20
38.298230931
 10
235.385769076
 20
39.5044566309
 10
235.6309471099
 20
40.741663634
 10
235.9657503196
 20
41.9985083254
 10
236.3871089853
 20
43.2634670372
 10
236.8911597837
 20
44.5249417066
 10
237.4732812101
 20
45.7713662148
 10
238.1281359511
 20
46.9913124339
 10
238.8497198214
 20
48.1735950083
 10
239.6314168144
 20
49.3073739101
  0
LINE
  5
255
330
1F
100
AcDbEntity
  8
0
  6
Continuous
 62
     7
370
    25
100
AcDbLine
 10
238.1560248448
 20
29.0634530544
 30
0.0
 11
238.2767017697
 21
29.1204847616
 31
0.0
  0
LWPOLYLINE
  5
256
330
1F
100
AcDbEntity
  8
0
  6
Continuous
 62
     7
370
    25
100
AcDbPolyline
 90
       40
 70
   128
 43
0.0
 10
238.1560248448
 20
29.0634530544
 10
237.3874783006
 20
29.3596289364
 10
236.6795876818
 20
29.7675473906
 10
236.0380759952
 20
30.2839105629
 10
235.468129601
 20
30.9045438677
 10
234.9743562832
 20
31.6244297383
 10
234.5607479973
 20
32.437748191
 10
234.2306485978
 20
33.3379238781
 10
233.9867268033
 20
34.3176792467
 10
233.8309546222
 20
35.3690933745
 10
233.764591409
 20
36.4836660073
 10
233.788173683
 20
37.6523862804
 10
233.9015107912
 20
38.8658055674
 10
234.1036864495
 20
40.1141138685
 10
234.3930661501
 20
41.3872191207
 10
234.7673103762
 20
42.6748287875
 10
235.223393516
 20
43.9665330705
 10
235.7576283235
 20
45.2518890677
 10
236.3656957283
 20
46.5205052003
 10
237.0426797536
 20
47.7621252249
 10
237.78310726
 20
48.9667111503
 10
238.5809921931
 20
50.1245243909
 10
239.429883979
 20
51.2262044992
 10
240.3229196741
 20
52.2628448412
 10
241.2528794493
 20
53.2260646028
 10
242.2122449593
 20
54.1080765454
 10
243.1932601255
 20
54.9017499625
 10
244.1879938408
 20
55.6006683284
 10
245.188404089
 20
56.1991811733
 10
246.1864029617
 20
56.6924497652
 10
247.1739220452
 20
57.0764862289
 10
248.1429776508
 20
57.3481857864
 10
249.0857353595
 20
57.5053518574
 10
249.99457336
 20
57.5467138186
 10
250.8621440679
 20
57.4719372754
 10
251.6814335283
 20
57.2816267656
 10
252.4458181202
 20
56.9773208719
 10
253.1491181062
 20
56.5614797834
 10
253.7856475929
 20
56.0374654055
 10
253.848284906
 20
55.9764421389
  0
LWPOLYLINE
  5
257
330
1F
100
AcDbEntity
  8
0
  6
Continuous
 62
     7
370
    25
100
AcDbPolyline
 90
       26
 70
   128
 43
0.0
 10
231.5113921024
 20
38.1381029965
 10
231.5559058727
 20
39.3083738333
 10
231.6890887848
 20
40.5206168427
 10
231.9098685283
 20
41.7650717567
 10
232.2164675145
 20
43.0317189561
 10
232.6064171887
 20
44.3103601424
 10
233.0765779052
 20
45.5907004486
 10
233.6231642066
 20
46.8624313274
 10
234.2417753013
 20
48.1153135494
 10
234.9274304964
 20
49.3392596438
 10
235.6746092996
 20
50.5244151163
 10
236.4772958664
 20
51.6612377918
 10
237.3290274366
 20
52.7405746427
 10
238.2229463683
 20
53.7537354831
 10
239.151855352
 20
54.6925629378
 10
240.1082753587
 20
55.5494981202
 10
241.0845058569
 20
56.317641492
 10
242.0726868126
 20
56.9908084144
 10
243.0648619738
 20
57.5635789432
 10
244.0530429295
 20
58.0313414668
 10
245.0292734276
 20
58.3903298366
 10
245.9856934343
 20
58.6376536892
 10
246.914602418
 20
58.7713217183
 10
247.8085213498
 20
58.7902577076
 10
248.6602529199
 20
58.6943091957
 10
249.4098417652
 20
58.5021867983
  0
ARC
  5
258
330
1F
100
AcDbEntity
  8
0
  6
Continuous
 62
     7
370
    25
100
AcDbCircle
 10
243.6695277579
 20
38.0302981446
 30
0.0
 40
12.15706644166774
100
AcDbArc
 50
180.4744415793
 51
191.6440230834
  0
SPLINE
  5
259
330
1F
100
AcDbEntity
  8
0
  6
Continuous
 62
     7
370
    25
100
AcDbSpline
210
0.0
220
0.0
230
1.0
 70
     8
 71
     3
 72
    10
 73
     6
 74
     0
 42
0.000000001
 43
0.00000001
 40
0.0
 40
0.0
 40
0.0
 40
0.0
 40
0.5
 40
0.5
 40
1.0
 40
1.0
 40
1.0
 40
1.0
 10
240.3581048819965
 20
47.84432062931903
 30
0.0
 10
240.2541403912122
 20
47.91765900238941
 30
0.0
 10
240.1643321147849
 20
48.00489476018281
 30
0.0
 10
240.0122896867862
 20
48.20582530137881
 30
0.0
 10
239.9503840984252
 20
48.31999606757578
 30
0.0
 10
239.9059343938348
 20
48.44301375073589
 30
0.0
  0
SPLINE
  5
25A
330
1F
100
AcDbEntity
  8
0
  6
Continuous
 62
     7
370
    25
100
AcDbSpline
210
0.0
220
0.0
230
1.0
 70
     8
 71
     3
 72
    14
 73
    10
 74
     0
 42
0.000000001
 43
0.00000001
 40
0.0
 40
0.0
 40
0.0
 40
0.0
 40
0.25
 40
0.25
 40
0.5
 40
0.5
 40
0.75
 40
0.75
 40
1.0
 40
1.0
 40
1.0
 40
1.0
 10
239.9059343938348
 20
48.44301375073589
 30
0.0
 10
239.8832135909697
 20
48.50589517039343
 30
0.0
 10
239.8612990806202
 20
48.57494159986684
 30
0.0
 10
239.8191880265574
 20
48.72259411648561
 30
0.0
 10
239.7996664726443
 20
48.79899390334392
 30
0.0
 10
239.7613202304706
 20
48.95332619473952
 30
0.0
 10
239.7429606375868
 20
49.03027879107117
 30
0.0
 10
239.7009571930051
 20
49.17566895858715
 30
0.0
 10
239.6771808719921
 20
49.24225986478017
 30
0.0
 10
239.6487193678899
 20
49.28275548001153
 30
0.0
  0
LINE
  5
25B
330
1F
100
AcDbEntity
  8
0
  6
Continuous
 62
     7
370
    25
100
AcDbLine
 10
239.6487193679
 20
49.28275548
 30
0.0
 11
239.6314168144
 21
49.3073739101
 31
0.0
  0
LINE
  5
25C
330
1F
100
AcDbEntity
  8
0
  6
Continuous
 62
     7
370
    25
100
AcDbLine
 10
240.9756100552
 20
50.9795375228
 30
0.0
 11
240.9929126087
 21
50.9549190926
 31
0.0
  0
SPLINE
  5
25D
330
1F
100
AcDbEntity
  8
0
  6
Continuous
 62
     7
370
    25
100
AcDbSpline
210
0.0
220
0.0
230
1.0
 70
     8
 71
     3
 72
    16
 73
    12
 74
     0
 42
0.000000001
 43
0.00000001
 40
0.0
 40
0.0
 40
0.0
 40
0.0
 40
0.1250000000000001
 40
0.1250000000000001
 40
0.2500000000000003
 40
0.2500000000000003
 40
0.5000000000000002
 40
0.5000000000000002
 40
0.7500000000000001
 40
0.7500000000000001
 40
1.0
 40
1.0
 40
1.0
 40
1.0
 10
240.9929126087411
 20
50.95491909262481
 30
0.0
 10
241.0070650151452
 20
50.93478275681201
 30
0.0
 10
241.0287234196189
 20
50.91798533613459
 30
0.0
 10
241.0811413486542
 20
50.8911398148031
 30
0.0
 10
241.1117342277926
 20
50.88091433024212
 30
0.0
 10
241.2108150766501
 20
50.85641388980943
 30
0.0
 10
241.284697614266
 20
50.84815396740793
 30
0.0
 10
241.4377972066573
 20
50.83696800070302
 30
0.0
 10
241.5158811813049
 20
50.83437132895182
 30
0.0
 10
241.675224815047
 20
50.83234232811812
 30
0.0
 10
241.7538777098786
 20
50.83297991678035
 30
0.0
 10
241.8296301776712
 20
50.83607301759539
 30
0.0
  0
SPLINE
  5
25E
330
1F
100
AcDbEntity
  8
0
  6
Continuous
 62
     7
370
    25
100
AcDbSpline
210
0.0
220
0.0
230
1.0
 70
     8
 71
     3
 72
    10
 73
     6
 74
     0
 42
0.000000001
 43
0.00000001
 40
0.0
 40
0.0
 40
0.0
 40
0.0
 40
0.5
 40
0.5
 40
1.0
 40
1.0
 40
1.0
 40
1.0
 10
241.8296301776712
 20
50.83607301759539
 30
0.0
 10
241.977824517572
 20
50.84212404202915
 30
0.0
 10
242.1200489833026
 20
50.83196181181602
 30
0.0
 10
242.3924403736433
 20
50.78091137587594
 30
0.0
 10
242.5225677035119
 20
50.73955027323138
 30
0.0
 10
242.6406430456972
 20
50.6837764052791
 30
0.0
  0
LINE
  5
25F
330
1F
100
AcDbEntity
  8
0
  6
Continuous
 62
     7
370
    25
100
AcDbLine
 10
242.7958462638
 20
50.7121954681
 30
0.0
 11
242.7784531383
 21
50.7369427658
 31
0.0
  0
ARC
  5
260
330
1F
100
AcDbEntity
  8
0
  6
Continuous
 62
     7
370
    25
100
AcDbCircle
 10
225.3171722576
 20
45.9539685034
 30
0.0
 40
4.152065346120247
100
AcDbArc
 50
211.7707720659
 51
236.1875437047
  0
SPLINE
  5
261
330
1F
100
AcDbEntity
  8
0
  6
Continuous
 62
     7
370
    25
100
AcDbSpline
210
0.0
220
0.0
230
1.0
 70
     8
 71
     3
 72
     8
 73
     4
 74
     0
 42
0.000000001
 43
0.00000001
 40
0.0
 40
0.0
 40
0.0
 40
0.0
 40
1.0
 40
1.0
 40
1.0
 40
1.0
 10
223.2176893765604
 20
42.84307198604044
 30
0.0
 10
222.7409160847363
 20
43.15116479397307
 30
0.0
 10
222.2641137078914
 20
43.45939423954583
 30
0.0
 10
221.7872812633657
 20
43.76775939576574
 30
0.0
  0
SPLINE
  5
262
330
1F
100
AcDbEntity
  8
0
  6
Continuous
 62
     7
370
    25
100
AcDbSpline
210
0.0
220
0.0
230
1.0
 70
     8
 71
     3
 72
    23
 73
    19
 74
     0
 42
0.000000001
 43
0.00000001
 40
0.0
 40
0.0
 40
0.0
 40
0.0
 40
0.0521036415680443
 40
0.103564624093566
 40
0.1544751946749824
 40
0.2049306267488185
 40
0.2550287880859467
 40
0.3048696389155856
 40
0.3545546704622095
 40
0.4041862979533031
 40
0.4538672252131345
 40
0.503699799942109
 40
0.5901870230745642
 40
0.6742716378229198
 40
0.7565997087222741
 40
0.8378563983721098
 40
0.9187511781367312
 40
1.0
 40
1.0
 40
1.0
 40
1.0
 10
224.098254180102
 20
42.66834128792034
 30
0.0
 10
224.0929852411617
 20
42.65841982568553
 30
0.0
 10
224.0825123516611
 20
42.63869927495467
 30
0.0
 10
224.0632660558979
 20
42.6141314460025
 30
0.0
 10
224.0414703155649
 20
42.59344286374331
 30
0.0
 10
224.0168190243598
 20
42.57691192844637
 30
0.0
 10
223.9893225098209
 20
42.56439442887022
 30
0.0
 10
223.9589114558136
 20
42.55585980504784
 30
0.0
 10
223.9255410840412
 20
42.55124993239973
 30
0.0
 10
223.8891651957696
 20
42.5505151892632
 30
0.0
 10
223.849736824181
 20
42.55361027181442
 30
0.0
 10
223.7968884326313
 20
42.56214604729348
 30
0.0
 10
223.7283494388613
 20
42.57974248614052
 30
0.0
 10
223.640628206907
 20
42.61137909422637
 30
0.0
 10
223.545897287413
 20
42.6535587515591
 30
0.0
 10
223.4438630400831
 20
42.70629518728608
 30
0.0
 10
223.334949126894
 20
42.76861174319691
 30
0.0
 10
223.256832815908
 20
42.81821580144803
 30
0.0
 10
223.2176893765604
 20
42.84307198604043
 30
0.0
  0
SPLINE
  5
263
330
1F
100
AcDbEntity
  8
0
  6
Continuous
 62
     7
370
    25
100
AcDbSpline
210
0.0
220
0.0
230
1.0
 70
     8
 71
     3
 72
     8
 73
     4
 74
     0
 42
0.000000001
 43
0.00000001
 40
0.0
 40
0.0
 40
0.0
 40
0.0
 40
1.0
 40
1.0
 40
1.0
 40
1.0
 10
225.5717572065593
 20
41.7210211513619
 30
0.0
 10
225.0803898945168
 20
42.03689577133014
 30
0.0
 10
224.5890036945894
 20
42.35288179262035
 30
0.0
 10
224.0975979844443
 20
42.66897867346379
 30
0.0
  0
SPLINE
  5
264
330
1F
100
AcDbEntity
  8
0
  6
Continuous
 62
     7
370
    25
100
AcDbSpline
210
0.0
220
0.0
230
1.0
 70
     8
 71
     3
 72
    18
 73
    14
 74
     0
 42
0.000000001
 43
0.00000001
 40
0.0
 40
0.0
 40
0.0
 40
0.0
 40
0.0923824559454013
 40
0.1844689291647927
 40
0.2764953616046289
 40
0.368697536560166
 40
0.4613092840112267
 40
0.5545607518542827
 40
0.648676805161927
 40
0.7438756050201499
 40
0.8403674044321215
 40
0.9203921078133473
 40
1.0
 40
1.0
 40
1.0
 40
1.0
 10
226.3853213257555
 20
41.0767134268198
 30
0.0
 10
226.3617538116313
 20
41.09198740108601
 30
0.0
 10
226.3146942909782
 20
41.1224864135678
 30
0.0
 10
226.242296503013
 20
41.17211898618019
 30
0.0
 10
226.1688142941159
 20
41.22444852884971
 30
0.0
 10
226.0941148463702
 20
41.27976621455804
 30
0.0
 10
226.018254056602
 20
41.33800452967162
 30
0.0
 10
225.9412427758161
 20
41.39919744130869
 30
0.0
 10
225.8631106437366
 20
41.46336115788925
 30
0.0
 10
225.7838844090951
 20
41.53051011775485
 30
0.0
 10
225.7085879246872
 20
41.59636102749999
 30
0.0
 10
225.6377606165669
 20
41.65989261430749
 30
0.0
 10
225.5938562457604
 20
41.70055335932063
 30
0.0
 10
225.5719613789555
 20
41.72083064788891
 30
0.0
  0
LINE
  5
265
330
1F
100
AcDbEntity
  8
0
  6
Continuous
 62
     7
370
    25
100
AcDbLine
 10
227.0250275939
 20
40.6649594974
 30
0.0
 11
226.3853213258
 21
41.0767134268
 31
0.0
  0
SPLINE
  5
266
330
1F
100
AcDbEntity
  8
0
  6
Continuous
 62
     7
370
    25
100
AcDbSpline
210
0.0
220
0.0
230
1.0
 70
     8
 71
     3
 72
    25
 73
    21
 74
     0
 42
0.000000001
 43
0.00000001
 40
0.0
 40
0.0
 40
0.0
 40
0.0
 40
0.0280105225429284
 40
0.0559601148865716
 40
0.0839014045049481
 40
0.1118870776793418
 40
0.139969582759596
 40
0.1682008401746174
 40
0.1966319670429139
 40
0.2253130233144346
 40
0.2542927850736023
 40
0.3799486436577953
 40
0.5057850221666315
 40
0.6313085886301525
 40
0.7532068238011418
 40
0.8039473267944002
 40
0.8535894438536894
 40
0.9025339722376491
 40
0.9511970353779324
 40
1.0
 40
1.0
 40
1.0
 40
1.0
 10
228.1273934507457
 20
41.38086561069688
 30
0.0
 10
228.1323415582764
 20
41.3532417495891
 30
0.0
 10
228.142227009912
 20
41.29805411648329
 30
0.0
 10
228.1537626595153
 20
41.21889340911275
 30
0.0
 10
228.1628357813282
 20
41.14259007001395
 30
0.0
 10
228.1692045900412
 20
41.06939430904415
 30
0.0
 10
228.1729208288514
 20
40.99924684083077
 30
0.0
 10
228.1739574498341
 20
40.9321705543182
 30
0.0
 10
228.1723089746072
 20
40.86816664509218
 30
0.0
 10
228.1679628227382
 20
40.80723779182595
 30
0.0
 10
228.15310649817
 20
40.68534967033031
 30
0.0
 10
228.1080182411035
 20
40.53044879867694
 30
0.0
 10
227.9946587206146
 20
40.39950568033316
 30
0.0
 10
227.83283449862
 20
40.34362927952265
 30
0.0
 10
227.6588192794888
 20
40.36350333190533
 30
0.0
 10
227.5074583588034
 20
40.41082113425843
 30
0.0
 10
227.3970581261065
 20
40.45573655799297
 30
0.0
 10
227.2798986306577
 20
40.51311228928419
 30
0.0
 10
227.1563329637221
 20
40.58178935373816
 30
0.0
 10
227.0688379136255
 20
40.63720959969243
 30
0.0
 10
227.0250275939428
 20
40.66495949742344
 30
0.0
  0
ARC
  5
267
330
1F
100
AcDbEntity
  8
0
  6
Continuous
 62
     7
370
    25
100
AcDbCircle
 10
239.3203917828
 20
43.1669161469
 30
0.0
 40
11.33460136834024
100
AcDbArc
 50
170.9338278112
 51
189.0661721888
  0
SPLINE
  5
268
330
1F
100
AcDbEntity
  8
0
  6
Continuous
 62
     7
370
    25
100
AcDbSpline
210
0.0
220
0.0
230
1.0
 70
     8
 71
     3
 72
    26
 73
    22
 74
     0
 42
0.000000001
 43
0.00000001
 40
0.0
 40
0.0
 40
0.0
 40
0.0
 40
0.0241259796961556
 40
0.0482159912269293
 40
0.0723203915119221
 40
0.0964895678705268
 40
0.1207736231957763
 40
0.1452220711237314
 40
0.1698835501652852
 40
0.1948055644468628
 40
0.220034256951538
 40
0.2456142191611052
 40
0.3690971486895253
 40
0.4940698769485128
 40
0.6192566784762408
 40
0.7454656653603202
 40
0.7971495824713681
 40
0.848171030840538
 40
0.8988013269235222
 40
0.9493179290492182
 40
1.0
 40
1.0
 40
1.0
 40
1.0
 10
227.0250275939428
 20
48.42906988878796
 30
0.0
 10
227.0467458233186
 20
48.41473836539299
 30
0.0
 10
227.0901499034944
 20
48.38609668472416
 30
0.0
 10
227.1534570208553
 20
48.33810438679563
 30
0.0
 10
227.215318588573
 20
48.28650518891016
 30
0.0
 10
227.2756231037093
 20
48.23093039603702
 30
0.0
 10
227.3344129556491
 20
48.17147515540993
 30
0.0
 10
227.3916934740789
 20
48.10811084657247
 30
0.0
 10
227.4474846134053
 20
48.04084206860843
 30
0.0
 10
227.5018058608274
 20
47.9696679546481
 30
0.0
 10
227.5546848360368
 20
47.89457881489954
 30
0.0
 10
227.6714796607735
 20
47.71532436619854
 30
0.0
 10
227.8333492187002
 20
47.40501889435504
 30
0.0
 10
227.9965341262317
 20
46.93510510622308
 30
0.0
 10
228.1080455314055
 20
46.43614207231229
 30
0.0
 10
228.155179369514
 20
46.02725839925527
 30
0.0
 10
228.1702983090465
 20
45.72298644266457
 30
0.0
 10
228.172251448029
 20
45.52173720096926
 30
0.0
 10
228.1657734223899
 20
45.32607728124667
 30
0.0
 10
228.1516464997028
 20
45.1354409933492
 30
0.0
 10
228.1354866080178
 20
45.01385771961039
 30
0.0
 10
228.1273934507457
 20
44.9529666830115
 30
0.0
  0
LINE
  5
269
330
1F
100
AcDbEntity
  8
0
  6
Continuous
 62
     7
370
    25
100
AcDbLine
 10
226.3853213258
 20
48.8420449018
 30
0.0
 11
227.0250275939
 21
48.4290698888
 31
0.0
  0
SPLINE
  5
26A
330
1F
100
AcDbEntity
  8
0
  6
Continuous
 62
     7
370
    25
100
AcDbSpline
210
0.0
220
0.0
230
1.0
 70
     8
 71
     3
 72
    14
 73
    10
 74
     0
 42
0.000000001
 43
0.00000001
 40
0.0
 40
0.0
 40
0.0
 40
0.0
 40
0.0789261963157259
 40
0.1582328720528836
 40
0.330847539454808
 40
0.5000195457586954
 40
0.6670357883553091
 40
0.833239519364563
 40
1.0
 40
1.0
 40
1.0
 40
1.0
 10
225.571368609904
 20
49.05062717207287
 30
0.0
 10
225.5930854912395
 20
49.05223033593128
 30
0.0
 10
225.6366239444545
 20
49.05544439201822
 30
0.0
 10
225.7281490631029
 20
49.05626543208633
 30
0.0
 10
225.8450573965357
 20
49.04832945030359
 30
0.0
 10
225.9858777349176
 20
49.02205378142599
 30
0.0
 10
226.12309004273
 20
48.97909618289373
 30
0.0
 10
226.2570207171472
 20
48.92073905808379
 30
0.0
 10
226.3425068091069
 20
48.86830551193349
 30
0.0
 10
226.3853213257555
 20
48.84204490177885
 30
0.0
  0
SPLINE
  5
26B
330
1F
100
AcDbEntity
  8
0
  6
Continuous
 62
     7
370
    25
100
AcDbSpline
210
0.0
220
0.0
230
1.0
 70
     8
 71
     3
 72
     8
 73
     4
 74
     0
 42
0.000000001
 43
0.00000001
 40
0.0
 40
0.0
 40
0.0
 40
0.0
 40
1.0
 40
1.0
 40
1.0
 40
1.0
 10
223.7690650268998
 20
50.21301858348528
 30
0.0
 10
224.3698232505958
 20
49.82575110032647
 30
0.0
 10
224.970552113456
 20
49.43828375040325
 30
0.0
 10
225.5712527578028
 20
49.05061685781372
 30
0.0
  0
SPLINE
  5
26C
330
1F
100
AcDbEntity
  8
0
  6
Continuous
 62
     7
370
    25
100
AcDbSpline
210
0.0
220
0.0
230
1.0
 70
     8
 71
     3
 72
    13
 73
     9
 74
     0
 42
0.000000001
 43
0.00000001
 40
0.0
 40
0.0
 40
0.0
 40
0.0
 40
0.1667030582308063
 40
0.3329480818053115
 40
0.4990671507274935
 40
0.6653938523718516
 40
0.8322612710550141
 40
1.0
 40
1.0
 40
1.0
 40
1.0
 10
223.4272364918654
 20
50.51408336257106
 30
0.0
 10
223.4475376743054
 20
50.50051825589183
 30
0.0
 10
223.488084259494
 20
50.47342531412899
 30
0.0
 10
223.5472338964817
 20
50.42823074112127
 30
0.0
 10
223.6050054413842
 20
50.37981959263832
 30
0.0
 10
223.6612551788438
 20
50.32778447786786
 30
0.0
 10
223.7161823875899
 20
50.27248651065884
 30
0.0
 10
223.7514030971805
 20
50.23286925549847
 30
0.0
 10
223.7690593091214
 20
50.21300904649755
 30
0.0
  0
SPLINE
  5
26D
330
1F
100
AcDbEntity
  8
0
  6
Continuous
 62
     7
370
    25
100
AcDbSpline
210
0.0
220
0.0
230
1.0
 70
     8
 71
     3
 72
     8
 73
     4
 74
     0
 42
0.000000001
 43
0.00000001
 40
0.0
 40
0.0
 40
0.0
 40
0.0
 40
1.0
 40
1.0
 40
1.0
 40
1.0
 10
221.4832559760747
 20
51.76880521495053
 30
0.0
 10
222.1312860484749
 20
51.35080989906578
 30
0.0
 10
222.7792790255768
 20
50.93256913664815
 30
0.0
 10
223.4272364918654
 20
50.51408336257106
 30
0.0
  0
LWPOLYLINE
  5
26E
330
1F
100
AcDbEntity
  8
0
  6
Continuous
 62
     7
370
    25
100
AcDbPolyline
 90
       20
 70
   128
 43
0.0
 10
221.4832559761
 20
51.7688052151
 10
221.8659051814
 20
52.8827682535
 10
222.3281157111
 20
53.9909824848
 10
222.864714486
 20
55.08104473
 10
223.4696958708
 20
56.1407549677
 10
224.1362888889
 20
57.1582528775
 10
224.857033004
 20
58.1221505811
 10
225.6238616184
 20
59.021660096
 10
226.4281923547
 20
59.8467140747
 10
227.2610231106
 20
60.5880784792
 10
228.1130328099
 20
61.2374559289
 10
228.9746857252
 20
61.7875785647
 10
229.8363382017
 20
62.2322893914
 10
230.6883465898
 20
62.5666111873
 10
231.5211751764
 20
62.7868022092
 10
232.32550291
 20
62.8903980701
 10
233.0923277216
 20
62.8762393208
 10
233.8130672765
 20
62.7444844267
 10
234.4796550281
 20
62.496607994
 10
234.5329941693
 20
62.4705521814
  0
SPLINE
  5
26F
330
1F
100
AcDbEntity
  8
0
  6
Continuous
 62
     7
370
    25
100
AcDbSpline
210
0.0
220
0.0
230
1.0
 70
    11
 71
     3
 72
    39
 73
    35
 74
     0
 42
0.000000001
 43
0.00000001
 40
0.0
 40
0.0
 40
0.0
 40
0.0
 40
0.0310664058348413
 40
0.0621048158426138
 40
0.0931361551796939
 40
0.1235538293503726
 40
0.1538561545809849
 40
0.1850588072749156
 40
0.2160250992946587
 40
0.2471867223797568
 40
0.2784462884304475
 40
0.3100516090231247
 40
0.3419834369138969
 40
0.3734259894013238
 40
0.4048604886787081
 40
0.436874065183343
 40
0.4685120685926471
 40
0.499805535863323
 40
0.5309508213226204
 40
0.5618649784438111
 40
0.5930416446590877
 40
0.623374245013332
 40
0.6540913579072549
 40
0.6849496782718453
 40
0.7158160645166705
 40
0.7471731804043553
 40
0.7784514311866318
 40
0.810129591156098
 40
0.8419598919688388
 40
0.8735175891922303
 40
0.9050808037886594
 40
0.9370235169792582
 40
0.9687441590030581
 40
1.0
 40
1.0
 40
1.0
 40
1.0
 10
234.69184145728
 20
60.77399559029196
 30
0.0
 10
234.9547270774782
 20
60.74546110300185
 30
0.0
 10
235.4816156879617
 20
60.65951861468024
 30
0.0
 10
236.2456277570377
 20
60.45914349460779
 30
0.0
 10
236.9527779450886
 20
60.21214138838828
 30
0.0
 10
237.5656890096841
 20
59.93415951023518
 30
0.0
 10
238.0628203353545
 20
59.64002581290645
 30
0.0
 10
238.422012056428
 20
59.33851928471422
 30
0.0
 10
238.6437313251868
 20
59.0315217798118
 30
0.0
 10
238.7089832025689
 20
58.72101651841012
 30
0.0
 10
238.622135991455
 20
58.40187203366129
 30
0.0
 10
238.3797904036967
 20
58.0725520680891
 30
0.0
 10
237.9998525409703
 20
57.73361134653144
 30
0.0
 10
237.4860465878104
 20
57.3957728821208
 30
0.0
 10
236.8601557769004
 20
57.06987498080996
 30
0.0
 10
236.1466847904085
 20
56.77322808757047
 30
0.0
 10
235.3827823141442
 20
56.51712477913352
 30
0.0
 10
234.5969892312426
 20
56.32809721114273
 30
0.0
 10
233.8154517762027
 20
56.21992128908948
 30
0.0
 10
233.0593387914502
 20
56.21225740571978
 30
0.0
 10
232.3569742050567
 20
56.31017944110592
 30
0.0
 10
231.737953858014
 20
56.53182787460842
 30
0.0
 10
231.2288965930003
 20
56.86769596152015
 30
0.0
 10
230.8559529995664
 20
57.30750652770092
 30
0.0
 10
230.627351048318
 20
57.81858116822357
 30
0.0
 10
230.5585047415987
 20
58.369766255987
 30
0.0
 10
230.6431211548238
 20
58.92743818429876
 30
0.0
 10
230.8862299447586
 20
59.45751832521774
 30
0.0
 10
231.2683597875764
 20
59.93004267433047
 30
0.0
 10
231.7844953619867
 20
60.31616418522371
 30
0.0
 10
232.4114732224886
 20
60.59978837255684
 30
0.0
 10
233.1273806548524
 20
60.76952559128326
 30
0.0
 10
233.8958240470381
 20
60.83106442599457
 30
0.0
 10
234.4273528264105
 20
60.802704073739
 30
0.0
 10
234.69184145728
 20
60.77399559029195
 30
0.0
  0
LINE
  5
270
330
1F
100
AcDbEntity
  8
0
  6
Continuous
 62
     7
370
    25
100
AcDbLine
 10
225.4673044695
 20
44.3348685635
 30
0.0
 11
225.7813490766
 21
44.1667247791
 31
0.0
  0
LINE
  5
271
330
1F
100
AcDbEntity
  8
0
  6
Continuous
 62
     7
370
    25
100
AcDbLine
 10
224.4803454305
 20
44.904627889
 30
0.0
 11
225.4673044695
 21
44.3348685635
 31
0.0
  0
ARC
  5
272
330
1F
100
AcDbEntity
  8
0
  6
Continuous
 62
     7
370
    25
100
AcDbCircle
 10
226.70131405
 20
48.4981256622
 30
0.0
 40
4.484291989684152
100
AcDbArc
 50
267.6840937494
 51
286.9865889436
  0
SPLINE
  5
273
330
1F
100
AcDbEntity
  8
0
  6
Continuous
 62
     7
370
    25
100
AcDbSpline
210
0.0
220
0.0
230
1.0
 70
     8
 71
     3
 72
    16
 73
    12
 74
     0
 42
0.000000001
 43
0.00000001
 40
0.0
 40
0.0
 40
0.0
 40
0.0
 40
0.150516077399111
 40
0.2631372176921825
 40
0.3788385653419636
 40
0.4915726627001814
 40
0.6082157173107122
 40
0.7115656327827937
 40
0.8179798858712657
 40
0.9203357686923422
 40
1.0
 40
1.0
 40
1.0
 40
1.0
 10
236.0303472521067
 20
57.77149995742917
 30
0.0
 10
235.8255141695913
 20
57.88388891010168
 30
0.0
 10
235.4674181551602
 20
58.08037101896746
 30
0.0
 10
234.8686829610482
 20
58.344529670756
 30
0.0
 10
234.2924676108086
 20
58.55676151417212
 30
0.0
 10
233.6799074061333
 20
58.72871637740187
 30
0.0
 10
233.0785324900093
 20
58.83665330355278
 30
0.0
 10
232.495837462101
 20
58.87538729365836
 30
0.0
 10
231.961210736443
 20
58.84093775169455
 30
0.0
 10
231.4929121022382
 20
58.74991762477097
 30
0.0
 10
231.2340637866619
 20
58.6390458859268
 30
0.0
 10
231.1207743725531
 20
58.59052096388155
 30
0.0
  0
SPLINE
  5
274
330
1F
100
AcDbEntity
  8
0
  6
Continuous
 62
     7
370
    25
100
AcDbSpline
210
0.0
220
0.0
230
1.0
 70
     8
 71
     3
 72
    10
 73
     6
 74
     0
 42
0.000000001
 43
0.00000001
 40
0.0
 40
0.0
 40
0.0
 40
0.0
 40
0.3798174487068085
 40
0.9603712743693659
 40
1.0
 40
1.0
 40
1.0
 40
1.0
 10
237.1702277011535
 20
57.24327293464795
 30
0.0
 10
237.0405750428083
 20
57.31360164054632
 30
0.0
 10
236.712747321506
 20
57.49142830211315
 30
0.0
 10
236.30481891786
 20
57.66448060261131
 30
0.0
 10
236.0481861192867
 20
57.76368624921212
 30
0.0
 10
236.0317876721822
 20
57.77002533976207
 30
0.0
  0
SPLINE
  5
275
330
1F
100
AcDbEntity
  8
0
  6
Continuous
 62
     7
370
    25
100
AcDbSpline
210
0.0
220
0.0
230
1.0
 70
     8
 71
     3
 72
    24
 73
    20
 74
     0
 42
0.000000001
 43
0.00000001
 40
0.0
 40
0.0
 40
0.0
 40
0.0
 40
0.0618857619093494
 40
0.1150115624342297
 40
0.1593831322308222
 40
0.2428114832232123
 40
0.3183318386985426
 40
0.3935543620449526
 40
0.420484316839609
 40
0.4483397365001899
 40
0.477128677518787
 40
0.5451537674268876
 40
0.6363475914367293
 40
0.6968782742038289
 40
0.7498596592257523
 40
0.7959701139281281
 40
0.8771179876705577
 40
0.9543004325059576
 40
1.0
 40
1.0
 40
1.0
 40
1.0
 10
234.636962516235
 20
60.20013772776949
 30
0.0
 10
234.4530059504063
 20
60.21903210270941
 30
0.0
 10
234.111131965127
 20
60.25414634411182
 30
0.0
 10
233.6469138814323
 20
60.24765696627425
 30
0.0
 10
233.1374523485544
 20
60.19993206861261
 30
0.0
 10
232.5983571936431
 20
60.07531573524442
 30
0.0
 10
232.0555200843438
 20
59.83282493804407
 30
0.0
 10
231.7151258950794
 20
59.57545364823159
 30
0.0
 10
231.5084994753602
 20
59.36064471098225
 30
0.0
 10
231.3905155576612
 20
59.21414267356828
 30
0.0
 10
231.2383454624369
 20
58.98439057462225
 30
0.0
 10
231.0716639128077
 20
58.61144916750013
 30
0.0
 10
231.0033035924552
 20
58.14889011097986
 30
0.0
 10
231.053657780589
 20
57.72055623931335
 30
0.0
 10
231.1590876554441
 20
57.40063032832573
 30
0.0
 10
231.3412864155385
 20
57.06016406696082
 30
0.0
 10
231.642165430534
 20
56.72421619825538
 30
0.0
 10
232.0318501313169
 20
56.45115748642167
 30
0.0
 10
232.3247689769915
 20
56.35720181556491
 30
0.0
 10
232.4337048928707
 20
56.32225989493413
 30
0.0
  0
SPLINE
  5
276
330
1F
100
AcDbEntity
  8
0
  6
Continuous
 62
     7
370
    25
100
AcDbSpline
210
0.0
220
0.0
230
1.0
 70
     8
 71
     3
 72
    22
 73
    18
 74
     0
 42
0.000000001
 43
0.00000001
 40
0.0
 40
0.0
 40
0.0
 40
0.0
 40
0.0219614350649738
 40
0.0803652114651397
 40
0.1456638403585972
 40
0.21789694387348
 40
0.2799150498546654
 40
0.3332793472081466
 40
0.3779895055229293
 40
0.4140481372238363
 40
0.517328140944588
 40
0.609398085778404
 40
0.7028413953962249
 40
0.7526499641548304
 40
0.804559245215462
 40
0.8937466539091778
 40
1.0
 40
1.0
 40
1.0
 40
1.0
 10
237.9418115329556
 20
57.72281112598576
 30
0.0
 10
237.9649793963537
 20
57.74466635415913
 30
0.0
 10
238.0497593861711
 20
57.82464291436913
 30
0.0
 10
238.1563908282191
 20
57.96680494523451
 30
0.0
 10
238.2536459189472
 20
58.15558366853836
 30
0.0
 10
238.2846722646311
 20
58.34154830718848
 30
0.0
 10
238.2553242685242
 20
58.51336298969406
 30
0.0
 10
238.186817397719
 20
58.66017014488035
 30
0.0
 10
238.0990071653928
 20
58.78137943071046
 30
0.0
 10
237.9447148746366
 20
58.94696428112897
 30
0.0
 10
237.6768891462
 20
59.15712756947276
 30
0.0
 10
237.2253191962064
 20
59.41257207801274
 30
0.0
 10
236.7777563552394
 20
59.61920780651969
 30
0.0
 10
236.3688628617558
 20
59.77771265089093
 30
0.0
 10
235.9467828968117
 20
59.92022876018407
 30
0.0
 10
235.3684703618393
 20
60.08348622843174
 30
0.0
 10
234.894591538684
 20
60.15905435194217
 30
0.0
 10
234.636962516235
 20
60.20013772776949
 30
0.0
  0
LINE
  5
277
330
1F
100
AcDbEntity
  8
0
  6
Continuous
 62
     7
370
    25
100
AcDbLine
 10
228.1273934507
 20
44.952966683
 30
0.0
 11
228.1221549073
 21
45.2490501019
 31
0.0
  0
LINE
  5
278
330
1F
100
AcDbEntity
  8
0
  6
Continuous
 62
     7
370
    25
100
AcDbLine
 10
228.1221549073
 20
45.2490501019
 30
0.0
 11
228.1652540563
 21
45.9006933932
 31
0.0
  0
LINE
  5
279
330
1F
100
AcDbEntity
  8
0
  6
Continuous
 62
     7
370
    25
100
AcDbLine
 10
227.6426064874
 20
47.7297383567
 30
0.0
 11
227.3311917174
 21
48.0583346191
 31
0.0
  0
SPLINE
  5
27A
330
1F
100
AcDbEntity
  8
0
  6
Continuous
 62
     7
370
    25
100
AcDbSpline
210
0.0
220
0.0
230
1.0
 70
     8
 71
     3
 72
    24
 73
    20
 74
     0
 42
0.000000001
 43
0.00000001
 40
0.0
 40
0.0
 40
0.0
 40
0.0
 40
0.0208485373664354
 40
0.0823376247214858
 40
0.1455705549100021
 40
0.2075413813861531
 40
0.2714247518575092
 40
0.3315017366461557
 40
0.3933547140842994
 40
0.4529343674602032
 40
0.5141802400798228
 40
0.5749476280822056
 40
0.6373706675512865
 40
0.7000294854400771
 40
0.7648697537683988
 40
0.8126336564436505
 40
0.8609398673431574
 40
0.9190455624035513
 40
1.0
 40
1.0
 40
1.0
 40
1.0
 10
231.0339744793225
 20
57.95098945977217
 30
0.0
 10
231.0312551401093
 20
58.00383912523929
 30
0.0
 10
231.0205155890467
 20
58.21255956664986
 30
0.0
 10
231.09253611888
 20
58.55564201597928
 30
0.0
 10
231.2546245911263
 20
58.9672907169278
 30
0.0
 10
231.5169608265016
 20
59.33662621958101
 30
0.0
 10
231.8584767815866
 20
59.64479740728
 30
0.0
 10
232.2742493649583
 20
59.88850753566465
 30
0.0
 10
232.7400168512544
 20
60.05830896693426
 30
0.0
 10
233.2542481630403
 20
60.15574125371329
 30
0.0
 10
233.7956601899153
 20
60.17735540553526
 30
0.0
 10
234.3600608382793
 20
60.12095004069246
 30
0.0
 10
234.9269085355436
 20
59.98387641706055
 30
0.0
 10
235.4848659539123
 20
59.75804053920402
 30
0.0
 10
235.9575476209168
 20
59.46043053596829
 30
0.0
 10
236.3145417178723
 20
59.08950887293344
 30
0.0
 10
236.5093841423309
 20
58.65719024987025
 30
0.0
 10
236.5384153872329
 20
58.15424810517104
 30
0.0
 10
236.4760412690867
 20
57.82050331148712
 30
0.0
 10
236.4397299154396
 20
57.6262123845534
 30
0.0
  0
SPLINE
  5
27B
330
1F
100
AcDbEntity
  8
0
  6
Continuous
 62
     7
370
    25
100
AcDbSpline
210
0.0
220
0.0
230
1.0
 70
     8
 71
     3
 72
    10
 73
     6
 74
     0
 42
0.000000001
 43
0.00000001
 40
0.0
 40
0.0
 40
0.0
 40
0.0
 40
0.2951234317500035
 40
0.980395766237468
 40
1.0
 40
1.0
 40
1.0
 40
1.0
 10
236.4424577904194
 20
57.6249738265489
 30
0.0
 10
236.5252818027273
 20
57.58620885223126
 30
0.0
 10
236.8004219721401
 20
57.45743216895013
 30
0.0
 10
237.0754228759139
 20
57.31619870539626
 30
0.0
 10
237.2239431914452
 20
57.22217881013819
 30
0.0
 10
237.228073882002
 20
57.21956390124777
 30
0.0
  0
ARC
  5
27C
330
1F
100
AcDbEntity
  8
0
  6
Continuous
 62
     7
370
    25
100
AcDbCircle
 10
240.4524656367
 20
43.4117637567
 30
0.0
 40
12.46644230717985
100
AcDbArc
 50
171.5249591672
 51
179.8212373334
  0
SPLINE
  5
27D
330
1F
100
AcDbEntity
  8
0
  6
Continuous
 62
     7
370
    25
100
AcDbSpline
210
0.0
220
0.0
230
1.0
 70
     8
 71
     3
 72
    14
 73
    10
 74
     0
 42
0.000000001
 43
0.00000001
 40
0.0
 40
0.0
 40
0.0
 40
0.0
 40
0.0003951393068452
 40
0.0003951393068452
 40
0.0003951393068452
 40
0.0008163352168664
 40
0.0008163352168664
 40
0.0008163352168664
 40
0.001237857933722
 40
0.001237857933722
 40
0.001237857933722
 40
0.001237857933722
 10
236.0343799911191
 20
57.77022092157191
 30
0.0
 10
236.0798418053503
 20
57.75578405894688
 30
0.0
 10
236.1247294099714
 20
57.74091819838127
 30
0.0
 10
236.1690131026465
 20
57.7256344107758
 30
0.0
 10
236.2162163948859
 20
57.7093429714381
 30
0.0
 10
236.262742207945
 20
57.6925734933542
 30
0.0
 10
236.3085531171866
 20
57.67534468255891
 30
0.0
 10
236.3543995051758
 20
57.65810252872726
 30
0.0
 10
236.3995387407482
 20
57.64039682252276
 30
0.0
 10
236.4439322987905
 20
57.62225396583197
 30
0.0
  0
LINE
  5
27E
330
1F
100
AcDbEntity
  8
0
  6
Continuous
 62
     7
370
    25
100
AcDbLine
 10
227.3311917174
 20
48.0583346191
 30
0.0
 11
226.6912555221
 21
48.4705663561
 31
0.0
  0
LINE
  5
27F
330
1F
100
AcDbEntity
  8
0
  6
Continuous
 62
     7
370
    25
100
AcDbLine
 10
226.3853213258
 20
48.8420449018
 30
0.0
 11
226.6912555221
 21
48.4705663561
 31
0.0
  0
SPLINE
  5
280
330
1F
100
AcDbEntity
  8
0
  6
Continuous
 62
     7
370
    25
100
AcDbSpline
210
0.0
220
0.0
230
1.0
 70
     8
 71
     3
 72
    13
 73
     9
 74
     0
 42
0.000000001
 43
0.00000001
 40
0.0
 40
0.0
 40
0.0
 40
0.0
 40
0.1618542298851556
 40
0.3254858841553913
 40
0.4910085196606994
 40
0.6585318472790896
 40
0.8281616954204367
 40
1.0
 40
1.0
 40
1.0
 40
1.0
 10
226.6912555220975
 20
48.47056635614199
 30
0.0
 10
226.67167813008
 20
48.48312933317514
 30
0.0
 10
226.6323083542343
 20
48.50839324929375
 30
0.0
 10
226.570772414464
 20
48.5410869462086
 30
0.0
 10
226.5072157552146
 20
48.57003301991548
 30
0.0
 10
226.4415976525579
 20
48.59454538738109
 30
0.0
 10
226.374170383503
 20
48.61498045073461
 30
0.0
 10
226.3282857833046
 20
48.62457710572438
 30
0.0
 10
226.3051951031295
 20
48.62940646655917
 30
0.0
  0
SPLINE
  5
281
330
1F
100
AcDbEntity
  8
0
  6
Continuous
 62
     7
370
    25
100
AcDbSpline
210
0.0
220
0.0
230
1.0
 70
     8
 71
     3
 72
     9
 73
     5
 74
     0
 42
0.000000001
 43
0.00000001
 40
0.0
 40
0.0
 40
0.0
 40
0.0
 40
0.4907282259505932
 40
1.0
 40
1.0
 40
1.0
 40
1.0
 10
226.3051892758376
 20
48.62937846952816
 30
0.0
 10
226.2810957533598
 20
48.63747400174628
 30
0.0
 10
226.2319982668006
 20
48.65397097866755
 30
0.0
 10
226.1812975729804
 20
48.66876464768378
 30
0.0
 10
226.1554771406931
 20
48.67629864574837
 30
0.0
  0
SPLINE
  5
282
330
1F
100
AcDbEntity
  8
0
  6
Continuous
 62
     7
370
    25
100
AcDbSpline
210
0.0
220
0.0
230
1.0
 70
     8
 71
     3
 72
    14
 73
    10
 74
     0
 42
0.000000001
 43
0.00000001
 40
0.0
 40
0.0
 40
0.0
 40
0.0
 40
0.0310276388067353
 40
0.062285371866867
 40
0.124800316690094
 40
0.2498289731750666
 40
0.4998892603608338
 40
0.7606803621459556
 40
1.0
 40
1.0
 40
1.0
 40
1.0
 10
225.5715364514047
 20
49.05040638839422
 30
0.0
 10
225.5775286908091
 20
49.04657534474065
 30
0.0
 10
225.5895576067684
 20
49.03888484724301
 30
0.0
 10
225.6136174148174
 20
49.02344695773636
 30
0.0
 10
225.6558510874637
 20
48.99637650480553
 30
0.0
 10
225.7404136619759
 20
48.94216448001011
 30
0.0
 10
225.8637006314421
 20
48.86316129814688
 30
0.0
 10
226.0098323378952
 20
48.76955512346906
 30
0.0
 10
226.1081989544364
 20
48.70657204707678
 30
0.0
 10
226.1552706551253
 20
48.67643254828494
 30
0.0
  0
LINE
  5
283
330
1F
100
AcDbEntity
  8
0
  6
Continuous
 62
     7
370
    25
100
AcDbLine
 10
223.7690361847
 20
50.2130371895
 30
0.0
 11
224.0600030193
 21
50.0249587605
 31
0.0
  0
SPLINE
  5
284
330
1F
100
AcDbEntity
  8
0
  6
Continuous
 62
     7
370
    25
100
AcDbSpline
210
0.0
220
0.0
230
1.0
 70
     8
 71
     3
 72
     8
 73
     4
 74
     0
 42
0.000000001
 43
0.00000001
 40
0.0
 40
0.0
 40
0.0
 40
0.0
 40
1.0
 40
1.0
 40
1.0
 40
1.0
 10
224.0913919537
 20
50.00473599608309
 30
0.0
 10
224.0809494478482
 20
50.01156142098049
 30
0.0
 10
224.0704835149584
 20
50.01830438776701
 30
0.0
 10
224.0599957501418
 20
50.02496347541999
 30
0.0
  0
SPLINE
  5
285
330
1F
100
AcDbEntity
  8
0
  6
Continuous
 62
     7
370
    25
100
AcDbSpline
210
0.0
220
0.0
230
1.0
 70
     8
 71
     3
 72
     8
 73
     4
 74
     0
 42
0.000000001
 43
0.00000001
 40
0.0
 40
0.0
 40
0.0
 40
0.0
 40
1.0
 40
1.0
 40
1.0
 40
1.0
 10
221.3053875748762
 20
51.88299164789217
 30
0.0
 10
221.3643873390461
 20
51.84425098097321
 30
0.0
 10
221.4236749025567
 20
51.80618900367391
 30
0.0
 10
221.4832559760451
 20
51.76880521521363
 30
0.0
  0
SPLINE
  5
286
330
1F
100
AcDbEntity
  8
0
  6
Continuous
 62
     7
370
    25
100
AcDbSpline
210
0.0
220
0.0
230
1.0
 70
     8
 71
     3
 72
     8
 73
     4
 74
     0
 42
0.000000001
 43
0.00000001
 40
0.0
 40
0.0
 40
0.0
 40
0.0
 40
1.0
 40
1.0
 40
1.0
 40
1.0
 10
221.2805378287766
 20
52.24620182583049
 30
0.0
 10
221.2880120408672
 20
52.12524398511864
 30
0.0
 10
221.2963081447573
 20
52.00417214270799
 30
0.0
 10
221.3053875748762
 20
51.88299164789217
 30
0.0
  0
LWPOLYLINE
  5
287
330
1F
100
AcDbEntity
  8
0
  6
Continuous
 62
     7
370
    25
100
AcDbPolyline
 90
       15
 70
   128
 43
0.0
 10
221.2805378288
 20
52.2462018258
 10
221.6741371705
 20
53.3551105624
 10
222.1488053328
 20
54.4558786167
 10
222.6988584501
 20
55.5353249542
 10
223.3177099675
 20
56.5805238549
 10
223.9979495108
 20
57.5789596913
 10
224.7314316209
 20
58.5186767953
 10
225.5093732913
 20
59.3884226204
 10
226.3224591387
 20
60.1777824841
 10
227.1609529498
 20
60.8773042771
 10
228.0148142659
 20
61.4786116474
 10
228.873818612
 20
61.974504301
 10
229.7276799282
 20
62.359044222
 10
230.5661737392
 20
62.6276267766
 10
231.2445000544
 20
62.7603095897
  0
SPLINE
  5
288
330
1F
100
AcDbEntity
  8
0
  6
Continuous
 62
     7
370
    25
100
AcDbSpline
210
0.0
220
0.0
230
1.0
 70
     8
 71
     3
 72
    10
 73
     6
 74
     0
 42
0.000000001
 43
0.00000001
 40
0.0
 40
0.0
 40
0.0
 40
0.0
 40
0.2409820260313681
 40
0.5031431986319085
 40
1.0
 40
1.0
 40
1.0
 40
1.0
 10
227.3311917174262
 20
41.35249320145004
 30
0.0
 10
227.4134377456236
 20
41.30081668948153
 30
0.0
 10
227.58515814479
 20
41.1929219806762
 30
0.0
 10
227.8628783265293
 20
41.06319870000217
 30
0.0
 10
227.9838561139096
 20
41.08597680350166
 30
0.0
 10
228.0630487529984
 20
41.10088745915689
 30
0.0
  0
LINE
  5
289
330
1F
100
AcDbEntity
  8
0
  6
Continuous
 62
     7
370
    25
100
AcDbLine
 10
222.5480182629
 20
51.0815655549
 30
0.0
 11
221.7861388813
 21
51.5722004736
 31
0.0
  0
LINE
  5
28A
330
1F
100
AcDbEntity
  8
0
  6
Continuous
 62
     7
370
    25
100
AcDbLine
 10
221.7861388813
 20
51.5722004736
 30
0.0
 11
221.3053875749
 21
51.8829916479
 31
0.0
  0
LINE
  5
28B
330
1F
100
AcDbEntity
  8
0
  6
Continuous
 62
     7
370
    25
100
AcDbLine
 10
226.3853213258
 20
41.0767134268
 30
0.0
 11
226.6912555221
 21
41.7647249385
 31
0.0
  0
LINE
  5
28C
330
1F
100
AcDbEntity
  8
0
  6
Continuous
 62
     7
370
    25
100
AcDbLine
 10
226.6912555221
 20
41.7647249385
 30
0.0
 11
227.3311917174
 21
41.3524932015
 31
0.0
  0
SPLINE
  5
28D
330
1F
100
AcDbEntity
  8
0
  6
Continuous
 62
     7
370
    25
100
AcDbSpline
210
0.0
220
0.0
230
1.0
 70
     8
 71
     3
 72
    13
 73
     9
 74
     0
 42
0.000000001
 43
0.00000001
 40
0.0
 40
0.0
 40
0.0
 40
0.0
 40
0.1722587823576925
 40
0.3421398271262819
 40
0.5097456257928438
 40
0.6751828993290239
 40
0.8385626190146133
 40
1.0
 40
1.0
 40
1.0
 40
1.0
 10
226.3051835913242
 20
42.04603443439527
 30
0.0
 10
226.328335115277
 20
42.02791484346022
 30
0.0
 10
226.3743185960289
 20
41.99192577152286
 30
0.0
 10
226.4418596087437
 20
41.94092578810471
 30
0.0
 10
226.5075192234303
 20
41.89260110791354
 30
0.0
 10
226.5710432946795
 20
41.84717010200581
 30
0.0
 10
226.6324736733976
 20
41.80434453424894
 30
0.0
 10
226.6717398403679
 20
41.77787871707588
 30
0.0
 10
226.6912555220975
 20
41.76472493853026
 30
0.0
  0
SPLINE
  5
28E
330
1F
100
AcDbEntity
  8
0
  6
Continuous
 62
     7
370
    25
100
AcDbSpline
210
0.0
220
0.0
230
1.0
 70
     8
 71
     3
 72
    11
 73
     7
 74
     0
 42
0.000000001
 43
0.00000001
 40
0.0
 40
0.0
 40
0.0
 40
0.0
 40
0.2392845095296998
 40
0.5001120454061866
 40
0.751501091500065
 40
1.0
 40
1.0
 40
1.0
 40
1.0
 10
226.1558031798482
 20
42.09334842660814
 30
0.0
 10
226.1087339478268
 20
42.06503390388704
 30
0.0
 10
226.0103577932309
 20
42.00585567333388
 30
0.0
 10
225.8640605716496
 20
41.91266777287106
 30
0.0
 10
225.7162198280282
 20
41.81729585689817
 30
0.0
 10
225.6199333653054
 20
41.75276060164102
 30
0.0
 10
225.5720684774439
 20
41.72067953158564
 30
0.0
  0
SPLINE
  5
28F
330
1F
100
AcDbEntity
  8
0
  6
Continuous
 62
     7
370
    25
100
AcDbSpline
210
0.0
220
0.0
230
1.0
 70
     8
 71
     3
 72
     9
 73
     5
 74
     0
 42
0.000000001
 43
0.00000001
 40
0.0
 40
0.0
 40
0.0
 40
0.0
 40
0.5090669353869857
 40
1.0
 40
1.0
 40
1.0
 40
1.0
 10
226.1563741834324
 20
42.09264947239635
 30
0.0
 10
226.1820227580564
 20
42.08515676423647
 30
0.0
 10
226.2324062594018
 20
42.07043825152422
 30
0.0
 10
226.281213770897
 20
42.05404589367207
 30
0.0
 10
226.3051749920916
 20
42.04599834319547
 30
0.0
  0
LINE
  5
290
330
1F
100
AcDbEntity
  8
0
  6
Continuous
 62
     7
370
    25
100
AcDbLine
 10
227.9862927577
 20
43.0165277108
 30
0.0
 11
226.3051770969
 21
42.0460402972
 31
0.0
  0
LINE
  5
291
330
1F
100
AcDbEntity
  8
0
  6
Continuous
 62
     7
370
    25
100
AcDbLine
 10
224.2986892999
 20
43.1698615751
 30
0.0
 11
224.0983932476
 21
42.6687042937
 31
0.0
  0
SPLINE
  5
292
330
1F
100
AcDbEntity
  8
0
  6
Continuous
 62
     7
370
    25
100
AcDbSpline
210
0.0
220
0.0
230
1.0
 70
     8
 71
     3
 72
     8
 73
     4
 74
     0
 42
0.000000001
 43
0.00000001
 40
0.0
 40
0.0
 40
0.0
 40
0.0
 40
1.0
 40
1.0
 40
1.0
 40
1.0
 10
224.2982459852921
 20
43.17064550625773
 30
0.0
 10
224.3244213198614
 20
43.19281288323599
 30
0.0
 10
224.3502423598268
 20
43.21544502432761
 30
0.0
 10
224.3756999135352
 20
43.2385297444189
 30
0.0
  0
LINE
  5
293
330
1F
100
AcDbEntity
  8
0
  6
Continuous
 62
     7
370
    25
100
AcDbLine
 10
224.3756999135
 20
43.2385297444
 30
0.0
 11
226.1559929039
 21
42.0927584819
 31
0.0
  0
LINE
  5
294
330
1F
100
AcDbEntity
  8
0
  6
Continuous
 62
     7
370
    25
100
AcDbLine
 10
227.986084006
 20
43.1145777452
 30
0.0
 11
227.8980849835
 21
43.2220688819
 31
0.0
  0
LINE
  5
295
330
1F
100
AcDbEntity
  8
0
  6
Continuous
 62
     7
370
    25
100
AcDbLine
 10
226.069676395
 20
44.2164415517
 30
0.0
 11
224.3756999135
 21
43.2385297444
 31
0.0
  0
LINE
  5
296
330
1F
100
AcDbEntity
  8
0
  6
Continuous
 62
     7
370
    25
100
AcDbLine
 10
226.2123704206
 20
44.195149191
 30
0.0
 11
226.0700967091
 21
44.2159538069
 31
0.0
  0
LINE
  5
297
330
1F
100
AcDbEntity
  8
0
  6
Continuous
 62
     7
370
    25
100
AcDbLine
 10
227.8981579889
 20
43.2219647426
 30
0.0
 11
226.2123704206
 21
44.195149191
 31
0.0
  0
LINE
  5
298
330
1F
100
AcDbEntity
  8
0
  6
Continuous
 62
     7
370
    25
100
AcDbLine
 10
227.986084006
 20
43.1712004017
 30
0.0
 11
227.8981115319
 21
43.221991543
 31
0.0
  0
SPLINE
  5
299
330
1F
100
AcDbEntity
  8
0
  6
Continuous
 62
     7
370
    25
100
AcDbSpline
210
0.0
220
0.0
230
1.0
 70
     8
 71
     3
 72
    19
 73
    15
 74
     0
 42
0.000000001
 43
0.00000001
 40
0.0
 40
0.0
 40
0.0
 40
0.0
 40
0.063785280148703
 40
0.1289627947844053
 40
0.195587135758269
 40
0.2637094156895535
 40
0.3333774494011574
 40
0.4046359392186754
 40
0.4775266604141308
 40
0.5520886438820536
 40
0.6283583538394083
 40
0.7063698589396168
 40
0.8377040422813519
 40
1.0
 40
1.0
 40
1.0
 40
1.0
 10
223.5141768793308
 20
43.33913359360961
 30
0.0
 10
223.5348662483374
 20
43.32577445359838
 30
0.0
 10
223.5766965709948
 20
43.29876458505586
 30
0.0
 10
223.637187544593
 20
43.26124261952781
 30
0.0
 10
223.6966717427747
 20
43.22572287843649
 30
0.0
 10
223.7547529022477
 20
43.19274274952009
 30
0.0
 10
223.8112850193353
 20
43.16253631325034
 30
0.0
 10
223.8660300740883
 20
43.13542287329
 30
0.0
 10
223.9187524516797
 20
43.11169125554041
 30
0.0
 10
223.9691940846056
 20
43.09165100209964
 30
0.0
 10
224.0170770030779
 20
43.07553114055102
 30
0.0
 10
224.0720411832749
 20
43.0612531641992
 30
0.0
 10
224.134872547026
 20
43.05111460311988
 30
0.0
 10
224.1733800901993
 20
43.05758888252257
 30
0.0
 10
224.194664072069
 20
43.06116736180406
 30
0.0
  0
LINE
  5
29A
330
1F
100
AcDbEntity
  8
0
  6
Continuous
 62
     7
370
    25
100
AcDbLine
 10
224.219300003
 20
43.087237509
 30
0.0
 11
224.2981040237
 21
43.1706292193
 31
0.0
  0
SPLINE
  5
29B
330
1F
100
AcDbEntity
  8
0
  6
Continuous
 62
     7
370
    25
100
AcDbSpline
210
0.0
220
0.0
230
1.0
 70
     8
 71
     3
 72
     9
 73
     5
 74
     0
 42
0.000000001
 43
0.00000001
 40
0.0
 40
0.0
 40
0.0
 40
0.0
 40
0.523202776288562
 40
0.9999999999999999
 40
0.9999999999999999
 40
0.9999999999999999
 40
0.9999999999999999
 10
225.9034990408362
 20
44.12050940714474
 30
0.0
 10
225.8344747278425
 20
44.14555156621898
 30
0.0
 10
225.7025482241581
 20
44.1934147661276
 30
0.0
 10
225.4611110718037
 20
44.33101296305751
 30
0.0
 10
225.3459945078603
 20
44.39661940134139
 30
0.0
  0
LINE
  5
29C
330
1F
100
AcDbEntity
  8
0
  6
Continuous
 62
     7
370
    25
100
AcDbLine
 10
221.6164933848
 20
44.1625088682
 30
0.0
 11
222.0679635544
 21
44.2747734018
 31
0.0
  0
LINE
  5
29D
330
1F
100
AcDbEntity
  8
0
  6
Continuous
 62
     7
370
    25
100
AcDbLine
 10
222.0679635544
 20
44.2747734018
 30
0.0
 11
223.5141768793
 21
43.3391335936
 31
0.0
  0
SPLINE
  5
29E
330
1F
100
AcDbEntity
  8
0
  6
Continuous
 62
     7
370
    25
100
AcDbSpline
210
0.0
220
0.0
230
1.0
 70
     8
 71
     3
 72
     8
 73
     4
 74
     0
 42
0.000000001
 43
0.00000001
 40
0.0
 40
0.0
 40
0.0
 40
0.0
 40
1.0
 40
1.0
 40
1.0
 40
1.0
 10
221.7872812633476
 20
43.76775939582628
 30
0.0
 10
221.7301559944235
 20
43.89954557962192
 30
0.0
 10
221.6732275027059
 20
44.03112980128272
 30
0.0
 10
221.6164933847565
 20
44.16250886818408
 30
0.0
  0
LINE
  5
29F
330
1F
100
AcDbEntity
  8
0
  6
Continuous
 62
     7
370
    25
100
AcDbLine
 10
223.4056647649
 20
45.0470118731
 30
0.0
 11
222.0679635544
 21
44.2747734018
 31
0.0
  0
LINE
  5
2A0
330
1F
100
AcDbEntity
  8
0
  6
Continuous
 62
     7
370
    25
100
AcDbLine
 10
224.3886935617
 20
44.9492583397
 30
0.0
 11
223.4056642911
 21
45.0470119207
 31
0.0
  0
LINE
  5
2A1
330
1F
100
AcDbEntity
  8
0
  6
Continuous
 62
     7
370
    25
100
AcDbLine
 10
225.3459945079
 20
44.3966194013
 30
0.0
 11
224.3886928122
 21
44.949257907
 31
0.0
  0
SPLINE
  5
2A2
330
1F
100
AcDbEntity
  8
0
  6
Continuous
 62
     7
370
    25
100
AcDbSpline
210
0.0
220
0.0
230
1.0
 70
     8
 71
     3
 72
     8
 73
     4
 74
     0
 42
0.000000001
 43
0.00000001
 40
0.0
 40
0.0
 40
0.0
 40
0.0
 40
1.0
 40
1.0
 40
1.0
 40
1.0
 10
221.6164933847587
 20
44.16250886817896
 30
0.0
 10
221.6133560470086
 20
44.19772517505148
 30
0.0
 10
221.6113636431106
 20
44.23336943127917
 30
0.0
 10
221.6105822457385
 20
44.26946633327405
 30
0.0
  0
LINE
  5
2A3
330
1F
100
AcDbEntity
  8
0
  6
Continuous
 62
     7
370
    25
100
AcDbLine
 10
222.4216677782
 20
44.7376960446
 30
0.0
 11
221.6105822457
 21
44.2694663333
 31
0.0
  0
SPLINE
  5
2A4
330
1F
100
AcDbEntity
  8
0
  6
Continuous
 62
     7
370
    25
100
AcDbSpline
210
0.0
220
0.0
230
1.0
 70
     8
 71
     3
 72
     8
 73
     4
 74
     0
 42
0.000000001
 43
0.00000001
 40
0.0000004089325119
 40
0.0000004089325119
 40
0.0000004089325119
 40
0.0000004089325119
 40
0.0015399868451459
 40
0.0015399868451459
 40
0.0015399868451459
 40
0.0015399868451459
 10
222.4216677782273
 20
44.73769604463017
 30
0.0
 10
222.6601443462505
 20
44.83207243044652
 30
0.0
 10
222.8985913039193
 20
44.92650104237673
 30
0.0
 10
223.1370000427696
 20
45.02099442533919
 30
0.0
  0
LINE
  5
2A5
330
1F
100
AcDbEntity
  8
0
  6
Continuous
 62
     7
370
    25
100
AcDbLine
 10
223.1370000428
 20
45.0209944253
 30
0.0
 11
223.1613962735
 21
45.0259883551
 31
0.0
  0
LINE
  5
2A6
330
1F
100
AcDbEntity
  8
0
  6
Continuous
 62
     7
370
    25
100
AcDbLine
 10
223.4056645574
 20
45.0470118545
 30
0.0
 11
223.1613968152
 21
45.0259887478
 31
0.0
  0
SPLINE
  5
2A7
330
1F
100
AcDbEntity
  8
0
  6
Continuous
 62
     7
370
    25
100
AcDbSpline
210
0.0
220
0.0
230
1.0
 70
     8
 71
     3
 72
     8
 73
     4
 74
     0
 42
0.000000001
 43
0.00000001
 40
0.0
 40
0.0
 40
0.0
 40
0.0
 40
1.0
 40
1.0
 40
1.0
 40
1.0
 10
224.3886919572776
 20
44.94925841792616
 30
0.0
 10
224.4192999914008
 20
44.93431841012004
 30
0.0
 10
224.4498514923728
 20
44.91944145272666
 30
0.0
 10
224.4803454304873
 20
44.90462788904574
 30
0.0
  0
LWPOLYLINE
  5
2A8
330
1F
100
AcDbEntity
  8
0
  6
Continuous
 62
     7
370
    25
100
AcDbPolyline
 90
        3
 70
   128
 43
0.0
 10
228.0284655509
 20
44.4377079286
 10
227.5539358876
 20
44.2397461448
 10
226.81708114
 20
44.0137035882
  0
LWPOLYLINE
  5
2A9
330
1F
100
AcDbEntity
  8
0
  6
Continuous
 62
     7
370
    18
100
AcDbPolyline
 90
       25
 70
   128
 43
0.0
 10
270.9615021988
 20
20.5631403392
 10
271.0058203059
 20
21.4673983233
 10
271.138175301
 20
22.4105963667
 10
271.3567773096
 20
23.379979334
 10
271.6586701147
 20
24.3624379834
 10
272.039771134
 20
25.3446862472
 10
272.4949266299
 20
26.3134409026
 10
273.0179814052
 20
27.2556012047
 10
273.6018620414
 20
28.1584260518
 10
274.2386725544
 20
29.0097062865
 10
274.9198011746
 20
29.7979298041
 10
275.6360368058
 20
30.5124372336
 10
276.3776935897
 20
31.1435660878
 10
277.1347418908
 20
31.6827814317
 10
277.8969439293
 20
32.1227913027
 10
278.6539922304
 20
32.4576453221
 10
279.3956490143
 20
32.6828151638
 10
280.1118846455
 20
32.7952557919
 10
280.7930132657
 20
32.7934466399
 10
281.4298237787
 20
32.6774121734
 10
282.0137044149
 20
32.4487215595
 10
282.5367591902
 20
32.1104674464
 10
282.9919146861
 20
31.6672241409
 10
283.3730157054
 20
31.1249857481
 10
283.4192920752
 20
31.0431411716
  0
LWPOLYLINE
  5
2AA
330
1F
100
AcDbEntity
  8
0
  6
Continuous
 62
     7
370
    18
100
AcDbPolyline
 90
       11
 70
   128
 43
0.0
 10
274.6692297538
 20
15.8859463478
 10
274.2386725544
 20
15.9003147453
 10
273.6018620414
 20
16.0163492118
 10
273.0179814052
 20
16.2450398257
 10
272.4949266299
 20
16.5832939388
 10
272.039771134
 20
17.0265372443
 10
271.6586701147
 20
17.5687756371
 10
271.3567773096
 20
18.2026762731
 10
271.138175301
 20
18.9196667335
 10
271.0058203059
 20
19.7100509524
 10
270.9615021988
 20
20.5631403392
  0
LWPOLYLINE
  5
2AB
330
1F
100
AcDbEntity
  8
0
  6
Continuous
 62
     7
370
    18
100
AcDbPolyline
 90
       52
 70
   128
 43
0.0
 10
272.0106291233
 20
20.6974092864
 10
272.0554503206
 20
21.5624480192
 10
272.1892344688
 20
22.4661230995
 10
272.4099535365
 20
23.3947357342
 10
272.7142616478
 20
24.3342091023
 10
273.0975458018
 20
25.2703017452
 10
273.5539958014
 20
26.1888234526
 10
274.07669233
 20
27.0758503718
 10
274.6577118409
 20
27.9179360788
 10
275.2882466707
 20
28.7023154126
 10
275.9587385541
 20
29.4170979823
 10
276.6590235175
 20
30.0514484125
 10
277.3784859547
 20
30.5957505974
 10
278.1062195487
 20
31.0417534706
 10
278.8311925998
 20
31.3826960834
 10
279.5424152558
 20
31.6134100932
 10
280.2291061059
 20
31.7303981107
 10
280.8808556171
 20
31.731886717
 10
281.4877839309
 20
31.6178533461
 10
282.040690633
 20
31.3900266279
 10
282.5311942211
 20
31.0518601831
 10
282.951859161
 20
30.6084802703
 10
283.296308601
 20
30.0666080771
 10
283.5593210386
 20
29.4344578334
 10
283.7369094735
 20
28.7216122927
 10
283.8263818459
 20
27.9388774668
 10
283.8263818459
 20
27.0981188176
 10
283.7369094735
 20
26.2120813893
 10
283.5593210386
 20
25.2941966061
 10
283.296308601
 20
24.3583786657
 10
282.951859161
 20
23.4188136142
 10
282.5311942211
 20
22.4897443
 10
282.040690633
 20
21.5852544668
 10
281.4877839309
 20
20.7190552586
 10
280.8808556171
 20
19.9042773723
 10
280.2291061059
 20
19.1532720103
 10
279.5424152558
 20
18.4774236482
 10
278.8311925998
 20
17.8869774584
 10
278.1062195487
 20
17.3908840031
 10
277.3784859547
 20
16.9966635534
 10
276.6590235175
 20
16.7102920897
 10
275.9587385541
 20
16.5361107112
 10
275.2882466707
 20
16.4767598302
 10
274.6577118409
 20
16.5331391455
 10
274.07669233
 20
16.7043940042
 10
273.5539958014
 20
16.9879283572
 10
273.0975458018
 20
17.3794441126
 10
272.7142616478
 20
17.8730062909
 10
272.4099535365
 20
18.4611329923
 10
272.1892344688
 20
19.1349088157
 10
272.0554503206
 20
19.8841200064
 10
272.0106291233
 20
20.6974092864
  0
LWPOLYLINE
  5
2AC
330
1F
100
AcDbEntity
  8
0
  6
Continuous
 62
     7
370
    18
100
AcDbPolyline
 90
        9
 70
   128
 43
0.0
 10
241.5081142214
 20
35.3368026628
 10
241.5530872681
 20
34.3552745643
 10
241.6875296828
 20
33.4360756823
 10
241.9100163425
 20
32.5889497536
 10
242.2181888331
 20
31.8228765239
 10
242.6087804496
 20
31.1459765599
 10
243.0776508238
 20
30.5654251696
 10
243.619829813
 20
30.0873763423
 10
243.9938831998
 20
29.8426649852
  0
LWPOLYLINE
  5
2AD
330
1F
100
AcDbEntity
  8
0
  6
Continuous
 62
     7
370
    18
100
AcDbPolyline
 90
       24
 70
   128
 43
0.0
 10
255.9929079914
 20
50.6278376823
 10
255.4290089633
 20
50.8972328126
 10
254.7302506524
 20
51.0993612589
 10
253.9812804996
 20
51.1863274374
 10
253.1900377746
 20
51.1572094849
 10
252.3649098474
 20
51.0123160589
 10
251.5146432791
 20
50.7531830658
 10
250.648251107
 20
50.3825573797
 10
249.7749173035
 20
49.9043677253
 10
248.9038994242
 20
49.3236830317
 10
248.0444304754
 20
48.6466587011
 10
247.2056210418
 20
47.88047136
 10
246.3963627119
 20
47.0332427846
 10
245.6252338254
 20
46.1139538088
 10
244.9004085403
 20
45.1323491242
 10
244.2295701851
 20
44.0988339849
 10
243.619829813
 20
43.0243639082
 10
243.0776508238
 20
41.9203285445
 10
242.6087804496
 20
40.7984309431
 10
242.2181888331
 20
39.6705634977
 10
241.9100163425
 20
38.5486818839
 10
241.6875296828
 20
37.4446783258
 10
241.5530872681
 20
36.3702555358
 10
241.5081142214
 20
35.3368026628
  0
ARC
  5
2AE
330
1F
100
AcDbEntity
  8
0
  6
Continuous
 62
     7
370
    18
100
AcDbCircle
 10
279.0915239253
 20
26.1144898144
 30
0.0
 40
1.778964071799146
100
AcDbArc
 50
353.0600211812
 51
90.2620538944
  0
LWPOLYLINE
  5
2AF
330
1F
100
AcDbEntity
  8
0
  6
Continuous
 62
     7
370
    18
100
AcDbPolyline
 90
       10
 70
   128
 43
0.0
 10
277.4708964321
 20
20.5015690298
 10
277.414544066
 20
20.4798597329
 10
276.9204576875
 20
20.3475088766
 10
276.4568668815
 20
20.329515601
 10
276.0378576202
 20
20.4264266225
 10
275.6761612878
 20
20.6352973489
 10
275.3827678444
 20
20.9497813488
 10
275.1665919013
 20
21.360323185
 10
275.0342018552
 20
21.8544487516
 10
274.9896203106
 20
22.4171442932
  0
LWPOLYLINE
  5
2B0
330
1F
100
AcDbEntity
  8
0
  6
Continuous
 62
     7
370
    18
100
AcDbPolyline
 90
       31
 70
   128
 43
0.0
 10
239.3867938778
 20
35.3368026628
 10
239.4313578199
 20
36.4264308761
 10
239.5646335647
 20
37.5573379567
 10
239.7853767525
 20
38.7189649299
 10
240.0915263635
 20
39.9004659976
 10
240.4802239614
 20
41.0908098028
 10
240.9478403814
 20
42.278882426
 10
241.490009615
 20
43.4535911532
 10
242.1016695742
 20
44.6039680456
 10
242.7771093547
 20
45.7192723441
 10
243.5100225572
 20
46.7890907529
 10
244.2935661687
 20
47.8034346658
 10
245.1204244536
 20
48.752833427
 10
245.9828772588
 20
49.6284227561
 10
246.8728720949
 20
50.4220275113
 10
247.78209932
 20
51.1262380191
 10
248.7020697243
 20
51.7344792554
 10
249.6241937921
 20
52.2410722359
 10
250.5398618994
 20
52.6412870384
 10
251.4405246998
 20
52.931386965
 10
252.3177729475
 20
53.108663431
 10
253.1634160118
 20
53.1714612537
 10
253.9695583514
 20
53.1191941067
 10
254.7286732324
 20
52.9523499944
 10
255.4336730037
 20
52.6724866953
 10
256.0779752725
 20
52.2822172176
 10
256.6555643619
 20
51.7851854022
 10
257.1610474783
 20
51.1860319013
 10
257.5897050621
 20
50.4903508497
 10
257.9375348529
 20
49.7046376339
 10
258.0248283239
 20
49.4548350424
  0
LWPOLYLINE
  5
2B1
330
1F
100
AcDbEntity
  8
0
  6
Continuous
 62
     7
370
    18
100
AcDbPolyline
 90
       15
 70
   128
 43
0.0
 10
246.0258035323
 20
28.6696623453
 10
245.9828772588
 20
28.660858337
 10
245.1204244536
 20
28.5406808526
 10
244.2935661687
 20
28.5354093589
 10
243.5100225572
 20
28.6450930742
 10
242.7771093547
 20
28.8687079113
 10
242.1016695742
 20
29.2041660387
 10
241.490009615
 20
29.6483353743
 10
240.9478403814
 20
30.1970688286
 10
240.4802239614
 20
30.8452430253
 10
240.0915263635
 20
31.5868061365
 10
239.7853767525
 20
32.4148343872
 10
239.5646335647
 20
33.3215967008
 10
239.4313578199
 20
34.2986268819
 10
239.3867938778
 20
35.3368026628
  0
LWPOLYLINE
  5
2B2
330
1F
100
AcDbEntity
  8
0
  6
Continuous
 62
     7
370
    18
100
AcDbPolyline
 90
       28
 70
   128
 43
0.0
 10
231.5113921024
 20
38.0564621853
 10
231.5561905331
 20
39.2342167685
 10
231.6902251345
 20
40.4542119315
 10
231.9124167389
 20
41.7066249904
 10
232.2209763901
 20
42.9813722518
 10
232.6134197472
 20
44.2681902003
 10
233.086587087
 20
45.5567181343
 10
233.6366687444
 20
46.8365815846
 10
234.2592357854
 20
48.0974758433
 10
234.949275666
 20
49.3292489311
 10
235.701232591
 20
50.5219833355
 10
236.5090522454
 20
51.6660758602
 10
237.3662305402
 20
52.7523149451
 10
238.2658659799
 20
53.7719548317
 10
239.2007152289
 20
54.7167859792
 10
240.1632514307
 20
55.5792011627
 10
241.1457248097
 20
56.3522567223
 10
242.1402250681
 20
57.0297284692
 10
243.1387450745
 20
57.6061617991
 10
244.1332453328
 20
58.0769156099
 10
245.1157187119
 20
58.4381996687
 10
246.0782549137
 20
58.6871051286
 10
247.0131041626
 20
58.8216279493
 10
247.9127396023
 20
58.8406850321
 10
248.7699178972
 20
58.7441229405
 10
249.5777375515
 20
58.5327191359
 10
250.3296944766
 20
58.2081757172
 10
250.5075955987
 20
58.1100174869
  0
LWPOLYLINE
  5
2B3
330
1F
100
AcDbEntity
  8
0
  6
Continuous
 62
     7
370
    18
100
AcDbPolyline
 90
       10
 70
   128
 43
0.0
 10
234.7713745439
 20
30.8511295435
 10
234.2592357854
 20
31.1880413132
 10
233.6366687444
 20
31.7301349665
 10
233.086587087
 20
32.3748876539
 10
232.6134197472
 20
33.1171082058
 10
232.2209763901
 20
33.9508206988
 10
231.9124167389
 20
34.86931257
 10
231.6902251345
 20
35.8651886631
 10
231.5561905331
 20
36.9304307692
 10
231.5113921024
 20
38.0564621853
  0
LWPOLYLINE
  5
2B4
330
1F
100
AcDbEntity
  8
0
  6
Continuous
 62
     7
370
    18
100
AcDbPolyline
 90
       13
 70
   128
 43
0.0
 10
236.135473204
 20
34.720825459
 10
236.0031582422
 20
35.5130580188
 10
235.9202786191
 20
36.5661205787
 10
235.9303363991
 20
37.67692596
 10
236.0332365811
 20
38.8349820332
 10
236.2280072201
 20
40.0293503618
 10
236.5128086067
 20
41.2487495213
 10
236.8849506453
 20
42.481661658
 10
237.3409182623
 20
43.7164412815
 10
237.8764046087
 20
44.9414252615
 10
238.4863517398
 20
46.1450429931
 10
239.1649983907
 20
47.3159256864
 10
239.9059343938
 20
48.4430137507
  0
LWPOLYLINE
  5
2B5
330
1F
100
AcDbEntity
  8
0
  6
Continuous
 62
     7
370
    18
100
AcDbPolyline
 90
       17
 70
   128
 43
0.0
 10
236.6472692783
 20
31.7908979103
 10
236.2906860703
 20
32.3357280396
 10
235.8948069455
 20
33.1378425501
 10
235.5860786294
 20
34.0292556537
 10
235.3673299793
 20
35.0017993905
 10
235.2405653747
 20
36.046562406
 10
235.2069463515
 20
37.153971605
 10
235.2667809584
 20
38.3138798696
 10
235.419520935
 20
39.5156590364
 10
235.6637667348
 20
40.7482972816
 10
235.9972803495
 20
42.0005000217
 10
236.4170058158
 20
43.260793405
 10
236.9190972168
 20
44.5176294459
 10
237.4989539217
 20
45.7594918379
 10
238.1512627416
 20
46.9750014775
 10
238.8700466135
 20
48.1530207292
 10
239.6487193679
 20
49.28275548
  0
LINE
  5
2B6
330
1F
100
AcDbEntity
  8
0
  6
Continuous
 62
     7
370
    18
100
AcDbLine
 10
242.6406430457
 20
50.6837764053
 30
0.0
 11
242.6821920852
 21
50.7273207184
 31
0.0
  0
ARC
  5
2B7
330
1F
100
AcDbEntity
  8
0
  6
Continuous
 62
     7
370
    18
100
AcDbCircle
 10
252.7318447577
 20
41.4998871268
 30
0.0
 40
14.35348911364198
100
AcDbArc
 50
109.9319623821
 51
139.4246774734
  0
LWPOLYLINE
  5
2B8
330
1F
100
AcDbEntity
  8
0
  6
Continuous
 62
     7
370
    18
100
AcDbPolyline
 90
       12
 70
   128
 43
0.0
 10
240.9929126087
 20
50.9549190926
 10
241.9052573886
 20
51.9256546932
 10
242.8505856897
 20
52.8111970885
 10
243.8199908599
 20
53.6032029145
 10
244.8043394008
 20
54.294210086
 10
245.794357021
 20
54.8777081022
 10
246.7807160164
 20
55.3481993876
 10
247.7541231538
 20
55.7012510883
 10
248.705407229
 20
55.9335368374
 10
249.625605476
 20
56.0428680954
 10
250.506048012
 20
56.0282147699
 10
250.6318762262
 20
56.0155724617
  0
LINE
  5
2B9
330
1F
100
AcDbEntity
  8
0
  6
Continuous
 62
     7
370
    18
100
AcDbLine
 10
227.0250275939
 20
48.4290698888
 30
0.0
 11
227.3311917174
 21
48.0583346191
 31
0.0
  0
LINE
  5
2BA
330
1F
100
AcDbEntity
  8
0
  6
Continuous
 62
     7
370
    18
100
AcDbLine
 10
227.0250275939
 20
40.6649594974
 30
0.0
 11
227.3311917174
 21
41.3524932015
 31
0.0
  0
LINE
  5
2BB
330
1F
100
AcDbEntity
  8
0
  6
Continuous
 62
     7
370
    18
100
AcDbLine
 10
228.0671018712
 20
41.7773250904
 30
0.0
 11
227.3311990436
 21
41.3524974307
 31
0.0
  0
LINE
  5
2BC
330
1F
100
AcDbEntity
  8
0
  6
Continuous
 62
     7
370
    18
100
AcDbLine
 10
228.000526496
 20
42.5205509836
 30
0.0
 11
226.6912555221
 21
41.7647249385
 31
0.0
  0
LINE
  5
2BD
330
1F
100
AcDbEntity
  8
0
  6
Continuous
 62
     7
370
    18
100
AcDbLine
 10
223.5141768793
 20
43.3391335936
 30
0.0
 11
223.2176893766
 21
42.843071986
 31
0.0
  0
LINE
  5
2BE
330
1F
100
AcDbEntity
  8
0
  6
Continuous
 62
     7
370
    18
100
AcDbLine
 10
225.3459945079
 20
44.3966194013
 30
0.0
 11
223.5142371288
 21
43.3391683749
 31
0.0
  0
LINE
  5
2BF
330
1F
100
AcDbEntity
  8
0
  6
Continuous
 62
     7
370
    18
100
AcDbLine
 10
225.3459945079
 20
44.3966194013
 30
0.0
 11
225.4673044695
 21
44.3348685635
 31
0.0
  0
OLE2FRAME
  5
2C0
330
1F
100
AcDbEntity
  8
0
100
AcDbOle2Frame
 70
     2
  3
Paintbrush-Bild
 10
13.8511154363
 20
38.264191557
 30
0.0
 11
51.6290888628
 21
31.9806341108
 31
0.0
 71
     2
 72
     0
 73
     1
 90
    12928
310
80552BED0767C5B32B40DDAF6807D121434000000000000000006FFBDDFB85D0
310
4940DDAF6807D121434000000000000000006FFBDDFB85D04940416F4BD60AFB
310
3F4000000000000000002BED0767C5B32B40416F4BD60AFB3F40000000000000
310
0000000000000100000000010000010000000100000000000100000000320000
310
D0CF11E0A1B11AE1000000000000000000000000000000003E000300FEFF0900
310
0600000000000000000000000100000001000000000000000010000002000000
310
01000000FEFFFFFF0000000000000000FFFFFFFFFFFFFFFFFFFFFFFFFFFFFFFF
310
FFFFFFFFFFFFFFFFFFFFFFFFFFFFFFFFFFFFFFFFFFFFFFFFFFFFFFFFFFFFFFFF
310
FFFFFFFFFFFFFFFFFFFFFFFFFFFFFFFFFFFFFFFFFFFFFFFFFFFFFFFFFFFFFFFF
310
FFFFFFFFFFFFFFFFFFFFFFFFFFFFFFFFFFFFFFFFFFFFFFFFFFFFFFFFFFFFFFFF
310
FFFFFFFFFFFFFFFFFFFFFFFFFFFFFFFFFFFFFFFFFFFFFFFFFFFFFFFFFFFFFFFF
310
FFFFFFFFFFFFFFFFFFFFFFFFFFFFFFFFFFFFFFFFFFFFFFFFFFFFFFFFFFFFFFFF
310
FFFFFFFFFFFFFFFFFFFFFFFFFFFFFFFFFFFFFFFFFFFFFFFFFFFFFFFFFFFFFFFF
310
FFFFFFFFFFFFFFFFFFFFFFFFFFFFFFFFFFFFFFFFFFFFFFFFFFFFFFFFFFFFFFFF
310
FFFFFFFFFFFFFFFFFFFFFFFFFFFFFFFFFFFFFFFFFFFFFFFFFFFFFFFFFFFFFFFF
310
FFFFFFFFFFFFFFFFFFFFFFFFFFFFFFFFFFFFFFFFFFFFFFFFFFFFFFFFFFFFFFFF
310
FFFFFFFFFFFFFFFFFFFFFFFFFFFFFFFFFFFFFFFFFFFFFFFFFFFFFFFFFFFFFFFF
310
FFFFFFFFFFFFFFFFFFFFFFFFFFFFFFFFFFFFFFFFFFFFFFFFFFFFFFFFFFFFFFFF
310
FFFFFFFFFFFFFFFFFFFFFFFFFFFFFFFFFFFFFFFFFFFFFFFFFFFFFFFFFFFFFFFF
310
FFFFFFFFFFFFFFFFFFFFFFFFFFFFFFFFFFFFFFFFFFFFFFFFFFFFFFFFFFFFFFFF
310
FDFFFFFFFEFFFFFFFEFFFFFFFEFFFFFF05000000060000000700000008000000
310
090000000A0000000B0000000C0000000D0000000E0000000F00000010000000
310
11000000120000001300000014000000150000001600000017000000FEFFFFFF
310
FFFFFFFFFFFFFFFFFFFFFFFFFFFFFFFFFFFFFFFFFFFFFFFFFFFFFFFFFFFFFFFF
310
FFFFFFFFFFFFFFFFFFFFFFFFFFFFFFFFFFFFFFFFFFFFFFFFFFFFFFFFFFFFFFFF
310
FFFFFFFFFFFFFFFFFFFFFFFFFFFFFFFFFFFFFFFFFFFFFFFFFFFFFFFFFFFFFFFF
310
FFFFFFFFFFFFFFFFFFFFFFFFFFFFFFFFFFFFFFFFFFFFFFFFFFFFFFFFFFFFFFFF
310
FFFFFFFFFFFFFFFFFFFFFFFFFFFFFFFFFFFFFFFFFFFFFFFFFFFFFFFFFFFFFFFF
310
FFFFFFFFFFFFFFFFFFFFFFFFFFFFFFFFFFFFFFFFFFFFFFFFFFFFFFFFFFFFFFFF
310
FFFFFFFFFFFFFFFFFFFFFFFFFFFFFFFFFFFFFFFFFFFFFFFFFFFFFFFFFFFFFFFF
310
FFFFFFFFFFFFFFFFFFFFFFFFFFFFFFFFFFFFFFFFFFFFFFFFFFFFFFFFFFFFFFFF
310
FFFFFFFFFFFFFFFFFFFFFFFFFFFFFFFFFFFFFFFFFFFFFFFFFFFFFFFFFFFFFFFF
310
FFFFFFFFFFFFFFFFFFFFFFFFFFFFFFFFFFFFFFFFFFFFFFFFFFFFFFFFFFFFFFFF
310
FFFFFFFFFFFFFFFFFFFFFFFFFFFFFFFFFFFFFFFFFFFFFFFFFFFFFFFFFFFFFFFF
310
FFFFFFFFFFFFFFFFFFFFFFFFFFFFFFFFFFFFFFFFFFFFFFFFFFFFFFFFFFFFFFFF
310
FFFFFFFFFFFFFFFFFFFFFFFFFFFFFFFFFFFFFFFFFFFFFFFFFFFFFFFFFFFFFFFF
310
52006F006F007400200045006E00740072007900000000000000000000000000
310
0000000000000000000000000000000000000000000000000000000000000000
310
16000500FFFFFFFFFFFFFFFF020000000A00030000000000C000000000000046
310
00000000000000000000000010BDBB7A07A7D30103000000C000000000000000
310
01004F006C006500000000000000000000000000000000000000000000000000
310
0000000000000000000000000000000000000000000000000000000000000000
310
0A000200FFFFFFFFFFFFFFFFFFFFFFFF00000000000000000000000000000000
310
0000000000000000000000000000000000000000000000001400000000000000
310
010043006F006D0070004F0062006A0000000000000000000000000000000000
310
0000000000000000000000000000000000000000000000000000000000000000
310
120002010100000003000000FFFFFFFF00000000000000000000000000000000
310
0000000000000000000000000000000000000000010000004D00000000000000
310
01004F006C006500310030004E00610074006900760065000000000000000000
310
0000000000000000000000000000000000000000000000000000000000000000
310
1A000200FFFFFFFFFFFFFFFFFFFFFFFF00000000000000000000000000000000
310
0000000000000000000000000000000000000000040000002426000000000000
310
FEFFFFFF02000000FEFFFFFFFFFFFFFFFFFFFFFFFFFFFFFFFFFFFFFFFFFFFFFF
310
FFFFFFFFFFFFFFFFFFFFFFFFFFFFFFFFFFFFFFFFFFFFFFFFFFFFFFFFFFFFFFFF
310
FFFFFFFFFFFFFFFFFFFFFFFFFFFFFFFFFFFFFFFFFFFFFFFFFFFFFFFFFFFFFFFF
310
FFFFFFFFFFFFFFFFFFFFFFFFFFFFFFFFFFFFFFFFFFFFFFFFFFFFFFFFFFFFFFFF
310
FFFFFFFFFFFFFFFFFFFFFFFFFFFFFFFFFFFFFFFFFFFFFFFFFFFFFFFFFFFFFFFF
310
FFFFFFFFFFFFFFFFFFFFFFFFFFFFFFFFFFFFFFFFFFFFFFFFFFFFFFFFFFFFFFFF
310
FFFFFFFFFFFFFFFFFFFFFFFFFFFFFFFFFFFFFFFFFFFFFFFFFFFFFFFFFFFFFFFF
310
FFFFFFFFFFFFFFFFFFFFFFFFFFFFFFFFFFFFFFFFFFFFFFFFFFFFFFFFFFFFFFFF
310
FFFFFFFFFFFFFFFFFFFFFFFFFFFFFFFFFFFFFFFFFFFFFFFFFFFFFFFFFFFFFFFF
310
FFFFFFFFFFFFFFFFFFFFFFFFFFFFFFFFFFFFFFFFFFFFFFFFFFFFFFFFFFFFFFFF
310
FFFFFFFFFFFFFFFFFFFFFFFFFFFFFFFFFFFFFFFFFFFFFFFFFFFFFFFFFFFFFFFF
310
FFFFFFFFFFFFFFFFFFFFFFFFFFFFFFFFFFFFFFFFFFFFFFFFFFFFFFFFFFFFFFFF
310
FFFFFFFFFFFFFFFFFFFFFFFFFFFFFFFFFFFFFFFFFFFFFFFFFFFFFFFFFFFFFFFF
310
FFFFFFFFFFFFFFFFFFFFFFFFFFFFFFFFFFFFFFFFFFFFFFFFFFFFFFFFFFFFFFFF
310
FFFFFFFFFFFFFFFFFFFFFFFFFFFFFFFFFFFFFFFFFFFFFFFFFFFFFFFFFFFFFFFF
310
FFFFFFFFFFFFFFFFFFFFFFFFFFFFFFFFFFFFFFFFFFFFFFFFFFFFFFFFFFFFFFFF
310
0100000200000000000000000000000000000000000000000000000000000000
310
0000000000000000000000000000000000000000000000000000000000000000
310
0100FEFF030A0000FFFFFFFF0A00030000000000C00000000000004607000000
310
5042727573680007000000504272757368000700000050427275736800F439B2
310
7100000000000000000000000000000000000000000000000000000000000000
310
0000000000000000000000000000000000000000000000000000000000000000
310
0000000000000000000000000000000000000000000000000000000000000000
310
0000000000000000000000000000000000000000000000000000000000000000
310
0000000000000000000000000000000000000000000000000000000000000000
310
0000000000000000000000000000000000000000000000000000000000000000
310
0000000000000000000000000000000000000000000000000000000000000000
310
0000000000000000000000000000000000000000000000000000000000000000
310
0000000000000000000000000000000000000000000000000000000000000000
310
0000000000000000000000000000000000000000000000000000000000000000
310
0000000000000000000000000000000000000000000000000000000000000000
310
0000000000000000000000000000000000000000000000000000000000000000
310
20260000424D0E260000000000003E00000028000000B40200006E0000000100
310
01000000000000000000130B0000130B00000200000002000000000000FFFFFF
310
FFFFFFFFFFFFFFFFFFFFFFFFFFFFFFFFFFFFFFFFFFFFFFFFFFFFFFFFFFFFFFFF
310
FFFFFFFFFFFFFFFFFFFFFFFFFFFFFFFFFFFFFFFFFFFFFFFFFFFFFFFFFFFFFFFF
310
FFFFFFFFFFFFFFFFFFFFFFFFFFFFFFFFFFFFFFFFFFFFFFFFF000FFFFFFFFFFFF
310
FFFFFFFFFFFFFFFFFFFFFFFFFFFFFFFFFFFFFFFFFFFFFFFFFFFFFFFFFFFFFFFF
310
FFFFFFFFFFFFFFFFFFFFFFFFFFFFFFFFFFFFFFFFFFFFFFFFFFFFFFFFFFFFFFFF
310
FFFFFFFFFFFFFFFFFFFFFFFFFFFFFFFFF000FFFFFFFFFFFFFFFFFFFFFFFFFFFF
310
FFFFFFFFFFFFFFFFFFFFFFFFFFFFFFFFFFFFFFFFFFFFFFFFFFFFFFFFFFFFFFFF
310
FFFFFFFFFFFFFFFFFFFFFFFFFFFFFFFFFFFFFFFFFFFFFFFFFFFFFFFFFFFFFFFF
310
FFFFFFFFFFFFFFFFF000FFFFFFFFFFFFFFFFFFFFFFFFFFFFFFFFFFFFFFFFFFFF
310
FFFFFFFFFFFFFFFFFFFFFFFFFFFFFFFFFFFFFFFFFFFFFFFFFFFFFFFFFFFFFFFF
310
FFFFFFFFFFFFFFFFFFFFFFFFFFFFFFFFFFFFFFFFFFFFFFFFFFFFFFFFFFFFFFFF
310
F000FFFFFFFFFFFFFFFFFFFFFFFFFFFFFFFFFFFFFFFFFFFFFFFFFFFFFFFFFFFF
310
FFFFFFFFFFFFFFFFFFFFFFFFFFFFFFFFFFFFFFFFFFFFFFFFFFFFFFFFFFFFFFFF
310
FFFFFFFFFFFFFFFFFFFFFFFFFFFFFFFFFFFFFFFFFFFFFFFFF000FFFFFFFFFFFF
310
FFFFFFFFFFFFFFFFFFFFFFFFFFFFFFFFFFFFFFFFFFFFFFFFFFFFFFFFFFFFFFFF
310
FFFFFFFFFFFFFFFFFFFFFFFFFFFFFFFFFFFFFFFFFFFFFFFFFFFFFFFFFFFFFFFF
310
FFFFFFFFFFFFFFFFFFFFFFFFFFFFFFFFF000FFFFFFFFFFFFFFFFFFFFFFFFFFFF
310
FFFFFFFFFFFFFFFFFFFFFFFFFFFFFFFFFFFFFFFFFFFFFFFFFFFFFFFFFFFFFFFF
310
FFFFFFFFFFFFFFFFFFFFFFFFFFFFFFFFFFFFFFFFFFFFFFFFFFFFFFFFFFFFFFFF
310
FFFFFFFFFFFFFFFFF000FFFFFFFFFFFFFFFFFFFFFFFFFFFFFFFFFFFFFFFFFFFF
310
FFFFFFFFFFFFFFFFFFFFFFFFFFFFFFFFFFFFFFFFFFFFFFFFFFFFFFFFFFFFFFFF
310
FFFFFFFFFFFFFFFFFFFFFFFFFFFFFFFFFFFFFFFFFFFFFFFFFFFFFFFFFFFFFFFF
310
F000FFFFFFFFFFFFFFFFFFFFFFFFFFFFFFFFFFFFFFFFFFFFFFFFFFFFFFFFFFFF
310
FFFFFFFFFFFFFFFFFFFFFFFFFFFFFFFFFFFFFFFFFFFFFFFFFFFFFFFFFFFFFFFF
310
FFFFFFFFFFFFFFFFFFFFFFFFFFFFFFFFFFFFFFFFFFFFFFFFF000FFFFFFFFFFFF
310
FFFFFFFFFFFFFFFFFFFFFFFFFFFFFFFFFFFFFFFFFFFFFFFFFFFFFFFFFFFFFFFF
310
FFFFFFFFFFFFFFFFFFFFFFFFFFFFFFFFFFFFFFFFFFFFFFFFFFFFFFFFFFFFFFFF
310
FFFFFFFFFFFFFFFFFFFFFFFFFFFFFFFFF000FFFFFFFFFFFFFFFFFFFFFFFFFFFF
310
FFFFFFFFFFFFFFFFFFFFFFFFFFFFFFFFFFFFFFFFFFFFFFFFFFFFFFFFFFFFFFFF
310
FFFFFFFFFFFFFFFFFFFFFFFFFFFFFFFFFFFFFFFFFFFFFFFFFFFFFFFFFFFFFFFF
310
FFFFFFFFFFFFFFFFF000FFFFFFFFFFFFFFFFFFFFFFFFFFFFFFFFFFFFFFFFFFFF
310
FFFFFFFFFFFFFFFFFFFFFFFFFFFFFFFFFFFFFFFFFFFFFFFFFFFFFFFFFFFFFFFF
310
FFFFFFFFFFFFFFFFFFFFFFFFFFFFFFFFFFFFFFFFFFFFFFFFFFFFFFFFFFFFFFFF
310
F000FFFFFFFFFFFFFFFFFFFFFFFFFFFFFFFFFFFFFFFFFFFFFFFFFFFFFFFFFFFF
310
FFFFFFFFFFFFFFFFFFFFFFFFFFFFFFFFFFFFFFFFFFFFFFFFFFFFFFFFFFFFFFFF
310
FFFFFFFFFFFFFFFFFFFFFFFFFFFFFFFFFFFFFFFFFFFFFFFFF000FFFFFFFFFFFF
310
FFFFFFFFFFFFFFFFFFFFFFFFFFFFFFFFFFFFFFFFFFFFFFFFFFFFFFFFFFFFFFFF
310
FFFFFFFFFFFFFFFFFFFFFFFFFFFFFFFFFFFFFFFFFFFFFFFFFFFFFFFFFFFFFFFF
310
FFFFFFFFFFFFFFFFFFFFFFFFFFFFFFFFF000FFFFFFFFFFFFFFFFFFFFFFFFFFFF
310
FFFFFFFFFFFFFFFFFFFFFFFFFFFFFFFFFFFFFFFFFFFFFFFFFFFFFFFFFFFFFFFF
310
FFFFFFFFFFFFFFFFFFFFFFFFFFFFFFFFFFFFFFFFFFFFFFFFFFFFFFFFFFFFFFFF
310
FFFFFFFFFFFFFFFFF000FFFFFFFFFFFFFFFFFFFFFFFFFFFFFFFFFFFFFFFFFFFF
310
FFFFFFFFFFFFFFFFFFFFFFFFFFFFFFFFFFFFFFFFFFFFFFFFFFFFFFFFFFFFFFFF
310
FFFFFFFFFFFFFFFFFFFFFFFFFFFFFFFFFFFFFFFFFFFFFFFFFFFFFFFFFFFFFFFF
310
F000FFFFFFFFFFFFFFFFFFFFFFFFFFFFFFFFFFFFFFFFFFFFFFFFFFFFFFFFFFFF
310
FFFFFFFFFFFFFFFFFFFFFFFFFFFFFFFFFFFFFFFFFFFFFFFFFFFFFFFFFFFFFFFF
310
FFFFFFFFFFFFFFFFFFFFFFFFFFFFFFFFFFFFFFFFFFFFFFFFF000FFFFFFFFFFFF
310
FFFFFFFFFFFFFFFFFFFFFFFFFFFFFFFFFFFFFFFFFFFFFFFFFFFFFFFFFFFFFFFF
310
FFFFFFFFFFFFFFFFFFFFFFFFFFFFFFFFFFFFFFFFFFFFFFFFFFFFFFFFFFFFFFFF
310
FFFFFFFFFFFFFFFFFFFFFFFFFFFFFFFFF000FFFFFFFFFFFFFFFFFFFFFFFFFFFF
310
FFFFFFFFFFFFFFFFFFFFFFFFFFFFFFFFFFFFFFFFFFFFFFFFFFFFFFFFFFFFFFFF
310
FFFFFFFFFFFFFFFFFFFFFFFFFFFFFFFFFFFFFFFFFFFFFFFFFFFFFFFFFFFFFFFF
310
FFFFFFFFFFFFFFFFF000FFFFF80003FFFFFFFFFFFFFFFFFFFFFFFFFFFFFFFFFF
310
FFFFF00007FFFFFFFFFF00007FFFFFF800000000000000007FFFFFFFFFFFFFFF
310
FFFFFFFC001FFFFFFFFFFFFFFC001FFFFFFFFFFFFFFFFFFFFFFFFFFE0007FFFF
310
F000FFFF8000007FFFFFFFF8000FFFFFC0007FFFFF80007FFFFF0000007FFFFF
310
FFF8000007FFFFF800000000000000007FFFFFF0001FFFFFFFFFFFC00001FFFF
310
FFFFFFFFC00001FFFFFFFF000000000003FFFFE000007FFFF000FFFE0000000F
310
FFFFFFF0000FFFFF80007FFFFF80007FFFFC0000001FFFFFFFC0000001FFFFF8
310
00000000000000007FFFFFF0001FFFFFFFFFFE0000003FFFFFFFFFFE0000003F
310
FFFFFF000000000003FFFF0000000FFFF000FFF800000003FFFFFFF00007FFFF
310
80007FFFFF80007FFFF000000007FFFFFF000000003FFFF80000000000000000
310
7FFFFFF0001FFFFFFFFFF80000000FFFFFFFFFF80000000FFFFFFF0000000000
310
03FFFC00000003FFF000FFE000000000FFFFFFF00007FFFF80003FFFFF80007F
310
FFC000000001FFFFFC000000001FFFF800000000000000007FFFFFF0001FFFFF
310
FFFFE000000003FFFFFFFFE000000003FFFFFF000000000003FFF000000000FF
310
F000FF80000000007FFFFFF00007FFFF80003FFFFF80007FFF8000000000FFFF
310
F80000000007FFF800000000000000007FFFFFF0001FFFFFFFFFC000000001FF
310
FFFFFFC000000001FFFFFF000000000003FFC0000000007FF000FF0000000000
310
3FFFFFE00007FFFF00003FFFFF80007FFE00000000003FFFF00000000003FFF8
310
00000000000000007FFFFFF0001FFFFFFFFF8000000000FFFFFFFF8000000000
310
FFFFFF000000000003FF80000000003FF000FE00000000001FFFFFE00003FFFF
310
00003FFFFF80007FFC00000000001FFFE00000000001FFF8000001FFFE000000
310
7FFFFFF0001FFFFFFFFE00000000003FFFFFFE00000000003FFFFF0000000000
310
03FF00000000001FF000FC00000000000FFFFFE00003FFFF00001FFFFF80007F
310
F800000000001FFFC00000000000FFF8000001FFFE0000007FFFFFF0001FFFFF
310
FFFC00000000001FFFFFFC00000000001FFFFF000000000003FE00000000000F
310
F000F8000000000007FFFFE00003FFFF00001FFFFF80007FF800000000000FFF
310
800000000000FFF8000001FFFE0000007FFFFFF0001FFFFFFFF800000000000F
310
FFFFF800000000000FFFFF000000000003FC000000000007F000F80000000000
310
03FFFFC00003FFFE00001FFFFF80007FF0000000000007FF0000000000007FF8
310
000001FFFE0000007FFFFFF0001FFFFFFFF0000000000007FFFFF00000000000
310
07FFFF000000000003F8000000000003F000F0000000000003FFFFC00001FFFE
310
00001FFFFF80007FE0000000000007FE0000000000003FF8000001FFFE000000
310
7FFFFFF0001FFFFFFFF0000000000007FFFFF0000000000007FFFF0000000000
310
03F800001F800003F000E00001FFF00001FFFFC00001FFFE00000FFFFF80007F
310
E00001FFE00003FE00001FFF00003FF8000001FFFE0000007FFFFFF0001FFFFF
310
FFE000003E000003FFFFE000003E000003FFFF000000000003F00001FFF80001
310
F000E00007FFFC0001FFFFC00001FFFE00000FFFFF80007FC0000FFFFC0003FC
310
0000FFFFC0001FF8000001FFFE0000007FFFFFF0001FFFFFFFC00003FFE00001
310
FFFFC00003FFE00001FFFF0001FFFFFFFFF00007FFFE0001F000E0000FFFFF00
310
00FFFF800001FFFC00000FFFFF80007FC0001FFFFE0001FC0001FFFFE0001FF8
310
000001FFFE0000007FFFFFF0001FFFFFFF80000FFFF80000FFFF80000FFFF800
310
00FFFF0003FFFFFFFFE0000FFFFF8000F000C0003FFFFF8000FFFF800000FFFC
310
000007FFFF80007F80003FFFFF0001FC0003FFFFF0001FF8000001FFFE000000
310
7FFFFFF0001FFFFFFF80003FFFFE0000FFFF80003FFFFE0000FFFF0003FFFFFF
310
FFE0003FFFFF8000F000C0003FFFFF8000FFFF800000FFFC000007FFFF80007F
310
80007FFFFF8001F80007FFFFF8000FF8000001FFFE0000007FFFFFF0001FFFFF
310
FF00007FFFFF00007FFF00007FFFFF00007FFF0003FFFFFFFFE0003FFFFFC000
310
F000C0007FFFFFC000FFFF000000FFFC000007FFFF80007F8000FFFFFF8000F8
310
000FFFFFF8000FF8000001FFFE0000007FFFFFF0001FFFFFFF0000FFFFFF8000
310
7FFF0000FFFFFF80007FFF0003FFFFFFFFC0007FFFFFC00070008000FFFFFFC0
310
00FFFF000000FFF8000007FFFF80007F8000FFFFFF8000F8000FFFFFF8000FF8
310
000001FFFE0000007FFFFFF0001FFFFFFE0001FFFFFFC0003FFE0001FFFFFFC0
310
003FFF0003FFFFFFFFC0007FFFFFE00070008000FFFFFFC0007FFF0000007FF8
310
000003FFFF80007F0001FFFFFF8000F8000FFFFFF8000FF8000001FFFE000000
310
7FFFFFF0001FFFFFFE0001FFFFFFC0003FFE0001FFFFFFC0003FFF0003FFFFFF
310
FFC000FFFFFFE00070008000FFFFFFC0007FFF0000007FF8000003FFFF80007F
310
0001FFFFFF8000F8001FFFFFF8000FF8000001FFFE0000007FFFFFF0001FFFFF
310
FE0003FFFFFFE0003FFE0003FFFFFFE0003FFF0003FFFFFFFFC000FFFFFFE000
310
70008000FFFFFFC0007FFE0000007FF8000003FFFF80007F0001FFFFFF8000F0
310
001FFFFFF8000FF8000001FFFE0000007FFFFFF0001FFFFFFC0003FFFFFFE000
310
1FFC0003FFFFFFE0001FFF0003FFFFFFFFC000FFFFFFC00070008000FFFFFF80
310
007FFE0000007FF0000003FFFF80007F0001FFFFFF0000F0001FFFFFF8000FF8
310
000001FFFE0000007FFFFFF0001FFFFFFC0007FFFFFFF0001FFC0007FFFFFFF0
310
001FFF0003FFFFFFFFC000FFFFFFC00070008001FFFFFF0000FFFE0000003FF0
310
000001FFFF80007F0001FFFFFF0000F8001FFFFFF0000FF8000001FFFE000000
310
7FFFFFF0001FFFFFFC0007FFFFFFF0001FFC0007FFFFFFF0001FFF0003FFFFFF
310
FFC001FFFFFF80007000FFFFFFFFFE0000FFFE0008003FF0008001FFFF80007F
310
FFFFFFFFFC0000FFFFFFFFFFE0000FF8000001FFFE0000007FFFFFF0001FFFFF
310
F8000FFFFFFFF8000FF8000FFFFFFFF8000FFF0003FFFFFFFFFFFFFFFFFF0000
310
7000FFFFFFFFFC0000FFFC0008003FF0008001FFFF80007FFFFFFFFFF80001FF
310
FFFFFFFF80000FF8000001FFFE0000007FFFFFF0001FFFFFF8000FFFFFFFF800
310
0FF8000FFFFFFFF8000FFF0003FFFFFFFFFFFFFFFFFE0000F000FFFFFFFFE000
310
00FFFC000C003FE000C001FFFF80007FFFFFFFFFC00001FFFFFFFFFE00001FF8
310
000001FFFE0000007FFFFFF0001FFFFFF8000FFFFFFFF8000FF8000FFFFFFFF8
310
000FFF0003FFFFFFFFFFFFFFFFF00000F000FFFFFFFE000001FFFC000C001FE0
310
00C000FFFF80007FFFFFFFFE000001FFFFFFFFE000001FF80FFFFFFFFFFFFFC0
310
7FFFFFF0001FFFFFF8000FFFFFFFF8000FF8000FFFFFFFF8000FFF0003FFFFFF
310
FFFFFFFFFF800000F000FFFFFFC0000001FFFC001C001FE001C000FFFF80007F
310
FFFFFF80000003FFFFFFF80000001FF80FFFFFFFFFFFFFC07FFFFFF0001FFFFF
310
F8001FFFFFFFFC000FF8001FFFFFFFFC000FFF0003FFFFFFFFFFFFFFF0000001
310
F000FFFFF800000001FFF8001C001FE001C000FFFF80007FFFFFF800000003FF
310
FFFF800000003FF80FFFFFFFFFFFFFC07FFFFFF0001FFFFFF8001FFFFFFFFC00
310
0FF8001FFFFFFFFC000FFF0003FFFFFFFFFFFFFE00000001F000FFFFC0000000
310
03FFF8001E001FC001E000FFFF80007FFFFF8000000007FFFFFC000000003FF8
310
0FFFFFFFFFFFFFC07FFFFFF0001FFFFFF8001FFFFFFFFC000FF8001FFFFFFFFC
310
000FFF0003FFFFFFFFFFFFE000000003F000FFFE0000000007FFF8001E000FC0
310
01E0007FFF80007FFFFE0000000007FFFFE0000000007FF80FFFFFFFFFFFFFC0
310
7FFFFFF0001FFFFFF0001FFFFFFFFC0007F0001FFFFFFFFC0007FF0003FFFFFF
310
FFFFFF0000000003F000FFF80000000007FFF8001E000FC003E0007FFF80007F
310
FFF0000000000FFFFF8000000000FFF80FFFFFFFFFFFFFC07FFFFFF0001FFFFF
310
F0001FFFFFFFFC0007F0001FFFFFFFFC0007FF0003FFFFFFFFFFFC0000000007
310
F000FFE0000000000FFFF0003E000FC003E0007FFF80007FFFC0000000001FFF
310
FE0000000001FFF80FFFFFFFFFFFFFC07FFFFFF0001FFFFFF0001FFFFFFFFC00
310
07F0001FFFFFFFFC0007FF0003FFFFFFFFFFF0000000000FF000FFC000000000
310
1FFFF0003F000F8003F0003FFF80007FFF80000000003FFFF80000000003FFF8
310
0FFFFFFFFFFFFFC07FFFFFF0001FFFFFF0001FFFFFFFFC0007F0001FFFFFFFFC
310
0007FF0003FFFFFFFFFFE0000000001FF000FF00000000007FFFF0003F000780
310
03F0003FFF80007FFF00000000007FFFF00000000007FFF80FFFFFFFFFFFFFC0
310
7FFFFFF0001FFFFFF0001FFFFFFFFC0007F0001FFFFFFFFC0007FF0003FFFFFF
310
FFFF80000000007FF000FE0000000000FFFFE0003F00078007F0003FFF80007F
310
FE0000000001FFFFE0000000001FFFF80FFFFFFFFFFFFFC07FFFFFF0001FFFFF
310
F0001FFFFFFFFC0007F0001FFFFFFFFC0007FF0003FFFFFFFFFF0000000000FF
310
F000FC0000000003FFFFE0007F00078007F0003FFF80007FFC0000000007FFFF
310
C0000000007FFFF80FFFFFFFFFFFFFC07FFFFFF0001FFFFFF8001FFFFFFFFC00
310
0FF8001FFFFFFFFC000FFF0003FFFFFFFFFE0000000003FFF000FC000000000F
310
FFFFE0007F80070007F8001FFF80007FF8000000001FFFFF8000000001FFFFF8
310
0FFFFFFFFFFFFFC07FFFFFF0001FFFFFF8001FFFFFFFFC000FF8001FFFFFFFFC
310
000FFF0003FFFFFFFFFC000000000FFFF000F8000000007FFFFFE0007F800700
310
07F8001FFF80007FF000000000FFFFFF800000000FFFFFF80FFFFFFFFFFFFFC0
310
7FFFFFF0001FFFFFF8000FFFFFFFF8000FF8000FFFFFFFF8000FFF0003FFFFFF
310
FFFC000000007FFFF000F800000007FFFFFFC0007F8003000FF8001FFF80007F
310
F000000007FFFFFF000000007FFFFFF80FFFFFFFFFFFFFC07FFFFFF0001FFFFF
310
F8000FFFFFFFF8000FF8000FFFFFFFF8000FFF0003FFFFFFFFF80000000FFFFF
310
F000F0000000FFFFFFFFC000FF8003000FF8001FFF80007FE0000000FFFFFFFF
310
0000000FFFFFFFF8000001FFFE0000007FFFFFF0001FFFFFF8000FFFFFFFF800
310
0FF8000FFFFFFFF8000FFF0003FFFFFFFFF8000000FFFFFFF000F000000FFFFF
310
FFFFC000FFC002000FF8000FFF80007FE000001FFFFFFFFE000001FFFFFFFFF8
310
000001FFFE0000007FFFFFF0001FFFFFF8000FFFFFFFF8000FF8000FFFFFFFF8
310
000FFF0003FFFFFFFFF000001FFFFFFFF000E00000FFFFFFFFFFC000FFC00200
310
0FFC000FFF80007FE00001FFFFFFFFFE00001FFFFFFFFFF8000001FFFE000000
310
7FFFFFF0001FFFFFFC000FFFFFFFF8001FFC000FFFFFFFF8001FFF0003FFFFFF
310
FFF00001FFFFFFFFF000E00007FFFFFFFFFF8000FFC000001FFC000FFF80007F
310
C0000FFFFFFFFFFE0000FFFFFFFFFFF8000001FFFE0000007FFFFFF0001FFFFF
310
FC0007FFFFFFF0001FFC0007FFFFFFF0001FFF0003FFFFFFFFF00007FFFFFFFF
310
F000E0001FFFFFFFFFFF8000FFC000001FFC000FFF80007FC0003FFFFFFFFFFE
310
0001FFFFFFFFFFF8000001FFFE0000007FFFFFF0001FFFFFFC0007FFFFFFF000
310
1FFC0007FFFFFFF0001FFF0003FFFFFFFFF0001FFFFFFFFFF000E0003FFFFF00
310
03FF8001FFE000001FFC0007FF80007FC0007FFFFF0007FC0003FFFFF0003FF8
310
000001FFFE0000007FFFFFF0001FFFFFFC0003FFFFFFE0001FFC0003FFFFFFE0
310
001FFF0003FFFFFFFFF0003FFFFFFFFFF000E0003FFFFF0001FF8001FFE00000
310
1FFE0007FF80007FC0007FFFFE0003FC0007FFFFE0003FF8000001FFFE000000
310
7FFFFFF0001FFFFFFE0003FFFFFFE0003FFE0003FFFFFFE0003FFF0003FFFFFF
310
FFF0003FFFFF8001F000E0003FFFFF0001FF0001FFE000001FFE0007FF80007F
310
C0007FFFFE0003FC0007FFFFE0003FF8000001FFFE0000007FFFFFF0001FFFFF
310
FE0001FFFFFFC0003FFE0001FFFFFFC0003FFF0003FFFFFFFFF0003FFFFF0001
310
F000E0003FFFFF0003FF0001FFE000003FFE0007FF80007FC0007FFFFE0003FC
310
0007FFFFE0003FF8000001FFFE0000007FFFFFF0001FFFFFFF0001FFFFFFC000
310
7FFF0001FFFFFFC0007FFF0003FFFFFFFFF0003FFFFF0001F000E0003FFFFE00
310
03FF0003FFF000003FFE0003FF80007FC0007FFFFC0003FE0007FFFFE0003FF8
310
000001FFFE0000007FFFFFF0001FFFFFFF0000FFFFFF80007FFF0000FFFFFF80
310
007FFF0003FFFFFFFFF0003FFFFF0001F000E0003FFFFE0003FF0003FFF00000
310
3FFF0003FF80007FC0007FFFFC0007FE0007FFFFC0003FF8000001FFFE000000
310
7FFFFFF0001FFFFFFF80007FFFFF0000FFFF80007FFFFF0000FFFF0003FFFFFF
310
FFF0003FFFFF0003F000E0003FFFFC0003FE0003FFF000003FFF0003FF80007F
310
E0003FFFF80007FE0003FFFFC0007FF8000001FFFE0000007FFFFFF0001FFFFF
310
FF80003FFFFE0000FFFF80003FFFFE0000FFFF0003FFFFFFFFF0001FFFFE0003
310
F000F0001FFFF80003FE0003FFF000007FFF0001FF80007FE0003FFFF00007FE
310
0001FFFF80007FF8000001FFFE0000007FFFFFF0001FFFFFFFC0000FFFF80001
310
FFFFC0000FFFF80001FFFF0003FFFFFFFFF0001FFFFC0003F000F0000FFFF000
310
07FE0007FFF800007FFF0001FF80007FE0001FFFE00007FF0000FFFE00007FF8
310
000001FFFE0000007FFFFFF0001FFFFFFFC00003FFE00001FFFFC00003FFE000
310
01FFFF0003FFFFFFFFF8000FFFF80003F000F00003FFC00007FC0007FFF80000
310
7FFF8001FF80007FF00007FF80000FFF00007FF80000FFF8000001FFFE000000
310
7F80000000000001FFE000003E000003FFFFE000003E000003FFFF0003FFFFFF
310
FFF80003FFE00007F000F800000000000FFC0007FFF800007FFF8001FF80007F
310
F000000000000FFF000000000000FFF8000001FFFE0000007F80000000000001
310
FFF0000000000007FFFFF0000000000007FFFF0003FFFFFFFFFC00007E000007
310
F000F800000000000FFC0007FFF80000FFFF8000FF80007FF800000000001FFF
310
800000000001FFF8000001FFFE0000007F80000000000001FFF800000000000F
310
FFFFF800000000000FFFFF0003FFFFFFFFFC00000000000FF000FC0000000000
310
1FFC0007FFFC0000FFFF8000FF80007FF800000000003FFFC00000000001FFF8
310
000001FFFE0000007F80000000000001FFF800000000000FFFFFF80000000000
310
0FFFFF0003FFFFFFFFFE00000000001FF000FE00000000003FF8000FFFFC0000
310
FFFF8000FF80007FFC00000000003FFFC00000000003FFF8000001FFFE000000
310
7F80000000000001FFFC00000000001FFFFFFC00000000001FFFFF0003FFFFFF
310
FFFF00000000001FF000FF00000000003FF8000FFFFC0000FFFFC000FF80007F
310
FE00000000007FFFE00000000007FFF8000001FFFE0000007F80000000000001
310
FFFE00000000003FFFFFFE00000000003FFFFF0003FFFFFFFFFF80000000003F
310
F000FF80000000007FF8000FFFFC0001FFFFC0007F80007FFF0000000000FFFF
310
F0000000000FFFF800000000000000007F80000000000001FFFF8000000000FF
310
FFFFFF8000000000FFFFFF0003FFFFFFFFFFC0000000007FF000FFC000000000
310
FFF8000FFFFE0001FFFFC0007F80007FFF8000000001FFFFF8000000001FFFF8
310
00000000000000007F80000000000001FFFFC000000001FFFFFFFFC000000001
310
FFFFFF0003FFFFFFFFFFE000000000FFF000FFE000000003FFF0001FFFFE0001
310
FFFFC0007F80007FFFC000000007FFFFFE000000003FFFF80000000000000000
310
7F80000000000001FFFFE000000003FFFFFFFFE000000003FFFFFF0003FFFFFF
310
FFFFF000000003FFF000FFF80000000FFFF0001FFFFE0001FFFFE0007F80007F
310
FFF00000000FFFFFFF00000000FFFFF800000000000000007F80000000000001
310
FFFFF80000000FFFFFFFFFF80000000FFFFFFF0003FFFFFFFFFFFC0000000FFF
310
F000FFFE0000003FFFF0001FFFFE0003FFFFE0003F80007FFFFC0000003FFFFF
310
FFC0000003FFFFF800000000000000007F80000000000001FFFFFE0000003FFF
310
FFFFFFFE0000003FFFFFFF0003FFFFFFFFFFFF0000003FFFF000FFFF800000FF
310
FFF0001FFFFF0003FFFFE0003F80007FFFFF000001FFFFFFFFF800001FFFFFF8
310
00000000000000007F80000000000001FFFFFFC00001FFFFFFFFFFFFC00001FF
310
FFFFFF0003FFFFFFFFFFFFC00000FFFFF000FFFFF8000FFFFFFFFFFFFFFFFFFF
310
FFFFFFFFFFFFFFFFFFFFF0001FFFFFFFFFFF0000FFFFFFF80000000000000000
310
7FFFFFFFFFFFFFFFFFFFFFFC001FFFFFFFFFFFFFFC001FFFFFFFFFFFFFFFFFFF
310
FFFFFFFC001FFFFFF000FFFFFFFFFFFFFFFFFFFFFFFFFFFFFFFFFFFFFFFFFFFF
310
FFFFFFFFFFFFFFFFFFFFFFFFFFFFFFFFFFFFFFFFFFFFFFFFFFFFFFFFFFFFFFFF
310
FFFFFFFFFFFFFFFFFFFFFFFFFFFFFFFFFFFFFFFFFFFFFFFFFFFFFFFFFFFFFFFF
310
F000FFFFFFFFFFFFFFFFFFFFFFFFFFFFFFFFFFFFFFFFFFFFFFFFFFFFFFFFFFFF
310
FFFFFFFFFFFFFFFFFFFFFFFFFFFFFFFFFFFFFFFFFFFFFFFFFFFFFFFFFFFFFFFF
310
FFFFFFFFFFFFFFFFFFFFFFFFFFFFFFFFFFFFFFFFFFFFFFFFF000FFFFFFFFFFFF
310
FFFFFFFFFFFFFFFFFFFFFFFFFFFFFFFFFFFFFFFFFFFFFFFFFFFFFFFFFFFFFFFF
310
FFFFFFFFFFFFFFFFFFFFFFFFFFFFFFFFFFFFFFFFFFFFFFFFFFFFFFFFFFFFFFFF
310
FFFFFFFFFFFFFFFFFFFFFFFFFFFFFFFFF000FFFFFFFFFFFFFFFFFFFFFFFFFFFF
310
FFFFFFFFFFFFFFFFFFFFFFFFFFFFFFFFFFFFFFFFFFFFFFFFFFFFFFFFFFFFFFFF
310
FFFFFFFFFFFFFFFFFFFFFFFFFFFFFFFFFFFFFFFFFFFFFFFFFFFFFFFFFFFFFFFF
310
FFFFFFFFFFFFFFFFF000FFFFFFFFFFFFFFFFFFFFFFFFFFFFFFFFFFFFFFFFFFFF
310
FFFFFFFFFFFFFFFFFFFFFFFFFFFFFFFFFFFFFFFFFFFFFFFFFFFFFFFFFFFFFFFF
310
FFFFFFFFFFFFFFFFFFFFFFFFFFFFFFFFFFFFFFFFFFFFFFFFFFFFFFFFFFFFFFFF
310
F000FFFFFFFFFFFFFFFFFFFFFFFFFFFFFFFFFFFFFFFFFFFFFFFFFFFFFFFFFFFF
310
FFFFFFFFFFFFFFFFFFFFFFFFFFFFFFFFFFFFFFFFFFFFFFFFFFFFFFFFFFFFFFFF
310
FFFFFFFFFFFFFFFFFFFFFFFFFFFFFFFFFFFFFFFFFFFFFFFFF000FFFFFFFFFFFF
310
FFFFFFFFFFFFFFFFFFFFFFFFFFFFFFFFFFFFFFFFFFFFFFFFFFFFFFFFFFFFFFFF
310
FFFFFFFFFFFFFFFFFFFFFFFFFFFFFFFFFFFFFFFFFFFFFFFFFFFFFFFFFFFFFFFF
310
FFFFFFFFFFFFFFFFFFFFFFFFFFFFFFFFF000FFFFFFFFFFFFFFFFFFFFFFFFFFFF
310
FFFFFFFFFFFFFFFFFFFFFFFFFFFFFFFFFFFFFFFFFFFFFFFFFFFFFFFFFFFFFFFF
310
FFFFFFFFFFFFFFFFFFFFFFFFFFFFFFFFFFFFFFFFFFFFFFFFFFFFFFFFFFFFFFFF
310
FFFFFFFFFFFFFFFFF000FFFFFFFFFFFFFFFFFFFFFFFFFFFFFFFFFFFFFFFFFFFF
310
FFFFFFFFFFFFFFFFFFFFFFFFFFFFFFFFFFFFFFFFFFFFFFFFFFFFFFFFFFFFFFFF
310
FFFFFFFFFFFFFFFFFFFFFFFFFFFFFFFFFFFFFFFFFFFFFFFFFFFFFFFFFFFFFFFF
310
F000FFFFFFFFFFFFFFFFFFFFFFFFFFFFFFFFFFFFFFFFFFFFFFFFFFFFFFFFFFFF
310
FFFFFFFFFFFFFFFFFFFFFFFFFFFFFFFFFFFFFFFFFFFFFFFFFFFFFFFFFFFFFFFF
310
FFFFFFFFFFFFFFFFFFFFFFFFFFFFFFFFFFFFFFFFFFFFFFFFF000FFFFFFFFFFFF
310
FFFFFFFFFFFFFFFFFFFFFFFFFFFFFFFFFFFFFFFFFFFFFFFFFFFFFFFFFFFFFFFF
310
FFFFFFFFFFFFFFFFFFFFFFFFFFFFFFFFFFFFFFFFFFFFFFFFFFFFFFFFFFFFFFFF
310
FFFFFFFFFFFFFFFFFFFFFFFFFFFFFFFFF000FFFFFFFFFFFFFFFFFFFFFFFFFFFF
310
FFFFFFFFFFFFFFFFFFFFFFFFFFFFFFFFFFFFFFFFFFFFFFFFFFFFFFFFFFFFFFFF
310
FFFFFFFFFFFFFFFFFFFFFFFFFFFFFFFFFFFFFFFFFFFFFFFFFFFFFFFFFFFFFFFF
310
FFFFFFFFFFFFFFFFF000FFFFFFFFFFFFFFFFFFFFFFFFFFFFFFFFFFFFFFFFFFFF
310
FFFFFFFFFFFFFFFFFFFFFFFFFFFFFFFFFFFFFFFFFFFFFFFFFFFFFFFFFFFFFFFF
310
FFFFFFFFFFFFFFFFFFFFFFFFFFFFFFFFFFFFFFFFFFFFFFFFFFFFFFFFFFFFFFFF
310
F000FFFFFFFFFFFFFFFFFFFFFFFFFFFFFFFFFFFFFFFFFFFFFFFFFFFFFFFFFFFF
310
FFFFFFFFFFFFFFFFFFFFFFFFFFFFFFFFFFFFFFFFFFFFFFFFFFFFFFFFFFFFFFFF
310
FFFFFFFFFFFFFFFFFFFFFFFFFFFFFFFFFFFFFFFFFFFFFFFFF000FFFFFFFFFFFF
310
FFFFFFFFFFFFFFFFFFFFFFFFFFFFFFFFFFFFFFFFFFFFFFFFFFFFFFFFFFFFFFFF
310
FFFFFFFFFFFFFFFFFFFFFFFFFFFFFFFFFFFFFFFFFFFFFFFFFFFFFFFFFFFFFFFF
310
FFFFFFFFFFFFFFFFFFFFFFFFFFFFFFFFF000FFFFFFFFFFFFFFFFFFFFFFFFFFFF
310
FFFFFFFFFFFFFFFFFFFFFFFFFFFFFFFFFFFFFFFFFFFFFFFFFFFFFFFFFFFFFFFF
310
FFFFFFFFFFFFFFFFFFFFFFFFFFFFFFFFFFFFFFFFFFFFFFFFFFFFFFFFFFFFFFFF
310
FFFFFFFFFFFFFFFFF000FFFFFFFFFFFFFFFFFFFFFFFFFFFFFFFFFFFFFFFFFFFF
310
FFFFFFFFFFFFFFFFFFFFFFFFFFFFFFFFFFFFFFFFFFFFFFFFFFFFFFFFFFFFFFFF
310
FFFFFFFFFFFFFFFFFFFFFFFFFFFFFFFFFFFFFFFFFFFFFFFFFFFFFFFFFFFFFFFF
310
F000FFFFFFFFFFFFFFFFFFFFFFFFFFFFFFFFFFFFFFFFFFFFFFFFFFFFFFFFFFFF
310
FFFFFFFFFFFFFFFFFFFFFFFFFFFFFFFFFFFFFFFFFFFFFFFFFFFFFFFFFFFFFFFF
310
FFFFFFFFFFFFFFFFFFFFFFFFFFFFFFFFFFFFFFFFFFFFFFFFF000FFFFFFFFFFFF
310
FFFFFFFFFFFFFFFFFFFFFFFFFFFFFFFFFFFFFFFFFFFFFFFFFFFFFFFFFFFFFFFF
310
FFFFFFFFFFFFFFFFFFFFFFFFFFFFFFFFFFFFFFFFFFFFFFFFFFFFFFFFFFFFFFFF
310
FFFFFFFFFFFFFFFFFFFFFFFFFFFFFFFFF000FFFFFFFFFFFFFFFFFFFFFFFFFFFF
310
FFFFFFFFFFFFFFFFFFFFFFFFFFFFFFFFFFFFFFFFFFFFFFFFFFFFFFFFFFFFFFFF
310
FFFFFFFFFFFFFFFFFFFFFFFFFFFFFFFFFFFFFFFFFFFFFFFFFFFFFFFFFFFFFFFF
310
FFFFFFFFFFFFFFFFF000FFFFFFFFFFFFFFFFFFFFFFFFFFFFFFFFFFFFFFFFFFFF
310
FFFFFFFFFFFFFFFFFFFFFFFFFFFFFFFFFFFFFFFFFFFFFFFFFFFFFFFFFFFFFFFF
310
FFFFFFFFFFFFFFFFFFFFFFFFFFFFFFFFFFFFFFFFFFFFFFFFFFFFFFFFFFFFFFFF
310
F000FFFFFFFFFFFFFFFFFFFFFFFFFFFFFFFFFFFFFFFFFFFFFFFFFFFFFFFFFFFF
310
FFFFFFFFFFFFFFFFFFFFFFFFFFFFFFFFFFFFFFFFFFFFFFFFFFFFFFFFFFFFFFFF
310
FFFFFFFFFFFFFFFFFFFFFFFFFFFFFFFFFFFFFFFFFFFFFFFFF000FFFFFFFFFFFF
310
FFFFFFFFFFFFFFFFFFFFFFFFFFFFFFFFFFFFFFFFFFFFFFFFFFFFFFFFFFFFFFFF
310
FFFFFFFFFFFFFFFFFFFFFFFFFFFFFFFFFFFFFFFFFFFFFFFFFFFFFFFFFFFFFFFF
310
FFFFFFFFFFFFFFFFFFFFFFFFFFFFFFFFF0000000000000000000000000000000
310
0000000000000000000000000000000000000000000000000000000000000000
310
0000000000000000000000000000000000000000000000000000000000000000
310
0000000000000000000000000000000000000000000000000000000000000000
310
0000000000000000000000000000000000000000000000000000000000000000
310
0000000000000000000000000000000000000000000000000000000000000000
310
0000000000000000000000000000000000000000000000000000000000000000
310
0000000000000000000000000000000000000000000000000000000000000000
310
0000000000000000000000000000000000000000000000000000000000000000
310
0000000000000000000000000000000000000000000000000000000000000000
310
0000000000000000000000000000000000000000000000000000000000000000
310
0000000000000000000000000000000000000000000000000000000000000000
310
0000000000000000000000000000000000000000000000000000000000000000
310
0000000000000000000000000000000000000000000000000000000000000000
310
0000000000000000000000000000000000000000000000000000000000000000
310
0000000000000000000000000000000000000000000000000000000000000000
  1
OLE
  0
ENDSEC
  0
SECTION
  2
OBJECTS
  0
DICTIONARY
  5
C
330
0
100
AcDbDictionary
281
     1
  3
ACAD_GROUP
350
D
  3
ACAD_LAYOUT
350
1A
  3
ACAD_MLINESTYLE
350
17
  3
ACAD_PLOTSETTINGS
350
19
  3
ACAD_PLOTSTYLENAME
350
E
  3
ACAD_SCALELIST
350
47
  0
DICTIONARY
  5
D
102
{ACAD_REACTORS
330
C
102
}
330
C
100
AcDbDictionary
281
     1
  0
DICTIONARY
  5
1A
102
{ACAD_REACTORS
330
C
102
}
330
C
100
AcDbDictionary
281
     1
  3
Layout1
350
1E
  3
Layout2
350
26
  3
Model
350
22
  0
DICTIONARY
  5
17
102
{ACAD_REACTORS
330
C
102
}
330
C
100
AcDbDictionary
281
     1
  3
Standard
350
18
  0
DICTIONARY
  5
19
102
{ACAD_REACTORS
330
C
102
}
330
C
100
AcDbDictionary
281
     1
  0
ACDBDICTIONARYWDFLT
  5
E
102
{ACAD_REACTORS
330
C
102
}
330
C
100
AcDbDictionary
281
     1
  3
Normal
350
F
100
AcDbDictionaryWithDefault
340
F
  0
DICTIONARY
  5
47
102
{ACAD_REACTORS
330
C
102
}
330
C
100
AcDbDictionary
281
     1
  3
A0
350
48
  3
A1
350
49
  3
A2
350
4A
  3
A3
350
4B
  3
A4
350
4C
  3
A5
350
4D
  3
A6
350
4E
  3
A7
350
4F
  3
A8
350
50
  3
A9
350
51
  3
B0
350
52
  3
B1
350
53
  3
B2
350
54
  3
B3
350
55
  3
B4
350
56
  3
B5
350
57
  3
B6
350
58
  3
B7
350
59
  3
B8
350
5A
  3
B9
350
5B
  3
C0
350
5C
  3
C1
350
5D
  3
C2
350
5E
  3
C3
350
5F
  3
C4
350
60
  3
C5
350
61
  3
C6
350
62
  3
C7
350
63
  3
C8
350
64
  3
C9
350
65
  3
D0
350
66
  3
D1
350
67
  3
D2
350
68
  0
LAYOUT
  5
1E
102
{ACAD_REACTORS
330
1A
102
}
330
1A
100
AcDbPlotSettings
  1

  2
none_device
  4

  6

 40
0.0
 41
0.0
 42
0.0
 43
0.0
 44
0.0
 45
0.0
 46
0.0
 47
0.0
 48
0.0
 49
0.0
140
0.0
141
0.0
142
1.0
143
1.0
 70
   688
 72
     1
 73
     0
 74
     5
  7

 75
    16
147
1.0
148
0.0
149
0.0
100
AcDbLayout
  1
Layout1
 70
     1
 71
     1
 10
0.0
 20
0.0
 11
420.0
 21
297.0
 12
0.0
 22
0.0
 32
0.0
 14
1.0000000000E+20
 24
1.0000000000E+20
 34
1.0000000000E+20
 15
-1.0000000000E+20
 25
-1.0000000000E+20
 35
-1.0000000000E+20
146
0.0
 13
0.0
 23
0.0
 33
0.0
 16
1.0
 26
0.0
 36
0.0
 17
0.0
 27
1.0
 37
0.0
 76
     0
330
1B
  0
LAYOUT
  5
26
102
{ACAD_REACTORS
330
1A
102
}
330
1A
100
AcDbPlotSettings
  1

  2
none_device
  4

  6

 40
0.0
 41
0.0
 42
0.0
 43
0.0
 44
0.0
 45
0.0
 46
0.0
 47
0.0
 48
0.0
 49
0.0
140
0.0
141
0.0
142
1.0
143
1.0
 70
   688
 72
     1
 73
     0
 74
     5
  7

 75
    16
147
1.0
148
0.0
149
0.0
100
AcDbLayout
  1
Layout2
 70
     1
 71
     2
 10
0.0
 20
0.0
 11
0.0
 21
0.0
 12
0.0
 22
0.0
 32
0.0
 14
0.0
 24
0.0
 34
0.0
 15
0.0
 25
0.0
 35
0.0
146
0.0
 13
0.0
 23
0.0
 33
0.0
 16
1.0
 26
0.0
 36
0.0
 17
0.0
 27
1.0
 37
0.0
 76
     0
330
23
  0
LAYOUT
  5
22
102
{ACAD_REACTORS
330
1A
102
}
330
1A
100
AcDbPlotSettings
  1

  2
none_device
  4
Letter_(8.50_x_11.00_Inches)
  6

 40
6.35
 41
6.35
 42
6.35000508
 43
6.35000508
 44
215.9
 45
279.4
 46
0.0
 47
0.0
 48
0.0
 49
0.0
140
0.0
141
0.0
142
1.0
143
1.0
 70
  1712
 72
     1
 73
     0
 74
     0
  7

 75
     0
147
1.0
148
0.0
149
0.0
100
AcDbLayout
  1
Model
 70
     1
 71
     0
 10
0.0
 20
0.0
 11
297.0
 21
210.0
 12
0.0
 22
0.0
 32
0.0
 14
0.0
 24
0.0
 34
0.0
 15
297.0
 25
210.0
 35
0.0
146
0.0
 13
0.0
 23
0.0
 33
0.0
 16
1.0
 26
0.0
 36
0.0
 17
0.0
 27
1.0
 37
0.0
 76
     0
330
1F
331
29
  0
MLINESTYLE
  5
18
102
{ACAD_REACTORS
330
17
102
}
330
17
100
AcDbMlineStyle
  2
Standard
 70
     0
  3

 62
   256
 51
90.0
 52
90.0
 71
     2
 49
0.5
 62
   256
  6
BYLAYER
 49
-0.5
 62
   256
  6
BYLAYER
  0
ACDBPLACEHOLDER
  5
F
102
{ACAD_REACTORS
330
E
102
}
330
E
  0
SCALE
  5
48
102
{ACAD_REACTORS
330
47
102
}
330
47
100
AcDbScale
 70
     0
300
1:1
140
1.0
141
1.0
290
     1
  0
SCALE
  5
49
102
{ACAD_REACTORS
330
47
102
}
330
47
100
AcDbScale
 70
     0
300
1:2
140
1.0
141
2.0
290
     0
  0
SCALE
  5
4A
102
{ACAD_REACTORS
330
47
102
}
330
47
100
AcDbScale
 70
     0
300
1:4
140
1.0
141
4.0
290
     0
  0
SCALE
  5
4B
102
{ACAD_REACTORS
330
47
102
}
330
47
100
AcDbScale
 70
     0
300
1:5
140
1.0
141
5.0
290
     0
  0
SCALE
  5
4C
102
{ACAD_REACTORS
330
47
102
}
330
47
100
AcDbScale
 70
     0
300
1:8
140
1.0
141
8.0
290
     0
  0
SCALE
  5
4D
102
{ACAD_REACTORS
330
47
102
}
330
47
100
AcDbScale
 70
     0
300
1:10
140
1.0
141
10.0
290
     0
  0
SCALE
  5
4E
102
{ACAD_REACTORS
330
47
102
}
330
47
100
AcDbScale
 70
     0
300
1:16
140
1.0
141
16.0
290
     0
  0
SCALE
  5
4F
102
{ACAD_REACTORS
330
47
102
}
330
47
100
AcDbScale
 70
     0
300
1:20
140
1.0
141
20.0
290
     0
  0
SCALE
  5
50
102
{ACAD_REACTORS
330
47
102
}
330
47
100
AcDbScale
 70
     0
300
1:30
140
1.0
141
30.0
290
     0
  0
SCALE
  5
51
102
{ACAD_REACTORS
330
47
102
}
330
47
100
AcDbScale
 70
     0
300
1:40
140
1.0
141
40.0
290
     0
  0
SCALE
  5
52
102
{ACAD_REACTORS
330
47
102
}
330
47
100
AcDbScale
 70
     0
300
1:50
140
1.0
141
50.0
290
     0
  0
SCALE
  5
53
102
{ACAD_REACTORS
330
47
102
}
330
47
100
AcDbScale
 70
     0
300
1:100
140
1.0
141
100.0
290
     0
  0
SCALE
  5
54
102
{ACAD_REACTORS
330
47
102
}
330
47
100
AcDbScale
 70
     0
300
2:1
140
2.0
141
1.0
290
     0
  0
SCALE
  5
55
102
{ACAD_REACTORS
330
47
102
}
330
47
100
AcDbScale
 70
     0
300
4:1
140
4.0
141
1.0
290
     0
  0
SCALE
  5
56
102
{ACAD_REACTORS
330
47
102
}
330
47
100
AcDbScale
 70
     0
300
8:1
140
8.0
141
1.0
290
     0
  0
SCALE
  5
57
102
{ACAD_REACTORS
330
47
102
}
330
47
100
AcDbScale
 70
     0
300
10:1
140
10.0
141
1.0
290
     0
  0
SCALE
  5
58
102
{ACAD_REACTORS
330
47
102
}
330
47
100
AcDbScale
 70
     0
300
100:1
140
100.0
141
1.0
290
     0
  0
SCALE
  5
59
102
{ACAD_REACTORS
330
47
102
}
330
47
100
AcDbScale
 70
     0
300
1/128" = 1'-0"
140
0.0078125
141
12.0
290
     0
  0
SCALE
  5
5A
102
{ACAD_REACTORS
330
47
102
}
330
47
100
AcDbScale
 70
     0
300
1/64" = 1'-0"
140
0.015625
141
12.0
290
     0
  0
SCALE
  5
5B
102
{ACAD_REACTORS
330
47
102
}
330
47
100
AcDbScale
 70
     0
300
1/32" = 1'-0"
140
0.03125
141
12.0
290
     0
  0
SCALE
  5
5C
102
{ACAD_REACTORS
330
47
102
}
330
47
100
AcDbScale
 70
     0
300
1/16" = 1'-0"
140
0.0625
141
12.0
290
     0
  0
SCALE
  5
5D
102
{ACAD_REACTORS
330
47
102
}
330
47
100
AcDbScale
 70
     0
300
3/32" = 1'-0"
140
0.09375
141
12.0
290
     0
  0
SCALE
  5
5E
102
{ACAD_REACTORS
330
47
102
}
330
47
100
AcDbScale
 70
     0
300
1/8" = 1'-0"
140
0.125
141
12.0
290
     0
  0
SCALE
  5
5F
102
{ACAD_REACTORS
330
47
102
}
330
47
100
AcDbScale
 70
     0
300
3/16" = 1'-0"
140
0.1875
141
12.0
290
     0
  0
SCALE
  5
60
102
{ACAD_REACTORS
330
47
102
}
330
47
100
AcDbScale
 70
     0
300
1/4" = 1'-0"
140
0.25
141
12.0
290
     0
  0
SCALE
  5
61
102
{ACAD_REACTORS
330
47
102
}
330
47
100
AcDbScale
 70
     0
300
3/8" = 1'-0"
140
0.375
141
12.0
290
     0
  0
SCALE
  5
62
102
{ACAD_REACTORS
330
47
102
}
330
47
100
AcDbScale
 70
     0
300
1/2" = 1'-0"
140
0.5
141
12.0
290
     0
  0
SCALE
  5
63
102
{ACAD_REACTORS
330
47
102
}
330
47
100
AcDbScale
 70
     0
300
3/4" = 1'-0"
140
0.75
141
12.0
290
     0
  0
SCALE
  5
64
102
{ACAD_REACTORS
330
47
102
}
330
47
100
AcDbScale
 70
     0
300
1" = 1'-0"
140
1.0
141
12.0
290
     0
  0
SCALE
  5
65
102
{ACAD_REACTORS
330
47
102
}
330
47
100
AcDbScale
 70
     0
300
1-1/2" = 1'-0"
140
1.5
141
12.0
290
     0
  0
SCALE
  5
66
102
{ACAD_REACTORS
330
47
102
}
330
47
100
AcDbScale
 70
     0
300
3" = 1'-0"
140
3.0
141
12.0
290
     0
  0
SCALE
  5
67
102
{ACAD_REACTORS
330
47
102
}
330
47
100
AcDbScale
 70
     0
300
6" = 1'-0"
140
6.0
141
12.0
290
     0
  0
SCALE
  5
68
102
{ACAD_REACTORS
330
47
102
}
330
47
100
AcDbScale
 70
     0
300
1'-0" = 1'-0"
140
12.0
141
12.0
290
     0
  0
ENDSEC
  0
EOF
