  0
SECTION
  2
HEADER
  9
$ACADVER
  1
AC1015
  9
$ACADMAINTVER
 70
     6
  9
$DWGCODEPAGE
  3
ANSI_1252
  9
$INSBASE
 10
0.0
 20
0.0
 30
0.0
  9
$EXTMIN
 10
0.0
 20
0.0
 30
0.0
  9
$EXTMAX
 10
297.0
 20
210.0
 30
0.0
  9
$LIMMIN
 10
0.0
 20
0.0
  9
$LIMMAX
 10
297.0
 20
210.0
  9
$ORTHOMODE
 70
     0
  9
$REGENMODE
 70
     1
  9
$FILLMODE
 70
     1
  9
$QTEXTMODE
 70
     0
  9
$MIRRTEXT
 70
     1
  9
$LTSCALE
 40
1.0
  9
$ATTMODE
 70
     1
  9
$TEXTSIZE
 40
2.0
  9
$TRACEWID
 40
1.0
  9
$TEXTSTYLE
  7
Standard
  9
$CLAYER
  8
0
  9
$CELTYPE
  6
ByLayer
  9
$CECOLOR
 62
   256
  9
$CELTSCALE
 40
1.0
  9
$DISPSILH
 70
     0
  9
$DIMSCALE
 40
1.0
  9
$DIMASZ
 40
3.0
  9
$DIMEXO
 40
0.0
  9
$DIMDLI
 40
3.75
  9
$DIMRND
 40
0.0
  9
$DIMDLE
 40
0.0
  9
$DIMEXE
 40
1.0
  9
$DIMTP
 40
0.0
  9
$DIMTM
 40
0.0
  9
$DIMTXT
 40
2.0
  9
$DIMCEN
 40
2.5
  9
$DIMTSZ
 40
0.0
  9
$DIMTOL
 70
     0
  9
$DIMLIM
 70
     0
  9
$DIMTIH
 70
     1
  9
$DIMTOH
 70
     1
  9
$DIMSE1
 70
     0
  9
$DIMSE2
 70
     0
  9
$DIMTAD
 70
     1
  9
$DIMZIN
 70
     0
  9
$DIMBLK
  1

  9
$DIMASO
 70
     1
  9
$DIMSHO
 70
     1
  9
$DIMPOST
  1

  9
$DIMAPOST
  1

  9
$DIMALT
 70
     0
  9
$DIMALTD
 70
     3
  9
$DIMALTF
 40
0.0393700787
  9
$DIMLFAC
 40
2.0
  9
$DIMTOFL
 70
     1
  9
$DIMTVP
 40
0.0
  9
$DIMTIX
 70
     0
  9
$DIMSOXD
 70
     0
  9
$DIMSAH
 70
     0
  9
$DIMBLK1
  1

  9
$DIMBLK2
  1

  9
$DIMSTYLE
  2
ISO-25
  9
$DIMCLRD
 70
     0
  9
$DIMCLRE
 70
     0
  9
$DIMCLRT
 70
     0
  9
$DIMTFAC
 40
1.0
  9
$DIMGAP
 40
1.524
  9
$DIMJUST
 70
     0
  9
$DIMSD1
 70
     0
  9
$DIMSD2
 70
     0
  9
$DIMTOLJ
 70
     0
  9
$DIMTZIN
 70
     0
  9
$DIMALTZ
 70
     0
  9
$DIMALTTZ
 70
     0
  9
$DIMUPT
 70
     0
  9
$DIMDEC
 70
     2
  9
$DIMTDEC
 70
     3
  9
$DIMALTU
 70
     2
  9
$DIMALTTD
 70
     3
  9
$DIMTXSTY
  7
Standard
  9
$DIMAUNIT
 70
     0
  9
$DIMADEC
 70
     2
  9
$DIMALTRND
 40
0.0
  9
$DIMAZIN
 70
     0
  9
$DIMDSEP
 70
    44
  9
$DIMATFIT
 70
     3
  9
$DIMFRAC
 70
     0
  9
$DIMLDRBLK
  1

  9
$DIMLUNIT
 70
     2
  9
$DIMLWD
 70
    -2
  9
$DIMLWE
 70
    -2
  9
$DIMTMOVE
 70
     0
  9
$LUNITS
 70
     2
  9
$LUPREC
 70
     2
  9
$SKETCHINC
 40
1.0
  9
$FILLETRAD
 40
10.0
  9
$AUNITS
 70
     0
  9
$AUPREC
 70
     2
  9
$MENU
  1
.
  9
$ELEVATION
 40
0.0
  9
$PELEVATION
 40
0.0
  9
$THICKNESS
 40
0.0
  9
$LIMCHECK
 70
     0
  9
$CHAMFERA
 40
0.0
  9
$CHAMFERB
 40
0.0
  9
$CHAMFERC
 40
0.0
  9
$CHAMFERD
 40
0.0
  9
$SKPOLY
 70
     0
  9
$TDCREATE
 40
2458166.424593356
  9
$TDUCREATE
 40
2458166.38292669
  9
$TDUPDATE
 40
2458166.424596493
  9
$TDUUPDATE
 40
2458166.382929827
  9
$TDINDWG
 40
0.0000000116
  9
$TDUSRTIMER
 40
0.0000000116
  9
$USRTIMER
 70
     1
  9
$ANGBASE
 50
0.0
  9
$ANGDIR
 70
     0
  9
$PDMODE
 70
     0
  9
$PDSIZE
 40
-1.0
  9
$PLINEWID
 40
0.0
  9
$SPLFRAME
 70
     0
  9
$SPLINETYPE
 70
     6
  9
$SPLINESEGS
 70
     8
  9
$HANDSEED
  5
2BD
  9
$SURFTAB1
 70
     6
  9
$SURFTAB2
 70
     6
  9
$SURFTYPE
 70
     6
  9
$SURFU
 70
     6
  9
$SURFV
 70
     6
  9
$UCSBASE
  2

  9
$UCSNAME
  2

  9
$UCSORG
 10
0.0
 20
0.0
 30
0.0
  9
$UCSXDIR
 10
1.0
 20
0.0
 30
0.0
  9
$UCSYDIR
 10
0.0
 20
1.0
 30
0.0
  9
$UCSORTHOREF
  2

  9
$UCSORTHOVIEW
 70
     0
  9
$UCSORGTOP
 10
0.0
 20
0.0
 30
0.0
  9
$UCSORGBOTTOM
 10
0.0
 20
0.0
 30
0.0
  9
$UCSORGLEFT
 10
0.0
 20
0.0
 30
0.0
  9
$UCSORGRIGHT
 10
0.0
 20
0.0
 30
0.0
  9
$UCSORGFRONT
 10
0.0
 20
0.0
 30
0.0
  9
$UCSORGBACK
 10
0.0
 20
0.0
 30
0.0
  9
$PUCSBASE
  2

  9
$PUCSNAME
  2

  9
$PUCSORG
 10
0.0
 20
0.0
 30
0.0
  9
$PUCSXDIR
 10
1.0
 20
0.0
 30
0.0
  9
$PUCSYDIR
 10
0.0
 20
1.0
 30
0.0
  9
$PUCSORTHOREF
  2

  9
$PUCSORTHOVIEW
 70
     0
  9
$PUCSORGTOP
 10
0.0
 20
0.0
 30
0.0
  9
$PUCSORGBOTTOM
 10
0.0
 20
0.0
 30
0.0
  9
$PUCSORGLEFT
 10
0.0
 20
0.0
 30
0.0
  9
$PUCSORGRIGHT
 10
0.0
 20
0.0
 30
0.0
  9
$PUCSORGFRONT
 10
0.0
 20
0.0
 30
0.0
  9
$PUCSORGBACK
 10
0.0
 20
0.0
 30
0.0
  9
$USERI1
 70
     0
  9
$USERI2
 70
     0
  9
$USERI3
 70
     0
  9
$USERI4
 70
     0
  9
$USERI5
 70
     0
  9
$USERR1
 40
0.0
  9
$USERR2
 40
0.0
  9
$USERR3
 40
0.0
  9
$USERR4
 40
0.0
  9
$USERR5
 40
0.0
  9
$WORLDVIEW
 70
     1
  9
$SHADEDGE
 70
     3
  9
$SHADEDIF
 70
    70
  9
$TILEMODE
 70
     1
  9
$MAXACTVP
 70
    64
  9
$PINSBASE
 10
0.0
 20
0.0
 30
0.0
  9
$PLIMCHECK
 70
     0
  9
$PEXTMIN
 10
1.0000000000E+20
 20
1.0000000000E+20
 30
1.0000000000E+20
  9
$PEXTMAX
 10
-1.0000000000E+20
 20
-1.0000000000E+20
 30
-1.0000000000E+20
  9
$PLIMMIN
 10
0.0
 20
0.0
  9
$PLIMMAX
 10
420.0
 20
297.0
  9
$UNITMODE
 70
     0
  9
$VISRETAIN
 70
     1
  9
$PLINEGEN
 70
     0
  9
$PSLTSCALE
 70
     1
  9
$TREEDEPTH
 70
  3020
  9
$CMLSTYLE
  2
Standard
  9
$CMLJUST
 70
     0
  9
$CMLSCALE
 40
20.0
  9
$PROXYGRAPHICS
 70
     1
  9
$MEASUREMENT
 70
     1
  9
$CELWEIGHT
370
    -1
  9
$ENDCAPS
280
     0
  9
$JOINSTYLE
280
     0
  9
$LWDISPLAY
290
     1
  9
$INSUNITS
 70
     4
  9
$HYPERLINKBASE
  1

  9
$STYLESHEET
  1

  9
$XEDIT
290
     1
  9
$CEPSNTYPE
380
     0
  9
$PSTYLEMODE
290
     1
  9
$FINGERPRINTGUID
  2
{1EB3A917-0FE5-4E30-AC76-2C66173C6A47}
  9
$VERSIONGUID
  2
{FAEB1C32-E019-11D5-929B-00C0DF256EC4}
  9
$EXTNAMES
290
     1
  9
$PSVPSCALE
 40
0.0
  9
$OLESTARTUP
290
     0
  0
ENDSEC
  0
SECTION
  2
CLASSES
  0
CLASS
  1
ACDBDICTIONARYWDFLT
  2
AcDbDictionaryWithDefault
  3
ObjectDBX Classes
 90
        0
280
     0
281
     0
  0
CLASS
  1
VISUALSTYLE
  2
AcDbVisualStyle
  3
ObjectDBX Classes
 90
     4095
280
     0
281
     0
  0
CLASS
  1
MATERIAL
  2
AcDbMaterial
  3
ObjectDBX Classes
 90
     1153
280
     0
281
     0
  0
CLASS
  1
SCALE
  2
AcDbScale
  3
ObjectDBX Classes
 90
     1153
280
     0
281
     0
  0
CLASS
  1
TABLESTYLE
  2
AcDbTableStyle
  3
ObjectDBX Classes
 90
     4095
280
     0
281
     0
  0
CLASS
  1
MLEADERSTYLE
  2
AcDbMLeaderStyle
  3
ACDB_MLEADERSTYLE_CLASS
 90
     4095
280
     0
281
     0
  0
CLASS
  1
SUN
  2
AcDbSun
  3
SCENEOE
 90
     1153
280
     0
281
     0
  0
CLASS
  1
ACDBPLACEHOLDER
  2
AcDbPlaceHolder
  3
ObjectDBX Classes
 90
        0
280
     0
281
     0
  0
CLASS
  1
LAYOUT
  2
AcDbLayout
  3
ObjectDBX Classes
 90
        0
280
     0
281
     0
  0
ENDSEC
  0
SECTION
  2
TABLES
  0
TABLE
  2
VPORT
  5
8
330
0
100
AcDbSymbolTable
 70
     1
  0
VPORT
  5
29
330
8
100
AcDbSymbolTableRecord
100
AcDbViewportTableRecord
  2
*Active
 70
     0
 10
0.0
 20
0.0
 11
1.0
 21
1.0
 12
148.5
 22
105.0
 13
0.0
 23
0.0
 14
10.0
 24
10.0
 15
10.0
 25
10.0
 16
0.0
 26
0.0
 36
1.0
 17
0.0
 27
0.0
 37
0.0
 40
210.0
 41
1.4142857143
 42
50.0
 43
0.0
 44
0.0
 50
0.0
 51
0.0
 71
     0
 72
  2000
 73
     1
 74
     3
 75
     0
 76
     0
 77
     0
 78
     0
281
     0
 65
     1
110
0.0
120
0.0
130
0.0
111
1.0
121
0.0
131
0.0
112
0.0
122
1.0
132
0.0
 79
     0
146
0.0
  0
ENDTAB
  0
TABLE
  2
LTYPE
  5
5
330
0
100
AcDbSymbolTable
 70
     6
  0
LTYPE
  5
14
330
5
100
AcDbSymbolTableRecord
100
AcDbLinetypeTableRecord
  2
ByBlock
 70
     0
  3

 72
    65
 73
     0
 40
0.0
  0
LTYPE
  5
15
330
5
100
AcDbSymbolTableRecord
100
AcDbLinetypeTableRecord
  2
ByLayer
 70
     0
  3

 72
    65
 73
     0
 40
0.0
  0
LTYPE
  5
16
330
5
100
AcDbSymbolTableRecord
100
AcDbLinetypeTableRecord
  2
Continuous
 70
     0
  3
Solid line
 72
    65
 73
     0
 40
0.0
  0
LTYPE
  5
6E
330
5
100
AcDbSymbolTableRecord
100
AcDbLinetypeTableRecord
  2
HIDDEN
 70
     0
  3
Hidden __ __ __ __ __ __ __ __ __ __ __ __ __ __
 72
    65
 73
     2
 40
1.905
 49
1.27
 74
     0
 49
-0.635
 74
     0
  0
LTYPE
  5
6F
330
5
100
AcDbSymbolTableRecord
100
AcDbLinetypeTableRecord
  2
PHANTOM
 70
     0
  3
Phantom ______  __  __  ______  __  __  ______
 72
    65
 73
     6
 40
12.7
 49
6.35
 74
     0
 49
-1.27
 74
     0
 49
1.27
 74
     0
 49
-1.27
 74
     0
 49
1.27
 74
     0
 49
-1.27
 74
     0
  0
LTYPE
  5
70
330
5
100
AcDbSymbolTableRecord
100
AcDbLinetypeTableRecord
  2
CENTER
 70
     0
  3
Center ____ _ ____ _ ____ _ ____ _ ____ _ ____
 72
    65
 73
     4
 40
10.16
 49
6.35
 74
     0
 49
-1.27
 74
     0
 49
1.27
 74
     0
 49
-1.27
 74
     0
  0
LTYPE
  5
71
330
5
100
AcDbSymbolTableRecord
100
AcDbLinetypeTableRecord
  2
CENTERX2
 70
     0
  3
Center (2x) ________  __  ________  __  _____
 72
    65
 73
     4
 40
20.32
 49
12.7
 74
     0
 49
-2.54
 74
     0
 49
2.54
 74
     0
 49
-2.54
 74
     0
  0
LTYPE
  5
72
330
5
100
AcDbSymbolTableRecord
100
AcDbLinetypeTableRecord
  2
DOT2
 70
     0
  3
Dot (.5x) ........................................
 72
    65
 73
     2
 40
0.635
 49
0.0
 74
     0
 49
-0.635
 74
     0
  0
ENDTAB
  0
TABLE
  2
LAYER
  5
2
330
0
100
AcDbSymbolTable
 70
     5
  0
LAYER
  5
10
330
2
100
AcDbSymbolTableRecord
100
AcDbLayerTableRecord
  2
0
 70
     0
 62
     7
  6
Continuous
370
    -3
390
F
  0
LAYER
  5
73
330
2
100
AcDbSymbolTableRecord
100
AcDbLayerTableRecord
  2
FORMAT
 70
     0
 62
     7
  6
Continuous
370
    -3
390
F
  0
LAYER
  5
74
330
2
100
AcDbSymbolTableRecord
100
AcDbLayerTableRecord
  2
VERMASSUNG
 70
     0
 62
     7
  6
Continuous
370
    -3
390
F
  0
LAYER
  5
75
330
2
100
AcDbSymbolTableRecord
100
AcDbLayerTableRecord
  2
KOPF_DÜNN
 70
     0
 62
     7
  6
Continuous
370
    -3
390
F
  0
LAYER
  5
76
330
2
100
AcDbSymbolTableRecord
100
AcDbLayerTableRecord
  2
KOPF_DICK
 70
     0
 62
     7
  6
Continuous
370
    25
390
F
  0
ENDTAB
  0
TABLE
  2
STYLE
  5
3
330
0
100
AcDbSymbolTable
 70
     2
  0
STYLE
  5
11
330
3
100
AcDbSymbolTableRecord
100
AcDbTextStyleTableRecord
  2
Standard
 70
     0
 40
0.0
 41
1.0
 50
0.0
 71
     0
 42
2.0
  3
txt
  4

  0
STYLE
  5
77
330
3
100
AcDbSymbolTableRecord
100
AcDbTextStyleTableRecord
  2
SLDTEXTSTYLE0
 70
     0
 40
0.0
 41
0.7
 50
0.0
 71
     0
 42
2.0
  3
TXT
  4

  0
ENDTAB
  0
TABLE
  2
VIEW
  5
6
330
0
100
AcDbSymbolTable
 70
     0
  0
ENDTAB
  0
TABLE
  2
UCS
  5
7
330
0
100
AcDbSymbolTable
 70
     0
  0
ENDTAB
  0
TABLE
  2
APPID
  5
9
330
0
100
AcDbSymbolTable
 70
     1
  0
APPID
  5
12
330
9
100
AcDbSymbolTableRecord
100
AcDbRegAppTableRecord
  2
ACAD
 70
     0
  0
ENDTAB
  0
TABLE
  2
DIMSTYLE
  5
A
330
0
100
AcDbSymbolTable
 70
     4
100
AcDbDimStyleTable
  0
DIMSTYLE
105
27
330
A
100
AcDbSymbolTableRecord
100
AcDbDimStyleTableRecord
  2
ISO-25
 70
     0
 41
2.5
 42
0.625
 43
3.75
 44
1.25
 73
     0
 74
     0
 77
     1
 78
     8
140
2.5
141
2.5
143
0.0393700787
147
0.625
171
     3
172
     1
178
     0
271
     2
272
     2
274
     3
278
    44
283
     0
284
     8
340
11
  0
DIMSTYLE
105
1F4
102
{ACAD_REACTORS
330
1F3
102
}
330
A
100
AcDbSymbolTableRecord
100
AcDbDimStyleTableRecord
  2
SLDDIMSTYLE0
 70
     0
 41
3.0
 44
0.0
 45
0.000000001
 73
     0
 74
     0
 76
     1
 77
     1
 78
    12
 79
     3
140
2.0
147
0.5
173
     1
178
     0
271
     2
272
     3
276
     2
282
     1
284
    12
340
77
  0
DIMSTYLE
105
1FE
102
{ACAD_REACTORS
330
1FD
330
217
330
221
330
22B
102
}
330
A
100
AcDbSymbolTableRecord
100
AcDbDimStyleTableRecord
  2
SLDDIMSTYLE1
 70
     0
 41
3.0
 44
0.0
 45
0.000000001
 73
     0
 74
     0
 77
     1
 78
    12
 79
     3
140
2.0
147
0.5
173
     1
178
     0
271
     2
272
     3
276
     2
284
    12
340
77
  0
DIMSTYLE
105
20A
102
{ACAD_REACTORS
330
209
102
}
330
A
100
AcDbSymbolTableRecord
100
AcDbDimStyleTableRecord
  2
SLDDIMSTYLE2
 70
     0
 41
3.0
 44
0.0
 45
0.000000001
 73
     0
 74
     0
 77
     1
 78
    12
 79
     3
140
2.0
147
0.5
173
     1
178
     0
271
     1
272
     3
276
     2
284
    12
340
77
  0
ENDTAB
  0
TABLE
  2
BLOCK_RECORD
  5
1
330
0
100
AcDbSymbolTable
 70
     7
  0
BLOCK_RECORD
  5
1F
330
1
100
AcDbSymbolTableRecord
100
AcDbBlockTableRecord
  2
*Model_Space
340
22
  0
BLOCK_RECORD
  5
1B
330
1
100
AcDbSymbolTableRecord
100
AcDbBlockTableRecord
  2
*Paper_Space
340
1E
  0
BLOCK_RECORD
  5
23
330
1
100
AcDbSymbolTableRecord
100
AcDbBlockTableRecord
  2
*Paper_Space0
340
26
  0
BLOCK_RECORD
  5
1F5
330
1
100
AcDbSymbolTableRecord
100
AcDbBlockTableRecord
  2
_D
340
0
  0
BLOCK_RECORD
  5
1FF
330
1
100
AcDbSymbolTableRecord
100
AcDbBlockTableRecord
  2
_D_1
340
0
  0
BLOCK_RECORD
  5
20B
330
1
100
AcDbSymbolTableRecord
100
AcDbBlockTableRecord
  2
_D_2
340
0
  0
BLOCK_RECORD
  5
218
330
1
100
AcDbSymbolTableRecord
100
AcDbBlockTableRecord
  2
_D_3
340
0
  0
BLOCK_RECORD
  5
222
330
1
100
AcDbSymbolTableRecord
100
AcDbBlockTableRecord
  2
_D_4
340
0
  0
BLOCK_RECORD
  5
22C
330
1
100
AcDbSymbolTableRecord
100
AcDbBlockTableRecord
  2
_D_5
340
0
  0
ENDTAB
  0
ENDSEC
  0
SECTION
  2
BLOCKS
  0
BLOCK
  5
20
330
1F
100
AcDbEntity
  8
0
100
AcDbBlockBegin
  2
*Model_Space
 70
     0
 10
0.0
 20
0.0
 30
0.0
  3
*Model_Space
  1

  0
ENDBLK
  5
21
330
1F
100
AcDbEntity
  8
0
100
AcDbBlockEnd
  0
BLOCK
  5
1C
330
1B
100
AcDbEntity
 67
     1
  8
0
100
AcDbBlockBegin
  2
*Paper_Space
 70
     0
 10
0.0
 20
0.0
 30
0.0
  3
*Paper_Space
  1

  0
ENDBLK
  5
1D
330
1B
100
AcDbEntity
 67
     1
  8
0
100
AcDbBlockEnd
  0
BLOCK
  5
24
330
23
100
AcDbEntity
  8
0
100
AcDbBlockBegin
  2
*Paper_Space0
 70
     0
 10
0.0
 20
0.0
 30
0.0
  3
*Paper_Space0
  1

  0
ENDBLK
  5
25
330
23
100
AcDbEntity
  8
0
100
AcDbBlockEnd
  0
BLOCK
  5
1F6
330
1F5
100
AcDbEntity
  8
0
100
AcDbBlockBegin
  2
_D
 70
     0
 10
0.0
 20
0.0
 30
0.0
  3
_D
  1

  0
SOLID
  5
1F8
330
1F5
100
AcDbEntity
  8
VERMASSUNG
100
AcDbTrace
 10
247.7257962356
 20
120.304378477
 30
0.0
 11
247.2757962356
 21
117.304378477
 31
0.0
 12
248.1757962356
 22
117.304378477
 32
0.0
 13
248.1757962356
 23
117.304378477
 33
0.0
  0
LINE
  5
1F9
330
1F5
100
AcDbEntity
  8
VERMASSUNG
100
AcDbLine
 10
193.8741047645
 20
120.304378477
 30
0.0
 11
248.7257962356
 21
120.304378477
 31
0.0
  0
LINE
  5
1FA
330
1F5
100
AcDbEntity
  8
VERMASSUNG
100
AcDbLine
 10
247.7257962356
 20
120.304378477
 30
0.0
 11
247.7257962356
 21
110.1993783499
 31
0.0
  0
MTEXT
  5
1FB
330
1F5
100
AcDbEntity
  8
VERMASSUNG
100
AcDbMText
 10
245.1476609307
 20
110.1993783499
 30
0.0
 40
2.0
 41
0.0
 71
     1
 72
     1
  1
%%c
  7
SLDTEXTSTYLE0
 11
-7.932373437343760E-15
 21
1.0
 31
0.0
 73
     1
 44
1.0
  0
MTEXT
  5
1FC
330
1F5
100
AcDbEntity
  8
VERMASSUNG
100
AcDbMText
 10
244.9476609794
 20
113.8093783642
 30
0.0
 40
2.0
 41
0.0
 71
     1
 72
     1
  1
14
  7
SLDTEXTSTYLE0
 11
-7.932373437343760E-15
 21
1.0
 31
0.0
 73
     1
 44
1.0
  0
ENDBLK
  5
1F7
330
1F5
100
AcDbEntity
  8
0
100
AcDbBlockEnd
  0
BLOCK
  5
200
330
1FF
100
AcDbEntity
  8
0
100
AcDbBlockBegin
  2
_D_1
 70
     0
 10
0.0
 20
0.0
 30
0.0
  3
_D_1
  1

  0
SOLID
  5
202
330
1FF
100
AcDbEntity
  8
VERMASSUNG
100
AcDbTrace
 10
257.5332032744
 20
135.804378477
 30
0.0
 11
257.0832032744
 21
132.804378477
 31
0.0
 12
257.9832032744
 22
132.804378477
 32
0.0
 13
257.9832032744
 23
132.804378477
 33
0.0
  0
SOLID
  5
203
330
1FF
100
AcDbEntity
  8
VERMASSUNG
100
AcDbTrace
 10
257.5332032744
 20
90.804378477
 30
0.0
 11
257.9832032744
 21
93.804378477
 31
0.0
 12
257.0832032744
 22
93.804378477
 32
0.0
 13
257.0832032744
 23
93.804378477
 33
0.0
  0
LINE
  5
204
330
1FF
100
AcDbEntity
  8
VERMASSUNG
100
AcDbLine
 10
207.0598097812
 20
135.804378477
 30
0.0
 11
258.5332032744
 21
135.804378477
 31
0.0
  0
LINE
  5
205
330
1FF
100
AcDbEntity
  8
VERMASSUNG
100
AcDbLine
 10
207.0598097812
 20
90.804378477
 30
0.0
 11
258.5332032744
 21
90.804378477
 31
0.0
  0
LINE
  5
206
330
1FF
100
AcDbEntity
  8
VERMASSUNG
100
AcDbLine
 10
257.5332032744
 20
135.804378477
 30
0.0
 11
257.5332032744
 21
90.804378477
 31
0.0
  0
MTEXT
  5
207
330
1FF
100
AcDbEntity
  8
VERMASSUNG
100
AcDbMText
 10
254.9550679695
 20
109.9993784568
 30
0.0
 40
2.0
 41
0.0
 71
     1
 72
     1
  1
%%c
  7
SLDTEXTSTYLE0
 11
-7.932373437343760E-15
 21
1.0
 31
0.0
 73
     1
 44
1.0
  0
MTEXT
  5
208
330
1FF
100
AcDbEntity
  8
VERMASSUNG
100
AcDbMText
 10
254.7550680182
 20
113.6093784711
 30
0.0
 40
2.0
 41
0.0
 71
     1
 72
     1
  1
45
  7
SLDTEXTSTYLE0
 11
-7.932373437343760E-15
 21
1.0
 31
0.0
 73
     1
 44
1.0
  0
ENDBLK
  5
201
330
1FF
100
AcDbEntity
  8
0
100
AcDbBlockEnd
  0
BLOCK
  5
20C
330
20B
100
AcDbEntity
  8
0
100
AcDbBlockBegin
  2
_D_2
 70
     0
 10
0.0
 20
0.0
 30
0.0
  3
_D_2
  1

  0
SOLID
  5
20E
330
20B
100
AcDbEntity
  8
VERMASSUNG
100
AcDbTrace
 10
59.0490797645
 20
144.779378477
 30
0.0
 11
58.5990797645
 21
141.779378477
 31
0.0
 12
59.4990797645
 22
141.779378477
 32
0.0
 13
59.4990797645
 23
141.779378477
 33
0.0
  0
SOLID
  5
20F
330
20B
100
AcDbEntity
  8
VERMASSUNG
100
AcDbTrace
 10
59.0490797645
 20
81.829378477
 30
0.0
 11
59.4990797645
 21
84.829378477
 31
0.0
 12
58.5990797645
 22
84.829378477
 32
0.0
 13
58.5990797645
 23
84.829378477
 33
0.0
  0
LINE
  5
210
330
20B
100
AcDbEntity
  8
VERMASSUNG
100
AcDbLine
 10
134.233302569
 20
144.779378477
 30
0.0
 11
58.0490797645
 21
144.779378477
 31
0.0
  0
LINE
  5
211
330
20B
100
AcDbEntity
  8
VERMASSUNG
100
AcDbLine
 10
134.233302569
 20
81.829378477
 30
0.0
 11
58.0490797645
 21
81.829378477
 31
0.0
  0
LINE
  5
212
330
20B
100
AcDbEntity
  8
VERMASSUNG
100
AcDbLine
 10
59.0490797645
 20
144.779378477
 30
0.0
 11
59.0490797645
 21
81.829378477
 31
0.0
  0
MTEXT
  5
213
330
20B
100
AcDbEntity
  8
VERMASSUNG
100
AcDbMText
 10
56.2709445083
 20
105.1993798586
 30
0.0
 40
2.0
 41
0.0
 71
     1
 72
     1
  1
KM
  7
SLDTEXTSTYLE0
 11
-7.932373437343760E-15
 21
1.0
 31
0.0
 73
     1
 44
1.0
  0
MTEXT
  5
214
330
20B
100
AcDbEntity
  8
VERMASSUNG
100
AcDbMText
 10
56.4709444596
 20
108.5993796709
 30
0.0
 40
2.0
 41
0.0
 71
     1
 72
     1
  1
%%c
  7
SLDTEXTSTYLE0
 11
-7.932373437343760E-15
 21
1.0
 31
0.0
 73
     1
 44
1.0
  0
MTEXT
  5
215
330
20B
100
AcDbEntity
  8
VERMASSUNG
100
AcDbMText
 10
56.2709445083
 20
112.2093796852
 30
0.0
 40
2.0
 41
0.0
 71
     1
 72
     1
  1
63
  7
SLDTEXTSTYLE0
 11
-7.932373437343760E-15
 21
1.0
 31
0.0
 73
     1
 44
1.0
  0
MTEXT
  5
216
330
20B
100
AcDbEntity
  8
VERMASSUNG
100
AcDbMText
 10
56.2709445083
 20
116.1968795854
 30
0.0
 40
2.0
 41
0.0
 71
     1
 72
     1
  1
XMZ
  7
SLDTEXTSTYLE0
 11
-7.932373437343760E-15
 21
1.0
 31
0.0
 73
     1
 44
1.0
  0
ENDBLK
  5
20D
330
20B
100
AcDbEntity
  8
0
100
AcDbBlockEnd
  0
BLOCK
  5
219
330
218
100
AcDbEntity
  8
0
100
AcDbBlockBegin
  2
_D_3
 70
     0
 10
0.0
 20
0.0
 30
0.0
  3
_D_3
  1

  0
SOLID
  5
21B
330
218
100
AcDbEntity
  8
VERMASSUNG
100
AcDbTrace
 10
138.9991047645
 20
151.0699923147
 30
0.0
 11
141.9991047645
 21
150.6199923147
 31
0.0
 12
141.9991047645
 22
151.5199923147
 32
0.0
 13
141.9991047645
 23
151.5199923147
 33
0.0
  0
SOLID
  5
21C
330
218
100
AcDbEntity
  8
VERMASSUNG
100
AcDbTrace
 10
220.9991047645
 20
151.0699923147
 30
0.0
 11
217.9991047645
 21
151.5199923147
 31
0.0
 12
217.9991047645
 22
150.6199923147
 32
0.0
 13
217.9991047645
 23
150.6199923147
 33
0.0
  0
LINE
  5
21D
330
218
100
AcDbEntity
  8
VERMASSUNG
100
AcDbLine
 10
138.9991047645
 20
144.779378477
 30
0.0
 11
138.9991047645
 21
152.0699923147
 31
0.0
  0
LINE
  5
21E
330
218
100
AcDbEntity
  8
VERMASSUNG
100
AcDbLine
 10
220.9991047645
 20
128.0302379554
 30
0.0
 11
220.9991047645
 21
152.0699923147
 31
0.0
  0
LINE
  5
21F
330
218
100
AcDbEntity
  8
VERMASSUNG
100
AcDbLine
 10
138.9991047645
 20
151.0699923147
 30
0.0
 11
220.9991047645
 21
151.0699923147
 31
0.0
  0
MTEXT
  5
220
330
218
100
AcDbEntity
  8
VERMASSUNG
100
AcDbMText
 10
178.5991048144
 20
153.6481279107
 30
0.0
 40
2.0
 41
0.0
 71
     1
 72
     1
  1
82
  7
SLDTEXTSTYLE0
 73
     1
 44
1.0
  0
ENDBLK
  5
21A
330
218
100
AcDbEntity
  8
0
100
AcDbBlockEnd
  0
BLOCK
  5
223
330
222
100
AcDbEntity
  8
0
100
AcDbBlockBegin
  2
_D_4
 70
     0
 10
0.0
 20
0.0
 30
0.0
  3
_D_4
  1

  0
SOLID
  5
225
330
222
100
AcDbEntity
  8
VERMASSUNG
100
AcDbTrace
 10
120.9991047645
 20
160.779378477
 30
0.0
 11
123.9991047645
 21
160.329378477
 31
0.0
 12
123.9991047645
 22
161.229378477
 32
0.0
 13
123.9991047645
 23
161.229378477
 33
0.0
  0
SOLID
  5
226
330
222
100
AcDbEntity
  8
VERMASSUNG
100
AcDbTrace
 10
220.9991047645
 20
160.779378477
 30
0.0
 11
217.9991047645
 21
161.229378477
 31
0.0
 12
217.9991047645
 22
160.329378477
 32
0.0
 13
217.9991047645
 23
160.329378477
 33
0.0
  0
LINE
  5
227
330
222
100
AcDbEntity
  8
VERMASSUNG
100
AcDbLine
 10
120.9991047645
 20
144.579378477
 30
0.0
 11
120.9991047645
 21
161.779378477
 31
0.0
  0
LINE
  5
228
330
222
100
AcDbEntity
  8
VERMASSUNG
100
AcDbLine
 10
220.9991047645
 20
128.0302379554
 30
0.0
 11
220.9991047645
 21
161.779378477
 31
0.0
  0
LINE
  5
229
330
222
100
AcDbEntity
  8
VERMASSUNG
100
AcDbLine
 10
120.9991047645
 20
160.779378477
 30
0.0
 11
220.9991047645
 21
160.779378477
 31
0.0
  0
MTEXT
  5
22A
330
222
100
AcDbEntity
  8
VERMASSUNG
100
AcDbMText
 10
169.0991047324
 20
163.357514073
 30
0.0
 40
2.0
 41
0.0
 71
     1
 72
     1
  1
100
  7
SLDTEXTSTYLE0
 73
     1
 44
1.0
  0
ENDBLK
  5
224
330
222
100
AcDbEntity
  8
0
100
AcDbBlockEnd
  0
BLOCK
  5
22D
330
22C
100
AcDbEntity
  8
0
100
AcDbBlockBegin
  2
_D_5
 70
     0
 10
0.0
 20
0.0
 30
0.0
  3
_D_5
  1

  0
SOLID
  5
22F
330
22C
100
AcDbEntity
  8
VERMASSUNG
100
AcDbTrace
 10
81.0491047645
 20
169.8575677069
 30
0.0
 11
84.0491047645
 21
169.4075677069
 31
0.0
 12
84.0491047645
 22
170.3075677069
 32
0.0
 13
84.0491047645
 23
170.3075677069
 33
0.0
  0
SOLID
  5
230
330
22C
100
AcDbEntity
  8
VERMASSUNG
100
AcDbTrace
 10
220.9991047645
 20
169.8575677069
 30
0.0
 11
217.9991047645
 21
170.3075677069
 31
0.0
 12
217.9991047645
 22
169.4075677069
 32
0.0
 13
217.9991047645
 23
169.4075677069
 33
0.0
  0
LINE
  5
231
330
22C
100
AcDbEntity
  8
VERMASSUNG
100
AcDbLine
 10
81.0491047645
 20
135.5074732008
 30
0.0
 11
81.0491047645
 21
170.8575677069
 31
0.0
  0
LINE
  5
232
330
22C
100
AcDbEntity
  8
VERMASSUNG
100
AcDbLine
 10
220.9991047645
 20
128.0302379554
 30
0.0
 11
220.9991047645
 21
170.8575677069
 31
0.0
  0
LINE
  5
233
330
22C
100
AcDbEntity
  8
VERMASSUNG
100
AcDbLine
 10
81.0491047645
 20
169.8575677069
 30
0.0
 11
220.9991047645
 21
169.8575677069
 31
0.0
  0
MTEXT
  5
234
330
22C
100
AcDbEntity
  8
VERMASSUNG
100
AcDbMText
 10
147.4241048263
 20
172.4357033028
 30
0.0
 40
2.0
 41
0.0
 71
     1
 72
     1
  1
139.95
  7
SLDTEXTSTYLE0
 73
     1
 44
1.0
  0
ENDBLK
  5
22E
330
22C
100
AcDbEntity
  8
0
100
AcDbBlockEnd
  0
ENDSEC
  0
SECTION
  2
ENTITIES
  0
MTEXT
  5
78
330
1F
100
AcDbEntity
  8
KOPF_DÜNN
100
AcDbMText
 10
13.8892156294
 20
23.8442973028
 30
0.0
 40
3.0
 41
0.0
 71
     1
 72
     1
  1
KY6.W14.K01.100
  7
SLDTEXTSTYLE0
 73
     1
 44
1.0
  0
MTEXT
  5
79
330
1F
100
AcDbEntity
  8
VERMASSUNG
100
AcDbMText
 10
13.9329988022
 20
28.8834360957
 30
0.0
 40
3.0
 41
0.0
 71
     1
 72
     1
  1
Flächenspannfutter Weldon_End mill adapter Weldon
  7
SLDTEXTSTYLE0
 73
     1
 44
1.0
  0
MTEXT
  5
7A
330
1F
100
AcDbEntity
  8
VERMASSUNG
100
AcDbMText
 10
98.8601118557
 20
13.8365368761
 30
0.0
 40
2.0
 41
0.0
 71
     1
 72
     1
  1
Datum: 16.02.2018
  7
SLDTEXTSTYLE0
 73
     1
 44
1.0
  0
MTEXT
  5
7B
330
1F
100
AcDbEntity
  8
VERMASSUNG
100
AcDbMText
 10
13.933048693
 20
18.0482802738
 30
0.0
 40
2.0
 41
0.0
 71
     1
 72
     1
  1
KM63 XMZ / Ø14
  7
SLDTEXTSTYLE0
 73
     1
 44
1.0
  0
MTEXT
  5
7C
330
1F
100
AcDbEntity
  8
VERMASSUNG
100
AcDbMText
 10
13.9808475933
 20
13.9090974274
 30
0.0
 40
2.0
 41
0.0
 71
     1
 72
     1
  1
Gewicht: 1526g
  7
SLDTEXTSTYLE0
 73
     1
 44
1.0
  0
SPLINE
  5
7D
330
1F
100
AcDbEntity
  8
0
  6
Continuous
 62
     7
370
    25
100
AcDbSpline
210
0.0
220
0.0
230
1.0
 70
     8
 71
     3
 72
     8
 73
     4
 74
     0
 42
0.000000001
 43
0.00000001
 40
0.0
 40
0.0
 40
0.0
 40
0.0
 40
1.0
 40
1.0
 40
1.0
 40
1.0
 10
383.5389399350142
 20
108.9343776050407
 30
0.0
 10
383.4701015648274
 20
108.8712829317219
 30
0.0
 10
383.4016702043713
 20
108.807560553591
 30
0.0
 10
383.3336539297067
 20
108.7432151213176
 30
0.0
  0
SPLINE
  5
7E
330
1F
100
AcDbEntity
  8
0
  6
Continuous
 62
     7
370
    25
100
AcDbSpline
210
0.0
220
0.0
230
1.0
 70
     8
 71
     3
 72
     8
 73
     4
 74
     0
 42
0.000000001
 43
0.00000001
 40
0.0
 40
0.0
 40
0.0
 40
0.0
 40
1.0
 40
1.0
 40
1.0
 40
1.0
 10
383.7969671762748
 20
108.7651157751134
 30
0.0
 10
383.7102637421145
 20
108.8212766947826
 30
0.0
 10
383.6242656946307
 20
108.8777014311085
 30
0.0
 10
383.5389399350142
 20
108.9343776050407
 30
0.0
  0
ARC
  5
7F
330
1F
100
AcDbEntity
  8
0
  6
Continuous
 62
     7
370
    25
100
AcDbCircle
 10
393.9280800446
 20
113.304378477
 30
0.0
 40
11.10154736189901
100
AcDbArc
 50
204.1348482805
 51
335.8651517195
  0
SPLINE
  5
80
330
1F
100
AcDbEntity
  8
0
  6
Continuous
 62
     7
370
    25
100
AcDbSpline
210
0.0
220
0.0
230
1.0
 70
     8
 71
     3
 72
     8
 73
     4
 74
     0
 42
0.000000001
 43
0.00000001
 40
0.0
 40
0.0
 40
0.0
 40
0.0
 40
1.0
 40
1.0
 40
1.0
 40
1.0
 10
404.3172201542799
 20
108.9343776050407
 30
0.0
 10
404.2318943946635
 20
108.8777014311085
 30
0.0
 10
404.1458963471797
 20
108.8212766947826
 30
0.0
 10
404.0591929130192
 20
108.7651157751134
 30
0.0
  0
SPLINE
  5
81
330
1F
100
AcDbEntity
  8
0
  6
Continuous
 62
     7
370
    25
100
AcDbSpline
210
0.0
220
0.0
230
1.0
 70
     8
 71
     3
 72
     8
 73
     4
 74
     0
 42
0.000000001
 43
0.00000001
 40
0.0
 40
0.0
 40
0.0
 40
0.0
 40
1.0
 40
1.0
 40
1.0
 40
1.0
 10
404.5225061595875
 20
108.7432151213176
 30
0.0
 10
404.4544898849229
 20
108.807560553591
 30
0.0
 10
404.3860585244668
 20
108.8712829317219
 30
0.0
 10
404.3172201542799
 20
108.9343776050407
 30
0.0
  0
ARC
  5
82
330
1F
100
AcDbEntity
  8
0
  6
Continuous
 62
     7
370
    25
100
AcDbCircle
 10
393.9280800446
 20
113.304378477
 30
0.0
 40
11.53456006379121
100
AcDbArc
 50
203.2930774359
 51
336.7074733161
  0
SPLINE
  5
83
330
1F
100
AcDbEntity
  8
0
  6
Continuous
 62
     7
370
    25
100
AcDbSpline
210
0.0
220
0.0
230
1.0
 70
     8
 71
     3
 72
     8
 73
     4
 74
     0
 42
0.000000001
 43
0.00000001
 40
0.0000004028655191
 40
0.0000004028655191
 40
0.0000004028655191
 40
0.0000004028655191
 40
0.0015137684369673
 40
0.0015137684369673
 40
0.0015137684369673
 40
0.0015137684369673
 10
385.504485387505
 20
108.9821030732212
 30
0.0
 10
385.2978138999537
 20
108.9098091315065
 30
0.0
 10
385.0911949314131
 20
108.8374776455497
 30
0.0
 10
384.8846185566044
 20
108.7651157751134
 30
0.0
  0
LINE
  5
84
330
1F
100
AcDbEntity
  8
0
  6
Continuous
 62
     7
370
    25
100
AcDbLine
 10
384.8846185566
 20
108.7651157751
 30
0.0
 11
383.7969671763
 21
108.7651157751
 31
0.0
  0
LINE
  5
85
330
1F
100
AcDbEntity
  8
0
  6
Continuous
 62
     7
370
    25
100
AcDbLine
 10
383.7619950419
 20
109.198128477
 30
0.0
 11
383.538939935
 21
108.934377605
 31
0.0
  0
LINE
  5
86
330
1F
100
AcDbEntity
  8
0
  6
Continuous
 62
     7
370
    25
100
AcDbLine
 10
385.5296048692
 20
109.198128477
 30
0.0
 11
383.7622094993
 21
109.198128477
 31
0.0
  0
LINE
  5
87
330
1F
100
AcDbEntity
  8
0
  6
Continuous
 62
     7
370
    25
100
AcDbLine
 10
385.5402622193
 20
109.0405474419
 30
0.0
 11
385.5296048726
 21
109.1981284013
 31
0.0
  0
SPLINE
  5
88
330
1F
100
AcDbEntity
  8
0
  6
Continuous
 62
     7
370
    25
100
AcDbSpline
210
0.0
220
0.0
230
1.0
 70
     8
 71
     3
 72
     8
 73
     4
 74
     0
 42
0.000000001
 43
0.00000001
 40
0.0006523765358269
 40
0.0006523765358269
 40
0.0006523765358269
 40
0.0006523765358269
 40
0.0009043636494504
 40
0.0009043636494504
 40
0.0009043636494504
 40
0.0009043636494504
 10
385.5413622625399
 20
109.0423411706698
 30
0.0
 10
385.5290452680225
 20
109.0222655896876
 30
0.0
 10
385.5167530706184
 20
109.0021862011652
 30
0.0
 10
385.504485387505
 20
108.9821030732212
 30
0.0
  0
LINE
  5
89
330
1F
100
AcDbEntity
  8
0
  6
Continuous
 62
     7
370
    25
100
AcDbLine
 10
383.9521469953
 20
118.5826777264
 30
0.0
 11
384.1605553168
 21
118.334378477
 31
0.0
  0
SPLINE
  5
8A
330
1F
100
AcDbEntity
  8
0
  6
Continuous
 62
     7
370
    25
100
AcDbSpline
210
0.0
220
0.0
230
1.0
 70
     8
 71
     3
 72
     8
 73
     4
 74
     0
 42
0.000000001
 43
0.00000001
 40
0.0
 40
0.0
 40
0.0
 40
0.0
 40
1.0
 40
1.0
 40
1.0
 40
1.0
 10
383.9521469953227
 20
118.5826777263948
 30
0.0
 10
384.0550429091466
 20
118.6446463354857
 30
0.0
 10
384.1588825787015
 20
118.7062249876263
 30
0.0
 10
384.263720466928
 20
118.7673911788978
 30
0.0
  0
LINE
  5
8B
330
1F
100
AcDbEntity
  8
0
  6
Continuous
 62
     7
370
    25
100
AcDbLine
 10
385.4107686272
 20
118.7673911789
 30
0.0
 11
384.2637204669
 21
118.7673911789
 31
0.0
  0
SPLINE
  5
8C
330
1F
100
AcDbEntity
  8
0
  6
Continuous
 62
     7
370
    25
100
AcDbSpline
210
0.0
220
0.0
230
1.0
 70
     8
 71
     3
 72
     8
 73
     4
 74
     0
 42
0.000000001
 43
0.00000001
 40
0.0000004089325119
 40
0.0000004089325119
 40
0.0000004089325119
 40
0.0000004089325119
 40
0.0015399868451459
 40
0.0015399868451459
 40
0.0015399868451459
 40
0.0015399868451459
 10
385.4107686272182
 20
118.7673911788978
 30
0.0
 10
385.6225298860127
 20
118.6949362962444
 30
0.0
 10
385.8344502092028
 20
118.6225974262159
 30
0.0
 10
386.0465681924171
 20
118.55040388079
 30
0.0
  0
LINE
  5
8D
330
1F
100
AcDbEntity
  8
0
  6
Continuous
 62
     7
370
    25
100
AcDbLine
 10
386.0465681924
 20
118.5504038808
 30
0.0
 11
386.0547209984
 21
118.5351914666
 31
0.0
  0
LINE
  5
8E
330
1F
100
AcDbEntity
  8
0
  6
Continuous
 62
     7
370
    25
100
AcDbLine
 10
386.0523505111
 20
118.3343786464
 30
0.0
 11
386.0547219962
 21
118.5351916003
 31
0.0
  0
LINE
  5
8F
330
1F
100
AcDbEntity
  8
0
  6
Continuous
 62
     7
370
    25
100
AcDbLine
 10
386.0523505111
 20
118.334378477
 30
0.0
 11
384.1605553168
 21
118.334378477
 31
0.0
  0
ARC
  5
90
330
1F
100
AcDbEntity
  8
0
  6
Continuous
 62
     7
370
    25
100
AcDbCircle
 10
393.9280800446
 20
113.304378477
 30
0.0
 40
11.10154736189894
100
AcDbArc
 50
29.4783538465
 51
150.5216461535
  0
SPLINE
  5
91
330
1F
100
AcDbEntity
  8
0
  6
Continuous
 62
     7
370
    25
100
AcDbSpline
210
0.0
220
0.0
230
1.0
 70
     8
 71
     3
 72
     8
 73
     4
 74
     0
 42
0.000000001
 43
0.00000001
 40
0.0
 40
0.0
 40
0.0
 40
0.0
 40
1.0
 40
1.0
 40
1.0
 40
1.0
 10
383.7636106142087
 20
118.7568675472644
 30
0.0
 10
383.8261789225784
 20
118.6984170781568
 30
0.0
 10
383.8890255159423
 20
118.6403530676237
 30
0.0
 10
383.9521469953251
 20
118.5826777263925
 30
0.0
  0
ARC
  5
92
330
1F
100
AcDbEntity
  8
0
  6
Continuous
 62
     7
370
    25
100
AcDbCircle
 10
393.9280800446
 20
113.304378477
 30
0.0
 40
11.53456006379119
100
AcDbArc
 50
28.2102805322
 51
151.7902347364
  0
SPLINE
  5
93
330
1F
100
AcDbEntity
  8
0
  6
Continuous
 62
     7
370
    25
100
AcDbSpline
210
0.0
220
0.0
230
1.0
 70
     8
 71
     3
 72
     8
 73
     4
 74
     0
 42
0.000000001
 43
0.00000001
 40
0.0
 40
0.0
 40
0.0
 40
0.0
 40
1.0
 40
1.0
 40
1.0
 40
1.0
 10
403.9040130939694
 20
118.5826777263929
 30
0.0
 10
403.9671345733522
 20
118.6403530676239
 30
0.0
 10
404.0299811667159
 20
118.6984170781569
 30
0.0
 10
404.0925494750854
 20
118.7568675472644
 30
0.0
  0
SPLINE
  5
94
330
1F
100
AcDbEntity
  8
0
  6
Continuous
 62
     7
370
    25
100
AcDbSpline
210
0.0
220
0.0
230
1.0
 70
     8
 71
     3
 72
     8
 73
     4
 74
     0
 42
0.000000001
 43
0.00000001
 40
0.0
 40
0.0
 40
0.0
 40
0.0
 40
1.0
 40
1.0
 40
1.0
 40
1.0
 10
403.5924396223661
 20
118.7673911788978
 30
0.0
 10
403.6972775105923
 20
118.7062249876265
 30
0.0
 10
403.8011171801468
 20
118.6446463354862
 30
0.0
 10
403.9040130939704
 20
118.5826777263955
 30
0.0
  0
LINE
  5
95
330
1F
100
AcDbEntity
  8
0
  6
Continuous
 62
     7
370
    25
100
AcDbLine
 10
404.3172201543
 20
108.934377605
 30
0.0
 11
404.0941650474
 21
109.198128477
 31
0.0
  0
LINE
  5
96
330
1F
100
AcDbEntity
  8
0
  6
Continuous
 62
     7
370
    25
100
AcDbLine
 10
404.059192913
 20
108.7651157751
 30
0.0
 11
402.9715415327
 21
108.7651157751
 31
0.0
  0
SPLINE
  5
97
330
1F
100
AcDbEntity
  8
0
  6
Continuous
 62
     7
370
    25
100
AcDbSpline
210
0.0
220
0.0
230
1.0
 70
     8
 71
     3
 72
     8
 73
     4
 74
     0
 42
0.000000001
 43
0.00000001
 40
0.0000004024872366
 40
0.0000004024872366
 40
0.0000004024872366
 40
0.0000004024872366
 40
0.0015137680586847
 40
0.0015137680586847
 40
0.0015137680586847
 40
0.0015137680586847
 10
402.9715415326897
 20
108.7651157751134
 30
0.0
 10
402.7649651578811
 20
108.8374776455497
 30
0.0
 10
402.5583461893404
 20
108.9098091315065
 30
0.0
 10
402.3516747017892
 20
108.9821030732212
 30
0.0
  0
SPLINE
  5
98
330
1F
100
AcDbEntity
  8
0
  6
Continuous
 62
     7
370
    25
100
AcDbSpline
210
0.0
220
0.0
230
1.0
 70
     8
 71
     3
 72
     8
 73
     4
 74
     0
 42
0.000000001
 43
0.00000001
 40
0.0000002414707367
 40
0.0000002414707367
 40
0.0000002414707367
 40
0.0000002414707367
 40
0.0002447240690309
 40
0.0002447240690309
 40
0.0002447240690309
 40
0.0002447240690309
 10
402.3516747017892
 20
108.9821030732212
 30
0.0
 10
402.339772366434
 20
109.0015880991677
 30
0.0
 10
402.3278469552224
 20
109.0210696049921
 30
0.0
 10
402.3158982099274
 20
109.040547528504
 30
0.0
  0
LINE
  5
99
330
1F
100
AcDbEntity
  8
0
  6
Continuous
 62
     7
370
    25
100
AcDbLine
 10
402.3265552023
 20
109.1981284013
 30
0.0
 11
402.3158978506
 21
109.0405474735
 31
0.0
  0
LINE
  5
9A
330
1F
100
AcDbEntity
  8
0
  6
Continuous
 62
     7
370
    25
100
AcDbLine
 10
404.0941650474
 20
109.198128477
 30
0.0
 11
402.321446611
 21
109.198128477
 31
0.0
  0
SPLINE
  5
9B
330
1F
100
AcDbEntity
  8
0
  6
Continuous
 62
     7
370
    25
100
AcDbSpline
210
0.0
220
0.0
230
1.0
 70
     8
 71
     3
 72
     8
 73
     4
 74
     0
 42
0.000000001
 43
0.00000001
 40
0.000000410413179
 40
0.000000410413179
 40
0.000000410413179
 40
0.000000410413179
 40
0.0015399883258131
 40
0.0015399883258131
 40
0.0015399883258131
 40
0.0015399883258131
 10
401.809591896877
 20
118.55040388079
 30
0.0
 10
402.0217098800914
 20
118.6225974262159
 30
0.0
 10
402.2336302032815
 20
118.6949362962444
 30
0.0
 10
402.445391462076
 20
118.7673911788978
 30
0.0
  0
LINE
  5
9C
330
1F
100
AcDbEntity
  8
0
  6
Continuous
 62
     7
370
    25
100
AcDbLine
 10
403.5924396224
 20
118.7673911789
 30
0.0
 11
402.4453914621
 21
118.7673911789
 31
0.0
  0
LINE
  5
9D
330
1F
100
AcDbEntity
  8
0
  6
Continuous
 62
     7
370
    25
100
AcDbLine
 10
403.6956047725
 20
118.334378477
 30
0.0
 11
403.904013094
 21
118.5826777264
 31
0.0
  0
LINE
  5
9E
330
1F
100
AcDbEntity
  8
0
  6
Continuous
 62
     7
370
    25
100
AcDbLine
 10
403.6954147168
 20
118.334378477
 30
0.0
 11
401.8038097789
 21
118.334378477
 31
0.0
  0
LINE
  5
9F
330
1F
100
AcDbEntity
  8
0
  6
Continuous
 62
     7
370
    25
100
AcDbLine
 10
401.8014379919
 20
118.5351914117
 30
0.0
 11
401.8038095022
 21
118.3343786464
 31
0.0
  0
LINE
  5
A0
330
1F
100
AcDbEntity
  8
0
  6
Continuous
 62
     7
370
    25
100
AcDbLine
 10
401.8014389898
 20
118.535191278
 30
0.0
 11
401.8095918969
 21
118.5504038808
 31
0.0
  0
ARC
  5
A1
330
1F
100
AcDbEntity
  8
0
  6
Continuous
 62
     7
370
    25
100
AcDbCircle
 10
393.9280800446
 20
113.304378477
 30
0.0
 40
10.11875000000003
100
AcDbArc
 50
32.6761561262
 51
147.3238438738
  0
ARC
  5
A2
330
1F
100
AcDbEntity
  8
0
  6
Continuous
 62
     7
370
    25
100
AcDbCircle
 10
393.9280800446
 20
113.304378477
 30
0.0
 40
10.11875000000005
100
AcDbArc
 50
206.6538426687
 51
333.3461573313
  0
ARC
  5
A3
330
1F
100
AcDbEntity
  8
0
  6
Continuous
 62
     7
370
    25
100
AcDbCircle
 10
393.9280800446
 20
113.304378477
 30
0.0
 40
9.467788105676684
100
AcDbArc
 50
33.6481949792
 51
146.3518050208
  0
ARC
  5
A4
330
1F
100
AcDbEntity
  8
0
  6
Continuous
 62
     7
370
    25
100
AcDbCircle
 10
393.9280800446
 20
113.304378477
 30
0.0
 40
9.467788105676709
100
AcDbArc
 50
207.1630537883
 51
332.8369462117
  0
SPLINE
  5
A5
330
1F
100
AcDbEntity
  8
0
  6
Continuous
 62
     7
370
    25
100
AcDbSpline
210
0.0
220
0.0
230
1.0
 70
     8
 71
     3
 72
     8
 73
     4
 74
     0
 42
0.000000001
 43
0.00000001
 40
0.0
 40
0.0
 40
0.0
 40
0.0
 40
1.0
 40
1.0
 40
1.0
 40
1.0
 10
383.3336539295166
 20
108.7432151214289
 30
0.0
 10
383.280411104575
 20
108.7437388476667
 30
0.0
 10
383.2271158189592
 20
108.7445369409291
 30
0.0
 10
383.1737703134698
 20
108.7456099888539
 30
0.0
  0
LINE
  5
A6
330
1F
100
AcDbEntity
  8
0
  6
Continuous
 62
     7
370
    25
100
AcDbLine
 10
383.6018579116
 20
109.198128477
 30
0.0
 11
383.7619950419
 21
109.198128477
 31
0.0
  0
LINE
  5
A7
330
1F
100
AcDbEntity
  8
0
  6
Continuous
 62
     7
370
    25
100
AcDbLine
 10
404.0941650474
 20
109.198128477
 30
0.0
 11
404.2543021777
 21
109.198128477
 31
0.0
  0
SPLINE
  5
A8
330
1F
100
AcDbEntity
  8
0
  6
Continuous
 62
     7
370
    25
100
AcDbSpline
210
0.0
220
0.0
230
1.0
 70
     8
 71
     3
 72
     8
 73
     4
 74
     0
 42
0.000000001
 43
0.00000001
 40
0.0
 40
0.0
 40
0.0
 40
0.0
 40
1.0
 40
1.0
 40
1.0
 40
1.0
 10
404.6823897758244
 20
108.7456099888539
 30
0.0
 10
404.6290442703349
 20
108.7445369409291
 30
0.0
 10
404.5757489847192
 20
108.7437388476667
 30
0.0
 10
404.5225061597775
 20
108.7432151214289
 30
0.0
  0
LINE
  5
A9
330
1F
100
AcDbEntity
  8
0
  6
Continuous
 62
     7
370
    25
100
AcDbLine
 10
384.1605553168
 20
118.334378477
 30
0.0
 11
384.0371383331
 21
118.334378477
 31
0.0
  0
SPLINE
  5
AA
330
1F
100
AcDbEntity
  8
0
  6
Continuous
 62
     7
370
    25
100
AcDbSpline
210
0.0
220
0.0
230
1.0
 70
     8
 71
     3
 72
     8
 73
     4
 74
     0
 42
0.000000001
 43
0.00000001
 40
0.0
 40
0.0
 40
0.0
 40
0.0
 40
1.0
 40
1.0
 40
1.0
 40
1.0
 10
383.6403891199673
 20
118.754823993942
 30
0.0
 10
383.6815045470092
 20
118.7556929315819
 30
0.0
 10
383.7225788416202
 20
118.7563739691648
 30
0.0
 10
383.7636106141093
 20
118.7568675472263
 30
0.0
  0
SPLINE
  5
AB
330
1F
100
AcDbEntity
  8
0
  6
Continuous
 62
     7
370
    25
100
AcDbSpline
210
0.0
220
0.0
230
1.0
 70
     8
 71
     3
 72
     8
 73
     4
 74
     0
 42
0.000000001
 43
0.00000001
 40
0.0
 40
0.0
 40
0.0
 40
0.0
 40
1.0
 40
1.0
 40
1.0
 40
1.0
 10
404.0925494751848
 20
118.7568675472263
 30
0.0
 10
404.1335812476739
 20
118.7563739691648
 30
0.0
 10
404.174655542285
 20
118.755692931582
 30
0.0
 10
404.2157709693268
 20
118.754823993942
 30
0.0
  0
LINE
  5
AC
330
1F
100
AcDbEntity
  8
0
  6
Continuous
 62
     7
370
    25
100
AcDbLine
 10
403.8190217562
 20
118.334378477
 30
0.0
 11
403.6956047725
 21
118.334378477
 31
0.0
  0
SPLINE
  5
AD
330
1F
100
AcDbEntity
  8
0
  6
Continuous
 62
     7
370
    25
100
AcDbSpline
210
0.0
220
0.0
230
1.0
 70
     8
 71
     3
 72
     9
 73
     5
 74
     0
 42
0.000000001
 43
0.00000001
 40
0.0
 40
0.0
 40
0.0
 40
0.0
 40
0.4897878789203994
 40
0.9999999999999999
 40
0.9999999999999999
 40
0.9999999999999999
 40
0.9999999999999999
 10
401.0336696092985
 20
118.5274953432433
 30
0.0
 10
401.1600246915197
 20
118.5288140689966
 30
0.0
 10
401.4180038854919
 20
118.5315065116029
 30
0.0
 10
401.6718986337813
 20
118.5339465894389
 30
0.0
 10
401.801438811837
 20
118.5351915467272
 30
0.0
  0
ARC
  5
AE
330
1F
100
AcDbEntity
  8
0
  6
Continuous
 62
     7
370
    25
100
AcDbCircle
 10
393.9280800446
 20
113.304378477
 30
0.0
 40
8.818750000000001
100
AcDbArc
 50
36.3185452201
 51
143.6814533294
  0
SPLINE
  5
AF
330
1F
100
AcDbEntity
  8
0
  6
Continuous
 62
     7
370
    25
100
AcDbSpline
210
0.0
220
0.0
230
1.0
 70
     8
 71
     3
 72
     9
 73
     5
 74
     0
 42
0.000000001
 43
0.00000001
 40
0.0
 40
0.0
 40
0.0
 40
0.0
 40
0.5102121239851395
 40
0.9999999999999999
 40
0.9999999999999999
 40
0.9999999999999999
 40
0.9999999999999999
 10
386.0547211763324
 20
118.5351917353315
 30
0.0
 10
386.1842613941832
 20
118.5339467766407
 30
0.0
 10
386.4381562190239
 20
118.5315066960696
 30
0.0
 10
386.6961354920336
 20
118.5288142503765
 30
0.0
 10
386.8224906122169
 20
118.5274955231191
 30
0.0
  0
SPLINE
  5
B0
330
1F
100
AcDbEntity
  8
0
  6
Continuous
 62
     7
370
    25
100
AcDbSpline
210
0.0
220
0.0
230
1.0
 70
     8
 71
     3
 72
     8
 73
     4
 74
     0
 42
0.000000001
 43
0.00000001
 40
0.0
 40
0.0
 40
0.0
 40
0.0
 40
1.0
 40
1.0
 40
1.0
 40
1.0
 10
386.8224903585424
 20
118.5274950538419
 30
0.0
 10
386.8147293005969
 20
118.5169368186428
 30
0.0
 10
386.806991775501
 20
118.5063612851165
 30
0.0
 10
386.7992778601316
 20
118.4957685583371
 30
0.0
  0
SPLINE
  5
B1
330
1F
100
AcDbEntity
  8
0
  6
Continuous
 62
     7
370
    25
100
AcDbSpline
210
0.0
220
0.0
230
1.0
 70
     8
 71
     3
 72
     8
 73
     4
 74
     0
 42
0.000000001
 43
0.00000001
 40
0.0
 40
0.0
 40
0.0
 40
0.0
 40
1.0
 40
1.0
 40
1.0
 40
1.0
 10
386.6277200273685
 20
118.3343788158739
 30
0.0
 10
386.684980434403
 20
118.3882869928616
 30
0.0
 10
386.7421668255126
 20
118.4420839179448
 30
0.0
 10
386.7992778601316
 20
118.4957685583371
 30
0.0
  0
LINE
  5
B2
330
1F
100
AcDbEntity
  8
0
  6
Continuous
 62
     7
370
    25
100
AcDbLine
 10
386.6277207271
 20
118.334378477
 30
0.0
 11
386.0523502344
 21
118.334378477
 31
0.0
  0
SPLINE
  5
B3
330
1F
100
AcDbEntity
  8
0
  6
Continuous
 62
     7
370
    25
100
AcDbSpline
210
0.0
220
0.0
230
1.0
 70
     8
 71
     3
 72
     8
 73
     4
 74
     0
 42
0.000000001
 43
0.00000001
 40
0.0
 40
0.0
 40
0.0
 40
0.0
 40
1.0
 40
1.0
 40
1.0
 40
1.0
 10
401.0569976609436
 20
118.4956100440382
 30
0.0
 10
401.0492455482431
 20
118.5062557207108
 30
0.0
 10
401.0414695895757
 20
118.516884032905
 30
0.0
 10
401.0336698629724
 20
118.5274948739674
 30
0.0
  0
LINE
  5
B4
330
1F
100
AcDbEntity
  8
0
  6
Continuous
 62
     7
370
    25
100
AcDbLine
 10
401.8038097789
 20
118.334378477
 30
0.0
 11
401.2284107624
 21
118.334378477
 31
0.0
  0
SPLINE
  5
B5
330
1F
100
AcDbEntity
  8
0
  6
Continuous
 62
     7
370
    25
100
AcDbSpline
210
0.0
220
0.0
230
1.0
 70
     8
 71
     3
 72
     8
 73
     4
 74
     0
 42
0.000000001
 43
0.00000001
 40
0.0
 40
0.0
 40
0.0
 40
0.0
 40
1.0
 40
1.0
 40
1.0
 40
1.0
 10
401.0569976609436
 20
118.4956100440382
 30
0.0
 10
401.1140607886298
 20
118.4419780936224
 30
0.0
 10
401.1711991683601
 20
118.3882340072575
 30
0.0
 10
401.2284114618338
 20
118.3343788160073
 30
0.0
  0
ARC
  5
B6
330
1F
100
AcDbEntity
  8
0
  6
Continuous
 62
     7
370
    25
100
AcDbCircle
 10
393.9280800446
 20
113.304378477
 30
0.0
 40
8.818749999999989
100
AcDbArc
 50
209.2047569376
 51
330.7952430624
  0
SPLINE
  5
B7
330
1F
100
AcDbEntity
  8
0
  6
Continuous
 62
     7
370
    25
100
AcDbSpline
210
0.0
220
0.0
230
1.0
 70
    24
 71
     3
 72
     8
 73
     4
 74
     0
 42
0.000000001
 43
0.00000001
 40
0.0
 40
0.0
 40
0.0
 40
0.0
 40
0.000136040218399
 40
0.000136040218399
 40
0.000136040218399
 40
0.000136040218399
 10
401.6692154414914
 20
109.0448380461544
 30
0.0
 10
401.6547764418073
 20
109.0303990464704
 30
0.0
 10
401.640305989445
 20
109.0159285941081
 30
0.0
 10
401.6258043908936
 20
109.0014269955567
 30
0.0
  0
SPLINE
  5
B8
330
1F
100
AcDbEntity
  8
0
  6
Continuous
 62
     7
370
    25
100
AcDbSpline
210
0.0
220
0.0
230
1.0
 70
     8
 71
     3
 72
     9
 73
     5
 74
     0
 42
0.000000001
 43
0.00000001
 40
0.0
 40
0.0
 40
0.0
 40
0.0
 40
0.5086448740973026
 40
1.0
 40
1.0
 40
1.0
 40
1.0
 10
402.3158981702476
 20
109.0405474403693
 30
0.0
 10
402.2067321212498
 20
109.0412412892143
 30
0.0
 10
401.9921107723341
 20
109.0426054017422
 30
0.0
 10
401.7755994596566
 20
109.04410222168
 30
0.0
 10
401.6692155163567
 20
109.0448376918291
 30
0.0
  0
SPLINE
  5
B9
330
1F
100
AcDbEntity
  8
0
  6
Continuous
 62
     7
370
    25
100
AcDbSpline
210
0.0
220
0.0
230
1.0
 70
     8
 71
     3
 72
     9
 73
     5
 74
     0
 42
0.000000001
 43
0.00000001
 40
0.0
 40
0.0
 40
0.0
 40
0.0
 40
0.4913551252639577
 40
1.0
 40
1.0
 40
1.0
 40
1.0
 10
386.1869446034019
 20
109.0448376613645
 30
0.0
 10
386.0805606520099
 20
109.0441021910356
 30
0.0
 10
385.8640493225822
 20
109.0426053707299
 30
0.0
 10
385.6494279572154
 20
109.0412412578756
 30
0.0
 10
385.5402618997128
 20
109.0405474088637
 30
0.0
  0
SPLINE
  5
BA
330
1F
100
AcDbEntity
  8
0
  6
Continuous
 62
     7
370
    25
100
AcDbSpline
210
0.0
220
0.0
230
1.0
 70
    24
 71
     3
 72
     8
 73
     4
 74
     0
 42
0.000000001
 43
0.00000001
 40
0.0
 40
0.0
 40
0.0
 40
0.0
 40
0.0001360401227241
 40
0.0001360401227241
 40
0.0001360401227241
 40
0.0001360401227241
 10
386.2303556984006
 20
109.0014269955567
 30
0.0
 10
386.2158541100479
 20
109.0159285839093
 30
0.0
 10
386.2013836678406
 20
109.0303990261166
 30
0.0
 10
386.1869446782673
 20
109.0448380156899
 30
0.0
  0
LINE
  5
BB
330
1F
100
AcDbEntity
  8
0
  6
Continuous
 62
     7
370
    25
100
AcDbLine
 10
385.5296047506
 20
109.198128477
 30
0.0
 11
386.0336546227
 21
109.198128477
 31
0.0
  0
SPLINE
  5
BC
330
1F
100
AcDbEntity
  8
0
  6
Continuous
 62
     7
370
    25
100
AcDbSpline
210
0.0
220
0.0
230
1.0
 70
     8
 71
     3
 72
     8
 73
     4
 74
     0
 42
0.000000001
 43
0.00000001
 40
0.0
 40
0.0
 40
0.0
 40
0.0
 40
1.0
 40
1.0
 40
1.0
 40
1.0
 10
386.1869448780992
 20
109.0448378161028
 30
0.0
 10
386.1358761154949
 20
109.0958803078469
 30
0.0
 10
386.0847791558588
 20
109.1469772798728
 30
0.0
 10
386.0336543143432
 20
109.198128379614
 30
0.0
  0
SPLINE
  5
BD
330
1F
100
AcDbEntity
  8
0
  6
Continuous
 62
     7
370
    25
100
AcDbSpline
210
0.0
220
0.0
230
1.0
 70
     8
 71
     3
 72
     8
 73
     4
 74
     0
 42
0.000000001
 43
0.00000001
 40
0.0
 40
0.0
 40
0.0
 40
0.0
 40
1.0
 40
1.0
 40
1.0
 40
1.0
 10
401.822505774951
 20
109.1981283796141
 30
0.0
 10
401.7713809436058
 20
109.1469772900588
 30
0.0
 10
401.7202839941247
 20
109.0958803281878
 30
0.0
 10
401.6692152416595
 20
109.0448378465674
 30
0.0
  0
LINE
  5
BE
330
1F
100
AcDbEntity
  8
0
  6
Continuous
 62
     7
370
    25
100
AcDbLine
 10
401.8225054666
 20
109.198128477
 30
0.0
 11
402.3265553243
 21
109.198128477
 31
0.0
  0
CIRCLE
  5
BF
330
1F
100
AcDbEntity
  8
0
  6
Continuous
 62
     7
370
    25
100
AcDbCircle
 10
393.9280800446
 20
113.304378477
 30
0.0
 40
12.47086902276413
  0
SPLINE
  5
C0
330
1F
100
AcDbEntity
  8
0
  6
Continuous
 62
     7
370
    25
100
AcDbSpline
210
0.0
220
0.0
230
1.0
 70
     8
 71
     3
 72
    23
 73
    19
 74
     0
 42
0.000000001
 43
0.00000001
 40
0.0
 40
0.0
 40
0.0
 40
0.0
 40
0.0521036415680443
 40
0.103564624093566
 40
0.1544751946749824
 40
0.2049306267488185
 40
0.2550287880859467
 40
0.3048696389155856
 40
0.3545546704622095
 40
0.4041862979533031
 40
0.4538672252131345
 40
0.503699799942109
 40
0.5901870230745642
 40
0.6742716378229198
 40
0.7565997087222741
 40
0.8378563983721098
 40
0.9187511781367312
 40
1.0
 40
1.0
 40
1.0
 40
1.0
 10
383.0888278979896
 20
117.7947891897555
 30
0.0
 10
383.1021222529394
 20
117.8239570829172
 30
0.0
 10
383.1285469870178
 20
117.8819331053216
 30
0.0
 10
383.1677579932419
 20
117.9648324063341
 30
0.0
 10
383.2061999480478
 20
118.044014387352
 30
0.0
 10
383.2437875295145
 20
118.1192692041541
 30
0.0
 10
383.2804434158221
 20
118.1906888584119
 30
0.0
 10
383.3160932798808
 20
118.2582854671934
 30
0.0
 10
383.3506670266418
 20
118.3220917886577
 30
0.0
 10
383.3840987205976
 20
118.3821353307266
 30
0.0
 10
383.4163255978223
 20
118.4384420274528
 30
0.0
 10
383.4548270347118
 20
118.5038470092761
 30
0.0
 10
383.4974885154251
 20
118.573408087112
 30
0.0
 10
383.5409815575481
 20
118.6401675837765
 30
0.0
 10
383.5773940543761
 20
118.6918916318743
 30
0.0
 10
383.6062948608533
 20
118.7283399439262
 30
0.0
 10
383.6282123169515
 20
118.7509373408093
 30
0.0
 10
383.6363242814448
 20
118.7535265583707
 30
0.0
 10
383.6403891199673
 20
118.754823993942
 30
0.0
  0
SPLINE
  5
C1
330
1F
100
AcDbEntity
  8
0
  6
Continuous
 62
     7
370
    25
100
AcDbSpline
210
0.0
220
0.0
230
1.0
 70
     8
 71
     3
 72
     8
 73
     4
 74
     0
 42
0.000000001
 43
0.00000001
 40
0.0
 40
0.0
 40
0.0
 40
0.0
 40
1.0
 40
1.0
 40
1.0
 40
1.0
 10
382.9681899581265
 20
117.7925788323457
 30
0.0
 10
383.0083789717196
 20
117.7933091425632
 30
0.0
 10
383.0485412738097
 20
117.7938896683927
 30
0.0
 10
383.0886759842853
 20
117.7943206333425
 30
0.0
  0
SPLINE
  5
C2
330
1F
100
AcDbEntity
  8
0
  6
Continuous
 62
     7
370
    25
100
AcDbSpline
210
0.0
220
0.0
230
1.0
 70
     8
 71
     3
 72
    18
 73
    14
 74
     0
 42
0.000000001
 43
0.00000001
 40
0.0
 40
0.0
 40
0.0
 40
0.0
 40
0.0923824559454013
 40
0.1844689291647927
 40
0.2764953616046289
 40
0.368697536560166
 40
0.4613092840112267
 40
0.5545607518542827
 40
0.648676805161927
 40
0.7438756050201499
 40
0.8403674044321215
 40
0.9203921078133473
 40
1.0
 40
1.0
 40
1.0
 40
1.0
 10
383.0211289469262
 20
118.0593958392275
 30
0.0
 10
383.022964600579
 20
118.0591875270123
 30
0.0
 10
383.0266300266621
 20
118.0587715699902
 30
0.0
 10
383.0294253562815
 20
118.0519671465241
 30
0.0
 10
383.0302276513602
 20
118.040633767872
 30
0.0
 10
383.0288615143171
 20
118.0243333728455
 30
0.0
 10
383.0253999656882
 20
118.0031821340096
 30
0.0
 10
383.0198586599187
 20
117.9771464328932
 30
0.0
 10
383.0122741918497
 20
117.9462220532419
 30
0.0
 10
383.0026971899126
 20
117.9104230217972
 30
0.0
 10
382.9918567138935
 20
117.8721721142655
 30
0.0
 10
382.9803680729541
 20
117.8329539008705
 30
0.0
 10
382.972268088076
 20
117.806098924021
 30
0.0
 10
382.9682286704332
 20
117.7927064956507
 30
0.0
  0
LINE
  5
C3
330
1F
100
AcDbEntity
  8
0
  6
Continuous
 62
     7
370
    25
100
AcDbLine
 10
382.9683735877
 20
118.0586481218
 30
0.0
 11
383.0211289469
 21
118.0593958392
 31
0.0
  0
SPLINE
  5
C4
330
1F
100
AcDbEntity
  8
0
  6
Continuous
 62
     7
370
    25
100
AcDbSpline
210
0.0
220
0.0
230
1.0
 70
     8
 71
     3
 72
    25
 73
    21
 74
     0
 42
0.000000001
 43
0.00000001
 40
0.0
 40
0.0
 40
0.0
 40
0.0
 40
0.0280105225429284
 40
0.0559601148865716
 40
0.0839014045049481
 40
0.1118870776793418
 40
0.139969582759596
 40
0.1682008401746174
 40
0.1966319670429139
 40
0.2253130233144346
 40
0.2542927850736023
 40
0.3799486436577953
 40
0.5057850221666315
 40
0.6313085886301525
 40
0.7532068238011418
 40
0.8039473267944002
 40
0.8535894438536894
 40
0.9025339722376491
 40
0.9511970353779324
 40
1.0
 40
1.0
 40
1.0
 40
1.0
 10
382.0574121798734
 20
115.49171621954
 30
0.0
 10
382.0643912497844
 20
115.5290262330471
 30
0.0
 10
382.0783342083074
 20
115.6035651010413
 30
0.0
 10
382.1008561057504
 20
115.7148741465254
 30
0.0
 10
382.1244897178481
 20
115.8255363555404
 30
0.0
 10
382.1493393083362
 20
115.935520488485
 30
0.0
 10
382.1753579328225
 20
116.0448156320995
 30
0.0
 10
382.2025393141403
 20
116.1534066013014
 30
0.0
 10
382.2308649554727
 20
116.2612773112432
 30
0.0
 10
382.2603237363052
 20
116.3684222569673
 30
0.0
 10
382.3247320242167
 20
116.5925971434772
 30
0.0
 10
382.4298337162882
 20
116.9192625575117
 30
0.0
 10
382.5752964770833
 20
117.3052091628301
 30
0.0
 10
382.7145598851934
 20
117.6272889755213
 30
0.0
 10
382.8117082380605
 20
117.8231095595522
 30
0.0
 10
382.8720036442886
 20
117.9324570100398
 30
0.0
 10
382.9068922271696
 20
117.9903850344549
 30
0.0
 10
382.9347867290974
 20
118.0308389872198
 30
0.0
 10
382.9561518214691
 20
118.0554532026187
 30
0.0
 10
382.9642957690419
 20
118.0575821301263
 30
0.0
 10
382.968373587687
 20
118.0586481217976
 30
0.0
  0
ARC
  5
C5
330
1F
100
AcDbEntity
  8
0
  6
Continuous
 62
     7
370
    25
100
AcDbCircle
 10
393.9280800446
 20
113.304378477
 30
0.0
 40
12.07050959801142
100
AcDbArc
 50
169.5595567507
 51
190.4404432494
  0
SPLINE
  5
C6
330
1F
100
AcDbEntity
  8
0
  6
Continuous
 62
     7
370
    25
100
AcDbSpline
210
0.0
220
0.0
230
1.0
 70
     8
 71
     3
 72
    26
 73
    22
 74
     0
 42
0.000000001
 43
0.00000001
 40
0.0
 40
0.0
 40
0.0
 40
0.0
 40
0.0241259796961556
 40
0.0482159912269293
 40
0.0723203915119221
 40
0.0964895678705268
 40
0.1207736231957763
 40
0.1452220711237314
 40
0.1698835501652852
 40
0.1948055644468628
 40
0.220034256951538
 40
0.2456142191611052
 40
0.3690971486895253
 40
0.4940698769485128
 40
0.6192566784762408
 40
0.7454656653603202
 40
0.7971495824713681
 40
0.848171030840538
 40
0.8988013269235222
 40
0.9493179290492182
 40
1.0
 40
1.0
 40
1.0
 40
1.0
 10
382.968373587687
 20
108.5501088322136
 30
0.0
 10
382.9664632729466
 20
108.550395725403
 30
0.0
 10
382.9626454914544
 20
108.5509690840677
 30
0.0
 10
382.9546853662736
 20
108.5570277723142
 30
0.0
 10
382.9451062656981
 20
108.566907033045
 30
0.0
 10
382.9337590588295
 20
108.5809881241555
 30
0.0
 10
382.9207028755356
 20
108.5991836721796
 30
0.0
 10
382.9059469723082
 20
108.6215342149183
 30
0.0
 10
382.8895197920108
 20
108.6480484506103
 30
0.0
 10
382.8714516372906
 20
108.6787439613236
 30
0.0
 10
382.8517744908676
 20
108.7136450645636
 30
0.0
 10
382.8035751094397
 20
108.8024095996704
 30
0.0
 10
382.7152570700043
 20
108.9796899011191
 30
0.0
 10
382.5761974532373
 20
109.3007758079646
 30
0.0
 10
382.4305247733749
 20
109.6873584598556
 30
0.0
 10
382.3167861783655
 20
110.0410661639856
 30
0.0
 10
382.237080559819
 20
110.3233198635984
 30
0.0
 10
382.1864309874647
 20
110.5177632943727
 30
0.0
 10
382.1394643175993
 20
110.7150046713068
 30
0.0
 10
382.0959044955949
 20
110.9149077164019
 30
0.0
 10
382.0702569304634
 20
111.0495896561341
 30
0.0
 10
382.0574121798734
 20
111.1170407344713
 30
0.0
  0
LINE
  5
C7
330
1F
100
AcDbEntity
  8
0
  6
Continuous
 62
     7
370
    25
100
AcDbLine
 10
383.0211289469
 20
108.5493611148
 30
0.0
 11
382.9683735877
 21
108.5501088322
 31
0.0
  0
SPLINE
  5
C8
330
1F
100
AcDbEntity
  8
0
  6
Continuous
 62
     7
370
    25
100
AcDbSpline
210
0.0
220
0.0
230
1.0
 70
     8
 71
     3
 72
    14
 73
    10
 74
     0
 42
0.000000001
 43
0.00000001
 40
0.0
 40
0.0
 40
0.0
 40
0.0
 40
0.0789261963157259
 40
0.1582328720528836
 40
0.330847539454808
 40
0.5000195457586954
 40
0.6670357883553091
 40
0.833239519364563
 40
1.0
 40
1.0
 40
1.0
 40
1.0
 10
382.9681320900744
 20
108.8163845920882
 30
0.0
 10
382.9721466366704
 20
108.8030814674509
 30
0.0
 10
382.9801950827823
 20
108.776411087819
 30
0.0
 10
382.9950957895918
 20
108.7255963484994
 30
0.0
 10
383.0109927711885
 20
108.6685565323121
 30
0.0
 10
383.0240712661864
 20
108.6142533155839
 30
0.0
 10
383.0303038733038
 20
108.5760861728609
 30
0.0
 10
383.0301142934668
 20
108.5526774441839
 30
0.0
 10
383.024127399336
 20
108.5504677895053
 30
0.0
 10
383.0211289469262
 20
108.5493611147837
 30
0.0
  0
SPLINE
  5
C9
330
1F
100
AcDbEntity
  8
0
  6
Continuous
 62
     7
370
    25
100
AcDbSpline
210
0.0
220
0.0
230
1.0
 70
     8
 71
     3
 72
     8
 73
     4
 74
     0
 42
0.000000001
 43
0.00000001
 40
0.0
 40
0.0
 40
0.0
 40
0.0
 40
1.0
 40
1.0
 40
1.0
 40
1.0
 10
383.1154367812989
 20
108.8143235136379
 30
0.0
 10
383.0663688662702
 20
108.8148105668498
 30
0.0
 10
383.0172594287493
 20
108.8155216347247
 30
0.0
 10
382.9681100842241
 20
108.816457127959
 30
0.0
  0
SPLINE
  5
CA
330
1F
100
AcDbEntity
  8
0
  6
Continuous
 62
     7
370
    25
100
AcDbSpline
210
0.0
220
0.0
230
1.0
 70
     8
 71
     3
 72
    13
 73
     9
 74
     0
 42
0.000000001
 43
0.00000001
 40
0.0
 40
0.0
 40
0.0
 40
0.0
 40
0.1667030582308063
 40
0.3329480818053115
 40
0.4990671507274935
 40
0.6653938523718516
 40
0.8322612710550141
 40
1.0
 40
1.0
 40
1.0
 40
1.0
 10
383.1737703134698
 20
108.7456099888539
 30
0.0
 10
383.1719269996329
 20
108.7460270986197
 30
0.0
 10
383.1682454366631
 20
108.7468601720971
 30
0.0
 10
383.1607281828686
 20
108.7528746509235
 30
0.0
 10
383.1517773787521
 20
108.7623693832157
 30
0.0
 10
383.141227090329
 20
108.7757789903254
 30
0.0
 10
383.1292539048119
 20
108.7926968939489
 30
0.0
 10
383.1200474972056
 20
108.8071096290884
 30
0.0
 10
383.1154323067168
 20
108.8143347619499
 30
0.0
  0
SPLINE
  5
CB
330
1F
100
AcDbEntity
  8
0
  6
Continuous
 62
     7
370
    25
100
AcDbSpline
210
0.0
220
0.0
230
1.0
 70
     8
 71
     3
 72
    13
 73
     9
 74
     0
 42
0.000000001
 43
0.00000001
 40
0.0
 40
0.0
 40
0.0
 40
0.0
 40
0.1686319999748089
 40
0.3360343310905561
 40
0.5025367825908729
 40
0.6684737453788404
 40
0.8341822636915154
 40
1.0
 40
1.0
 40
1.0
 40
1.0
 10
404.7407291636953
 20
108.8143382117628
 30
0.0
 10
404.7360919185971
 20
108.8070810517433
 30
0.0
 10
404.7268512433108
 20
108.792619651101
 30
0.0
 10
404.7148358699437
 20
108.7756389543969
 30
0.0
 10
404.7042703161891
 20
108.7622061732174
 30
0.0
 10
404.6953309668961
 20
108.7527267046635
 30
0.0
 10
404.6878500863076
 20
108.7467614789656
 30
0.0
 10
404.6842102790181
 20
108.7459939031812
 30
0.0
 10
404.6823897758244
 20
108.7456099888539
 30
0.0
  0
SPLINE
  5
CC
330
1F
100
AcDbEntity
  8
0
  6
Continuous
 62
     7
370
    25
100
AcDbSpline
210
0.0
220
0.0
230
1.0
 70
     8
 71
     3
 72
     8
 73
     4
 74
     0
 42
0.000000001
 43
0.00000001
 40
0.0
 40
0.0
 40
0.0
 40
0.0
 40
1.0
 40
1.0
 40
1.0
 40
1.0
 10
404.888054775668
 20
108.8164572327055
 30
0.0
 10
404.8389038460596
 20
108.8155217024435
 30
0.0
 10
404.7897928259803
 20
108.8148106119314
 30
0.0
 10
404.7407233310724
 20
108.8143235504334
 30
0.0
  0
SPLINE
  5
CD
330
1F
100
AcDbEntity
  8
0
  6
Continuous
 62
     7
370
    25
100
AcDbSpline
210
0.0
220
0.0
230
1.0
 70
     8
 71
     3
 72
    18
 73
    14
 74
     0
 42
0.000000001
 43
0.00000001
 40
0.0
 40
0.0
 40
0.0
 40
0.0
 40
0.0923325137124559
 40
0.1843692047086504
 40
0.2763458873841173
 40
0.3684982175689556
 40
0.4610598988338003
 40
0.5542609546564705
 40
0.6483261285468145
 40
0.7434734636522684
 40
0.839913099312583
 40
0.920166071830381
 40
1.0
 40
1.0
 40
1.0
 40
1.0
 10
404.8350311423679
 20
108.5493611147837
 30
0.0
 10
404.8331954887154
 20
108.5495694269995
 30
0.0
 10
404.8295300626328
 20
108.5499853840228
 30
0.0
 10
404.8267347330104
 20
108.5567898074801
 30
0.0
 10
404.8259324379435
 20
108.5681231861659
 30
0.0
 10
404.8272985749427
 20
108.5844235810662
 30
0.0
 10
404.8307601237369
 20
108.6055748203763
 30
0.0
 10
404.8363014288832
 20
108.6316105197039
 30
0.0
 10
404.8438858993106
 20
108.6625349061266
 30
0.0
 10
404.8534628922911
 20
108.6983339118547
 30
0.0
 10
404.864314239317
 20
108.7366231569686
 30
0.0
 10
404.875829000949
 20
108.7759287813853
 30
0.0
 10
404.8839607097702
 20
108.802885859279
 30
0.0
 10
404.888015921378
 20
108.8163291167285
 30
0.0
  0
LINE
  5
CE
330
1F
100
AcDbEntity
  8
0
  6
Continuous
 62
     7
370
    25
100
AcDbLine
 10
404.8877865016
 20
108.5501088322
 30
0.0
 11
404.8350311424
 21
108.5493611148
 31
0.0
  0
SPLINE
  5
CF
330
1F
100
AcDbEntity
  8
0
  6
Continuous
 62
     7
370
    25
100
AcDbSpline
210
0.0
220
0.0
230
1.0
 70
     8
 71
     3
 72
    25
 73
    21
 74
     0
 42
0.000000001
 43
0.00000001
 40
0.0
 40
0.0
 40
0.0
 40
0.0
 40
0.0280105225422327
 40
0.0559601148853515
 40
0.0839014045033802
 40
0.1118870776776037
 40
0.1399695827578598
 40
0.168200840173054
 40
0.1966319670416873
 40
0.2253130233137065
 40
0.2542927850735304
 40
0.3799486436555246
 40
0.5057850221666196
 40
0.6313085886311499
 40
0.7532068238012074
 40
0.8039473267951883
 40
0.8535894438548528
 40
0.9025339722388155
 40
0.9511970353787135
 40
1.0
 40
1.0
 40
1.0
 40
1.0
 10
405.7987479094208
 20
111.1170407344713
 30
0.0
 10
405.7917688395099
 20
111.0797307209651
 30
0.0
 10
405.7778258809873
 20
111.0051918529725
 30
0.0
 10
405.7553039835447
 20
110.8938828074905
 30
0.0
 10
405.7316703714473
 20
110.7832205984769
 30
0.0
 10
405.7068207809594
 20
110.673236465533
 30
0.0
 10
405.6808021564732
 20
110.5639413219185
 30
0.0
 10
405.6536207751553
 20
110.4553503527159
 30
0.0
 10
405.6252951338226
 20
110.3474796427727
 30
0.0
 10
405.5958363529897
 20
110.2403346970465
 30
0.0
 10
405.5314280650784
 20
110.016159810537
 30
0.0
 10
405.4263263730068
 20
109.6894943965012
 30
0.0
 10
405.2808636122114
 20
109.3035477911827
 30
0.0
 10
405.1416002040999
 20
108.9814679784876
 30
0.0
 10
405.044451851233
 20
108.7856473944574
 30
0.0
 10
404.9841564450056
 20
108.6762999439718
 30
0.0
 10
404.9492678621244
 20
108.6183719195565
 30
0.0
 10
404.9213733601966
 20
108.5779179667915
 30
0.0
 10
404.9000082678249
 20
108.5533037513926
 30
0.0
 10
404.8918643202522
 20
108.5511748238849
 30
0.0
 10
404.8877865016071
 20
108.5501088322136
 30
0.0
  0
ARC
  5
D0
330
1F
100
AcDbEntity
  8
0
  6
Continuous
 62
     7
370
    25
100
AcDbCircle
 10
393.9280800446
 20
113.304378477
 30
0.0
 40
12.07050959801147
100
AcDbArc
 50
349.5595567507
 51
10.4404432493
  0
SPLINE
  5
D1
330
1F
100
AcDbEntity
  8
0
  6
Continuous
 62
     7
370
    25
100
AcDbSpline
210
0.0
220
0.0
230
1.0
 70
     8
 71
     3
 72
    26
 73
    22
 74
     0
 42
0.000000001
 43
0.00000001
 40
0.0
 40
0.0
 40
0.0
 40
0.0
 40
0.0241259796960501
 40
0.0482159912267432
 40
0.0723203915116785
 40
0.0964895678702493
 40
0.1207736231954871
 40
0.1452220711234535
 40
0.1698835501650412
 40
0.1948055644466733
 40
0.2200342569514245
 40
0.2456142191610881
 40
0.369097148689205
 40
0.4940698769485085
 40
0.6192566784761016
 40
0.7454656653603114
 40
0.7971495824712787
 40
0.8481710308404068
 40
0.8988013269233927
 40
0.9493179290491323
 40
1.0
 40
1.0
 40
1.0
 40
1.0
 10
404.8877865016071
 20
118.0586481217976
 30
0.0
 10
404.8896968163475
 20
118.0583612286082
 30
0.0
 10
404.8935145978397
 20
118.0577878699435
 30
0.0
 10
404.9014747230205
 20
118.051729181697
 30
0.0
 10
404.9110538235959
 20
118.0418499209662
 30
0.0
 10
404.9224010304646
 20
118.0277688298557
 30
0.0
 10
404.9354572137585
 20
118.0095732818316
 30
0.0
 10
404.9502131169859
 20
117.9872227390929
 30
0.0
 10
404.9666402972832
 20
117.9607085034008
 30
0.0
 10
404.9847084520035
 20
117.9300129926875
 30
0.0
 10
405.0043855984266
 20
117.8951118894476
 30
0.0
 10
405.0525849798543
 20
117.8063473543413
 30
0.0
 10
405.1409030192897
 20
117.6290670528926
 30
0.0
 10
405.2799626360567
 20
117.307981146047
 30
0.0
 10
405.4256353159191
 20
116.9213984941557
 30
0.0
 10
405.5393739109286
 20
116.5676907900258
 30
0.0
 10
405.6190795294751
 20
116.2854370904131
 30
0.0
 10
405.6697291018294
 20
116.090993659639
 30
0.0
 10
405.7166957716947
 20
115.8937522827049
 30
0.0
 10
405.7602555936992
 20
115.6938492376096
 30
0.0
 10
405.7859031588306
 20
115.5591672978772
 30
0.0
 10
405.7987479094208
 20
115.4917162195399
 30
0.0
  0
LINE
  5
D2
330
1F
100
AcDbEntity
  8
0
  6
Continuous
 62
     7
370
    25
100
AcDbLine
 10
404.8350311424
 20
118.0593958392
 30
0.0
 11
404.8877865016
 21
118.0586481218
 31
0.0
  0
SPLINE
  5
D3
330
1F
100
AcDbEntity
  8
0
  6
Continuous
 62
     7
370
    25
100
AcDbSpline
210
0.0
220
0.0
230
1.0
 70
     8
 71
     3
 72
    14
 73
    10
 74
     0
 42
0.000000001
 43
0.00000001
 40
0.0
 40
0.0
 40
0.0
 40
0.0
 40
0.0786889129238317
 40
0.1577561817131888
 40
0.330468600315448
 40
0.4997364082489096
 40
0.666847231670587
 40
0.8331450833801949
 40
1.0
 40
1.0
 40
1.0
 40
1.0
 10
404.8879394291444
 20
117.7926643300105
 30
0.0
 10
404.8839414201897
 20
117.8059142345264
 30
0.0
 10
404.8759261788591
 20
117.8324777523946
 30
0.0
 10
404.8610535055699
 20
117.883199280163
 30
0.0
 10
404.845167340808
 20
117.9402003591864
 30
0.0
 10
404.8320888171638
 20
117.9945036547956
 30
0.0
 10
404.8258562175587
 20
118.0326707768329
 30
0.0
 10
404.8260457954349
 20
118.0560795109085
 30
0.0
 10
404.8320326898272
 20
118.0582891648667
 30
0.0
 10
404.8350311423679
 20
118.0593958392275
 30
0.0
  0
SPLINE
  5
D4
330
1F
100
AcDbEntity
  8
0
  6
Continuous
 62
     7
370
    25
100
AcDbSpline
210
0.0
220
0.0
230
1.0
 70
     8
 71
     3
 72
     8
 73
     4
 74
     0
 42
0.000000001
 43
0.00000001
 40
0.0
 40
0.0
 40
0.0
 40
0.0
 40
1.0
 40
1.0
 40
1.0
 40
1.0
 10
404.7674840884619
 20
117.7943206699753
 30
0.0
 10
404.8076172069686
 20
117.793889716028
 30
0.0
 10
404.847777914897
 20
117.7933092130156
 30
0.0
 10
404.88796533224
 20
117.792578937456
 30
0.0
  0
SPLINE
  5
D5
330
1F
100
AcDbEntity
  8
0
  6
Continuous
 62
     7
370
    25
100
AcDbSpline
210
0.0
220
0.0
230
1.0
 70
     8
 71
     3
 72
    23
 73
    19
 74
     0
 42
0.000000001
 43
0.00000001
 40
0.0
 40
0.0
 40
0.0
 40
0.0
 40
0.0441308420121337
 40
0.0880968635211806
 40
0.1320155028409076
 40
0.1760048571434343
 40
0.2201827305793822
 40
0.2646656976937621
 40
0.3095682184570084
 40
0.3550018365594612
 40
0.4010744854744679
 40
0.4478899182340139
 40
0.4955472680214194
 40
0.5953670562442849
 40
0.6949121173386639
 40
0.7950007648970017
 40
0.8964386255160219
 40
1.0
 40
1.0
 40
1.0
 40
1.0
 10
404.2157709693268
 20
118.754823993942
 30
0.0
 10
404.2177553594336
 20
118.7545411367121
 30
0.0
 10
404.2217167283185
 20
118.7539764786715
 30
0.0
 10
404.230577032549
 20
118.7475571254927
 30
0.0
 10
404.2415495106713
 20
118.7370358759862
 30
0.0
 10
404.2548289086918
 20
118.7220043396764
 30
0.0
 10
404.2703396323581
 20
118.702552094614
 30
0.0
 10
404.2880710941112
 20
118.6786321166619
 30
0.0
 10
404.3079877408143
 20
118.6502310259481
 30
0.0
 10
404.3300532748265
 20
118.6173232861474
 30
0.0
 10
404.3542241985206
 20
118.5798833034912
 30
0.0
 10
404.3804512085679
 20
118.5378832318613
 30
0.0
 10
404.4187877887987
 20
118.4746061233386
 30
0.0
 10
404.4711205681769
 20
118.3845472609759
 30
0.0
 10
404.5395211793848
 20
118.2602011414096
 30
0.0
 10
404.6122062541803
 20
118.1204880634291
 30
0.0
 10
404.6885664900805
 20
117.9661520482002
 30
0.0
 10
404.7408553047309
 20
117.852429393972
 30
0.0
 10
404.7672705326347
 20
117.7949790606772
 30
0.0
  0
SPLINE
  5
D6
330
1F
100
AcDbEntity
  8
0
  6
Continuous
 62
     7
370
    25
100
AcDbSpline
210
0.0
220
0.0
230
1.0
 70
    11
 71
     3
 72
    39
 73
    35
 74
     0
 42
0.000000001
 43
0.00000001
 40
0.0
 40
0.0
 40
0.0
 40
0.0
 40
0.0310664058348413
 40
0.0621048158426138
 40
0.0931361551796939
 40
0.1235538293503726
 40
0.1538561545809849
 40
0.1850588072749156
 40
0.2160250992946587
 40
0.2471867223797568
 40
0.2784462884304475
 40
0.3100516090231247
 40
0.3419834369138969
 40
0.3734259894013238
 40
0.4048604886787081
 40
0.436874065183343
 40
0.4685120685926471
 40
0.499805535863323
 40
0.5309508213226204
 40
0.5618649784438111
 40
0.5930416446590877
 40
0.623374245013332
 40
0.6540913579072549
 40
0.6849496782718453
 40
0.7158160645166705
 40
0.7471731804043553
 40
0.7784514311866318
 40
0.810129591156098
 40
0.8419598919688388
 40
0.8735175891922303
 40
0.9050808037886594
 40
0.9370235169792582
 40
0.9687441590030581
 40
1.0
 40
1.0
 40
1.0
 40
1.0
 10
396.8322066094444
 20
101.8727482932522
 30
0.0
 10
397.0219184383992
 20
101.9115168699997
 30
0.0
 10
397.3656592888479
 20
101.9879478157827
 30
0.0
 10
397.7486162760555
 20
102.0760873557759
 30
0.0
 10
397.9930567427706
 20
102.1230368424209
 30
0.0
 10
398.0740456795869
 20
102.1111279177071
 30
0.0
 10
397.9933232341052
 20
102.0391700109917
 30
0.0
 10
397.7534610404855
 20
101.9146497447943
 30
0.0
 10
397.3768113063883
 20
101.7572807549691
 30
0.0
 10
396.8705683695604
 20
101.5852566702741
 30
0.0
 10
396.253293975877
 20
101.4203322626885
 30
0.0
 10
395.5408181617372
 20
101.28261968661
 30
0.0
 10
394.7653529219646
 20
101.1909868741013
 30
0.0
 10
393.9548884883503
 20
101.1576542960058
 30
0.0
 10
393.1423840153878
 20
101.1869017415591
 30
0.0
 10
392.3628710252507
 20
101.2752306985467
 30
0.0
 10
391.6445427259152
 20
101.4107361981815
 30
0.0
 10
391.0211706185152
 20
101.5745127196728
 30
0.0
 10
390.5080720239197
 20
101.7465188638181
 30
0.0
 10
390.1228699140582
 20
101.9053308782893
 30
0.0
 10
389.8734453088172
 20
102.0325898434547
 30
0.0
 10
389.7828432688707
 20
102.1081968004097
 30
0.0
 10
389.8510548398299
 20
102.1249661970896
 30
0.0
 10
390.0832707062327
 20
102.0821858548744
 30
0.0
 10
390.4604877434169
 20
101.9950591699645
 30
0.0
 10
390.9721926111846
 20
101.8803301146575
 30
0.0
 10
391.5956637419315
 20
101.760907969605
 30
0.0
 10
392.3122084450642
 20
101.6562825195557
 30
0.0
 10
393.0905395576752
 20
101.5856340266288
 30
0.0
 10
393.9023710445252
 20
101.5595552021988
 30
0.0
 10
394.7161455665223
 20
101.5825807738895
 30
0.0
 10
395.4985194106878
 20
101.6508132120272
 30
0.0
 10
396.2205324454217
 20
101.7540603917369
 30
0.0
 10
396.6413379652707
 20
101.8337433154334
 30
0.0
 10
396.8322066094444
 20
101.8727482932522
 30
0.0
  0
SPLINE
  5
D7
330
1F
100
AcDbEntity
  8
0
  6
Continuous
 62
     7
370
    25
100
AcDbSpline
210
0.0
220
0.0
230
1.0
 70
    11
 71
     3
 72
    39
 73
    35
 74
     0
 42
0.000000001
 43
0.00000001
 40
0.0
 40
0.0
 40
0.0
 40
0.0
 40
0.0312651429934057
 40
0.0629601069329321
 40
0.0948697276489808
 40
0.1264264963751833
 40
0.1579651393672472
 40
0.1898765439016956
 40
0.221552335268876
 40
0.2527844076550827
 40
0.2838418966734154
 40
0.3148645781100674
 40
0.3459127639308091
 40
0.3763475365526575
 40
0.4066751324671412
 40
0.4379141187435632
 40
0.4688932367345488
 40
0.5000738678969536
 40
0.5313369410958942
 40
0.5629183719104849
 40
0.5948445736343699
 40
0.6262809966135365
 40
0.6577486436587271
 40
0.6897584692806508
 40
0.7214430019610059
 40
0.7527623343195418
 40
0.7839279690572818
 40
0.8148885765585865
 40
0.8460375004982862
 40
0.8763409566916784
 40
0.906758919146387
 40
0.9378312724751761
 40
0.9689189660506093
 40
1.0
 40
1.0
 40
1.0
 40
1.0
 10
396.8321023596576
 20
124.7360407131948
 30
0.0
 10
396.6410284233759
 20
124.7751046710755
 30
0.0
 10
396.2200938609363
 20
124.8548236656356
 30
0.0
 10
395.4987044557727
 20
124.957939080986
 30
0.0
 10
394.7170484074823
 20
125.0261399534099
 30
0.0
 10
393.9039606877715
 20
125.0491968460518
 30
0.0
 10
393.0916804709194
 20
125.0232125724056
 30
0.0
 10
392.3130500458699
 20
124.9526224071674
 30
0.0
 10
391.5963742559585
 20
124.8480068449282
 30
0.0
 10
390.9744989862969
 20
124.7288345199118
 30
0.0
 10
390.464988052811
 20
124.6148973521856
 30
0.0
 10
390.0898687065667
 20
124.5287830732391
 30
0.0
 10
389.8539081317159
 20
124.4847273519032
 30
0.0
 10
389.7825075885343
 20
124.5002571526144
 30
0.0
 10
389.8731040183321
 20
124.5757660347983
 30
0.0
 10
390.1220802986916
 20
124.7029395626426
 30
0.0
 10
390.5069951185343
 20
124.8617902412548
 30
0.0
 10
391.0197804253565
 20
125.0338145024648
 30
0.0
 10
391.6422395482814
 20
125.1974875819995
 30
0.0
 10
392.3587396930879
 20
125.3328891553797
 30
0.0
 10
393.136838727198
 20
125.4214068228625
 30
0.0
 10
393.9485614158449
 20
125.4511142313453
 30
0.0
 10
394.7600036035462
 20
125.4182277866953
 30
0.0
 10
395.5371294950284
 20
125.3267468786505
 30
0.0
 10
396.2515675841988
 20
125.188862688689
 30
0.0
 10
396.8697905424342
 20
125.0237348638391
 30
0.0
 10
397.3761579031601
 20
124.8516843264865
 30
0.0
 10
397.7527104245738
 20
124.6944008047763
 30
0.0
 10
397.9924062360052
 20
124.5699970072923
 30
0.0
 10
398.0738729441995
 20
124.497808833856
 30
0.0
 10
397.9938137017077
 20
124.485536325478
 30
0.0
 10
397.7494676957539
 20
124.5324317359841
 30
0.0
 10
397.366494262305
 20
124.6205652841296
 30
0.0
 10
397.0220511310951
 20
124.6972067887395
 30
0.0
 10
396.8321023596576
 20
124.7360407131948
 30
0.0
  0
SPLINE
  5
D8
330
1F
100
AcDbEntity
  8
0
  6
Continuous
 62
     7
370
    25
100
AcDbSpline
210
0.0
220
0.0
230
1.0
 70
     8
 71
     3
 72
    23
 73
    19
 74
     0
 42
0.000000001
 43
0.00000001
 40
0.0
 40
0.0
 40
0.0
 40
0.0
 40
0.0449850911547978
 40
0.0909520670823913
 40
0.1379394291328585
 40
0.1859832248994873
 40
0.2351171761776766
 40
0.285372809648614
 40
0.3367795876649866
 40
0.389365037084781
 40
0.4431548745956124
 40
0.4981731273942906
 40
0.557510759134935
 40
0.6265492282104752
 40
0.7053073139841747
 40
0.7937970254538392
 40
0.8920262116419598
 40
1.0
 40
1.0
 40
1.0
 40
1.0
 10
384.0371383330898
 20
118.3343784770056
 30
0.0
 10
384.0349756437241
 20
118.333949575346
 30
0.0
 10
384.0306030602033
 20
118.333082410436
 30
0.0
 10
384.0203221010116
 20
118.3259888428342
 30
0.0
 10
384.0072618229815
 20
118.3143761012541
 30
0.0
 10
383.9911426614272
 20
118.2975867310803
 30
0.0
 10
383.9720422337712
 20
118.2755147444645
 30
0.0
 10
383.9499398810153
 20
118.2479172707005
 30
0.0
 10
383.9248394024798
 20
118.214608839491
 30
0.0
 10
383.896748271102
 20
118.175408501085
 30
0.0
 10
383.8656323702505
 20
118.1301664556134
 30
0.0
 10
383.8309934393569
 20
118.0777705232104
 30
0.0
 10
383.7902719310608
 20
118.0149880549623
 30
0.0
 10
383.7415510100166
 20
117.9372310556622
 30
0.0
 10
383.683776671692
 20
117.8399464980609
 30
0.0
 10
383.6168660220538
 20
117.7202016643449
 30
0.0
 10
383.5409220577805
 20
117.5762814594771
 30
0.0
 10
383.4865608931123
 20
117.4655472546274
 30
0.0
 10
383.4580958290088
 20
117.4075636507305
 30
0.0
  0
LINE
  5
D9
330
1F
100
AcDbEntity
  8
0
  6
Continuous
 62
     7
370
    25
100
AcDbLine
 10
383.458095829
 20
117.4080899826
 30
0.0
 11
383.088756091
 21
117.7941745096
 31
0.0
  0
LINE
  5
DA
330
1F
100
AcDbEntity
  8
0
  6
Continuous
 62
     7
370
    25
100
AcDbLine
 10
404.7673714266
 20
117.7941151047
 30
0.0
 11
404.398104745
 21
117.4081069998
 31
0.0
  0
SPLINE
  5
DB
330
1F
100
AcDbEntity
  8
0
  6
Continuous
 62
     7
370
    25
100
AcDbSpline
210
0.0
220
0.0
230
1.0
 70
     8
 71
     3
 72
    26
 73
    22
 74
     0
 42
0.000000001
 43
0.00000001
 40
0.0
 40
0.0
 40
0.0
 40
0.0
 40
0.0509383868653979
 40
0.0998291548270505
 40
0.1466728126490638
 40
0.1914699456369332
 40
0.2342212299774179
 40
0.274927450668867
 40
0.3135895241747119
 40
0.3502085273716571
 40
0.3847857350077695
 40
0.4173226688482998
 40
0.4478211631571791
 40
0.4762834534603437
 40
0.5027122992246547
 40
0.593906700502561
 40
0.6816015993191188
 40
0.7659159552051488
 40
0.846983628966416
 40
0.9249552229440475
 40
1.0
 40
1.0
 40
1.0
 40
1.0
 10
404.3981047449537
 20
117.4073729204808
 30
0.0
 10
404.3846468807556
 20
117.4349937016451
 30
0.0
 10
404.3582721309579
 20
117.4891249650984
 30
0.0
 10
404.319899951179
 20
117.5654330021735
 30
0.0
 10
404.2834337686867
 20
117.6361851817653
 30
0.0
 10
404.248897519063
 20
117.7013570084534
 30
0.0
 10
404.2162850672102
 20
117.7612152537052
 30
0.0
 10
404.1855977834172
 20
117.8159804132465
 30
0.0
 10
404.156835167116
 20
117.8659048045585
 30
0.0
 10
404.1299970026437
 20
117.9112470351536
 30
0.0
 10
404.1050834222154
 20
117.9522729740944
 30
0.0
 10
404.0820927754267
 20
117.9892503590415
 30
0.0
 10
404.0610292699371
 20
118.0224464750248
 30
0.0
 10
404.0418768995578
 20
118.0521222072921
 30
0.0
 10
404.010205822613
 20
118.1007925323419
 30
0.0
 10
403.9687358771764
 20
118.1626878502606
 30
0.0
 10
403.9217463610327
 20
118.2280284576843
 30
0.0
 10
403.8831277913177
 20
118.2771468489761
 30
0.0
 10
403.8530793315964
 20
118.3106231374883
 30
0.0
 10
403.8307892206273
 20
118.3307405697263
 30
0.0
 10
403.8228939051939
 20
118.3331814035759
 30
0.0
 10
403.8190217562043
 20
118.3343784770056
 30
0.0
  0
SPLINE
  5
DC
330
1F
100
AcDbEntity
  8
0
  6
Continuous
 62
     7
370
    25
100
AcDbSpline
210
0.0
220
0.0
230
1.0
 70
     8
 71
     3
 72
     8
 73
     4
 74
     0
 42
0.000000001
 43
0.00000001
 40
0.0
 40
0.0
 40
0.0
 40
0.0
 40
1.0
 40
1.0
 40
1.0
 40
1.0
 10
401.6697604964475
 20
117.5273768034883
 30
0.0
 10
401.7333534767874
 20
117.4617080256416
 30
0.0
 10
401.7973099032228
 20
117.3973657279813
 30
0.0
 10
401.8615088229302
 20
117.3356284770056
 30
0.0
  0
SPLINE
  5
DD
330
1F
100
AcDbEntity
  8
0
  6
Continuous
 62
     7
370
    25
100
AcDbSpline
210
0.0
220
0.0
230
1.0
 70
     8
 71
     3
 72
    25
 73
    21
 74
     0
 42
0.000000001
 43
0.00000001
 40
0.0
 40
0.0
 40
0.0
 40
0.0
 40
0.0367725003254103
 40
0.074208401060063
 40
0.1123590542807964
 40
0.1512729822568881
 40
0.190995910016845
 40
0.2315708273504481
 40
0.2730380740418892
 40
0.3154354426077851
 40
0.3587982934432034
 40
0.4031596779810961
 40
0.4485504661847858
 40
0.494999475376923
 40
0.5532504315673752
 40
0.621829488573267
 40
0.7007739996560722
 40
0.7901076726660372
 40
0.8898461547533933
 40
1.0
 40
1.0
 40
1.0
 40
1.0
 10
401.2278393091359
 20
118.3343784770052
 30
0.0
 10
401.2280630832008
 20
118.3340537893715
 30
0.0
 10
401.2285146683637
 20
118.3333985565227
 30
0.0
 10
401.233231708236
 20
118.328036184735
 30
0.0
 10
401.2408843173186
 20
118.3192805910345
 30
0.0
 10
401.2517772964555
 20
118.3066563729426
 30
0.0
 10
401.2658258828714
 20
118.2901000348122
 30
0.0
 10
401.2830527804806
 20
118.2694428574344
 30
0.0
 10
401.303451333262
 20
118.2445551214666
 30
0.0
 10
401.3270221465543
 20
118.2153075752732
 30
0.0
 10
401.353767495114
 20
118.1815846400767
 30
0.0
 10
401.3836753485463
 20
118.1432788249513
 30
0.0
 10
401.4167914408908
 20
118.1003079296134
 30
0.0
 10
401.4557173624648
 20
118.0488866479426
 30
0.0
 10
401.5045454421814
 20
117.9846704162535
 30
0.0
 10
401.5664660467825
 20
117.9017758871589
 30
0.0
 10
401.6408506051034
 20
117.7978301369445
 30
0.0
 10
401.727825033092
 20
117.6697439266872
 30
0.0
 10
401.8272498830746
 20
117.5156541467809
 30
0.0
 10
401.898669058804
 20
117.3975899109104
 30
0.0
 10
401.936150642485
 20
117.3356284770056
 30
0.0
  0
LINE
  5
DE
330
1F
100
AcDbEntity
  8
0
  6
Continuous
 62
     7
370
    25
100
AcDbLine
 10
401.9361506425
 20
117.335628477
 30
0.0
 11
401.8615088229
 21
117.335628477
 31
0.0
  0
SPLINE
  5
DF
330
1F
100
AcDbEntity
  8
0
  6
Continuous
 62
     7
370
    25
100
AcDbSpline
210
0.0
220
0.0
230
1.0
 70
     8
 71
     3
 72
    23
 73
    19
 74
     0
 42
0.000000001
 43
0.00000001
 40
0.0
 40
0.0
 40
0.0
 40
0.0
 40
0.0511129009818375
 40
0.1016896331769429
 40
0.1518293139012816
 40
0.201633670178886
 40
0.2512064936643741
 40
0.3006530342900144
 40
0.3500793489623502
 40
0.3995916247861424
 40
0.4492954981403415
 40
0.4992953912355765
 40
0.5872572780511617
 40
0.672425549433218
 40
0.7555067762520883
 40
0.8372616735253525
 40
0.9184882400156057
 40
1.0
 40
1.0
 40
1.0
 40
1.0
 10
401.6698231725728
 20
117.5276195195835
 30
0.0
 10
401.6538075886733
 20
117.5567481218127
 30
0.0
 10
401.6219444226119
 20
117.6146997703936
 30
0.0
 10
401.5749005841953
 20
117.697457605608
 30
0.0
 10
401.5289220600221
 20
117.7765464640895
 30
0.0
 10
401.4841413932197
 20
117.8517634520221
 30
0.0
 10
401.4406576287842
 20
117.9232265070673
 30
0.0
 10
401.3985716651993
 20
117.9909679112562
 30
0.0
 10
401.3579772008011
 20
118.0550414230028
 30
0.0
 10
401.3189622944492
 20
118.1154950220768
 30
0.0
 10
401.2816124719594
 20
118.1723725270088
 30
0.0
 10
401.2370842153654
 20
118.2390870000722
 30
0.0
 10
401.188443954823
 20
118.3104072839385
 30
0.0
 10
401.1406048550672
 20
118.3789875363975
 30
0.0
 10
401.1029533429863
 20
118.4320038644396
 30
0.0
 10
401.0761306415989
 20
118.4692765205672
 30
0.0
 10
401.0594018107753
 20
118.4923139201471
 30
0.0
 10
401.0575534008115
 20
118.4948486454123
 30
0.0
 10
401.0566275761911
 20
118.4961182290557
 30
0.0
  0
SPLINE
  5
E0
330
1F
100
AcDbEntity
  8
0
  6
Continuous
 62
     7
370
    25
100
AcDbSpline
210
0.0
220
0.0
230
1.0
 70
     8
 71
     3
 72
     8
 73
     4
 74
     0
 42
0.000000001
 43
0.00000001
 40
0.0
 40
0.0
 40
0.0
 40
0.0
 40
1.0
 40
1.0
 40
1.0
 40
1.0
 10
404.3319726917191
 20
117.3356284770055
 30
0.0
 10
404.3538580633623
 20
117.3599494932031
 30
0.0
 10
404.3757434350054
 20
117.3839740915256
 30
0.0
 10
404.3976288066485
 20
117.4076809436141
 30
0.0
  0
LINE
  5
E1
330
1F
100
AcDbEntity
  8
0
  6
Continuous
 62
     7
370
    25
100
AcDbLine
 10
404.3318124813
 20
117.335628477
 30
0.0
 11
401.9361506425
 21
117.335628477
 31
0.0
  0
SPLINE
  5
E2
330
1F
100
AcDbEntity
  8
0
  6
Continuous
 62
     7
370
    25
100
AcDbSpline
210
0.0
220
0.0
230
1.0
 70
     8
 71
     3
 72
     8
 73
     4
 74
     0
 42
0.000000001
 43
0.00000001
 40
0.0
 40
0.0
 40
0.0
 40
0.0
 40
1.0
 40
1.0
 40
1.0
 40
1.0
 10
383.4584370568208
 20
117.4077845110942
 30
0.0
 10
383.4803538293083
 20
117.3840440625351
 30
0.0
 10
383.5022706017959
 20
117.3599849107485
 30
0.0
 10
383.5241873742834
 20
117.3356284770056
 30
0.0
  0
SPLINE
  5
E3
330
1F
100
AcDbEntity
  8
0
  6
Continuous
 62
     7
370
    25
100
AcDbSpline
210
0.0
220
0.0
230
1.0
 70
     8
 71
     3
 72
    26
 73
    22
 74
     0
 42
0.000000001
 43
0.00000001
 40
0.0
 40
0.0
 40
0.0
 40
0.0
 40
0.0524616379932503
 40
0.1026498591890872
 40
0.150565513457809
 40
0.1962095861957063
 40
0.2395832262568645
 40
0.2806877815599511
 40
0.3195248450380211
 40
0.3560963147430692
 40
0.3904044736547445
 40
0.4224520974433627
 40
0.4522426027417772
 40
0.4797802555366611
 40
0.5050704712281336
 40
0.5966394156799991
 40
0.6841917884819224
 40
0.7679874773571101
 40
0.8483228539139507
 40
0.925534163520116
 40
1.0
 40
1.0
 40
1.0
 40
1.0
 10
385.9198318887309
 20
117.3356433690233
 30
0.0
 10
385.9376933730193
 20
117.3654168290644
 30
0.0
 10
385.972642316995
 20
117.4236735209577
 30
0.0
 10
386.0234071504771
 20
117.5058725013223
 30
0.0
 10
386.0714771081189
 20
117.5819533702231
 30
0.0
 10
386.1168210808838
 20
117.6519047186894
 30
0.0
 10
386.159447060389
 20
117.7160118806414
 30
0.0
 10
386.1993533588982
 20
117.7745197201116
 30
0.0
 10
386.2365406880135
 20
117.8277082977336
 30
0.0
 10
386.2710095106044
 20
117.8758663379707
 30
0.0
 10
386.3027595992367
 20
117.919291011247
 30
0.0
 10
386.3317940038378
 20
117.9582811023439
 30
0.0
 10
386.3581052930389
 20
117.9931352008704
 30
0.0
 10
386.381721922583
 20
118.024140195321
 30
0.0
 10
386.4213676015888
 20
118.0763834139539
 30
0.0
 10
386.472905898388
 20
118.1439127472111
 30
0.0
 10
386.5297320353691
 20
118.2161061934196
 30
0.0
 10
386.5738894633321
 20
118.2705901495421
 30
0.0
 10
386.6050670862741
 20
118.3078549407105
 30
0.0
 10
386.6245266529132
 20
118.3303192929852
 30
0.0
 10
386.6266682505936
 20
118.3330418424124
 30
0.0
 10
386.6277196671504
 20
118.3343784770056
 30
0.0
  0
LINE
  5
E4
330
1F
100
AcDbEntity
  8
0
  6
Continuous
 62
     7
370
    25
100
AcDbLine
 10
385.9198318887
 20
117.335628477
 30
0.0
 11
383.5241873743
 21
117.335628477
 31
0.0
  0
LINE
  5
E5
330
1F
100
AcDbEntity
  8
0
  6
Continuous
 62
     7
370
    25
100
AcDbLine
 10
385.9946512664
 20
117.335628477
 30
0.0
 11
385.919531668
 21
117.335628477
 31
0.0
  0
SPLINE
  5
E6
330
1F
100
AcDbEntity
  8
0
  6
Continuous
 62
     7
370
    25
100
AcDbSpline
210
0.0
220
0.0
230
1.0
 70
     8
 71
     3
 72
     8
 73
     4
 74
     0
 42
0.000000001
 43
0.00000001
 40
0.0
 40
0.0
 40
0.0
 40
0.0
 40
1.0
 40
1.0
 40
1.0
 40
1.0
 10
385.994651266364
 20
117.3356284770055
 30
0.0
 10
386.0585600690238
 20
117.3975973404367
 30
0.0
 10
386.1223349883758
 20
117.4615734055534
 30
0.0
 10
386.1856950542568
 20
117.5271080618991
 30
0.0
  0
SPLINE
  5
E7
330
1F
100
AcDbEntity
  8
0
  6
Continuous
 62
     7
370
    25
100
AcDbSpline
210
0.0
220
0.0
230
1.0
 70
     8
 71
     3
 72
    24
 73
    20
 74
     0
 42
0.000000001
 43
0.00000001
 40
0.0
 40
0.0
 40
0.0
 40
0.0
 40
0.0410257106276927
 40
0.0818520099057808
 40
0.1225800578327865
 40
0.1633117464026497
 40
0.2041489402771959
 40
0.2451927184713359
 40
0.2865426449200764
 40
0.3282960933614036
 40
0.3705476475465791
 40
0.413388592008023
 40
0.4569065022337061
 40
0.5011849368582145
 40
0.6001856774961036
 40
0.6987388860470333
 40
0.7976800645476073
 40
0.8978349910043563
 40
1.0
 40
1.0
 40
1.0
 40
1.0
 10
386.7992778601316
 20
118.4957685583371
 30
0.0
 10
386.7990830966905
 20
118.4955012081795
 30
0.0
 10
386.7986945164841
 20
118.4949678073582
 30
0.0
 10
386.7946397288097
 20
118.4893960613591
 30
0.0
 10
386.7880457698299
 20
118.4803153122052
 30
0.0
 10
386.7786815089199
 20
118.4673778518445
 30
0.0
 10
386.7666333951498
 20
118.4506594089387
 30
0.0
 10
386.7519108256894
 20
118.4301173981669
 30
0.0
 10
386.7345518328422
 20
118.4057360241201
 30
0.0
 10
386.7145946616888
 20
118.3774872800483
 30
0.0
 10
386.6920856119933
 20
118.3453417326471
 30
0.0
 10
386.6670763762319
 20
118.3092648926809
 30
0.0
 10
386.639627006707
 20
118.2692213001616
 30
0.0
 10
386.5977038936399
 20
118.2073008568205
 30
0.0
 10
386.5384977184289
 20
118.1179883657243
 30
0.0
 10
386.4587181253086
 20
117.9934437736955
 30
0.0
 10
386.3727373403221
 20
117.8536589812056
 30
0.0
 10
386.2814525531002
 20
117.6992461622196
 30
0.0
 10
386.218248199042
 20
117.5852001405684
 30
0.0
 10
386.1863320490764
 20
117.5276105965532
 30
0.0
  0
LINE
  5
E8
330
1F
100
AcDbEntity
  8
0
  6
Continuous
 62
     7
370
    25
100
AcDbLine
 10
383.1154391425
 20
108.8143234793
 30
0.0
 11
383.5396765575
 21
109.2631163779
 31
0.0
  0
SPLINE
  5
E9
330
1F
100
AcDbEntity
  8
0
  6
Continuous
 62
     7
370
    25
100
AcDbSpline
210
0.0
220
0.0
230
1.0
 70
     8
 71
     3
 72
    13
 73
     9
 74
     0
 42
0.000000001
 43
0.00000001
 40
0.0
 40
0.0
 40
0.0
 40
0.0
 40
0.1706320847147904
 40
0.3395984166119918
 40
0.5069574112587142
 40
0.6727691831295072
 40
0.8370955448417806
 40
1.0
 40
1.0
 40
1.0
 40
1.0
 10
383.5396765575247
 20
109.2630957354763
 30
0.0
 10
383.5446820279342
 20
109.2561443623924
 30
0.0
 10
383.554644104107
 20
109.2423094772562
 30
0.0
 10
383.5675179320004
 20
109.2261817187974
 30
0.0
 10
383.5787842444968
 20
109.2135129886398
 30
0.0
 10
383.5882616079318
 20
109.204656550804
 30
0.0
 10
383.5961438406255
 20
109.1991445223274
 30
0.0
 10
383.5999587468579
 20
109.198466176247
 30
0.0
 10
383.6018579115735
 20
109.1981284770056
 30
0.0
  0
SPLINE
  5
EA
330
1F
100
AcDbEntity
  8
0
  6
Continuous
 62
     7
370
    25
100
AcDbSpline
210
0.0
220
0.0
230
1.0
 70
     8
 71
     3
 72
    13
 73
     9
 74
     0
 42
0.000000001
 43
0.00000001
 40
0.0
 40
0.0
 40
0.0
 40
0.0
 40
0.1621004456454283
 40
0.3259434551388595
 40
0.4915935308049779
 40
0.6591130873777451
 40
0.8285624735926473
 40
1.0
 40
1.0
 40
1.0
 40
1.0
 10
404.2543021777207
 20
109.1981284770056
 30
0.0
 10
404.2561792840627
 20
109.1984629601062
 30
0.0
 10
404.2599536754554
 20
109.1991355219678
 30
0.0
 10
404.2678007526341
 20
109.2046088063628
 30
0.0
 10
404.2772668124092
 20
109.2134282710227
 30
0.0
 10
404.2885477272117
 20
109.2260810280163
 30
0.0
 10
404.3014623457097
 20
109.2422330294132
 30
0.0
 10
404.3114580599555
 20
109.2561188293569
 30
0.0
 10
404.3164850658672
 20
109.263102222108
 30
0.0
  0
LINE
  5
EB
330
1F
100
AcDbEntity
  8
0
  6
Continuous
 62
     7
370
    25
100
AcDbLine
 10
404.3164980337
 20
109.2631025901
 30
0.0
 11
404.7407201985
 21
108.8143235048
 31
0.0
  0
LINE
  5
EC
330
1F
100
AcDbEntity
  8
0
  6
Continuous
 62
     7
370
    25
100
AcDbLine
 10
401.8615088229
 20
109.273128477
 30
0.0
 11
401.8702301325
 21
109.273128477
 31
0.0
  0
SPLINE
  5
ED
330
1F
100
AcDbEntity
  8
0
  6
Continuous
 62
     7
370
    25
100
AcDbSpline
210
0.0
220
0.0
230
1.0
 70
     8
 71
     3
 72
     8
 73
     4
 74
     0
 42
0.000000001
 43
0.00000001
 40
0.0
 40
0.0
 40
0.0
 40
0.0
 40
1.0
 40
1.0
 40
1.0
 40
1.0
 10
404.3164981068601
 20
109.2631028351752
 30
0.0
 10
404.314314622619
 20
109.2659515006915
 30
0.0
 10
404.3121311383778
 20
109.268892292089
 30
0.0
 10
404.3099476541367
 20
109.2719247893656
 30
0.0
  0
LINE
  5
EE
330
1F
100
AcDbEntity
  8
0
  6
Continuous
 62
     7
370
    25
100
AcDbLine
 10
404.3090449111
 20
109.273128477
 30
0.0
 11
401.8702345517
 21
109.273128477
 31
0.0
  0
SPLINE
  5
EF
330
1F
100
AcDbEntity
  8
0
  6
Continuous
 62
     7
370
    25
100
AcDbSpline
210
0.0
220
0.0
230
1.0
 70
     8
 71
     3
 72
     8
 73
     4
 74
     0
 42
0.000000001
 43
0.00000001
 40
0.0
 40
0.0
 40
0.0
 40
0.0
 40
1.0
 40
1.0
 40
1.0
 40
1.0
 10
383.5471152015669
 20
109.2731284770132
 30
0.0
 10
383.5446292828804
 20
109.2696667777012
 30
0.0
 10
383.5421433641938
 20
109.2663226257923
 30
0.0
 10
383.5396574455073
 20
109.2630966338519
 30
0.0
  0
LINE
  5
F0
330
1F
100
AcDbEntity
  8
0
  6
Continuous
 62
     7
370
    25
100
AcDbLine
 10
385.9844192582
 20
109.273128477
 30
0.0
 11
383.5473316479
 21
109.273128477
 31
0.0
  0
LINE
  5
F1
330
1F
100
AcDbEntity
  8
0
  6
Continuous
 62
     7
370
    25
100
AcDbLine
 10
385.9859291162
 20
109.273128477
 30
0.0
 11
385.9946512664
 21
109.273128477
 31
0.0
  0
SPLINE
  5
F2
330
1F
100
AcDbEntity
  8
0
  6
Continuous
 62
     7
370
    25
100
AcDbSpline
210
0.0
220
0.0
230
1.0
 70
     8
 71
     3
 72
    14
 73
    10
 74
     0
 42
0.000000001
 43
0.00000001
 40
0.0
 40
0.0
 40
0.0
 40
0.0
 40
0.0310276388067353
 40
0.062285371866867
 40
0.124800316690094
 40
0.2498289731750666
 40
0.4998892603608338
 40
0.7606803621459556
 40
1.0
 40
1.0
 40
1.0
 40
1.0
 10
382.9679860501879
 20
108.8163903023902
 30
0.0
 10
382.972315343653
 20
108.8211742246683
 30
0.0
 10
382.9810060356864
 20
108.8307775457564
 30
0.0
 10
382.9984068143485
 20
108.8500718597542
 30
0.0
 10
383.0288829741934
 20
108.8838368062079
 30
0.0
 10
383.0897043670129
 20
108.9512555650697
 30
0.0
 10
383.1775947094231
 20
109.0487222399329
 30
0.0
 10
383.2804323895068
 20
109.1628667518313
 30
0.0
 10
383.3476385009484
 20
109.2376515648372
 30
0.0
 10
383.3797988625984
 20
109.2734385874844
 30
0.0
  0
LINE
  5
F3
330
1F
100
AcDbEntity
  8
0
  6
Continuous
 62
     7
370
    25
100
AcDbLine
 10
383.3794703634
 20
109.273128477
 30
0.0
 11
383.5471152016
 21
109.273128477
 31
0.0
  0
LINE
  5
F4
330
1F
100
AcDbEntity
  8
0
  6
Continuous
 62
     7
370
    25
100
AcDbLine
 10
404.3090449111
 20
109.273128477
 30
0.0
 11
404.4766971104
 21
109.273128477
 31
0.0
  0
SPLINE
  5
F5
330
1F
100
AcDbEntity
  8
0
  6
Continuous
 62
     7
370
    25
100
AcDbSpline
210
0.0
220
0.0
230
1.0
 70
     8
 71
     3
 72
    11
 73
     7
 74
     0
 42
0.000000001
 43
0.00000001
 40
0.0
 40
0.0
 40
0.0
 40
0.0
 40
0.2392913842439378
 40
0.5001130134995628
 40
0.7515028526562008
 40
1.0
 40
1.0
 40
1.0
 40
1.0
 10
404.4763932973174
 20
109.2734152795172
 30
0.0
 10
404.508549850272
 20
109.2376385609657
 30
0.0
 10
404.5757562423979
 20
109.1628661132053
 30
0.0
 10
404.6787843321449
 20
109.048407399887
 30
0.0
 10
404.7838749967873
 20
108.9322482137567
 30
0.0
 10
404.8535498168676
 20
108.8548602724502
 30
0.0
 10
404.8881856335606
 20
108.8163902118709
 30
0.0
  0
LINE
  5
F6
330
1F
100
AcDbEntity
  8
0
  6
Continuous
 62
     7
370
    25
100
AcDbLine
 10
383.5241873743
 20
117.335628477
 30
0.0
 11
383.3796150782
 21
117.335628477
 31
0.0
  0
SPLINE
  5
F7
330
1F
100
AcDbEntity
  8
0
  6
Continuous
 62
     7
370
    25
100
AcDbSpline
210
0.0
220
0.0
230
1.0
 70
     8
 71
     3
 72
    11
 73
     7
 74
     0
 42
0.000000001
 43
0.00000001
 40
0.0
 40
0.0
 40
0.0
 40
0.0
 40
0.2392845095296998
 40
0.5001120454061866
 40
0.751501091500065
 40
1.0
 40
1.0
 40
1.0
 40
1.0
 10
383.3799177004374
 20
117.335342690809
 30
0.0
 10
383.3477565706565
 20
117.371140539882
 30
0.0
 10
383.2805388120608
 20
117.4459591545773
 30
0.0
 10
383.1774941635627
 20
117.5604874188343
 30
0.0
 10
383.0723859346869
 20
117.6767184125042
 30
0.0
 10
383.0027004180595
 20
117.7541529081911
 30
0.0
 10
382.9680591056194
 20
117.7926463095255
 30
0.0
  0
SPLINE
  5
F8
330
1F
100
AcDbEntity
  8
0
  6
Continuous
 62
     7
370
    25
100
AcDbSpline
210
0.0
220
0.0
230
1.0
 70
     8
 71
     3
 72
    14
 73
    10
 74
     0
 42
0.000000001
 43
0.00000001
 40
0.0
 40
0.0
 40
0.0
 40
0.0
 40
0.0310294147466985
 40
0.0622870907546828
 40
0.1248019217211628
 40
0.249830351141896
 40
0.4998901825547203
 40
0.760687217145559
 40
1.0
 40
1.0
 40
1.0
 40
1.0
 10
404.8880893683497
 20
117.7926462012488
 30
0.0
 10
404.8837591720343
 20
117.7878590146792
 30
0.0
 10
404.8750669252394
 20
117.7782494256245
 30
0.0
 10
404.8576632968922
 20
117.7589434319186
 30
0.0
 10
404.827182561357
 20
117.7251582162666
 30
0.0
 10
404.7663519396347
 20
117.6576990853191
 30
0.0
 10
404.6784470364552
 20
117.5601725795934
 30
0.0
 10
404.5755927918389
 20
117.4459585728242
 30
0.0
 10
404.5083753336921
 20
117.3711276127164
 30
0.0
 10
404.4762104043019
 20
117.3353194668204
 30
0.0
  0
LINE
  5
F9
330
1F
100
AcDbEntity
  8
0
  6
Continuous
 62
     7
370
    25
100
AcDbLine
 10
404.4765376143
 20
117.335628477
 30
0.0
 11
404.3319726917
 21
117.335628477
 31
0.0
  0
LINE
  5
FA
330
1F
100
AcDbEntity
  8
0
  6
Continuous
 62
     7
370
    25
100
AcDbLine
 10
382.0574121799
 20
111.1170407345
 30
0.0
 11
382.4974748372
 21
111.198128477
 31
0.0
  0
SPLINE
  5
FB
330
1F
100
AcDbEntity
  8
0
  6
Continuous
 62
     7
370
    25
100
AcDbSpline
210
0.0
220
0.0
230
1.0
 70
     8
 71
     3
 72
    25
 73
    21
 74
     0
 42
0.000000001
 43
0.00000001
 40
0.0
 40
0.0
 40
0.0
 40
0.0
 40
0.0274788704224787
 40
0.0560416006853318
 40
0.0856947086355637
 40
0.1164440166541994
 40
0.1482947438684638
 40
0.181251584047285
 40
0.2153187716750382
 40
0.2505001382254961
 40
0.3330514552490632
 40
0.5015081958163724
 40
0.5771663066145021
 40
0.648898130302707
 40
0.7167477700065175
 40
0.7807674423490577
 40
0.8410194131342656
 40
0.8975784849926469
 40
0.9505352047789419
 40
1.0
 40
1.0
 40
1.0
 40
1.0
 10
382.4974748372358
 20
111.1981284770056
 30
0.0
 10
382.5041830045793
 20
111.1689462724879
 30
0.0
 10
382.5178639321362
 20
111.1094308183389
 30
0.0
 10
382.5406286607902
 20
111.0190403212799
 30
0.0
 10
382.5655062980305
 20
110.9259087121585
 30
0.0
 10
382.5926455360481
 20
110.8303226678835
 30
0.0
 10
382.6220069430793
 20
110.7325691982703
 30
0.0
 10
382.6535921133673
 20
110.6329885222131
 30
0.0
 10
382.687438983232
 20
110.5319793826349
 30
0.0
 10
382.7391402131643
 20
110.3852125753859
 30
0.0
 10
382.8434992261779
 20
110.1209461624717
 30
0.0
 10
382.9643724538616
 20
109.8509765326426
 30
0.0
 10
383.0778655003193
 20
109.633566857925
 30
0.0
 10
383.1491384679352
 20
109.5038632871943
 30
0.0
 10
383.2112130400611
 20
109.3999882098695
 30
0.0
 10
383.2637970522284
 20
109.320127576051
 30
0.0
 10
383.3070435981559
 20
109.2621089499006
 30
0.0
 10
383.340650410376
 20
109.2240053912483
 30
0.0
 10
383.3655973932486
 20
109.2020028602536
 30
0.0
 10
383.3745569301106
 20
109.1993902469023
 30
0.0
 10
383.3788839668286
 20
109.1981284770056
 30
0.0
  0
LINE
  5
FC
330
1F
100
AcDbEntity
  8
0
  6
Continuous
 62
     7
370
    25
100
AcDbLine
 10
405.7987479094
 20
115.4917162195
 30
0.0
 11
405.3586852521
 21
115.410628477
 31
0.0
  0
SPLINE
  5
FD
330
1F
100
AcDbEntity
  8
0
  6
Continuous
 62
     7
370
    25
100
AcDbSpline
210
0.0
220
0.0
230
1.0
 70
     8
 71
     3
 72
    25
 73
    21
 74
     0
 42
0.000000001
 43
0.00000001
 40
0.0
 40
0.0
 40
0.0
 40
0.0
 40
0.0274788704243672
 40
0.0560416006885685
 40
0.0856947086396085
 40
0.1164440166585125
 40
0.1482947438725051
 40
0.1812515840505162
 40
0.2153187716769223
 40
0.2505001382254963
 40
0.333051455256513
 40
0.501508195816399
 40
0.577166306614471
 40
0.6488981303026332
 40
0.7167477700064154
 40
0.7807674423489445
 40
0.8410194131341566
 40
0.8975784849925574
 40
0.9505352047788891
 40
1.0
 40
1.0
 40
1.0
 40
1.0
 10
405.3586852520583
 20
115.4106284770056
 30
0.0
 10
405.3519770847143
 20
115.4398106815253
 30
0.0
 10
405.3382961571568
 20
115.4993261356777
 30
0.0
 10
405.3155314285019
 20
115.5897166327411
 30
0.0
 10
405.2906537912609
 20
115.682848241865
 30
0.0
 10
405.2635145532432
 20
115.7784342861407
 30
0.0
 10
405.2341531462121
 20
115.8761877557529
 30
0.0
 10
405.2025679759248
 20
115.9757684318075
 30
0.0
 10
405.168721106061
 20
116.0767775713814
 30
0.0
 10
405.1170198761263
 20
116.2235443786341
 30
0.0
 10
405.0126608631137
 20
116.4878107915462
 30
0.0
 10
404.8917876354298
 20
116.7577804213736
 30
0.0
 10
404.7782945889749
 20
116.9751900960861
 30
0.0
 10
404.707021621359
 20
117.1048936668167
 30
0.0
 10
404.6449470492331
 20
117.2087687441416
 30
0.0
 10
404.5923630370658
 20
117.28862937796
 30
0.0
 10
404.5491164911383
 20
117.3466480041106
 30
0.0
 10
404.5155096789182
 20
117.3847515627629
 30
0.0
 10
404.4905626960456
 20
117.4067540937576
 30
0.0
 10
404.4816031591836
 20
117.4093667071089
 30
0.0
 10
404.4772761224655
 20
117.4106284770056
 30
0.0
  0
SPLINE
  5
FE
330
1F
100
AcDbEntity
  8
0
  6
Continuous
 62
     7
370
    25
100
AcDbSpline
210
0.0
220
0.0
230
1.0
 70
     8
 71
     3
 72
    25
 73
    21
 74
     0
 42
0.000000001
 43
0.00000001
 40
0.0
 40
0.0
 40
0.0
 40
0.0
 40
0.0288821753103607
 40
0.058363659400202
 40
0.0884647204300861
 40
0.1192044006611817
 40
0.1506005800081054
 40
0.1826700399666173
 40
0.2154285269574062
 40
0.2488908143379818
 40
0.3610594471128721
 40
0.4984670131067379
 40
0.5822693905005261
 40
0.666112764278099
 40
0.7499972937224157
 40
0.8007709755018196
 40
0.851123770078672
 40
0.901089602448554
 40
0.9507031914094958
 40
1.0
 40
1.0
 40
1.0
 40
1.0
 10
383.3788839668286
 20
117.4106284770056
 30
0.0
 10
383.376593698451
 20
117.4102002350297
 30
0.0
 10
383.3719656383381
 20
117.4093348650029
 30
0.0
 10
383.3616553752508
 20
117.4022599323016
 30
0.0
 10
383.34881930602
 20
117.3906913911415
 30
0.0
 10
383.3332057472774
 20
117.3739858150293
 30
0.0
 10
383.3148843038647
 20
117.3520489040133
 30
0.0
 10
383.2938367180335
 20
117.3246512685285
 30
0.0
 10
383.2700651460413
 20
117.2916167878461
 30
0.0
 10
383.2230086166084
 20
117.2226261217222
 30
0.0
 10
383.1353141987498
 20
117.082600152303
 30
0.0
 10
383.017762544218
 20
116.8633048511005
 30
0.0
 10
382.9062403798753
 20
116.62637479032
 30
0.0
 10
382.8147810625272
 20
116.4105329164101
 30
0.0
 10
382.7338994113489
 20
116.2089712955315
 30
0.0
 10
382.6677545094809
 20
116.0301032151443
 30
0.0
 10
382.618403948655
 20
115.8787270140053
 30
0.0
 10
382.5734369317901
 20
115.7244828588826
 30
0.0
 10
382.5326792178699
 20
115.5683270038022
 30
0.0
 10
382.5091845486516
 20
115.4630822968492
 30
0.0
 10
382.4974748372358
 20
115.4106284770056
 30
0.0
  0
LINE
  5
FF
330
1F
100
AcDbEntity
  8
0
  6
Continuous
 62
     7
370
    25
100
AcDbLine
 10
382.0574121799
 20
115.4917162195
 30
0.0
 11
382.4974748372
 21
115.410628477
 31
0.0
  0
SPLINE
  5
100
330
1F
100
AcDbEntity
  8
0
  6
Continuous
 62
     7
370
    25
100
AcDbSpline
210
0.0
220
0.0
230
1.0
 70
     8
 71
     3
 72
    25
 73
    21
 74
     0
 42
0.000000001
 43
0.00000001
 40
0.0
 40
0.0
 40
0.0
 40
0.0
 40
0.0288821753108476
 40
0.0583636594010358
 40
0.088464720431129
 40
0.1192044006622933
 40
0.1506005800091479
 40
0.1826700399674522
 40
0.2154285269578988
 40
0.2488908143379949
 40
0.3610594471186867
 40
0.4984670131067664
 40
0.582269390500644
 40
0.666112764278217
 40
0.7499972937224437
 40
0.8007709755032449
 40
0.8511237700807972
 40
0.9010896024506762
 40
0.9507031914109091
 40
0.9999999999999999
 40
0.9999999999999999
 40
0.9999999999999999
 40
0.9999999999999999
 10
404.4772761224655
 20
109.1981284770056
 30
0.0
 10
404.4795663908432
 20
109.1985567189815
 30
0.0
 10
404.4841944509562
 20
109.1994220890083
 30
0.0
 10
404.4945047140435
 20
109.2064970217099
 30
0.0
 10
404.5073407832743
 20
109.2180655628702
 30
0.0
 10
404.522954342017
 20
109.2347711389826
 30
0.0
 10
404.5412757854297
 20
109.2567080499987
 30
0.0
 10
404.5623233712607
 20
109.2841056854834
 30
0.0
 10
404.5860949432529
 20
109.3171401661656
 30
0.0
 10
404.6331514726878
 20
109.3861308322915
 30
0.0
 10
404.7208458905456
 20
109.5261568017118
 30
0.0
 10
404.8383975450781
 20
109.7454521029154
 30
0.0
 10
404.9499197094199
 20
109.9823821636911
 30
0.0
 10
405.041379026768
 20
110.198224037601
 30
0.0
 10
405.1222606779459
 20
110.3997856584811
 30
0.0
 10
405.1884055798139
 20
110.5786537388706
 30
0.0
 10
405.2377561406404
 20
110.7300299400118
 30
0.0
 10
405.2827231575053
 20
110.8842740951346
 30
0.0
 10
405.323480871425
 20
111.0404299502128
 30
0.0
 10
405.3469755406428
 20
111.1456746571635
 30
0.0
 10
405.3586852520583
 20
111.1981284770056
 30
0.0
  0
LINE
  5
101
330
1F
100
AcDbEntity
  8
0
  6
Continuous
 62
     7
370
    25
100
AcDbLine
 10
405.7987479094
 20
111.1170407345
 30
0.0
 11
405.3586852521
 21
111.198128477
 31
0.0
  0
SPLINE
  5
102
330
1F
100
AcDbEntity
  8
0
  6
Continuous
 62
     7
370
    25
100
AcDbSpline
210
0.0
220
0.0
230
1.0
 70
     8
 71
     3
 72
    14
 73
    10
 74
     0
 42
0.000000001
 43
0.00000001
 40
0.0
 40
0.0
 40
0.0
 40
0.0
 40
0.1359145300112984
 40
0.2970841336547358
 40
0.4458230192132124
 40
0.5950336724695601
 40
0.7620249554136277
 40
0.9152755812521447
 40
1.0
 40
1.0
 40
1.0
 40
1.0
 10
385.0302221563686
 20
115.4106284770056
 30
0.0
 10
385.0654661760221
 20
115.5310568457809
 30
0.0
 10
385.1425031127237
 20
115.7942910827832
 30
0.0
 10
385.2832109720987
 20
116.1678889389093
 30
0.0
 10
385.4321644745412
 20
116.519849986837
 30
0.0
 10
385.5899747434954
 20
116.8325475234479
 30
0.0
 10
385.7365942680047
 20
117.0901223101888
 30
0.0
 10
385.8385128914862
 20
117.2656787564602
 30
0.0
 10
385.871882465356
 20
117.3184649801684
 30
0.0
 10
385.8837627772388
 20
117.3372580520611
 30
0.0
  0
SPLINE
  5
103
330
1F
100
AcDbEntity
  8
0
  6
Continuous
 62
     7
370
    25
100
AcDbSpline
210
0.0
220
0.0
230
1.0
 70
     8
 71
     3
 72
    14
 73
    10
 74
     0
 42
0.000000001
 43
0.00000001
 40
0.0
 40
0.0
 40
0.0
 40
0.0
 40
0.135914529999609
 40
0.2970841336539419
 40
0.4458230192117103
 40
0.5950336724680189
 40
0.7620249554077805
 40
0.9152755812445796
 40
1.0
 40
1.0
 40
1.0
 40
1.0
 10
402.8259379329256
 20
111.1981284770056
 30
0.0
 10
402.7906939132743
 20
111.0777001082406
 30
0.0
 10
402.7136569765715
 20
110.8144658712388
 30
0.0
 10
402.5729491171989
 20
110.4408680151109
 30
0.0
 10
402.4239956147565
 20
110.0889069671734
 30
0.0
 10
402.2661853458002
 20
109.7762094305663
 30
0.0
 10
402.1195658212881
 20
109.5186346438279
 30
0.0
 10
402.0176471978058
 20
109.3430781975539
 30
0.0
 10
401.9842776239357
 20
109.2902919738432
 30
0.0
 10
401.9723973120521
 20
109.2714989019484
 30
0.0
  0
SPLINE
  5
104
330
1F
100
AcDbEntity
  8
0
  6
Continuous
 62
     7
370
    25
100
AcDbSpline
210
0.0
220
0.0
230
1.0
 70
     8
 71
     3
 72
    13
 73
     9
 74
     0
 42
0.000000001
 43
0.00000001
 40
0.0
 40
0.0
 40
0.0
 40
0.0
 40
0.0217286921546251
 40
0.1003820497607994
 40
0.2372357405679617
 40
0.3994036557065064
 40
0.7008666741939426
 40
1.0
 40
1.0
 40
1.0
 40
1.0
 10
385.8815832750352
 20
109.2726878823095
 30
0.0
 10
385.8786465840536
 20
109.2773098862483
 30
0.0
 10
385.8650796809861
 20
109.2986625855309
 30
0.0
 10
385.8176258370664
 20
109.375957670389
 30
0.0
 10
385.7240687703424
 20
109.5318905969576
 30
0.0
 10
385.5444714386551
 20
109.8643584598791
 30
0.0
 10
385.2754419277942
 20
110.4123547903711
 30
0.0
 10
385.111750428935
 20
110.9368821226558
 30
0.0
 10
385.0302221563686
 20
111.1981284770056
 30
0.0
  0
LINE
  5
105
330
1F
100
AcDbEntity
  8
0
  6
Continuous
 62
     7
370
    25
100
AcDbLine
 10
385.3464823137
 20
111.2729917716
 30
0.0
 11
385.0302221564
 21
111.198128477
 31
0.0
  0
SPLINE
  5
106
330
1F
100
AcDbEntity
  8
0
  6
Continuous
 62
     7
370
    25
100
AcDbSpline
210
0.0
220
0.0
230
1.0
 70
     8
 71
     3
 72
    25
 73
    21
 74
     0
 42
0.000000001
 43
0.00000001
 40
0.0
 40
0.0
 40
0.0
 40
0.0
 40
0.026987235480051
 40
0.0539362690264582
 40
0.080903714883541
 40
0.1079460716552471
 40
0.1351193706862933
 40
0.1624788388362141
 40
0.1900785854187556
 40
0.2179713214293564
 40
0.2462081170984975
 40
0.3700050494713508
 40
0.4947542611659214
 40
0.6210439034702567
 40
0.7446557472315537
 40
0.7967060293743095
 40
0.8478613449335788
 40
0.8985210411996799
 40
0.949096211526203
 40
1.0
 40
1.0
 40
1.0
 40
1.0
 10
385.34648231371
 20
111.2729917716057
 30
0.0
 10
385.3542630584341
 20
111.2405953665777
 30
0.0
 10
385.3698135338053
 20
111.1758484154358
 30
0.0
 10
385.3944989397787
 20
111.0792018790063
 30
0.0
 10
385.4201188967779
 20
110.9831077905145
 30
0.0
 10
385.4467617604054
 20
110.8875955197976
 30
0.0
 10
385.4743869456899
 20
110.7926707924049
 30
0.0
 10
385.5029887247492
 20
110.6983446362695
 30
0.0
 10
385.5325508143905
 20
110.6046282918207
 30
0.0
 10
385.5630639614375
 20
110.5115242079312
 30
0.0
 10
385.6297981660267
 20
110.3152589658182
 30
0.0
 10
385.7369813421223
 20
110.0291858502154
 30
0.0
 10
385.8807614324315
 20
109.6918959542212
 30
0.0
 10
386.0140098886433
 20
109.410386777398
 30
0.0
 10
386.1016810648565
 20
109.2393958472197
 30
0.0
 10
386.1525561006483
 20
109.1434830288382
 30
0.0
 10
386.1802252552997
 20
109.0922658253835
 30
0.0
 10
386.1999241734172
 20
109.0562830312984
 30
0.0
 10
386.2121716821208
 20
109.0341131429764
 30
0.0
 10
386.2134584752768
 20
109.0317936752428
 30
0.0
 10
386.2141039553586
 20
109.0306301858231
 30
0.0
  0
LINE
  5
107
330
1F
100
AcDbEntity
  8
0
  6
Continuous
 62
     7
370
    25
100
AcDbLine
 10
385.3464823137
 20
115.3357651824
 30
0.0
 11
385.0302221564
 21
115.410628477
 31
0.0
  0
SPLINE
  5
108
330
1F
100
AcDbEntity
  8
0
  6
Continuous
 62
     7
370
    25
100
AcDbSpline
210
0.0
220
0.0
230
1.0
 70
     8
 71
     3
 72
    25
 73
    21
 74
     0
 42
0.000000001
 43
0.00000001
 40
0.0
 40
0.0
 40
0.0
 40
0.0
 40
0.0278144320063454
 40
0.0555680196245743
 40
0.0833316253677699
 40
0.1111760352167569
 40
0.1391714221532235
 40
0.1673868326284729
 40
0.1958897140434683
 40
0.2247454979318932
 40
0.2540172492221413
 40
0.3796724410010679
 40
0.5056484635002158
 40
0.6297527290673055
 40
0.7535891720571115
 40
0.8038564806084937
 40
0.8533396843421529
 40
0.902326439834555
 40
0.9511131859210757
 40
1.0
 40
1.0
 40
1.0
 40
1.0
 10
386.2141039553586
 20
117.5781267681881
 30
0.0
 10
386.2139562040439
 20
117.5778602256345
 30
0.0
 10
386.2136610246221
 20
117.5773277235923
 30
0.0
 10
386.2100363256063
 20
117.5707802748962
 30
0.0
 10
386.204090429936
 20
117.56001103161
 30
0.0
 10
386.1956157070209
 20
117.5446002956857
 30
0.0
 10
386.1847007201818
 20
117.5246439194319
 30
0.0
 10
386.1713646519434
 20
117.5000938229615
 30
0.0
 10
386.1556568872564
 20
117.4709371992055
 30
0.0
 10
386.1376252990986
 20
117.4371412277721
 30
0.0
 10
386.0952077543504
 20
117.3567344697146
 30
0.0
 10
386.0146867145966
 20
117.1997460200434
 30
0.0
 10
385.8812603677233
 20
116.9179602822985
 30
0.0
 10
385.7371833910397
 20
116.5800881726709
 30
0.0
 10
385.6215056395886
 20
116.2714072589338
 30
0.0
 10
385.5389941643713
 20
116.0253765391787
 30
0.0
 10
385.4860725398466
 20
115.856550647907
 30
0.0
 10
385.4362154054691
 20
115.6852350768952
 30
0.0
 10
385.389197412238
 20
115.5115527266729
 30
0.0
 10
385.3607304015091
 20
115.3944010383679
 30
0.0
 10
385.34648231371
 20
115.3357651824055
 30
0.0
  0
SPLINE
  5
109
330
1F
100
AcDbEntity
  8
0
  6
Continuous
 62
     7
370
    25
100
AcDbSpline
210
0.0
220
0.0
230
1.0
 70
     8
 71
     3
 72
    13
 73
     9
 74
     0
 42
0.000000001
 43
0.00000001
 40
0.0
 40
0.0
 40
0.0
 40
0.0
 40
0.021728692150119
 40
0.1003820497588964
 40
0.2372357405683472
 40
0.3994036557052652
 40
0.7008666741933248
 40
1.0
 40
1.0
 40
1.0
 40
1.0
 10
401.974576814261
 20
117.3360690717005
 30
0.0
 10
401.9775135052419
 20
117.3314470677627
 30
0.0
 10
401.9910804083091
 20
117.3100943684808
 30
0.0
 10
402.0385342522272
 20
117.2327992836223
 30
0.0
 10
402.1320913189493
 20
117.0768663570521
 30
0.0
 10
402.3116886506415
 20
116.744398494131
 30
0.0
 10
402.5807181614994
 20
116.19640216364
 30
0.0
 10
402.744409660359
 20
115.6718748313554
 30
0.0
 10
402.8259379329256
 20
115.4106284770056
 30
0.0
  0
LINE
  5
10A
330
1F
100
AcDbEntity
  8
0
  6
Continuous
 62
     7
370
    25
100
AcDbLine
 10
402.5096777756
 20
115.3357651824
 30
0.0
 11
402.8259379329
 21
115.410628477
 31
0.0
  0
SPLINE
  5
10B
330
1F
100
AcDbEntity
  8
0
  6
Continuous
 62
     7
370
    25
100
AcDbSpline
210
0.0
220
0.0
230
1.0
 70
     8
 71
     3
 72
    14
 73
    10
 74
     0
 42
0.000000001
 43
0.00000001
 40
0.0
 40
0.0
 40
0.0
 40
0.0
 40
0.1400505389358422
 40
0.2837941391410397
 40
0.4267315409798957
 40
0.5707684557843765
 40
0.7165839699832423
 40
0.8593076663238621
 40
0.9999999999999999
 40
0.9999999999999999
 40
0.9999999999999999
 40
0.9999999999999999
 10
402.5096777755842
 20
115.3357651824055
 30
0.0
 10
402.4729108463816
 20
115.4813252136499
 30
0.0
 10
402.398407462809
 20
115.7762836199099
 30
0.0
 10
402.2632182436237
 20
116.1943476287832
 30
0.0
 10
402.1193338405204
 20
116.579400322216
 30
0.0
 10
401.9751971005482
 20
116.9172083308018
 30
0.0
 10
401.8428014277652
 20
117.1971491214275
 30
0.0
 10
401.7318806469416
 20
117.413289609063
 30
0.0
 10
401.6905451665041
 20
117.4893527547473
 30
0.0
 10
401.6700255607287
 20
117.5271117392071
 30
0.0
  0
LINE
  5
10C
330
1F
100
AcDbEntity
  8
0
  6
Continuous
 62
     7
370
    25
100
AcDbLine
 10
402.5096777756
 20
111.2729917716
 30
0.0
 11
402.8259379329
 21
111.198128477
 31
0.0
  0
SPLINE
  5
10D
330
1F
100
AcDbEntity
  8
0
  6
Continuous
 62
     7
370
    25
100
AcDbSpline
210
0.0
220
0.0
230
1.0
 70
     8
 71
     3
 72
    25
 73
    21
 74
     0
 42
0.000000001
 43
0.00000001
 40
0.0
 40
0.0
 40
0.0
 40
0.0
 40
0.0278144320063468
 40
0.0555680196245764
 40
0.0833316253677732
 40
0.1111760352167606
 40
0.1391714221532288
 40
0.1673868326284795
 40
0.1958897140434744
 40
0.2247454979319009
 40
0.254017249222149
 40
0.3796724410010808
 40
0.5056484635002305
 40
0.6297527290695841
 40
0.7535891720572087
 40
0.8038564806098943
 40
0.8533396843442248
 40
0.902326439836628
 40
0.951113185922461
 40
1.0
 40
1.0
 40
1.0
 40
1.0
 10
401.6420561339356
 20
109.0306301858231
 30
0.0
 10
401.6422038852503
 20
109.0308967283766
 30
0.0
 10
401.6424990646721
 20
109.0314292304189
 30
0.0
 10
401.6461237636879
 20
109.037976679115
 30
0.0
 10
401.6520696593582
 20
109.0487459224012
 30
0.0
 10
401.6605443822732
 20
109.0641566583255
 30
0.0
 10
401.6714593691124
 20
109.0841130345793
 30
0.0
 10
401.6847954373508
 20
109.1086631310498
 30
0.0
 10
401.7005032020377
 20
109.1378197548057
 30
0.0
 10
401.7185347901955
 20
109.1716157262391
 30
0.0
 10
401.7609523349438
 20
109.2520224842966
 30
0.0
 10
401.8414733746975
 20
109.4090109339677
 30
0.0
 10
401.9748997215718
 20
109.6907966717147
 30
0.0
 10
402.1189766982549
 20
110.0286687813414
 30
0.0
 10
402.2346544497067
 20
110.3373496950808
 30
0.0
 10
402.3171659249242
 20
110.5833804148368
 30
0.0
 10
402.3700875494496
 20
110.7522063061108
 30
0.0
 10
402.4199446838269
 20
110.9235218771226
 30
0.0
 10
402.4669626770572
 20
111.0972042273425
 30
0.0
 10
402.4954296877855
 20
111.214355915645
 30
0.0
 10
402.5096777755842
 20
111.2729917716057
 30
0.0
  0
ARC
  5
10E
330
1F
100
AcDbEntity
  8
0
  6
Continuous
 62
     7
370
    25
100
AcDbCircle
 10
393.9280800446
 20
113.304378477
 30
0.0
 40
11.62303852141071
100
AcDbArc
 50
169.5595567507
 51
190.4404432494
  0
ARC
  5
10F
330
1F
100
AcDbEntity
  8
0
  6
Continuous
 62
     7
370
    25
100
AcDbCircle
 10
393.9280800446
 20
113.304378477
 30
0.0
 40
9.143750000000006
100
AcDbArc
 50
166.6824039243
 51
193.3175960757
  0
ARC
  5
110
330
1F
100
AcDbEntity
  8
0
  6
Continuous
 62
     7
370
    25
100
AcDbCircle
 10
393.9280800446
 20
113.304378477
 30
0.0
 40
8.818749999999966
100
AcDbArc
 50
166.6824039243
 51
193.3175960757
  0
ARC
  5
111
330
1F
100
AcDbEntity
  8
0
  6
Continuous
 62
     7
370
    25
100
AcDbCircle
 10
393.9280800446
 20
113.304378477
 30
0.0
 40
9.143750000000006
100
AcDbArc
 50
346.6824039243
 51
13.3175960757
  0
ARC
  5
112
330
1F
100
AcDbEntity
  8
0
  6
Continuous
 62
     7
370
    25
100
AcDbCircle
 10
393.9280800446
 20
113.304378477
 30
0.0
 40
8.818750000000023
100
AcDbArc
 50
346.6824039243
 51
13.3175960757
  0
ARC
  5
113
330
1F
100
AcDbEntity
  8
0
  6
Continuous
 62
     7
370
    25
100
AcDbCircle
 10
393.9280800446
 20
113.304378477
 30
0.0
 40
11.6230385214107
100
AcDbArc
 50
349.5595567507
 51
10.4404432493
  0
CIRCLE
  5
114
330
1F
100
AcDbEntity
  8
0
  6
Continuous
 62
     7
370
    25
100
AcDbCircle
 10
393.9280800446
 20
113.304378477
 30
0.0
 40
7.774999999999977
  0
CIRCLE
  5
115
330
1F
100
AcDbEntity
  8
0
  6
Continuous
 62
     7
370
    25
100
AcDbCircle
 10
393.9280800446
 20
113.304378477
 30
0.0
 40
2.615470053837953
  0
CIRCLE
  5
116
330
1F
100
AcDbEntity
  8
0
  6
Continuous
 62
     7
370
    25
100
AcDbCircle
 10
393.9280800446
 20
113.304378477
 30
0.0
 40
2.5
  0
CIRCLE
  5
117
330
1F
100
AcDbEntity
  8
0
  6
Continuous
 62
     7
370
    25
100
AcDbCircle
 10
393.9280800446
 20
113.304378477
 30
0.0
 40
15.73750000000001
  0
CIRCLE
  5
118
330
1F
100
AcDbEntity
  8
0
  6
Continuous
 62
     7
370
    25
100
AcDbCircle
 10
393.9280800446
 20
113.304378477
 30
0.0
 40
13.42500000000001
  0
CIRCLE
  5
119
330
1F
100
AcDbEntity
  8
0
  6
Continuous
 62
     7
370
    25
100
AcDbCircle
 10
393.9280800446
 20
113.304378477
 30
0.0
 40
2.0
  0
LINE
  5
11A
330
1F
100
AcDbEntity
  8
0
  6
CENTER
 62
     7
370
    18
100
AcDbLine
 10
393.9280800446
 20
113.304378477
 30
0.0
 11
393.9280800446
 21
132.8083791782
 31
0.0
  0
LINE
  5
11B
330
1F
100
AcDbEntity
  8
0
  6
CENTER
 62
     7
370
    18
100
AcDbLine
 10
393.9280800446
 20
113.304378477
 30
0.0
 11
413.4425800446
 21
113.304378477
 31
0.0
  0
LINE
  5
11C
330
1F
100
AcDbEntity
  8
0
  6
Continuous
 62
     7
370
    18
100
AcDbLine
 10
405.9280800446
 20
130.8083791782
 30
0.0
 11
393.9280800446
 21
130.8083791782
 31
0.0
  0
SOLID
  5
11D
330
1F
100
AcDbEntity
  8
0
  6
Continuous
 62
     7
370
    18
100
AcDbTrace
 10
393.9280800446
 20
130.8083791782
 30
0.0
 11
399.9280800446
 21
129.3083791782
 31
0.0
 12
399.9280800446
 22
132.3083791782
 32
0.0
 13
399.9280800446
 23
132.3083791782
 33
0.0
  0
LINE
  5
11E
330
1F
100
AcDbEntity
  8
0
  6
Continuous
 62
     7
370
    18
100
AcDbLine
 10
423.4425800446
 20
113.304378477
 30
0.0
 11
411.4425800446
 21
113.304378477
 31
0.0
  0
SOLID
  5
11F
330
1F
100
AcDbEntity
  8
0
  6
Continuous
 62
     7
370
    18
100
AcDbTrace
 10
411.4425800446
 20
113.304378477
 30
0.0
 11
417.4425800446
 21
111.804378477
 31
0.0
 12
417.4425800446
 22
114.804378477
 32
0.0
 13
417.4425800446
 23
114.804378477
 33
0.0
  0
MTEXT
  5
120
330
1F
100
AcDbEntity
  8
0
  6
Continuous
 62
     7
100
AcDbMText
 10
402.7783507213
 20
137.4575521106
 30
0.0
 40
3.5
 41
0.0
 71
     1
 72
     1
  1
A
  7
SLDTEXTSTYLE0
 73
     1
 44
1.0
  0
MTEXT
  5
121
330
1F
100
AcDbEntity
  8
0
  6
Continuous
 62
     7
100
AcDbMText
 10
420.2928507213
 20
111.0902038905
 30
0.0
 40
3.5
 41
0.0
 71
     1
 72
     1
  1
A
  7
SLDTEXTSTYLE0
 73
     1
 44
1.0
  0
LINE
  5
122
330
1F
100
AcDbEntity
  8
VERMASSUNG
  6
CENTERX2
370
    18
100
AcDbLine
 10
405.5962588673
 20
116.334378477
 30
0.0
 11
399.2498118632
 21
116.334378477
 31
0.0
  0
LINE
  5
123
330
1F
100
AcDbEntity
  8
VERMASSUNG
  6
CENTERX2
370
    18
100
AcDbLine
 10
406.5654966603
 20
115.410628477
 30
0.0
 11
399.7965469193
 21
115.410628477
 31
0.0
  0
LINE
  5
124
330
1F
100
AcDbEntity
  8
VERMASSUNG
  6
CENTERX2
370
    18
100
AcDbLine
 10
406.564851018
 20
111.198128477
 30
0.0
 11
399.7950056732
 21
111.198128477
 31
0.0
  0
LINE
  5
125
330
1F
100
AcDbEntity
  8
VERMASSUNG
  6
CENTERX2
370
    18
100
AcDbLine
 10
387.3223995264
 20
111.198128477
 30
0.0
 11
380.367680182
 21
111.198128477
 31
0.0
  0
LINE
  5
126
330
1F
100
AcDbEntity
  8
VERMASSUNG
  6
CENTERX2
370
    18
100
AcDbLine
 10
387.1378726345
 20
115.410628477
 30
0.0
 11
380.3680272897
 21
115.410628477
 31
0.0
  0
LINE
  5
127
330
1F
100
AcDbEntity
  8
VERMASSUNG
  6
CENTERX2
370
    18
100
AcDbLine
 10
387.8243777187
 20
116.334378477
 30
0.0
 11
381.4800596701
 21
116.334378477
 31
0.0
  0
ARC
  5
128
330
1F
100
AcDbEntity
  8
0
  6
Continuous
 62
     7
370
    25
100
AcDbCircle
 10
121.1991047645
 20
82.029378477
 30
0.0
 40
0.2000000000000028
100
AcDbArc
 50
180.0
 51
270.0
  0
LINE
  5
129
330
1F
100
AcDbEntity
  8
0
  6
Continuous
 62
     7
370
    25
100
AcDbLine
 10
134.233302569
 20
81.829378477
 30
0.0
 11
138.9991047645
 21
81.829378477
 31
0.0
  0
LINE
  5
12A
330
1F
100
AcDbEntity
  8
0
  6
Continuous
 62
     7
370
    25
100
AcDbLine
 10
121.1991047645
 20
81.829378477
 30
0.0
 11
127.5649069599
 21
81.829378477
 31
0.0
  0
LINE
  5
12B
330
1F
100
AcDbEntity
  8
0
  6
Continuous
 62
     7
370
    25
100
AcDbLine
 10
127.5649069599
 20
81.829378477
 30
0.0
 11
129.0241047645
 21
84.3567832128
 31
0.0
  0
LINE
  5
12C
330
1F
100
AcDbEntity
  8
0
  6
Continuous
 62
     7
370
    25
100
AcDbLine
 10
132.7741047645
 20
84.3567832128
 30
0.0
 11
134.233302569
 21
81.829378477
 31
0.0
  0
ARC
  5
12D
330
1F
100
AcDbEntity
  8
0
  6
Continuous
 62
     7
370
    25
100
AcDbCircle
 10
130.0241047645
 20
84.454378477
 30
0.0
 40
1.0
100
AcDbArc
 50
90.0
 51
180.0
  0
ARC
  5
12E
330
1F
100
AcDbEntity
  8
0
  6
Continuous
 62
     7
370
    25
100
AcDbCircle
 10
131.7741047645
 20
84.454378477
 30
0.0
 40
1.0
100
AcDbArc
 50
0.0
 51
90.0
  0
LINE
  5
12F
330
1F
100
AcDbEntity
  8
0
  6
Continuous
 62
     7
370
    25
100
AcDbLine
 10
130.0241047645
 20
85.454378477
 30
0.0
 11
131.7741047645
 21
85.454378477
 31
0.0
  0
ARC
  5
130
330
1F
100
AcDbEntity
  8
0
  6
Continuous
 62
     7
370
    25
100
AcDbCircle
 10
120.5701698899
 20
87.754378477
 30
0.0
 40
0.8000000000000038
100
AcDbArc
 50
57.576802718
 51
107.5
  0
ARC
  5
131
330
1F
100
AcDbEntity
  8
0
  6
Continuous
 62
     7
370
    25
100
AcDbCircle
 10
141.9991047645
 20
87.804378477
 30
0.0
 40
3.0
100
AcDbArc
 50
90.0
 51
180.0
  0
LINE
  5
132
330
1F
100
AcDbEntity
  8
0
  6
Continuous
 62
     7
370
    25
100
AcDbLine
 10
106.5126592964
 20
89.0318579563
 30
0.0
 11
119.8389227244
 21
88.3626404315
 31
0.0
  0
LINE
  5
133
330
1F
100
AcDbEntity
  8
0
  6
Continuous
 62
     7
370
    25
100
AcDbLine
 10
82.5491047645
 20
90.2352583494
 30
0.0
 11
90.603941628
 21
89.8307610185
 31
0.0
  0
LINE
  5
134
330
1F
100
AcDbEntity
  8
0
  6
Continuous
 62
     7
370
    25
100
AcDbLine
 10
119.8389227244
 20
88.3626404315
 30
0.0
 11
120.3296052503
 21
88.5173520376
 31
0.0
  0
LINE
  5
135
330
1F
100
AcDbEntity
  8
0
  6
Continuous
 62
     7
370
    25
100
AcDbLine
 10
207.0598097812
 20
90.804378477
 30
0.0
 11
219.844341288
 21
96.7659034245
 31
0.0
  0
LINE
  5
136
330
1F
100
AcDbEntity
  8
0
  6
Continuous
 62
     7
370
    25
100
AcDbLine
 10
141.9991047645
 20
90.804378477
 30
0.0
 11
207.0598097812
 21
90.804378477
 31
0.0
  0
LINE
  5
137
330
1F
100
AcDbEntity
  8
0
  6
Continuous
 62
     7
370
    25
100
AcDbLine
 10
81.0491047645
 20
91.1012837532
 30
0.0
 11
82.5491047645
 21
90.2352583494
 31
0.0
  0
ARC
  5
138
330
1F
100
AcDbEntity
  8
0
  6
Continuous
 62
     7
370
    25
100
AcDbCircle
 10
218.9991047645
 20
98.5785189986
 30
0.0
 40
2.000000000000001
100
AcDbArc
 50
295.0
 51
0.0
  0
LINE
  5
139
330
1F
100
AcDbEntity
  8
0
  6
Continuous
 62
     7
370
    25
100
AcDbLine
 10
194.9991047645
 20
119.304378477
 30
0.0
 11
192.9991047645
 21
121.304378477
 31
0.0
  0
LINE
  5
13A
330
1F
100
AcDbEntity
  8
0
  6
Continuous
 62
     7
370
    25
100
AcDbLine
 10
192.9991047645
 20
121.304378477
 30
0.0
 11
192.9991047645
 21
134.904378477
 31
0.0
  0
LINE
  5
13B
330
1F
100
AcDbEntity
  8
0
  6
Continuous
 62
     7
370
    25
100
AcDbLine
 10
192.9991047645
 20
134.904378477
 30
0.0
 11
193.8991047645
 21
135.804378477
 31
0.0
  0
LINE
  5
13C
330
1F
100
AcDbEntity
  8
0
  6
Continuous
 62
     7
370
    25
100
AcDbLine
 10
193.8991047645
 20
135.804378477
 30
0.0
 11
195.9991047645
 21
135.804378477
 31
0.0
  0
LINE
  5
13D
330
1F
100
AcDbEntity
  8
0
  6
Continuous
 62
     7
370
    25
100
AcDbLine
 10
195.9991047645
 20
127.804378477
 30
0.0
 11
195.9991047645
 21
135.804378477
 31
0.0
  0
LINE
  5
13E
330
1F
100
AcDbEntity
  8
0
  6
Continuous
 62
     7
370
    25
100
AcDbLine
 10
201.9991047645
 20
127.804378477
 30
0.0
 11
195.9991047645
 21
127.804378477
 31
0.0
  0
LINE
  5
13F
330
1F
100
AcDbEntity
  8
0
  6
Continuous
 62
     7
370
    25
100
AcDbLine
 10
201.9991047645
 20
127.804378477
 30
0.0
 11
201.9991047645
 21
135.804378477
 31
0.0
  0
LINE
  5
140
330
1F
100
AcDbEntity
  8
0
  6
Continuous
 62
     7
370
    25
100
AcDbLine
 10
201.9991047645
 20
135.804378477
 30
0.0
 11
204.0991047645
 21
135.804378477
 31
0.0
  0
LINE
  5
141
330
1F
100
AcDbEntity
  8
0
  6
Continuous
 62
     7
370
    25
100
AcDbLine
 10
204.0991047645
 20
135.804378477
 30
0.0
 11
204.9991047645
 21
134.904378477
 31
0.0
  0
LINE
  5
142
330
1F
100
AcDbEntity
  8
0
  6
Continuous
 62
     7
370
    25
100
AcDbLine
 10
204.9991047645
 20
134.904378477
 30
0.0
 11
204.9991047645
 21
121.304378477
 31
0.0
  0
LINE
  5
143
330
1F
100
AcDbEntity
  8
0
  6
Continuous
 62
     7
370
    25
100
AcDbLine
 10
204.9991047645
 20
121.304378477
 30
0.0
 11
202.9991047645
 21
119.304378477
 31
0.0
  0
LINE
  5
144
330
1F
100
AcDbEntity
  8
0
  6
Continuous
 62
     7
370
    25
100
AcDbLine
 10
202.9991047645
 20
119.304378477
 30
0.0
 11
201.7491047645
 21
119.304378477
 31
0.0
  0
LINE
  5
145
330
1F
100
AcDbEntity
  8
0
  6
Continuous
 62
     7
370
    25
100
AcDbLine
 10
198.9991047645
 20
120.8920917173
 30
0.0
 11
201.7491047645
 21
119.304378477
 31
0.0
  0
LINE
  5
146
330
1F
100
AcDbEntity
  8
0
  6
Continuous
 62
     7
370
    25
100
AcDbLine
 10
196.2491047645
 20
119.304378477
 30
0.0
 11
198.9991047645
 21
120.8920917173
 31
0.0
  0
LINE
  5
147
330
1F
100
AcDbEntity
  8
0
  6
Continuous
 62
     7
370
    25
100
AcDbLine
 10
196.2491047645
 20
119.304378477
 30
0.0
 11
194.9991047645
 21
119.304378477
 31
0.0
  0
LINE
  5
148
330
1F
100
AcDbEntity
  8
0
  6
Continuous
 62
     7
370
    25
100
AcDbLine
 10
201.7491047645
 20
119.304378477
 30
0.0
 11
196.2491047645
 21
119.304378477
 31
0.0
  0
LINE
  5
149
330
1F
100
AcDbEntity
  8
0
  6
Continuous
 62
     7
370
    25
100
AcDbLine
 10
198.9991047645
 20
127.804378477
 30
0.0
 11
198.9991047645
 21
135.804378477
 31
0.0
  0
LINE
  5
14A
330
1F
100
AcDbEntity
  8
0
  6
Continuous
 62
     7
370
    25
100
AcDbLine
 10
195.9991047645
 20
135.804378477
 30
0.0
 11
198.9991047645
 21
135.804378477
 31
0.0
  0
LINE
  5
14B
330
1F
100
AcDbEntity
  8
0
  6
Continuous
 62
     7
370
    25
100
AcDbLine
 10
201.9991047645
 20
135.804378477
 30
0.0
 11
198.9991047645
 21
135.804378477
 31
0.0
  0
LINE
  5
14C
330
1F
100
AcDbEntity
  8
0
  6
Continuous
 62
     7
370
    25
100
AcDbLine
 10
120.9991047645
 20
82.029378477
 30
0.0
 11
120.9991047645
 21
113.304378477
 31
0.0
  0
LINE
  5
14D
330
1F
100
AcDbEntity
  8
0
  6
Continuous
 62
     7
370
    25
100
AcDbLine
 10
120.9991047645
 20
113.304378477
 30
0.0
 11
121.1991047645
 21
113.304378477
 31
0.0
  0
ARC
  5
14E
330
1F
100
AcDbEntity
  8
0
  6
Continuous
 62
     7
370
    25
100
AcDbCircle
 10
121.1991047645
 20
144.579378477
 30
0.0
 40
0.2000000000000171
100
AcDbArc
 50
90.0
 51
179.9999999999
  0
LINE
  5
14F
330
1F
100
AcDbEntity
  8
0
  6
Continuous
 62
     7
370
    25
100
AcDbLine
 10
134.233302569
 20
81.829378477
 30
0.0
 11
134.233302569
 21
108.4146711973
 31
0.0
  0
SPLINE
  5
150
330
1F
100
AcDbEntity
  8
0
  6
Continuous
 62
     7
370
    25
100
AcDbSpline
210
0.0
220
0.0
230
1.0
 70
     8
 71
     3
 72
    20
 73
    16
 74
     0
 42
0.000000001
 43
0.00000001
 40
0.0
 40
0.0
 40
0.0
 40
0.0
 40
0.1249999999999996
 40
0.1249999999999996
 40
0.2499999999999992
 40
0.2499999999999992
 40
0.3749999999999989
 40
0.3749999999999989
 40
0.4999999999999987
 40
0.4999999999999987
 40
0.7499999999999994
 40
0.7499999999999994
 40
0.8749999999999997
 40
0.8749999999999997
 40
1.0
 40
1.0
 40
1.0
 40
1.0
 10
137.7866047644791
 20
113.3043784770055
 30
0.0
 10
137.7866047644791
 20
113.0377103895242
 30
0.0
 10
137.7645577354354
 20
112.7693982142502
 30
0.0
 10
137.6755516977306
 20
112.2365551790168
 30
0.0
 10
137.6096727295311
 20
111.9772649690309
 30
0.0
 10
137.4374978218239
 20
111.4721380030094
 30
0.0
 10
137.330791250917
 20
111.2255577870882
 30
0.0
 10
137.0781143480407
 20
110.7491411363484
 30
0.0
 10
136.934657083846
 20
110.5237210745836
 30
0.0
 10
136.4563348915655
 20
109.8831133929699
 30
0.0
 10
136.0683079085999
 20
109.5003476778668
 30
0.0
 10
135.4265032601546
 20
109.0244454296951
 30
0.0
 10
135.2016986325074
 20
108.8808497935434
 30
0.0
 10
134.7303895748852
 20
108.6235184081529
 30
0.0
 10
134.4846929749963
 20
108.510466029631
 30
0.0
 10
134.2333025690492
 20
108.4146711973203
 30
0.0
  0
LINE
  5
151
330
1F
100
AcDbEntity
  8
0
  6
Continuous
 62
     7
370
    25
100
AcDbLine
 10
138.9991047645
 20
81.829378477
 30
0.0
 11
138.9991047645
 21
113.304378477
 31
0.0
  0
LINE
  5
152
330
1F
100
AcDbEntity
  8
0
  6
Continuous
 62
     7
370
    25
100
AcDbLine
 10
138.9991047645
 20
144.779378477
 30
0.0
 11
134.233302569
 21
144.779378477
 31
0.0
  0
SPLINE
  5
153
330
1F
100
AcDbEntity
  8
0
  6
Continuous
 62
     7
370
    25
100
AcDbSpline
210
0.0
220
0.0
230
1.0
 70
     8
 71
     3
 72
    14
 73
    10
 74
     0
 42
0.000000001
 43
0.00000001
 40
0.0
 40
0.0
 40
0.0
 40
0.0
 40
0.25
 40
0.25
 40
0.5
 40
0.5
 40
0.75
 40
0.75
 40
1.0
 40
1.0
 40
1.0
 40
1.0
 10
127.564906959909
 20
110.0094803914886
 30
0.0
 10
127.368031074384
 20
110.2369769594178
 30
0.0
 10
127.1919227529945
 20
110.4785637344889
 30
0.0
 10
126.8821863592213
 20
110.990720968863
 30
0.0
 10
126.7476283577277
 20
111.2642537719712
 30
0.0
 10
126.5323862050186
 20
111.8243589065086
 30
0.0
 10
126.4507429674996
 20
112.1113314019186
 30
0.0
 10
126.3402199452296
 20
112.6993703869629
 30
0.0
 10
126.3116047644791
 20
113.0038138427336
 30
0.0
 10
126.3116047644791
 20
113.3043784770053
 30
0.0
  0
LINE
  5
154
330
1F
100
AcDbEntity
  8
0
  6
Continuous
 62
     7
370
    25
100
AcDbLine
 10
127.5649069599
 20
81.829378477
 30
0.0
 11
127.5649069599
 21
110.0094803915
 31
0.0
  0
LINE
  5
155
330
1F
100
AcDbEntity
  8
0
  6
Continuous
 62
     7
370
    25
100
AcDbLine
 10
127.5649069599
 20
144.779378477
 30
0.0
 11
121.1991047645
 21
144.779378477
 31
0.0
  0
ARC
  5
156
330
1F
100
AcDbEntity
  8
0
  6
Continuous
 62
     7
370
    25
100
AcDbCircle
 10
132.0491047645
 20
113.304378477
 30
0.0
 40
3.737500000000011
100
AcDbArc
 50
180.0
 51
206.113804444
  0
SPLINE
  5
157
330
1F
100
AcDbEntity
  8
0
  6
Continuous
 62
     7
370
    25
100
AcDbSpline
210
0.0
220
0.0
230
1.0
 70
     8
 71
     3
 72
    10
 73
     6
 74
     0
 42
0.000000001
 43
0.00000001
 40
0.0
 40
0.0
 40
0.0
 40
0.0
 40
0.5
 40
0.5
 40
1.0
 40
1.0
 40
1.0
 40
1.0
 10
128.6931229570258
 20
111.6592972151697
 30
0.0
 10
128.5162378106024
 20
111.3608468998132
 30
0.0
 10
128.330688435725
 20
111.0818541956858
 30
0.0
 10
127.9527394956774
 20
110.53653490156
 30
0.0
 10
127.7599529534982
 20
110.2711995157386
 30
0.0
 10
127.564906959909
 20
110.0094803914886
 30
0.0
  0
SPLINE
  5
158
330
1F
100
AcDbEntity
  8
0
  6
Continuous
 62
     7
370
    25
100
AcDbSpline
210
0.0
220
0.0
230
1.0
 70
     8
 71
     3
 72
     8
 73
     4
 74
     0
 42
0.000000001
 43
0.00000001
 40
0.0
 40
0.0
 40
0.0
 40
0.0
 40
1.0
 40
1.0
 40
1.0
 40
1.0
 10
134.2333025690487
 20
108.4146711973192
 30
0.0
 10
133.8849011643685
 20
108.8526465237331
 30
0.0
 10
133.5403327791356
 20
109.2957296623179
 30
0.0
 10
133.2019484798147
 20
109.7491207341665
 30
0.0
  0
ARC
  5
159
330
1F
100
AcDbEntity
  8
0
  6
Continuous
 62
     7
370
    25
100
AcDbCircle
 10
132.0491047645
 20
113.304378477
 30
0.0
 40
3.737500000000011
100
AcDbArc
 50
287.9660359156
 51
0.0
  0
SPLINE
  5
15A
330
1F
100
AcDbEntity
  8
0
  6
Continuous
 62
     7
370
    25
100
AcDbSpline
210
0.0
220
0.0
230
1.0
 70
     8
 71
     3
 72
     8
 73
     4
 74
     0
 42
0.000000001
 43
0.00000001
 40
0.0
 40
0.0
 40
0.0
 40
0.0
 40
1.0
 40
1.0
 40
1.0
 40
1.0
 10
129.0241047644791
 20
111.109320106483
 30
0.0
 10
128.9058080050492
 20
111.2723443349415
 30
0.0
 10
128.7943795228778
 20
111.4527328339639
 30
0.0
 10
128.6931229570258
 20
111.6592972151697
 30
0.0
  0
LINE
  5
15B
330
1F
100
AcDbEntity
  8
0
  6
Continuous
 62
     7
370
    25
100
AcDbLine
 10
129.0241047645
 20
84.3567832128
 30
0.0
 11
129.0241047645
 21
111.1093201065
 31
0.0
  0
SPLINE
  5
15C
330
1F
100
AcDbEntity
  8
0
  6
Continuous
 62
     7
370
    25
100
AcDbSpline
210
0.0
220
0.0
230
1.0
 70
     8
 71
     3
 72
     8
 73
     4
 74
     0
 42
0.000000001
 43
0.00000001
 40
0.0
 40
0.0
 40
0.0
 40
0.0
 40
1.0
 40
1.0
 40
1.0
 40
1.0
 10
133.201948479815
 20
109.7491207341673
 30
0.0
 10
133.0604103915332
 20
109.7032249630702
 30
0.0
 10
132.9177999227963
 20
109.6662841121329
 30
0.0
 10
132.7741047644793
 20
109.6378704311923
 30
0.0
  0
LINE
  5
15D
330
1F
100
AcDbEntity
  8
0
  6
Continuous
 62
     7
370
    25
100
AcDbLine
 10
132.7741047645
 20
84.3567832128
 30
0.0
 11
132.7741047645
 21
109.6378704312
 31
0.0
  0
SPLINE
  5
15E
330
1F
100
AcDbEntity
  8
0
  6
Continuous
 62
     7
370
    25
100
AcDbSpline
210
0.0
220
0.0
230
1.0
 70
     8
 71
     3
 72
    14
 73
    10
 74
     0
 42
0.000000001
 43
0.00000001
 40
0.0
 40
0.0
 40
0.0
 40
0.0
 40
0.25
 40
0.25
 40
0.5
 40
0.5
 40
0.75
 40
0.75
 40
1.0
 40
1.0
 40
1.0
 40
1.0
 10
130.0241047644791
 20
110.1629964165103
 30
0.0
 10
129.8897566781226
 20
110.2495999781379
 30
0.0
 10
129.7665800042666
 20
110.3410683754613
 30
0.0
 10
129.5378333993486
 20
110.5322597620922
 30
0.0
 10
129.4359114353814
 20
110.6291216142332
 30
0.0
 10
129.2564880329527
 20
110.8169962289685
 30
0.0
 10
129.1800467447699
 20
110.9072315803197
 30
0.0
 10
129.0627567719198
 20
111.0550379442971
 30
0.0
 10
129.0241047644791
 20
111.1093201064831
 30
0.0
 10
129.0241047644791
 20
111.1093201064831
 30
0.0
  0
SPLINE
  5
15F
330
1F
100
AcDbEntity
  8
0
  6
Continuous
 62
     7
370
    25
100
AcDbSpline
210
0.0
220
0.0
230
1.0
 70
     8
 71
     3
 72
    14
 73
    10
 74
     0
 42
0.000000001
 43
0.00000001
 40
0.0
 40
0.0
 40
0.0
 40
0.0
 40
0.25
 40
0.25
 40
0.5
 40
0.5
 40
0.75
 40
0.75
 40
1.0
 40
1.0
 40
1.0
 40
1.0
 10
132.7741047644792
 20
109.6378704311928
 30
0.0
 10
132.7741047644794
 20
109.6378704311929
 30
0.0
 10
132.7481882419082
 20
109.6324937002045
 30
0.0
 10
132.6487433953307
 20
109.614949112604
 30
0.0
 10
132.5764450029184
 20
109.6030997089577
 30
0.0
 10
132.3917411083945
 20
109.5814558909575
 30
0.0
 10
132.2821638465186
 20
109.5721666302731
 30
0.0
 10
132.0388336683005
 20
109.5649110939155
 30
0.0
 10
131.9072974093803
 20
109.5671825000748
 30
0.0
 10
131.7741047644791
 20
109.577009264008
 30
0.0
  0
SPLINE
  5
160
330
1F
100
AcDbEntity
  8
0
  6
Continuous
 62
     7
370
    25
100
AcDbSpline
210
0.0
220
0.0
230
1.0
 70
     8
 71
     3
 72
    10
 73
     6
 74
     0
 42
0.000000001
 43
0.00000001
 40
0.0
 40
0.0
 40
0.0
 40
0.0
 40
0.5
 40
0.5
 40
1.0
 40
1.0
 40
1.0
 40
1.0
 10
131.7741047644791
 20
109.5770092640081
 30
0.0
 10
131.461640862191
 20
109.6000624063771
 30
0.0
 10
131.1587518801932
 20
109.6612971087835
 30
0.0
 10
130.5714086953891
 20
109.8574690727074
 30
0.0
 10
130.2869410348172
 20
109.9935667078073
 30
0.0
 10
130.0241047644791
 20
110.1629964165103
 30
0.0
  0
LINE
  5
161
330
1F
100
AcDbEntity
  8
0
  6
Continuous
 62
     7
370
    25
100
AcDbLine
 10
120.9991047645
 20
140.154378477
 30
0.0
 11
121.3331434505
 21
139.0949431166
 31
0.0
  0
LINE
  5
162
330
1F
100
AcDbEntity
  8
0
  6
Continuous
 62
     7
370
    25
100
AcDbLine
 10
120.9991047645
 20
140.154378477
 30
0.0
 11
120.9991047645
 21
138.1790897437
 31
0.0
  0
ARC
  5
163
330
1F
100
AcDbEntity
  8
0
  6
Continuous
 62
     7
370
    25
100
AcDbCircle
 10
120.5701698899
 20
138.854378477
 30
0.0
 40
0.8000000000000181
100
AcDbArc
 50
252.5
 51
17.5
  0
ARC
  5
164
330
1F
100
AcDbEntity
  8
0
  6
Continuous
 62
     7
370
    25
100
AcDbCircle
 10
141.9991047645
 20
138.804378477
 30
0.0
 40
3.000000000000028
100
AcDbArc
 50
180.0
 51
270.0
  0
SPLINE
  5
165
330
1F
100
AcDbEntity
  8
0
  6
Continuous
 62
     7
370
    25
100
AcDbSpline
210
0.0
220
0.0
230
1.0
 70
     8
 71
     3
 72
    23
 73
    19
 74
     0
 42
0.000000001
 43
0.00000001
 40
0.0
 40
0.0
 40
0.0
 40
0.0
 40
0.0014752899205268
 40
0.0696288509416027
 40
0.1372792101573357
 40
0.2039819135400777
 40
0.2703117571759911
 40
0.3365672618513764
 40
0.4028772365390575
 40
0.4678771374618318
 40
0.5326481398333833
 40
0.5993656092925662
 40
0.6655280750059935
 40
0.7321209147635983
 40
0.7988898269457707
 40
0.8663386592223817
 40
0.9345238227745253
 40
1.0
 40
1.0
 40
1.0
 40
1.0
 10
90.75885924063954
 20
136.7286581116851
 30
0.0
 10
90.76002588490513
 20
136.7282981834659
 30
0.0
 10
90.81508767211119
 20
136.7113107507072
 30
0.0
 10
91.21151868402168
 20
136.5940412359477
 30
0.0
 10
91.92758007985867
 20
136.393430190522
 30
0.0
 10
92.93725882092698
 20
136.1528154254822
 30
0.0
 10
94.15323724096261
 20
135.9255430919192
 30
0.0
 10
95.55743712687892
 20
135.7531536029998
 30
0.0
 10
97.07450126268984
 20
135.6650852896208
 30
0.0
 10
98.64879909733456
 20
135.6961329529038
 30
0.0
 10
100.2146193273966
 20
135.8471561914415
 30
0.0
 10
101.7044763958044
 20
136.1014929903359
 30
0.0
 10
103.0761565884438
 20
136.4192297689056
 30
0.0
 10
104.2620796820822
 20
136.7631461890633
 30
0.0
 10
105.239679026112
 20
137.0909887893656
 30
0.0
 10
105.9591901776966
 20
137.359913218851
 30
0.0
 10
106.4318251794005
 20
137.5425025544723
 30
0.0
 10
106.4892962937535
 20
137.5657509470572
 30
0.0
 10
106.517449451928
 20
137.5771395495075
 30
0.0
  0
LINE
  5
166
330
1F
100
AcDbEntity
  8
0
  6
Continuous
 62
     7
370
    25
100
AcDbLine
 10
90.5995388792
 20
136.7777748386
 30
0.0
 11
82.5491047645
 21
136.3734986046
 31
0.0
  0
LINE
  5
167
330
1F
100
AcDbEntity
  8
0
  6
Continuous
 62
     7
370
    25
100
AcDbLine
 10
82.5491047645
 20
90.2352583494
 30
0.0
 11
82.5491047645
 21
104.1822554424
 31
0.0
  0
SPLINE
  5
168
330
1F
100
AcDbEntity
  8
0
  6
Continuous
 62
     7
370
    25
100
AcDbSpline
210
0.0
220
0.0
230
1.0
 70
     8
 71
     3
 72
     8
 73
     4
 74
     0
 42
0.000000001
 43
0.00000001
 40
0.0
 40
0.0
 40
0.0
 40
0.0
 40
1.0
 40
1.0
 40
1.0
 40
1.0
 10
88.36727921742605
 20
104.186841500702
 30
0.0
 10
86.42788773311463
 20
104.1846954048524
 30
0.0
 10
84.48849624880323
 20
104.1830992183277
 30
0.0
 10
82.54910476449182
 20
104.182051765852
 30
0.0
  0
SPLINE
  5
169
330
1F
100
AcDbEntity
  8
0
  6
Continuous
 62
     7
370
    25
100
AcDbSpline
210
0.0
220
0.0
230
1.0
 70
     8
 71
     3
 72
    13
 73
     9
 74
     0
 42
0.000000001
 43
0.00000001
 40
0.0
 40
0.0
 40
0.0
 40
0.0
 40
0.1686319999748089
 40
0.3360343310905561
 40
0.5025367825908729
 40
0.6684737453788404
 40
0.8341822636915154
 40
1.0
 40
1.0
 40
1.0
 40
1.0
 10
89.45077426689303
 20
104.3242979465197
 30
0.0
 10
89.39128437083329
 20
104.3097836264808
 30
0.0
 10
89.27273838055821
 20
104.2808608251963
 30
0.0
 10
89.09286168497235
 20
104.246899431788
 30
0.0
 10
88.91247139734432
 20
104.220033869429
 30
0.0
 10
88.73135922531051
 20
104.2010749323211
 30
0.0
 10
88.54959838814305
 20
104.1891444809254
 30
0.0
 10
88.4280656202484
 20
104.1876093293566
 30
0.0
 10
88.36727921742605
 20
104.186841500702
 30
0.0
  0
SPLINE
  5
16A
330
1F
100
AcDbEntity
  8
0
  6
Continuous
 62
     7
370
    25
100
AcDbSpline
210
0.0
220
0.0
230
1.0
 70
     8
 71
     3
 72
     8
 73
     4
 74
     0
 42
0.000000001
 43
0.00000001
 40
0.0
 40
0.0
 40
0.0
 40
0.0
 40
1.0
 40
1.0
 40
1.0
 40
1.0
 10
94.84296768338925
 20
104.3285359884051
 30
0.0
 10
93.04557301195031
 20
104.3266649278811
 30
0.0
 10
91.24817834051137
 20
104.325242746857
 30
0.0
 10
89.45078366907242
 20
104.324268623861
 30
0.0
  0
SPLINE
  5
16B
330
1F
100
AcDbEntity
  8
0
  6
Continuous
 62
     7
370
    25
100
AcDbSpline
210
0.0
220
0.0
230
1.0
 70
     8
 71
     3
 72
    18
 73
    14
 74
     0
 42
0.000000001
 43
0.00000001
 40
0.0
 40
0.0
 40
0.0
 40
0.0
 40
0.0923325137124559
 40
0.1843692047086504
 40
0.2763458873841173
 40
0.3684982175689556
 40
0.4610598988338003
 40
0.5542609546564705
 40
0.6483261285468145
 40
0.7434734636522684
 40
0.839913099312583
 40
0.920166071830381
 40
1.0
 40
1.0
 40
1.0
 40
1.0
 10
97.03928933198819
 20
103.7943437525615
 30
0.0
 10
96.96895902847415
 20
103.7947603769931
 30
0.0
 10
96.82852375162051
 20
103.7955922910398
 30
0.0
 10
96.61816122511564
 20
103.8092011379543
 30
0.0
 10
96.40871756219782
 20
103.8318678953259
 30
0.0
 10
96.20016789182459
 20
103.8644686851266
 30
0.0
 10
95.9925242745493
 20
103.9067711637469
 30
0.0
 10
95.78578608701044
 20
103.958842562402
 30
0.0
 10
95.57996399504707
 20
104.0206913352474
 30
0.0
 10
95.37503231625713
 20
104.0922893467036
 30
0.0
 10
95.1835515708635
 20
104.1688678369314
 30
0.0
 10
95.00582841881068
 20
104.2474790857648
 30
0.0
 10
94.89749442424726
 20
104.3013932415522
 30
0.0
 10
94.84346921479435
 20
104.3282797564512
 30
0.0
  0
LINE
  5
16C
330
1F
100
AcDbEntity
  8
0
  6
Continuous
 62
     7
370
    25
100
AcDbLine
 10
98.9541626113
 20
103.7958391874
 30
0.0
 11
97.039289332
 21
103.7943437526
 31
0.0
  0
SPLINE
  5
16D
330
1F
100
AcDbEntity
  8
0
  6
Continuous
 62
     7
370
    25
100
AcDbSpline
210
0.0
220
0.0
230
1.0
 70
     8
 71
     3
 72
    25
 73
    21
 74
     0
 42
0.000000001
 43
0.00000001
 40
0.0
 40
0.0
 40
0.0
 40
0.0
 40
0.0280105225422327
 40
0.0559601148853515
 40
0.0839014045033802
 40
0.1118870776776037
 40
0.1399695827578598
 40
0.168200840173054
 40
0.1966319670416873
 40
0.2253130233137065
 40
0.2542927850735304
 40
0.3799486436555246
 40
0.5057850221666196
 40
0.6313085886311499
 40
0.7532068238012074
 40
0.8039473267951883
 40
0.8535894438548528
 40
0.9025339722388155
 40
0.9511970353787135
 40
1.0
 40
1.0
 40
1.0
 40
1.0
 10
103.8940469176805
 20
108.9297029919368
 30
0.0
 10
103.8940841394143
 20
108.8550829649244
 30
0.0
 10
103.8941585019149
 20
108.7060052289391
 30
0.0
 10
103.8817424512684
 20
108.4833871379752
 30
0.0
 10
103.8601378909146
 20
108.2620627199479
 30
0.0
 10
103.8284524212545
 20
108.0420944540601
 30
0.0
 10
103.7869262829346
 20
107.8235041668311
 30
0.0
 10
103.7354955272047
 20
107.606322228426
 30
0.0
 10
103.6741816524935
 20
107.3905808085396
 30
0.0
 10
103.602971316994
 20
107.1762909170871
 30
0.0
 10
103.4321347097941
 20
106.7279411440682
 30
0.0
 10
103.0944024763568
 20
106.0746103159966
 30
0.0
 10
102.4828478121635
 20
105.3027171053595
 30
0.0
 10
101.7466129770119
 20
104.6585574799694
 30
0.0
 10
101.0601269053645
 20
104.266916311909
 30
0.0
 10
100.5114227592131
 20
104.0482214109377
 30
0.0
 10
100.1293865807096
 20
103.9323653621071
 30
0.0
 10
99.74222048200512
 20
103.8514574565772
 30
0.0
 10
99.34999381321701
 20
103.8022290257794
 30
0.0
 10
99.08623254510023
 20
103.7979711707641
 30
0.0
 10
98.95416261127765
 20
103.7958391874213
 30
0.0
  0
LINE
  5
16E
330
1F
100
AcDbEntity
  8
0
  6
Continuous
 62
     7
370
    25
100
AcDbLine
 10
103.8940469177
 20
113.304378477
 30
0.0
 11
103.8940469177
 21
108.9297029919
 31
0.0
  0
LINE
  5
16F
330
1F
100
AcDbEntity
  8
0
  6
Continuous
 62
     7
370
    25
100
AcDbLine
 10
119.8389227244
 20
88.3626404315
 30
0.0
 11
119.8389227244
 21
113.304378477
 31
0.0
  0
LINE
  5
170
330
1F
100
AcDbEntity
  8
0
  6
Continuous
 62
     7
370
    25
100
AcDbLine
 10
119.8389227244
 20
138.2461165225
 30
0.0
 11
106.5174494519
 21
137.5771395495
 31
0.0
  0
SPLINE
  5
171
330
1F
100
AcDbEntity
  8
0
  6
Continuous
 62
     7
370
    25
100
AcDbSpline
210
0.0
220
0.0
230
1.0
 70
     8
 71
     3
 72
    20
 73
    16
 74
     0
 42
0.000000001
 43
0.00000001
 40
0.0
 40
0.0
 40
0.0
 40
0.0
 40
0.0829621378684854
 40
0.1658495135106166
 40
0.2487180070857359
 40
0.3299477216398527
 40
0.4108693994445738
 40
0.4941953814850567
 40
0.5768901676626231
 40
0.6601065810557782
 40
0.7435845489350861
 40
0.8279858465401895
 40
0.9132590745392891
 40
0.9972257035811813
 40
1.0
 40
1.0
 40
1.0
 40
1.0
 10
92.91152085920604
 20
90.44111810949853
 30
0.0
 10
93.29726669527734
 20
90.51803653610268
 30
0.0
 10
94.06841074839454
 20
90.67180407344027
 30
0.0
 10
95.47615889956435
 20
90.8477192948258
 30
0.0
 10
96.98401026743898
 20
90.94171558215483
 30
0.0
 10
98.55649924245682
 20
90.91787120028825
 30
0.0
 10
100.1237962736689
 20
90.77396615538764
 30
0.0
 10
101.6195723004504
 20
90.52490855258863
 30
0.0
 10
102.9998261761231
 20
90.21022786004998
 30
0.0
 10
104.1974203591787
 20
89.86596650806945
 30
0.0
 10
105.1842823890009
 20
89.53691928224971
 30
0.0
 10
105.931520635199
 20
89.25845837404195
 30
0.0
 10
106.3787220645645
 20
89.08660257901036
 30
0.0
 10
106.5654766767145
 20
89.0127519074118
 30
0.0
 10
106.5143784628163
 20
89.032903198485
 30
0.0
 10
106.5127441524712
 20
89.03354771149154
 30
0.0
  0
SPLINE
  5
172
330
1F
100
AcDbEntity
  8
0
  6
Continuous
 62
     7
370
    25
100
AcDbSpline
210
0.0
220
0.0
230
1.0
 70
     8
 71
     3
 72
    11
 73
     7
 74
     0
 42
0.000000001
 43
0.00000001
 40
0.0
 40
0.0
 40
0.0
 40
0.0
 40
0.2435512231731354
 40
0.4981153923403513
 40
0.750909788171944
 40
1.0
 40
1.0
 40
1.0
 40
1.0
 10
90.60402674146246
 20
89.83245590011542
 30
0.0
 10
90.62997766298776
 20
89.84069143665357
 30
0.0
 10
90.68305295979286
 20
89.85753490580306
 30
0.0
 10
91.16074794345533
 20
89.99843634794057
 30
0.0
 10
91.87208739172209
 20
90.20372689838877
 30
0.0
 10
92.56675203889678
 20
90.36237801658599
 30
0.0
 10
92.91152085920604
 20
90.44111810949853
 30
0.0
  0
LINE
  5
173
330
1F
100
AcDbEntity
  8
0
  6
Continuous
 62
     7
370
    25
100
AcDbLine
 10
120.3296052503
 20
138.0914049164
 30
0.0
 11
119.8389227244
 21
138.2461165225
 31
0.0
  0
LINE
  5
174
330
1F
100
AcDbEntity
  8
0
  6
Continuous
 62
     7
370
    25
100
AcDbLine
 10
103.8940469177
 20
108.9297029919
 30
0.0
 11
102.9991047645
 21
109.091878477
 31
0.0
  0
LINE
  5
175
330
1F
100
AcDbEntity
  8
0
  6
Continuous
 62
     7
370
    25
100
AcDbLine
 10
102.9991047645
 20
109.091878477
 30
0.0
 11
102.9991047645
 21
113.304378477
 31
0.0
  0
SPLINE
  5
176
330
1F
100
AcDbEntity
  8
0
  6
Continuous
 62
     7
370
    25
100
AcDbSpline
210
0.0
220
0.0
230
1.0
 70
     8
 71
     3
 72
    25
 73
    21
 74
     0
 42
0.000000001
 43
0.00000001
 40
0.0
 40
0.0
 40
0.0
 40
0.0
 40
0.0288821753108476
 40
0.0583636594010358
 40
0.088464720431129
 40
0.1192044006622933
 40
0.1506005800091479
 40
0.1826700399674522
 40
0.2154285269578988
 40
0.2488908143379949
 40
0.3610594471186867
 40
0.4984670131067664
 40
0.582269390500644
 40
0.666112764278217
 40
0.7499972937224437
 40
0.8007709755032449
 40
0.8511237700807972
 40
0.9010896024506762
 40
0.9507031914109091
 40
0.9999999999999999
 40
0.9999999999999999
 40
0.9999999999999999
 40
0.9999999999999999
 10
98.99910476447909
 20
105.0918784770054
 30
0.0
 10
99.06190521771606
 20
105.0927349609572
 30
0.0
 10
99.18880924151293
 20
105.0944657010107
 30
0.0
 10
99.38016364922365
 20
105.1086155664139
 30
0.0
 10
99.57406846190005
 20
105.1317526487346
 30
0.0
 10
99.76996918262782
 20
105.1651638009593
 30
0.0
 10
99.96730685063281
 20
105.2090376229916
 30
0.0
 10
100.1654601924203
 20
105.263832893961
 30
0.0
 10
100.3637759364322
 20
105.3299018553254
 30
0.0
 10
100.7150969239321
 20
105.4678831875771
 30
0.0
 10
101.2402086942566
 20
105.7479351264178
 30
0.0
 10
101.7772005227432
 20
106.186525728825
 30
0.0
 10
102.1892602527857
 20
106.6603858503764
 30
0.0
 10
102.4761788408382
 20
107.0920695981962
 30
0.0
 10
102.6746055280454
 20
107.4951928399563
 30
0.0
 10
102.8066914020937
 20
107.8529290007353
 30
0.0
 10
102.8923252818915
 20
108.1556814030177
 30
0.0
 10
102.9534074932445
 20
108.4641697132634
 30
0.0
 10
102.99190843661
 20
108.7764814234198
 30
0.0
 10
102.9967111157035
 20
108.9869708373212
 30
0.0
 10
102.9991047644791
 20
109.0918784770054
 30
0.0
  0
LINE
  5
177
330
1F
100
AcDbEntity
  8
0
  6
Continuous
 62
     7
370
    25
100
AcDbLine
 10
207.0598097812
 20
90.804378477
 30
0.0
 11
207.0598097812
 21
113.304378477
 31
0.0
  0
LINE
  5
178
330
1F
100
AcDbEntity
  8
0
  6
Continuous
 62
     7
370
    25
100
AcDbLine
 10
219.844341288
 20
129.8428535295
 30
0.0
 11
207.0598097812
 21
135.804378477
 31
0.0
  0
SPLINE
  5
179
330
1F
100
AcDbEntity
  8
0
  6
Continuous
 62
     7
370
    25
100
AcDbSpline
210
0.0
220
0.0
230
1.0
 70
     8
 71
     3
 72
    10
 73
     6
 74
     0
 42
0.000000001
 43
0.00000001
 40
0.0
 40
0.0
 40
0.0
 40
0.0
 40
0.4248340515979699
 40
0.8551669106801516
 40
1.0
 40
1.0
 40
1.0
 40
1.0
 10
193.0909874736975
 20
135.8043784770053
 30
0.0
 10
193.1157441467334
 20
135.797784107374
 30
0.0
 10
193.1655779289341
 20
135.7845100143858
 30
0.0
 10
193.4154303453162
 20
135.7161082642061
 30
0.0
 10
193.6689587302324
 20
135.6537709000863
 30
0.0
 10
193.7327999560903
 20
135.6380736686166
 30
0.0
  0
SPLINE
  5
17A
330
1F
100
AcDbEntity
  8
0
  6
Continuous
 62
     7
370
    25
100
AcDbSpline
210
0.0
220
0.0
230
1.0
 70
     8
 71
     3
 72
    10
 73
     6
 74
     0
 42
0.000000001
 43
0.00000001
 40
0.0
 40
0.0
 40
0.0
 40
0.0
 40
0.1454509522992607
 40
0.5751397940319908
 40
1.0
 40
1.0
 40
1.0
 40
1.0
 10
204.2654451566212
 20
135.6380380848633
 30
0.0
 10
204.3295494713635
 20
135.6537983580666
 30
0.0
 10
204.5830297119164
 20
135.7161173744825
 30
0.0
 10
204.8326546975105
 20
135.7845218806104
 30
0.0
 10
204.8824596415046
 20
135.79778459189
 30
0.0
 10
204.9072214018979
 20
135.8043784770053
 30
0.0
  0
LINE
  5
17B
330
1F
100
AcDbEntity
  8
0
  6
Continuous
 62
     7
370
    25
100
AcDbLine
 10
193.0909874737
 20
135.804378477
 30
0.0
 11
141.9991047645
 21
135.804378477
 31
0.0
  0
LINE
  5
17C
330
1F
100
AcDbEntity
  8
0
  6
Continuous
 62
     7
370
    25
100
AcDbLine
 10
207.0598097812
 20
135.804378477
 30
0.0
 11
204.9072214019
 21
135.804378477
 31
0.0
  0
SPLINE
  5
17D
330
1F
100
AcDbEntity
  8
0
  6
Continuous
 62
     7
370
    25
100
AcDbSpline
210
0.0
220
0.0
230
1.0
 70
     8
 71
     3
 72
    13
 73
     9
 74
     0
 42
0.000000001
 43
0.00000001
 40
0.0
 40
0.0
 40
0.0
 40
0.0
 40
0.172258782357889
 40
0.342139827126599
 40
0.509745625793203
 40
0.6751828993293467
 40
0.8385626190148152
 40
1.0
 40
1.0
 40
1.0
 40
1.0
 10
95.99912313338932
 20
105.2418732997552
 30
0.0
 10
96.0599865230583
 20
105.2256095720566
 30
0.0
 10
96.180873187498
 20
105.1933066095773
 30
0.0
 10
96.36393434546383
 20
105.1559189548843
 30
0.0
 10
96.54603702840218
 20
105.1267860199737
 30
0.0
 10
96.72697847672093
 20
105.1065993043672
 30
0.0
 10
96.90631748042378
 20
105.0941525000654
 30
0.0
 10
97.02516370884301
 20
105.0926334568379
 30
0.0
 10
97.08423148518962
 20
105.0918784770054
 30
0.0
  0
LINE
  5
17E
330
1F
100
AcDbEntity
  8
0
  6
Continuous
 62
     7
370
    25
100
AcDbLine
 10
97.039289332
 20
103.7943437526
 30
0.0
 11
97.0842314852
 21
105.091878477
 31
0.0
  0
SPLINE
  5
17F
330
1F
100
AcDbEntity
  8
0
  6
Continuous
 62
     7
370
    25
100
AcDbSpline
210
0.0
220
0.0
230
1.0
 70
     8
 71
     3
 72
    11
 73
     7
 74
     0
 42
0.000000001
 43
0.00000001
 40
0.0
 40
0.0
 40
0.0
 40
0.0
 40
0.2392913842439378
 40
0.5001130134995628
 40
0.7515028526562008
 40
1.0
 40
1.0
 40
1.0
 40
1.0
 10
95.67163227233321
 20
105.2424520820285
 30
0.0
 10
95.6028073364459
 20
105.1708986449255
 30
0.0
 10
95.45896494028412
 20
105.0213537494047
 30
0.0
 10
95.25121614190182
 20
104.7924363227681
 30
0.0
 10
95.04322993718561
 20
104.5601179505076
 30
0.0
 10
94.91022901344101
 20
104.4053420678945
 30
0.0
 10
94.84411336923111
 20
104.3284019467359
 30
0.0
  0
SPLINE
  5
180
330
1F
100
AcDbEntity
  8
0
  6
Continuous
 62
     7
370
    25
100
AcDbSpline
210
0.0
220
0.0
230
1.0
 70
    24
 71
     3
 72
     9
 73
     5
 74
     0
 42
0.000000001
 43
0.00000001
 40
0.0
 40
0.0
 40
0.0
 40
0.0
 40
0.5090839669866035
 40
1.0
 40
1.0
 40
1.0
 40
1.0
 10
95.67386254065259
 20
105.2418784770054
 30
0.0
 10
95.72859594076493
 20
105.2418784770054
 30
0.0
 10
95.83610944278377
 20
105.2418784770054
 30
0.0
 10
95.94550200315471
 20
105.2418784770054
 30
0.0
 10
95.9992045649332
 20
105.2418784770054
 30
0.0
  0
LINE
  5
181
330
1F
100
AcDbEntity
  8
0
  6
Continuous
 62
     7
370
    25
100
AcDbLine
 10
89.4252546761
 20
105.2218267032
 30
0.0
 11
89.4506691677
 21
104.3242685326
 31
0.0
  0
SPLINE
  5
182
330
1F
100
AcDbEntity
  8
0
  6
Continuous
 62
     7
370
    25
100
AcDbSpline
210
0.0
220
0.0
230
1.0
 70
     8
 71
     3
 72
     8
 73
     4
 74
     0
 42
0.000000001
 43
0.00000001
 40
0.0
 40
0.0
 40
0.0
 40
0.0
 40
1.0
 40
1.0
 40
1.0
 40
1.0
 10
89.42526586720732
 20
105.2218271933446
 30
0.0
 10
89.44706872368936
 20
105.2275245243773
 30
0.0
 10
89.46882343308685
 20
105.2334061071723
 30
0.0
 10
89.49052688840491
 20
105.2394711017253
 30
0.0
  0
LINE
  5
183
330
1F
100
AcDbEntity
  8
0
  6
Continuous
 62
     7
370
    25
100
AcDbLine
 10
89.4991047645
 20
105.241878477
 30
0.0
 11
95.6727777368
 21
105.241878477
 31
0.0
  0
LINE
  5
184
330
1F
100
AcDbEntity
  8
0
  6
Continuous
 62
     7
370
    25
100
AcDbLine
 10
97.0842314852
 20
105.091878477
 30
0.0
 11
98.9991047645
 21
105.091878477
 31
0.0
  0
SPLINE
  5
185
330
1F
100
AcDbEntity
  8
0
  6
Continuous
 62
     7
370
    25
100
AcDbSpline
210
0.0
220
0.0
230
1.0
 70
     8
 71
     3
 72
    13
 73
     9
 74
     0
 42
0.000000001
 43
0.00000001
 40
0.0
 40
0.0
 40
0.0
 40
0.0
 40
0.1621004456454283
 40
0.3259434551388595
 40
0.4915935308049779
 40
0.6591130873777451
 40
0.8285624735926473
 40
1.0
 40
1.0
 40
1.0
 40
1.0
 10
88.41397804376854
 20
105.0918784770054
 30
0.0
 10
88.46953300183006
 20
105.0925474432065
 30
0.0
 10
88.58124012828839
 20
105.0938925669297
 30
0.0
 10
88.74908781767493
 20
105.1048391357199
 30
0.0
 10
88.91787423654101
 20
105.1224780650395
 30
0.0
 10
89.08719859307534
 20
105.1477835790268
 30
0.0
 10
89.25694524125996
 20
105.1800875818205
 30
0.0
 10
89.36893813992393
 20
105.207859181708
 30
0.0
 10
89.4252611749576
 20
105.2218259672101
 30
0.0
  0
LINE
  5
186
330
1F
100
AcDbEntity
  8
0
  6
Continuous
 62
     7
370
    25
100
AcDbLine
 10
81.6354449429
 20
104.5643767331
 30
0.0
 11
82.5491047645
 21
105.091878477
 31
0.0
  0
LINE
  5
187
330
1F
100
AcDbEntity
  8
0
  6
Continuous
 62
     7
370
    25
100
AcDbLine
 10
82.5491047645
 20
105.091878477
 30
0.0
 11
88.4139780438
 21
105.091878477
 31
0.0
  0
SPLINE
  5
188
330
1F
100
AcDbEntity
  8
0
  6
Continuous
 62
     7
370
    25
100
AcDbSpline
210
0.0
220
0.0
230
1.0
 70
     8
 71
     3
 72
     8
 73
     4
 74
     0
 42
0.000000001
 43
0.00000001
 40
0.0
 40
0.0
 40
0.0
 40
0.0
 40
1.0
 40
1.0
 40
1.0
 40
1.0
 10
82.54910476402813
 20
104.1820517656294
 30
0.0
 10
82.24455149032259
 20
104.3107426301762
 30
0.0
 10
81.93999821661707
 20
104.4381873864379
 30
0.0
 10
81.63544494291153
 20
104.5643767330756
 30
0.0
  0
LINE
  5
189
330
1F
100
AcDbEntity
  8
0
  6
Continuous
 62
     7
370
    25
100
AcDbLine
 10
81.0491047645
 20
91.1012837532
 30
0.0
 11
81.0491047645
 21
104.2258530732
 31
0.0
  0
SPLINE
  5
18A
330
1F
100
AcDbEntity
  8
0
  6
Continuous
 62
     7
370
    25
100
AcDbSpline
210
0.0
220
0.0
230
1.0
 70
    24
 71
     3
 72
     8
 73
     4
 74
     0
 42
0.000000001
 43
0.00000001
 40
0.0
 40
0.0
 40
0.0
 40
0.0
 40
1.0
 40
1.0
 40
1.0
 40
1.0
 10
81.63544494291153
 20
104.5643767330756
 30
0.0
 10
81.43911291725318
 20
104.4510243852112
 30
0.0
 10
81.24365189701297
 20
104.3381749125595
 30
0.0
 10
81.04910476447907
 20
104.2258530732209
 30
0.0
  0
ARC
  5
18B
330
1F
100
AcDbEntity
  8
0
  6
Continuous
 62
     7
370
    25
100
AcDbCircle
 10
114.1991047645
 20
130.754378477
 30
0.0
 40
0.8000000000000114
100
AcDbArc
 50
0.0
 51
90.0
  0
ARC
  5
18C
330
1F
100
AcDbEntity
  8
0
  6
Continuous
 62
     7
370
    25
100
AcDbCircle
 10
112.7743452381
 20
130.754378477
 30
0.0
 40
0.7999999999999996
100
AcDbArc
 50
90.0
 51
120.0
  0
LINE
  5
18D
330
1F
100
AcDbEntity
  8
0
  6
Continuous
 62
     7
370
    25
100
AcDbLine
 10
112.7743452381
 20
131.554378477
 30
0.0
 11
114.1991047645
 21
131.554378477
 31
0.0
  0
LINE
  5
18E
330
1F
100
AcDbEntity
  8
0
  6
Continuous
 62
     7
370
    25
100
AcDbLine
 10
111.4991047645
 20
130.941878477
 30
0.0
 11
111.4991047645
 21
113.304378477
 31
0.0
  0
LINE
  5
18F
330
1F
100
AcDbEntity
  8
0
  6
Continuous
 62
     7
370
    25
100
AcDbLine
 10
111.4991047645
 20
130.941878477
 30
0.0
 11
112.3743452381
 21
131.4471988
 31
0.0
  0
LINE
  5
190
330
1F
100
AcDbEntity
  8
0
  6
Continuous
 62
     7
370
    25
100
AcDbLine
 10
81.8007708143
 20
104.6598276694
 30
0.0
 11
81.6643020419
 21
104.581037387
 31
0.0
  0
SPLINE
  5
191
330
1F
100
AcDbEntity
  8
0
  6
Continuous
 62
     7
370
    25
100
AcDbSpline
210
0.0
220
0.0
230
1.0
 70
     8
 71
     3
 72
    32
 73
    28
 74
     0
 42
0.000000001
 43
0.00000001
 40
0.0
 40
0.0
 40
0.0
 40
0.0
 40
0.1249999999999996
 40
0.1249999999999996
 40
0.1874999999999994
 40
0.1874999999999994
 40
0.2499999999999992
 40
0.2499999999999992
 40
0.312499999999999
 40
0.312499999999999
 40
0.3749999999999988
 40
0.3749999999999988
 40
0.4999999999999989
 40
0.4999999999999989
 40
0.5624999999999986
 40
0.5624999999999986
 40
0.6249999999999988
 40
0.6249999999999988
 40
0.7499999999999992
 40
0.7499999999999992
 40
0.8124999999999993
 40
0.8124999999999993
 40
0.8749999999999994
 40
0.8749999999999994
 40
0.9374999999999998
 40
0.9374999999999998
 40
1.0
 40
1.0
 40
1.0
 40
1.0
 10
95.4667350958196
 20
129.4770472312149
 30
0.0
 10
94.98266085186559
 20
129.4774066238346
 30
0.0
 10
94.49926328129872
 20
129.4923658300159
 30
0.0
 10
93.77535793156272
 20
129.5393498765245
 30
0.0
 10
93.53469549802587
 20
129.5591264316491
 30
0.0
 10
93.06334938895026
 20
129.6060905151481
 30
0.0
 10
92.83151357266
 20
129.6333443643327
 30
0.0
 10
92.37581048610372
 20
129.6949722929452
 30
0.0
 10
92.15194216316239
 20
129.7293473937407
 30
0.0
 10
91.71261457115459
 20
129.8046668373937
 30
0.0
 10
91.49589717848819
 20
129.845884788142
 30
0.0
 10
90.86955519981538
 20
129.9761216073228
 30
0.0
 10
90.48516256546199
 20
130.071161519222
 30
0.0
 10
89.95762081984218
 20
130.2174284811744
 30
0.0
 10
89.78998666831107
 20
130.266797116365
 30
0.0
 10
89.47158192107051
 20
130.3652008238653
 30
0.0
 10
89.32200104653137
 20
130.4138840884978
 30
0.0
 10
88.90898097698293
 20
130.5535068916662
 30
0.0
 10
88.6774292058238
 20
130.6390935702468
 30
0.0
 10
88.39411969073413
 20
130.7480566181628
 30
0.0
 10
88.31055200896232
 20
130.7811052707373
 30
0.0
 10
88.16862717663813
 20
130.8381086669776
 30
0.0
 10
88.1096390651956
 20
130.862305372588
 30
0.0
 10
88.01492316148577
 20
130.901507652967
 30
0.0
 10
87.979195194339
 20
130.9165148194641
 30
0.0
 10
87.93123091662156
 20
130.9367238171911
 30
0.0
 10
87.9191046091881
 20
130.9418784770054
 30
0.0
 10
87.91910460918805
 20
130.9418784770054
 30
0.0
  0
SPLINE
  5
192
330
1F
100
AcDbEntity
  8
0
  6
Continuous
 62
     7
370
    25
100
AcDbSpline
210
0.0
220
0.0
230
1.0
 70
     8
 71
     3
 72
    31
 73
    27
 74
     0
 42
0.000000001
 43
0.00000001
 40
0.0
 40
0.0
 40
0.0
 40
0.0
 40
0.0161756722761241
 40
0.0323169137829603
 40
0.0484425619883959
 40
0.0645715089961422
 40
0.0807226353341205
 40
0.0969147439450768
 40
0.1131664955255468
 40
0.1294963463050799
 40
0.1459224892613001
 40
0.1624627996346251
 40
0.1791347854482183
 40
0.195955543564008
 40
0.2945755146269812
 40
0.3932797312250583
 40
0.4928176221931602
 40
0.5924285912823425
 40
0.6939020917450097
 40
0.7927115381487349
 40
0.8267756331434468
 40
0.8608043324963245
 40
0.894984631400814
 40
0.9295010594356421
 40
0.9645328322467613
 40
0.9999999999999999
 40
0.9999999999999999
 40
0.9999999999999999
 40
0.9999999999999999
 10
106.4750541545632
 20
130.9418784770054
 30
0.0
 10
106.474321054112
 20
130.9415320855774
 30
0.0
 10
106.4728564136525
 20
130.9408400400339
 30
0.0
 10
106.4598000339874
 20
130.9352576779877
 30
0.0
 10
106.4387854734646
 20
130.9263909149936
 30
0.0
 10
106.4090382681239
 20
130.9139498142788
 30
0.0
 10
106.3707659554683
 20
130.8980591557237
 30
0.0
 10
106.3239132745471
 20
130.8787334118966
 30
0.0
 10
106.2684955445101
 20
130.8560173223771
 30
0.0
 10
106.2045095806797
 20
130.8299483180025
 30
0.0
 10
106.1319560965291
 20
130.8005658706343
 30
0.0
 10
106.0508393990495
 20
130.7679116232994
 30
0.0
 10
105.9611457442994
 20
130.7320191762648
 30
0.0
 10
105.7040998976461
 20
130.6297812685984
 30
0.0
 10
105.1760639120524
 20
130.4232570551318
 30
0.0
 10
104.1974292648072
 20
130.0861717417824
 30
0.0
 10
103.0115529618875
 20
129.7430268824526
 30
0.0
 10
101.6410866968116
 20
129.4459149817927
 30
0.0
 10
100.1552294248462
 20
129.23587155406
 30
0.0
 10
98.93507679108184
 20
129.1776461511911
 30
0.0
 10
98.06865275813888
 20
129.1913384924512
 30
0.0
 10
97.54040782966298
 20
129.2167065780623
 30
0.0
 10
97.01563459845704
 20
129.2587291937798
 30
0.0
 10
96.49464535886408
 20
129.3170131570079
 30
0.0
 10
95.97740441380465
 20
129.3896367022533
 30
0.0
 10
95.64176730146993
 20
129.4485170199431
 30
0.0
 10
95.47291231340776
 20
129.4781389984884
 30
0.0
  0
LINE
  5
193
330
1F
100
AcDbEntity
  8
0
  6
Continuous
 62
     7
370
    25
100
AcDbLine
 10
106.4750541546
 20
130.941878477
 30
0.0
 11
111.4991047645
 21
130.941878477
 31
0.0
  0
LINE
  5
194
330
1F
100
AcDbEntity
  8
0
  6
Continuous
 62
     7
370
    25
100
AcDbLine
 10
103.6491047645
 20
117.3671518878
 30
0.0
 11
103.6491047645
 21
113.304378477
 31
0.0
  0
SPLINE
  5
195
330
1F
100
AcDbEntity
  8
0
  6
Continuous
 62
     7
370
    25
100
AcDbSpline
210
0.0
220
0.0
230
1.0
 70
     8
 71
     3
 72
    25
 73
    21
 74
     0
 42
0.000000001
 43
0.00000001
 40
0.0
 40
0.0
 40
0.0
 40
0.0
 40
0.0278144320063454
 40
0.0555680196245743
 40
0.0833316253677699
 40
0.1111760352167569
 40
0.1391714221532235
 40
0.1673868326284729
 40
0.1958897140434683
 40
0.2247454979318932
 40
0.2540172492221413
 40
0.3796724410010679
 40
0.5056484635002158
 40
0.6297527290673055
 40
0.7535891720571115
 40
0.8038564806084937
 40
0.8533396843421529
 40
0.902326439834555
 40
0.9511131859210757
 40
1.0
 40
1.0
 40
1.0
 40
1.0
 10
98.99910476447907
 20
121.8518750593704
 30
0.0
 10
99.0677601184414
 20
121.8513419742633
 30
0.0
 10
99.20492064199406
 20
121.8502769701789
 30
0.0
 10
99.41016322457983
 20
121.8371820727866
 30
0.0
 10
99.61448424107692
 20
121.8156435862142
 30
0.0
 10
99.81788529316592
 20
121.7848221143655
 30
0.0
 10
100.0203609240118
 20
121.744909361858
 30
0.0
 10
100.2219097882594
 20
121.6958091689171
 30
0.0
 10
100.4225238090621
 20
121.6374959214052
 30
0.0
 10
100.6222215733944
 20
121.5699039785384
 30
0.0
 10
101.0377863940724
 20
121.4090904624234
 30
0.0
 10
101.6405628106141
 20
121.0951135630811
 30
0.0
 10
102.3346193661171
 20
120.5315420875912
 30
0.0
 10
102.9013929955145
 20
119.8557978683359
 30
0.0
 10
103.2389708011854
 20
119.2384360408618
 30
0.0
 10
103.427433210479
 20
118.7463746013515
 30
0.0
 10
103.5266944280032
 20
118.4087228188081
 30
0.0
 10
103.59703901671
 20
118.0660916767846
 30
0.0
 10
103.6410376152284
 20
117.7187269763399
 30
0.0
 10
103.6464138787086
 20
117.4844235997299
 30
0.0
 10
103.649104764479
 20
117.3671518878051
 30
0.0
  0
LINE
  5
196
330
1F
100
AcDbEntity
  8
0
  6
Continuous
 62
     7
370
    25
100
AcDbLine
 10
97.0842314852
 20
121.8518750594
 30
0.0
 11
98.9991047645
 21
121.8518750594
 31
0.0
  0
SPLINE
  5
197
330
1F
100
AcDbEntity
  8
0
  6
Continuous
 62
     7
370
    25
100
AcDbSpline
210
0.0
220
0.0
230
1.0
 70
     8
 71
     3
 72
    12
 73
     8
 74
     0
 42
0.000000001
 43
0.00000001
 40
0.0
 40
0.0
 40
0.0
 40
0.0
 40
0.1992838848939808
 40
0.3984605265743477
 40
0.5979968004918437
 40
0.7983570684797959
 40
1.0
 40
1.0
 40
1.0
 40
1.0
 10
96.0831976428256
 20
121.7496807466472
 30
0.0
 10
96.14865092012653
 20
121.7627030994118
 30
0.0
 10
96.27952225151002
 20
121.7887407970541
 30
0.0
 10
96.478371703137
 20
121.817171356028
 30
0.0
 10
96.67877821901308
 20
121.8376025170094
 30
0.0
 10
96.88094913643712
 20
121.8500415940799
 30
0.0
 10
97.01632672009333
 20
121.8512626056545
 30
0.0
 10
97.0842314851896
 20
121.8518750593704
 30
0.0
  0
LINE
  5
198
330
1F
100
AcDbEntity
  8
0
  6
Continuous
 62
     7
370
    25
100
AcDbLine
 10
90.6584346353
 20
121.7495168226
 30
0.0
 11
96.0824246538
 21
121.7495168226
 31
0.0
  0
SPLINE
  5
199
330
1F
100
AcDbEntity
  8
0
  6
Continuous
 62
     7
370
    25
100
AcDbSpline
210
0.0
220
0.0
230
1.0
 70
     8
 71
     3
 72
    24
 73
    20
 74
     0
 42
0.000000001
 43
0.00000001
 40
0.0
 40
0.0
 40
0.0
 40
0.0
 40
0.0410257106276927
 40
0.0818520099057808
 40
0.1225800578327865
 40
0.1633117464026497
 40
0.2041489402771959
 40
0.2451927184713359
 40
0.2865426449200764
 40
0.3282960933614036
 40
0.3705476475465791
 40
0.413388592008023
 40
0.4569065022337061
 40
0.5011849368582145
 40
0.6001856774961036
 40
0.6987388860470333
 40
0.7976800645476073
 40
0.8978349910043563
 40
1.0
 40
1.0
 40
1.0
 40
1.0
 10
86.88644772832896
 20
123.6871586396683
 30
0.0
 10
86.94948681628182
 20
123.6866239393532
 30
0.0
 10
87.0752585816607
 20
123.6855571377105
 30
0.0
 10
87.26319674316743
 20
123.6744136457123
 30
0.0
 10
87.44978683598886
 20
123.6562521474047
 30
0.0
 10
87.63502861852172
 20
123.6303772266831
 30
0.0
 10
87.81891780174827
 20
123.5969403408715
 30
0.0
 10
88.00145146772057
 20
123.5558563193279
 30
0.0
 10
88.1826268746603
 20
123.5070935712343
 30
0.0
 10
88.36244165863779
 20
123.4505960830907
 30
0.0
 10
88.54089485771956
 20
123.3863049882884
 30
0.0
 10
88.71798289587241
 20
123.3141513083561
 30
0.0
 10
88.89371502016216
 20
123.2340641233173
 30
0.0
 10
89.13872965376521
 20
123.1102232366352
 30
0.0
 10
89.4429127329551
 20
122.9315982544427
 30
0.0
 10
89.79022021440579
 20
122.6825090703851
 30
0.0
 10
90.1093944778785
 20
122.4029394854054
 30
0.0
 10
90.40330638013845
 20
122.0941138474333
 30
0.0
 10
90.57283046682332
 20
121.8660218041311
 30
0.0
 10
90.65843463530237
 20
121.7508427161005
 30
0.0
  0
LINE
  5
19A
330
1F
100
AcDbEntity
  8
0
  6
Continuous
 62
     7
370
    25
100
AcDbLine
 10
84.0949060114
 20
123.6871586397
 30
0.0
 11
86.8864477283
 21
123.6871586397
 31
0.0
  0
SPLINE
  5
19B
330
1F
100
AcDbEntity
  8
0
  6
Continuous
 62
     7
370
    25
100
AcDbSpline
210
0.0
220
0.0
230
1.0
 70
     8
 71
     3
 72
     8
 73
     4
 74
     0
 42
0.000000001
 43
0.00000001
 40
0.0
 40
0.0
 40
0.0
 40
0.0
 40
1.0
 40
1.0
 40
1.0
 40
1.0
 10
84.04910193972033
 20
123.750611630678
 30
0.0
 10
84.06436996361802
 20
123.7294951602799
 30
0.0
 10
84.0796379875157
 20
123.7083440932272
 30
0.0
 10
84.09490601141339
 20
123.6871586396683
 30
0.0
  0
LINE
  5
19C
330
1F
100
AcDbEntity
  8
0
  6
Continuous
 62
     7
370
    25
100
AcDbLine
 10
84.0491047645
 20
130.941878477
 30
0.0
 11
84.0491047645
 21
123.7506116307
 31
0.0
  0
LINE
  5
19D
330
1F
100
AcDbEntity
  8
0
  6
Continuous
 62
     7
370
    25
100
AcDbLine
 10
84.0491047645
 20
130.941878477
 30
0.0
 11
87.9191046092
 21
130.941878477
 31
0.0
  0
LINE
  5
19E
330
1F
100
AcDbEntity
  8
0
  6
Continuous
 62
     7
370
    25
100
AcDbLine
 10
220.9991047645
 20
98.5785190421
 30
0.0
 11
220.9991047645
 21
113.304378477
 31
0.0
  0
ARC
  5
19F
330
1F
100
AcDbEntity
  8
0
  6
Continuous
 62
     7
370
    25
100
AcDbCircle
 10
218.9991047645
 20
128.0302379554
 30
0.0
 40
2.000000000000001
100
AcDbArc
 50
0.0
 51
65.0
  0
ARC
  5
1A0
330
1F
100
AcDbEntity
  8
0
  6
Continuous
 62
     7
370
    25
100
AcDbCircle
 10
118.6991047645
 20
127.654378477
 30
0.0
 40
1.200000000000017
100
AcDbArc
 50
0.0
 51
90.0
  0
LINE
  5
1A1
330
1F
100
AcDbEntity
  8
0
  6
Continuous
 62
     7
370
    25
100
AcDbLine
 10
114.9991047645
 20
128.854378477
 30
0.0
 11
118.6991047645
 21
128.854378477
 31
0.0
  0
LINE
  5
1A2
330
1F
100
AcDbEntity
  8
0
  6
Continuous
 62
     7
370
    25
100
AcDbLine
 10
114.9991047645
 20
128.854378477
 30
0.0
 11
114.9991047645
 21
113.304378477
 31
0.0
  0
ARC
  5
1A3
330
1F
100
AcDbEntity
  8
0
  6
Continuous
 62
     7
370
    25
100
AcDbCircle
 10
220.6991047645
 20
120.604378477
 30
0.0
 40
0.3000000000000114
100
AcDbArc
 50
270.0
 51
0.0
  0
LINE
  5
1A4
330
1F
100
AcDbEntity
  8
0
  6
Continuous
 62
     7
370
    25
100
AcDbLine
 10
220.9991047645
 20
120.604378477
 30
0.0
 11
220.9991047645
 21
113.304378477
 31
0.0
  0
ARC
  5
1A5
330
1F
100
AcDbEntity
  8
0
  6
Continuous
 62
     7
370
    25
100
AcDbCircle
 10
175.3991047645
 20
120.204378477
 30
0.0
 40
0.4000000000000057
100
AcDbArc
 50
90.0
 51
180.0
  0
ARC
  5
1A6
330
1F
100
AcDbEntity
  8
0
  6
Continuous
 62
     7
370
    25
100
AcDbCircle
 10
178.1043307464
 20
120.204378477
 30
0.0
 40
0.4000000000000057
100
AcDbArc
 50
70.0
 51
90.0
  0
LINE
  5
1A7
330
1F
100
AcDbEntity
  8
0
  6
Continuous
 62
     7
370
    25
100
AcDbLine
 10
175.3991047645
 20
120.604378477
 30
0.0
 11
178.1043307464
 21
120.604378477
 31
0.0
  0
LINE
  5
1A8
330
1F
100
AcDbEntity
  8
0
  6
Continuous
 62
     7
370
    25
100
AcDbLine
 10
178.9991047645
 20
120.304378477
 30
0.0
 11
178.9991047645
 21
113.304378477
 31
0.0
  0
LINE
  5
1A9
330
1F
100
AcDbEntity
  8
0
  6
Continuous
 62
     7
370
    25
100
AcDbLine
 10
178.2411388037
 20
120.5802555253
 30
0.0
 11
178.9991047645
 21
120.304378477
 31
0.0
  0
SPLINE
  5
1AA
330
1F
100
AcDbEntity
  8
0
  6
Continuous
 62
     7
370
    25
100
AcDbSpline
210
0.0
220
0.0
230
1.0
 70
     8
 71
     3
 72
    12
 73
     8
 74
     0
 42
0.000000001
 43
0.00000001
 40
0.0
 40
0.0
 40
0.0
 40
0.0
 40
0.2580458944543038
 40
0.5208727677732677
 40
0.6806565840123985
 40
0.8414180706784504
 40
1.0
 40
1.0
 40
1.0
 40
1.0
 10
193.8741047644783
 20
120.304378477006
 30
0.0
 10
193.8800260208445
 20
120.3000385980451
 30
0.0
 10
193.8919782404242
 20
120.2912784324516
 30
0.0
 10
193.9757741594853
 20
120.2301555814101
 30
0.0
 10
194.0798575759802
 20
120.1550857912069
 30
0.0
 10
194.185353703508
 20
120.0795765561008
 30
0.0
 10
194.2722811210094
 20
120.0184097329046
 30
0.0
 10
194.3154481847037
 20
119.9880350567807
 30
0.0
  0
SPLINE
  5
1AB
330
1F
100
AcDbEntity
  8
0
  6
Continuous
 62
     7
370
    25
100
AcDbSpline
210
0.0
220
0.0
230
1.0
 70
     8
 71
     3
 72
    30
 73
    26
 74
     0
 42
0.000000001
 43
0.00000001
 40
0.0
 40
0.0
 40
0.0
 40
0.0
 40
0.0482290790900838
 40
0.102349273196258
 40
0.1574471062625065
 40
0.2129007355014501
 40
0.2552007884051897
 40
0.2977109504727926
 40
0.340977875605565
 40
0.3845631503348136
 40
0.4194866590978406
 40
0.4546343138460259
 40
0.4905342090554451
 40
0.5267115124728144
 40
0.5616396511125115
 40
0.596809749923265
 40
0.6326774727178601
 40
0.6687567875135793
 40
0.7176480004940852
 40
0.7669233192922736
 40
0.817227512144186
 40
0.8678278057704746
 40
0.9185029813374491
 40
0.9694375205237038
 40
1.0
 40
1.0
 40
1.0
 40
1.0
 10
195.3576787400981
 20
119.3043784770054
 30
0.0
 10
195.4478122416295
 20
119.2501870719755
 30
0.0
 10
195.6390889267002
 20
119.1351848570684
 30
0.0
 10
195.9613326392517
 20
118.9555547762927
 30
0.0
 10
196.3184764286381
 20
118.7710987372792
 30
0.0
 10
196.6710873588588
 20
118.6073021458914
 30
0.0
 10
197.0108153879271
 20
118.4676729564008
 30
0.0
 10
197.3337431548667
 20
118.3516926315314
 30
0.0
 10
197.672258622081
 20
118.2498491715607
 30
0.0
 10
198.001664718937
 20
118.1721941492425
 30
0.0
 10
198.3165023774785
 20
118.1181222544199
 30
0.0
 10
198.614768330688
 20
118.0847471732385
 30
0.0
 10
198.9194485025655
 20
118.0697849895162
 30
0.0
 10
199.224133359215
 20
118.0745380689097
 30
0.0
 10
199.5250072113108
 20
118.0983383480336
 30
0.0
 10
199.8212704420148
 20
118.1398785935577
 30
0.0
 10
200.1151640191185
 20
118.1985464367
 30
0.0
 10
200.4387354844603
 20
118.2814973046452
 30
0.0
 10
200.7864343300618
 20
118.3924258991308
 30
0.0
 10
201.1543488489374
 20
118.5334603935056
 30
0.0
 10
201.5087494165499
 20
118.6896591498941
 30
0.0
 10
201.8482621055018
 20
118.8563820025742
 30
0.0
 10
202.1693755924785
 20
119.0284335781364
 30
0.0
 10
202.4344218193227
 20
119.1793696175128
 30
0.0
 10
202.5836128338547
 20
119.2702842612891
 30
0.0
 10
202.6395614733818
 20
119.3043784770054
 30
0.0
  0
SPLINE
  5
1AC
330
1F
100
AcDbEntity
  8
0
  6
Continuous
 62
     7
370
    25
100
AcDbSpline
210
0.0
220
0.0
230
1.0
 70
     8
 71
     3
 72
    13
 73
     9
 74
     0
 42
0.000000001
 43
0.00000001
 40
0.0
 40
0.0
 40
0.0
 40
0.0
 40
0.156935089501082
 40
0.3502507605975783
 40
0.5452763917412231
 40
0.746130653149455
 40
0.9491732498385702
 40
1.0
 40
1.0
 40
1.0
 40
1.0
 10
203.6832422338574
 20
119.9885159463837
 30
0.0
 10
203.7266218431271
 20
120.01898667525
 30
0.0
 10
203.8234372920455
 20
120.0869918358251
 30
0.0
 10
203.9395426514899
 20
120.1703083368647
 30
0.0
 10
204.0370595362635
 20
120.240815614059
 30
0.0
 10
204.1007725199951
 20
120.2872964190729
 30
0.0
 10
204.1226238352969
 20
120.3032943051179
 30
0.0
 10
204.1238577287662
 20
120.3041976248901
 30
0.0
 10
204.1241047644791
 20
120.3043784770054
 30
0.0
  0
LINE
  5
1AD
330
1F
100
AcDbEntity
  8
0
  6
Continuous
 62
     7
370
    25
100
AcDbLine
 10
204.1241047645
 20
120.304378477
 30
0.0
 11
220.6991047645
 21
120.304378477
 31
0.0
  0
LINE
  5
1AE
330
1F
100
AcDbEntity
  8
0
  6
Continuous
 62
     7
370
    25
100
AcDbLine
 10
178.9991047645
 20
120.304378477
 30
0.0
 11
193.8741047645
 21
120.304378477
 31
0.0
  0
LINE
  5
1AF
330
1F
100
AcDbEntity
  8
0
  6
Continuous
 62
     7
370
    25
100
AcDbLine
 10
123.7241047645
 20
119.054378477
 30
0.0
 11
124.5491047645
 21
119.054378477
 31
0.0
  0
LINE
  5
1B0
330
1F
100
AcDbEntity
  8
0
  6
Continuous
 62
     7
370
    25
100
AcDbLine
 10
120.2991047645
 20
118.304378477
 30
0.0
 11
120.2991047645
 21
113.304378477
 31
0.0
  0
LINE
  5
1B1
330
1F
100
AcDbEntity
  8
0
  6
Continuous
 62
     7
370
    25
100
AcDbLine
 10
119.8991047645
 20
118.5353185847
 30
0.0
 11
120.2991047645
 21
118.304378477
 31
0.0
  0
LINE
  5
1B2
330
1F
100
AcDbEntity
  8
0
  6
Continuous
 62
     7
370
    25
100
AcDbLine
 10
119.8991047645
 20
118.5353185847
 30
0.0
 11
119.8991047645
 21
113.304378477
 31
0.0
  0
LINE
  5
1B3
330
1F
100
AcDbEntity
  8
0
  6
Continuous
 62
     7
370
    25
100
AcDbLine
 10
120.2991047645
 20
118.304378477
 30
0.0
 11
123.7241047645
 21
118.304378477
 31
0.0
  0
LINE
  5
1B4
330
1F
100
AcDbEntity
  8
0
  6
Continuous
 62
     7
370
    25
100
AcDbLine
 10
123.7241047645
 20
118.304378477
 30
0.0
 11
123.7241047645
 21
113.304378477
 31
0.0
  0
LINE
  5
1B5
330
1F
100
AcDbEntity
  8
0
  6
Continuous
 62
     7
370
    25
100
AcDbLine
 10
124.5491047645
 20
117.304378477
 30
0.0
 11
174.9991047645
 21
117.304378477
 31
0.0
  0
LINE
  5
1B6
330
1F
100
AcDbEntity
  8
0
  6
Continuous
 62
     7
370
    25
100
AcDbLine
 10
124.5491047645
 20
117.304378477
 30
0.0
 11
124.5491047645
 21
113.304378477
 31
0.0
  0
LINE
  5
1B7
330
1F
100
AcDbEntity
  8
0
  6
Continuous
 62
     7
370
    25
100
AcDbLine
 10
174.9991047645
 20
117.304378477
 30
0.0
 11
174.9991047645
 21
113.304378477
 31
0.0
  0
SPLINE
  5
1B8
330
1F
100
AcDbEntity
  8
0
  6
Continuous
 62
     7
370
    25
100
AcDbSpline
210
0.0
220
0.0
230
1.0
 70
     8
 71
     3
 72
    37
 73
    33
 74
     0
 42
0.000000001
 43
0.00000001
 40
0.0
 40
0.0
 40
0.0
 40
0.0
 40
0.0114878548102799
 40
0.0231559765621647
 40
0.0350076484354353
 40
0.0470460033795304
 40
0.0592740307999908
 40
0.0716945830965779
 40
0.0843103820274647
 40
0.097124024879799
 40
0.1101379904320506
 40
0.1233546446979382
 40
0.1811510010973226
 40
0.248363173611442
 40
0.2888373415819252
 40
0.3232297457604624
 40
0.3515392131491944
 40
0.3737664266256188
 40
0.4399300285953852
 40
0.4987424063270027
 40
0.5023253005651627
 40
0.5613100074513716
 40
0.6252595444338137
 40
0.6818650083849791
 40
0.7483890016987899
 40
0.7860781471964681
 40
0.8194856599799779
 40
0.8486127715281719
 40
0.8734622727747419
 40
0.9389926156604144
 40
0.9981523731393551
 40
1.0
 40
1.0
 40
1.0
 40
1.0
 10
105.8491047644791
 20
136.7680307803586
 30
0.0
 10
105.8481783132005
 20
136.7675872633502
 30
0.0
 10
105.8463108728085
 20
136.7666932696827
 30
0.0
 10
105.8310378124687
 20
136.7595012922245
 30
0.0
 10
105.8061361100048
 20
136.7480500486319
 30
0.0
 10
105.770281838069
 20
136.7319002898575
 30
0.0
 10
105.7233143272313
 20
136.7111726103038
 30
0.0
 10
105.6647714168104
 20
136.685834091302
 30
0.0
 10
105.5942932772328
 20
136.6558936707475
 30
0.0
 10
105.5115187129553
 20
136.6213496967055
 30
0.0
 10
105.4161021678372
 20
136.582199955091
 30
0.0
 10
105.1865333344487
 20
136.4895012839297
 30
0.0
 10
104.7021151204761
 20
136.3007783934152
 30
0.0
 10
103.9231151489307
 20
136.0226885934441
 30
0.0
 10
103.1318966975105
 20
135.7721017261146
 30
0.0
 10
102.5008462042677
 20
135.5970849647848
 30
0.0
 10
101.9478082479313
 20
135.4572503241858
 30
0.0
 10
101.1548503190349
 20
135.2768394788397
 30
0.0
 10
100.0845159787018
 20
135.0877731571976
 30
0.0
 10
99.1035256992665
 20
134.9824863494879
 30
0.0
 10
98.17555847014691
 20
134.9254535775349
 30
0.0
 10
97.20310297638649
 20
134.9108589791652
 30
0.0
 10
95.87697277095312
 20
134.9890521956564
 30
0.0
 10
94.6069372864594
 20
135.1495319172506
 30
0.0
 10
93.64716128578976
 20
135.3346434554642
 30
0.0
 10
92.94850963844495
 20
135.5021330591943
 30
0.0
 10
92.50470150028981
 20
135.6157562654025
 30
0.0
 10
92.17216443835984
 20
135.7089401003111
 30
0.0
 10
91.78500602811661
 20
135.8236049645697
 30
0.0
 10
91.4477580660049
 20
135.9309507736298
 30
0.0
 10
91.35003399967573
 20
135.9685163469165
 30
0.0
 10
91.34913207940396
 20
135.9686477557329
 30
0.0
 10
91.34910476447908
 20
135.9686517354882
 30
0.0
  0
LINE
  5
1B9
330
1F
100
AcDbEntity
  8
0
  6
Continuous
 62
     7
370
    25
100
AcDbLine
 10
105.8491047645
 20
136.7680307804
 30
0.0
 11
105.8491047645
 21
131.4106044978
 31
0.0
  0
SPLINE
  5
1BA
330
1F
100
AcDbEntity
  8
0
  6
Continuous
 62
     7
370
    25
100
AcDbSpline
210
0.0
220
0.0
230
1.0
 70
     8
 71
     3
 72
    30
 73
    26
 74
     0
 42
0.000000001
 43
0.00000001
 40
0.0
 40
0.0
 40
0.0
 40
0.0
 40
0.0192411700742048
 40
0.0381353539376952
 40
0.0566868884861284
 40
0.0749003554931359
 40
0.0927805967284107
 40
0.1103327298326386
 40
0.1275621649289898
 40
0.1444746219341821
 40
0.2455865830542373
 40
0.3577720192516904
 40
0.45050174089725
 40
0.572012786861997
 40
0.6168069840212203
 40
0.6590088499451769
 40
0.6986242498795036
 40
0.7356603299357845
 40
0.7701258931921916
 40
0.8073679165915277
 40
0.8483950324909334
 40
0.8881367798842493
 40
0.9266264622131405
 40
0.9639007443628562
 40
1.0
 40
1.0
 40
1.0
 40
1.0
 10
96.678286173867
 20
129.7465131874134
 30
0.0
 10
96.76131865374663
 20
129.7353860820885
 30
0.0
 10
96.92588624481945
 20
129.7133325324224
 30
0.0
 10
97.17376776049998
 20
129.6852806431597
 30
0.0
 10
97.41904443594237
 20
129.6613291126338
 30
0.0
 10
97.66160226955364
 20
129.6417991604404
 30
0.0
 10
97.90103694666256
 20
129.6266068682638
 30
0.0
 10
98.13705014206961
 20
129.6157753070329
 30
0.0
 10
98.3693681873804
 20
129.6092947417798
 30
0.0
 10
98.97791895700907
 20
129.6036632501938
 30
0.0
 10
100.0162314542294
 20
129.6636366496765
 30
0.0
 10
101.3315829823366
 20
129.8630591228554
 30
0.0
 10
102.6111281952231
 20
130.1685404835398
 30
0.0
 10
103.5025687393163
 20
130.448483286459
 30
0.0
 10
104.1202336081775
 20
130.6759323829747
 30
0.0
 10
104.4635566934651
 20
130.8062110434769
 30
0.0
 10
104.7552477783601
 20
130.9223019814353
 30
0.0
 10
104.9997931341818
 20
131.0236702108374
 30
0.0
 10
105.2121478146179
 20
131.1150082633533
 30
0.0
 10
105.4032107892423
 20
131.1990833472986
 30
0.0
 10
105.5684581934158
 20
131.2740763012642
 30
0.0
 10
105.6979987436595
 20
131.3350648008105
 30
0.0
 10
105.7863651128796
 20
131.3783024625759
 30
0.0
 10
105.8395109581405
 20
131.4055325484541
 30
0.0
 10
105.8459411540813
 20
131.4089319945831
 30
0.0
 10
105.8491047644791
 20
131.410604497757
 30
0.0
  0
SPLINE
  5
1BB
330
1F
100
AcDbEntity
  8
0
  6
Continuous
 62
     7
370
    25
100
AcDbSpline
210
0.0
220
0.0
230
1.0
 70
     8
 71
     3
 72
    38
 73
    34
 74
     0
 42
0.000000001
 43
0.00000001
 40
0.0
 40
0.0
 40
0.0
 40
0.0
 40
0.1249999999999999
 40
0.1249999999999999
 40
0.2499999999999998
 40
0.2499999999999998
 40
0.3124999999999998
 40
0.3124999999999998
 40
0.3749999999999998
 40
0.3749999999999998
 40
0.4374999999999999
 40
0.4374999999999999
 40
0.5
 40
0.5
 40
0.5625000000000001
 40
0.5625000000000001
 40
0.6250000000000001
 40
0.6250000000000001
 40
0.6875000000000002
 40
0.6875000000000002
 40
0.7187500000000002
 40
0.7187500000000002
 40
0.7500000000000001
 40
0.7500000000000001
 40
0.7812500000000001
 40
0.7812500000000001
 40
0.8125000000000001
 40
0.8125000000000001
 40
0.8750000000000001
 40
0.8750000000000001
 40
0.9375
 40
0.9375
 40
1.0
 40
1.0
 40
1.0
 40
1.0
 10
91.34910476447907
 20
135.8404263619093
 30
0.0
 10
91.34910476447922
 20
135.8404263619092
 30
0.0
 10
91.41091052204273
 20
135.8177822792473
 30
0.0
 10
91.66053306747828
 20
135.7251978901912
 30
0.0
 10
91.84426069841645
 20
135.6568103102385
 30
0.0
 10
92.20064953500153
 20
135.5209682110366
 30
0.0
 10
92.33380999650709
 20
135.4697752259801
 30
0.0
 10
92.62488900720348
 20
135.3560866208677
 30
0.0
 10
92.7813789587128
 20
135.2941600133613
 30
0.0
 10
93.11476040000069
 20
135.1592749046708
 30
0.0
 10
93.29166415836382
 20
135.0863366503842
 30
0.0
 10
93.66490580583715
 20
134.9273607155883
 30
0.0
 10
93.86264979671829
 20
134.8407209457117
 30
0.0
 10
94.2686732299714
 20
134.6538032731593
 30
0.0
 10
94.47672662335837
 20
134.5537683593503
 30
0.0
 10
94.89902089609254
 20
134.3345048091712
 30
0.0
 10
95.11338619916759
 20
134.2155016175066
 30
0.0
 10
95.54122851074698
 20
133.9452277671828
 30
0.0
 10
95.75763016185358
 20
133.7919789416711
 30
0.0
 10
96.0562626047337
 20
133.5259104180879
 30
0.0
 10
96.15145519420338
 20
133.4311381718151
 30
0.0
 10
96.32908044606016
 20
133.2253813146252
 30
0.0
 10
96.41169475668852
 20
133.1135227728546
 30
0.0
 10
96.5537750317101
 20
132.8800072686323
 30
0.0
 10
96.61416058095504
 20
132.7574462026764
 30
0.0
 10
96.71361107310987
 20
132.5009754394513
 30
0.0
 10
96.75290251213467
 20
132.3657354259015
 30
0.0
 10
96.83959909828769
 20
131.957453422937
 30
0.0
 10
96.85830742528239
 20
131.6811932451521
 30
0.0
 10
96.8548114046507
 20
131.1244454665165
 30
0.0
 10
96.83233178444212
 20
130.8462152225257
 30
0.0
 10
96.76670413666
 20
130.294829402341
 30
0.0
 10
96.72320659297053
 20
130.0205757332386
 30
0.0
 10
96.67372704586049
 20
129.747146261277
 30
0.0
  0
LINE
  5
1BC
330
1F
100
AcDbEntity
  8
0
  6
Continuous
 62
     7
370
    25
100
AcDbLine
 10
91.3491047645
 20
135.8404263619
 30
0.0
 11
91.3491047645
 21
135.9686517354
 31
0.0
  0
SPLINE
  5
1BD
330
1F
100
AcDbEntity
  8
0
  6
Continuous
 62
     7
370
    25
100
AcDbSpline
210
0.0
220
0.0
230
1.0
 70
     8
 71
     3
 72
    14
 73
    10
 74
     0
 42
0.000000001
 43
0.00000001
 40
0.0
 40
0.0
 40
0.0
 40
0.0
 40
0.0003951392850831
 40
0.0003951392850831
 40
0.0003951392850831
 40
0.000815903567925
 40
0.000815903567925
 40
0.000815903567925
 40
0.0012369936130998
 40
0.0012369936130998
 40
0.0012369936130998
 40
0.0012369936130998
 10
95.47698871421053
 20
129.4793514740056
 30
0.0
 10
95.60549795231725
 20
129.5082254417191
 30
0.0
 10
95.73406146004628
 20
129.5369136551954
 30
0.0
 10
95.86261183832967
 20
129.5654164992329
 30
0.0
 10
95.99949708599328
 20
129.5957673929236
 30
0.0
 10
96.13639273189311
 20
129.6259133579526
 30
0.0
 10
96.2732129932422
 20
129.6558651775211
 30
0.0
 10
96.4101389821871
 20
129.685840142301
 30
0.0
 10
96.54701605415129
 20
129.7156261917462
 30
0.0
 10
96.68375290333843
 20
129.7452486649149
 30
0.0
  0
LINE
  5
1BE
330
1F
100
AcDbEntity
  8
0
  6
Continuous
 62
     7
370
    25
100
AcDbLine
 10
87.9191046092
 20
130.941878477
 30
0.0
 11
91.3491047645
 21
135.8404263619
 31
0.0
  0
LINE
  5
1BF
330
1F
100
AcDbEntity
  8
0
  6
Continuous
 62
     7
370
    25
100
AcDbLine
 10
193.8741047645
 20
135.1930515141
 30
0.0
 11
193.8741047645
 21
120.304378477
 31
0.0
  0
LINE
  5
1C0
330
1F
100
AcDbEntity
  8
0
  6
Continuous
 62
     7
370
    25
100
AcDbLine
 10
204.1241047645
 20
120.304378477
 30
0.0
 11
204.1241047645
 21
135.1930515887
 31
0.0
  0
LINE
  5
1C1
330
1F
100
AcDbEntity
  8
0
  6
Continuous
 62
     7
370
    25
100
AcDbLine
 10
90.5995429161
 20
136.7777641867
 30
0.0
 11
91.3491328951
 21
135.9686528489
 31
0.0
  0
LINE
  5
1C2
330
1F
100
AcDbEntity
  8
0
  6
Continuous
 62
     7
370
    25
100
AcDbLine
 10
105.8491177126
 20
136.7680310362
 30
0.0
 11
106.5174478585
 21
137.5771428586
 31
0.0
  0
LINE
  5
1C3
330
1F
100
AcDbEntity
  8
0
  6
Continuous
 62
     7
370
    25
100
AcDbLine
 10
81.8007708143
 20
132.2399546884
 30
0.0
 11
84.0491047645
 21
130.941878477
 31
0.0
  0
LINE
  5
1C4
330
1F
100
AcDbEntity
  8
0
  6
Continuous
 62
     7
370
    25
100
AcDbLine
 10
81.0491047645
 20
133.541878477
 30
0.0
 11
81.8007708143
 21
132.2399546884
 31
0.0
  0
LINE
  5
1C5
330
1F
100
AcDbEntity
  8
0
  6
Continuous
 62
     7
370
    25
100
AcDbLine
 10
81.0491047645
 20
135.5074732008
 30
0.0
 11
81.0491047645
 21
133.541878477
 31
0.0
  0
LINE
  5
1C6
330
1F
100
AcDbEntity
  8
0
  6
Continuous
 62
     7
370
    25
100
AcDbLine
 10
82.5491047645
 20
136.3734986046
 30
0.0
 11
81.0491047645
 21
135.5074732008
 31
0.0
  0
ARC
  5
1C7
330
1F
100
AcDbEntity
  8
0
  6
Continuous
 62
     7
370
    25
100
AcDbCircle
 10
130.0241047645
 20
142.154378477
 30
0.0
 40
1.000000000000028
100
AcDbArc
 50
180.0
 51
270.0
  0
LINE
  5
1C8
330
1F
100
AcDbEntity
  8
0
  6
Continuous
 62
     7
370
    25
100
AcDbLine
 10
131.7741047645
 20
141.154378477
 30
0.0
 11
130.0241047645
 21
141.154378477
 31
0.0
  0
ARC
  5
1C9
330
1F
100
AcDbEntity
  8
0
  6
Continuous
 62
     7
370
    25
100
AcDbCircle
 10
131.7741047645
 20
142.154378477
 30
0.0
 40
1.0
100
AcDbArc
 50
270.0
 51
0.0
  0
LINE
  5
1CA
330
1F
100
AcDbEntity
  8
0
  6
Continuous
 62
     7
370
    25
100
AcDbLine
 10
132.7741047645
 20
142.2519737412
 30
0.0
 11
132.7741047645
 21
142.154378477
 31
0.0
  0
LINE
  5
1CB
330
1F
100
AcDbEntity
  8
0
  6
Continuous
 62
     7
370
    25
100
AcDbLine
 10
134.233302569
 20
144.779378477
 30
0.0
 11
132.7741047645
 21
142.2519737412
 31
0.0
  0
LINE
  5
1CC
330
1F
100
AcDbEntity
  8
0
  6
Continuous
 62
     7
370
    25
100
AcDbLine
 10
193.0909877241
 20
135.8043779933
 30
0.0
 11
193.8741065964
 21
135.1930516402
 31
0.0
  0
LINE
  5
1CD
330
1F
100
AcDbEntity
  8
0
  6
Continuous
 62
     7
370
    25
100
AcDbLine
 10
106.4750539063
 20
130.9418797673
 30
0.0
 11
105.8491078927
 21
131.4106046226
 31
0.0
  0
LINE
  5
1CE
330
1F
100
AcDbEntity
  8
0
  6
Continuous
 62
     7
370
    25
100
AcDbLine
 10
129.0241047645
 20
142.2519737412
 30
0.0
 11
127.5649069599
 21
144.779378477
 31
0.0
  0
LINE
  5
1CF
330
1F
100
AcDbEntity
  8
0
  6
Continuous
 62
     7
370
    25
100
AcDbLine
 10
129.0241047645
 20
142.154378477
 30
0.0
 11
129.0241047645
 21
142.2519737412
 31
0.0
  0
LINE
  5
1D0
330
1F
100
AcDbEntity
  8
0
  6
Continuous
 62
     7
370
    25
100
AcDbLine
 10
123.7241047645
 20
118.304378477
 30
0.0
 11
123.7241047645
 21
119.054378477
 31
0.0
  0
LINE
  5
1D1
330
1F
100
AcDbEntity
  8
0
  6
Continuous
 62
     7
370
    25
100
AcDbLine
 10
124.5491047645
 20
119.054378477
 30
0.0
 11
124.5491047645
 21
117.304378477
 31
0.0
  0
LINE
  5
1D2
330
1F
100
AcDbEntity
  8
0
  6
Continuous
 62
     7
370
    25
100
AcDbLine
 10
174.9991047645
 20
117.304378477
 30
0.0
 11
174.9991047645
 21
120.204378477
 31
0.0
  0
LINE
  5
1D3
330
1F
100
AcDbEntity
  8
0
  6
Continuous
 62
     7
370
    25
100
AcDbLine
 10
119.8991047645
 20
127.654378477
 30
0.0
 11
119.8991047645
 21
118.5353185847
 31
0.0
  0
LINE
  5
1D4
330
1F
100
AcDbEntity
  8
0
  6
Continuous
 62
     7
370
    25
100
AcDbLine
 10
114.9991047645
 20
130.754378477
 30
0.0
 11
114.9991047645
 21
128.854378477
 31
0.0
  0
LINE
  5
1D5
330
1F
100
AcDbEntity
  8
0
  6
Continuous
 62
     7
370
    25
100
AcDbLine
 10
120.9991047645
 20
144.579378477
 30
0.0
 11
120.9991047645
 21
140.154378477
 31
0.0
  0
LINE
  5
1D6
330
1F
100
AcDbEntity
  8
0
  6
Continuous
 62
     7
370
    25
100
AcDbLine
 10
138.9991047645
 20
138.804378477
 30
0.0
 11
138.9991047645
 21
144.779378477
 31
0.0
  0
LINE
  5
1D7
330
1F
100
AcDbEntity
  8
0
  6
Continuous
 62
     7
370
    25
100
AcDbLine
 10
204.1241027364
 20
135.193051561
 30
0.0
 11
204.9072215787
 21
135.8043779119
 31
0.0
  0
LINE
  5
1D8
330
1F
100
AcDbEntity
  8
0
  6
Continuous
 62
     7
370
    25
100
AcDbLine
 10
220.9991047645
 20
120.604378477
 30
0.0
 11
220.9991047645
 21
128.0302379554
 31
0.0
  0
SPLINE
  5
1D9
330
1F
100
AcDbEntity
  8
0
  6
Continuous
 62
     7
370
    25
100
AcDbSpline
210
0.0
220
0.0
230
1.0
 70
     8
 71
     3
 72
     9
 73
     5
 74
     0
 42
0.000000001
 43
0.00000001
 40
0.0
 40
0.0
 40
0.0
 40
0.0
 40
0.5102121239851395
 40
0.9999999999999999
 40
0.9999999999999999
 40
0.9999999999999999
 40
0.9999999999999999
 10
81.85346816115018
 20
123.7660049936572
 30
0.0
 10
82.22833021812896
 20
123.7635150762755
 30
0.0
 10
82.96304826843875
 20
123.7586349151334
 30
0.0
 10
83.69204885889549
 20
123.7532500237471
 30
0.0
 10
84.04910450970887
 20
123.7506125692324
 30
0.0
  0
LINE
  5
1DA
330
1F
100
AcDbEntity
  8
0
  6
Continuous
 62
     7
370
    25
100
AcDbLine
 10
81.8007708143
 20
123.7964292846
 30
0.0
 11
81.853468163
 21
123.7660044561
 31
0.0
  0
LINE
  5
1DB
330
1F
100
AcDbEntity
  8
0
  6
Continuous
 62
     7
370
    25
100
AcDbLine
 10
81.8007708143
 20
132.2399546884
 30
0.0
 11
81.8007708143
 21
123.7964292846
 31
0.0
  0
SPLINE
  5
1DC
330
1F
100
AcDbEntity
  8
0
  6
Continuous
 62
     7
370
    25
100
AcDbSpline
210
0.0
220
0.0
230
1.0
 70
    24
 71
     3
 72
     8
 73
     4
 74
     0
 42
0.000000001
 43
0.00000001
 40
0.0000004089325119
 40
0.0000004089325119
 40
0.0000004089325119
 40
0.0000004089325119
 40
0.0015399868451459
 40
0.0015399868451459
 40
0.0015399868451459
 40
0.0015399868451459
 10
81.04910476447907
 20
124.2304038807898
 30
0.0
 10
81.30009584050353
 20
124.0854941154829
 30
0.0
 10
81.55068503700646
 20
123.9408163754259
 30
0.0
 10
81.80077081431861
 20
123.7964292845742
 30
0.0
  0
LINE
  5
1DD
330
1F
100
AcDbEntity
  8
0
  6
Continuous
 62
     7
370
    25
100
AcDbLine
 10
81.0491047645
 20
133.541878477
 30
0.0
 11
81.0491047645
 21
124.2304038808
 31
0.0
  0
SPLINE
  5
1DE
330
1F
100
AcDbEntity
  8
0
  6
Continuous
 62
     7
370
    25
100
AcDbSpline
210
0.0
220
0.0
230
1.0
 70
     8
 71
     3
 72
     8
 73
     4
 74
     0
 42
0.000000001
 43
0.00000001
 40
0.0
 40
0.0
 40
0.0
 40
0.0
 40
1.0
 40
1.0
 40
1.0
 40
1.0
 10
84.17878650723584
 20
123.3643791547419
 30
0.0
 10
84.15083828711631
 20
123.4721955087174
 30
0.0
 10
84.12287819894759
 20
123.5797893588837
 30
0.0
 10
84.09490601141337
 20
123.6871586396683
 30
0.0
  0
LINE
  5
1DF
330
1F
100
AcDbEntity
  8
0
  6
Continuous
 62
     7
370
    25
100
AcDbLine
 10
84.1787896458
 20
123.364378477
 30
0.0
 11
82.5491039777
 21
123.364378477
 31
0.0
  0
LINE
  5
1E0
330
1F
100
AcDbEntity
  8
0
  6
Continuous
 62
     7
370
    25
100
AcDbLine
 10
82.5491041776
 20
123.3643788158
 30
0.0
 11
81.8534676996
 21
123.7660047237
 31
0.0
  0
LINE
  5
1E1
330
1F
100
AcDbEntity
  8
0
  6
Continuous
 62
     7
370
    25
100
AcDbLine
 10
90.6030656617
 20
121.366878477
 30
0.0
 11
90.3508940337
 21
121.366878477
 31
0.0
  0
SPLINE
  5
1E2
330
1F
100
AcDbEntity
  8
0
  6
Continuous
 62
     7
370
    25
100
AcDbSpline
210
0.0
220
0.0
230
1.0
 70
     8
 71
     3
 72
    26
 73
    22
 74
     0
 42
0.000000001
 43
0.00000001
 40
0.0
 40
0.0
 40
0.0
 40
0.0
 40
0.0524616379932503
 40
0.1026498591890872
 40
0.150565513457809
 40
0.1962095861957063
 40
0.2395832262568645
 40
0.2806877815599511
 40
0.3195248450380211
 40
0.3560963147430692
 40
0.3904044736547445
 40
0.4224520974433627
 40
0.4522426027417772
 40
0.4797802555366611
 40
0.5050704712281336
 40
0.5966394156799991
 40
0.6841917884819224
 40
0.7679874773571101
 40
0.8483228539139507
 40
0.925534163520116
 40
1.0
 40
1.0
 40
1.0
 40
1.0
 10
90.34908753980966
 20
121.3669082610407
 30
0.0
 10
90.31345114077838
 20
121.426455181123
 30
0.0
 10
90.24372264043996
 20
121.5429685649096
 30
0.0
 10
90.1302444796801
 20
121.7073665256388
 30
0.0
 10
90.01471892995508
 20
121.8595282634404
 30
0.0
 10
89.89759723394494
 20
121.9994309603729
 30
0.0
 10
89.78022553346557
 20
122.127645284277
 30
0.0
 10
89.66360456743195
 20
122.2446609632173
 30
0.0
 10
89.54870164698691
 20
122.3510381184614
 30
0.0
 10
89.43637742129756
 20
122.4473541989356
 30
0.0
 10
89.32740844726273
 20
122.5342035454882
 30
0.0
 10
89.22248940642604
 20
122.612183727682
 30
0.0
 10
89.1222320804773
 20
122.681891924735
 30
0.0
 10
89.02719473789416
 20
122.7439019136361
 30
0.0
 10
88.85708783346341
 20
122.8483883509019
 30
0.0
 10
88.60416880205833
 20
122.9834470174163
 30
0.0
 10
88.25818764499718
 20
123.1278339098334
 30
0.0
 10
87.91022909567283
 20
123.2368018220784
 30
0.0
 10
87.56408933529677
 20
123.3113314044151
 30
0.0
 10
87.22302455186268
 20
123.3562601089645
 30
0.0
 10
86.99727794034702
 20
123.361705207819
 30
0.0
 10
86.88644772832896
 20
123.3643784770054
 30
0.0
  0
SPLINE
  5
1E3
330
1F
100
AcDbEntity
  8
0
  6
Continuous
 62
     7
370
    25
100
AcDbSpline
210
0.0
220
0.0
230
1.0
 70
     8
 71
     3
 72
     8
 73
     4
 74
     0
 42
0.000000001
 43
0.00000001
 40
0.0
 40
0.0
 40
0.0
 40
0.0
 40
1.0
 40
1.0
 40
1.0
 40
1.0
 10
90.60306566171154
 20
121.3668784770052
 30
0.0
 10
90.63207036813913
 20
121.4908162038675
 30
0.0
 10
90.65110288782056
 20
121.6187683341009
 30
0.0
 10
90.6593544800122
 20
121.7498376467924
 30
0.0
  0
LINE
  5
1E4
330
1F
100
AcDbEntity
  8
0
  6
Continuous
 62
     7
370
    25
100
AcDbLine
 10
86.8864477283
 20
123.364378477
 30
0.0
 11
84.1787896458
 21
123.364378477
 31
0.0
  0
LINE
  5
1E5
330
1F
100
AcDbEntity
  8
0
  6
Continuous
 62
     7
370
    25
100
AcDbLine
 10
103.6491047645
 20
117.3671518878
 30
0.0
 11
102.9991047645
 21
117.516878477
 31
0.0
  0
SPLINE
  5
1E6
330
1F
100
AcDbEntity
  8
0
  6
Continuous
 62
     7
370
    25
100
AcDbSpline
210
0.0
220
0.0
230
1.0
 70
     8
 71
     3
 72
    26
 73
    22
 74
     0
 42
0.000000001
 43
0.00000001
 40
0.0
 40
0.0
 40
0.0
 40
0.0
 40
0.0305951740572551
 40
0.062916628186826
 40
0.0969720532897527
 40
0.1327680143285485
 40
0.1703101548822845
 40
0.2096033578521455
 40
0.2506518729756868
 40
0.3342141733898285
 40
0.4179517165474627
 40
0.5018670561020883
 40
0.5659795686746655
 40
0.6277136397870229
 40
0.6871358192109112
 40
0.7443207393864916
 40
0.7993521466017587
 40
0.8523240127975784
 40
0.9033417028076491
 40
0.952523153763314
 40
0.9999999999999999
 40
0.9999999999999999
 40
0.9999999999999999
 40
0.9999999999999999
 10
102.9991047644791
 20
117.5168784770054
 30
0.0
 10
102.9981965526344
 20
117.5814136443926
 30
0.0
 10
102.996328884654
 20
117.7141252649859
 30
0.0
 10
102.9807362955924
 20
117.9169393565096
 30
0.0
 10
102.9540924344052
 20
118.1286523974099
 30
0.0
 10
102.9139380053268
 20
118.3483643907829
 30
0.0
 10
102.8590398886437
 20
118.5751112616541
 30
0.0
 10
102.7877969200319
 20
118.8077422654372
 30
0.0
 10
102.6693845257493
 20
119.1231405799139
 30
0.0
 10
102.4812536293414
 20
119.5076224784488
 30
0.0
 10
102.1972368661068
 20
119.9376500929784
 30
0.0
 10
101.8878189095571
 20
120.2961368053192
 30
0.0
 10
101.5719092987555
 20
120.5879034616086
 30
0.0
 10
101.2651638906322
 20
120.8203625484458
 30
0.0
 10
100.9467447768101
 20
121.0171727830098
 30
0.0
 10
100.620773900653
 20
121.1792734852681
 30
0.0
 10
100.2912350655278
 20
121.3077433687478
 30
0.0
 10
99.96167315068124
 20
121.4043271881207
 30
0.0
 10
99.63525482738198
 20
121.4701794174069
 30
0.0
 10
99.31473663507812
 20
121.5097443652324
 30
0.0
 10
99.10307112154733
 20
121.5145285634477
 30
0.0
 10
98.99910476447907
 20
121.5168784770054
 30
0.0
  0
SPLINE
  5
1E7
330
1F
100
AcDbEntity
  8
0
  6
Continuous
 62
     7
370
    25
100
AcDbSpline
210
0.0
220
0.0
230
1.0
 70
     8
 71
     3
 72
    13
 73
     9
 74
     0
 42
0.000000001
 43
0.00000001
 40
0.0
 40
0.0
 40
0.0
 40
0.0
 40
0.1604061687326152
 40
0.3231296684603721
 40
0.4883154213053191
 40
0.6561019685813868
 40
0.8266215117817601
 40
0.9999999999999999
 40
0.9999999999999999
 40
0.9999999999999999
 40
0.9999999999999999
 10
97.08423148518962
 20
121.5168784770054
 30
0.0
 10
97.02518153367352
 20
121.5161229069673
 30
0.0
 10
96.9062285569473
 20
121.5146008514391
 30
0.0
 10
96.72697492333981
 20
121.5021557923114
 30
0.0
 10
96.54604194165162
 20
121.4819716111804
 30
0.0
 10
96.36391344725342
 20
121.4528362450396
 30
0.0
 10
96.18074643946076
 20
121.4154200932206
 30
0.0
 10
96.06000712458787
 20
121.3831542208639
 30
0.0
 10
95.99913559300391
 20
121.3668871659257
 30
0.0
  0
SPLINE
  5
1E8
330
1F
100
AcDbEntity
  8
0
  6
Continuous
 62
     7
370
    25
100
AcDbSpline
210
0.0
220
0.0
230
1.0
 70
    24
 71
     3
 72
    10
 73
     6
 74
     0
 42
0.000000001
 43
0.00000001
 40
0.0
 40
0.0
 40
0.0
 40
0.0
 40
0.3216623556917544
 40
0.6548175346390315
 40
0.9999999999999999
 40
0.9999999999999999
 40
0.9999999999999999
 40
0.9999999999999999
 10
95.99928359938384
 20
121.3668784770054
 30
0.0
 10
95.93073769152656
 20
121.3668784770054
 30
0.0
 10
95.79119676732931
 20
121.3668784770054
 30
0.0
 10
95.58158835197878
 20
121.3668784770054
 30
0.0
 10
95.44191135682496
 20
121.3668784770054
 30
0.0
 10
95.37083458562415
 20
121.3668784770054
 30
0.0
  0
SPLINE
  5
1E9
330
1F
100
AcDbEntity
  8
0
  6
Continuous
 62
     7
370
    25
100
AcDbSpline
210
0.0
220
0.0
230
1.0
 70
     8
 71
     3
 72
     8
 73
     4
 74
     0
 42
0.000000001
 43
0.00000001
 40
0.0
 40
0.0
 40
0.0
 40
0.0
 40
1.0
 40
1.0
 40
1.0
 40
1.0
 10
96.08543488085675
 20
121.7453248261807
 30
0.0
 10
95.81613855080887
 20
121.6486354409882
 30
0.0
 10
95.57997786540193
 20
121.5206362716141
 30
0.0
 10
95.37078034922361
 20
121.3671596739735
 30
0.0
  0
LINE
  5
1EA
330
1F
100
AcDbEntity
  8
0
  6
Continuous
 62
     7
370
    25
100
AcDbLine
 10
95.3713260608
 20
105.241878477
 30
0.0
 11
95.5079968887
 21
105.241878477
 31
0.0
  0
LINE
  5
1EB
330
1F
100
AcDbEntity
  8
0
  6
Continuous
 62
     7
370
    25
100
AcDbLine
 10
98.9991047645
 20
121.516878477
 30
0.0
 11
97.0842314852
 21
121.516878477
 31
0.0
  0
LINE
  5
1EC
330
1F
100
AcDbEntity
  8
0
  6
Continuous
 62
     7
370
    25
100
AcDbLine
 10
95.3711929464
 20
121.366878477
 30
0.0
 11
90.6030656617
 21
121.366878477
 31
0.0
  0
LINE
  5
1ED
330
1F
100
AcDbEntity
  8
0
  6
Continuous
 62
     7
370
    25
100
AcDbLine
 10
102.9991047645
 20
113.304378477
 30
0.0
 11
102.9991047645
 21
117.516878477
 31
0.0
  0
LINE
  5
1EE
330
1F
100
AcDbEntity
  8
VERMASSUNG
  6
CENTERX2
100
AcDbLine
 10
234.9941047645
 20
113.304378477
 30
0.0
 11
67.0541047645
 21
113.304378477
 31
0.0
  0
HATCH
  5
1EF
330
1F
100
AcDbEntity
  8
0
  6
Continuous
 62
     7
370
    18
100
AcDbHatch
 10
0.0
 20
0.0
 30
0.0
210
0.0
220
0.0
230
1.0
  2
ANSI31
 70
     0
 71
     0
 91
        1
 92
        0
 93
       44
 72
     1
 10
129.024104764479
 20
142.1543784770054
 11
129.0241047644791
 21
142.251973741197
 72
     1
 10
129.0241047644791
 20
142.251973741197
 11
127.564906959909
 21
144.7793784770054
 72
     1
 10
127.564906959909
 20
144.7793784770054
 11
121.199104764479
 21
144.7793784770054
 72
     2
 10
121.199104764479
 20
144.5793784770053
 40
0.2000000000000028
 50
90.0
 51
180.0
 73
     1
 72
     1
 10
120.999104764479
 20
144.5793784770053
 11
120.999104764479
 21
140.1543784770054
 72
     1
 10
120.999104764479
 20
140.1543784770054
 11
121.3331434505077
 21
139.0949431166088
 72
     2
 10
120.5701698899091
 20
138.8543784770054
 40
0.8000000000000049
 50
342.4999999999978
 51
467.5000000000012
 73
     0
 72
     1
 10
120.3296052503057
 20
138.0914049164068
 11
119.8389227244483
 21
138.2461165225337
 72
     1
 10
119.8389227244483
 20
138.2461165225337
 11
106.5174494519288
 21
137.5771395495075
 72
     1
 10
106.5174478585302
 20
137.5771428585759
 11
105.8491177126007
 21
136.7680310361847
 72
     1
 10
105.8491177126007
 20
136.7680310361847
 11
105.8491047644791
 21
131.4106044977569
 72
     1
 10
105.8491078927128
 20
131.4106046226374
 11
106.475053906255
 21
130.9418797672974
 72
     1
 10
106.4750541545639
 20
130.9418784770054
 11
111.4991047644791
 21
130.9418784770054
 72
     1
 10
111.4991047644791
 20
130.9418784770054
 11
112.3743452380599
 21
131.4471988000329
 72
     2
 10
112.7743452380599
 20
130.7543784770054
 40
0.7999999999999937
 50
239.9999999999993
 51
270.0000000000008
 73
     0
 72
     1
 10
112.7743452380599
 20
131.5543784770053
 11
114.1991047644791
 21
131.5543784770053
 72
     2
 10
114.1991047644791
 20
130.7543784770054
 40
0.7999999999999977
 50
270.0000000000008
 51
360.0000000000008
 73
     0
 72
     1
 10
114.9991047644791
 20
130.7543784770054
 11
114.9991047644791
 21
128.8543784770054
 72
     1
 10
114.9991047644791
 20
128.8543784770054
 11
118.6991047644791
 21
128.8543784770054
 72
     2
 10
118.6991047644791
 20
127.6543784770054
 40
1.2
 50
270.0000000000008
 51
360.0000000000008
 73
     0
 72
     1
 10
119.8991047644791
 20
127.6543784770054
 11
119.8991047644791
 21
118.5353185846812
 72
     1
 10
119.8991047644791
 20
118.5353185846812
 11
120.2991047644791
 21
118.3043784770054
 72
     1
 10
120.2991047644791
 20
118.3043784770054
 11
123.7241047644791
 21
118.3043784770054
 72
     1
 10
123.7241047644791
 20
118.3043784770054
 11
123.7241047644791
 21
119.0543784770054
 72
     1
 10
123.7241047644791
 20
119.0543784770054
 11
124.5491047644791
 21
119.0543784770054
 72
     1
 10
124.5491047644791
 20
119.0543784770054
 11
124.5491047644791
 21
117.3043784770054
 72
     1
 10
124.5491047644791
 20
117.3043784770054
 11
174.9991047644791
 21
117.3043784770054
 72
     1
 10
174.9991047644791
 20
117.3043784770054
 11
174.9991047644791
 21
120.2043784770054
 72
     2
 10
175.3991047644791
 20
120.2043784770054
 40
0.3999999999999989
 50
180.0
 51
270.0000000000008
 73
     0
 72
     1
 10
175.3991047644791
 20
120.6043784770054
 11
178.1043307463593
 21
120.6043784770054
 72
     2
 10
178.1043307463593
 20
120.2043784770054
 40
0.3999999999999995
 50
270.0000000000008
 51
289.9999999999954
 73
     0
 72
     1
 10
178.2411388036896
 20
120.5802555253198
 11
178.9991047644791
 21
120.3043784770054
 72
     1
 10
178.9991047644791
 20
120.3043784770054
 11
193.8741047644783
 21
120.304378477006
 72
     1
 10
193.8741047644791
 20
120.3043784770054
 11
193.8741047644791
 21
135.1930515140918
 72
     1
 10
193.874106596375
 20
135.1930516401945
 11
193.0909877241195
 21
135.804377993344
 72
     1
 10
193.0909874736973
 20
135.8043784770054
 11
141.9991047644791
 21
135.8043784770054
 72
     2
 10
141.9991047644791
 20
138.8043784770054
 40
3.0
 50
90.0
 51
180.0
 73
     0
 72
     1
 10
138.9991047644791
 20
138.8043784770054
 11
138.9991047644791
 21
144.7793784770054
 72
     1
 10
138.9991047644791
 20
144.7793784770054
 11
134.2333025690491
 21
144.7793784770054
 72
     1
 10
134.2333025690491
 20
144.7793784770054
 11
132.774104764479
 21
142.251973741197
 72
     1
 10
132.774104764479
 20
142.251973741197
 11
132.774104764479
 21
142.1543784770054
 72
     2
 10
131.774104764479
 20
142.1543784770054
 40
1.000000000000003
 50
0.0
 51
90.0
 73
     0
 72
     1
 10
131.774104764479
 20
141.1543784770054
 11
130.024104764479
 21
141.1543784770054
 72
     2
 10
130.024104764479
 20
142.1543784770054
 40
1.000000000000003
 50
90.0
 51
180.0
 73
     0
 97
        0
 75
     0
 76
     1
 52
0.0
 41
1.0
 77
     0
 78
     1
 53
45.0
 43
0.0
 44
0.0
 45
-2.245064030267288
 46
2.245064030267288
 79
     0
 98
        1
 10
0.0
 20
0.0
  0
HATCH
  5
1F0
330
1F
100
AcDbEntity
  8
0
  6
Continuous
 62
     7
370
    18
100
AcDbHatch
 10
0.0
 20
0.0
 30
0.0
210
0.0
220
0.0
230
1.0
  2
ANSI31
 70
     0
 71
     0
 91
        1
 92
        0
 93
        8
 72
     1
 10
204.1241047644791
 20
120.3043784770054
 11
220.6991047644791
 21
120.3043784770055
 72
     2
 10
220.6991047644791
 20
120.6043784770054
 40
0.2999999999999973
 50
270.0000000000008
 51
360.0000000000008
 73
     1
 72
     1
 10
220.9991047644791
 20
120.6043784770054
 11
220.9991047644791
 21
128.0302379553904
 72
     2
 10
218.9991047644791
 20
128.0302379553904
 40
1.999999999999998
 50
0.0
 51
65.00000000000031
 73
     1
 72
     1
 10
219.8443412879604
 20
129.8428535294638
 11
207.059809781167
 21
135.8043784770054
 72
     1
 10
207.059809781167
 20
135.8043784770054
 11
204.9072214018978
 21
135.8043784770054
 72
     1
 10
204.9072215786926
 20
135.8043779119334
 11
204.1241027363956
 21
135.1930515609836
 72
     1
 10
204.1241047644791
 20
135.1930515887494
 11
204.1241047644791
 21
120.3043784770054
 97
        0
 75
     0
 76
     1
 52
0.0
 41
1.0
 77
     0
 78
     1
 53
45.0
 43
0.0
 44
0.0
 45
-2.245064030267288
 46
2.245064030267288
 79
     0
 98
        1
 10
0.0
 20
0.0
  0
HATCH
  5
1F1
330
1F
100
AcDbEntity
  8
0
  6
Continuous
 62
     7
370
    18
100
AcDbHatch
 10
0.0
 20
0.0
 30
0.0
210
0.0
220
0.0
230
1.0
  2
ANSI31
 70
     0
 71
     0
 91
        1
 92
        0
 93
        9
 72
     1
 10
91.34913289506721
 20
135.9686528488883
 11
90.59954291613151
 21
136.7777641866558
 72
     1
 10
90.59954291613151
 20
136.7777641866558
 11
82.54910476447907
 21
136.3734986045877
 72
     1
 10
82.54910476447907
 20
136.3734986045877
 11
81.04910476447904
 21
135.5074732008033
 72
     1
 10
81.04910476447904
 20
135.5074732008033
 11
81.04910476447905
 21
133.5418784770053
 72
     1
 10
81.04910476447905
 20
133.5418784770053
 11
81.80077081431861
 21
132.2399546883587
 72
     1
 10
81.80077081431861
 20
132.2399546883587
 11
84.04910476447907
 21
130.9418784770053
 72
     1
 10
84.04910476447907
 20
130.9418784770053
 11
87.919104609188
 21
130.9418784770054
 72
     1
 10
87.919104609188
 20
130.9418784770054
 11
91.34910476447905
 21
135.8404263619093
 72
     1
 10
91.34910476447905
 20
135.8404263619093
 11
91.34910476447905
 21
135.968651735395
 97
        0
 75
     0
 76
     1
 52
0.0
 41
1.0
 77
     0
 78
     1
 53
45.0
 43
0.0
 44
0.0
 45
-2.245064030267288
 46
2.245064030267288
 79
     0
 98
        1
 10
0.0
 20
0.0
  0
HATCH
  5
1F2
330
1F
100
AcDbEntity
  8
0
  6
Continuous
 62
     7
370
    18
100
AcDbHatch
 10
0.0
 20
0.0
 30
0.0
210
0.0
220
0.0
230
1.0
  2
ANSI31
 70
     0
 71
     0
 91
        1
 92
        0
 93
       15
 72
     1
 10
194.9991047644791
 20
119.3043784770054
 11
196.2491047644791
 21
119.3043784770054
 72
     1
 10
196.2491047644791
 20
119.3043784770054
 11
198.9991047644791
 21
120.8920917172769
 72
     1
 10
198.9991047644791
 20
120.8920917172769
 11
201.7491047644791
 21
119.3043784770054
 72
     1
 10
201.7491047644791
 20
119.3043784770054
 11
202.9991047644791
 21
119.3043784770054
 72
     1
 10
202.9991047644791
 20
119.3043784770054
 11
204.9991047644791
 21
121.3043784770054
 72
     1
 10
204.9991047644791
 20
121.3043784770054
 11
204.9991047644791
 21
134.9043784770055
 72
     1
 10
204.9991047644791
 20
134.9043784770055
 11
204.0991047644791
 21
135.8043784770054
 72
     1
 10
204.0991047644791
 20
135.8043784770054
 11
201.9991047644791
 21
135.8043784770054
 72
     1
 10
201.9991047644791
 20
135.8043784770054
 11
201.9991047644791
 21
127.8043784770054
 72
     1
 10
201.9991047644791
 20
127.8043784770054
 11
195.9991047644791
 21
127.8043784770054
 72
     1
 10
195.9991047644791
 20
127.8043784770054
 11
195.9991047644791
 21
135.8043784770054
 72
     1
 10
195.9991047644791
 20
135.8043784770054
 11
193.8991047644791
 21
135.8043784770054
 72
     1
 10
193.8991047644791
 20
135.8043784770054
 11
192.9991047644791
 21
134.9043784770054
 72
     1
 10
192.9991047644791
 20
134.9043784770054
 11
192.9991047644791
 21
121.3043784770054
 72
     1
 10
192.9991047644791
 20
121.3043784770054
 11
194.9991047644791
 21
119.3043784770054
 97
        0
 75
     0
 76
     1
 52
0.0
 41
1.0
 77
     0
 78
     1
 53
45.0
 43
0.0
 44
0.0
 45
-2.245064030267288
 46
2.245064030267288
 79
     0
 98
        1
 10
0.0
 20
0.0
  0
DIMENSION
  5
1F3
330
1F
100
AcDbEntity
  8
VERMASSUNG
100
AcDbDimension
  2
_D
 10
247.7257962356
 20
106.304378477
 30
0.0
 11
247.7257962356
 21
113.304378477
 31
0.0
 70
   160
  1
%%c<>
 71
     2
 42
-1.0
  3
SLDDIMSTYLE0
100
AcDbAlignedDimension
 13
193.8741047645
 23
120.304378477
 33
0.0
 14
220.6991047645
 24
106.304378477
 34
0.0
 50
90.0
100
AcDbRotatedDimension
  0
DIMENSION
  5
1FD
330
1F
100
AcDbEntity
  8
VERMASSUNG
100
AcDbDimension
  2
_D_1
 10
257.5332032744
 20
90.804378477
 30
0.0
 11
257.5332032744
 21
113.304378477
 31
0.0
 70
   160
  1
%%c<>
 71
     2
 42
-1.0
  3
SLDDIMSTYLE1
100
AcDbAlignedDimension
 13
207.0598097812
 23
135.804378477
 33
0.0
 14
207.0598097812
 24
90.804378477
 34
0.0
 50
90.0
100
AcDbRotatedDimension
  0
DIMENSION
  5
209
330
1F
100
AcDbEntity
  8
VERMASSUNG
100
AcDbDimension
  2
_D_2
 10
59.0490797645
 20
81.829378477
 30
0.0
 11
59.0490797645
 21
113.304378477
 31
0.0
 70
   160
  1
KM%%c<> XMZ
 71
     2
 42
-1.0
  3
SLDDIMSTYLE2
100
AcDbAlignedDimension
 13
134.233302569
 23
144.779378477
 33
0.0
 14
134.233302569
 24
81.829378477
 34
0.0
 50
90.0
100
AcDbRotatedDimension
  0
DIMENSION
  5
217
330
1F
100
AcDbEntity
  8
VERMASSUNG
100
AcDbDimension
  2
_D_3
 10
220.9991047645
 20
151.0699923147
 30
0.0
 11
179.9991047645
 21
151.0699923147
 31
0.0
 70
   160
  1
<>
 71
     2
 42
-1.0
  3
SLDDIMSTYLE1
100
AcDbAlignedDimension
 13
138.9991047645
 23
144.779378477
 33
0.0
 14
220.9991047645
 24
128.0302379554
 34
0.0
 50
0.0
100
AcDbRotatedDimension
  0
DIMENSION
  5
221
330
1F
100
AcDbEntity
  8
VERMASSUNG
100
AcDbDimension
  2
_D_4
 10
220.9991047645
 20
160.779378477
 30
0.0
 11
170.9991047645
 21
160.779378477
 31
0.0
 70
   160
  1
<>
 71
     2
 42
-1.0
  3
SLDDIMSTYLE1
100
AcDbAlignedDimension
 13
120.9991047645
 23
144.579378477
 33
0.0
 14
220.9991047645
 24
128.0302379554
 34
0.0
 50
0.0
100
AcDbRotatedDimension
  0
DIMENSION
  5
22B
330
1F
100
AcDbEntity
  8
VERMASSUNG
100
AcDbDimension
  2
_D_5
 10
220.9991047645
 20
169.8575677069
 30
0.0
 11
151.0241047645
 21
169.8575677069
 31
0.0
 70
   160
  1
<>
 71
     2
 42
-1.0
  3
SLDDIMSTYLE1
100
AcDbAlignedDimension
 13
81.0491047645
 23
135.5074732008
 33
0.0
 14
220.9991047645
 24
128.0302379554
 34
0.0
 50
0.0
100
AcDbRotatedDimension
  0
LINE
  5
235
330
1F
100
AcDbEntity
  8
VERMASSUNG
  6
CENTERX2
370
    18
100
AcDbLine
 10
198.9991047645
 20
117.304378477
 30
0.0
 11
198.9991047645
 21
137.804378477
 31
0.0
  0
LINE
  5
236
330
1F
100
AcDbEntity
  8
0
  6
Continuous
 62
     7
370
    25
100
AcDbLine
 10
268.3905407194
 20
23.5895162932
 30
0.0
 11
273.8259570841
 21
23.7009992176
 31
0.0
  0
LINE
  5
237
330
1F
100
AcDbEntity
  8
0
  6
Continuous
 62
     7
370
    25
100
AcDbLine
 10
281.6320299677
 20
37.2229791943
 30
0.0
 11
279.0104218949
 21
41.9856833225
 31
0.0
  0
SPLINE
  5
238
330
1F
100
AcDbEntity
  8
0
  6
Continuous
 62
     7
370
    25
100
AcDbSpline
210
0.0
220
0.0
230
1.0
 70
     8
 71
     3
 72
    28
 73
    24
 74
     0
 42
0.000000001
 43
0.00000001
 40
0.0
 40
0.0
 40
0.0
 40
0.0
 40
0.0209264607189919
 40
0.0675962124462226
 40
0.115411183984536
 40
0.1641058985608252
 40
0.2132991290424651
 40
0.2626519319330136
 40
0.3119413888901306
 40
0.3611113539782645
 40
0.4101634851343725
 40
0.4591281696872466
 40
0.5080487166225618
 40
0.5569740420379236
 40
0.6059440375309807
 40
0.6550060926748245
 40
0.7042128333478336
 40
0.753612524705609
 40
0.803238940814372
 40
0.8530894389493214
 40
0.9030717069446664
 40
0.9528750703981851
 40
1.0
 40
1.0
 40
1.0
 40
1.0
 10
273.8774428490617
 20
23.7149448834625
 30
0.0
 10
273.978480400817
 20
23.71544610494414
 30
0.0
 10
274.3048497714056
 20
23.71706514001226
 30
0.0
 10
274.8749978248803
 20
23.83113213112317
 30
0.0
 10
275.5822723571526
 20
24.05119529246648
 30
0.0
 10
276.2998606179329
 20
24.38005953173576
 30
0.0
 10
277.0154649935191
 20
24.80551217032612
 30
0.0
 10
277.7178403320585
 20
25.32239021193062
 30
0.0
 10
278.3965349101736
 20
25.92113574467896
 30
0.0
 10
279.0426567385432
 20
26.59234564866254
 30
0.0
 10
279.6484549806477
 20
27.32635105038598
 30
0.0
 10
280.2067778958458
 20
28.11325536741448
 30
0.0
 10
280.7109499275345
 20
28.94285671720198
 30
0.0
 10
281.1547253146241
 20
29.80463274060537
 30
0.0
 10
281.5323541498323
 20
30.68784754639733
 30
0.0
 10
281.8386374227758
 20
31.58171829627477
 30
0.0
 10
282.0689019773693
 20
32.47559947908743
 30
0.0
 10
282.2189794268618
 20
33.35907931669364
 30
0.0
 10
282.284788880648
 20
34.2216628005996
 30
0.0
 10
282.2633900056443
 20
35.05329117229638
 30
0.0
 10
282.1490348628637
 20
35.84011238219423
 30
0.0
 10
281.9525867809404
 20
36.5660851507788
 30
0.0
 10
281.7443625619661
 20
36.99114299178098
 30
0.0
 10
281.6431273977921
 20
37.19779906920197
 30
0.0
  0
LINE
  5
239
330
1F
100
AcDbEntity
  8
0
  6
Continuous
 62
     7
370
    25
100
AcDbLine
 10
243.2184767847
 20
37.394457271
 30
0.0
 11
266.2209096377
 21
24.1154354369
 31
0.0
  0
LINE
  5
23A
330
1F
100
AcDbEntity
  8
0
  6
Continuous
 62
     7
370
    25
100
AcDbLine
 10
277.4699953799
 20
43.6015348405
 30
0.0
 11
254.4675625269
 21
56.8805566746
 31
0.0
  0
LINE
  5
23B
330
1F
100
AcDbEntity
  8
0
  6
Continuous
 62
     7
370
    25
100
AcDbLine
 10
238.2292834315
 20
35.0930789779
 30
0.0
 11
239.9142489566
 21
34.120369085
 31
0.0
  0
LINE
  5
23C
330
1F
100
AcDbEntity
  8
0
  6
Continuous
 62
     7
370
    25
100
AcDbLine
 10
255.6504700114
 20
61.3792570284
 30
0.0
 11
253.9655044863
 21
62.3519669213
 31
0.0
  0
LINE
  5
23D
330
1F
100
AcDbEntity
  8
0
  6
Continuous
 62
     7
370
    25
100
AcDbLine
 10
233.620998604
 20
37.7533851826
 30
0.0
 11
235.871649554
 21
36.4541120449
 31
0.0
  0
LINE
  5
23E
330
1F
100
AcDbEntity
  8
0
  6
Continuous
 62
     7
370
    25
100
AcDbLine
 10
251.6078706089
 20
63.7129999884
 30
0.0
 11
249.3572196589
 21
65.012273126
 31
0.0
  0
LINE
  5
23F
330
1F
100
AcDbEntity
  8
0
  6
Continuous
 62
     7
370
    25
100
AcDbLine
 10
242.579830786
 20
64.7921551614
 30
0.0
 11
233.3826182294
 21
69.3728078205
 31
0.0
  0
LINE
  5
240
330
1F
100
AcDbEntity
  8
0
  6
Continuous
 62
     7
370
    25
100
AcDbLine
 10
221.8562705178
 20
49.406424559
 30
0.0
 11
230.42237083
 21
43.732534973
 31
0.0
  0
LINE
  5
241
330
1F
100
AcDbEntity
  8
0
  6
Continuous
 62
     7
370
    25
100
AcDbLine
 10
226.8357080662
 20
50.3529145966
 30
0.0
 11
226.8357080662
 21
49.9875955799
 31
0.0
  0
LINE
  5
242
330
1F
100
AcDbEntity
  8
0
  6
Continuous
 62
     7
370
    25
100
AcDbLine
 10
230.7336745671
 20
69.7497762942
 30
0.0
 11
230.0941241146
 21
69.6625652288
 31
0.0
  0
LINE
  5
243
330
1F
100
AcDbEntity
  8
0
  6
Continuous
 62
     7
370
    25
100
AcDbLine
 10
273.8697022077
 20
23.7021539715
 30
0.0
 11
273.8259570841
 21
23.7009992176
 31
0.0
  0
LWPOLYLINE
  5
244
330
1F
100
AcDbEntity
  8
0
  6
Continuous
 62
     7
370
    25
100
AcDbPolyline
 90
       27
 70
   128
 43
0.0
 10
263.8905012205
 20
29.2661895097
 10
263.9355676088
 20
30.2686266839
 10
264.0702561537
 20
31.3117383889
 10
264.2930407802
 20
32.3837057522
 10
264.6013972493
 20
33.4723829552
 10
264.9918317591
 20
34.5654348503
 10
265.4599205305
 20
35.6504767226
 10
266.0003599308
 20
36.7152146143
 10
266.6070265655
 20
37.7475846194
 10
267.2730466594
 20
38.7358895735
 10
267.9908739386
 20
39.6689315864
 10
268.7523751332
 20
40.5361389193
 10
269.5489221304
 20
41.3276857667
 10
270.3714897344
 20
42.0346035863
 10
271.2107579257
 20
42.648882717
 10
272.0572174601
 20
43.1635631306
 10
272.9012776131
 20
43.5728132925
 10
273.7333748457
 20
43.8719962347
 10
274.5440811639
 20
44.057722095
 10
275.3242109411
 20
44.1278865252
 10
276.0649249952
 20
44.0816945342
 10
276.7578307401
 20
43.9196694958
 10
277.3950772767
 20
43.6436472184
 10
277.9694443471
 20
43.2567551447
 10
278.474424143
 20
42.7633769164
 10
278.9042950415
 20
42.1691027061
 10
279.0104218949
 20
41.9856833225
  0
LWPOLYLINE
  5
245
330
1F
100
AcDbEntity
  8
0
  6
Continuous
 62
     7
370
    25
100
AcDbPolyline
 90
       12
 70
   128
 43
0.0
 10
268.3905407194
 20
23.5895162932
 10
267.9908739386
 20
23.5976370033
 10
267.2730466594
 20
23.7018932808
 10
266.6070265655
 20
23.9212278025
 10
266.0003599308
 20
24.2531554205
 10
265.4599205305
 20
24.6939152623
 10
264.9918317591
 20
25.2385133428
 10
264.6013972493
 20
25.8807791482
 10
264.2930407802
 20
26.6134355501
 10
264.0702561537
 20
27.4281812588
 10
263.9355676088
 20
28.3157848799
 10
263.8905012205
 20
29.2661895097
  0
LWPOLYLINE
  5
246
330
1F
100
AcDbEntity
  8
0
  6
Continuous
 62
     7
370
    25
100
AcDbPolyline
 90
       12
 70
   128
 43
0.0
 10
274.1927977613
 20
29.5235019603
 10
274.2394387049
 20
30.1144666851
 10
274.3776758105
 20
30.7379228923
 10
274.6025128288
 20
31.3713372501
 10
274.9058235643
 20
31.9918165132
 10
275.2766455767
 20
32.5769349445
 10
275.7015763923
 20
33.1055448394
 10
276.1652579043
 20
33.5585408589
 10
276.6509314547
 20
33.9195505467
 10
277.141043536
 20
34.1755260719
 10
277.6178802206
 20
34.3172158123
 10
277.9775782351
 20
34.3447152771
  0
ARC
  5
247
330
1F
100
AcDbEntity
  8
0
  6
Continuous
 62
     7
370
    25
100
AcDbCircle
 10
274.0455168067
 20
32.5715032934
 30
0.0
 40
5.284810106469883
100
AcDbArc
 50
297.7803966442
 51
4.9246992663
  0
LWPOLYLINE
  5
248
330
1F
100
AcDbEntity
  8
0
  6
Continuous
 62
     7
370
    25
100
AcDbPolyline
 90
       26
 70
   128
 43
0.0
 10
276.7197373985
 20
33.9619947142
 10
277.0198827507
 20
34.1068082156
 10
277.4771234072
 20
34.24267509
 10
277.9051083625
 20
34.2640422727
 10
278.2883691254
 20
34.1701374981
 10
278.6130536533
 20
33.9643547294
 10
278.8674270013
 20
33.6541314921
 10
279.042295454
 20
33.2506800622
 10
279.1313388097
 20
32.7685822256
 10
279.1313388097
 20
32.2252622542
 10
279.042295454
 20
31.6403571473
 10
278.8674270013
 20
31.0350068996
 10
278.6130536533
 20
30.4310904461
 10
278.2883691254
 20
29.8504349009
 10
277.9051083625
 20
29.3140266684
 10
277.4771234072
 20
28.8412529398
 10
277.0198827507
 20
28.4492009892
 10
276.5499122618
 20
28.1520405958
 10
276.0841978984
 20
27.9605119103
 10
275.639571791
 20
27.8815372785
 10
275.2321038857
 20
27.9179710494
 10
274.8765211341
 20
28.0684964115
 10
274.5856752233
 20
28.3276729861
 10
274.3700780824
 20
28.6861334565
 10
274.2375219538
 20
29.1309221273
 10
274.1933539926
 20
29.5856961267
  0
LWPOLYLINE
  5
249
330
1F
100
AcDbEntity
  8
0
  6
Continuous
 62
     7
370
    25
100
AcDbPolyline
 90
       36
 70
   128
 43
0.0
 10
236.6542665151
 20
41.3257017268
 10
236.6990649458
 20
42.50345631
 10
236.8330995472
 20
43.7234514729
 10
237.0552911516
 20
44.9758645319
 10
237.3638508028
 20
46.2506117933
 10
237.7562941599
 20
47.5374297418
 10
238.2294614997
 20
48.8259576758
 10
238.7795431572
 20
50.1058211261
 10
239.4021101981
 20
51.3667153848
 10
240.0921500787
 20
52.5984884726
 10
240.8441070037
 20
53.791222877
 10
241.6519266581
 20
54.9353154017
 10
242.5091049529
 20
56.0215544866
 10
243.4087403926
 20
57.0411943732
 10
244.3435896416
 20
57.9860255207
 10
245.3061258434
 20
58.8484407042
 10
246.2885992225
 20
59.6214962638
 10
247.2830994808
 20
60.2989680107
 10
248.2816194872
 20
60.8754013406
 10
249.2761197455
 20
61.3461551514
 10
250.2585931246
 20
61.7074392102
 10
251.2211293264
 20
61.9563446701
 10
252.1559785754
 20
62.0908674908
 10
253.0556140151
 20
62.1099245736
 10
253.9127923099
 20
62.013362482
 10
254.7206119643
 20
61.8019586774
 10
255.4725688893
 20
61.4774152587
 10
256.1626087699
 20
61.0423452587
 10
256.7851758108
 20
60.5002516054
 10
257.3352574683
 20
59.855498918
 10
257.8084248081
 20
59.1132783661
 10
258.2008681652
 20
58.2795658731
 10
258.5094278164
 20
57.3610740019
 10
258.7316194208
 20
56.3651979088
 10
258.8656540222
 20
55.2999558027
 10
258.9097672782
 20
54.3161264571
  0
LWPOLYLINE
  5
24A
330
1F
100
AcDbEntity
  8
0
  6
Continuous
 62
     7
370
    25
100
AcDbPolyline
 90
       19
 70
   128
 43
0.0
 10
247.660681536
 20
34.8300270535
 10
247.2830994808
 20
34.6242247728
 10
246.2885992225
 20
34.153470962
 10
245.3061258434
 20
33.7921869032
 10
244.3435896416
 20
33.5432814433
 10
243.4087403926
 20
33.4087586226
 10
242.5091049529
 20
33.3897015398
 10
241.6519266581
 20
33.4862636314
 10
240.8441070037
 20
33.697667436
 10
240.0921500787
 20
34.0222108547
 10
239.4021101981
 20
34.4572808546
 10
238.7795431572
 20
34.999374508
 10
238.2294614997
 20
35.6441271954
 10
237.7562941599
 20
36.3863477473
 10
237.3638508028
 20
37.2200602402
 10
237.0552911516
 20
38.1385521115
 10
236.8330995472
 20
39.1344282046
 10
236.6990649458
 20
40.1996703107
 10
236.6542665151
 20
41.3257017268
  0
SPLINE
  5
24B
330
1F
100
AcDbEntity
  8
0
  6
Continuous
 62
     7
370
    25
100
AcDbSpline
210
0.0
220
0.0
230
1.0
 70
     8
 71
     3
 72
    25
 73
    21
 74
     0
 42
0.000000001
 43
0.00000001
 40
0.0
 40
0.0
 40
0.0
 40
0.0
 40
0.1249999999999998
 40
0.1249999999999998
 40
0.2499999999999997
 40
0.2499999999999997
 40
0.3749999999999995
 40
0.3749999999999995
 40
0.4999999999999993
 40
0.4999999999999993
 40
0.5624999999999996
 40
0.5624999999999996
 40
0.6249999999999998
 40
0.6875000000000001
 40
0.6875000000000001
 40
0.7500000000000003
 40
0.7500000000000003
 40
0.8750000000000001
 40
0.8750000000000001
 40
1.0
 40
1.0
 40
1.0
 40
1.0
 10
241.4878553601431
 20
57.75751632236167
 30
0.0
 10
241.5169786584042
 20
57.64633080183249
 30
0.0
 10
241.5293676992634
 20
57.53108858940446
 30
0.0
 10
241.5223902141632
 20
57.29199302156866
 30
0.0
 10
241.5023726263111
 20
57.1672190516934
 30
0.0
 10
241.4321504685979
 20
56.92085014248098
 30
0.0
 10
241.3814998140042
 20
56.79663899511986
 30
0.0
 10
241.251585070349
 20
56.55301049980969
 30
0.0
 10
241.1738841223598
 20
56.43595340475153
 30
0.0
 10
241.0385105401336
 20
56.26729688690149
 30
0.0
 10
240.9898760428265
 20
56.21192986562933
 30
0.0
 10
240.8884367074445
 20
56.10621005423231
 30
0.0
 10
240.7825667247038
 20
56.00504909561187
 30
0.0
 10
240.6679749323763
 20
55.91287477393507
 30
0.0
 10
240.5488922631581
 20
55.82533793119496
 30
0.0
 10
240.4869342501007
 20
55.78383946168276
 30
0.0
 10
240.2990705465801
 20
55.66971913994467
 30
0.0
 10
240.1696931102261
 20
55.60611170883006
 30
0.0
 10
239.902009857164
 20
55.50484340785584
 30
0.0
 10
239.766138170699
 20
55.46830249963104
 30
0.0
 10
239.6306209039714
 20
55.44713431528098
 30
0.0
  0
LWPOLYLINE
  5
24C
330
1F
100
AcDbEntity
  8
0
  6
Continuous
 62
     7
370
    25
100
AcDbPolyline
 90
       15
 70
   128
 43
0.0
 10
241.4878553601
 20
57.7575163224
 10
242.4388581737
 20
58.7464767295
 10
243.4208690287
 20
59.6504787838
 10
244.4255648595
 20
60.4618605857
 10
245.4444303334
 20
61.1737452419
 10
246.4688300222
 20
61.7800991504
 10
247.4900815922
 20
62.2757831385
 10
248.499529392
 20
62.6565960202
 10
249.4886178133
 20
62.9193102031
 10
250.4489638042
 20
63.0616990445
 10
251.3724279205
 20
63.0825557231
 10
252.2511833114
 20
62.9817034674
 10
253.0777820564
 20
62.759997054
 10
253.8452182905
 20
62.419315563
 10
253.9655044863
 20
62.3519669213
  0
LWPOLYLINE
  5
24D
330
1F
100
AcDbEntity
  8
0
  6
Continuous
 62
     7
370
    25
100
AcDbPolyline
 90
       21
 70
   128
 43
0.0
 10
238.2292834315
 20
35.0930789779
 10
238.2256356943
 20
35.0951867249
 10
237.5408995746
 20
35.567016662
 10
236.9275208546
 20
36.1485577353
 10
236.3906148431
 20
36.834960148
 10
235.9346591
 20
37.620499606
 10
235.5634560958
 20
38.4986250556
 10
235.2801015002
 20
39.4620133169
 10
235.0869583658
 20
40.5026301554
 10
234.9856374216
 20
41.6117972844
 10
234.9769836396
 20
42.7802647379
 10
235.0610691885
 20
43.9982880113
 10
235.2371928318
 20
45.2557093263
 10
235.5038857758
 20
46.542042342
 10
235.8589239188
 20
47.8465596069
 10
236.2993463986
 20
49.1583820209
 10
236.8214802856
 20
50.4665695619
 10
237.4209712128
 20
51.7602125212
 10
238.0928196894
 20
53.0285224856
 10
238.8314227949
 20
54.2609223078
 10
239.630620904
 20
55.4471343153
  0
LWPOLYLINE
  5
24E
330
1F
100
AcDbEntity
  8
0
  6
Continuous
 62
     7
370
    25
100
AcDbPolyline
 90
       12
 70
   128
 43
0.0
 10
239.8252341154
 20
57.8817931618
 10
240.7408132092
 20
58.8562744058
 10
241.6895259074
 20
59.745249952
 10
242.6624289379
 20
60.5403396552
 10
243.6503509921
 20
61.2340484078
 10
244.6439791814
 20
61.8198367946
 10
245.6339468265
 20
62.2921827382
 10
246.6109217554
 20
62.6466335539
 10
247.565694275
 20
62.8798479245
 10
248.4892639886
 20
62.9896273977
 10
249.3729246404
 20
62.9749371104
 10
249.6257846206
 20
62.9466795694
  0
SPLINE
  5
24F
330
1F
100
AcDbEntity
  8
0
  6
Continuous
 62
     7
370
    25
100
AcDbSpline
210
0.0
220
0.0
230
1.0
 70
     8
 71
     3
 72
    26
 73
    22
 74
     0
 42
0.000000001
 43
0.00000001
 40
0.0
 40
0.0
 40
0.0
 40
0.0
 40
0.1250000000000009
 40
0.1250000000000009
 40
0.2500000000000019
 40
0.2500000000000019
 40
0.3125000000000011
 40
0.3125000000000011
 40
0.3750000000000004
 40
0.3750000000000004
 40
0.4375000000000002
 40
0.4375000000000002
 40
0.5000000000000001
 40
0.5000000000000001
 40
0.5625
 40
0.5625
 40
0.6249999999999999
 40
0.6249999999999999
 40
0.7500000000000001
 40
0.7500000000000001
 40
1.0
 40
1.0
 40
1.0
 40
1.0
 10
238.4810408745156
 20
56.2096295492365
 30
0.0
 10
238.4574032782836
 20
56.31920540880948
 30
0.0
 10
238.4398354994018
 20
56.43009466717402
 30
0.0
 10
238.4210229165323
 20
56.65542462703696
 30
0.0
 10
238.4198431417649
 20
56.77110154035533
 30
0.0
 10
238.4359411450003
 20
56.94245705021489
 30
0.0
 10
238.4442598621006
 20
56.99925556230906
 30
0.0
 10
238.4680170113575
 20
57.11208177470614
 30
0.0
 10
238.4836393904066
 20
57.16853462837229
 30
0.0
 10
238.5224966028036
 20
57.2771177447809
 30
0.0
 10
238.545722559506
 20
57.32949770500643
 30
0.0
 10
238.6007212089844
 20
57.42995448027855
 30
0.0
 10
238.6327994760071
 20
57.47823334805
 30
0.0
 10
238.7032142245421
 20
57.56593032363373
 30
0.0
 10
238.7417926466688
 20
57.60591945160969
 30
0.0
 10
238.825500910265
 20
57.67839813572528
 30
0.0
 10
238.8706296202069
 20
57.7107347601019
 30
0.0
 10
239.009910262397
 20
57.79393452745554
 30
0.0
 10
239.1106993339586
 20
57.83276325009164
 30
0.0
 10
239.4137716051913
 20
57.90817953754681
 30
0.0
 10
239.6222956956763
 20
57.90804939117605
 30
0.0
 10
239.8252341153668
 20
57.88179316184983
 30
0.0
  0
LWPOLYLINE
  5
250
330
1F
100
AcDbEntity
  8
0
  6
Continuous
 62
     7
370
    25
100
AcDbPolyline
 90
       17
 70
   128
 43
0.0
 10
235.5440624798
 20
38.5537783419
 10
235.1103798738
 20
39.2007428716
 10
234.7128729446
 20
40.0056475859
 10
234.4028612792
 20
40.9002232275
 10
234.1831872905
 20
41.8762676753
 10
234.0558651095
 20
42.9248318426
 10
234.0220621187
 20
44.0363017294
 10
234.0820882487
 20
45.2004865701
 10
234.2353931361
 20
46.40671227
 10
234.4805711701
 20
47.6439192731
 10
234.8153743797
 20
48.9007639645
 10
235.2367330454
 20
50.1657226763
 10
235.7407838439
 20
51.4271973457
 10
236.3229052703
 20
52.6736218539
 10
236.9777600112
 20
53.893568073
 10
237.6993438815
 20
55.0758506474
 10
238.4810408745
 20
56.2096295492
  0
LINE
  5
251
330
1F
100
AcDbEntity
  8
0
  6
Continuous
 62
     7
370
    25
100
AcDbLine
 10
237.0056489049
 20
35.9657086935
 30
0.0
 11
237.1263258298
 21
36.0227404007
 31
0.0
  0
LWPOLYLINE
  5
252
330
1F
100
AcDbEntity
  8
0
  6
Continuous
 62
     7
370
    25
100
AcDbPolyline
 90
       40
 70
   128
 43
0.0
 10
237.0056489049
 20
35.9657086935
 10
236.2371023607
 20
36.2618845755
 10
235.5292117419
 20
36.6698030297
 10
234.8877000554
 20
37.186166202
 10
234.3177536612
 20
37.8067995068
 10
233.8239803433
 20
38.5266853774
 10
233.4103720575
 20
39.3400038301
 10
233.0802726579
 20
40.2401795172
 10
232.8363508635
 20
41.2199348858
 10
232.6805786824
 20
42.2713490136
 10
232.6142154691
 20
43.3859216464
 10
232.6377977431
 20
44.5546419195
 10
232.7511348514
 20
45.7680612065
 10
232.9533105096
 20
47.0163695076
 10
233.2426902102
 20
48.2894747598
 10
233.6169344363
 20
49.5770844266
 10
234.0730175761
 20
50.8687887096
 10
234.6072523836
 20
52.1541447068
 10
235.2153197885
 20
53.4227608394
 10
235.8923038138
 20
54.664380864
 10
236.6327313201
 20
55.8689667894
 10
237.4306162533
 20
57.02678003
 10
238.2795080392
 20
58.1284601383
 10
239.1725437343
 20
59.1651004803
 10
240.1025035094
 20
60.1283202419
 10
241.0618690194
 20
61.0103321845
 10
242.0428841856
 20
61.8040056016
 10
243.0376179009
 20
62.5029239675
 10
244.0380281492
 20
63.1014368124
 10
245.0360270218
 20
63.5947054043
 10
246.0235461053
 20
63.978741868
 10
246.9926017109
 20
64.2504414254
 10
247.9353594196
 20
64.4076074965
 10
248.8441974201
 20
64.4489694577
 10
249.7117681281
 20
64.3741929145
 10
250.5310575885
 20
64.1838824047
 10
251.2954421804
 20
63.879576511
 10
251.9987421663
 20
63.4637354225
 10
252.6352716531
 20
62.9397210446
 10
252.6979089661
 20
62.878697778
  0
LWPOLYLINE
  5
253
330
1F
100
AcDbEntity
  8
0
  6
Continuous
 62
     7
370
    25
100
AcDbPolyline
 90
       26
 70
   128
 43
0.0
 10
230.3610161625
 20
45.0403586356
 10
230.4055299328
 20
46.2106294724
 10
230.538712845
 20
47.4228724818
 10
230.7594925885
 20
48.6673273958
 10
231.0660915747
 20
49.9339745952
 10
231.4560412488
 20
51.2126157815
 10
231.9262019654
 20
52.4929560877
 10
232.4727882668
 20
53.7646869664
 10
233.0913993614
 20
55.0175691885
 10
233.7770545566
 20
56.2415152829
 10
234.5242333598
 20
57.4266707554
 10
235.3269199266
 20
58.5634934309
 10
236.1786514967
 20
59.6428302818
 10
237.0725704285
 20
60.6559911222
 10
238.0014794122
 20
61.5948185769
 10
238.9578994189
 20
62.4517537593
 10
239.934129917
 20
63.2198971311
 10
240.9223108727
 20
63.8930640535
 10
241.9144860339
 20
64.4658345823
 10
242.9026669896
 20
64.9335971059
 10
243.8788974878
 20
65.2925854757
 10
244.8353174945
 20
65.5399093283
 10
245.7642264782
 20
65.6735773574
 10
246.6581454099
 20
65.6925133467
 10
247.5098769801
 20
65.5965648348
 10
248.2594658254
 20
65.4044424374
  0
ARC
  5
254
330
1F
100
AcDbEntity
  8
0
  6
Continuous
 62
     7
370
    25
100
AcDbCircle
 10
242.519151818
 20
44.9325537837
 30
0.0
 40
12.15706644166775
100
AcDbArc
 50
180.4744415793
 51
191.6440230834
  0
SPLINE
  5
255
330
1F
100
AcDbEntity
  8
0
  6
Continuous
 62
     7
370
    25
100
AcDbSpline
210
0.0
220
0.0
230
1.0
 70
     8
 71
     3
 72
    10
 73
     6
 74
     0
 42
0.000000001
 43
0.00000001
 40
0.0
 40
0.0
 40
0.0
 40
0.0
 40
0.5
 40
0.5
 40
1.0
 40
1.0
 40
1.0
 40
1.0
 10
239.2077289421469
 20
54.74657626841677
 30
0.0
 10
239.1037644513626
 20
54.81991464148715
 30
0.0
 10
239.0139561749352
 20
54.90715039928055
 30
0.0
 10
238.8619137469366
 20
55.10808094047655
 30
0.0
 10
238.8000081585756
 20
55.22225170667353
 30
0.0
 10
238.7555584539852
 20
55.34526938983362
 30
0.0
  0
SPLINE
  5
256
330
1F
100
AcDbEntity
  8
0
  6
Continuous
 62
     7
370
    25
100
AcDbSpline
210
0.0
220
0.0
230
1.0
 70
     8
 71
     3
 72
    14
 73
    10
 74
     0
 42
0.000000001
 43
0.00000001
 40
0.0
 40
0.0
 40
0.0
 40
0.0
 40
0.25
 40
0.25
 40
0.5
 40
0.5
 40
0.75
 40
0.75
 40
1.0
 40
1.0
 40
1.0
 40
1.0
 10
238.7555584539852
 20
55.34526938983362
 30
0.0
 10
238.73283765112
 20
55.40815080949117
 30
0.0
 10
238.7109231407706
 20
55.47719723896459
 30
0.0
 10
238.6688120867078
 20
55.62484975558335
 30
0.0
 10
238.6492905327947
 20
55.70124954244167
 30
0.0
 10
238.610944290621
 20
55.85558183383726
 30
0.0
 10
238.5925846977372
 20
55.93253443016891
 30
0.0
 10
238.5505812531555
 20
56.07792459768489
 30
0.0
 10
238.5268049321425
 20
56.14451550387792
 30
0.0
 10
238.4983434280403
 20
56.18501111910927
 30
0.0
  0
LINE
  5
257
330
1F
100
AcDbEntity
  8
0
  6
Continuous
 62
     7
370
    25
100
AcDbLine
 10
238.498343428
 20
56.1850111191
 30
0.0
 11
238.4810408745
 21
56.2096295492
 31
0.0
  0
LINE
  5
258
330
1F
100
AcDbEntity
  8
0
  6
Continuous
 62
     7
370
    25
100
AcDbLine
 10
239.8252341154
 20
57.8817931618
 30
0.0
 11
239.8425366689
 21
57.8571747317
 31
0.0
  0
SPLINE
  5
259
330
1F
100
AcDbEntity
  8
0
  6
Continuous
 62
     7
370
    25
100
AcDbSpline
210
0.0
220
0.0
230
1.0
 70
     8
 71
     3
 72
    16
 73
    12
 74
     0
 42
0.000000001
 43
0.00000001
 40
0.0
 40
0.0
 40
0.0
 40
0.0
 40
0.1250000000000001
 40
0.1250000000000001
 40
0.2500000000000003
 40
0.2500000000000003
 40
0.5000000000000002
 40
0.5000000000000002
 40
0.7500000000000001
 40
0.7500000000000001
 40
1.0
 40
1.0
 40
1.0
 40
1.0
 10
239.8425366688915
 20
57.85717473172254
 30
0.0
 10
239.8566890752956
 20
57.83703839590976
 30
0.0
 10
239.8783474797693
 20
57.82024097523234
 30
0.0
 10
239.9307654088046
 20
57.79339545390084
 30
0.0
 10
239.9613582879429
 20
57.78316996933986
 30
0.0
 10
240.0604391368005
 20
57.75866952890718
 30
0.0
 10
240.1343216744163
 20
57.75040960650568
 30
0.0
 10
240.2874212668077
 20
57.73922363980076
 30
0.0
 10
240.3655052414553
 20
57.73662696804957
 30
0.0
 10
240.5248488751974
 20
57.73459796721586
 30
0.0
 10
240.6035017700289
 20
57.73523555587809
 30
0.0
 10
240.6792542378216
 20
57.73832865669313
 30
0.0
  0
SPLINE
  5
25A
330
1F
100
AcDbEntity
  8
0
  6
Continuous
 62
     7
370
    25
100
AcDbSpline
210
0.0
220
0.0
230
1.0
 70
     8
 71
     3
 72
    10
 73
     6
 74
     0
 42
0.000000001
 43
0.00000001
 40
0.0
 40
0.0
 40
0.0
 40
0.0
 40
0.5
 40
0.5
 40
1.0
 40
1.0
 40
1.0
 40
1.0
 10
240.6792542378216
 20
57.73832865669313
 30
0.0
 10
240.8274485777224
 20
57.74437968112689
 30
0.0
 10
240.9696730434529
 20
57.73421745091375
 30
0.0
 10
241.2420644337937
 20
57.68316701497368
 30
0.0
 10
241.3721917636622
 20
57.64180591232913
 30
0.0
 10
241.4902671058476
 20
57.58603204437684
 30
0.0
  0
LINE
  5
25B
330
1F
100
AcDbEntity
  8
0
  6
Continuous
 62
     7
370
    25
100
AcDbLine
 10
241.6454703239
 20
57.6144511072
 30
0.0
 11
241.6280771985
 21
57.6391984049
 31
0.0
  0
ARC
  5
25C
330
1F
100
AcDbEntity
  8
0
  6
Continuous
 62
     7
370
    25
100
AcDbCircle
 10
224.1667963178
 20
52.8562241425
 30
0.0
 40
4.152065346119941
100
AcDbArc
 50
211.7707720659
 51
236.1875437047
  0
SPLINE
  5
25D
330
1F
100
AcDbEntity
  8
0
  6
Continuous
 62
     7
370
    25
100
AcDbSpline
210
0.0
220
0.0
230
1.0
 70
     8
 71
     3
 72
     8
 73
     4
 74
     0
 42
0.000000001
 43
0.00000001
 40
0.0
 40
0.0
 40
0.0
 40
0.0
 40
1.0
 40
1.0
 40
1.0
 40
1.0
 10
222.0673134367108
 20
49.74532762513818
 30
0.0
 10
221.5905401448866
 20
50.05342043307082
 30
0.0
 10
221.1137377680417
 20
50.36164987864358
 30
0.0
 10
220.6369053235161
 20
50.67001503486349
 30
0.0
  0
SPLINE
  5
25E
330
1F
100
AcDbEntity
  8
0
  6
Continuous
 62
     7
370
    25
100
AcDbSpline
210
0.0
220
0.0
230
1.0
 70
     8
 71
     3
 72
    23
 73
    19
 74
     0
 42
0.000000001
 43
0.00000001
 40
0.0
 40
0.0
 40
0.0
 40
0.0
 40
0.0521036415680443
 40
0.103564624093566
 40
0.1544751946749824
 40
0.2049306267488185
 40
0.2550287880859467
 40
0.3048696389155856
 40
0.3545546704622095
 40
0.4041862979533031
 40
0.4538672252131345
 40
0.503699799942109
 40
0.5901870230745642
 40
0.6742716378229198
 40
0.7565997087222741
 40
0.8378563983721098
 40
0.9187511781367312
 40
1.0
 40
1.0
 40
1.0
 40
1.0
 10
222.9478782402524
 20
49.57059692701808
 30
0.0
 10
222.9426093013121
 20
49.56067546478328
 30
0.0
 10
222.9321364118114
 20
49.54095491405241
 30
0.0
 10
222.9128901160483
 20
49.51638708510024
 30
0.0
 10
222.8910943757153
 20
49.49569850284105
 30
0.0
 10
222.8664430845102
 20
49.47916756754411
 30
0.0
 10
222.8389465699713
 20
49.46665006796796
 30
0.0
 10
222.808535515964
 20
49.45811544414558
 30
0.0
 10
222.7751651441916
 20
49.45350557149747
 30
0.0
 10
222.73878925592
 20
49.45277082836094
 30
0.0
 10
222.6993608843313
 20
49.45586591091217
 30
0.0
 10
222.6465124927817
 20
49.46440168639123
 30
0.0
 10
222.5779734990117
 20
49.48199812523826
 30
0.0
 10
222.4902522670573
 20
49.51363473332412
 30
0.0
 10
222.3955213475634
 20
49.55581439065683
 30
0.0
 10
222.2934871002334
 20
49.60855082638383
 30
0.0
 10
222.1845731870444
 20
49.67086738229465
 30
0.0
 10
222.1064568760584
 20
49.72047144054577
 30
0.0
 10
222.0673134367108
 20
49.74532762513817
 30
0.0
  0
SPLINE
  5
25F
330
1F
100
AcDbEntity
  8
0
  6
Continuous
 62
     7
370
    25
100
AcDbSpline
210
0.0
220
0.0
230
1.0
 70
     8
 71
     3
 72
     8
 73
     4
 74
     0
 42
0.000000001
 43
0.00000001
 40
0.0
 40
0.0
 40
0.0
 40
0.0
 40
1.0
 40
1.0
 40
1.0
 40
1.0
 10
224.4213812667097
 20
48.62327679045965
 30
0.0
 10
223.9300139546672
 20
48.93915141042788
 30
0.0
 10
223.4386277547398
 20
49.2551374317181
 30
0.0
 10
222.9472220445946
 20
49.57123431256153
 30
0.0
  0
SPLINE
  5
260
330
1F
100
AcDbEntity
  8
0
  6
Continuous
 62
     7
370
    25
100
AcDbSpline
210
0.0
220
0.0
230
1.0
 70
     8
 71
     3
 72
    18
 73
    14
 74
     0
 42
0.000000001
 43
0.00000001
 40
0.0
 40
0.0
 40
0.0
 40
0.0
 40
0.0923824559454013
 40
0.1844689291647927
 40
0.2764953616046289
 40
0.368697536560166
 40
0.4613092840112267
 40
0.5545607518542827
 40
0.648676805161927
 40
0.7438756050201499
 40
0.8403674044321215
 40
0.9203921078133473
 40
1.0
 40
1.0
 40
1.0
 40
1.0
 10
225.2349453859059
 20
47.97896906591755
 30
0.0
 10
225.2113778717817
 20
47.99424304018375
 30
0.0
 10
225.1643183511285
 20
48.02474205266554
 30
0.0
 10
225.0919205631633
 20
48.07437462527793
 30
0.0
 10
225.0184383542663
 20
48.12670416794744
 30
0.0
 10
224.9437389065205
 20
48.18202185365579
 30
0.0
 10
224.8678781167524
 20
48.24026016876937
 30
0.0
 10
224.7908668359665
 20
48.30145308040644
 30
0.0
 10
224.712734703887
 20
48.365616796987
 30
0.0
 10
224.6335084692455
 20
48.4327657568526
 30
0.0
 10
224.5582119848376
 20
48.49861666659773
 30
0.0
 10
224.4873846767173
 20
48.56214825340524
 30
0.0
 10
224.4434803059108
 20
48.60280899841838
 30
0.0
 10
224.4215854391059
 20
48.62308628698666
 30
0.0
  0
LINE
  5
261
330
1F
100
AcDbEntity
  8
0
  6
Continuous
 62
     7
370
    25
100
AcDbLine
 10
225.8746516541
 20
47.5672151365
 30
0.0
 11
225.2349453859
 21
47.9789690659
 31
0.0
  0
SPLINE
  5
262
330
1F
100
AcDbEntity
  8
0
  6
Continuous
 62
     7
370
    25
100
AcDbSpline
210
0.0
220
0.0
230
1.0
 70
     8
 71
     3
 72
    25
 73
    21
 74
     0
 42
0.000000001
 43
0.00000001
 40
0.0
 40
0.0
 40
0.0
 40
0.0
 40
0.0280105225429284
 40
0.0559601148865716
 40
0.0839014045049481
 40
0.1118870776793418
 40
0.139969582759596
 40
0.1682008401746174
 40
0.1966319670429139
 40
0.2253130233144346
 40
0.2542927850736023
 40
0.3799486436577953
 40
0.5057850221666315
 40
0.6313085886301525
 40
0.7532068238011418
 40
0.8039473267944002
 40
0.8535894438536894
 40
0.9025339722376491
 40
0.9511970353779324
 40
1.0
 40
1.0
 40
1.0
 40
1.0
 10
226.9770175108961
 20
48.28312124979462
 30
0.0
 10
226.9819656184267
 20
48.25549738868685
 30
0.0
 10
226.9918510700624
 20
48.20030975558103
 30
0.0
 10
227.0033867196657
 20
48.12114904821049
 30
0.0
 10
227.0124598414786
 20
48.0448457091117
 30
0.0
 10
227.0188286501916
 20
47.97164994814189
 30
0.0
 10
227.0225448890018
 20
47.90150247992851
 30
0.0
 10
227.0235815099845
 20
47.83442619341595
 30
0.0
 10
227.0219330347576
 20
47.77042228418992
 30
0.0
 10
227.0175868828885
 20
47.7094934309237
 30
0.0
 10
227.0027305583204
 20
47.58760530942805
 30
0.0
 10
226.9576423012538
 20
47.43270443777467
 30
0.0
 10
226.844282780765
 20
47.3017613194309
 30
0.0
 10
226.6824585587704
 20
47.2458849186204
 30
0.0
 10
226.5084433396392
 20
47.26575897100307
 30
0.0
 10
226.3570824189538
 20
47.31307677335618
 30
0.0
 10
226.2466821862569
 20
47.35799219709072
 30
0.0
 10
226.1295226908081
 20
47.41536792838193
 30
0.0
 10
226.0059570238725
 20
47.4840449928359
 30
0.0
 10
225.9184619737759
 20
47.53946523879017
 30
0.0
 10
225.8746516540931
 20
47.56721513652118
 30
0.0
  0
ARC
  5
263
330
1F
100
AcDbEntity
  8
0
  6
Continuous
 62
     7
370
    25
100
AcDbCircle
 10
238.170015843
 20
50.069171786
 30
0.0
 40
11.33460136834035
100
AcDbArc
 50
170.9338278112
 51
189.0661721888
  0
SPLINE
  5
264
330
1F
100
AcDbEntity
  8
0
  6
Continuous
 62
     7
370
    25
100
AcDbSpline
210
0.0
220
0.0
230
1.0
 70
     8
 71
     3
 72
    26
 73
    22
 74
     0
 42
0.000000001
 43
0.00000001
 40
0.0
 40
0.0
 40
0.0
 40
0.0
 40
0.0241259796961556
 40
0.0482159912269293
 40
0.0723203915119221
 40
0.0964895678705268
 40
0.1207736231957763
 40
0.1452220711237314
 40
0.1698835501652852
 40
0.1948055644468628
 40
0.220034256951538
 40
0.2456142191611052
 40
0.3690971486895253
 40
0.4940698769485128
 40
0.6192566784762408
 40
0.7454656653603202
 40
0.7971495824713681
 40
0.848171030840538
 40
0.8988013269235222
 40
0.9493179290492182
 40
1.0
 40
1.0
 40
1.0
 40
1.0
 10
225.8746516540931
 20
55.3313255278857
 30
0.0
 10
225.896369883469
 20
55.31699400449074
 30
0.0
 10
225.9397739636448
 20
55.2883523238219
 30
0.0
 10
226.0030810810057
 20
55.24036002589337
 30
0.0
 10
226.0649426487233
 20
55.18876082800789
 30
0.0
 10
226.1252471638597
 20
55.13318603513476
 30
0.0
 10
226.1840370157994
 20
55.07373079450767
 30
0.0
 10
226.2413175342293
 20
55.01036648567022
 30
0.0
 10
226.2971086735557
 20
54.94309770770617
 30
0.0
 10
226.3514299209778
 20
54.87192359374584
 30
0.0
 10
226.4043088961872
 20
54.79683445399728
 30
0.0
 10
226.5211037209238
 20
54.61758000529629
 30
0.0
 10
226.6829732788506
 20
54.30727453345278
 30
0.0
 10
226.8461581863821
 20
53.83736074532083
 30
0.0
 10
226.9576695915559
 20
53.33839771141004
 30
0.0
 10
227.0048034296643
 20
52.92951403835302
 30
0.0
 10
227.0199223691968
 20
52.62524208176232
 30
0.0
 10
227.0218755081794
 20
52.423992840067
 30
0.0
 10
227.0153974825403
 20
52.22833292034441
 30
0.0
 10
227.0012705598532
 20
52.03769663244694
 30
0.0
 10
226.9851106681682
 20
51.91611335870813
 30
0.0
 10
226.9770175108961
 20
51.85522232210925
 30
0.0
  0
LINE
  5
265
330
1F
100
AcDbEntity
  8
0
  6
Continuous
 62
     7
370
    25
100
AcDbLine
 10
225.2349453859
 20
55.7443005409
 30
0.0
 11
225.8746516541
 21
55.3313255279
 31
0.0
  0
SPLINE
  5
266
330
1F
100
AcDbEntity
  8
0
  6
Continuous
 62
     7
370
    25
100
AcDbSpline
210
0.0
220
0.0
230
1.0
 70
     8
 71
     3
 72
    14
 73
    10
 74
     0
 42
0.000000001
 43
0.00000001
 40
0.0
 40
0.0
 40
0.0
 40
0.0
 40
0.0789261963157259
 40
0.1582328720528836
 40
0.330847539454808
 40
0.5000195457586954
 40
0.6670357883553091
 40
0.833239519364563
 40
1.0
 40
1.0
 40
1.0
 40
1.0
 10
224.4209926700544
 20
55.95288281117061
 30
0.0
 10
224.4427095513898
 20
55.95448597502902
 30
0.0
 10
224.4862480046049
 20
55.95770003111596
 30
0.0
 10
224.5777731232533
 20
55.95852107118408
 30
0.0
 10
224.6946814566861
 20
55.95058508940133
 30
0.0
 10
224.8355017950679
 20
55.92430942052373
 30
0.0
 10
224.9727141028804
 20
55.88135182199148
 30
0.0
 10
225.1066447772976
 20
55.82299469718154
 30
0.0
 10
225.1921308692573
 20
55.77056115103122
 30
0.0
 10
225.2349453859059
 20
55.74430054087659
 30
0.0
  0
SPLINE
  5
267
330
1F
100
AcDbEntity
  8
0
  6
Continuous
 62
     7
370
    25
100
AcDbSpline
210
0.0
220
0.0
230
1.0
 70
     8
 71
     3
 72
     8
 73
     4
 74
     0
 42
0.000000001
 43
0.00000001
 40
0.0
 40
0.0
 40
0.0
 40
0.0
 40
1.0
 40
1.0
 40
1.0
 40
1.0
 10
222.6186890870502
 20
57.11527422258303
 30
0.0
 10
223.2194473107461
 20
56.72800673942422
 30
0.0
 10
223.8201761736064
 20
56.340539389501
 30
0.0
 10
224.4208768179531
 20
55.95287249691146
 30
0.0
  0
SPLINE
  5
268
330
1F
100
AcDbEntity
  8
0
  6
Continuous
 62
     7
370
    25
100
AcDbSpline
210
0.0
220
0.0
230
1.0
 70
     8
 71
     3
 72
    13
 73
     9
 74
     0
 42
0.000000001
 43
0.00000001
 40
0.0
 40
0.0
 40
0.0
 40
0.0
 40
0.1667030582308063
 40
0.3329480818053115
 40
0.4990671507274935
 40
0.6653938523718516
 40
0.8322612710550141
 40
1.0
 40
1.0
 40
1.0
 40
1.0
 10
222.2768605520158
 20
57.41633900166881
 30
0.0
 10
222.2971617344557
 20
57.40277389498957
 30
0.0
 10
222.3377083196444
 20
57.37568095322673
 30
0.0
 10
222.396857956632
 20
57.33048638021901
 30
0.0
 10
222.4546295015345
 20
57.28207523173607
 30
0.0
 10
222.5108792389942
 20
57.2300401169656
 30
0.0
 10
222.5658064477403
 20
57.17474214975658
 30
0.0
 10
222.6010271573308
 20
57.13512489459621
 30
0.0
 10
222.6186833692718
 20
57.11526468559529
 30
0.0
  0
SPLINE
  5
269
330
1F
100
AcDbEntity
  8
0
  6
Continuous
 62
     7
370
    25
100
AcDbSpline
210
0.0
220
0.0
230
1.0
 70
     8
 71
     3
 72
     8
 73
     4
 74
     0
 42
0.000000001
 43
0.00000001
 40
0.0
 40
0.0
 40
0.0
 40
0.0
 40
1.0
 40
1.0
 40
1.0
 40
1.0
 10
220.332880036225
 20
58.67106085404827
 30
0.0
 10
220.9809101086253
 20
58.25306553816352
 30
0.0
 10
221.6289030857272
 20
57.83482477574589
 30
0.0
 10
222.2768605520158
 20
57.4163390016688
 30
0.0
  0
LWPOLYLINE
  5
26A
330
1F
100
AcDbEntity
  8
0
  6
Continuous
 62
     7
370
    25
100
AcDbPolyline
 90
       20
 70
   128
 43
0.0
 10
220.3328800363
 20
58.6710608542
 10
220.7155292415
 20
59.7850238926
 10
221.1777397712
 20
60.8932381239
 10
221.7143385462
 20
61.9833003691
 10
222.319319931
 20
63.0430106068
 10
222.9859129491
 20
64.0605085166
 10
223.7066570642
 20
65.0244062202
 10
224.4734856785
 20
65.9239157351
 10
225.2778164149
 20
66.7489697138
 10
226.1106471707
 20
67.4903341183
 10
226.96265687
 20
68.139711568
 10
227.8243097853
 20
68.6898342038
 10
228.6859622619
 20
69.1345450305
 10
229.5379706499
 20
69.4688668264
 10
230.3707992366
 20
69.6890578483
 10
231.1751269702
 20
69.7926537092
 10
231.9419517818
 20
69.7784949599
 10
232.6626913367
 20
69.6467400658
 10
233.3292790882
 20
69.3988636331
 10
233.3826182294
 20
69.3728078205
  0
SPLINE
  5
26B
330
1F
100
AcDbEntity
  8
0
  6
Continuous
 62
     7
370
    25
100
AcDbSpline
210
0.0
220
0.0
230
1.0
 70
    11
 71
     3
 72
    39
 73
    35
 74
     0
 42
0.000000001
 43
0.00000001
 40
0.0
 40
0.0
 40
0.0
 40
0.0
 40
0.0310664058348413
 40
0.0621048158426138
 40
0.0931361551796939
 40
0.1235538293503726
 40
0.1538561545809849
 40
0.1850588072749156
 40
0.2160250992946587
 40
0.2471867223797568
 40
0.2784462884304475
 40
0.3100516090231247
 40
0.3419834369138969
 40
0.3734259894013238
 40
0.4048604886787081
 40
0.436874065183343
 40
0.4685120685926471
 40
0.499805535863323
 40
0.5309508213226204
 40
0.5618649784438111
 40
0.5930416446590877
 40
0.623374245013332
 40
0.6540913579072549
 40
0.6849496782718453
 40
0.7158160645166705
 40
0.7471731804043553
 40
0.7784514311866318
 40
0.810129591156098
 40
0.8419598919688388
 40
0.8735175891922303
 40
0.9050808037886594
 40
0.9370235169792582
 40
0.9687441590030581
 40
1.0
 40
1.0
 40
1.0
 40
1.0
 10
233.5414655174304
 20
67.67625122938969
 30
0.0
 10
233.8043511376285
 20
67.64771674209959
 30
0.0
 10
234.3312397481121
 20
67.56177425377798
 30
0.0
 10
235.0952518171881
 20
67.36139913370553
 30
0.0
 10
235.802402005239
 20
67.11439702748602
 30
0.0
 10
236.4153130698344
 20
66.83641514933292
 30
0.0
 10
236.9124443955048
 20
66.54228145200419
 30
0.0
 10
237.2716361165783
 20
66.24077492381197
 30
0.0
 10
237.4933553853372
 20
65.93377741890954
 30
0.0
 10
237.5586072627193
 20
65.62327215750787
 30
0.0
 10
237.4717600516054
 20
65.30412767275904
 30
0.0
 10
237.229414463847
 20
64.97480770718683
 30
0.0
 10
236.8494766011206
 20
64.63586698562918
 30
0.0
 10
236.3356706479608
 20
64.29802852121854
 30
0.0
 10
235.7097798370508
 20
63.97213061990769
 30
0.0
 10
234.9963088505589
 20
63.67548372666822
 30
0.0
 10
234.2324063742946
 20
63.41938041823126
 30
0.0
 10
233.446613291393
 20
63.23035285024048
 30
0.0
 10
232.6650758363531
 20
63.12217692818722
 30
0.0
 10
231.9089628516006
 20
63.11451304481752
 30
0.0
 10
231.2065982652071
 20
63.21243508020366
 30
0.0
 10
230.5875779181644
 20
63.43408351370616
 30
0.0
 10
230.0785206531507
 20
63.76995160061789
 30
0.0
 10
229.7055770597167
 20
64.20976216679867
 30
0.0
 10
229.4769751084683
 20
64.7208368073213
 30
0.0
 10
229.4081288017491
 20
65.27202189508475
 30
0.0
 10
229.4927452149742
 20
65.8296938233965
 30
0.0
 10
229.735854004909
 20
66.35977396431548
 30
0.0
 10
230.1179838477268
 20
66.83229831342821
 30
0.0
 10
230.6341194221371
 20
67.21841982432144
 30
0.0
 10
231.261097282639
 20
67.50204401165458
 30
0.0
 10
231.9770047150028
 20
67.671781230381
 30
0.0
 10
232.7454481071885
 20
67.7333200650923
 30
0.0
 10
233.2769768865609
 20
67.70495971283674
 30
0.0
 10
233.5414655174304
 20
67.67625122938969
 30
0.0
  0
LINE
  5
26C
330
1F
100
AcDbEntity
  8
0
  6
Continuous
 62
     7
370
    25
100
AcDbLine
 10
224.3169285296
 20
51.2371242026
 30
0.0
 11
224.6309731367
 21
51.0689804182
 31
0.0
  0
LINE
  5
26D
330
1F
100
AcDbEntity
  8
0
  6
Continuous
 62
     7
370
    25
100
AcDbLine
 10
223.3299694906
 20
51.8068835281
 30
0.0
 11
224.3169285296
 21
51.2371242026
 31
0.0
  0
ARC
  5
26E
330
1F
100
AcDbEntity
  8
0
  6
Continuous
 62
     7
370
    25
100
AcDbCircle
 10
225.5509381102
 20
55.4003813013
 30
0.0
 40
4.484291989684192
100
AcDbArc
 50
267.6840937494
 51
286.9865889436
  0
SPLINE
  5
26F
330
1F
100
AcDbEntity
  8
0
  6
Continuous
 62
     7
370
    25
100
AcDbSpline
210
0.0
220
0.0
230
1.0
 70
     8
 71
     3
 72
    16
 73
    12
 74
     0
 42
0.000000001
 43
0.00000001
 40
0.0
 40
0.0
 40
0.0
 40
0.0
 40
0.150516077399111
 40
0.2631372176921825
 40
0.3788385653419636
 40
0.4915726627001814
 40
0.6082157173107122
 40
0.7115656327827937
 40
0.8179798858712657
 40
0.9203357686923422
 40
1.0
 40
1.0
 40
1.0
 40
1.0
 10
234.8799713122571
 20
64.67375559652692
 30
0.0
 10
234.6751382297416
 20
64.78614454919942
 30
0.0
 10
234.3170422153106
 20
64.9826266580652
 30
0.0
 10
233.7183070211986
 20
65.24678530985375
 30
0.0
 10
233.142091670959
 20
65.45901715326987
 30
0.0
 10
232.5295314662836
 20
65.63097201649961
 30
0.0
 10
231.9281565501597
 20
65.73890894265053
 30
0.0
 10
231.3454615222514
 20
65.77764293275611
 30
0.0
 10
230.8108347965934
 20
65.7431933907923
 30
0.0
 10
230.3425361623886
 20
65.65217326386872
 30
0.0
 10
230.0836878468123
 20
65.54130152502455
 30
0.0
 10
229.9703984327035
 20
65.49277660297929
 30
0.0
  0
SPLINE
  5
270
330
1F
100
AcDbEntity
  8
0
  6
Continuous
 62
     7
370
    25
100
AcDbSpline
210
0.0
220
0.0
230
1.0
 70
     8
 71
     3
 72
    10
 73
     6
 74
     0
 42
0.000000001
 43
0.00000001
 40
0.0
 40
0.0
 40
0.0
 40
0.0
 40
0.3798174487068085
 40
0.9603712743693659
 40
1.0
 40
1.0
 40
1.0
 40
1.0
 10
236.0198517613039
 20
64.1455285737457
 30
0.0
 10
235.8901991029586
 20
64.21585727964406
 30
0.0
 10
235.5623713816564
 20
64.3936839412109
 30
0.0
 10
235.1544429780104
 20
64.56673624170905
 30
0.0
 10
234.8978101794371
 20
64.66594188830986
 30
0.0
 10
234.8814117323326
 20
64.67228097885982
 30
0.0
  0
SPLINE
  5
271
330
1F
100
AcDbEntity
  8
0
  6
Continuous
 62
     7
370
    25
100
AcDbSpline
210
0.0
220
0.0
230
1.0
 70
     8
 71
     3
 72
    24
 73
    20
 74
     0
 42
0.000000001
 43
0.00000001
 40
0.0
 40
0.0
 40
0.0
 40
0.0
 40
0.0618857619093494
 40
0.1150115624342297
 40
0.1593831322308222
 40
0.2428114832232123
 40
0.3183318386985426
 40
0.3935543620449526
 40
0.420484316839609
 40
0.4483397365001899
 40
0.477128677518787
 40
0.5451537674268876
 40
0.6363475914367293
 40
0.6968782742038289
 40
0.7498596592257523
 40
0.7959701139281281
 40
0.8771179876705577
 40
0.9543004325059576
 40
1.0
 40
1.0
 40
1.0
 40
1.0
 10
233.4865865763853
 20
67.10239336686725
 30
0.0
 10
233.3026300105566
 20
67.12128774180715
 30
0.0
 10
232.9607560252774
 20
67.15640198320958
 30
0.0
 10
232.4965379415826
 20
67.149912605372
 30
0.0
 10
231.9870764087048
 20
67.10218770771036
 30
0.0
 10
231.4479812537935
 20
66.97757137434216
 30
0.0
 10
230.9051441444942
 20
66.73508057714182
 30
0.0
 10
230.5647499552297
 20
66.47770928732933
 30
0.0
 10
230.3581235355105
 20
66.26290035007999
 30
0.0
 10
230.2401396178116
 20
66.11639831266602
 30
0.0
 10
230.0879695225872
 20
65.88664621372
 30
0.0
 10
229.921287972958
 20
65.51370480659787
 30
0.0
 10
229.8529276526055
 20
65.05114575007761
 30
0.0
 10
229.9032818407394
 20
64.6228118784111
 30
0.0
 10
230.0087117155945
 20
64.30288596742348
 30
0.0
 10
230.1909104756889
 20
63.96241970605857
 30
0.0
 10
230.4917894906844
 20
63.62647183735312
 30
0.0
 10
230.8814741914673
 20
63.35341312551941
 30
0.0
 10
231.1743930371419
 20
63.25945745466266
 30
0.0
 10
231.2833289530211
 20
63.22451553403187
 30
0.0
  0
SPLINE
  5
272
330
1F
100
AcDbEntity
  8
0
  6
Continuous
 62
     7
370
    25
100
AcDbSpline
210
0.0
220
0.0
230
1.0
 70
     8
 71
     3
 72
    22
 73
    18
 74
     0
 42
0.000000001
 43
0.00000001
 40
0.0
 40
0.0
 40
0.0
 40
0.0
 40
0.0219614350649738
 40
0.0803652114651397
 40
0.1456638403585972
 40
0.21789694387348
 40
0.2799150498546654
 40
0.3332793472081466
 40
0.3779895055229293
 40
0.4140481372238363
 40
0.517328140944588
 40
0.609398085778404
 40
0.7028413953962249
 40
0.7526499641548304
 40
0.804559245215462
 40
0.8937466539091778
 40
1.0
 40
1.0
 40
1.0
 40
1.0
 10
236.791435593106
 20
64.6250667650835
 30
0.0
 10
236.8146034565041
 20
64.64692199325688
 30
0.0
 10
236.8993834463215
 20
64.72689855346688
 30
0.0
 10
237.0060148883695
 20
64.86906058433226
 30
0.0
 10
237.1032699790976
 20
65.0578393076361
 30
0.0
 10
237.1342963247814
 20
65.24380394628623
 30
0.0
 10
237.1049483286746
 20
65.4156186287918
 30
0.0
 10
237.0364414578693
 20
65.56242578397809
 30
0.0
 10
236.9486312255432
 20
65.6836350698082
 30
0.0
 10
236.794338934787
 20
65.84921992022672
 30
0.0
 10
236.5265132063504
 20
66.05938320857051
 30
0.0
 10
236.0749432563568
 20
66.31482771711049
 30
0.0
 10
235.6273804153898
 20
66.52146344561743
 30
0.0
 10
235.2184869219062
 20
66.67996828998868
 30
0.0
 10
234.7964069569621
 20
66.82248439928182
 30
0.0
 10
234.2180944219897
 20
66.98574186752948
 30
0.0
 10
233.7442155988344
 20
67.0613099910399
 30
0.0
 10
233.4865865763853
 20
67.10239336686723
 30
0.0
  0
LINE
  5
273
330
1F
100
AcDbEntity
  8
0
  6
Continuous
 62
     7
370
    25
100
AcDbLine
 10
226.9770175109
 20
51.8552223221
 30
0.0
 11
226.9717789674
 21
52.1513057409
 31
0.0
  0
LINE
  5
274
330
1F
100
AcDbEntity
  8
0
  6
Continuous
 62
     7
370
    25
100
AcDbLine
 10
226.9717789674
 20
52.1513057409
 30
0.0
 11
227.0148781164
 21
52.8029490323
 31
0.0
  0
LINE
  5
275
330
1F
100
AcDbEntity
  8
0
  6
Continuous
 62
     7
370
    25
100
AcDbLine
 10
226.4922305476
 20
54.6319939958
 30
0.0
 11
226.1808157776
 21
54.9605902582
 31
0.0
  0
SPLINE
  5
276
330
1F
100
AcDbEntity
  8
0
  6
Continuous
 62
     7
370
    25
100
AcDbSpline
210
0.0
220
0.0
230
1.0
 70
     8
 71
     3
 72
    24
 73
    20
 74
     0
 42
0.000000001
 43
0.00000001
 40
0.0
 40
0.0
 40
0.0
 40
0.0
 40
0.0208485373664354
 40
0.0823376247214858
 40
0.1455705549100021
 40
0.2075413813861531
 40
0.2714247518575092
 40
0.3315017366461557
 40
0.3933547140842994
 40
0.4529343674602032
 40
0.5141802400798228
 40
0.5749476280822056
 40
0.6373706675512865
 40
0.7000294854400771
 40
0.7648697537683988
 40
0.8126336564436505
 40
0.8609398673431574
 40
0.9190455624035513
 40
1.0
 40
1.0
 40
1.0
 40
1.0
 10
229.8835985394728
 20
64.85324509886992
 30
0.0
 10
229.8808792002596
 20
64.90609476433704
 30
0.0
 10
229.8701396491971
 20
65.1148152057476
 30
0.0
 10
229.9421601790303
 20
65.45789765507702
 30
0.0
 10
230.1042486512767
 20
65.86954635602554
 30
0.0
 10
230.366584886652
 20
66.23888185867877
 30
0.0
 10
230.708100841737
 20
66.54705304637774
 30
0.0
 10
231.1238734251086
 20
66.7907631747624
 30
0.0
 10
231.5896409114047
 20
66.96056460603201
 30
0.0
 10
232.1038722231907
 20
67.05799689281103
 30
0.0
 10
232.6452842500657
 20
67.079611044633
 30
0.0
 10
233.2096848984297
 20
67.0232056797902
 30
0.0
 10
233.776532595694
 20
66.88613205615829
 30
0.0
 10
234.3344900140627
 20
66.66029617830176
 30
0.0
 10
234.8071716810672
 20
66.36268617506602
 30
0.0
 10
235.1641657780227
 20
65.99176451203118
 30
0.0
 10
235.3590082024812
 20
65.55944588896799
 30
0.0
 10
235.3880394473833
 20
65.05650374426878
 30
0.0
 10
235.3256653292371
 20
64.72275895058486
 30
0.0
 10
235.28935397559
 20
64.52846802365114
 30
0.0
  0
SPLINE
  5
277
330
1F
100
AcDbEntity
  8
0
  6
Continuous
 62
     7
370
    25
100
AcDbSpline
210
0.0
220
0.0
230
1.0
 70
     8
 71
     3
 72
    10
 73
     6
 74
     0
 42
0.000000001
 43
0.00000001
 40
0.0
 40
0.0
 40
0.0
 40
0.0
 40
0.2951234317500035
 40
0.980395766237468
 40
1.0
 40
1.0
 40
1.0
 40
1.0
 10
235.2920818505698
 20
64.52722946564664
 30
0.0
 10
235.3749058628777
 20
64.488464491329
 30
0.0
 10
235.6500460322905
 20
64.35968780804788
 30
0.0
 10
235.9250469360642
 20
64.21845434449399
 30
0.0
 10
236.0735672515956
 20
64.12443444923593
 30
0.0
 10
236.0776979421523
 20
64.12181954034551
 30
0.0
  0
ARC
  5
278
330
1F
100
AcDbEntity
  8
0
  6
Continuous
 62
     7
370
    25
100
AcDbCircle
 10
239.3020896968
 20
50.3140193958
 30
0.0
 40
12.46644230717999
100
AcDbArc
 50
171.5249591672
 51
179.8212373334
  0
SPLINE
  5
279
330
1F
100
AcDbEntity
  8
0
  6
Continuous
 62
     7
370
    25
100
AcDbSpline
210
0.0
220
0.0
230
1.0
 70
     8
 71
     3
 72
    14
 73
    10
 74
     0
 42
0.000000001
 43
0.00000001
 40
0.0
 40
0.0
 40
0.0
 40
0.0
 40
0.0003951393068452
 40
0.0003951393068452
 40
0.0003951393068452
 40
0.0008163352168664
 40
0.0008163352168664
 40
0.0008163352168664
 40
0.001237857933722
 40
0.001237857933722
 40
0.001237857933722
 40
0.001237857933722
 10
234.8840040512694
 20
64.67247656066965
 30
0.0
 10
234.9294658655007
 20
64.65803969804462
 30
0.0
 10
234.9743534701218
 20
64.64317383747901
 30
0.0
 10
235.0186371627969
 20
64.62789004987354
 30
0.0
 10
235.0658404550362
 20
64.61159861053585
 30
0.0
 10
235.1123662680954
 20
64.59482913245193
 30
0.0
 10
235.158177177337
 20
64.57760032165666
 30
0.0
 10
235.2040235653262
 20
64.560358167825
 30
0.0
 10
235.2491628008985
 20
64.54265246162049
 30
0.0
 10
235.2935563589409
 20
64.52450960492972
 30
0.0
  0
LINE
  5
27A
330
1F
100
AcDbEntity
  8
0
  6
Continuous
 62
     7
370
    25
100
AcDbLine
 10
226.1808157776
 20
54.9605902582
 30
0.0
 11
225.5408795822
 21
55.3728219952
 31
0.0
  0
LINE
  5
27B
330
1F
100
AcDbEntity
  8
0
  6
Continuous
 62
     7
370
    25
100
AcDbLine
 10
225.2349453859
 20
55.7443005409
 30
0.0
 11
225.5408795822
 21
55.3728219952
 31
0.0
  0
SPLINE
  5
27C
330
1F
100
AcDbEntity
  8
0
  6
Continuous
 62
     7
370
    25
100
AcDbSpline
210
0.0
220
0.0
230
1.0
 70
     8
 71
     3
 72
    13
 73
     9
 74
     0
 42
0.000000001
 43
0.00000001
 40
0.0
 40
0.0
 40
0.0
 40
0.0
 40
0.1618542298851556
 40
0.3254858841553913
 40
0.4910085196606994
 40
0.6585318472790896
 40
0.8281616954204367
 40
1.0
 40
1.0
 40
1.0
 40
1.0
 10
225.5408795822479
 20
55.37282199523973
 30
0.0
 10
225.5213021902304
 20
55.38538497227288
 30
0.0
 10
225.4819324143847
 20
55.41064888839149
 30
0.0
 10
225.4203964746144
 20
55.44334258530635
 30
0.0
 10
225.356839815365
 20
55.47228865901323
 30
0.0
 10
225.2912217127082
 20
55.49680102647883
 30
0.0
 10
225.2237944436534
 20
55.51723608983234
 30
0.0
 10
225.1779098434549
 20
55.52683274482212
 30
0.0
 10
225.1548191632799
 20
55.53166210565691
 30
0.0
  0
SPLINE
  5
27D
330
1F
100
AcDbEntity
  8
0
  6
Continuous
 62
     7
370
    25
100
AcDbSpline
210
0.0
220
0.0
230
1.0
 70
     8
 71
     3
 72
     9
 73
     5
 74
     0
 42
0.000000001
 43
0.00000001
 40
0.0
 40
0.0
 40
0.0
 40
0.0
 40
0.4907282259505932
 40
1.0
 40
1.0
 40
1.0
 40
1.0
 10
225.154813335988
 20
55.53163410862589
 30
0.0
 10
225.1307198135102
 20
55.53972964084402
 30
0.0
 10
225.081622326951
 20
55.5562266177653
 30
0.0
 10
225.0309216331308
 20
55.57102028678152
 30
0.0
 10
225.0051012008435
 20
55.57855428484612
 30
0.0
  0
SPLINE
  5
27E
330
1F
100
AcDbEntity
  8
0
  6
Continuous
 62
     7
370
    25
100
AcDbSpline
210
0.0
220
0.0
230
1.0
 70
     8
 71
     3
 72
    14
 73
    10
 74
     0
 42
0.000000001
 43
0.00000001
 40
0.0
 40
0.0
 40
0.0
 40
0.0
 40
0.0310276388067353
 40
0.062285371866867
 40
0.124800316690094
 40
0.2498289731750666
 40
0.4998892603608338
 40
0.7606803621459556
 40
1.0
 40
1.0
 40
1.0
 40
1.0
 10
224.4211605115551
 20
55.95266202749197
 30
0.0
 10
224.4271527509595
 20
55.94883098383839
 30
0.0
 10
224.4391816669187
 20
55.94114048634075
 30
0.0
 10
224.4632414749678
 20
55.92570259683411
 30
0.0
 10
224.5054751476141
 20
55.89863214390327
 30
0.0
 10
224.5900377221263
 20
55.84442011910784
 30
0.0
 10
224.7133246915925
 20
55.76541693724462
 30
0.0
 10
224.8594563980456
 20
55.67181076256681
 30
0.0
 10
224.9578230145868
 20
55.60882768617452
 30
0.0
 10
225.0048947152756
 20
55.57868818738269
 30
0.0
  0
LINE
  5
27F
330
1F
100
AcDbEntity
  8
0
  6
Continuous
 62
     7
370
    25
100
AcDbLine
 10
222.6186602448
 20
57.1152928286
 30
0.0
 11
222.9096270794
 21
56.9272143995
 31
0.0
  0
SPLINE
  5
280
330
1F
100
AcDbEntity
  8
0
  6
Continuous
 62
     7
370
    25
100
AcDbSpline
210
0.0
220
0.0
230
1.0
 70
     8
 71
     3
 72
     8
 73
     4
 74
     0
 42
0.000000001
 43
0.00000001
 40
0.0
 40
0.0
 40
0.0
 40
0.0
 40
1.0
 40
1.0
 40
1.0
 40
1.0
 10
222.9410160138504
 20
56.90699163518084
 30
0.0
 10
222.9305735079986
 20
56.91381706007823
 30
0.0
 10
222.9201075751088
 20
56.92056002686476
 30
0.0
 10
222.9096198102922
 20
56.92721911451774
 30
0.0
  0
SPLINE
  5
281
330
1F
100
AcDbEntity
  8
0
  6
Continuous
 62
     7
370
    25
100
AcDbSpline
210
0.0
220
0.0
230
1.0
 70
     8
 71
     3
 72
     8
 73
     4
 74
     0
 42
0.000000001
 43
0.00000001
 40
0.0
 40
0.0
 40
0.0
 40
0.0
 40
1.0
 40
1.0
 40
1.0
 40
1.0
 10
220.1550116350265
 20
58.78524728698991
 30
0.0
 10
220.2140113991965
 20
58.74650662007095
 30
0.0
 10
220.2732989627071
 20
58.70844464277166
 30
0.0
 10
220.3328800361955
 20
58.67106085431137
 30
0.0
  0
SPLINE
  5
282
330
1F
100
AcDbEntity
  8
0
  6
Continuous
 62
     7
370
    25
100
AcDbSpline
210
0.0
220
0.0
230
1.0
 70
     8
 71
     3
 72
     8
 73
     4
 74
     0
 42
0.000000001
 43
0.00000001
 40
0.0
 40
0.0
 40
0.0
 40
0.0
 40
1.0
 40
1.0
 40
1.0
 40
1.0
 10
220.130161888927
 20
59.14845746492823
 30
0.0
 10
220.1376361010176
 20
59.02749962421638
 30
0.0
 10
220.1459322049077
 20
58.90642778180573
 30
0.0
 10
220.1550116350265
 20
58.78524728698991
 30
0.0
  0
LWPOLYLINE
  5
283
330
1F
100
AcDbEntity
  8
0
  6
Continuous
 62
     7
370
    25
100
AcDbPolyline
 90
       15
 70
   128
 43
0.0
 10
220.1301618889
 20
59.1484574649
 10
220.5237612307
 20
60.2573662015
 10
220.9984293929
 20
61.3581342558
 10
221.5484825102
 20
62.4375805933
 10
222.1673340277
 20
63.482779494
 10
222.8475735709
 20
64.4812153304
 10
223.5810556811
 20
65.4209324344
 10
224.3589973514
 20
66.2906782595
 10
225.1720831989
 20
67.0800381232
 10
226.0105770099
 20
67.7795599162
 10
226.8644383261
 20
68.3808672865
 10
227.7234426722
 20
68.8767599401
 10
228.5773039883
 20
69.2612998611
 10
229.4157977994
 20
69.5298824156
 10
230.0941241146
 20
69.6625652288
  0
SPLINE
  5
284
330
1F
100
AcDbEntity
  8
0
  6
Continuous
 62
     7
370
    25
100
AcDbSpline
210
0.0
220
0.0
230
1.0
 70
     8
 71
     3
 72
    10
 73
     6
 74
     0
 42
0.000000001
 43
0.00000001
 40
0.0
 40
0.0
 40
0.0
 40
0.0
 40
0.2409820260313681
 40
0.5031431986319085
 40
1.0
 40
1.0
 40
1.0
 40
1.0
 10
226.1808157775765
 20
48.25474884054778
 30
0.0
 10
226.263061805774
 20
48.20307232857927
 30
0.0
 10
226.4347822049403
 20
48.09517761977393
 30
0.0
 10
226.7125023866797
 20
47.96545433909991
 30
0.0
 10
226.83348017406
 20
47.9882324425994
 30
0.0
 10
226.9126728131487
 20
48.00314309825464
 30
0.0
  0
LINE
  5
285
330
1F
100
AcDbEntity
  8
0
  6
Continuous
 62
     7
370
    25
100
AcDbLine
 10
221.397642323
 20
57.983821194
 30
0.0
 11
220.6357629414
 21
58.4744561127
 31
0.0
  0
LINE
  5
286
330
1F
100
AcDbEntity
  8
0
  6
Continuous
 62
     7
370
    25
100
AcDbLine
 10
220.6357629414
 20
58.4744561127
 30
0.0
 11
220.155011635
 21
58.785247287
 31
0.0
  0
LINE
  5
287
330
1F
100
AcDbEntity
  8
0
  6
Continuous
 62
     7
370
    25
100
AcDbLine
 10
225.2349453859
 20
47.9789690659
 30
0.0
 11
225.5408795822
 21
48.6669805776
 31
0.0
  0
LINE
  5
288
330
1F
100
AcDbEntity
  8
0
  6
Continuous
 62
     7
370
    25
100
AcDbLine
 10
225.5408795822
 20
48.6669805776
 30
0.0
 11
226.1808157776
 21
48.2547488405
 31
0.0
  0
SPLINE
  5
289
330
1F
100
AcDbEntity
  8
0
  6
Continuous
 62
     7
370
    25
100
AcDbSpline
210
0.0
220
0.0
230
1.0
 70
     8
 71
     3
 72
    13
 73
     9
 74
     0
 42
0.000000001
 43
0.00000001
 40
0.0
 40
0.0
 40
0.0
 40
0.0
 40
0.1722587823576925
 40
0.3421398271262819
 40
0.5097456257928438
 40
0.6751828993290239
 40
0.8385626190146133
 40
1.0
 40
1.0
 40
1.0
 40
1.0
 10
225.1548076514746
 20
48.94829007349301
 30
0.0
 10
225.1779591754274
 20
48.93017048255797
 30
0.0
 10
225.2239426561793
 20
48.8941814106206
 30
0.0
 10
225.2914836688941
 20
48.84318142720245
 30
0.0
 10
225.3571432835807
 20
48.79485674701128
 30
0.0
 10
225.4206673548298
 20
48.74942574110355
 30
0.0
 10
225.482097733548
 20
48.70660017334669
 30
0.0
 10
225.5213639005183
 20
48.68013435617362
 30
0.0
 10
225.5408795822479
 20
48.666980577628
 30
0.0
  0
SPLINE
  5
28A
330
1F
100
AcDbEntity
  8
0
  6
Continuous
 62
     7
370
    25
100
AcDbSpline
210
0.0
220
0.0
230
1.0
 70
     8
 71
     3
 72
    11
 73
     7
 74
     0
 42
0.000000001
 43
0.00000001
 40
0.0
 40
0.0
 40
0.0
 40
0.0
 40
0.2392845095296998
 40
0.5001120454061866
 40
0.751501091500065
 40
1.0
 40
1.0
 40
1.0
 40
1.0
 10
225.0054272399986
 20
48.99560406570588
 30
0.0
 10
224.9583580079772
 20
48.96728954298479
 30
0.0
 10
224.8599818533813
 20
48.90811131243163
 30
0.0
 10
224.7136846318
 20
48.81492341196881
 30
0.0
 10
224.5658438881786
 20
48.71955149599591
 30
0.0
 10
224.4695574254558
 20
48.65501624073877
 30
0.0
 10
224.4216925375943
 20
48.62293517068338
 30
0.0
  0
SPLINE
  5
28B
330
1F
100
AcDbEntity
  8
0
  6
Continuous
 62
     7
370
    25
100
AcDbSpline
210
0.0
220
0.0
230
1.0
 70
     8
 71
     3
 72
     9
 73
     5
 74
     0
 42
0.000000001
 43
0.00000001
 40
0.0
 40
0.0
 40
0.0
 40
0.0
 40
0.5090669353869857
 40
1.0
 40
1.0
 40
1.0
 40
1.0
 10
225.0059982435828
 20
48.9949051114941
 30
0.0
 10
225.0316468182068
 20
48.98741240333421
 30
0.0
 10
225.0820303195522
 20
48.97269389062196
 30
0.0
 10
225.1308378310474
 20
48.95630153276981
 30
0.0
 10
225.1547990522419
 20
48.94825398229322
 30
0.0
  0
LINE
  5
28C
330
1F
100
AcDbEntity
  8
0
  6
Continuous
 62
     7
370
    25
100
AcDbLine
 10
226.8359168178
 20
49.9187833499
 30
0.0
 11
225.1548011571
 21
48.9482959363
 31
0.0
  0
LINE
  5
28D
330
1F
100
AcDbEntity
  8
0
  6
Continuous
 62
     7
370
    25
100
AcDbLine
 10
223.1483133601
 20
50.0721172142
 30
0.0
 11
222.9480173077
 21
49.5709599328
 31
0.0
  0
SPLINE
  5
28E
330
1F
100
AcDbEntity
  8
0
  6
Continuous
 62
     7
370
    25
100
AcDbSpline
210
0.0
220
0.0
230
1.0
 70
     8
 71
     3
 72
     8
 73
     4
 74
     0
 42
0.000000001
 43
0.00000001
 40
0.0
 40
0.0
 40
0.0
 40
0.0
 40
1.0
 40
1.0
 40
1.0
 40
1.0
 10
223.1478700454425
 20
50.07290114535547
 30
0.0
 10
223.1740453800117
 20
50.09506852233374
 30
0.0
 10
223.1998664199772
 20
50.11770066342536
 30
0.0
 10
223.2253239736856
 20
50.14078538351664
 30
0.0
  0
LINE
  5
28F
330
1F
100
AcDbEntity
  8
0
  6
Continuous
 62
     7
370
    25
100
AcDbLine
 10
223.2253239737
 20
50.1407853835
 30
0.0
 11
225.005616964
 21
48.995014121
 31
0.0
  0
LINE
  5
290
330
1F
100
AcDbEntity
  8
0
  6
Continuous
 62
     7
370
    25
100
AcDbLine
 10
226.8357080662
 20
50.0168333843
 30
0.0
 11
226.7477090437
 21
50.124324521
 31
0.0
  0
LINE
  5
291
330
1F
100
AcDbEntity
  8
0
  6
Continuous
 62
     7
370
    25
100
AcDbLine
 10
224.9193004552
 20
51.1186971908
 30
0.0
 11
223.2253239737
 21
50.1407853835
 31
0.0
  0
LINE
  5
292
330
1F
100
AcDbEntity
  8
0
  6
Continuous
 62
     7
370
    25
100
AcDbLine
 10
225.0619944807
 20
51.0974048301
 30
0.0
 11
224.9197207693
 21
51.118209446
 31
0.0
  0
LINE
  5
293
330
1F
100
AcDbEntity
  8
0
  6
Continuous
 62
     7
370
    25
100
AcDbLine
 10
226.747782049
 20
50.1242203817
 30
0.0
 11
225.0619944807
 21
51.0974048301
 31
0.0
  0
LINE
  5
294
330
1F
100
AcDbEntity
  8
0
  6
Continuous
 62
     7
370
    25
100
AcDbLine
 10
226.8357080662
 20
50.0734560408
 30
0.0
 11
226.747735592
 21
50.1242471821
 31
0.0
  0
SPLINE
  5
295
330
1F
100
AcDbEntity
  8
0
  6
Continuous
 62
     7
370
    25
100
AcDbSpline
210
0.0
220
0.0
230
1.0
 70
     8
 71
     3
 72
    19
 73
    15
 74
     0
 42
0.000000001
 43
0.00000001
 40
0.0
 40
0.0
 40
0.0
 40
0.0
 40
0.063785280148703
 40
0.1289627947844053
 40
0.195587135758269
 40
0.2637094156895535
 40
0.3333774494011574
 40
0.4046359392186754
 40
0.4775266604141308
 40
0.5520886438820536
 40
0.6283583538394083
 40
0.7063698589396168
 40
0.8377040422813519
 40
1.0
 40
1.0
 40
1.0
 40
1.0
 10
222.3638009394812
 20
50.24138923270735
 30
0.0
 10
222.3844903084878
 20
50.22803009269612
 30
0.0
 10
222.4263206311452
 20
50.2010202241536
 30
0.0
 10
222.4868116047433
 20
50.16349825862556
 30
0.0
 10
222.5462958029251
 20
50.12797851753423
 30
0.0
 10
222.604376962398
 20
50.09499838861782
 30
0.0
 10
222.6609090794857
 20
50.06479195234808
 30
0.0
 10
222.7156541342387
 20
50.03767851238774
 30
0.0
 10
222.7683765118301
 20
50.01394689463815
 30
0.0
 10
222.818818144756
 20
49.99390664119738
 30
0.0
 10
222.8667010632282
 20
49.97778677964877
 30
0.0
 10
222.9216652434253
 20
49.96350880329695
 30
0.0
 10
222.9844966071764
 20
49.95337024221762
 30
0.0
 10
223.0230041503497
 20
49.95984452162032
 30
0.0
 10
223.0442881322194
 20
49.9634230009018
 30
0.0
  0
LINE
  5
296
330
1F
100
AcDbEntity
  8
0
  6
Continuous
 62
     7
370
    25
100
AcDbLine
 10
223.0689240632
 20
49.9894931481
 30
0.0
 11
223.1477280838
 21
50.0728848584
 31
0.0
  0
SPLINE
  5
297
330
1F
100
AcDbEntity
  8
0
  6
Continuous
 62
     7
370
    25
100
AcDbSpline
210
0.0
220
0.0
230
1.0
 70
     8
 71
     3
 72
     9
 73
     5
 74
     0
 42
0.000000001
 43
0.00000001
 40
0.0
 40
0.0
 40
0.0
 40
0.0
 40
0.523202776288562
 40
0.9999999999999999
 40
0.9999999999999999
 40
0.9999999999999999
 40
0.9999999999999999
 10
224.7531231009865
 20
51.02276504624248
 30
0.0
 10
224.6840987879928
 20
51.04780720531673
 30
0.0
 10
224.5521722843085
 20
51.09567040522534
 30
0.0
 10
224.3107351319541
 20
51.23326860215526
 30
0.0
 10
224.1956185680107
 20
51.29887504043914
 30
0.0
  0
LINE
  5
298
330
1F
100
AcDbEntity
  8
0
  6
Continuous
 62
     7
370
    25
100
AcDbLine
 10
220.4661174449
 20
51.0647645073
 30
0.0
 11
220.9175876146
 21
51.1770290409
 31
0.0
  0
LINE
  5
299
330
1F
100
AcDbEntity
  8
0
  6
Continuous
 62
     7
370
    25
100
AcDbLine
 10
220.9175876146
 20
51.1770290409
 30
0.0
 11
222.3638009395
 21
50.2413892327
 31
0.0
  0
SPLINE
  5
29A
330
1F
100
AcDbEntity
  8
0
  6
Continuous
 62
     7
370
    25
100
AcDbSpline
210
0.0
220
0.0
230
1.0
 70
     8
 71
     3
 72
     8
 73
     4
 74
     0
 42
0.000000001
 43
0.00000001
 40
0.0
 40
0.0
 40
0.0
 40
0.0
 40
1.0
 40
1.0
 40
1.0
 40
1.0
 10
220.6369053234979
 20
50.67001503492403
 30
0.0
 10
220.5797800545739
 20
50.80180121871967
 30
0.0
 10
220.5228515628563
 20
50.93338544038046
 30
0.0
 10
220.4661174449068
 20
51.06476450728182
 30
0.0
  0
LINE
  5
29B
330
1F
100
AcDbEntity
  8
0
  6
Continuous
 62
     7
370
    25
100
AcDbLine
 10
222.2552888251
 20
51.9492675122
 30
0.0
 11
220.9175876146
 21
51.1770290409
 31
0.0
  0
LINE
  5
29C
330
1F
100
AcDbEntity
  8
0
  6
Continuous
 62
     7
370
    25
100
AcDbLine
 10
223.2383176219
 20
51.8515139788
 30
0.0
 11
222.2552883512
 21
51.9492675598
 31
0.0
  0
LINE
  5
29D
330
1F
100
AcDbEntity
  8
0
  6
Continuous
 62
     7
370
    25
100
AcDbLine
 10
224.195618568
 20
51.2988750404
 30
0.0
 11
223.2383168724
 21
51.8515135461
 31
0.0
  0
SPLINE
  5
29E
330
1F
100
AcDbEntity
  8
0
  6
Continuous
 62
     7
370
    25
100
AcDbSpline
210
0.0
220
0.0
230
1.0
 70
     8
 71
     3
 72
     8
 73
     4
 74
     0
 42
0.000000001
 43
0.00000001
 40
0.0
 40
0.0
 40
0.0
 40
0.0
 40
1.0
 40
1.0
 40
1.0
 40
1.0
 10
220.4661174449091
 20
51.06476450727671
 30
0.0
 10
220.4629801071589
 20
51.09998081414923
 30
0.0
 10
220.460987703261
 20
51.13562507037692
 30
0.0
 10
220.4602063058889
 20
51.1717219723718
 30
0.0
  0
LINE
  5
29F
330
1F
100
AcDbEntity
  8
0
  6
Continuous
 62
     7
370
    25
100
AcDbLine
 10
221.2712918384
 20
51.6399516837
 30
0.0
 11
220.4602063059
 21
51.1717219724
 31
0.0
  0
SPLINE
  5
2A0
330
1F
100
AcDbEntity
  8
0
  6
Continuous
 62
     7
370
    25
100
AcDbSpline
210
0.0
220
0.0
230
1.0
 70
     8
 71
     3
 72
     8
 73
     4
 74
     0
 42
0.000000001
 43
0.00000001
 40
0.0000004089325119
 40
0.0000004089325119
 40
0.0000004089325119
 40
0.0000004089325119
 40
0.0015399868451459
 40
0.0015399868451459
 40
0.0015399868451459
 40
0.0015399868451459
 10
221.2712918383777
 20
51.63995168372791
 30
0.0
 10
221.5097684064009
 20
51.73432806954427
 30
0.0
 10
221.7482153640696
 20
51.82875668147447
 30
0.0
 10
221.9866241029199
 20
51.92325006443694
 30
0.0
  0
LINE
  5
2A1
330
1F
100
AcDbEntity
  8
0
  6
Continuous
 62
     7
370
    25
100
AcDbLine
 10
221.9866241029
 20
51.9232500644
 30
0.0
 11
222.0110203336
 21
51.9282439942
 31
0.0
  0
LINE
  5
2A2
330
1F
100
AcDbEntity
  8
0
  6
Continuous
 62
     7
370
    25
100
AcDbLine
 10
222.2552886176
 20
51.9492674936
 30
0.0
 11
222.0110208754
 21
51.9282443869
 31
0.0
  0
SPLINE
  5
2A3
330
1F
100
AcDbEntity
  8
0
  6
Continuous
 62
     7
370
    25
100
AcDbSpline
210
0.0
220
0.0
230
1.0
 70
     8
 71
     3
 72
     8
 73
     4
 74
     0
 42
0.000000001
 43
0.00000001
 40
0.0
 40
0.0
 40
0.0
 40
0.0
 40
1.0
 40
1.0
 40
1.0
 40
1.0
 10
223.238316017428
 20
51.8515140570239
 30
0.0
 10
223.2689240515512
 20
51.83657404921778
 30
0.0
 10
223.2994755525231
 20
51.8216970918244
 30
0.0
 10
223.3299694906377
 20
51.80688352814349
 30
0.0
  0
LWPOLYLINE
  5
2A4
330
1F
100
AcDbEntity
  8
0
  6
Continuous
 62
     7
370
    25
100
AcDbPolyline
 90
        3
 70
   128
 43
0.0
 10
226.8780896111
 20
51.3399635677
 10
226.4035599477
 20
51.1420017839
 10
225.6667052001
 20
50.9159592273
  0
LWPOLYLINE
  5
2A5
330
1F
100
AcDbEntity
  8
0
  6
Continuous
 62
     7
370
    18
100
AcDbPolyline
 90
       23
 70
   128
 43
0.0
 10
270.5182330402
 20
27.8736000342
 10
270.5625520932
 20
28.7289474991
 10
270.6948374206
 20
29.6224984577
 10
270.9130837116
 20
30.5407075884
 10
271.213982575
 20
31.4696557767
 10
271.5929726907
 20
32.3952611151
 10
272.0443089548
 20
33.30349237
 10
272.5611495697
 20
34.1805816814
 10
273.1356597585
 20
35.0132332695
 10
273.7591305324
 20
35.788824985
 10
274.4221107099
 20
36.4955996479
 10
275.1145501873
 20
37.1228432749
 10
275.8259522881
 20
37.661047492
 10
276.5455328815
 20
38.1020536719
 10
277.2623838592
 20
38.4391766103
 10
277.9656384911
 20
38.6673058673
 10
278.644636154
 20
38.7829832358
 10
279.2890839352
 20
38.7844551647
 10
279.8892126634
 20
38.6716993413
 10
280.4359249989
 20
38.4464250287
 10
280.9209333398
 20
38.1120471561
 10
281.3368854541
 20
37.673634551
 10
281.6320299677
 20
37.2229791943
  0
LWPOLYLINE
  5
2A6
330
1F
100
AcDbEntity
  8
0
  6
Continuous
 62
     7
370
    18
100
AcDbPolyline
 90
       11
 70
   128
 43
0.0
 10
273.8259570841
 20
23.7009992176
 10
273.7591305324
 20
23.7002356802
 10
273.1356597585
 20
23.7559833625
 10
272.5611495697
 20
23.9253196057
 10
272.0443089548
 20
24.2056774449
 10
271.5929726907
 20
24.5928069412
 10
271.213982575
 20
25.0808396059
 10
270.9130837116
 20
25.6623773614
 10
270.6948374206
 20
26.3286046881
 10
270.5625520932
 20
27.0694222588
 10
270.5182330402
 20
27.8736000342
  0
LWPOLYLINE
  5
2A7
330
1F
100
AcDbEntity
  8
0
  6
Continuous
 62
     7
370
    18
100
AcDbPolyline
 90
       49
 70
   128
 43
0.0
 10
271.5673599647
 20
28.0078689814
 10
271.6119012463
 20
28.8183228949
 10
271.7447629776
 20
29.6663359865
 10
271.9636718575
 20
30.5373985169
 10
272.2648822944
 20
31.4166063648
 10
272.6432404941
 20
32.2889160402
 10
273.0922726431
 20
33.1394020827
 10
273.6042956766
 20
33.9535124402
 10
274.1705487387
 20
34.7173174589
 10
274.7813430824
 20
35.417748223
 10
275.4262278472
 20
36.0428201682
 10
276.094168876
 20
36.5818381399
 10
276.7737375126
 20
37.0255793914
 10
277.4533061492
 20
37.3664513868
 10
278.1212471781
 20
37.5986217117
 10
278.7661319429
 20
37.7181178675
 10
279.3769262866
 20
37.7228952418
 10
279.9431793487
 20
37.6128720924
 10
280.4552023822
 20
37.389930946
 10
280.9042345312
 20
37.0578863874
 10
281.2825927309
 20
36.6224197909
 10
281.5838031678
 20
36.0909821109
 10
281.8027120477
 20
35.4726663934
 10
281.935573779
 20
34.7780521916
 10
281.9801150606
 20
34.0190245473
 10
281.935573779
 20
33.2085706337
 10
281.8027120477
 20
32.3605575422
 10
281.5838031678
 20
31.4894950118
 10
281.2825927309
 20
30.6102871638
 10
280.9042345312
 20
29.7379774885
 10
280.4552023822
 20
28.887491446
 10
279.9431793487
 20
28.0733810885
 10
279.3769262866
 20
27.3095760698
 10
278.7661319429
 20
26.6091453056
 10
278.1212471781
 20
25.9840733605
 10
277.4533061492
 20
25.4450553887
 10
276.7737375126
 20
25.0013141372
 10
276.094168876
 20
24.6604421419
 10
275.4262278472
 20
24.428271817
 10
274.7813430824
 20
24.3087756612
 10
274.1705487387
 20
24.3039982869
 10
273.6042956766
 20
24.4140214362
 10
273.0922726431
 20
24.6369625826
 10
272.6432404941
 20
24.9690071413
 10
272.2648822944
 20
25.4044737377
 10
271.9636718575
 20
25.9359114177
 10
271.7447629776
 20
26.5542271353
 10
271.6119012463
 20
27.248841337
 10
271.5673599647
 20
28.0078689814
  0
LWPOLYLINE
  5
2A8
330
1F
100
AcDbEntity
  8
0
  6
Continuous
 62
     7
370
    18
100
AcDbPolyline
 90
        9
 70
   128
 43
0.0
 10
240.8880683674
 20
42.5452113438
 10
240.9331347558
 20
41.594806714
 10
241.0678233007
 20
40.7072030929
 10
241.2906079271
 20
39.8924573842
 10
241.5989643962
 20
39.1598009823
 10
241.989398906
 20
38.517535177
 10
242.4574876774
 20
37.9729370965
 10
242.9979270777
 20
37.5321772546
 10
243.2184767847
 20
37.394457271
  0
LWPOLYLINE
  5
2A9
330
1F
100
AcDbEntity
  8
0
  6
Continuous
 62
     7
370
    18
100
AcDbPolyline
 90
       24
 70
   128
 43
0.0
 10
254.4675625269
 20
56.8805566746
 10
254.3926444236
 20
56.9226690525
 10
253.755397887
 20
57.19869133
 10
253.0624921422
 20
57.3607163684
 10
252.3217780881
 20
57.4069083593
 10
251.5416483109
 20
57.3367439291
 10
250.7309419927
 20
57.1510180688
 10
249.89884476
 20
56.8518351266
 10
249.0547846071
 20
56.4425849647
 10
248.2083250726
 20
55.9279045511
 10
247.3690568814
 20
55.3136254205
 10
246.5464892774
 20
54.6067076008
 10
245.7499422802
 20
53.8151607535
 10
244.9884410856
 20
52.9479534205
 10
244.2706138064
 20
52.0149114076
 10
243.6045937125
 20
51.0266064536
 10
242.9979270777
 20
49.9942364484
 10
242.4574876774
 20
48.9294985567
 10
241.989398906
 20
47.8444566844
 10
241.5989643962
 20
46.7514047894
 10
241.2906079271
 20
45.6627275863
 10
241.0678233007
 20
44.5907602231
 10
240.9331347558
 20
43.5476485181
 10
240.8880683674
 20
42.5452113438
  0
ARC
  5
2AA
330
1F
100
AcDbEntity
  8
0
  6
Continuous
 62
     7
370
    18
100
AcDbCircle
 10
277.871950468
 20
32.904679699
 30
0.0
 40
1.44390432210432
100
AcDbArc
 50
4.7873705436
 51
85.8048215862
  0
LWPOLYLINE
  5
2AB
330
1F
100
AcDbEntity
  8
0
  6
Continuous
 62
     7
370
    18
100
AcDbPolyline
 90
        9
 70
   128
 43
0.0
 10
276.5086820277
 20
27.895817787
 10
276.1652579043
 20
27.7658170678
 10
275.7015763923
 20
27.683457809
 10
275.2766455767
 20
27.7214530272
 10
274.9058235643
 20
27.8784294762
 10
274.6025128288
 20
28.1487136183
 10
274.3776758105
 20
28.5225366802
 10
274.2394387049
 20
28.9863877226
 10
274.1927977613
 20
29.5235019603
  0
LWPOLYLINE
  5
2AC
330
1F
100
AcDbEntity
  8
0
  6
Continuous
 62
     7
370
    18
100
AcDbPolyline
 90
       30
 70
   128
 43
0.0
 10
238.7667480239
 20
42.5452113438
 10
238.8115486224
 20
43.6076646102
 10
238.9455051696
 20
44.7112844087
 10
239.1672863452
 20
45.84510247
 10
239.474687988
 20
46.9978504009
 10
239.8646550026
 20
48.1580716745
 10
240.3333117215
 20
49.3142354906
 10
240.8760004236
 20
50.4548513736
 10
241.487327625
 20
51.5685833706
 10
242.1612176811
 20
52.6443627125
 10
242.8909731698
 20
53.671497821
 10
243.6693414533
 20
54.6397805658
 10
244.4885867579
 20
55.5395877181
 10
245.3405670555
 20
56.3619765901
 10
246.2168149834
 20
57.0987739118
 10
247.1086219958
 20
57.7426570602
 10
248.0071249141
 20
58.2872268355
 10
248.9033940126
 20
58.7270710585
 10
249.7885217663
 20
59.0578183597
 10
250.6537113779
 20
59.2761816239
 10
251.4903642044
 20
59.3799906589
 10
252.2901652141
 20
59.3682137637
 10
253.0451656252
 20
59.2409679825
 10
253.7478619044
 20
58.9995179411
 10
254.3912703405
 20
58.6462632783
 10
254.9689964514
 20
58.1847147979
 10
255.4752985353
 20
57.6194595758
 10
255.9051447347
 20
56.9561153725
 10
256.254263045
 20
56.2012748007
 10
256.4071461374
 20
55.7608588897
  0
LWPOLYLINE
  5
2AD
330
1F
100
AcDbEntity
  8
0
  6
Continuous
 62
     7
370
    18
100
AcDbPolyline
 90
       14
 70
   128
 43
0.0
 10
245.1580603952
 20
36.2747594861
 10
244.4885867579
 20
36.1571293529
 10
243.6693414533
 20
36.1110560102
 10
242.8909731698
 20
36.180653864
 10
242.1612176811
 20
36.3652312195
 10
241.487327625
 20
36.662953664
 10
240.8760004236
 20
37.0708622982
 10
240.3333117215
 20
37.5849031427
 10
239.8646550026
 20
38.1999674288
 10
239.474687988
 20
38.9099423711
 10
239.1672863452
 20
39.7077719198
 10
238.9455051696
 20
40.5855268864
 10
238.8115486224
 20
41.5344837476
 10
238.7667480239
 20
42.5452113438
  0
LWPOLYLINE
  5
2AE
330
1F
100
AcDbEntity
  8
0
  6
Continuous
 62
     7
370
    18
100
AcDbPolyline
 90
       28
 70
   128
 43
0.0
 10
230.3610161625
 20
44.9587178244
 10
230.4058145932
 20
46.1364724076
 10
230.5398491946
 20
47.3564675705
 10
230.762040799
 20
48.6088806295
 10
231.0706004502
 20
49.8836278909
 10
231.4630438073
 20
51.1704458394
 10
231.9362111472
 20
52.4589737734
 10
232.4862928046
 20
53.7388372237
 10
233.1088598455
 20
54.9997314824
 10
233.7988997262
 20
56.2315045702
 10
234.5508566512
 20
57.4242389746
 10
235.3586763055
 20
58.5683314993
 10
236.2158546004
 20
59.6545705842
 10
237.1154900401
 20
60.6742104708
 10
238.0503392891
 20
61.6190416183
 10
239.0128754908
 20
62.4814568018
 10
239.9953488699
 20
63.2545123614
 10
240.9898491283
 20
63.9319841083
 10
241.9883691346
 20
64.5084174382
 10
242.982869393
 20
64.979171249
 10
243.965342772
 20
65.3404553078
 10
244.9278789738
 20
65.5893607677
 10
245.8627282228
 20
65.7238835884
 10
246.7623636625
 20
65.7429406712
 10
247.6195419573
 20
65.6463785796
 10
248.4273616117
 20
65.434974775
 10
249.1793185367
 20
65.1104313563
 10
249.3572196589
 20
65.012273126
  0
LWPOLYLINE
  5
2AF
330
1F
100
AcDbEntity
  8
0
  6
Continuous
 62
     7
370
    18
100
AcDbPolyline
 90
       10
 70
   128
 43
0.0
 10
233.620998604
 20
37.7533851826
 10
233.1088598455
 20
38.0902969523
 10
232.4862928046
 20
38.6323906056
 10
231.9362111472
 20
39.277143293
 10
231.4630438073
 20
40.0193638449
 10
231.0706004502
 20
40.8530763379
 10
230.762040799
 20
41.7715682091
 10
230.5398491946
 20
42.7674443022
 10
230.4058145932
 20
43.8326864083
 10
230.3610161625
 20
44.9587178244
  0
LWPOLYLINE
  5
2B0
330
1F
100
AcDbEntity
  8
0
  6
Continuous
 62
     7
370
    18
100
AcDbPolyline
 90
       13
 70
   128
 43
0.0
 10
234.9850972641
 20
41.6230810981
 10
234.8527823023
 20
42.4153136579
 10
234.7699026793
 20
43.4683762178
 10
234.7799604592
 20
44.5791815991
 10
234.8828606413
 20
45.7372376723
 10
235.0776312802
 20
46.9316060009
 10
235.3624326669
 20
48.1510051604
 10
235.7345747054
 20
49.3839172971
 10
236.1905423225
 20
50.6186969206
 10
236.7260286689
 20
51.8436809006
 10
237.3359758
 20
53.0472986322
 10
238.0146224508
 20
54.2181813255
 10
238.755558454
 20
55.3452693898
  0
LWPOLYLINE
  5
2B1
330
1F
100
AcDbEntity
  8
0
  6
Continuous
 62
     7
370
    18
100
AcDbPolyline
 90
       17
 70
   128
 43
0.0
 10
235.4968933385
 20
38.6931535494
 10
235.1403101304
 20
39.2379836787
 10
234.7444310057
 20
40.0400981892
 10
234.4357026896
 20
40.9315112928
 10
234.2169540395
 20
41.9040550296
 10
234.0901894349
 20
42.9488180451
 10
234.0565704116
 20
44.0562272441
 10
234.1164050186
 20
45.2161355087
 10
234.2691449951
 20
46.4179146755
 10
234.5133907949
 20
47.6505529207
 10
234.8469044097
 20
48.9027556608
 10
235.266629876
 20
50.1630490441
 10
235.7687212769
 20
51.419885085
 10
236.3485779818
 20
52.661747477
 10
237.0008868017
 20
53.8772571166
 10
237.7196706737
 20
55.0552763683
 10
238.498343428
 20
56.1850111191
  0
LINE
  5
2B2
330
1F
100
AcDbEntity
  8
0
  6
Continuous
 62
     7
370
    18
100
AcDbLine
 10
241.4902671058
 20
57.5860320444
 30
0.0
 11
241.5318161454
 21
57.6295763575
 31
0.0
  0
ARC
  5
2B3
330
1F
100
AcDbEntity
  8
0
  6
Continuous
 62
     7
370
    18
100
AcDbCircle
 10
251.5814688178
 20
48.4021427659
 30
0.0
 40
14.35348911364193
100
AcDbArc
 50
109.9319623821
 51
139.4246774734
  0
LWPOLYLINE
  5
2B4
330
1F
100
AcDbEntity
  8
0
  6
Continuous
 62
     7
370
    18
100
AcDbPolyline
 90
       12
 70
   128
 43
0.0
 10
239.8425366689
 20
57.8571747317
 10
240.7548814487
 20
58.8279103323
 10
241.7002097498
 20
59.7134527276
 10
242.6696149201
 20
60.5054585536
 10
243.653963461
 20
61.1964657251
 10
244.6439810811
 20
61.7799637413
 10
245.6303400765
 20
62.2504550267
 10
246.6037472139
 20
62.6035067274
 10
247.5550312891
 20
62.8357924765
 10
248.4752295362
 20
62.9451237345
 10
249.3556720721
 20
62.930470409
 10
249.4815002863
 20
62.9178281008
  0
LINE
  5
2B5
330
1F
100
AcDbEntity
  8
0
  6
Continuous
 62
     7
370
    18
100
AcDbLine
 10
225.8746516541
 20
55.3313255279
 30
0.0
 11
226.1808157776
 21
54.9605902582
 31
0.0
  0
LINE
  5
2B6
330
1F
100
AcDbEntity
  8
0
  6
Continuous
 62
     7
370
    18
100
AcDbLine
 10
225.8746516541
 20
47.5672151365
 30
0.0
 11
226.1808157776
 21
48.2547488405
 31
0.0
  0
LINE
  5
2B7
330
1F
100
AcDbEntity
  8
0
  6
Continuous
 62
     7
370
    18
100
AcDbLine
 10
226.9167259313
 20
48.6795807295
 30
0.0
 11
226.1808231037
 21
48.2547530698
 31
0.0
  0
LINE
  5
2B8
330
1F
100
AcDbEntity
  8
0
  6
Continuous
 62
     7
370
    18
100
AcDbLine
 10
226.8501505562
 20
49.4228066227
 30
0.0
 11
225.5408795822
 21
48.6669805776
 31
0.0
  0
LINE
  5
2B9
330
1F
100
AcDbEntity
  8
0
  6
Continuous
 62
     7
370
    18
100
AcDbLine
 10
222.3638009395
 20
50.2413892327
 30
0.0
 11
222.0673134367
 21
49.7453276251
 31
0.0
  0
LINE
  5
2BA
330
1F
100
AcDbEntity
  8
0
  6
Continuous
 62
     7
370
    18
100
AcDbLine
 10
224.195618568
 20
51.2988750404
 30
0.0
 11
222.3638611889
 21
50.241424014
 31
0.0
  0
LINE
  5
2BB
330
1F
100
AcDbEntity
  8
0
  6
Continuous
 62
     7
370
    18
100
AcDbLine
 10
224.195618568
 20
51.2988750404
 30
0.0
 11
224.3169285296
 21
51.2371242026
 31
0.0
  0
OLE2FRAME
  5
2BC
330
1F
100
AcDbEntity
  8
0
100
AcDbOle2Frame
 70
     2
  3
Paintbrush-Bild
 10
13.8511154363
 20
38.264191557
 30
0.0
 11
51.6290888628
 21
31.9806341108
 31
0.0
 71
     2
 72
     0
 73
     1
 90
    12928
310
80552BED0767C5B32B40DDAF6807D121434000000000000000006FFBDDFB85D0
310
4940DDAF6807D121434000000000000000006FFBDDFB85D04940416F4BD60AFB
310
3F4000000000000000002BED0767C5B32B40416F4BD60AFB3F40000000000000
310
0000000000000100000000010000010000000100000000000100000000320000
310
D0CF11E0A1B11AE1000000000000000000000000000000003E000300FEFF0900
310
0600000000000000000000000100000001000000000000000010000002000000
310
01000000FEFFFFFF0000000000000000FFFFFFFFFFFFFFFFFFFFFFFFFFFFFFFF
310
FFFFFFFFFFFFFFFFFFFFFFFFFFFFFFFFFFFFFFFFFFFFFFFFFFFFFFFFFFFFFFFF
310
FFFFFFFFFFFFFFFFFFFFFFFFFFFFFFFFFFFFFFFFFFFFFFFFFFFFFFFFFFFFFFFF
310
FFFFFFFFFFFFFFFFFFFFFFFFFFFFFFFFFFFFFFFFFFFFFFFFFFFFFFFFFFFFFFFF
310
FFFFFFFFFFFFFFFFFFFFFFFFFFFFFFFFFFFFFFFFFFFFFFFFFFFFFFFFFFFFFFFF
310
FFFFFFFFFFFFFFFFFFFFFFFFFFFFFFFFFFFFFFFFFFFFFFFFFFFFFFFFFFFFFFFF
310
FFFFFFFFFFFFFFFFFFFFFFFFFFFFFFFFFFFFFFFFFFFFFFFFFFFFFFFFFFFFFFFF
310
FFFFFFFFFFFFFFFFFFFFFFFFFFFFFFFFFFFFFFFFFFFFFFFFFFFFFFFFFFFFFFFF
310
FFFFFFFFFFFFFFFFFFFFFFFFFFFFFFFFFFFFFFFFFFFFFFFFFFFFFFFFFFFFFFFF
310
FFFFFFFFFFFFFFFFFFFFFFFFFFFFFFFFFFFFFFFFFFFFFFFFFFFFFFFFFFFFFFFF
310
FFFFFFFFFFFFFFFFFFFFFFFFFFFFFFFFFFFFFFFFFFFFFFFFFFFFFFFFFFFFFFFF
310
FFFFFFFFFFFFFFFFFFFFFFFFFFFFFFFFFFFFFFFFFFFFFFFFFFFFFFFFFFFFFFFF
310
FFFFFFFFFFFFFFFFFFFFFFFFFFFFFFFFFFFFFFFFFFFFFFFFFFFFFFFFFFFFFFFF
310
FFFFFFFFFFFFFFFFFFFFFFFFFFFFFFFFFFFFFFFFFFFFFFFFFFFFFFFFFFFFFFFF
310
FDFFFFFFFEFFFFFFFEFFFFFFFEFFFFFF05000000060000000700000008000000
310
090000000A0000000B0000000C0000000D0000000E0000000F00000010000000
310
11000000120000001300000014000000150000001600000017000000FEFFFFFF
310
FFFFFFFFFFFFFFFFFFFFFFFFFFFFFFFFFFFFFFFFFFFFFFFFFFFFFFFFFFFFFFFF
310
FFFFFFFFFFFFFFFFFFFFFFFFFFFFFFFFFFFFFFFFFFFFFFFFFFFFFFFFFFFFFFFF
310
FFFFFFFFFFFFFFFFFFFFFFFFFFFFFFFFFFFFFFFFFFFFFFFFFFFFFFFFFFFFFFFF
310
FFFFFFFFFFFFFFFFFFFFFFFFFFFFFFFFFFFFFFFFFFFFFFFFFFFFFFFFFFFFFFFF
310
FFFFFFFFFFFFFFFFFFFFFFFFFFFFFFFFFFFFFFFFFFFFFFFFFFFFFFFFFFFFFFFF
310
FFFFFFFFFFFFFFFFFFFFFFFFFFFFFFFFFFFFFFFFFFFFFFFFFFFFFFFFFFFFFFFF
310
FFFFFFFFFFFFFFFFFFFFFFFFFFFFFFFFFFFFFFFFFFFFFFFFFFFFFFFFFFFFFFFF
310
FFFFFFFFFFFFFFFFFFFFFFFFFFFFFFFFFFFFFFFFFFFFFFFFFFFFFFFFFFFFFFFF
310
FFFFFFFFFFFFFFFFFFFFFFFFFFFFFFFFFFFFFFFFFFFFFFFFFFFFFFFFFFFFFFFF
310
FFFFFFFFFFFFFFFFFFFFFFFFFFFFFFFFFFFFFFFFFFFFFFFFFFFFFFFFFFFFFFFF
310
FFFFFFFFFFFFFFFFFFFFFFFFFFFFFFFFFFFFFFFFFFFFFFFFFFFFFFFFFFFFFFFF
310
FFFFFFFFFFFFFFFFFFFFFFFFFFFFFFFFFFFFFFFFFFFFFFFFFFFFFFFFFFFFFFFF
310
FFFFFFFFFFFFFFFFFFFFFFFFFFFFFFFFFFFFFFFFFFFFFFFFFFFFFFFFFFFFFFFF
310
52006F006F007400200045006E00740072007900000000000000000000000000
310
0000000000000000000000000000000000000000000000000000000000000000
310
16000500FFFFFFFFFFFFFFFF020000000A00030000000000C000000000000046
310
000000000000000000000000F0F5BE1E06A7D30103000000C000000000000000
310
01004F006C006500000000000000000000000000000000000000000000000000
310
0000000000000000000000000000000000000000000000000000000000000000
310
0A000200FFFFFFFFFFFFFFFFFFFFFFFF00000000000000000000000000000000
310
0000000000000000000000000000000000000000000000001400000000000000
310
010043006F006D0070004F0062006A0000000000000000000000000000000000
310
0000000000000000000000000000000000000000000000000000000000000000
310
120002010100000003000000FFFFFFFF00000000000000000000000000000000
310
0000000000000000000000000000000000000000010000004D00000000000000
310
01004F006C006500310030004E00610074006900760065000000000000000000
310
0000000000000000000000000000000000000000000000000000000000000000
310
1A000200FFFFFFFFFFFFFFFFFFFFFFFF00000000000000000000000000000000
310
0000000000000000000000000000000000000000040000002426000000000000
310
FEFFFFFF02000000FEFFFFFFFFFFFFFFFFFFFFFFFFFFFFFFFFFFFFFFFFFFFFFF
310
FFFFFFFFFFFFFFFFFFFFFFFFFFFFFFFFFFFFFFFFFFFFFFFFFFFFFFFFFFFFFFFF
310
FFFFFFFFFFFFFFFFFFFFFFFFFFFFFFFFFFFFFFFFFFFFFFFFFFFFFFFFFFFFFFFF
310
FFFFFFFFFFFFFFFFFFFFFFFFFFFFFFFFFFFFFFFFFFFFFFFFFFFFFFFFFFFFFFFF
310
FFFFFFFFFFFFFFFFFFFFFFFFFFFFFFFFFFFFFFFFFFFFFFFFFFFFFFFFFFFFFFFF
310
FFFFFFFFFFFFFFFFFFFFFFFFFFFFFFFFFFFFFFFFFFFFFFFFFFFFFFFFFFFFFFFF
310
FFFFFFFFFFFFFFFFFFFFFFFFFFFFFFFFFFFFFFFFFFFFFFFFFFFFFFFFFFFFFFFF
310
FFFFFFFFFFFFFFFFFFFFFFFFFFFFFFFFFFFFFFFFFFFFFFFFFFFFFFFFFFFFFFFF
310
FFFFFFFFFFFFFFFFFFFFFFFFFFFFFFFFFFFFFFFFFFFFFFFFFFFFFFFFFFFFFFFF
310
FFFFFFFFFFFFFFFFFFFFFFFFFFFFFFFFFFFFFFFFFFFFFFFFFFFFFFFFFFFFFFFF
310
FFFFFFFFFFFFFFFFFFFFFFFFFFFFFFFFFFFFFFFFFFFFFFFFFFFFFFFFFFFFFFFF
310
FFFFFFFFFFFFFFFFFFFFFFFFFFFFFFFFFFFFFFFFFFFFFFFFFFFFFFFFFFFFFFFF
310
FFFFFFFFFFFFFFFFFFFFFFFFFFFFFFFFFFFFFFFFFFFFFFFFFFFFFFFFFFFFFFFF
310
FFFFFFFFFFFFFFFFFFFFFFFFFFFFFFFFFFFFFFFFFFFFFFFFFFFFFFFFFFFFFFFF
310
FFFFFFFFFFFFFFFFFFFFFFFFFFFFFFFFFFFFFFFFFFFFFFFFFFFFFFFFFFFFFFFF
310
FFFFFFFFFFFFFFFFFFFFFFFFFFFFFFFFFFFFFFFFFFFFFFFFFFFFFFFFFFFFFFFF
310
0100000200000000000000000000000000000000000000000000000000000000
310
0000000000000000000000000000000000000000000000000000000000000000
310
0100FEFF030A0000FFFFFFFF0A00030000000000C00000000000004607000000
310
5042727573680007000000504272757368000700000050427275736800F439B2
310
7100000000000000000000000000000000000000000000000000000000000000
310
0000000000000000000000000000000000000000000000000000000000000000
310
0000000000000000000000000000000000000000000000000000000000000000
310
0000000000000000000000000000000000000000000000000000000000000000
310
0000000000000000000000000000000000000000000000000000000000000000
310
0000000000000000000000000000000000000000000000000000000000000000
310
0000000000000000000000000000000000000000000000000000000000000000
310
0000000000000000000000000000000000000000000000000000000000000000
310
0000000000000000000000000000000000000000000000000000000000000000
310
0000000000000000000000000000000000000000000000000000000000000000
310
0000000000000000000000000000000000000000000000000000000000000000
310
0000000000000000000000000000000000000000000000000000000000000000
310
20260000424D0E260000000000003E00000028000000B40200006E0000000100
310
01000000000000000000130B0000130B00000200000002000000000000FFFFFF
310
FFFFFFFFFFFFFFFFFFFFFFFFFFFFFFFFFFFFFFFFFFFFFFFFFFFFFFFFFFFFFFFF
310
FFFFFFFFFFFFFFFFFFFFFFFFFFFFFFFFFFFFFFFFFFFFFFFFFFFFFFFFFFFFFFFF
310
FFFFFFFFFFFFFFFFFFFFFFFFFFFFFFFFFFFFFFFFFFFFFFFFF000FFFFFFFFFFFF
310
FFFFFFFFFFFFFFFFFFFFFFFFFFFFFFFFFFFFFFFFFFFFFFFFFFFFFFFFFFFFFFFF
310
FFFFFFFFFFFFFFFFFFFFFFFFFFFFFFFFFFFFFFFFFFFFFFFFFFFFFFFFFFFFFFFF
310
FFFFFFFFFFFFFFFFFFFFFFFFFFFFFFFFF000FFFFFFFFFFFFFFFFFFFFFFFFFFFF
310
FFFFFFFFFFFFFFFFFFFFFFFFFFFFFFFFFFFFFFFFFFFFFFFFFFFFFFFFFFFFFFFF
310
FFFFFFFFFFFFFFFFFFFFFFFFFFFFFFFFFFFFFFFFFFFFFFFFFFFFFFFFFFFFFFFF
310
FFFFFFFFFFFFFFFFF000FFFFFFFFFFFFFFFFFFFFFFFFFFFFFFFFFFFFFFFFFFFF
310
FFFFFFFFFFFFFFFFFFFFFFFFFFFFFFFFFFFFFFFFFFFFFFFFFFFFFFFFFFFFFFFF
310
FFFFFFFFFFFFFFFFFFFFFFFFFFFFFFFFFFFFFFFFFFFFFFFFFFFFFFFFFFFFFFFF
310
F000FFFFFFFFFFFFFFFFFFFFFFFFFFFFFFFFFFFFFFFFFFFFFFFFFFFFFFFFFFFF
310
FFFFFFFFFFFFFFFFFFFFFFFFFFFFFFFFFFFFFFFFFFFFFFFFFFFFFFFFFFFFFFFF
310
FFFFFFFFFFFFFFFFFFFFFFFFFFFFFFFFFFFFFFFFFFFFFFFFF000FFFFFFFFFFFF
310
FFFFFFFFFFFFFFFFFFFFFFFFFFFFFFFFFFFFFFFFFFFFFFFFFFFFFFFFFFFFFFFF
310
FFFFFFFFFFFFFFFFFFFFFFFFFFFFFFFFFFFFFFFFFFFFFFFFFFFFFFFFFFFFFFFF
310
FFFFFFFFFFFFFFFFFFFFFFFFFFFFFFFFF000FFFFFFFFFFFFFFFFFFFFFFFFFFFF
310
FFFFFFFFFFFFFFFFFFFFFFFFFFFFFFFFFFFFFFFFFFFFFFFFFFFFFFFFFFFFFFFF
310
FFFFFFFFFFFFFFFFFFFFFFFFFFFFFFFFFFFFFFFFFFFFFFFFFFFFFFFFFFFFFFFF
310
FFFFFFFFFFFFFFFFF000FFFFFFFFFFFFFFFFFFFFFFFFFFFFFFFFFFFFFFFFFFFF
310
FFFFFFFFFFFFFFFFFFFFFFFFFFFFFFFFFFFFFFFFFFFFFFFFFFFFFFFFFFFFFFFF
310
FFFFFFFFFFFFFFFFFFFFFFFFFFFFFFFFFFFFFFFFFFFFFFFFFFFFFFFFFFFFFFFF
310
F000FFFFFFFFFFFFFFFFFFFFFFFFFFFFFFFFFFFFFFFFFFFFFFFFFFFFFFFFFFFF
310
FFFFFFFFFFFFFFFFFFFFFFFFFFFFFFFFFFFFFFFFFFFFFFFFFFFFFFFFFFFFFFFF
310
FFFFFFFFFFFFFFFFFFFFFFFFFFFFFFFFFFFFFFFFFFFFFFFFF000FFFFFFFFFFFF
310
FFFFFFFFFFFFFFFFFFFFFFFFFFFFFFFFFFFFFFFFFFFFFFFFFFFFFFFFFFFFFFFF
310
FFFFFFFFFFFFFFFFFFFFFFFFFFFFFFFFFFFFFFFFFFFFFFFFFFFFFFFFFFFFFFFF
310
FFFFFFFFFFFFFFFFFFFFFFFFFFFFFFFFF000FFFFFFFFFFFFFFFFFFFFFFFFFFFF
310
FFFFFFFFFFFFFFFFFFFFFFFFFFFFFFFFFFFFFFFFFFFFFFFFFFFFFFFFFFFFFFFF
310
FFFFFFFFFFFFFFFFFFFFFFFFFFFFFFFFFFFFFFFFFFFFFFFFFFFFFFFFFFFFFFFF
310
FFFFFFFFFFFFFFFFF000FFFFFFFFFFFFFFFFFFFFFFFFFFFFFFFFFFFFFFFFFFFF
310
FFFFFFFFFFFFFFFFFFFFFFFFFFFFFFFFFFFFFFFFFFFFFFFFFFFFFFFFFFFFFFFF
310
FFFFFFFFFFFFFFFFFFFFFFFFFFFFFFFFFFFFFFFFFFFFFFFFFFFFFFFFFFFFFFFF
310
F000FFFFFFFFFFFFFFFFFFFFFFFFFFFFFFFFFFFFFFFFFFFFFFFFFFFFFFFFFFFF
310
FFFFFFFFFFFFFFFFFFFFFFFFFFFFFFFFFFFFFFFFFFFFFFFFFFFFFFFFFFFFFFFF
310
FFFFFFFFFFFFFFFFFFFFFFFFFFFFFFFFFFFFFFFFFFFFFFFFF000FFFFFFFFFFFF
310
FFFFFFFFFFFFFFFFFFFFFFFFFFFFFFFFFFFFFFFFFFFFFFFFFFFFFFFFFFFFFFFF
310
FFFFFFFFFFFFFFFFFFFFFFFFFFFFFFFFFFFFFFFFFFFFFFFFFFFFFFFFFFFFFFFF
310
FFFFFFFFFFFFFFFFFFFFFFFFFFFFFFFFF000FFFFFFFFFFFFFFFFFFFFFFFFFFFF
310
FFFFFFFFFFFFFFFFFFFFFFFFFFFFFFFFFFFFFFFFFFFFFFFFFFFFFFFFFFFFFFFF
310
FFFFFFFFFFFFFFFFFFFFFFFFFFFFFFFFFFFFFFFFFFFFFFFFFFFFFFFFFFFFFFFF
310
FFFFFFFFFFFFFFFFF000FFFFFFFFFFFFFFFFFFFFFFFFFFFFFFFFFFFFFFFFFFFF
310
FFFFFFFFFFFFFFFFFFFFFFFFFFFFFFFFFFFFFFFFFFFFFFFFFFFFFFFFFFFFFFFF
310
FFFFFFFFFFFFFFFFFFFFFFFFFFFFFFFFFFFFFFFFFFFFFFFFFFFFFFFFFFFFFFFF
310
F000FFFFFFFFFFFFFFFFFFFFFFFFFFFFFFFFFFFFFFFFFFFFFFFFFFFFFFFFFFFF
310
FFFFFFFFFFFFFFFFFFFFFFFFFFFFFFFFFFFFFFFFFFFFFFFFFFFFFFFFFFFFFFFF
310
FFFFFFFFFFFFFFFFFFFFFFFFFFFFFFFFFFFFFFFFFFFFFFFFF000FFFFFFFFFFFF
310
FFFFFFFFFFFFFFFFFFFFFFFFFFFFFFFFFFFFFFFFFFFFFFFFFFFFFFFFFFFFFFFF
310
FFFFFFFFFFFFFFFFFFFFFFFFFFFFFFFFFFFFFFFFFFFFFFFFFFFFFFFFFFFFFFFF
310
FFFFFFFFFFFFFFFFFFFFFFFFFFFFFFFFF000FFFFFFFFFFFFFFFFFFFFFFFFFFFF
310
FFFFFFFFFFFFFFFFFFFFFFFFFFFFFFFFFFFFFFFFFFFFFFFFFFFFFFFFFFFFFFFF
310
FFFFFFFFFFFFFFFFFFFFFFFFFFFFFFFFFFFFFFFFFFFFFFFFFFFFFFFFFFFFFFFF
310
FFFFFFFFFFFFFFFFF000FFFFF80003FFFFFFFFFFFFFFFFFFFFFFFFFFFFFFFFFF
310
FFFFF00007FFFFFFFFFF00007FFFFFF800000000000000007FFFFFFFFFFFFFFF
310
FFFFFFFC001FFFFFFFFFFFFFFC001FFFFFFFFFFFFFFFFFFFFFFFFFFE0007FFFF
310
F000FFFF8000007FFFFFFFF8000FFFFFC0007FFFFF80007FFFFF0000007FFFFF
310
FFF8000007FFFFF800000000000000007FFFFFF0001FFFFFFFFFFFC00001FFFF
310
FFFFFFFFC00001FFFFFFFF000000000003FFFFE000007FFFF000FFFE0000000F
310
FFFFFFF0000FFFFF80007FFFFF80007FFFFC0000001FFFFFFFC0000001FFFFF8
310
00000000000000007FFFFFF0001FFFFFFFFFFE0000003FFFFFFFFFFE0000003F
310
FFFFFF000000000003FFFF0000000FFFF000FFF800000003FFFFFFF00007FFFF
310
80007FFFFF80007FFFF000000007FFFFFF000000003FFFF80000000000000000
310
7FFFFFF0001FFFFFFFFFF80000000FFFFFFFFFF80000000FFFFFFF0000000000
310
03FFFC00000003FFF000FFE000000000FFFFFFF00007FFFF80003FFFFF80007F
310
FFC000000001FFFFFC000000001FFFF800000000000000007FFFFFF0001FFFFF
310
FFFFE000000003FFFFFFFFE000000003FFFFFF000000000003FFF000000000FF
310
F000FF80000000007FFFFFF00007FFFF80003FFFFF80007FFF8000000000FFFF
310
F80000000007FFF800000000000000007FFFFFF0001FFFFFFFFFC000000001FF
310
FFFFFFC000000001FFFFFF000000000003FFC0000000007FF000FF0000000000
310
3FFFFFE00007FFFF00003FFFFF80007FFE00000000003FFFF00000000003FFF8
310
00000000000000007FFFFFF0001FFFFFFFFF8000000000FFFFFFFF8000000000
310
FFFFFF000000000003FF80000000003FF000FE00000000001FFFFFE00003FFFF
310
00003FFFFF80007FFC00000000001FFFE00000000001FFF8000001FFFE000000
310
7FFFFFF0001FFFFFFFFE00000000003FFFFFFE00000000003FFFFF0000000000
310
03FF00000000001FF000FC00000000000FFFFFE00003FFFF00001FFFFF80007F
310
F800000000001FFFC00000000000FFF8000001FFFE0000007FFFFFF0001FFFFF
310
FFFC00000000001FFFFFFC00000000001FFFFF000000000003FE00000000000F
310
F000F8000000000007FFFFE00003FFFF00001FFFFF80007FF800000000000FFF
310
800000000000FFF8000001FFFE0000007FFFFFF0001FFFFFFFF800000000000F
310
FFFFF800000000000FFFFF000000000003FC000000000007F000F80000000000
310
03FFFFC00003FFFE00001FFFFF80007FF0000000000007FF0000000000007FF8
310
000001FFFE0000007FFFFFF0001FFFFFFFF0000000000007FFFFF00000000000
310
07FFFF000000000003F8000000000003F000F0000000000003FFFFC00001FFFE
310
00001FFFFF80007FE0000000000007FE0000000000003FF8000001FFFE000000
310
7FFFFFF0001FFFFFFFF0000000000007FFFFF0000000000007FFFF0000000000
310
03F800001F800003F000E00001FFF00001FFFFC00001FFFE00000FFFFF80007F
310
E00001FFE00003FE00001FFF00003FF8000001FFFE0000007FFFFFF0001FFFFF
310
FFE000003E000003FFFFE000003E000003FFFF000000000003F00001FFF80001
310
F000E00007FFFC0001FFFFC00001FFFE00000FFFFF80007FC0000FFFFC0003FC
310
0000FFFFC0001FF8000001FFFE0000007FFFFFF0001FFFFFFFC00003FFE00001
310
FFFFC00003FFE00001FFFF0001FFFFFFFFF00007FFFE0001F000E0000FFFFF00
310
00FFFF800001FFFC00000FFFFF80007FC0001FFFFE0001FC0001FFFFE0001FF8
310
000001FFFE0000007FFFFFF0001FFFFFFF80000FFFF80000FFFF80000FFFF800
310
00FFFF0003FFFFFFFFE0000FFFFF8000F000C0003FFFFF8000FFFF800000FFFC
310
000007FFFF80007F80003FFFFF0001FC0003FFFFF0001FF8000001FFFE000000
310
7FFFFFF0001FFFFFFF80003FFFFE0000FFFF80003FFFFE0000FFFF0003FFFFFF
310
FFE0003FFFFF8000F000C0003FFFFF8000FFFF800000FFFC000007FFFF80007F
310
80007FFFFF8001F80007FFFFF8000FF8000001FFFE0000007FFFFFF0001FFFFF
310
FF00007FFFFF00007FFF00007FFFFF00007FFF0003FFFFFFFFE0003FFFFFC000
310
F000C0007FFFFFC000FFFF000000FFFC000007FFFF80007F8000FFFFFF8000F8
310
000FFFFFF8000FF8000001FFFE0000007FFFFFF0001FFFFFFF0000FFFFFF8000
310
7FFF0000FFFFFF80007FFF0003FFFFFFFFC0007FFFFFC00070008000FFFFFFC0
310
00FFFF000000FFF8000007FFFF80007F8000FFFFFF8000F8000FFFFFF8000FF8
310
000001FFFE0000007FFFFFF0001FFFFFFE0001FFFFFFC0003FFE0001FFFFFFC0
310
003FFF0003FFFFFFFFC0007FFFFFE00070008000FFFFFFC0007FFF0000007FF8
310
000003FFFF80007F0001FFFFFF8000F8000FFFFFF8000FF8000001FFFE000000
310
7FFFFFF0001FFFFFFE0001FFFFFFC0003FFE0001FFFFFFC0003FFF0003FFFFFF
310
FFC000FFFFFFE00070008000FFFFFFC0007FFF0000007FF8000003FFFF80007F
310
0001FFFFFF8000F8001FFFFFF8000FF8000001FFFE0000007FFFFFF0001FFFFF
310
FE0003FFFFFFE0003FFE0003FFFFFFE0003FFF0003FFFFFFFFC000FFFFFFE000
310
70008000FFFFFFC0007FFE0000007FF8000003FFFF80007F0001FFFFFF8000F0
310
001FFFFFF8000FF8000001FFFE0000007FFFFFF0001FFFFFFC0003FFFFFFE000
310
1FFC0003FFFFFFE0001FFF0003FFFFFFFFC000FFFFFFC00070008000FFFFFF80
310
007FFE0000007FF0000003FFFF80007F0001FFFFFF0000F0001FFFFFF8000FF8
310
000001FFFE0000007FFFFFF0001FFFFFFC0007FFFFFFF0001FFC0007FFFFFFF0
310
001FFF0003FFFFFFFFC000FFFFFFC00070008001FFFFFF0000FFFE0000003FF0
310
000001FFFF80007F0001FFFFFF0000F8001FFFFFF0000FF8000001FFFE000000
310
7FFFFFF0001FFFFFFC0007FFFFFFF0001FFC0007FFFFFFF0001FFF0003FFFFFF
310
FFC001FFFFFF80007000FFFFFFFFFE0000FFFE0008003FF0008001FFFF80007F
310
FFFFFFFFFC0000FFFFFFFFFFE0000FF8000001FFFE0000007FFFFFF0001FFFFF
310
F8000FFFFFFFF8000FF8000FFFFFFFF8000FFF0003FFFFFFFFFFFFFFFFFF0000
310
7000FFFFFFFFFC0000FFFC0008003FF0008001FFFF80007FFFFFFFFFF80001FF
310
FFFFFFFF80000FF8000001FFFE0000007FFFFFF0001FFFFFF8000FFFFFFFF800
310
0FF8000FFFFFFFF8000FFF0003FFFFFFFFFFFFFFFFFE0000F000FFFFFFFFE000
310
00FFFC000C003FE000C001FFFF80007FFFFFFFFFC00001FFFFFFFFFE00001FF8
310
000001FFFE0000007FFFFFF0001FFFFFF8000FFFFFFFF8000FF8000FFFFFFFF8
310
000FFF0003FFFFFFFFFFFFFFFFF00000F000FFFFFFFE000001FFFC000C001FE0
310
00C000FFFF80007FFFFFFFFE000001FFFFFFFFE000001FF80FFFFFFFFFFFFFC0
310
7FFFFFF0001FFFFFF8000FFFFFFFF8000FF8000FFFFFFFF8000FFF0003FFFFFF
310
FFFFFFFFFF800000F000FFFFFFC0000001FFFC001C001FE001C000FFFF80007F
310
FFFFFF80000003FFFFFFF80000001FF80FFFFFFFFFFFFFC07FFFFFF0001FFFFF
310
F8001FFFFFFFFC000FF8001FFFFFFFFC000FFF0003FFFFFFFFFFFFFFF0000001
310
F000FFFFF800000001FFF8001C001FE001C000FFFF80007FFFFFF800000003FF
310
FFFF800000003FF80FFFFFFFFFFFFFC07FFFFFF0001FFFFFF8001FFFFFFFFC00
310
0FF8001FFFFFFFFC000FFF0003FFFFFFFFFFFFFE00000001F000FFFFC0000000
310
03FFF8001E001FC001E000FFFF80007FFFFF8000000007FFFFFC000000003FF8
310
0FFFFFFFFFFFFFC07FFFFFF0001FFFFFF8001FFFFFFFFC000FF8001FFFFFFFFC
310
000FFF0003FFFFFFFFFFFFE000000003F000FFFE0000000007FFF8001E000FC0
310
01E0007FFF80007FFFFE0000000007FFFFE0000000007FF80FFFFFFFFFFFFFC0
310
7FFFFFF0001FFFFFF0001FFFFFFFFC0007F0001FFFFFFFFC0007FF0003FFFFFF
310
FFFFFF0000000003F000FFF80000000007FFF8001E000FC003E0007FFF80007F
310
FFF0000000000FFFFF8000000000FFF80FFFFFFFFFFFFFC07FFFFFF0001FFFFF
310
F0001FFFFFFFFC0007F0001FFFFFFFFC0007FF0003FFFFFFFFFFFC0000000007
310
F000FFE0000000000FFFF0003E000FC003E0007FFF80007FFFC0000000001FFF
310
FE0000000001FFF80FFFFFFFFFFFFFC07FFFFFF0001FFFFFF0001FFFFFFFFC00
310
07F0001FFFFFFFFC0007FF0003FFFFFFFFFFF0000000000FF000FFC000000000
310
1FFFF0003F000F8003F0003FFF80007FFF80000000003FFFF80000000003FFF8
310
0FFFFFFFFFFFFFC07FFFFFF0001FFFFFF0001FFFFFFFFC0007F0001FFFFFFFFC
310
0007FF0003FFFFFFFFFFE0000000001FF000FF00000000007FFFF0003F000780
310
03F0003FFF80007FFF00000000007FFFF00000000007FFF80FFFFFFFFFFFFFC0
310
7FFFFFF0001FFFFFF0001FFFFFFFFC0007F0001FFFFFFFFC0007FF0003FFFFFF
310
FFFF80000000007FF000FE0000000000FFFFE0003F00078007F0003FFF80007F
310
FE0000000001FFFFE0000000001FFFF80FFFFFFFFFFFFFC07FFFFFF0001FFFFF
310
F0001FFFFFFFFC0007F0001FFFFFFFFC0007FF0003FFFFFFFFFF0000000000FF
310
F000FC0000000003FFFFE0007F00078007F0003FFF80007FFC0000000007FFFF
310
C0000000007FFFF80FFFFFFFFFFFFFC07FFFFFF0001FFFFFF8001FFFFFFFFC00
310
0FF8001FFFFFFFFC000FFF0003FFFFFFFFFE0000000003FFF000FC000000000F
310
FFFFE0007F80070007F8001FFF80007FF8000000001FFFFF8000000001FFFFF8
310
0FFFFFFFFFFFFFC07FFFFFF0001FFFFFF8001FFFFFFFFC000FF8001FFFFFFFFC
310
000FFF0003FFFFFFFFFC000000000FFFF000F8000000007FFFFFE0007F800700
310
07F8001FFF80007FF000000000FFFFFF800000000FFFFFF80FFFFFFFFFFFFFC0
310
7FFFFFF0001FFFFFF8000FFFFFFFF8000FF8000FFFFFFFF8000FFF0003FFFFFF
310
FFFC000000007FFFF000F800000007FFFFFFC0007F8003000FF8001FFF80007F
310
F000000007FFFFFF000000007FFFFFF80FFFFFFFFFFFFFC07FFFFFF0001FFFFF
310
F8000FFFFFFFF8000FF8000FFFFFFFF8000FFF0003FFFFFFFFF80000000FFFFF
310
F000F0000000FFFFFFFFC000FF8003000FF8001FFF80007FE0000000FFFFFFFF
310
0000000FFFFFFFF8000001FFFE0000007FFFFFF0001FFFFFF8000FFFFFFFF800
310
0FF8000FFFFFFFF8000FFF0003FFFFFFFFF8000000FFFFFFF000F000000FFFFF
310
FFFFC000FFC002000FF8000FFF80007FE000001FFFFFFFFE000001FFFFFFFFF8
310
000001FFFE0000007FFFFFF0001FFFFFF8000FFFFFFFF8000FF8000FFFFFFFF8
310
000FFF0003FFFFFFFFF000001FFFFFFFF000E00000FFFFFFFFFFC000FFC00200
310
0FFC000FFF80007FE00001FFFFFFFFFE00001FFFFFFFFFF8000001FFFE000000
310
7FFFFFF0001FFFFFFC000FFFFFFFF8001FFC000FFFFFFFF8001FFF0003FFFFFF
310
FFF00001FFFFFFFFF000E00007FFFFFFFFFF8000FFC000001FFC000FFF80007F
310
C0000FFFFFFFFFFE0000FFFFFFFFFFF8000001FFFE0000007FFFFFF0001FFFFF
310
FC0007FFFFFFF0001FFC0007FFFFFFF0001FFF0003FFFFFFFFF00007FFFFFFFF
310
F000E0001FFFFFFFFFFF8000FFC000001FFC000FFF80007FC0003FFFFFFFFFFE
310
0001FFFFFFFFFFF8000001FFFE0000007FFFFFF0001FFFFFFC0007FFFFFFF000
310
1FFC0007FFFFFFF0001FFF0003FFFFFFFFF0001FFFFFFFFFF000E0003FFFFF00
310
03FF8001FFE000001FFC0007FF80007FC0007FFFFF0007FC0003FFFFF0003FF8
310
000001FFFE0000007FFFFFF0001FFFFFFC0003FFFFFFE0001FFC0003FFFFFFE0
310
001FFF0003FFFFFFFFF0003FFFFFFFFFF000E0003FFFFF0001FF8001FFE00000
310
1FFE0007FF80007FC0007FFFFE0003FC0007FFFFE0003FF8000001FFFE000000
310
7FFFFFF0001FFFFFFE0003FFFFFFE0003FFE0003FFFFFFE0003FFF0003FFFFFF
310
FFF0003FFFFF8001F000E0003FFFFF0001FF0001FFE000001FFE0007FF80007F
310
C0007FFFFE0003FC0007FFFFE0003FF8000001FFFE0000007FFFFFF0001FFFFF
310
FE0001FFFFFFC0003FFE0001FFFFFFC0003FFF0003FFFFFFFFF0003FFFFF0001
310
F000E0003FFFFF0003FF0001FFE000003FFE0007FF80007FC0007FFFFE0003FC
310
0007FFFFE0003FF8000001FFFE0000007FFFFFF0001FFFFFFF0001FFFFFFC000
310
7FFF0001FFFFFFC0007FFF0003FFFFFFFFF0003FFFFF0001F000E0003FFFFE00
310
03FF0003FFF000003FFE0003FF80007FC0007FFFFC0003FE0007FFFFE0003FF8
310
000001FFFE0000007FFFFFF0001FFFFFFF0000FFFFFF80007FFF0000FFFFFF80
310
007FFF0003FFFFFFFFF0003FFFFF0001F000E0003FFFFE0003FF0003FFF00000
310
3FFF0003FF80007FC0007FFFFC0007FE0007FFFFC0003FF8000001FFFE000000
310
7FFFFFF0001FFFFFFF80007FFFFF0000FFFF80007FFFFF0000FFFF0003FFFFFF
310
FFF0003FFFFF0003F000E0003FFFFC0003FE0003FFF000003FFF0003FF80007F
310
E0003FFFF80007FE0003FFFFC0007FF8000001FFFE0000007FFFFFF0001FFFFF
310
FF80003FFFFE0000FFFF80003FFFFE0000FFFF0003FFFFFFFFF0001FFFFE0003
310
F000F0001FFFF80003FE0003FFF000007FFF0001FF80007FE0003FFFF00007FE
310
0001FFFF80007FF8000001FFFE0000007FFFFFF0001FFFFFFFC0000FFFF80001
310
FFFFC0000FFFF80001FFFF0003FFFFFFFFF0001FFFFC0003F000F0000FFFF000
310
07FE0007FFF800007FFF0001FF80007FE0001FFFE00007FF0000FFFE00007FF8
310
000001FFFE0000007FFFFFF0001FFFFFFFC00003FFE00001FFFFC00003FFE000
310
01FFFF0003FFFFFFFFF8000FFFF80003F000F00003FFC00007FC0007FFF80000
310
7FFF8001FF80007FF00007FF80000FFF00007FF80000FFF8000001FFFE000000
310
7F80000000000001FFE000003E000003FFFFE000003E000003FFFF0003FFFFFF
310
FFF80003FFE00007F000F800000000000FFC0007FFF800007FFF8001FF80007F
310
F000000000000FFF000000000000FFF8000001FFFE0000007F80000000000001
310
FFF0000000000007FFFFF0000000000007FFFF0003FFFFFFFFFC00007E000007
310
F000F800000000000FFC0007FFF80000FFFF8000FF80007FF800000000001FFF
310
800000000001FFF8000001FFFE0000007F80000000000001FFF800000000000F
310
FFFFF800000000000FFFFF0003FFFFFFFFFC00000000000FF000FC0000000000
310
1FFC0007FFFC0000FFFF8000FF80007FF800000000003FFFC00000000001FFF8
310
000001FFFE0000007F80000000000001FFF800000000000FFFFFF80000000000
310
0FFFFF0003FFFFFFFFFE00000000001FF000FE00000000003FF8000FFFFC0000
310
FFFF8000FF80007FFC00000000003FFFC00000000003FFF8000001FFFE000000
310
7F80000000000001FFFC00000000001FFFFFFC00000000001FFFFF0003FFFFFF
310
FFFF00000000001FF000FF00000000003FF8000FFFFC0000FFFFC000FF80007F
310
FE00000000007FFFE00000000007FFF8000001FFFE0000007F80000000000001
310
FFFE00000000003FFFFFFE00000000003FFFFF0003FFFFFFFFFF80000000003F
310
F000FF80000000007FF8000FFFFC0001FFFFC0007F80007FFF0000000000FFFF
310
F0000000000FFFF800000000000000007F80000000000001FFFF8000000000FF
310
FFFFFF8000000000FFFFFF0003FFFFFFFFFFC0000000007FF000FFC000000000
310
FFF8000FFFFE0001FFFFC0007F80007FFF8000000001FFFFF8000000001FFFF8
310
00000000000000007F80000000000001FFFFC000000001FFFFFFFFC000000001
310
FFFFFF0003FFFFFFFFFFE000000000FFF000FFE000000003FFF0001FFFFE0001
310
FFFFC0007F80007FFFC000000007FFFFFE000000003FFFF80000000000000000
310
7F80000000000001FFFFE000000003FFFFFFFFE000000003FFFFFF0003FFFFFF
310
FFFFF000000003FFF000FFF80000000FFFF0001FFFFE0001FFFFE0007F80007F
310
FFF00000000FFFFFFF00000000FFFFF800000000000000007F80000000000001
310
FFFFF80000000FFFFFFFFFF80000000FFFFFFF0003FFFFFFFFFFFC0000000FFF
310
F000FFFE0000003FFFF0001FFFFE0003FFFFE0003F80007FFFFC0000003FFFFF
310
FFC0000003FFFFF800000000000000007F80000000000001FFFFFE0000003FFF
310
FFFFFFFE0000003FFFFFFF0003FFFFFFFFFFFF0000003FFFF000FFFF800000FF
310
FFF0001FFFFF0003FFFFE0003F80007FFFFF000001FFFFFFFFF800001FFFFFF8
310
00000000000000007F80000000000001FFFFFFC00001FFFFFFFFFFFFC00001FF
310
FFFFFF0003FFFFFFFFFFFFC00000FFFFF000FFFFF8000FFFFFFFFFFFFFFFFFFF
310
FFFFFFFFFFFFFFFFFFFFF0001FFFFFFFFFFF0000FFFFFFF80000000000000000
310
7FFFFFFFFFFFFFFFFFFFFFFC001FFFFFFFFFFFFFFC001FFFFFFFFFFFFFFFFFFF
310
FFFFFFFC001FFFFFF000FFFFFFFFFFFFFFFFFFFFFFFFFFFFFFFFFFFFFFFFFFFF
310
FFFFFFFFFFFFFFFFFFFFFFFFFFFFFFFFFFFFFFFFFFFFFFFFFFFFFFFFFFFFFFFF
310
FFFFFFFFFFFFFFFFFFFFFFFFFFFFFFFFFFFFFFFFFFFFFFFFFFFFFFFFFFFFFFFF
310
F000FFFFFFFFFFFFFFFFFFFFFFFFFFFFFFFFFFFFFFFFFFFFFFFFFFFFFFFFFFFF
310
FFFFFFFFFFFFFFFFFFFFFFFFFFFFFFFFFFFFFFFFFFFFFFFFFFFFFFFFFFFFFFFF
310
FFFFFFFFFFFFFFFFFFFFFFFFFFFFFFFFFFFFFFFFFFFFFFFFF000FFFFFFFFFFFF
310
FFFFFFFFFFFFFFFFFFFFFFFFFFFFFFFFFFFFFFFFFFFFFFFFFFFFFFFFFFFFFFFF
310
FFFFFFFFFFFFFFFFFFFFFFFFFFFFFFFFFFFFFFFFFFFFFFFFFFFFFFFFFFFFFFFF
310
FFFFFFFFFFFFFFFFFFFFFFFFFFFFFFFFF000FFFFFFFFFFFFFFFFFFFFFFFFFFFF
310
FFFFFFFFFFFFFFFFFFFFFFFFFFFFFFFFFFFFFFFFFFFFFFFFFFFFFFFFFFFFFFFF
310
FFFFFFFFFFFFFFFFFFFFFFFFFFFFFFFFFFFFFFFFFFFFFFFFFFFFFFFFFFFFFFFF
310
FFFFFFFFFFFFFFFFF000FFFFFFFFFFFFFFFFFFFFFFFFFFFFFFFFFFFFFFFFFFFF
310
FFFFFFFFFFFFFFFFFFFFFFFFFFFFFFFFFFFFFFFFFFFFFFFFFFFFFFFFFFFFFFFF
310
FFFFFFFFFFFFFFFFFFFFFFFFFFFFFFFFFFFFFFFFFFFFFFFFFFFFFFFFFFFFFFFF
310
F000FFFFFFFFFFFFFFFFFFFFFFFFFFFFFFFFFFFFFFFFFFFFFFFFFFFFFFFFFFFF
310
FFFFFFFFFFFFFFFFFFFFFFFFFFFFFFFFFFFFFFFFFFFFFFFFFFFFFFFFFFFFFFFF
310
FFFFFFFFFFFFFFFFFFFFFFFFFFFFFFFFFFFFFFFFFFFFFFFFF000FFFFFFFFFFFF
310
FFFFFFFFFFFFFFFFFFFFFFFFFFFFFFFFFFFFFFFFFFFFFFFFFFFFFFFFFFFFFFFF
310
FFFFFFFFFFFFFFFFFFFFFFFFFFFFFFFFFFFFFFFFFFFFFFFFFFFFFFFFFFFFFFFF
310
FFFFFFFFFFFFFFFFFFFFFFFFFFFFFFFFF000FFFFFFFFFFFFFFFFFFFFFFFFFFFF
310
FFFFFFFFFFFFFFFFFFFFFFFFFFFFFFFFFFFFFFFFFFFFFFFFFFFFFFFFFFFFFFFF
310
FFFFFFFFFFFFFFFFFFFFFFFFFFFFFFFFFFFFFFFFFFFFFFFFFFFFFFFFFFFFFFFF
310
FFFFFFFFFFFFFFFFF000FFFFFFFFFFFFFFFFFFFFFFFFFFFFFFFFFFFFFFFFFFFF
310
FFFFFFFFFFFFFFFFFFFFFFFFFFFFFFFFFFFFFFFFFFFFFFFFFFFFFFFFFFFFFFFF
310
FFFFFFFFFFFFFFFFFFFFFFFFFFFFFFFFFFFFFFFFFFFFFFFFFFFFFFFFFFFFFFFF
310
F000FFFFFFFFFFFFFFFFFFFFFFFFFFFFFFFFFFFFFFFFFFFFFFFFFFFFFFFFFFFF
310
FFFFFFFFFFFFFFFFFFFFFFFFFFFFFFFFFFFFFFFFFFFFFFFFFFFFFFFFFFFFFFFF
310
FFFFFFFFFFFFFFFFFFFFFFFFFFFFFFFFFFFFFFFFFFFFFFFFF000FFFFFFFFFFFF
310
FFFFFFFFFFFFFFFFFFFFFFFFFFFFFFFFFFFFFFFFFFFFFFFFFFFFFFFFFFFFFFFF
310
FFFFFFFFFFFFFFFFFFFFFFFFFFFFFFFFFFFFFFFFFFFFFFFFFFFFFFFFFFFFFFFF
310
FFFFFFFFFFFFFFFFFFFFFFFFFFFFFFFFF000FFFFFFFFFFFFFFFFFFFFFFFFFFFF
310
FFFFFFFFFFFFFFFFFFFFFFFFFFFFFFFFFFFFFFFFFFFFFFFFFFFFFFFFFFFFFFFF
310
FFFFFFFFFFFFFFFFFFFFFFFFFFFFFFFFFFFFFFFFFFFFFFFFFFFFFFFFFFFFFFFF
310
FFFFFFFFFFFFFFFFF000FFFFFFFFFFFFFFFFFFFFFFFFFFFFFFFFFFFFFFFFFFFF
310
FFFFFFFFFFFFFFFFFFFFFFFFFFFFFFFFFFFFFFFFFFFFFFFFFFFFFFFFFFFFFFFF
310
FFFFFFFFFFFFFFFFFFFFFFFFFFFFFFFFFFFFFFFFFFFFFFFFFFFFFFFFFFFFFFFF
310
F000FFFFFFFFFFFFFFFFFFFFFFFFFFFFFFFFFFFFFFFFFFFFFFFFFFFFFFFFFFFF
310
FFFFFFFFFFFFFFFFFFFFFFFFFFFFFFFFFFFFFFFFFFFFFFFFFFFFFFFFFFFFFFFF
310
FFFFFFFFFFFFFFFFFFFFFFFFFFFFFFFFFFFFFFFFFFFFFFFFF000FFFFFFFFFFFF
310
FFFFFFFFFFFFFFFFFFFFFFFFFFFFFFFFFFFFFFFFFFFFFFFFFFFFFFFFFFFFFFFF
310
FFFFFFFFFFFFFFFFFFFFFFFFFFFFFFFFFFFFFFFFFFFFFFFFFFFFFFFFFFFFFFFF
310
FFFFFFFFFFFFFFFFFFFFFFFFFFFFFFFFF000FFFFFFFFFFFFFFFFFFFFFFFFFFFF
310
FFFFFFFFFFFFFFFFFFFFFFFFFFFFFFFFFFFFFFFFFFFFFFFFFFFFFFFFFFFFFFFF
310
FFFFFFFFFFFFFFFFFFFFFFFFFFFFFFFFFFFFFFFFFFFFFFFFFFFFFFFFFFFFFFFF
310
FFFFFFFFFFFFFFFFF000FFFFFFFFFFFFFFFFFFFFFFFFFFFFFFFFFFFFFFFFFFFF
310
FFFFFFFFFFFFFFFFFFFFFFFFFFFFFFFFFFFFFFFFFFFFFFFFFFFFFFFFFFFFFFFF
310
FFFFFFFFFFFFFFFFFFFFFFFFFFFFFFFFFFFFFFFFFFFFFFFFFFFFFFFFFFFFFFFF
310
F000FFFFFFFFFFFFFFFFFFFFFFFFFFFFFFFFFFFFFFFFFFFFFFFFFFFFFFFFFFFF
310
FFFFFFFFFFFFFFFFFFFFFFFFFFFFFFFFFFFFFFFFFFFFFFFFFFFFFFFFFFFFFFFF
310
FFFFFFFFFFFFFFFFFFFFFFFFFFFFFFFFFFFFFFFFFFFFFFFFF000FFFFFFFFFFFF
310
FFFFFFFFFFFFFFFFFFFFFFFFFFFFFFFFFFFFFFFFFFFFFFFFFFFFFFFFFFFFFFFF
310
FFFFFFFFFFFFFFFFFFFFFFFFFFFFFFFFFFFFFFFFFFFFFFFFFFFFFFFFFFFFFFFF
310
FFFFFFFFFFFFFFFFFFFFFFFFFFFFFFFFF000FFFFFFFFFFFFFFFFFFFFFFFFFFFF
310
FFFFFFFFFFFFFFFFFFFFFFFFFFFFFFFFFFFFFFFFFFFFFFFFFFFFFFFFFFFFFFFF
310
FFFFFFFFFFFFFFFFFFFFFFFFFFFFFFFFFFFFFFFFFFFFFFFFFFFFFFFFFFFFFFFF
310
FFFFFFFFFFFFFFFFF000FFFFFFFFFFFFFFFFFFFFFFFFFFFFFFFFFFFFFFFFFFFF
310
FFFFFFFFFFFFFFFFFFFFFFFFFFFFFFFFFFFFFFFFFFFFFFFFFFFFFFFFFFFFFFFF
310
FFFFFFFFFFFFFFFFFFFFFFFFFFFFFFFFFFFFFFFFFFFFFFFFFFFFFFFFFFFFFFFF
310
F000FFFFFFFFFFFFFFFFFFFFFFFFFFFFFFFFFFFFFFFFFFFFFFFFFFFFFFFFFFFF
310
FFFFFFFFFFFFFFFFFFFFFFFFFFFFFFFFFFFFFFFFFFFFFFFFFFFFFFFFFFFFFFFF
310
FFFFFFFFFFFFFFFFFFFFFFFFFFFFFFFFFFFFFFFFFFFFFFFFF000FFFFFFFFFFFF
310
FFFFFFFFFFFFFFFFFFFFFFFFFFFFFFFFFFFFFFFFFFFFFFFFFFFFFFFFFFFFFFFF
310
FFFFFFFFFFFFFFFFFFFFFFFFFFFFFFFFFFFFFFFFFFFFFFFFFFFFFFFFFFFFFFFF
310
FFFFFFFFFFFFFFFFFFFFFFFFFFFFFFFFF0000000000000000000000000000000
310
0000000000000000000000000000000000000000000000000000000000000000
310
0000000000000000000000000000000000000000000000000000000000000000
310
0000000000000000000000000000000000000000000000000000000000000000
310
0000000000000000000000000000000000000000000000000000000000000000
310
0000000000000000000000000000000000000000000000000000000000000000
310
0000000000000000000000000000000000000000000000000000000000000000
310
0000000000000000000000000000000000000000000000000000000000000000
310
0000000000000000000000000000000000000000000000000000000000000000
310
0000000000000000000000000000000000000000000000000000000000000000
310
0000000000000000000000000000000000000000000000000000000000000000
310
0000000000000000000000000000000000000000000000000000000000000000
310
0000000000000000000000000000000000000000000000000000000000000000
310
0000000000000000000000000000000000000000000000000000000000000000
310
0000000000000000000000000000000000000000000000000000000000000000
310
0000000000000000000000000000000000000000000000000000000000000000
  1
OLE
  0
ENDSEC
  0
SECTION
  2
OBJECTS
  0
DICTIONARY
  5
C
330
0
100
AcDbDictionary
281
     1
  3
ACAD_GROUP
350
D
  3
ACAD_LAYOUT
350
1A
  3
ACAD_MLINESTYLE
350
17
  3
ACAD_PLOTSETTINGS
350
19
  3
ACAD_PLOTSTYLENAME
350
E
  3
ACAD_SCALELIST
350
47
  0
DICTIONARY
  5
D
102
{ACAD_REACTORS
330
C
102
}
330
C
100
AcDbDictionary
281
     1
  0
DICTIONARY
  5
1A
102
{ACAD_REACTORS
330
C
102
}
330
C
100
AcDbDictionary
281
     1
  3
Layout1
350
1E
  3
Layout2
350
26
  3
Model
350
22
  0
DICTIONARY
  5
17
102
{ACAD_REACTORS
330
C
102
}
330
C
100
AcDbDictionary
281
     1
  3
Standard
350
18
  0
DICTIONARY
  5
19
102
{ACAD_REACTORS
330
C
102
}
330
C
100
AcDbDictionary
281
     1
  0
ACDBDICTIONARYWDFLT
  5
E
102
{ACAD_REACTORS
330
C
102
}
330
C
100
AcDbDictionary
281
     1
  3
Normal
350
F
100
AcDbDictionaryWithDefault
340
F
  0
DICTIONARY
  5
47
102
{ACAD_REACTORS
330
C
102
}
330
C
100
AcDbDictionary
281
     1
  3
A0
350
48
  3
A1
350
49
  3
A2
350
4A
  3
A3
350
4B
  3
A4
350
4C
  3
A5
350
4D
  3
A6
350
4E
  3
A7
350
4F
  3
A8
350
50
  3
A9
350
51
  3
B0
350
52
  3
B1
350
53
  3
B2
350
54
  3
B3
350
55
  3
B4
350
56
  3
B5
350
57
  3
B6
350
58
  3
B7
350
59
  3
B8
350
5A
  3
B9
350
5B
  3
C0
350
5C
  3
C1
350
5D
  3
C2
350
5E
  3
C3
350
5F
  3
C4
350
60
  3
C5
350
61
  3
C6
350
62
  3
C7
350
63
  3
C8
350
64
  3
C9
350
65
  3
D0
350
66
  3
D1
350
67
  3
D2
350
68
  0
LAYOUT
  5
1E
102
{ACAD_REACTORS
330
1A
102
}
330
1A
100
AcDbPlotSettings
  1

  2
none_device
  4

  6

 40
0.0
 41
0.0
 42
0.0
 43
0.0
 44
0.0
 45
0.0
 46
0.0
 47
0.0
 48
0.0
 49
0.0
140
0.0
141
0.0
142
1.0
143
1.0
 70
   688
 72
     1
 73
     0
 74
     5
  7

 75
    16
147
1.0
148
0.0
149
0.0
100
AcDbLayout
  1
Layout1
 70
     1
 71
     1
 10
0.0
 20
0.0
 11
420.0
 21
297.0
 12
0.0
 22
0.0
 32
0.0
 14
1.0000000000E+20
 24
1.0000000000E+20
 34
1.0000000000E+20
 15
-1.0000000000E+20
 25
-1.0000000000E+20
 35
-1.0000000000E+20
146
0.0
 13
0.0
 23
0.0
 33
0.0
 16
1.0
 26
0.0
 36
0.0
 17
0.0
 27
1.0
 37
0.0
 76
     0
330
1B
  0
LAYOUT
  5
26
102
{ACAD_REACTORS
330
1A
102
}
330
1A
100
AcDbPlotSettings
  1

  2
none_device
  4

  6

 40
0.0
 41
0.0
 42
0.0
 43
0.0
 44
0.0
 45
0.0
 46
0.0
 47
0.0
 48
0.0
 49
0.0
140
0.0
141
0.0
142
1.0
143
1.0
 70
   688
 72
     1
 73
     0
 74
     5
  7

 75
    16
147
1.0
148
0.0
149
0.0
100
AcDbLayout
  1
Layout2
 70
     1
 71
     2
 10
0.0
 20
0.0
 11
0.0
 21
0.0
 12
0.0
 22
0.0
 32
0.0
 14
0.0
 24
0.0
 34
0.0
 15
0.0
 25
0.0
 35
0.0
146
0.0
 13
0.0
 23
0.0
 33
0.0
 16
1.0
 26
0.0
 36
0.0
 17
0.0
 27
1.0
 37
0.0
 76
     0
330
23
  0
LAYOUT
  5
22
102
{ACAD_REACTORS
330
1A
102
}
330
1A
100
AcDbPlotSettings
  1

  2
none_device
  4
Letter_(8.50_x_11.00_Inches)
  6

 40
6.35
 41
6.35
 42
6.35000508
 43
6.35000508
 44
215.9
 45
279.4
 46
0.0
 47
0.0
 48
0.0
 49
0.0
140
0.0
141
0.0
142
1.0
143
1.0
 70
  1712
 72
     1
 73
     0
 74
     0
  7

 75
     0
147
1.0
148
0.0
149
0.0
100
AcDbLayout
  1
Model
 70
     1
 71
     0
 10
0.0
 20
0.0
 11
297.0
 21
210.0
 12
0.0
 22
0.0
 32
0.0
 14
0.0
 24
0.0
 34
0.0
 15
297.0
 25
210.0
 35
0.0
146
0.0
 13
0.0
 23
0.0
 33
0.0
 16
1.0
 26
0.0
 36
0.0
 17
0.0
 27
1.0
 37
0.0
 76
     0
330
1F
331
29
  0
MLINESTYLE
  5
18
102
{ACAD_REACTORS
330
17
102
}
330
17
100
AcDbMlineStyle
  2
Standard
 70
     0
  3

 62
   256
 51
90.0
 52
90.0
 71
     2
 49
0.5
 62
   256
  6
BYLAYER
 49
-0.5
 62
   256
  6
BYLAYER
  0
ACDBPLACEHOLDER
  5
F
102
{ACAD_REACTORS
330
E
102
}
330
E
  0
SCALE
  5
48
102
{ACAD_REACTORS
330
47
102
}
330
47
100
AcDbScale
 70
     0
300
1:1
140
1.0
141
1.0
290
     1
  0
SCALE
  5
49
102
{ACAD_REACTORS
330
47
102
}
330
47
100
AcDbScale
 70
     0
300
1:2
140
1.0
141
2.0
290
     0
  0
SCALE
  5
4A
102
{ACAD_REACTORS
330
47
102
}
330
47
100
AcDbScale
 70
     0
300
1:4
140
1.0
141
4.0
290
     0
  0
SCALE
  5
4B
102
{ACAD_REACTORS
330
47
102
}
330
47
100
AcDbScale
 70
     0
300
1:5
140
1.0
141
5.0
290
     0
  0
SCALE
  5
4C
102
{ACAD_REACTORS
330
47
102
}
330
47
100
AcDbScale
 70
     0
300
1:8
140
1.0
141
8.0
290
     0
  0
SCALE
  5
4D
102
{ACAD_REACTORS
330
47
102
}
330
47
100
AcDbScale
 70
     0
300
1:10
140
1.0
141
10.0
290
     0
  0
SCALE
  5
4E
102
{ACAD_REACTORS
330
47
102
}
330
47
100
AcDbScale
 70
     0
300
1:16
140
1.0
141
16.0
290
     0
  0
SCALE
  5
4F
102
{ACAD_REACTORS
330
47
102
}
330
47
100
AcDbScale
 70
     0
300
1:20
140
1.0
141
20.0
290
     0
  0
SCALE
  5
50
102
{ACAD_REACTORS
330
47
102
}
330
47
100
AcDbScale
 70
     0
300
1:30
140
1.0
141
30.0
290
     0
  0
SCALE
  5
51
102
{ACAD_REACTORS
330
47
102
}
330
47
100
AcDbScale
 70
     0
300
1:40
140
1.0
141
40.0
290
     0
  0
SCALE
  5
52
102
{ACAD_REACTORS
330
47
102
}
330
47
100
AcDbScale
 70
     0
300
1:50
140
1.0
141
50.0
290
     0
  0
SCALE
  5
53
102
{ACAD_REACTORS
330
47
102
}
330
47
100
AcDbScale
 70
     0
300
1:100
140
1.0
141
100.0
290
     0
  0
SCALE
  5
54
102
{ACAD_REACTORS
330
47
102
}
330
47
100
AcDbScale
 70
     0
300
2:1
140
2.0
141
1.0
290
     0
  0
SCALE
  5
55
102
{ACAD_REACTORS
330
47
102
}
330
47
100
AcDbScale
 70
     0
300
4:1
140
4.0
141
1.0
290
     0
  0
SCALE
  5
56
102
{ACAD_REACTORS
330
47
102
}
330
47
100
AcDbScale
 70
     0
300
8:1
140
8.0
141
1.0
290
     0
  0
SCALE
  5
57
102
{ACAD_REACTORS
330
47
102
}
330
47
100
AcDbScale
 70
     0
300
10:1
140
10.0
141
1.0
290
     0
  0
SCALE
  5
58
102
{ACAD_REACTORS
330
47
102
}
330
47
100
AcDbScale
 70
     0
300
100:1
140
100.0
141
1.0
290
     0
  0
SCALE
  5
59
102
{ACAD_REACTORS
330
47
102
}
330
47
100
AcDbScale
 70
     0
300
1/128" = 1'-0"
140
0.0078125
141
12.0
290
     0
  0
SCALE
  5
5A
102
{ACAD_REACTORS
330
47
102
}
330
47
100
AcDbScale
 70
     0
300
1/64" = 1'-0"
140
0.015625
141
12.0
290
     0
  0
SCALE
  5
5B
102
{ACAD_REACTORS
330
47
102
}
330
47
100
AcDbScale
 70
     0
300
1/32" = 1'-0"
140
0.03125
141
12.0
290
     0
  0
SCALE
  5
5C
102
{ACAD_REACTORS
330
47
102
}
330
47
100
AcDbScale
 70
     0
300
1/16" = 1'-0"
140
0.0625
141
12.0
290
     0
  0
SCALE
  5
5D
102
{ACAD_REACTORS
330
47
102
}
330
47
100
AcDbScale
 70
     0
300
3/32" = 1'-0"
140
0.09375
141
12.0
290
     0
  0
SCALE
  5
5E
102
{ACAD_REACTORS
330
47
102
}
330
47
100
AcDbScale
 70
     0
300
1/8" = 1'-0"
140
0.125
141
12.0
290
     0
  0
SCALE
  5
5F
102
{ACAD_REACTORS
330
47
102
}
330
47
100
AcDbScale
 70
     0
300
3/16" = 1'-0"
140
0.1875
141
12.0
290
     0
  0
SCALE
  5
60
102
{ACAD_REACTORS
330
47
102
}
330
47
100
AcDbScale
 70
     0
300
1/4" = 1'-0"
140
0.25
141
12.0
290
     0
  0
SCALE
  5
61
102
{ACAD_REACTORS
330
47
102
}
330
47
100
AcDbScale
 70
     0
300
3/8" = 1'-0"
140
0.375
141
12.0
290
     0
  0
SCALE
  5
62
102
{ACAD_REACTORS
330
47
102
}
330
47
100
AcDbScale
 70
     0
300
1/2" = 1'-0"
140
0.5
141
12.0
290
     0
  0
SCALE
  5
63
102
{ACAD_REACTORS
330
47
102
}
330
47
100
AcDbScale
 70
     0
300
3/4" = 1'-0"
140
0.75
141
12.0
290
     0
  0
SCALE
  5
64
102
{ACAD_REACTORS
330
47
102
}
330
47
100
AcDbScale
 70
     0
300
1" = 1'-0"
140
1.0
141
12.0
290
     0
  0
SCALE
  5
65
102
{ACAD_REACTORS
330
47
102
}
330
47
100
AcDbScale
 70
     0
300
1-1/2" = 1'-0"
140
1.5
141
12.0
290
     0
  0
SCALE
  5
66
102
{ACAD_REACTORS
330
47
102
}
330
47
100
AcDbScale
 70
     0
300
3" = 1'-0"
140
3.0
141
12.0
290
     0
  0
SCALE
  5
67
102
{ACAD_REACTORS
330
47
102
}
330
47
100
AcDbScale
 70
     0
300
6" = 1'-0"
140
6.0
141
12.0
290
     0
  0
SCALE
  5
68
102
{ACAD_REACTORS
330
47
102
}
330
47
100
AcDbScale
 70
     0
300
1'-0" = 1'-0"
140
12.0
141
12.0
290
     0
  0
ENDSEC
  0
EOF
