  0
SECTION
  2
HEADER
  9
$ACADVER
  1
AC1015
  9
$ACADMAINTVER
 70
     6
  9
$DWGCODEPAGE
  3
ANSI_1252
  9
$INSBASE
 10
0.0
 20
0.0
 30
0.0
  9
$EXTMIN
 10
0.0
 20
0.0
 30
0.0
  9
$EXTMAX
 10
297.0
 20
210.0
 30
0.0
  9
$LIMMIN
 10
0.0
 20
0.0
  9
$LIMMAX
 10
297.0
 20
210.0
  9
$ORTHOMODE
 70
     0
  9
$REGENMODE
 70
     1
  9
$FILLMODE
 70
     1
  9
$QTEXTMODE
 70
     0
  9
$MIRRTEXT
 70
     1
  9
$LTSCALE
 40
1.0
  9
$ATTMODE
 70
     1
  9
$TEXTSIZE
 40
2.0
  9
$TRACEWID
 40
1.0
  9
$TEXTSTYLE
  7
Standard
  9
$CLAYER
  8
0
  9
$CELTYPE
  6
ByLayer
  9
$CECOLOR
 62
   256
  9
$CELTSCALE
 40
1.0
  9
$DISPSILH
 70
     0
  9
$DIMSCALE
 40
1.0
  9
$DIMASZ
 40
3.0
  9
$DIMEXO
 40
0.0
  9
$DIMDLI
 40
3.75
  9
$DIMRND
 40
0.0
  9
$DIMDLE
 40
0.0
  9
$DIMEXE
 40
1.0
  9
$DIMTP
 40
0.0
  9
$DIMTM
 40
0.0
  9
$DIMTXT
 40
2.0
  9
$DIMCEN
 40
2.5
  9
$DIMTSZ
 40
0.0
  9
$DIMTOL
 70
     0
  9
$DIMLIM
 70
     0
  9
$DIMTIH
 70
     1
  9
$DIMTOH
 70
     1
  9
$DIMSE1
 70
     0
  9
$DIMSE2
 70
     0
  9
$DIMTAD
 70
     1
  9
$DIMZIN
 70
     0
  9
$DIMBLK
  1

  9
$DIMASO
 70
     1
  9
$DIMSHO
 70
     1
  9
$DIMPOST
  1

  9
$DIMAPOST
  1

  9
$DIMALT
 70
     0
  9
$DIMALTD
 70
     3
  9
$DIMALTF
 40
0.0393700787
  9
$DIMLFAC
 40
2.0
  9
$DIMTOFL
 70
     1
  9
$DIMTVP
 40
0.0
  9
$DIMTIX
 70
     0
  9
$DIMSOXD
 70
     0
  9
$DIMSAH
 70
     0
  9
$DIMBLK1
  1

  9
$DIMBLK2
  1

  9
$DIMSTYLE
  2
ISO-25
  9
$DIMCLRD
 70
     0
  9
$DIMCLRE
 70
     0
  9
$DIMCLRT
 70
     0
  9
$DIMTFAC
 40
1.0
  9
$DIMGAP
 40
1.524
  9
$DIMJUST
 70
     0
  9
$DIMSD1
 70
     0
  9
$DIMSD2
 70
     0
  9
$DIMTOLJ
 70
     0
  9
$DIMTZIN
 70
     0
  9
$DIMALTZ
 70
     0
  9
$DIMALTTZ
 70
     0
  9
$DIMUPT
 70
     0
  9
$DIMDEC
 70
     2
  9
$DIMTDEC
 70
     3
  9
$DIMALTU
 70
     2
  9
$DIMALTTD
 70
     3
  9
$DIMTXSTY
  7
Standard
  9
$DIMAUNIT
 70
     0
  9
$DIMADEC
 70
     2
  9
$DIMALTRND
 40
0.0
  9
$DIMAZIN
 70
     0
  9
$DIMDSEP
 70
    44
  9
$DIMATFIT
 70
     3
  9
$DIMFRAC
 70
     0
  9
$DIMLDRBLK
  1

  9
$DIMLUNIT
 70
     2
  9
$DIMLWD
 70
    -2
  9
$DIMLWE
 70
    -2
  9
$DIMTMOVE
 70
     0
  9
$LUNITS
 70
     2
  9
$LUPREC
 70
     2
  9
$SKETCHINC
 40
1.0
  9
$FILLETRAD
 40
10.0
  9
$AUNITS
 70
     0
  9
$AUPREC
 70
     2
  9
$MENU
  1
.
  9
$ELEVATION
 40
0.0
  9
$PELEVATION
 40
0.0
  9
$THICKNESS
 40
0.0
  9
$LIMCHECK
 70
     0
  9
$CHAMFERA
 40
0.0
  9
$CHAMFERB
 40
0.0
  9
$CHAMFERC
 40
0.0
  9
$CHAMFERD
 40
0.0
  9
$SKPOLY
 70
     0
  9
$TDCREATE
 40
2458166.42170434
  9
$TDUCREATE
 40
2458166.380037674
  9
$TDUPDATE
 40
2458166.421707477
  9
$TDUUPDATE
 40
2458166.38004081
  9
$TDINDWG
 40
0.0000000116
  9
$TDUSRTIMER
 40
0.0000000116
  9
$USRTIMER
 70
     1
  9
$ANGBASE
 50
0.0
  9
$ANGDIR
 70
     0
  9
$PDMODE
 70
     0
  9
$PDSIZE
 40
-1.0
  9
$PLINEWID
 40
0.0
  9
$SPLFRAME
 70
     0
  9
$SPLINETYPE
 70
     6
  9
$SPLINESEGS
 70
     8
  9
$HANDSEED
  5
2C4
  9
$SURFTAB1
 70
     6
  9
$SURFTAB2
 70
     6
  9
$SURFTYPE
 70
     6
  9
$SURFU
 70
     6
  9
$SURFV
 70
     6
  9
$UCSBASE
  2

  9
$UCSNAME
  2

  9
$UCSORG
 10
0.0
 20
0.0
 30
0.0
  9
$UCSXDIR
 10
1.0
 20
0.0
 30
0.0
  9
$UCSYDIR
 10
0.0
 20
1.0
 30
0.0
  9
$UCSORTHOREF
  2

  9
$UCSORTHOVIEW
 70
     0
  9
$UCSORGTOP
 10
0.0
 20
0.0
 30
0.0
  9
$UCSORGBOTTOM
 10
0.0
 20
0.0
 30
0.0
  9
$UCSORGLEFT
 10
0.0
 20
0.0
 30
0.0
  9
$UCSORGRIGHT
 10
0.0
 20
0.0
 30
0.0
  9
$UCSORGFRONT
 10
0.0
 20
0.0
 30
0.0
  9
$UCSORGBACK
 10
0.0
 20
0.0
 30
0.0
  9
$PUCSBASE
  2

  9
$PUCSNAME
  2

  9
$PUCSORG
 10
0.0
 20
0.0
 30
0.0
  9
$PUCSXDIR
 10
1.0
 20
0.0
 30
0.0
  9
$PUCSYDIR
 10
0.0
 20
1.0
 30
0.0
  9
$PUCSORTHOREF
  2

  9
$PUCSORTHOVIEW
 70
     0
  9
$PUCSORGTOP
 10
0.0
 20
0.0
 30
0.0
  9
$PUCSORGBOTTOM
 10
0.0
 20
0.0
 30
0.0
  9
$PUCSORGLEFT
 10
0.0
 20
0.0
 30
0.0
  9
$PUCSORGRIGHT
 10
0.0
 20
0.0
 30
0.0
  9
$PUCSORGFRONT
 10
0.0
 20
0.0
 30
0.0
  9
$PUCSORGBACK
 10
0.0
 20
0.0
 30
0.0
  9
$USERI1
 70
     0
  9
$USERI2
 70
     0
  9
$USERI3
 70
     0
  9
$USERI4
 70
     0
  9
$USERI5
 70
     0
  9
$USERR1
 40
0.0
  9
$USERR2
 40
0.0
  9
$USERR3
 40
0.0
  9
$USERR4
 40
0.0
  9
$USERR5
 40
0.0
  9
$WORLDVIEW
 70
     1
  9
$SHADEDGE
 70
     3
  9
$SHADEDIF
 70
    70
  9
$TILEMODE
 70
     1
  9
$MAXACTVP
 70
    64
  9
$PINSBASE
 10
0.0
 20
0.0
 30
0.0
  9
$PLIMCHECK
 70
     0
  9
$PEXTMIN
 10
1.0000000000E+20
 20
1.0000000000E+20
 30
1.0000000000E+20
  9
$PEXTMAX
 10
-1.0000000000E+20
 20
-1.0000000000E+20
 30
-1.0000000000E+20
  9
$PLIMMIN
 10
0.0
 20
0.0
  9
$PLIMMAX
 10
420.0
 20
297.0
  9
$UNITMODE
 70
     0
  9
$VISRETAIN
 70
     1
  9
$PLINEGEN
 70
     0
  9
$PSLTSCALE
 70
     1
  9
$TREEDEPTH
 70
  3020
  9
$CMLSTYLE
  2
Standard
  9
$CMLJUST
 70
     0
  9
$CMLSCALE
 40
20.0
  9
$PROXYGRAPHICS
 70
     1
  9
$MEASUREMENT
 70
     1
  9
$CELWEIGHT
370
    -1
  9
$ENDCAPS
280
     0
  9
$JOINSTYLE
280
     0
  9
$LWDISPLAY
290
     1
  9
$INSUNITS
 70
     4
  9
$HYPERLINKBASE
  1

  9
$STYLESHEET
  1

  9
$XEDIT
290
     1
  9
$CEPSNTYPE
380
     0
  9
$PSTYLEMODE
290
     1
  9
$FINGERPRINTGUID
  2
{575C9A53-D635-4CE2-BC65-0E7D7D446CC6}
  9
$VERSIONGUID
  2
{FAEB1C32-E019-11D5-929B-00C0DF256EC4}
  9
$EXTNAMES
290
     1
  9
$PSVPSCALE
 40
0.0
  9
$OLESTARTUP
290
     0
  0
ENDSEC
  0
SECTION
  2
CLASSES
  0
CLASS
  1
ACDBDICTIONARYWDFLT
  2
AcDbDictionaryWithDefault
  3
ObjectDBX Classes
 90
        0
280
     0
281
     0
  0
CLASS
  1
VISUALSTYLE
  2
AcDbVisualStyle
  3
ObjectDBX Classes
 90
     4095
280
     0
281
     0
  0
CLASS
  1
MATERIAL
  2
AcDbMaterial
  3
ObjectDBX Classes
 90
     1153
280
     0
281
     0
  0
CLASS
  1
SCALE
  2
AcDbScale
  3
ObjectDBX Classes
 90
     1153
280
     0
281
     0
  0
CLASS
  1
TABLESTYLE
  2
AcDbTableStyle
  3
ObjectDBX Classes
 90
     4095
280
     0
281
     0
  0
CLASS
  1
MLEADERSTYLE
  2
AcDbMLeaderStyle
  3
ACDB_MLEADERSTYLE_CLASS
 90
     4095
280
     0
281
     0
  0
CLASS
  1
SUN
  2
AcDbSun
  3
SCENEOE
 90
     1153
280
     0
281
     0
  0
CLASS
  1
ACDBPLACEHOLDER
  2
AcDbPlaceHolder
  3
ObjectDBX Classes
 90
        0
280
     0
281
     0
  0
CLASS
  1
LAYOUT
  2
AcDbLayout
  3
ObjectDBX Classes
 90
        0
280
     0
281
     0
  0
ENDSEC
  0
SECTION
  2
TABLES
  0
TABLE
  2
VPORT
  5
8
330
0
100
AcDbSymbolTable
 70
     1
  0
VPORT
  5
29
330
8
100
AcDbSymbolTableRecord
100
AcDbViewportTableRecord
  2
*Active
 70
     0
 10
0.0
 20
0.0
 11
1.0
 21
1.0
 12
148.5
 22
105.0
 13
0.0
 23
0.0
 14
10.0
 24
10.0
 15
10.0
 25
10.0
 16
0.0
 26
0.0
 36
1.0
 17
0.0
 27
0.0
 37
0.0
 40
210.0
 41
1.4142857143
 42
50.0
 43
0.0
 44
0.0
 50
0.0
 51
0.0
 71
     0
 72
  2000
 73
     1
 74
     3
 75
     0
 76
     0
 77
     0
 78
     0
281
     0
 65
     1
110
0.0
120
0.0
130
0.0
111
1.0
121
0.0
131
0.0
112
0.0
122
1.0
132
0.0
 79
     0
146
0.0
  0
ENDTAB
  0
TABLE
  2
LTYPE
  5
5
330
0
100
AcDbSymbolTable
 70
     6
  0
LTYPE
  5
14
330
5
100
AcDbSymbolTableRecord
100
AcDbLinetypeTableRecord
  2
ByBlock
 70
     0
  3

 72
    65
 73
     0
 40
0.0
  0
LTYPE
  5
15
330
5
100
AcDbSymbolTableRecord
100
AcDbLinetypeTableRecord
  2
ByLayer
 70
     0
  3

 72
    65
 73
     0
 40
0.0
  0
LTYPE
  5
16
330
5
100
AcDbSymbolTableRecord
100
AcDbLinetypeTableRecord
  2
Continuous
 70
     0
  3
Solid line
 72
    65
 73
     0
 40
0.0
  0
LTYPE
  5
6E
330
5
100
AcDbSymbolTableRecord
100
AcDbLinetypeTableRecord
  2
HIDDEN
 70
     0
  3
Hidden __ __ __ __ __ __ __ __ __ __ __ __ __ __
 72
    65
 73
     2
 40
1.905
 49
1.27
 74
     0
 49
-0.635
 74
     0
  0
LTYPE
  5
6F
330
5
100
AcDbSymbolTableRecord
100
AcDbLinetypeTableRecord
  2
PHANTOM
 70
     0
  3
Phantom ______  __  __  ______  __  __  ______
 72
    65
 73
     6
 40
12.7
 49
6.35
 74
     0
 49
-1.27
 74
     0
 49
1.27
 74
     0
 49
-1.27
 74
     0
 49
1.27
 74
     0
 49
-1.27
 74
     0
  0
LTYPE
  5
70
330
5
100
AcDbSymbolTableRecord
100
AcDbLinetypeTableRecord
  2
CENTER
 70
     0
  3
Center ____ _ ____ _ ____ _ ____ _ ____ _ ____
 72
    65
 73
     4
 40
10.16
 49
6.35
 74
     0
 49
-1.27
 74
     0
 49
1.27
 74
     0
 49
-1.27
 74
     0
  0
LTYPE
  5
71
330
5
100
AcDbSymbolTableRecord
100
AcDbLinetypeTableRecord
  2
CENTERX2
 70
     0
  3
Center (2x) ________  __  ________  __  _____
 72
    65
 73
     4
 40
20.32
 49
12.7
 74
     0
 49
-2.54
 74
     0
 49
2.54
 74
     0
 49
-2.54
 74
     0
  0
LTYPE
  5
72
330
5
100
AcDbSymbolTableRecord
100
AcDbLinetypeTableRecord
  2
DOT2
 70
     0
  3
Dot (.5x) ........................................
 72
    65
 73
     2
 40
0.635
 49
0.0
 74
     0
 49
-0.635
 74
     0
  0
ENDTAB
  0
TABLE
  2
LAYER
  5
2
330
0
100
AcDbSymbolTable
 70
     5
  0
LAYER
  5
10
330
2
100
AcDbSymbolTableRecord
100
AcDbLayerTableRecord
  2
0
 70
     0
 62
     7
  6
Continuous
370
    -3
390
F
  0
LAYER
  5
73
330
2
100
AcDbSymbolTableRecord
100
AcDbLayerTableRecord
  2
FORMAT
 70
     0
 62
     7
  6
Continuous
370
    -3
390
F
  0
LAYER
  5
74
330
2
100
AcDbSymbolTableRecord
100
AcDbLayerTableRecord
  2
VERMASSUNG
 70
     0
 62
     7
  6
Continuous
370
    -3
390
F
  0
LAYER
  5
75
330
2
100
AcDbSymbolTableRecord
100
AcDbLayerTableRecord
  2
KOPF_DÜNN
 70
     0
 62
     7
  6
Continuous
370
    -3
390
F
  0
LAYER
  5
76
330
2
100
AcDbSymbolTableRecord
100
AcDbLayerTableRecord
  2
KOPF_DICK
 70
     0
 62
     7
  6
Continuous
370
    25
390
F
  0
ENDTAB
  0
TABLE
  2
STYLE
  5
3
330
0
100
AcDbSymbolTable
 70
     2
  0
STYLE
  5
11
330
3
100
AcDbSymbolTableRecord
100
AcDbTextStyleTableRecord
  2
Standard
 70
     0
 40
0.0
 41
1.0
 50
0.0
 71
     0
 42
2.0
  3
txt
  4

  0
STYLE
  5
77
330
3
100
AcDbSymbolTableRecord
100
AcDbTextStyleTableRecord
  2
SLDTEXTSTYLE0
 70
     0
 40
0.0
 41
0.7
 50
0.0
 71
     0
 42
2.0
  3
TXT
  4

  0
ENDTAB
  0
TABLE
  2
VIEW
  5
6
330
0
100
AcDbSymbolTable
 70
     0
  0
ENDTAB
  0
TABLE
  2
UCS
  5
7
330
0
100
AcDbSymbolTable
 70
     0
  0
ENDTAB
  0
TABLE
  2
APPID
  5
9
330
0
100
AcDbSymbolTable
 70
     1
  0
APPID
  5
12
330
9
100
AcDbSymbolTableRecord
100
AcDbRegAppTableRecord
  2
ACAD
 70
     0
  0
ENDTAB
  0
TABLE
  2
DIMSTYLE
  5
A
330
0
100
AcDbSymbolTable
 70
     4
100
AcDbDimStyleTable
  0
DIMSTYLE
105
27
330
A
100
AcDbSymbolTableRecord
100
AcDbDimStyleTableRecord
  2
ISO-25
 70
     0
 41
2.5
 42
0.625
 43
3.75
 44
1.25
 73
     0
 74
     0
 77
     1
 78
     8
140
2.5
141
2.5
143
0.0393700787
147
0.625
171
     3
172
     1
178
     0
271
     2
272
     2
274
     3
278
    44
283
     0
284
     8
340
11
  0
DIMSTYLE
105
1F6
102
{ACAD_REACTORS
330
1F5
102
}
330
A
100
AcDbSymbolTableRecord
100
AcDbDimStyleTableRecord
  2
SLDDIMSTYLE0
 70
     0
 41
3.0
 44
0.0
 45
0.000000001
 73
     0
 74
     0
 76
     1
 77
     1
 78
    12
 79
     3
140
2.0
147
0.5
173
     1
178
     0
271
     2
272
     3
276
     2
282
     1
284
    12
340
77
  0
DIMSTYLE
105
200
102
{ACAD_REACTORS
330
1FF
330
20B
330
215
330
21F
102
}
330
A
100
AcDbSymbolTableRecord
100
AcDbDimStyleTableRecord
  2
SLDDIMSTYLE1
 70
     0
 41
3.0
 44
0.0
 45
0.000000001
 73
     0
 74
     0
 77
     1
 78
    12
 79
     3
140
2.0
147
0.5
173
     1
178
     0
271
     2
272
     3
276
     2
284
    12
340
77
  0
DIMSTYLE
105
22A
102
{ACAD_REACTORS
330
229
102
}
330
A
100
AcDbSymbolTableRecord
100
AcDbDimStyleTableRecord
  2
SLDDIMSTYLE2
 70
     0
 41
3.0
 44
0.0
 45
0.000000001
 73
     0
 74
     0
 77
     1
 78
    12
 79
     3
140
2.0
147
0.5
173
     1
178
     0
271
     1
272
     3
276
     2
284
    12
340
77
  0
ENDTAB
  0
TABLE
  2
BLOCK_RECORD
  5
1
330
0
100
AcDbSymbolTable
 70
     7
  0
BLOCK_RECORD
  5
1F
330
1
100
AcDbSymbolTableRecord
100
AcDbBlockTableRecord
  2
*Model_Space
340
22
  0
BLOCK_RECORD
  5
1B
330
1
100
AcDbSymbolTableRecord
100
AcDbBlockTableRecord
  2
*Paper_Space
340
1E
  0
BLOCK_RECORD
  5
23
330
1
100
AcDbSymbolTableRecord
100
AcDbBlockTableRecord
  2
*Paper_Space0
340
26
  0
BLOCK_RECORD
  5
1F7
330
1
100
AcDbSymbolTableRecord
100
AcDbBlockTableRecord
  2
_D
340
0
  0
BLOCK_RECORD
  5
201
330
1
100
AcDbSymbolTableRecord
100
AcDbBlockTableRecord
  2
_D_1
340
0
  0
BLOCK_RECORD
  5
20C
330
1
100
AcDbSymbolTableRecord
100
AcDbBlockTableRecord
  2
_D_2
340
0
  0
BLOCK_RECORD
  5
216
330
1
100
AcDbSymbolTableRecord
100
AcDbBlockTableRecord
  2
_D_3
340
0
  0
BLOCK_RECORD
  5
220
330
1
100
AcDbSymbolTableRecord
100
AcDbBlockTableRecord
  2
_D_4
340
0
  0
BLOCK_RECORD
  5
22B
330
1
100
AcDbSymbolTableRecord
100
AcDbBlockTableRecord
  2
_D_5
340
0
  0
ENDTAB
  0
ENDSEC
  0
SECTION
  2
BLOCKS
  0
BLOCK
  5
20
330
1F
100
AcDbEntity
  8
0
100
AcDbBlockBegin
  2
*Model_Space
 70
     0
 10
0.0
 20
0.0
 30
0.0
  3
*Model_Space
  1

  0
ENDBLK
  5
21
330
1F
100
AcDbEntity
  8
0
100
AcDbBlockEnd
  0
BLOCK
  5
1C
330
1B
100
AcDbEntity
 67
     1
  8
0
100
AcDbBlockBegin
  2
*Paper_Space
 70
     0
 10
0.0
 20
0.0
 30
0.0
  3
*Paper_Space
  1

  0
ENDBLK
  5
1D
330
1B
100
AcDbEntity
 67
     1
  8
0
100
AcDbBlockEnd
  0
BLOCK
  5
24
330
23
100
AcDbEntity
  8
0
100
AcDbBlockBegin
  2
*Paper_Space0
 70
     0
 10
0.0
 20
0.0
 30
0.0
  3
*Paper_Space0
  1

  0
ENDBLK
  5
25
330
23
100
AcDbEntity
  8
0
100
AcDbBlockEnd
  0
BLOCK
  5
1F8
330
1F7
100
AcDbEntity
  8
0
100
AcDbBlockBegin
  2
_D
 70
     0
 10
0.0
 20
0.0
 30
0.0
  3
_D
  1

  0
SOLID
  5
1FA
330
1F7
100
AcDbEntity
  8
VERMASSUNG
100
AcDbTrace
 10
216.021330067
 20
119.3396427684
 30
0.0
 11
215.571330067
 21
116.3396427684
 31
0.0
 12
216.471330067
 22
116.3396427684
 32
0.0
 13
216.471330067
 23
116.3396427684
 33
0.0
  0
LINE
  5
1FB
330
1F7
100
AcDbEntity
  8
VERMASSUNG
100
AcDbLine
 10
166.896330067
 20
119.3396427684
 30
0.0
 11
217.021330067
 21
119.3396427684
 31
0.0
  0
LINE
  5
1FC
330
1F7
100
AcDbEntity
  8
VERMASSUNG
100
AcDbLine
 10
216.021330067
 20
119.3396427684
 30
0.0
 11
216.021330067
 21
109.2346426413
 31
0.0
  0
MTEXT
  5
1FD
330
1F7
100
AcDbEntity
  8
VERMASSUNG
100
AcDbMText
 10
213.4431947621
 20
109.2346426413
 30
0.0
 40
2.0
 41
0.0
 71
     1
 72
     1
  1
%%c
  7
SLDTEXTSTYLE0
 11
-5.267838178243384E-15
 21
1.0
 31
0.0
 73
     1
 44
1.0
  0
MTEXT
  5
1FE
330
1F7
100
AcDbEntity
  8
VERMASSUNG
100
AcDbMText
 10
213.2431948108
 20
112.8446426556
 30
0.0
 40
2.0
 41
0.0
 71
     1
 72
     1
  1
14
  7
SLDTEXTSTYLE0
 11
-5.267838178243384E-15
 21
1.0
 31
0.0
 73
     1
 44
1.0
  0
ENDBLK
  5
1F9
330
1F7
100
AcDbEntity
  8
0
100
AcDbBlockEnd
  0
BLOCK
  5
202
330
201
100
AcDbEntity
  8
0
100
AcDbBlockBegin
  2
_D_1
 70
     0
 10
0.0
 20
0.0
 30
0.0
  3
_D_1
  1

  0
SOLID
  5
204
330
201
100
AcDbEntity
  8
VERMASSUNG
100
AcDbTrace
 10
228.021330067
 20
134.8396427684
 30
0.0
 11
227.571330067
 21
131.8396427684
 31
0.0
 12
228.471330067
 22
131.8396427684
 32
0.0
 13
228.471330067
 23
131.8396427684
 33
0.0
  0
SOLID
  5
205
330
201
100
AcDbEntity
  8
VERMASSUNG
100
AcDbTrace
 10
228.021330067
 20
89.8396427684
 30
0.0
 11
228.471330067
 21
92.8396427684
 31
0.0
 12
227.571330067
 22
92.8396427684
 32
0.0
 13
227.571330067
 23
92.8396427684
 33
0.0
  0
LINE
  5
206
330
201
100
AcDbEntity
  8
VERMASSUNG
100
AcDbLine
 10
180.0820350837
 20
134.8396427684
 30
0.0
 11
229.021330067
 21
134.8396427684
 31
0.0
  0
LINE
  5
207
330
201
100
AcDbEntity
  8
VERMASSUNG
100
AcDbLine
 10
180.0820350837
 20
89.8396427684
 30
0.0
 11
229.021330067
 21
89.8396427684
 31
0.0
  0
LINE
  5
208
330
201
100
AcDbEntity
  8
VERMASSUNG
100
AcDbLine
 10
228.021330067
 20
134.8396427684
 30
0.0
 11
228.021330067
 21
89.8396427684
 31
0.0
  0
MTEXT
  5
209
330
201
100
AcDbEntity
  8
VERMASSUNG
100
AcDbMText
 10
225.4431947621
 20
109.0346427482
 30
0.0
 40
2.0
 41
0.0
 71
     1
 72
     1
  1
%%c
  7
SLDTEXTSTYLE0
 11
-5.267838178243384E-15
 21
1.0
 31
0.0
 73
     1
 44
1.0
  0
MTEXT
  5
20A
330
201
100
AcDbEntity
  8
VERMASSUNG
100
AcDbMText
 10
225.2431948108
 20
112.6446427625
 30
0.0
 40
2.0
 41
0.0
 71
     1
 72
     1
  1
45
  7
SLDTEXTSTYLE0
 11
-5.267838178243384E-15
 21
1.0
 31
0.0
 73
     1
 44
1.0
  0
ENDBLK
  5
203
330
201
100
AcDbEntity
  8
0
100
AcDbBlockEnd
  0
BLOCK
  5
20D
330
20C
100
AcDbEntity
  8
0
100
AcDbBlockBegin
  2
_D_2
 70
     0
 10
0.0
 20
0.0
 30
0.0
  3
_D_2
  1

  0
SOLID
  5
20F
330
20C
100
AcDbEntity
  8
VERMASSUNG
100
AcDbTrace
 10
152.021330067
 20
149.9270100624
 30
0.0
 11
155.021330067
 21
149.4770100624
 31
0.0
 12
155.021330067
 22
150.3770100624
 32
0.0
 13
155.021330067
 23
150.3770100624
 33
0.0
  0
SOLID
  5
210
330
20C
100
AcDbEntity
  8
VERMASSUNG
100
AcDbTrace
 10
194.021330067
 20
149.9270100624
 30
0.0
 11
191.021330067
 21
150.3770100624
 31
0.0
 12
191.021330067
 22
149.4770100624
 32
0.0
 13
191.021330067
 23
149.4770100624
 33
0.0
  0
LINE
  5
211
330
20C
100
AcDbEntity
  8
VERMASSUNG
100
AcDbLine
 10
152.021330067
 20
143.8146427684
 30
0.0
 11
152.021330067
 21
150.9270100624
 31
0.0
  0
LINE
  5
212
330
20C
100
AcDbEntity
  8
VERMASSUNG
100
AcDbLine
 10
194.021330067
 20
127.0655022468
 30
0.0
 11
194.021330067
 21
150.9270100624
 31
0.0
  0
LINE
  5
213
330
20C
100
AcDbEntity
  8
VERMASSUNG
100
AcDbLine
 10
152.021330067
 20
149.9270100624
 30
0.0
 11
194.021330067
 21
149.9270100624
 31
0.0
  0
MTEXT
  5
214
330
20C
100
AcDbEntity
  8
VERMASSUNG
100
AcDbMText
 10
171.521330054
 20
152.5051456583
 30
0.0
 40
2.0
 41
0.0
 71
     1
 72
     1
  1
42
  7
SLDTEXTSTYLE0
 73
     1
 44
1.0
  0
ENDBLK
  5
20E
330
20C
100
AcDbEntity
  8
0
100
AcDbBlockEnd
  0
BLOCK
  5
217
330
216
100
AcDbEntity
  8
0
100
AcDbBlockBegin
  2
_D_3
 70
     0
 10
0.0
 20
0.0
 30
0.0
  3
_D_3
  1

  0
SOLID
  5
219
330
216
100
AcDbEntity
  8
VERMASSUNG
100
AcDbTrace
 10
134.021330067
 20
158.0567049405
 30
0.0
 11
137.021330067
 21
157.6067049405
 31
0.0
 12
137.021330067
 22
158.5067049405
 32
0.0
 13
137.021330067
 23
158.5067049405
 33
0.0
  0
SOLID
  5
21A
330
216
100
AcDbEntity
  8
VERMASSUNG
100
AcDbTrace
 10
194.021330067
 20
158.0567049405
 30
0.0
 11
191.021330067
 21
158.5067049405
 31
0.0
 12
191.021330067
 22
157.6067049405
 32
0.0
 13
191.021330067
 23
157.6067049405
 33
0.0
  0
LINE
  5
21B
330
216
100
AcDbEntity
  8
VERMASSUNG
100
AcDbLine
 10
134.021330067
 20
143.6146427684
 30
0.0
 11
134.021330067
 21
159.0567049405
 31
0.0
  0
LINE
  5
21C
330
216
100
AcDbEntity
  8
VERMASSUNG
100
AcDbLine
 10
194.021330067
 20
127.0655022468
 30
0.0
 11
194.021330067
 21
159.0567049405
 31
0.0
  0
LINE
  5
21D
330
216
100
AcDbEntity
  8
VERMASSUNG
100
AcDbLine
 10
134.021330067
 20
158.0567049405
 30
0.0
 11
194.021330067
 21
158.0567049405
 31
0.0
  0
MTEXT
  5
21E
330
216
100
AcDbEntity
  8
VERMASSUNG
100
AcDbMText
 10
162.621330117
 20
160.6348405365
 30
0.0
 40
2.0
 41
0.0
 71
     1
 72
     1
  1
60
  7
SLDTEXTSTYLE0
 73
     1
 44
1.0
  0
ENDBLK
  5
218
330
216
100
AcDbEntity
  8
0
100
AcDbBlockEnd
  0
BLOCK
  5
221
330
220
100
AcDbEntity
  8
0
100
AcDbBlockBegin
  2
_D_4
 70
     0
 10
0.0
 20
0.0
 30
0.0
  3
_D_4
  1

  0
SOLID
  5
223
330
220
100
AcDbEntity
  8
VERMASSUNG
100
AcDbTrace
 10
94.071330067
 20
167.428188377
 30
0.0
 11
97.071330067
 21
166.978188377
 31
0.0
 12
97.071330067
 22
167.878188377
 32
0.0
 13
97.071330067
 23
167.878188377
 33
0.0
  0
SOLID
  5
224
330
220
100
AcDbEntity
  8
VERMASSUNG
100
AcDbTrace
 10
194.021330067
 20
167.428188377
 30
0.0
 11
191.021330067
 21
167.878188377
 31
0.0
 12
191.021330067
 22
166.978188377
 32
0.0
 13
191.021330067
 23
166.978188377
 33
0.0
  0
LINE
  5
225
330
220
100
AcDbEntity
  8
VERMASSUNG
100
AcDbLine
 10
94.071330067
 20
134.5427374922
 30
0.0
 11
94.071330067
 21
168.428188377
 31
0.0
  0
LINE
  5
226
330
220
100
AcDbEntity
  8
VERMASSUNG
100
AcDbLine
 10
194.021330067
 20
127.0655022468
 30
0.0
 11
194.021330067
 21
168.428188377
 31
0.0
  0
LINE
  5
227
330
220
100
AcDbEntity
  8
VERMASSUNG
100
AcDbLine
 10
94.071330067
 20
167.428188377
 30
0.0
 11
194.021330067
 21
167.428188377
 31
0.0
  0
MTEXT
  5
228
330
220
100
AcDbEntity
  8
VERMASSUNG
100
AcDbMText
 10
140.9463302108
 20
170.0063239729
 30
0.0
 40
2.0
 41
0.0
 71
     1
 72
     1
  1
99.95
  7
SLDTEXTSTYLE0
 73
     1
 44
1.0
  0
ENDBLK
  5
222
330
220
100
AcDbEntity
  8
0
100
AcDbBlockEnd
  0
BLOCK
  5
22C
330
22B
100
AcDbEntity
  8
0
100
AcDbBlockBegin
  2
_D_5
 70
     0
 10
0.0
 20
0.0
 30
0.0
  3
_D_5
  1

  0
SOLID
  5
22E
330
22B
100
AcDbEntity
  8
VERMASSUNG
100
AcDbTrace
 10
74.4340410246
 20
143.8146427684
 30
0.0
 11
73.9840410246
 21
140.8146427684
 31
0.0
 12
74.8840410246
 22
140.8146427684
 32
0.0
 13
74.8840410246
 23
140.8146427684
 33
0.0
  0
SOLID
  5
22F
330
22B
100
AcDbEntity
  8
VERMASSUNG
100
AcDbTrace
 10
74.4340410246
 20
80.8646427684
 30
0.0
 11
74.8840410246
 21
83.8646427684
 31
0.0
 12
73.9840410246
 22
83.8646427684
 32
0.0
 13
73.9840410246
 23
83.8646427684
 33
0.0
  0
LINE
  5
230
330
22B
100
AcDbEntity
  8
VERMASSUNG
100
AcDbLine
 10
147.2555278716
 20
143.8146427684
 30
0.0
 11
73.4340410246
 21
143.8146427684
 31
0.0
  0
LINE
  5
231
330
22B
100
AcDbEntity
  8
VERMASSUNG
100
AcDbLine
 10
147.2555278716
 20
80.8646427684
 30
0.0
 11
73.4340410246
 21
80.8646427684
 31
0.0
  0
LINE
  5
232
330
22B
100
AcDbEntity
  8
VERMASSUNG
100
AcDbLine
 10
74.4340410246
 20
143.8146427684
 30
0.0
 11
74.4340410246
 21
80.8646427684
 31
0.0
  0
MTEXT
  5
233
330
22B
100
AcDbEntity
  8
VERMASSUNG
100
AcDbMText
 10
71.6559057684
 20
104.23464415
 30
0.0
 40
2.0
 41
0.0
 71
     1
 72
     1
  1
KM
  7
SLDTEXTSTYLE0
 11
-5.267838178243384E-15
 21
1.0
 31
0.0
 73
     1
 44
1.0
  0
MTEXT
  5
234
330
22B
100
AcDbEntity
  8
VERMASSUNG
100
AcDbMText
 10
71.8559057197
 20
107.6346439623
 30
0.0
 40
2.0
 41
0.0
 71
     1
 72
     1
  1
%%c
  7
SLDTEXTSTYLE0
 11
-5.267838178243384E-15
 21
1.0
 31
0.0
 73
     1
 44
1.0
  0
MTEXT
  5
235
330
22B
100
AcDbEntity
  8
VERMASSUNG
100
AcDbMText
 10
71.6559057684
 20
111.2446439766
 30
0.0
 40
2.0
 41
0.0
 71
     1
 72
     1
  1
63
  7
SLDTEXTSTYLE0
 11
-5.267838178243384E-15
 21
1.0
 31
0.0
 73
     1
 44
1.0
  0
MTEXT
  5
236
330
22B
100
AcDbEntity
  8
VERMASSUNG
100
AcDbMText
 10
71.6559057684
 20
115.2321438767
 30
0.0
 40
2.0
 41
0.0
 71
     1
 72
     1
  1
XMZ
  7
SLDTEXTSTYLE0
 11
-5.267838178243384E-15
 21
1.0
 31
0.0
 73
     1
 44
1.0
  0
ENDBLK
  5
22D
330
22B
100
AcDbEntity
  8
0
100
AcDbBlockEnd
  0
ENDSEC
  0
SECTION
  2
ENTITIES
  0
MTEXT
  5
78
330
1F
100
AcDbEntity
  8
KOPF_DÜNN
100
AcDbMText
 10
13.8892156294
 20
23.8442973028
 30
0.0
 40
3.0
 41
0.0
 71
     1
 72
     1
  1
KY6.W14.K01.060
  7
SLDTEXTSTYLE0
 73
     1
 44
1.0
  0
MTEXT
  5
79
330
1F
100
AcDbEntity
  8
VERMASSUNG
100
AcDbMText
 10
13.9329988022
 20
28.8834360957
 30
0.0
 40
3.0
 41
0.0
 71
     1
 72
     1
  1
Flächenspannfutter Weldon_End mill adapter Weldon
  7
SLDTEXTSTYLE0
 73
     1
 44
1.0
  0
MTEXT
  5
7A
330
1F
100
AcDbEntity
  8
VERMASSUNG
100
AcDbMText
 10
98.8601118557
 20
13.8365368761
 30
0.0
 40
2.0
 41
0.0
 71
     1
 72
     1
  1
Datum: 16.02.2018
  7
SLDTEXTSTYLE0
 73
     1
 44
1.0
  0
MTEXT
  5
7B
330
1F
100
AcDbEntity
  8
VERMASSUNG
100
AcDbMText
 10
13.933048693
 20
18.0482802738
 30
0.0
 40
2.0
 41
0.0
 71
     1
 72
     1
  1
KM63 XMZ / Ø14
  7
SLDTEXTSTYLE0
 73
     1
 44
1.0
  0
MTEXT
  5
7C
330
1F
100
AcDbEntity
  8
VERMASSUNG
100
AcDbMText
 10
13.9808475933
 20
13.9090974274
 30
0.0
 40
2.0
 41
0.0
 71
     1
 72
     1
  1
Gewicht: 1042g
  7
SLDTEXTSTYLE0
 73
     1
 44
1.0
  0
SPLINE
  5
7D
330
1F
100
AcDbEntity
  8
0
  6
Continuous
 62
     7
370
    25
100
AcDbSpline
210
0.0
220
0.0
230
1.0
 70
     8
 71
     3
 72
     8
 73
     4
 74
     0
 42
0.000000001
 43
0.00000001
 40
0.0
 40
0.0
 40
0.0
 40
0.0
 40
1.0
 40
1.0
 40
1.0
 40
1.0
 10
366.3981096423656
 20
107.9696418964201
 30
0.0
 10
366.3292712721789
 20
107.9065472231013
 30
0.0
 10
366.2608399117228
 20
107.8428248449704
 30
0.0
 10
366.1928236370581
 20
107.778479412697
 30
0.0
  0
SPLINE
  5
7E
330
1F
100
AcDbEntity
  8
0
  6
Continuous
 62
     7
370
    25
100
AcDbSpline
210
0.0
220
0.0
230
1.0
 70
     8
 71
     3
 72
     8
 73
     4
 74
     0
 42
0.000000001
 43
0.00000001
 40
0.0
 40
0.0
 40
0.0
 40
0.0
 40
1.0
 40
1.0
 40
1.0
 40
1.0
 10
366.6561368836263
 20
107.8003800664928
 30
0.0
 10
366.5694334494659
 20
107.856540986162
 30
0.0
 10
366.4834354019821
 20
107.9129657224879
 30
0.0
 10
366.3981096423656
 20
107.9696418964201
 30
0.0
  0
ARC
  5
7F
330
1F
100
AcDbEntity
  8
0
  6
Continuous
 62
     7
370
    25
100
AcDbCircle
 10
376.787249752
 20
112.3396427684
 30
0.0
 40
11.10154736189901
100
AcDbArc
 50
204.1348482805
 51
335.8651517195
  0
SPLINE
  5
80
330
1F
100
AcDbEntity
  8
0
  6
Continuous
 62
     7
370
    25
100
AcDbSpline
210
0.0
220
0.0
230
1.0
 70
     8
 71
     3
 72
     8
 73
     4
 74
     0
 42
0.000000001
 43
0.00000001
 40
0.0
 40
0.0
 40
0.0
 40
0.0
 40
1.0
 40
1.0
 40
1.0
 40
1.0
 10
387.1763898616314
 20
107.9696418964201
 30
0.0
 10
387.091064102015
 20
107.9129657224879
 30
0.0
 10
387.0050660545311
 20
107.856540986162
 30
0.0
 10
386.9183626203707
 20
107.8003800664928
 30
0.0
  0
SPLINE
  5
81
330
1F
100
AcDbEntity
  8
0
  6
Continuous
 62
     7
370
    25
100
AcDbSpline
210
0.0
220
0.0
230
1.0
 70
     8
 71
     3
 72
     8
 73
     4
 74
     0
 42
0.000000001
 43
0.00000001
 40
0.0
 40
0.0
 40
0.0
 40
0.0
 40
1.0
 40
1.0
 40
1.0
 40
1.0
 10
387.381675866939
 20
107.778479412697
 30
0.0
 10
387.3136595922742
 20
107.8428248449704
 30
0.0
 10
387.2452282318181
 20
107.9065472231013
 30
0.0
 10
387.1763898616314
 20
107.9696418964201
 30
0.0
  0
ARC
  5
82
330
1F
100
AcDbEntity
  8
0
  6
Continuous
 62
     7
370
    25
100
AcDbCircle
 10
376.787249752
 20
112.3396427684
 30
0.0
 40
11.53456006379122
100
AcDbArc
 50
203.2930774359
 51
336.7074733161
  0
SPLINE
  5
83
330
1F
100
AcDbEntity
  8
0
  6
Continuous
 62
     7
370
    25
100
AcDbSpline
210
0.0
220
0.0
230
1.0
 70
     8
 71
     3
 72
     8
 73
     4
 74
     0
 42
0.000000001
 43
0.00000001
 40
0.0000004028655191
 40
0.0000004028655191
 40
0.0000004028655191
 40
0.0000004028655191
 40
0.0015137684369673
 40
0.0015137684369673
 40
0.0015137684369673
 40
0.0015137684369673
 10
368.3636550948565
 20
108.0173673646006
 30
0.0
 10
368.1569836073052
 20
107.9450734228859
 30
0.0
 10
367.9503646387645
 20
107.8727419369291
 30
0.0
 10
367.7437882639559
 20
107.8003800664928
 30
0.0
  0
LINE
  5
84
330
1F
100
AcDbEntity
  8
0
  6
Continuous
 62
     7
370
    25
100
AcDbLine
 10
367.743788264
 20
107.8003800665
 30
0.0
 11
366.6561368836
 21
107.8003800665
 31
0.0
  0
LINE
  5
85
330
1F
100
AcDbEntity
  8
0
  6
Continuous
 62
     7
370
    25
100
AcDbLine
 10
366.6211647492
 20
108.2333927684
 30
0.0
 11
366.3981096424
 21
107.9696418964
 31
0.0
  0
LINE
  5
86
330
1F
100
AcDbEntity
  8
0
  6
Continuous
 62
     7
370
    25
100
AcDbLine
 10
368.3887745765
 20
108.2333927684
 30
0.0
 11
366.6213792066
 21
108.2333927684
 31
0.0
  0
LINE
  5
87
330
1F
100
AcDbEntity
  8
0
  6
Continuous
 62
     7
370
    25
100
AcDbLine
 10
368.3994319267
 20
108.0758117333
 30
0.0
 11
368.3887745799
 21
108.2333926927
 31
0.0
  0
SPLINE
  5
88
330
1F
100
AcDbEntity
  8
0
  6
Continuous
 62
     7
370
    25
100
AcDbSpline
210
0.0
220
0.0
230
1.0
 70
     8
 71
     3
 72
     8
 73
     4
 74
     0
 42
0.000000001
 43
0.00000001
 40
0.0006523765358268
 40
0.0006523765358268
 40
0.0006523765358268
 40
0.0006523765358268
 40
0.0009043636494504
 40
0.0009043636494504
 40
0.0009043636494504
 40
0.0009043636494504
 10
368.4005319698913
 20
108.0776054620492
 30
0.0
 10
368.3882149753739
 20
108.057529881067
 30
0.0
 10
368.3759227779698
 20
108.0374504925446
 30
0.0
 10
368.3636550948565
 20
108.0173673646006
 30
0.0
  0
LINE
  5
89
330
1F
100
AcDbEntity
  8
0
  6
Continuous
 62
     7
370
    25
100
AcDbLine
 10
366.8113167027
 20
117.6179420178
 30
0.0
 11
367.0197250242
 21
117.3696427684
 31
0.0
  0
SPLINE
  5
8A
330
1F
100
AcDbEntity
  8
0
  6
Continuous
 62
     7
370
    25
100
AcDbSpline
210
0.0
220
0.0
230
1.0
 70
     8
 71
     3
 72
     8
 73
     4
 74
     0
 42
0.000000001
 43
0.00000001
 40
0.0
 40
0.0
 40
0.0
 40
0.0
 40
1.0
 40
1.0
 40
1.0
 40
1.0
 10
366.8113167026741
 20
117.6179420177742
 30
0.0
 10
366.914212616498
 20
117.6799106268651
 30
0.0
 10
367.0180522860529
 20
117.7414892790057
 30
0.0
 10
367.1228901742795
 20
117.8026554702772
 30
0.0
  0
LINE
  5
8B
330
1F
100
AcDbEntity
  8
0
  6
Continuous
 62
     7
370
    25
100
AcDbLine
 10
368.2699383346
 20
117.8026554703
 30
0.0
 11
367.1228901743
 21
117.8026554703
 31
0.0
  0
SPLINE
  5
8C
330
1F
100
AcDbEntity
  8
0
  6
Continuous
 62
     7
370
    25
100
AcDbSpline
210
0.0
220
0.0
230
1.0
 70
     8
 71
     3
 72
     8
 73
     4
 74
     0
 42
0.000000001
 43
0.00000001
 40
0.0000004089325119
 40
0.0000004089325119
 40
0.0000004089325119
 40
0.0000004089325119
 40
0.0015399868451459
 40
0.0015399868451459
 40
0.0015399868451459
 40
0.0015399868451459
 10
368.2699383345696
 20
117.8026554702772
 30
0.0
 10
368.4816995933641
 20
117.7302005876238
 30
0.0
 10
368.6936199165543
 20
117.6578617175953
 30
0.0
 10
368.9057378997686
 20
117.5856681721694
 30
0.0
  0
LINE
  5
8D
330
1F
100
AcDbEntity
  8
0
  6
Continuous
 62
     7
370
    25
100
AcDbLine
 10
368.9057378998
 20
117.5856681722
 30
0.0
 11
368.9138907058
 21
117.5704557579
 31
0.0
  0
LINE
  5
8E
330
1F
100
AcDbEntity
  8
0
  6
Continuous
 62
     7
370
    25
100
AcDbLine
 10
368.9115202185
 20
117.3696429378
 30
0.0
 11
368.9138917036
 21
117.5704558917
 31
0.0
  0
LINE
  5
8F
330
1F
100
AcDbEntity
  8
0
  6
Continuous
 62
     7
370
    25
100
AcDbLine
 10
368.9115202185
 20
117.3696427684
 30
0.0
 11
367.0197250242
 21
117.3696427684
 31
0.0
  0
ARC
  5
90
330
1F
100
AcDbEntity
  8
0
  6
Continuous
 62
     7
370
    25
100
AcDbCircle
 10
376.787249752
 20
112.3396427684
 30
0.0
 40
11.10154736189899
100
AcDbArc
 50
29.4783538465
 51
150.5216461535
  0
SPLINE
  5
91
330
1F
100
AcDbEntity
  8
0
  6
Continuous
 62
     7
370
    25
100
AcDbSpline
210
0.0
220
0.0
230
1.0
 70
     8
 71
     3
 72
     8
 73
     4
 74
     0
 42
0.000000001
 43
0.00000001
 40
0.0
 40
0.0
 40
0.0
 40
0.0
 40
1.0
 40
1.0
 40
1.0
 40
1.0
 10
366.6227803215602
 20
117.7921318386438
 30
0.0
 10
366.6853486299299
 20
117.7336813695362
 30
0.0
 10
366.7481952232936
 20
117.6756173590031
 30
0.0
 10
366.8113167026765
 20
117.6179420177719
 30
0.0
  0
ARC
  5
92
330
1F
100
AcDbEntity
  8
0
  6
Continuous
 62
     7
370
    25
100
AcDbCircle
 10
376.787249752
 20
112.3396427684
 30
0.0
 40
11.53456006379119
100
AcDbArc
 50
28.2102805322
 51
151.7902347364
  0
SPLINE
  5
93
330
1F
100
AcDbEntity
  8
0
  6
Continuous
 62
     7
370
    25
100
AcDbSpline
210
0.0
220
0.0
230
1.0
 70
     8
 71
     3
 72
     8
 73
     4
 74
     0
 42
0.000000001
 43
0.00000001
 40
0.0
 40
0.0
 40
0.0
 40
0.0
 40
1.0
 40
1.0
 40
1.0
 40
1.0
 10
386.7631828013209
 20
117.6179420177723
 30
0.0
 10
386.8263042807037
 20
117.6756173590034
 30
0.0
 10
386.8891508740674
 20
117.7336813695363
 30
0.0
 10
386.9517191824368
 20
117.7921318386438
 30
0.0
  0
SPLINE
  5
94
330
1F
100
AcDbEntity
  8
0
  6
Continuous
 62
     7
370
    25
100
AcDbSpline
210
0.0
220
0.0
230
1.0
 70
     8
 71
     3
 72
     8
 73
     4
 74
     0
 42
0.000000001
 43
0.00000001
 40
0.0
 40
0.0
 40
0.0
 40
0.0
 40
1.0
 40
1.0
 40
1.0
 40
1.0
 10
386.4516093297176
 20
117.8026554702772
 30
0.0
 10
386.5564472179438
 20
117.7414892790059
 30
0.0
 10
386.6602868874983
 20
117.6799106268656
 30
0.0
 10
386.7631828013218
 20
117.6179420177749
 30
0.0
  0
LINE
  5
95
330
1F
100
AcDbEntity
  8
0
  6
Continuous
 62
     7
370
    25
100
AcDbLine
 10
387.1763898616
 20
107.9696418964
 30
0.0
 11
386.9533347548
 21
108.2333927684
 31
0.0
  0
LINE
  5
96
330
1F
100
AcDbEntity
  8
0
  6
Continuous
 62
     7
370
    25
100
AcDbLine
 10
386.9183626204
 20
107.8003800665
 30
0.0
 11
385.83071124
 21
107.8003800665
 31
0.0
  0
SPLINE
  5
97
330
1F
100
AcDbEntity
  8
0
  6
Continuous
 62
     7
370
    25
100
AcDbSpline
210
0.0
220
0.0
230
1.0
 70
     8
 71
     3
 72
     8
 73
     4
 74
     0
 42
0.000000001
 43
0.00000001
 40
0.0000004024872366
 40
0.0000004024872366
 40
0.0000004024872366
 40
0.0000004024872366
 40
0.0015137680586847
 40
0.0015137680586847
 40
0.0015137680586847
 40
0.0015137680586847
 10
385.8307112400411
 20
107.8003800664928
 30
0.0
 10
385.6241348652325
 20
107.8727419369291
 30
0.0
 10
385.4175158966919
 20
107.9450734228859
 30
0.0
 10
385.2108444091406
 20
108.0173673646006
 30
0.0
  0
SPLINE
  5
98
330
1F
100
AcDbEntity
  8
0
  6
Continuous
 62
     7
370
    25
100
AcDbSpline
210
0.0
220
0.0
230
1.0
 70
     8
 71
     3
 72
     8
 73
     4
 74
     0
 42
0.000000001
 43
0.00000001
 40
0.0000002414707367
 40
0.0000002414707367
 40
0.0000002414707367
 40
0.0000002414707367
 40
0.0002447240690309
 40
0.0002447240690309
 40
0.0002447240690309
 40
0.0002447240690309
 10
385.2108444091406
 20
108.0173673646006
 30
0.0
 10
385.1989420737855
 20
108.0368523905471
 30
0.0
 10
385.1870166625737
 20
108.0563338963715
 30
0.0
 10
385.1750679172789
 20
108.0758118198834
 30
0.0
  0
LINE
  5
99
330
1F
100
AcDbEntity
  8
0
  6
Continuous
 62
     7
370
    25
100
AcDbLine
 10
385.1857249096
 20
108.2333926927
 30
0.0
 11
385.175067558
 21
108.0758117648
 31
0.0
  0
LINE
  5
9A
330
1F
100
AcDbEntity
  8
0
  6
Continuous
 62
     7
370
    25
100
AcDbLine
 10
386.9533347548
 20
108.2333927684
 30
0.0
 11
385.1806163184
 21
108.2333927684
 31
0.0
  0
SPLINE
  5
9B
330
1F
100
AcDbEntity
  8
0
  6
Continuous
 62
     7
370
    25
100
AcDbSpline
210
0.0
220
0.0
230
1.0
 70
     8
 71
     3
 72
     8
 73
     4
 74
     0
 42
0.000000001
 43
0.00000001
 40
0.000000410413179
 40
0.000000410413179
 40
0.000000410413179
 40
0.000000410413179
 40
0.0015399883258131
 40
0.0015399883258131
 40
0.0015399883258131
 40
0.0015399883258131
 10
384.6687616042285
 20
117.5856681721694
 30
0.0
 10
384.8808795874428
 20
117.6578617175953
 30
0.0
 10
385.0927999106329
 20
117.7302005876238
 30
0.0
 10
385.3045611694274
 20
117.8026554702772
 30
0.0
  0
LINE
  5
9C
330
1F
100
AcDbEntity
  8
0
  6
Continuous
 62
     7
370
    25
100
AcDbLine
 10
386.4516093297
 20
117.8026554703
 30
0.0
 11
385.3045611694
 21
117.8026554703
 31
0.0
  0
LINE
  5
9D
330
1F
100
AcDbEntity
  8
0
  6
Continuous
 62
     7
370
    25
100
AcDbLine
 10
386.5547744798
 20
117.3696427684
 30
0.0
 11
386.7631828013
 21
117.6179420178
 31
0.0
  0
LINE
  5
9E
330
1F
100
AcDbEntity
  8
0
  6
Continuous
 62
     7
370
    25
100
AcDbLine
 10
386.5545844241
 20
117.3696427684
 30
0.0
 11
384.6629794862
 21
117.3696427684
 31
0.0
  0
LINE
  5
9F
330
1F
100
AcDbEntity
  8
0
  6
Continuous
 62
     7
370
    25
100
AcDbLine
 10
384.6606076993
 20
117.5704557031
 30
0.0
 11
384.6629792095
 21
117.3696429378
 31
0.0
  0
LINE
  5
A0
330
1F
100
AcDbEntity
  8
0
  6
Continuous
 62
     7
370
    25
100
AcDbLine
 10
384.6606086971
 20
117.5704555693
 30
0.0
 11
384.6687616042
 21
117.5856681722
 31
0.0
  0
ARC
  5
A1
330
1F
100
AcDbEntity
  8
0
  6
Continuous
 62
     7
370
    25
100
AcDbCircle
 10
376.787249752
 20
112.3396427684
 30
0.0
 40
10.11875000000003
100
AcDbArc
 50
32.6761561262
 51
147.3238438738
  0
ARC
  5
A2
330
1F
100
AcDbEntity
  8
0
  6
Continuous
 62
     7
370
    25
100
AcDbCircle
 10
376.787249752
 20
112.3396427684
 30
0.0
 40
10.11875
100
AcDbArc
 50
206.6538426687
 51
333.3461573313
  0
ARC
  5
A3
330
1F
100
AcDbEntity
  8
0
  6
Continuous
 62
     7
370
    25
100
AcDbCircle
 10
376.787249752
 20
112.3396427684
 30
0.0
 40
9.467788105676675
100
AcDbArc
 50
33.6481949792
 51
146.3518050208
  0
ARC
  5
A4
330
1F
100
AcDbEntity
  8
0
  6
Continuous
 62
     7
370
    25
100
AcDbCircle
 10
376.787249752
 20
112.3396427684
 30
0.0
 40
9.467788105676714
100
AcDbArc
 50
207.1630537883
 51
332.8369462117
  0
SPLINE
  5
A5
330
1F
100
AcDbEntity
  8
0
  6
Continuous
 62
     7
370
    25
100
AcDbSpline
210
0.0
220
0.0
230
1.0
 70
     8
 71
     3
 72
     8
 73
     4
 74
     0
 42
0.000000001
 43
0.00000001
 40
0.0
 40
0.0
 40
0.0
 40
0.0
 40
1.0
 40
1.0
 40
1.0
 40
1.0
 10
366.1928236368681
 20
107.7784794128083
 30
0.0
 10
366.1395808119264
 20
107.7790031390462
 30
0.0
 10
366.0862855263107
 20
107.7798012323085
 30
0.0
 10
366.0329400208213
 20
107.7808742802333
 30
0.0
  0
LINE
  5
A6
330
1F
100
AcDbEntity
  8
0
  6
Continuous
 62
     7
370
    25
100
AcDbLine
 10
366.4610276189
 20
108.2333927684
 30
0.0
 11
366.6211647492
 21
108.2333927684
 31
0.0
  0
LINE
  5
A7
330
1F
100
AcDbEntity
  8
0
  6
Continuous
 62
     7
370
    25
100
AcDbLine
 10
386.9533347548
 20
108.2333927684
 30
0.0
 11
387.1134718851
 21
108.2333927684
 31
0.0
  0
SPLINE
  5
A8
330
1F
100
AcDbEntity
  8
0
  6
Continuous
 62
     7
370
    25
100
AcDbSpline
210
0.0
220
0.0
230
1.0
 70
     8
 71
     3
 72
     8
 73
     4
 74
     0
 42
0.000000001
 43
0.00000001
 40
0.0
 40
0.0
 40
0.0
 40
0.0
 40
1.0
 40
1.0
 40
1.0
 40
1.0
 10
387.5415594831758
 20
107.7808742802333
 30
0.0
 10
387.4882139776864
 20
107.7798012323085
 30
0.0
 10
387.4349186920707
 20
107.7790031390462
 30
0.0
 10
387.3816758671289
 20
107.7784794128083
 30
0.0
  0
LINE
  5
A9
330
1F
100
AcDbEntity
  8
0
  6
Continuous
 62
     7
370
    25
100
AcDbLine
 10
367.0197250242
 20
117.3696427684
 30
0.0
 11
366.8963080404
 21
117.3696427684
 31
0.0
  0
SPLINE
  5
AA
330
1F
100
AcDbEntity
  8
0
  6
Continuous
 62
     7
370
    25
100
AcDbSpline
210
0.0
220
0.0
230
1.0
 70
     8
 71
     3
 72
     8
 73
     4
 74
     0
 42
0.000000001
 43
0.00000001
 40
0.0
 40
0.0
 40
0.0
 40
0.0
 40
1.0
 40
1.0
 40
1.0
 40
1.0
 10
366.4995588273188
 20
117.7900882853213
 30
0.0
 10
366.5406742543606
 20
117.7909572229613
 30
0.0
 10
366.5817485489717
 20
117.7916382605442
 30
0.0
 10
366.6227803214608
 20
117.7921318386057
 30
0.0
  0
SPLINE
  5
AB
330
1F
100
AcDbEntity
  8
0
  6
Continuous
 62
     7
370
    25
100
AcDbSpline
210
0.0
220
0.0
230
1.0
 70
     8
 71
     3
 72
     8
 73
     4
 74
     0
 42
0.000000001
 43
0.00000001
 40
0.0
 40
0.0
 40
0.0
 40
0.0
 40
1.0
 40
1.0
 40
1.0
 40
1.0
 10
386.9517191825363
 20
117.7921318386057
 30
0.0
 10
386.9927509550254
 20
117.7916382605442
 30
0.0
 10
387.0338252496364
 20
117.7909572229614
 30
0.0
 10
387.0749406766783
 20
117.7900882853214
 30
0.0
  0
LINE
  5
AC
330
1F
100
AcDbEntity
  8
0
  6
Continuous
 62
     7
370
    25
100
AcDbLine
 10
386.6781914636
 20
117.3696427684
 30
0.0
 11
386.5547744798
 21
117.3696427684
 31
0.0
  0
SPLINE
  5
AD
330
1F
100
AcDbEntity
  8
0
  6
Continuous
 62
     7
370
    25
100
AcDbSpline
210
0.0
220
0.0
230
1.0
 70
     8
 71
     3
 72
     9
 73
     5
 74
     0
 42
0.000000001
 43
0.00000001
 40
0.0
 40
0.0
 40
0.0
 40
0.0
 40
0.4897878789203994
 40
0.9999999999999999
 40
0.9999999999999999
 40
0.9999999999999999
 40
0.9999999999999999
 10
383.89283931665
 20
117.5627596346228
 30
0.0
 10
384.0191943988712
 20
117.564078360376
 30
0.0
 10
384.2771735928434
 20
117.5667708029823
 30
0.0
 10
384.5310683411328
 20
117.5692108808183
 30
0.0
 10
384.6606085191885
 20
117.5704558381066
 30
0.0
  0
ARC
  5
AE
330
1F
100
AcDbEntity
  8
0
  6
Continuous
 62
     7
370
    25
100
AcDbCircle
 10
376.787249752
 20
112.3396427684
 30
0.0
 40
8.818749999999993
100
AcDbArc
 50
36.3185452201
 51
143.6814533294
  0
SPLINE
  5
AF
330
1F
100
AcDbEntity
  8
0
  6
Continuous
 62
     7
370
    25
100
AcDbSpline
210
0.0
220
0.0
230
1.0
 70
     8
 71
     3
 72
     9
 73
     5
 74
     0
 42
0.000000001
 43
0.00000001
 40
0.0
 40
0.0
 40
0.0
 40
0.0
 40
0.5102121239851395
 40
0.9999999999999999
 40
0.9999999999999999
 40
0.9999999999999999
 40
0.9999999999999999
 10
368.9138908836837
 20
117.5704560267109
 30
0.0
 10
369.0434311015346
 20
117.5692110680201
 30
0.0
 10
369.2973259263754
 20
117.566770987449
 30
0.0
 10
369.5553051993851
 20
117.5640785417559
 30
0.0
 10
369.6816603195684
 20
117.5627598144985
 30
0.0
  0
SPLINE
  5
B0
330
1F
100
AcDbEntity
  8
0
  6
Continuous
 62
     7
370
    25
100
AcDbSpline
210
0.0
220
0.0
230
1.0
 70
     8
 71
     3
 72
     8
 73
     4
 74
     0
 42
0.000000001
 43
0.00000001
 40
0.0
 40
0.0
 40
0.0
 40
0.0
 40
1.0
 40
1.0
 40
1.0
 40
1.0
 10
369.6816600658938
 20
117.5627593452213
 30
0.0
 10
369.6738990079484
 20
117.5522011100223
 30
0.0
 10
369.6661614828525
 20
117.5416255764959
 30
0.0
 10
369.658447567483
 20
117.5310328497165
 30
0.0
  0
SPLINE
  5
B1
330
1F
100
AcDbEntity
  8
0
  6
Continuous
 62
     7
370
    25
100
AcDbSpline
210
0.0
220
0.0
230
1.0
 70
     8
 71
     3
 72
     8
 73
     4
 74
     0
 42
0.000000001
 43
0.00000001
 40
0.0
 40
0.0
 40
0.0
 40
0.0
 40
1.0
 40
1.0
 40
1.0
 40
1.0
 10
369.48688973472
 20
117.3696431072533
 30
0.0
 10
369.5441501417544
 20
117.423551284241
 30
0.0
 10
369.6013365328641
 20
117.4773482093241
 30
0.0
 10
369.658447567483
 20
117.5310328497165
 30
0.0
  0
LINE
  5
B2
330
1F
100
AcDbEntity
  8
0
  6
Continuous
 62
     7
370
    25
100
AcDbLine
 10
369.4868904345
 20
117.3696427684
 30
0.0
 11
368.9115199418
 21
117.3696427684
 31
0.0
  0
SPLINE
  5
B3
330
1F
100
AcDbEntity
  8
0
  6
Continuous
 62
     7
370
    25
100
AcDbSpline
210
0.0
220
0.0
230
1.0
 70
     8
 71
     3
 72
     8
 73
     4
 74
     0
 42
0.000000001
 43
0.00000001
 40
0.0
 40
0.0
 40
0.0
 40
0.0
 40
1.0
 40
1.0
 40
1.0
 40
1.0
 10
383.9161673682951
 20
117.5308743354176
 30
0.0
 10
383.9084152555945
 20
117.5415200120902
 30
0.0
 10
383.9006392969272
 20
117.5521483242844
 30
0.0
 10
383.8928395703238
 20
117.5627591653468
 30
0.0
  0
LINE
  5
B4
330
1F
100
AcDbEntity
  8
0
  6
Continuous
 62
     7
370
    25
100
AcDbLine
 10
384.6629794862
 20
117.3696427684
 30
0.0
 11
384.0875804698
 21
117.3696427684
 31
0.0
  0
SPLINE
  5
B5
330
1F
100
AcDbEntity
  8
0
  6
Continuous
 62
     7
370
    25
100
AcDbSpline
210
0.0
220
0.0
230
1.0
 70
     8
 71
     3
 72
     8
 73
     4
 74
     0
 42
0.000000001
 43
0.00000001
 40
0.0
 40
0.0
 40
0.0
 40
0.0
 40
1.0
 40
1.0
 40
1.0
 40
1.0
 10
383.9161673682951
 20
117.5308743354176
 30
0.0
 10
383.9732304959812
 20
117.4772423850018
 30
0.0
 10
384.0303688757115
 20
117.4234982986369
 30
0.0
 10
384.0875811691853
 20
117.3696431073867
 30
0.0
  0
ARC
  5
B6
330
1F
100
AcDbEntity
  8
0
  6
Continuous
 62
     7
370
    25
100
AcDbCircle
 10
376.787249752
 20
112.3396427684
 30
0.0
 40
8.81875000000001
100
AcDbArc
 50
209.2047569376
 51
330.7952430624
  0
SPLINE
  5
B7
330
1F
100
AcDbEntity
  8
0
  6
Continuous
 62
     7
370
    25
100
AcDbSpline
210
0.0
220
0.0
230
1.0
 70
    24
 71
     3
 72
     8
 73
     4
 74
     0
 42
0.000000001
 43
0.00000001
 40
0.0
 40
0.0
 40
0.0
 40
0.0
 40
0.0001360402183991
 40
0.0001360402183991
 40
0.0001360402183991
 40
0.0001360402183991
 10
384.5283851488428
 20
108.0801023375338
 30
0.0
 10
384.5139461491588
 20
108.0656633378497
 30
0.0
 10
384.4994756967965
 20
108.0511928854875
 30
0.0
 10
384.484974098245
 20
108.036691286936
 30
0.0
  0
SPLINE
  5
B8
330
1F
100
AcDbEntity
  8
0
  6
Continuous
 62
     7
370
    25
100
AcDbSpline
210
0.0
220
0.0
230
1.0
 70
     8
 71
     3
 72
     9
 73
     5
 74
     0
 42
0.000000001
 43
0.00000001
 40
0.0
 40
0.0
 40
0.0
 40
0.0
 40
0.5086448740972567
 40
1.0
 40
1.0
 40
1.0
 40
1.0
 10
385.1750678775991
 20
108.0758117317487
 30
0.0
 10
385.0659018286013
 20
108.0765055805937
 30
0.0
 10
384.8512804796855
 20
108.0778696931216
 30
0.0
 10
384.6347691670081
 20
108.0793665130594
 30
0.0
 10
384.5283852237082
 20
108.0801019832085
 30
0.0
  0
SPLINE
  5
B9
330
1F
100
AcDbEntity
  8
0
  6
Continuous
 62
     7
370
    25
100
AcDbSpline
210
0.0
220
0.0
230
1.0
 70
     8
 71
     3
 72
     9
 73
     5
 74
     0
 42
0.000000001
 43
0.00000001
 40
0.0
 40
0.0
 40
0.0
 40
0.0
 40
0.4913551252639924
 40
1.0
 40
1.0
 40
1.0
 40
1.0
 10
369.0461143107534
 20
108.0801019527439
 30
0.0
 10
368.9397303593614
 20
108.0793664824151
 30
0.0
 10
368.7232190299337
 20
108.0778696621093
 30
0.0
 10
368.5085976645669
 20
108.076505549255
 30
0.0
 10
368.3994316070642
 20
108.0758117002431
 30
0.0
  0
SPLINE
  5
BA
330
1F
100
AcDbEntity
  8
0
  6
Continuous
 62
     7
370
    25
100
AcDbSpline
210
0.0
220
0.0
230
1.0
 70
    24
 71
     3
 72
     8
 73
     4
 74
     0
 42
0.000000001
 43
0.00000001
 40
0.0
 40
0.0
 40
0.0
 40
0.0
 40
0.0001360401227241
 40
0.0001360401227241
 40
0.0001360401227241
 40
0.0001360401227241
 10
369.089525405752
 20
108.036691286936
 30
0.0
 10
369.0750238173993
 20
108.0511928752887
 30
0.0
 10
369.0605533751921
 20
108.0656633174959
 30
0.0
 10
369.0461143856188
 20
108.0801023070693
 30
0.0
  0
LINE
  5
BB
330
1F
100
AcDbEntity
  8
0
  6
Continuous
 62
     7
370
    25
100
AcDbLine
 10
368.3887744579
 20
108.2333927684
 30
0.0
 11
368.89282433
 21
108.2333927684
 31
0.0
  0
SPLINE
  5
BC
330
1F
100
AcDbEntity
  8
0
  6
Continuous
 62
     7
370
    25
100
AcDbSpline
210
0.0
220
0.0
230
1.0
 70
     8
 71
     3
 72
     8
 73
     4
 74
     0
 42
0.000000001
 43
0.00000001
 40
0.0
 40
0.0
 40
0.0
 40
0.0
 40
1.0
 40
1.0
 40
1.0
 40
1.0
 10
369.0461145854507
 20
108.0801021074822
 30
0.0
 10
368.9950458228462
 20
108.1311445992263
 30
0.0
 10
368.9439488632103
 20
108.1822415712522
 30
0.0
 10
368.8928240216947
 20
108.2333926709934
 30
0.0
  0
SPLINE
  5
BD
330
1F
100
AcDbEntity
  8
0
  6
Continuous
 62
     7
370
    25
100
AcDbSpline
210
0.0
220
0.0
230
1.0
 70
     8
 71
     3
 72
     8
 73
     4
 74
     0
 42
0.000000001
 43
0.00000001
 40
0.0
 40
0.0
 40
0.0
 40
0.0
 40
1.0
 40
1.0
 40
1.0
 40
1.0
 10
384.6816754823025
 20
108.2333926709935
 30
0.0
 10
384.6305506509573
 20
108.1822415814382
 30
0.0
 10
384.5794537014762
 20
108.1311446195672
 30
0.0
 10
384.5283849490109
 20
108.0801021379468
 30
0.0
  0
LINE
  5
BE
330
1F
100
AcDbEntity
  8
0
  6
Continuous
 62
     7
370
    25
100
AcDbLine
 10
384.681675174
 20
108.2333927684
 30
0.0
 11
385.1857250316
 21
108.2333927684
 31
0.0
  0
CIRCLE
  5
BF
330
1F
100
AcDbEntity
  8
0
  6
Continuous
 62
     7
370
    25
100
AcDbCircle
 10
376.787249752
 20
112.3396427684
 30
0.0
 40
12.47086902276413
  0
SPLINE
  5
C0
330
1F
100
AcDbEntity
  8
0
  6
Continuous
 62
     7
370
    25
100
AcDbSpline
210
0.0
220
0.0
230
1.0
 70
     8
 71
     3
 72
    23
 73
    19
 74
     0
 42
0.000000001
 43
0.00000001
 40
0.0
 40
0.0
 40
0.0
 40
0.0
 40
0.0521036415675031
 40
0.1035646240925967
 40
0.1544751946736949
 40
0.2049306267473421
 40
0.2550287880844035
 40
0.3048696389141012
 40
0.3545546704609132
 40
0.4041862979523234
 40
0.4538672252126086
 40
0.5036997999421611
 40
0.5901870230746071
 40
0.674271637822954
 40
0.7565997087222995
 40
0.8378563983721267
 40
0.9187511781367398
 40
1.0
 40
1.0
 40
1.0
 40
1.0
 10
365.947997605341
 20
116.8300534811349
 30
0.0
 10
365.9612919602907
 20
116.8592213742964
 30
0.0
 10
365.9877166943689
 20
116.9171973967004
 30
0.0
 10
366.0269277005928
 20
117.0000966977124
 30
0.0
 10
366.0653696553985
 20
117.07927867873
 30
0.0
 10
366.1029572368652
 20
117.154533495532
 30
0.0
 10
366.1396131231727
 20
117.2259531497897
 30
0.0
 10
366.1752629872313
 20
117.2935497585713
 30
0.0
 10
366.2098367339925
 20
117.3573560800358
 30
0.0
 10
366.2432684279485
 20
117.417399622105
 30
0.0
 10
366.2754953051734
 20
117.4737063188316
 30
0.0
 10
366.3139967420631
 20
117.5391113006553
 30
0.0
 10
366.3566582227765
 20
117.6086723784914
 30
0.0
 10
366.4001512648995
 20
117.6754318751559
 30
0.0
 10
366.4365637617275
 20
117.7271559232537
 30
0.0
 10
366.4654645682047
 20
117.7636042353056
 30
0.0
 10
366.487382024303
 20
117.7862016321887
 30
0.0
 10
366.4954939887963
 20
117.7887908497501
 30
0.0
 10
366.4995588273188
 20
117.7900882853214
 30
0.0
  0
SPLINE
  5
C1
330
1F
100
AcDbEntity
  8
0
  6
Continuous
 62
     7
370
    25
100
AcDbSpline
210
0.0
220
0.0
230
1.0
 70
     8
 71
     3
 72
     8
 73
     4
 74
     0
 42
0.000000001
 43
0.00000001
 40
0.0
 40
0.0
 40
0.0
 40
0.0
 40
1.0
 40
1.0
 40
1.0
 40
1.0
 10
365.8273596654782
 20
116.8278431237251
 30
0.0
 10
365.8675486790711
 20
116.8285734339426
 30
0.0
 10
365.9077109811612
 20
116.8291539597721
 30
0.0
 10
365.9478456916368
 20
116.8295849247219
 30
0.0
  0
SPLINE
  5
C2
330
1F
100
AcDbEntity
  8
0
  6
Continuous
 62
     7
370
    25
100
AcDbSpline
210
0.0
220
0.0
230
1.0
 70
     8
 71
     3
 72
    18
 73
    14
 74
     0
 42
0.000000001
 43
0.00000001
 40
0.0
 40
0.0
 40
0.0
 40
0.0
 40
0.0923824559439141
 40
0.1844689291621674
 40
0.2764953616012182
 40
0.3686975365563128
 40
0.4613092840072771
 40
0.5545607518505636
 40
0.6486768051587679
 40
0.7438756050178583
 40
0.8403674044309957
 40
0.9203921078131376
 40
1.0
 40
1.0
 40
1.0
 40
1.0
 10
365.8802986542777
 20
117.0946601306069
 30
0.0
 10
365.8821343079304
 20
117.0944518183917
 30
0.0
 10
365.8857997340135
 20
117.0940358613696
 30
0.0
 10
365.8885950636328
 20
117.0872314379035
 30
0.0
 10
365.8893973587114
 20
117.0758980592514
 30
0.0
 10
365.8880312216683
 20
117.0595976642248
 30
0.0
 10
365.8845696730394
 20
117.038446425389
 30
0.0
 10
365.87902836727
 20
117.0124107242725
 30
0.0
 10
365.8714438992009
 20
116.9814863446213
 30
0.0
 10
365.861866897264
 20
116.9456873131766
 30
0.0
 10
365.8510264212449
 20
116.9074364056449
 30
0.0
 10
365.8395377803057
 20
116.8682181922502
 30
0.0
 10
365.8314377954276
 20
116.8413632154009
 30
0.0
 10
365.827398377785
 20
116.8279707870307
 30
0.0
  0
LINE
  5
C3
330
1F
100
AcDbEntity
  8
0
  6
Continuous
 62
     7
370
    25
100
AcDbLine
 10
365.827543295
 20
117.0939124132
 30
0.0
 11
365.8802986543
 21
117.0946601306
 31
0.0
  0
SPLINE
  5
C4
330
1F
100
AcDbEntity
  8
0
  6
Continuous
 62
     7
370
    25
100
AcDbSpline
210
0.0
220
0.0
230
1.0
 70
     8
 71
     3
 72
    25
 73
    21
 74
     0
 42
0.000000001
 43
0.00000001
 40
0.0
 40
0.0
 40
0.0
 40
0.0
 40
0.0280105225426451
 40
0.0559601148860766
 40
0.0839014045043116
 40
0.1118870776786362
 40
0.1399695827588919
 40
0.1682008401739851
 40
0.1966319670424188
 40
0.2253130233141458
 40
0.2542927850735824
 40
0.3799486436570461
 40
0.50578502216665
 40
0.6313085886322404
 40
0.7532068238012486
 40
0.8039473267955931
 40
0.8535894438554454
 40
0.9025339722394081
 40
0.9511970353791097
 40
1.0
 40
1.0
 40
1.0
 40
1.0
 10
364.9165818872249
 20
114.5269805109193
 30
0.0
 10
364.9235609571358
 20
114.5642905244261
 30
0.0
 10
364.9375039156586
 20
114.6388293924197
 30
0.0
 10
364.9600258131015
 20
114.7501384379029
 30
0.0
 10
364.9836594251991
 20
114.8608006469173
 30
0.0
 10
365.008509015687
 20
114.9707847798616
 30
0.0
 10
365.0345276401733
 20
115.0800799234762
 30
0.0
 10
365.0617090214912
 20
115.1886708926783
 30
0.0
 10
365.0900346628237
 20
115.2965416026207
 30
0.0
 10
365.1194934436563
 20
115.4036865483457
 30
0.0
 10
365.1839017315678
 20
115.6278614348556
 30
0.0
 10
365.2890034236394
 20
115.9545268488908
 30
0.0
 10
365.4344661844352
 20
116.3404734542104
 30
0.0
 10
365.5737295925462
 20
116.662553266904
 30
0.0
 10
365.6708779454133
 20
116.8583738509344
 30
0.0
 10
365.73117335164
 20
116.9677213014187
 30
0.0
 10
365.7660619345212
 20
117.025649325834
 30
0.0
 10
365.7939564364492
 20
117.066103278599
 30
0.0
 10
365.8153215288208
 20
117.090717493998
 30
0.0
 10
365.8234654763934
 20
117.0928464215057
 30
0.0
 10
365.8275432950385
 20
117.0939124131771
 30
0.0
  0
ARC
  5
C5
330
1F
100
AcDbEntity
  8
0
  6
Continuous
 62
     7
370
    25
100
AcDbCircle
 10
376.787249752
 20
112.3396427684
 30
0.0
 40
12.07050959801136
100
AcDbArc
 50
169.5595567507
 51
190.4404432494
  0
SPLINE
  5
C6
330
1F
100
AcDbEntity
  8
0
  6
Continuous
 62
     7
370
    25
100
AcDbSpline
210
0.0
220
0.0
230
1.0
 70
     8
 71
     3
 72
    26
 73
    22
 74
     0
 42
0.000000001
 43
0.00000001
 40
0.0
 40
0.0
 40
0.0
 40
0.0
 40
0.0241259796957183
 40
0.048215991226154
 40
0.072320391510906
 40
0.0964895678693673
 40
0.1207736231945699
 40
0.1452220711225729
 40
0.1698835501642671
 40
0.1948055644460739
 40
0.2200342569510659
 40
0.245614219161033
 40
0.3690971486881772
 40
0.4940698769484976
 40
0.6192566784762282
 40
0.7454656653603126
 40
0.7971495824713628
 40
0.8481710308405337
 40
0.8988013269235202
 40
0.9493179290492171
 40
1.0
 40
1.0
 40
1.0
 40
1.0
 10
365.8275432950385
 20
107.5853731235929
 30
0.0
 10
365.8256329802981
 20
107.5856600167824
 30
0.0
 10
365.821815198806
 20
107.5862333754471
 30
0.0
 10
365.8138550736252
 20
107.5922920636936
 30
0.0
 10
365.8042759730498
 20
107.6021713244245
 30
0.0
 10
365.7929287661812
 20
107.6162524155349
 30
0.0
 10
365.7798725828873
 20
107.634447963559
 30
0.0
 10
365.76511667966
 20
107.6567985062977
 30
0.0
 10
365.7486894993625
 20
107.6833127419898
 30
0.0
 10
365.7306213446423
 20
107.7140082527031
 30
0.0
 10
365.7109441982191
 20
107.748909355943
 30
0.0
 10
365.6627448167919
 20
107.8376738910479
 30
0.0
 10
365.5744267773566
 20
108.0149541924965
 30
0.0
 10
365.4353671605892
 20
108.3360400993429
 30
0.0
 10
365.2896944807264
 20
108.7226227512349
 30
0.0
 10
365.1759558857169
 20
109.076330455365
 30
0.0
 10
365.0962502671704
 20
109.3585841549777
 30
0.0
 10
365.0456006948161
 20
109.5530275857521
 30
0.0
 10
364.9986340249508
 20
109.7502689626862
 30
0.0
 10
364.9550742029464
 20
109.9501720077813
 30
0.0
 10
364.9294266378149
 20
110.0848539475135
 30
0.0
 10
364.9165818872249
 20
110.1523050258507
 30
0.0
  0
LINE
  5
C7
330
1F
100
AcDbEntity
  8
0
  6
Continuous
 62
     7
370
    25
100
AcDbLine
 10
365.8802986543
 20
107.5846254062
 30
0.0
 11
365.827543295
 21
107.5853731236
 31
0.0
  0
SPLINE
  5
C8
330
1F
100
AcDbEntity
  8
0
  6
Continuous
 62
     7
370
    25
100
AcDbSpline
210
0.0
220
0.0
230
1.0
 70
     8
 71
     3
 72
    14
 73
    10
 74
     0
 42
0.000000001
 43
0.00000001
 40
0.0
 40
0.0
 40
0.0
 40
0.0
 40
0.0789261963166806
 40
0.1582328720532219
 40
0.3308475394593821
 40
0.5000195457654665
 40
0.6670357883621003
 40
0.8332395193691069
 40
1.0
 40
1.0
 40
1.0
 40
1.0
 10
365.8273017974261
 20
107.8516488834673
 30
0.0
 10
365.8313163440221
 20
107.8383457588297
 30
0.0
 10
365.8393647901341
 20
107.8116753791977
 30
0.0
 10
365.8542654969433
 20
107.7608606398785
 30
0.0
 10
365.8701624785395
 20
107.7038208236921
 30
0.0
 10
365.8832409735373
 20
107.6495176069637
 30
0.0
 10
365.8894735806547
 20
107.6113504642406
 30
0.0
 10
365.889284000818
 20
107.5879417355634
 30
0.0
 10
365.8832971066873
 20
107.5857320808847
 30
0.0
 10
365.8802986542777
 20
107.5846254061631
 30
0.0
  0
SPLINE
  5
C9
330
1F
100
AcDbEntity
  8
0
  6
Continuous
 62
     7
370
    25
100
AcDbSpline
210
0.0
220
0.0
230
1.0
 70
     8
 71
     3
 72
     8
 73
     4
 74
     0
 42
0.000000001
 43
0.00000001
 40
0.0
 40
0.0
 40
0.0
 40
0.0
 40
1.0
 40
1.0
 40
1.0
 40
1.0
 10
365.9746064886503
 20
107.8495878050173
 30
0.0
 10
365.9255385736216
 20
107.8500748582292
 30
0.0
 10
365.8764291361009
 20
107.8507859261041
 30
0.0
 10
365.8272797915756
 20
107.8517214193384
 30
0.0
  0
SPLINE
  5
CA
330
1F
100
AcDbEntity
  8
0
  6
Continuous
 62
     7
370
    25
100
AcDbSpline
210
0.0
220
0.0
230
1.0
 70
     8
 71
     3
 72
    13
 73
     9
 74
     0
 42
0.000000001
 43
0.00000001
 40
0.0
 40
0.0
 40
0.0
 40
0.0
 40
0.1667030582308039
 40
0.3329480818053005
 40
0.4990671507274865
 40
0.6653938523718437
 40
0.8322612710550082
 40
1.0
 40
1.0
 40
1.0
 40
1.0
 10
366.0329400208213
 20
107.7808742802333
 30
0.0
 10
366.0310967069844
 20
107.7812913899991
 30
0.0
 10
366.0274151440145
 20
107.7821244634765
 30
0.0
 10
366.01989789022
 20
107.7881389423029
 30
0.0
 10
366.0109470861035
 20
107.7976336745951
 30
0.0
 10
366.0003967976805
 20
107.8110432817048
 30
0.0
 10
365.9884236121634
 20
107.8279611853283
 30
0.0
 10
365.9792172045571
 20
107.8423739204678
 30
0.0
 10
365.9746020140682
 20
107.8495990533293
 30
0.0
  0
SPLINE
  5
CB
330
1F
100
AcDbEntity
  8
0
  6
Continuous
 62
     7
370
    25
100
AcDbSpline
210
0.0
220
0.0
230
1.0
 70
     8
 71
     3
 72
    13
 73
     9
 74
     0
 42
0.000000001
 43
0.00000001
 40
0.0
 40
0.0
 40
0.0
 40
0.0
 40
0.1686319999748108
 40
0.3360343310905603
 40
0.5025367825908784
 40
0.6684737453788424
 40
0.8341822636915194
 40
1.0
 40
1.0
 40
1.0
 40
1.0
 10
387.5998988710468
 20
107.8496025031422
 30
0.0
 10
387.5952616259486
 20
107.8423453431227
 30
0.0
 10
387.5860209506622
 20
107.8278839424804
 30
0.0
 10
387.5740055772952
 20
107.8109032457763
 30
0.0
 10
387.5634400235405
 20
107.7974704645968
 30
0.0
 10
387.5545006742475
 20
107.7879909960429
 30
0.0
 10
387.547019793659
 20
107.782025770345
 30
0.0
 10
387.5433799863696
 20
107.7812581945606
 30
0.0
 10
387.5415594831758
 20
107.7808742802333
 30
0.0
  0
SPLINE
  5
CC
330
1F
100
AcDbEntity
  8
0
  6
Continuous
 62
     7
370
    25
100
AcDbSpline
210
0.0
220
0.0
230
1.0
 70
     8
 71
     3
 72
     8
 73
     4
 74
     0
 42
0.000000001
 43
0.00000001
 40
0.0
 40
0.0
 40
0.0
 40
0.0
 40
1.0
 40
1.0
 40
1.0
 40
1.0
 10
387.7472244830195
 20
107.8517215240849
 30
0.0
 10
387.6980735534111
 20
107.8507859938229
 30
0.0
 10
387.6489625333318
 20
107.8500749033108
 30
0.0
 10
387.5998930384239
 20
107.8495878418128
 30
0.0
  0
SPLINE
  5
CD
330
1F
100
AcDbEntity
  8
0
  6
Continuous
 62
     7
370
    25
100
AcDbSpline
210
0.0
220
0.0
230
1.0
 70
     8
 71
     3
 72
    18
 73
    14
 74
     0
 42
0.000000001
 43
0.00000001
 40
0.0
 40
0.0
 40
0.0
 40
0.0
 40
0.0923325137145546
 40
0.1843692047123243
 40
0.2763458873888429
 40
0.3684982175742124
 40
0.4610598988390781
 40
0.5542609546612685
 40
0.6483261285506466
 40
0.7434734636546699
 40
0.8399130993131055
 40
0.9201660718311621
 40
1.0
 40
1.0
 40
1.0
 40
1.0
 10
387.6942008497193
 20
107.5846254061631
 30
0.0
 10
387.6923651960668
 20
107.5848337183788
 30
0.0
 10
387.6886997699842
 20
107.5852496754021
 30
0.0
 10
387.6859044403616
 20
107.5920540988594
 30
0.0
 10
387.6851021452947
 20
107.6033874775452
 30
0.0
 10
387.6864682822938
 20
107.6196878724455
 30
0.0
 10
387.6899298310879
 20
107.6408391117556
 30
0.0
 10
387.6954711362343
 20
107.6668748110832
 30
0.0
 10
387.7030556066617
 20
107.6977991975059
 30
0.0
 10
387.7126325996423
 20
107.733598203234
 30
0.0
 10
387.7234839466685
 20
107.7718874483483
 30
0.0
 10
387.7349987083007
 20
107.8111930727653
 30
0.0
 10
387.7431304171218
 20
107.8381501506589
 30
0.0
 10
387.7471856287295
 20
107.8515934081082
 30
0.0
  0
LINE
  5
CE
330
1F
100
AcDbEntity
  8
0
  6
Continuous
 62
     7
370
    25
100
AcDbLine
 10
387.746956209
 20
107.5853731236
 30
0.0
 11
387.6942008497
 21
107.5846254062
 31
0.0
  0
SPLINE
  5
CF
330
1F
100
AcDbEntity
  8
0
  6
Continuous
 62
     7
370
    25
100
AcDbSpline
210
0.0
220
0.0
230
1.0
 70
     8
 71
     3
 72
    25
 73
    21
 74
     0
 42
0.000000001
 43
0.00000001
 40
0.0
 40
0.0
 40
0.0
 40
0.0
 40
0.0280105225425619
 40
0.0559601148859271
 40
0.0839014045041196
 40
0.1118870776784246
 40
0.1399695827586811
 40
0.1682008401737954
 40
0.1966319670422708
 40
0.2253130233140564
 40
0.2542927850735731
 40
0.3799486436576643
 40
0.5057850221666753
 40
0.6313085886329383
 40
0.7532068238012418
 40
0.8039473267955356
 40
0.8535894438553621
 40
0.902533972239325
 40
0.9511970353790535
 40
1.0
 40
1.0
 40
1.0
 40
1.0
 10
388.6579176167722
 20
110.1523050258507
 30
0.0
 10
388.6509385468613
 20
110.1149950123441
 30
0.0
 10
388.6369955883386
 20
110.0404561443507
 30
0.0
 10
388.6144736908957
 20
109.9291470988677
 30
0.0
 10
388.5908400787982
 20
109.8184848898535
 30
0.0
 10
388.5659904883102
 20
109.7085007569092
 30
0.0
 10
388.539971863824
 20
109.5992056132947
 30
0.0
 10
388.512790482506
 20
109.4906146440925
 30
0.0
 10
388.4844648411735
 20
109.3827439341499
 30
0.0
 10
388.4550060603408
 20
109.2755989884246
 30
0.0
 10
388.3905977724291
 20
109.0514241019137
 30
0.0
 10
388.2854960803573
 20
108.724758687878
 30
0.0
 10
388.1400333195614
 20
108.3388120825584
 30
0.0
 10
388.000769911451
 20
108.0167322698664
 30
0.0
 10
387.9036215585836
 20
107.8209116858353
 30
0.0
 10
387.8433261523571
 20
107.7115642353513
 30
0.0
 10
387.8084375694758
 20
107.6536362109359
 30
0.0
 10
387.780543067548
 20
107.613182258171
 30
0.0
 10
387.7591779751763
 20
107.588568042772
 30
0.0
 10
387.7510340276036
 20
107.5864391152643
 30
0.0
 10
387.7469562089585
 20
107.5853731235929
 30
0.0
  0
ARC
  5
D0
330
1F
100
AcDbEntity
  8
0
  6
Continuous
 62
     7
370
    25
100
AcDbCircle
 10
376.787249752
 20
112.3396427684
 30
0.0
 40
12.07050959801141
100
AcDbArc
 50
349.5595567507
 51
10.4404432493
  0
SPLINE
  5
D1
330
1F
100
AcDbEntity
  8
0
  6
Continuous
 62
     7
370
    25
100
AcDbSpline
210
0.0
220
0.0
230
1.0
 70
     8
 71
     3
 72
    26
 73
    22
 74
     0
 42
0.000000001
 43
0.00000001
 40
0.0
 40
0.0
 40
0.0
 40
0.0
 40
0.0241259796963642
 40
0.0482159912273002
 40
0.0723203915124077
 40
0.0964895678710806
 40
0.1207736231963522
 40
0.1452220711242843
 40
0.169883550165771
 40
0.1948055644472372
 40
0.2200342569517615
 40
0.2456142191611365
 40
0.3690971486901609
 40
0.4940698769485148
 40
0.6192566784753816
 40
0.7454656653602874
 40
0.7971495824708217
 40
0.8481710308397286
 40
0.8988013269227123
 40
0.9493179290486754
 40
1.0
 40
1.0
 40
1.0
 40
1.0
 10
387.7469562089585
 20
117.0939124131771
 30
0.0
 10
387.748866523699
 20
117.0936255199876
 30
0.0
 10
387.7526843051912
 20
117.0930521613229
 30
0.0
 10
387.7606444303721
 20
117.0869934730764
 30
0.0
 10
387.7702235309475
 20
117.0771142123456
 30
0.0
 10
387.7815707378162
 20
117.0630331212352
 30
0.0
 10
387.7946269211101
 20
117.044837573211
 30
0.0
 10
387.8093828243375
 20
117.0224870304723
 30
0.0
 10
387.8258100046348
 20
116.9959727947803
 30
0.0
 10
387.8438781593551
 20
116.965277284067
 30
0.0
 10
387.863555305778
 20
116.9303761808271
 30
0.0
 10
387.9117546872063
 20
116.8416116457194
 30
0.0
 10
388.0000727266417
 20
116.6643313442705
 30
0.0
 10
388.1391323434081
 20
116.3432454374263
 30
0.0
 10
388.2848050232705
 20
115.9566627855354
 30
0.0
 10
388.3985436182796
 20
115.6029550814065
 30
0.0
 10
388.4782492368262
 20
115.3207013817941
 30
0.0
 10
388.5288988091802
 20
115.1262579510208
 30
0.0
 10
388.5758654790457
 20
114.9290165740867
 30
0.0
 10
388.6194253010503
 20
114.7291135289905
 30
0.0
 10
388.645072866182
 20
114.5944315892572
 30
0.0
 10
388.6579176167722
 20
114.5269805109193
 30
0.0
  0
LINE
  5
D2
330
1F
100
AcDbEntity
  8
0
  6
Continuous
 62
     7
370
    25
100
AcDbLine
 10
387.6942008497
 20
117.0946601306
 30
0.0
 11
387.746956209
 21
117.0939124132
 31
0.0
  0
SPLINE
  5
D3
330
1F
100
AcDbEntity
  8
0
  6
Continuous
 62
     7
370
    25
100
AcDbSpline
210
0.0
220
0.0
230
1.0
 70
     8
 71
     3
 72
    14
 73
    10
 74
     0
 42
0.000000001
 43
0.00000001
 40
0.0
 40
0.0
 40
0.0
 40
0.0
 40
0.0786889129232047
 40
0.1577561817116865
 40
0.3304686003099994
 40
0.499736408241528
 40
0.6668472316634158
 40
0.8331450833754712
 40
0.9999999999999999
 40
0.9999999999999999
 40
0.9999999999999999
 40
0.9999999999999999
 10
387.7471091364964
 20
116.827928621389
 30
0.0
 10
387.7431111275417
 20
116.841178525905
 30
0.0
 10
387.7350958862108
 20
116.8677420437734
 30
0.0
 10
387.7202232129213
 20
116.9184635715424
 30
0.0
 10
387.704337048159
 20
116.9754646505663
 30
0.0
 10
387.6912585245147
 20
117.0297679461753
 30
0.0
 10
387.6850259249096
 20
117.0679350682126
 30
0.0
 10
387.685215502786
 20
117.0913438022881
 30
0.0
 10
387.6912023971785
 20
117.0935534562462
 30
0.0
 10
387.6942008497193
 20
117.0946601306069
 30
0.0
  0
SPLINE
  5
D4
330
1F
100
AcDbEntity
  8
0
  6
Continuous
 62
     7
370
    25
100
AcDbSpline
210
0.0
220
0.0
230
1.0
 70
     8
 71
     3
 72
     8
 73
     4
 74
     0
 42
0.000000001
 43
0.00000001
 40
0.0
 40
0.0
 40
0.0
 40
0.0
 40
1.0
 40
1.0
 40
1.0
 40
1.0
 10
387.6266537958134
 20
116.8295849613547
 30
0.0
 10
387.66678691432
 20
116.8291540074074
 30
0.0
 10
387.7069476222487
 20
116.828573504395
 30
0.0
 10
387.7471350395917
 20
116.8278432288354
 30
0.0
  0
SPLINE
  5
D5
330
1F
100
AcDbEntity
  8
0
  6
Continuous
 62
     7
370
    25
100
AcDbSpline
210
0.0
220
0.0
230
1.0
 70
     8
 71
     3
 72
    23
 73
    19
 74
     0
 42
0.000000001
 43
0.00000001
 40
0.0
 40
0.0
 40
0.0
 40
0.0
 40
0.0441308420121292
 40
0.0880968635211716
 40
0.1320155028408941
 40
0.1760048571434164
 40
0.2201827305793597
 40
0.2646656976937351
 40
0.3095682184569769
 40
0.355001836559425
 40
0.401074485474427
 40
0.4478899182339682
 40
0.4955472680213688
 40
0.5953670562452651
 40
0.6949121173401501
 40
0.7950007648984784
 40
0.8964386255170008
 40
1.0
 40
1.0
 40
1.0
 40
1.0
 10
387.0749406766783
 20
117.7900882853214
 30
0.0
 10
387.0769250667851
 20
117.7898054280915
 30
0.0
 10
387.08088643567
 20
117.7892407700509
 30
0.0
 10
387.0897467399005
 20
117.7828214168721
 30
0.0
 10
387.1007192180228
 20
117.7723001673655
 30
0.0
 10
387.1139986160432
 20
117.7572686310559
 30
0.0
 10
387.1295093397096
 20
117.7378163859934
 30
0.0
 10
387.1472408014626
 20
117.7138964080413
 30
0.0
 10
387.1671574481658
 20
117.6854953173275
 30
0.0
 10
387.189222982178
 20
117.6525875775268
 30
0.0
 10
387.2133939058721
 20
117.6151475948706
 30
0.0
 10
387.2396209159194
 20
117.5731475232407
 30
0.0
 10
387.2779574961504
 20
117.5098704147177
 30
0.0
 10
387.3302902755289
 20
117.4198115523544
 30
0.0
 10
387.398690886737
 20
117.2954654327877
 30
0.0
 10
387.4713759615325
 20
117.1557523548072
 30
0.0
 10
387.5477361974324
 20
117.0014163395788
 30
0.0
 10
387.6000250120826
 20
116.887693685351
 30
0.0
 10
387.6264402399861
 20
116.8302433520566
 30
0.0
  0
SPLINE
  5
D6
330
1F
100
AcDbEntity
  8
0
  6
Continuous
 62
     7
370
    25
100
AcDbSpline
210
0.0
220
0.0
230
1.0
 70
    11
 71
     3
 72
    39
 73
    35
 74
     0
 42
0.000000001
 43
0.00000001
 40
0.0
 40
0.0
 40
0.0
 40
0.0
 40
0.0310664058348413
 40
0.0621048158426138
 40
0.0931361551796939
 40
0.1235538293503726
 40
0.1538561545809849
 40
0.1850588072749156
 40
0.2160250992946587
 40
0.2471867223797568
 40
0.2784462884304475
 40
0.3100516090231247
 40
0.3419834369138969
 40
0.3734259894013238
 40
0.4048604886787081
 40
0.436874065183343
 40
0.4685120685926471
 40
0.499805535863323
 40
0.5309508213226204
 40
0.5618649784438111
 40
0.5930416446590877
 40
0.623374245013332
 40
0.6540913579072549
 40
0.6849496782718453
 40
0.7158160645166705
 40
0.7471731804043553
 40
0.7784514311866318
 40
0.810129591156098
 40
0.8419598919688388
 40
0.8735175891922303
 40
0.9050808037886594
 40
0.9370235169792582
 40
0.9687441590030581
 40
1.0
 40
1.0
 40
1.0
 40
1.0
 10
379.6913763167959
 20
100.9080125846316
 30
0.0
 10
379.8810881457505
 20
100.9467811613791
 30
0.0
 10
380.2248289961993
 20
101.0232121071621
 30
0.0
 10
380.607785983407
 20
101.1113516471553
 30
0.0
 10
380.8522264501221
 20
101.1583011338003
 30
0.0
 10
380.9332153869383
 20
101.1463922090865
 30
0.0
 10
380.8524929414566
 20
101.0744343023711
 30
0.0
 10
380.612630747837
 20
100.9499140361737
 30
0.0
 10
380.2359810137397
 20
100.7925450463485
 30
0.0
 10
379.7297380769119
 20
100.6205209616535
 30
0.0
 10
379.1124636832285
 20
100.4555965540679
 30
0.0
 10
378.3999878690886
 20
100.3178839779894
 30
0.0
 10
377.6245226293161
 20
100.2262511654807
 30
0.0
 10
376.8140581957018
 20
100.1929185873852
 30
0.0
 10
376.0015537227393
 20
100.2221660329385
 30
0.0
 10
375.2220407326022
 20
100.3104949899261
 30
0.0
 10
374.5037124332667
 20
100.4460004895609
 30
0.0
 10
373.8803403258667
 20
100.6097770110522
 30
0.0
 10
373.3672417312711
 20
100.7817831551975
 30
0.0
 10
372.9820396214097
 20
100.9405951696687
 30
0.0
 10
372.7326150161687
 20
101.0678541348341
 30
0.0
 10
372.6420129762222
 20
101.1434610917891
 30
0.0
 10
372.7102245471814
 20
101.160230488469
 30
0.0
 10
372.9424404135842
 20
101.1174501462538
 30
0.0
 10
373.3196574507684
 20
101.0303234613439
 30
0.0
 10
373.8313623185361
 20
100.9155944060369
 30
0.0
 10
374.4548334492829
 20
100.7961722609844
 30
0.0
 10
375.1713781524157
 20
100.6915468109351
 30
0.0
 10
375.9497092650267
 20
100.6208983180082
 30
0.0
 10
376.7615407518767
 20
100.5948194935782
 30
0.0
 10
377.5753152738737
 20
100.6178450652689
 30
0.0
 10
378.3576891180392
 20
100.6860775034066
 30
0.0
 10
379.0797021527732
 20
100.7893246831163
 30
0.0
 10
379.5005076726222
 20
100.8690076068128
 30
0.0
 10
379.6913763167959
 20
100.9080125846316
 30
0.0
  0
SPLINE
  5
D7
330
1F
100
AcDbEntity
  8
0
  6
Continuous
 62
     7
370
    25
100
AcDbSpline
210
0.0
220
0.0
230
1.0
 70
    11
 71
     3
 72
    39
 73
    35
 74
     0
 42
0.000000001
 43
0.00000001
 40
0.0
 40
0.0
 40
0.0
 40
0.0
 40
0.0312651429934057
 40
0.0629601069329321
 40
0.0948697276489808
 40
0.1264264963751833
 40
0.1579651393672472
 40
0.1898765439016956
 40
0.221552335268876
 40
0.2527844076550827
 40
0.2838418966734154
 40
0.3148645781100674
 40
0.3459127639308091
 40
0.3763475365526575
 40
0.4066751324671412
 40
0.4379141187435632
 40
0.4688932367345488
 40
0.5000738678969536
 40
0.5313369410958942
 40
0.5629183719104849
 40
0.5948445736343699
 40
0.6262809966135365
 40
0.6577486436587271
 40
0.6897584692806508
 40
0.7214430019610059
 40
0.7527623343195418
 40
0.7839279690572818
 40
0.8148885765585865
 40
0.8460375004982862
 40
0.8763409566916784
 40
0.906758919146387
 40
0.9378312724751761
 40
0.9689189660506093
 40
1.0
 40
1.0
 40
1.0
 40
1.0
 10
379.6912720670091
 20
123.7713050045741
 30
0.0
 10
379.5001981307274
 20
123.8103689624548
 30
0.0
 10
379.0792635682878
 20
123.890087957015
 30
0.0
 10
378.3578741631242
 20
123.9932033723654
 30
0.0
 10
377.5762181148337
 20
124.0614042447893
 30
0.0
 10
376.7631303951229
 20
124.0844611374312
 30
0.0
 10
375.9508501782709
 20
124.058476863785
 30
0.0
 10
375.1722197532214
 20
123.9878866985468
 30
0.0
 10
374.4555439633099
 20
123.8832711363076
 30
0.0
 10
373.8336686936483
 20
123.7640988112912
 30
0.0
 10
373.3241577601625
 20
123.6501616435649
 30
0.0
 10
372.9490384139182
 20
123.5640473646185
 30
0.0
 10
372.7130778390673
 20
123.5199916432827
 30
0.0
 10
372.6416772958858
 20
123.5355214439938
 30
0.0
 10
372.7322737256836
 20
123.6110303261777
 30
0.0
 10
372.981250006043
 20
123.738203854022
 30
0.0
 10
373.3661648258858
 20
123.8970545326342
 30
0.0
 10
373.8789501327079
 20
124.0690787938442
 30
0.0
 10
374.5014092556328
 20
124.2327518733789
 30
0.0
 10
375.2179094004393
 20
124.3681534467591
 30
0.0
 10
375.9960084345494
 20
124.4566711142419
 30
0.0
 10
376.8077311231964
 20
124.4863785227247
 30
0.0
 10
377.6191733108977
 20
124.4534920780747
 30
0.0
 10
378.3962992023798
 20
124.3620111700299
 30
0.0
 10
379.1107372915503
 20
124.2241269800684
 30
0.0
 10
379.7289602497857
 20
124.0589991552185
 30
0.0
 10
380.2353276105116
 20
123.8869486178659
 30
0.0
 10
380.6118801319253
 20
123.7296650961557
 30
0.0
 10
380.8515759433567
 20
123.6052612986717
 30
0.0
 10
380.9330426515509
 20
123.5330731252354
 30
0.0
 10
380.8529834090592
 20
123.5208006168574
 30
0.0
 10
380.6086374031054
 20
123.5676960273635
 30
0.0
 10
380.2256639696564
 20
123.655829575509
 30
0.0
 10
379.8812208384466
 20
123.7324710801189
 30
0.0
 10
379.691272067009
 20
123.7713050045741
 30
0.0
  0
SPLINE
  5
D8
330
1F
100
AcDbEntity
  8
0
  6
Continuous
 62
     7
370
    25
100
AcDbSpline
210
0.0
220
0.0
230
1.0
 70
     8
 71
     3
 72
    23
 73
    19
 74
     0
 42
0.000000001
 43
0.00000001
 40
0.0
 40
0.0
 40
0.0
 40
0.0
 40
0.0449850911547986
 40
0.0909520670823928
 40
0.1379394291328608
 40
0.1859832248994904
 40
0.2351171761776805
 40
0.2853728096486188
 40
0.3367795876649923
 40
0.3893650370847875
 40
0.4431548745956198
 40
0.4981731273942989
 40
0.5575107591316854
 40
0.626549228205273
 40
0.7053073139783237
 40
0.7937970254486392
 40
0.8920262116387118
 40
1.0
 40
1.0
 40
1.0
 40
1.0
 10
366.8963080404413
 20
117.369642768385
 30
0.0
 10
366.8941453510756
 20
117.3692138667254
 30
0.0
 10
366.8897727675547
 20
117.3683467018155
 30
0.0
 10
366.8794918083631
 20
117.3612531342136
 30
0.0
 10
366.8664315303329
 20
117.3496403926335
 30
0.0
 10
366.8503123687786
 20
117.3328510224597
 30
0.0
 10
366.8312119411226
 20
117.3107790358439
 30
0.0
 10
366.8091095883668
 20
117.2831815620799
 30
0.0
 10
366.7840091098312
 20
117.2498731308704
 30
0.0
 10
366.7559179784535
 20
117.2106727924644
 30
0.0
 10
366.724802077602
 20
117.1654307469928
 30
0.0
 10
366.690163146709
 20
117.1130348145909
 30
0.0
 10
366.6494416384141
 20
117.0502523463447
 30
0.0
 10
366.600720717371
 20
116.9724953470473
 30
0.0
 10
366.542946379047
 20
116.8752107894475
 30
0.0
 10
366.4760357294082
 20
116.7554659557313
 30
0.0
 10
366.4000917651337
 20
116.6115457508611
 30
0.0
 10
366.3457306004644
 20
116.5008115460085
 30
0.0
 10
366.3172655363603
 20
116.4428279421099
 30
0.0
  0
LINE
  5
D9
330
1F
100
AcDbEntity
  8
0
  6
Continuous
 62
     7
370
    25
100
AcDbLine
 10
366.3172655364
 20
116.443354274
 30
0.0
 11
365.9479257984
 21
116.829438801
 31
0.0
  0
LINE
  5
DA
330
1F
100
AcDbEntity
  8
0
  6
Continuous
 62
     7
370
    25
100
AcDbLine
 10
387.6265411339
 20
116.8293793961
 30
0.0
 11
387.2572744523
 21
116.4433712911
 31
0.0
  0
SPLINE
  5
DB
330
1F
100
AcDbEntity
  8
0
  6
Continuous
 62
     7
370
    25
100
AcDbSpline
210
0.0
220
0.0
230
1.0
 70
     8
 71
     3
 72
    26
 73
    22
 74
     0
 42
0.000000001
 43
0.00000001
 40
0.0
 40
0.0
 40
0.0
 40
0.0
 40
0.0509383868892029
 40
0.0998291548707016
 40
0.1466728127085954
 40
0.1914699457083821
 40
0.234221230056818
 40
0.2749274507522491
 40
0.3135895242581077
 40
0.3502085274510949
 40
0.3847857350792775
 40
0.4173226689079022
 40
0.447821163200901
 40
0.4762834534842163
 40
0.5027122992247015
 40
0.5939067005080522
 40
0.6816015993279136
 40
0.7659159552150709
 40
0.8469836289752605
 40
0.9249552229495878
 40
1.0
 40
1.0
 40
1.0
 40
1.0
 10
387.2572744523051
 20
116.4426372118602
 30
0.0
 10
387.2438165881017
 20
116.4702579930376
 30
0.0
 10
387.2174418382943
 20
116.5243892565149
 30
0.0
 10
387.179069658502
 20
116.6006972936198
 30
0.0
 10
387.1426034759991
 20
116.6714494732331
 30
0.0
 10
387.1080672263673
 20
116.736621299935
 30
0.0
 10
387.0754547745091
 20
116.7964795451937
 30
0.0
 10
387.0447674907135
 20
116.8512447047357
 30
0.0
 10
387.0160048744123
 20
116.901169096043
 30
0.0
 10
386.9891667099426
 20
116.9465113266286
 30
0.0
 10
386.9642531295197
 20
116.9875372655558
 30
0.0
 10
386.941262482739
 20
117.0245146504858
 30
0.0
 10
386.92019897726
 20
117.0577107664492
 30
0.0
 10
386.9010466068941
 20
117.0873864986941
 30
0.0
 10
386.8693755299588
 20
117.1360568237303
 30
0.0
 10
386.8279055845279
 20
117.1979521416445
 30
0.0
 10
386.7809160683835
 20
117.2632927490695
 30
0.0
 10
386.7422974986684
 20
117.3124111403603
 30
0.0
 10
386.7122490389471
 20
117.3458874288704
 30
0.0
 10
386.6899589279782
 20
117.3660048611062
 30
0.0
 10
386.6820636125452
 20
117.3684456949555
 30
0.0
 10
386.6781914635558
 20
117.369642768385
 30
0.0
  0
SPLINE
  5
DC
330
1F
100
AcDbEntity
  8
0
  6
Continuous
 62
     7
370
    25
100
AcDbSpline
210
0.0
220
0.0
230
1.0
 70
     8
 71
     3
 72
     8
 73
     4
 74
     0
 42
0.000000001
 43
0.00000001
 40
0.0
 40
0.0
 40
0.0
 40
0.0
 40
1.0
 40
1.0
 40
1.0
 40
1.0
 10
384.5289302037988
 20
116.5626410948677
 30
0.0
 10
384.5925231841389
 20
116.496972317021
 30
0.0
 10
384.6564796105743
 20
116.4326300193607
 30
0.0
 10
384.7206785302816
 20
116.370892768385
 30
0.0
  0
SPLINE
  5
DD
330
1F
100
AcDbEntity
  8
0
  6
Continuous
 62
     7
370
    25
100
AcDbSpline
210
0.0
220
0.0
230
1.0
 70
     8
 71
     3
 72
    25
 73
    21
 74
     0
 42
0.000000001
 43
0.00000001
 40
0.0
 40
0.0
 40
0.0
 40
0.0
 40
0.0367725003254103
 40
0.074208401060063
 40
0.1123590542807964
 40
0.1512729822568881
 40
0.190995910016845
 40
0.2315708273504481
 40
0.2730380740418892
 40
0.3154354426077851
 40
0.3587982934432034
 40
0.4031596779810961
 40
0.4485504661847858
 40
0.494999475376923
 40
0.5532504315673752
 40
0.621829488573267
 40
0.7007739996560722
 40
0.7901076726660372
 40
0.8898461547533933
 40
1.0
 40
1.0
 40
1.0
 40
1.0
 10
384.0870090164874
 20
117.3696427683847
 30
0.0
 10
384.0872327905522
 20
117.3693180807509
 30
0.0
 10
384.0876843757152
 20
117.3686628479021
 30
0.0
 10
384.0924014155874
 20
117.3633004761144
 30
0.0
 10
384.10005402467
 20
117.3545448824139
 30
0.0
 10
384.110947003807
 20
117.341920664322
 30
0.0
 10
384.1249955902229
 20
117.3253643261916
 30
0.0
 10
384.1422224878321
 20
117.3047071488138
 30
0.0
 10
384.1626210406135
 20
117.279819412846
 30
0.0
 10
384.1861918539057
 20
117.2505718666526
 30
0.0
 10
384.2129372024654
 20
117.2168489314561
 30
0.0
 10
384.2428450558977
 20
117.1785431163307
 30
0.0
 10
384.2759611482422
 20
117.1355722209927
 30
0.0
 10
384.3148870698163
 20
117.084150939322
 30
0.0
 10
384.3637151495329
 20
117.0199347076329
 30
0.0
 10
384.4256357541339
 20
116.9370401785383
 30
0.0
 10
384.5000203124549
 20
116.8330944283239
 30
0.0
 10
384.5869947404435
 20
116.7050082180666
 30
0.0
 10
384.6864195904261
 20
116.5509184381603
 30
0.0
 10
384.7578387661555
 20
116.4328542022898
 30
0.0
 10
384.7953203498365
 20
116.370892768385
 30
0.0
  0
LINE
  5
DE
330
1F
100
AcDbEntity
  8
0
  6
Continuous
 62
     7
370
    25
100
AcDbLine
 10
384.7953203498
 20
116.3708927684
 30
0.0
 11
384.7206785303
 21
116.3708927684
 31
0.0
  0
SPLINE
  5
DF
330
1F
100
AcDbEntity
  8
0
  6
Continuous
 62
     7
370
    25
100
AcDbSpline
210
0.0
220
0.0
230
1.0
 70
     8
 71
     3
 72
    23
 73
    19
 74
     0
 42
0.000000001
 43
0.00000001
 40
0.0
 40
0.0
 40
0.0
 40
0.0
 40
0.0511129009870105
 40
0.101689633186194
 40
0.1518293139134936
 40
0.2016336701929027
 40
0.2512064936790249
 40
0.3006530343041129
 40
0.3500793489747028
 40
0.3995916247955553
 40
0.4492954981456333
 40
0.4992953912355781
 40
0.5872572780531264
 40
0.6724255494364428
 40
0.7555067762557957
 40
0.8372616735287042
 40
0.9184882400177241
 40
1.0
 40
1.0
 40
1.0
 40
1.0
 10
384.5289928799243
 20
116.5628838109628
 30
0.0
 10
384.5129772960235
 20
116.5920124131944
 30
0.0
 10
384.4811141299599
 20
116.6499640617793
 30
0.0
 10
384.4340702915401
 20
116.7327218969991
 30
0.0
 10
384.3880917673645
 20
116.8118107554843
 30
0.0
 10
384.3433111005605
 20
116.8870277434191
 30
0.0
 10
384.2998273361245
 20
116.958490798465
 30
0.0
 10
384.2577413725398
 20
117.026232202653
 30
0.0
 10
384.2171469081429
 20
117.0903057143974
 30
0.0
 10
384.1781320017932
 20
117.1507593134676
 30
0.0
 10
384.1407821793067
 20
117.2076368183945
 30
0.0
 10
384.0962539227153
 20
117.2743512914538
 30
0.0
 10
384.0476136621747
 20
117.3456715753175
 30
0.0
 10
383.9997745624188
 20
117.4142518277766
 30
0.0
 10
383.9621230503379
 20
117.4672681558188
 30
0.0
 10
383.9353003489505
 20
117.5045408119464
 30
0.0
 10
383.9185715181268
 20
117.5275782115264
 30
0.0
 10
383.916723108163
 20
117.5301129367917
 30
0.0
 10
383.9157972835426
 20
117.5313825204351
 30
0.0
  0
SPLINE
  5
E0
330
1F
100
AcDbEntity
  8
0
  6
Continuous
 62
     7
370
    25
100
AcDbSpline
210
0.0
220
0.0
230
1.0
 70
     8
 71
     3
 72
     8
 73
     4
 74
     0
 42
0.000000001
 43
0.00000001
 40
0.0
 40
0.0
 40
0.0
 40
0.0
 40
1.0
 40
1.0
 40
1.0
 40
1.0
 10
387.1911423990705
 20
116.3708927683849
 30
0.0
 10
387.2130277707137
 20
116.3952137845826
 30
0.0
 10
387.2349131423568
 20
116.419238382905
 30
0.0
 10
387.256798514
 20
116.4429452349935
 30
0.0
  0
LINE
  5
E1
330
1F
100
AcDbEntity
  8
0
  6
Continuous
 62
     7
370
    25
100
AcDbLine
 10
387.1909821887
 20
116.3708927684
 30
0.0
 11
384.7953203498
 21
116.3708927684
 31
0.0
  0
SPLINE
  5
E2
330
1F
100
AcDbEntity
  8
0
  6
Continuous
 62
     7
370
    25
100
AcDbSpline
210
0.0
220
0.0
230
1.0
 70
     8
 71
     3
 72
     8
 73
     4
 74
     0
 42
0.000000001
 43
0.00000001
 40
0.0
 40
0.0
 40
0.0
 40
0.0
 40
1.0
 40
1.0
 40
1.0
 40
1.0
 10
366.3176067641722
 20
116.4430488024736
 30
0.0
 10
366.3395235366598
 20
116.4193083539145
 30
0.0
 10
366.3614403091474
 20
116.3952492021279
 30
0.0
 10
366.3833570816349
 20
116.370892768385
 30
0.0
  0
SPLINE
  5
E3
330
1F
100
AcDbEntity
  8
0
  6
Continuous
 62
     7
370
    25
100
AcDbSpline
210
0.0
220
0.0
230
1.0
 70
     8
 71
     3
 72
    26
 73
    22
 74
     0
 42
0.000000001
 43
0.00000001
 40
0.0
 40
0.0
 40
0.0
 40
0.0
 40
0.0524616379932503
 40
0.1026498591890872
 40
0.150565513457809
 40
0.1962095861957063
 40
0.2395832262568645
 40
0.2806877815599511
 40
0.3195248450380211
 40
0.3560963147430692
 40
0.3904044736547445
 40
0.4224520974433627
 40
0.4522426027417772
 40
0.4797802555366611
 40
0.5050704712281336
 40
0.5966394156799991
 40
0.6841917884819224
 40
0.7679874773571101
 40
0.8483228539139507
 40
0.925534163520116
 40
1.0
 40
1.0
 40
1.0
 40
1.0
 10
368.7790015960824
 20
116.3709076604027
 30
0.0
 10
368.7968630803707
 20
116.4006811204438
 30
0.0
 10
368.8318120243465
 20
116.4589378123371
 30
0.0
 10
368.8825768578286
 20
116.5411367927017
 30
0.0
 10
368.9306468154703
 20
116.6172176616025
 30
0.0
 10
368.9759907882352
 20
116.6871690100688
 30
0.0
 10
369.0186167677405
 20
116.7512761720208
 30
0.0
 10
369.0585230662496
 20
116.809784011491
 30
0.0
 10
369.0957103953649
 20
116.862972589113
 30
0.0
 10
369.1301792179557
 20
116.9111306293501
 30
0.0
 10
369.1619293065881
 20
116.9545553026264
 30
0.0
 10
369.1909637111892
 20
116.9935453937233
 30
0.0
 10
369.2172750003903
 20
117.0283994922498
 30
0.0
 10
369.2408916299345
 20
117.0594044867004
 30
0.0
 10
369.2805373089403
 20
117.1116477053333
 30
0.0
 10
369.3320756057394
 20
117.1791770385905
 30
0.0
 10
369.3889017427206
 20
117.251370484799
 30
0.0
 10
369.4330591706836
 20
117.3058544409215
 30
0.0
 10
369.4642367936256
 20
117.3431192320899
 30
0.0
 10
369.4836963602647
 20
117.3655835843646
 30
0.0
 10
369.4858379579451
 20
117.3683061337918
 30
0.0
 10
369.4868893745019
 20
117.369642768385
 30
0.0
  0
LINE
  5
E4
330
1F
100
AcDbEntity
  8
0
  6
Continuous
 62
     7
370
    25
100
AcDbLine
 10
368.7790015961
 20
116.3708927684
 30
0.0
 11
366.3833570816
 21
116.3708927684
 31
0.0
  0
LINE
  5
E5
330
1F
100
AcDbEntity
  8
0
  6
Continuous
 62
     7
370
    25
100
AcDbLine
 10
368.8538209737
 20
116.3708927684
 30
0.0
 11
368.7787013754
 21
116.3708927684
 31
0.0
  0
SPLINE
  5
E6
330
1F
100
AcDbEntity
  8
0
  6
Continuous
 62
     7
370
    25
100
AcDbSpline
210
0.0
220
0.0
230
1.0
 70
     8
 71
     3
 72
     8
 73
     4
 74
     0
 42
0.000000001
 43
0.00000001
 40
0.0
 40
0.0
 40
0.0
 40
0.0
 40
1.0
 40
1.0
 40
1.0
 40
1.0
 10
368.8538209737154
 20
116.3708927683849
 30
0.0
 10
368.9177297763753
 20
116.4328616318161
 30
0.0
 10
368.9815046957273
 20
116.4968376969327
 30
0.0
 10
369.0448647616083
 20
116.5623723532785
 30
0.0
  0
SPLINE
  5
E7
330
1F
100
AcDbEntity
  8
0
  6
Continuous
 62
     7
370
    25
100
AcDbSpline
210
0.0
220
0.0
230
1.0
 70
     8
 71
     3
 72
    24
 73
    20
 74
     0
 42
0.000000001
 43
0.00000001
 40
0.0
 40
0.0
 40
0.0
 40
0.0
 40
0.0410257106293119
 40
0.0818520099087221
 40
0.1225800578367529
 40
0.1633117464073406
 40
0.20414894028232
 40
0.2451927184766019
 40
0.2865426449252036
 40
0.3282960933661203
 40
0.3705476475506245
 40
0.4133885920111515
 40
0.4569065022356777
 40
0.5011849368588074
 40
0.6001856774981357
 40
0.6987388860498591
 40
0.7976800645504363
 40
0.8978349910062732
 40
1.0
 40
1.0
 40
1.0
 40
1.0
 10
369.658447567483
 20
117.5310328497165
 30
0.0
 10
369.658252804042
 20
117.5307654995589
 30
0.0
 10
369.6578642238355
 20
117.5302320987376
 30
0.0
 10
369.6538094361612
 20
117.5246603527385
 30
0.0
 10
369.6472154771813
 20
117.5155796035847
 30
0.0
 10
369.6378512162714
 20
117.502642143224
 30
0.0
 10
369.6258031025014
 20
117.4859237003182
 30
0.0
 10
369.611080533041
 20
117.4653816895464
 30
0.0
 10
369.5937215401937
 20
117.4410003154996
 30
0.0
 10
369.5737643690403
 20
117.4127515714278
 30
0.0
 10
369.5512553193449
 20
117.3806060240266
 30
0.0
 10
369.5262460835834
 20
117.3445291840604
 30
0.0
 10
369.4987967140585
 20
117.3044855915411
 30
0.0
 10
369.4568736009903
 20
117.2425651481983
 30
0.0
 10
369.3976674257776
 20
117.1532526570995
 30
0.0
 10
369.3178878326561
 20
117.0287080650687
 30
0.0
 10
369.2319070476699
 20
116.8889232725789
 30
0.0
 10
369.1406222604494
 20
116.7345104535951
 30
0.0
 10
369.0774179063926
 20
116.6204644319463
 30
0.0
 10
369.0455017564279
 20
116.5628748879325
 30
0.0
  0
LINE
  5
E8
330
1F
100
AcDbEntity
  8
0
  6
Continuous
 62
     7
370
    25
100
AcDbLine
 10
365.9746088499
 20
107.8495877707
 30
0.0
 11
366.3988462649
 21
108.2983806693
 31
0.0
  0
SPLINE
  5
E9
330
1F
100
AcDbEntity
  8
0
  6
Continuous
 62
     7
370
    25
100
AcDbSpline
210
0.0
220
0.0
230
1.0
 70
     8
 71
     3
 72
    13
 73
     9
 74
     0
 42
0.000000001
 43
0.00000001
 40
0.0
 40
0.0
 40
0.0
 40
0.0
 40
0.1706320847147904
 40
0.3395984166119918
 40
0.5069574112587142
 40
0.6727691831295072
 40
0.8370955448417806
 40
1.0
 40
1.0
 40
1.0
 40
1.0
 10
366.3988462648762
 20
108.2983600268557
 30
0.0
 10
366.4038517352857
 20
108.2914086537718
 30
0.0
 10
366.4138138114585
 20
108.2775737686356
 30
0.0
 10
366.4266876393519
 20
108.2614460101768
 30
0.0
 10
366.4379539518483
 20
108.2487772800192
 30
0.0
 10
366.4474313152833
 20
108.2399208421834
 30
0.0
 10
366.455313547977
 20
108.2344088137068
 30
0.0
 10
366.4591284542093
 20
108.2337304676264
 30
0.0
 10
366.4610276189249
 20
108.233392768385
 30
0.0
  0
SPLINE
  5
EA
330
1F
100
AcDbEntity
  8
0
  6
Continuous
 62
     7
370
    25
100
AcDbSpline
210
0.0
220
0.0
230
1.0
 70
     8
 71
     3
 72
    13
 73
     9
 74
     0
 42
0.000000001
 43
0.00000001
 40
0.0
 40
0.0
 40
0.0
 40
0.0
 40
0.1621004456571512
 40
0.325943455157606
 40
0.4915935308260523
 40
0.6591130873964648
 40
0.8285624736043361
 40
1.0
 40
1.0
 40
1.0
 40
1.0
 10
387.1134718850721
 20
108.233392768385
 30
0.0
 10
387.1153489914143
 20
108.2337272514856
 30
0.0
 10
387.1191233828072
 20
108.2343998133473
 30
0.0
 10
387.1269704599861
 20
108.239873097743
 30
0.0
 10
387.1364365197613
 20
108.2486925624033
 30
0.0
 10
387.1477174345636
 20
108.2613453193973
 30
0.0
 10
387.1606320530614
 20
108.2774973207937
 30
0.0
 10
387.1706277673071
 20
108.2913831207368
 30
0.0
 10
387.1756547732186
 20
108.2983665134874
 30
0.0
  0
LINE
  5
EB
330
1F
100
AcDbEntity
  8
0
  6
Continuous
 62
     7
370
    25
100
AcDbLine
 10
387.1756677411
 20
108.2983668815
 30
0.0
 11
387.5998899058
 21
107.8495877962
 31
0.0
  0
LINE
  5
EC
330
1F
100
AcDbEntity
  8
0
  6
Continuous
 62
     7
370
    25
100
AcDbLine
 10
384.7206785303
 20
108.3083927684
 30
0.0
 11
384.7293998399
 21
108.3083927684
 31
0.0
  0
SPLINE
  5
ED
330
1F
100
AcDbEntity
  8
0
  6
Continuous
 62
     7
370
    25
100
AcDbSpline
210
0.0
220
0.0
230
1.0
 70
     8
 71
     3
 72
    13
 73
     9
 74
     0
 42
0.000000001
 43
0.00000001
 40
0.0
 40
0.0
 40
0.0
 40
0.0
 40
0.1705273303664273
 40
0.3393382731715426
 40
0.5065592454659538
 40
0.6723203021840038
 40
0.8367549624218799
 40
1.0
 40
1.0
 40
1.0
 40
1.0
 10
384.7294127197094
 20
108.3083926340695
 30
0.0
 10
384.724377316167
 20
108.3003865113026
 30
0.0
 10
384.7143571913041
 20
108.284454848802
 30
0.0
 10
384.7025541486486
 20
108.2658378236927
 30
0.0
 10
384.6932120449373
 20
108.2511988307061
 30
0.0
 10
384.6866164203145
 20
108.2409517611883
 30
0.0
 10
384.6824633976261
 20
108.2345687709196
 30
0.0
 10
384.6819375493172
 20
108.2337838193224
 30
0.0
 10
384.681675579694
 20
108.233392768385
 30
0.0
  0
SPLINE
  5
EE
330
1F
100
AcDbEntity
  8
0
  6
Continuous
 62
     7
370
    25
100
AcDbSpline
210
0.0
220
0.0
230
1.0
 70
     8
 71
     3
 72
     8
 73
     4
 74
     0
 42
0.000000001
 43
0.00000001
 40
0.0
 40
0.0
 40
0.0
 40
0.0
 40
1.0
 40
1.0
 40
1.0
 40
1.0
 10
387.1756678142115
 20
108.2983671265546
 30
0.0
 10
387.1734843299704
 20
108.3012157920709
 30
0.0
 10
387.1713008457293
 20
108.3041565834684
 30
0.0
 10
387.1691173614882
 20
108.307189080745
 30
0.0
  0
LINE
  5
EF
330
1F
100
AcDbEntity
  8
0
  6
Continuous
 62
     7
370
    25
100
AcDbLine
 10
387.1682146184
 20
108.3083927684
 30
0.0
 11
384.7294042591
 21
108.3083927684
 31
0.0
  0
SPLINE
  5
F0
330
1F
100
AcDbEntity
  8
0
  6
Continuous
 62
     7
370
    25
100
AcDbSpline
210
0.0
220
0.0
230
1.0
 70
     8
 71
     3
 72
     8
 73
     4
 74
     0
 42
0.000000001
 43
0.00000001
 40
0.0
 40
0.0
 40
0.0
 40
0.0
 40
1.0
 40
1.0
 40
1.0
 40
1.0
 10
366.4062849089183
 20
108.3083927683926
 30
0.0
 10
366.4037989902318
 20
108.3049310690806
 30
0.0
 10
366.4013130715453
 20
108.3015869171717
 30
0.0
 10
366.3988271528588
 20
108.2983609252313
 30
0.0
  0
LINE
  5
F1
330
1F
100
AcDbEntity
  8
0
  6
Continuous
 62
     7
370
    25
100
AcDbLine
 10
368.8435889655
 20
108.3083927684
 30
0.0
 11
366.4065013552
 21
108.3083927684
 31
0.0
  0
SPLINE
  5
F2
330
1F
100
AcDbEntity
  8
0
  6
Continuous
 62
     7
370
    25
100
AcDbSpline
210
0.0
220
0.0
230
1.0
 70
     8
 71
     3
 72
    13
 73
     9
 74
     0
 42
0.000000001
 43
0.00000001
 40
0.0
 40
0.0
 40
0.0
 40
0.0
 40
0.163159558385937
 40
0.3275424452471403
 40
0.4932858679977842
 40
0.6605236853047904
 40
0.8293862019218418
 40
1.0
 40
1.0
 40
1.0
 40
1.0
 10
368.8928239243031
 20
108.233392768385
 30
0.0
 10
368.8925660788165
 20
108.2337834187775
 30
0.0
 10
368.8920484545839
 20
108.2345676485589
 30
0.0
 10
368.88790185834
 20
108.2409458177936
 30
0.0
 10
368.8813085796644
 20
108.251188263941
 30
0.0
 10
368.8719641847868
 20
108.2658251799899
 30
0.0
 10
368.8601543717731
 20
108.2844450388396
 30
0.0
 10
368.8501276544587
 20
108.3003827464871
 30
0.0
 10
368.845088433019
 20
108.3083927098238
 30
0.0
  0
LINE
  5
F3
330
1F
100
AcDbEntity
  8
0
  6
Continuous
 62
     7
370
    25
100
AcDbLine
 10
368.8450988235
 20
108.3083927684
 30
0.0
 11
368.8538209737
 21
108.3083927684
 31
0.0
  0
SPLINE
  5
F4
330
1F
100
AcDbEntity
  8
0
  6
Continuous
 62
     7
370
    25
100
AcDbSpline
210
0.0
220
0.0
230
1.0
 70
     8
 71
     3
 72
    14
 73
    10
 74
     0
 42
0.000000001
 43
0.00000001
 40
0.0
 40
0.0
 40
0.0
 40
0.0
 40
0.0310276388056898
 40
0.0622853718658436
 40
0.124800316689171
 40
0.2498289731742531
 40
0.4998892603602845
 40
0.7606803621217882
 40
1.0
 40
1.0
 40
1.0
 40
1.0
 10
365.8271557575393
 20
107.8516545937697
 30
0.0
 10
365.8314850510043
 20
107.8564385160475
 30
0.0
 10
365.8401757430376
 20
107.8660418371355
 30
0.0
 10
365.8575765216996
 20
107.8853361511333
 30
0.0
 10
365.8880526815448
 20
107.919101097587
 30
0.0
 10
365.9488740743645
 20
107.9865198564493
 30
0.0
 10
366.0367644167718
 20
108.083986531309
 30
0.0
 10
366.1396020968563
 20
108.1981310432093
 30
0.0
 10
366.2068082082981
 20
108.2729158562149
 30
0.0
 10
366.2389685699513
 20
108.3087028788655
 30
0.0
  0
LINE
  5
F5
330
1F
100
AcDbEntity
  8
0
  6
Continuous
 62
     7
370
    25
100
AcDbLine
 10
366.2386400708
 20
108.3083927684
 30
0.0
 11
366.4062849089
 21
108.3083927684
 31
0.0
  0
LINE
  5
F6
330
1F
100
AcDbEntity
  8
0
  6
Continuous
 62
     7
370
    25
100
AcDbLine
 10
387.1682146184
 20
108.3083927684
 30
0.0
 11
387.3358668177
 21
108.3083927684
 31
0.0
  0
SPLINE
  5
F7
330
1F
100
AcDbEntity
  8
0
  6
Continuous
 62
     7
370
    25
100
AcDbSpline
210
0.0
220
0.0
230
1.0
 70
     8
 71
     3
 72
    11
 73
     7
 74
     0
 42
0.000000001
 43
0.00000001
 40
0.0
 40
0.0
 40
0.0
 40
0.0
 40
0.2392913841800824
 40
0.5001130134990213
 40
0.7515028526582183
 40
0.9999999999999999
 40
0.9999999999999999
 40
0.9999999999999999
 40
0.9999999999999999
 10
387.3355630046689
 20
108.3086795708966
 30
0.0
 10
387.367719557615
 20
108.2729028523538
 30
0.0
 10
387.4349259497409
 20
108.1981304045918
 30
0.0
 10
387.5379540394878
 20
108.0836716912751
 30
0.0
 10
387.6430447041387
 20
107.9675125051413
 30
0.0
 10
387.7127195242192
 20
107.890124563831
 30
0.0
 10
387.747355340912
 20
107.8516545032502
 30
0.0
  0
LINE
  5
F8
330
1F
100
AcDbEntity
  8
0
  6
Continuous
 62
     7
370
    25
100
AcDbLine
 10
366.3833570816
 20
116.3708927684
 30
0.0
 11
366.2387847856
 21
116.3708927684
 31
0.0
  0
SPLINE
  5
F9
330
1F
100
AcDbEntity
  8
0
  6
Continuous
 62
     7
370
    25
100
AcDbSpline
210
0.0
220
0.0
230
1.0
 70
     8
 71
     3
 72
    11
 73
     7
 74
     0
 42
0.000000001
 43
0.00000001
 40
0.0
 40
0.0
 40
0.0
 40
0.0
 40
0.2392845093988677
 40
0.5001120454070203
 40
0.7515010915051096
 40
1.0
 40
1.0
 40
1.0
 40
1.0
 10
366.2390874077889
 20
116.3706069821884
 30
0.0
 10
366.2069262780254
 20
116.4064048312435
 30
0.0
 10
366.1397085194293
 20
116.4812234459424
 30
0.0
 10
366.0366638709314
 20
116.5957517101963
 30
0.0
 10
365.931555642038
 20
116.7119827038734
 30
0.0
 10
365.8618701254104
 20
116.7894171995674
 30
0.0
 10
365.8272288129708
 20
116.8279106009047
 30
0.0
  0
SPLINE
  5
FA
330
1F
100
AcDbEntity
  8
0
  6
Continuous
 62
     7
370
    25
100
AcDbSpline
210
0.0
220
0.0
230
1.0
 70
     8
 71
     3
 72
    14
 73
    10
 74
     0
 42
0.000000001
 43
0.00000001
 40
0.0
 40
0.0
 40
0.0
 40
0.0
 40
0.0310294147494852
 40
0.0622870907573907
 40
0.1248019217237073
 40
0.2498303511440708
 40
0.4998901825562093
 40
0.7606872172475754
 40
1.0
 40
1.0
 40
1.0
 40
1.0
 10
387.7472590757011
 20
116.8279104926285
 30
0.0
 10
387.7429288793853
 20
116.8231233060583
 30
0.0
 10
387.7342366325901
 20
116.8135137170028
 30
0.0
 10
387.7168330042424
 20
116.7942077232967
 30
0.0
 10
387.6863522687074
 20
116.7604225076448
 30
0.0
 10
387.6255216469852
 20
116.6929633766977
 30
0.0
 10
387.5376167437919
 20
116.5954368709553
 30
0.0
 10
387.4347624991768
 20
116.4812228641926
 30
0.0
 10
387.36754504103
 20
116.406391904082
 30
0.0
 10
387.3353801116533
 20
116.3705837581998
 30
0.0
  0
LINE
  5
FB
330
1F
100
AcDbEntity
  8
0
  6
Continuous
 62
     7
370
    25
100
AcDbLine
 10
387.3357073217
 20
116.3708927684
 30
0.0
 11
387.1911423991
 21
116.3708927684
 31
0.0
  0
LINE
  5
FC
330
1F
100
AcDbEntity
  8
0
  6
Continuous
 62
     7
370
    25
100
AcDbLine
 10
364.9165818872
 20
110.1523050259
 30
0.0
 11
365.3566445446
 21
110.2333927684
 31
0.0
  0
SPLINE
  5
FD
330
1F
100
AcDbEntity
  8
0
  6
Continuous
 62
     7
370
    25
100
AcDbSpline
210
0.0
220
0.0
230
1.0
 70
     8
 71
     3
 72
    25
 73
    21
 74
     0
 42
0.000000001
 43
0.00000001
 40
0.0
 40
0.0
 40
0.0
 40
0.0
 40
0.0274788704227078
 40
0.0560416006857243
 40
0.0856947086360536
 40
0.1164440166547212
 40
0.1482947438689518
 40
0.1812515840476732
 40
0.215318771675261
 40
0.2505001382254886
 40
0.3330514552534775
 40
0.5015081958163802
 40
0.5771663066143478
 40
0.6488981303024356
 40
0.7167477700061747
 40
0.7807674423486898
 40
0.8410194131339189
 40
0.8975784849923677
 40
0.9505352047787786
 40
0.9999999999999999
 40
0.9999999999999999
 40
0.9999999999999999
 40
0.9999999999999999
 10
365.3566445445873
 20
110.233392768385
 30
0.0
 10
365.3633527119308
 20
110.2042105638671
 30
0.0
 10
365.3770336394878
 20
110.1446951097176
 30
0.0
 10
365.3997983681418
 20
110.0543046126581
 30
0.0
 10
365.4246760053823
 20
109.9611730035364
 30
0.0
 10
365.4518152433999
 20
109.8655869592613
 30
0.0
 10
365.4811766504311
 20
109.7678334896483
 30
0.0
 10
365.512761820719
 20
109.6682528135914
 30
0.0
 10
365.5466086905836
 20
109.5672436740137
 30
0.0
 10
365.5983099205174
 20
109.4204768667609
 30
0.0
 10
365.7026689335307
 20
109.1562104538471
 30
0.0
 10
365.8235421612146
 20
108.8862408240192
 30
0.0
 10
365.9370352076708
 20
108.6688311493047
 30
0.0
 10
366.0083081752866
 20
108.5391275785742
 30
0.0
 10
366.0703827474126
 20
108.4352525012494
 30
0.0
 10
366.1229667595798
 20
108.3553918674308
 30
0.0
 10
366.1662133055073
 20
108.2973732412802
 30
0.0
 10
366.1998201177274
 20
108.2592696826278
 30
0.0
 10
366.2247671006
 20
108.237267151633
 30
0.0
 10
366.233726637462
 20
108.2346545382817
 30
0.0
 10
366.2380536741801
 20
108.233392768385
 30
0.0
  0
LINE
  5
FE
330
1F
100
AcDbEntity
  8
0
  6
Continuous
 62
     7
370
    25
100
AcDbLine
 10
388.6579176168
 20
114.5269805109
 30
0.0
 11
388.2178549594
 21
114.4458927684
 31
0.0
  0
SPLINE
  5
FF
330
1F
100
AcDbEntity
  8
0
  6
Continuous
 62
     7
370
    25
100
AcDbSpline
210
0.0
220
0.0
230
1.0
 70
     8
 71
     3
 72
    25
 73
    21
 74
     0
 42
0.000000001
 43
0.00000001
 40
0.0
 40
0.0
 40
0.0
 40
0.0
 40
0.0274788704238429
 40
0.0560416006876697
 40
0.0856947086384853
 40
0.116444016657314
 40
0.1482947438713826
 40
0.1812515840496191
 40
0.2153187716763987
 40
0.2505001382254958
 40
0.3330514552547554
 40
0.5015081958163917
 40
0.5771663066144659
 40
0.64889813030263
 40
0.7167477700064142
 40
0.780767442348944
 40
0.8410194131341576
 40
0.8975784849925587
 40
0.9505352047788901
 40
1.0
 40
1.0
 40
1.0
 40
1.0
 10
388.2178549594097
 20
114.445892768385
 30
0.0
 10
388.211146792066
 20
114.4750749729041
 30
0.0
 10
388.1974658645086
 20
114.5345904270556
 30
0.0
 10
388.1747011358539
 20
114.6249809241178
 30
0.0
 10
388.1498234986131
 20
114.718112533241
 30
0.0
 10
388.1226842605954
 20
114.8136985775165
 30
0.0
 10
388.0933228535643
 20
114.9114520471289
 30
0.0
 10
388.0617376832767
 20
115.0110327231843
 30
0.0
 10
388.0278908134127
 20
115.1120418627594
 30
0.0
 10
387.9761895834786
 20
115.2588086700113
 30
0.0
 10
387.8718305704658
 20
115.523075082924
 30
0.0
 10
387.7509573427819
 20
115.7930447127518
 30
0.0
 10
387.6374642963263
 20
116.0104543874655
 30
0.0
 10
387.5661913287104
 20
116.1401579581961
 30
0.0
 10
387.5041167565846
 20
116.244033035521
 30
0.0
 10
387.4515327444172
 20
116.3238936693394
 30
0.0
 10
387.4082861984897
 20
116.38191229549
 30
0.0
 10
387.3746793862696
 20
116.4200158541423
 30
0.0
 10
387.349732403397
 20
116.442018385137
 30
0.0
 10
387.340772866535
 20
116.4446309984883
 30
0.0
 10
387.336445829817
 20
116.445892768385
 30
0.0
  0
SPLINE
  5
100
330
1F
100
AcDbEntity
  8
0
  6
Continuous
 62
     7
370
    25
100
AcDbSpline
210
0.0
220
0.0
230
1.0
 70
     8
 71
     3
 72
    25
 73
    21
 74
     0
 42
0.000000001
 43
0.00000001
 40
0.0
 40
0.0
 40
0.0
 40
0.0
 40
0.0288821753085224
 40
0.0583636593970509
 40
0.0884647204261505
 40
0.1192044006569852
 40
0.1506005800041717
 40
0.1826700399634661
 40
0.2154285269555558
 40
0.2488908143379429
 40
0.3610594471043705
 40
0.4984670131067063
 40
0.5822693905004617
 40
0.6661127642780392
 40
0.7499972937223975
 40
0.8007709755012506
 40
0.8511237700778294
 40
0.9010896024477144
 40
0.9507031914089353
 40
1.0
 40
1.0
 40
1.0
 40
1.0
 10
366.2380536741801
 20
116.445892768385
 30
0.0
 10
366.2357634058026
 20
116.4454645264092
 30
0.0
 10
366.2311353456898
 20
116.4445991563825
 30
0.0
 10
366.2208250826029
 20
116.4375242236818
 30
0.0
 10
366.2079890133722
 20
116.4259556825226
 30
0.0
 10
366.1923754546296
 20
116.4092501064112
 30
0.0
 10
366.1740540112169
 20
116.3873131953957
 30
0.0
 10
366.1530064253855
 20
116.3599155599108
 30
0.0
 10
366.1292348533929
 20
116.3268810792274
 30
0.0
 10
366.0821783239638
 20
116.2578904131057
 30
0.0
 10
365.9944839061046
 20
116.1178644436874
 30
0.0
 10
365.8769322515723
 20
115.8985691424865
 30
0.0
 10
365.7654100872272
 20
115.6616390816993
 30
0.0
 10
365.673950769879
 20
115.4457972077894
 30
0.0
 10
365.5930691187007
 20
115.2442355869114
 30
0.0
 10
365.5269242168326
 20
115.0653675065251
 30
0.0
 10
365.4775736560069
 20
114.9139913053871
 30
0.0
 10
365.432606639142
 20
114.7597471502643
 30
0.0
 10
365.3918489252217
 20
114.6035912951831
 30
0.0
 10
365.3683542560032
 20
114.4983465882292
 30
0.0
 10
365.3566445445873
 20
114.445892768385
 30
0.0
  0
LINE
  5
101
330
1F
100
AcDbEntity
  8
0
  6
Continuous
 62
     7
370
    25
100
AcDbLine
 10
364.9165818872
 20
114.5269805109
 30
0.0
 11
365.3566445446
 21
114.4458927684
 31
0.0
  0
SPLINE
  5
102
330
1F
100
AcDbEntity
  8
0
  6
Continuous
 62
     7
370
    25
100
AcDbSpline
210
0.0
220
0.0
230
1.0
 70
     8
 71
     3
 72
    25
 73
    21
 74
     0
 42
0.000000001
 43
0.00000001
 40
0.0
 40
0.0
 40
0.0
 40
0.0
 40
0.0288821753102511
 40
0.0583636594000142
 40
0.0884647204298522
 40
0.1192044006609317
 40
0.1506005800078716
 40
0.1826700399664301
 40
0.2154285269572978
 40
0.2488908143379817
 40
0.3610594471164473
 40
0.4984670131067579
 40
0.5822693905006365
 40
0.6661127642782113
 40
0.7499972937224397
 40
0.8007709755032377
 40
0.8511237700807887
 40
0.9010896024506684
 40
0.9507031914109043
 40
1.0
 40
1.0
 40
1.0
 40
1.0
 10
387.336445829817
 20
108.233392768385
 30
0.0
 10
387.3387360981946
 20
108.2338210103609
 30
0.0
 10
387.3433641583075
 20
108.2346863803876
 30
0.0
 10
387.3536744213947
 20
108.241761313089
 30
0.0
 10
387.3665104906256
 20
108.253329854249
 30
0.0
 10
387.3821240493681
 20
108.2700354303611
 30
0.0
 10
387.4004454927809
 20
108.2919723413771
 30
0.0
 10
387.421493078612
 20
108.3193699768619
 30
0.0
 10
387.4452646506043
 20
108.3524044575444
 30
0.0
 10
387.4923211800381
 20
108.4213951236697
 30
0.0
 10
387.580015597896
 20
108.5614210930899
 30
0.0
 10
387.6975672524287
 20
108.7807163942931
 30
0.0
 10
387.8090894167713
 20
109.0176464550705
 30
0.0
 10
387.9005487341195
 20
109.2334883289804
 30
0.0
 10
387.9814303852973
 20
109.4350499498605
 30
0.0
 10
388.0475752871654
 20
109.61391803025
 30
0.0
 10
388.0969258479918
 20
109.7652942313911
 30
0.0
 10
388.1418928648567
 20
109.919538386514
 30
0.0
 10
388.1826505787765
 20
110.0756942415922
 30
0.0
 10
388.2061452479943
 20
110.1809389485429
 30
0.0
 10
388.2178549594097
 20
110.233392768385
 30
0.0
  0
LINE
  5
103
330
1F
100
AcDbEntity
  8
0
  6
Continuous
 62
     7
370
    25
100
AcDbLine
 10
388.6579176168
 20
110.1523050259
 30
0.0
 11
388.2178549594
 21
110.2333927684
 31
0.0
  0
SPLINE
  5
104
330
1F
100
AcDbEntity
  8
0
  6
Continuous
 62
     7
370
    25
100
AcDbSpline
210
0.0
220
0.0
230
1.0
 70
     8
 71
     3
 72
    16
 73
    12
 74
     0
 42
0.000000001
 43
0.00000001
 40
0.0
 40
0.0
 40
0.0
 40
0.0
 40
0.0870061775074587
 40
0.1851056111355291
 40
0.2943803716251409
 40
0.3925759841529199
 40
0.4909775276861052
 40
0.5895880030703908
 40
0.7549180486651427
 40
0.9066441298749784
 40
0.9999999999999999
 40
0.9999999999999999
 40
0.9999999999999999
 40
0.9999999999999999
 10
367.88939186372
 20
114.445892768385
 30
0.0
 10
367.9116795701554
 20
114.5238493559682
 30
0.0
 10
367.9590966575247
 20
114.6897019678174
 30
0.0
 10
368.0460588830602
 20
114.9461969805555
 30
0.0
 10
368.1428199087251
 20
115.2012037542672
 30
0.0
 10
368.2434764338097
 20
115.441244049796
 30
0.0
 10
368.3409971288856
 20
115.6562595542131
 30
0.0
 10
368.4650842045638
 20
115.8948706664848
 30
0.0
 10
368.5957633539581
 20
116.1256852793014
 30
0.0
 10
368.6997221205992
 20
116.3043500200646
 30
0.0
 10
368.7342033058978
 20
116.3588511265578
 30
0.0
 10
368.7473377739359
 20
116.3796115219755
 30
0.0
  0
SPLINE
  5
105
330
1F
100
AcDbEntity
  8
0
  6
Continuous
 62
     7
370
    25
100
AcDbSpline
210
0.0
220
0.0
230
1.0
 70
     8
 71
     3
 72
    16
 73
    12
 74
     0
 42
0.000000001
 43
0.00000001
 40
0.0
 40
0.0
 40
0.0
 40
0.0
 40
0.0880319371339328
 40
0.1872879143798576
 40
0.2978509700519604
 40
0.3972042600988014
 40
0.4967659089756308
 40
0.5965389529066326
 40
0.7638181576519493
 40
0.917333014028731
 40
1.0
 40
1.0
 40
1.0
 40
1.0
 10
385.685107640277
 20
110.233392768385
 30
0.0
 10
385.6628199412944
 20
110.1554361948995
 30
0.0
 10
385.6154028697782
 20
109.9895836130338
 30
0.0
 10
385.5284405085562
 20
109.7330883437085
 30
0.0
 10
385.43168004814
 20
109.4780826388934
 30
0.0
 10
385.3310215732311
 20
109.2380386561747
 30
0.0
 10
385.2335079985285
 20
109.0230366166223
 30
0.0
 10
385.1093882417049
 20
108.784363703215
 30
0.0
 10
384.978908985409
 20
108.553927094954
 30
0.0
 10
384.8772638235842
 20
108.3791285508567
 30
0.0
 10
384.8441647857777
 20
108.3267322240075
 30
0.0
 10
384.8325796543094
 20
108.308392768385
 30
0.0
  0
SPLINE
  5
106
330
1F
100
AcDbEntity
  8
0
  6
Continuous
 62
     7
370
    25
100
AcDbSpline
210
0.0
220
0.0
230
1.0
 70
     8
 71
     3
 72
    15
 73
    11
 74
     0
 42
0.000000001
 43
0.00000001
 40
0.0
 40
0.0
 40
0.0
 40
0.0
 40
0.0210215873997391
 40
0.0995174370234918
 40
0.2360970702300488
 40
0.3979402345642526
 40
0.5486163820120215
 40
0.700032141451838
 40
0.8517813609343974
 40
1.0
 40
1.0
 40
1.0
 40
1.0
 10
368.7404740463929
 20
108.308392768385
 30
0.0
 10
368.7376252355687
 20
108.3128774158861
 30
0.0
 10
368.7241387967755
 20
108.3341080021773
 30
0.0
 10
368.6767328228327
 20
108.4112429394028
 30
0.0
 10
368.5835894940313
 20
108.5671729212777
 30
0.0
 10
368.4471704736925
 20
108.8161881459818
 30
0.0
 10
368.2978472934562
 20
109.1258269985357
 30
0.0
 10
368.1446835969232
 20
109.4677913880645
 30
0.0
 10
367.9990496042528
 20
109.838899713958
 30
0.0
 10
367.9256565016582
 20
110.1029309540302
 30
0.0
 10
367.88939186372
 20
110.233392768385
 30
0.0
  0
LINE
  5
107
330
1F
100
AcDbEntity
  8
0
  6
Continuous
 62
     7
370
    25
100
AcDbLine
 10
368.2056520211
 20
110.308256063
 30
0.0
 11
367.8893918637
 21
110.2333927684
 31
0.0
  0
SPLINE
  5
108
330
1F
100
AcDbEntity
  8
0
  6
Continuous
 62
     7
370
    25
100
AcDbSpline
210
0.0
220
0.0
230
1.0
 70
     8
 71
     3
 72
    25
 73
    21
 74
     0
 42
0.000000001
 43
0.00000001
 40
0.0
 40
0.0
 40
0.0
 40
0.0
 40
0.0269872354797669
 40
0.0539362690259618
 40
0.0809037148829035
 40
0.1079460716545392
 40
0.1351193706855853
 40
0.162478838835575
 40
0.190078585418252
 40
0.2179713214290535
 40
0.2462081170984584
 40
0.3700050494705653
 40
0.4947542611659071
 40
0.6210439034695193
 40
0.7446557472315123
 40
0.7967060293738726
 40
0.8478613449329371
 40
0.8985210411990388
 40
0.9490962115257747
 40
1.0
 40
1.0
 40
1.0
 40
1.0
 10
368.2056520210614
 20
110.3082560629851
 30
0.0
 10
368.2134327657855
 20
110.2758596579574
 30
0.0
 10
368.2289832411565
 20
110.2111127068161
 30
0.0
 10
368.2536686471297
 20
110.1144661703874
 30
0.0
 10
368.2792886041287
 20
110.0183720818961
 30
0.0
 10
368.3059314677562
 20
109.9228598111794
 30
0.0
 10
368.3335566530407
 20
109.8279350837868
 30
0.0
 10
368.3621584321
 20
109.7336089276511
 30
0.0
 10
368.3917205217414
 20
109.6398925832018
 30
0.0
 10
368.4222336687886
 20
109.5467884993115
 30
0.0
 10
368.4889678733779
 20
109.3505232571985
 30
0.0
 10
368.5961510494736
 20
109.0644501415952
 30
0.0
 10
368.7399311397824
 20
108.7271602456018
 30
0.0
 10
368.8731795959943
 20
108.4456510687783
 30
0.0
 10
368.9608507722075
 20
108.2746601385999
 30
0.0
 10
369.0117258079998
 20
108.1787473202175
 30
0.0
 10
369.0393949626512
 20
108.1275301167628
 30
0.0
 10
369.0590938807687
 20
108.0915473226777
 30
0.0
 10
369.0713413894723
 20
108.0693774343558
 30
0.0
 10
369.0726281826283
 20
108.0670579666222
 30
0.0
 10
369.0732736627101
 20
108.0658944772025
 30
0.0
  0
LINE
  5
109
330
1F
100
AcDbEntity
  8
0
  6
Continuous
 62
     7
370
    25
100
AcDbLine
 10
368.2056520211
 20
114.3710294738
 30
0.0
 11
367.8893918637
 21
114.4458927684
 31
0.0
  0
SPLINE
  5
10A
330
1F
100
AcDbEntity
  8
0
  6
Continuous
 62
     7
370
    25
100
AcDbSpline
210
0.0
220
0.0
230
1.0
 70
     8
 71
     3
 72
    25
 73
    21
 74
     0
 42
0.000000001
 43
0.00000001
 40
0.0
 40
0.0
 40
0.0
 40
0.0
 40
0.0278144320063462
 40
0.0555680196245754
 40
0.083331625367772
 40
0.111176035216759
 40
0.1391714221532265
 40
0.1673868326284763
 40
0.1958897140434718
 40
0.2247454979318961
 40
0.254017249222145
 40
0.3796724410016501
 40
0.5056484635002454
 40
0.629752729069345
 40
0.7535891720571729
 40
0.8038564806093713
 40
0.853339684343451
 40
0.9023264398358534
 40
0.9511131859219439
 40
1.0
 40
1.0
 40
1.0
 40
1.0
 10
369.0732736627101
 20
116.6133910595675
 30
0.0
 10
369.0731259113953
 20
116.613124517014
 30
0.0
 10
369.0728307319736
 20
116.6125920149717
 30
0.0
 10
369.0692060329578
 20
116.6060445662756
 30
0.0
 10
369.0632601372874
 20
116.5952753229894
 30
0.0
 10
369.0547854143724
 20
116.5798645870651
 30
0.0
 10
369.0438704275333
 20
116.5599082108113
 30
0.0
 10
369.0305343592948
 20
116.5353581143409
 30
0.0
 10
369.0148265946079
 20
116.5062014905849
 30
0.0
 10
368.99679500645
 20
116.4724055191515
 30
0.0
 10
368.9543774617016
 20
116.3919987610937
 30
0.0
 10
368.8738564219481
 20
116.2350103114231
 30
0.0
 10
368.7404300750736
 20
115.9532245736757
 30
0.0
 10
368.5963530983905
 20
115.6153524640487
 30
0.0
 10
368.4806753469391
 20
115.3066715503104
 30
0.0
 10
368.3981638717219
 20
115.0606408305554
 30
0.0
 10
368.3452422471967
 20
114.8918149392822
 30
0.0
 10
368.2953851128194
 20
114.7204993682705
 30
0.0
 10
368.2483671195887
 20
114.5468170180497
 30
0.0
 10
368.2199001088603
 20
114.4296653297462
 30
0.0
 10
368.2056520210614
 20
114.3710294737849
 30
0.0
  0
SPLINE
  5
10B
330
1F
100
AcDbEntity
  8
0
  6
Continuous
 62
     7
370
    25
100
AcDbSpline
210
0.0
220
0.0
230
1.0
 70
     8
 71
     3
 72
    15
 73
    11
 74
     0
 42
0.000000001
 43
0.00000001
 40
0.0
 40
0.0
 40
0.0
 40
0.0
 40
0.0210215874028217
 40
0.0995174370237692
 40
0.2360970702364024
 40
0.3979402345644331
 40
0.5486163820121709
 40
0.7000321414519293
 40
0.8517813609347173
 40
1.0
 40
1.0
 40
1.0
 40
1.0
 10
384.8340254576027
 20
116.370892768385
 30
0.0
 10
384.8368742684274
 20
116.3664081208831
 30
0.0
 10
384.8503607072205
 20
116.3451775345916
 30
0.0
 10
384.897766681167
 20
116.2680425973643
 30
0.0
 10
384.9909100099683
 20
116.1121126154893
 30
0.0
 10
385.1273290303063
 20
115.863097390784
 30
0.0
 10
385.2766522105412
 20
115.5534585382344
 30
0.0
 10
385.4298159070738
 20
115.2114941487052
 30
0.0
 10
385.5754498997442
 20
114.8403858228117
 30
0.0
 10
385.6488430023388
 20
114.5763545827395
 30
0.0
 10
385.685107640277
 20
114.445892768385
 30
0.0
  0
LINE
  5
10C
330
1F
100
AcDbEntity
  8
0
  6
Continuous
 62
     7
370
    25
100
AcDbLine
 10
385.3688474829
 20
114.3710294738
 30
0.0
 11
385.6851076403
 21
114.4458927684
 31
0.0
  0
SPLINE
  5
10D
330
1F
100
AcDbEntity
  8
0
  6
Continuous
 62
     7
370
    25
100
AcDbSpline
210
0.0
220
0.0
230
1.0
 70
     8
 71
     3
 72
    14
 73
    10
 74
     0
 42
0.000000001
 43
0.00000001
 40
0.0
 40
0.0
 40
0.0
 40
0.0
 40
0.1400505389350869
 40
0.2837941391411494
 40
0.4267315409806283
 40
0.5707684557847066
 40
0.7165839699846572
 40
0.859307666324277
 40
1.0
 40
1.0
 40
1.0
 40
1.0
 10
385.3688474829357
 20
114.3710294737849
 30
0.0
 10
385.3320805537334
 20
114.5165895050284
 30
0.0
 10
385.2575771701607
 20
114.8115479112884
 30
0.0
 10
385.1223879509753
 20
115.2296119201623
 30
0.0
 10
384.9785035478713
 20
115.6146646135969
 30
0.0
 10
384.8343668078991
 20
115.9524726221822
 30
0.0
 10
384.7019711351168
 20
116.2324134128064
 30
0.0
 10
384.591050354293
 20
116.4485539004426
 30
0.0
 10
384.5497148738555
 20
116.5246170461267
 30
0.0
 10
384.5291952680802
 20
116.5623760305865
 30
0.0
  0
LINE
  5
10E
330
1F
100
AcDbEntity
  8
0
  6
Continuous
 62
     7
370
    25
100
AcDbLine
 10
385.3688474829
 20
110.308256063
 30
0.0
 11
385.6851076403
 21
110.2333927684
 31
0.0
  0
SPLINE
  5
10F
330
1F
100
AcDbEntity
  8
0
  6
Continuous
 62
     7
370
    25
100
AcDbSpline
210
0.0
220
0.0
230
1.0
 70
     8
 71
     3
 72
    25
 73
    21
 74
     0
 42
0.000000001
 43
0.00000001
 40
0.0
 40
0.0
 40
0.0
 40
0.0
 40
0.0278144320057649
 40
0.0555680196235595
 40
0.083331625366468
 40
0.1111760352153128
 40
0.1391714221517827
 40
0.1673868326271739
 40
0.195889714042447
 40
0.2247454979312803
 40
0.2540172492220635
 40
0.3796724409988544
 40
0.505648463500191
 40
0.6297527290689083
 40
0.7535891720572004
 40
0.803856480609888
 40
0.85333968434422
 40
0.902326439836625
 40
0.9511131859224594
 40
1.0
 40
1.0
 40
1.0
 40
1.0
 10
384.5012258412871
 20
108.0658944772025
 30
0.0
 10
384.5013735926017
 20
108.0661610197561
 30
0.0
 10
384.5016687720235
 20
108.0666935217983
 30
0.0
 10
384.5052934710393
 20
108.0732409704944
 30
0.0
 10
384.5112393667096
 20
108.0840102137807
 30
0.0
 10
384.5197140896247
 20
108.099420949705
 30
0.0
 10
384.5306290764639
 20
108.1193773259588
 30
0.0
 10
384.5439651447022
 20
108.1439274224292
 30
0.0
 10
384.5596729093892
 20
108.1730840461851
 30
0.0
 10
384.5777044975471
 20
108.2068800176186
 30
0.0
 10
384.6201220422941
 20
108.2872867756738
 30
0.0
 10
384.700643082048
 20
108.4442752253451
 30
0.0
 10
384.8340694289224
 20
108.7260609630919
 30
0.0
 10
384.9781464056059
 20
109.0639330727197
 30
0.0
 10
385.0938241570579
 20
109.3726139864595
 30
0.0
 10
385.1763356322757
 20
109.6186447062162
 30
0.0
 10
385.2292572568011
 20
109.7874705974903
 30
0.0
 10
385.2791143911784
 20
109.958786168502
 30
0.0
 10
385.3261323844087
 20
110.1324685187219
 30
0.0
 10
385.3545993951369
 20
110.2496202070244
 30
0.0
 10
385.3688474829357
 20
110.3082560629851
 30
0.0
  0
ARC
  5
110
330
1F
100
AcDbEntity
  8
0
  6
Continuous
 62
     7
370
    25
100
AcDbCircle
 10
376.787249752
 20
112.3396427684
 30
0.0
 40
11.62303852141071
100
AcDbArc
 50
169.5595567507
 51
190.4404432494
  0
ARC
  5
111
330
1F
100
AcDbEntity
  8
0
  6
Continuous
 62
     7
370
    25
100
AcDbCircle
 10
376.787249752
 20
112.3396427684
 30
0.0
 40
9.143750000000008
100
AcDbArc
 50
166.6824039243
 51
193.3175960757
  0
ARC
  5
112
330
1F
100
AcDbEntity
  8
0
  6
Continuous
 62
     7
370
    25
100
AcDbCircle
 10
376.787249752
 20
112.3396427684
 30
0.0
 40
8.81874999999997
100
AcDbArc
 50
166.6824039243
 51
193.3175960757
  0
ARC
  5
113
330
1F
100
AcDbEntity
  8
0
  6
Continuous
 62
     7
370
    25
100
AcDbCircle
 10
376.787249752
 20
112.3396427684
 30
0.0
 40
9.143750000000008
100
AcDbArc
 50
346.6824039243
 51
13.3175960757
  0
ARC
  5
114
330
1F
100
AcDbEntity
  8
0
  6
Continuous
 62
     7
370
    25
100
AcDbCircle
 10
376.787249752
 20
112.3396427684
 30
0.0
 40
8.81875000000008
100
AcDbArc
 50
346.6824039243
 51
13.3175960757
  0
ARC
  5
115
330
1F
100
AcDbEntity
  8
0
  6
Continuous
 62
     7
370
    25
100
AcDbCircle
 10
376.787249752
 20
112.3396427684
 30
0.0
 40
11.62303852141071
100
AcDbArc
 50
349.5595567507
 51
10.4404432493
  0
CIRCLE
  5
116
330
1F
100
AcDbEntity
  8
0
  6
Continuous
 62
     7
370
    25
100
AcDbCircle
 10
376.787249752
 20
112.3396427684
 30
0.0
 40
7.774999999999977
  0
CIRCLE
  5
117
330
1F
100
AcDbEntity
  8
0
  6
Continuous
 62
     7
370
    25
100
AcDbCircle
 10
376.787249752
 20
112.3396427684
 30
0.0
 40
2.615470053837896
  0
CIRCLE
  5
118
330
1F
100
AcDbEntity
  8
0
  6
Continuous
 62
     7
370
    25
100
AcDbCircle
 10
376.787249752
 20
112.3396427684
 30
0.0
 40
2.5
  0
CIRCLE
  5
119
330
1F
100
AcDbEntity
  8
0
  6
Continuous
 62
     7
370
    25
100
AcDbCircle
 10
376.787249752
 20
112.3396427684
 30
0.0
 40
15.73749999999995
  0
CIRCLE
  5
11A
330
1F
100
AcDbEntity
  8
0
  6
Continuous
 62
     7
370
    25
100
AcDbCircle
 10
376.787249752
 20
112.3396427684
 30
0.0
 40
13.42499999999995
  0
CIRCLE
  5
11B
330
1F
100
AcDbEntity
  8
0
  6
Continuous
 62
     7
370
    25
100
AcDbCircle
 10
376.787249752
 20
112.3396427684
 30
0.0
 40
2.0
  0
LINE
  5
11C
330
1F
100
AcDbEntity
  8
0
  6
CENTER
 62
     7
370
    18
100
AcDbLine
 10
376.787249752
 20
112.3396427684
 30
0.0
 11
376.787249752
 21
131.8541427684
 31
0.0
  0
LINE
  5
11D
330
1F
100
AcDbEntity
  8
0
  6
CENTER
 62
     7
370
    18
100
AcDbLine
 10
376.787249752
 20
112.3396427684
 30
0.0
 11
396.301749752
 21
112.3396427684
 31
0.0
  0
LINE
  5
11E
330
1F
100
AcDbEntity
  8
0
  6
Continuous
 62
     7
370
    18
100
AcDbLine
 10
388.787249752
 20
129.8541427684
 30
0.0
 11
376.787249752
 21
129.8541427684
 31
0.0
  0
SOLID
  5
11F
330
1F
100
AcDbEntity
  8
0
  6
Continuous
 62
     7
370
    18
100
AcDbTrace
 10
376.787249752
 20
129.8541427684
 30
0.0
 11
382.787249752
 21
128.3541427684
 31
0.0
 12
382.787249752
 22
131.3541427684
 32
0.0
 13
382.787249752
 23
131.3541427684
 33
0.0
  0
LINE
  5
120
330
1F
100
AcDbEntity
  8
0
  6
Continuous
 62
     7
370
    18
100
AcDbLine
 10
406.301749752
 20
112.3396427684
 30
0.0
 11
394.301749752
 21
112.3396427684
 31
0.0
  0
SOLID
  5
121
330
1F
100
AcDbEntity
  8
0
  6
Continuous
 62
     7
370
    18
100
AcDbTrace
 10
394.301749752
 20
112.3396427684
 30
0.0
 11
400.301749752
 21
110.8396427684
 31
0.0
 12
400.301749752
 22
113.8396427684
 32
0.0
 13
400.301749752
 23
113.8396427684
 33
0.0
  0
MTEXT
  5
122
330
1F
100
AcDbEntity
  8
0
  6
Continuous
 62
     7
100
AcDbMText
 10
385.6375204287
 20
136.5033157007
 30
0.0
 40
3.5
 41
0.0
 71
     1
 72
     1
  1
A
  7
SLDTEXTSTYLE0
 73
     1
 44
1.0
  0
MTEXT
  5
123
330
1F
100
AcDbEntity
  8
0
  6
Continuous
 62
     7
100
AcDbMText
 10
403.1520204287
 20
110.1254681819
 30
0.0
 40
3.5
 41
0.0
 71
     1
 72
     1
  1
A
  7
SLDTEXTSTYLE0
 73
     1
 44
1.0
  0
LINE
  5
124
330
1F
100
AcDbEntity
  8
VERMASSUNG
  6
CENTERX2
370
    18
100
AcDbLine
 10
388.4554285746
 20
115.3696427684
 30
0.0
 11
382.1089815705
 21
115.3696427684
 31
0.0
  0
LINE
  5
125
330
1F
100
AcDbEntity
  8
VERMASSUNG
  6
CENTERX2
370
    18
100
AcDbLine
 10
389.4246663676
 20
114.4458927684
 30
0.0
 11
382.6557166266
 21
114.4458927684
 31
0.0
  0
LINE
  5
126
330
1F
100
AcDbEntity
  8
VERMASSUNG
  6
CENTERX2
370
    18
100
AcDbLine
 10
389.4240207254
 20
110.2333927684
 30
0.0
 11
382.6541753806
 21
110.2333927684
 31
0.0
  0
LINE
  5
127
330
1F
100
AcDbEntity
  8
VERMASSUNG
  6
CENTERX2
370
    18
100
AcDbLine
 10
370.1815692337
 20
110.2333927684
 30
0.0
 11
363.2268498894
 21
110.2333927684
 31
0.0
  0
LINE
  5
128
330
1F
100
AcDbEntity
  8
VERMASSUNG
  6
CENTERX2
370
    18
100
AcDbLine
 10
369.9970423418
 20
114.4458927684
 30
0.0
 11
363.227196997
 21
114.4458927684
 31
0.0
  0
LINE
  5
129
330
1F
100
AcDbEntity
  8
VERMASSUNG
  6
CENTERX2
370
    18
100
AcDbLine
 10
370.6835474261
 20
115.3696427684
 30
0.0
 11
364.3392293774
 21
115.3696427684
 31
0.0
  0
ARC
  5
12A
330
1F
100
AcDbEntity
  8
0
  6
Continuous
 62
     7
370
    25
100
AcDbCircle
 10
134.221330067
 20
81.0646427684
 30
0.0
 40
0.2000000000000171
100
AcDbArc
 50
180.0
 51
270.0
  0
LINE
  5
12B
330
1F
100
AcDbEntity
  8
0
  6
Continuous
 62
     7
370
    25
100
AcDbLine
 10
147.2555278716
 20
80.8646427684
 30
0.0
 11
152.021330067
 21
80.8646427684
 31
0.0
  0
LINE
  5
12C
330
1F
100
AcDbEntity
  8
0
  6
Continuous
 62
     7
370
    25
100
AcDbLine
 10
134.221330067
 20
80.8646427684
 30
0.0
 11
140.5871322625
 21
80.8646427684
 31
0.0
  0
LINE
  5
12D
330
1F
100
AcDbEntity
  8
0
  6
Continuous
 62
     7
370
    25
100
AcDbLine
 10
140.5871322625
 20
80.8646427684
 30
0.0
 11
142.046330067
 21
83.3920475042
 31
0.0
  0
LINE
  5
12E
330
1F
100
AcDbEntity
  8
0
  6
Continuous
 62
     7
370
    25
100
AcDbLine
 10
145.796330067
 20
83.3920475042
 30
0.0
 11
147.2555278716
 21
80.8646427684
 31
0.0
  0
ARC
  5
12F
330
1F
100
AcDbEntity
  8
0
  6
Continuous
 62
     7
370
    25
100
AcDbCircle
 10
143.046330067
 20
83.4896427684
 30
0.0
 40
1.0
100
AcDbArc
 50
90.0
 51
180.0
  0
ARC
  5
130
330
1F
100
AcDbEntity
  8
0
  6
Continuous
 62
     7
370
    25
100
AcDbCircle
 10
144.796330067
 20
83.4896427684
 30
0.0
 40
1.000000000000028
100
AcDbArc
 50
0.0
 51
90.0
  0
LINE
  5
131
330
1F
100
AcDbEntity
  8
0
  6
Continuous
 62
     7
370
    25
100
AcDbLine
 10
143.046330067
 20
84.4896427684
 30
0.0
 11
144.796330067
 21
84.4896427684
 31
0.0
  0
ARC
  5
132
330
1F
100
AcDbEntity
  8
0
  6
Continuous
 62
     7
370
    25
100
AcDbCircle
 10
133.5923951925
 20
86.7896427684
 30
0.0
 40
0.8000000000000115
100
AcDbArc
 50
57.576802718
 51
107.5
  0
ARC
  5
133
330
1F
100
AcDbEntity
  8
0
  6
Continuous
 62
     7
370
    25
100
AcDbCircle
 10
155.021330067
 20
86.8396427684
 30
0.0
 40
3.0
100
AcDbArc
 50
90.0
 51
180.0
  0
LINE
  5
134
330
1F
100
AcDbEntity
  8
0
  6
Continuous
 62
     7
370
    25
100
AcDbLine
 10
119.534884599
 20
88.0671222476
 30
0.0
 11
132.861148027
 21
87.3979047229
 31
0.0
  0
LINE
  5
135
330
1F
100
AcDbEntity
  8
0
  6
Continuous
 62
     7
370
    25
100
AcDbLine
 10
95.571330067
 20
89.2705226408
 30
0.0
 11
103.6261669305
 21
88.8660253098
 31
0.0
  0
LINE
  5
136
330
1F
100
AcDbEntity
  8
0
  6
Continuous
 62
     7
370
    25
100
AcDbLine
 10
132.861148027
 20
87.3979047229
 30
0.0
 11
133.3518305529
 21
87.552616329
 31
0.0
  0
LINE
  5
137
330
1F
100
AcDbEntity
  8
0
  6
Continuous
 62
     7
370
    25
100
AcDbLine
 10
155.021330067
 20
89.8396427684
 30
0.0
 11
180.0820350837
 21
89.8396427684
 31
0.0
  0
LINE
  5
138
330
1F
100
AcDbEntity
  8
0
  6
Continuous
 62
     7
370
    25
100
AcDbLine
 10
180.0820350837
 20
89.8396427684
 30
0.0
 11
192.8665665905
 21
95.8011677159
 31
0.0
  0
LINE
  5
139
330
1F
100
AcDbEntity
  8
0
  6
Continuous
 62
     7
370
    25
100
AcDbLine
 10
94.071330067
 20
90.1365480446
 30
0.0
 11
95.571330067
 21
89.2705226408
 31
0.0
  0
ARC
  5
13A
330
1F
100
AcDbEntity
  8
0
  6
Continuous
 62
     7
370
    25
100
AcDbCircle
 10
192.021330067
 20
97.61378329
 30
0.0
 40
2.0
100
AcDbArc
 50
295.0
 51
0.0
  0
LINE
  5
13B
330
1F
100
AcDbEntity
  8
0
  6
Continuous
 62
     7
370
    25
100
AcDbLine
 10
168.021330067
 20
118.3396427684
 30
0.0
 11
166.021330067
 21
120.3396427684
 31
0.0
  0
LINE
  5
13C
330
1F
100
AcDbEntity
  8
0
  6
Continuous
 62
     7
370
    25
100
AcDbLine
 10
166.021330067
 20
120.3396427684
 30
0.0
 11
166.021330067
 21
133.9396427684
 31
0.0
  0
LINE
  5
13D
330
1F
100
AcDbEntity
  8
0
  6
Continuous
 62
     7
370
    25
100
AcDbLine
 10
166.021330067
 20
133.9396427684
 30
0.0
 11
166.921330067
 21
134.8396427684
 31
0.0
  0
LINE
  5
13E
330
1F
100
AcDbEntity
  8
0
  6
Continuous
 62
     7
370
    25
100
AcDbLine
 10
166.921330067
 20
134.8396427684
 30
0.0
 11
169.021330067
 21
134.8396427684
 31
0.0
  0
LINE
  5
13F
330
1F
100
AcDbEntity
  8
0
  6
Continuous
 62
     7
370
    25
100
AcDbLine
 10
169.021330067
 20
126.8396427684
 30
0.0
 11
169.021330067
 21
134.8396427684
 31
0.0
  0
LINE
  5
140
330
1F
100
AcDbEntity
  8
0
  6
Continuous
 62
     7
370
    25
100
AcDbLine
 10
175.021330067
 20
126.8396427684
 30
0.0
 11
169.021330067
 21
126.8396427684
 31
0.0
  0
LINE
  5
141
330
1F
100
AcDbEntity
  8
0
  6
Continuous
 62
     7
370
    25
100
AcDbLine
 10
175.021330067
 20
126.8396427684
 30
0.0
 11
175.021330067
 21
134.8396427684
 31
0.0
  0
LINE
  5
142
330
1F
100
AcDbEntity
  8
0
  6
Continuous
 62
     7
370
    25
100
AcDbLine
 10
175.021330067
 20
134.8396427684
 30
0.0
 11
177.121330067
 21
134.8396427684
 31
0.0
  0
LINE
  5
143
330
1F
100
AcDbEntity
  8
0
  6
Continuous
 62
     7
370
    25
100
AcDbLine
 10
177.121330067
 20
134.8396427684
 30
0.0
 11
178.021330067
 21
133.9396427684
 31
0.0
  0
LINE
  5
144
330
1F
100
AcDbEntity
  8
0
  6
Continuous
 62
     7
370
    25
100
AcDbLine
 10
178.021330067
 20
133.9396427684
 30
0.0
 11
178.021330067
 21
120.3396427684
 31
0.0
  0
LINE
  5
145
330
1F
100
AcDbEntity
  8
0
  6
Continuous
 62
     7
370
    25
100
AcDbLine
 10
178.021330067
 20
120.3396427684
 30
0.0
 11
176.021330067
 21
118.3396427684
 31
0.0
  0
LINE
  5
146
330
1F
100
AcDbEntity
  8
0
  6
Continuous
 62
     7
370
    25
100
AcDbLine
 10
176.021330067
 20
118.3396427684
 30
0.0
 11
174.771330067
 21
118.3396427684
 31
0.0
  0
LINE
  5
147
330
1F
100
AcDbEntity
  8
0
  6
Continuous
 62
     7
370
    25
100
AcDbLine
 10
172.021330067
 20
119.9273560087
 30
0.0
 11
174.771330067
 21
118.3396427684
 31
0.0
  0
LINE
  5
148
330
1F
100
AcDbEntity
  8
0
  6
Continuous
 62
     7
370
    25
100
AcDbLine
 10
169.271330067
 20
118.3396427684
 30
0.0
 11
172.021330067
 21
119.9273560087
 31
0.0
  0
LINE
  5
149
330
1F
100
AcDbEntity
  8
0
  6
Continuous
 62
     7
370
    25
100
AcDbLine
 10
169.271330067
 20
118.3396427684
 30
0.0
 11
168.021330067
 21
118.3396427684
 31
0.0
  0
LINE
  5
14A
330
1F
100
AcDbEntity
  8
0
  6
Continuous
 62
     7
370
    25
100
AcDbLine
 10
174.771330067
 20
118.3396427684
 30
0.0
 11
169.271330067
 21
118.3396427684
 31
0.0
  0
LINE
  5
14B
330
1F
100
AcDbEntity
  8
0
  6
Continuous
 62
     7
370
    25
100
AcDbLine
 10
172.021330067
 20
126.8396427684
 30
0.0
 11
172.021330067
 21
134.8396427684
 31
0.0
  0
LINE
  5
14C
330
1F
100
AcDbEntity
  8
0
  6
Continuous
 62
     7
370
    25
100
AcDbLine
 10
169.021330067
 20
134.8396427684
 30
0.0
 11
172.021330067
 21
134.8396427684
 31
0.0
  0
LINE
  5
14D
330
1F
100
AcDbEntity
  8
0
  6
Continuous
 62
     7
370
    25
100
AcDbLine
 10
175.021330067
 20
134.8396427684
 30
0.0
 11
172.021330067
 21
134.8396427684
 31
0.0
  0
LINE
  5
14E
330
1F
100
AcDbEntity
  8
0
  6
Continuous
 62
     7
370
    25
100
AcDbLine
 10
134.021330067
 20
81.0646427684
 30
0.0
 11
134.021330067
 21
112.3396427684
 31
0.0
  0
LINE
  5
14F
330
1F
100
AcDbEntity
  8
0
  6
Continuous
 62
     7
370
    25
100
AcDbLine
 10
134.021330067
 20
112.3396427684
 30
0.0
 11
134.221330067
 21
112.3396427684
 31
0.0
  0
ARC
  5
150
330
1F
100
AcDbEntity
  8
0
  6
Continuous
 62
     7
370
    25
100
AcDbCircle
 10
134.221330067
 20
143.6146427684
 30
0.0
 40
0.1999999999999886
100
AcDbArc
 50
90.0
 51
179.9999999999
  0
LINE
  5
151
330
1F
100
AcDbEntity
  8
0
  6
Continuous
 62
     7
370
    25
100
AcDbLine
 10
147.2555278716
 20
80.8646427684
 30
0.0
 11
147.2555278716
 21
107.4499354887
 31
0.0
  0
SPLINE
  5
152
330
1F
100
AcDbEntity
  8
0
  6
Continuous
 62
     7
370
    25
100
AcDbSpline
210
0.0
220
0.0
230
1.0
 70
     8
 71
     3
 72
    20
 73
    16
 74
     0
 42
0.000000001
 43
0.00000001
 40
0.0
 40
0.0
 40
0.0
 40
0.0
 40
0.1249999999999996
 40
0.1249999999999996
 40
0.2499999999999992
 40
0.2499999999999992
 40
0.3749999999999989
 40
0.3749999999999989
 40
0.4999999999999987
 40
0.4999999999999987
 40
0.7499999999999994
 40
0.7499999999999994
 40
0.8749999999999997
 40
0.8749999999999997
 40
1.0
 40
1.0
 40
1.0
 40
1.0
 10
150.8088300670339
 20
112.3396427683854
 30
0.0
 10
150.8088300670339
 20
112.0729746809042
 30
0.0
 10
150.7867830379902
 20
111.8046625056301
 30
0.0
 10
150.6977770002853
 20
111.2718194703968
 30
0.0
 10
150.6318980320859
 20
111.0125292604109
 30
0.0
 10
150.4597231243787
 20
110.5074022943894
 30
0.0
 10
150.3530165534717
 20
110.2608220784681
 30
0.0
 10
150.1003396505955
 20
109.7844054277284
 30
0.0
 10
149.9568823864008
 20
109.5589853659635
 30
0.0
 10
149.4785601941203
 20
108.9183776843498
 30
0.0
 10
149.0905332111548
 20
108.5356119692468
 30
0.0
 10
148.4487285627094
 20
108.0597097210751
 30
0.0
 10
148.2239239350622
 20
107.9161140849234
 30
0.0
 10
147.75261487744
 20
107.6587826995328
 30
0.0
 10
147.5069182775511
 20
107.5457303210109
 30
0.0
 10
147.255527871604
 20
107.4499354887002
 30
0.0
  0
LINE
  5
153
330
1F
100
AcDbEntity
  8
0
  6
Continuous
 62
     7
370
    25
100
AcDbLine
 10
152.021330067
 20
80.8646427684
 30
0.0
 11
152.021330067
 21
112.3396427684
 31
0.0
  0
LINE
  5
154
330
1F
100
AcDbEntity
  8
0
  6
Continuous
 62
     7
370
    25
100
AcDbLine
 10
152.021330067
 20
143.8146427684
 30
0.0
 11
147.2555278716
 21
143.8146427684
 31
0.0
  0
SPLINE
  5
155
330
1F
100
AcDbEntity
  8
0
  6
Continuous
 62
     7
370
    25
100
AcDbSpline
210
0.0
220
0.0
230
1.0
 70
     8
 71
     3
 72
    14
 73
    10
 74
     0
 42
0.000000001
 43
0.00000001
 40
0.0
 40
0.0
 40
0.0
 40
0.0
 40
0.25
 40
0.25
 40
0.5
 40
0.5
 40
0.75
 40
0.75
 40
1.0
 40
1.0
 40
1.0
 40
1.0
 10
140.5871322624638
 20
109.0447446828685
 30
0.0
 10
140.3902563769388
 20
109.2722412507977
 30
0.0
 10
140.2141480555493
 20
109.5138280258688
 30
0.0
 10
139.9044116617761
 20
110.025985260243
 30
0.0
 10
139.7698536602826
 20
110.2995180633511
 30
0.0
 10
139.5546115075734
 20
110.8596231978885
 30
0.0
 10
139.4729682700545
 20
111.1465956932986
 30
0.0
 10
139.3624452477844
 20
111.7346346783428
 30
0.0
 10
139.3338300670339
 20
112.0390781341135
 30
0.0
 10
139.3338300670339
 20
112.3396427683853
 30
0.0
  0
LINE
  5
156
330
1F
100
AcDbEntity
  8
0
  6
Continuous
 62
     7
370
    25
100
AcDbLine
 10
140.5871322625
 20
80.8646427684
 30
0.0
 11
140.5871322625
 21
109.0447446829
 31
0.0
  0
LINE
  5
157
330
1F
100
AcDbEntity
  8
0
  6
Continuous
 62
     7
370
    25
100
AcDbLine
 10
140.5871322625
 20
143.8146427684
 30
0.0
 11
134.221330067
 21
143.8146427684
 31
0.0
  0
ARC
  5
158
330
1F
100
AcDbEntity
  8
0
  6
Continuous
 62
     7
370
    25
100
AcDbCircle
 10
145.071330067
 20
112.3396427684
 30
0.0
 40
3.737500000000011
100
AcDbArc
 50
180.0
 51
206.113804444
  0
SPLINE
  5
159
330
1F
100
AcDbEntity
  8
0
  6
Continuous
 62
     7
370
    25
100
AcDbSpline
210
0.0
220
0.0
230
1.0
 70
     8
 71
     3
 72
    10
 73
     6
 74
     0
 42
0.000000001
 43
0.00000001
 40
0.0
 40
0.0
 40
0.0
 40
0.0
 40
0.5
 40
0.5
 40
1.0
 40
1.0
 40
1.0
 40
1.0
 10
141.7153482595806
 20
110.6945615065497
 30
0.0
 10
141.5384631131572
 20
110.3961111911931
 30
0.0
 10
141.3529137382798
 20
110.1171184870657
 30
0.0
 10
140.9749647982322
 20
109.57179919294
 30
0.0
 10
140.782178256053
 20
109.3064638071185
 30
0.0
 10
140.5871322624637
 20
109.0447446828686
 30
0.0
  0
SPLINE
  5
15A
330
1F
100
AcDbEntity
  8
0
  6
Continuous
 62
     7
370
    25
100
AcDbSpline
210
0.0
220
0.0
230
1.0
 70
     8
 71
     3
 72
     8
 73
     4
 74
     0
 42
0.000000001
 43
0.00000001
 40
0.0
 40
0.0
 40
0.0
 40
0.0
 40
1.0
 40
1.0
 40
1.0
 40
1.0
 10
147.2555278716035
 20
107.4499354886991
 30
0.0
 10
146.9071264669232
 20
107.887910815113
 30
0.0
 10
146.5625580816904
 20
108.3309939536978
 30
0.0
 10
146.2241737823695
 20
108.7843850255464
 30
0.0
  0
ARC
  5
15B
330
1F
100
AcDbEntity
  8
0
  6
Continuous
 62
     7
370
    25
100
AcDbCircle
 10
145.071330067
 20
112.3396427684
 30
0.0
 40
3.737500000000015
100
AcDbArc
 50
287.9660359156
 51
0.0
  0
SPLINE
  5
15C
330
1F
100
AcDbEntity
  8
0
  6
Continuous
 62
     7
370
    25
100
AcDbSpline
210
0.0
220
0.0
230
1.0
 70
     8
 71
     3
 72
     8
 73
     4
 74
     0
 42
0.000000001
 43
0.00000001
 40
0.0
 40
0.0
 40
0.0
 40
0.0
 40
1.0
 40
1.0
 40
1.0
 40
1.0
 10
142.0463300670339
 20
110.1445843978629
 30
0.0
 10
141.928033307604
 20
110.3076086263214
 30
0.0
 10
141.8166048254326
 20
110.4879971253438
 30
0.0
 10
141.7153482595806
 20
110.6945615065497
 30
0.0
  0
LINE
  5
15D
330
1F
100
AcDbEntity
  8
0
  6
Continuous
 62
     7
370
    25
100
AcDbLine
 10
142.046330067
 20
83.3920475042
 30
0.0
 11
142.046330067
 21
110.1445843979
 31
0.0
  0
SPLINE
  5
15E
330
1F
100
AcDbEntity
  8
0
  6
Continuous
 62
     7
370
    25
100
AcDbSpline
210
0.0
220
0.0
230
1.0
 70
     8
 71
     3
 72
     8
 73
     4
 74
     0
 42
0.000000001
 43
0.00000001
 40
0.0
 40
0.0
 40
0.0
 40
0.0
 40
1.0
 40
1.0
 40
1.0
 40
1.0
 10
146.2241737823699
 20
108.7843850255472
 30
0.0
 10
146.082635694088
 20
108.7384892544501
 30
0.0
 10
145.9400252253511
 20
108.7015484035128
 30
0.0
 10
145.7963300670341
 20
108.6731347225722
 30
0.0
  0
LINE
  5
15F
330
1F
100
AcDbEntity
  8
0
  6
Continuous
 62
     7
370
    25
100
AcDbLine
 10
145.796330067
 20
83.3920475042
 30
0.0
 11
145.796330067
 21
108.6731347226
 31
0.0
  0
SPLINE
  5
160
330
1F
100
AcDbEntity
  8
0
  6
Continuous
 62
     7
370
    25
100
AcDbSpline
210
0.0
220
0.0
230
1.0
 70
     8
 71
     3
 72
    14
 73
    10
 74
     0
 42
0.000000001
 43
0.00000001
 40
0.0
 40
0.0
 40
0.0
 40
0.0
 40
0.25
 40
0.25
 40
0.5
 40
0.5
 40
0.75
 40
0.75
 40
1.0
 40
1.0
 40
1.0
 40
1.0
 10
143.0463300670339
 20
109.1982607078903
 30
0.0
 10
142.9119819806774
 20
109.2848642695179
 30
0.0
 10
142.7888053068214
 20
109.3763326668413
 30
0.0
 10
142.5600587019034
 20
109.5675240534722
 30
0.0
 10
142.4581367379362
 20
109.6643859056131
 30
0.0
 10
142.2787133355075
 20
109.8522605203484
 30
0.0
 10
142.2022720473247
 20
109.9424958716997
 30
0.0
 10
142.0849820744746
 20
110.0903022356771
 30
0.0
 10
142.0463300670339
 20
110.144584397863
 30
0.0
 10
142.0463300670339
 20
110.144584397863
 30
0.0
  0
SPLINE
  5
161
330
1F
100
AcDbEntity
  8
0
  6
Continuous
 62
     7
370
    25
100
AcDbSpline
210
0.0
220
0.0
230
1.0
 70
     8
 71
     3
 72
    14
 73
    10
 74
     0
 42
0.000000001
 43
0.00000001
 40
0.0
 40
0.0
 40
0.0
 40
0.0
 40
0.25
 40
0.25
 40
0.5
 40
0.5
 40
0.75
 40
0.75
 40
1.0
 40
1.0
 40
1.0
 40
1.0
 10
145.796330067034
 20
108.6731347225728
 30
0.0
 10
145.7963300670341
 20
108.6731347225728
 30
0.0
 10
145.770413544463
 20
108.6677579915844
 30
0.0
 10
145.6709686978855
 20
108.650213403984
 30
0.0
 10
145.5986703054732
 20
108.6383640003377
 30
0.0
 10
145.4139664109494
 20
108.6167201823374
 30
0.0
 10
145.3043891490734
 20
108.607430921653
 30
0.0
 10
145.0610589708553
 20
108.6001753852954
 30
0.0
 10
144.9295227119352
 20
108.6024467914548
 30
0.0
 10
144.7963300670339
 20
108.6122735553879
 30
0.0
  0
SPLINE
  5
162
330
1F
100
AcDbEntity
  8
0
  6
Continuous
 62
     7
370
    25
100
AcDbSpline
210
0.0
220
0.0
230
1.0
 70
     8
 71
     3
 72
    10
 73
     6
 74
     0
 42
0.000000001
 43
0.00000001
 40
0.0
 40
0.0
 40
0.0
 40
0.0
 40
0.5
 40
0.5
 40
1.0
 40
1.0
 40
1.0
 40
1.0
 10
144.7963300670339
 20
108.612273555388
 30
0.0
 10
144.4838661647458
 20
108.6353266977571
 30
0.0
 10
144.180977182748
 20
108.6965614001635
 30
0.0
 10
143.5936339979439
 20
108.8927333640874
 30
0.0
 10
143.309166337372
 20
109.0288309991872
 30
0.0
 10
143.0463300670339
 20
109.1982607078903
 30
0.0
  0
LINE
  5
163
330
1F
100
AcDbEntity
  8
0
  6
Continuous
 62
     7
370
    25
100
AcDbLine
 10
134.021330067
 20
139.1896427684
 30
0.0
 11
134.3553687531
 21
138.130207408
 31
0.0
  0
LINE
  5
164
330
1F
100
AcDbEntity
  8
0
  6
Continuous
 62
     7
370
    25
100
AcDbLine
 10
134.021330067
 20
139.1896427684
 30
0.0
 11
134.021330067
 21
137.214354035
 31
0.0
  0
ARC
  5
165
330
1F
100
AcDbEntity
  8
0
  6
Continuous
 62
     7
370
    25
100
AcDbCircle
 10
133.5923951925
 20
137.8896427684
 30
0.0
 40
0.8000000000000097
100
AcDbArc
 50
252.5
 51
17.5
  0
ARC
  5
166
330
1F
100
AcDbEntity
  8
0
  6
Continuous
 62
     7
370
    25
100
AcDbCircle
 10
155.021330067
 20
137.8396427684
 30
0.0
 40
3.0
100
AcDbArc
 50
180.0
 51
270.0
  0
SPLINE
  5
167
330
1F
100
AcDbEntity
  8
0
  6
Continuous
 62
     7
370
    25
100
AcDbSpline
210
0.0
220
0.0
230
1.0
 70
     8
 71
     3
 72
    23
 73
    19
 74
     0
 42
0.000000001
 43
0.00000001
 40
0.0
 40
0.0
 40
0.0
 40
0.0
 40
0.0014465380676856
 40
0.069602061525081
 40
0.1372543686877731
 40
0.2039589927303568
 40
0.2702907462898643
 40
0.3365481587483029
 40
0.4028600427874649
 40
0.4678618153390202
 40
0.5326346827483716
 40
0.5993540732925754
 40
0.6655184441100612
 40
0.7321132013640578
 40
0.7988840361125102
 40
0.8663348105332467
 40
0.9345219374316834
 40
1.0
 40
1.0
 40
1.0
 40
1.0
 10
103.7811541313387
 20
135.7639009564001
 30
0.0
 10
103.7822984141019
 20
135.7635479341973
 30
0.0
 10
103.8373570683238
 20
135.7465618115161
 30
0.0
 10
104.2337617072646
 20
135.6293003702017
 30
0.0
 10
104.9498007219366
 20
135.4286958382073
 30
0.0
 10
105.9594853571209
 20
135.1880793578449
 30
0.0
 10
107.175462214153
 20
134.9608074791517
 30
0.0
 10
108.5796625177845
 20
134.7884178686676
 30
0.0
 10
110.0967265420821
 20
134.7003495877416
 30
0.0
 10
111.6710244060133
 20
134.7313972425015
 30
0.0
 10
113.2368446282576
 20
134.8824204833143
 30
0.0
 10
114.7267016988144
 20
135.1367572815834
 30
0.0
 10
116.0983818908762
 20
135.4544940603211
 30
0.0
 10
117.2843049846699
 20
135.7984104804336
 30
0.0
 10
118.2619043286579
 20
136.1262530807481
 30
0.0
 10
118.9814154802538
 20
136.3951775102302
 30
0.0
 10
119.4540504819548
 20
136.5777668458524
 30
0.0
 10
119.5115215963082
 20
136.6010152384371
 30
0.0
 10
119.5396747544828
 20
136.6124038408874
 30
0.0
  0
LINE
  5
168
330
1F
100
AcDbEntity
  8
0
  6
Continuous
 62
     7
370
    25
100
AcDbLine
 10
103.6217641818
 20
135.8130391299
 30
0.0
 11
95.571330067
 21
135.408762896
 31
0.0
  0
LINE
  5
169
330
1F
100
AcDbEntity
  8
0
  6
Continuous
 62
     7
370
    25
100
AcDbLine
 10
95.571330067
 20
89.2705226408
 30
0.0
 11
95.571330067
 21
103.2175197338
 31
0.0
  0
SPLINE
  5
16A
330
1F
100
AcDbEntity
  8
0
  6
Continuous
 62
     7
370
    25
100
AcDbSpline
210
0.0
220
0.0
230
1.0
 70
     8
 71
     3
 72
     8
 73
     4
 74
     0
 42
0.000000001
 43
0.00000001
 40
0.0
 40
0.0
 40
0.0
 40
0.0
 40
1.0
 40
1.0
 40
1.0
 40
1.0
 10
101.3895045199809
 20
103.222105792082
 30
0.0
 10
99.45011303566945
 20
103.2199596962324
 30
0.0
 10
97.51072155135802
 20
103.2183635097076
 30
0.0
 10
95.57133006704662
 20
103.2173160572319
 30
0.0
  0
SPLINE
  5
16B
330
1F
100
AcDbEntity
  8
0
  6
Continuous
 62
     7
370
    25
100
AcDbSpline
210
0.0
220
0.0
230
1.0
 70
     8
 71
     3
 72
    13
 73
     9
 74
     0
 42
0.000000001
 43
0.00000001
 40
0.0
 40
0.0
 40
0.0
 40
0.0
 40
0.1686319999748108
 40
0.3360343310905603
 40
0.5025367825908784
 40
0.6684737453788424
 40
0.8341822636915194
 40
1.0
 40
1.0
 40
1.0
 40
1.0
 10
102.4729995694478
 20
103.3595622378996
 30
0.0
 10
102.4135096733881
 20
103.3450479178608
 30
0.0
 10
102.294963683113
 20
103.3161251165762
 30
0.0
 10
102.1150869875271
 20
103.282163723168
 30
0.0
 10
101.9346966998991
 20
103.255298160809
 30
0.0
 10
101.7535845278653
 20
103.236339223701
 30
0.0
 10
101.5718236906979
 20
103.2244087723054
 30
0.0
 10
101.4502909228032
 20
103.2228736207365
 30
0.0
 10
101.3895045199808
 20
103.222105792082
 30
0.0
  0
SPLINE
  5
16C
330
1F
100
AcDbEntity
  8
0
  6
Continuous
 62
     7
370
    25
100
AcDbSpline
210
0.0
220
0.0
230
1.0
 70
     8
 71
     3
 72
     8
 73
     4
 74
     0
 42
0.000000001
 43
0.00000001
 40
0.0
 40
0.0
 40
0.0
 40
0.0
 40
1.0
 40
1.0
 40
1.0
 40
1.0
 10
107.8651929859469
 20
103.3638002797851
 30
0.0
 10
106.067798314507
 20
103.3619292192611
 30
0.0
 10
104.2704036430671
 20
103.3605070382369
 30
0.0
 10
102.4730089716272
 20
103.359532915241
 30
0.0
  0
SPLINE
  5
16D
330
1F
100
AcDbEntity
  8
0
  6
Continuous
 62
     7
370
    25
100
AcDbSpline
210
0.0
220
0.0
230
1.0
 70
     8
 71
     3
 72
    18
 73
    14
 74
     0
 42
0.000000001
 43
0.00000001
 40
0.0
 40
0.0
 40
0.0
 40
0.0
 40
0.0923325137145546
 40
0.1843692047123243
 40
0.2763458873888429
 40
0.3684982175742124
 40
0.4610598988390781
 40
0.5542609546612685
 40
0.6483261285506466
 40
0.7434734636546699
 40
0.8399130993131055
 40
0.9201660718311621
 40
1.0
 40
1.0
 40
1.0
 40
1.0
 10
110.061514634543
 20
102.8296080439414
 30
0.0
 10
109.9911843310274
 20
102.830024668373
 30
0.0
 10
109.8507490541709
 20
102.8308565824196
 30
0.0
 10
109.6403865276625
 20
102.8444654293341
 30
0.0
 10
109.4309428647423
 20
102.8671321867056
 30
0.0
 10
109.2223931943679
 20
102.8997329765063
 30
0.0
 10
109.0147495770926
 20
102.9420354551265
 30
0.0
 10
108.8080113895549
 20
102.9941068537817
 30
0.0
 10
108.6021892975938
 20
103.0559556266271
 30
0.0
 10
108.3972576188074
 20
103.1275536380833
 30
0.0
 10
108.2057768734168
 20
103.2041321283119
 30
0.0
 10
108.0280537213663
 20
103.2827433771459
 30
0.0
 10
107.9197197268032
 20
103.336657532933
 30
0.0
 10
107.8656945173508
 20
103.3635440478317
 30
0.0
  0
LINE
  5
16E
330
1F
100
AcDbEntity
  8
0
  6
Continuous
 62
     7
370
    25
100
AcDbLine
 10
111.9763879138
 20
102.8311034788
 30
0.0
 11
110.0615146345
 21
102.8296080439
 31
0.0
  0
SPLINE
  5
16F
330
1F
100
AcDbEntity
  8
0
  6
Continuous
 62
     7
370
    25
100
AcDbSpline
210
0.0
220
0.0
230
1.0
 70
     8
 71
     3
 72
    25
 73
    21
 74
     0
 42
0.000000001
 43
0.00000001
 40
0.0
 40
0.0
 40
0.0
 40
0.0
 40
0.0280105225425619
 40
0.0559601148859271
 40
0.0839014045041196
 40
0.1118870776784246
 40
0.1399695827586811
 40
0.1682008401737954
 40
0.1966319670422708
 40
0.2253130233140564
 40
0.2542927850735731
 40
0.3799486436576643
 40
0.5057850221666753
 40
0.6313085886329383
 40
0.7532068238012418
 40
0.8039473267955356
 40
0.8535894438553621
 40
0.902533972239325
 40
0.9511970353790535
 40
1.0
 40
1.0
 40
1.0
 40
1.0
 10
116.9162722202353
 20
107.9649672833167
 30
0.0
 10
116.9163094419691
 20
107.8903472563035
 30
0.0
 10
116.9163838044698
 20
107.7412695203166
 30
0.0
 10
116.9039677538233
 20
107.5186514293508
 30
0.0
 10
116.8823631934695
 20
107.2973270113222
 30
0.0
 10
116.8506777238095
 20
107.0773587454338
 30
0.0
 10
116.8091515854896
 20
106.8587684582047
 30
0.0
 10
116.7577208297597
 20
106.6415865198002
 30
0.0
 10
116.6964069550485
 20
106.4258450999151
 30
0.0
 10
116.625196619549
 20
106.2115552084646
 30
0.0
 10
116.4543600123453
 20
105.7632054354427
 30
0.0
 10
116.1166277789098
 20
105.1098746073712
 30
0.0
 10
115.5050731147114
 20
104.337981396732
 30
0.0
 10
114.7688382795618
 20
103.693821771348
 30
0.0
 10
114.0823522079147
 20
103.3021806032859
 30
0.0
 10
113.5336480617654
 20
103.0834857023179
 30
0.0
 10
113.1516118832607
 20
102.9676296534872
 30
0.0
 10
112.7644457845562
 20
102.8867217479573
 30
0.0
 10
112.3722191157695
 20
102.8374933171593
 30
0.0
 10
112.1084578476541
 20
102.833235462144
 30
0.0
 10
111.9763879138325
 20
102.8311034788012
 30
0.0
  0
LINE
  5
170
330
1F
100
AcDbEntity
  8
0
  6
Continuous
 62
     7
370
    25
100
AcDbLine
 10
116.9162722202
 20
112.3396427684
 30
0.0
 11
116.9162722202
 21
107.9649672833
 31
0.0
  0
LINE
  5
171
330
1F
100
AcDbEntity
  8
0
  6
Continuous
 62
     7
370
    25
100
AcDbLine
 10
132.861148027
 20
87.3979047229
 30
0.0
 11
132.861148027
 21
112.3396427684
 31
0.0
  0
LINE
  5
172
330
1F
100
AcDbEntity
  8
0
  6
Continuous
 62
     7
370
    25
100
AcDbLine
 10
132.861148027
 20
137.2813808139
 30
0.0
 11
119.5396747545
 21
136.6124038409
 31
0.0
  0
SPLINE
  5
173
330
1F
100
AcDbEntity
  8
0
  6
Continuous
 62
     7
370
    25
100
AcDbSpline
210
0.0
220
0.0
230
1.0
 70
     8
 71
     3
 72
    20
 73
    16
 74
     0
 42
0.000000001
 43
0.00000001
 40
0.0
 40
0.0
 40
0.0
 40
0.0
 40
0.0829621378684851
 40
0.1658495135106161
 40
0.2487180070857352
 40
0.3299477216398518
 40
0.4108693994445727
 40
0.4941953814850553
 40
0.5768901676626216
 40
0.6601065810557765
 40
0.7435845489350841
 40
0.8279858465401871
 40
0.9132590745392867
 40
0.9972257035811787
 40
1.0
 40
1.0
 40
1.0
 40
1.0
 10
105.9337461617609
 20
89.47638240087848
 30
0.0
 10
106.3194919978321
 20
89.55330082748262
 30
0.0
 10
107.0906360509493
 20
89.70706836482022
 30
0.0
 10
108.4983842021192
 20
89.88298358620574
 30
0.0
 10
110.0062355699937
 20
89.97697987353477
 30
0.0
 10
111.5787245450116
 20
89.95313549166816
 30
0.0
 10
113.1460215762237
 20
89.8092304467676
 30
0.0
 10
114.6417976030052
 20
89.56017284396856
 30
0.0
 10
116.0220514786779
 20
89.24549215142991
 30
0.0
 10
117.2196456617335
 20
88.9012307994494
 30
0.0
 10
118.2065076915557
 20
88.57218357362964
 30
0.0
 10
118.9537459377537
 20
88.29372266542188
 30
0.0
 10
119.4009473671193
 20
88.12186687039026
 30
0.0
 10
119.5877019792693
 20
88.04801619879181
 30
0.0
 10
119.5366037653711
 20
88.06816748986493
 30
0.0
 10
119.534969455026
 20
88.06881200287148
 30
0.0
  0
SPLINE
  5
174
330
1F
100
AcDbEntity
  8
0
  6
Continuous
 62
     7
370
    25
100
AcDbSpline
210
0.0
220
0.0
230
1.0
 70
     8
 71
     3
 72
    11
 73
     7
 74
     0
 42
0.000000001
 43
0.00000001
 40
0.0
 40
0.0
 40
0.0
 40
0.0
 40
0.2435512231731415
 40
0.4981153923403553
 40
0.7509097881719459
 40
0.9999999999999999
 40
0.9999999999999999
 40
0.9999999999999999
 40
0.9999999999999999
 10
103.6262520440173
 20
88.86772019149535
 30
0.0
 10
103.6522029655425
 20
88.8759557280335
 30
0.0
 10
103.7052782623476
 20
88.89279919718298
 30
0.0
 10
104.1829732460101
 20
89.03370063932049
 30
0.0
 10
104.8943126942769
 20
89.23899118976871
 30
0.0
 10
105.5889773414516
 20
89.39764230796592
 30
0.0
 10
105.9337461617609
 20
89.47638240087848
 30
0.0
  0
LINE
  5
175
330
1F
100
AcDbEntity
  8
0
  6
Continuous
 62
     7
370
    25
100
AcDbLine
 10
133.3518305529
 20
137.1266692078
 30
0.0
 11
132.861148027
 21
137.2813808139
 31
0.0
  0
LINE
  5
176
330
1F
100
AcDbEntity
  8
0
  6
Continuous
 62
     7
370
    25
100
AcDbLine
 10
116.9162722202
 20
107.9649672833
 30
0.0
 11
116.021330067
 21
108.1271427684
 31
0.0
  0
LINE
  5
177
330
1F
100
AcDbEntity
  8
0
  6
Continuous
 62
     7
370
    25
100
AcDbLine
 10
116.021330067
 20
108.1271427684
 30
0.0
 11
116.021330067
 21
112.3396427684
 31
0.0
  0
SPLINE
  5
178
330
1F
100
AcDbEntity
  8
0
  6
Continuous
 62
     7
370
    25
100
AcDbSpline
210
0.0
220
0.0
230
1.0
 70
     8
 71
     3
 72
    25
 73
    21
 74
     0
 42
0.000000001
 43
0.00000001
 40
0.0
 40
0.0
 40
0.0
 40
0.0
 40
0.0288821753102511
 40
0.0583636594000142
 40
0.0884647204298522
 40
0.1192044006609317
 40
0.1506005800078716
 40
0.1826700399664301
 40
0.2154285269572978
 40
0.2488908143379817
 40
0.3610594471164473
 40
0.4984670131067579
 40
0.5822693905006365
 40
0.6661127642782113
 40
0.7499972937224397
 40
0.8007709755032377
 40
0.8511237700807887
 40
0.9010896024506684
 40
0.9507031914109043
 40
1.0
 40
1.0
 40
1.0
 40
1.0
 10
112.0213300670339
 20
104.1271427683853
 30
0.0
 10
112.0841305202696
 20
104.1279992523371
 30
0.0
 10
112.2110345440642
 20
104.1297299923906
 30
0.0
 10
112.4023889517722
 20
104.1438798577933
 30
0.0
 10
112.5962937644469
 20
104.1670169401134
 30
0.0
 10
112.7921944851742
 20
104.2004280923376
 30
0.0
 10
112.9895321531799
 20
104.2443019143696
 30
0.0
 10
113.1876854949691
 20
104.2990971853391
 30
0.0
 10
113.3860012389836
 20
104.3651661467041
 30
0.0
 10
113.7373222264816
 20
104.5031474789548
 30
0.0
 10
114.2624339968075
 20
104.7831994177952
 30
0.0
 10
114.7994258252949
 20
105.2217900202015
 30
0.0
 10
115.2114855553405
 20
105.6956501417563
 30
0.0
 10
115.498404143393
 20
106.1273338895761
 30
0.0
 10
115.6968308306002
 20
106.5304571313363
 30
0.0
 10
115.8289167046484
 20
106.8881932921152
 30
0.0
 10
115.9145505844463
 20
107.1909456943976
 30
0.0
 10
115.9756327957993
 20
107.4994340046433
 30
0.0
 10
116.0141337391648
 20
107.8117457147997
 30
0.0
 10
116.0189364182583
 20
108.0222351287011
 30
0.0
 10
116.0213300670339
 20
108.1271427683853
 30
0.0
  0
SPLINE
  5
179
330
1F
100
AcDbEntity
  8
0
  6
Continuous
 62
     7
370
    25
100
AcDbSpline
210
0.0
220
0.0
230
1.0
 70
     8
 71
     3
 72
    10
 73
     6
 74
     0
 42
0.000000001
 43
0.00000001
 40
0.0
 40
0.0
 40
0.0
 40
0.0
 40
0.4248340515979647
 40
0.8551669106801618
 40
1.0
 40
1.0
 40
1.0
 40
1.0
 10
166.1132127762523
 20
134.8396427683853
 30
0.0
 10
166.1379694492882
 20
134.833048398754
 30
0.0
 10
166.1878032314889
 20
134.8197743057657
 30
0.0
 10
166.437655647871
 20
134.751372555586
 30
0.0
 10
166.6911840327873
 20
134.6890351914662
 30
0.0
 10
166.7550252586451
 20
134.6733379599966
 30
0.0
  0
SPLINE
  5
17A
330
1F
100
AcDbEntity
  8
0
  6
Continuous
 62
     7
370
    25
100
AcDbSpline
210
0.0
220
0.0
230
1.0
 70
     8
 71
     3
 72
    10
 73
     6
 74
     0
 42
0.000000001
 43
0.00000001
 40
0.0
 40
0.0
 40
0.0
 40
0.0
 40
0.1454509523037323
 40
0.5751397940493985
 40
1.0
 40
1.0
 40
1.0
 40
1.0
 10
177.2876704591775
 20
134.6733023762417
 30
0.0
 10
177.3517747739196
 20
134.6890626494455
 30
0.0
 10
177.6052550144718
 20
134.7513816658634
 30
0.0
 10
177.8548800000281
 20
134.8197861719916
 30
0.0
 10
177.9046849440475
 20
134.8330488832705
 30
0.0
 10
177.9294467044526
 20
134.8396427683853
 30
0.0
  0
LINE
  5
17B
330
1F
100
AcDbEntity
  8
0
  6
Continuous
 62
     7
370
    25
100
AcDbLine
 10
166.1132127763
 20
134.8396427684
 30
0.0
 11
155.021330067
 21
134.8396427684
 31
0.0
  0
LINE
  5
17C
330
1F
100
AcDbEntity
  8
0
  6
Continuous
 62
     7
370
    25
100
AcDbLine
 10
180.0820350837
 20
89.8396427684
 30
0.0
 11
180.0820350837
 21
112.3396427684
 31
0.0
  0
LINE
  5
17D
330
1F
100
AcDbEntity
  8
0
  6
Continuous
 62
     7
370
    25
100
AcDbLine
 10
180.0820350837
 20
134.8396427684
 30
0.0
 11
177.9294467045
 21
134.8396427684
 31
0.0
  0
LINE
  5
17E
330
1F
100
AcDbEntity
  8
0
  6
Continuous
 62
     7
370
    25
100
AcDbLine
 10
192.8665665905
 20
128.8781178208
 30
0.0
 11
180.0820350837
 21
134.8396427684
 31
0.0
  0
SPLINE
  5
17F
330
1F
100
AcDbEntity
  8
0
  6
Continuous
 62
     7
370
    25
100
AcDbSpline
210
0.0
220
0.0
230
1.0
 70
     8
 71
     3
 72
    13
 73
     9
 74
     0
 42
0.000000001
 43
0.00000001
 40
0.0
 40
0.0
 40
0.0
 40
0.0
 40
0.172258782357064
 40
0.3421398271252745
 40
0.5097456257917113
 40
0.6751828993280184
 40
0.8385626190139852
 40
0.9999999999999999
 40
0.9999999999999999
 40
0.9999999999999999
 40
0.9999999999999999
 10
109.0213484359441
 20
104.2771375911351
 30
0.0
 10
109.0822118256128
 20
104.2608738634366
 30
0.0
 10
109.203098490052
 20
104.2285709009574
 30
0.0
 10
109.3861596480173
 20
104.1911832462644
 30
0.0
 10
109.5682623309555
 20
104.1620503113538
 30
0.0
 10
109.7492037792744
 20
104.1418635957472
 30
0.0
 10
109.9285427829778
 20
104.1294167914454
 30
0.0
 10
110.0473890113975
 20
104.1278977482178
 30
0.0
 10
110.1064567877444
 20
104.1271427683853
 30
0.0
  0
LINE
  5
180
330
1F
100
AcDbEntity
  8
0
  6
Continuous
 62
     7
370
    25
100
AcDbLine
 10
110.0615146345
 20
102.8296080439
 30
0.0
 11
110.1064567877
 21
104.1271427684
 31
0.0
  0
SPLINE
  5
181
330
1F
100
AcDbEntity
  8
0
  6
Continuous
 62
     7
370
    25
100
AcDbSpline
210
0.0
220
0.0
230
1.0
 70
     8
 71
     3
 72
    11
 73
     7
 74
     0
 42
0.000000001
 43
0.00000001
 40
0.0
 40
0.0
 40
0.0
 40
0.0
 40
0.2392913841800824
 40
0.5001130134990213
 40
0.7515028526582183
 40
0.9999999999999999
 40
0.9999999999999999
 40
0.9999999999999999
 40
0.9999999999999999
 10
108.6938575748879
 20
104.2777163734084
 30
0.0
 10
108.6250326390208
 20
104.206162936323
 30
0.0
 10
108.481190242863
 20
104.056618040799
 30
0.0
 10
108.2734414444754
 20
103.8277006141654
 30
0.0
 10
108.065455239727
 20
103.595382241898
 30
0.0
 10
107.9324543159911
 20
103.4406063592773
 30
0.0
 10
107.8663386717862
 20
103.3636662381157
 30
0.0
  0
SPLINE
  5
182
330
1F
100
AcDbEntity
  8
0
  6
Continuous
 62
     7
370
    25
100
AcDbSpline
210
0.0
220
0.0
230
1.0
 70
    24
 71
     3
 72
     9
 73
     5
 74
     0
 42
0.000000001
 43
0.00000001
 40
0.0
 40
0.0
 40
0.0
 40
0.0
 40
0.5090839669866033
 40
1.0
 40
1.0
 40
1.0
 40
1.0
 10
108.6960878432073
 20
104.2771427683853
 30
0.0
 10
108.7508212433197
 20
104.2771427683853
 30
0.0
 10
108.8583347453385
 20
104.2771427683853
 30
0.0
 10
108.9677273057095
 20
104.2771427683853
 30
0.0
 10
109.021429867488
 20
104.2771427683853
 30
0.0
  0
LINE
  5
183
330
1F
100
AcDbEntity
  8
0
  6
Continuous
 62
     7
370
    25
100
AcDbLine
 10
102.4474799786
 20
104.2570909946
 30
0.0
 11
102.4728944702
 21
103.359532824
 31
0.0
  0
SPLINE
  5
184
330
1F
100
AcDbEntity
  8
0
  6
Continuous
 62
     7
370
    25
100
AcDbSpline
210
0.0
220
0.0
230
1.0
 70
     8
 71
     3
 72
     8
 73
     4
 74
     0
 42
0.000000001
 43
0.00000001
 40
0.0
 40
0.0
 40
0.0
 40
0.0
 40
1.0
 40
1.0
 40
1.0
 40
1.0
 10
102.4474911697621
 20
104.2570914847245
 30
0.0
 10
102.4692940262441
 20
104.2627888157572
 30
0.0
 10
102.4910487356416
 20
104.2686703985522
 30
0.0
 10
102.5127521909597
 20
104.2747353931053
 30
0.0
  0
LINE
  5
185
330
1F
100
AcDbEntity
  8
0
  6
Continuous
 62
     7
370
    25
100
AcDbLine
 10
102.5213300671
 20
104.2771427684
 30
0.0
 11
108.6950030394
 21
104.2771427684
 31
0.0
  0
LINE
  5
186
330
1F
100
AcDbEntity
  8
0
  6
Continuous
 62
     7
370
    25
100
AcDbLine
 10
110.1064567877
 20
104.1271427684
 30
0.0
 11
112.021330067
 21
104.1271427684
 31
0.0
  0
SPLINE
  5
187
330
1F
100
AcDbEntity
  8
0
  6
Continuous
 62
     7
370
    25
100
AcDbSpline
210
0.0
220
0.0
230
1.0
 70
     8
 71
     3
 72
    13
 73
     9
 74
     0
 42
0.000000001
 43
0.00000001
 40
0.0
 40
0.0
 40
0.0
 40
0.0
 40
0.1621004456571512
 40
0.325943455157606
 40
0.4915935308260523
 40
0.6591130873964648
 40
0.8285624736043361
 40
1.0
 40
1.0
 40
1.0
 40
1.0
 10
101.4362033463233
 20
104.1271427683853
 30
0.0
 10
101.4917583043889
 20
104.1278117345865
 30
0.0
 10
101.6034654308536
 20
104.1291568583099
 30
0.0
 10
101.7713131202474
 20
104.1401034271012
 30
0.0
 10
101.9400995391158
 20
104.1577423564219
 30
0.0
 10
102.1094238956476
 20
104.1830478704098
 30
0.0
 10
102.279170543825
 20
104.2153518732028
 30
0.0
 10
102.3911634424826
 20
104.2431234730888
 30
0.0
 10
102.4474864775124
 20
104.2570902585901
 30
0.0
  0
LINE
  5
188
330
1F
100
AcDbEntity
  8
0
  6
Continuous
 62
     7
370
    25
100
AcDbLine
 10
94.6576702455
 20
103.5996410245
 30
0.0
 11
95.5713300671
 21
104.1271427684
 31
0.0
  0
LINE
  5
189
330
1F
100
AcDbEntity
  8
0
  6
Continuous
 62
     7
370
    25
100
AcDbLine
 10
95.5713300671
 20
104.1271427684
 30
0.0
 11
101.4362033463
 21
104.1271427684
 31
0.0
  0
SPLINE
  5
18A
330
1F
100
AcDbEntity
  8
0
  6
Continuous
 62
     7
370
    25
100
AcDbSpline
210
0.0
220
0.0
230
1.0
 70
     8
 71
     3
 72
     8
 73
     4
 74
     0
 42
0.000000001
 43
0.00000001
 40
0.0
 40
0.0
 40
0.0
 40
0.0
 40
1.0
 40
1.0
 40
1.0
 40
1.0
 10
95.57133006658292
 20
103.2173160570093
 30
0.0
 10
95.2667767928774
 20
103.3460069215561
 30
0.0
 10
94.96222351917186
 20
103.4734516778178
 30
0.0
 10
94.65767024546633
 20
103.5996410244555
 30
0.0
  0
LINE
  5
18B
330
1F
100
AcDbEntity
  8
0
  6
Continuous
 62
     7
370
    25
100
AcDbLine
 10
94.071330067
 20
90.1365480446
 30
0.0
 11
94.071330067
 21
103.2611173646
 31
0.0
  0
SPLINE
  5
18C
330
1F
100
AcDbEntity
  8
0
  6
Continuous
 62
     7
370
    25
100
AcDbSpline
210
0.0
220
0.0
230
1.0
 70
    24
 71
     3
 72
     8
 73
     4
 74
     0
 42
0.000000001
 43
0.00000001
 40
0.0
 40
0.0
 40
0.0
 40
0.0
 40
1.0
 40
1.0
 40
1.0
 40
1.0
 10
94.65767024546632
 20
103.5996410244555
 30
0.0
 10
94.46133821980798
 20
103.4862886765912
 30
0.0
 10
94.26587719956777
 20
103.3734392039394
 30
0.0
 10
94.07133006703386
 20
103.2611173646009
 30
0.0
  0
ARC
  5
18D
330
1F
100
AcDbEntity
  8
0
  6
Continuous
 62
     7
370
    25
100
AcDbCircle
 10
127.221330067
 20
129.7896427684
 30
0.0
 40
0.8000000000000114
100
AcDbArc
 50
0.0
 51
90.0
  0
ARC
  5
18E
330
1F
100
AcDbEntity
  8
0
  6
Continuous
 62
     7
370
    25
100
AcDbCircle
 10
125.7965705406
 20
129.7896427684
 30
0.0
 40
0.8000000000000114
100
AcDbArc
 50
90.0
 51
120.0
  0
LINE
  5
18F
330
1F
100
AcDbEntity
  8
0
  6
Continuous
 62
     7
370
    25
100
AcDbLine
 10
125.7965705406
 20
130.5896427684
 30
0.0
 11
127.221330067
 21
130.5896427684
 31
0.0
  0
LINE
  5
190
330
1F
100
AcDbEntity
  8
0
  6
Continuous
 62
     7
370
    25
100
AcDbLine
 10
124.521330067
 20
129.9771427684
 30
0.0
 11
124.521330067
 21
112.3396427684
 31
0.0
  0
LINE
  5
191
330
1F
100
AcDbEntity
  8
0
  6
Continuous
 62
     7
370
    25
100
AcDbLine
 10
124.521330067
 20
129.9771427684
 30
0.0
 11
125.3965705406
 21
130.4824630914
 31
0.0
  0
LINE
  5
192
330
1F
100
AcDbEntity
  8
0
  6
Continuous
 62
     7
370
    25
100
AcDbLine
 10
94.8229961169
 20
103.6950919608
 30
0.0
 11
94.6865273445
 21
103.6163016783
 31
0.0
  0
SPLINE
  5
193
330
1F
100
AcDbEntity
  8
0
  6
Continuous
 62
     7
370
    25
100
AcDbSpline
210
0.0
220
0.0
230
1.0
 70
     8
 71
     3
 72
    32
 73
    28
 74
     0
 42
0.000000001
 43
0.00000001
 40
0.0
 40
0.0
 40
0.0
 40
0.0
 40
0.1249999999999996
 40
0.1249999999999996
 40
0.1874999999999999
 40
0.1874999999999999
 40
0.2500000000000002
 40
0.2500000000000002
 40
0.3125000000000004
 40
0.3125000000000004
 40
0.3750000000000007
 40
0.3750000000000007
 40
0.5000000000000007
 40
0.5000000000000007
 40
0.5625000000000008
 40
0.5625000000000008
 40
0.625000000000001
 40
0.625000000000001
 40
0.7500000000000011
 40
0.7500000000000011
 40
0.8125000000000009
 40
0.8125000000000009
 40
0.8750000000000006
 40
0.8750000000000006
 40
0.9375000000000003
 40
0.9375000000000003
 40
1.0
 40
1.0
 40
1.0
 40
1.0
 10
108.4889603983745
 20
128.5123115225948
 30
0.0
 10
108.0048861544205
 20
128.5126709152145
 30
0.0
 10
107.5214885838536
 20
128.5276301213958
 30
0.0
 10
106.7975832341176
 20
128.5746141679045
 30
0.0
 10
106.5569208005807
 20
128.594390723029
 30
0.0
 10
106.0855746915051
 20
128.6413548065281
 30
0.0
 10
105.8537388752149
 20
128.6686086557126
 30
0.0
 10
105.3980357886586
 20
128.7302365843252
 30
0.0
 10
105.1741674657172
 20
128.7646116851206
 30
0.0
 10
104.7348398737094
 20
128.8399311287737
 30
0.0
 10
104.518122481043
 20
128.8811490795219
 30
0.0
 10
103.8917805023702
 20
129.0113858987027
 30
0.0
 10
103.5073878680168
 20
129.1064258106019
 30
0.0
 10
102.979846122397
 20
129.2526927725543
 30
0.0
 10
102.8122119708659
 20
129.302061407745
 30
0.0
 10
102.4938072236253
 20
129.4004651152453
 30
0.0
 10
102.3442263490862
 20
129.4491483798778
 30
0.0
 10
101.9312062795377
 20
129.5887711830461
 30
0.0
 10
101.6996545083786
 20
129.6743578616267
 30
0.0
 10
101.4163449932889
 20
129.7833209095428
 30
0.0
 10
101.3327773115171
 20
129.8163695621172
 30
0.0
 10
101.1908524791929
 20
129.8733729583575
 30
0.0
 10
101.1318643677504
 20
129.8975696639679
 30
0.0
 10
101.0371484640406
 20
129.936771944347
 30
0.0
 10
101.0014204968938
 20
129.9517791108441
 30
0.0
 10
100.9534562191763
 20
129.971988108571
 30
0.0
 10
100.9413299117429
 20
129.9771427683853
 30
0.0
 10
100.9413299117429
 20
129.9771427683853
 30
0.0
  0
SPLINE
  5
194
330
1F
100
AcDbEntity
  8
0
  6
Continuous
 62
     7
370
    25
100
AcDbSpline
210
0.0
220
0.0
230
1.0
 70
     8
 71
     3
 72
    31
 73
    27
 74
     0
 42
0.000000001
 43
0.00000001
 40
0.0
 40
0.0
 40
0.0
 40
0.0
 40
0.016175672276124
 40
0.0323169137829581
 40
0.0484425619883917
 40
0.0645715089961378
 40
0.0807226353341131
 40
0.0969147439450693
 40
0.1131664955255372
 40
0.1294963463050682
 40
0.1459224892612873
 40
0.1624627996346101
 40
0.179134785448202
 40
0.1959555435639897
 40
0.2945755146269481
 40
0.3932797312250125
 40
0.4928176221931024
 40
0.5924285912822703
 40
0.6939020917449243
 40
0.7927115381486364
 40
0.8267756331446485
 40
0.8608043324982583
 40
0.8949846314029163
 40
0.9295010594373617
 40
0.9645328322475689
 40
1.0
 40
1.0
 40
1.0
 40
1.0
 10
119.497279457118
 20
129.9771427683853
 30
0.0
 10
119.4965463566668
 20
129.9767963769574
 30
0.0
 10
119.4950817162073
 20
129.9761043314139
 30
0.0
 10
119.4820253365422
 20
129.9705219693676
 30
0.0
 10
119.4610107760194
 20
129.9616552063735
 30
0.0
 10
119.4312635706787
 20
129.9492141056587
 30
0.0
 10
119.392991258023
 20
129.9333234471036
 30
0.0
 10
119.3461385771019
 20
129.9139977032765
 30
0.0
 10
119.2907208470649
 20
129.8912816137571
 30
0.0
 10
119.2267348832345
 20
129.8652126093824
 30
0.0
 10
119.1541813990839
 20
129.8358301620142
 30
0.0
 10
119.0730647016042
 20
129.8031759146793
 30
0.0
 10
118.9833710468542
 20
129.7672834676447
 30
0.0
 10
118.7263252002009
 20
129.6650455599783
 30
0.0
 10
118.1982892146071
 20
129.4585213465118
 30
0.0
 10
117.219654567362
 20
129.1214360331623
 30
0.0
 10
116.0337782644423
 20
128.7782911738325
 30
0.0
 10
114.6633119993664
 20
128.4811792731727
 30
0.0
 10
113.177454727401
 20
128.2711358454398
 30
0.0
 10
111.9573020936299
 20
128.2129104425712
 30
0.0
 10
111.0908780606763
 20
128.226602783831
 30
0.0
 10
110.5626331321888
 20
128.2519708694418
 30
0.0
 10
110.0378599009799
 20
128.2939934851591
 30
0.0
 10
109.5168706613927
 20
128.352277448387
 30
0.0
 10
108.9996297163446
 20
128.4249009936325
 30
0.0
 10
108.6639926040205
 20
128.4837813113232
 30
0.0
 10
108.4951376159635
 20
128.513403289869
 30
0.0
  0
LINE
  5
195
330
1F
100
AcDbEntity
  8
0
  6
Continuous
 62
     7
370
    25
100
AcDbLine
 10
119.4972794571
 20
129.9771427684
 30
0.0
 11
124.521330067
 21
129.9771427684
 31
0.0
  0
LINE
  5
196
330
1F
100
AcDbEntity
  8
0
  6
Continuous
 62
     7
370
    25
100
AcDbLine
 10
116.671330067
 20
116.4024161792
 30
0.0
 11
116.671330067
 21
112.3396427684
 31
0.0
  0
SPLINE
  5
197
330
1F
100
AcDbEntity
  8
0
  6
Continuous
 62
     7
370
    25
100
AcDbSpline
210
0.0
220
0.0
230
1.0
 70
     8
 71
     3
 72
    25
 73
    21
 74
     0
 42
0.000000001
 43
0.00000001
 40
0.0
 40
0.0
 40
0.0
 40
0.0
 40
0.0278144320063462
 40
0.0555680196245754
 40
0.083331625367772
 40
0.111176035216759
 40
0.1391714221532265
 40
0.1673868326284763
 40
0.1958897140434718
 40
0.2247454979318961
 40
0.254017249222145
 40
0.3796724410016501
 40
0.5056484635002454
 40
0.629752729069345
 40
0.7535891720571729
 40
0.8038564806093713
 40
0.853339684343451
 40
0.9023264398358534
 40
0.9511131859219439
 40
1.0
 40
1.0
 40
1.0
 40
1.0
 10
112.0213300670339
 20
120.8871393507503
 30
0.0
 10
112.0899854209962
 20
120.8866062656432
 30
0.0
 10
112.2271459445489
 20
120.8855412615588
 30
0.0
 10
112.4323885271346
 20
120.8724463641666
 30
0.0
 10
112.6367095436317
 20
120.8509078775941
 30
0.0
 10
112.8401105957207
 20
120.8200864057455
 30
0.0
 10
113.0425862265666
 20
120.780173653238
 30
0.0
 10
113.2441350908142
 20
120.731073460297
 30
0.0
 10
113.4447491116169
 20
120.6727602127852
 30
0.0
 10
113.6444468759492
 20
120.6051682699184
 30
0.0
 10
114.0600116966285
 20
120.4443547538027
 30
0.0
 10
114.662788113171
 20
120.1303778544614
 30
0.0
 10
115.3568446686759
 20
119.5668063789667
 30
0.0
 10
115.9236182980731
 20
118.8910621597127
 30
0.0
 10
116.2611961037443
 20
118.2737003322362
 30
0.0
 10
116.4496585130332
 20
117.7816388927261
 30
0.0
 10
116.5489197305577
 20
117.4439871101797
 30
0.0
 10
116.6192643192646
 20
117.1013559681562
 30
0.0
 10
116.6632629177832
 20
116.7539912677146
 30
0.0
 10
116.6686391812634
 20
116.5196878911078
 30
0.0
 10
116.6713300670339
 20
116.402416179185
 30
0.0
  0
LINE
  5
198
330
1F
100
AcDbEntity
  8
0
  6
Continuous
 62
     7
370
    25
100
AcDbLine
 10
110.1064567877
 20
120.8871393508
 30
0.0
 11
112.021330067
 21
120.8871393508
 31
0.0
  0
SPLINE
  5
199
330
1F
100
AcDbEntity
  8
0
  6
Continuous
 62
     7
370
    25
100
AcDbSpline
210
0.0
220
0.0
230
1.0
 70
     8
 71
     3
 72
    12
 73
     8
 74
     0
 42
0.000000001
 43
0.00000001
 40
0.0
 40
0.0
 40
0.0
 40
0.0
 40
0.1992838848975283
 40
0.3984605265796802
 40
0.5979968004971712
 40
0.79835706848334
 40
1.0
 40
1.0
 40
1.0
 40
1.0
 10
109.1054229454056
 20
120.7849450380269
 30
0.0
 10
109.1708762227061
 20
120.7979673907915
 30
0.0
 10
109.301747554088
 20
120.8240050884337
 30
0.0
 10
109.5005970057117
 20
120.8524356474078
 30
0.0
 10
109.7010035215827
 20
120.8728668083892
 30
0.0
 10
109.9031744389999
 20
120.8853058854598
 30
0.0
 10
110.038552022651
 20
120.8865268970344
 30
0.0
 10
110.1064567877444
 20
120.8871393507503
 30
0.0
  0
LINE
  5
19A
330
1F
100
AcDbEntity
  8
0
  6
Continuous
 62
     7
370
    25
100
AcDbLine
 10
103.6806599379
 20
120.784781114
 30
0.0
 11
109.1046499563
 21
120.784781114
 31
0.0
  0
SPLINE
  5
19B
330
1F
100
AcDbEntity
  8
0
  6
Continuous
 62
     7
370
    25
100
AcDbSpline
210
0.0
220
0.0
230
1.0
 70
     8
 71
     3
 72
    24
 73
    20
 74
     0
 42
0.000000001
 43
0.00000001
 40
0.0
 40
0.0
 40
0.0
 40
0.0
 40
0.0410257106293119
 40
0.0818520099087221
 40
0.1225800578367529
 40
0.1633117464073406
 40
0.20414894028232
 40
0.2451927184766019
 40
0.2865426449252036
 40
0.3282960933661203
 40
0.3705476475506245
 40
0.4133885920111515
 40
0.4569065022356777
 40
0.5011849368588074
 40
0.6001856774981357
 40
0.6987388860498591
 40
0.7976800645504363
 40
0.8978349910062732
 40
1.0
 40
1.0
 40
1.0
 40
1.0
 10
99.90867303088375
 20
122.7224229310483
 30
0.0
 10
99.9717121188391
 20
122.7218882307332
 30
0.0
 10
100.0974838842225
 20
122.7208214290905
 30
0.0
 10
100.2854220457353
 20
122.7096779370924
 30
0.0
 10
100.4720121385615
 20
122.6915164387847
 30
0.0
 10
100.6572539210978
 20
122.6656415180633
 30
0.0
 10
100.8411431043264
 20
122.6322046322516
 30
0.0
 10
101.0236767702994
 20
122.591120610708
 30
0.0
 10
101.2048521772385
 20
122.5423578626145
 30
0.0
 10
101.384666961214
 20
122.4858603744708
 30
0.0
 10
101.5631201602924
 20
122.4215692796686
 30
0.0
 10
101.7402081984405
 20
122.3494155997362
 30
0.0
 10
101.9159403227242
 20
122.2693284146975
 30
0.0
 10
102.1609549563228
 20
122.145487528012
 30
0.0
 10
102.4651380355098
 20
121.9668625458142
 30
0.0
 10
102.8124455169609
 20
121.7177733617527
 30
0.0
 10
103.1316197804336
 20
121.4382037767731
 30
0.0
 10
103.425531682693
 20
121.1293781388055
 30
0.0
 10
103.5950557693783
 20
120.901286095508
 30
0.0
 10
103.6806599378572
 20
120.7861070074804
 30
0.0
  0
LINE
  5
19C
330
1F
100
AcDbEntity
  8
0
  6
Continuous
 62
     7
370
    25
100
AcDbLine
 10
97.117131314
 20
122.722422931
 30
0.0
 11
99.9086730309
 21
122.722422931
 31
0.0
  0
SPLINE
  5
19D
330
1F
100
AcDbEntity
  8
0
  6
Continuous
 62
     7
370
    25
100
AcDbSpline
210
0.0
220
0.0
230
1.0
 70
     8
 71
     3
 72
     8
 73
     4
 74
     0
 42
0.000000001
 43
0.00000001
 40
0.0
 40
0.0
 40
0.0
 40
0.0
 40
1.0
 40
1.0
 40
1.0
 40
1.0
 10
97.07132724227513
 20
122.7858759220579
 30
0.0
 10
97.08659526617281
 20
122.7647594516598
 30
0.0
 10
97.10186329007051
 20
122.7436083846071
 30
0.0
 10
97.11713131396819
 20
122.7224229310483
 30
0.0
  0
LINE
  5
19E
330
1F
100
AcDbEntity
  8
0
  6
Continuous
 62
     7
370
    25
100
AcDbLine
 10
97.071330067
 20
129.9771427684
 30
0.0
 11
97.071330067
 21
122.7858759221
 31
0.0
  0
LINE
  5
19F
330
1F
100
AcDbEntity
  8
0
  6
Continuous
 62
     7
370
    25
100
AcDbLine
 10
97.071330067
 20
129.9771427684
 30
0.0
 11
100.9413299117
 21
129.9771427684
 31
0.0
  0
LINE
  5
1A0
330
1F
100
AcDbEntity
  8
0
  6
Continuous
 62
     7
370
    25
100
AcDbLine
 10
194.021330067
 20
97.6137832906
 30
0.0
 11
194.021330067
 21
112.3396427684
 31
0.0
  0
ARC
  5
1A1
330
1F
100
AcDbEntity
  8
0
  6
Continuous
 62
     7
370
    25
100
AcDbCircle
 10
192.021330067
 20
127.0655022468
 30
0.0
 40
2.000000000000026
100
AcDbArc
 50
0.0
 51
65.0
  0
ARC
  5
1A2
330
1F
100
AcDbEntity
  8
0
  6
Continuous
 62
     7
370
    25
100
AcDbCircle
 10
131.721330067
 20
126.6896427684
 30
0.0
 40
1.200000000000017
100
AcDbArc
 50
0.0
 51
90.0
  0
LINE
  5
1A3
330
1F
100
AcDbEntity
  8
0
  6
Continuous
 62
     7
370
    25
100
AcDbLine
 10
128.021330067
 20
127.8896427684
 30
0.0
 11
131.721330067
 21
127.8896427684
 31
0.0
  0
LINE
  5
1A4
330
1F
100
AcDbEntity
  8
0
  6
Continuous
 62
     7
370
    25
100
AcDbLine
 10
128.021330067
 20
127.8896427684
 30
0.0
 11
128.021330067
 21
112.3396427684
 31
0.0
  0
ARC
  5
1A5
330
1F
100
AcDbEntity
  8
0
  6
Continuous
 62
     7
370
    25
100
AcDbCircle
 10
148.421330067
 20
119.2396427684
 30
0.0
 40
0.4000000000000057
100
AcDbArc
 50
90.0
 51
180.0
  0
LINE
  5
1A6
330
1F
100
AcDbEntity
  8
0
  6
Continuous
 62
     7
370
    25
100
AcDbLine
 10
148.421330067
 20
119.6396427684
 30
0.0
 11
151.1265560489
 21
119.6396427684
 31
0.0
  0
ARC
  5
1A7
330
1F
100
AcDbEntity
  8
0
  6
Continuous
 62
     7
370
    25
100
AcDbCircle
 10
193.721330067
 20
119.6396427684
 30
0.0
 40
0.3000000000000114
100
AcDbArc
 50
270.0
 51
0.0
  0
LINE
  5
1A8
330
1F
100
AcDbEntity
  8
0
  6
Continuous
 62
     7
370
    25
100
AcDbLine
 10
194.021330067
 20
119.6396427684
 30
0.0
 11
194.021330067
 21
112.3396427684
 31
0.0
  0
ARC
  5
1A9
330
1F
100
AcDbEntity
  8
0
  6
Continuous
 62
     7
370
    25
100
AcDbCircle
 10
151.1265560489
 20
119.2396427684
 30
0.0
 40
0.3999999999999977
100
AcDbArc
 50
70.0
 51
90.0
  0
LINE
  5
1AA
330
1F
100
AcDbEntity
  8
0
  6
Continuous
 62
     7
370
    25
100
AcDbLine
 10
152.021330067
 20
119.3396427684
 30
0.0
 11
152.021330067
 21
112.3396427684
 31
0.0
  0
LINE
  5
1AB
330
1F
100
AcDbEntity
  8
0
  6
Continuous
 62
     7
370
    25
100
AcDbLine
 10
151.2633641062
 20
119.6155198167
 30
0.0
 11
152.021330067
 21
119.3396427684
 31
0.0
  0
SPLINE
  5
1AC
330
1F
100
AcDbEntity
  8
0
  6
Continuous
 62
     7
370
    25
100
AcDbSpline
210
0.0
220
0.0
230
1.0
 70
     8
 71
     3
 72
    12
 73
     8
 74
     0
 42
0.000000001
 43
0.00000001
 40
0.0
 40
0.0
 40
0.0
 40
0.0
 40
0.2580458944543261
 40
0.5208727677733117
 40
0.6806565840124669
 40
0.8414180706785432
 40
1.0
 40
1.0
 40
1.0
 40
1.0
 10
166.8963300670331
 20
119.3396427683859
 30
0.0
 10
166.9022513233993
 20
119.335302889425
 30
0.0
 10
166.914203542979
 20
119.3265427238316
 30
0.0
 10
166.9979994620401
 20
119.26541987279
 30
0.0
 10
167.102082878535
 20
119.1903500825868
 30
0.0
 10
167.2075790060628
 20
119.1148408474807
 30
0.0
 10
167.2945064235641
 20
119.0536740242846
 30
0.0
 10
167.3376734872584
 20
119.0232993481607
 30
0.0
  0
SPLINE
  5
1AD
330
1F
100
AcDbEntity
  8
0
  6
Continuous
 62
     7
370
    25
100
AcDbSpline
210
0.0
220
0.0
230
1.0
 70
     8
 71
     3
 72
    30
 73
    26
 74
     0
 42
0.000000001
 43
0.00000001
 40
0.0
 40
0.0
 40
0.0
 40
0.0
 40
0.0482290790900813
 40
0.1023492731962571
 40
0.157447106262506
 40
0.21290073550145
 40
0.2552007884051908
 40
0.2977109504727941
 40
0.3409778756055646
 40
0.3845631503348145
 40
0.4194866590978411
 40
0.4546343138460269
 40
0.4905342090554499
 40
0.526711512472818
 40
0.5616396511125148
 40
0.5968097499232705
 40
0.6326774727178646
 40
0.6687567875135858
 40
0.7176480004940918
 40
0.766923319292281
 40
0.8172275121441943
 40
0.8678278057704851
 40
0.9185029813374599
 40
0.9694375205237159
 40
1.0
 40
1.0
 40
1.0
 40
1.0
 10
168.379904042653
 20
118.3396427683853
 30
0.0
 10
168.4700375441843
 20
118.2854513633554
 30
0.0
 10
168.6613142292551
 20
118.1704491484483
 30
0.0
 10
168.9835579418065
 20
117.9908190676726
 30
0.0
 10
169.340701731193
 20
117.8063630286591
 30
0.0
 10
169.6933126614136
 20
117.6425664372713
 30
0.0
 10
170.0330406904819
 20
117.5029372477808
 30
0.0
 10
170.3559684574215
 20
117.3869569229114
 30
0.0
 10
170.6944839246359
 20
117.2851134629407
 30
0.0
 10
171.0238900214918
 20
117.2074584406225
 30
0.0
 10
171.3387276800334
 20
117.1533865457999
 30
0.0
 10
171.6369936332428
 20
117.1200114646185
 30
0.0
 10
171.9416738051204
 20
117.1050492808961
 30
0.0
 10
172.2463586617698
 20
117.1098023602897
 30
0.0
 10
172.5472325138656
 20
117.1336026394136
 30
0.0
 10
172.8434957445695
 20
117.1751428849377
 30
0.0
 10
173.1373893216734
 20
117.2338107280799
 30
0.0
 10
173.4609607870151
 20
117.3167615960251
 30
0.0
 10
173.8086596326166
 20
117.4276901905108
 30
0.0
 10
174.1765741514923
 20
117.5687246848856
 30
0.0
 10
174.5309747191047
 20
117.724923441274
 30
0.0
 10
174.8704874080567
 20
117.8916462939542
 30
0.0
 10
175.1916008950333
 20
118.0636978695164
 30
0.0
 10
175.4566471218775
 20
118.2146339088928
 30
0.0
 10
175.6058381364095
 20
118.3055485526691
 30
0.0
 10
175.6617867759365
 20
118.3396427683853
 30
0.0
  0
SPLINE
  5
1AE
330
1F
100
AcDbEntity
  8
0
  6
Continuous
 62
     7
370
    25
100
AcDbSpline
210
0.0
220
0.0
230
1.0
 70
     8
 71
     3
 72
    13
 73
     9
 74
     0
 42
0.000000001
 43
0.00000001
 40
0.0
 40
0.0
 40
0.0
 40
0.0
 40
0.1569350895010209
 40
0.3502507605975437
 40
0.5452763917412172
 40
0.7461306531494801
 40
0.9491732498386257
 40
1.0
 40
1.0
 40
1.0
 40
1.0
 10
176.7054675364123
 20
119.0237802377637
 30
0.0
 10
176.7488471456819
 20
119.05425096663
 30
0.0
 10
176.8456625946003
 20
119.122256127205
 30
0.0
 10
176.9617679540447
 20
119.2055726282447
 30
0.0
 10
177.0592848388183
 20
119.2760799054389
 30
0.0
 10
177.1229978225499
 20
119.3225607104528
 30
0.0
 10
177.1448491378518
 20
119.3385585964979
 30
0.0
 10
177.146083031321
 20
119.3394619162701
 30
0.0
 10
177.1463300670339
 20
119.3396427683853
 30
0.0
  0
LINE
  5
1AF
330
1F
100
AcDbEntity
  8
0
  6
Continuous
 62
     7
370
    25
100
AcDbLine
 10
177.146330067
 20
119.3396427684
 30
0.0
 11
193.721330067
 21
119.3396427684
 31
0.0
  0
LINE
  5
1B0
330
1F
100
AcDbEntity
  8
0
  6
Continuous
 62
     7
370
    25
100
AcDbLine
 10
152.021330067
 20
119.3396427684
 30
0.0
 11
166.896330067
 21
119.3396427684
 31
0.0
  0
LINE
  5
1B1
330
1F
100
AcDbEntity
  8
0
  6
Continuous
 62
     7
370
    25
100
AcDbLine
 10
136.746330067
 20
118.0896427684
 30
0.0
 11
137.571330067
 21
118.0896427684
 31
0.0
  0
LINE
  5
1B2
330
1F
100
AcDbEntity
  8
0
  6
Continuous
 62
     7
370
    25
100
AcDbLine
 10
133.321330067
 20
117.3396427684
 30
0.0
 11
133.321330067
 21
112.3396427684
 31
0.0
  0
LINE
  5
1B3
330
1F
100
AcDbEntity
  8
0
  6
Continuous
 62
     7
370
    25
100
AcDbLine
 10
132.921330067
 20
117.5705828761
 30
0.0
 11
133.321330067
 21
117.3396427684
 31
0.0
  0
LINE
  5
1B4
330
1F
100
AcDbEntity
  8
0
  6
Continuous
 62
     7
370
    25
100
AcDbLine
 10
132.921330067
 20
117.5705828761
 30
0.0
 11
132.921330067
 21
112.3396427684
 31
0.0
  0
LINE
  5
1B5
330
1F
100
AcDbEntity
  8
0
  6
Continuous
 62
     7
370
    25
100
AcDbLine
 10
133.321330067
 20
117.3396427684
 30
0.0
 11
136.746330067
 21
117.3396427684
 31
0.0
  0
LINE
  5
1B6
330
1F
100
AcDbEntity
  8
0
  6
Continuous
 62
     7
370
    25
100
AcDbLine
 10
136.746330067
 20
117.3396427684
 30
0.0
 11
136.746330067
 21
112.3396427684
 31
0.0
  0
LINE
  5
1B7
330
1F
100
AcDbEntity
  8
0
  6
Continuous
 62
     7
370
    25
100
AcDbLine
 10
137.571330067
 20
116.3396427684
 30
0.0
 11
148.021330067
 21
116.3396427684
 31
0.0
  0
LINE
  5
1B8
330
1F
100
AcDbEntity
  8
0
  6
Continuous
 62
     7
370
    25
100
AcDbLine
 10
137.571330067
 20
116.3396427684
 30
0.0
 11
137.571330067
 21
112.3396427684
 31
0.0
  0
LINE
  5
1B9
330
1F
100
AcDbEntity
  8
0
  6
Continuous
 62
     7
370
    25
100
AcDbLine
 10
148.021330067
 20
116.3396427684
 30
0.0
 11
148.021330067
 21
112.3396427684
 31
0.0
  0
SPLINE
  5
1BA
330
1F
100
AcDbEntity
  8
0
  6
Continuous
 62
     7
370
    25
100
AcDbSpline
210
0.0
220
0.0
230
1.0
 70
     8
 71
     3
 72
    37
 73
    33
 74
     0
 42
0.000000001
 43
0.00000001
 40
0.0
 40
0.0
 40
0.0
 40
0.0
 40
0.0114878548102803
 40
0.0231559765621651
 40
0.0350076484354358
 40
0.0470460033795311
 40
0.0592740307999918
 40
0.0716945830965791
 40
0.084310382027466
 40
0.0971240248798006
 40
0.1101379904320523
 40
0.1233546446979402
 40
0.1811510010973242
 40
0.2483631736114432
 40
0.2888373415819261
 40
0.3232297457604631
 40
0.351539213149195
 40
0.3737664266256193
 40
0.4399300285953852
 40
0.4987424063270023
 40
0.5023253005651623
 40
0.5613100074513708
 40
0.6252595444338125
 40
0.6818650083849777
 40
0.748389001698788
 40
0.786078147196466
 40
0.8194856599799756
 40
0.8486127715281694
 40
0.8734622727747392
 40
0.9389926156604113
 40
0.9981523731393516
 40
1.0
 40
1.0
 40
1.0
 40
1.0
 10
118.8713300670339
 20
135.8032950717386
 30
0.0
 10
118.8704036157554
 20
135.8028515547301
 30
0.0
 10
118.8685361753633
 20
135.8019575610626
 30
0.0
 10
118.8532631150235
 20
135.7947655836044
 30
0.0
 10
118.8283614125596
 20
135.7833143400119
 30
0.0
 10
118.7925071406238
 20
135.7671645812374
 30
0.0
 10
118.7455396297861
 20
135.7464369016837
 30
0.0
 10
118.6869967193653
 20
135.721098382682
 30
0.0
 10
118.6165185797876
 20
135.6911579621275
 30
0.0
 10
118.5337440155101
 20
135.6566139880855
 30
0.0
 10
118.438327470392
 20
135.6174642464709
 30
0.0
 10
118.2087586370035
 20
135.5247655753097
 30
0.0
 10
117.7243404230309
 20
135.3360426847952
 30
0.0
 10
116.9453404514855
 20
135.057952884824
 30
0.0
 10
116.1541220000653
 20
134.8073660174946
 30
0.0
 10
115.5230715068225
 20
134.6323492561648
 30
0.0
 10
114.9700335504861
 20
134.4925146155658
 30
0.0
 10
114.1770756215897
 20
134.3121037702197
 30
0.0
 10
113.1067412812565
 20
134.1230374485776
 30
0.0
 10
112.1257510018213
 20
134.0177506408679
 30
0.0
 10
111.1977837727017
 20
133.9607178689149
 30
0.0
 10
110.2253282789413
 20
133.9461232705451
 30
0.0
 10
108.8991980735079
 20
134.0243164870363
 30
0.0
 10
107.6291625890142
 20
134.1847962086305
 30
0.0
 10
106.6693865883446
 20
134.3699077468441
 30
0.0
 10
105.9707349409997
 20
134.5373973505743
 30
0.0
 10
105.5269268028446
 20
134.6510205567825
 30
0.0
 10
105.1943897409146
 20
134.7442043916911
 30
0.0
 10
104.8072313306714
 20
134.8588692559497
 30
0.0
 10
104.4699833685596
 20
134.9662150650097
 30
0.0
 10
104.3722593022307
 20
135.0037806382964
 30
0.0
 10
104.3713573819588
 20
135.0039120471128
 30
0.0
 10
104.3713300670339
 20
135.0039160268681
 30
0.0
  0
LINE
  5
1BB
330
1F
100
AcDbEntity
  8
0
  6
Continuous
 62
     7
370
    25
100
AcDbLine
 10
118.871330067
 20
135.8032950717
 30
0.0
 11
118.871330067
 21
130.4458687891
 31
0.0
  0
SPLINE
  5
1BC
330
1F
100
AcDbEntity
  8
0
  6
Continuous
 62
     7
370
    25
100
AcDbSpline
210
0.0
220
0.0
230
1.0
 70
     8
 71
     3
 72
    30
 73
    26
 74
     0
 42
0.000000001
 43
0.00000001
 40
0.0
 40
0.0
 40
0.0
 40
0.0
 40
0.0192411700742062
 40
0.0381353539376972
 40
0.0566868884861299
 40
0.074900355493139
 40
0.0927805967284139
 40
0.1103327298326427
 40
0.1275621649289944
 40
0.1444746219341875
 40
0.2455865830540427
 40
0.3577720192517017
 40
0.4505017408926433
 40
0.5720127868619992
 40
0.6168069840233328
 40
0.659008849948464
 40
0.6986242498830292
 40
0.7356603299386096
 40
0.7701258931933772
 40
0.8073679165912081
 40
0.8483950324901551
 40
0.888136779883275
 40
0.9266264622122324
 40
0.9639007443622738
 40
1.0
 40
1.0
 40
1.0
 40
1.0
 10
109.7005114764218
 20
128.7817774787933
 30
0.0
 10
109.7835439563014
 20
128.7706503734684
 30
0.0
 10
109.9481115473742
 20
128.7485968238023
 30
0.0
 10
110.1959930630548
 20
128.7205449345396
 30
0.0
 10
110.4412697384972
 20
128.6965934040137
 30
0.0
 10
110.6838275721084
 20
128.6770634518204
 30
0.0
 10
110.9232622492173
 20
128.6618711596437
 30
0.0
 10
111.1592754446244
 20
128.6510395984128
 30
0.0
 10
111.3915934899352
 20
128.6445590331597
 30
0.0
 10
112.000144259563
 20
128.6389275415737
 30
0.0
 10
113.0384567567832
 20
128.6989009410571
 30
0.0
 10
114.353808284871
 20
128.8983234142309
 30
0.0
 10
115.6333534977598
 20
129.2038047749184
 30
0.0
 10
116.5247940418645
 20
129.4837475778375
 30
0.0
 10
117.1424589107484
 20
129.7111966743583
 30
0.0
 10
117.4857819960435
 20
129.8414753348634
 30
0.0
 10
117.7774730809375
 20
129.9575662728224
 30
0.0
 10
118.0220184367521
 20
130.0589345022229
 30
0.0
 10
118.234373117179
 20
130.1502725547361
 30
0.0
 10
118.4254360917969
 20
130.2343476386783
 30
0.0
 10
118.590683495968
 20
130.3093405926423
 30
0.0
 10
118.7202240462118
 20
130.370329092188
 30
0.0
 10
118.808590415433
 20
130.4135667539535
 30
0.0
 10
118.8617362606951
 20
130.4407968398325
 30
0.0
 10
118.868166456636
 20
130.4441962859624
 30
0.0
 10
118.8713300670339
 20
130.4458687891369
 30
0.0
  0
SPLINE
  5
1BD
330
1F
100
AcDbEntity
  8
0
  6
Continuous
 62
     7
370
    25
100
AcDbSpline
210
0.0
220
0.0
230
1.0
 70
     8
 71
     3
 72
    38
 73
    34
 74
     0
 42
0.000000001
 43
0.00000001
 40
0.0
 40
0.0
 40
0.0
 40
0.0
 40
0.1249999999999999
 40
0.1249999999999999
 40
0.2499999999999999
 40
0.2499999999999999
 40
0.3124999999999997
 40
0.3124999999999997
 40
0.3749999999999995
 40
0.3749999999999995
 40
0.4374999999999993
 40
0.4374999999999993
 40
0.4999999999999991
 40
0.4999999999999991
 40
0.5624999999999989
 40
0.5624999999999989
 40
0.6249999999999987
 40
0.6249999999999987
 40
0.6874999999999983
 40
0.6874999999999983
 40
0.7187499999999986
 40
0.7187499999999986
 40
0.7499999999999988
 40
0.7499999999999988
 40
0.781249999999999
 40
0.781249999999999
 40
0.8124999999999992
 40
0.8124999999999992
 40
0.8749999999999996
 40
0.8749999999999996
 40
0.9374999999999998
 40
0.9374999999999998
 40
1.0
 40
1.0
 40
1.0
 40
1.0
 10
104.3713300670339
 20
134.8756906532892
 30
0.0
 10
104.371330067034
 20
134.8756906532892
 30
0.0
 10
104.4331358245975
 20
134.8530465706272
 30
0.0
 10
104.6827583700331
 20
134.7604621815711
 30
0.0
 10
104.8664860009712
 20
134.6920746016184
 30
0.0
 10
105.2228748375563
 20
134.5562325024166
 30
0.0
 10
105.3560352990619
 20
134.50503951736
 30
0.0
 10
105.6471143097583
 20
134.3913509122476
 30
0.0
 10
105.8036042612676
 20
134.3294243047412
 30
0.0
 10
106.1369857025555
 20
134.1945391960508
 30
0.0
 10
106.3138894609186
 20
134.1216009417641
 30
0.0
 10
106.6871311083919
 20
133.9626250069682
 30
0.0
 10
106.8848750992731
 20
133.8759852370916
 30
0.0
 10
107.2908985325262
 20
133.6890675645393
 30
0.0
 10
107.4989519259132
 20
133.5890326507302
 30
0.0
 10
107.9212461986473
 20
133.3697691005512
 30
0.0
 10
108.1356115017224
 20
133.2507659088866
 30
0.0
 10
108.5634538133018
 20
132.9804920585627
 30
0.0
 10
108.7798554644084
 20
132.827243233051
 30
0.0
 10
109.0784879072885
 20
132.5611747094678
 30
0.0
 10
109.1736804967582
 20
132.4664024631951
 30
0.0
 10
109.351305748615
 20
132.2606456060051
 30
0.0
 10
109.4339200592433
 20
132.1487870642345
 30
0.0
 10
109.5760003342649
 20
131.9152715600121
 30
0.0
 10
109.6363858835098
 20
131.7927104940564
 30
0.0
 10
109.7358363756647
 20
131.5362397308312
 30
0.0
 10
109.7751278146895
 20
131.4009997172814
 30
0.0
 10
109.8618244008425
 20
130.992717714317
 30
0.0
 10
109.8805327278372
 20
130.7164575365321
 30
0.0
 10
109.8770367072055
 20
130.1597097578964
 30
0.0
 10
109.8545570869969
 20
129.8814795139056
 30
0.0
 10
109.7889294392148
 20
129.3300936937209
 30
0.0
 10
109.7454318955253
 20
129.0558400246185
 30
0.0
 10
109.6959523484153
 20
128.7824105526569
 30
0.0
  0
LINE
  5
1BE
330
1F
100
AcDbEntity
  8
0
  6
Continuous
 62
     7
370
    25
100
AcDbLine
 10
104.371330067
 20
134.8756906533
 30
0.0
 11
104.371330067
 21
135.0039160268
 31
0.0
  0
SPLINE
  5
1BF
330
1F
100
AcDbEntity
  8
0
  6
Continuous
 62
     7
370
    25
100
AcDbSpline
210
0.0
220
0.0
230
1.0
 70
     8
 71
     3
 72
    14
 73
    10
 74
     0
 42
0.000000001
 43
0.00000001
 40
0.0
 40
0.0
 40
0.0
 40
0.0
 40
0.0003951392850831
 40
0.0003951392850831
 40
0.0003951392850831
 40
0.0008159035679249
 40
0.0008159035679249
 40
0.0008159035679249
 40
0.0012369936130997
 40
0.0012369936130997
 40
0.0012369936130997
 40
0.0012369936130997
 10
108.4992140167654
 20
128.5146157653856
 30
0.0
 10
108.6277232548721
 20
128.543489733099
 30
0.0
 10
108.7562867626011
 20
128.5721779465754
 30
0.0
 10
108.8848371408845
 20
128.6006807906128
 30
0.0
 10
109.0217223885481
 20
128.6310316843035
 30
0.0
 10
109.1586180344479
 20
128.6611776493325
 30
0.0
 10
109.295438295797
 20
128.691129468901
 30
0.0
 10
109.4323642847419
 20
128.7211044336809
 30
0.0
 10
109.5692413567061
 20
128.7508904831261
 30
0.0
 10
109.7059782058932
 20
128.7805129562948
 30
0.0
  0
LINE
  5
1C0
330
1F
100
AcDbEntity
  8
0
  6
Continuous
 62
     7
370
    25
100
AcDbLine
 10
100.9413299117
 20
129.9771427684
 30
0.0
 11
104.371330067
 21
134.8756906533
 31
0.0
  0
LINE
  5
1C1
330
1F
100
AcDbEntity
  8
0
  6
Continuous
 62
     7
370
    25
100
AcDbLine
 10
166.896330067
 20
134.2283158055
 30
0.0
 11
166.896330067
 21
119.3396427684
 31
0.0
  0
LINE
  5
1C2
330
1F
100
AcDbEntity
  8
0
  6
Continuous
 62
     7
370
    25
100
AcDbLine
 10
177.146330067
 20
119.3396427684
 30
0.0
 11
177.146330067
 21
134.2283158801
 31
0.0
  0
LINE
  5
1C3
330
1F
100
AcDbEntity
  8
0
  6
Continuous
 62
     7
370
    25
100
AcDbLine
 10
103.6217682187
 20
135.813028478
 30
0.0
 11
104.3713581976
 21
135.0039171403
 31
0.0
  0
LINE
  5
1C4
330
1F
100
AcDbEntity
  8
0
  6
Continuous
 62
     7
370
    25
100
AcDbLine
 10
118.8713430152
 20
135.8032953276
 30
0.0
 11
119.5396731611
 21
136.61240715
 31
0.0
  0
LINE
  5
1C5
330
1F
100
AcDbEntity
  8
0
  6
Continuous
 62
     7
370
    25
100
AcDbLine
 10
94.8229961169
 20
131.2752189797
 30
0.0
 11
97.071330067
 21
129.9771427684
 31
0.0
  0
LINE
  5
1C6
330
1F
100
AcDbEntity
  8
0
  6
Continuous
 62
     7
370
    25
100
AcDbLine
 10
94.071330067
 20
132.5771427684
 30
0.0
 11
94.8229961169
 21
131.2752189797
 31
0.0
  0
LINE
  5
1C7
330
1F
100
AcDbEntity
  8
0
  6
Continuous
 62
     7
370
    25
100
AcDbLine
 10
94.071330067
 20
134.5427374922
 30
0.0
 11
94.071330067
 21
132.5771427684
 31
0.0
  0
LINE
  5
1C8
330
1F
100
AcDbEntity
  8
0
  6
Continuous
 62
     7
370
    25
100
AcDbLine
 10
95.571330067
 20
135.408762896
 30
0.0
 11
94.071330067
 21
134.5427374922
 31
0.0
  0
ARC
  5
1C9
330
1F
100
AcDbEntity
  8
0
  6
Continuous
 62
     7
370
    25
100
AcDbCircle
 10
143.046330067
 20
141.1896427684
 30
0.0
 40
1.0
100
AcDbArc
 50
180.0
 51
270.0
  0
LINE
  5
1CA
330
1F
100
AcDbEntity
  8
0
  6
Continuous
 62
     7
370
    25
100
AcDbLine
 10
144.796330067
 20
140.1896427684
 30
0.0
 11
143.046330067
 21
140.1896427684
 31
0.0
  0
ARC
  5
1CB
330
1F
100
AcDbEntity
  8
0
  6
Continuous
 62
     7
370
    25
100
AcDbCircle
 10
144.796330067
 20
141.1896427684
 30
0.0
 40
1.0
100
AcDbArc
 50
270.0
 51
0.0
  0
LINE
  5
1CC
330
1F
100
AcDbEntity
  8
0
  6
Continuous
 62
     7
370
    25
100
AcDbLine
 10
145.796330067
 20
141.2872380326
 30
0.0
 11
145.796330067
 21
141.1896427684
 31
0.0
  0
LINE
  5
1CD
330
1F
100
AcDbEntity
  8
0
  6
Continuous
 62
     7
370
    25
100
AcDbLine
 10
147.2555278716
 20
143.8146427684
 30
0.0
 11
145.796330067
 21
141.2872380326
 31
0.0
  0
LINE
  5
1CE
330
1F
100
AcDbEntity
  8
0
  6
Continuous
 62
     7
370
    25
100
AcDbLine
 10
166.1132130267
 20
134.8396422847
 30
0.0
 11
166.8963318989
 21
134.2283159316
 31
0.0
  0
LINE
  5
1CF
330
1F
100
AcDbEntity
  8
0
  6
Continuous
 62
     7
370
    25
100
AcDbLine
 10
119.4972792088
 20
129.9771440587
 30
0.0
 11
118.8713331953
 21
130.445868914
 31
0.0
  0
LINE
  5
1D0
330
1F
100
AcDbEntity
  8
0
  6
Continuous
 62
     7
370
    25
100
AcDbLine
 10
142.046330067
 20
141.2872380326
 30
0.0
 11
140.5871322625
 21
143.8146427684
 31
0.0
  0
LINE
  5
1D1
330
1F
100
AcDbEntity
  8
0
  6
Continuous
 62
     7
370
    25
100
AcDbLine
 10
142.046330067
 20
141.1896427684
 30
0.0
 11
142.046330067
 21
141.2872380326
 31
0.0
  0
LINE
  5
1D2
330
1F
100
AcDbEntity
  8
0
  6
Continuous
 62
     7
370
    25
100
AcDbLine
 10
136.746330067
 20
117.3396427684
 30
0.0
 11
136.746330067
 21
118.0896427684
 31
0.0
  0
LINE
  5
1D3
330
1F
100
AcDbEntity
  8
0
  6
Continuous
 62
     7
370
    25
100
AcDbLine
 10
137.571330067
 20
118.0896427684
 30
0.0
 11
137.571330067
 21
116.3396427684
 31
0.0
  0
LINE
  5
1D4
330
1F
100
AcDbEntity
  8
0
  6
Continuous
 62
     7
370
    25
100
AcDbLine
 10
148.021330067
 20
116.3396427684
 30
0.0
 11
148.021330067
 21
119.2396427684
 31
0.0
  0
LINE
  5
1D5
330
1F
100
AcDbEntity
  8
0
  6
Continuous
 62
     7
370
    25
100
AcDbLine
 10
132.921330067
 20
126.6896427684
 30
0.0
 11
132.921330067
 21
117.5705828761
 31
0.0
  0
LINE
  5
1D6
330
1F
100
AcDbEntity
  8
0
  6
Continuous
 62
     7
370
    25
100
AcDbLine
 10
128.021330067
 20
129.7896427684
 30
0.0
 11
128.021330067
 21
127.8896427684
 31
0.0
  0
LINE
  5
1D7
330
1F
100
AcDbEntity
  8
0
  6
Continuous
 62
     7
370
    25
100
AcDbLine
 10
134.021330067
 20
143.6146427684
 30
0.0
 11
134.021330067
 21
139.1896427684
 31
0.0
  0
LINE
  5
1D8
330
1F
100
AcDbEntity
  8
0
  6
Continuous
 62
     7
370
    25
100
AcDbLine
 10
152.021330067
 20
137.8396427684
 30
0.0
 11
152.021330067
 21
143.8146427684
 31
0.0
  0
LINE
  5
1D9
330
1F
100
AcDbEntity
  8
0
  6
Continuous
 62
     7
370
    25
100
AcDbLine
 10
177.146328039
 20
134.2283158524
 30
0.0
 11
177.9294468812
 21
134.8396422033
 31
0.0
  0
LINE
  5
1DA
330
1F
100
AcDbEntity
  8
0
  6
Continuous
 62
     7
370
    25
100
AcDbLine
 10
194.021330067
 20
119.6396427684
 30
0.0
 11
194.021330067
 21
127.0655022468
 31
0.0
  0
SPLINE
  5
1DB
330
1F
100
AcDbEntity
  8
0
  6
Continuous
 62
     7
370
    25
100
AcDbSpline
210
0.0
220
0.0
230
1.0
 70
     8
 71
     3
 72
     9
 73
     5
 74
     0
 42
0.000000001
 43
0.00000001
 40
0.0
 40
0.0
 40
0.0
 40
0.0
 40
0.5102121239851395
 40
0.9999999999999999
 40
0.9999999999999999
 40
0.9999999999999999
 40
0.9999999999999999
 10
94.87569346370498
 20
122.8012692850371
 30
0.0
 10
95.25055552068376
 20
122.7987793676554
 30
0.0
 10
95.98527357099356
 20
122.7938992065134
 30
0.0
 10
96.71427416145029
 20
122.788514315127
 30
0.0
 10
97.07132981226368
 20
122.7858768606124
 30
0.0
  0
LINE
  5
1DC
330
1F
100
AcDbEntity
  8
0
  6
Continuous
 62
     7
370
    25
100
AcDbLine
 10
94.8229961169
 20
122.831693576
 30
0.0
 11
94.8756934655
 21
122.8012687475
 31
0.0
  0
LINE
  5
1DD
330
1F
100
AcDbEntity
  8
0
  6
Continuous
 62
     7
370
    25
100
AcDbLine
 10
94.8229961169
 20
131.2752189797
 30
0.0
 11
94.8229961169
 21
122.831693576
 31
0.0
  0
SPLINE
  5
1DE
330
1F
100
AcDbEntity
  8
0
  6
Continuous
 62
     7
370
    25
100
AcDbSpline
210
0.0
220
0.0
230
1.0
 70
    24
 71
     3
 72
     8
 73
     4
 74
     0
 42
0.000000001
 43
0.00000001
 40
0.0000004089325119
 40
0.0000004089325119
 40
0.0000004089325119
 40
0.0000004089325119
 40
0.0015399868451459
 40
0.0015399868451459
 40
0.0015399868451459
 40
0.0015399868451459
 10
94.07133006703387
 20
123.2656681721697
 30
0.0
 10
94.32232114305833
 20
123.1207584068628
 30
0.0
 10
94.57291033956128
 20
122.9760806668058
 30
0.0
 10
94.82299611687343
 20
122.8316935759542
 30
0.0
  0
LINE
  5
1DF
330
1F
100
AcDbEntity
  8
0
  6
Continuous
 62
     7
370
    25
100
AcDbLine
 10
94.071330067
 20
132.5771427684
 30
0.0
 11
94.071330067
 21
123.2656681722
 31
0.0
  0
SPLINE
  5
1E0
330
1F
100
AcDbEntity
  8
0
  6
Continuous
 62
     7
370
    25
100
AcDbSpline
210
0.0
220
0.0
230
1.0
 70
     8
 71
     3
 72
     8
 73
     4
 74
     0
 42
0.000000001
 43
0.00000001
 40
0.0
 40
0.0
 40
0.0
 40
0.0
 40
1.0
 40
1.0
 40
1.0
 40
1.0
 10
97.20101180979064
 20
122.3996434461218
 30
0.0
 10
97.1730635896711
 20
122.5074598000973
 30
0.0
 10
97.1451035015024
 20
122.6150536502636
 30
0.0
 10
97.11713131396819
 20
122.7224229310483
 30
0.0
  0
LINE
  5
1E1
330
1F
100
AcDbEntity
  8
0
  6
Continuous
 62
     7
370
    25
100
AcDbLine
 10
97.2010149483
 20
122.3996427684
 30
0.0
 11
95.5713292802
 21
122.3996427684
 31
0.0
  0
LINE
  5
1E2
330
1F
100
AcDbEntity
  8
0
  6
Continuous
 62
     7
370
    25
100
AcDbLine
 10
95.5713294802
 20
122.3996431072
 30
0.0
 11
94.8756930022
 21
122.801269015
 31
0.0
  0
LINE
  5
1E3
330
1F
100
AcDbEntity
  8
0
  6
Continuous
 62
     7
370
    25
100
AcDbLine
 10
103.6252909643
 20
120.4021427684
 30
0.0
 11
103.3731193363
 21
120.4021427684
 31
0.0
  0
SPLINE
  5
1E4
330
1F
100
AcDbEntity
  8
0
  6
Continuous
 62
     7
370
    25
100
AcDbSpline
210
0.0
220
0.0
230
1.0
 70
     8
 71
     3
 72
    26
 73
    22
 74
     0
 42
0.000000001
 43
0.00000001
 40
0.0
 40
0.0
 40
0.0
 40
0.0
 40
0.0524616379932503
 40
0.1026498591890872
 40
0.150565513457809
 40
0.1962095861957063
 40
0.2395832262568645
 40
0.2806877815599511
 40
0.3195248450380211
 40
0.3560963147430692
 40
0.3904044736547445
 40
0.4224520974433627
 40
0.4522426027417772
 40
0.4797802555366611
 40
0.5050704712281336
 40
0.5966394156799991
 40
0.6841917884819224
 40
0.7679874773571101
 40
0.8483228539139507
 40
0.925534163520116
 40
1.0
 40
1.0
 40
1.0
 40
1.0
 10
103.3713128423645
 20
120.4021725524207
 30
0.0
 10
103.3356764433332
 20
120.4617194725029
 30
0.0
 10
103.2659479429947
 20
120.5782328562895
 30
0.0
 10
103.1524697822349
 20
120.7426308170188
 30
0.0
 10
103.0369442325099
 20
120.8947925548203
 30
0.0
 10
102.9198225364998
 20
121.0346952517529
 30
0.0
 10
102.8024508360204
 20
121.1629095756569
 30
0.0
 10
102.6858298699867
 20
121.2799252545973
 30
0.0
 10
102.5709269495417
 20
121.3863024098413
 30
0.0
 10
102.4586027238524
 20
121.4826184903156
 30
0.0
 10
102.3496337498175
 20
121.5694678368681
 30
0.0
 10
102.2447147089808
 20
121.647448019062
 30
0.0
 10
102.1444573830321
 20
121.7171562161149
 30
0.0
 10
102.049420040449
 20
121.779166205016
 30
0.0
 10
101.8793131360182
 20
121.8836526422818
 30
0.0
 10
101.6263941046131
 20
122.0187113087963
 30
0.0
 10
101.280412947552
 20
122.1630982012133
 30
0.0
 10
100.9324543982276
 20
122.2720661134583
 30
0.0
 10
100.5863146378516
 20
122.3465956957951
 30
0.0
 10
100.2452498544175
 20
122.3915244003445
 30
0.0
 10
100.0195032429018
 20
122.3969694991989
 30
0.0
 10
99.90867303088375
 20
122.3996427683853
 30
0.0
  0
SPLINE
  5
1E5
330
1F
100
AcDbEntity
  8
0
  6
Continuous
 62
     7
370
    25
100
AcDbSpline
210
0.0
220
0.0
230
1.0
 70
     8
 71
     3
 72
     8
 73
     4
 74
     0
 42
0.000000001
 43
0.00000001
 40
0.0
 40
0.0
 40
0.0
 40
0.0
 40
1.0
 40
1.0
 40
1.0
 40
1.0
 10
103.6252909642663
 20
120.4021427683851
 30
0.0
 10
103.6542956706939
 20
120.5260804952475
 30
0.0
 10
103.6733281903754
 20
120.6540326254808
 30
0.0
 10
103.681579782567
 20
120.7851019381723
 30
0.0
  0
LINE
  5
1E6
330
1F
100
AcDbEntity
  8
0
  6
Continuous
 62
     7
370
    25
100
AcDbLine
 10
99.9086730309
 20
122.3996427684
 30
0.0
 11
97.2010149483
 21
122.3996427684
 31
0.0
  0
LINE
  5
1E7
330
1F
100
AcDbEntity
  8
0
  6
Continuous
 62
     7
370
    25
100
AcDbLine
 10
116.671330067
 20
116.4024161792
 30
0.0
 11
116.021330067
 21
116.5521427684
 31
0.0
  0
SPLINE
  5
1E8
330
1F
100
AcDbEntity
  8
0
  6
Continuous
 62
     7
370
    25
100
AcDbSpline
210
0.0
220
0.0
230
1.0
 70
     8
 71
     3
 72
    26
 73
    22
 74
     0
 42
0.000000001
 43
0.00000001
 40
0.0
 40
0.0
 40
0.0
 40
0.0
 40
0.0305951740572542
 40
0.0629166281868252
 40
0.0969720532897518
 40
0.1327680143285475
 40
0.1703101548822826
 40
0.2096033578521445
 40
0.2506518729756858
 40
0.3342141733898277
 40
0.4179517165474626
 40
0.5018670561020881
 40
0.5659795686746639
 40
0.6277136397870199
 40
0.687135819210908
 40
0.7443207393864881
 40
0.7993521466017559
 40
0.8523240127975756
 40
0.903341702807647
 40
0.9525231537633125
 40
1.0
 40
1.0
 40
1.0
 40
1.0
 10
116.0213300670339
 20
116.5521427683853
 30
0.0
 10
116.0204218551892
 20
116.6166779357725
 30
0.0
 10
116.0185541872088
 20
116.7493895563659
 30
0.0
 10
116.0029615981472
 20
116.9522036478895
 30
0.0
 10
115.97631773696
 20
117.1639166887899
 30
0.0
 10
115.9361633078816
 20
117.3836286821628
 30
0.0
 10
115.8812651911985
 20
117.6103755530341
 30
0.0
 10
115.8100222225867
 20
117.8430065568171
 30
0.0
 10
115.6916098283041
 20
118.1584048712938
 30
0.0
 10
115.5034789318962
 20
118.5428867698288
 30
0.0
 10
115.2194621686617
 20
118.9729143843583
 30
0.0
 10
114.9100442121119
 20
119.3314010966992
 30
0.0
 10
114.5941346013103
 20
119.6231677529886
 30
0.0
 10
114.287389193187
 20
119.8556268398258
 30
0.0
 10
113.9689700793649
 20
120.0524370743897
 30
0.0
 10
113.6429992032078
 20
120.214537776648
 30
0.0
 10
113.3134603680826
 20
120.3430076601277
 30
0.0
 10
112.9838984532361
 20
120.4395914795006
 30
0.0
 10
112.6574801299368
 20
120.5054437087868
 30
0.0
 10
112.3369619376329
 20
120.5450086566123
 30
0.0
 10
112.1252964241021
 20
120.5497928548276
 30
0.0
 10
112.0213300670339
 20
120.5521427683853
 30
0.0
  0
SPLINE
  5
1E9
330
1F
100
AcDbEntity
  8
0
  6
Continuous
 62
     7
370
    25
100
AcDbSpline
210
0.0
220
0.0
230
1.0
 70
     8
 71
     3
 72
    13
 73
     9
 74
     0
 42
0.000000001
 43
0.00000001
 40
0.0
 40
0.0
 40
0.0
 40
0.0
 40
0.1604061687300809
 40
0.3231296684563272
 40
0.4883154213007764
 40
0.6561019685773533
 40
0.8266215117792448
 40
1.0
 40
1.0
 40
1.0
 40
1.0
 10
110.1064567877444
 20
120.5521427683853
 30
0.0
 10
110.0474068362293
 20
120.5513871983473
 30
0.0
 10
109.9284538595045
 20
120.5498651428191
 30
0.0
 10
109.7492002258987
 20
120.5374200836916
 30
0.0
 10
109.568267244211
 20
120.5172359025609
 30
0.0
 10
109.3861387498123
 20
120.4881005364203
 30
0.0
 10
109.2029717420179
 20
120.4506843846011
 30
0.0
 10
109.0822324271436
 20
120.4184185122441
 30
0.0
 10
109.0213608955587
 20
120.4021514573056
 30
0.0
  0
SPLINE
  5
1EA
330
1F
100
AcDbEntity
  8
0
  6
Continuous
 62
     7
370
    25
100
AcDbSpline
210
0.0
220
0.0
230
1.0
 70
    24
 71
     3
 72
    10
 73
     6
 74
     0
 42
0.000000001
 43
0.00000001
 40
0.0
 40
0.0
 40
0.0
 40
0.0
 40
0.3216623556917455
 40
0.6548175346390357
 40
1.0
 40
1.0
 40
1.0
 40
1.0
 10
109.0215089019386
 20
120.4021427683853
 30
0.0
 10
108.9529629940814
 20
120.4021427683853
 30
0.0
 10
108.8134220698841
 20
120.4021427683853
 30
0.0
 10
108.6038136545336
 20
120.4021427683853
 30
0.0
 10
108.4641366593797
 20
120.4021427683853
 30
0.0
 10
108.3930598881789
 20
120.4021427683853
 30
0.0
  0
SPLINE
  5
1EB
330
1F
100
AcDbEntity
  8
0
  6
Continuous
 62
     7
370
    25
100
AcDbSpline
210
0.0
220
0.0
230
1.0
 70
     8
 71
     3
 72
     8
 73
     4
 74
     0
 42
0.000000001
 43
0.00000001
 40
0.0
 40
0.0
 40
0.0
 40
0.0
 40
1.0
 40
1.0
 40
1.0
 40
1.0
 10
109.1076601834327
 20
120.7805891175683
 30
0.0
 10
108.8383638533762
 20
120.683899732375
 30
0.0
 10
108.6022031679623
 20
120.5559005629982
 30
0.0
 10
108.3930056517784
 20
120.4024239653535
 30
0.0
  0
LINE
  5
1EC
330
1F
100
AcDbEntity
  8
0
  6
Continuous
 62
     7
370
    25
100
AcDbLine
 10
108.3935513633
 20
104.2771427684
 30
0.0
 11
108.5622393748
 21
104.2771427684
 31
0.0
  0
LINE
  5
1ED
330
1F
100
AcDbEntity
  8
0
  6
Continuous
 62
     7
370
    25
100
AcDbLine
 10
112.021330067
 20
120.5521427684
 30
0.0
 11
110.1064567877
 21
120.5521427684
 31
0.0
  0
LINE
  5
1EE
330
1F
100
AcDbEntity
  8
0
  6
Continuous
 62
     7
370
    25
100
AcDbLine
 10
108.393418249
 20
120.4021427684
 30
0.0
 11
103.6252909643
 21
120.4021427684
 31
0.0
  0
LINE
  5
1EF
330
1F
100
AcDbEntity
  8
0
  6
Continuous
 62
     7
370
    25
100
AcDbLine
 10
116.021330067
 20
112.3396427684
 30
0.0
 11
116.021330067
 21
116.5521427684
 31
0.0
  0
LINE
  5
1F0
330
1F
100
AcDbEntity
  8
VERMASSUNG
  6
CENTERX2
100
AcDbLine
 10
204.016330067
 20
112.3396427684
 30
0.0
 11
84.076330067
 21
112.3396427684
 31
0.0
  0
HATCH
  5
1F1
330
1F
100
AcDbEntity
  8
0
  6
Continuous
 62
     7
370
    18
100
AcDbHatch
 10
0.0
 20
0.0
 30
0.0
210
0.0
220
0.0
230
1.0
  2
ANSI31
 70
     0
 71
     0
 91
        1
 92
        0
 93
       44
 72
     1
 10
142.0463300670339
 20
141.1896427683853
 11
142.0463300670339
 21
141.2872380325769
 72
     1
 10
142.0463300670339
 20
141.2872380325769
 11
140.5871322624638
 21
143.8146427683853
 72
     1
 10
140.5871322624638
 20
143.8146427683853
 11
134.2213300670339
 21
143.8146427683853
 72
     2
 10
134.2213300670339
 20
143.6146427683853
 40
0.2000000000000028
 50
90.0
 51
180.0
 73
     1
 72
     1
 10
134.0213300670339
 20
143.6146427683853
 11
134.0213300670339
 21
139.1896427683853
 72
     1
 10
134.0213300670339
 20
139.1896427683853
 11
134.3553687530625
 21
138.1302074079887
 72
     2
 10
133.5923951924639
 20
137.8896427683853
 40
0.8000000000000049
 50
342.4999999999994
 51
467.4999999999996
 73
     0
 72
     1
 10
133.3518305528605
 20
137.1266692077867
 11
132.8611480270032
 21
137.2813808139136
 72
     1
 10
132.8611480270032
 20
137.2813808139136
 11
119.5396747544837
 21
136.6124038408875
 72
     1
 10
119.5396731610851
 20
136.6124071499559
 11
118.8713430151556
 21
135.8032953275647
 72
     1
 10
118.8713430151556
 20
135.8032953275647
 11
118.8713300670339
 21
130.4458687891369
 72
     1
 10
118.8713331952676
 20
130.4458689140174
 11
119.4972792088098
 21
129.9771440586774
 72
     1
 10
119.4972794571187
 20
129.9771427683853
 11
124.5213300670339
 21
129.9771427683853
 72
     1
 10
124.5213300670339
 20
129.9771427683853
 11
125.3965705406147
 21
130.4824630914129
 72
     2
 10
125.7965705406147
 20
129.7896427683853
 40
0.7999999999999937
 50
240.0000000000031
 51
270.0000000000008
 73
     0
 72
     1
 10
125.7965705406147
 20
130.5896427683853
 11
127.2213300670339
 21
130.5896427683853
 72
     2
 10
127.2213300670339
 20
129.7896427683853
 40
0.7999999999999977
 50
270.0000000000008
 51
360.0000000000008
 73
     0
 72
     1
 10
128.0213300670339
 20
129.7896427683853
 11
128.0213300670339
 21
127.8896427683853
 72
     1
 10
128.0213300670339
 20
127.8896427683853
 11
131.7213300670339
 21
127.8896427683853
 72
     2
 10
131.7213300670339
 20
126.6896427683853
 40
1.2
 50
270.0000000000008
 51
360.0000000000008
 73
     0
 72
     1
 10
132.9213300670339
 20
126.6896427683853
 11
132.9213300670339
 21
117.5705828760612
 72
     1
 10
132.9213300670339
 20
117.5705828760612
 11
133.3213300670339
 21
117.3396427683853
 72
     1
 10
133.3213300670339
 20
117.3396427683853
 11
136.7463300670339
 21
117.3396427683853
 72
     1
 10
136.7463300670339
 20
117.3396427683853
 11
136.7463300670339
 21
118.0896427683853
 72
     1
 10
136.7463300670339
 20
118.0896427683853
 11
137.5713300670339
 21
118.0896427683853
 72
     1
 10
137.5713300670339
 20
118.0896427683853
 11
137.5713300670339
 21
116.3396427683853
 72
     1
 10
137.5713300670339
 20
116.3396427683853
 11
148.0213300670339
 21
116.3396427683853
 72
     1
 10
148.0213300670339
 20
116.3396427683853
 11
148.0213300670339
 21
119.2396427683853
 72
     2
 10
148.4213300670339
 20
119.2396427683853
 40
0.4000000000000058
 50
180.0
 51
270.0000000000008
 73
     0
 72
     1
 10
148.4213300670339
 20
119.6396427683853
 11
151.1265560489141
 21
119.6396427683853
 72
     2
 10
151.1265560489141
 20
119.2396427683853
 40
0.4
 50
270.0000000000008
 51
289.9999999999992
 73
     0
 72
     1
 10
151.2633641062444
 20
119.6155198166996
 11
152.0213300670339
 21
119.3396427683853
 72
     1
 10
152.0213300670339
 20
119.3396427683853
 11
166.8963300670331
 21
119.3396427683859
 72
     1
 10
166.8963300670339
 20
119.3396427683853
 11
166.8963300670339
 21
134.2283158054716
 72
     1
 10
166.8963318989298
 20
134.2283159315744
 11
166.1132130266744
 21
134.8396422847239
 72
     1
 10
166.1132127762522
 20
134.8396427683853
 11
155.0213300670339
 21
134.8396427683853
 72
     2
 10
155.0213300670339
 20
137.8396427683853
 40
3.0
 50
90.0
 51
180.0
 73
     0
 72
     1
 10
152.0213300670339
 20
137.8396427683853
 11
152.0213300670339
 21
143.8146427683853
 72
     1
 10
152.0213300670339
 20
143.8146427683853
 11
147.255527871604
 21
143.8146427683853
 72
     1
 10
147.255527871604
 20
143.8146427683853
 11
145.7963300670339
 21
141.2872380325769
 72
     1
 10
145.7963300670339
 20
141.2872380325769
 11
145.7963300670339
 21
141.1896427683853
 72
     2
 10
144.7963300670339
 20
141.1896427683853
 40
1.000000000000003
 50
0.0
 51
90.0
 73
     0
 72
     1
 10
144.7963300670339
 20
140.1896427683853
 11
143.0463300670339
 21
140.1896427683853
 72
     2
 10
143.0463300670339
 20
141.1896427683853
 40
1.000000000000003
 50
90.0
 51
180.0
 73
     0
 97
        0
 75
     0
 76
     1
 52
0.0
 41
1.0
 77
     0
 78
     1
 53
45.0
 43
0.0
 44
0.0
 45
-2.245064030267288
 46
2.245064030267288
 79
     0
 98
        1
 10
0.0
 20
0.0
  0
HATCH
  5
1F2
330
1F
100
AcDbEntity
  8
0
  6
Continuous
 62
     7
370
    18
100
AcDbHatch
 10
0.0
 20
0.0
 30
0.0
210
0.0
220
0.0
230
1.0
  2
ANSI31
 70
     0
 71
     0
 91
        1
 92
        0
 93
        8
 72
     1
 10
177.1463300670339
 20
119.3396427683853
 11
193.7213300670339
 21
119.3396427683852
 72
     2
 10
193.7213300670339
 20
119.6396427683852
 40
0.2999999999999973
 50
270.0000000000008
 51
360.0000000000008
 73
     1
 72
     1
 10
194.0213300670339
 20
119.6396427683852
 11
194.0213300670339
 21
127.0655022467702
 72
     2
 10
192.0213300670339
 20
127.0655022467702
 40
2.000000000000002
 50
0.0
 51
64.99999999999974
 73
     1
 72
     1
 10
192.8665665905153
 20
128.8781178208436
 11
180.0820350837218
 21
134.8396427683852
 72
     1
 10
180.0820350837218
 20
134.8396427683852
 11
177.9294467044525
 21
134.8396427683852
 72
     1
 10
177.9294468812474
 20
134.8396422033132
 11
177.1463280389504
 21
134.2283158523634
 72
     1
 10
177.1463300670339
 20
134.2283158801292
 11
177.1463300670339
 21
119.3396427683853
 97
        0
 75
     0
 76
     1
 52
0.0
 41
1.0
 77
     0
 78
     1
 53
45.0
 43
0.0
 44
0.0
 45
-2.245064030267288
 46
2.245064030267288
 79
     0
 98
        1
 10
0.0
 20
0.0
  0
HATCH
  5
1F3
330
1F
100
AcDbEntity
  8
0
  6
Continuous
 62
     7
370
    18
100
AcDbHatch
 10
0.0
 20
0.0
 30
0.0
210
0.0
220
0.0
230
1.0
  2
ANSI31
 70
     0
 71
     0
 91
        1
 92
        0
 93
        9
 72
     1
 10
104.3713581976221
 20
135.0039171402682
 11
103.6217682186864
 21
135.8130284780358
 72
     1
 10
103.6217682186864
 20
135.8130284780358
 11
95.57133006703391
 21
135.4087628959677
 72
     1
 10
95.57133006703391
 20
135.4087628959677
 11
94.0713300670339
 21
134.5427374921833
 72
     1
 10
94.0713300670339
 20
134.5427374921833
 11
94.0713300670339
 21
132.5771427683854
 72
     1
 10
94.0713300670339
 20
132.5771427683854
 11
94.82299611687344
 21
131.2752189797387
 72
     1
 10
94.82299611687344
 20
131.2752189797387
 11
97.07133006703388
 21
129.9771427683853
 72
     1
 10
97.07133006703388
 20
129.9771427683853
 11
100.9413299117428
 21
129.9771427683854
 72
     1
 10
100.9413299117428
 20
129.9771427683854
 11
104.3713300670339
 21
134.8756906532893
 72
     1
 10
104.3713300670339
 20
134.8756906532893
 11
104.3713300670339
 21
135.003916026775
 97
        0
 75
     0
 76
     1
 52
0.0
 41
1.0
 77
     0
 78
     1
 53
45.0
 43
0.0
 44
0.0
 45
-2.245064030267288
 46
2.245064030267288
 79
     0
 98
        1
 10
0.0
 20
0.0
  0
HATCH
  5
1F4
330
1F
100
AcDbEntity
  8
0
  6
Continuous
 62
     7
370
    18
100
AcDbHatch
 10
0.0
 20
0.0
 30
0.0
210
0.0
220
0.0
230
1.0
  2
ANSI31
 70
     0
 71
     0
 91
        1
 92
        0
 93
       15
 72
     1
 10
168.0213300670339
 20
118.3396427683852
 11
169.2713300670339
 21
118.3396427683852
 72
     1
 10
169.2713300670339
 20
118.3396427683852
 11
172.0213300670339
 21
119.9273560086567
 72
     1
 10
172.0213300670339
 20
119.9273560086567
 11
174.7713300670339
 21
118.3396427683852
 72
     1
 10
174.7713300670339
 20
118.3396427683852
 11
176.0213300670339
 21
118.3396427683852
 72
     1
 10
176.0213300670339
 20
118.3396427683852
 11
178.0213300670339
 21
120.3396427683852
 72
     1
 10
178.0213300670339
 20
120.3396427683852
 11
178.0213300670339
 21
133.9396427683853
 72
     1
 10
178.0213300670339
 20
133.9396427683853
 11
177.1213300670339
 21
134.8396427683853
 72
     1
 10
177.1213300670339
 20
134.8396427683853
 11
175.0213300670339
 21
134.8396427683853
 72
     1
 10
175.0213300670339
 20
134.8396427683853
 11
175.0213300670339
 21
126.8396427683852
 72
     1
 10
175.0213300670339
 20
126.8396427683852
 11
169.0213300670339
 21
126.8396427683852
 72
     1
 10
169.0213300670339
 20
126.8396427683852
 11
169.0213300670339
 21
134.8396427683853
 72
     1
 10
169.0213300670339
 20
134.8396427683853
 11
166.9213300670339
 21
134.8396427683853
 72
     1
 10
166.9213300670339
 20
134.8396427683853
 11
166.0213300670339
 21
133.9396427683853
 72
     1
 10
166.0213300670339
 20
133.9396427683853
 11
166.0213300670339
 21
120.3396427683853
 72
     1
 10
166.0213300670339
 20
120.3396427683853
 11
168.0213300670339
 21
118.3396427683852
 97
        0
 75
     0
 76
     1
 52
0.0
 41
1.0
 77
     0
 78
     1
 53
45.0
 43
0.0
 44
0.0
 45
-2.245064030267288
 46
2.245064030267288
 79
     0
 98
        1
 10
0.0
 20
0.0
  0
DIMENSION
  5
1F5
330
1F
100
AcDbEntity
  8
VERMASSUNG
100
AcDbDimension
  2
_D
 10
216.021330067
 20
105.3396427684
 30
0.0
 11
216.021330067
 21
112.3396427684
 31
0.0
 70
   160
  1
%%c<>
 71
     2
 42
-1.0
  3
SLDDIMSTYLE0
100
AcDbAlignedDimension
 13
166.896330067
 23
119.3396427684
 33
0.0
 14
193.721330067
 24
105.3396427684
 34
0.0
 50
90.0
100
AcDbRotatedDimension
  0
DIMENSION
  5
1FF
330
1F
100
AcDbEntity
  8
VERMASSUNG
100
AcDbDimension
  2
_D_1
 10
228.021330067
 20
89.8396427684
 30
0.0
 11
228.021330067
 21
112.3396427684
 31
0.0
 70
   160
  1
%%c<>
 71
     2
 42
-1.0
  3
SLDDIMSTYLE1
100
AcDbAlignedDimension
 13
180.0820350837
 23
134.8396427684
 33
0.0
 14
180.0820350837
 24
89.8396427684
 34
0.0
 50
90.0
100
AcDbRotatedDimension
  0
DIMENSION
  5
20B
330
1F
100
AcDbEntity
  8
VERMASSUNG
100
AcDbDimension
  2
_D_2
 10
194.021330067
 20
149.9270100624
 30
0.0
 11
173.021330067
 21
149.9270100624
 31
0.0
 70
   160
  1
<>
 71
     2
 42
-1.0
  3
SLDDIMSTYLE1
100
AcDbAlignedDimension
 13
152.021330067
 23
143.8146427684
 33
0.0
 14
194.021330067
 24
127.0655022468
 34
0.0
 50
0.0
100
AcDbRotatedDimension
  0
DIMENSION
  5
215
330
1F
100
AcDbEntity
  8
VERMASSUNG
100
AcDbDimension
  2
_D_3
 10
194.021330067
 20
158.0567049405
 30
0.0
 11
164.021330067
 21
158.0567049405
 31
0.0
 70
   160
  1
<>
 71
     2
 42
-1.0
  3
SLDDIMSTYLE1
100
AcDbAlignedDimension
 13
134.021330067
 23
143.6146427684
 33
0.0
 14
194.021330067
 24
127.0655022468
 34
0.0
 50
0.0
100
AcDbRotatedDimension
  0
DIMENSION
  5
21F
330
1F
100
AcDbEntity
  8
VERMASSUNG
100
AcDbDimension
  2
_D_4
 10
194.021330067
 20
167.428188377
 30
0.0
 11
144.046330067
 21
167.428188377
 31
0.0
 70
   160
  1
<>
 71
     2
 42
-1.0
  3
SLDDIMSTYLE1
100
AcDbAlignedDimension
 13
94.071330067
 23
134.5427374922
 33
0.0
 14
194.021330067
 24
127.0655022468
 34
0.0
 50
0.0
100
AcDbRotatedDimension
  0
DIMENSION
  5
229
330
1F
100
AcDbEntity
  8
VERMASSUNG
100
AcDbDimension
  2
_D_5
 10
74.4340410246
 20
80.8646427684
 30
0.0
 11
74.4340410246
 21
112.3396427684
 31
0.0
 70
   160
  1
KM%%c<> XMZ
 71
     2
 42
-1.0
  3
SLDDIMSTYLE2
100
AcDbAlignedDimension
 13
147.2555278716
 23
143.8146427684
 33
0.0
 14
147.2555278716
 24
80.8646427684
 34
0.0
 50
90.0
100
AcDbRotatedDimension
  0
LINE
  5
237
330
1F
100
AcDbEntity
  8
VERMASSUNG
  6
CENTERX2
370
    18
100
AcDbLine
 10
111.621330067
 20
137.752950548
 30
0.0
 11
111.621330067
 21
122.7506933618
 31
0.0
  0
LINE
  5
238
330
1F
100
AcDbEntity
  8
VERMASSUNG
  6
CENTERX2
370
    18
100
AcDbLine
 10
111.8355142003
 20
133.266143521
 30
0.0
 11
104.4812473587
 21
122.7631619901
 31
0.0
  0
LINE
  5
239
330
1F
100
AcDbEntity
  8
VERMASSUNG
  6
CENTERX2
370
    18
100
AcDbLine
 10
172.021330067
 20
116.3396427684
 30
0.0
 11
172.021330067
 21
136.8396427684
 31
0.0
  0
LINE
  5
23A
330
1F
100
AcDbEntity
  8
0
  6
Continuous
 62
     7
370
    25
100
AcDbLine
 10
265.460826291
 20
23.3001282809
 30
0.0
 11
270.8962426557
 21
23.4116112053
 31
0.0
  0
LINE
  5
23B
330
1F
100
AcDbEntity
  8
0
  6
Continuous
 62
     7
370
    25
100
AcDbLine
 10
278.7023155393
 20
36.933591182
 30
0.0
 11
276.0807074665
 21
41.6962953102
 31
0.0
  0
SPLINE
  5
23C
330
1F
100
AcDbEntity
  8
0
  6
Continuous
 62
     7
370
    25
100
AcDbSpline
210
0.0
220
0.0
230
1.0
 70
     8
 71
     3
 72
    30
 73
    26
 74
     0
 42
0.000000001
 43
0.00000001
 40
0.0
 40
0.0
 40
0.0
 40
0.0
 40
0.0263046768668642
 40
0.0691106840103699
 40
0.1128736873588747
 40
0.1573806651430093
 40
0.202333970390028
 40
0.2474683319134281
 40
0.2925730773656284
 40
0.3375832612791544
 40
0.3824861780396251
 40
0.4272970747738148
 40
0.4720450152841981
 40
0.5167654687013207
 40
0.5614968564166984
 40
0.6062676499317003
 40
0.6511167236367703
 40
0.6960843393662659
 40
0.7412076521267406
 40
0.7865144582116658
 40
0.8320103227632353
 40
0.8776550828579398
 40
0.9232742251862164
 40
0.9685777166132248
 40
1.0
 40
1.0
 40
1.0
 40
1.0
 10
270.9002205378472
 20
23.42175430141667
 30
0.0
 10
271.0279886348653
 20
23.42381405780334
 30
0.0
 10
271.3636757305219
 20
23.42922568758683
 30
0.0
 10
271.9229572507197
 20
23.53745014574439
 30
0.0
 10
272.5732531628299
 20
23.73460432375395
 30
0.0
 10
273.2327595573314
 20
24.02272511403915
 30
0.0
 10
273.8920661661667
 20
24.39363776280567
 30
0.0
 10
274.5422856208461
 20
24.84326794889496
 30
0.0
 10
275.1751162387422
 20
25.36451231599047
 30
0.0
 10
275.7833729166362
 20
25.9501643407113
 30
0.0
 10
276.3608561614813
 20
26.5928770911284
 30
0.0
 10
276.9018458260527
 20
27.28514426703923
 30
0.0
 10
277.400972590626
 20
28.01923825264002
 30
0.0
 10
277.8531841044686
 20
28.78722272571671
 30
0.0
 10
278.2537186346478
 20
29.58091665777523
 30
0.0
 10
278.5981772811144
 20
30.3920085424236
 30
0.0
 10
278.8825463320935
 20
31.21215393980003
 30
0.0
 10
279.1032073142264
 20
32.03313530776663
 30
0.0
 10
279.2568318013079
 20
32.84682765097868
 30
0.0
 10
279.340426015696
 20
33.64525195718642
 30
0.0
 10
279.3508492369969
 20
34.42009582326473
 30
0.0
 10
279.2864908374289
 20
35.16334393362771
 30
0.0
 10
279.1417518637055
 20
35.86225983522037
 30
0.0
 10
278.9508224077267
 20
36.45286130850178
 30
0.0
 10
278.7731546395974
 20
36.78139965031763
 30
0.0
 10
278.7003925596783
 20
36.91594928380149
 30
0.0
  0
LINE
  5
23D
330
1F
100
AcDbEntity
  8
0
  6
Continuous
 62
     7
370
    25
100
AcDbLine
 10
254.43089798
 20
28.9409881405
 30
0.0
 11
263.2911952093
 21
23.8260474246
 31
0.0
  0
LINE
  5
23E
330
1F
100
AcDbEntity
  8
0
  6
Continuous
 62
     7
370
    25
100
AcDbLine
 10
274.5402809515
 20
43.3121468282
 30
0.0
 11
265.6799837222
 21
48.4270875441
 31
0.0
  0
LINE
  5
23F
330
1F
100
AcDbEntity
  8
0
  6
Continuous
 62
     7
370
    25
100
AcDbLine
 10
249.4417046268
 20
26.6396098474
 30
0.0
 11
251.1266701519
 21
25.6668999544
 31
0.0
  0
LINE
  5
240
330
1F
100
AcDbEntity
  8
0
  6
Continuous
 62
     7
370
    25
100
AcDbLine
 10
266.8628912068
 20
52.9257878979
 30
0.0
 11
265.1779256817
 21
53.8984977908
 31
0.0
  0
SPLINE
  5
241
330
1F
100
AcDbEntity
  8
0
  6
Continuous
 62
     7
370
    25
100
AcDbSpline
210
0.0
220
0.0
230
1.0
 70
     8
 71
     3
 72
     9
 73
     5
 74
     0
 42
0.000000001
 43
0.00000001
 40
0.0
 40
0.0
 40
0.0
 40
0.0
 40
0.5318087089447555
 40
1.0
 40
1.0
 40
1.0
 40
1.0
 10
271.4175562928857
 20
28.52180974052435
 30
0.0
 10
271.383683865552
 20
28.64685303274806
 30
0.0
 10
271.3199909873348
 20
28.88198136013447
 30
0.0
 10
271.3111544878392
 20
29.16352723137737
 30
0.0
 10
271.307017315732
 20
29.29534455632587
 30
0.0
  0
SPLINE
  5
242
330
1F
100
AcDbEntity
  8
0
  6
Continuous
 62
     7
370
    25
100
AcDbSpline
210
0.0
220
0.0
230
1.0
 70
     8
 71
     3
 72
    11
 73
     7
 74
     0
 42
0.000000001
 43
0.00000001
 40
0.0
 40
0.0
 40
0.0
 40
0.0
 40
0.2409751659320809
 40
0.6205344958886063
 40
0.9926513754351171
 40
0.9999999999999999
 40
0.9999999999999999
 40
0.9999999999999999
 40
0.9999999999999999
 10
271.9438761612446
 20
27.7938876691469
 30
0.0
 10
271.8870466157264
 20
27.82996126565315
 30
0.0
 10
271.7407050072736
 20
27.92285428612816
 30
0.0
 10
271.5677060383733
 20
28.16934393228379
 30
0.0
 10
271.4483502658583
 20
28.38187412049857
 30
0.0
 10
271.4181413111916
 20
28.51915126902968
 30
0.0
 10
271.4175562928857
 20
28.52180974052435
 30
0.0
  0
LINE
  5
243
330
1F
100
AcDbEntity
  8
0
  6
Continuous
 62
     7
370
    25
100
AcDbLine
 10
271.3070173157
 20
29.2953445563
 30
0.0
 11
271.3088369925
 21
29.346038076
 31
0.0
  0
LINE
  5
244
330
1F
100
AcDbEntity
  8
0
  6
Continuous
 62
     7
370
    25
100
AcDbLine
 10
244.8334197993
 20
29.299916052
 30
0.0
 11
247.0840707494
 21
28.0006429144
 31
0.0
  0
LINE
  5
245
330
1F
100
AcDbEntity
  8
0
  6
Continuous
 62
     7
370
    25
100
AcDbLine
 10
262.8202918042
 20
55.2595308578
 30
0.0
 11
260.5696408542
 21
56.5588039955
 31
0.0
  0
LINE
  5
246
330
1F
100
AcDbEntity
  8
0
  6
Continuous
 62
     7
370
    25
100
AcDbLine
 10
253.7922519813
 20
56.3386860309
 30
0.0
 11
244.5950394248
 21
60.9193386899
 31
0.0
  0
LINE
  5
247
330
1F
100
AcDbEntity
  8
0
  6
Continuous
 62
     7
370
    25
100
AcDbLine
 10
233.0686917131
 20
40.9529554285
 30
0.0
 11
241.6347920253
 21
35.2790658425
 31
0.0
  0
LINE
  5
248
330
1F
100
AcDbEntity
  8
0
  6
Continuous
 62
     7
370
    25
100
AcDbLine
 10
238.0481292615
 20
41.8994454661
 30
0.0
 11
238.0481292615
 21
41.5341264494
 31
0.0
  0
LINE
  5
249
330
1F
100
AcDbEntity
  8
0
  6
Continuous
 62
     7
370
    25
100
AcDbLine
 10
241.9460957624
 20
61.2963071637
 30
0.0
 11
241.3065453099
 21
61.2090960982
 31
0.0
  0
LWPOLYLINE
  5
24A
330
1F
100
AcDbEntity
  8
0
  6
Continuous
 62
     7
370
    25
100
AcDbPolyline
 90
       29
 70
   128
 43
0.0
 10
260.9607867921
 20
28.9768014974
 10
260.9990920568
 20
29.8993083536
 10
261.1136389505
 20
30.8571572819
 10
261.3033243238
 20
31.8411236734
 10
261.566321403
 20
32.8417313938
 10
261.9000973824
 20
33.8493440438
 10
262.3014378168
 20
34.8542577629
 10
262.7664775785
 20
35.8467946824
 10
263.2907380804
 20
36.8173961294
 10
263.8691704072
 20
37.7567146813
 10
264.4962039395
 20
38.6557041869
 10
265.1658000015
 20
39.5057068859
 10
265.8715100171
 20
40.2985367877
 10
266.6065376131
 20
41.0265585068
 10
267.3638040719
 20
41.6827607962
 10
268.1360165037
 20
42.2608240691
 10
268.9157380804
 20
42.7551812601
 10
269.6954596572
 20
43.1610714393
 10
270.4676720889
 20
43.4745856623
 10
271.2249385477
 20
43.6927046159
 10
271.9599661437
 20
43.8133276952
 10
272.6656761593
 20
43.8352932341
 10
273.3352722213
 20
43.7583896923
 10
273.9623057536
 20
43.5833576931
 10
274.5407380804
 20
43.3118828904
 10
275.0649985823
 20
42.9465797347
 10
275.530038344
 20
42.4909662953
 10
275.9313787785
 20
41.9494303786
 10
276.0807074665
 20
41.6962953102
  0
LWPOLYLINE
  5
24B
330
1F
100
AcDbEntity
  8
0
  6
Continuous
 62
     7
370
    25
100
AcDbPolyline
 90
       13
 70
   128
 43
0.0
 10
265.460826291
 20
23.3001282809
 10
265.1658000015
 20
23.3029010187
 10
264.4962039395
 20
23.3798045604
 10
263.8691704072
 20
23.5548365596
 10
263.2907380804
 20
23.8263113624
 10
262.7664775785
 20
24.191614518
 10
262.3014378168
 20
24.6472279575
 10
261.9000973824
 20
25.1887638741
 10
261.566321403
 20
25.8110069812
 10
261.3033243238
 20
26.5079647374
 10
261.1136389505
 20
27.2729250585
 10
260.9990920568
 20
28.0985209584
 10
260.9607867921
 20
28.9768014974
  0
LWPOLYLINE
  5
24C
330
1F
100
AcDbEntity
  8
0
  6
Continuous
 62
     7
370
    25
100
AcDbPolyline
 90
        3
 70
   128
 43
0.0
 10
265.7099774263
 20
48.4095869155
 10
265.6804408511
 20
48.4268236063
 10
265.6799837222
 20
48.4270875441
  0
LWPOLYLINE
  5
24D
330
1F
100
AcDbEntity
  8
0
  6
Continuous
 62
     7
370
    25
100
AcDbPolyline
 90
       12
 70
   128
 43
0.0
 10
271.2630833329
 20
29.2341139479
 10
271.3022936071
 20
29.7742860649
 10
271.4187330452
 20
30.3433165444
 10
271.608863694
 20
30.9239156831
 10
271.8669085297
 20
31.4984422702
 10
272.1850269907
 20
32.0494396059
 10
272.5535532086
 20
32.560165915
 10
272.9612897006
 20
33.0151030372
 10
273.3958475998
 20
33.400427938
 10
273.8440230842
 20
33.7044327154
 10
274.2921985687
 20
33.9178803381
 10
274.639367367
 20
34.0185332318
  0
ARC
  5
24E
330
1F
100
AcDbEntity
  8
0
  6
Continuous
 62
     7
370
    25
100
AcDbCircle
 10
270.8666051271
 20
32.4643709232
 30
0.0
 40
5.575095963238604
100
AcDbArc
 50
300.9013357247
 51
349.6834704645
  0
LWPOLYLINE
  5
24F
330
1F
100
AcDbEntity
  8
0
  6
Continuous
 62
     7
370
    25
100
AcDbPolyline
 90
       39
 70
   128
 43
0.0
 10
247.8666877104
 20
32.8722325962
 10
247.9046957898
 20
33.9553444672
 10
248.0184603941
 20
35.0749407801
 10
248.2072043959
 20
36.2233735569
 10
248.4696384821
 20
37.3927978373
 10
248.8039699618
 20
38.5752252677
 10
249.2079150122
 20
39.7625786697
 10
249.6787142788
 20
40.9467472157
 10
250.2131517252
 20
42.1196418337
 10
250.8075766019
 20
43.2732504642
 10
251.4579283841
 20
44.3996927905
 10
252.1597645098
 20
45.4912740694
 10
252.9082907266
 20
46.5405376938
 10
253.6983938413
 20
47.5403161292
 10
254.5246766486
 20
48.4837798753
 10
255.3814947991
 20
49.3644841178
 10
256.2629953559
 20
50.1764127539
 10
257.1631567765
 20
50.9140194877
 10
258.0758300456
 20
51.5722657172
 10
258.9947806793
 20
52.1466549532
 10
259.9137313131
 20
52.6332635349
 10
260.8264045821
 20
53.0287674322
 10
261.7265660027
 20
53.3304649524
 10
262.6080665596
 20
53.5362951957
 10
263.4648847101
 20
53.6448521326
 10
264.2911675174
 20
53.6553942093
 10
265.0812706321
 20
53.5678494127
 10
265.8297968488
 20
53.3828157625
 10
266.5316329745
 20
53.1015572262
 10
267.1819847568
 20
52.7259950847
 10
267.7764096334
 20
52.2586948083
 10
268.3108470799
 20
51.7028485317
 10
268.7816463465
 20
51.0622532487
 10
269.1855913968
 20
50.3412848745
 10
269.5199228766
 20
49.5448683542
 10
269.7823569628
 20
48.6784440202
 10
269.9711009645
 20
47.7479304292
 10
270.0848655689
 20
46.7596839326
 10
270.1221884735
 20
45.8626573266
  0
LWPOLYLINE
  5
250
330
1F
100
AcDbEntity
  8
0
  6
Continuous
 62
     7
370
    25
100
AcDbPolyline
 90
       20
 70
   128
 43
0.0
 10
258.8731027313
 20
26.376557923
 10
258.0758300456
 20
25.9594243174
 10
257.1631567765
 20
25.5639204201
 10
256.2629953559
 20
25.2622228999
 10
255.3814947991
 20
25.0563926566
 10
254.5246766486
 20
24.9478357197
 10
253.6983938413
 20
24.937293643
 10
252.9082907266
 20
25.0248384396
 10
252.1597645098
 20
25.2098720898
 10
251.4579283841
 20
25.4911306261
 10
250.8075766019
 20
25.8666927676
 10
250.2131517252
 20
26.333993044
 10
249.6787142788
 20
26.8898393206
 10
249.2079150122
 20
27.5304346036
 10
248.8039699618
 20
28.2514029778
 10
248.4696384821
 20
29.0478194981
 10
248.2072043959
 20
29.9142438321
 10
248.0184603941
 20
30.8447574231
 10
247.9046957898
 20
31.8330039197
 10
247.8666877104
 20
32.8722325962
  0
SPLINE
  5
251
330
1F
100
AcDbEntity
  8
0
  6
Continuous
 62
     7
370
    25
100
AcDbSpline
210
0.0
220
0.0
230
1.0
 70
     8
 71
     3
 72
    25
 73
    21
 74
     0
 42
0.000000001
 43
0.00000001
 40
0.0
 40
0.0
 40
0.0
 40
0.0
 40
0.1249999999999998
 40
0.1249999999999998
 40
0.2499999999999997
 40
0.2499999999999997
 40
0.3749999999999995
 40
0.3749999999999995
 40
0.4999999999999993
 40
0.4999999999999993
 40
0.5624999999999996
 40
0.5624999999999996
 40
0.6249999999999998
 40
0.6875000000000001
 40
0.6875000000000001
 40
0.7500000000000003
 40
0.7500000000000003
 40
0.8750000000000001
 40
0.8750000000000001
 40
1.0
 40
1.0
 40
1.0
 40
1.0
 10
252.7002765554672
 20
49.30404719181956
 30
0.0
 10
252.7293998537282
 20
49.19286167129037
 30
0.0
 10
252.7417888945875
 20
49.07761945886234
 30
0.0
 10
252.7348114094872
 20
48.83852389102655
 30
0.0
 10
252.7147938216351
 20
48.71374992115128
 30
0.0
 10
252.6445716639219
 20
48.46738101193886
 30
0.0
 10
252.5939210093283
 20
48.34316986457774
 30
0.0
 10
252.464006265673
 20
48.09954136926758
 30
0.0
 10
252.3863053176838
 20
47.98248427420942
 30
0.0
 10
252.2509317354576
 20
47.81382775635938
 30
0.0
 10
252.2022972381505
 20
47.75846073508722
 30
0.0
 10
252.1008579027685
 20
47.6527409236902
 30
0.0
 10
251.9949879200278
 20
47.55157996506976
 30
0.0
 10
251.8803961277003
 20
47.45940564339296
 30
0.0
 10
251.7613134584821
 20
47.37186880065284
 30
0.0
 10
251.6993554454247
 20
47.33037033114066
 30
0.0
 10
251.5114917419041
 20
47.21625000940255
 30
0.0
 10
251.3821143055501
 20
47.15264257828795
 30
0.0
 10
251.114431052488
 20
47.05137427731372
 30
0.0
 10
250.978559366023
 20
47.01483336908893
 30
0.0
 10
250.8430420992954
 20
46.99366518473886
 30
0.0
  0
LWPOLYLINE
  5
252
330
1F
100
AcDbEntity
  8
0
  6
Continuous
 62
     7
370
    25
100
AcDbPolyline
 90
       16
 70
   128
 43
0.0
 10
252.7002765555
 20
49.3040471918
 10
253.5634200347
 20
50.2064917927
 10
254.4528086312
 20
51.039320345
 10
255.3622117934
 20
51.7966985246
 10
256.285258759
 20
52.4733205699
 10
257.215483185
 20
53.0644464511
 10
258.1463684473
 20
53.5659350758
 10
259.0713932921
 20
53.9742732994
 10
259.9840775207
 20
54.2866005363
 10
260.8780273853
 20
54.5007287989
 10
261.7469803808
 20
54.6151580264
 10
262.5848491158
 20
54.6290865925
 10
263.3857639577
 20
54.5424169217
 10
264.1441141518
 20
54.3557561723
 10
264.8545871271
 20
54.0704119836
 10
265.1779256817
 20
53.8984977908
  0
LWPOLYLINE
  5
253
330
1F
100
AcDbEntity
  8
0
  6
Continuous
 62
     7
370
    25
100
AcDbPolyline
 90
       22
 70
   128
 43
0.0
 10
249.4417046268
 20
26.6396098474
 10
248.8726703308
 20
27.0194722436
 10
248.2998470509
 20
27.5258667236
 10
247.789129756
 20
28.120100381
 10
247.3440388361
 20
28.7980771451
 10
246.9676423164
 20
29.5551237015
 10
246.6625347096
 20
30.386021705
 10
246.4308191318
 20
31.2850437505
 10
246.2740928054
 20
32.2459928515
 10
246.19343605
 20
33.2622451565
 10
246.1894048349
 20
34.3267956074
 10
246.2620269474
 20
35.4323062254
 10
246.4108018011
 20
36.5711566922
 10
246.6347038864
 20
37.7354968768
 10
246.9321898394
 20
38.9173009466
 10
247.3012090803
 20
40.1084226902
 10
247.7392179482
 20
41.3006516691
 10
248.2431972347
 20
42.4857698126
 10
248.8096729951
 20
43.655608065
 10
249.4347404948
 20
44.8021026957
 10
250.1140911244
 20
45.9173508822
 10
250.8430420993
 20
46.9936651847
  0
ARC
  5
254
330
1F
100
AcDbEntity
  8
0
  6
Continuous
 62
     7
370
    25
100
AcDbCircle
 10
274.7441029069
 20
32.4841041472
 30
0.0
 40
1.484217079932029
100
AcDbArc
 50
351.5997119987
 51
115.6261266862
  0
LINE
  5
255
330
1F
100
AcDbEntity
  8
0
  6
Continuous
 62
     7
370
    25
100
AcDbLine
 10
271.9880992849
 20
27.7541183421
 30
0.0
 11
271.9343131243
 21
27.7871384152
 31
0.0
  0
LWPOLYLINE
  5
256
330
1F
100
AcDbEntity
  8
0
  6
Continuous
 62
     7
370
    25
100
AcDbPolyline
 90
       13
 70
   128
 43
0.0
 10
251.0376553107
 20
49.4283240313
 10
251.8684986045
 20
50.3176168616
 10
252.7273890207
 20
51.1368979499
 10
253.6076342902
 20
51.8797836535
 10
254.5023757521
 20
52.5404855844
 10
255.4046417946
 20
53.113855711
 10
256.3074021761
 20
53.5954264701
 10
257.2036228034
 20
53.9814455775
 10
258.0863205393
 20
54.2689052643
 10
258.9486176138
 20
54.4555657134
 10
259.7837952141
 20
54.5399725111
 10
260.5853458357
 20
54.5214679799
 10
260.8382058159
 20
54.4932104389
  0
SPLINE
  5
257
330
1F
100
AcDbEntity
  8
0
  6
Continuous
 62
     7
370
    25
100
AcDbSpline
210
0.0
220
0.0
230
1.0
 70
     8
 71
     3
 72
    26
 73
    22
 74
     0
 42
0.000000001
 43
0.00000001
 40
0.0
 40
0.0
 40
0.0
 40
0.0
 40
0.1250000000000009
 40
0.1250000000000009
 40
0.2500000000000019
 40
0.2500000000000019
 40
0.3125000000000011
 40
0.3125000000000011
 40
0.3750000000000004
 40
0.3750000000000004
 40
0.4375000000000002
 40
0.4375000000000002
 40
0.5000000000000001
 40
0.5000000000000001
 40
0.5625
 40
0.5625
 40
0.6249999999999999
 40
0.6249999999999999
 40
0.7500000000000001
 40
0.7500000000000001
 40
1.0
 40
1.0
 40
1.0
 40
1.0
 10
249.6934620698396
 20
47.75616041869439
 30
0.0
 10
249.6698244736076
 20
47.86573627826737
 30
0.0
 10
249.6522566947258
 20
47.97662553663191
 30
0.0
 10
249.6334441118564
 20
48.20195549649485
 30
0.0
 10
249.632264337089
 20
48.31763240981322
 30
0.0
 10
249.6483623403244
 20
48.48898791967278
 30
0.0
 10
249.6566810574246
 20
48.54578643176694
 30
0.0
 10
249.6804382066816
 20
48.65861264416403
 30
0.0
 10
249.6960605857305
 20
48.71506549783018
 30
0.0
 10
249.7349177981276
 20
48.82364861423878
 30
0.0
 10
249.7581437548301
 20
48.87602857446433
 30
0.0
 10
249.8131424043084
 20
48.97648534973644
 30
0.0
 10
249.845220671331
 20
49.02476421750788
 30
0.0
 10
249.9156354198661
 20
49.11246119309162
 30
0.0
 10
249.9542138419928
 20
49.15245032106758
 30
0.0
 10
250.037922105589
 20
49.22492900518317
 30
0.0
 10
250.0830508155309
 20
49.25726562955979
 30
0.0
 10
250.222331457721
 20
49.34046539691343
 30
0.0
 10
250.3231205292826
 20
49.37929411954953
 30
0.0
 10
250.6261928005153
 20
49.4547104070047
 30
0.0
 10
250.8347168910003
 20
49.45458026063395
 30
0.0
 10
251.0376553106908
 20
49.42832403130772
 30
0.0
  0
LWPOLYLINE
  5
258
330
1F
100
AcDbEntity
  8
0
  6
Continuous
 62
     7
370
    25
100
AcDbPolyline
 90
       19
 70
   128
 43
0.0
 10
246.7564836751
 20
30.1003092113
 10
246.5314530987
 20
30.4130794242
 10
246.1314840643
 20
31.1015320621
 10
245.8022721598
 20
31.86751795
 10
245.5463123068
 20
32.705232089
 10
245.3655442886
 20
33.6083258897
 10
245.2613380498
 20
34.5699552853
 10
245.234483314
 20
35.5828325989
 10
245.285183599
 20
36.6392817727
 10
245.4130546742
 20
37.7312965413
 10
245.6171274728
 20
38.8506011064
 10
245.895855436
 20
39.9887128549
 10
246.2471262328
 20
41.1370066441
 10
246.6682777691
 20
42.2867801671
 10
247.1561183616
 20
43.4293199026
 10
247.7069509264
 20
44.5559671507
 10
248.3166009969
 20
45.6581836521
 10
248.9804483599
 20
46.7276162948
 10
249.6934620698
 20
47.7561604187
  0
LINE
  5
259
330
1F
100
AcDbEntity
  8
0
  6
Continuous
 62
     7
370
    25
100
AcDbLine
 10
248.2180701002
 20
27.512239563
 30
0.0
 11
248.3320572864
 21
27.5661097112
 31
0.0
  0
LWPOLYLINE
  5
25A
330
1F
100
AcDbEntity
  8
0
  6
Continuous
 62
     7
370
    25
100
AcDbPolyline
 90
       43
 70
   128
 43
0.0
 10
248.2180701002
 20
27.512239563
 10
247.5113349721
 20
27.7794271169
 10
246.8551532106
 20
28.1407165312
 10
246.2539829371
 20
28.5936531932
 10
245.7119085233
 20
29.1351598355
 10
245.2326128415
 20
29.7615574434
 10
244.819352243
 20
30.4685902499
 10
244.4749344346
 20
31.2514546497
 10
244.2016994028
 20
32.1048318351
 10
244.0015035158
 20
33.0229239319
 10
243.8757069115
 20
33.9994933909
 10
243.8251642562
 20
35.0279053654
 10
243.8502189384
 20
36.101172789
 10
243.950700736
 20
37.2120038457
 10
244.1259269719
 20
38.3528515111
 10
244.3747071532
 20
39.5159648267
 10
244.6953510587
 20
40.6934415606
 10
245.0856802226
 20
41.8772818951
 10
245.5430427352
 20
43.0594427781
 10
246.0643312597
 20
44.2318925679
 10
246.6460041439
 20
45.3866656002
 10
247.2841094821
 20
46.515916307
 10
247.9743119648
 20
47.6119725201
 10
248.7119223324
 20
48.6673875959
 10
249.4919292345
 20
49.6749910077
 10
250.3090332775
 20
50.6279370634
 10
251.1576830281
 20
51.5197514144
 10
252.0321127309
 20
52.3443750434
 10
252.9263814801
 20
53.0962054289
 10
253.834413583
 20
53.7701346093
 10
254.7500398382
 20
54.3615838867
 10
255.6670394493
 20
54.866534934
 10
256.5791822893
 20
55.2815570966
 10
257.4802712283
 20
55.6038306994
 10
258.3641842369
 20
55.8311662046
 10
259.2249159797
 20
55.9620190869
 10
260.0566186154
 20
55.9955003272
 10
260.8536415278
 20
55.9313824529
 10
261.6105697155
 20
55.770101083
 10
262.3222605825
 20
55.5127519687
 10
262.9838788763
 20
55.1610835488
 10
263.5909295394
 20
54.7174850706
 10
263.9103301614
 20
54.4252286475
  0
LWPOLYLINE
  5
25B
330
1F
100
AcDbEntity
  8
0
  6
Continuous
 62
     7
370
    25
100
AcDbPolyline
 90
       25
 70
   128
 43
0.0
 10
241.5734373578
 20
36.586889505
 10
241.6112039244
 20
37.663119013
 10
241.7242456401
 20
38.7756011317
 10
241.9117903153
 20
39.9167364802
 10
242.1725568299
 20
41.0787299471
 10
242.5047638841
 20
42.2536439387
 10
242.9061421668
 20
43.4334526011
 10
243.3739498574
 20
44.6100966448
 10
243.9049913551
 20
45.7755383978
 10
244.4956391078
 20
46.9218167114
 10
245.1418583927
 20
48.0411013422
 10
245.8392348766
 20
49.1257464414
 10
246.583004771
 20
50.1683427831
 10
247.3680873735
 20
51.161768377
 10
248.1891197738
 20
52.0992371191
 10
249.040493488
 20
52.9743451472
 10
249.9163927705
 20
53.7811145862
 10
250.8108343409
 20
54.5140343829
 10
251.7177082564
 20
55.1680979516
 10
252.6308196486
 20
55.7388373752
 10
253.5439310409
 20
56.2223539246
 10
254.4508049564
 20
56.6153446915
 10
255.3452465268
 20
56.9151251505
 10
256.2211458093
 20
57.119647497
 10
256.9298683029
 20
57.2160452572
  0
ARC
  5
25C
330
1F
100
AcDbEntity
  8
0
  6
Continuous
 62
     7
370
    25
100
AcDbCircle
 10
253.7312117832
 20
36.4778508085
 30
0.0
 40
12.15623180558203
100
AcDbArc
 50
180.8571235828
 51
191.8646627492
  0
SPLINE
  5
25D
330
1F
100
AcDbEntity
  8
0
  6
Continuous
 62
     7
370
    25
100
AcDbSpline
210
0.0
220
0.0
230
1.0
 70
     8
 71
     3
 72
    10
 73
     6
 74
     0
 42
0.000000001
 43
0.00000001
 40
0.0
 40
0.0
 40
0.0
 40
0.0
 40
0.5
 40
0.5
 40
1.0
 40
1.0
 40
1.0
 40
1.0
 10
250.4201501374709
 20
46.29310713787466
 30
0.0
 10
250.3161856466866
 20
46.36644551094504
 30
0.0
 10
250.2263773702593
 20
46.45368126873844
 30
0.0
 10
250.0743349422606
 20
46.65461180993444
 30
0.0
 10
250.0124293538997
 20
46.76878257613141
 30
0.0
 10
249.9679796493092
 20
46.89180025929151
 30
0.0
  0
SPLINE
  5
25E
330
1F
100
AcDbEntity
  8
0
  6
Continuous
 62
     7
370
    25
100
AcDbSpline
210
0.0
220
0.0
230
1.0
 70
     8
 71
     3
 72
    14
 73
    10
 74
     0
 42
0.000000001
 43
0.00000001
 40
0.0
 40
0.0
 40
0.0
 40
0.0
 40
0.25
 40
0.25
 40
0.5
 40
0.5
 40
0.75
 40
0.75
 40
1.0
 40
1.0
 40
1.0
 40
1.0
 10
249.9679796493092
 20
46.89180025929151
 30
0.0
 10
249.9452588464441
 20
46.95468167894906
 30
0.0
 10
249.9233443360946
 20
47.02372810842247
 30
0.0
 10
249.8812332820318
 20
47.17138062504124
 30
0.0
 10
249.8617117281187
 20
47.24778041189955
 30
0.0
 10
249.823365485945
 20
47.40211270329515
 30
0.0
 10
249.8050058930612
 20
47.4790652996268
 30
0.0
 10
249.7630024484795
 20
47.62445546714278
 30
0.0
 10
249.7392261274665
 20
47.69104637333581
 30
0.0
 10
249.7107646233643
 20
47.73154198856715
 30
0.0
  0
LINE
  5
25F
330
1F
100
AcDbEntity
  8
0
  6
Continuous
 62
     7
370
    25
100
AcDbLine
 10
249.7107646234
 20
47.7315419886
 30
0.0
 11
249.6934620698
 21
47.7561604187
 31
0.0
  0
LINE
  5
260
330
1F
100
AcDbEntity
  8
0
  6
Continuous
 62
     7
370
    25
100
AcDbLine
 10
251.0376553107
 20
49.4283240313
 30
0.0
 11
251.0549578642
 21
49.4037056012
 31
0.0
  0
SPLINE
  5
261
330
1F
100
AcDbEntity
  8
0
  6
Continuous
 62
     7
370
    25
100
AcDbSpline
210
0.0
220
0.0
230
1.0
 70
     8
 71
     3
 72
    16
 73
    12
 74
     0
 42
0.000000001
 43
0.00000001
 40
0.0
 40
0.0
 40
0.0
 40
0.0
 40
0.1250000000000001
 40
0.1250000000000001
 40
0.2500000000000003
 40
0.2500000000000003
 40
0.5000000000000002
 40
0.5000000000000002
 40
0.7500000000000001
 40
0.7500000000000001
 40
1.0
 40
1.0
 40
1.0
 40
1.0
 10
251.0549578642155
 20
49.40370560118043
 30
0.0
 10
251.0691102706196
 20
49.38356926536764
 30
0.0
 10
251.0907686750933
 20
49.36677184469022
 30
0.0
 10
251.1431866041286
 20
49.33992632335873
 30
0.0
 10
251.173779483267
 20
49.32970083879775
 30
0.0
 10
251.2728603321245
 20
49.30520039836506
 30
0.0
 10
251.3467428697404
 20
49.29694047596357
 30
0.0
 10
251.4998424621317
 20
49.28575450925864
 30
0.0
 10
251.5779264367793
 20
49.28315783750746
 30
0.0
 10
251.7372700705214
 20
49.28112883667375
 30
0.0
 10
251.815922965353
 20
49.28176642533598
 30
0.0
 10
251.8916754331456
 20
49.28485952615101
 30
0.0
  0
SPLINE
  5
262
330
1F
100
AcDbEntity
  8
0
  6
Continuous
 62
     7
370
    25
100
AcDbSpline
210
0.0
220
0.0
230
1.0
 70
     8
 71
     3
 72
    10
 73
     6
 74
     0
 42
0.000000001
 43
0.00000001
 40
0.0
 40
0.0
 40
0.0
 40
0.0
 40
0.5
 40
0.5
 40
1.0
 40
1.0
 40
1.0
 40
1.0
 10
251.8916754331456
 20
49.28485952615101
 30
0.0
 10
252.0398697730464
 20
49.29091055058478
 30
0.0
 10
252.182094238777
 20
49.28074832037164
 30
0.0
 10
252.4544856291177
 20
49.22969788443157
 30
0.0
 10
252.5846129589863
 20
49.18833678178702
 30
0.0
 10
252.7026883011716
 20
49.13256291383473
 30
0.0
  0
ARC
  5
263
330
1F
100
AcDbEntity
  8
0
  6
Continuous
 62
     7
370
    25
100
AcDbCircle
 10
235.3909792406
 20
44.4141049147
 30
0.0
 40
4.16804212142559
100
AcDbArc
 50
211.8182858313
 51
236.1400299393
  0
SPLINE
  5
264
330
1F
100
AcDbEntity
  8
0
  6
Continuous
 62
     7
370
    25
100
AcDbSpline
210
0.0
220
0.0
230
1.0
 70
     8
 71
     3
 72
     8
 73
     4
 74
     0
 42
0.000000001
 43
0.00000001
 40
0.0
 40
0.0
 40
0.0
 40
0.0
 40
1.0
 40
1.0
 40
1.0
 40
1.0
 10
233.2797346320348
 20
41.29185849459606
 30
0.0
 10
232.8029613402107
 20
41.59995130252871
 30
0.0
 10
232.3261589633658
 20
41.90818074810146
 30
0.0
 10
231.8493265188401
 20
42.21654590432137
 30
0.0
  0
SPLINE
  5
265
330
1F
100
AcDbEntity
  8
0
  6
Continuous
 62
     7
370
    25
100
AcDbSpline
210
0.0
220
0.0
230
1.0
 70
     8
 71
     3
 72
    23
 73
    19
 74
     0
 42
0.000000001
 43
0.00000001
 40
0.0
 40
0.0
 40
0.0
 40
0.0
 40
0.0521036415675031
 40
0.1035646240925967
 40
0.1544751946736949
 40
0.2049306267473421
 40
0.2550287880844035
 40
0.3048696389141012
 40
0.3545546704609132
 40
0.4041862979523234
 40
0.4538672252126086
 40
0.5036997999421611
 40
0.5901870230746071
 40
0.674271637822954
 40
0.7565997087222995
 40
0.8378563983721267
 40
0.9187511781367398
 40
1.0
 40
1.0
 40
1.0
 40
1.0
 10
234.1602994355764
 20
41.11712779647597
 30
0.0
 10
234.1550304966363
 20
41.10720633424114
 30
0.0
 10
234.144557607136
 20
41.0874857835102
 30
0.0
 10
234.1253113113733
 20
41.06291795455797
 30
0.0
 10
234.1035155710406
 20
41.04222937229874
 30
0.0
 10
234.0788642798356
 20
41.02569843700176
 30
0.0
 10
234.0513677652967
 20
41.0131809374256
 30
0.0
 10
234.0209567112894
 20
41.0046463136032
 30
0.0
 10
233.9875863395168
 20
41.00003644095513
 30
0.0
 10
233.9512104512449
 20
40.99930169781866
 30
0.0
 10
233.9117820796558
 20
41.00239678036995
 30
0.0
 10
233.8589336881059
 20
41.01093255584908
 30
0.0
 10
233.7903946943357
 20
41.02852899469614
 30
0.0
 10
233.7026734623814
 20
41.06016560278201
 30
0.0
 10
233.6079425428874
 20
41.10234526011472
 30
0.0
 10
233.5059082955575
 20
41.15508169584172
 30
0.0
 10
233.3969943823684
 20
41.21739825175253
 30
0.0
 10
233.3188780713824
 20
41.26700231000365
 30
0.0
 10
233.2797346320348
 20
41.29185849459606
 30
0.0
  0
SPLINE
  5
266
330
1F
100
AcDbEntity
  8
0
  6
Continuous
 62
     7
370
    25
100
AcDbSpline
210
0.0
220
0.0
230
1.0
 70
     8
 71
     3
 72
     8
 73
     4
 74
     0
 42
0.000000001
 43
0.00000001
 40
0.0
 40
0.0
 40
0.0
 40
0.0
 40
1.0
 40
1.0
 40
1.0
 40
1.0
 10
235.6338024620316
 20
40.16980765991892
 30
0.0
 10
235.1424351499898
 20
40.48568227988669
 30
0.0
 10
234.6510489500631
 20
40.80166830117645
 30
0.0
 10
234.1596432399187
 20
41.11776518201941
 30
0.0
  0
SPLINE
  5
267
330
1F
100
AcDbEntity
  8
0
  6
Continuous
 62
     7
370
    25
100
AcDbSpline
210
0.0
220
0.0
230
1.0
 70
     8
 71
     3
 72
    18
 73
    14
 74
     0
 42
0.000000001
 43
0.00000001
 40
0.0
 40
0.0
 40
0.0
 40
0.0
 40
0.0923824559439141
 40
0.1844689291621674
 40
0.2764953616012182
 40
0.3686975365563128
 40
0.4613092840072771
 40
0.5545607518505636
 40
0.6486768051587679
 40
0.7438756050178583
 40
0.8403674044309957
 40
0.9203921078131376
 40
1.0
 40
1.0
 40
1.0
 40
1.0
 10
236.4473665812299
 20
39.52549993537542
 30
0.0
 10
236.4237990671061
 20
39.54077390964139
 30
0.0
 10
236.3767395464536
 20
39.57127292212281
 30
0.0
 10
236.3043417584891
 20
39.62090549473469
 30
0.0
 10
236.2308595495926
 20
39.67323503740387
 30
0.0
 10
236.1561601018471
 20
39.72855272311206
 30
0.0
 10
236.080299312079
 20
39.78679103822564
 30
0.0
 10
236.0032880312928
 20
39.84798394986287
 30
0.0
 10
235.9251558992128
 20
39.91214766644378
 30
0.0
 10
235.8459296645704
 20
39.97929662630988
 30
0.0
 10
235.7706331801617
 20
40.04514753605558
 30
0.0
 10
235.6998058720406
 20
40.10867912286345
 30
0.0
 10
235.6559015012337
 20
40.14933986787673
 30
0.0
 10
235.6340066344287
 20
40.169617156445
 30
0.0
  0
LINE
  5
268
330
1F
100
AcDbEntity
  8
0
  6
Continuous
 62
     7
370
    25
100
AcDbLine
 10
237.0870728494
 20
39.113746006
 30
0.0
 11
236.4473665812
 21
39.5254999354
 31
0.0
  0
SPLINE
  5
269
330
1F
100
AcDbEntity
  8
0
  6
Continuous
 62
     7
370
    25
100
AcDbSpline
210
0.0
220
0.0
230
1.0
 70
     8
 71
     3
 72
    25
 73
    21
 74
     0
 42
0.000000001
 43
0.00000001
 40
0.0
 40
0.0
 40
0.0
 40
0.0
 40
0.0280105225426451
 40
0.0559601148860766
 40
0.0839014045043116
 40
0.1118870776786362
 40
0.1399695827588919
 40
0.1682008401739851
 40
0.1966319670424188
 40
0.2253130233141458
 40
0.2542927850735824
 40
0.3799486436570461
 40
0.50578502216665
 40
0.6313085886322404
 40
0.7532068238012486
 40
0.8039473267955931
 40
0.8535894438554454
 40
0.9025339722394081
 40
0.9511970353791097
 40
1.0
 40
1.0
 40
1.0
 40
1.0
 10
238.1894387062201
 20
39.82965211925249
 30
0.0
 10
238.1943868137507
 20
39.80202825814501
 30
0.0
 10
238.2042722653862
 20
39.7468406250397
 30
0.0
 10
238.2158079149895
 20
39.66767991766977
 30
0.0
 10
238.2248810368022
 20
39.5913765785714
 30
0.0
 10
238.2312498455151
 20
39.51818081760178
 30
0.0
 10
238.2349660843253
 20
39.4480333493884
 30
0.0
 10
238.2360027053081
 20
39.38095706287562
 30
0.0
 10
238.2343542300812
 20
39.31695315364917
 30
0.0
 10
238.2300080782123
 20
39.25602430038234
 30
0.0
 10
238.2151517536449
 20
39.13413617888622
 30
0.0
 10
238.1700634965786
 20
38.97923530723222
 30
0.0
 10
238.0567039760882
 20
38.84829218888877
 30
0.0
 10
237.8948797540948
 20
38.79241578807645
 30
0.0
 10
237.7208645349619
 20
38.81228984046056
 30
0.0
 10
237.5695036142749
 20
38.85960764281619
 30
0.0
 10
237.4591033815765
 20
38.90452306655158
 30
0.0
 10
237.3419438861278
 20
38.96189879784274
 30
0.0
 10
237.2183782191939
 20
39.03057586229556
 30
0.0
 10
237.1308831690988
 20
39.08599610824875
 30
0.0
 10
237.0870728494172
 20
39.11374600597904
 30
0.0
  0
ARC
  5
26A
330
1F
100
AcDbEntity
  8
0
  6
Continuous
 62
     7
370
    25
100
AcDbCircle
 10
249.3824370383
 20
41.6157026554
 30
0.0
 40
11.33460136834021
100
AcDbArc
 50
170.9338278112
 51
189.0661721888
  0
SPLINE
  5
26B
330
1F
100
AcDbEntity
  8
0
  6
Continuous
 62
     7
370
    25
100
AcDbSpline
210
0.0
220
0.0
230
1.0
 70
     8
 71
     3
 72
    26
 73
    22
 74
     0
 42
0.000000001
 43
0.00000001
 40
0.0
 40
0.0
 40
0.0
 40
0.0
 40
0.0241259796957183
 40
0.048215991226154
 40
0.072320391510906
 40
0.0964895678693673
 40
0.1207736231945699
 40
0.1452220711225729
 40
0.1698835501642671
 40
0.1948055644460739
 40
0.2200342569510659
 40
0.245614219161033
 40
0.3690971486881772
 40
0.4940698769484976
 40
0.6192566784762282
 40
0.7454656653603126
 40
0.7971495824713628
 40
0.8481710308405337
 40
0.8988013269235202
 40
0.9493179290492171
 40
1.0
 40
1.0
 40
1.0
 40
1.0
 10
237.0870728494172
 20
46.87785639734361
 30
0.0
 10
237.1087910787926
 20
46.8635248739489
 30
0.0
 10
237.1521951589677
 20
46.83488319328051
 30
0.0
 10
237.2155022763277
 20
46.78689089535256
 30
0.0
 10
237.2773638440447
 20
46.73529169746749
 30
0.0
 10
237.3376683591806
 20
46.67971690459462
 30
0.0
 10
237.3964582111203
 20
46.62026166396758
 30
0.0
 10
237.4537387295502
 20
46.55689735513005
 30
0.0
 10
237.509529868877
 20
46.48962857716575
 30
0.0
 10
237.5638511162998
 20
46.41845446320502
 30
0.0
 10
237.6167300915101
 20
46.34336532345583
 30
0.0
 10
237.7335249162473
 20
46.16411087475667
 30
0.0
 10
237.8953944741749
 20
45.85380540291288
 30
0.0
 10
238.0585793817055
 20
45.38389161478035
 30
0.0
 10
238.17009078688
 20
44.88492858086797
 30
0.0
 10
238.2172246249883
 20
44.4760449078109
 30
0.0
 10
238.2323435645209
 20
44.1717729512202
 30
0.0
 10
238.2342967035034
 20
43.97052370952488
 30
0.0
 10
238.2278186778643
 20
43.77486378980229
 30
0.0
 10
238.2136917551772
 20
43.58422750190482
 30
0.0
 10
238.1975318634922
 20
43.46264422816601
 30
0.0
 10
238.1894387062201
 20
43.40175319156712
 30
0.0
  0
LINE
  5
26C
330
1F
100
AcDbEntity
  8
0
  6
Continuous
 62
     7
370
    25
100
AcDbLine
 10
236.4473665812
 20
47.2908314103
 30
0.0
 11
237.0870728494
 21
46.8778563973
 31
0.0
  0
SPLINE
  5
26D
330
1F
100
AcDbEntity
  8
0
  6
Continuous
 62
     7
370
    25
100
AcDbSpline
210
0.0
220
0.0
230
1.0
 70
     8
 71
     3
 72
    14
 73
    10
 74
     0
 42
0.000000001
 43
0.00000001
 40
0.0
 40
0.0
 40
0.0
 40
0.0
 40
0.0789261963166806
 40
0.1582328720532219
 40
0.3308475394593821
 40
0.5000195457654665
 40
0.6670357883621003
 40
0.8332395193691069
 40
1.0
 40
1.0
 40
1.0
 40
1.0
 10
235.6334138653778
 20
47.49941368062931
 30
0.0
 10
235.6551307467135
 20
47.5010168444878
 30
0.0
 10
235.6986691999286
 20
47.50423090057487
 30
0.0
 10
235.7901943185783
 20
47.50505194064161
 30
0.0
 10
235.9071026520128
 20
47.49711595885683
 30
0.0
 10
236.0479229903964
 20
47.47084028997835
 30
0.0
 10
236.1851352982089
 20
47.42788269144616
 30
0.0
 10
236.3190659726244
 20
47.36952556663751
 30
0.0
 10
236.4045520645824
 20
47.31709202048837
 30
0.0
 10
236.4473665812299
 20
47.29083141033449
 30
0.0
  0
SPLINE
  5
26E
330
1F
100
AcDbEntity
  8
0
  6
Continuous
 62
     7
370
    25
100
AcDbSpline
210
0.0
220
0.0
230
1.0
 70
     8
 71
     3
 72
     8
 73
     4
 74
     0
 42
0.000000001
 43
0.00000001
 40
0.0
 40
0.0
 40
0.0
 40
0.0
 40
1.0
 40
1.0
 40
1.0
 40
1.0
 10
233.8311102823742
 20
48.66180509204091
 30
0.0
 10
234.4318685060698
 20
48.27453760888235
 30
0.0
 10
235.0325973689296
 20
47.88707025895938
 30
0.0
 10
235.633298013276
 20
47.49940336637011
 30
0.0
  0
SPLINE
  5
26F
330
1F
100
AcDbEntity
  8
0
  6
Continuous
 62
     7
370
    25
100
AcDbSpline
210
0.0
220
0.0
230
1.0
 70
     8
 71
     3
 72
    13
 73
     9
 74
     0
 42
0.000000001
 43
0.00000001
 40
0.0
 40
0.0
 40
0.0
 40
0.0
 40
0.1667030582308039
 40
0.3329480818053005
 40
0.4990671507274865
 40
0.6653938523718437
 40
0.8322612710550082
 40
1.0
 40
1.0
 40
1.0
 40
1.0
 10
233.4892817473398
 20
48.96286987112669
 30
0.0
 10
233.5095829297798
 20
48.94930476444746
 30
0.0
 10
233.5501295149684
 20
48.92221182268462
 30
0.0
 10
233.6092791519561
 20
48.8770172496769
 30
0.0
 10
233.6670506968585
 20
48.82860610119395
 30
0.0
 10
233.7233004343182
 20
48.77657098642348
 30
0.0
 10
233.7782276430643
 20
48.72127301921447
 30
0.0
 10
233.8134483526549
 20
48.68165576405409
 30
0.0
 10
233.8311045645958
 20
48.66179555505317
 30
0.0
  0
SPLINE
  5
270
330
1F
100
AcDbEntity
  8
0
  6
Continuous
 62
     7
370
    25
100
AcDbSpline
210
0.0
220
0.0
230
1.0
 70
     8
 71
     3
 72
     8
 73
     4
 74
     0
 42
0.000000001
 43
0.00000001
 40
0.0
 40
0.0
 40
0.0
 40
0.0
 40
1.0
 40
1.0
 40
1.0
 40
1.0
 10
231.5453012315491
 20
50.21759172350616
 30
0.0
 10
232.1933313039493
 20
49.79959640762141
 30
0.0
 10
232.8413242810512
 20
49.38135564520378
 30
0.0
 10
233.4892817473398
 20
48.96286987112669
 30
0.0
  0
LWPOLYLINE
  5
271
330
1F
100
AcDbEntity
  8
0
  6
Continuous
 62
     7
370
    25
100
AcDbPolyline
 90
       21
 70
   128
 43
0.0
 10
231.5453012316
 20
50.2175917237
 10
231.892959104
 20
51.2387721649
 10
232.3078096826
 20
52.2559939877
 10
232.785950955
 20
53.2596893809
 10
233.3228856076
 20
54.2404177602
 10
233.9135633265
 20
55.1889545651
 10
234.5524282999
 20
56.0963780237
 10
235.2334714751
 20
56.9541530688
 10
235.9502870785
 20
57.7542116176
 10
236.6961328673
 20
58.4890284586
 10
237.4639935458
 20
59.1516920326
 10
238.2466467502
 20
59.7359694414
 10
239.0367309806
 20
60.2363650732
 10
239.8268148424
 20
60.648172294
 10
240.6094669441
 20
60.9675177166
 10
241.3773257964
 20
61.1913976337
 10
242.1231690525
 20
61.3177062696
 10
242.8399814407
 20
61.3452555873
 10
243.5210207483
 20
61.2737864628
 10
244.1598812382
 20
61.1039711222
 10
244.5950394248
 20
60.9193386899
  0
SPLINE
  5
272
330
1F
100
AcDbEntity
  8
0
  6
Continuous
 62
     7
370
    25
100
AcDbSpline
210
0.0
220
0.0
230
1.0
 70
    11
 71
     3
 72
    39
 73
    35
 74
     0
 42
0.000000001
 43
0.00000001
 40
0.0
 40
0.0
 40
0.0
 40
0.0
 40
0.0310664058348413
 40
0.0621048158426138
 40
0.0931361551796939
 40
0.1235538293503726
 40
0.1538561545809849
 40
0.1850588072749156
 40
0.2160250992946587
 40
0.2471867223797568
 40
0.2784462884304475
 40
0.3100516090231247
 40
0.3419834369138969
 40
0.3734259894013238
 40
0.4048604886787081
 40
0.436874065183343
 40
0.4685120685926471
 40
0.499805535863323
 40
0.5309508213226204
 40
0.5618649784438111
 40
0.5930416446590877
 40
0.623374245013332
 40
0.6540913579072549
 40
0.6849496782718453
 40
0.7158160645166705
 40
0.7471731804043553
 40
0.7784514311866318
 40
0.810129591156098
 40
0.8419598919688388
 40
0.8735175891922303
 40
0.9050808037886594
 40
0.9370235169792582
 40
0.9687441590030581
 40
1.0
 40
1.0
 40
1.0
 40
1.0
 10
244.7538867127545
 20
59.22278209884757
 30
0.0
 10
245.0167723329526
 20
59.19424761155748
 30
0.0
 10
245.5436609434361
 20
59.10830512323587
 30
0.0
 10
246.3076730125121
 20
58.90793000316342
 30
0.0
 10
247.014823200563
 20
58.6609278969439
 30
0.0
 10
247.6277342651585
 20
58.3829460187908
 30
0.0
 10
248.1248655908288
 20
58.08881232146208
 30
0.0
 10
248.4840573119023
 20
57.78730579326985
 30
0.0
 10
248.7057765806612
 20
57.48030828836743
 30
0.0
 10
248.7710284580433
 20
57.16980302696575
 30
0.0
 10
248.6841812469294
 20
56.85065854221692
 30
0.0
 10
248.4418356591711
 20
56.52133857664472
 30
0.0
 10
248.0618977964446
 20
56.18239785508707
 30
0.0
 10
247.5480918432849
 20
55.84455939067644
 30
0.0
 10
246.9222010323748
 20
55.51866148936559
 30
0.0
 10
246.208730045883
 20
55.22201459612611
 30
0.0
 10
245.4448275696186
 20
54.96591128768915
 30
0.0
 10
244.659034486717
 20
54.77688371969837
 30
0.0
 10
243.8774970316771
 20
54.66870779764512
 30
0.0
 10
243.1213840469246
 20
54.6610439142754
 30
0.0
 10
242.4190194605311
 20
54.75896594966155
 30
0.0
 10
241.7999991134884
 20
54.98061438316405
 30
0.0
 10
241.2909418484747
 20
55.31648247007578
 30
0.0
 10
240.9179982550408
 20
55.75629303625655
 30
0.0
 10
240.6893963037924
 20
56.26736767677919
 30
0.0
 10
240.6205499970731
 20
56.81855276454263
 30
0.0
 10
240.7051664102982
 20
57.37622469285438
 30
0.0
 10
240.948275200233
 20
57.90630483377338
 30
0.0
 10
241.3304050430508
 20
58.3788291828861
 30
0.0
 10
241.8465406174611
 20
58.76495069377933
 30
0.0
 10
242.473518477963
 20
59.04857488111247
 30
0.0
 10
243.1894259103268
 20
59.21831209983888
 30
0.0
 10
243.9578693025124
 20
59.2798509345502
 30
0.0
 10
244.4893980818849
 20
59.25149058229464
 30
0.0
 10
244.7538867127544
 20
59.22278209884757
 30
0.0
  0
LINE
  5
273
330
1F
100
AcDbEntity
  8
0
  6
Continuous
 62
     7
370
    25
100
AcDbLine
 10
235.529349725
 20
42.7836550721
 30
0.0
 11
235.8433943321
 21
42.6155112877
 31
0.0
  0
LINE
  5
274
330
1F
100
AcDbEntity
  8
0
  6
Continuous
 62
     7
370
    25
100
AcDbLine
 10
234.542390686
 20
43.3534143976
 30
0.0
 11
235.529349725
 21
42.7836550721
 31
0.0
  0
ARC
  5
275
330
1F
100
AcDbEntity
  8
0
  6
Continuous
 62
     7
370
    25
100
AcDbCircle
 10
236.7662119277
 20
46.9247524308
 30
0.0
 40
4.462267193777544
100
AcDbArc
 50
267.6359980982
 51
287.0346845948
  0
SPLINE
  5
276
330
1F
100
AcDbEntity
  8
0
  6
Continuous
 62
     7
370
    25
100
AcDbSpline
210
0.0
220
0.0
230
1.0
 70
     8
 71
     3
 72
    25
 73
    21
 74
     0
 42
0.000000001
 43
0.00000001
 40
0.0
 40
0.0
 40
0.0
 40
0.0
 40
0.0749889634923826
 40
0.1506151987128984
 40
0.2067741001978609
 40
0.2632754695450081
 40
0.3209372172108091
 40
0.3790388980908418
 40
0.4352123111491754
 40
0.49183907470946
 40
0.5499385337278951
 40
0.6085642772234834
 40
0.6600794000249139
 40
0.7119620781777397
 40
0.7649977203287219
 40
0.818430133110391
 40
0.8694556121987845
 40
0.9208295048930727
 40
0.9732963533911116
 40
1.0
 40
1.0
 40
1.0
 40
1.0
 10
246.0923925075811
 20
56.22028646598477
 30
0.0
 10
245.9926100927667
 20
56.27634792514277
 30
0.0
 10
245.7921972915301
 20
56.38894726533869
 30
0.0
 10
245.4906201852335
 20
56.53997867156846
 30
0.0
 10
245.2019550853516
 20
56.67317563657036
 30
0.0
 10
244.9293444941882
 20
56.78885989471999
 30
0.0
 10
244.6433777613474
 20
56.89927138472351
 30
0.0
 10
244.3489845875218
 20
57.00082189106649
 30
0.0
 10
244.049412525767
 20
57.09116680690011
 30
0.0
 10
243.7449345799821
 20
57.16900525250423
 30
0.0
 10
243.4332639240392
 20
57.23298245435424
 30
0.0
 10
243.1303646012944
 20
57.27833899609962
 30
0.0
 10
242.8405477753202
 20
57.30526150438642
 30
0.0
 10
242.564143388057
 20
57.31504827322701
 30
0.0
 10
242.2896193797129
 20
57.30749604037172
 30
0.0
 10
242.0237381957137
 20
57.28166678425155
 30
0.0
 10
241.7690630197825
 20
57.23828891850705
 30
0.0
 10
241.5265571239669
 20
57.17658137617445
 30
0.0
 10
241.3295583557446
 20
57.11239362056961
 30
0.0
 10
241.2190685555179
 20
57.06175517837922
 30
0.0
 10
241.1818011293745
 20
57.04467519090093
 30
0.0
  0
SPLINE
  5
277
330
1F
100
AcDbEntity
  8
0
  6
Continuous
 62
     7
370
    25
100
AcDbSpline
210
0.0
220
0.0
230
1.0
 70
     8
 71
     3
 72
    10
 73
     6
 74
     0
 42
0.000000001
 43
0.00000001
 40
0.0
 40
0.0
 40
0.0
 40
0.0
 40
0.3798174487124792
 40
0.9603712743694167
 40
1.0
 40
1.0
 40
1.0
 40
1.0
 10
247.2322729566278
 20
55.69205944320353
 30
0.0
 10
247.1026202982805
 20
55.76238814910293
 30
0.0
 10
246.7747925769781
 20
55.94021481066976
 30
0.0
 10
246.3668641733324
 20
56.11326711116799
 30
0.0
 10
246.1102313747611
 20
56.21247275776768
 30
0.0
 10
246.0938329276566
 20
56.21881184831763
 30
0.0
  0
SPLINE
  5
278
330
1F
100
AcDbEntity
  8
0
  6
Continuous
 62
     7
370
    25
100
AcDbSpline
210
0.0
220
0.0
230
1.0
 70
     8
 71
     3
 72
    25
 73
    21
 74
     0
 42
0.000000001
 43
0.00000001
 40
0.0
 40
0.0
 40
0.0
 40
0.0
 40
0.0472533917872508
 40
0.0895736156386787
 40
0.1269632240823441
 40
0.1594267770588481
 40
0.2428507964512297
 40
0.3183672309096812
 40
0.3935858487026566
 40
0.4205144052940519
 40
0.4483683787012357
 40
0.4771558249980066
 40
0.5451773830434189
 40
0.6363664722698907
 40
0.696894012283923
 40
0.7498726465123202
 40
0.7959807071598741
 40
0.8771243677046747
 40
0.9543028052275159
 40
1.0
 40
1.0
 40
1.0
 40
1.0
 10
244.6990077717094
 20
58.64892423632512
 30
0.0
 10
244.5586036873464
 20
58.66424036347102
 30
0.0
 10
244.2924534490004
 20
58.69327364201781
 30
0.0
 10
243.9196748458384
 20
58.70054029521597
 30
0.0
 10
243.5971142364346
 20
58.68715384277093
 30
0.0
 10
243.1679974409462
 20
58.64119604742456
 30
0.0
 10
242.6603800135356
 20
58.52417545178579
 30
0.0
 10
242.1175712498053
 20
58.28159216213205
 30
0.0
 10
241.7771706444799
 20
58.02424180812172
 30
0.0
 10
241.5705448108253
 20
57.80943095852574
 30
0.0
 10
241.4525607911947
 20
57.66292925371789
 30
0.0
 10
241.3003907332428
 20
57.4331770331505
 30
0.0
 10
241.1337091607365
 20
57.06023570067721
 30
0.0
 10
241.0653488493809
 20
56.59767661479975
 30
0.0
 10
241.1157030357869
 20
56.16934274877118
 30
0.0
 10
241.2211329109772
 20
55.84941683669004
 30
0.0
 10
241.4033316709852
 20
55.50895057560717
 30
0.0
 10
241.7042106860171
 20
55.17300270678248
 30
0.0
 10
242.0938953867902
 20
54.89994399498107
 30
0.0
 10
242.3868142324656
 20
54.80598832412157
 30
0.0
 10
242.4957501483451
 20
54.77104640348976
 30
0.0
  0
SPLINE
  5
279
330
1F
100
AcDbEntity
  8
0
  6
Continuous
 62
     7
370
    25
100
AcDbSpline
210
0.0
220
0.0
230
1.0
 70
     8
 71
     3
 72
    22
 73
    18
 74
     0
 42
0.000000001
 43
0.00000001
 40
0.0
 40
0.0
 40
0.0
 40
0.0
 40
0.0348562881197234
 40
0.0924900456867643
 40
0.1569277512440201
 40
0.2282085045255817
 40
0.2894089389015432
 40
0.3420696599366521
 40
0.3861903415761853
 40
0.4217735618017079
 40
0.5236918804936475
 40
0.6145479382150776
 40
0.7067592537278896
 40
0.7559111263212961
 40
0.8071360145824484
 40
0.8951475406773878
 40
1.0
 40
1.0
 40
1.0
 40
1.0
 10
247.962752195661
 20
56.13177993071229
 30
0.0
 10
248.0003880010453
 20
56.16695330921863
 30
0.0
 10
248.1002534068939
 20
56.26028474410451
 30
0.0
 10
248.2190777793568
 20
56.41562961871671
 30
0.0
 10
248.3154888673587
 20
56.60435814485714
 30
0.0
 10
248.34676551934
 20
56.79033767050434
 30
0.0
 10
248.3173592928024
 20
56.96214888974808
 30
0.0
 10
248.2488647691185
 20
57.10895677928088
 30
0.0
 10
248.1610520241329
 20
57.23016591567028
 30
0.0
 10
248.006760441139
 20
57.39575080818303
 30
0.0
 10
247.7389342999696
 20
57.60591407197948
 30
0.0
 10
247.2873644785498
 20
57.86135858816642
 30
0.0
 10
246.8398016071259
 20
58.06799431486194
 30
0.0
 10
246.4309081179533
 20
58.22649915948956
 30
0.0
 10
246.0088281519296
 20
58.36901526871848
 30
0.0
 10
245.4305156174455
 20
58.5322727369952
 30
0.0
 10
244.9566367942048
 20
58.60784086050056
 30
0.0
 10
244.6990077717094
 20
58.64892423632512
 30
0.0
  0
LINE
  5
27A
330
1F
100
AcDbEntity
  8
0
  6
Continuous
 62
     7
370
    25
100
AcDbLine
 10
238.1894387062
 20
43.4017531916
 30
0.0
 11
238.1842001627
 21
43.6978366104
 31
0.0
  0
LINE
  5
27B
330
1F
100
AcDbEntity
  8
0
  6
Continuous
 62
     7
370
    25
100
AcDbLine
 10
238.1842001627
 20
43.6978366104
 30
0.0
 11
238.2272969002
 21
44.3494434393
 31
0.0
  0
LINE
  5
27C
330
1F
100
AcDbEntity
  8
0
  6
Continuous
 62
     7
370
    25
100
AcDbLine
 10
237.7046517429
 20
46.1785248652
 30
0.0
 11
237.3932369729
 21
46.5071211276
 31
0.0
  0
SPLINE
  5
27D
330
1F
100
AcDbEntity
  8
0
  6
Continuous
 62
     7
370
    25
100
AcDbSpline
210
0.0
220
0.0
230
1.0
 70
     8
 71
     3
 72
    40
 73
    36
 74
     0
 42
0.000000001
 43
0.00000001
 40
0.0
 40
0.0
 40
0.0
 40
0.0
 40
0.0207361951232823
 40
0.0513661859238838
 40
0.0822015816856066
 40
0.1136927926056508
 40
0.1454151573764303
 40
0.1762783676971285
 40
0.2073666050471669
 40
0.2391745572792452
 40
0.2712350862590553
 40
0.3011573564591339
 40
0.3312916247724304
 40
0.3620939820502436
 40
0.3931264274040179
 40
0.4228042091246595
 40
0.4526835145337888
 40
0.4831892780042223
 40
0.5139074591149867
 40
0.5441787969832267
 40
0.5746505171610518
 40
0.6057442275086301
 40
0.6370503183348916
 40
0.6682568738939856
 40
0.699689860866153
 40
0.7319286323162079
 40
0.764554737749249
 40
0.7882326105417059
 40
0.8123919062451421
 40
0.8361400218163679
 40
0.8608898036677154
 40
0.8896146896611393
 40
0.9190865871893035
 40
0.9594021650680381
 40
0.9999999999999999
 40
0.9999999999999999
 40
0.9999999999999999
 40
0.9999999999999999
 10
241.088721829592
 20
56.40256126792193
 30
0.0
 10
241.0886755097876
 20
56.45441803486351
 30
0.0
 10
241.0885607697559
 20
56.58287382515176
 30
0.0
 10
241.1137039840986
 20
56.78110784391092
 30
0.0
 10
241.1614655954968
 20
56.99871445558728
 30
0.0
 10
241.2339019058298
 20
57.20985148734524
 30
0.0
 10
241.3295610979933
 20
57.4109381924361
 30
0.0
 10
241.4475944242191
 20
57.59978872884697
 30
0.0
 10
241.5876327014829
 20
57.77629765624643
 30
0.0
 10
241.7511388574884
 20
57.94089614711348
 30
0.0
 10
241.9332569400355
 20
58.08800896664626
 30
0.0
 10
242.1304551381843
 20
58.21662808969514
 30
0.0
 10
242.3411503574238
 20
58.32744749004998
 30
0.0
 10
242.5694992411931
 20
58.42233680749553
 30
0.0
 10
242.8102003035684
 20
58.49860746873774
 30
0.0
 10
243.0597422623134
 20
58.55592515562348
 30
0.0
 10
243.3170573367437
 20
58.59479735236622
 30
0.0
 10
243.5849082205832
 20
58.61526005080523
 30
0.0
 10
243.8595983811998
 20
58.61641786657526
 30
0.0
 10
244.1377979138132
 20
58.59815071930502
 30
0.0
 10
244.4187217325334
 20
58.56030731971547
 30
0.0
 10
244.7023044717291
 20
58.50195139444112
 30
0.0
 10
244.9853226003581
 20
58.42240719643872
 30
0.0
 10
245.2640647022534
 20
58.32128669613159
 30
0.0
 10
245.5373779566488
 20
58.1967018336357
 30
0.0
 10
245.8025524356752
 20
58.04535496866382
 30
0.0
 10
246.0297489958393
 20
57.87987566207985
 30
0.0
 10
246.2152579116787
 20
57.70567121083377
 30
0.0
 10
246.3574297474142
 20
57.53148013532031
 30
0.0
 10
246.4687106048628
 20
57.33808986565123
 30
0.0
 10
246.5448090473815
 20
57.12463235457365
 30
0.0
 10
246.5819289128544
 20
56.89869690721311
 30
0.0
 10
246.5863765876701
 20
56.64156362619827
 30
0.0
 10
246.5592655792888
 20
56.36586770711175
 30
0.0
 10
246.5209831549709
 20
56.17218038302958
 30
0.0
 10
246.5017751709141
 20
56.07499889310902
 30
0.0
  0
SPLINE
  5
27E
330
1F
100
AcDbEntity
  8
0
  6
Continuous
 62
     7
370
    25
100
AcDbSpline
210
0.0
220
0.0
230
1.0
 70
     8
 71
     3
 72
    10
 73
     6
 74
     0
 42
0.000000001
 43
0.00000001
 40
0.0
 40
0.0
 40
0.0
 40
0.0
 40
0.2949475040408695
 40
0.9798113369355143
 40
1.0
 40
1.0
 40
1.0
 40
1.0
 10
246.5045030458938
 20
56.07376033510451
 30
0.0
 10
246.5873280007202
 20
56.03499524573602
 30
0.0
 10
246.8624713011661
 20
55.90621818025762
 30
0.0
 10
247.1376075839415
 20
55.76490397237318
 30
0.0
 10
247.2862412250493
 20
55.67080602478708
 30
0.0
 10
247.2904972407611
 20
55.66811159881203
 30
0.0
  0
ARC
  5
27F
330
1F
100
AcDbEntity
  8
0
  6
Continuous
 62
     7
370
    25
100
AcDbCircle
 10
250.5145108922
 20
41.8605502652
 30
0.0
 40
12.46644230718019
100
AcDbArc
 50
171.5249591672
 51
179.8212373334
  0
SPLINE
  5
280
330
1F
100
AcDbEntity
  8
0
  6
Continuous
 62
     7
370
    25
100
AcDbSpline
210
0.0
220
0.0
230
1.0
 70
     8
 71
     3
 72
    14
 73
    10
 74
     0
 42
0.000000001
 43
0.00000001
 40
0.0
 40
0.0
 40
0.0
 40
0.0
 40
0.0003951393068452
 40
0.0003951393068452
 40
0.0003951393068452
 40
0.0008163352168663
 40
0.0008163352168663
 40
0.0008163352168663
 40
0.0012378579337219
 40
0.0012378579337219
 40
0.0012378579337219
 40
0.0012378579337219
 10
246.0964252465935
 20
56.21900743012752
 30
0.0
 10
246.1418870608248
 20
56.20457056750249
 30
0.0
 10
246.1867746654458
 20
56.18970470693688
 30
0.0
 10
246.2310583581209
 20
56.1744209193314
 30
0.0
 10
246.2782616503603
 20
56.15812947999372
 30
0.0
 10
246.3247874634194
 20
56.1413600019098
 30
0.0
 10
246.3705983726611
 20
56.12413119111451
 30
0.0
 10
246.4164447606502
 20
56.10688903728286
 30
0.0
 10
246.4615839962226
 20
56.08918333107837
 30
0.0
 10
246.5059775542649
 20
56.07104047438758
 30
0.0
  0
LINE
  5
281
330
1F
100
AcDbEntity
  8
0
  6
Continuous
 62
     7
370
    25
100
AcDbLine
 10
237.3932369729
 20
46.5071211276
 30
0.0
 11
236.7533007776
 21
46.9193528647
 31
0.0
  0
LINE
  5
282
330
1F
100
AcDbEntity
  8
0
  6
Continuous
 62
     7
370
    25
100
AcDbLine
 10
236.4473665812
 20
47.2908314103
 30
0.0
 11
236.7533007776
 21
46.9193528647
 31
0.0
  0
SPLINE
  5
283
330
1F
100
AcDbEntity
  8
0
  6
Continuous
 62
     7
370
    25
100
AcDbSpline
210
0.0
220
0.0
230
1.0
 70
     8
 71
     3
 72
    13
 73
     9
 74
     0
 42
0.000000001
 43
0.00000001
 40
0.0
 40
0.0
 40
0.0
 40
0.0
 40
0.1618542298867834
 40
0.3254858841579958
 40
0.491008519663627
 40
0.6585318472816848
 40
0.8281616954220586
 40
1.0
 40
1.0
 40
1.0
 40
1.0
 10
236.7533007775719
 20
46.91935286469761
 30
0.0
 10
236.7337233855543
 20
46.9319158417309
 30
0.0
 10
236.6943536097083
 20
46.95717975784972
 30
0.0
 10
236.6328176699376
 20
46.98987345476473
 30
0.0
 10
236.5692610106881
 20
47.01881952847162
 30
0.0
 10
236.5036429080314
 20
47.04333189593711
 30
0.0
 10
236.436215638977
 20
47.06376695929043
 30
0.0
 10
236.3903310387788
 20
47.07336361428008
 30
0.0
 10
236.367240358604
 20
47.0781929751148
 30
0.0
  0
SPLINE
  5
284
330
1F
100
AcDbEntity
  8
0
  6
Continuous
 62
     7
370
    25
100
AcDbSpline
210
0.0
220
0.0
230
1.0
 70
     8
 71
     3
 72
     9
 73
     5
 74
     0
 42
0.000000001
 43
0.00000001
 40
0.0
 40
0.0
 40
0.0
 40
0.0
 40
0.4907282259506091
 40
1.0
 40
1.0
 40
1.0
 40
1.0
 10
236.367234531312
 20
47.07816497808378
 30
0.0
 10
236.3431410088342
 20
47.08626051030192
 30
0.0
 10
236.294043522275
 20
47.10275748722319
 30
0.0
 10
236.2433428284548
 20
47.11755115623942
 30
0.0
 10
236.2175223961675
 20
47.12508515430402
 30
0.0
  0
SPLINE
  5
285
330
1F
100
AcDbEntity
  8
0
  6
Continuous
 62
     7
370
    25
100
AcDbSpline
210
0.0
220
0.0
230
1.0
 70
     8
 71
     3
 72
    14
 73
    10
 74
     0
 42
0.000000001
 43
0.00000001
 40
0.0
 40
0.0
 40
0.0
 40
0.0
 40
0.0310276388056898
 40
0.0622853718658436
 40
0.124800316689171
 40
0.2498289731742531
 40
0.4998892603602845
 40
0.7606803621217882
 40
1.0
 40
1.0
 40
1.0
 40
1.0
 10
235.6335817068789
 20
47.49919289694986
 30
0.0
 10
235.6395739462832
 20
47.49536185329642
 30
0.0
 10
235.6516028622424
 20
47.48767135579892
 30
0.0
 10
235.6756626702913
 20
47.4722334662923
 30
0.0
 10
235.7178963429379
 20
47.44516301336134
 30
0.0
 10
235.8024589174504
 20
47.39095098856563
 30
0.0
 10
235.9257458869129
 20
47.31194780670507
 30
0.0
 10
236.0718775933656
 20
47.21834163202642
 30
0.0
 10
236.1702442099079
 20
47.15535855563402
 30
0.0
 10
236.2173159106019
 20
47.12521905683914
 30
0.0
  0
LINE
  5
286
330
1F
100
AcDbEntity
  8
0
  6
Continuous
 62
     7
370
    25
100
AcDbLine
 10
233.8310814402
 20
48.661823698
 30
0.0
 11
234.1220482747
 21
48.473745269
 31
0.0
  0
SPLINE
  5
287
330
1F
100
AcDbEntity
  8
0
  6
Continuous
 62
     7
370
    25
100
AcDbSpline
210
0.0
220
0.0
230
1.0
 70
     8
 71
     3
 72
     8
 73
     4
 74
     0
 42
0.000000001
 43
0.00000001
 40
0.0
 40
0.0
 40
0.0
 40
0.0
 40
1.0
 40
1.0
 40
1.0
 40
1.0
 10
234.1534372091744
 20
48.45352250463872
 30
0.0
 10
234.1429947033226
 20
48.46034792953612
 30
0.0
 10
234.1325287704328
 20
48.46709089632265
 30
0.0
 10
234.1220410056163
 20
48.47374998397563
 30
0.0
  0
SPLINE
  5
288
330
1F
100
AcDbEntity
  8
0
  6
Continuous
 62
     7
370
    25
100
AcDbSpline
210
0.0
220
0.0
230
1.0
 70
     8
 71
     3
 72
     8
 73
     4
 74
     0
 42
0.000000001
 43
0.00000001
 40
0.0
 40
0.0
 40
0.0
 40
0.0
 40
1.0
 40
1.0
 40
1.0
 40
1.0
 10
231.3674328303506
 20
50.33177815644779
 30
0.0
 10
231.4264325945205
 20
50.29303748952884
 30
0.0
 10
231.4857201580311
 20
50.25497551222954
 30
0.0
 10
231.5453012315195
 20
50.21759172376925
 30
0.0
  0
SPLINE
  5
289
330
1F
100
AcDbEntity
  8
0
  6
Continuous
 62
     7
370
    25
100
AcDbSpline
210
0.0
220
0.0
230
1.0
 70
     8
 71
     3
 72
     8
 73
     4
 74
     0
 42
0.000000001
 43
0.00000001
 40
0.0
 40
0.0
 40
0.0
 40
0.0
 40
1.0
 40
1.0
 40
1.0
 40
1.0
 10
231.342583084251
 20
50.69498833438611
 30
0.0
 10
231.3500572963416
 20
50.57403049367427
 30
0.0
 10
231.3583534002317
 20
50.45295865126362
 30
0.0
 10
231.3674328303506
 20
50.33177815644779
 30
0.0
  0
LWPOLYLINE
  5
28A
330
1F
100
AcDbEntity
  8
0
  6
Continuous
 62
     7
370
    25
100
AcDbPolyline
 90
       17
 70
   128
 43
0.0
 10
231.3425830843
 20
50.6949883344
 10
231.6986635174
 20
51.7076026167
 10
232.1227126677
 20
52.7143907176
 10
232.6104967873
 20
53.7053007674
 10
233.1571457924
 20
54.6704394241
 10
233.7572018866
 20
55.6001706502
 10
234.4046740516
 20
56.485211919
 10
235.0930978628
 20
57.3167268931
 10
235.8156000303
 20
58.0864136464
 10
236.5649670225
 20
58.786587552
 10
237.3337170869
 20
59.4102580058
 10
238.1141749484
 20
59.9511982217
 10
238.8985484404
 20
60.4040074003
 10
239.679006302
 20
60.764164651
 10
240.4477563664
 20
61.0280741288
 10
241.1971233586
 20
61.1931009361
 10
241.3065453099
 20
61.2090960982
  0
SPLINE
  5
28B
330
1F
100
AcDbEntity
  8
0
  6
Continuous
 62
     7
370
    25
100
AcDbSpline
210
0.0
220
0.0
230
1.0
 70
     8
 71
     3
 72
    10
 73
     6
 74
     0
 42
0.000000001
 43
0.00000001
 40
0.0
 40
0.0
 40
0.0
 40
0.0
 40
0.240982026022918
 40
0.5031431986318641
 40
1.0
 40
1.0
 40
1.0
 40
1.0
 10
237.3932369729006
 20
39.80127971000567
 30
0.0
 10
237.4754830010946
 20
39.74960319803858
 30
0.0
 10
237.64720340026
 20
39.64170848923242
 30
0.0
 10
237.9249235820034
 20
39.51198520855804
 30
0.0
 10
238.0459013693844
 20
39.53476331205749
 30
0.0
 10
238.1250940084728
 20
39.54967396771254
 30
0.0
  0
LINE
  5
28C
330
1F
100
AcDbEntity
  8
0
  6
Continuous
 62
     7
370
    25
100
AcDbLine
 10
232.6100635183
 20
49.5303520635
 30
0.0
 11
231.8481841368
 21
50.0209869822
 31
0.0
  0
LINE
  5
28D
330
1F
100
AcDbEntity
  8
0
  6
Continuous
 62
     7
370
    25
100
AcDbLine
 10
231.8481841368
 20
50.0209869822
 30
0.0
 11
231.3674328304
 21
50.3317781564
 31
0.0
  0
LINE
  5
28E
330
1F
100
AcDbEntity
  8
0
  6
Continuous
 62
     7
370
    25
100
AcDbLine
 10
236.4473665812
 20
39.5254999354
 30
0.0
 11
236.7533007776
 21
40.2135114471
 31
0.0
  0
LINE
  5
28F
330
1F
100
AcDbEntity
  8
0
  6
Continuous
 62
     7
370
    25
100
AcDbLine
 10
236.7533007776
 20
40.2135114471
 30
0.0
 11
237.3932369729
 21
39.80127971
 31
0.0
  0
SPLINE
  5
290
330
1F
100
AcDbEntity
  8
0
  6
Continuous
 62
     7
370
    25
100
AcDbSpline
210
0.0
220
0.0
230
1.0
 70
     8
 71
     3
 72
    13
 73
     9
 74
     0
 42
0.000000001
 43
0.00000001
 40
0.0
 40
0.0
 40
0.0
 40
0.0
 40
0.1722587823393973
 40
0.3421398270969619
 40
0.5097456257598065
 40
0.6751828992996295
 40
0.8385626189962242
 40
1.0
 40
1.0
 40
1.0
 40
1.0
 10
236.3672288467986
 20
40.49482094295091
 30
0.0
 10
236.3903803707493
 20
40.47670135201799
 30
0.0
 10
236.436363851498
 20
40.44071228008411
 30
0.0
 10
236.5039048642087
 20
40.38971229666906
 30
0.0
 10
236.5695644788939
 20
40.34138761647842
 30
0.0
 10
236.6330885501443
 20
40.29595661056901
 30
0.0
 10
236.6945189288663
 20
40.25313104280863
 30
0.0
 10
236.7337850958401
 20
40.22666522563307
 30
0.0
 10
236.7533007775719
 20
40.2135114470859
 30
0.0
  0
SPLINE
  5
291
330
1F
100
AcDbEntity
  8
0
  6
Continuous
 62
     7
370
    25
100
AcDbSpline
210
0.0
220
0.0
230
1.0
 70
     8
 71
     3
 72
    11
 73
     7
 74
     0
 42
0.000000001
 43
0.00000001
 40
0.0
 40
0.0
 40
0.0
 40
0.0
 40
0.2392845093988677
 40
0.5001120454070203
 40
0.7515010915051096
 40
1.0
 40
1.0
 40
1.0
 40
1.0
 10
236.2178484353226
 20
40.54213493516379
 30
0.0
 10
236.1707792033281
 20
40.51382041245601
 30
0.0
 10
236.0724030487346
 20
40.45464218189822
 30
0.0
 10
235.9261058271495
 20
40.36145428144017
 30
0.0
 10
235.7782650834922
 20
40.26608236546785
 30
0.0
 10
235.6819786207755
 20
40.20154711020113
 30
0.0
 10
235.6341137329179
 20
40.16946604014159
 30
0.0
  0
SPLINE
  5
292
330
1F
100
AcDbEntity
  8
0
  6
Continuous
 62
     7
370
    25
100
AcDbSpline
210
0.0
220
0.0
230
1.0
 70
     8
 71
     3
 72
     9
 73
     5
 74
     0
 42
0.000000001
 43
0.00000001
 40
0.0
 40
0.0
 40
0.0
 40
0.0
 40
0.5090669353869852
 40
1.0
 40
1.0
 40
1.0
 40
1.0
 10
236.2184194389067
 20
40.54143598095202
 30
0.0
 10
236.2440680135307
 20
40.53394327279212
 30
0.0
 10
236.2944515148762
 20
40.51922476007987
 30
0.0
 10
236.3432590263715
 20
40.5028324022277
 30
0.0
 10
236.367220247566
 20
40.49478485175111
 30
0.0
  0
LINE
  5
293
330
1F
100
AcDbEntity
  8
0
  6
Continuous
 62
     7
370
    25
100
AcDbLine
 10
238.0483380132
 20
41.4653142194
 30
0.0
 11
236.3672223524
 21
40.4948268058
 31
0.0
  0
LINE
  5
294
330
1F
100
AcDbEntity
  8
0
  6
Continuous
 62
     7
370
    25
100
AcDbLine
 10
234.3607345554
 20
41.6186480836
 30
0.0
 11
234.160438503
 21
41.1174908022
 31
0.0
  0
SPLINE
  5
295
330
1F
100
AcDbEntity
  8
0
  6
Continuous
 62
     7
370
    25
100
AcDbSpline
210
0.0
220
0.0
230
1.0
 70
     8
 71
     3
 72
     8
 73
     4
 74
     0
 42
0.000000001
 43
0.00000001
 40
0.0
 40
0.0
 40
0.0
 40
0.0
 40
1.0
 40
1.0
 40
1.0
 40
1.0
 10
234.3602912407665
 20
41.61943201481336
 30
0.0
 10
234.3864665753357
 20
41.64159939179163
 30
0.0
 10
234.4122876153012
 20
41.66423153288325
 30
0.0
 10
234.4377451690096
 20
41.68731625297453
 30
0.0
  0
LINE
  5
296
330
1F
100
AcDbEntity
  8
0
  6
Continuous
 62
     7
370
    25
100
AcDbLine
 10
234.437745169
 20
41.687316253
 30
0.0
 11
236.2180381593
 21
40.5415449905
 31
0.0
  0
LINE
  5
297
330
1F
100
AcDbEntity
  8
0
  6
Continuous
 62
     7
370
    25
100
AcDbLine
 10
238.0481292615
 20
41.5633642538
 30
0.0
 11
237.960130239
 21
41.6708553904
 31
0.0
  0
LINE
  5
298
330
1F
100
AcDbEntity
  8
0
  6
Continuous
 62
     7
370
    25
100
AcDbLine
 10
236.1317216505
 20
42.6652280603
 30
0.0
 11
234.437745169
 21
41.687316253
 31
0.0
  0
LINE
  5
299
330
1F
100
AcDbEntity
  8
0
  6
Continuous
 62
     7
370
    25
100
AcDbLine
 10
236.2744156761
 20
42.6439356996
 30
0.0
 11
236.1321419646
 21
42.6647403155
 31
0.0
  0
LINE
  5
29A
330
1F
100
AcDbEntity
  8
0
  6
Continuous
 62
     7
370
    25
100
AcDbLine
 10
237.9602032444
 20
41.6707512512
 30
0.0
 11
236.2744156761
 21
42.6439356996
 31
0.0
  0
LINE
  5
29B
330
1F
100
AcDbEntity
  8
0
  6
Continuous
 62
     7
370
    25
100
AcDbLine
 10
238.0481292615
 20
41.6199869103
 30
0.0
 11
237.9601567874
 21
41.6707780516
 31
0.0
  0
SPLINE
  5
29C
330
1F
100
AcDbEntity
  8
0
  6
Continuous
 62
     7
370
    25
100
AcDbSpline
210
0.0
220
0.0
230
1.0
 70
     8
 71
     3
 72
    19
 73
    15
 74
     0
 42
0.000000001
 43
0.00000001
 40
0.0
 40
0.0
 40
0.0
 40
0.0
 40
0.0637852801492328
 40
0.1289627947854765
 40
0.1955871357598936
 40
0.263709415691744
 40
0.3333774494039265
 40
0.4046359392220364
 40
0.4775266604180973
 40
0.5520886438866394
 40
0.6283583538446277
 40
0.7063698589454841
 40
0.8377040422820777
 40
0.9999999999999999
 40
0.9999999999999999
 40
0.9999999999999999
 40
0.9999999999999999
 10
233.5762221348052
 20
41.78792010216523
 30
0.0
 10
233.5969115038118
 20
41.77456096215401
 30
0.0
 10
233.6387418264692
 20
41.74755109361149
 30
0.0
 10
233.6992328000674
 20
41.71002912808344
 30
0.0
 10
233.7587169982491
 20
41.67450938699212
 30
0.0
 10
233.8167981577221
 20
41.64152925807571
 30
0.0
 10
233.8733302748097
 20
41.61132282180596
 30
0.0
 10
233.9280753295627
 20
41.58420938184563
 30
0.0
 10
233.9807977071541
 20
41.56047776409604
 30
0.0
 10
234.03123934008
 20
41.54043751065527
 30
0.0
 10
234.0791222585523
 20
41.52431764910665
 30
0.0
 10
234.1340864387481
 20
41.51003967275517
 30
0.0
 10
234.1969178024978
 20
41.49990111167564
 30
0.0
 10
234.2354253456703
 20
41.50637539107748
 30
0.0
 10
234.2567093275398
 20
41.50995387035853
 30
0.0
  0
LINE
  5
29D
330
1F
100
AcDbEntity
  8
0
  6
Continuous
 62
     7
370
    25
100
AcDbLine
 10
234.2813452585
 20
41.5360240175
 30
0.0
 11
234.3490197481
 21
41.6076382751
 31
0.0
  0
SPLINE
  5
29E
330
1F
100
AcDbEntity
  8
0
  6
Continuous
 62
     7
370
    25
100
AcDbSpline
210
0.0
220
0.0
230
1.0
 70
     8
 71
     3
 72
     9
 73
     5
 74
     0
 42
0.000000001
 43
0.00000001
 40
0.0
 40
0.0
 40
0.0
 40
0.0
 40
0.523202776288562
 40
0.9999999999999999
 40
0.9999999999999999
 40
0.9999999999999999
 40
0.9999999999999999
 10
235.9655442963106
 20
42.56929591570038
 30
0.0
 10
235.8965199833169
 20
42.59433807477461
 30
0.0
 10
235.7645934796325
 20
42.64220127468322
 30
0.0
 10
235.5231563272781
 20
42.77979947161314
 30
0.0
 10
235.4080397633347
 20
42.84540590989702
 30
0.0
  0
LINE
  5
29F
330
1F
100
AcDbEntity
  8
0
  6
Continuous
 62
     7
370
    25
100
AcDbLine
 10
231.6785386402
 20
42.6112953767
 30
0.0
 11
232.1300088099
 21
42.7235599104
 31
0.0
  0
LINE
  5
2A0
330
1F
100
AcDbEntity
  8
0
  6
Continuous
 62
     7
370
    25
100
AcDbLine
 10
232.1300088099
 20
42.7235599104
 30
0.0
 11
233.5762221348
 21
41.7879201022
 31
0.0
  0
SPLINE
  5
2A1
330
1F
100
AcDbEntity
  8
0
  6
Continuous
 62
     7
370
    25
100
AcDbSpline
210
0.0
220
0.0
230
1.0
 70
     8
 71
     3
 72
     8
 73
     4
 74
     0
 42
0.000000001
 43
0.00000001
 40
0.0
 40
0.0
 40
0.0
 40
0.0
 40
1.0
 40
1.0
 40
1.0
 40
1.0
 10
231.849326518822
 20
42.21654590438191
 30
0.0
 10
231.7922012498979
 20
42.34833208817755
 30
0.0
 10
231.7352727581803
 20
42.47991630983834
 30
0.0
 10
231.6785386402309
 20
42.6112953767397
 30
0.0
  0
LINE
  5
2A2
330
1F
100
AcDbEntity
  8
0
  6
Continuous
 62
     7
370
    25
100
AcDbLine
 10
233.4677100204
 20
43.4957983816
 30
0.0
 11
232.1300088099
 21
42.7235599104
 31
0.0
  0
LINE
  5
2A3
330
1F
100
AcDbEntity
  8
0
  6
Continuous
 62
     7
370
    25
100
AcDbLine
 10
234.4507388172
 20
43.3980448482
 30
0.0
 11
233.4677095465
 21
43.4957984292
 31
0.0
  0
LINE
  5
2A4
330
1F
100
AcDbEntity
  8
0
  6
Continuous
 62
     7
370
    25
100
AcDbLine
 10
235.4080397633
 20
42.8454059099
 30
0.0
 11
234.4507380677
 21
43.3980444156
 31
0.0
  0
SPLINE
  5
2A5
330
1F
100
AcDbEntity
  8
0
  6
Continuous
 62
     7
370
    25
100
AcDbSpline
210
0.0
220
0.0
230
1.0
 70
     8
 71
     3
 72
     8
 73
     4
 74
     0
 42
0.000000001
 43
0.00000001
 40
0.0
 40
0.0
 40
0.0
 40
0.0
 40
1.0
 40
1.0
 40
1.0
 40
1.0
 10
231.6785386402331
 20
42.6112953767346
 30
0.0
 10
231.675401302483
 20
42.64651168360711
 30
0.0
 10
231.673408898585
 20
42.68215593983481
 30
0.0
 10
231.672627501213
 20
42.71825284182968
 30
0.0
  0
LINE
  5
2A6
330
1F
100
AcDbEntity
  8
0
  6
Continuous
 62
     7
370
    25
100
AcDbLine
 10
232.4837130337
 20
43.1864825532
 30
0.0
 11
231.6726275012
 21
42.7182528418
 31
0.0
  0
SPLINE
  5
2A7
330
1F
100
AcDbEntity
  8
0
  6
Continuous
 62
     7
370
    25
100
AcDbSpline
210
0.0
220
0.0
230
1.0
 70
     8
 71
     3
 72
     8
 73
     4
 74
     0
 42
0.000000001
 43
0.00000001
 40
0.0000004089325119
 40
0.0000004089325119
 40
0.0000004089325119
 40
0.0000004089325119
 40
0.0015399868451459
 40
0.0015399868451459
 40
0.0015399868451459
 40
0.0015399868451459
 10
232.4837130337017
 20
43.1864825531858
 30
0.0
 10
232.722189601725
 20
43.28085893900215
 30
0.0
 10
232.9606365593936
 20
43.37528755093236
 30
0.0
 10
233.199045298244
 20
43.46978093389482
 30
0.0
  0
LINE
  5
2A8
330
1F
100
AcDbEntity
  8
0
  6
Continuous
 62
     7
370
    25
100
AcDbLine
 10
233.1990452982
 20
43.4697809339
 30
0.0
 11
233.2234415289
 21
43.4747748637
 31
0.0
  0
LINE
  5
2A9
330
1F
100
AcDbEntity
  8
0
  6
Continuous
 62
     7
370
    25
100
AcDbLine
 10
233.4677098129
 20
43.4957983631
 30
0.0
 11
233.2234420707
 21
43.4747752564
 31
0.0
  0
SPLINE
  5
2AA
330
1F
100
AcDbEntity
  8
0
  6
Continuous
 62
     7
370
    25
100
AcDbSpline
210
0.0
220
0.0
230
1.0
 70
     8
 71
     3
 72
     8
 73
     4
 74
     0
 42
0.000000001
 43
0.00000001
 40
0.0
 40
0.0
 40
0.0
 40
0.0
 40
1.0
 40
1.0
 40
1.0
 40
1.0
 10
234.450737212752
 20
43.39804492648178
 30
0.0
 10
234.4813452468752
 20
43.38310491867566
 30
0.0
 10
234.5118967478471
 20
43.36822796128229
 30
0.0
 10
234.5423906859617
 20
43.35341439760137
 30
0.0
  0
ARC
  5
2AB
330
1F
100
AcDbEntity
  8
0
  6
Continuous
 62
     7
370
    25
100
AcDbCircle
 10
235.3062549057
 20
48.8986693503
 30
0.0
 40
6.625581341066948
100
AcDbArc
 50
283.7327672817
 51
294.8489934469
  0
LWPOLYLINE
  5
2AC
330
1F
100
AcDbEntity
  8
0
  6
Continuous
 62
     7
370
    18
100
AcDbPolyline
 90
       25
 70
   128
 43
0.0
 10
267.5885186117
 20
27.5842120219
 10
267.62663243
 20
28.3759040302
 10
267.7404770128
 20
29.2012804003
 10
267.9285682219
 20
30.0495810889
 10
268.1884540008
 20
30.9097471994
 10
268.5167463408
 20
31.7705651509
 10
268.9091654494
 20
32.620812865
 10
269.3605955432
 20
33.4494060625
 10
269.8651515407
 20
34.2455427638
 10
270.4162557827
 20
34.9988441096
 10
271.0067237827
 20
35.6994896648
 10
271.6288578873
 20
36.3383454431
 10
272.274547627
 20
36.9070829823
 10
272.9353754486
 20
37.3982879189
 10
273.6027264509
 20
37.8055566454
 10
274.2679006929
 20
38.123579791
 10
274.9222266111
 20
38.3482114377
 10
275.5571740666
 20
38.4765231685
 10
276.1644655482
 20
38.5068422437
 10
276.7361840827
 20
38.4387734078
 10
277.2648764448
 20
38.2732040422
 10
277.7436503208
 20
38.0122925967
 10
278.1662641613
 20
37.6594404511
 10
278.5272085484
 20
37.2192475727
 10
278.7023155393
 20
36.933591182
  0
LWPOLYLINE
  5
2AD
330
1F
100
AcDbEntity
  8
0
  6
Continuous
 62
     7
370
    18
100
AcDbPolyline
 90
       11
 70
   128
 43
0.0
 10
270.8962426557
 20
23.4116112053
 10
270.4162557827
 20
23.4344157777
 10
269.8651515407
 20
23.5514257095
 10
269.3605955432
 20
23.7650144561
 10
268.9091654494
 20
24.0723975616
 10
268.5167463408
 20
24.469567817
 10
268.1884540008
 20
24.9513475007
 10
267.9285682219
 20
25.5114558777
 10
267.7404770128
 20
26.1425910788
 10
267.62663243
 20
26.8365252914
 10
267.5885186117
 20
27.5842120219
  0
LWPOLYLINE
  5
2AE
330
1F
100
AcDbEntity
  8
0
  6
Continuous
 62
     7
370
    18
100
AcDbPolyline
 90
       53
 70
   128
 43
0.0
 10
268.6376455363
 20
27.7184809691
 10
268.6756058905
 20
28.4650775232
 10
268.7889334056
 20
29.2446151105
 10
268.9759755113
 20
30.0457263174
 10
269.2340047126
 20
30.8567291388
 10
269.5592583625
 20
31.6657973271
 10
269.9469935305
 20
32.4611328464
 10
270.3915561648
 20
33.2311379139
 10
270.8864635411
 20
33.9645841217
 10
271.4244987953
 20
34.6507761726
 10
271.9978161619
 20
35.2797078413
 10
272.5980553828
 20
35.8422078879
 10
273.2164636185
 20
36.330073795
 10
273.8440230842
 20
36.7361913791
 10
274.47158255
 20
37.0546385314
 10
275.0899907857
 20
37.2807715753
 10
275.6902300065
 20
37.4112929817
 10
276.2635473732
 20
37.4442994548
 10
276.8015826274
 20
37.3793096858
 10
277.2964900037
 20
37.2172713718
 10
277.7410526379
 20
36.9605473964
 10
278.128787806
 20
36.6128813732
 10
278.4540414559
 20
36.1793430557
 10
278.7120706572
 20
35.6662544088
 10
278.8991127629
 20
35.0810974204
 10
279.012440278
 20
34.432404997
 10
279.0504006322
 20
33.7296365349
 10
279.012440278
 20
32.9830399808
 10
278.8991127629
 20
32.2035023935
 10
278.7120706572
 20
31.4023911866
 10
278.4540414559
 20
30.5913883653
 10
278.128787806
 20
29.7823201769
 10
277.7410526379
 20
28.9869846576
 10
277.2964900037
 20
28.2169795902
 10
276.8015826274
 20
27.4835333823
 10
276.2635473732
 20
26.7973413314
 10
275.6902300065
 20
26.1684096627
 10
275.0899907857
 20
25.6059096161
 10
274.47158255
 20
25.118043709
 10
273.8440230842
 20
24.7119261249
 10
273.2164636185
 20
24.3934789726
 10
272.5980553828
 20
24.1673459288
 10
271.9978161619
 20
24.0368245223
 10
271.4244987953
 20
24.0038180492
 10
270.8864635411
 20
24.0688078183
 10
270.3915561648
 20
24.2308461322
 10
269.9469935305
 20
24.4875701077
 10
269.5592583625
 20
24.8352361309
 10
269.2340047126
 20
25.2687744483
 10
268.9759755113
 20
25.7818630952
 10
268.7889334056
 20
26.3670200836
 10
268.6756058905
 20
27.015712507
 10
268.6376455363
 20
27.7184809691
  0
LWPOLYLINE
  5
2AF
330
1F
100
AcDbEntity
  8
0
  6
Continuous
 62
     7
370
    18
100
AcDbPolyline
 90
       10
 70
   128
 43
0.0
 10
252.1004895628
 20
34.0917422133
 10
252.1387948275
 20
33.2134616743
 10
252.2533417212
 20
32.3878657744
 10
252.4430270945
 20
31.6229054533
 10
252.7060241737
 20
30.9259476971
 10
253.0398001531
 20
30.3037045901
 10
253.4411405875
 20
29.7621686734
 10
253.9061803492
 20
29.3065552339
 10
254.4304408511
 20
28.9412520783
 10
254.43089798
 20
28.9409881405
  0
LWPOLYLINE
  5
2B0
330
1F
100
AcDbEntity
  8
0
  6
Continuous
 62
     7
370
    18
100
AcDbPolyline
 90
       25
 70
   128
 43
0.0
 10
265.6799837222
 20
48.4270875441
 10
265.1020085243
 20
48.6982984091
 10
264.474974992
 20
48.8733304082
 10
263.80537893
 20
48.95023395
 10
263.0996689144
 20
48.9282684111
 10
262.3646413184
 20
48.8076453318
 10
261.6073748596
 20
48.5895263782
 10
260.8351624278
 20
48.2760121552
 10
260.0554408511
 20
47.870121976
 10
259.2757192744
 20
47.375764785
 10
258.5035068426
 20
46.7977015121
 10
257.7462403838
 20
46.1414992227
 10
257.0112127878
 20
45.4134775036
 10
256.3055027722
 20
44.6206476019
 10
255.6359067102
 20
43.7706449028
 10
255.0088731779
 20
42.8716553972
 10
254.4304408511
 20
41.9323368453
 10
253.9061803492
 20
40.9617353983
 10
253.4411405875
 20
39.9691984788
 10
253.0398001531
 20
38.9642847597
 10
252.7060241737
 20
37.9566721097
 10
252.4430270945
 20
36.9560643893
 10
252.2533417212
 20
35.9720979978
 10
252.1387948275
 20
35.0142490696
 10
252.1004895628
 20
34.0917422133
  0
LWPOLYLINE
  5
2B1
330
1F
100
AcDbEntity
  8
0
  6
Continuous
 62
     7
370
    18
100
AcDbPolyline
 90
       11
 70
   128
 43
0.0
 10
274.639367367
 20
34.0185332318
 10
274.7267564679
 20
34.034285308
 10
275.1344929599
 20
34.0501107191
 10
275.5030191777
 20
33.9648757243
 10
275.8211376388
 20
33.7811701456
 10
276.0791824745
 20
33.5045757843
 10
276.2693131233
 20
33.1434968199
 10
276.3857525614
 20
32.7089044541
 10
276.4249628356
 20
32.2140035561
 10
276.3857525614
 20
31.6738314391
 10
276.351570819
 20
31.4659489897
  0
ARC
  5
2B2
330
1F
100
AcDbEntity
  8
0
  6
Continuous
 62
     7
370
    18
100
AcDbCircle
 10
272.8271749848
 20
28.9825659904
 30
0.0
 40
1.58419035167873
100
AcDbArc
 50
170.863535701
 51
304.7323970921
  0
LWPOLYLINE
  5
2B3
330
1F
100
AcDbEntity
  8
0
  6
Continuous
 62
     7
370
    18
100
AcDbPolyline
 90
       33
 70
   128
 43
0.0
 10
249.9791692192
 20
34.0917422133
 10
250.0165223171
 20
35.060019033
 10
250.1282720915
 20
36.063399375
 10
250.3134925484
 20
37.0935689138
 10
250.5706488927
 20
38.14199134
 10
250.8976102462
 20
39.1999790953
 10
251.2916673039
 20
40.2587653599
 10
251.7495547851
 20
41.3095766974
 10
252.2674784898
 20
42.3437057542
 10
252.8411467392
 20
43.3525834111
 10
253.4658059373
 20
44.3278497902
 10
254.1362799615
 20
45.261423527
 10
254.8470130528
 20
46.1455687357
 10
255.5921158528
 20
46.9729591106
 10
256.3654142053
 20
47.7367386343
 10
257.1605003164
 20
48.4305783893
 10
257.9707858523
 20
49.0487290009
 10
258.7895565319
 20
49.5860682783
 10
259.6100277633
 20
50.0381436592
 10
260.4254008637
 20
50.4012091045
 10
261.2289193946
 20
50.6722561395
 10
262.0139251486
 20
50.8490387833
 10
262.7739133206
 20
50.9300921591
 10
263.5025864094
 20
50.9147446332
 10
264.1939064002
 20
50.8031233799
 10
264.8421447979
 20
50.5961533282
 10
265.441930095
 20
50.295549497
 10
265.9882922815
 20
49.9038027844
 10
266.4767040285
 20
49.4241593271
 10
266.9031182022
 20
48.8605936017
 10
267.2640014005
 20
48.2177754914
 10
267.5563632317
 20
47.5010315894
 10
267.6195673327
 20
47.3073897592
  0
LWPOLYLINE
  5
2B4
330
1F
100
AcDbEntity
  8
0
  6
Continuous
 62
     7
370
    18
100
AcDbPolyline
 90
       16
 70
   128
 43
0.0
 10
256.3704815905
 20
27.8212903556
 10
256.3654142053
 20
27.8201473059
 10
255.5921158528
 20
27.6910955564
 10
254.8470130527
 20
27.6582085498
 10
254.1362799615
 20
27.7217587982
 10
253.4658059373
 20
27.8812197042
 10
252.8411467392
 20
28.1352699246
 10
252.2674784898
 20
28.4818043192
 10
251.7495547851
 20
28.9179513949
 10
251.2916673039
 20
29.4400970996
 10
250.8976102462
 20
30.0439147696
 10
250.5706488927
 20
30.7244009816
 10
250.3134925484
 20
31.4759170124
 10
250.1282720915
 20
32.2922355635
 10
250.0165223171
 20
33.1665923624
 10
249.9791692192
 20
34.0917422133
  0
LWPOLYLINE
  5
2B5
330
1F
100
AcDbEntity
  8
0
  6
Continuous
 62
     7
370
    18
100
AcDbPolyline
 90
       16
 70
   128
 43
0.0
 10
276.2123967103
 20
32.2672778406
 10
276.2128308012
 20
32.2140035561
 10
276.1752319082
 20
31.6960302932
 10
276.0635776524
 20
31.150384628
 10
275.881260592
 20
30.5936457278
 10
275.6338203385
 20
30.0427298224
 10
275.3287752389
 20
29.5143762128
 10
274.9753939341
 20
29.0246386561
 10
274.5844137363
 20
28.5883975801
 10
274.167714381
 20
28.2189079492
 10
273.7379570671
 20
27.9273965188
 10
273.3081997532
 20
27.7227207162
 10
272.8915003978
 20
27.6110995122
 10
272.5005202
 20
27.5959244604
 10
272.1471388952
 20
27.6776566473
 10
271.9880992849
 20
27.7541183421
  0
LWPOLYLINE
  5
2B6
330
1F
100
AcDbEntity
  8
0
  6
Continuous
 62
     7
370
    18
100
AcDbPolyline
 90
       30
 70
   128
 43
0.0
 10
241.5734373578
 20
36.5052486939
 10
241.6114454372
 20
37.5883605648
 10
241.7252100415
 20
38.7079568777
 10
241.9139540433
 20
39.8563896545
 10
242.1763881295
 20
41.0258139349
 10
242.5107196093
 20
42.2082413653
 10
242.9146646596
 20
43.3955947673
 10
243.3854639262
 20
44.5797633133
 10
243.9199013727
 20
45.7526579313
 10
244.5143262493
 20
46.9062665618
 10
245.1646780316
 20
48.0327088881
 10
245.8665141573
 20
49.124290167
 10
246.615040374
 20
50.1735537914
 10
247.4051434887
 20
51.1733322268
 10
248.231426296
 20
52.1167959729
 10
249.0882444465
 20
52.9975002154
 10
249.9697450033
 20
53.8094288515
 10
250.8699064239
 20
54.5470355853
 10
251.782579693
 20
55.2052818148
 10
252.7015303268
 20
55.7796710508
 10
253.6204809605
 20
56.2662796325
 10
254.5331542296
 20
56.6617835298
 10
255.4333156502
 20
56.9634810501
 10
256.314816207
 20
57.1693112933
 10
257.1716343575
 20
57.2778682302
 10
257.9979171648
 20
57.2884103069
 10
258.7880202795
 20
57.2008655103
 10
259.5365464963
 20
57.0158318601
 10
260.238382622
 20
56.7345733238
 10
260.5696408542
 20
56.5588039955
  0
LWPOLYLINE
  5
2B7
330
1F
100
AcDbEntity
  8
0
  6
Continuous
 62
     7
370
    18
100
AcDbPolyline
 90
       11
 70
   128
 43
0.0
 10
244.8334197993
 20
29.299916052
 10
244.5143262493
 20
29.4997088652
 10
243.9199013727
 20
29.9670091416
 10
243.3854639262
 20
30.5228554182
 10
242.9146646596
 20
31.1634507012
 10
242.5107196093
 20
31.8844190754
 10
242.1763881295
 20
32.6808355957
 10
241.9139540433
 20
33.5472599297
 10
241.7252100415
 20
34.4777735207
 10
241.6114454372
 20
35.4660200173
 10
241.5734373578
 20
36.5052486939
  0
LWPOLYLINE
  5
2B8
330
1F
100
AcDbEntity
  8
0
  6
Continuous
 62
     7
370
    18
100
AcDbPolyline
 90
       15
 70
   128
 43
0.0
 10
246.1975184594
 20
33.1696119676
 10
246.1902780194
 20
33.2044373228
 10
246.0476936983
 20
34.1083632718
 10
245.9806927468
 20
35.0665743478
 10
245.9897932932
 20
36.0716605625
 10
246.0749249618
 20
37.1158494349
 10
246.2354294166
 20
38.1910660975
 10
246.4700654529
 20
39.2889957404
 10
246.7770185954
 20
40.4011479105
 10
247.1539151299
 20
41.5189221701
 10
247.5978404595
 20
42.633674605
 10
248.1053616438
 20
43.7367846691
 10
248.6725539461
 20
44.8197218486
 10
249.2950311843
 20
45.8741116296
 10
249.9679796493
 20
46.8918002593
  0
LWPOLYLINE
  5
2B9
330
1F
100
AcDbEntity
  8
0
  6
Continuous
 62
     7
370
    18
100
AcDbPolyline
 90
       19
 70
   128
 43
0.0
 10
246.7093145338
 20
30.2396844188
 10
246.5605341011
 20
30.4514570902
 10
246.1621959166
 20
31.1375527777
 10
245.834337541
 20
31.900859904
 10
245.5794420678
 20
32.7355974269
 10
245.3994399931
 20
33.6354433136
 10
245.2956945948
 20
34.5935824214
 10
245.268991607
 20
35.6027581135
 10
245.3195332694
 20
36.6553272185
 10
245.4469367959
 20
37.7433179174
 10
245.6502372732
 20
38.8584901192
 10
245.9278949691
 20
39.9923978692
 10
246.2778069935
 20
41.1364533157
 10
246.6973232258
 20
42.2819917513
 10
247.183266385
 20
43.4203372374
 10
247.7319560945
 20
44.5428683121
 10
248.3392367552
 20
45.6410832869
 10
249.0005090192
 20
46.7066646356
 10
249.7107646234
 20
47.7315419886
  0
ARC
  5
2BA
330
1F
100
AcDbEntity
  8
0
  6
Continuous
 62
     7
370
    18
100
AcDbCircle
 10
262.9386793766
 20
39.7394020936
 30
0.0
 40
14.59972786471477
100
AcDbArc
 50
110.186167714
 51
139.1704721415
  0
LWPOLYLINE
  5
2BB
330
1F
100
AcDbEntity
  8
0
  6
Continuous
 62
     7
370
    18
100
AcDbPolyline
 90
       13
 70
   128
 43
0.0
 10
251.0549578642
 20
49.4037056012
 10
251.8828676134
 20
50.2895809687
 10
252.7386977386
 20
51.1056999855
 10
253.6157833456
 20
51.8457070131
 10
254.50729401
 20
52.5038391454
 10
255.4062869706
 20
53.0749710883
 10
256.3057611966
 20
53.5546550735
 10
257.1987119092
 20
53.9391554964
 10
258.0781851325
 20
54.2254780073
 10
258.9373318484
 20
54.4113928304
 10
259.7694613342
 20
54.4954521285
 10
260.5680932675
 20
54.4770012784
 10
260.6939214816
 20
54.4643589703
  0
LINE
  5
2BC
330
1F
100
AcDbEntity
  8
0
  6
Continuous
 62
     7
370
    18
100
AcDbLine
 10
237.0870728494
 20
46.8778563973
 30
0.0
 11
237.3932369729
 21
46.5071211276
 31
0.0
  0
LINE
  5
2BD
330
1F
100
AcDbEntity
  8
0
  6
Continuous
 62
     7
370
    18
100
AcDbLine
 10
237.0870728494
 20
39.113746006
 30
0.0
 11
237.3932369729
 21
39.80127971
 31
0.0
  0
LINE
  5
2BE
330
1F
100
AcDbEntity
  8
0
  6
Continuous
 62
     7
370
    18
100
AcDbLine
 10
238.1291471267
 20
40.226111599
 30
0.0
 11
237.393244299
 21
39.8012839393
 31
0.0
  0
LINE
  5
2BF
330
1F
100
AcDbEntity
  8
0
  6
Continuous
 62
     7
370
    18
100
AcDbLine
 10
238.0625717515
 20
40.9693374921
 30
0.0
 11
236.7533007776
 21
40.2135114471
 31
0.0
  0
LINE
  5
2C0
330
1F
100
AcDbEntity
  8
0
  6
Continuous
 62
     7
370
    18
100
AcDbLine
 10
233.5762221348
 20
41.7879201022
 30
0.0
 11
233.279734632
 21
41.2918584946
 31
0.0
  0
LINE
  5
2C1
330
1F
100
AcDbEntity
  8
0
  6
Continuous
 62
     7
370
    18
100
AcDbLine
 10
235.4080397633
 20
42.8454059099
 30
0.0
 11
233.5762823842
 21
41.7879548834
 31
0.0
  0
LINE
  5
2C2
330
1F
100
AcDbEntity
  8
0
  6
Continuous
 62
     7
370
    18
100
AcDbLine
 10
235.4080397633
 20
42.8454059099
 30
0.0
 11
235.529349725
 21
42.7836550721
 31
0.0
  0
OLE2FRAME
  5
2C3
330
1F
100
AcDbEntity
  8
0
100
AcDbOle2Frame
 70
     2
  3
Paintbrush-Bild
 10
13.8511154363
 20
38.264191557
 30
0.0
 11
51.6290888628
 21
31.9806341108
 31
0.0
 71
     2
 72
     0
 73
     1
 90
    12928
310
80552BED0767C5B32B40DDAF6807D121434000000000000000006FFBDDFB85D0
310
4940DDAF6807D121434000000000000000006FFBDDFB85D04940416F4BD60AFB
310
3F4000000000000000002BED0767C5B32B40416F4BD60AFB3F40000000000000
310
0000000000000100000000010000010000000100000000000100000000320000
310
D0CF11E0A1B11AE1000000000000000000000000000000003E000300FEFF0900
310
0600000000000000000000000100000001000000000000000010000002000000
310
01000000FEFFFFFF0000000000000000FFFFFFFFFFFFFFFFFFFFFFFFFFFFFFFF
310
FFFFFFFFFFFFFFFFFFFFFFFFFFFFFFFFFFFFFFFFFFFFFFFFFFFFFFFFFFFFFFFF
310
FFFFFFFFFFFFFFFFFFFFFFFFFFFFFFFFFFFFFFFFFFFFFFFFFFFFFFFFFFFFFFFF
310
FFFFFFFFFFFFFFFFFFFFFFFFFFFFFFFFFFFFFFFFFFFFFFFFFFFFFFFFFFFFFFFF
310
FFFFFFFFFFFFFFFFFFFFFFFFFFFFFFFFFFFFFFFFFFFFFFFFFFFFFFFFFFFFFFFF
310
FFFFFFFFFFFFFFFFFFFFFFFFFFFFFFFFFFFFFFFFFFFFFFFFFFFFFFFFFFFFFFFF
310
FFFFFFFFFFFFFFFFFFFFFFFFFFFFFFFFFFFFFFFFFFFFFFFFFFFFFFFFFFFFFFFF
310
FFFFFFFFFFFFFFFFFFFFFFFFFFFFFFFFFFFFFFFFFFFFFFFFFFFFFFFFFFFFFFFF
310
FFFFFFFFFFFFFFFFFFFFFFFFFFFFFFFFFFFFFFFFFFFFFFFFFFFFFFFFFFFFFFFF
310
FFFFFFFFFFFFFFFFFFFFFFFFFFFFFFFFFFFFFFFFFFFFFFFFFFFFFFFFFFFFFFFF
310
FFFFFFFFFFFFFFFFFFFFFFFFFFFFFFFFFFFFFFFFFFFFFFFFFFFFFFFFFFFFFFFF
310
FFFFFFFFFFFFFFFFFFFFFFFFFFFFFFFFFFFFFFFFFFFFFFFFFFFFFFFFFFFFFFFF
310
FFFFFFFFFFFFFFFFFFFFFFFFFFFFFFFFFFFFFFFFFFFFFFFFFFFFFFFFFFFFFFFF
310
FFFFFFFFFFFFFFFFFFFFFFFFFFFFFFFFFFFFFFFFFFFFFFFFFFFFFFFFFFFFFFFF
310
FDFFFFFFFEFFFFFFFEFFFFFFFEFFFFFF05000000060000000700000008000000
310
090000000A0000000B0000000C0000000D0000000E0000000F00000010000000
310
11000000120000001300000014000000150000001600000017000000FEFFFFFF
310
FFFFFFFFFFFFFFFFFFFFFFFFFFFFFFFFFFFFFFFFFFFFFFFFFFFFFFFFFFFFFFFF
310
FFFFFFFFFFFFFFFFFFFFFFFFFFFFFFFFFFFFFFFFFFFFFFFFFFFFFFFFFFFFFFFF
310
FFFFFFFFFFFFFFFFFFFFFFFFFFFFFFFFFFFFFFFFFFFFFFFFFFFFFFFFFFFFFFFF
310
FFFFFFFFFFFFFFFFFFFFFFFFFFFFFFFFFFFFFFFFFFFFFFFFFFFFFFFFFFFFFFFF
310
FFFFFFFFFFFFFFFFFFFFFFFFFFFFFFFFFFFFFFFFFFFFFFFFFFFFFFFFFFFFFFFF
310
FFFFFFFFFFFFFFFFFFFFFFFFFFFFFFFFFFFFFFFFFFFFFFFFFFFFFFFFFFFFFFFF
310
FFFFFFFFFFFFFFFFFFFFFFFFFFFFFFFFFFFFFFFFFFFFFFFFFFFFFFFFFFFFFFFF
310
FFFFFFFFFFFFFFFFFFFFFFFFFFFFFFFFFFFFFFFFFFFFFFFFFFFFFFFFFFFFFFFF
310
FFFFFFFFFFFFFFFFFFFFFFFFFFFFFFFFFFFFFFFFFFFFFFFFFFFFFFFFFFFFFFFF
310
FFFFFFFFFFFFFFFFFFFFFFFFFFFFFFFFFFFFFFFFFFFFFFFFFFFFFFFFFFFFFFFF
310
FFFFFFFFFFFFFFFFFFFFFFFFFFFFFFFFFFFFFFFFFFFFFFFFFFFFFFFFFFFFFFFF
310
FFFFFFFFFFFFFFFFFFFFFFFFFFFFFFFFFFFFFFFFFFFFFFFFFFFFFFFFFFFFFFFF
310
FFFFFFFFFFFFFFFFFFFFFFFFFFFFFFFFFFFFFFFFFFFFFFFFFFFFFFFFFFFFFFFF
310
52006F006F007400200045006E00740072007900000000000000000000000000
310
0000000000000000000000000000000000000000000000000000000000000000
310
16000500FFFFFFFFFFFFFFFF020000000A00030000000000C000000000000046
310
000000000000000000000000507FF78905A7D30103000000C000000000000000
310
01004F006C006500000000000000000000000000000000000000000000000000
310
0000000000000000000000000000000000000000000000000000000000000000
310
0A000200FFFFFFFFFFFFFFFFFFFFFFFF00000000000000000000000000000000
310
0000000000000000000000000000000000000000000000001400000000000000
310
010043006F006D0070004F0062006A0000000000000000000000000000000000
310
0000000000000000000000000000000000000000000000000000000000000000
310
120002010100000003000000FFFFFFFF00000000000000000000000000000000
310
0000000000000000000000000000000000000000010000004D00000000000000
310
01004F006C006500310030004E00610074006900760065000000000000000000
310
0000000000000000000000000000000000000000000000000000000000000000
310
1A000200FFFFFFFFFFFFFFFFFFFFFFFF00000000000000000000000000000000
310
0000000000000000000000000000000000000000040000002426000000000000
310
FEFFFFFF02000000FEFFFFFFFFFFFFFFFFFFFFFFFFFFFFFFFFFFFFFFFFFFFFFF
310
FFFFFFFFFFFFFFFFFFFFFFFFFFFFFFFFFFFFFFFFFFFFFFFFFFFFFFFFFFFFFFFF
310
FFFFFFFFFFFFFFFFFFFFFFFFFFFFFFFFFFFFFFFFFFFFFFFFFFFFFFFFFFFFFFFF
310
FFFFFFFFFFFFFFFFFFFFFFFFFFFFFFFFFFFFFFFFFFFFFFFFFFFFFFFFFFFFFFFF
310
FFFFFFFFFFFFFFFFFFFFFFFFFFFFFFFFFFFFFFFFFFFFFFFFFFFFFFFFFFFFFFFF
310
FFFFFFFFFFFFFFFFFFFFFFFFFFFFFFFFFFFFFFFFFFFFFFFFFFFFFFFFFFFFFFFF
310
FFFFFFFFFFFFFFFFFFFFFFFFFFFFFFFFFFFFFFFFFFFFFFFFFFFFFFFFFFFFFFFF
310
FFFFFFFFFFFFFFFFFFFFFFFFFFFFFFFFFFFFFFFFFFFFFFFFFFFFFFFFFFFFFFFF
310
FFFFFFFFFFFFFFFFFFFFFFFFFFFFFFFFFFFFFFFFFFFFFFFFFFFFFFFFFFFFFFFF
310
FFFFFFFFFFFFFFFFFFFFFFFFFFFFFFFFFFFFFFFFFFFFFFFFFFFFFFFFFFFFFFFF
310
FFFFFFFFFFFFFFFFFFFFFFFFFFFFFFFFFFFFFFFFFFFFFFFFFFFFFFFFFFFFFFFF
310
FFFFFFFFFFFFFFFFFFFFFFFFFFFFFFFFFFFFFFFFFFFFFFFFFFFFFFFFFFFFFFFF
310
FFFFFFFFFFFFFFFFFFFFFFFFFFFFFFFFFFFFFFFFFFFFFFFFFFFFFFFFFFFFFFFF
310
FFFFFFFFFFFFFFFFFFFFFFFFFFFFFFFFFFFFFFFFFFFFFFFFFFFFFFFFFFFFFFFF
310
FFFFFFFFFFFFFFFFFFFFFFFFFFFFFFFFFFFFFFFFFFFFFFFFFFFFFFFFFFFFFFFF
310
FFFFFFFFFFFFFFFFFFFFFFFFFFFFFFFFFFFFFFFFFFFFFFFFFFFFFFFFFFFFFFFF
310
0100000200000000000000000000000000000000000000000000000000000000
310
0000000000000000000000000000000000000000000000000000000000000000
310
0100FEFF030A0000FFFFFFFF0A00030000000000C00000000000004607000000
310
5042727573680007000000504272757368000700000050427275736800F439B2
310
7100000000000000000000000000000000000000000000000000000000000000
310
0000000000000000000000000000000000000000000000000000000000000000
310
0000000000000000000000000000000000000000000000000000000000000000
310
0000000000000000000000000000000000000000000000000000000000000000
310
0000000000000000000000000000000000000000000000000000000000000000
310
0000000000000000000000000000000000000000000000000000000000000000
310
0000000000000000000000000000000000000000000000000000000000000000
310
0000000000000000000000000000000000000000000000000000000000000000
310
0000000000000000000000000000000000000000000000000000000000000000
310
0000000000000000000000000000000000000000000000000000000000000000
310
0000000000000000000000000000000000000000000000000000000000000000
310
0000000000000000000000000000000000000000000000000000000000000000
310
20260000424D0E260000000000003E00000028000000B40200006E0000000100
310
01000000000000000000130B0000130B00000200000002000000000000FFFFFF
310
FFFFFFFFFFFFFFFFFFFFFFFFFFFFFFFFFFFFFFFFFFFFFFFFFFFFFFFFFFFFFFFF
310
FFFFFFFFFFFFFFFFFFFFFFFFFFFFFFFFFFFFFFFFFFFFFFFFFFFFFFFFFFFFFFFF
310
FFFFFFFFFFFFFFFFFFFFFFFFFFFFFFFFFFFFFFFFFFFFFFFFF000FFFFFFFFFFFF
310
FFFFFFFFFFFFFFFFFFFFFFFFFFFFFFFFFFFFFFFFFFFFFFFFFFFFFFFFFFFFFFFF
310
FFFFFFFFFFFFFFFFFFFFFFFFFFFFFFFFFFFFFFFFFFFFFFFFFFFFFFFFFFFFFFFF
310
FFFFFFFFFFFFFFFFFFFFFFFFFFFFFFFFF000FFFFFFFFFFFFFFFFFFFFFFFFFFFF
310
FFFFFFFFFFFFFFFFFFFFFFFFFFFFFFFFFFFFFFFFFFFFFFFFFFFFFFFFFFFFFFFF
310
FFFFFFFFFFFFFFFFFFFFFFFFFFFFFFFFFFFFFFFFFFFFFFFFFFFFFFFFFFFFFFFF
310
FFFFFFFFFFFFFFFFF000FFFFFFFFFFFFFFFFFFFFFFFFFFFFFFFFFFFFFFFFFFFF
310
FFFFFFFFFFFFFFFFFFFFFFFFFFFFFFFFFFFFFFFFFFFFFFFFFFFFFFFFFFFFFFFF
310
FFFFFFFFFFFFFFFFFFFFFFFFFFFFFFFFFFFFFFFFFFFFFFFFFFFFFFFFFFFFFFFF
310
F000FFFFFFFFFFFFFFFFFFFFFFFFFFFFFFFFFFFFFFFFFFFFFFFFFFFFFFFFFFFF
310
FFFFFFFFFFFFFFFFFFFFFFFFFFFFFFFFFFFFFFFFFFFFFFFFFFFFFFFFFFFFFFFF
310
FFFFFFFFFFFFFFFFFFFFFFFFFFFFFFFFFFFFFFFFFFFFFFFFF000FFFFFFFFFFFF
310
FFFFFFFFFFFFFFFFFFFFFFFFFFFFFFFFFFFFFFFFFFFFFFFFFFFFFFFFFFFFFFFF
310
FFFFFFFFFFFFFFFFFFFFFFFFFFFFFFFFFFFFFFFFFFFFFFFFFFFFFFFFFFFFFFFF
310
FFFFFFFFFFFFFFFFFFFFFFFFFFFFFFFFF000FFFFFFFFFFFFFFFFFFFFFFFFFFFF
310
FFFFFFFFFFFFFFFFFFFFFFFFFFFFFFFFFFFFFFFFFFFFFFFFFFFFFFFFFFFFFFFF
310
FFFFFFFFFFFFFFFFFFFFFFFFFFFFFFFFFFFFFFFFFFFFFFFFFFFFFFFFFFFFFFFF
310
FFFFFFFFFFFFFFFFF000FFFFFFFFFFFFFFFFFFFFFFFFFFFFFFFFFFFFFFFFFFFF
310
FFFFFFFFFFFFFFFFFFFFFFFFFFFFFFFFFFFFFFFFFFFFFFFFFFFFFFFFFFFFFFFF
310
FFFFFFFFFFFFFFFFFFFFFFFFFFFFFFFFFFFFFFFFFFFFFFFFFFFFFFFFFFFFFFFF
310
F000FFFFFFFFFFFFFFFFFFFFFFFFFFFFFFFFFFFFFFFFFFFFFFFFFFFFFFFFFFFF
310
FFFFFFFFFFFFFFFFFFFFFFFFFFFFFFFFFFFFFFFFFFFFFFFFFFFFFFFFFFFFFFFF
310
FFFFFFFFFFFFFFFFFFFFFFFFFFFFFFFFFFFFFFFFFFFFFFFFF000FFFFFFFFFFFF
310
FFFFFFFFFFFFFFFFFFFFFFFFFFFFFFFFFFFFFFFFFFFFFFFFFFFFFFFFFFFFFFFF
310
FFFFFFFFFFFFFFFFFFFFFFFFFFFFFFFFFFFFFFFFFFFFFFFFFFFFFFFFFFFFFFFF
310
FFFFFFFFFFFFFFFFFFFFFFFFFFFFFFFFF000FFFFFFFFFFFFFFFFFFFFFFFFFFFF
310
FFFFFFFFFFFFFFFFFFFFFFFFFFFFFFFFFFFFFFFFFFFFFFFFFFFFFFFFFFFFFFFF
310
FFFFFFFFFFFFFFFFFFFFFFFFFFFFFFFFFFFFFFFFFFFFFFFFFFFFFFFFFFFFFFFF
310
FFFFFFFFFFFFFFFFF000FFFFFFFFFFFFFFFFFFFFFFFFFFFFFFFFFFFFFFFFFFFF
310
FFFFFFFFFFFFFFFFFFFFFFFFFFFFFFFFFFFFFFFFFFFFFFFFFFFFFFFFFFFFFFFF
310
FFFFFFFFFFFFFFFFFFFFFFFFFFFFFFFFFFFFFFFFFFFFFFFFFFFFFFFFFFFFFFFF
310
F000FFFFFFFFFFFFFFFFFFFFFFFFFFFFFFFFFFFFFFFFFFFFFFFFFFFFFFFFFFFF
310
FFFFFFFFFFFFFFFFFFFFFFFFFFFFFFFFFFFFFFFFFFFFFFFFFFFFFFFFFFFFFFFF
310
FFFFFFFFFFFFFFFFFFFFFFFFFFFFFFFFFFFFFFFFFFFFFFFFF000FFFFFFFFFFFF
310
FFFFFFFFFFFFFFFFFFFFFFFFFFFFFFFFFFFFFFFFFFFFFFFFFFFFFFFFFFFFFFFF
310
FFFFFFFFFFFFFFFFFFFFFFFFFFFFFFFFFFFFFFFFFFFFFFFFFFFFFFFFFFFFFFFF
310
FFFFFFFFFFFFFFFFFFFFFFFFFFFFFFFFF000FFFFFFFFFFFFFFFFFFFFFFFFFFFF
310
FFFFFFFFFFFFFFFFFFFFFFFFFFFFFFFFFFFFFFFFFFFFFFFFFFFFFFFFFFFFFFFF
310
FFFFFFFFFFFFFFFFFFFFFFFFFFFFFFFFFFFFFFFFFFFFFFFFFFFFFFFFFFFFFFFF
310
FFFFFFFFFFFFFFFFF000FFFFFFFFFFFFFFFFFFFFFFFFFFFFFFFFFFFFFFFFFFFF
310
FFFFFFFFFFFFFFFFFFFFFFFFFFFFFFFFFFFFFFFFFFFFFFFFFFFFFFFFFFFFFFFF
310
FFFFFFFFFFFFFFFFFFFFFFFFFFFFFFFFFFFFFFFFFFFFFFFFFFFFFFFFFFFFFFFF
310
F000FFFFFFFFFFFFFFFFFFFFFFFFFFFFFFFFFFFFFFFFFFFFFFFFFFFFFFFFFFFF
310
FFFFFFFFFFFFFFFFFFFFFFFFFFFFFFFFFFFFFFFFFFFFFFFFFFFFFFFFFFFFFFFF
310
FFFFFFFFFFFFFFFFFFFFFFFFFFFFFFFFFFFFFFFFFFFFFFFFF000FFFFFFFFFFFF
310
FFFFFFFFFFFFFFFFFFFFFFFFFFFFFFFFFFFFFFFFFFFFFFFFFFFFFFFFFFFFFFFF
310
FFFFFFFFFFFFFFFFFFFFFFFFFFFFFFFFFFFFFFFFFFFFFFFFFFFFFFFFFFFFFFFF
310
FFFFFFFFFFFFFFFFFFFFFFFFFFFFFFFFF000FFFFFFFFFFFFFFFFFFFFFFFFFFFF
310
FFFFFFFFFFFFFFFFFFFFFFFFFFFFFFFFFFFFFFFFFFFFFFFFFFFFFFFFFFFFFFFF
310
FFFFFFFFFFFFFFFFFFFFFFFFFFFFFFFFFFFFFFFFFFFFFFFFFFFFFFFFFFFFFFFF
310
FFFFFFFFFFFFFFFFF000FFFFF80003FFFFFFFFFFFFFFFFFFFFFFFFFFFFFFFFFF
310
FFFFF00007FFFFFFFFFF00007FFFFFF800000000000000007FFFFFFFFFFFFFFF
310
FFFFFFFC001FFFFFFFFFFFFFFC001FFFFFFFFFFFFFFFFFFFFFFFFFFE0007FFFF
310
F000FFFF8000007FFFFFFFF8000FFFFFC0007FFFFF80007FFFFF0000007FFFFF
310
FFF8000007FFFFF800000000000000007FFFFFF0001FFFFFFFFFFFC00001FFFF
310
FFFFFFFFC00001FFFFFFFF000000000003FFFFE000007FFFF000FFFE0000000F
310
FFFFFFF0000FFFFF80007FFFFF80007FFFFC0000001FFFFFFFC0000001FFFFF8
310
00000000000000007FFFFFF0001FFFFFFFFFFE0000003FFFFFFFFFFE0000003F
310
FFFFFF000000000003FFFF0000000FFFF000FFF800000003FFFFFFF00007FFFF
310
80007FFFFF80007FFFF000000007FFFFFF000000003FFFF80000000000000000
310
7FFFFFF0001FFFFFFFFFF80000000FFFFFFFFFF80000000FFFFFFF0000000000
310
03FFFC00000003FFF000FFE000000000FFFFFFF00007FFFF80003FFFFF80007F
310
FFC000000001FFFFFC000000001FFFF800000000000000007FFFFFF0001FFFFF
310
FFFFE000000003FFFFFFFFE000000003FFFFFF000000000003FFF000000000FF
310
F000FF80000000007FFFFFF00007FFFF80003FFFFF80007FFF8000000000FFFF
310
F80000000007FFF800000000000000007FFFFFF0001FFFFFFFFFC000000001FF
310
FFFFFFC000000001FFFFFF000000000003FFC0000000007FF000FF0000000000
310
3FFFFFE00007FFFF00003FFFFF80007FFE00000000003FFFF00000000003FFF8
310
00000000000000007FFFFFF0001FFFFFFFFF8000000000FFFFFFFF8000000000
310
FFFFFF000000000003FF80000000003FF000FE00000000001FFFFFE00003FFFF
310
00003FFFFF80007FFC00000000001FFFE00000000001FFF8000001FFFE000000
310
7FFFFFF0001FFFFFFFFE00000000003FFFFFFE00000000003FFFFF0000000000
310
03FF00000000001FF000FC00000000000FFFFFE00003FFFF00001FFFFF80007F
310
F800000000001FFFC00000000000FFF8000001FFFE0000007FFFFFF0001FFFFF
310
FFFC00000000001FFFFFFC00000000001FFFFF000000000003FE00000000000F
310
F000F8000000000007FFFFE00003FFFF00001FFFFF80007FF800000000000FFF
310
800000000000FFF8000001FFFE0000007FFFFFF0001FFFFFFFF800000000000F
310
FFFFF800000000000FFFFF000000000003FC000000000007F000F80000000000
310
03FFFFC00003FFFE00001FFFFF80007FF0000000000007FF0000000000007FF8
310
000001FFFE0000007FFFFFF0001FFFFFFFF0000000000007FFFFF00000000000
310
07FFFF000000000003F8000000000003F000F0000000000003FFFFC00001FFFE
310
00001FFFFF80007FE0000000000007FE0000000000003FF8000001FFFE000000
310
7FFFFFF0001FFFFFFFF0000000000007FFFFF0000000000007FFFF0000000000
310
03F800001F800003F000E00001FFF00001FFFFC00001FFFE00000FFFFF80007F
310
E00001FFE00003FE00001FFF00003FF8000001FFFE0000007FFFFFF0001FFFFF
310
FFE000003E000003FFFFE000003E000003FFFF000000000003F00001FFF80001
310
F000E00007FFFC0001FFFFC00001FFFE00000FFFFF80007FC0000FFFFC0003FC
310
0000FFFFC0001FF8000001FFFE0000007FFFFFF0001FFFFFFFC00003FFE00001
310
FFFFC00003FFE00001FFFF0001FFFFFFFFF00007FFFE0001F000E0000FFFFF00
310
00FFFF800001FFFC00000FFFFF80007FC0001FFFFE0001FC0001FFFFE0001FF8
310
000001FFFE0000007FFFFFF0001FFFFFFF80000FFFF80000FFFF80000FFFF800
310
00FFFF0003FFFFFFFFE0000FFFFF8000F000C0003FFFFF8000FFFF800000FFFC
310
000007FFFF80007F80003FFFFF0001FC0003FFFFF0001FF8000001FFFE000000
310
7FFFFFF0001FFFFFFF80003FFFFE0000FFFF80003FFFFE0000FFFF0003FFFFFF
310
FFE0003FFFFF8000F000C0003FFFFF8000FFFF800000FFFC000007FFFF80007F
310
80007FFFFF8001F80007FFFFF8000FF8000001FFFE0000007FFFFFF0001FFFFF
310
FF00007FFFFF00007FFF00007FFFFF00007FFF0003FFFFFFFFE0003FFFFFC000
310
F000C0007FFFFFC000FFFF000000FFFC000007FFFF80007F8000FFFFFF8000F8
310
000FFFFFF8000FF8000001FFFE0000007FFFFFF0001FFFFFFF0000FFFFFF8000
310
7FFF0000FFFFFF80007FFF0003FFFFFFFFC0007FFFFFC00070008000FFFFFFC0
310
00FFFF000000FFF8000007FFFF80007F8000FFFFFF8000F8000FFFFFF8000FF8
310
000001FFFE0000007FFFFFF0001FFFFFFE0001FFFFFFC0003FFE0001FFFFFFC0
310
003FFF0003FFFFFFFFC0007FFFFFE00070008000FFFFFFC0007FFF0000007FF8
310
000003FFFF80007F0001FFFFFF8000F8000FFFFFF8000FF8000001FFFE000000
310
7FFFFFF0001FFFFFFE0001FFFFFFC0003FFE0001FFFFFFC0003FFF0003FFFFFF
310
FFC000FFFFFFE00070008000FFFFFFC0007FFF0000007FF8000003FFFF80007F
310
0001FFFFFF8000F8001FFFFFF8000FF8000001FFFE0000007FFFFFF0001FFFFF
310
FE0003FFFFFFE0003FFE0003FFFFFFE0003FFF0003FFFFFFFFC000FFFFFFE000
310
70008000FFFFFFC0007FFE0000007FF8000003FFFF80007F0001FFFFFF8000F0
310
001FFFFFF8000FF8000001FFFE0000007FFFFFF0001FFFFFFC0003FFFFFFE000
310
1FFC0003FFFFFFE0001FFF0003FFFFFFFFC000FFFFFFC00070008000FFFFFF80
310
007FFE0000007FF0000003FFFF80007F0001FFFFFF0000F0001FFFFFF8000FF8
310
000001FFFE0000007FFFFFF0001FFFFFFC0007FFFFFFF0001FFC0007FFFFFFF0
310
001FFF0003FFFFFFFFC000FFFFFFC00070008001FFFFFF0000FFFE0000003FF0
310
000001FFFF80007F0001FFFFFF0000F8001FFFFFF0000FF8000001FFFE000000
310
7FFFFFF0001FFFFFFC0007FFFFFFF0001FFC0007FFFFFFF0001FFF0003FFFFFF
310
FFC001FFFFFF80007000FFFFFFFFFE0000FFFE0008003FF0008001FFFF80007F
310
FFFFFFFFFC0000FFFFFFFFFFE0000FF8000001FFFE0000007FFFFFF0001FFFFF
310
F8000FFFFFFFF8000FF8000FFFFFFFF8000FFF0003FFFFFFFFFFFFFFFFFF0000
310
7000FFFFFFFFFC0000FFFC0008003FF0008001FFFF80007FFFFFFFFFF80001FF
310
FFFFFFFF80000FF8000001FFFE0000007FFFFFF0001FFFFFF8000FFFFFFFF800
310
0FF8000FFFFFFFF8000FFF0003FFFFFFFFFFFFFFFFFE0000F000FFFFFFFFE000
310
00FFFC000C003FE000C001FFFF80007FFFFFFFFFC00001FFFFFFFFFE00001FF8
310
000001FFFE0000007FFFFFF0001FFFFFF8000FFFFFFFF8000FF8000FFFFFFFF8
310
000FFF0003FFFFFFFFFFFFFFFFF00000F000FFFFFFFE000001FFFC000C001FE0
310
00C000FFFF80007FFFFFFFFE000001FFFFFFFFE000001FF80FFFFFFFFFFFFFC0
310
7FFFFFF0001FFFFFF8000FFFFFFFF8000FF8000FFFFFFFF8000FFF0003FFFFFF
310
FFFFFFFFFF800000F000FFFFFFC0000001FFFC001C001FE001C000FFFF80007F
310
FFFFFF80000003FFFFFFF80000001FF80FFFFFFFFFFFFFC07FFFFFF0001FFFFF
310
F8001FFFFFFFFC000FF8001FFFFFFFFC000FFF0003FFFFFFFFFFFFFFF0000001
310
F000FFFFF800000001FFF8001C001FE001C000FFFF80007FFFFFF800000003FF
310
FFFF800000003FF80FFFFFFFFFFFFFC07FFFFFF0001FFFFFF8001FFFFFFFFC00
310
0FF8001FFFFFFFFC000FFF0003FFFFFFFFFFFFFE00000001F000FFFFC0000000
310
03FFF8001E001FC001E000FFFF80007FFFFF8000000007FFFFFC000000003FF8
310
0FFFFFFFFFFFFFC07FFFFFF0001FFFFFF8001FFFFFFFFC000FF8001FFFFFFFFC
310
000FFF0003FFFFFFFFFFFFE000000003F000FFFE0000000007FFF8001E000FC0
310
01E0007FFF80007FFFFE0000000007FFFFE0000000007FF80FFFFFFFFFFFFFC0
310
7FFFFFF0001FFFFFF0001FFFFFFFFC0007F0001FFFFFFFFC0007FF0003FFFFFF
310
FFFFFF0000000003F000FFF80000000007FFF8001E000FC003E0007FFF80007F
310
FFF0000000000FFFFF8000000000FFF80FFFFFFFFFFFFFC07FFFFFF0001FFFFF
310
F0001FFFFFFFFC0007F0001FFFFFFFFC0007FF0003FFFFFFFFFFFC0000000007
310
F000FFE0000000000FFFF0003E000FC003E0007FFF80007FFFC0000000001FFF
310
FE0000000001FFF80FFFFFFFFFFFFFC07FFFFFF0001FFFFFF0001FFFFFFFFC00
310
07F0001FFFFFFFFC0007FF0003FFFFFFFFFFF0000000000FF000FFC000000000
310
1FFFF0003F000F8003F0003FFF80007FFF80000000003FFFF80000000003FFF8
310
0FFFFFFFFFFFFFC07FFFFFF0001FFFFFF0001FFFFFFFFC0007F0001FFFFFFFFC
310
0007FF0003FFFFFFFFFFE0000000001FF000FF00000000007FFFF0003F000780
310
03F0003FFF80007FFF00000000007FFFF00000000007FFF80FFFFFFFFFFFFFC0
310
7FFFFFF0001FFFFFF0001FFFFFFFFC0007F0001FFFFFFFFC0007FF0003FFFFFF
310
FFFF80000000007FF000FE0000000000FFFFE0003F00078007F0003FFF80007F
310
FE0000000001FFFFE0000000001FFFF80FFFFFFFFFFFFFC07FFFFFF0001FFFFF
310
F0001FFFFFFFFC0007F0001FFFFFFFFC0007FF0003FFFFFFFFFF0000000000FF
310
F000FC0000000003FFFFE0007F00078007F0003FFF80007FFC0000000007FFFF
310
C0000000007FFFF80FFFFFFFFFFFFFC07FFFFFF0001FFFFFF8001FFFFFFFFC00
310
0FF8001FFFFFFFFC000FFF0003FFFFFFFFFE0000000003FFF000FC000000000F
310
FFFFE0007F80070007F8001FFF80007FF8000000001FFFFF8000000001FFFFF8
310
0FFFFFFFFFFFFFC07FFFFFF0001FFFFFF8001FFFFFFFFC000FF8001FFFFFFFFC
310
000FFF0003FFFFFFFFFC000000000FFFF000F8000000007FFFFFE0007F800700
310
07F8001FFF80007FF000000000FFFFFF800000000FFFFFF80FFFFFFFFFFFFFC0
310
7FFFFFF0001FFFFFF8000FFFFFFFF8000FF8000FFFFFFFF8000FFF0003FFFFFF
310
FFFC000000007FFFF000F800000007FFFFFFC0007F8003000FF8001FFF80007F
310
F000000007FFFFFF000000007FFFFFF80FFFFFFFFFFFFFC07FFFFFF0001FFFFF
310
F8000FFFFFFFF8000FF8000FFFFFFFF8000FFF0003FFFFFFFFF80000000FFFFF
310
F000F0000000FFFFFFFFC000FF8003000FF8001FFF80007FE0000000FFFFFFFF
310
0000000FFFFFFFF8000001FFFE0000007FFFFFF0001FFFFFF8000FFFFFFFF800
310
0FF8000FFFFFFFF8000FFF0003FFFFFFFFF8000000FFFFFFF000F000000FFFFF
310
FFFFC000FFC002000FF8000FFF80007FE000001FFFFFFFFE000001FFFFFFFFF8
310
000001FFFE0000007FFFFFF0001FFFFFF8000FFFFFFFF8000FF8000FFFFFFFF8
310
000FFF0003FFFFFFFFF000001FFFFFFFF000E00000FFFFFFFFFFC000FFC00200
310
0FFC000FFF80007FE00001FFFFFFFFFE00001FFFFFFFFFF8000001FFFE000000
310
7FFFFFF0001FFFFFFC000FFFFFFFF8001FFC000FFFFFFFF8001FFF0003FFFFFF
310
FFF00001FFFFFFFFF000E00007FFFFFFFFFF8000FFC000001FFC000FFF80007F
310
C0000FFFFFFFFFFE0000FFFFFFFFFFF8000001FFFE0000007FFFFFF0001FFFFF
310
FC0007FFFFFFF0001FFC0007FFFFFFF0001FFF0003FFFFFFFFF00007FFFFFFFF
310
F000E0001FFFFFFFFFFF8000FFC000001FFC000FFF80007FC0003FFFFFFFFFFE
310
0001FFFFFFFFFFF8000001FFFE0000007FFFFFF0001FFFFFFC0007FFFFFFF000
310
1FFC0007FFFFFFF0001FFF0003FFFFFFFFF0001FFFFFFFFFF000E0003FFFFF00
310
03FF8001FFE000001FFC0007FF80007FC0007FFFFF0007FC0003FFFFF0003FF8
310
000001FFFE0000007FFFFFF0001FFFFFFC0003FFFFFFE0001FFC0003FFFFFFE0
310
001FFF0003FFFFFFFFF0003FFFFFFFFFF000E0003FFFFF0001FF8001FFE00000
310
1FFE0007FF80007FC0007FFFFE0003FC0007FFFFE0003FF8000001FFFE000000
310
7FFFFFF0001FFFFFFE0003FFFFFFE0003FFE0003FFFFFFE0003FFF0003FFFFFF
310
FFF0003FFFFF8001F000E0003FFFFF0001FF0001FFE000001FFE0007FF80007F
310
C0007FFFFE0003FC0007FFFFE0003FF8000001FFFE0000007FFFFFF0001FFFFF
310
FE0001FFFFFFC0003FFE0001FFFFFFC0003FFF0003FFFFFFFFF0003FFFFF0001
310
F000E0003FFFFF0003FF0001FFE000003FFE0007FF80007FC0007FFFFE0003FC
310
0007FFFFE0003FF8000001FFFE0000007FFFFFF0001FFFFFFF0001FFFFFFC000
310
7FFF0001FFFFFFC0007FFF0003FFFFFFFFF0003FFFFF0001F000E0003FFFFE00
310
03FF0003FFF000003FFE0003FF80007FC0007FFFFC0003FE0007FFFFE0003FF8
310
000001FFFE0000007FFFFFF0001FFFFFFF0000FFFFFF80007FFF0000FFFFFF80
310
007FFF0003FFFFFFFFF0003FFFFF0001F000E0003FFFFE0003FF0003FFF00000
310
3FFF0003FF80007FC0007FFFFC0007FE0007FFFFC0003FF8000001FFFE000000
310
7FFFFFF0001FFFFFFF80007FFFFF0000FFFF80007FFFFF0000FFFF0003FFFFFF
310
FFF0003FFFFF0003F000E0003FFFFC0003FE0003FFF000003FFF0003FF80007F
310
E0003FFFF80007FE0003FFFFC0007FF8000001FFFE0000007FFFFFF0001FFFFF
310
FF80003FFFFE0000FFFF80003FFFFE0000FFFF0003FFFFFFFFF0001FFFFE0003
310
F000F0001FFFF80003FE0003FFF000007FFF0001FF80007FE0003FFFF00007FE
310
0001FFFF80007FF8000001FFFE0000007FFFFFF0001FFFFFFFC0000FFFF80001
310
FFFFC0000FFFF80001FFFF0003FFFFFFFFF0001FFFFC0003F000F0000FFFF000
310
07FE0007FFF800007FFF0001FF80007FE0001FFFE00007FF0000FFFE00007FF8
310
000001FFFE0000007FFFFFF0001FFFFFFFC00003FFE00001FFFFC00003FFE000
310
01FFFF0003FFFFFFFFF8000FFFF80003F000F00003FFC00007FC0007FFF80000
310
7FFF8001FF80007FF00007FF80000FFF00007FF80000FFF8000001FFFE000000
310
7F80000000000001FFE000003E000003FFFFE000003E000003FFFF0003FFFFFF
310
FFF80003FFE00007F000F800000000000FFC0007FFF800007FFF8001FF80007F
310
F000000000000FFF000000000000FFF8000001FFFE0000007F80000000000001
310
FFF0000000000007FFFFF0000000000007FFFF0003FFFFFFFFFC00007E000007
310
F000F800000000000FFC0007FFF80000FFFF8000FF80007FF800000000001FFF
310
800000000001FFF8000001FFFE0000007F80000000000001FFF800000000000F
310
FFFFF800000000000FFFFF0003FFFFFFFFFC00000000000FF000FC0000000000
310
1FFC0007FFFC0000FFFF8000FF80007FF800000000003FFFC00000000001FFF8
310
000001FFFE0000007F80000000000001FFF800000000000FFFFFF80000000000
310
0FFFFF0003FFFFFFFFFE00000000001FF000FE00000000003FF8000FFFFC0000
310
FFFF8000FF80007FFC00000000003FFFC00000000003FFF8000001FFFE000000
310
7F80000000000001FFFC00000000001FFFFFFC00000000001FFFFF0003FFFFFF
310
FFFF00000000001FF000FF00000000003FF8000FFFFC0000FFFFC000FF80007F
310
FE00000000007FFFE00000000007FFF8000001FFFE0000007F80000000000001
310
FFFE00000000003FFFFFFE00000000003FFFFF0003FFFFFFFFFF80000000003F
310
F000FF80000000007FF8000FFFFC0001FFFFC0007F80007FFF0000000000FFFF
310
F0000000000FFFF800000000000000007F80000000000001FFFF8000000000FF
310
FFFFFF8000000000FFFFFF0003FFFFFFFFFFC0000000007FF000FFC000000000
310
FFF8000FFFFE0001FFFFC0007F80007FFF8000000001FFFFF8000000001FFFF8
310
00000000000000007F80000000000001FFFFC000000001FFFFFFFFC000000001
310
FFFFFF0003FFFFFFFFFFE000000000FFF000FFE000000003FFF0001FFFFE0001
310
FFFFC0007F80007FFFC000000007FFFFFE000000003FFFF80000000000000000
310
7F80000000000001FFFFE000000003FFFFFFFFE000000003FFFFFF0003FFFFFF
310
FFFFF000000003FFF000FFF80000000FFFF0001FFFFE0001FFFFE0007F80007F
310
FFF00000000FFFFFFF00000000FFFFF800000000000000007F80000000000001
310
FFFFF80000000FFFFFFFFFF80000000FFFFFFF0003FFFFFFFFFFFC0000000FFF
310
F000FFFE0000003FFFF0001FFFFE0003FFFFE0003F80007FFFFC0000003FFFFF
310
FFC0000003FFFFF800000000000000007F80000000000001FFFFFE0000003FFF
310
FFFFFFFE0000003FFFFFFF0003FFFFFFFFFFFF0000003FFFF000FFFF800000FF
310
FFF0001FFFFF0003FFFFE0003F80007FFFFF000001FFFFFFFFF800001FFFFFF8
310
00000000000000007F80000000000001FFFFFFC00001FFFFFFFFFFFFC00001FF
310
FFFFFF0003FFFFFFFFFFFFC00000FFFFF000FFFFF8000FFFFFFFFFFFFFFFFFFF
310
FFFFFFFFFFFFFFFFFFFFF0001FFFFFFFFFFF0000FFFFFFF80000000000000000
310
7FFFFFFFFFFFFFFFFFFFFFFC001FFFFFFFFFFFFFFC001FFFFFFFFFFFFFFFFFFF
310
FFFFFFFC001FFFFFF000FFFFFFFFFFFFFFFFFFFFFFFFFFFFFFFFFFFFFFFFFFFF
310
FFFFFFFFFFFFFFFFFFFFFFFFFFFFFFFFFFFFFFFFFFFFFFFFFFFFFFFFFFFFFFFF
310
FFFFFFFFFFFFFFFFFFFFFFFFFFFFFFFFFFFFFFFFFFFFFFFFFFFFFFFFFFFFFFFF
310
F000FFFFFFFFFFFFFFFFFFFFFFFFFFFFFFFFFFFFFFFFFFFFFFFFFFFFFFFFFFFF
310
FFFFFFFFFFFFFFFFFFFFFFFFFFFFFFFFFFFFFFFFFFFFFFFFFFFFFFFFFFFFFFFF
310
FFFFFFFFFFFFFFFFFFFFFFFFFFFFFFFFFFFFFFFFFFFFFFFFF000FFFFFFFFFFFF
310
FFFFFFFFFFFFFFFFFFFFFFFFFFFFFFFFFFFFFFFFFFFFFFFFFFFFFFFFFFFFFFFF
310
FFFFFFFFFFFFFFFFFFFFFFFFFFFFFFFFFFFFFFFFFFFFFFFFFFFFFFFFFFFFFFFF
310
FFFFFFFFFFFFFFFFFFFFFFFFFFFFFFFFF000FFFFFFFFFFFFFFFFFFFFFFFFFFFF
310
FFFFFFFFFFFFFFFFFFFFFFFFFFFFFFFFFFFFFFFFFFFFFFFFFFFFFFFFFFFFFFFF
310
FFFFFFFFFFFFFFFFFFFFFFFFFFFFFFFFFFFFFFFFFFFFFFFFFFFFFFFFFFFFFFFF
310
FFFFFFFFFFFFFFFFF000FFFFFFFFFFFFFFFFFFFFFFFFFFFFFFFFFFFFFFFFFFFF
310
FFFFFFFFFFFFFFFFFFFFFFFFFFFFFFFFFFFFFFFFFFFFFFFFFFFFFFFFFFFFFFFF
310
FFFFFFFFFFFFFFFFFFFFFFFFFFFFFFFFFFFFFFFFFFFFFFFFFFFFFFFFFFFFFFFF
310
F000FFFFFFFFFFFFFFFFFFFFFFFFFFFFFFFFFFFFFFFFFFFFFFFFFFFFFFFFFFFF
310
FFFFFFFFFFFFFFFFFFFFFFFFFFFFFFFFFFFFFFFFFFFFFFFFFFFFFFFFFFFFFFFF
310
FFFFFFFFFFFFFFFFFFFFFFFFFFFFFFFFFFFFFFFFFFFFFFFFF000FFFFFFFFFFFF
310
FFFFFFFFFFFFFFFFFFFFFFFFFFFFFFFFFFFFFFFFFFFFFFFFFFFFFFFFFFFFFFFF
310
FFFFFFFFFFFFFFFFFFFFFFFFFFFFFFFFFFFFFFFFFFFFFFFFFFFFFFFFFFFFFFFF
310
FFFFFFFFFFFFFFFFFFFFFFFFFFFFFFFFF000FFFFFFFFFFFFFFFFFFFFFFFFFFFF
310
FFFFFFFFFFFFFFFFFFFFFFFFFFFFFFFFFFFFFFFFFFFFFFFFFFFFFFFFFFFFFFFF
310
FFFFFFFFFFFFFFFFFFFFFFFFFFFFFFFFFFFFFFFFFFFFFFFFFFFFFFFFFFFFFFFF
310
FFFFFFFFFFFFFFFFF000FFFFFFFFFFFFFFFFFFFFFFFFFFFFFFFFFFFFFFFFFFFF
310
FFFFFFFFFFFFFFFFFFFFFFFFFFFFFFFFFFFFFFFFFFFFFFFFFFFFFFFFFFFFFFFF
310
FFFFFFFFFFFFFFFFFFFFFFFFFFFFFFFFFFFFFFFFFFFFFFFFFFFFFFFFFFFFFFFF
310
F000FFFFFFFFFFFFFFFFFFFFFFFFFFFFFFFFFFFFFFFFFFFFFFFFFFFFFFFFFFFF
310
FFFFFFFFFFFFFFFFFFFFFFFFFFFFFFFFFFFFFFFFFFFFFFFFFFFFFFFFFFFFFFFF
310
FFFFFFFFFFFFFFFFFFFFFFFFFFFFFFFFFFFFFFFFFFFFFFFFF000FFFFFFFFFFFF
310
FFFFFFFFFFFFFFFFFFFFFFFFFFFFFFFFFFFFFFFFFFFFFFFFFFFFFFFFFFFFFFFF
310
FFFFFFFFFFFFFFFFFFFFFFFFFFFFFFFFFFFFFFFFFFFFFFFFFFFFFFFFFFFFFFFF
310
FFFFFFFFFFFFFFFFFFFFFFFFFFFFFFFFF000FFFFFFFFFFFFFFFFFFFFFFFFFFFF
310
FFFFFFFFFFFFFFFFFFFFFFFFFFFFFFFFFFFFFFFFFFFFFFFFFFFFFFFFFFFFFFFF
310
FFFFFFFFFFFFFFFFFFFFFFFFFFFFFFFFFFFFFFFFFFFFFFFFFFFFFFFFFFFFFFFF
310
FFFFFFFFFFFFFFFFF000FFFFFFFFFFFFFFFFFFFFFFFFFFFFFFFFFFFFFFFFFFFF
310
FFFFFFFFFFFFFFFFFFFFFFFFFFFFFFFFFFFFFFFFFFFFFFFFFFFFFFFFFFFFFFFF
310
FFFFFFFFFFFFFFFFFFFFFFFFFFFFFFFFFFFFFFFFFFFFFFFFFFFFFFFFFFFFFFFF
310
F000FFFFFFFFFFFFFFFFFFFFFFFFFFFFFFFFFFFFFFFFFFFFFFFFFFFFFFFFFFFF
310
FFFFFFFFFFFFFFFFFFFFFFFFFFFFFFFFFFFFFFFFFFFFFFFFFFFFFFFFFFFFFFFF
310
FFFFFFFFFFFFFFFFFFFFFFFFFFFFFFFFFFFFFFFFFFFFFFFFF000FFFFFFFFFFFF
310
FFFFFFFFFFFFFFFFFFFFFFFFFFFFFFFFFFFFFFFFFFFFFFFFFFFFFFFFFFFFFFFF
310
FFFFFFFFFFFFFFFFFFFFFFFFFFFFFFFFFFFFFFFFFFFFFFFFFFFFFFFFFFFFFFFF
310
FFFFFFFFFFFFFFFFFFFFFFFFFFFFFFFFF000FFFFFFFFFFFFFFFFFFFFFFFFFFFF
310
FFFFFFFFFFFFFFFFFFFFFFFFFFFFFFFFFFFFFFFFFFFFFFFFFFFFFFFFFFFFFFFF
310
FFFFFFFFFFFFFFFFFFFFFFFFFFFFFFFFFFFFFFFFFFFFFFFFFFFFFFFFFFFFFFFF
310
FFFFFFFFFFFFFFFFF000FFFFFFFFFFFFFFFFFFFFFFFFFFFFFFFFFFFFFFFFFFFF
310
FFFFFFFFFFFFFFFFFFFFFFFFFFFFFFFFFFFFFFFFFFFFFFFFFFFFFFFFFFFFFFFF
310
FFFFFFFFFFFFFFFFFFFFFFFFFFFFFFFFFFFFFFFFFFFFFFFFFFFFFFFFFFFFFFFF
310
F000FFFFFFFFFFFFFFFFFFFFFFFFFFFFFFFFFFFFFFFFFFFFFFFFFFFFFFFFFFFF
310
FFFFFFFFFFFFFFFFFFFFFFFFFFFFFFFFFFFFFFFFFFFFFFFFFFFFFFFFFFFFFFFF
310
FFFFFFFFFFFFFFFFFFFFFFFFFFFFFFFFFFFFFFFFFFFFFFFFF000FFFFFFFFFFFF
310
FFFFFFFFFFFFFFFFFFFFFFFFFFFFFFFFFFFFFFFFFFFFFFFFFFFFFFFFFFFFFFFF
310
FFFFFFFFFFFFFFFFFFFFFFFFFFFFFFFFFFFFFFFFFFFFFFFFFFFFFFFFFFFFFFFF
310
FFFFFFFFFFFFFFFFFFFFFFFFFFFFFFFFF000FFFFFFFFFFFFFFFFFFFFFFFFFFFF
310
FFFFFFFFFFFFFFFFFFFFFFFFFFFFFFFFFFFFFFFFFFFFFFFFFFFFFFFFFFFFFFFF
310
FFFFFFFFFFFFFFFFFFFFFFFFFFFFFFFFFFFFFFFFFFFFFFFFFFFFFFFFFFFFFFFF
310
FFFFFFFFFFFFFFFFF000FFFFFFFFFFFFFFFFFFFFFFFFFFFFFFFFFFFFFFFFFFFF
310
FFFFFFFFFFFFFFFFFFFFFFFFFFFFFFFFFFFFFFFFFFFFFFFFFFFFFFFFFFFFFFFF
310
FFFFFFFFFFFFFFFFFFFFFFFFFFFFFFFFFFFFFFFFFFFFFFFFFFFFFFFFFFFFFFFF
310
F000FFFFFFFFFFFFFFFFFFFFFFFFFFFFFFFFFFFFFFFFFFFFFFFFFFFFFFFFFFFF
310
FFFFFFFFFFFFFFFFFFFFFFFFFFFFFFFFFFFFFFFFFFFFFFFFFFFFFFFFFFFFFFFF
310
FFFFFFFFFFFFFFFFFFFFFFFFFFFFFFFFFFFFFFFFFFFFFFFFF000FFFFFFFFFFFF
310
FFFFFFFFFFFFFFFFFFFFFFFFFFFFFFFFFFFFFFFFFFFFFFFFFFFFFFFFFFFFFFFF
310
FFFFFFFFFFFFFFFFFFFFFFFFFFFFFFFFFFFFFFFFFFFFFFFFFFFFFFFFFFFFFFFF
310
FFFFFFFFFFFFFFFFFFFFFFFFFFFFFFFFF0000000000000000000000000000000
310
0000000000000000000000000000000000000000000000000000000000000000
310
0000000000000000000000000000000000000000000000000000000000000000
310
0000000000000000000000000000000000000000000000000000000000000000
310
0000000000000000000000000000000000000000000000000000000000000000
310
0000000000000000000000000000000000000000000000000000000000000000
310
0000000000000000000000000000000000000000000000000000000000000000
310
0000000000000000000000000000000000000000000000000000000000000000
310
0000000000000000000000000000000000000000000000000000000000000000
310
0000000000000000000000000000000000000000000000000000000000000000
310
0000000000000000000000000000000000000000000000000000000000000000
310
0000000000000000000000000000000000000000000000000000000000000000
310
0000000000000000000000000000000000000000000000000000000000000000
310
0000000000000000000000000000000000000000000000000000000000000000
310
0000000000000000000000000000000000000000000000000000000000000000
310
0000000000000000000000000000000000000000000000000000000000000000
  1
OLE
  0
ENDSEC
  0
SECTION
  2
OBJECTS
  0
DICTIONARY
  5
C
330
0
100
AcDbDictionary
281
     1
  3
ACAD_GROUP
350
D
  3
ACAD_LAYOUT
350
1A
  3
ACAD_MLINESTYLE
350
17
  3
ACAD_PLOTSETTINGS
350
19
  3
ACAD_PLOTSTYLENAME
350
E
  3
ACAD_SCALELIST
350
47
  0
DICTIONARY
  5
D
102
{ACAD_REACTORS
330
C
102
}
330
C
100
AcDbDictionary
281
     1
  0
DICTIONARY
  5
1A
102
{ACAD_REACTORS
330
C
102
}
330
C
100
AcDbDictionary
281
     1
  3
Layout1
350
1E
  3
Layout2
350
26
  3
Model
350
22
  0
DICTIONARY
  5
17
102
{ACAD_REACTORS
330
C
102
}
330
C
100
AcDbDictionary
281
     1
  3
Standard
350
18
  0
DICTIONARY
  5
19
102
{ACAD_REACTORS
330
C
102
}
330
C
100
AcDbDictionary
281
     1
  0
ACDBDICTIONARYWDFLT
  5
E
102
{ACAD_REACTORS
330
C
102
}
330
C
100
AcDbDictionary
281
     1
  3
Normal
350
F
100
AcDbDictionaryWithDefault
340
F
  0
DICTIONARY
  5
47
102
{ACAD_REACTORS
330
C
102
}
330
C
100
AcDbDictionary
281
     1
  3
A0
350
48
  3
A1
350
49
  3
A2
350
4A
  3
A3
350
4B
  3
A4
350
4C
  3
A5
350
4D
  3
A6
350
4E
  3
A7
350
4F
  3
A8
350
50
  3
A9
350
51
  3
B0
350
52
  3
B1
350
53
  3
B2
350
54
  3
B3
350
55
  3
B4
350
56
  3
B5
350
57
  3
B6
350
58
  3
B7
350
59
  3
B8
350
5A
  3
B9
350
5B
  3
C0
350
5C
  3
C1
350
5D
  3
C2
350
5E
  3
C3
350
5F
  3
C4
350
60
  3
C5
350
61
  3
C6
350
62
  3
C7
350
63
  3
C8
350
64
  3
C9
350
65
  3
D0
350
66
  3
D1
350
67
  3
D2
350
68
  0
LAYOUT
  5
1E
102
{ACAD_REACTORS
330
1A
102
}
330
1A
100
AcDbPlotSettings
  1

  2
none_device
  4

  6

 40
0.0
 41
0.0
 42
0.0
 43
0.0
 44
0.0
 45
0.0
 46
0.0
 47
0.0
 48
0.0
 49
0.0
140
0.0
141
0.0
142
1.0
143
1.0
 70
   688
 72
     1
 73
     0
 74
     5
  7

 75
    16
147
1.0
148
0.0
149
0.0
100
AcDbLayout
  1
Layout1
 70
     1
 71
     1
 10
0.0
 20
0.0
 11
420.0
 21
297.0
 12
0.0
 22
0.0
 32
0.0
 14
1.0000000000E+20
 24
1.0000000000E+20
 34
1.0000000000E+20
 15
-1.0000000000E+20
 25
-1.0000000000E+20
 35
-1.0000000000E+20
146
0.0
 13
0.0
 23
0.0
 33
0.0
 16
1.0
 26
0.0
 36
0.0
 17
0.0
 27
1.0
 37
0.0
 76
     0
330
1B
  0
LAYOUT
  5
26
102
{ACAD_REACTORS
330
1A
102
}
330
1A
100
AcDbPlotSettings
  1

  2
none_device
  4

  6

 40
0.0
 41
0.0
 42
0.0
 43
0.0
 44
0.0
 45
0.0
 46
0.0
 47
0.0
 48
0.0
 49
0.0
140
0.0
141
0.0
142
1.0
143
1.0
 70
   688
 72
     1
 73
     0
 74
     5
  7

 75
    16
147
1.0
148
0.0
149
0.0
100
AcDbLayout
  1
Layout2
 70
     1
 71
     2
 10
0.0
 20
0.0
 11
0.0
 21
0.0
 12
0.0
 22
0.0
 32
0.0
 14
0.0
 24
0.0
 34
0.0
 15
0.0
 25
0.0
 35
0.0
146
0.0
 13
0.0
 23
0.0
 33
0.0
 16
1.0
 26
0.0
 36
0.0
 17
0.0
 27
1.0
 37
0.0
 76
     0
330
23
  0
LAYOUT
  5
22
102
{ACAD_REACTORS
330
1A
102
}
330
1A
100
AcDbPlotSettings
  1

  2
none_device
  4
Letter_(8.50_x_11.00_Inches)
  6

 40
6.35
 41
6.35
 42
6.35000508
 43
6.35000508
 44
215.9
 45
279.4
 46
0.0
 47
0.0
 48
0.0
 49
0.0
140
0.0
141
0.0
142
1.0
143
1.0
 70
  1712
 72
     1
 73
     0
 74
     0
  7

 75
     0
147
1.0
148
0.0
149
0.0
100
AcDbLayout
  1
Model
 70
     1
 71
     0
 10
0.0
 20
0.0
 11
297.0
 21
210.0
 12
0.0
 22
0.0
 32
0.0
 14
0.0
 24
0.0
 34
0.0
 15
297.0
 25
210.0
 35
0.0
146
0.0
 13
0.0
 23
0.0
 33
0.0
 16
1.0
 26
0.0
 36
0.0
 17
0.0
 27
1.0
 37
0.0
 76
     0
330
1F
331
29
  0
MLINESTYLE
  5
18
102
{ACAD_REACTORS
330
17
102
}
330
17
100
AcDbMlineStyle
  2
Standard
 70
     0
  3

 62
   256
 51
90.0
 52
90.0
 71
     2
 49
0.5
 62
   256
  6
BYLAYER
 49
-0.5
 62
   256
  6
BYLAYER
  0
ACDBPLACEHOLDER
  5
F
102
{ACAD_REACTORS
330
E
102
}
330
E
  0
SCALE
  5
48
102
{ACAD_REACTORS
330
47
102
}
330
47
100
AcDbScale
 70
     0
300
1:1
140
1.0
141
1.0
290
     1
  0
SCALE
  5
49
102
{ACAD_REACTORS
330
47
102
}
330
47
100
AcDbScale
 70
     0
300
1:2
140
1.0
141
2.0
290
     0
  0
SCALE
  5
4A
102
{ACAD_REACTORS
330
47
102
}
330
47
100
AcDbScale
 70
     0
300
1:4
140
1.0
141
4.0
290
     0
  0
SCALE
  5
4B
102
{ACAD_REACTORS
330
47
102
}
330
47
100
AcDbScale
 70
     0
300
1:5
140
1.0
141
5.0
290
     0
  0
SCALE
  5
4C
102
{ACAD_REACTORS
330
47
102
}
330
47
100
AcDbScale
 70
     0
300
1:8
140
1.0
141
8.0
290
     0
  0
SCALE
  5
4D
102
{ACAD_REACTORS
330
47
102
}
330
47
100
AcDbScale
 70
     0
300
1:10
140
1.0
141
10.0
290
     0
  0
SCALE
  5
4E
102
{ACAD_REACTORS
330
47
102
}
330
47
100
AcDbScale
 70
     0
300
1:16
140
1.0
141
16.0
290
     0
  0
SCALE
  5
4F
102
{ACAD_REACTORS
330
47
102
}
330
47
100
AcDbScale
 70
     0
300
1:20
140
1.0
141
20.0
290
     0
  0
SCALE
  5
50
102
{ACAD_REACTORS
330
47
102
}
330
47
100
AcDbScale
 70
     0
300
1:30
140
1.0
141
30.0
290
     0
  0
SCALE
  5
51
102
{ACAD_REACTORS
330
47
102
}
330
47
100
AcDbScale
 70
     0
300
1:40
140
1.0
141
40.0
290
     0
  0
SCALE
  5
52
102
{ACAD_REACTORS
330
47
102
}
330
47
100
AcDbScale
 70
     0
300
1:50
140
1.0
141
50.0
290
     0
  0
SCALE
  5
53
102
{ACAD_REACTORS
330
47
102
}
330
47
100
AcDbScale
 70
     0
300
1:100
140
1.0
141
100.0
290
     0
  0
SCALE
  5
54
102
{ACAD_REACTORS
330
47
102
}
330
47
100
AcDbScale
 70
     0
300
2:1
140
2.0
141
1.0
290
     0
  0
SCALE
  5
55
102
{ACAD_REACTORS
330
47
102
}
330
47
100
AcDbScale
 70
     0
300
4:1
140
4.0
141
1.0
290
     0
  0
SCALE
  5
56
102
{ACAD_REACTORS
330
47
102
}
330
47
100
AcDbScale
 70
     0
300
8:1
140
8.0
141
1.0
290
     0
  0
SCALE
  5
57
102
{ACAD_REACTORS
330
47
102
}
330
47
100
AcDbScale
 70
     0
300
10:1
140
10.0
141
1.0
290
     0
  0
SCALE
  5
58
102
{ACAD_REACTORS
330
47
102
}
330
47
100
AcDbScale
 70
     0
300
100:1
140
100.0
141
1.0
290
     0
  0
SCALE
  5
59
102
{ACAD_REACTORS
330
47
102
}
330
47
100
AcDbScale
 70
     0
300
1/128" = 1'-0"
140
0.0078125
141
12.0
290
     0
  0
SCALE
  5
5A
102
{ACAD_REACTORS
330
47
102
}
330
47
100
AcDbScale
 70
     0
300
1/64" = 1'-0"
140
0.015625
141
12.0
290
     0
  0
SCALE
  5
5B
102
{ACAD_REACTORS
330
47
102
}
330
47
100
AcDbScale
 70
     0
300
1/32" = 1'-0"
140
0.03125
141
12.0
290
     0
  0
SCALE
  5
5C
102
{ACAD_REACTORS
330
47
102
}
330
47
100
AcDbScale
 70
     0
300
1/16" = 1'-0"
140
0.0625
141
12.0
290
     0
  0
SCALE
  5
5D
102
{ACAD_REACTORS
330
47
102
}
330
47
100
AcDbScale
 70
     0
300
3/32" = 1'-0"
140
0.09375
141
12.0
290
     0
  0
SCALE
  5
5E
102
{ACAD_REACTORS
330
47
102
}
330
47
100
AcDbScale
 70
     0
300
1/8" = 1'-0"
140
0.125
141
12.0
290
     0
  0
SCALE
  5
5F
102
{ACAD_REACTORS
330
47
102
}
330
47
100
AcDbScale
 70
     0
300
3/16" = 1'-0"
140
0.1875
141
12.0
290
     0
  0
SCALE
  5
60
102
{ACAD_REACTORS
330
47
102
}
330
47
100
AcDbScale
 70
     0
300
1/4" = 1'-0"
140
0.25
141
12.0
290
     0
  0
SCALE
  5
61
102
{ACAD_REACTORS
330
47
102
}
330
47
100
AcDbScale
 70
     0
300
3/8" = 1'-0"
140
0.375
141
12.0
290
     0
  0
SCALE
  5
62
102
{ACAD_REACTORS
330
47
102
}
330
47
100
AcDbScale
 70
     0
300
1/2" = 1'-0"
140
0.5
141
12.0
290
     0
  0
SCALE
  5
63
102
{ACAD_REACTORS
330
47
102
}
330
47
100
AcDbScale
 70
     0
300
3/4" = 1'-0"
140
0.75
141
12.0
290
     0
  0
SCALE
  5
64
102
{ACAD_REACTORS
330
47
102
}
330
47
100
AcDbScale
 70
     0
300
1" = 1'-0"
140
1.0
141
12.0
290
     0
  0
SCALE
  5
65
102
{ACAD_REACTORS
330
47
102
}
330
47
100
AcDbScale
 70
     0
300
1-1/2" = 1'-0"
140
1.5
141
12.0
290
     0
  0
SCALE
  5
66
102
{ACAD_REACTORS
330
47
102
}
330
47
100
AcDbScale
 70
     0
300
3" = 1'-0"
140
3.0
141
12.0
290
     0
  0
SCALE
  5
67
102
{ACAD_REACTORS
330
47
102
}
330
47
100
AcDbScale
 70
     0
300
6" = 1'-0"
140
6.0
141
12.0
290
     0
  0
SCALE
  5
68
102
{ACAD_REACTORS
330
47
102
}
330
47
100
AcDbScale
 70
     0
300
1'-0" = 1'-0"
140
12.0
141
12.0
290
     0
  0
ENDSEC
  0
EOF
