  0
SECTION
  2
HEADER
  9
$ACADVER
  1
AC1015
  9
$ACADMAINTVER
 70
     6
  9
$DWGCODEPAGE
  3
ANSI_1252
  9
$INSBASE
 10
0.0
 20
0.0
 30
0.0
  9
$EXTMIN
 10
0.0
 20
0.0
 30
0.0
  9
$EXTMAX
 10
297.0
 20
210.0
 30
0.0
  9
$LIMMIN
 10
0.0
 20
0.0
  9
$LIMMAX
 10
297.0
 20
210.0
  9
$ORTHOMODE
 70
     0
  9
$REGENMODE
 70
     1
  9
$FILLMODE
 70
     1
  9
$QTEXTMODE
 70
     0
  9
$MIRRTEXT
 70
     1
  9
$LTSCALE
 40
1.0
  9
$ATTMODE
 70
     1
  9
$TEXTSIZE
 40
2.0
  9
$TRACEWID
 40
1.0
  9
$TEXTSTYLE
  7
Standard
  9
$CLAYER
  8
0
  9
$CELTYPE
  6
ByLayer
  9
$CECOLOR
 62
   256
  9
$CELTSCALE
 40
1.0
  9
$DISPSILH
 70
     0
  9
$DIMSCALE
 40
1.0
  9
$DIMASZ
 40
3.0
  9
$DIMEXO
 40
0.0
  9
$DIMDLI
 40
3.75
  9
$DIMRND
 40
0.0
  9
$DIMDLE
 40
0.0
  9
$DIMEXE
 40
1.0
  9
$DIMTP
 40
0.0
  9
$DIMTM
 40
0.0
  9
$DIMTXT
 40
2.0
  9
$DIMCEN
 40
2.5
  9
$DIMTSZ
 40
0.0
  9
$DIMTOL
 70
     0
  9
$DIMLIM
 70
     0
  9
$DIMTIH
 70
     1
  9
$DIMTOH
 70
     1
  9
$DIMSE1
 70
     0
  9
$DIMSE2
 70
     0
  9
$DIMTAD
 70
     1
  9
$DIMZIN
 70
     0
  9
$DIMBLK
  1

  9
$DIMASO
 70
     1
  9
$DIMSHO
 70
     1
  9
$DIMPOST
  1

  9
$DIMAPOST
  1

  9
$DIMALT
 70
     0
  9
$DIMALTD
 70
     3
  9
$DIMALTF
 40
0.0393700787
  9
$DIMLFAC
 40
1.0
  9
$DIMTOFL
 70
     1
  9
$DIMTVP
 40
0.0
  9
$DIMTIX
 70
     0
  9
$DIMSOXD
 70
     0
  9
$DIMSAH
 70
     0
  9
$DIMBLK1
  1

  9
$DIMBLK2
  1

  9
$DIMSTYLE
  2
ISO-25
  9
$DIMCLRD
 70
     0
  9
$DIMCLRE
 70
     0
  9
$DIMCLRT
 70
     0
  9
$DIMTFAC
 40
1.0
  9
$DIMGAP
 40
1.524
  9
$DIMJUST
 70
     0
  9
$DIMSD1
 70
     0
  9
$DIMSD2
 70
     0
  9
$DIMTOLJ
 70
     0
  9
$DIMTZIN
 70
     0
  9
$DIMALTZ
 70
     0
  9
$DIMALTTZ
 70
     0
  9
$DIMUPT
 70
     0
  9
$DIMDEC
 70
     2
  9
$DIMTDEC
 70
     3
  9
$DIMALTU
 70
     2
  9
$DIMALTTD
 70
     3
  9
$DIMTXSTY
  7
Standard
  9
$DIMAUNIT
 70
     0
  9
$DIMADEC
 70
     2
  9
$DIMALTRND
 40
0.0
  9
$DIMAZIN
 70
     0
  9
$DIMDSEP
 70
    44
  9
$DIMATFIT
 70
     3
  9
$DIMFRAC
 70
     0
  9
$DIMLDRBLK
  1

  9
$DIMLUNIT
 70
     2
  9
$DIMLWD
 70
    -2
  9
$DIMLWE
 70
    -2
  9
$DIMTMOVE
 70
     0
  9
$LUNITS
 70
     2
  9
$LUPREC
 70
     2
  9
$SKETCHINC
 40
1.0
  9
$FILLETRAD
 40
10.0
  9
$AUNITS
 70
     0
  9
$AUPREC
 70
     2
  9
$MENU
  1
.
  9
$ELEVATION
 40
0.0
  9
$PELEVATION
 40
0.0
  9
$THICKNESS
 40
0.0
  9
$LIMCHECK
 70
     0
  9
$CHAMFERA
 40
0.0
  9
$CHAMFERB
 40
0.0
  9
$CHAMFERC
 40
0.0
  9
$CHAMFERD
 40
0.0
  9
$SKPOLY
 70
     0
  9
$TDCREATE
 40
2457893.611951354
  9
$TDUCREATE
 40
2457893.528618021
  9
$TDUPDATE
 40
2457893.611953345
  9
$TDUUPDATE
 40
2457893.528620012
  9
$TDINDWG
 40
0.0000000116
  9
$TDUSRTIMER
 40
0.0000000116
  9
$USRTIMER
 70
     1
  9
$ANGBASE
 50
0.0
  9
$ANGDIR
 70
     0
  9
$PDMODE
 70
     0
  9
$PDSIZE
 40
-1.0
  9
$PLINEWID
 40
0.0
  9
$SPLFRAME
 70
     0
  9
$SPLINETYPE
 70
     6
  9
$SPLINESEGS
 70
     8
  9
$HANDSEED
  5
2C4
  9
$SURFTAB1
 70
     6
  9
$SURFTAB2
 70
     6
  9
$SURFTYPE
 70
     6
  9
$SURFU
 70
     6
  9
$SURFV
 70
     6
  9
$UCSBASE
  2

  9
$UCSNAME
  2

  9
$UCSORG
 10
0.0
 20
0.0
 30
0.0
  9
$UCSXDIR
 10
1.0
 20
0.0
 30
0.0
  9
$UCSYDIR
 10
0.0
 20
1.0
 30
0.0
  9
$UCSORTHOREF
  2

  9
$UCSORTHOVIEW
 70
     0
  9
$UCSORGTOP
 10
0.0
 20
0.0
 30
0.0
  9
$UCSORGBOTTOM
 10
0.0
 20
0.0
 30
0.0
  9
$UCSORGLEFT
 10
0.0
 20
0.0
 30
0.0
  9
$UCSORGRIGHT
 10
0.0
 20
0.0
 30
0.0
  9
$UCSORGFRONT
 10
0.0
 20
0.0
 30
0.0
  9
$UCSORGBACK
 10
0.0
 20
0.0
 30
0.0
  9
$PUCSBASE
  2

  9
$PUCSNAME
  2

  9
$PUCSORG
 10
0.0
 20
0.0
 30
0.0
  9
$PUCSXDIR
 10
1.0
 20
0.0
 30
0.0
  9
$PUCSYDIR
 10
0.0
 20
1.0
 30
0.0
  9
$PUCSORTHOREF
  2

  9
$PUCSORTHOVIEW
 70
     0
  9
$PUCSORGTOP
 10
0.0
 20
0.0
 30
0.0
  9
$PUCSORGBOTTOM
 10
0.0
 20
0.0
 30
0.0
  9
$PUCSORGLEFT
 10
0.0
 20
0.0
 30
0.0
  9
$PUCSORGRIGHT
 10
0.0
 20
0.0
 30
0.0
  9
$PUCSORGFRONT
 10
0.0
 20
0.0
 30
0.0
  9
$PUCSORGBACK
 10
0.0
 20
0.0
 30
0.0
  9
$USERI1
 70
     0
  9
$USERI2
 70
     0
  9
$USERI3
 70
     0
  9
$USERI4
 70
     0
  9
$USERI5
 70
     0
  9
$USERR1
 40
0.0
  9
$USERR2
 40
0.0
  9
$USERR3
 40
0.0
  9
$USERR4
 40
0.0
  9
$USERR5
 40
0.0
  9
$WORLDVIEW
 70
     1
  9
$SHADEDGE
 70
     3
  9
$SHADEDIF
 70
    70
  9
$TILEMODE
 70
     1
  9
$MAXACTVP
 70
    64
  9
$PINSBASE
 10
0.0
 20
0.0
 30
0.0
  9
$PLIMCHECK
 70
     0
  9
$PEXTMIN
 10
1.0000000000E+20
 20
1.0000000000E+20
 30
1.0000000000E+20
  9
$PEXTMAX
 10
-1.0000000000E+20
 20
-1.0000000000E+20
 30
-1.0000000000E+20
  9
$PLIMMIN
 10
0.0
 20
0.0
  9
$PLIMMAX
 10
420.0
 20
297.0
  9
$UNITMODE
 70
     0
  9
$VISRETAIN
 70
     1
  9
$PLINEGEN
 70
     0
  9
$PSLTSCALE
 70
     1
  9
$TREEDEPTH
 70
  3020
  9
$CMLSTYLE
  2
Standard
  9
$CMLJUST
 70
     0
  9
$CMLSCALE
 40
20.0
  9
$PROXYGRAPHICS
 70
     1
  9
$MEASUREMENT
 70
     1
  9
$CELWEIGHT
370
    -1
  9
$ENDCAPS
280
     0
  9
$JOINSTYLE
280
     0
  9
$LWDISPLAY
290
     1
  9
$INSUNITS
 70
     4
  9
$HYPERLINKBASE
  1

  9
$STYLESHEET
  1

  9
$XEDIT
290
     1
  9
$CEPSNTYPE
380
     0
  9
$PSTYLEMODE
290
     1
  9
$FINGERPRINTGUID
  2
{BFCD9C10-869F-49AC-83BF-7FEA1FA28029}
  9
$VERSIONGUID
  2
{FAEB1C32-E019-11D5-929B-00C0DF256EC4}
  9
$EXTNAMES
290
     1
  9
$PSVPSCALE
 40
0.0
  9
$OLESTARTUP
290
     0
  0
ENDSEC
  0
SECTION
  2
CLASSES
  0
CLASS
  1
ACDBDICTIONARYWDFLT
  2
AcDbDictionaryWithDefault
  3
ObjectDBX Classes
 90
        0
280
     0
281
     0
  0
CLASS
  1
VISUALSTYLE
  2
AcDbVisualStyle
  3
ObjectDBX Classes
 90
     4095
280
     0
281
     0
  0
CLASS
  1
MATERIAL
  2
AcDbMaterial
  3
ObjectDBX Classes
 90
     1153
280
     0
281
     0
  0
CLASS
  1
SCALE
  2
AcDbScale
  3
ObjectDBX Classes
 90
     1153
280
     0
281
     0
  0
CLASS
  1
TABLESTYLE
  2
AcDbTableStyle
  3
ObjectDBX Classes
 90
     4095
280
     0
281
     0
  0
CLASS
  1
MLEADERSTYLE
  2
AcDbMLeaderStyle
  3
ACDB_MLEADERSTYLE_CLASS
 90
     4095
280
     0
281
     0
  0
CLASS
  1
SUN
  2
AcDbSun
  3
SCENEOE
 90
     1153
280
     0
281
     0
  0
CLASS
  1
ACDBPLACEHOLDER
  2
AcDbPlaceHolder
  3
ObjectDBX Classes
 90
        0
280
     0
281
     0
  0
CLASS
  1
LAYOUT
  2
AcDbLayout
  3
ObjectDBX Classes
 90
        0
280
     0
281
     0
  0
ENDSEC
  0
SECTION
  2
TABLES
  0
TABLE
  2
VPORT
  5
8
330
0
100
AcDbSymbolTable
 70
     1
  0
VPORT
  5
29
330
8
100
AcDbSymbolTableRecord
100
AcDbViewportTableRecord
  2
*Active
 70
     0
 10
0.0
 20
0.0
 11
1.0
 21
1.0
 12
148.5
 22
105.0
 13
0.0
 23
0.0
 14
10.0
 24
10.0
 15
10.0
 25
10.0
 16
0.0
 26
0.0
 36
1.0
 17
0.0
 27
0.0
 37
0.0
 40
210.0
 41
1.4142857143
 42
50.0
 43
0.0
 44
0.0
 50
0.0
 51
0.0
 71
     0
 72
  2000
 73
     1
 74
     3
 75
     0
 76
     0
 77
     0
 78
     0
281
     0
 65
     1
110
0.0
120
0.0
130
0.0
111
1.0
121
0.0
131
0.0
112
0.0
122
1.0
132
0.0
 79
     0
146
0.0
  0
ENDTAB
  0
TABLE
  2
LTYPE
  5
5
330
0
100
AcDbSymbolTable
 70
     6
  0
LTYPE
  5
14
330
5
100
AcDbSymbolTableRecord
100
AcDbLinetypeTableRecord
  2
ByBlock
 70
     0
  3

 72
    65
 73
     0
 40
0.0
  0
LTYPE
  5
15
330
5
100
AcDbSymbolTableRecord
100
AcDbLinetypeTableRecord
  2
ByLayer
 70
     0
  3

 72
    65
 73
     0
 40
0.0
  0
LTYPE
  5
16
330
5
100
AcDbSymbolTableRecord
100
AcDbLinetypeTableRecord
  2
Continuous
 70
     0
  3
Solid line
 72
    65
 73
     0
 40
0.0
  0
LTYPE
  5
6E
330
5
100
AcDbSymbolTableRecord
100
AcDbLinetypeTableRecord
  2
HIDDEN
 70
     0
  3
Hidden __ __ __ __ __ __ __ __ __ __ __ __ __ __
 72
    65
 73
     2
 40
1.905
 49
1.27
 74
     0
 49
-0.635
 74
     0
  0
LTYPE
  5
6F
330
5
100
AcDbSymbolTableRecord
100
AcDbLinetypeTableRecord
  2
PHANTOM
 70
     0
  3
Phantom ______  __  __  ______  __  __  ______
 72
    65
 73
     6
 40
12.7
 49
6.35
 74
     0
 49
-1.27
 74
     0
 49
1.27
 74
     0
 49
-1.27
 74
     0
 49
1.27
 74
     0
 49
-1.27
 74
     0
  0
LTYPE
  5
70
330
5
100
AcDbSymbolTableRecord
100
AcDbLinetypeTableRecord
  2
CENTER
 70
     0
  3
Center ____ _ ____ _ ____ _ ____ _ ____ _ ____
 72
    65
 73
     4
 40
10.16
 49
6.35
 74
     0
 49
-1.27
 74
     0
 49
1.27
 74
     0
 49
-1.27
 74
     0
  0
LTYPE
  5
71
330
5
100
AcDbSymbolTableRecord
100
AcDbLinetypeTableRecord
  2
CENTERX2
 70
     0
  3
Center (2x) ________  __  ________  __  _____
 72
    65
 73
     4
 40
20.32
 49
12.7
 74
     0
 49
-2.54
 74
     0
 49
2.54
 74
     0
 49
-2.54
 74
     0
  0
LTYPE
  5
72
330
5
100
AcDbSymbolTableRecord
100
AcDbLinetypeTableRecord
  2
DOT2
 70
     0
  3
Dot (.5x) ........................................
 72
    65
 73
     2
 40
0.635
 49
0.0
 74
     0
 49
-0.635
 74
     0
  0
ENDTAB
  0
TABLE
  2
LAYER
  5
2
330
0
100
AcDbSymbolTable
 70
     5
  0
LAYER
  5
10
330
2
100
AcDbSymbolTableRecord
100
AcDbLayerTableRecord
  2
0
 70
     0
 62
     7
  6
Continuous
370
    -3
390
F
  0
LAYER
  5
73
330
2
100
AcDbSymbolTableRecord
100
AcDbLayerTableRecord
  2
FORMAT
 70
     0
 62
     7
  6
Continuous
370
    -3
390
F
  0
LAYER
  5
74
330
2
100
AcDbSymbolTableRecord
100
AcDbLayerTableRecord
  2
VERMASSUNG
 70
     0
 62
     7
  6
Continuous
370
    -3
390
F
  0
LAYER
  5
75
330
2
100
AcDbSymbolTableRecord
100
AcDbLayerTableRecord
  2
KOPF_DÜNN
 70
     0
 62
     7
  6
Continuous
370
    -3
390
F
  0
LAYER
  5
76
330
2
100
AcDbSymbolTableRecord
100
AcDbLayerTableRecord
  2
KOPF_DICK
 70
     0
 62
     7
  6
Continuous
370
    15
390
F
  0
ENDTAB
  0
TABLE
  2
STYLE
  5
3
330
0
100
AcDbSymbolTable
 70
     3
  0
STYLE
  5
11
330
3
100
AcDbSymbolTableRecord
100
AcDbTextStyleTableRecord
  2
Standard
 70
     0
 40
0.0
 41
1.0
 50
0.0
 71
     0
 42
2.0
  3
txt
  4

  0
STYLE
  5
77
330
3
100
AcDbSymbolTableRecord
100
AcDbTextStyleTableRecord
  2
SLDTEXTSTYLE0
 70
     0
 40
0.0
 41
0.7
 50
0.0
 71
     0
 42
2.0
  3
TXT
  4

  0
STYLE
  5
7B
330
3
100
AcDbSymbolTableRecord
100
AcDbTextStyleTableRecord
  2
SLDTEXTSTYLE1
 70
     0
 40
0.0
 41
0.6483870968
 50
0.0
 71
     0
 42
2.0
  3
TXT
  4

  0
ENDTAB
  0
TABLE
  2
VIEW
  5
6
330
0
100
AcDbSymbolTable
 70
     0
  0
ENDTAB
  0
TABLE
  2
UCS
  5
7
330
0
100
AcDbSymbolTable
 70
     0
  0
ENDTAB
  0
TABLE
  2
APPID
  5
9
330
0
100
AcDbSymbolTable
 70
     1
  0
APPID
  5
12
330
9
100
AcDbSymbolTableRecord
100
AcDbRegAppTableRecord
  2
ACAD
 70
     0
  0
ENDTAB
  0
TABLE
  2
DIMSTYLE
  5
A
330
0
100
AcDbSymbolTable
 70
     3
100
AcDbDimStyleTable
  0
DIMSTYLE
105
27
330
A
100
AcDbSymbolTableRecord
100
AcDbDimStyleTableRecord
  2
ISO-25
 70
     0
 41
2.5
 42
0.625
 43
3.75
 44
1.25
 73
     0
 74
     0
 77
     1
 78
     8
140
2.5
141
2.5
143
0.0393700787
147
0.625
171
     3
172
     1
178
     0
271
     2
272
     2
274
     3
278
    44
283
     0
284
     8
340
11
  0
DIMSTYLE
105
1C7
102
{ACAD_REACTORS
330
1C6
330
1D2
330
1DD
330
1E7
330
1F1
330
1FB
102
}
330
A
100
AcDbSymbolTableRecord
100
AcDbDimStyleTableRecord
  2
SLDDIMSTYLE0
 70
     0
 41
3.0
 44
0.0
 45
0.000000001
 73
     0
 74
     0
 77
     1
 78
    12
 79
     3
140
2.0
147
0.5
173
     1
178
     0
271
     2
272
     3
276
     2
284
    12
340
77
  0
DIMSTYLE
105
208
102
{ACAD_REACTORS
330
207
102
}
330
A
100
AcDbSymbolTableRecord
100
AcDbDimStyleTableRecord
  2
SLDDIMSTYLE1
 70
     0
 41
3.0
 44
0.0
 45
0.000000001
 73
     0
 74
     0
 77
     1
 78
    12
 79
     3
140
2.0
141
0.0
147
0.5
173
     1
178
     0
271
     2
272
     3
276
     2
279
     1
284
    12
340
77
  0
ENDTAB
  0
TABLE
  2
BLOCK_RECORD
  5
1
330
0
100
AcDbSymbolTable
 70
     9
  0
BLOCK_RECORD
  5
1F
330
1
100
AcDbSymbolTableRecord
100
AcDbBlockTableRecord
  2
*Model_Space
340
22
  0
BLOCK_RECORD
  5
1B
330
1
100
AcDbSymbolTableRecord
100
AcDbBlockTableRecord
  2
*Paper_Space
340
1E
  0
BLOCK_RECORD
  5
23
330
1
100
AcDbSymbolTableRecord
100
AcDbBlockTableRecord
  2
*Paper_Space0
340
26
  0
BLOCK_RECORD
  5
1C8
330
1
100
AcDbSymbolTableRecord
100
AcDbBlockTableRecord
  2
_D
340
0
  0
BLOCK_RECORD
  5
1D3
330
1
100
AcDbSymbolTableRecord
100
AcDbBlockTableRecord
  2
_D_1
340
0
  0
BLOCK_RECORD
  5
1DE
330
1
100
AcDbSymbolTableRecord
100
AcDbBlockTableRecord
  2
_D_2
340
0
  0
BLOCK_RECORD
  5
1E8
330
1
100
AcDbSymbolTableRecord
100
AcDbBlockTableRecord
  2
_D_3
340
0
  0
BLOCK_RECORD
  5
1F2
330
1
100
AcDbSymbolTableRecord
100
AcDbBlockTableRecord
  2
_D_4
340
0
  0
BLOCK_RECORD
  5
1FC
330
1
100
AcDbSymbolTableRecord
100
AcDbBlockTableRecord
  2
_D_5
340
0
  0
BLOCK_RECORD
  5
209
330
1
100
AcDbSymbolTableRecord
100
AcDbBlockTableRecord
  2
_D_6
340
0
  0
BLOCK_RECORD
  5
2B7
330
1
100
AcDbSymbolTableRecord
100
AcDbBlockTableRecord
  2
SW_CENTERMARKSYMBOL_0
340
0
102
{BLKREFS
331
2C2
102
}
  0
ENDTAB
  0
ENDSEC
  0
SECTION
  2
BLOCKS
  0
BLOCK
  5
20
330
1F
100
AcDbEntity
  8
0
100
AcDbBlockBegin
  2
*Model_Space
 70
     0
 10
0.0
 20
0.0
 30
0.0
  3
*Model_Space
  1

  0
ENDBLK
  5
21
330
1F
100
AcDbEntity
  8
0
100
AcDbBlockEnd
  0
BLOCK
  5
1C
330
1B
100
AcDbEntity
 67
     1
  8
0
100
AcDbBlockBegin
  2
*Paper_Space
 70
     0
 10
0.0
 20
0.0
 30
0.0
  3
*Paper_Space
  1

  0
ENDBLK
  5
1D
330
1B
100
AcDbEntity
 67
     1
  8
0
100
AcDbBlockEnd
  0
BLOCK
  5
24
330
23
100
AcDbEntity
  8
0
100
AcDbBlockBegin
  2
*Paper_Space0
 70
     0
 10
0.0
 20
0.0
 30
0.0
  3
*Paper_Space0
  1

  0
ENDBLK
  5
25
330
23
100
AcDbEntity
  8
0
100
AcDbBlockEnd
  0
BLOCK
  5
1C9
330
1C8
100
AcDbEntity
  8
0
100
AcDbBlockBegin
  2
_D
 70
     0
 10
0.0
 20
0.0
 30
0.0
  3
_D
  1

  0
SOLID
  5
1CB
330
1C8
100
AcDbEntity
  8
VERMASSUNG
100
AcDbTrace
 10
259.4934291219
 20
142.2293840443
 30
0.0
 11
259.0434291219
 21
139.2293840443
 31
0.0
 12
259.9434291219
 22
139.2293840443
 32
0.0
 13
259.9434291219
 23
139.2293840443
 33
0.0
  0
SOLID
  5
1CC
330
1C8
100
AcDbEntity
  8
VERMASSUNG
100
AcDbTrace
 10
259.4934291219
 20
130.2293840443
 30
0.0
 11
259.9434291219
 21
133.2293840443
 31
0.0
 12
259.0434291219
 22
133.2293840443
 32
0.0
 13
259.0434291219
 23
133.2293840443
 33
0.0
  0
LINE
  5
1CD
330
1C8
100
AcDbEntity
  8
VERMASSUNG
100
AcDbLine
 10
252.4740091894
 20
142.2293840443
 30
0.0
 11
260.4934291219
 21
142.2293840443
 31
0.0
  0
LINE
  5
1CE
330
1C8
100
AcDbEntity
  8
VERMASSUNG
100
AcDbLine
 10
252.4740091894
 20
130.2293840443
 30
0.0
 11
260.4934291219
 21
130.2293840443
 31
0.0
  0
LINE
  5
1CF
330
1C8
100
AcDbEntity
  8
VERMASSUNG
100
AcDbLine
 10
259.4934291219
 20
142.2293840443
 30
0.0
 11
259.4934291219
 21
130.2293840443
 31
0.0
  0
MTEXT
  5
1D0
330
1C8
100
AcDbEntity
  8
VERMASSUNG
100
AcDbMText
 10
256.9152935841
 20
133.2259752329
 30
0.0
 40
2.0
 41
0.0
 71
     1
 72
     1
  1
%%c
  7
SLDTEXTSTYLE0
 11
-1.414962237524464E-14
 21
1.0
 31
0.0
 73
     1
 44
1.0
  0
MTEXT
  5
1D1
330
1C8
100
AcDbEntity
  8
VERMASSUNG
100
AcDbMText
 10
256.9152935259
 20
136.8340162165
 30
0.0
 40
2.0
 41
0.0
 71
     1
 72
     1
  1
12
  7
SLDTEXTSTYLE0
 11
-1.414962237524464E-14
 21
1.0
 31
0.0
 73
     1
 44
1.0
  0
ENDBLK
  5
1CA
330
1C8
100
AcDbEntity
  8
0
100
AcDbBlockEnd
  0
BLOCK
  5
1D4
330
1D3
100
AcDbEntity
  8
0
100
AcDbBlockBegin
  2
_D_1
 70
     0
 10
0.0
 20
0.0
 30
0.0
  3
_D_1
  1

  0
SOLID
  5
1D6
330
1D3
100
AcDbEntity
  8
VERMASSUNG
100
AcDbTrace
 10
265.4934291219
 20
157.2293840443
 30
0.0
 11
265.0434291219
 21
154.2293840443
 31
0.0
 12
265.9434291219
 22
154.2293840443
 32
0.0
 13
265.9434291219
 23
154.2293840443
 33
0.0
  0
SOLID
  5
1D7
330
1D3
100
AcDbEntity
  8
VERMASSUNG
100
AcDbTrace
 10
265.4934291219
 20
115.2293840443
 30
0.0
 11
265.9434291219
 21
118.2293840443
 31
0.0
 12
265.0434291219
 22
118.2293840443
 32
0.0
 13
265.0434291219
 23
118.2293840443
 33
0.0
  0
LINE
  5
1D8
330
1D3
100
AcDbEntity
  8
VERMASSUNG
100
AcDbLine
 10
239.9069676664
 20
157.2293840443
 30
0.0
 11
266.4934291219
 21
157.2293840443
 31
0.0
  0
LINE
  5
1D9
330
1D3
100
AcDbEntity
  8
VERMASSUNG
100
AcDbLine
 10
239.9069676664
 20
115.2293840443
 30
0.0
 11
266.4934291219
 21
115.2293840443
 31
0.0
  0
LINE
  5
1DA
330
1D3
100
AcDbEntity
  8
VERMASSUNG
100
AcDbLine
 10
265.4934291219
 20
157.2293840443
 30
0.0
 11
265.4934291219
 21
115.2293840443
 31
0.0
  0
MTEXT
  5
1DB
330
1D3
100
AcDbEntity
  8
VERMASSUNG
100
AcDbMText
 10
262.9152935841
 20
132.926402487
 30
0.0
 40
2.0
 41
0.0
 71
     1
 72
     1
  1
%%c
  7
SLDTEXTSTYLE0
 11
-1.414962237524464E-14
 21
1.0
 31
0.0
 73
     1
 44
1.0
  0
MTEXT
  5
1DC
330
1D3
100
AcDbEntity
  8
VERMASSUNG
100
AcDbMText
 10
262.9152935259
 20
136.5344434706
 30
0.0
 40
2.0
 41
0.0
 71
     1
 72
     1
  1
42
  7
SLDTEXTSTYLE0
 11
-1.414962237524464E-14
 21
1.0
 31
0.0
 73
     1
 44
1.0
  0
ENDBLK
  5
1D5
330
1D3
100
AcDbEntity
  8
0
100
AcDbBlockEnd
  0
BLOCK
  5
1DF
330
1DE
100
AcDbEntity
  8
0
100
AcDbBlockBegin
  2
_D_2
 70
     0
 10
0.0
 20
0.0
 30
0.0
  3
_D_2
  1

  0
SOLID
  5
1E1
330
1DE
100
AcDbEntity
  8
VERMASSUNG
100
AcDbTrace
 10
170.7740091894
 20
172.8005191795
 30
0.0
 11
173.7740091894
 21
172.3505191795
 31
0.0
 12
173.7740091894
 22
173.2505191795
 32
0.0
 13
173.7740091894
 23
173.2505191795
 33
0.0
  0
SOLID
  5
1E2
330
1DE
100
AcDbEntity
  8
VERMASSUNG
100
AcDbTrace
 10
252.7740091894
 20
172.8005191795
 30
0.0
 11
249.7740091894
 21
173.2505191795
 31
0.0
 12
249.7740091894
 22
172.3505191795
 32
0.0
 13
249.7740091894
 23
172.3505191795
 33
0.0
  0
LINE
  5
1E3
330
1DE
100
AcDbEntity
  8
VERMASSUNG
100
AcDbLine
 10
170.7740091894
 20
167.7043840443
 30
0.0
 11
170.7740091894
 21
173.8005191795
 31
0.0
  0
LINE
  5
1E4
330
1DE
100
AcDbEntity
  8
VERMASSUNG
100
AcDbLine
 10
252.7740091894
 20
149.9552435227
 30
0.0
 11
252.7740091894
 21
173.8005191795
 31
0.0
  0
LINE
  5
1E5
330
1DE
100
AcDbEntity
  8
VERMASSUNG
100
AcDbLine
 10
170.7740091894
 20
172.8005191795
 30
0.0
 11
252.7740091894
 21
172.8005191795
 31
0.0
  0
MTEXT
  5
1E6
330
1DE
100
AcDbEntity
  8
VERMASSUNG
100
AcDbMText
 10
210.3749057058
 20
175.3786547754
 30
0.0
 40
2.0
 41
0.0
 71
     1
 72
     1
  1
82
  7
SLDTEXTSTYLE0
 73
     1
 44
1.0
  0
ENDBLK
  5
1E0
330
1DE
100
AcDbEntity
  8
0
100
AcDbBlockEnd
  0
BLOCK
  5
1E9
330
1E8
100
AcDbEntity
  8
0
100
AcDbBlockBegin
  2
_D_3
 70
     0
 10
0.0
 20
0.0
 30
0.0
  3
_D_3
  1

  0
SOLID
  5
1EB
330
1E8
100
AcDbEntity
  8
VERMASSUNG
100
AcDbTrace
 10
152.7740091894
 20
178.8005191795
 30
0.0
 11
155.7740091894
 21
178.3505191795
 31
0.0
 12
155.7740091894
 22
179.2505191795
 32
0.0
 13
155.7740091894
 23
179.2505191795
 33
0.0
  0
SOLID
  5
1EC
330
1E8
100
AcDbEntity
  8
VERMASSUNG
100
AcDbTrace
 10
252.7740091894
 20
178.8005191795
 30
0.0
 11
249.7740091894
 21
179.2505191795
 31
0.0
 12
249.7740091894
 22
178.3505191795
 32
0.0
 13
249.7740091894
 23
178.3505191795
 33
0.0
  0
LINE
  5
1ED
330
1E8
100
AcDbEntity
  8
VERMASSUNG
100
AcDbLine
 10
152.7740091894
 20
167.5043840443
 30
0.0
 11
152.7740091894
 21
179.8005191795
 31
0.0
  0
LINE
  5
1EE
330
1E8
100
AcDbEntity
  8
VERMASSUNG
100
AcDbLine
 10
252.7740091894
 20
149.9552435227
 30
0.0
 11
252.7740091894
 21
179.8005191795
 31
0.0
  0
LINE
  5
1EF
330
1E8
100
AcDbEntity
  8
VERMASSUNG
100
AcDbLine
 10
152.7740091894
 20
178.8005191795
 30
0.0
 11
252.7740091894
 21
178.8005191795
 31
0.0
  0
MTEXT
  5
1F0
330
1E8
100
AcDbEntity
  8
VERMASSUNG
100
AcDbMText
 10
200.8745204599
 20
181.3786547754
 30
0.0
 40
2.0
 41
0.0
 71
     1
 72
     1
  1
100
  7
SLDTEXTSTYLE0
 73
     1
 44
1.0
  0
ENDBLK
  5
1EA
330
1E8
100
AcDbEntity
  8
0
100
AcDbBlockEnd
  0
BLOCK
  5
1F3
330
1F2
100
AcDbEntity
  8
0
100
AcDbBlockBegin
  2
_D_4
 70
     0
 10
0.0
 20
0.0
 30
0.0
  3
_D_4
  1

  0
SOLID
  5
1F5
330
1F2
100
AcDbEntity
  8
VERMASSUNG
100
AcDbTrace
 10
112.8240091894
 20
184.8005191795
 30
0.0
 11
115.8240091894
 21
184.3505191795
 31
0.0
 12
115.8240091894
 22
185.2505191795
 32
0.0
 13
115.8240091894
 23
185.2505191795
 33
0.0
  0
SOLID
  5
1F6
330
1F2
100
AcDbEntity
  8
VERMASSUNG
100
AcDbTrace
 10
252.7740091894
 20
184.8005191795
 30
0.0
 11
249.7740091894
 21
185.2505191795
 31
0.0
 12
249.7740091894
 22
184.3505191795
 32
0.0
 13
249.7740091894
 23
184.3505191795
 33
0.0
  0
LINE
  5
1F7
330
1F2
100
AcDbEntity
  8
VERMASSUNG
100
AcDbLine
 10
112.8240091894
 20
158.4324787681
 30
0.0
 11
112.8240091894
 21
185.8005191795
 31
0.0
  0
LINE
  5
1F8
330
1F2
100
AcDbEntity
  8
VERMASSUNG
100
AcDbLine
 10
252.7740091894
 20
149.9552435227
 30
0.0
 11
252.7740091894
 21
185.8005191795
 31
0.0
  0
LINE
  5
1F9
330
1F2
100
AcDbEntity
  8
VERMASSUNG
100
AcDbLine
 10
112.8240091894
 20
184.8005191795
 30
0.0
 11
252.7740091894
 21
184.8005191795
 31
0.0
  0
MTEXT
  5
1FA
330
1F2
100
AcDbEntity
  8
VERMASSUNG
100
AcDbMText
 10
179.1997468943
 20
187.3786547754
 30
0.0
 40
2.0
 41
0.0
 71
     1
 72
     1
  1
139.95
  7
SLDTEXTSTYLE0
 73
     1
 44
1.0
  0
ENDBLK
  5
1F4
330
1F2
100
AcDbEntity
  8
0
100
AcDbBlockEnd
  0
BLOCK
  5
1FD
330
1FC
100
AcDbEntity
  8
0
100
AcDbBlockBegin
  2
_D_5
 70
     0
 10
0.0
 20
0.0
 30
0.0
  3
_D_5
  1

  0
SOLID
  5
1FF
330
1FC
100
AcDbEntity
  8
VERMASSUNG
100
AcDbTrace
 10
105.1423234817
 20
167.7043840443
 30
0.0
 11
104.6923234817
 21
164.7043840443
 31
0.0
 12
105.5923234817
 22
164.7043840443
 32
0.0
 13
105.5923234817
 23
164.7043840443
 33
0.0
  0
SOLID
  5
200
330
1FC
100
AcDbEntity
  8
VERMASSUNG
100
AcDbTrace
 10
105.1423234817
 20
104.7543840443
 30
0.0
 11
105.5923234817
 21
107.7543840443
 31
0.0
 12
104.6923234817
 22
107.7543840443
 32
0.0
 13
104.6923234817
 23
107.7543840443
 33
0.0
  0
LINE
  5
201
330
1FC
100
AcDbEntity
  8
VERMASSUNG
100
AcDbLine
 10
152.9740091894
 20
167.7043840443
 30
0.0
 11
104.1423234817
 21
167.7043840443
 31
0.0
  0
LINE
  5
202
330
1FC
100
AcDbEntity
  8
VERMASSUNG
100
AcDbLine
 10
152.9740091894
 20
104.7543840443
 30
0.0
 11
104.1423234817
 21
104.7543840443
 31
0.0
  0
LINE
  5
203
330
1FC
100
AcDbEntity
  8
VERMASSUNG
100
AcDbLine
 10
105.1423234817
 20
167.7043840443
 30
0.0
 11
105.1423234817
 21
104.7543840443
 31
0.0
  0
MTEXT
  5
204
330
1FC
100
AcDbEntity
  8
VERMASSUNG
100
AcDbMText
 10
102.3641882255
 20
125.8244434706
 30
0.0
 40
2.0
 41
0.0
 71
     1
 72
     1
  1
KM XMZ
  7
SLDTEXTSTYLE0
 11
-1.414962237524464E-14
 21
1.0
 31
0.0
 73
     1
 44
1.0
  0
MTEXT
  5
205
330
1FC
100
AcDbEntity
  8
VERMASSUNG
100
AcDbMText
 10
102.5641881768
 20
136.824443411
 30
0.0
 40
2.0
 41
0.0
 71
     1
 72
     1
  1
%%c
  7
SLDTEXTSTYLE0
 11
-1.414962237524464E-14
 21
1.0
 31
0.0
 73
     1
 44
1.0
  0
MTEXT
  5
206
330
1FC
100
AcDbEntity
  8
VERMASSUNG
100
AcDbMText
 10
102.5641878857
 20
140.4343758476
 30
0.0
 40
2.0
 41
0.0
 71
     1
 72
     1
  1
62.95
  7
SLDTEXTSTYLE0
 11
-1.414962237524464E-14
 21
1.0
 31
0.0
 73
     1
 44
1.0
  0
ENDBLK
  5
1FE
330
1FC
100
AcDbEntity
  8
0
100
AcDbBlockEnd
  0
BLOCK
  5
20A
330
209
100
AcDbEntity
  8
0
100
AcDbBlockBegin
  2
_D_6
 70
     0
 10
0.0
 20
0.0
 30
0.0
  3
_D_6
  1

  0
SOLID
  5
20C
330
209
100
AcDbEntity
  8
VERMASSUNG
100
AcDbTrace
 10
171.6526888459
 20
158.1080637008
 30
0.0
 11
174.128536032
 21
159.860970062
 31
0.0
 12
173.5052743872
 22
160.5102349711
 32
0.0
 13
173.5052743872
 23
160.5102349711
 33
0.0
  0
LINE
  5
20D
330
209
100
AcDbEntity
  8
VERMASSUNG
100
AcDbLine
 10
171.6526888459
 20
158.1080637008
 30
0.0
 11
178.5436794546
 21
164.7230679622
 31
0.0
  0
MTEXT
  5
20E
330
209
100
AcDbEntity
  8
VERMASSUNG
100
AcDbMText
 10
173.4782792083
 20
163.3037020413
 30
0.0
 40
2.0
 41
0.0
 71
     1
 72
     1
  1
R
  7
SLDTEXTSTYLE0
 11
0.7071067811866253
 21
0.7071067811864697
 31
0.0
 73
     1
 44
1.0
  0
MTEXT
  5
20F
330
209
100
AcDbEntity
  8
VERMASSUNG
100
AcDbMText
 10
174.6095906497
 20
164.4350134827
 30
0.0
 40
2.0
 41
0.0
 71
     1
 72
     1
  1
3
  7
SLDTEXTSTYLE0
 11
0.7071067811866253
 21
0.7071067811864697
 31
0.0
 73
     1
 44
1.0
  0
ENDBLK
  5
20B
330
209
100
AcDbEntity
  8
0
100
AcDbBlockEnd
  0
BLOCK
  5
2B8
330
2B7
100
AcDbEntity
  8
0
100
AcDbBlockBegin
  2
SW_CENTERMARKSYMBOL_0
 70
     0
 10
0.0
 20
0.0
 30
0.0
  3
SW_CENTERMARKSYMBOL_0
  1

  0
LINE
  5
2BA
330
2B7
100
AcDbEntity
  8
VERMASSUNG
 62
     0
100
AcDbLine
 10
0.0
 20
0.0
 30
0.0
 11
0.0
 21
2.5
 31
0.0
  0
LINE
  5
2BB
330
2B7
100
AcDbEntity
  8
VERMASSUNG
 62
     0
100
AcDbLine
 10
0.0
 20
0.0
 30
0.0
 11
-2.5
 21
0.0
 31
0.0
  0
LINE
  5
2BC
330
2B7
100
AcDbEntity
  8
VERMASSUNG
 62
     0
100
AcDbLine
 10
0.0
 20
0.0
 30
0.0
 11
0.0
 21
-2.5
 31
0.0
  0
LINE
  5
2BD
330
2B7
100
AcDbEntity
  8
VERMASSUNG
 62
     0
100
AcDbLine
 10
0.0
 20
0.0
 30
0.0
 11
2.5
 21
0.0
 31
0.0
  0
LINE
  5
2BE
330
2B7
100
AcDbEntity
  8
VERMASSUNG
 62
     0
100
AcDbLine
 10
0.0
 20
5.0
 30
0.0
 11
0.0
 21
33.975
 31
0.0
  0
LINE
  5
2BF
330
2B7
100
AcDbEntity
  8
VERMASSUNG
 62
     0
100
AcDbLine
 10
-5.0
 20
0.0
 30
0.0
 11
-33.975
 21
0.0
 31
0.0
  0
LINE
  5
2C0
330
2B7
100
AcDbEntity
  8
VERMASSUNG
 62
     0
100
AcDbLine
 10
0.0
 20
-5.0
 30
0.0
 11
0.0
 21
-33.975
 31
0.0
  0
LINE
  5
2C1
330
2B7
100
AcDbEntity
  8
VERMASSUNG
 62
     0
100
AcDbLine
 10
5.0
 20
0.0
 30
0.0
 11
33.975
 21
0.0
 31
0.0
  0
ENDBLK
  5
2B9
330
2B7
100
AcDbEntity
  8
0
100
AcDbBlockEnd
  0
ENDSEC
  0
SECTION
  2
ENTITIES
  0
MTEXT
  5
78
330
1F
100
AcDbEntity
  8
KOPF_DÜNN
100
AcDbMText
 10
13.8892156294
 20
23.8442973028
 30
0.0
 40
3.0
 41
0.0
 71
     1
 72
     1
  1
KY6.W12.K01.100
  7
SLDTEXTSTYLE0
 73
     1
 44
1.0
  0
MTEXT
  5
79
330
1F
100
AcDbEntity
  8
VERMASSUNG
100
AcDbMText
 10
13.9329988022
 20
28.8834360957
 30
0.0
 40
3.0
 41
0.0
 71
     1
 72
     1
  1
Fräsaufnahme / Endmill holder
  7
SLDTEXTSTYLE0
 73
     1
 44
1.0
  0
MTEXT
  5
7A
330
1F
100
AcDbEntity
  8
VERMASSUNG
100
AcDbMText
 10
98.8601118557
 20
13.8365368761
 30
0.0
 40
2.0
 41
0.0
 71
     1
 72
     1
  1
Datum: 19.05.2017
  7
SLDTEXTSTYLE0
 73
     1
 44
1.0
  0
MTEXT
  5
7C
330
1F
100
AcDbEntity
  8
VERMASSUNG
100
AcDbMText
 10
13.933048693
 20
18.0482802738
 30
0.0
 40
2.0
 41
0.0
 71
     1
 72
     1
  1
KM 63 XMZ / ø12 DIN 1835 Form B
  7
SLDTEXTSTYLE1
 73
     1
 44
1.0
  0
MTEXT
  5
7D
330
1F
100
AcDbEntity
  8
VERMASSUNG
100
AcDbMText
 10
13.9808475933
 20
13.9090974274
 30
0.0
 40
2.0
 41
0.0
 71
     1
 72
     1
  1
Gewicht: 1418g
  7
SLDTEXTSTYLE0
 73
     1
 44
1.0
  0
LINE
  5
7E
330
1F
100
AcDbEntity
  8
0
  6
Continuous
 62
     7
370
    15
100
AcDbLine
 10
236.1099154566
 20
156.9934778904
 30
0.0
 11
235.8740077231
 21
157.2293837612
 31
0.0
  0
LINE
  5
7F
330
1F
100
AcDbEntity
  8
0
  6
Continuous
 62
     7
370
    15
100
AcDbLine
 10
225.6740064238
 20
157.2293837612
 30
0.0
 11
225.4384041641
 21
156.9937796389
 31
0.0
  0
ARC
  5
80
330
1F
100
AcDbEntity
  8
0
  6
Continuous
 62
     7
370
    15
100
AcDbCircle
 10
152.9740091894
 20
104.9543840443
 30
0.0
 40
0.2000000000000028
100
AcDbArc
 50
180.0
 51
270.0
  0
ARC
  5
81
330
1F
100
AcDbEntity
  8
0
  6
Continuous
 62
     7
370
    15
100
AcDbCircle
 10
152.9740091894
 20
167.5043840443
 30
0.0
 40
0.2000000000000455
100
AcDbArc
 50
90.0
 51
180.0
  0
LINE
  5
82
330
1F
100
AcDbEntity
  8
0
  6
Continuous
 62
     7
370
    15
100
AcDbLine
 10
166.0082072828
 20
104.7543839609
 30
0.0
 11
170.7740084146
 21
104.7543839609
 31
0.0
  0
LINE
  5
83
330
1F
100
AcDbEntity
  8
0
  6
Continuous
 62
     7
370
    15
100
AcDbLine
 10
170.7740084146
 20
167.7043841278
 30
0.0
 11
166.0082072828
 21
167.7043841278
 31
0.0
  0
LINE
  5
84
330
1F
100
AcDbEntity
  8
0
  6
Continuous
 62
     7
370
    15
100
AcDbLine
 10
152.9740091844
 20
104.7543839609
 30
0.0
 11
159.3398114544
 21
104.7543839609
 31
0.0
  0
LINE
  5
85
330
1F
100
AcDbEntity
  8
0
  6
Continuous
 62
     7
370
    15
100
AcDbLine
 10
159.3398114544
 20
167.7043841278
 30
0.0
 11
152.9740091844
 21
167.7043841278
 31
0.0
  0
LINE
  5
86
330
1F
100
AcDbEntity
  8
0
  6
Continuous
 62
     7
370
    15
100
AcDbLine
 10
159.3398114544
 20
104.7543839609
 30
0.0
 11
160.7990090613
 21
107.2817885374
 31
0.0
  0
LINE
  5
87
330
1F
100
AcDbEntity
  8
0
  6
Continuous
 62
     7
370
    15
100
AcDbLine
 10
160.7990090613
 20
165.1769795512
 30
0.0
 11
159.3398114544
 21
167.7043841278
 31
0.0
  0
LINE
  5
88
330
1F
100
AcDbEntity
  8
0
  6
Continuous
 62
     7
370
    15
100
AcDbLine
 10
166.0082072828
 20
167.7043841278
 30
0.0
 11
164.5490092103
 21
165.1769795512
 31
0.0
  0
LINE
  5
89
330
1F
100
AcDbEntity
  8
0
  6
Continuous
 62
     7
370
    15
100
AcDbLine
 10
164.5490092103
 20
107.2817885374
 30
0.0
 11
166.0082072828
 21
104.7543839609
 31
0.0
  0
ARC
  5
8A
330
1F
100
AcDbEntity
  8
0
  6
Continuous
 62
     7
370
    15
100
AcDbCircle
 10
161.7990091894
 20
165.0793840443
 30
0.0
 40
1.0
100
AcDbArc
 50
180.0
 51
270.0
  0
ARC
  5
8B
330
1F
100
AcDbEntity
  8
0
  6
Continuous
 62
     7
370
    15
100
AcDbCircle
 10
161.7990091894
 20
107.3793840443
 30
0.0
 40
1.0
100
AcDbArc
 50
90.0
 51
180.0
  0
ARC
  5
8C
330
1F
100
AcDbEntity
  8
0
  6
Continuous
 62
     7
370
    15
100
AcDbCircle
 10
163.5490091894
 20
107.3793840443
 30
0.0
 40
1.0
100
AcDbArc
 50
0.0
 51
90.0
  0
ARC
  5
8D
330
1F
100
AcDbEntity
  8
0
  6
Continuous
 62
     7
370
    15
100
AcDbCircle
 10
163.5490091894
 20
165.0793840443
 30
0.0
 40
1.0
100
AcDbArc
 50
270.0
 51
0.0
  0
LINE
  5
8E
330
1F
100
AcDbEntity
  8
0
  6
Continuous
 62
     7
370
    15
100
AcDbLine
 10
163.5490090464
 20
164.0793842321
 30
0.0
 11
161.7990092252
 21
164.0793842321
 31
0.0
  0
LINE
  5
8F
330
1F
100
AcDbEntity
  8
0
  6
Continuous
 62
     7
370
    15
100
AcDbLine
 10
161.7990092252
 20
108.3793838566
 30
0.0
 11
163.5490090464
 21
108.3793838566
 31
0.0
  0
ARC
  5
90
330
1F
100
AcDbEntity
  8
0
  6
Continuous
 62
     7
370
    15
100
AcDbCircle
 10
152.3450743149
 20
110.6793840443
 30
0.0
 40
0.8000000000000235
100
AcDbArc
 50
57.576802718
 51
107.5
  0
ARC
  5
91
330
1F
100
AcDbEntity
  8
0
  6
Continuous
 62
     7
370
    15
100
AcDbCircle
 10
152.3450743149
 20
161.7793840443
 30
0.0
 40
0.8000000000000181
100
AcDbArc
 50
252.5
 51
302.423197282
  0
LINE
  5
92
330
1F
100
AcDbEntity
  8
0
  6
Continuous
 62
     7
370
    15
100
AcDbLine
 10
151.6138271306
 20
111.2876453494
 30
0.0
 11
152.1045096795
 21
111.4423585182
 31
0.0
  0
LINE
  5
93
330
1F
100
AcDbEntity
  8
0
  6
Continuous
 62
     7
370
    15
100
AcDbLine
 10
152.1045096795
 20
161.0164095705
 30
0.0
 11
151.6138271306
 21
161.1711227392
 31
0.0
  0
LINE
  5
94
330
1F
100
AcDbEntity
  8
0
  6
Continuous
 62
     7
370
    15
100
AcDbLine
 10
122.3788571421
 20
159.7030025964
 30
0.0
 11
114.3240102444
 21
159.2985049879
 31
0.0
  0
LINE
  5
95
330
1F
100
AcDbEntity
  8
0
  6
Continuous
 62
     7
370
    15
100
AcDbLine
 10
151.6138271306
 20
161.1711227392
 30
0.0
 11
138.2885205437
 21
160.5019525682
 31
0.0
  0
LINE
  5
96
330
1F
100
AcDbEntity
  8
0
  6
Continuous
 62
     7
370
    15
100
AcDbLine
 10
138.2875640754
 20
111.9568639492
 30
0.0
 11
151.6138271306
 21
111.2876453494
 31
0.0
  0
LINE
  5
97
330
1F
100
AcDbEntity
  8
0
  6
Continuous
 62
     7
370
    15
100
AcDbLine
 10
114.3240102444
 20
113.1602631008
 30
0.0
 11
122.3788459663
 21
112.7557673549
 31
0.0
  0
ARC
  5
98
330
1F
100
AcDbEntity
  8
0
  6
Continuous
 62
     7
370
    15
100
AcDbCircle
 10
173.7740091894
 20
112.2293840443
 30
0.0
 40
3.0
100
AcDbArc
 50
90.0
 51
180.0
  0
ARC
  5
99
330
1F
100
AcDbEntity
  8
0
  6
Continuous
 62
     7
370
    15
100
AcDbCircle
 10
173.7740091894
 20
160.2293840443
 30
0.0
 40
3.000000000000028
100
AcDbArc
 50
180.0
 51
270.0
  0
LINE
  5
9A
330
1F
100
AcDbEntity
  8
0
  6
Continuous
 62
     7
370
    15
100
AcDbLine
 10
112.8240109299
 20
114.026288787
 30
0.0
 11
114.3240102444
 21
113.1602631008
 31
0.0
  0
LINE
  5
9B
330
1F
100
AcDbEntity
  8
0
  6
Continuous
 62
     7
370
    15
100
AcDbLine
 10
239.9069697474
 20
115.2293843274
 30
0.0
 11
251.6192451928
 21
120.6909085681
 31
0.0
  0
LINE
  5
9C
330
1F
100
AcDbEntity
  8
0
  6
Continuous
 62
     7
370
    15
100
AcDbLine
 10
251.6192451928
 20
151.7678595205
 30
0.0
 11
239.9069697474
 21
157.2293837612
 31
0.0
  0
LINE
  5
9D
330
1F
100
AcDbEntity
  8
0
  6
Continuous
 62
     7
370
    15
100
AcDbLine
 10
173.7740089063
 20
115.2293843274
 30
0.0
 11
239.9069697474
 21
115.2293843274
 31
0.0
  0
LINE
  5
9E
330
1F
100
AcDbEntity
  8
0
  6
Continuous
 62
     7
370
    15
100
AcDbLine
 10
224.6490076993
 20
157.2293837612
 30
0.0
 11
173.7740089063
 21
157.2293837612
 31
0.0
  0
LINE
  5
9F
330
1F
100
AcDbEntity
  8
0
  6
Continuous
 62
     7
370
    15
100
AcDbLine
 10
239.9069697474
 20
157.2293837612
 30
0.0
 11
236.8989095901
 21
157.2293837612
 31
0.0
  0
LINE
  5
A0
330
1F
100
AcDbEntity
  8
0
  6
Continuous
 62
     7
370
    15
100
AcDbLine
 10
114.3240102444
 20
159.2985049879
 30
0.0
 11
112.8240109299
 21
158.4324793016
 31
0.0
  0
ARC
  5
A1
330
1F
100
AcDbEntity
  8
0
  6
Continuous
 62
     7
370
    15
100
AcDbCircle
 10
250.7740091894
 20
122.5035245659
 30
0.0
 40
2.000000000000001
100
AcDbArc
 50
295.0
 51
0.0
  0
ARC
  5
A2
330
1F
100
AcDbEntity
  8
0
  6
Continuous
 62
     7
370
    15
100
AcDbCircle
 10
250.7740091894
 20
149.9552435227
 30
0.0
 40
2.000000000000001
100
AcDbArc
 50
0.0
 51
65.0
  0
LINE
  5
A3
330
1F
100
AcDbEntity
  8
0
  6
Continuous
 62
     7
370
    15
100
AcDbLine
 10
225.6740064238
 20
157.2293837612
 30
0.0
 11
235.8740077231
 21
157.2293837612
 31
0.0
  0
LINE
  5
A4
330
1F
100
AcDbEntity
  8
0
  6
Continuous
 62
     7
370
    15
100
AcDbLine
 10
228.8492576097
 20
156.3293834274
 30
0.0
 11
232.6944873546
 21
156.3293834274
 31
0.0
  0
LINE
  5
A5
330
1F
100
AcDbEntity
  8
0
  6
Continuous
 62
     7
370
    15
100
AcDbLine
 10
152.7740091894
 20
104.9543836211
 30
0.0
 11
152.7740091894
 21
167.5043844675
 31
0.0
  0
SPLINE
  5
A6
330
1F
100
AcDbEntity
  8
0
  6
Continuous
 62
     7
370
    15
100
AcDbSpline
210
0.0
220
0.0
230
1.0
 70
     8
 71
     3
 72
    10
 73
     6
 74
     0
 42
0.000000001
 43
0.00000001
 40
0.0
 40
0.0
 40
0.0
 40
0.0
 40
0.5
 40
0.5
 40
1.0
 40
1.0
 40
1.0
 40
1.0
 10
160.4680273819676
 20
134.5843027824918
 30
0.0
 10
160.2911422355442
 20
134.2858524671353
 30
0.0
 10
160.1055928606668
 20
134.0068597630078
 30
0.0
 10
159.7276439206192
 20
133.4615404688821
 30
0.0
 10
159.5348573784401
 20
133.1962050830607
 30
0.0
 10
159.3398113848508
 20
132.9344859588107
 30
0.0
  0
SPLINE
  5
A7
330
1F
100
AcDbEntity
  8
0
  6
Continuous
 62
     7
370
    15
100
AcDbSpline
210
0.0
220
0.0
230
1.0
 70
     8
 71
     3
 72
    22
 73
    18
 74
     0
 42
0.000000001
 43
0.00000001
 40
0.0
 40
0.0
 40
0.0
 40
0.0
 40
0.125
 40
0.125
 40
0.25
 40
0.25
 40
0.375
 40
0.375
 40
0.5
 40
0.5
 40
0.625
 40
0.625
 40
0.75
 40
0.75
 40
0.875
 40
0.875
 40
1.0
 40
1.0
 40
1.0
 40
1.0
 10
159.3398113848508
 20
132.9344859588107
 30
0.0
 10
159.1430734628295
 20
133.1618231053688
 30
0.0
 10
158.9670742221796
 20
133.4032308624986
 30
0.0
 10
158.6574949591548
 20
133.9149883146723
 30
0.0
 10
158.5229833111197
 20
134.1882976469515
 30
0.0
 10
158.307745413395
 20
134.7479712397178
 30
0.0
 10
158.226069179024
 20
135.034718572069
 30
0.0
 10
158.1154003429953
 20
135.6222858514566
 30
0.0
 10
158.0866662914173
 20
135.9264869940117
 30
0.0
 10
158.0863534038747
 20
136.5272259684666
 30
0.0
 10
158.1138874526091
 20
136.8248554671365
 30
0.0
 10
158.2236561187217
 20
137.4147069030367
 30
0.0
 10
158.3070160621944
 20
137.7084393515638
 30
0.0
 10
158.521734186354
 20
138.2676791702523
 30
0.0
 10
158.6533205933482
 20
138.5360695023122
 30
0.0
 10
158.9638490254269
 20
139.0509964273322
 30
0.0
 10
159.1424948757695
 20
139.296276406888
 30
0.0
 10
159.3398113848508
 20
139.5242821298442
 30
0.0
  0
SPLINE
  5
A8
330
1F
100
AcDbEntity
  8
0
  6
Continuous
 62
     7
370
    15
100
AcDbSpline
210
0.0
220
0.0
230
1.0
 70
     8
 71
     3
 72
    10
 73
     6
 74
     0
 42
0.000000001
 43
0.00000001
 40
0.0
 40
0.0
 40
0.0
 40
0.0
 40
0.5
 40
0.5
 40
1.0
 40
1.0
 40
1.0
 40
1.0
 10
159.3398113848508
 20
139.5242821298442
 30
0.0
 10
159.5348573784401
 20
139.2625630055942
 30
0.0
 10
159.7276439206193
 20
138.9972276197728
 30
0.0
 10
160.1055928606668
 20
138.4519083256471
 30
0.0
 10
160.2911422355442
 20
138.1729156215196
 30
0.0
 10
160.4680273819676
 20
137.8744653061631
 30
0.0
  0
ARC
  5
A9
330
1F
100
AcDbEntity
  8
0
  6
Continuous
 62
     7
370
    15
100
AcDbCircle
 10
163.8240091894
 20
136.2293840443
 30
0.0
 40
3.737499999999982
100
AcDbArc
 50
153.886195556
 51
206.113804444
  0
LINE
  5
AA
330
1F
100
AcDbEntity
  8
0
  6
Continuous
 62
     7
370
    15
100
AcDbLine
 10
170.7740084146
 20
104.7543839609
 30
0.0
 11
170.7740084146
 21
167.7043841278
 31
0.0
  0
LINE
  5
AB
330
1F
100
AcDbEntity
  8
0
  6
Continuous
 62
     7
370
    15
100
AcDbLine
 10
166.0082072828
 20
104.7543839609
 30
0.0
 11
166.0082072828
 21
131.3396769633
 31
0.0
  0
SPLINE
  5
AC
330
1F
100
AcDbEntity
  8
0
  6
Continuous
 62
     7
370
    15
100
AcDbSpline
210
0.0
220
0.0
230
1.0
 70
     8
 71
     3
 72
    32
 73
    28
 74
     0
 42
0.000000001
 43
0.00000001
 40
0.0
 40
0.0
 40
0.0
 40
0.0
 40
0.1249999999999995
 40
0.1249999999999995
 40
0.2499999999999989
 40
0.2499999999999989
 40
0.3124999999999989
 40
0.3124999999999989
 40
0.3749999999999989
 40
0.3749999999999989
 40
0.4374999999999989
 40
0.4374999999999989
 40
0.4999999999999989
 40
0.4999999999999989
 40
0.5624999999999989
 40
0.5624999999999989
 40
0.6249999999999988
 40
0.6249999999999988
 40
0.6874999999999988
 40
0.6874999999999988
 40
0.7499999999999988
 40
0.7499999999999988
 40
0.8749999999999992
 40
0.8749999999999992
 40
0.9374999999999996
 40
0.9374999999999996
 40
1.0
 40
1.0
 40
1.0
 40
1.0
 10
166.008206993991
 20
141.1190913240125
 30
0.0
 10
166.5088040217344
 20
140.9283338122163
 30
0.0
 10
166.977049240959
 20
140.6749998220566
 30
0.0
 10
167.8443957250843
 20
140.0332106266536
 30
0.0
 10
168.2231991192967
 20
139.6596057322376
 30
0.0
 10
168.7039876339483
 20
139.0183852877533
 30
0.0
 10
168.8503246783981
 20
138.788886233201
 30
0.0
 10
169.1016058071393
 20
138.3167091629453
 30
0.0
 10
169.2079196078118
 20
138.0727062450058
 30
0.0
 10
169.381155763106
 20
137.568512037281
 30
0.0
 10
169.4484247551115
 20
137.3061533932572
 30
0.0
 10
169.5383688397241
 20
136.7740140938097
 30
0.0
 10
169.5608955360296
 20
136.5074187614823
 30
0.0
 10
169.5620982458139
 20
135.9732002919909
 30
0.0
 10
169.5406091544403
 20
135.7045847460832
 30
0.0
 10
169.4524815596761
 20
135.1704883509225
 30
0.0
 10
169.386945757455
 20
134.9106036381401
 30
0.0
 10
169.2153115309967
 20
134.4043365565701
 30
0.0
 10
169.1088480165004
 20
134.1572928325861
 30
0.0
 10
168.856329231417
 20
133.6796225202171
 30
0.0
 10
168.7128776179684
 20
133.4536309274918
 30
0.0
 10
168.2343991171223
 20
132.8114387124942
 30
0.0
 10
167.8459841892667
 20
132.4277271084516
 30
0.0
 10
167.2033081400829
 20
131.9507021574811
 30
0.0
 10
166.9781748425737
 20
131.8067854286231
 30
0.0
 10
166.5061357992433
 20
131.548912074258
 30
0.0
 10
166.2600265592007
 20
131.4356351323889
 30
0.0
 10
166.008206993991
 20
131.3396767646424
 30
0.0
  0
LINE
  5
AD
330
1F
100
AcDbEntity
  8
0
  6
Continuous
 62
     7
370
    15
100
AcDbLine
 10
166.0082072828
 20
141.1190911253
 30
0.0
 11
166.0082072828
 21
167.7043841278
 31
0.0
  0
SPLINE
  5
AE
330
1F
100
AcDbEntity
  8
0
  6
Continuous
 62
     7
370
    15
100
AcDbSpline
210
0.0
220
0.0
230
1.0
 70
     8
 71
     3
 72
     8
 73
     4
 74
     0
 42
0.000000001
 43
0.00000001
 40
0.0
 40
0.0
 40
0.0
 40
0.0
 40
1.0
 40
1.0
 40
1.0
 40
1.0
 10
164.9768529047568
 20
139.7846417871667
 30
0.0
 10
165.3152372040775
 20
140.2380328590152
 30
0.0
 10
165.6598055893103
 20
140.6811159975998
 30
0.0
 10
166.0082069939905
 20
141.1190913240137
 30
0.0
  0
SPLINE
  5
AF
330
1F
100
AcDbEntity
  8
0
  6
Continuous
 62
     7
370
    15
100
AcDbSpline
210
0.0
220
0.0
230
1.0
 70
     8
 71
     3
 72
     8
 73
     4
 74
     0
 42
0.000000001
 43
0.00000001
 40
0.0
 40
0.0
 40
0.0
 40
0.0
 40
1.0
 40
1.0
 40
1.0
 40
1.0
 10
166.0082069939905
 20
131.3396767646412
 30
0.0
 10
165.6598055893103
 20
131.7776520910552
 30
0.0
 10
165.3152372040774
 20
132.22073522964
 30
0.0
 10
164.9768529047566
 20
132.6741263014885
 30
0.0
  0
ARC
  5
B0
330
1F
100
AcDbEntity
  8
0
  6
Continuous
 62
     7
370
    15
100
AcDbCircle
 10
163.8240091894
 20
136.2293840443
 30
0.0
 40
3.737500000000012
100
AcDbArc
 50
287.9660359156
 51
72.0339640843
  0
LINE
  5
B1
330
1F
100
AcDbEntity
  8
0
  6
Continuous
 62
     7
370
    15
100
AcDbLine
 10
159.3398114544
 20
132.9344858473
 30
0.0
 11
159.3398114544
 21
104.7543839609
 31
0.0
  0
LINE
  5
B2
330
1F
100
AcDbEntity
  8
0
  6
Continuous
 62
     7
370
    15
100
AcDbLine
 10
159.3398114544
 20
139.5242822414
 30
0.0
 11
159.3398114544
 21
167.7043841278
 31
0.0
  0
SPLINE
  5
B3
330
1F
100
AcDbEntity
  8
0
  6
Continuous
 62
     7
370
    15
100
AcDbSpline
210
0.0
220
0.0
230
1.0
 70
     8
 71
     3
 72
     8
 73
     4
 74
     0
 42
0.000000001
 43
0.00000001
 40
0.0
 40
0.0
 40
0.0
 40
0.0
 40
1.0
 40
1.0
 40
1.0
 40
1.0
 10
160.799009189421
 20
134.0343256738051
 30
0.0
 10
160.680712429991
 20
134.1973499022635
 30
0.0
 10
160.5692839478196
 20
134.377738401286
 30
0.0
 10
160.4680273819676
 20
134.5843027824918
 30
0.0
  0
LINE
  5
B4
330
1F
100
AcDbEntity
  8
0
  6
Continuous
 62
     7
370
    15
100
AcDbLine
 10
160.7990090613
 20
107.2817885374
 30
0.0
 11
160.7990090613
 21
134.0343256538
 31
0.0
  0
LINE
  5
B5
330
1F
100
AcDbEntity
  8
0
  6
Continuous
 62
     7
370
    15
100
AcDbLine
 10
160.7990090613
 20
138.4244424348
 30
0.0
 11
160.7990090613
 21
165.1769795512
 31
0.0
  0
SPLINE
  5
B6
330
1F
100
AcDbEntity
  8
0
  6
Continuous
 62
     7
370
    15
100
AcDbSpline
210
0.0
220
0.0
230
1.0
 70
     8
 71
     3
 72
     8
 73
     4
 74
     0
 42
0.000000001
 43
0.00000001
 40
0.0
 40
0.0
 40
0.0
 40
0.0
 40
1.0
 40
1.0
 40
1.0
 40
1.0
 10
160.4680273819676
 20
137.8744653061631
 30
0.0
 10
160.5687703935796
 20
138.0799820317141
 30
0.0
 10
160.6810603616798
 20
138.2618976694762
 30
0.0
 10
160.799009189421
 20
138.4244424148498
 30
0.0
  0
SPLINE
  5
B7
330
1F
100
AcDbEntity
  8
0
  6
Continuous
 62
     7
370
    15
100
AcDbSpline
210
0.0
220
0.0
230
1.0
 70
     8
 71
     3
 72
     8
 73
     4
 74
     0
 42
0.000000001
 43
0.00000001
 40
0.0
 40
0.0
 40
0.0
 40
0.0
 40
1.0
 40
1.0
 40
1.0
 40
1.0
 10
164.5490091894211
 20
139.8958920901405
 30
0.0
 10
164.6927043477383
 20
139.8674784091999
 30
0.0
 10
164.8353148164753
 20
139.8305375582626
 30
0.0
 10
164.9768529047574
 20
139.7846417871654
 30
0.0
  0
LINE
  5
B8
330
1F
100
AcDbEntity
  8
0
  6
Continuous
 62
     7
370
    15
100
AcDbLine
 10
164.5490092103
 20
139.8958920558
 30
0.0
 11
164.5490092103
 21
165.1769795512
 31
0.0
  0
SPLINE
  5
B9
330
1F
100
AcDbEntity
  8
0
  6
Continuous
 62
     7
370
    15
100
AcDbSpline
210
0.0
220
0.0
230
1.0
 70
     8
 71
     3
 72
     8
 73
     4
 74
     0
 42
0.000000001
 43
0.00000001
 40
0.0
 40
0.0
 40
0.0
 40
0.0
 40
1.0
 40
1.0
 40
1.0
 40
1.0
 10
164.9768529047569
 20
132.6741263014893
 30
0.0
 10
164.835314816475
 20
132.6282305303923
 30
0.0
 10
164.6927043477381
 20
132.591289679455
 30
0.0
 10
164.5490091894211
 20
132.5628759985144
 30
0.0
  0
LINE
  5
BA
330
1F
100
AcDbEntity
  8
0
  6
Continuous
 62
     7
370
    15
100
AcDbLine
 10
164.5490092103
 20
107.2817885374
 30
0.0
 11
164.5490092103
 21
132.5628760328
 31
0.0
  0
SPLINE
  5
BB
330
1F
100
AcDbEntity
  8
0
  6
Continuous
 62
     7
370
    15
100
AcDbSpline
210
0.0
220
0.0
230
1.0
 70
     8
 71
     3
 72
    16
 73
    12
 74
     0
 42
0.000000001
 43
0.00000001
 40
0.0
 40
0.0
 40
0.0
 40
0.0
 40
0.1249999999999996
 40
0.1249999999999996
 40
0.2499999999999992
 40
0.2499999999999992
 40
0.4999999999999994
 40
0.4999999999999994
 40
0.7499999999999997
 40
0.7499999999999997
 40
1.0
 40
1.0
 40
1.0
 40
1.0
 10
160.7990091894209
 20
138.4244424148498
 30
0.0
 10
160.7990091894209
 20
138.4244424148498
 30
0.0
 10
160.8086860644459
 20
138.4379016712705
 30
0.0
 10
160.8428254413349
 20
138.483772457329
 30
0.0
 10
160.8672710334837
 20
138.5160410283943
 30
0.0
 10
160.9546317695989
 20
138.626122915135
 30
0.0
 10
161.0320224913267
 20
138.7174380646297
 30
0.0
 10
161.2105190204112
 20
138.9043179999172
 30
0.0
 10
161.31263825243
 20
139.0014084144547
 30
0.0
 10
161.5412557730035
 20
139.192514134549
 30
0.0
 10
161.6644546414762
 20
139.284029453775
 30
0.0
 10
161.7990091894209
 20
139.3707661048225
 30
0.0
  0
SPLINE
  5
BC
330
1F
100
AcDbEntity
  8
0
  6
Continuous
 62
     7
370
    15
100
AcDbSpline
210
0.0
220
0.0
230
1.0
 70
     8
 71
     3
 72
    14
 73
    10
 74
     0
 42
0.000000001
 43
0.00000001
 40
0.0
 40
0.0
 40
0.0
 40
0.0
 40
0.25
 40
0.25
 40
0.5
 40
0.5
 40
0.75
 40
0.75
 40
1.0
 40
1.0
 40
1.0
 40
1.0
 10
161.7990091894209
 20
133.0880019838324
 30
0.0
 10
161.6646611030644
 20
133.17460554546
 30
0.0
 10
161.5414844292085
 20
133.2660739427834
 30
0.0
 10
161.3127378242905
 20
133.4572653294143
 30
0.0
 10
161.2108158603232
 20
133.5541271815552
 30
0.0
 10
161.0313924578945
 20
133.7420017962905
 30
0.0
 10
160.9549511697117
 20
133.8322371476418
 30
0.0
 10
160.8376611968616
 20
133.9800435116192
 30
0.0
 10
160.7990091894209
 20
134.0343256738052
 30
0.0
 10
160.7990091894209
 20
134.0343256738052
 30
0.0
  0
SPLINE
  5
BD
330
1F
100
AcDbEntity
  8
0
  6
Continuous
 62
     7
370
    15
100
AcDbSpline
210
0.0
220
0.0
230
1.0
 70
     8
 71
     3
 72
    14
 73
    10
 74
     0
 42
0.000000001
 43
0.00000001
 40
0.0
 40
0.0
 40
0.0
 40
0.0
 40
0.25
 40
0.25
 40
0.5
 40
0.5
 40
0.75
 40
0.75
 40
1.0
 40
1.0
 40
1.0
 40
1.0
 10
164.549009189421
 20
132.5628759985149
 30
0.0
 10
164.5490091894212
 20
132.562875998515
 30
0.0
 10
164.5230926668501
 20
132.5574992675266
 30
0.0
 10
164.4236478202725
 20
132.5399546799261
 30
0.0
 10
164.3513494278602
 20
132.5281052762798
 30
0.0
 10
164.1666455333364
 20
132.5064614582795
 30
0.0
 10
164.0570682714605
 20
132.4971721975951
 30
0.0
 10
163.8137380932423
 20
132.4899166612375
 30
0.0
 10
163.6822018343222
 20
132.4921880673969
 30
0.0
 10
163.5490091894209
 20
132.5020148313301
 30
0.0
  0
SPLINE
  5
BE
330
1F
100
AcDbEntity
  8
0
  6
Continuous
 62
     7
370
    15
100
AcDbSpline
210
0.0
220
0.0
230
1.0
 70
     8
 71
     3
 72
    14
 73
    10
 74
     0
 42
0.000000001
 43
0.00000001
 40
0.0
 40
0.0
 40
0.0
 40
0.0
 40
0.25
 40
0.25
 40
0.5
 40
0.5
 40
0.75
 40
0.75
 40
1.0
 40
1.0
 40
1.0
 40
1.0
 10
163.5490091894209
 20
139.9567532573247
 30
0.0
 10
163.6822386404442
 20
139.9665827367612
 30
0.0
 10
163.8139400030544
 20
139.9688478694939
 30
0.0
 10
164.0570176612715
 20
139.9615949360495
 30
0.0
 10
164.1679236018201
 20
139.9521637062799
 30
0.0
 10
164.3506206748978
 20
139.9307413464353
 30
0.0
 10
164.4240082043794
 20
139.9187505902421
 30
0.0
 10
164.5228424832977
 20
139.9013121965977
 30
0.0
 10
164.5490091894209
 20
139.8958920901391
 30
0.0
 10
164.5490091894209
 20
139.8958920901391
 30
0.0
  0
SPLINE
  5
BF
330
1F
100
AcDbEntity
  8
0
  6
Continuous
 62
     7
370
    15
100
AcDbSpline
210
0.0
220
0.0
230
1.0
 70
     8
 71
     3
 72
    10
 73
     6
 74
     0
 42
0.000000001
 43
0.00000001
 40
0.0
 40
0.0
 40
0.0
 40
0.0
 40
0.5
 40
0.5
 40
1.0
 40
1.0
 40
1.0
 40
1.0
 10
161.7990091894209
 20
139.3707661048225
 30
0.0
 10
162.0618287037766
 20
139.5401850122719
 30
0.0
 10
162.3401815683843
 20
139.6736585388113
 30
0.0
 10
162.9271781557697
 20
139.8708762246545
 30
0.0
 10
163.2365618456481
 20
139.9337013366194
 30
0.0
 10
163.5490091894209
 20
139.9567532573247
 30
0.0
  0
SPLINE
  5
C0
330
1F
100
AcDbEntity
  8
0
  6
Continuous
 62
     7
370
    15
100
AcDbSpline
210
0.0
220
0.0
230
1.0
 70
     8
 71
     3
 72
    10
 73
     6
 74
     0
 42
0.000000001
 43
0.00000001
 40
0.0
 40
0.0
 40
0.0
 40
0.0
 40
0.5
 40
0.5
 40
1.0
 40
1.0
 40
1.0
 40
1.0
 10
163.5490091894209
 20
132.5020148313302
 30
0.0
 10
163.2365452871328
 20
132.5250679736992
 30
0.0
 10
162.933656305135
 20
132.5863026761056
 30
0.0
 10
162.3463131203309
 20
132.7824746400295
 30
0.0
 10
162.061845459759
 20
132.9185722751294
 30
0.0
 10
161.7990091894209
 20
133.0880019838324
 30
0.0
  0
LINE
  5
C1
330
1F
100
AcDbEntity
  8
0
  6
Continuous
 62
     7
370
    15
100
AcDbLine
 10
151.6138271306
 20
111.2876453494
 30
0.0
 11
151.6138271306
 21
161.1711227392
 31
0.0
  0
SPLINE
  5
C2
330
1F
100
AcDbEntity
  8
0
  6
Continuous
 62
     7
370
    15
100
AcDbSpline
210
0.0
220
0.0
230
1.0
 70
     8
 71
     3
 72
     8
 73
     4
 74
     0
 42
0.000000001
 43
0.00000001
 40
0.0
 40
0.0
 40
0.0
 40
0.0
 40
1.0
 40
1.0
 40
1.0
 40
1.0
 10
114.3240091894309
 20
147.1343621847688
 30
0.0
 10
115.7547585544646
 20
147.1333750286459
 30
0.0
 10
117.1855079194982
 20
147.1320129534802
 30
0.0
 10
118.6162572845318
 20
147.1302750782002
 30
0.0
  0
LINE
  5
C3
330
1F
100
AcDbEntity
  8
0
  6
Continuous
 62
     7
370
    15
100
AcDbLine
 10
114.3240102444
 20
147.1343620738
 30
0.0
 11
114.3240102444
 21
159.2985049879
 31
0.0
  0
LINE
  5
C4
330
1F
100
AcDbEntity
  8
0
  6
Continuous
 62
     7
370
    15
100
AcDbLine
 10
114.3240102444
 20
113.1602631008
 30
0.0
 11
114.3240102444
 21
127.1072610339
 31
0.0
  0
SPLINE
  5
C5
330
1F
100
AcDbEntity
  8
0
  6
Continuous
 62
     7
370
    15
100
AcDbSpline
210
0.0
220
0.0
230
1.0
 70
     8
 71
     3
 72
     8
 73
     4
 74
     0
 42
0.000000001
 43
0.00000001
 40
0.0
 40
0.0
 40
0.0
 40
0.0
 40
1.0
 40
1.0
 40
1.0
 40
1.0
 10
120.1421836423679
 20
127.1118470680241
 30
0.0
 10
118.2027921580565
 20
127.1097009721745
 30
0.0
 10
116.2634006737451
 20
127.1081047856498
 30
0.0
 10
114.3240091894337
 20
127.1070573331741
 30
0.0
  0
SPLINE
  5
C6
330
1F
100
AcDbEntity
  8
0
  6
Continuous
 62
     7
370
    15
100
AcDbSpline
210
0.0
220
0.0
230
1.0
 70
     8
 71
     3
 72
    13
 73
     9
 74
     0
 42
0.000000001
 43
0.00000001
 40
0.0
 40
0.0
 40
0.0
 40
0.0
 40
0.1686319999748108
 40
0.3360343310905541
 40
0.5025367825908723
 40
0.6684737453788424
 40
0.8341822636915195
 40
1.0
 40
1.0
 40
1.0
 40
1.0
 10
121.2256786918348
 20
127.2493035138418
 30
0.0
 10
121.1661887957751
 20
127.2347891938029
 30
0.0
 10
121.0476428055
 20
127.2058663925183
 30
0.0
 10
120.8677661099142
 20
127.1719049991101
 30
0.0
 10
120.6873758222861
 20
127.1450394367511
 30
0.0
 10
120.5062636502523
 20
127.1260804996432
 30
0.0
 10
120.3245028130849
 20
127.1141500482475
 30
0.0
 10
120.2029700451902
 20
127.1126148966787
 30
0.0
 10
120.1421836423679
 20
127.1118470680241
 30
0.0
  0
SPLINE
  5
C7
330
1F
100
AcDbEntity
  8
0
  6
Continuous
 62
     7
370
    15
100
AcDbSpline
210
0.0
220
0.0
230
1.0
 70
     8
 71
     3
 72
     8
 73
     4
 74
     0
 42
0.000000001
 43
0.00000001
 40
0.0
 40
0.0
 40
0.0
 40
0.0
 40
1.0
 40
1.0
 40
1.0
 40
1.0
 10
126.6178721083351
 20
127.2535415557272
 30
0.0
 10
124.8204774368948
 20
127.2516704952032
 30
0.0
 10
123.0230827654545
 20
127.2502483141791
 30
0.0
 10
121.2256880940142
 20
127.2492741911831
 30
0.0
  0
SPLINE
  5
C8
330
1F
100
AcDbEntity
  8
0
  6
Continuous
 62
     7
370
    15
100
AcDbSpline
210
0.0
220
0.0
230
1.0
 70
     8
 71
     3
 72
    18
 73
    14
 74
     0
 42
0.000000001
 43
0.00000001
 40
0.0
 40
0.0
 40
0.0
 40
0.0
 40
0.0923325137151694
 40
0.1843692047134009
 40
0.2763458873902312
 40
0.368498217575762
 40
0.4610598988406411
 40
0.5542609546627003
 40
0.6483261285518087
 40
0.743473463655427
 40
0.8399130993133287
 40
0.9201660718313618
 40
1.0
 40
1.0
 40
1.0
 40
1.0
 10
128.81419375693
 20
126.7193493198836
 30
0.0
 10
128.7438634534139
 20
126.7197659443151
 30
0.0
 10
128.6034281765567
 20
126.7205978583617
 30
0.0
 10
128.3930656500473
 20
126.7342067052762
 30
0.0
 10
128.1836219871263
 20
126.7568734626477
 30
0.0
 10
127.9750723167516
 20
126.7894742524484
 30
0.0
 10
127.7674286994763
 20
126.8317767310686
 30
0.0
 10
127.5606905119389
 20
126.8838481297238
 30
0.0
 10
127.3548684199786
 20
126.9456969025692
 30
0.0
 10
127.1499367411931
 20
127.0172949140253
 30
0.0
 10
126.9584559958034
 20
127.0938734042542
 30
0.0
 10
126.7807328437537
 20
127.1724846530883
 30
0.0
 10
126.6723988491908
 20
127.2263988088755
 30
0.0
 10
126.6183736397386
 20
127.2532853237741
 30
0.0
  0
LINE
  5
C9
330
1F
100
AcDbEntity
  8
0
  6
Continuous
 62
     7
370
    15
100
AcDbLine
 10
130.7290674065
 20
126.7208450531
 30
0.0
 11
128.8141936873
 21
126.7193493491
 31
0.0
  0
SPLINE
  5
CA
330
1F
100
AcDbEntity
  8
0
  6
Continuous
 62
     7
370
    15
100
AcDbSpline
210
0.0
220
0.0
230
1.0
 70
     8
 71
     3
 72
    25
 73
    21
 74
     0
 42
0.000000001
 43
0.00000001
 40
0.0
 40
0.0
 40
0.0
 40
0.0
 40
0.0280105225425618
 40
0.0559601148859273
 40
0.0839014045041196
 40
0.1118870776784247
 40
0.1399695827586811
 40
0.1682008401737953
 40
0.1966319670422708
 40
0.2253130233140565
 40
0.2542927850735732
 40
0.3799486436574536
 40
0.5057850221666685
 40
0.6313085886327393
 40
0.7532068238012419
 40
0.803947326795536
 40
0.8535894438553622
 40
0.9025339722393254
 40
0.951197035379054
 40
1.0
 40
1.0
 40
1.0
 40
1.0
 10
135.6689513426224
 20
131.8547085592589
 30
0.0
 10
135.6689885643562
 20
131.7800885322456
 30
0.0
 10
135.6690629268568
 20
131.6310107962588
 30
0.0
 10
135.6566468762103
 20
131.4083927052929
 30
0.0
 10
135.6350423158565
 20
131.1870682872643
 30
0.0
 10
135.6033568461965
 20
130.9671000213759
 30
0.0
 10
135.5618307078767
 20
130.7485097341468
 30
0.0
 10
135.5103999521467
 20
130.5313277957424
 30
0.0
 10
135.4490860774355
 20
130.3155863758573
 30
0.0
 10
135.377875741936
 20
130.1012964844068
 30
0.0
 10
135.2070391347325
 20
129.6529467113854
 30
0.0
 10
134.8693069012967
 20
128.9996158833141
 30
0.0
 10
134.2577522370991
 20
128.227722672675
 30
0.0
 10
133.5215174019496
 20
127.5835630472901
 30
0.0
 10
132.8350313303022
 20
127.1919218792283
 30
0.0
 10
132.2863271841524
 20
126.97322697826
 30
0.0
 10
131.9042910056477
 20
126.8573709294294
 30
0.0
 10
131.5171249069432
 20
126.7764630238994
 30
0.0
 10
131.1248982381565
 20
126.7272345931015
 30
0.0
 10
130.8611369700411
 20
126.7229767380861
 30
0.0
 10
130.7290670362195
 20
126.7208447547433
 30
0.0
  0
LINE
  5
CB
330
1F
100
AcDbEntity
  8
0
  6
Continuous
 62
     7
370
    15
100
AcDbLine
 10
135.6689513538
 20
140.604059497
 30
0.0
 11
135.6689513538
 21
131.8547085916
 31
0.0
  0
SPLINE
  5
CC
330
1F
100
AcDbEntity
  8
0
  6
Continuous
 62
     7
370
    15
100
AcDbSpline
210
0.0
220
0.0
230
1.0
 70
     8
 71
     3
 72
    26
 73
    22
 74
     0
 42
0.000000001
 43
0.00000001
 40
0.0
 40
0.0
 40
0.0
 40
0.0
 40
0.0241259796962594
 40
0.0482159912271147
 40
0.0723203915121655
 40
0.0964895678708044
 40
0.1207736231960655
 40
0.1452220711240092
 40
0.1698835501655297
 40
0.1948055644470513
 40
0.2200342569516523
 40
0.2456142191611222
 40
0.3690971486898452
 40
0.4940698769485167
 40
0.6192566784763793
 40
0.7454656653603262
 40
0.7971495824714568
 40
0.8481710308406679
 40
0.8988013269236526
 40
0.9493179290493045
 40
1.0
 40
1.0
 40
1.0
 40
1.0
 10
130.7290670362195
 20
145.7379233339116
 30
0.0
 10
130.7943160947687
 20
145.7373495475327
 30
0.0
 10
130.9247169354473
 20
145.7362028302032
 30
0.0
 10
131.119696753743
 20
145.7240854537104
 30
0.0
 10
131.3138258910062
 20
145.7043269322486
 30
0.0
 10
131.5070872311001
 20
145.6761647500279
 30
0.0
 10
131.6994824095742
 20
145.6397736539795
 30
0.0
 10
131.8910079880754
 20
145.5950725685022
 30
0.0
 10
132.081663520461
 20
145.542044097118
 30
0.0
 10
132.2714435195599
 20
145.4806530756915
 30
0.0
 10
132.4603621402163
 20
145.4108508692116
 30
0.0
 10
132.8871065533871
 20
145.2333217989971
 30
0.0
 10
133.5215788805683
 20
144.8787611960995
 30
0.0
 10
134.261254732914
 20
144.2365893824086
 30
0.0
 10
134.8680019757503
 20
143.4634240786273
 30
0.0
 10
135.2287937919686
 20
142.756008670367
 30
0.0
 10
135.4309678477324
 20
142.1915012711414
 30
0.0
 10
135.5377913037177
 20
141.8026144095924
 30
0.0
 10
135.6134020200159
 20
141.4081316557242
 30
0.0
 10
135.6605646927073
 20
141.0083255655343
 30
0.0
 10
135.6661527469955
 20
140.7389616860701
 30
0.0
 10
135.6689513426224
 20
140.604059529396
 30
0.0
  0
LINE
  5
CD
330
1F
100
AcDbEntity
  8
0
  6
Continuous
 62
     7
370
    15
100
AcDbLine
 10
128.8141936873
 20
145.7394187396
 30
0.0
 11
130.7290674065
 21
145.7379230355
 31
0.0
  0
SPLINE
  5
CE
330
1F
100
AcDbEntity
  8
0
  6
Continuous
 62
     7
370
    15
100
AcDbSpline
210
0.0
220
0.0
230
1.0
 70
     8
 71
     3
 72
    14
 73
    10
 74
     0
 42
0.000000001
 43
0.00000001
 40
0.0
 40
0.0
 40
0.0
 40
0.0
 40
0.0786889129230217
 40
0.1577561817120102
 40
0.3304686003102582
 40
0.4997364082417218
 40
0.666847231663544
 40
0.833145083375537
 40
1.0
 40
1.0
 40
1.0
 40
1.0
 10
126.619123783464
 20
145.2059557503359
 30
0.0
 10
126.6723349514503
 20
145.2324555593676
 30
0.0
 10
126.7790131399539
 20
145.2855825951042
 30
0.0
 10
127.0076975427552
 20
145.387025650642
 30
0.0
 10
127.30636907803
 20
145.50102780869
 30
0.0
 10
127.6785119994455
 20
145.6096343999081
 30
0.0
 10
128.0541418387002
 20
145.6859686439826
 30
0.0
 10
128.433334140235
 20
145.7327861121336
 30
0.0
 10
128.6870991111863
 20
145.7372054200497
 30
0.0
 10
128.81419375693
 20
145.7394187687713
 30
0.0
  0
SPLINE
  5
CF
330
1F
100
AcDbEntity
  8
0
  6
Continuous
 62
     7
370
    15
100
AcDbSpline
210
0.0
220
0.0
230
1.0
 70
     8
 71
     3
 72
     8
 73
     4
 74
     0
 42
0.000000001
 43
0.00000001
 40
0.0
 40
0.0
 40
0.0
 40
0.0
 40
1.0
 40
1.0
 40
1.0
 40
1.0
 10
122.208440879225
 20
145.2092684302669
 30
0.0
 10
123.6785571295897
 20
145.2084065223723
 30
0.0
 10
125.1486733799543
 20
145.2072455163474
 30
0.0
 10
126.618789630319
 20
145.2057849652282
 30
0.0
  0
SPLINE
  5
D0
330
1F
100
AcDbEntity
  8
0
  6
Continuous
 62
     7
370
    15
100
AcDbSpline
210
0.0
220
0.0
230
1.0
 70
     8
 71
     3
 72
    23
 73
    19
 74
     0
 42
0.000000001
 43
0.00000001
 40
0.0
 40
0.0
 40
0.0
 40
0.0
 40
0.0441308420115403
 40
0.0880968635201137
 40
0.1320155028394797
 40
0.1760048571417636
 40
0.220182730577585
 40
0.2646656976919496
 40
0.3095682184552906
 40
0.3550018365579412
 40
0.4010744854732484
 40
0.4478899182331895
 40
0.4955472680210786
 40
0.5953670562466713
 40
0.6949121173423626
 40
0.7950007649006683
 40
0.896438625518418
 40
1.0
 40
1.0
 40
1.0
 40
1.0
 10
118.6162572845318
 20
147.1302750782002
 30
0.0
 10
118.6808182833431
 20
147.1297093637404
 30
0.0
 10
118.8096991576195
 20
147.1285800476592
 30
0.0
 10
119.00204936726
 20
147.1157413413017
 30
0.0
 10
119.1929649381289
 20
147.0946988422885
 30
0.0
 10
119.3824225723513
 20
147.0646357696691
 30
0.0
 10
119.5704234665363
 20
147.0257312795442
 30
0.0
 10
119.7569627784717
 20
146.9778913236399
 30
0.0
 10
119.9420378291584
 20
146.9210891422123
 30
0.0
 10
120.125646808199
 20
146.855273662611
 30
0.0
 10
120.30778626865
 20
146.7803936972986
 30
0.0
 10
120.48846295995
 20
146.6963935540388
 30
0.0
 10
120.7318068323945
 20
146.5698393369923
 30
0.0
 10
121.0285006449718
 20
146.3897216122655
 30
0.0
 10
121.3640271336978
 20
146.1410293731312
 30
0.0
 10
121.6736802159413
 20
145.8616032171701
 30
0.0
 10
121.9601391369374
 20
145.5529311867143
 30
0.0
 10
122.1265508858621
 20
145.325485878259
 30
0.0
 10
122.2106186602621
 20
145.2105852116706
 30
0.0
  0
SPLINE
  5
D1
330
1F
100
AcDbEntity
  8
0
  6
Continuous
 62
     7
370
    15
100
AcDbSpline
210
0.0
220
0.0
230
1.0
 70
     8
 71
     3
 72
    20
 73
    16
 74
     0
 42
0.000000001
 43
0.00000001
 40
0.0
 40
0.0
 40
0.0
 40
0.0
 40
0.0829621397148167
 40
0.165849559923019
 40
0.2487180185793436
 40
0.3299477342032863
 40
0.4108694252377165
 40
0.4941953572191267
 40
0.5768901805470451
 40
0.6601065719146163
 40
0.7435845579415131
 40
0.8279858393428777
 40
0.9132590659659428
 40
0.9972257017231292
 40
1.0
 40
1.0
 40
1.0
 40
1.0
 10
124.6864248875916
 20
113.3661245053193
 30
0.0
 10
125.0721707566114
 20
113.4430427847906
 30
0.0
 10
125.843315074236
 20
113.5968100676041
 30
0.0
 10
127.2510639279511
 20
113.7727247716833
 30
0.0
 10
128.7589150717018
 20
113.8667220239085
 30
0.0
 10
130.3314038746436
 20
113.842874993756
 30
0.0
 10
131.898700981776
 20
113.698973041952
 30
0.0
 10
133.3944764809443
 20
113.4499130523143
 30
0.0
 10
134.7747308616854
 20
113.1352332485904
 30
0.0
 10
135.9723241897173
 20
112.7909720463522
 30
0.0
 10
136.9591875102523
 20
112.461926665003
 30
0.0
 10
137.7064248666358
 20
112.1834621533785
 30
0.0
 10
138.1536255093045
 20
112.0116121876917
 30
0.0
 10
138.3403821825779
 20
111.9377482175792
 30
0.0
 10
138.2892831628115
 20
111.9579085653272
 30
0.0
 10
138.2876488257587
 20
111.9585533683679
 30
0.0
  0
SPLINE
  5
D2
330
1F
100
AcDbEntity
  8
0
  6
Continuous
 62
     7
370
    15
100
AcDbSpline
210
0.0
220
0.0
230
1.0
 70
     8
 71
     3
 72
    11
 73
     7
 74
     0
 42
0.000000001
 43
0.00000001
 40
0.0
 40
0.0
 40
0.0
 40
0.0
 40
0.2435511920983711
 40
0.4981153938030212
 40
0.750909785993258
 40
1.0
 40
1.0
 40
1.0
 40
1.0
 10
122.3789316479504
 20
112.7574623619697
 30
0.0
 10
122.4048820595446
 20
112.7656971385457
 30
0.0
 10
122.4579563203571
 20
112.7825390556051
 30
0.0
 10
122.9356521733507
 20
112.9234437323957
 30
0.0
 10
123.6469918444723
 20
113.1287315067667
 30
0.0
 10
124.3416562053526
 20
113.2873838189177
 30
0.0
 10
124.6864248875916
 20
113.3661245053193
 30
0.0
  0
SPLINE
  5
D3
330
1F
100
AcDbEntity
  8
0
  6
Continuous
 62
     7
370
    15
100
AcDbSpline
210
0.0
220
0.0
230
1.0
 70
     8
 71
     3
 72
    11
 73
     7
 74
     0
 42
0.000000001
 43
0.00000001
 40
0.0
 40
0.0
 40
0.0
 40
0.0
 40
0.249162618138769
 40
0.5017504786054421
 40
0.7560491028276796
 40
0.9999999999999999
 40
0.9999999999999999
 40
0.9999999999999999
 40
0.9999999999999999
 10
124.6866409544289
 20
159.0927087759158
 30
0.0
 10
124.3422288345721
 20
159.1715440987049
 30
0.0
 10
123.6486699561715
 20
159.330298494673
 30
0.0
 10
122.9372906420098
 20
159.5353210257627
 30
0.0
 10
122.4593074207952
 20
159.6762121107998
 30
0.0
 10
122.4053537916086
 20
159.6931215775096
 30
0.0
 10
122.3789372358858
 20
159.7014007215878
 30
0.0
  0
SPLINE
  5
D4
330
1F
100
AcDbEntity
  8
0
  6
Continuous
 62
     7
370
    15
100
AcDbSpline
210
0.0
220
0.0
230
1.0
 70
     8
 71
     3
 72
    20
 73
    16
 74
     0
 42
0.000000001
 43
0.00000001
 40
0.0
 40
0.0
 40
0.0
 40
0.0
 40
0.0020978605889371
 40
0.0861225778994255
 40
0.1715950183645697
 40
0.2561988430343052
 40
0.3398275250694439
 40
0.423045877256469
 40
0.5057166369421945
 40
0.588890314891012
 40
0.6698064533383425
 40
0.7510282954465385
 40
0.8339975043603477
 40
0.9170076327053538
 40
1.0
 40
1.0
 40
1.0
 40
1.0
 10
138.2885857362687
 20
160.5006654804132
 30
0.0
 10
138.2898299221467
 20
160.501156695511
 30
0.0
 10
138.3409069554639
 20
160.5213223398613
 30
0.0
 10
138.1555798030547
 20
160.4479350480061
 30
0.0
 10
137.7093055088487
 20
160.2765622940879
 30
0.0
 10
136.9618049675364
 20
159.9977081796742
 30
0.0
 10
135.9736261263145
 20
159.6682676814489
 30
0.0
 10
134.7752460981764
 20
159.3239498139052
 30
0.0
 10
133.3961734920106
 20
159.0094427601045
 30
0.0
 10
131.9016001236171
 20
158.7606152748538
 30
0.0
 10
130.3357096360415
 20
158.6162499078653
 30
0.0
 10
128.7624381078281
 20
158.5916802078584
 30
0.0
 10
127.2530648936812
 20
158.6855645975538
 30
0.0
 10
125.8433600096523
 20
158.8614803864843
 30
0.0
 10
125.0721864695311
 20
159.0156381440221
 30
0.0
 10
124.6866409544289
 20
159.0927087759158
 30
0.0
  0
LINE
  5
D5
330
1F
100
AcDbEntity
  8
0
  6
Continuous
 62
     7
370
    15
100
AcDbLine
 10
135.6689513538
 20
131.8547085916
 30
0.0
 11
134.7740099643
 21
132.0168839825
 31
0.0
  0
LINE
  5
D6
330
1F
100
AcDbEntity
  8
0
  6
Continuous
 62
     7
370
    15
100
AcDbLine
 10
134.7740099643
 20
132.0168839825
 30
0.0
 11
134.7740099643
 21
140.4418841062
 31
0.0
  0
LINE
  5
D7
330
1F
100
AcDbEntity
  8
0
  6
Continuous
 62
     7
370
    15
100
AcDbLine
 10
135.6689513538
 20
140.604059497
 30
0.0
 11
134.7740099643
 21
140.4418841062
 31
0.0
  0
SPLINE
  5
D8
330
1F
100
AcDbEntity
  8
0
  6
Continuous
 62
     7
370
    15
100
AcDbSpline
210
0.0
220
0.0
230
1.0
 70
     8
 71
     3
 72
    25
 73
    21
 74
     0
 42
0.000000001
 43
0.00000001
 40
0.0
 40
0.0
 40
0.0
 40
0.0
 40
0.0288821753094393
 40
0.0583636593986225
 40
0.0884647204281144
 40
0.1192044006590791
 40
0.1506005800061348
 40
0.1826700399650394
 40
0.2154285269564808
 40
0.2488908143379647
 40
0.361059447113401
 40
0.4984670131067465
 40
0.5822693905006262
 40
0.6661127642782027
 40
0.7499972937224338
 40
0.8007709755032364
 40
0.8511237700807901
 40
0.9010896024506709
 40
0.9507031914109064
 40
1.0
 40
1.0
 40
1.0
 40
1.0
 10
130.7740091894209
 20
128.0168840443275
 30
0.0
 10
130.8368096426548
 20
128.0177405282791
 30
0.0
 10
130.9637136664464
 20
128.0194712683326
 30
0.0
 10
131.1550680741506
 20
128.0336211337346
 30
0.0
 10
131.3489728868232
 20
128.056758216054
 30
0.0
 10
131.5448736075498
 20
128.0901693682775
 30
0.0
 10
131.7422112755563
 20
128.1340431903091
 30
0.0
 10
131.9403646173479
 20
128.1888384612787
 30
0.0
 10
132.1386803613661
 20
128.2549074226445
 30
0.0
 10
132.4900013488613
 20
128.3928887548939
 30
0.0
 10
133.0151131191894
 20
128.6729406937338
 30
0.0
 10
133.5521049476778
 20
129.1115312961389
 30
0.0
 10
133.9641646777275
 20
129.5853914176985
 30
0.0
 10
134.25108326578
 20
130.0170751655183
 30
0.0
 10
134.4495099529872
 20
130.4201984072784
 30
0.0
 10
134.5815958270355
 20
130.7779345680574
 30
0.0
 10
134.6672297068333
 20
131.0806869703397
 30
0.0
 10
134.7283119181864
 20
131.3891752805854
 30
0.0
 10
134.7668128615518
 20
131.7014869907418
 30
0.0
 10
134.7716155406453
 20
131.9119764046432
 30
0.0
 10
134.7740091894209
 20
132.0168840443275
 30
0.0
  0
SPLINE
  5
D9
330
1F
100
AcDbEntity
  8
0
  6
Continuous
 62
     7
370
    15
100
AcDbSpline
210
0.0
220
0.0
230
1.0
 70
     8
 71
     3
 72
    25
 73
    21
 74
     0
 42
0.000000001
 43
0.00000001
 40
0.0
 40
0.0
 40
0.0
 40
0.0
 40
0.0274788704238406
 40
0.0560416006876649
 40
0.0856947086384779
 40
0.1164440166573039
 40
0.1482947438713698
 40
0.1812515840496028
 40
0.2153187716763797
 40
0.2505001382254737
 40
0.3330514552645295
 40
0.5015081958164058
 40
0.5771663066140428
 40
0.648898130301891
 40
0.716747770005482
 40
0.7807674423479443
 40
0.8410194131332148
 40
0.8975784849918017
 40
0.9505352047784471
 40
0.9999999999999999
 40
0.9999999999999999
 40
0.9999999999999999
 40
0.9999999999999999
 10
134.7740091894209
 20
140.4418840443275
 30
0.0
 10
134.7732677378127
 20
140.5002484533657
 30
0.0
 10
134.7717555892303
 20
140.6192793616687
 30
0.0
 10
134.7592594481586
 20
140.800060355793
 30
0.0
 10
134.7383398441926
 20
140.9863235740394
 30
0.0
 10
134.7074191026464
 20
141.1774956625904
 30
0.0
 10
134.6658944579958
 20
141.3730026018154
 30
0.0
 10
134.6128942721786
 20
141.572163953926
 30
0.0
 10
134.5476650923634
 20
141.7741822330763
 30
0.0
 10
134.4350750656201
 20
142.067715847599
 30
0.0
 10
134.1750546746379
 20
142.5962486734234
 30
0.0
 10
133.7639752814796
 20
143.1361879330737
 30
0.0
 10
133.2796407132286
 20
143.5710072824868
 30
0.0
 10
132.9144860085508
 20
143.8304144239471
 30
0.0
 10
132.5416509394339
 20
144.0381645785967
 30
0.0
 10
132.1684033771085
 20
144.1978858462341
 30
0.0
 10
131.8011140667744
 20
144.3139230985359
 30
0.0
 10
131.4449212639505
 20
144.3901302158413
 30
0.0
 10
131.1040825628029
 20
144.4341352778313
 30
0.0
 10
130.8815041427036
 20
144.439360504534
 30
0.0
 10
130.7740091894209
 20
144.4418840443275
 30
0.0
  0
SPLINE
  5
DA
330
1F
100
AcDbEntity
  8
0
  6
Continuous
 62
     7
370
    15
100
AcDbSpline
210
0.0
220
0.0
230
1.0
 70
     8
 71
     3
 72
    13
 73
     9
 74
     0
 42
0.000000001
 43
0.00000001
 40
0.0
 40
0.0
 40
0.0
 40
0.0
 40
0.1722587823387897
 40
0.3421398270959865
 40
0.5097456257587107
 40
0.6751828992986529
 40
0.838562618995617
 40
1.0
 40
1.0
 40
1.0
 40
1.0
 10
127.7740275583311
 20
128.1668788670773
 30
0.0
 10
127.8348909479933
 20
128.1506151393804
 30
0.0
 10
127.955777612422
 20
128.1183121769038
 30
0.0
 10
128.1388387703751
 20
128.0809245222121
 30
0.0
 10
128.3209414533091
 20
128.0517915873005
 30
0.0
 10
128.5018829016319
 20
128.0316048716919
 30
0.0
 10
128.6812219053473
 20
128.019158067388
 30
0.0
 10
128.8000681337778
 20
128.0176390241601
 30
0.0
 10
128.8591359101314
 20
128.0168840443275
 30
0.0
  0
LINE
  5
DB
330
1F
100
AcDbEntity
  8
0
  6
Continuous
 62
     7
370
    15
100
AcDbLine
 10
128.8141936873
 20
126.7193493491
 30
0.0
 11
128.8591355894
 21
128.0168837925
 31
0.0
  0
SPLINE
  5
DC
330
1F
100
AcDbEntity
  8
0
  6
Continuous
 62
     7
370
    15
100
AcDbSpline
210
0.0
220
0.0
230
1.0
 70
     8
 71
     3
 72
    11
 73
     7
 74
     0
 42
0.000000001
 43
0.00000001
 40
0.0
 40
0.0
 40
0.0
 40
0.0
 40
0.2392913840897591
 40
0.5001130134987114
 40
0.7515028526612877
 40
1.0
 40
1.0
 40
1.0
 40
1.0
 10
127.446536697275
 20
128.1674576493506
 30
0.0
 10
127.3777117614364
 20
128.0959042122899
 30
0.0
 10
127.233869365284
 20
127.9463593167613
 30
0.0
 10
127.0261205668888
 20
127.717441890132
 30
0.0
 10
126.818134362095
 20
127.4851235178546
 30
0.0
 10
126.6851334383713
 20
127.3303476352236
 30
0.0
 10
126.6190177941733
 20
127.2534075140577
 30
0.0
  0
SPLINE
  5
DD
330
1F
100
AcDbEntity
  8
0
  6
Continuous
 62
     7
370
    15
100
AcDbSpline
210
0.0
220
0.0
230
1.0
 70
    24
 71
     3
 72
     9
 73
     5
 74
     0
 42
0.000000001
 43
0.00000001
 40
0.0
 40
0.0
 40
0.0
 40
0.0
 40
0.5090839669866044
 40
1.0
 40
1.0
 40
1.0
 40
1.0
 10
127.4487669655944
 20
128.1668840443274
 30
0.0
 10
127.5035003657067
 20
128.1668840443274
 30
0.0
 10
127.6110138677256
 20
128.1668840443274
 30
0.0
 10
127.7204064280965
 20
128.1668840443274
 30
0.0
 10
127.774108989875
 20
128.1668840443274
 30
0.0
  0
LINE
  5
DE
330
1F
100
AcDbEntity
  8
0
  6
Continuous
 62
     7
370
    15
100
AcDbLine
 10
128.8141936873
 20
145.7394187396
 30
0.0
 11
128.8591355894
 21
144.4418842962
 31
0.0
  0
SPLINE
  5
DF
330
1F
100
AcDbEntity
  8
0
  6
Continuous
 62
     7
370
    15
100
AcDbSpline
210
0.0
220
0.0
230
1.0
 70
     8
 71
     3
 72
    13
 73
     9
 74
     0
 42
0.000000001
 43
0.00000001
 40
0.0
 40
0.0
 40
0.0
 40
0.0
 40
0.1618542298857686
 40
0.3254858841563705
 40
0.4910085196618037
 40
0.6585318472800669
 40
0.8281616954210487
 40
1.0
 40
1.0
 40
1.0
 40
1.0
 10
128.8591359101314
 20
144.4418840443275
 30
0.0
 10
128.799914079323
 20
144.4411251682238
 30
0.0
 10
128.6808200650631
 20
144.4395990823147
 30
0.0
 10
128.5012075891102
 20
144.4271051510721
 30
0.0
 10
128.320178548196
 20
144.4068728821986
 30
0.0
 10
128.1381725544062
 20
144.3777189369892
 30
0.0
 10
127.9553883104337
 20
144.3403582263276
 30
0.0
 10
127.8347392795623
 20
144.3081145155575
 30
0.0
 10
127.7740246133516
 20
144.2918883915459
 30
0.0
  0
SPLINE
  5
E0
330
1F
100
AcDbEntity
  8
0
  6
Continuous
 62
     7
370
    15
100
AcDbSpline
210
0.0
220
0.0
230
1.0
 70
    24
 71
     3
 72
     9
 73
     5
 74
     0
 42
0.000000001
 43
0.00000001
 40
0.0
 40
0.0
 40
0.0
 40
0.0
 40
0.4907532435227647
 40
0.9999999999999999
 40
0.9999999999999999
 40
0.9999999999999999
 40
0.9999999999999999
 10
127.774080610263
 20
144.2918840443274
 30
0.0
 10
127.7203223051674
 20
144.2918840443274
 30
0.0
 10
127.6107798705424
 20
144.2918840443274
 30
0.0
 10
127.5031321374658
 20
144.2918840443274
 30
0.0
 10
127.4483128785545
 20
144.2918840443274
 30
0.0
  0
SPLINE
  5
E1
330
1F
100
AcDbEntity
  8
0
  6
Continuous
 62
     7
370
    15
100
AcDbSpline
210
0.0
220
0.0
230
1.0
 70
     8
 71
     3
 72
    14
 73
    10
 74
     0
 42
0.000000001
 43
0.00000001
 40
0.0
 40
0.0
 40
0.0
 40
0.0
 40
0.0310294147488059
 40
0.0622870907567357
 40
0.1248019217230938
 40
0.2498303511435398
 40
0.4998901825558308
 40
0.7606872171869626
 40
1.0
 40
1.0
 40
1.0
 40
1.0
 10
126.6198367260216
 20
145.2059194928144
 30
0.0
 10
126.6281249633652
 20
145.1963451196742
 30
0.0
 10
126.6447624086993
 20
145.1771259415637
 30
0.0
 10
126.6780048978202
 20
145.1385139541518
 30
0.0
 10
126.7364930917683
 20
145.0709435228482
 30
0.0
 10
126.8540012299028
 20
144.9360252609541
 30
0.0
 10
127.0268899540421
 20
144.7409722494903
 30
0.0
 10
127.234490909391
 20
144.5125442359582
 30
0.0
 10
127.3782735070381
 20
144.362882315741
 30
0.0
 10
127.4470764226434
 20
144.2912660239605
 30
0.0
  0
LINE
  5
E2
330
1F
100
AcDbEntity
  8
0
  6
Continuous
 62
     7
370
    15
100
AcDbLine
 10
122.2113811288
 20
145.2088573074
 30
0.0
 11
122.0392689918
 21
144.4368411844
 31
0.0
  0
LINE
  5
E3
330
1F
100
AcDbEntity
  8
0
  6
Continuous
 62
     7
370
    15
100
AcDbLine
 10
127.4483104114
 20
144.2918836196
 30
0.0
 11
122.1240100328
 21
144.2918836196
 31
0.0
  0
SPLINE
  5
E4
330
1F
100
AcDbEntity
  8
0
  6
Continuous
 62
     7
370
    15
100
AcDbSpline
210
0.0
220
0.0
230
1.0
 70
     8
 71
     3
 72
     8
 73
     4
 74
     0
 42
0.000000001
 43
0.00000001
 40
0.0
 40
0.0
 40
0.0
 40
0.0
 40
1.0
 40
1.0
 40
1.0
 40
1.0
 10
122.124009189421
 20
144.2918840443272
 30
0.0
 10
122.09587886382
 20
144.3405260767225
 30
0.0
 10
122.0667234320678
 20
144.3885752733674
 30
0.0
 10
122.0365687775318
 20
144.4359889775445
 30
0.0
  0
LINE
  5
E5
330
1F
100
AcDbEntity
  8
0
  6
Continuous
 62
     7
370
    15
100
AcDbLine
 10
121.2001585279
 20
128.1468321627
 30
0.0
 11
121.2255724583
 21
127.2492737567
 31
0.0
  0
SPLINE
  5
E6
330
1F
100
AcDbEntity
  8
0
  6
Continuous
 62
     7
370
    15
100
AcDbSpline
210
0.0
220
0.0
230
1.0
 70
     8
 71
     3
 72
     8
 73
     4
 74
     0
 42
0.000000001
 43
0.00000001
 40
0.0
 40
0.0
 40
0.0
 40
0.0
 40
1.0
 40
1.0
 40
1.0
 40
1.0
 10
121.2001702921491
 20
128.1468327606667
 30
0.0
 10
121.2219731486312
 20
128.1525300916994
 30
0.0
 10
121.2437278580287
 20
128.1584116744943
 30
0.0
 10
121.2654313133467
 20
128.1644766690474
 30
0.0
  0
LINE
  5
E7
330
1F
100
AcDbEntity
  8
0
  6
Continuous
 62
     7
370
    15
100
AcDbLine
 10
121.2740086828
 20
128.166884469
 30
0.0
 11
127.4476827
 21
128.166884469
 31
0.0
  0
LINE
  5
E8
330
1F
100
AcDbEntity
  8
0
  6
Continuous
 62
     7
370
    15
100
AcDbLine
 10
130.7740093086
 20
144.4418842962
 30
0.0
 11
128.8591355894
 21
144.4418842962
 31
0.0
  0
LINE
  5
E9
330
1F
100
AcDbEntity
  8
0
  6
Continuous
 62
     7
370
    15
100
AcDbLine
 10
128.8591355894
 20
128.0168837925
 30
0.0
 11
130.7740093086
 21
128.0168837925
 31
0.0
  0
SPLINE
  5
EA
330
1F
100
AcDbEntity
  8
0
  6
Continuous
 62
     7
370
    15
100
AcDbSpline
210
0.0
220
0.0
230
1.0
 70
     8
 71
     3
 72
    26
 73
    22
 74
     0
 42
0.000000001
 43
0.00000001
 40
0.0
 40
0.0
 40
0.0
 40
0.0
 40
0.0509383868710681
 40
0.0998291548374484
 40
0.1466728126632442
 40
0.1914699456539526
 40
0.2342212299963317
 40
0.2749274506887306
 40
0.3135895241945819
 40
0.3502085273905902
 40
0.384785735024819
 40
0.4173226688625226
 40
0.4478211631676295
 40
0.476283453466084
 40
0.5027122992247393
 40
0.5939067005067384
 40
0.681601599325777
 40
0.7659159552126487
 40
0.8469836289730962
 40
0.9249552229482289
 40
1.0
 40
1.0
 40
1.0
 40
1.0
 10
122.0369604980119
 20
144.4353729312778
 30
0.0
 10
122.0007261772862
 20
144.4906144936126
 30
0.0
 10
121.9297140813729
 20
144.5988770205304
 30
0.0
 10
121.8155237972478
 20
144.7514930946946
 30
0.0
 10
121.6997862798887
 20
144.8929974538883
 30
0.0
 10
121.5828588194661
 20
145.023341107271
 30
0.0
 10
121.4658970660443
 20
145.1430575977777
 30
0.0
 10
121.3497549592839
 20
145.2525879168607
 30
0.0
 10
121.2352629500562
 20
145.3524366994825
 30
0.0
 10
121.1231618703762
 20
145.4431211606682
 30
0.0
 10
121.0141232596313
 20
145.5251730385435
 30
0.0
 10
120.9087496871826
 20
145.5991278084296
 30
0.0
 10
120.8075771635979
 20
145.665520040387
 30
0.0
 10
120.7110883952106
 20
145.724871504911
 30
0.0
 10
120.5426870002016
 20
145.8222121550063
 30
0.0
 10
120.2962563926969
 20
145.9460027908442
 30
0.0
 10
119.9641672317004
 20
146.0766840056936
 30
0.0
 10
119.6319653017342
 20
146.1749207882757
 30
0.0
 10
119.302921938932
 20
146.2418733652969
 30
0.0
 10
118.9799634638018
 20
146.2821082297697
 30
0.0
 10
118.7661929600737
 20
146.2869898974683
 30
0.0
 10
118.6613521532708
 20
146.2893840443274
 30
0.0
  0
SPLINE
  5
EB
330
1F
100
AcDbEntity
  8
0
  6
Continuous
 62
     7
370
    15
100
AcDbSpline
210
0.0
220
0.0
230
1.0
 70
     8
 71
     3
 72
    13
 73
     9
 74
     0
 42
0.000000001
 43
0.00000001
 40
0.0
 40
0.0
 40
0.0
 40
0.0
 40
0.1621004456877203
 40
0.32594345520649
 40
0.4915935308810087
 40
0.6591130874452793
 40
0.8285624736348074
 40
1.0
 40
1.0
 40
1.0
 40
1.0
 10
120.1888824687104
 20
128.0168840443275
 30
0.0
 10
120.2444374267864
 20
128.017553010529
 30
0.0
 10
120.356144553268
 20
128.0188981342527
 30
0.0
 10
120.5239922426805
 20
128.0298447030471
 30
0.0
 10
120.6927786615549
 20
128.0474836323707
 30
0.0
 10
120.8621030180802
 20
128.0727891463599
 30
0.0
 10
121.0318496662387
 20
128.1050931491512
 30
0.0
 10
121.1438425648799
 20
128.1328647490334
 30
0.0
 10
121.2001655998994
 20
128.1468315345322
 30
0.0
  0
LINE
  5
EC
330
1F
100
AcDbEntity
  8
0
  6
Continuous
 62
     7
370
    15
100
AcDbLine
 10
113.4103492711
 20
127.4893826862
 30
0.0
 11
114.3240102444
 21
128.0168837925
 31
0.0
  0
LINE
  5
ED
330
1F
100
AcDbEntity
  8
0
  6
Continuous
 62
     7
370
    15
100
AcDbLine
 10
114.3240102444
 20
128.0168837925
 30
0.0
 11
120.1888837729
 21
128.0168837925
 31
0.0
  0
SPLINE
  5
EE
330
1F
100
AcDbEntity
  8
0
  6
Continuous
 62
     7
370
    15
100
AcDbSpline
210
0.0
220
0.0
230
1.0
 70
     8
 71
     3
 72
     8
 73
     4
 74
     0
 42
0.000000001
 43
0.00000001
 40
0.0
 40
0.0
 40
0.0
 40
0.0
 40
1.0
 40
1.0
 40
1.0
 40
1.0
 10
114.3240091889699
 20
127.1070573329515
 30
0.0
 10
114.0194559152644
 20
127.2357481974983
 30
0.0
 10
113.7149026415589
 20
127.36319295376
 30
0.0
 10
113.4103493678534
 20
127.4893823003977
 30
0.0
  0
LINE
  5
EF
330
1F
100
AcDbEntity
  8
0
  6
Continuous
 62
     7
370
    15
100
AcDbLine
 10
112.8240109299
 20
114.026288787
 30
0.0
 11
112.8240109299
 21
127.1508590376
 31
0.0
  0
SPLINE
  5
F0
330
1F
100
AcDbEntity
  8
0
  6
Continuous
 62
     7
370
    15
100
AcDbSpline
210
0.0
220
0.0
230
1.0
 70
    24
 71
     3
 72
     8
 73
     4
 74
     0
 42
0.000000001
 43
0.00000001
 40
0.0
 40
0.0
 40
0.0
 40
0.0
 40
1.0
 40
1.0
 40
1.0
 40
1.0
 10
113.4103493678534
 20
127.4893823003977
 30
0.0
 10
113.214017342195
 20
127.3760299525333
 30
0.0
 10
113.0185563219548
 20
127.2631804798815
 30
0.0
 10
112.8240091894209
 20
127.150858640543
 30
0.0
  0
LINE
  5
F1
330
1F
100
AcDbEntity
  8
0
  6
Continuous
 62
     7
370
    15
100
AcDbLine
 10
239.9069697474
 20
115.2293843274
 30
0.0
 11
239.9069697474
 21
157.2293837612
 31
0.0
  0
ARC
  5
F2
330
1F
100
AcDbEntity
  8
0
  6
Continuous
 62
     7
370
    15
100
AcDbCircle
 10
230.7740064669
 20
175.7298632538
 30
0.0
 40
19.48803097692293
100
AcDbArc
 50
251.6817161598
 51
288.3179876307
  0
SPLINE
  5
F3
330
1F
100
AcDbEntity
  8
0
  6
Continuous
 62
     7
370
    15
100
AcDbSpline
210
0.0
220
0.0
230
1.0
 70
     8
 71
     3
 72
     8
 73
     4
 74
     0
 42
0.000000001
 43
0.00000001
 40
0.0
 40
0.0
 40
0.0
 40
0.0
 40
1.0
 40
1.0
 40
1.0
 40
1.0
 10
113.4638753585638
 20
146.7859825431016
 30
0.0
 10
113.7505866354361
 20
146.9013332255639
 30
0.0
 10
114.0372979123084
 20
147.01746124663
 30
0.0
 10
114.3240091891806
 20
147.1343621848451
 30
0.0
  0
LINE
  5
F4
330
1F
100
AcDbEntity
  8
0
  6
Continuous
 62
     7
370
    15
100
AcDbLine
 10
118.6613508378
 20
146.2893842777
 30
0.0
 11
114.3240102444
 21
146.2893842777
 31
0.0
  0
LINE
  5
F5
330
1F
100
AcDbEntity
  8
0
  6
Continuous
 62
     7
370
    15
100
AcDbLine
 10
114.3240102444
 20
146.2893842777
 30
0.0
 11
113.4638742421
 21
146.7859822383
 31
0.0
  0
LINE
  5
F6
330
1F
100
AcDbEntity
  8
0
  6
Continuous
 62
     7
370
    15
100
AcDbLine
 10
112.8240109299
 20
147.1554090326
 30
0.0
 11
112.8240109299
 21
158.4324793016
 31
0.0
  0
SPLINE
  5
F7
330
1F
100
AcDbEntity
  8
0
  6
Continuous
 62
     7
370
    15
100
AcDbSpline
210
0.0
220
0.0
230
1.0
 70
    24
 71
     3
 72
     8
 73
     4
 74
     0
 42
0.000000001
 43
0.00000001
 40
0.0
 40
0.0
 40
0.0
 40
0.0
 40
1.0
 40
1.0
 40
1.0
 40
1.0
 10
112.8240091894209
 20
147.1554094481119
 30
0.0
 10
113.0358950913955
 20
147.0330770655694
 30
0.0
 10
113.2492097997328
 20
146.9099197612887
 30
0.0
 10
113.4638753585717
 20
146.7859825431073
 30
0.0
  0
LINE
  5
F8
330
1F
100
AcDbEntity
  8
0
  6
Continuous
 62
     7
370
    15
100
AcDbLine
 10
113.5756739293
 20
127.5848330056
 30
0.0
 11
113.4392053698
 21
127.5060431158
 31
0.0
  0
LINE
  5
F9
330
1F
100
AcDbEntity
  8
0
  6
Continuous
 62
     7
370
    15
100
AcDbLine
 10
113.5004528676
 20
146.7648654302
 30
0.0
 11
113.5756739293
 21
146.7214350646
 31
0.0
  0
LINE
  5
FA
330
1F
100
AcDbEntity
  8
0
  6
Continuous
 62
     7
370
    15
100
AcDbLine
 10
252.7740106795
 20
122.5035249313
 30
0.0
 11
252.7740106795
 21
149.9552431574
 31
0.0
  0
LINE
  5
FB
330
1F
100
AcDbEntity
  8
0
  6
Continuous
 62
     7
370
    15
100
AcDbLine
 10
122.1239914064
 20
144.291913422
 30
0.0
 11
121.6438573663
 21
144.8926397657
 31
0.0
  0
LINE
  5
FC
330
1F
100
AcDbEntity
  8
0
  6
Continuous
 62
     7
370
    15
100
AcDbLine
 10
127.2824474488
 20
144.2918836196
 30
0.0
 11
127.1457386081
 21
144.2918836196
 31
0.0
  0
LINE
  5
FD
330
1F
100
AcDbEntity
  8
0
  6
Continuous
 62
     7
370
    15
100
AcDbLine
 10
127.1462303464
 20
128.166884469
 30
0.0
 11
127.2829019342
 21
128.166884469
 31
0.0
  0
LINE
  5
FE
330
1F
100
AcDbEntity
  8
0
  6
HIDDEN
 62
     7
370
     0
100
AcDbLine
 10
224.77400609
 20
142.7293841784
 30
0.0
 11
236.7740080569
 21
142.7293841784
 31
0.0
  0
LINE
  5
FF
330
1F
100
AcDbEntity
  8
0
  6
HIDDEN
 62
     7
370
     0
100
AcDbLine
 10
226.7740101431
 20
140.7293838506
 30
0.0
 11
234.7740114544
 21
140.7293838506
 31
0.0
  0
LINE
  5
100
330
1F
100
AcDbEntity
  8
0
  6
HIDDEN
 62
     7
370
     0
100
AcDbLine
 10
224.77400609
 20
156.3293834274
 30
0.0
 11
228.8492576097
 21
156.3293834274
 31
0.0
  0
LINE
  5
101
330
1F
100
AcDbEntity
  8
0
  6
HIDDEN
 62
     7
370
     0
100
AcDbLine
 10
232.6944873546
 20
156.3293834274
 30
0.0
 11
236.7740080569
 21
156.3293834274
 31
0.0
  0
LINE
  5
102
330
1F
100
AcDbEntity
  8
0
  6
HIDDEN
 62
     7
370
     0
100
AcDbLine
 10
227.7740121697
 20
149.2293843125
 30
0.0
 11
230.7740107987
 21
149.2293843125
 31
0.0
  0
LINE
  5
103
330
1F
100
AcDbEntity
  8
0
  6
HIDDEN
 62
     7
370
     0
100
AcDbLine
 10
233.7740094278
 20
149.2293843125
 30
0.0
 11
230.7740107987
 21
149.2293843125
 31
0.0
  0
LINE
  5
104
330
1F
100
AcDbEntity
  8
0
  6
HIDDEN
 62
     7
370
     0
100
AcDbLine
 10
230.7740107987
 20
149.2293843125
 30
0.0
 11
230.7740107987
 21
157.2293837612
 31
0.0
  0
LINE
  5
105
330
1F
100
AcDbEntity
  8
0
  6
HIDDEN
 62
     7
370
     0
100
AcDbLine
 10
227.7740121697
 20
149.2293843125
 30
0.0
 11
227.7740121697
 21
157.2293837612
 31
0.0
  0
LINE
  5
106
330
1F
100
AcDbEntity
  8
0
  6
HIDDEN
 62
     7
370
     0
100
AcDbLine
 10
233.7740094278
 20
149.2293843125
 30
0.0
 11
233.7740094278
 21
157.2293837612
 31
0.0
  0
SPLINE
  5
107
330
1F
100
AcDbEntity
  8
0
  6
HIDDEN
 62
     7
370
     0
100
AcDbSpline
210
0.0
220
0.0
230
1.0
 70
     8
 71
     3
 72
    25
 73
    21
 74
     0
 42
0.000000001
 43
0.00000001
 40
0.0
 40
0.0
 40
0.0
 40
0.0
 40
0.1249999999999998
 40
0.1249999999999998
 40
0.2499999999999997
 40
0.2499999999999997
 40
0.3749999999999995
 40
0.3749999999999995
 40
0.4999999999999993
 40
0.4999999999999993
 40
0.5624999999999996
 40
0.5624999999999996
 40
0.6249999999999998
 40
0.6875000000000001
 40
0.6875000000000001
 40
0.7500000000000003
 40
0.7500000000000003
 40
0.8750000000000001
 40
0.8750000000000001
 40
1.0
 40
1.0
 40
1.0
 40
1.0
 10
166.008206993991
 20
107.5816466772691
 30
0.0
 10
166.2494544995464
 20
107.6539512873383
 30
0.0
 10
166.4653835337908
 20
107.7378445732939
 30
0.0
 10
166.8485414456334
 20
107.930513296308
 30
0.0
 10
167.0159932311186
 20
108.0404001843239
 30
0.0
 10
167.2836778875225
 20
108.2769114684963
 30
0.0
 10
167.3873498552434
 20
108.4058745977869
 30
0.0
 10
167.5264812264975
 20
108.6798016777342
 30
0.0
 10
167.5612204664882
 20
108.8219148288677
 30
0.0
 10
167.5616508997074
 20
109.0431684548692
 30
0.0
 10
167.552916116118
 20
109.1187470352241
 30
0.0
 10
167.5181227129433
 20
109.2690467801002
 30
0.0
 10
167.4662298512142
 20
109.4190120831076
 30
0.0
 10
167.3808516389206
 20
109.5681133153275
 30
0.0
 10
167.278375885856
 20
109.7166004410883
 30
0.0
 10
167.2183145142048
 20
109.7906889985252
 30
0.0
 10
167.0170046917537
 20
110.0058513000035
 30
0.0
 10
166.8537811716739
 20
110.1419080138736
 30
0.0
 10
166.4684029714225
 20
110.3967660470258
 30
0.0
 10
166.2494534855967
 20
110.5130613274842
 30
0.0
 10
166.008206993991
 20
110.61449784416
 30
0.0
  0
SPLINE
  5
108
330
1F
100
AcDbEntity
  8
0
  6
HIDDEN
 62
     7
370
     0
100
AcDbSpline
210
0.0
220
0.0
230
1.0
 70
     8
 71
     3
 72
    34
 73
    30
 74
     0
 42
0.000000001
 43
0.00000001
 40
0.0
 40
0.0
 40
0.0
 40
0.0
 40
0.1249999999999991
 40
0.1249999999999991
 40
0.2499999999999983
 40
0.2499999999999983
 40
0.3124999999999984
 40
0.3124999999999984
 40
0.3749999999999986
 40
0.3749999999999986
 40
0.4374999999999988
 40
0.4374999999999988
 40
0.499999999999999
 40
0.499999999999999
 40
0.5624999999999992
 40
0.5624999999999992
 40
0.6249999999999994
 40
0.6249999999999994
 40
0.6874999999999997
 40
0.6874999999999997
 40
0.7499999999999999
 40
0.7499999999999999
 40
0.8125000000000002
 40
0.8125000000000002
 40
0.8750000000000001
 40
0.8750000000000001
 40
0.9375
 40
0.9375
 40
1.0
 40
1.0
 40
1.0
 40
1.0
 10
166.008206993991
 20
160.4154079746195
 30
0.0
 10
166.5726811122952
 20
160.5415411222459
 30
0.0
 10
167.1035519461776
 20
160.7133082948253
 30
0.0
 10
168.0894332549338
 20
161.1440796263212
 30
0.0
 10
168.521264806543
 20
161.3926585310703
 30
0.0
 10
169.073078321854
 20
161.8091752799108
 30
0.0
 10
169.2410509226009
 20
161.9562147325443
 30
0.0
 10
169.5297098513192
 20
162.2533522894474
 30
0.0
 10
169.6523016522776
 20
162.4046885648826
 30
0.0
 10
169.8526060508092
 20
162.7119910398445
 30
0.0
 10
169.9307607035178
 20
162.8696437247678
 30
0.0
 10
170.0345186090186
 20
163.1795899962959
 30
0.0
 10
170.0607193869528
 20
163.3316799881178
 30
0.0
 10
170.0622640229963
 20
163.6298899555555
 30
0.0
 10
170.0370146994899
 20
163.7773712153182
 30
0.0
 10
169.9354347523278
 20
164.0589809633525
 30
0.0
 10
169.8599395923119
 20
164.1925930090707
 30
0.0
 10
169.6616221817842
 20
164.446773587517
 30
0.0
 10
169.5373767090541
 20
164.5682998881143
 30
0.0
 10
169.2482953775836
 20
164.7932809987272
 30
0.0
 10
169.083977991995
 20
164.89692305374
 30
0.0
 10
168.7178030427174
 20
165.0888273043099
 30
0.0
 10
168.5141288260029
 20
165.1776658380682
 30
0.0
 10
168.0794412557959
 20
165.3375264900844
 30
0.0
 10
167.8485759647714
 20
165.4087988716309
 30
0.0
 10
167.3610186530189
 20
165.5363487660362
 30
0.0
 10
167.1028301315793
 20
165.5928745613855
 30
0.0
 10
166.5673279460532
 20
165.6907567801214
 30
0.0
 10
166.2916409418226
 20
165.731938146751
 30
0.0
 10
166.008206993991
 20
165.7661313772929
 30
0.0
  0
LINE
  5
109
330
1F
100
AcDbEntity
  8
0
  6
HIDDEN
 62
     7
370
     0
100
AcDbLine
 10
166.0082072828
 20
141.1190911253
 30
0.0
 11
166.0082072828
 21
131.3396769633
 31
0.0
  0
LINE
  5
10A
330
1F
100
AcDbEntity
  8
0
  6
HIDDEN
 62
     7
370
     0
100
AcDbLine
 10
159.3398114544
 20
139.5242822414
 30
0.0
 11
159.3398114544
 21
132.9344858473
 31
0.0
  0
SPLINE
  5
10B
330
1F
100
AcDbEntity
  8
0
  6
HIDDEN
 62
     7
370
     0
100
AcDbSpline
210
0.0
220
0.0
230
1.0
 70
     8
 71
     3
 72
    27
 73
    23
 74
     0
 42
0.000000001
 43
0.00000001
 40
0.0
 40
0.0
 40
0.0
 40
0.0
 40
0.1250000000000002
 40
0.1250000000000002
 40
0.2500000000000003
 40
0.2500000000000003
 40
0.3750000000000005
 40
0.3750000000000005
 40
0.4375000000000003
 40
0.4375000000000003
 40
0.5000000000000002
 40
0.5625000000000001
 40
0.5625000000000001
 40
0.6249999999999999
 40
0.6249999999999999
 40
0.7499999999999997
 40
0.7499999999999997
 40
0.8124999999999998
 40
0.8124999999999998
 40
0.8749999999999998
 40
0.8749999999999998
 40
1.0
 40
1.0
 40
1.0
 40
1.0
 10
159.3398113848508
 20
165.2533829588757
 30
0.0
 10
159.0698544908835
 20
165.1535038710134
 30
0.0
 10
158.8261974666663
 20
165.0421986108543
 30
0.0
 10
158.3936123344611
 20
164.7927128051783
 30
0.0
 10
158.2050177672649
 20
164.653770287111
 30
0.0
 10
157.9025779909041
 20
164.3570772519371
 30
0.0
 10
157.7859947436133
 20
164.1980586425729
 30
0.0
 10
157.6667360711885
 20
163.9410281186786
 30
0.0
 10
157.6365194041568
 20
163.8522753102735
 30
0.0
 10
157.5966228074442
 20
163.6729995533829
 30
0.0
 10
157.5766613639962
 20
163.4908309501404
 30
0.0
 10
157.5960966655841
 20
163.302868229052
 30
0.0
 10
157.6355495432674
 20
163.1119996520875
 30
0.0
 10
157.6655782266906
 20
163.014550471642
 30
0.0
 10
157.7840532148228
 20
162.7242136248447
 30
0.0
 10
157.9003940299316
 20
162.5321274171688
 30
0.0
 10
158.1284304414291
 20
162.2473234675874
 30
0.0
 10
158.2139643608597
 20
162.152452479024
 30
0.0
 10
158.4002779109953
 20
161.9670914111684
 30
0.0
 10
158.5009065995677
 20
161.876613159236
 30
0.0
 10
158.8241680839035
 20
161.6119327037241
 30
0.0
 10
159.0684487696264
 20
161.4441491142697
 30
0.0
 10
159.3398113848508
 20
161.2871093659618
 30
0.0
  0
SPLINE
  5
10C
330
1F
100
AcDbEntity
  8
0
  6
HIDDEN
 62
     7
370
     0
100
AcDbSpline
210
0.0
220
0.0
230
1.0
 70
     8
 71
     3
 72
    26
 73
    22
 74
     0
 42
0.000000001
 43
0.00000001
 40
0.0
 40
0.0
 40
0.0
 40
0.0
 40
0.1250000000000009
 40
0.1250000000000009
 40
0.2500000000000019
 40
0.2500000000000019
 40
0.3125000000000011
 40
0.3125000000000011
 40
0.3750000000000004
 40
0.3750000000000004
 40
0.4375000000000002
 40
0.4375000000000002
 40
0.5000000000000001
 40
0.5000000000000001
 40
0.5625
 40
0.5625
 40
0.6249999999999999
 40
0.6249999999999999
 40
0.7500000000000001
 40
0.7500000000000001
 40
1.0
 40
1.0
 40
1.0
 40
1.0
 10
160.799009189421
 20
112.329738534294
 30
0.0
 10
160.7071042787381
 20
112.1198149275996
 30
0.0
 10
160.6194075025131
 20
111.9110495107202
 30
0.0
 10
160.4552012317458
 20
111.4967148820269
 30
0.0
 10
160.3779308134791
 20
111.2889704963904
 30
0.0
 10
160.278164707154
 20
110.9917718765736
 30
0.0
 10
160.2475517782517
 20
110.8950225246351
 30
0.0
 10
160.1926829043487
 20
110.7071230245252
 30
0.0
 10
160.1682976834198
 20
110.6153208767952
 30
0.0
 10
160.1286183069213
 20
110.4439784485297
 30
0.0
 10
160.113152227684
 20
110.363985913997
 30
0.0
 10
160.0920558926016
 20
110.2167915047852
 30
0.0
 10
160.0865428264415
 20
110.1494096372121
 30
0.0
 10
160.0864758688192
 20
110.0342406868121
 30
0.0
 10
160.0917441761687
 20
109.9855748441029
 30
0.0
 10
160.1125867033367
 20
109.905571650652
 30
0.0
 10
160.128260816547
 20
109.8745074072841
 30
0.0
 10
160.1875797467245
 20
109.8083527421808
 30
0.0
 10
160.2445995822385
 20
109.7987508749423
 30
0.0
 10
160.4434344708824
 20
109.8437661450493
 30
0.0
 10
160.6147046761145
 20
109.9676922202989
 30
0.0
 10
160.7990091894209
 20
110.1346801637715
 30
0.0
  0
SPLINE
  5
10D
330
1F
100
AcDbEntity
  8
0
  6
HIDDEN
 62
     7
370
     0
100
AcDbSpline
210
0.0
220
0.0
230
1.0
 70
     8
 71
     3
 72
     8
 73
     4
 74
     0
 42
0.000000001
 43
0.00000001
 40
0.0
 40
0.0
 40
0.0
 40
0.0
 40
1.0
 40
1.0
 40
1.0
 40
1.0
 10
160.4314855232728
 20
160.4859170068429
 30
0.0
 10
160.5492200281024
 20
160.218273327227
 30
0.0
 10
160.6726861410607
 20
159.9493080248947
 30
0.0
 10
160.7990091894209
 20
159.6829409003843
 30
0.0
  0
SPLINE
  5
10E
330
1F
100
AcDbEntity
  8
0
  6
HIDDEN
 62
     7
370
     0
100
AcDbSpline
210
0.0
220
0.0
230
1.0
 70
     8
 71
     3
 72
     8
 73
     4
 74
     0
 42
0.000000001
 43
0.00000001
 40
0.0
 40
0.0
 40
0.0
 40
0.0
 40
1.0
 40
1.0
 40
1.0
 40
1.0
 10
159.3398113848508
 20
161.2871093659618
 30
0.0
 10
159.7096987655804
 20
161.0127175470298
 30
0.0
 10
160.0750322583418
 20
160.7422912389333
 30
0.0
 10
160.4314855232728
 20
160.4859170068429
 30
0.0
  0
SPLINE
  5
10F
330
1F
100
AcDbEntity
  8
0
  6
HIDDEN
 62
     7
370
     0
100
AcDbSpline
210
0.0
220
0.0
230
1.0
 70
     8
 71
     3
 72
     8
 73
     4
 74
     0
 42
0.000000001
 43
0.00000001
 40
0.0
 40
0.0
 40
0.0
 40
0.0
 40
1.0
 40
1.0
 40
1.0
 40
1.0
 10
160.4314855232728
 20
163.025048634905
 30
0.0
 10
160.0750322583418
 20
163.7692126080895
 30
0.0
 10
159.7096987655804
 20
164.5119518339791
 30
0.0
 10
159.3398113848508
 20
165.2533829588757
 30
0.0
  0
SPLINE
  5
110
330
1F
100
AcDbEntity
  8
0
  6
HIDDEN
 62
     7
370
     0
100
AcDbSpline
210
0.0
220
0.0
230
1.0
 70
     8
 71
     3
 72
     8
 73
     4
 74
     0
 42
0.000000001
 43
0.00000001
 40
0.0
 40
0.0
 40
0.0
 40
0.0
 40
1.0
 40
1.0
 40
1.0
 40
1.0
 10
160.799009189421
 20
162.6503945647236
 30
0.0
 10
160.6722491763918
 20
162.7884648748706
 30
0.0
 10
160.5493967626601
 20
162.9145439257042
 30
0.0
 10
160.4314855232728
 20
163.025048634905
 30
0.0
  0
SPLINE
  5
111
330
1F
100
AcDbEntity
  8
0
  6
HIDDEN
 62
     7
370
     0
100
AcDbSpline
210
0.0
220
0.0
230
1.0
 70
     8
 71
     3
 72
     8
 73
     4
 74
     0
 42
0.000000001
 43
0.00000001
 40
0.0
 40
0.0
 40
0.0
 40
0.0
 40
1.0
 40
1.0
 40
1.0
 40
1.0
 10
165.0147203144735
 20
163.788867515581
 30
0.0
 10
164.8606378472494
 20
163.5727206141831
 30
0.0
 10
164.705411225405
 20
163.3510679048638
 30
0.0
 10
164.5490091894209
 20
163.1241376600254
 30
0.0
  0
SPLINE
  5
112
330
1F
100
AcDbEntity
  8
0
  6
HIDDEN
 62
     7
370
     0
100
AcDbSpline
210
0.0
220
0.0
230
1.0
 70
     8
 71
     3
 72
     8
 73
     4
 74
     0
 42
0.000000001
 43
0.00000001
 40
0.0
 40
0.0
 40
0.0
 40
0.0
 40
1.0
 40
1.0
 40
1.0
 40
1.0
 10
166.008206993991
 20
165.7661313772929
 30
0.0
 10
165.6727963685672
 20
165.1078643249836
 30
0.0
 10
165.3409540494573
 20
164.4488078870022
 30
0.0
 10
165.0147203144735
 20
163.788867515581
 30
0.0
  0
SPLINE
  5
113
330
1F
100
AcDbEntity
  8
0
  6
HIDDEN
 62
     7
370
     0
100
AcDbSpline
210
0.0
220
0.0
230
1.0
 70
     8
 71
     3
 72
    10
 73
     6
 74
     0
 42
0.000000001
 43
0.00000001
 40
0.0
 40
0.0
 40
0.0
 40
0.0
 40
0.5
 40
0.5
 40
1.0
 40
1.0
 40
1.0
 40
1.0
 10
164.5490091894209
 20
109.5286815647126
 30
0.0
 10
164.8002020792924
 20
109.1681753419466
 30
0.0
 10
165.0474713909942
 20
108.8240844620373
 30
0.0
 10
165.534092742305
 20
108.1726230469815
 30
0.0
 10
165.7734760500218
 20
107.8650376071772
 30
0.0
 10
166.0082069939909
 20
107.5816466772692
 30
0.0
  0
SPLINE
  5
114
330
1F
100
AcDbEntity
  8
0
  6
HIDDEN
 62
     7
370
     0
100
AcDbSpline
210
0.0
220
0.0
230
1.0
 70
     8
 71
     3
 72
    16
 73
    12
 74
     0
 42
0.000000001
 43
0.00000001
 40
0.0
 40
0.0
 40
0.0
 40
0.0
 40
0.2499999999999992
 40
0.2499999999999992
 40
0.4999999999999984
 40
0.4999999999999984
 40
0.7499999999999977
 40
0.7499999999999977
 40
0.8749999999999988
 40
0.8749999999999988
 40
1.0
 40
1.0
 40
1.0
 40
1.0
 10
161.7990091894209
 20
161.992958326316
 30
0.0
 10
161.6652320206755
 20
161.9650701981363
 30
0.0
 10
161.5416535308373
 20
161.9579600848809
 30
0.0
 10
161.3105935835472
 20
161.9770417653086
 30
0.0
 10
161.206276260506
 20
162.0033831652666
 30
0.0
 10
161.0244490573364
 20
162.091594383647
 30
0.0
 10
160.9476842909402
 20
162.1525833306353
 30
0.0
 10
160.8621786488103
 20
162.281012082698
 30
0.0
 10
160.8394279989101
 20
162.3291493363346
 30
0.0
 10
160.8076977246842
 20
162.4385142612471
 30
0.0
 10
160.7990091894209
 20
162.4999481137948
 30
0.0
 10
160.7990091894209
 20
162.5654254379721
 30
0.0
  0
SPLINE
  5
115
330
1F
100
AcDbEntity
  8
0
  6
HIDDEN
 62
     7
370
     0
100
AcDbSpline
210
0.0
220
0.0
230
1.0
 70
     8
 71
     3
 72
    16
 73
    12
 74
     0
 42
0.000000001
 43
0.00000001
 40
0.0
 40
0.0
 40
0.0
 40
0.0
 40
0.1250000000000001
 40
0.1250000000000001
 40
0.2500000000000003
 40
0.2500000000000003
 40
0.5000000000000002
 40
0.5000000000000002
 40
0.7500000000000001
 40
0.7500000000000001
 40
1.0
 40
1.0
 40
1.0
 40
1.0
 10
160.7990091894209
 20
110.2194450185371
 30
0.0
 10
160.7990091894209
 20
110.2887773671822
 30
0.0
 10
160.8087817530605
 20
110.3507739041848
 30
0.0
 10
160.8429777984609
 20
110.4564557821753
 30
0.0
 10
160.8671629901718
 20
110.5005782170941
 30
0.0
 10
160.9548796542681
 20
110.6129848433349
 30
0.0
 10
161.0315898201175
 20
110.6609873494931
 30
0.0
 10
161.2106719203585
 20
110.7258131122058
 30
0.0
 10
161.3115546899783
 20
110.7417163836679
 30
0.0
 10
161.5403661882413
 20
110.7432211240386
 30
0.0
 10
161.6646637966763
 20
110.7285959472629
 30
0.0
 10
161.7990091894209
 20
110.6938090364243
 30
0.0
  0
SPLINE
  5
116
330
1F
100
AcDbEntity
  8
0
  6
HIDDEN
 62
     7
370
     0
100
AcDbSpline
210
0.0
220
0.0
230
1.0
 70
     8
 71
     3
 72
    14
 73
    10
 74
     0
 42
0.000000001
 43
0.00000001
 40
0.0
 40
0.0
 40
0.0
 40
0.0
 40
0.25
 40
0.25
 40
0.5
 40
0.5
 40
0.75
 40
0.75
 40
1.0
 40
1.0
 40
1.0
 40
1.0
 10
163.5490091894209
 20
110.4638812211638
 30
0.0
 10
163.6822386404442
 20
110.4601161251264
 30
0.0
 10
163.8139400030544
 20
110.4358541082888
 30
0.0
 10
164.0570176612715
 20
110.3496227576452
 30
0.0
 10
164.1679236018201
 20
110.2874665974734
 30
0.0
 10
164.3506206748978
 20
110.1346603704858
 30
0.0
 10
164.4240082043794
 20
110.0426746624277
 30
0.0
 10
164.5228424832977
 20
109.8402053253489
 30
0.0
 10
164.5490091894209
 20
109.7284440969908
 30
0.0
 10
164.5490091894209
 20
109.6138901294648
 30
0.0
  0
SPLINE
  5
117
330
1F
100
AcDbEntity
  8
0
  6
HIDDEN
 62
     7
370
     0
100
AcDbSpline
210
0.0
220
0.0
230
1.0
 70
     8
 71
     3
 72
    14
 73
    10
 74
     0
 42
0.000000001
 43
0.00000001
 40
0.0
 40
0.0
 40
0.0
 40
0.0
 40
0.25
 40
0.25
 40
0.5
 40
0.5
 40
0.75
 40
0.75
 40
1.0
 40
1.0
 40
1.0
 40
1.0
 10
164.5490091894209
 20
163.0387215907279
 30
0.0
 10
164.5490091894209
 20
162.9245956865306
 30
0.0
 10
164.5229690326639
 20
162.8118882729468
 30
0.0
 10
164.4241778494626
 20
162.6076925091313
 30
0.0
 10
164.3514702020456
 20
162.5152883179293
 30
0.0
 10
164.167698424179
 20
162.3597355896243
 30
0.0
 10
164.0586283934868
 20
162.2977261229917
 30
0.0
 10
163.8130040450281
 20
162.2098360142665
 30
0.0
 10
163.6824489194407
 20
162.1860277618445
 30
0.0
 10
163.5490091894209
 20
162.1828431962134
 30
0.0
  0
SPLINE
  5
118
330
1F
100
AcDbEntity
  8
0
  6
HIDDEN
 62
     7
370
     0
100
AcDbSpline
210
0.0
220
0.0
230
1.0
 70
     8
 71
     3
 72
    10
 73
     6
 74
     0
 42
0.000000001
 43
0.00000001
 40
0.0
 40
0.0
 40
0.0
 40
0.0
 40
0.5
 40
0.5
 40
1.0
 40
1.0
 40
1.0
 40
1.0
 10
163.5490091894209
 20
162.1828431962134
 30
0.0
 10
163.2410293307931
 20
162.1754931957847
 30
0.0
 10
162.9410093206696
 20
162.156110359022
 30
0.0
 10
162.3561979766752
 20
162.0932969035911
 30
0.0
 10
162.0695461703274
 20
162.0493563654702
 30
0.0
 10
161.7990091894209
 20
161.992958326316
 30
0.0
  0
SPLINE
  5
119
330
1F
100
AcDbEntity
  8
0
  6
HIDDEN
 62
     7
370
     0
100
AcDbSpline
210
0.0
220
0.0
230
1.0
 70
     8
 71
     3
 72
    10
 73
     6
 74
     0
 42
0.000000001
 43
0.00000001
 40
0.0
 40
0.0
 40
0.0
 40
0.0
 40
0.5
 40
0.5
 40
1.0
 40
1.0
 40
1.0
 40
1.0
 10
161.7990091894209
 20
110.6938090364243
 30
0.0
 10
162.0618287037766
 20
110.6257555004916
 30
0.0
 10
162.3401815683843
 20
110.5734418834398
 30
0.0
 10
162.9271781557697
 20
110.4967384318564
 30
0.0
 10
163.2365618456481
 20
110.4727110575619
 30
0.0
 10
163.5490091894209
 20
110.4638812211638
 30
0.0
  0
SPLINE
  5
11A
330
1F
100
AcDbEntity
  8
0
  6
HIDDEN
 62
     7
370
     0
100
AcDbSpline
210
0.0
220
0.0
230
1.0
 70
     8
 71
     3
 72
     8
 73
     4
 74
     0
 42
0.000000001
 43
0.00000001
 40
0.0
 40
0.0
 40
0.0
 40
0.0
 40
1.0
 40
1.0
 40
1.0
 40
1.0
 10
126.6189649120764
 20
145.2057847550076
 30
0.0
 10
125.148790251295
 20
145.2072453754427
 30
0.0
 10
123.6786155905136
 20
145.2084064271016
 30
0.0
 10
122.2084409297321
 20
145.2092683570012
 30
0.0
  0
SPLINE
  5
11B
330
1F
100
AcDbEntity
  8
0
  6
HIDDEN
 62
     7
370
     0
100
AcDbSpline
210
0.0
220
0.0
230
1.0
 70
     8
 71
     3
 72
     8
 73
     4
 74
     0
 42
0.000000001
 43
0.00000001
 40
0.0
 40
0.0
 40
0.0
 40
0.0
 40
1.0
 40
1.0
 40
1.0
 40
1.0
 10
121.2256878072133
 20
127.249274117592
 30
0.0
 10
123.0230244925895
 20
127.2502482240159
 30
0.0
 10
124.8203611779657
 20
127.2516703597656
 30
0.0
 10
126.6176978633419
 20
127.2535413462343
 30
0.0
  0
LINE
  5
11C
330
1F
100
AcDbEntity
  8
0
  6
HIDDEN
 62
     7
370
     0
100
AcDbLine
 10
124.7149941389
 20
113.3714032417
 30
0.0
 11
124.2449388717
 21
113.2621404772
 31
0.0
  0
SPLINE
  5
11D
330
1F
100
AcDbEntity
  8
0
  6
HIDDEN
 62
     7
370
     0
100
AcDbSpline
210
0.0
220
0.0
230
1.0
 70
     8
 71
     3
 72
    11
 73
     7
 74
     0
 42
0.000000001
 43
0.00000001
 40
0.0
 40
0.0
 40
0.0
 40
0.0
 40
0.2714324099521598
 40
0.6315874069202267
 40
0.9886579094836873
 40
1.0
 40
1.0
 40
1.0
 40
1.0
 10
123.5747200314343
 20
113.0990901087901
 30
0.0
 10
123.3722891055749
 20
113.044509091692
 30
0.0
 10
122.9012590485284
 20
112.9175062659715
 30
0.0
 10
122.5154773834912
 20
112.799874256258
 30
0.0
 10
122.3257748805118
 20
112.7412244818315
 30
0.0
 10
122.3773440207429
 20
112.7569773870259
 30
0.0
 10
122.3789316479504
 20
112.7574623619697
 30
0.0
  0
LINE
  5
11E
330
1F
100
AcDbEntity
  8
0
  6
HIDDEN
 62
     7
370
     0
100
AcDbLine
 10
124.2807798896
 20
159.188472951
 30
0.0
 11
124.7146160219
 21
159.0875268971
 31
0.0
  0
LINE
  5
11F
330
1F
100
AcDbEntity
  8
0
  6
HIDDEN
 62
     7
370
     0
100
AcDbLine
 10
146.7740091373
 20
118.7793848162
 30
0.0
 11
146.7740091373
 21
153.6793832724
 31
0.0
  0
LINE
  5
120
330
1F
100
AcDbEntity
  8
0
  6
HIDDEN
 62
     7
370
     0
100
AcDbLine
 10
143.2740094949
 20
118.5918835049
 30
0.0
 11
143.2740094949
 21
153.8668845837
 31
0.0
  0
LINE
  5
121
330
1F
100
AcDbEntity
  8
0
  6
HIDDEN
 62
     7
370
     0
100
AcDbLine
 10
113.5756739293
 20
117.2938079631
 30
0.0
 11
113.5756739293
 21
127.5848330056
 31
0.0
  0
LINE
  5
122
330
1F
100
AcDbEntity
  8
0
  6
HIDDEN
 62
     7
370
     0
100
AcDbLine
 10
135.4240097914
 20
140.2921572385
 30
0.0
 11
134.7740099643
 21
140.4418841062
 31
0.0
  0
LINE
  5
123
330
1F
100
AcDbEntity
  8
0
  6
HIDDEN
 62
     7
370
     0
100
AcDbLine
 10
135.4240097914
 20
132.1666108502
 30
0.0
 11
134.7740099643
 21
132.0168839825
 31
0.0
  0
LINE
  5
124
330
1F
100
AcDbEntity
  8
0
  6
HIDDEN
 62
     7
370
     0
100
AcDbLine
 10
115.8698120032
 20
146.6121639182
 30
0.0
 11
118.6613508378
 21
146.6121639182
 31
0.0
  0
LINE
  5
125
330
1F
100
AcDbEntity
  8
0
  6
HIDDEN
 62
     7
370
     0
100
AcDbLine
 10
115.824009559
 20
146.6756167879
 30
0.0
 11
115.824009559
 21
153.8668845837
 31
0.0
  0
SPLINE
  5
126
330
1F
100
AcDbEntity
  8
0
  6
HIDDEN
 62
     7
370
     0
100
AcDbSpline
210
0.0
220
0.0
230
1.0
 70
     8
 71
     3
 72
     8
 73
     4
 74
     0
 42
0.000000001
 43
0.00000001
 40
0.0
 40
0.0
 40
0.0
 40
0.0
 40
1.0
 40
1.0
 40
1.0
 40
1.0
 10
115.8700405858273
 20
146.6118471783927
 30
0.0
 10
115.8546958454418
 20
146.6331385317378
 30
0.0
 10
115.8393511050564
 20
146.6543951561262
 30
0.0
 10
115.8240063646709
 20
146.6756168382511
 30
0.0
  0
LINE
  5
127
330
1F
100
AcDbEntity
  8
0
  6
HIDDEN
 62
     7
370
     0
100
AcDbLine
 10
118.6613508378
 20
146.6118472686
 30
0.0
 11
115.8700392459
 21
146.6118472686
 31
0.0
  0
SPLINE
  5
128
330
1F
100
AcDbEntity
  8
0
  6
HIDDEN
 62
     7
370
     0
100
AcDbSpline
210
0.0
220
0.0
230
1.0
 70
     8
 71
     3
 72
    23
 73
    19
 74
     0
 42
0.000000001
 43
0.00000001
 40
0.0
 40
0.0
 40
0.0
 40
0.0
 40
0.0511129009857237
 40
0.1016896331838987
 40
0.1518293139104701
 40
0.2016336701894375
 40
0.2512064936754073
 40
0.3006530343006341
 40
0.3500793489716446
 40
0.3995916247932064
 40
0.4492954981442684
 40
0.4992953912354717
 40
0.5872572780521592
 40
0.6724255494349295
 40
0.7555067762540847
 40
0.83726167352717
 40
0.9184882400167593
 40
1.0
 40
1.0
 40
1.0
 40
1.0
 10
122.4328585537235
 20
144.6758661294831
 30
0.0
 10
122.391054136941
 20
144.734123333945
 30
0.0
 10
122.3078838271739
 20
144.8500266311126
 30
0.0
 10
122.1729409527845
 20
145.0155423015491
 30
0.0
 10
122.0314426744978
 20
145.1737200185176
 30
0.0
 10
121.8826250213078
 20
145.3241539943859
 30
0.0
 10
121.7266912923541
 20
145.4670801044772
 30
0.0
 10
121.5635895619866
 20
145.6025629128539
 30
0.0
 10
121.3933351483813
 20
145.7307099363439
 30
0.0
 10
121.2159305028268
 20
145.8516171344863
 30
0.0
 10
121.0313650298557
 20
145.9653721443429
 30
0.0
 10
120.7917297481825
 20
146.0988010904639
 30
0.0
 10
120.4950931005254
 20
146.2414416581928
 30
0.0
 10
120.1382127920946
 20
146.378602163111
 30
0.0
 10
119.7761558433129
 20
146.4846348191952
 30
0.0
 10
119.4089804172693
 20
146.5591801314504
 30
0.0
 10
119.0367634681647
 20
146.6052549306104
 30
0.0
 10
118.7866322138323
 20
146.6103243811408
 30
0.0
 10
118.6613474133226
 20
146.6128635484276
 30
0.0
  0
LINE
  5
129
330
1F
100
AcDbEntity
  8
0
  6
HIDDEN
 62
     7
370
     0
100
AcDbLine
 10
127.8592490469
 20
144.674522156
 30
0.0
 11
122.4328589503
 21
144.674522156
 31
0.0
  0
SPLINE
  5
12A
330
1F
100
AcDbEntity
  8
0
  6
HIDDEN
 62
     7
370
     0
100
AcDbSpline
210
0.0
220
0.0
230
1.0
 70
     8
 71
     3
 72
    12
 73
     8
 74
     0
 42
0.000000001
 43
0.00000001
 40
0.0
 40
0.0
 40
0.0
 40
0.0
 40
0.2015596330131396
 40
0.401885501786122
 40
0.6014292028569511
 40
0.8006476517351764
 40
1.0
 40
1.0
 40
1.0
 40
1.0
 10
128.8591359101314
 20
144.7768806266924
 30
0.0
 10
128.7917224573611
 20
144.7762470205986
 30
0.0
 10
128.6573081954935
 20
144.7749836867697
 30
0.0
 10
128.4565542564345
 20
144.7626323056792
 30
0.0
 10
128.2575013466416
 20
144.7424043578826
 30
0.0
 10
128.0599469094637
 20
144.714291470689
 30
0.0
 10
127.9298948950633
 20
144.6885702309002
 30
0.0
 10
127.8648470424531
 20
144.6757052904958
 30
0.0
  0
LINE
  5
12B
330
1F
100
AcDbEntity
  8
0
  6
HIDDEN
 62
     7
370
     0
100
AcDbLine
 10
130.7740093086
 20
144.7768810262
 30
0.0
 11
128.8591355894
 21
144.7768810262
 31
0.0
  0
LINE
  5
12C
330
1F
100
AcDbEntity
  8
0
  6
HIDDEN
 62
     7
370
     0
100
AcDbLine
 10
128.8591355894
 20
127.6818870624
 30
0.0
 11
130.7740093086
 21
127.6818870624
 31
0.0
  0
SPLINE
  5
12D
330
1F
100
AcDbEntity
  8
0
  6
HIDDEN
 62
     7
370
     0
100
AcDbSpline
210
0.0
220
0.0
230
1.0
 70
     8
 71
     3
 72
    12
 73
     8
 74
     0
 42
0.000000001
 43
0.00000001
 40
0.0
 40
0.0
 40
0.0
 40
0.0
 40
0.1992838848988201
 40
0.3984605265816151
 40
0.5979968004991016
 40
0.7983570684846223
 40
1.0
 40
1.0
 40
1.0
 40
1.0
 10
127.8581020678015
 20
127.784081774686
 30
0.0
 10
127.9235553451017
 20
127.7710594219214
 30
0.0
 10
128.0544266764832
 20
127.7450217242792
 30
0.0
 10
128.2532761281058
 20
127.7165911653051
 30
0.0
 10
128.453682643975
 20
127.6961600043236
 30
0.0
 10
128.6558535613898
 20
127.683720927253
 30
0.0
 10
128.791231145039
 20
127.6824999156783
 30
0.0
 10
128.8591359101314
 20
127.6818874619624
 30
0.0
  0
LINE
  5
12E
330
1F
100
AcDbEntity
  8
0
  6
HIDDEN
 62
     7
370
     0
100
AcDbLine
 10
121.4111775969
 20
127.7842459326
 30
0.0
 11
127.8573286597
 21
127.7842459326
 31
0.0
  0
SPLINE
  5
12F
330
1F
100
AcDbEntity
  8
0
  6
HIDDEN
 62
     7
370
     0
100
AcDbSpline
210
0.0
220
0.0
230
1.0
 70
     8
 71
     3
 72
    13
 73
     9
 74
     0
 42
0.000000001
 43
0.00000001
 40
0.0
 40
0.0
 40
0.0
 40
0.0
 40
0.1669629733016842
 40
0.333268261715708
 40
0.4993197351340666
 40
0.6655231134850657
 40
0.8322830075705294
 40
1.0
 40
1.0
 40
1.0
 40
1.0
 10
120.1888824687104
 20
127.6234810814296
 30
0.0
 10
120.2579224058316
 20
127.6244174245231
 30
0.0
 10
120.3957303244279
 20
127.6262864223553
 30
0.0
 10
120.601683944546
 20
127.6402982046369
 30
0.0
 10
120.8063254088059
 20
127.6624933930286
 30
0.0
 10
121.0095798631981
 20
127.6938906012767
 30
0.0
 10
121.2117068355395
 20
127.7335419546174
 30
0.0
 10
121.3445612858002
 20
127.7673334795233
 30
0.0
 10
121.411178590992
 20
127.7842775888335
 30
0.0
  0
LINE
  5
130
330
1F
100
AcDbEntity
  8
0
  6
HIDDEN
 62
     7
370
     0
100
AcDbLine
 10
115.824009559
 20
127.6234810298
 30
0.0
 11
120.1888837729
 21
127.6234810298
 31
0.0
  0
LINE
  5
131
330
1F
100
AcDbEntity
  8
0
  6
HIDDEN
 62
     7
370
     0
100
AcDbLine
 10
115.824009559
 20
118.5918835049
 30
0.0
 11
115.824009559
 21
127.6234810298
 31
0.0
  0
LINE
  5
132
330
1F
100
AcDbEntity
  8
0
  6
HIDDEN
 62
     7
370
     0
100
AcDbLine
 10
127.2416387562
 20
152.4020520096
 30
0.0
 11
125.5942464684
 21
152.4624948447
 31
0.0
  0
SPLINE
  5
133
330
1F
100
AcDbEntity
  8
0
  6
HIDDEN
 62
     7
370
     0
100
AcDbSpline
210
0.0
220
0.0
230
1.0
 70
     8
 71
     3
 72
    18
 73
    14
 74
     0
 42
0.000000001
 43
0.00000001
 40
0.0
 40
0.0
 40
0.0
 40
0.0
 40
0.0655027064047215
 40
0.1660182943543524
 40
0.2639027086095322
 40
0.3646727655861262
 40
0.4616940673116442
 40
0.5615652378376927
 40
0.6581233864011348
 40
0.7572384556078554
 40
0.8589229888985123
 40
0.9628259266644453
 40
1.0
 40
1.0
 40
1.0
 40
1.0
 10
119.713238707596
 20
153.8587522750279
 30
0.0
 10
119.7132246416275
 20
153.8587444475516
 30
0.0
 10
119.7131889910685
 20
153.8587246086115
 30
0.0
 10
119.9170015675923
 20
153.7730573770067
 30
0.0
 10
120.2995271388355
 20
153.6204914819652
 30
0.0
 10
120.8545253127623
 20
153.4166932571423
 30
0.0
 10
121.5708876671675
 20
153.1843418412774
 30
0.0
 10
122.4179277465005
 20
152.9519859149018
 30
0.0
 10
123.3871974646407
 20
152.740119048046
 30
0.0
 10
124.4504960450349
 20
152.5686896952145
 30
0.0
 10
125.6000471330857
 20
152.4512134957689
 30
0.0
 10
126.5411151737917
 20
152.4066399582328
 30
0.0
 10
127.0896382217493
 20
152.4030147181748
 30
0.0
 10
127.2341751370966
 20
152.402059460201
 30
0.0
  0
SPLINE
  5
134
330
1F
100
AcDbEntity
  8
0
  6
HIDDEN
 62
     7
370
     0
100
AcDbSpline
210
0.0
220
0.0
230
1.0
 70
     8
 71
     3
 72
    19
 73
    15
 74
     0
 42
0.000000001
 43
0.00000001
 40
0.0
 40
0.0
 40
0.0
 40
0.0
 40
0.0065696153931978
 40
0.1078719389425235
 40
0.206737723502515
 40
0.3057106455619902
 40
0.4073394882209083
 40
0.5070960092063284
 40
0.6067607685863162
 40
0.7054590988465905
 40
0.8040494308260876
 40
0.9028740897733368
 40
0.9997762822843956
 40
1.0
 40
1.0
 40
1.0
 40
1.0
 10
127.2430618171036
 20
152.4036352579973
 30
0.0
 10
127.2740975735517
 20
152.3979995128281
 30
0.0
 10
127.7836992814496
 20
152.305461560087
 30
0.0
 10
128.8098411756729
 20
152.1608377412029
 30
0.0
 10
130.3645092782703
 20
152.0864163078878
 30
0.0
 10
131.9220777199618
 20
152.1598631491269
 30
0.0
 10
133.4107212569809
 20
152.369395711015
 30
0.0
 10
134.7830607768527
 20
152.6665186599247
 30
0.0
 10
135.9698310521783
 20
153.0104230399493
 30
0.0
 10
136.9456789490953
 20
153.3469042879412
 30
0.0
 10
137.6838130965356
 20
153.6356696071126
 30
0.0
 10
138.119535946426
 20
153.8121911006961
 30
0.0
 10
138.30077365347
 20
153.8881265309232
 30
0.0
 10
138.2497200317457
 20
153.8667865887428
 30
0.0
 10
138.2496024359405
 20
153.8667374347827
 30
0.0
  0
SPLINE
  5
135
330
1F
100
AcDbEntity
  8
0
  6
HIDDEN
 62
     7
370
     0
100
AcDbSpline
210
0.0
220
0.0
230
1.0
 70
     8
 71
     3
 72
    17
 73
    13
 74
     0
 42
0.000000001
 43
0.00000001
 40
0.0
 40
0.0
 40
0.0
 40
0.0
 40
0.1420378192593038
 40
0.2483151787860668
 40
0.3574992104620722
 40
0.4638832172100893
 40
0.5739559297037606
 40
0.6714843242229078
 40
0.7719043931481386
 40
0.868494822476475
 40
0.9678260524186079
 40
1.0
 40
1.0
 40
1.0
 40
1.0
 10
127.2430580918133
 20
120.0567160790345
 30
0.0
 10
126.6893881145909
 20
120.0453833913658
 30
0.0
 10
125.7214440832095
 20
120.0255712147268
 30
0.0
 10
124.3728252948148
 20
119.8803662574255
 30
0.0
 10
123.2283232347924
 20
119.690031072108
 30
0.0
 10
122.1826281956319
 20
119.4484511673973
 30
0.0
 10
121.3184797121557
 20
119.1969231191695
 30
0.0
 10
120.6352110156913
 20
118.9640816902487
 30
0.0
 10
120.1410993676398
 20
118.7762212299306
 30
0.0
 10
119.8280554163308
 20
118.6487193861164
 30
0.0
 10
119.686118924248
 20
118.5885469600277
 30
0.0
 10
119.7079078476754
 20
118.5977614131694
 30
0.0
 10
119.713238707596
 20
118.600015813627
 30
0.0
  0
SPLINE
  5
136
330
1F
100
AcDbEntity
  8
0
  6
HIDDEN
 62
     7
370
     0
100
AcDbSpline
210
0.0
220
0.0
230
1.0
 70
     8
 71
     3
 72
    18
 73
    14
 74
     0
 42
0.000000001
 43
0.00000001
 40
0.0
 40
0.0
 40
0.0
 40
0.0
 40
0.0970177805586703
 40
0.195793205539397
 40
0.293763429812344
 40
0.3932558262833811
 40
0.4927700028008831
 40
0.5921966394725431
 40
0.6935227660344659
 40
0.7924120109747281
 40
0.8914082997340846
 40
0.9930611361340814
 40
1.0
 40
1.0
 40
1.0
 40
1.0
 10
138.2491796154916
 20
118.5922113304517
 30
0.0
 10
138.2202568357814
 20
118.6047752650133
 30
0.0
 10
138.1618872903232
 20
118.6301307514801
 30
0.0
 10
137.6838010226186
 20
118.8269353712487
 30
0.0
 10
136.9559124851133
 20
119.1095945694067
 30
0.0
 10
135.9745021739834
 20
119.4464994660956
 30
0.0
 10
134.7899707095655
 20
119.7907763458549
 30
0.0
 10
133.42274897256
 20
120.0881380201439
 30
0.0
 10
131.9388348883132
 20
120.2979862948836
 30
0.0
 10
130.3831914787955
 20
120.3723506526925
 30
0.0
 10
128.8265713133572
 20
120.2988534446769
 30
0.0
 10
127.7959730657536
 20
120.1542545099916
 30
0.0
 10
127.2827164831406
 20
120.0614345668041
 30
0.0
 10
127.2499200765431
 20
120.0555034970424
 30
0.0
  0
SPLINE
  5
137
330
1F
100
AcDbEntity
  8
0
  6
HIDDEN
 62
     7
370
     0
100
AcDbSpline
210
0.0
220
0.0
230
1.0
 70
     8
 71
     3
 72
    25
 73
    21
 74
     0
 42
0.000000001
 43
0.00000001
 40
0.0
 40
0.0
 40
0.0
 40
0.0
 40
0.0278144320057639
 40
0.0555680196235574
 40
0.0833316253664654
 40
0.1111760352153096
 40
0.1391714221517776
 40
0.1673868326271671
 40
0.1958897140424394
 40
0.2247454979312721
 40
0.2540172492220529
 40
0.3796724409982623
 40
0.5056484635001489
 40
0.62975272906517
 40
0.7535891720570678
 40
0.803856480607963
 40
0.8533396843413759
 40
0.902326439833779
 40
0.9511131859205574
 40
0.9999999999999999
 40
0.9999999999999999
 40
0.9999999999999999
 40
0.9999999999999999
 10
130.7740091894209
 20
127.6818874619624
 30
0.0
 10
130.8426645433818
 20
127.6824205470695
 30
0.0
 10
130.9798250669319
 20
127.683485551154
 30
0.0
 10
131.1850676495145
 20
127.6965804485463
 30
0.0
 10
131.3893886660094
 20
127.7181189351188
 30
0.0
 10
131.5927897180973
 20
127.7489404069674
 30
0.0
 10
131.7952653489431
 20
127.788853159475
 30
0.0
 10
131.9968142131919
 20
127.8379533524159
 30
0.0
 10
132.1974282339967
 20
127.8962665999277
 30
0.0
 10
132.3971259983321
 20
127.9638585427946
 30
0.0
 10
132.812690819008
 20
128.1246720589045
 30
0.0
 10
133.4154672355505
 20
128.4386489582481
 30
0.0
 10
134.1095237910507
 20
129.0022204337337
 30
0.0
 10
134.6762974204547
 20
129.6779646529921
 30
0.0
 10
135.0138752261239
 20
130.2953264804659
 30
0.0
 10
135.2023376354212
 20
130.7873879199781
 30
0.0
 10
135.3015988529452
 20
131.1250397025198
 30
0.0
 10
135.371943441652
 20
131.4676708445433
 30
0.0
 10
135.4159420401703
 20
131.8150355449898
 30
0.0
 10
135.4213183036505
 20
132.0493389216016
 30
0.0
 10
135.4240091894209
 20
132.1666106335277
 30
0.0
  0
SPLINE
  5
138
330
1F
100
AcDbEntity
  8
0
  6
HIDDEN
 62
     7
370
     0
100
AcDbSpline
210
0.0
220
0.0
230
1.0
 70
     8
 71
     3
 72
    25
 73
    21
 74
     0
 42
0.000000001
 43
0.00000001
 40
0.0
 40
0.0
 40
0.0
 40
0.0
 40
0.0269872354796777
 40
0.0539362690258112
 40
0.0809037148827113
 40
0.1079460716543244
 40
0.1351193706853722
 40
0.1624788388353834
 40
0.1900785854181031
 40
0.2179713214289676
 40
0.2462081170984545
 40
0.3700050494704972
 40
0.494754261165924
 40
0.6210439034708732
 40
0.7446557472315732
 40
0.7967060293745816
 40
0.8478613449339824
 40
0.8985210412000849
 40
0.9490962115264745
 40
0.9999999999999999
 40
0.9999999999999999
 40
0.9999999999999999
 40
0.9999999999999999
 10
135.4240091894209
 20
140.2921574551272
 30
0.0
 10
135.4239900818163
 20
140.3569502651823
 30
0.0
 10
135.4239518936549
 20
140.4864441674646
 30
0.0
 10
135.4123032600627
 20
140.6797372403215
 30
0.0
 10
135.3921561763428
 20
140.8719254173038
 30
0.0
 10
135.3626833668627
 20
141.0629499587371
 30
0.0
 10
135.324108299471
 20
141.2527994135224
 30
0.0
 10
135.2763717626805
 20
141.441451725794
 30
0.0
 10
135.2194944705054
 20
141.6288844146928
 30
0.0
 10
135.1534632544054
 20
141.8150925824739
 30
0.0
 10
134.993954686075
 20
142.2076230667002
 30
0.0
 10
134.6778096810378
 20
142.7797692979075
 30
0.0
 10
134.1055024325664
 20
143.4543490898956
 30
0.0
 10
133.4146686668145
 20
144.0173674435439
 30
0.0
 10
132.769657379715
 20
144.3593493039005
 30
0.0
 10
132.2530086490683
 20
144.5511749406621
 30
0.0
 10
131.8908453987796
 20
144.6536093475715
 30
0.0
 10
131.5232942912446
 20
144.7255749357417
 30
0.0
 10
131.1503623563448
 20
144.7699147123858
 30
0.0
 10
130.8997307841764
 20
144.7745536478531
 30
0.0
 10
130.7740091894209
 20
144.7768806266924
 30
0.0
  0
LINE
  5
139
330
1F
100
AcDbEntity
  8
0
  6
HIDDEN
 62
     7
370
     0
100
AcDbLine
 10
135.4240097914
 20
132.1666108502
 30
0.0
 11
135.4240097914
 21
140.2921572385
 31
0.0
  0
LINE
  5
13A
330
1F
100
AcDbEntity
  8
0
  6
HIDDEN
 62
     7
370
     0
100
AcDbLine
 10
113.5756739293
 20
146.7214350646
 30
0.0
 11
113.5756739293
 21
155.1649601256
 31
0.0
  0
SPLINE
  5
13B
330
1F
100
AcDbEntity
  8
0
  6
HIDDEN
 62
     7
370
     0
100
AcDbSpline
210
0.0
220
0.0
230
1.0
 70
     8
 71
     3
 72
     8
 73
     4
 74
     0
 42
0.000000001
 43
0.00000001
 40
0.0
 40
0.0
 40
0.0
 40
0.0
 40
0.000136040218399
 40
0.000136040218399
 40
0.000136040218399
 40
0.000136040218399
 10
115.7654362732391
 20
127.7103031826251
 30
0.0
 10
115.7851453849699
 20
127.681425183257
 30
0.0
 10
115.8046712501343
 20
127.6524842785324
 30
0.0
 10
115.8240091894209
 20
127.6234810814296
 30
0.0
  0
SPLINE
  5
13C
330
1F
100
AcDbEntity
  8
0
  6
HIDDEN
 62
     7
370
     0
100
AcDbSpline
210
0.0
220
0.0
230
1.0
 70
     8
 71
     3
 72
     9
 73
     5
 74
     0
 42
0.000000001
 43
0.00000001
 40
0.0
 40
0.0
 40
0.0
 40
0.0
 40
0.4913551252639729
 40
1.0
 40
1.0
 40
1.0
 40
1.0
 10
115.7654354958869
 20
127.7103024130452
 30
0.0
 10
115.4405532005155
 20
127.7088314723876
 30
0.0
 10
114.7793566877145
 20
127.7058378317761
 30
0.0
 10
114.1156988194803
 20
127.7031096060675
 30
0.0
 10
113.7781326462248
 20
127.7017219080437
 30
0.0
  0
SPLINE
  5
13D
330
1F
100
AcDbEntity
  8
0
  6
HIDDEN
 62
     7
370
     0
100
AcDbSpline
210
0.0
220
0.0
230
1.0
 70
     8
 71
     3
 72
     9
 73
     5
 74
     0
 42
0.000000001
 43
0.00000001
 40
0.0
 40
0.0
 40
0.0
 40
0.0
 40
0.5086448740972567
 40
1.0
 40
1.0
 40
1.0
 40
1.0
 10
113.7781327553838
 20
127.7017219710549
 30
0.0
 10
114.1156989025581
 20
127.7031096687448
 30
0.0
 10
114.77935672035
 20
127.7058378938006
 30
0.0
 10
115.4405531831016
 20
127.7088315336763
 30
0.0
 10
115.7654354543033
 20
127.7103024739744
 30
0.0
  0
SPLINE
  5
13E
330
1F
100
AcDbEntity
  8
0
  6
HIDDEN
 62
     7
370
     0
100
AcDbSpline
210
0.0
220
0.0
230
1.0
 70
     8
 71
     3
 72
     8
 73
     4
 74
     0
 42
0.000000001
 43
0.00000001
 40
0.0
 40
0.0
 40
0.0
 40
0.0
 40
1.0
 40
1.0
 40
1.0
 40
1.0
 10
122.4346669563729
 20
144.6753806972928
 30
0.0
 10
122.4252475272587
 20
144.5440431415993
 30
0.0
 10
122.4036320039434
 20
144.4153585462788
 30
0.0
 10
122.3744943460807
 20
144.2918840443275
 30
0.0
  0
SPLINE
  5
13F
330
1F
100
AcDbEntity
  8
0
  6
HIDDEN
 62
     7
370
     0
100
AcDbSpline
210
0.0
220
0.0
230
1.0
 70
     8
 71
     3
 72
     8
 73
     4
 74
     0
 42
0.000000001
 43
0.00000001
 40
0.0
 40
0.0
 40
0.0
 40
0.0
 40
1.0
 40
1.0
 40
1.0
 40
1.0
 10
127.1461717895733
 20
144.2921744423293
 30
0.0
 10
127.3556369396417
 20
144.4459057584968
 30
0.0
 10
127.5919369578576
 20
144.5742939591787
 30
0.0
 10
127.8617556386666
 20
144.6710268026461
 30
0.0
  0
SPLINE
  5
140
330
1F
100
AcDbEntity
  8
0
  6
HIDDEN
 62
     7
370
     0
100
AcDbSpline
210
0.0
220
0.0
230
1.0
 70
     8
 71
     3
 72
    10
 73
     6
 74
     0
 42
0.000000001
 43
0.00000001
 40
0.0
 40
0.0
 40
0.0
 40
0.0
 40
0.294086771106153
 40
0.6276647931922208
 40
1.0
 40
1.0
 40
1.0
 40
1.0
 10
121.4278223557244
 20
128.1668840443274
 30
0.0
 10
121.4243879617881
 20
128.1294333630304
 30
0.0
 10
121.4170579885571
 20
128.0495029600314
 30
0.0
 10
121.4125045985018
 20
127.9218631807297
 30
0.0
 10
121.41147613377
 20
127.8317822214597
 30
0.0
 10
121.4109336681908
 20
127.7842688568896
 30
0.0
  0
SPLINE
  5
141
330
1F
100
AcDbEntity
  8
0
  6
HIDDEN
 62
     7
370
     0
100
AcDbSpline
210
0.0
220
0.0
230
1.0
 70
     8
 71
     3
 72
     8
 73
     4
 74
     0
 42
0.000000001
 43
0.00000001
 40
0.0
 40
0.0
 40
0.0
 40
0.0
 40
1.0
 40
1.0
 40
1.0
 40
1.0
 10
127.8603393058271
 20
127.7884376951418
 30
0.0
 10
127.5910429757676
 20
127.8851270803354
 30
0.0
 10
127.3548822903513
 20
128.0131262497131
 30
0.0
 10
127.1456847741654
 20
128.1666028473593
 30
0.0
  0
SPLINE
  5
142
330
1F
100
AcDbEntity
  8
0
  6
HIDDEN
 62
     7
370
     0
100
AcDbSpline
210
0.0
220
0.0
230
1.0
 70
     8
 71
     3
 72
     8
 73
     4
 74
     0
 42
0.000000001
 43
0.00000001
 40
0.0
 40
0.0
 40
0.0
 40
0.0
 40
1.0
 40
1.0
 40
1.0
 40
1.0
 10
115.8656186007418
 20
128.0168838495445
 30
0.0
 10
115.8322266702236
 20
127.9145816704339
 30
0.0
 10
115.7988321672338
 20
127.8123877466918
 30
0.0
 10
115.7654350634446
 20
127.710302783451
 30
0.0
  0
SPLINE
  5
143
330
1F
100
AcDbEntity
  8
0
  6
HIDDEN
 62
     7
370
     0
100
AcDbSpline
210
0.0
220
0.0
230
1.0
 70
     8
 71
     3
 72
     9
 73
     5
 74
     0
 42
0.000000001
 43
0.00000001
 40
0.0
 40
0.0
 40
0.0
 40
0.0
 40
0.5102121239851032
 40
1.0
 40
1.0
 40
1.0
 40
1.0
 10
113.628372586092
 20
146.6910105609793
 30
0.0
 10
114.0032346430708
 20
146.6885206435976
 30
0.0
 10
114.7379526933805
 20
146.6836404824556
 30
0.0
 10
115.4669532838373
 20
146.6782555910692
 30
0.0
 10
115.8240089346507
 20
146.6756181365545
 30
0.0
  0
SPLINE
  5
144
330
1F
100
AcDbEntity
  8
0
  6
HIDDEN
 62
     7
370
     0
100
AcDbSpline
210
0.0
220
0.0
230
1.0
 70
     8
 71
     3
 72
     9
 73
     5
 74
     0
 42
0.000000001
 43
0.00000001
 40
0.0
 40
0.0
 40
0.0
 40
0.0
 40
0.4897878789203671
 40
1.0
 40
1.0
 40
1.0
 40
1.0
 10
115.8240089346518
 20
146.6756177768029
 30
0.0
 10
115.4669533875124
 20
146.6782552283095
 30
0.0
 10
114.7379530130516
 20
146.6836401135221
 30
0.0
 10
114.0032351822606
 20
146.6885202691941
 30
0.0
 10
113.6283732394178
 20
146.6910101837707
 30
0.0
  0
LINE
  5
145
330
1F
100
AcDbEntity
  8
0
  6
HIDDEN
 62
     7
370
     0
100
AcDbLine
 10
151.6740091954
 20
121.8793842068
 30
0.0
 11
151.6740091954
 21
150.5793838819
 31
0.0
  0
SPLINE
  5
146
330
1F
100
AcDbEntity
  8
0
  6
HIDDEN
 62
     7
370
     0
100
AcDbSpline
210
0.0
220
0.0
230
1.0
 70
     8
 71
     3
 72
     8
 73
     4
 74
     0
 42
0.000000001
 43
0.00000001
 40
0.0
 40
0.0
 40
0.0
 40
0.0
 40
1.0
 40
1.0
 40
1.0
 40
1.0
 10
115.8700405858273
 20
146.6118471783927
 30
0.0
 10
115.8979626399036
 20
146.5045832775611
 30
0.0
 10
115.9258726028526
 20
146.3970951048312
 30
0.0
 10
115.9537707057525
 20
146.2893847223308
 30
0.0
  0
SPLINE
  5
147
330
1F
100
AcDbEntity
  8
0
  6
HIDDEN
 62
     7
370
     0
100
AcDbSpline
210
0.0
220
0.0
230
1.0
 70
     8
 71
     3
 72
    25
 73
    21
 74
     0
 42
0.000000001
 43
0.00000001
 40
0.0
 40
0.0
 40
0.0
 40
0.0
 40
0.0619095983496586
 40
0.1173645348739941
 40
0.1663928727698476
 40
0.2527698103550415
 40
0.3322137460491447
 40
0.4103994220830939
 40
0.4386015687931408
 40
0.4678762563229872
 40
0.498234245309043
 40
0.5406979704528568
 40
0.5962446854705716
 40
0.6648711658747277
 40
0.7263502819748066
 40
0.7819622396837913
 40
0.831740973825366
 40
0.9181984938361701
 40
0.9978658263583108
 40
1.0
 40
1.0
 40
1.0
 40
1.0
 10
125.2302539412319
 20
158.3085500692508
 30
0.0
 10
125.4892547161749
 20
158.2532478966893
 30
0.0
 10
125.9802529828977
 20
158.1484093266903
 30
0.0
 10
126.7843834073592
 20
158.023295983642
 30
0.0
 10
127.7677657721185
 20
157.9074439976061
 30
0.0
 10
128.9616235503969
 20
157.8356419346167
 30
0.0
 10
130.370323714006
 20
157.8563055550004
 30
0.0
 10
131.4386225542595
 20
157.9663574731547
 30
0.0
 10
132.193988308639
 20
158.077800960345
 30
0.0
 10
132.6732814138489
 20
158.1601170091278
 30
0.0
 10
133.2157833769284
 20
158.2660066477526
 30
0.0
 10
133.8712066980013
 20
158.416715216113
 30
0.0
 10
134.6689001012892
 20
158.6256722691415
 30
0.0
 10
135.4677111154455
 20
158.8714841363952
 30
0.0
 10
136.1569092652316
 20
159.1111748729229
 30
0.0
 10
136.6755923068459
 20
159.3017917463154
 30
0.0
 10
137.1626787640667
 20
159.4934217716117
 30
0.0
 10
137.5041294885392
 20
159.6355901277142
 30
0.0
 10
137.6651592983196
 20
159.7116311059823
 30
0.0
 10
137.6217404414395
 20
159.6920053415971
 30
0.0
 10
137.6206076581418
 20
159.6914933120391
 30
0.0
  0
LINE
  5
148
330
1F
100
AcDbEntity
  8
0
  6
HIDDEN
 62
     7
370
     0
100
AcDbLine
 10
125.249834067
 20
158.304593811
 30
0.0
 11
125.1728006516
 21
158.3227415626
 31
0.0
  0
SPLINE
  5
149
330
1F
100
AcDbEntity
  8
0
  6
HIDDEN
 62
     7
370
     0
100
AcDbSpline
210
0.0
220
0.0
230
1.0
 70
     8
 71
     3
 72
    15
 73
    11
 74
     0
 42
0.000000001
 43
0.00000001
 40
0.0
 40
0.0
 40
0.0
 40
0.0
 40
0.1747122676795847
 40
0.3327232085298214
 40
0.4910060596170176
 40
0.5475119443848367
 40
0.6058854556758965
 40
0.6661438800358991
 40
0.8126115365782719
 40
1.0
 40
1.0
 40
1.0
 40
1.0
 10
123.6976397101223
 20
158.7081749980828
 30
0.0
 10
123.5301339489067
 20
158.7600496575534
 30
0.0
 10
123.2111348593804
 20
158.8588401052401
 30
0.0
 10
123.0842229790577
 20
158.9095325448285
 30
0.0
 10
123.1760166896359
 20
158.8730470070399
 30
0.0
 10
123.3437404273746
 20
158.8172687168583
 30
0.0
 10
123.4836697024408
 20
158.7725981305185
 30
0.0
 10
123.7466503990503
 20
158.6924663962229
 30
0.0
 10
124.25291913405
 20
158.5423448676403
 30
0.0
 10
124.8789001361204
 20
158.3925997638138
 30
0.0
 10
125.2302539412319
 20
158.3085500692508
 30
0.0
  0
SPLINE
  5
14A
330
1F
100
AcDbEntity
  8
0
  6
HIDDEN
 62
     7
370
     0
100
AcDbSpline
210
0.0
220
0.0
230
1.0
 70
     8
 71
     3
 72
    13
 73
     9
 74
     0
 42
0.000000001
 43
0.00000001
 40
0.0
 40
0.0
 40
0.0
 40
0.0
 40
0.1494456311900028
 40
0.2832893884876547
 40
0.4015393687990217
 40
0.5042099554622884
 40
0.768050300455058
 40
1.0
 40
1.0
 40
1.0
 40
1.0
 10
125.2302390400707
 20
114.1503837948224
 30
0.0
 10
125.0389472974307
 20
114.1055890024879
 30
0.0
 10
124.676334350075
 20
114.0206759192025
 30
0.0
 10
124.2440034310912
 20
113.9081838176031
 30
0.0
 10
123.9129561030417
 20
113.8153935972284
 30
0.0
 10
123.5336123051795
 20
113.7027560955972
 30
0.0
 10
123.195428002551
 20
113.5933522352247
 30
0.0
 10
123.1492131522758
 20
113.5750600650546
 30
0.0
 10
123.1275920633614
 20
113.5665022825381
 30
0.0
  0
LINE
  5
14B
330
1F
100
AcDbEntity
  8
0
  6
HIDDEN
 62
     7
370
     0
100
AcDbLine
 10
124.6516493027
 20
114.0121829753
 30
0.0
 11
125.2473455731
 21
114.1536378359
 31
0.0
  0
SPLINE
  5
14C
330
1F
100
AcDbEntity
  8
0
  6
HIDDEN
 62
     7
370
     0
100
AcDbSpline
210
0.0
220
0.0
230
1.0
 70
     8
 71
     3
 72
    28
 73
    24
 74
     0
 42
0.000000001
 43
0.00000001
 40
0.0
 40
0.0
 40
0.0
 40
0.0
 40
0.002949604796144
 40
0.0824981696721001
 40
0.1105346579802125
 40
0.1393393518798963
 40
0.168927613837149
 40
0.2056066578040473
 40
0.2455775842376177
 40
0.2888568936884983
 40
0.3354575645217014
 40
0.3881516063921689
 40
0.4334929908720911
 40
0.4714812533136037
 40
0.5021186841840051
 40
0.5898712441600187
 40
0.6680991238807443
 40
0.7474938949268789
 40
0.7755187297732631
 40
0.8043301662124948
 40
0.833942513934609
 40
0.9097211567693908
 40
1.0
 40
1.0
 40
1.0
 40
1.0
 10
137.6193494413435
 20
112.7679453288695
 30
0.0
 10
137.6209072299496
 20
112.7672394791615
 30
0.0
 10
137.6644773749745
 20
112.7474974075949
 30
0.0
 10
137.5510640622908
 20
112.8007983652652
 30
0.0
 10
137.3802424845817
 20
112.8740194966194
 30
0.0
 10
137.2341883991002
 20
112.9349045440953
 30
0.0
 10
137.0403395024969
 20
113.0131790851558
 30
0.0
 10
136.7805183330442
 20
113.1156310970387
 30
0.0
 10
136.4345969939441
 20
113.2465200557031
 30
0.0
 10
136.0016932851057
 20
113.4015666990481
 30
0.0
 10
135.4632410935396
 20
113.5867560027617
 30
0.0
 10
134.8515555599815
 20
113.7783503202996
 30
0.0
 10
134.2218975192611
 20
113.9515758840296
 30
0.0
 10
133.6606458171962
 20
114.0916602599192
 30
0.0
 10
132.8570512564839
 20
114.2713965289631
 30
0.0
 10
131.7768052650349
 20
114.4579535028354
 30
0.0
 10
130.3676446138267
 20
114.6028580435439
 30
0.0
 10
129.294052933387
 20
114.6182823866622
 30
0.0
 10
128.5285814408025
 20
114.5925057577883
 30
0.0
 10
128.0514450276685
 20
114.5647134573999
 30
0.0
 10
127.3303458474323
 20
114.5047709786215
 30
0.0
 10
126.3238523448753
 20
114.3768235288078
 30
0.0
 10
125.6153976493498
 20
114.230133385143
 30
0.0
 10
125.2302390400707
 20
114.1503837948224
 30
0.0
  0
SPLINE
  5
14D
330
1F
100
AcDbEntity
  8
0
  6
HIDDEN
 62
     7
370
     0
100
AcDbSpline
210
0.0
220
0.0
230
1.0
 70
     8
 71
     3
 72
    14
 73
    10
 74
     0
 42
0.000000001
 43
0.00000001
 40
0.0
 40
0.0
 40
0.0
 40
0.0
 40
0.0003951393068452
 40
0.0003951393068452
 40
0.0003951393068452
 40
0.0008163352168664
 40
0.0008163352168664
 40
0.0008163352168664
 40
0.0012378579337219
 40
0.0012378579337219
 40
0.0012378579337219
 40
0.0012378579337219
 10
127.2544530638202
 20
120.0541575685876
 30
0.0
 10
127.3829676234489
 20
120.0253071915758
 30
0.0
 10
127.51153595165
 20
119.9966419008155
 30
0.0
 10
127.6400903708087
 20
119.968160247715
 30
0.0
 10
127.777120312298
 20
119.9378008148504
 30
0.0
 10
127.9141598133782
 20
119.907644766986
 30
0.0
 10
128.0511224749326
 20
119.8776797536103
 30
0.0
 10
128.1881912086817
 20
119.8476915335102
 30
0.0
 10
128.3252096511652
 20
119.8178890997655
 30
0.0
 10
128.46208586874
 20
119.788245229548
 30
0.0
  0
SPLINE
  5
14E
330
1F
100
AcDbEntity
  8
0
  6
HIDDEN
 62
     7
370
     0
100
AcDbSpline
210
0.0
220
0.0
230
1.0
 70
     8
 71
     3
 72
    22
 73
    18
 74
     0
 42
0.000000001
 43
0.00000001
 40
0.0
 40
0.0
 40
0.0
 40
0.0
 40
0.0436023220797438
 40
0.1448461848228786
 40
0.2458284194812985
 40
0.281979154051872
 40
0.3193993472192479
 40
0.3581155884193626
 40
0.415850243032458
 40
0.4871958258215896
 40
0.5721728343252076
 40
0.6352745582697303
 40
0.6920392123542357
 40
0.7424806201803251
 40
0.7866191210883913
 40
0.8965570211287577
 40
0.9999999999999999
 40
0.9999999999999999
 40
0.9999999999999999
 40
0.9999999999999999
 10
128.4548056189358
 20
119.7867778187177
 30
0.0
 10
128.6438293196562
 20
119.8108662521326
 30
0.0
 10
129.2717628925607
 20
119.8908876251257
 30
0.0
 10
130.3825454331167
 20
119.9513041489094
 30
0.0
 10
131.456625943443
 20
119.8899158492929
 30
0.0
 10
132.2179628040877
 20
119.7999802587538
 30
0.0
 10
132.6975215001852
 20
119.7281718904659
 30
0.0
 10
133.2536280523409
 20
119.6276173585193
 30
0.0
 10
133.9213891604603
 20
119.4769498321024
 30
0.0
 10
134.7157878436263
 20
119.2629158827998
 30
0.0
 10
135.4464742787095
 20
119.0250859903077
 30
0.0
 10
136.0434242139502
 20
118.8033300958913
 30
0.0
 10
136.4781833252093
 20
118.6320397461262
 30
0.0
 10
136.8115770942856
 20
118.4909421890775
 30
0.0
 10
137.1926505206692
 20
118.3228890159455
 30
0.0
 10
137.5446763547069
 20
118.16268499245
 30
0.0
 10
137.5977636882973
 20
118.1362280121178
 30
0.0
 10
137.623499414736
 20
118.1234021728418
 30
0.0
  0
SPLINE
  5
14F
330
1F
100
AcDbEntity
  8
0
  6
HIDDEN
 62
     7
370
     0
100
AcDbSpline
210
0.0
220
0.0
230
1.0
 70
     8
 71
     3
 72
    14
 73
    10
 74
     0
 42
0.000000001
 43
0.00000001
 40
0.0
 40
0.0
 40
0.0
 40
0.0
 40
0.0003951407686718
 40
0.0003951407686718
 40
0.0003951407686718
 40
0.0008159291550368
 40
0.0008159291550368
 40
0.0008159291550368
 40
0.0012370378119314
 40
0.0012370378119314
 40
0.0012370378119314
 40
0.0012370378119314
 10
128.4643597996856
 20
119.7885519202886
 30
0.0
 10
128.3360622605599
 20
119.8163962435121
 30
0.0
 10
128.2076401464709
 20
119.8443786956724
 30
0.0
 10
128.0791690026752
 20
119.8725211503548
 30
0.0
 10
127.9423605158829
 20
119.9024899552237
 30
0.0
 10
127.8054707868959
 20
119.9326457202777
 30
0.0
 10
127.6685858678986
 20
119.9630004013749
 30
0.0
 10
127.5315966112556
 20
119.9933782196883
 30
0.0
 10
127.3945861002605
 20
120.0239607844052
 30
0.0
 10
127.257635980138
 20
120.0547489940567
 30
0.0
  0
SPLINE
  5
150
330
1F
100
AcDbEntity
  8
0
  6
HIDDEN
 62
     7
370
     0
100
AcDbSpline
210
0.0
220
0.0
230
1.0
 70
     8
 71
     3
 72
    14
 73
    10
 74
     0
 42
0.000000001
 43
0.00000001
 40
0.0
 40
0.0
 40
0.0
 40
0.0
 40
0.0003951392850831
 40
0.0003951392850831
 40
0.0003951392850831
 40
0.0008159035679249
 40
0.0008159035679249
 40
0.0008159035679249
 40
0.0012369936130996
 40
0.0012369936130996
 40
0.0012369936130996
 40
0.0012369936130996
 10
127.2518931391524
 20
152.4043570413277
 30
0.0
 10
127.3804023772591
 20
152.4332310090412
 30
0.0
 10
127.5089658849882
 20
152.4619192225175
 30
0.0
 10
127.6375162632716
 20
152.4904220665549
 30
0.0
 10
127.7744015109351
 20
152.5207729602457
 30
0.0
 10
127.911297156835
 20
152.5509189252747
 30
0.0
 10
128.048117418184
 20
152.5808707448432
 30
0.0
 10
128.1850434071289
 20
152.6108457096231
 30
0.0
 10
128.3219204790931
 20
152.6406317590683
 30
0.0
 10
128.4586573282803
 20
152.670254232237
 30
0.0
  0
SPLINE
  5
151
330
1F
100
AcDbEntity
  8
0
  6
HIDDEN
 62
     7
370
     0
100
AcDbSpline
210
0.0
220
0.0
230
1.0
 70
     8
 71
     3
 72
    23
 73
    19
 74
     0
 42
0.000000001
 43
0.00000001
 40
0.0
 40
0.0
 40
0.0
 40
0.0
 40
0.0006752106870821
 40
0.1026079744852575
 40
0.1386813277187871
 40
0.1758202040754145
 40
0.2140485073508858
 40
0.2767420824853883
 40
0.3481355409923959
 40
0.4282726410079423
 40
0.4928674266241568
 40
0.5501627264412489
 40
0.6001671601451446
 40
0.6428955261953848
 40
0.7551637218169734
 40
0.8563654433636206
 40
0.9573056457242085
 40
1.0
 40
1.0
 40
1.0
 40
1.0
 10
137.6231483061254
 20
154.3351777886531
 30
0.0
 10
137.6234369639135
 20
154.3353221455532
 30
0.0
 10
137.6673026661764
 20
154.3572592526069
 30
0.0
 10
137.5570685282694
 20
154.2995255679413
 30
0.0
 10
137.3906729948711
 20
154.2205383645863
 30
0.0
 10
137.2462404532126
 20
154.1540312348975
 30
0.0
 10
137.0296039434913
 20
154.0577580063435
 30
0.0
 10
136.6944961927261
 20
153.9128500122077
 30
0.0
 10
136.1797881771259
 20
153.7065584845101
 30
0.0
 10
135.5589760036658
 20
153.4739621555483
 30
0.0
 10
134.8980250196599
 20
153.2530931223515
 30
0.0
 10
134.2820231819927
 20
153.0767665941248
 30
0.0
 10
133.708170236409
 20
152.9322376262057
 30
0.0
 10
132.8861500768224
 20
152.7543484140106
 30
0.0
 10
131.7831277091146
 20
152.5875714719742
 30
0.0
 10
130.3669257063696
 20
152.5074141963941
 30
0.0
 10
129.2601795933475
 20
152.5685220430446
 30
0.0
 10
128.6374405267595
 20
152.6482132240476
 30
0.0
 10
128.4523357514679
 20
152.6719008629701
 30
0.0
  0
SPLINE
  5
152
330
1F
100
AcDbEntity
  8
0
  6
HIDDEN
 62
     7
370
     0
100
AcDbSpline
210
0.0
220
0.0
230
1.0
 70
     8
 71
     3
 72
    14
 73
    10
 74
     0
 42
0.000000001
 43
0.00000001
 40
0.0
 40
0.0
 40
0.0
 40
0.0
 40
0.0003951409592557
 40
0.0003951409592557
 40
0.0003951409592557
 40
0.0008163452836685
 40
0.0008163452836685
 40
0.0008163452836685
 40
0.00123787248147
 40
0.00123787248147
 40
0.00123787248147
 40
0.00123787248147
 10
128.456697244414
 20
152.6707095678881
 30
0.0
 10
128.3283631035253
 20
152.6430067091909
 30
0.0
 10
128.1999063026213
 20
152.6151587857433
 30
0.0
 10
128.0714034635935
 20
152.5871406740045
 30
0.0
 10
127.93442605822
 20
152.557274810507
 30
0.0
 10
127.7973704939748
 20
152.5272100290181
 30
0.0
 10
127.6603241940024
 20
152.4969312936582
 30
0.0
 10
127.523172682769
 20
152.4666293131326
 30
0.0
 10
127.3860041649179
 20
152.4361075055467
 30
0.0
 10
127.248901402258
 20
152.4053627342606
 30
0.0
  0
SPLINE
  5
153
330
1F
100
AcDbEntity
  8
0
  6
HIDDEN
 62
     7
370
     0
100
AcDbSpline
210
0.0
220
0.0
230
1.0
 70
     8
 71
     3
 72
    19
 73
    15
 74
     0
 42
0.000000001
 43
0.00000001
 40
0.0
 40
0.0
 40
0.0
 40
0.0
 40
0.0400090059236297
 40
0.1288324127177051
 40
0.2143912480214769
 40
0.3023428764884581
 40
0.3896073408741914
 40
0.4792493962782291
 40
0.5692299567331235
 40
0.662343300423799
 40
0.7309341375279357
 40
0.8003039260766466
 40
0.883746086009805
 40
0.9999999999999999
 40
0.9999999999999999
 40
0.9999999999999999
 40
0.9999999999999999
 10
123.1463991914331
 20
113.7015775834701
 30
0.0
 10
123.141593036168
 20
113.6998085776895
 30
0.0
 10
123.126116806144
 20
113.6941122281413
 30
0.0
 10
123.296990938269
 20
113.7570182018331
 30
0.0
 10
123.6449536395781
 20
113.8866886277735
 30
0.0
 10
124.1633095083818
 20
114.0839790756423
 30
0.0
 10
124.8338005442301
 20
114.3490107429219
 30
0.0
 10
125.634552300726
 20
114.6858634904393
 30
0.0
 10
126.5465617050929
 20
115.1160364794602
 30
0.0
 10
127.4290648949609
 20
115.6310100536568
 30
0.0
 10
128.1695027698704
 20
116.3039926762978
 30
0.0
 10
128.6036989271713
 20
117.2042746383558
 30
0.0
 10
128.6704680474229
 20
118.410450562831
 30
0.0
 10
128.5303336923238
 20
119.2798267447062
 30
0.0
 10
128.448753884846
 20
119.7859377657554
 30
0.0
  0
SPLINE
  5
154
330
1F
100
AcDbEntity
  8
0
  6
HIDDEN
 62
     7
370
     0
100
AcDbSpline
210
0.0
220
0.0
230
1.0
 70
     8
 71
     3
 72
    20
 73
    16
 74
     0
 42
0.000000001
 43
0.00000001
 40
0.0
 40
0.0
 40
0.0
 40
0.0
 40
0.1072260835417507
 40
0.1814191068970724
 40
0.237682944967167
 40
0.2939217738957368
 40
0.394546190543704
 40
0.4766905456708354
 40
0.5611514810172419
 40
0.6445663088296815
 40
0.7303468035242111
 40
0.8144150971474038
 40
0.9010779354789854
 40
0.9825771191003198
 40
1.0
 40
1.0
 40
1.0
 40
1.0
 10
128.4486775163948
 20
152.6724093650958
 30
0.0
 10
128.5285872912204
 20
153.1668167245055
 30
0.0
 10
128.6637890956914
 20
154.003319734079
 30
0.0
 10
128.6145166497431
 20
155.126906822529
 30
0.0
 10
128.2932072790263
 20
155.9532970258707
 30
0.0
 10
127.6361817223921
 20
156.6917245666052
 30
0.0
 10
126.7388445197265
 20
157.2422754589429
 30
0.0
 10
125.7841557989417
 20
157.7065578467932
 30
0.0
 10
124.9701504180581
 20
158.0541608421631
 30
0.0
 10
124.2650165710606
 20
158.3354635732997
 30
0.0
 10
123.7096769663697
 20
158.547795752896
 30
0.0
 10
123.3154924921403
 20
158.6949176212875
 30
0.0
 10
123.1304773342245
 20
158.7630251337263
 30
0.0
 10
123.0907670044055
 20
158.7777501992243
 30
0.0
 10
123.1673066256572
 20
158.7494573680738
 30
0.0
 10
123.1807873461782
 20
158.744474226751
 30
0.0
  0
LINE
  5
155
330
1F
100
AcDbEntity
  8
0
  6
HIDDEN
 62
     7
370
     0
100
AcDbLine
 10
128.6267668818
 20
154.1792632138
 30
0.0
 11
128.4486309503
 21
152.6721523201
 31
0.0
  0
SPLINE
  5
156
330
1F
100
AcDbEntity
  8
0
  6
HIDDEN
 62
     7
370
     0
100
AcDbSpline
210
0.0
220
0.0
230
1.0
 70
     8
 71
     3
 72
    33
 73
    29
 74
     0
 42
0.000000001
 43
0.00000001
 40
0.0
 40
0.0
 40
0.0
 40
0.0
 40
0.0498309173387671
 40
0.0765108026726975
 40
0.1043801891133438
 40
0.1517119760270376
 40
0.2090396799402207
 40
0.2493900016274584
 40
0.2843040556538693
 40
0.3137891989943111
 40
0.3684514342091234
 40
0.4180375797062044
 40
0.4676180205851126
 40
0.4852947442632647
 40
0.5035479557610327
 40
0.5223850712345071
 40
0.5686511920171213
 40
0.6270824459887449
 40
0.6665321152449775
 40
0.701448399706185
 40
0.7318425650130088
 40
0.7863194897642878
 40
0.811852063676008
 40
0.836258443451046
 40
0.8789026718397005
 40
0.9278459443935392
 40
0.9832088943847098
 40
1.0
 40
1.0
 40
1.0
 40
1.0
 10
225.6490097258627
 20
156.2293835972926
 30
0.0
 10
225.6659824373841
 20
156.2222051437576
 30
0.0
 10
225.6920424790488
 20
156.2111832868214
 30
0.0
 10
225.8565826680522
 20
156.1508317277576
 30
0.0
 10
226.0751621016827
 20
156.0753606855581
 30
0.0
 10
226.4715510950692
 20
155.9459053321145
 30
0.0
 10
227.0551818936881
 20
155.7753269671229
 30
0.0
 10
227.6962868216806
 20
155.6164754012795
 30
0.0
 10
228.2602100090914
 20
155.5030770975725
 30
0.0
 10
228.9470564560814
 20
155.3891244120832
 30
0.0
 10
229.7774501554215
 20
155.2966885315545
 30
0.0
 10
230.7731566910072
 20
155.254887414846
 30
0.0
 10
231.5304344814541
 20
155.2868491717359
 30
0.0
 10
232.068201636498
 20
155.3333232836035
 30
0.0
 10
232.4061165321689
 20
155.370372236171
 30
0.0
 10
232.9072947748564
 20
155.4369812218521
 30
0.0
 10
233.6107187089246
 20
155.5609840739194
 30
0.0
 10
234.3312229488903
 20
155.7319179486338
 30
0.0
 10
234.8845652520467
 20
155.8899987748592
 30
0.0
 10
235.2482549563827
 20
156.0013764857351
 30
0.0
 10
235.5833136311273
 20
156.1126450620223
 30
0.0
 10
235.7896133287627
 20
156.186279684021
 30
0.0
 10
235.8841773156711
 20
156.222956078935
 30
0.0
 10
235.9115466606764
 20
156.2352297468194
 30
0.0
 10
235.8525687759428
 20
156.2058439338431
 30
0.0
 10
235.6034177747227
 20
156.1117101530134
 30
0.0
 10
235.2948180284899
 20
156.0075760575552
 30
0.0
 10
235.0010377320255
 20
155.9252786935232
 30
0.0
 10
234.9326715682089
 20
155.906127119579
 30
0.0
  0
LINE
  5
157
330
1F
100
AcDbEntity
  8
0
  6
HIDDEN
 62
     7
370
     0
100
AcDbLine
 10
206.7740105901
 20
130.3293838223
 30
0.0
 11
206.7740105901
 21
142.1293842664
 31
0.0
  0
LINE
  5
158
330
1F
100
AcDbEntity
  8
0
  6
HIDDEN
 62
     7
370
     0
100
AcDbLine
 10
210.7740075205
 20
130.2293839922
 30
0.0
 11
210.7740075205
 21
142.2293840965
 31
0.0
  0
SPLINE
  5
159
330
1F
100
AcDbEntity
  8
0
  6
HIDDEN
 62
     7
370
     0
100
AcDbSpline
210
0.0
220
0.0
230
1.0
 70
     8
 71
     3
 72
    22
 73
    18
 74
     0
 42
0.000000001
 43
0.00000001
 40
0.0
 40
0.0
 40
0.0
 40
0.0
 40
0.0404217123713271
 40
0.1167841608395816
 40
0.1991544534098266
 40
0.2602949632796073
 40
0.3231931152457909
 40
0.4200249258657878
 40
0.4788728262102848
 40
0.5381703923113766
 40
0.6089677804013314
 40
0.6673485328547244
 40
0.7273014809816273
 40
0.7882235461707989
 40
0.851107078754266
 40
0.9362935652623273
 40
1.0
 40
1.0
 40
1.0
 40
1.0
 10
235.8493761036932
 20
142.1870433782718
 30
0.0
 10
235.8593556990138
 20
142.1955442199076
 30
0.0
 10
235.888188190184
 20
142.2201043782641
 30
0.0
 10
235.5392956984219
 20
141.9229780786127
 30
0.0
 10
234.9618048785277
 20
141.4464876242072
 30
0.0
 10
234.246681990132
 20
140.8899749884858
 30
0.0
 10
233.3644739036617
 20
140.2631031229349
 30
0.0
 10
232.3378402393525
 20
139.6574372596547
 30
0.0
 10
231.1471902708061
 20
139.314120455824
 30
0.0
 10
230.0340445795961
 20
139.3724318186686
 30
0.0
 10
229.03723965016
 20
139.7702062072923
 30
0.0
 10
228.1673236378712
 20
140.2809138630651
 30
0.0
 10
227.4338551663548
 20
140.7919940815258
 30
0.0
 10
226.7763886846496
 20
141.2959997521714
 30
0.0
 10
226.1698066533053
 20
141.7878483735445
 30
0.0
 10
225.7134600926168
 20
142.174136148695
 30
0.0
 10
225.6966875199199
 20
142.1886587801764
 30
0.0
 10
225.6895110819876
 20
142.1948725414953
 30
0.0
  0
LINE
  5
15A
330
1F
100
AcDbEntity
  8
0
  6
HIDDEN
 62
     7
370
     0
100
AcDbLine
 10
156.3240092125
 20
130.4793840332
 30
0.0
 11
156.3240092125
 21
141.9793840555
 31
0.0
  0
LINE
  5
15B
330
1F
100
AcDbEntity
  8
0
  6
HIDDEN
 62
     7
370
     0
100
AcDbLine
 10
155.499009217
 20
130.4793840332
 30
0.0
 11
155.499009217
 21
141.9793840555
 31
0.0
  0
LINE
  5
15C
330
1F
100
AcDbEntity
  8
0
  6
HIDDEN
 62
     7
370
     0
100
AcDbLine
 10
152.0740092144
 20
131.2293841561
 30
0.0
 11
152.0740092144
 21
141.2293839326
 31
0.0
  0
SPLINE
  5
15D
330
1F
100
AcDbEntity
  8
0
  6
HIDDEN
 62
     7
370
     0
100
AcDbSpline
210
0.0
220
0.0
230
1.0
 70
     8
 71
     3
 72
    10
 73
     6
 74
     0
 42
0.000000001
 43
0.00000001
 40
0.0
 40
0.0
 40
0.0
 40
0.0
 40
0.5
 40
0.5
 40
1.0
 40
1.0
 40
1.0
 40
1.0
 10
166.0082069939909
 20
110.6144978441602
 30
0.0
 10
165.7734760500217
 20
111.0669372318623
 30
0.0
 10
165.534092742305
 20
111.5064644052217
 30
0.0
 10
165.0474713909942
 20
112.3655565007634
 30
0.0
 10
164.8002020792924
 20
112.7850135539867
 30
0.0
 10
164.5490091894209
 20
113.1951896105241
 30
0.0
  0
SPLINE
  5
15E
330
1F
100
AcDbEntity
  8
0
  6
HIDDEN
 62
     7
370
     0
100
AcDbSpline
210
0.0
220
0.0
230
1.0
 70
     8
 71
     3
 72
    14
 73
    10
 74
     0
 42
0.000000001
 43
0.00000001
 40
0.0
 40
0.0
 40
0.0
 40
0.0
 40
0.25
 40
0.25
 40
0.5
 40
0.5
 40
0.75
 40
0.75
 40
1.0
 40
1.0
 40
1.0
 40
1.0
 10
164.5490091894211
 20
113.2803981752769
 30
0.0
 10
164.5490091894211
 20
113.3945702528298
 30
0.0
 10
164.5230797511551
 20
113.5116582575047
 30
0.0
 10
164.4236374938787
 20
113.7328132695227
 30
0.0
 10
164.3513551081579
 20
113.8353876100219
 30
0.0
 10
164.1666177713934
 20
114.0114210155098
 30
0.0
 10
164.0570711350713
 20
114.0818268224902
 30
0.0
 10
163.8137098900681
 20
114.1753926833293
 30
0.0
 10
163.6821987826223
 20
114.1973130032987
 30
0.0
 10
163.5490091894209
 20
114.1912504341615
 30
0.0
  0
SPLINE
  5
15F
330
1F
100
AcDbEntity
  8
0
  6
HIDDEN
 62
     7
370
     0
100
AcDbSpline
210
0.0
220
0.0
230
1.0
 70
     8
 71
     3
 72
    10
 73
     6
 74
     0
 42
0.000000001
 43
0.00000001
 40
0.0
 40
0.0
 40
0.0
 40
0.0
 40
0.5
 40
0.5
 40
1.0
 40
1.0
 40
1.0
 40
1.0
 10
163.5490091894209
 20
114.1912504341611
 30
0.0
 10
163.2365452871328
 20
114.1770275961377
 30
0.0
 10
162.933656305135
 20
114.1392083933461
 30
0.0
 10
162.3463131203309
 20
114.0193199673572
 30
0.0
 10
162.061845459759
 20
113.9365629309561
 30
0.0
 10
161.7990091894209
 20
113.8351910969193
 30
0.0
  0
SPLINE
  5
160
330
1F
100
AcDbEntity
  8
0
  6
HIDDEN
 62
     7
370
     0
100
AcDbSpline
210
0.0
220
0.0
230
1.0
 70
     8
 71
     3
 72
    14
 73
    10
 74
     0
 42
0.000000001
 43
0.00000001
 40
0.0
 40
0.0
 40
0.0
 40
0.0
 40
0.25
 40
0.25
 40
0.5
 40
0.5
 40
0.75
 40
0.75
 40
1.0
 40
1.0
 40
1.0
 40
1.0
 10
161.7990091894209
 20
113.8351910969193
 30
0.0
 10
161.6646584408798
 20
113.7833741168415
 30
0.0
 10
161.5414795380863
 20
113.7064268808082
 30
0.0
 10
161.312729117197
 20
113.5139420473992
 30
0.0
 10
161.2108060252038
 20
113.4011150586192
 30
0.0
 10
161.0313809608586
 20
113.1482751140465
 30
0.0
 10
160.9549397119541
 20
113.0102593895648
 30
0.0
 10
160.8376517374924
 20
112.7120236828348
 30
0.0
 10
160.7990091894209
 20
112.5539357137843
 30
0.0
 10
160.7990091894209
 20
112.4145033890594
 30
0.0
  0
LWPOLYLINE
  5
161
330
1F
100
AcDbEntity
  8
0
  6
HIDDEN
 62
     7
370
     0
100
AcDbPolyline
 90
       30
 70
   128
 43
0.0
 10
163.8240090449
 20
122.0117121061
 10
164.62746103
 20
121.9680219015
 10
165.3933443938
 20
121.838993678
 10
166.0858479206
 20
121.6306614747
 10
166.6725895245
 20
121.352765063
 10
167.1261352364
 20
121.0183001181
 10
167.4252769787
 20
120.6429054087
 10
167.5560281489
 20
120.2441335713
 10
167.5122736831
 20
119.8406324779
 10
167.2960596968
 20
119.4512669986
 10
166.917496628
 20
119.0942444896
 10
166.3942861248
 20
118.7862579768
 10
165.7508921687
 20
118.5417094325
 10
165.0173983414
 20
118.3720354979
 10
164.2281043221
 20
118.2851673161
 10
163.419914699
 20
118.2851673161
 10
162.6306197483
 20
118.3720354979
 10
161.8971268524
 20
118.5417094325
 10
161.2537328963
 20
118.7862579768
 10
160.7305214618
 20
119.0942444896
 10
160.3519588586
 20
119.4512669986
 10
160.1357448724
 20
119.8406324779
 10
160.0919904065
 20
120.2441335713
 10
160.222741111
 20
120.6429054087
 10
160.5218828533
 20
121.0183001181
 10
160.9754285653
 20
121.352765063
 10
161.5621701692
 20
121.6306614747
 10
162.254673696
 20
121.838993678
 10
163.0205570598
 20
121.9680219015
 10
163.8240090449
 20
122.0117121061
  0
LWPOLYLINE
  5
162
330
1F
100
AcDbEntity
  8
0
  6
HIDDEN
 62
     7
370
     0
100
AcDbPolyline
 90
       32
 70
   128
 43
0.0
 10
163.8240090449
 20
156.9460288679
 10
164.6770120476
 20
156.9026590382
 10
165.4950923164
 20
156.7743209248
 10
166.2447585602
 20
156.5662727749
 10
166.8953190435
 20
156.2870287394
 10
167.4201388721
 20
155.9480217343
 10
167.7977342967
 20
155.5631321912
 10
168.0126435001
 20
155.1481180882
 10
168.0560701404
 20
154.7199667489
 10
167.9262363229
 20
154.2962093895
 10
167.6284561742
 20
153.8941946869
 10
167.1749216382
 20
153.5303791111
 10
166.5842004929
 20
153.2196600979
 10
165.8804763917
 20
152.974757651
 10
165.0925607298
 20
152.8056965267
 10
164.2527098645
 20
152.7194001769
 10
163.3953082253
 20
152.7194001769
 10
162.5554582913
 20
152.8056965267
 10
161.767541698
 20
152.974757651
 10
161.0638185282
 20
153.2196600979
 10
160.4730969172
 20
153.5303791111
 10
160.0195623812
 20
153.8941946869
 10
159.7217822325
 20
154.2962093895
 10
159.5919479493
 20
154.7199667489
 10
159.6353745897
 20
155.1481180882
 10
159.8502847243
 20
155.5631321912
 10
160.2278792177
 20
155.9480217343
 10
160.7526999776
 20
156.2870287394
 10
161.4032604609
 20
156.5662727749
 10
162.1529267047
 20
156.7743209248
 10
162.9710069735
 20
156.9026590382
 10
163.8240090449
 20
156.9460288679
  0
ARC
  5
163
330
1F
100
AcDbEntity
  8
0
  6
HIDDEN
 62
     7
370
     0
100
AcDbCircle
 10
161.0169471322
 20
161.7554829513
 30
0.0
 40
1.398056856270778
100
AcDbArc
 50
114.7568411517
 51
245.2431588483
  0
SPLINE
  5
164
330
1F
100
AcDbEntity
  8
0
  6
HIDDEN
 62
     7
370
     0
100
AcDbSpline
210
0.0
220
0.0
230
1.0
 70
     8
 71
     3
 72
    14
 73
    10
 74
     0
 42
0.000000001
 43
0.00000001
 40
0.0
 40
0.0
 40
0.0
 40
0.0
 40
0.25
 40
0.25
 40
0.5
 40
0.5
 40
0.75
 40
0.75
 40
1.0
 40
1.0
 40
1.0
 40
1.0
 10
160.7990091894209
 20
159.5979717736325
 30
0.0
 10
160.7990091894209
 20
159.4672319522615
 30
0.0
 10
160.8344302663532
 20
159.3185342385474
 30
0.0
 10
160.9469559375433
 20
159.0416044230009
 30
0.0
 10
161.0246361238177
 20
158.908293855912
 30
0.0
 10
161.20470135554
 20
158.6709538601501
 30
0.0
 10
161.3099814081953
 20
158.56327026016
 30
0.0
 10
161.5389649425578
 20
158.3866983161795
 30
0.0
 10
161.6655781345567
 20
158.3153951637086
 30
0.0
 10
161.7990091894207
 20
158.2706228699117
 30
0.0
  0
SPLINE
  5
165
330
1F
100
AcDbEntity
  8
0
  6
HIDDEN
 62
     7
370
     0
100
AcDbSpline
210
0.0
220
0.0
230
1.0
 70
     8
 71
     3
 72
    10
 73
     6
 74
     0
 42
0.000000001
 43
0.00000001
 40
0.0
 40
0.0
 40
0.0
 40
0.0
 40
0.5
 40
0.5
 40
1.0
 40
1.0
 40
1.0
 40
1.0
 10
161.7990091894209
 20
158.2706228699124
 30
0.0
 10
162.0695279095362
 20
158.1798513203139
 30
0.0
 10
162.3511030741854
 20
158.1076742948217
 30
0.0
 10
162.9356966452047
 20
158.0011853827683
 30
0.0
 10
163.2410451796252
 20
157.9669543774843
 30
0.0
 10
163.5490091894209
 20
157.9542759152068
 30
0.0
  0
SPLINE
  5
166
330
1F
100
AcDbEntity
  8
0
  6
HIDDEN
 62
     7
370
     0
100
AcDbSpline
210
0.0
220
0.0
230
1.0
 70
     8
 71
     3
 72
    14
 73
    10
 74
     0
 42
0.000000001
 43
0.00000001
 40
0.0
 40
0.0
 40
0.0
 40
0.0
 40
0.25
 40
0.25
 40
0.5
 40
0.5
 40
0.75
 40
0.75
 40
1.0
 40
1.0
 40
1.0
 40
1.0
 10
163.5490091894209
 20
157.9542759152068
 30
0.0
 10
163.682437496654
 20
157.9487828520365
 30
0.0
 10
163.8142121684496
 20
157.9710348711013
 30
0.0
 10
164.057408055311
 20
158.0644731308077
 30
0.0
 10
164.1683289170238
 20
158.1357685959884
 30
0.0
 10
164.3509752658897
 20
158.3092759929006
 30
0.0
 10
164.4242910052297
 20
158.4128343551469
 30
0.0
 10
164.5229291160651
 20
158.6320724679208
 30
0.0
 10
164.5490091894209
 20
158.7490779436292
 30
0.0
 10
164.5490091894209
 20
158.8637028781949
 30
0.0
  0
SPLINE
  5
167
330
1F
100
AcDbEntity
  8
0
  6
HIDDEN
 62
     7
370
     0
100
AcDbSpline
210
0.0
220
0.0
230
1.0
 70
     8
 71
     3
 72
     8
 73
     4
 74
     0
 42
0.000000001
 43
0.00000001
 40
0.0
 40
0.0
 40
0.0
 40
0.0
 40
1.0
 40
1.0
 40
1.0
 40
1.0
 10
164.5490091894209
 20
158.9491189474925
 30
0.0
 10
164.705491552922
 20
159.203339205168
 30
0.0
 10
164.8607178413995
 20
159.4609729915154
 30
0.0
 10
165.0147203144735
 20
159.7220981261669
 30
0.0
  0
LWPOLYLINE
  5
168
330
1F
100
AcDbEntity
  8
0
  6
HIDDEN
 62
     7
370
     0
100
AcDbPolyline
 90
       13
 70
   128
 43
0.0
 10
165.0147198577
 20
163.7888674682
 10
165.8524398569
 20
163.6157159751
 10
166.5973377292
 20
163.357439736
 10
167.2153252054
 20
163.0258553719
 10
167.6781226758
 20
162.6361378526
 10
167.9645537276
 20
162.2061220055
 10
168.0615090643
 20
161.7554829513
 10
167.9645537276
 20
161.3048438971
 10
167.6781226758
 20
160.8748280501
 10
167.2153252054
 20
160.4851105308
 10
166.5973377292
 20
160.1535261666
 10
165.8524398569
 20
159.8952499276
 10
165.0147198577
 20
159.7220984345
  0
SPLINE
  5
169
330
1F
100
AcDbEntity
  8
0
  6
HIDDEN
 62
     7
370
     0
100
AcDbSpline
210
0.0
220
0.0
230
1.0
 70
     8
 71
     3
 72
     8
 73
     4
 74
     0
 42
0.000000001
 43
0.00000001
 40
0.0
 40
0.0
 40
0.0
 40
0.0
 40
1.0
 40
1.0
 40
1.0
 40
1.0
 10
165.0147203144735
 20
159.7220981261669
 30
0.0
 10
165.3409791506857
 20
159.9459218554966
 30
0.0
 10
165.6728175597286
 20
160.1784877028
 30
0.0
 10
166.008206993991
 20
160.4154079746195
 30
0.0
  0
SPLINE
  5
16A
330
1F
100
AcDbEntity
  8
0
  6
HIDDEN
 62
     7
370
     0
100
AcDbSpline
210
0.0
220
0.0
230
1.0
 70
     8
 71
     3
 72
     8
 73
     4
 74
     0
 42
0.000000001
 43
0.00000001
 40
0.0
 40
0.0
 40
0.0
 40
0.0
 40
1.0
 40
1.0
 40
1.0
 40
1.0
 10
115.9536909321777
 20
146.289384722064
 30
0.0
 10
115.9257427120581
 20
146.3972010760395
 30
0.0
 10
115.8977826238894
 20
146.5047949262057
 30
0.0
 10
115.8698104363552
 20
146.6121642069904
 30
0.0
  0
SPLINE
  5
16B
330
1F
100
AcDbEntity
  8
0
  6
HIDDEN
 62
     7
370
     0
100
AcDbSpline
210
0.0
220
0.0
230
1.0
 70
     8
 71
     3
 72
     8
 73
     4
 74
     0
 42
0.000000001
 43
0.00000001
 40
0.0
 40
0.0
 40
0.0
 40
0.0
 40
1.0
 40
1.0
 40
1.0
 40
1.0
 10
122.3779700866534
 20
144.2918840443273
 30
0.0
 10
122.406974793081
 20
144.4158217711896
 30
0.0
 10
122.4260073127624
 20
144.5437739014229
 30
0.0
 10
122.434258904954
 20
144.6748432141144
 30
0.0
  0
SPLINE
  5
16C
330
1F
100
AcDbEntity
  8
0
  6
HIDDEN
 62
     7
370
     0
100
AcDbSpline
210
0.0
220
0.0
230
1.0
 70
     8
 71
     3
 72
     8
 73
     4
 74
     0
 42
0.000000001
 43
0.00000001
 40
0.0
 40
0.0
 40
0.0
 40
0.0
 40
1.0
 40
1.0
 40
1.0
 40
1.0
 10
115.765435105028
 20
127.7103027225219
 30
0.0
 10
115.798832208648
 20
127.81238770601
 30
0.0
 10
115.8322267114672
 20
127.9145816500619
 30
0.0
 10
115.8656186418139
 20
128.0168838495443
 30
0.0
  0
SPLINE
  5
16D
330
1F
100
AcDbEntity
  8
0
  6
HIDDEN
 62
     7
370
     0
100
AcDbSpline
210
0.0
220
0.0
230
1.0
 70
     8
 71
     3
 72
     8
 73
     4
 74
     0
 42
0.000000001
 43
0.00000001
 40
0.0
 40
0.0
 40
0.0
 40
0.0
 40
1.0
 40
1.0
 40
1.0
 40
1.0
 10
127.8603393058625
 20
144.6703303935258
 30
0.0
 10
127.5910429757885
 20
144.573641008331
 30
0.0
 10
127.3548822903607
 20
144.4456418389487
 30
0.0
 10
127.1456847741654
 20
144.2921652412957
 30
0.0
  0
SPLINE
  5
16E
330
1F
100
AcDbEntity
  8
0
  6
HIDDEN
 62
     7
370
     0
100
AcDbSpline
210
0.0
220
0.0
230
1.0
 70
     8
 71
     3
 72
     8
 73
     4
 74
     0
 42
0.000000001
 43
0.00000001
 40
0.0
 40
0.0
 40
0.0
 40
0.0
 40
1.0
 40
1.0
 40
1.0
 40
1.0
 10
127.1461717895733
 20
128.1665936463256
 30
0.0
 10
127.3556369396426
 20
128.0128623301574
 30
0.0
 10
127.5919369578597
 20
127.884474129475
 30
0.0
 10
127.8617556386702
 20
127.7877412860075
 30
0.0
  0
LINE
  5
16F
330
1F
100
AcDbEntity
  8
0
  6
HIDDEN
 62
     7
370
     0
100
AcDbLine
 10
160.7990090613
 20
138.4244424348
 30
0.0
 11
160.7990090613
 21
134.0343256538
 31
0.0
  0
LINE
  5
170
330
1F
100
AcDbEntity
  8
0
  6
HIDDEN
 62
     7
370
     0
100
AcDbLine
 10
164.5490092103
 20
139.8958920558
 30
0.0
 11
164.5490092103
 21
132.5628760328
 31
0.0
  0
LINE
  5
171
330
1F
100
AcDbEntity
  8
0
  6
HIDDEN
 62
     7
370
     0
100
AcDbLine
 10
122.0383730594
 20
144.4368067255
 30
0.0
 11
122.2105299
 21
145.2089765166
 31
0.0
  0
SPLINE
  5
172
330
1F
100
AcDbEntity
  8
0
  6
HIDDEN
 62
     7
370
     0
100
AcDbSpline
210
0.0
220
0.0
230
1.0
 70
     8
 71
     3
 72
    11
 73
     7
 74
     0
 42
0.000000001
 43
0.00000001
 40
0.0
 40
0.0
 40
0.0
 40
0.0
 40
0.239284509383631
 40
0.5001120454057238
 40
0.7515010915050501
 40
1.0
 40
1.0
 40
1.0
 40
1.0
 10
127.4474409004019
 20
144.2913124719342
 30
0.0
 10
127.3786312674196
 20
144.3629081700402
 30
0.0
 10
127.2348170005326
 20
144.5125453994383
 30
0.0
 10
127.027115267721
 20
144.7416019279453
 30
0.0
 10
126.8191749559977
 20
144.9740639153012
 30
0.0
 10
126.6862067463611
 20
145.1289329066917
 30
0.0
 10
126.6201070241022
 20
145.2059197093674
 30
0.0
  0
SPLINE
  5
173
330
1F
100
AcDbEntity
  8
0
  6
HIDDEN
 62
     7
370
     0
100
AcDbSpline
210
0.0
220
0.0
230
1.0
 70
     8
 71
     3
 72
    14
 73
    10
 74
     0
 42
0.000000001
 43
0.00000001
 40
0.0
 40
0.0
 40
0.0
 40
0.0
 40
0.0310276388093398
 40
0.0622853718693698
 40
0.1248003166924349
 40
0.2498289731770658
 40
0.4998892603621822
 40
0.7606803621577949
 40
1.0
 40
1.0
 40
1.0
 40
1.0
 10
126.6187483380858
 20
127.2534076950962
 30
0.0
 10
126.6270383636254
 20
127.2629755396534
 30
0.0
 10
126.6436798917388
 20
127.2821821818312
 30
0.0
 10
126.6769297481179
 20
127.3207708098273
 30
0.0
 10
126.7354322937182
 20
127.3883007027349
 30
0.0
 10
126.8529685875683
 20
127.5231382204584
 30
0.0
 10
127.0258961113168
 20
127.7180715701889
 30
0.0
 10
127.2335436334686
 20
127.9463605939844
 30
0.0
 10
127.3773542169795
 20
128.0959302199971
 30
0.0
 10
127.4461723687125
 20
128.1675042652886
 30
0.0
  0
LINE
  5
174
330
1F
100
AcDbEntity
  8
0
  6
HIDDEN
 62
     7
370
     0
100
AcDbLine
 10
224.77400609
 20
142.7293841784
 30
0.0
 11
226.7740101431
 21
140.7293838506
 31
0.0
  0
LINE
  5
175
330
1F
100
AcDbEntity
  8
0
  6
HIDDEN
 62
     7
370
     0
100
AcDbLine
 10
234.7740114544
 20
140.7293838506
 30
0.0
 11
236.7740080569
 21
142.7293841784
 31
0.0
  0
LINE
  5
176
330
1F
100
AcDbEntity
  8
0
  6
HIDDEN
 62
     7
370
     0
100
AcDbLine
 10
236.7740080569
 20
156.3293834274
 30
0.0
 11
236.1099154566
 21
156.9934778904
 31
0.0
  0
LINE
  5
177
330
1F
100
AcDbEntity
  8
0
  6
HIDDEN
 62
     7
370
     0
100
AcDbLine
 10
225.4384041641
 20
156.9937796389
 30
0.0
 11
224.77400609
 21
156.3293834274
 31
0.0
  0
LINE
  5
178
330
1F
100
AcDbEntity
  8
0
  6
HIDDEN
 62
     7
370
     0
100
AcDbLine
 10
224.77400609
 20
156.3293834274
 30
0.0
 11
224.77400609
 21
142.7293841784
 31
0.0
  0
LINE
  5
179
330
1F
100
AcDbEntity
  8
0
  6
HIDDEN
 62
     7
370
     0
100
AcDbLine
 10
236.7740080569
 20
142.7293841784
 30
0.0
 11
236.7740080569
 21
156.3293834274
 31
0.0
  0
LINE
  5
17A
330
1F
100
AcDbEntity
  8
0
  6
HIDDEN
 62
     7
370
     0
100
AcDbLine
 10
233.5240126465
 20
140.7293838506
 30
0.0
 11
230.7740107987
 21
142.3170974535
 31
0.0
  0
LINE
  5
17B
330
1F
100
AcDbEntity
  8
0
  6
HIDDEN
 62
     7
370
     0
100
AcDbLine
 10
230.7740107987
 20
142.3170974535
 30
0.0
 11
228.024008951
 21
140.7293838506
 31
0.0
  0
LINE
  5
17C
330
1F
100
AcDbEntity
  8
0
  6
HIDDEN
 62
     7
370
     0
100
AcDbLine
 10
152.7740091894
 20
109.3793840205
 30
0.0
 11
153.1080478796
 21
110.4388193285
 31
0.0
  0
LINE
  5
17D
330
1F
100
AcDbEntity
  8
0
  6
HIDDEN
 62
     7
370
     0
100
AcDbLine
 10
153.1080478796
 20
162.0199487602
 30
0.0
 11
152.7740091894
 21
163.0793840682
 31
0.0
  0
ARC
  5
17E
330
1F
100
AcDbEntity
  8
0
  6
HIDDEN
 62
     7
370
     0
100
AcDbCircle
 10
152.3450743149
 20
110.6793840443
 30
0.0
 40
0.8000000000000139
100
AcDbArc
 50
342.5
 51
0.0
  0
ARC
  5
17F
330
1F
100
AcDbEntity
  8
0
  6
HIDDEN
 62
     7
370
     0
100
AcDbCircle
 10
152.3450743149
 20
110.6793840443
 30
0.0
 40
0.8000000000000235
100
AcDbArc
 50
0.0
 51
57.576802718
  0
ARC
  5
180
330
1F
100
AcDbEntity
  8
0
  6
HIDDEN
 62
     7
370
     0
100
AcDbCircle
 10
152.3450743149
 20
161.7793840443
 30
0.0
 40
0.8000000000000181
100
AcDbArc
 50
346.5625
 51
17.5
  0
ARC
  5
181
330
1F
100
AcDbEntity
  8
0
  6
HIDDEN
 62
     7
370
     0
100
AcDbCircle
 10
152.3450743149
 20
161.7793840443
 30
0.0
 40
0.8000000000000126
100
AcDbArc
 50
302.423197282
 51
346.5625
  0
LINE
  5
182
330
1F
100
AcDbEntity
  8
0
  6
HIDDEN
 62
     7
370
     0
100
AcDbLine
 10
153.1450743257
 20
110.6793836748
 30
0.0
 11
153.1450743257
 21
161.7793844139
 31
0.0
  0
ARC
  5
183
330
1F
100
AcDbEntity
  8
0
  6
HIDDEN
 62
     7
370
     0
100
AcDbCircle
 10
145.9740091894
 20
118.7793840443
 30
0.0
 40
0.8000000000000114
100
AcDbArc
 50
270.0
 51
0.0
  0
ARC
  5
184
330
1F
100
AcDbEntity
  8
0
  6
HIDDEN
 62
     7
370
     0
100
AcDbCircle
 10
145.9740091894
 20
153.6793840443
 30
0.0
 40
0.8000000000000114
100
AcDbArc
 50
0.0
 51
90.0
  0
LINE
  5
185
330
1F
100
AcDbEntity
  8
0
  6
HIDDEN
 62
     7
370
     0
100
AcDbLine
 10
144.5492499385
 20
117.9793843125
 30
0.0
 11
145.9740090993
 21
117.9793843125
 31
0.0
  0
LINE
  5
186
330
1F
100
AcDbEntity
  8
0
  6
HIDDEN
 62
     7
370
     0
100
AcDbLine
 10
145.9740090993
 20
154.4793837761
 30
0.0
 11
144.5492499385
 21
154.4793837761
 31
0.0
  0
ARC
  5
187
330
1F
100
AcDbEntity
  8
0
  6
HIDDEN
 62
     7
370
     0
100
AcDbCircle
 10
144.549249663
 20
118.7793840443
 30
0.0
 40
0.799999999999983
100
AcDbArc
 50
240.0
 51
270.0
  0
ARC
  5
188
330
1F
100
AcDbEntity
  8
0
  6
HIDDEN
 62
     7
370
     0
100
AcDbCircle
 10
144.549249663
 20
153.6793840443
 30
0.0
 40
0.799999999999983
100
AcDbArc
 50
90.0
 51
120.0
  0
LINE
  5
189
330
1F
100
AcDbEntity
  8
0
  6
HIDDEN
 62
     7
370
     0
100
AcDbLine
 10
144.1492496867
 20
154.3722034489
 30
0.0
 11
143.2740094949
 21
153.8668845837
 31
0.0
  0
LINE
  5
18A
330
1F
100
AcDbEntity
  8
0
  6
HIDDEN
 62
     7
370
     0
100
AcDbLine
 10
143.2740094949
 20
118.5918835049
 30
0.0
 11
144.1492496867
 21
118.0865646397
 31
0.0
  0
LINE
  5
18B
330
1F
100
AcDbEntity
  8
0
  6
HIDDEN
 62
     7
370
     0
100
AcDbLine
 10
112.8240109299
 20
115.9918841963
 30
0.0
 11
113.5756739293
 21
117.2938079631
 31
0.0
  0
LINE
  5
18C
330
1F
100
AcDbEntity
  8
0
  6
HIDDEN
 62
     7
370
     0
100
AcDbLine
 10
138.2491796155
 20
118.5918835049
 30
0.0
 11
143.2740094949
 21
118.5918835049
 31
0.0
  0
LINE
  5
18D
330
1F
100
AcDbEntity
  8
0
  6
HIDDEN
 62
     7
370
     0
100
AcDbLine
 10
115.824009559
 20
118.5918835049
 30
0.0
 11
119.7132387076
 21
118.5918835049
 31
0.0
  0
LINE
  5
18E
330
1F
100
AcDbEntity
  8
0
  6
HIDDEN
 62
     7
370
     0
100
AcDbLine
 10
119.7132387076
 20
153.8668845837
 30
0.0
 11
115.824009559
 21
153.8668845837
 31
0.0
  0
LINE
  5
18F
330
1F
100
AcDbEntity
  8
0
  6
HIDDEN
 62
     7
370
     0
100
AcDbLine
 10
143.2740094949
 20
153.8668845837
 30
0.0
 11
138.2496024359
 21
153.8668845837
 31
0.0
  0
LINE
  5
190
330
1F
100
AcDbEntity
  8
0
  6
HIDDEN
 62
     7
370
     0
100
AcDbLine
 10
113.5756739293
 20
155.1649601256
 30
0.0
 11
112.8240109299
 21
156.4668838923
 31
0.0
  0
LINE
  5
191
330
1F
100
AcDbEntity
  8
0
  6
HIDDEN
 62
     7
370
     0
100
AcDbLine
 10
113.5756739293
 20
117.2938079631
 30
0.0
 11
115.824009559
 21
118.5918835049
 31
0.0
  0
LINE
  5
192
330
1F
100
AcDbEntity
  8
0
  6
HIDDEN
 62
     7
370
     0
100
AcDbLine
 10
115.824009559
 20
153.8668845837
 30
0.0
 11
113.5756739293
 21
155.1649601256
 31
0.0
  0
LINE
  5
193
330
1F
100
AcDbEntity
  8
0
  6
HIDDEN
 62
     7
370
     0
100
AcDbLine
 10
146.7740091373
 20
120.6793843826
 30
0.0
 11
150.4740091384
 21
120.6793843826
 31
0.0
  0
LINE
  5
194
330
1F
100
AcDbEntity
  8
0
  6
HIDDEN
 62
     7
370
     0
100
AcDbLine
 10
150.4740091384
 20
151.7793837061
 30
0.0
 11
146.7740091373
 21
151.7793837061
 31
0.0
  0
ARC
  5
195
330
1F
100
AcDbEntity
  8
0
  6
HIDDEN
 62
     7
370
     0
100
AcDbCircle
 10
150.4740091894
 20
121.8793840443
 30
0.0
 40
1.200000000000017
100
AcDbArc
 50
270.0
 51
0.0
  0
ARC
  5
196
330
1F
100
AcDbEntity
  8
0
  6
HIDDEN
 62
     7
370
     0
100
AcDbCircle
 10
150.4740091894
 20
150.5793840443
 30
0.0
 40
1.200000000000017
100
AcDbArc
 50
0.0
 51
90.0
  0
LINE
  5
197
330
1F
100
AcDbEntity
  8
0
  6
HIDDEN
 62
     7
370
     0
100
AcDbLine
 10
122.3744426731
 20
159.7027716284
 30
0.0
 11
123.1240325485
 21
158.8936590647
 31
0.0
  0
LINE
  5
198
330
1F
100
AcDbEntity
  8
0
  6
HIDDEN
 62
     7
370
     0
100
AcDbLine
 10
137.624022818
 20
159.6930355822
 30
0.0
 11
138.2923529361
 21
160.502148146
 31
0.0
  0
LINE
  5
199
330
1F
100
AcDbEntity
  8
0
  6
HIDDEN
 62
     7
370
     0
100
AcDbLine
 10
138.2926192943
 20
111.9566013163
 30
0.0
 11
137.6240405132
 21
112.765823776
 31
0.0
  0
LINE
  5
19A
330
1F
100
AcDbEntity
  8
0
  6
HIDDEN
 62
     7
370
     0
100
AcDbLine
 10
123.12401951
 20
113.5652282333
 30
0.0
 11
122.3741688643
 21
112.7560057735
 31
0.0
  0
LINE
  5
19B
330
1F
100
AcDbEntity
  8
0
  6
HIDDEN
 62
     7
370
     0
100
AcDbLine
 10
137.6240079169
 20
118.1231581663
 30
0.0
 11
138.2499535446
 21
118.5918835049
 31
0.0
  0
LINE
  5
19C
330
1F
100
AcDbEntity
  8
0
  6
HIDDEN
 62
     7
370
     0
100
AcDbLine
 10
138.2499619265
 20
153.8668864464
 30
0.0
 11
137.6240153674
 21
154.335611785
 31
0.0
  0
LINE
  5
19D
330
1F
100
AcDbEntity
  8
0
  6
HIDDEN
 62
     7
370
     0
100
AcDbLine
 10
119.6965121542
 20
118.5883072262
 30
0.0
 11
123.1275026564
 21
113.688347215
 31
0.0
  0
LINE
  5
19E
330
1F
100
AcDbEntity
  8
0
  6
HIDDEN
 62
     7
370
     0
100
AcDbLine
 10
123.1275026564
 20
158.7704208737
 30
0.0
 11
119.6965121542
 21
153.8704608624
 31
0.0
  0
LINE
  5
19F
330
1F
100
AcDbEntity
  8
0
  6
HIDDEN
 62
     7
370
     0
100
AcDbLine
 10
137.6240088482
 20
154.3354534601
 30
0.0
 11
137.6240088482
 21
159.6915640926
 31
0.0
  0
LINE
  5
1A0
330
1F
100
AcDbEntity
  8
0
  6
HIDDEN
 62
     7
370
     0
100
AcDbLine
 10
123.1240083341
 20
158.8922956084
 30
0.0
 11
123.1240083341
 21
158.7571905052
 31
0.0
  0
LINE
  5
1A1
330
1F
100
AcDbEntity
  8
0
  6
HIDDEN
 62
     7
370
     0
100
AcDbLine
 10
137.6240088482
 20
112.7677683776
 30
0.0
 11
137.6240088482
 21
118.1234897172
 31
0.0
  0
LINE
  5
1A2
330
1F
100
AcDbEntity
  8
0
  6
HIDDEN
 62
     7
370
     0
100
AcDbLine
 10
123.1240083341
 20
113.7015775835
 30
0.0
 11
123.1240083341
 21
113.5666773712
 31
0.0
  0
LINE
  5
1A3
330
1F
100
AcDbEntity
  8
0
  6
HIDDEN
 62
     7
370
     0
100
AcDbLine
 10
235.8990118716
 20
156.2293835973
 30
0.0
 11
236.8990064476
 21
157.2293837612
 31
0.0
  0
LINE
  5
1A4
330
1F
100
AcDbEntity
  8
0
  6
HIDDEN
 62
     7
370
     0
100
AcDbLine
 10
224.6490076993
 20
157.2293837612
 30
0.0
 11
225.6490097259
 21
156.2293835973
 31
0.0
  0
ARC
  5
1A5
330
1F
100
AcDbEntity
  8
0
  6
HIDDEN
 62
     7
370
     0
100
AcDbCircle
 10
252.4740091894
 20
129.9293840443
 30
0.0
 40
0.3000000000000398
100
AcDbArc
 50
0.0
 51
90.0
  0
ARC
  5
1A6
330
1F
100
AcDbEntity
  8
0
  6
HIDDEN
 62
     7
370
     0
100
AcDbCircle
 10
252.4740091894
 20
142.5293840443
 30
0.0
 40
0.2999999999999829
100
AcDbArc
 50
270.0
 51
0.0
  0
ARC
  5
1A7
330
1F
100
AcDbEntity
  8
0
  6
HIDDEN
 62
     7
370
     0
100
AcDbCircle
 10
209.8792351713
 20
130.3293840443
 30
0.0
 40
0.4000000000000057
100
AcDbArc
 50
270.0
 51
290.0
  0
ARC
  5
1A8
330
1F
100
AcDbEntity
  8
0
  6
HIDDEN
 62
     7
370
     0
100
AcDbCircle
 10
209.8792351713
 20
142.1293840443
 30
0.0
 40
0.4000000000000038
100
AcDbArc
 50
70.0
 51
90.0
  0
LINE
  5
1A9
330
1F
100
AcDbEntity
  8
0
  6
HIDDEN
 62
     7
370
     0
100
AcDbLine
 10
207.1740099106
 20
129.9293840361
 30
0.0
 11
209.879233769
 21
129.9293840361
 31
0.0
  0
LINE
  5
1AA
330
1F
100
AcDbEntity
  8
0
  6
HIDDEN
 62
     7
370
     0
100
AcDbLine
 10
209.879233769
 20
142.5293840525
 30
0.0
 11
207.1740099106
 21
142.5293840525
 31
0.0
  0
ARC
  5
1AB
330
1F
100
AcDbEntity
  8
0
  6
HIDDEN
 62
     7
370
     0
100
AcDbCircle
 10
207.1740091894
 20
130.3293840443
 30
0.0
 40
0.4000000000000057
100
AcDbArc
 50
180.0
 51
270.0
  0
ARC
  5
1AC
330
1F
100
AcDbEntity
  8
0
  6
HIDDEN
 62
     7
370
     0
100
AcDbCircle
 10
207.1740091894
 20
142.1293840443
 30
0.0
 40
0.4000000000000057
100
AcDbArc
 50
90.0
 51
180.0
  0
LINE
  5
1AD
330
1F
100
AcDbEntity
  8
0
  6
HIDDEN
 62
     7
370
     0
100
AcDbLine
 10
210.0160450552
 20
129.9535071535
 30
0.0
 11
210.7740075205
 21
130.2293839922
 31
0.0
  0
LINE
  5
1AE
330
1F
100
AcDbEntity
  8
0
  6
HIDDEN
 62
     7
370
     0
100
AcDbLine
 10
210.7740075205
 20
142.2293840965
 30
0.0
 11
210.0160450552
 21
142.5052609352
 31
0.0
  0
LINE
  5
1AF
330
1F
100
AcDbEntity
  8
0
  6
HIDDEN
 62
     7
370
     0
100
AcDbLine
 10
210.7740075205
 20
130.2293839922
 30
0.0
 11
252.4740056012
 21
130.2293839922
 31
0.0
  0
LINE
  5
1B0
330
1F
100
AcDbEntity
  8
0
  6
HIDDEN
 62
     7
370
     0
100
AcDbLine
 10
225.689511082
 20
142.2293840965
 30
0.0
 11
210.7740075205
 21
142.2293840965
 31
0.0
  0
LINE
  5
1B1
330
1F
100
AcDbEntity
  8
0
  6
HIDDEN
 62
     7
370
     0
100
AcDbLine
 10
252.4740056012
 20
142.2293840965
 30
0.0
 11
235.8493761037
 21
142.2293840965
 31
0.0
  0
LINE
  5
1B2
330
1F
100
AcDbEntity
  8
0
  6
HIDDEN
 62
     7
370
     0
100
AcDbLine
 10
155.499009217
 20
130.4793840332
 30
0.0
 11
156.3240092125
 21
130.4793840332
 31
0.0
  0
LINE
  5
1B3
330
1F
100
AcDbEntity
  8
0
  6
HIDDEN
 62
     7
370
     0
100
AcDbLine
 10
156.3240092125
 20
141.9793840555
 30
0.0
 11
155.499009217
 21
141.9793840555
 31
0.0
  0
LINE
  5
1B4
330
1F
100
AcDbEntity
  8
0
  6
HIDDEN
 62
     7
370
     0
100
AcDbLine
 10
151.6740091954
 20
130.9984440973
 30
0.0
 11
152.0740092144
 21
131.2293841561
 31
0.0
  0
LINE
  5
1B5
330
1F
100
AcDbEntity
  8
0
  6
HIDDEN
 62
     7
370
     0
100
AcDbLine
 10
152.0740092144
 20
141.2293839326
 30
0.0
 11
151.6740091954
 21
141.4603239914
 31
0.0
  0
LINE
  5
1B6
330
1F
100
AcDbEntity
  8
0
  6
HIDDEN
 62
     7
370
     0
100
AcDbLine
 10
235.8990118716
 20
142.1870433783
 30
0.0
 11
235.8990118716
 21
156.3294989114
 31
0.0
  0
LINE
  5
1B7
330
1F
100
AcDbEntity
  8
0
  6
HIDDEN
 62
     7
370
     0
100
AcDbLine
 10
225.6490097259
 20
156.3294989114
 30
0.0
 11
225.6490097259
 21
142.1949195733
 31
0.0
  0
LINE
  5
1B8
330
1F
100
AcDbEntity
  8
0
  6
HIDDEN
 62
     7
370
     0
100
AcDbLine
 10
152.0740092144
 20
131.2293841561
 30
0.0
 11
155.499009217
 21
131.2293841561
 31
0.0
  0
LINE
  5
1B9
330
1F
100
AcDbEntity
  8
0
  6
HIDDEN
 62
     7
370
     0
100
AcDbLine
 10
155.499009217
 20
141.2293839326
 30
0.0
 11
152.0740092144
 21
141.2293839326
 31
0.0
  0
LINE
  5
1BA
330
1F
100
AcDbEntity
  8
0
  6
HIDDEN
 62
     7
370
     0
100
AcDbLine
 10
156.3240092125
 20
132.2293838543
 30
0.0
 11
206.7740105901
 21
132.2293838543
 31
0.0
  0
LINE
  5
1BB
330
1F
100
AcDbEntity
  8
0
  6
HIDDEN
 62
     7
370
     0
100
AcDbLine
 10
206.7740105901
 20
140.2293842343
 30
0.0
 11
156.3240092125
 21
140.2293842343
 31
0.0
  0
LINE
  5
1BC
330
1F
100
AcDbEntity
  8
0
  6
HIDDEN
 62
     7
370
     0
100
AcDbLine
 10
167.5615089823
 20
108.9745958393
 30
0.0
 11
167.5615089823
 21
120.1429621374
 31
0.0
  0
LINE
  5
1BD
330
1F
100
AcDbEntity
  8
0
  6
HIDDEN
 62
     7
370
     0
100
AcDbLine
 10
160.0865091075
 20
120.1429621374
 30
0.0
 11
160.0865091075
 21
110.1104517525
 31
0.0
  0
LINE
  5
1BE
330
1F
100
AcDbEntity
  8
0
  6
HIDDEN
 62
     7
370
     0
100
AcDbLine
 10
164.8592672188
 20
121.9385921081
 30
0.0
 11
163.8240090449
 21
122.0878095423
 31
0.0
  0
LINE
  5
1BF
330
1F
100
AcDbEntity
  8
0
  6
HIDDEN
 62
     7
370
     0
100
AcDbLine
 10
163.8240090449
 20
122.0878095423
 30
0.0
 11
162.7887518023
 21
121.9385921081
 31
0.0
  0
LINE
  5
1C0
330
1F
100
AcDbEntity
  8
0
  6
HIDDEN
 62
     7
370
     0
100
AcDbLine
 10
162.6502557535
 20
152.7914323901
 30
0.0
 11
163.8240090449
 21
152.6222520565
 31
0.0
  0
LINE
  5
1C1
330
1F
100
AcDbEntity
  8
0
  6
HIDDEN
 62
     7
370
     0
100
AcDbLine
 10
163.8240090449
 20
152.6222520565
 30
0.0
 11
164.9977632676
 21
152.7914323901
 31
0.0
  0
LINE
  5
1C2
330
1F
100
AcDbEntity
  8
0
  6
HIDDEN
 62
     7
370
     0
100
AcDbLine
 10
159.5865090255
 20
161.7554829513
 30
0.0
 11
159.5865090255
 21
154.8272793239
 31
0.0
  0
LINE
  5
1C3
330
1F
100
AcDbEntity
  8
0
  6
HIDDEN
 62
     7
370
     0
100
AcDbLine
 10
168.0615090643
 20
154.8272793239
 30
0.0
 11
168.0615090643
 21
161.7554829513
 31
0.0
  0
LINE
  5
1C4
330
1F
100
AcDbEntity
  8
0
  6
HIDDEN
 62
     7
370
     0
100
AcDbLine
 10
167.2839133878
 20
160.5322224145
 30
0.0
 11
168.7474858825
 21
161.5671248233
 31
0.0
  0
LINE
  5
1C5
330
1F
100
AcDbEntity
  8
0
  6
HIDDEN
 62
     7
370
     0
100
AcDbLine
 10
158.9159567718
 20
161.5562171733
 30
0.0
 11
160.364104702
 21
160.5322224145
 31
0.0
  0
DIMENSION
  5
1C6
330
1F
100
AcDbEntity
  8
VERMASSUNG
100
AcDbDimension
  2
_D
 10
259.4934291219
 20
130.2293840443
 30
0.0
 11
259.4934291219
 21
136.2293840443
 31
0.0
 70
   160
  1
%%c<>
 71
     2
 42
-1.0
  3
SLDDIMSTYLE0
100
AcDbAlignedDimension
 13
252.4740091894
 23
142.2293840443
 33
0.0
 14
252.4740091894
 24
130.2293840443
 34
0.0
 50
90.0
100
AcDbRotatedDimension
  0
DIMENSION
  5
1D2
330
1F
100
AcDbEntity
  8
VERMASSUNG
100
AcDbDimension
  2
_D_1
 10
265.4934291219
 20
115.2293840443
 30
0.0
 11
265.4934291219
 21
136.2293840443
 31
0.0
 70
   160
  1
%%c<>
 71
     2
 42
-1.0
  3
SLDDIMSTYLE0
100
AcDbAlignedDimension
 13
239.9069676664
 23
157.2293840443
 33
0.0
 14
239.9069676664
 24
115.2293840443
 34
0.0
 50
90.0
100
AcDbRotatedDimension
  0
DIMENSION
  5
1DD
330
1F
100
AcDbEntity
  8
VERMASSUNG
100
AcDbDimension
  2
_D_2
 10
252.7740091894
 20
172.8005191795
 30
0.0
 11
211.7740091894
 21
172.8005191795
 31
0.0
 70
   160
  1
<>
 71
     2
 42
-1.0
  3
SLDDIMSTYLE0
100
AcDbAlignedDimension
 13
170.7740091894
 23
167.7043840443
 33
0.0
 14
252.7740091894
 24
149.9552435227
 34
0.0
 50
0.0
100
AcDbRotatedDimension
  0
DIMENSION
  5
1E7
330
1F
100
AcDbEntity
  8
VERMASSUNG
100
AcDbDimension
  2
_D_3
 10
252.7740091894
 20
178.8005191795
 30
0.0
 11
202.7740091894
 21
178.8005191795
 31
0.0
 70
   160
  1
<>
 71
     2
 42
-1.0
  3
SLDDIMSTYLE0
100
AcDbAlignedDimension
 13
152.7740091894
 23
167.5043840443
 33
0.0
 14
252.7740091894
 24
149.9552435227
 34
0.0
 50
0.0
100
AcDbRotatedDimension
  0
DIMENSION
  5
1F1
330
1F
100
AcDbEntity
  8
VERMASSUNG
100
AcDbDimension
  2
_D_4
 10
252.7740091894
 20
184.8005191795
 30
0.0
 11
182.7990091894
 21
184.8005191795
 31
0.0
 70
   160
  1
<>
 71
     2
 42
-1.0
  3
SLDDIMSTYLE0
100
AcDbAlignedDimension
 13
112.8240091894
 23
158.4324787681
 33
0.0
 14
252.7740091894
 24
149.9552435227
 34
0.0
 50
0.0
100
AcDbRotatedDimension
  0
DIMENSION
  5
1FB
330
1F
100
AcDbEntity
  8
VERMASSUNG
100
AcDbDimension
  2
_D_5
 10
105.1423234817
 20
104.7543840443
 30
0.0
 11
105.1423234817
 21
136.2293840443
 31
0.0
 70
   160
  1
KM XMZ %%c<>
 71
     2
 42
-1.0
  3
SLDDIMSTYLE0
100
AcDbAlignedDimension
 13
152.9740091894
 23
167.7043840443
 33
0.0
 14
152.9740091894
 24
104.7543840443
 34
0.0
 50
90.0
100
AcDbRotatedDimension
  0
DIMENSION
  5
207
330
1F
100
AcDbEntity
  8
VERMASSUNG
100
AcDbDimension
  2
_D_6
 10
173.7740091894
 20
160.2293840443
 30
0.0
 11
176.5036819012
 21
162.9590567561
 31
0.0
 70
   164
  1
<>
 71
     1
 42
-1.0
  3
SLDDIMSTYLE1
100
AcDbRadialDimension
 15
171.6526888459
 25
158.1080637008
 35
0.0
 40
0.0
  0
LINE
  5
210
330
1F
100
AcDbEntity
  8
VERMASSUNG
  6
CENTERX2
370
     0
100
AcDbLine
 10
112.3859156083
 20
136.2293840443
 30
0.0
 11
254.7740091894
 21
136.2293840443
 31
0.0
  0
LINE
  5
211
330
1F
100
AcDbEntity
  8
0
  6
Continuous
 62
     7
370
    15
100
AcDbLine
 10
241.4557428468
 20
56.463142748
 30
0.0
 11
241.03140984
 21
56.7081846052
 31
0.0
  0
LINE
  5
212
330
1F
100
AcDbEntity
  8
0
  6
Continuous
 62
     7
370
    15
100
AcDbLine
 10
236.2223024302
 20
56.7081846052
 30
0.0
 11
235.9806684529
 21
56.5686469364
 31
0.0
  0
LINE
  5
213
330
1F
100
AcDbEntity
  8
0
  6
Continuous
 62
     7
370
    15
100
AcDbLine
 10
238.632728267
 20
28.6243766436
 30
0.0
 11
245.2721172012
 21
28.760553607
 31
0.0
  0
LINE
  5
214
330
1F
100
AcDbEntity
  8
0
  6
Continuous
 62
     7
370
    15
100
AcDbLine
 10
255.0508880875
 20
45.6997170112
 30
0.0
 11
251.8485803965
 21
51.5173845023
 31
0.0
  0
SPLINE
  5
215
330
1F
100
AcDbEntity
  8
0
  6
Continuous
 62
     7
370
    15
100
AcDbSpline
210
0.0
220
0.0
230
1.0
 70
     8
 71
     3
 72
    24
 73
    20
 74
     0
 42
0.000000001
 43
0.00000001
 40
0.0
 40
0.0
 40
0.0
 40
0.0
 40
0.0491009196691813
 40
0.1083552119491942
 40
0.1690793242401507
 40
0.230830543371172
 40
0.2930841877617891
 40
0.3554008134212757
 40
0.4175858953538603
 40
0.4796037993520502
 40
0.5414811609516595
 40
0.603273327087067
 40
0.6650479493145102
 40
0.7268698562546545
 40
0.788798400319947
 40
0.8509100194557843
 40
0.9132769529372503
 40
0.9759544730103633
 40
1.0
 40
1.0
 40
1.0
 40
1.0
 10
245.282157153193
 20
28.76935122536469
 30
0.0
 10
245.5282175370411
 20
28.78096606183709
 30
0.0
 10
246.0712200963371
 20
28.80659751795238
 30
0.0
 10
246.9318741108936
 20
29.01339179505032
 30
0.0
 10
247.8547175579155
 20
29.3543120048376
 30
0.0
 10
248.7847421366013
 20
29.83442023043856
 30
0.0
 10
249.705319917461
 20
30.44088290032953
 30
0.0
 10
250.6011356010262
 20
31.16374452829838
 30
0.0
 10
251.4586385427386
 20
31.98954623505895
 30
0.0
 10
252.2664526867035
 20
32.90503917020371
 30
0.0
 10
253.0144411079505
 20
33.8966779859164
 30
0.0
 10
253.6932283323757
 20
34.9506050845776
 30
0.0
 10
254.2940539487169
 20
36.05255559499132
 30
0.0
 10
254.8088268043257
 20
37.18792163354348
 30
0.0
 10
255.2300472522985
 20
38.3419139069789
 30
0.0
 10
255.5515054340221
 20
39.50014524138857
 30
0.0
 10
255.7655482125474
 20
40.64755078710178
 30
0.0
 10
255.8505186555564
 20
41.53983872052392
 30
0.0
 10
255.85693347099
 20
42.04222861513841
 30
0.0
 10
255.8587120941227
 20
42.18152526325471
 30
0.0
  0
SPLINE
  5
216
330
1F
100
AcDbEntity
  8
0
  6
Continuous
 62
     7
370
    15
100
AcDbSpline
210
0.0
220
0.0
230
1.0
 70
     8
 71
     3
 72
    12
 73
     8
 74
     0
 42
0.000000001
 43
0.00000001
 40
0.0
 40
0.0
 40
0.0
 40
0.0
 40
0.1481080289106411
 40
0.4260875723322021
 40
0.7039397487015298
 40
0.9784691665496421
 40
1.0
 40
1.0
 40
1.0
 40
1.0
 10
255.8587120941227
 20
42.18152526325471
 30
0.0
 10
255.855233995214
 20
42.37376103446798
 30
0.0
 10
255.8452279561677
 20
42.92679839290241
 30
0.0
 10
255.7383751231571
 20
43.80146120832501
 30
0.0
 10
255.4798019888789
 20
44.75625738742851
 30
0.0
 10
255.2465684565225
 20
45.3883593478879
 30
0.0
 10
255.0649613900602
 20
45.6660384862869
 30
0.0
 10
255.0517541071363
 20
45.68623256251053
 30
0.0
  0
LINE
  5
217
330
1F
100
AcDbEntity
  8
0
  6
Continuous
 62
     7
370
    15
100
AcDbLine
 10
204.7573673216
 20
47.2760150534
 30
0.0
 11
235.9327429209
 21
29.2788538003
 31
0.0
  0
LINE
  5
218
330
1F
100
AcDbEntity
  8
0
  6
Continuous
 62
     7
370
    15
100
AcDbLine
 10
249.9316051778
 20
53.5282219469
 30
0.0
 11
218.7562295785
 21
71.5253832001
 31
0.0
  0
LINE
  5
219
330
1F
100
AcDbEntity
  8
0
  6
Continuous
 62
     7
370
    15
100
AcDbLine
 10
197.605150151
 20
43.3414618002
 30
0.0
 11
199.8517708511
 21
42.0445152763
 31
0.0
  0
LINE
  5
21A
330
1F
100
AcDbEntity
  8
0
  6
Continuous
 62
     7
370
    15
100
AcDbLine
 10
220.8333989242
 20
78.3896992009
 30
0.0
 11
218.5867782241
 21
79.6866457247
 31
0.0
  0
LINE
  5
21B
330
1F
100
AcDbEntity
  8
0
  6
Continuous
 62
     7
370
    15
100
AcDbLine
 10
191.460770381
 20
46.8885367398
 30
0.0
 11
194.4616383144
 21
45.1561725562
 31
0.0
  0
LINE
  5
21C
330
1F
100
AcDbEntity
  8
0
  6
Continuous
 62
     7
370
    15
100
AcDbLine
 10
215.4432663875
 20
81.5013564808
 30
0.0
 11
212.4423984541
 21
83.2337206643
 31
0.0
  0
LINE
  5
21D
330
1F
100
AcDbEntity
  8
0
  6
Continuous
 62
     7
370
    15
100
AcDbLine
 10
203.4058799569
 20
82.9402300448
 30
0.0
 11
191.1429298816
 21
89.0477669236
 31
0.0
  0
LINE
  5
21E
330
1F
100
AcDbEntity
  8
0
  6
Continuous
 62
     7
370
    15
100
AcDbLine
 10
175.7744662661
 20
62.425922575
 30
0.0
 11
187.195933349
 21
54.8607364603
 31
0.0
  0
LINE
  5
21F
330
1F
100
AcDbEntity
  8
0
  6
Continuous
 62
     7
370
    15
100
AcDbLine
 10
182.4137163305
 20
63.6879092918
 30
0.0
 11
182.4137163305
 21
63.2008172695
 31
0.0
  0
LINE
  5
220
330
1F
100
AcDbEntity
  8
0
  6
Continuous
 62
     7
370
    15
100
AcDbLine
 10
187.6110049984
 20
89.5503915552
 30
0.0
 11
186.7582710617
 21
89.4341101346
 31
0.0
  0
LWPOLYLINE
  5
221
330
1F
100
AcDbEntity
  8
0
  6
Continuous
 62
     7
370
    15
100
AcDbPolyline
 90
       29
 70
   128
 43
0.0
 10
241.0310191911
 20
56.7084101586
 10
240.4357651953
 20
56.982448186
 10
239.7498049458
 20
57.1731500125
 10
239.0075353539
 20
57.2709530521
 10
238.2461769164
 20
57.2709530521
 10
237.5039073245
 20
57.1731500125
 10
236.817947075
 20
56.982448186
 10
236.2226930791
 20
56.7084101586
 10
235.7479938577
 20
56.3647773412
 10
235.4176528121
 20
55.9687809182
 10
235.2482346215
 20
55.5402778037
 10
235.2482346215
 20
55.1007549333
 10
235.4176528121
 20
54.6722518188
 10
235.7479938577
 20
54.2762553958
 10
236.2226930791
 20
53.9326225784
 10
236.817947075
 20
53.658584551
 10
237.5039073245
 20
53.4678827245
 10
238.2461769164
 20
53.3700796849
 10
239.0075353539
 20
53.3700796849
 10
239.7498049458
 20
53.4678827245
 10
240.4357651953
 20
53.658584551
 10
241.0310191911
 20
53.9326225784
 10
241.5057184125
 20
54.2762553958
 10
241.8360594582
 20
54.6722518188
 10
242.0054776488
 20
55.1007549333
 10
242.0054776488
 20
55.5402778037
 10
241.8360594582
 20
55.9687809182
 10
241.5057184125
 20
56.3647773412
 10
241.0310191911
 20
56.7084101586
  0
LWPOLYLINE
  5
222
330
1F
100
AcDbEntity
  8
0
  6
Continuous
 62
     7
370
    15
100
AcDbPolyline
 90
        9
 70
   128
 43
0.0
 10
234.6268561351
 20
54.8305918814
 10
234.6761027727
 20
54.4693611037
 10
234.8925344291
 20
54.0030662267
 10
235.2721738633
 20
53.5729381916
 10
235.7984290104
 20
53.1977756577
 10
236.4482999951
 20
52.8939750279
 10
237.1933843369
 20
52.6748138475
 10
238.001118275
 20
52.5498705118
 10
238.0350015631
 20
52.546858316
  0
ARC
  5
223
330
1F
100
AcDbEntity
  8
0
  6
Continuous
 62
     7
370
    15
100
AcDbCircle
 10
240.6456733459
 20
54.6457798362
 30
0.0
 40
1.989784092886271
100
AcDbArc
 50
5.3293391936
 51
65.990801764
  0
LINE
  5
224
330
1F
100
AcDbEntity
  8
0
  6
Continuous
 62
     7
370
    15
100
AcDbLine
 10
236.3961459918
 20
55.6655710372
 30
0.0
 11
236.9938629733
 21
54.3778094823
 31
0.0
  0
LINE
  5
225
330
1F
100
AcDbEntity
  8
0
  6
Continuous
 62
     7
370
    15
100
AcDbLine
 10
239.2245731166
 20
54.0327548136
 30
0.0
 11
236.9938629733
 21
54.3778094823
 31
0.0
  0
LINE
  5
226
330
1F
100
AcDbEntity
  8
0
  6
Continuous
 62
     7
370
    15
100
AcDbLine
 10
240.8575662784
 20
54.9754616998
 30
0.0
 11
239.2245731166
 21
54.0327548136
 31
0.0
  0
LINE
  5
227
330
1F
100
AcDbEntity
  8
0
  6
Continuous
 62
     7
370
    15
100
AcDbLine
 10
240.8575662784
 20
54.9754616998
 30
0.0
 11
240.259849297
 21
56.2632232548
 31
0.0
  0
LINE
  5
228
330
1F
100
AcDbEntity
  8
0
  6
Continuous
 62
     7
370
    15
100
AcDbLine
 10
238.0291391537
 20
56.6082779235
 30
0.0
 11
240.259849297
 21
56.2632232548
 31
0.0
  0
LINE
  5
229
330
1F
100
AcDbEntity
  8
0
  6
Continuous
 62
     7
370
    15
100
AcDbLine
 10
238.0291391537
 20
56.6082779235
 30
0.0
 11
236.3961459918
 21
55.6655710372
 31
0.0
  0
LINE
  5
22A
330
1F
100
AcDbEntity
  8
0
  6
Continuous
 62
     7
370
    15
100
AcDbLine
 10
240.259849297
 20
54.6304070311
 30
0.0
 11
240.259849297
 21
56.2632232548
 31
0.0
  0
LINE
  5
22B
330
1F
100
AcDbEntity
  8
0
  6
Continuous
 62
     7
370
    15
100
AcDbLine
 10
238.0291391537
 20
54.2176690532
 30
0.0
 11
238.0291391537
 21
56.6082779235
 31
0.0
  0
LWPOLYLINE
  5
22C
330
1F
100
AcDbEntity
  8
0
  6
Continuous
 62
     7
370
    15
100
AcDbPolyline
 90
       36
 70
   128
 43
0.0
 10
238.632728267
 20
28.6243766436
 10
237.982426581
 20
28.6460782737
 10
237.0693441643
 20
28.807836913
 10
236.2274285604
 20
29.1224902993
 10
235.4668994842
 20
29.5862189669
 10
234.7969887285
 20
30.1933938778
 10
234.2258281024
 20
30.9366447511
 10
233.7603507221
 20
31.8069495281
 10
233.4062068526
 20
32.7937438878
 10
233.1676953206
 20
33.8850494833
 10
233.0477113331
 20
35.067619343
 10
233.0477113331
 20
36.3270986709
 10
233.1676953206
 20
37.6481990939
 10
233.4062068526
 20
39.0148842426
 10
233.7603507221
 20
40.4105644107
 10
234.2258281024
 20
41.8182979314
 10
234.7969887285
 20
43.2209968269
 10
235.4668994842
 20
44.6016342327
 10
236.2274285604
 20
45.943451081
 10
237.0693441643
 20
47.2301595328
 10
237.982426581
 20
48.4461406907
 10
238.9555922269
 20
49.5766341905
 10
239.9770281893
 20
50.6079173726
 10
241.0343356193
 20
51.5274718562
 10
242.114680237
 20
52.3241354955
 10
243.2049481221
 20
52.988237873
 10
244.2919048995
 20
53.5117176857
 10
245.3623563863
 20
53.8882205976
 10
246.4033087516
 20
54.1131763734
 10
247.4021262437
 20
54.1838543547
 10
248.3466845713
 20
54.0993966067
 10
249.2255180758
 20
53.8608283319
 10
250.0279589091
 20
53.471045426
 10
250.7442665264
 20
52.9347793255
 10
251.3657459235
 20
52.2585395745
 10
251.8485803965
 20
51.5173845023
  0
SPLINE
  5
22D
330
1F
100
AcDbEntity
  8
0
  6
Continuous
 62
     7
370
    15
100
AcDbSpline
210
0.0
220
0.0
230
1.0
 70
    11
 71
     3
 72
    39
 73
    35
 74
     0
 42
0.000000001
 43
0.00000001
 40
0.0
 40
0.0
 40
0.0
 40
0.0
 40
0.0317356544631846
 40
0.0638615163132948
 40
0.0956541057882831
 40
0.1269583688765785
 40
0.157987748846354
 40
0.1888616032674702
 40
0.2197315608151885
 40
0.2499069897382236
 40
0.2801009166157766
 40
0.3110552235640038
 40
0.3420097077184202
 40
0.3730917419745009
 40
0.4043843837012969
 40
0.4361431492089814
 40
0.4682114618265132
 40
0.4999791381005285
 40
0.5317511099998067
 40
0.5638653433345767
 40
0.5956523916723687
 40
0.6269673639071882
 40
0.658017935154749
 40
0.6889451369264635
 40
0.7198267924614213
 40
0.7500175320079443
 40
0.7801809025623798
 40
0.8110965932161477
 40
0.842007863385901
 40
0.8730596007970371
 40
0.9043524231167461
 40
0.9361510393951676
 40
0.9682665817886882
 40
1.0
 40
1.0
 40
1.0
 40
1.0
 10
235.7395034711133
 20
56.98734958189516
 30
0.0
 10
235.9374024124406
 20
57.10166804466893
 30
0.0
 10
236.3732594259786
 20
57.29602221810681
 30
0.0
 10
237.1151086861744
 20
57.46896212043363
 30
0.0
 10
237.9092458686185
 20
57.52977902338139
 30
0.0
 10
238.7268908089474
 20
57.48124514912428
 30
0.0
 10
239.5404112646063
 20
57.33968308276101
 30
0.0
 10
240.3237780082345
 20
57.11897978604987
 30
0.0
 10
241.0476031464262
 20
56.84310629458658
 30
0.0
 10
241.6764635480942
 20
56.52642023804134
 30
0.0
 10
242.1867782386219
 20
56.18545200843667
 30
0.0
 10
242.5546523064541
 20
55.83097669233876
 30
0.0
 10
242.7792046611947
 20
55.46975859537535
 30
0.0
 10
242.8387380618622
 20
55.10713848774439
 30
0.0
 10
242.7386831097437
 20
54.74150212325567
 30
0.0
 10
242.4772530203972
 20
54.3737523726323
 30
0.0
 10
242.0737810293465
 20
54.0057663194155
 30
0.0
 10
241.5332933134533
 20
53.65018700592999
 30
0.0
 10
240.8805419727939
 20
53.31717368410361
 30
0.0
 10
240.1387685749519
 20
53.02422041720089
 30
0.0
 10
239.3446790373979
 20
52.78264043713082
 30
0.0
 10
238.5267428492825
 20
52.61829063008344
 30
0.0
 10
237.7124877848487
 20
52.54503356706662
 30
0.0
 10
236.9285893717885
 20
52.58258480194401
 30
0.0
 10
236.2043898767231
 20
52.73080621170267
 30
0.0
 10
235.575323498454
 20
53.00241520497856
 30
0.0
 10
235.064817724779
 20
53.38755798423643
 30
0.0
 10
234.6974211704484
 20
53.86975720940872
 30
0.0
 10
234.4735845583183
 20
54.41437035082997
 30
0.0
 10
234.4149553320804
 20
54.9919956094089
 30
0.0
 10
234.5159416553172
 20
55.5706193079051
 30
0.0
 10
234.7779505022745
 20
56.11929003596843
 30
0.0
 10
235.1810814167818
 20
56.607363038926
 30
0.0
 10
235.5416184747287
 20
56.87303917456821
 30
0.0
 10
235.7395034711133
 20
56.98734958189516
 30
0.0
  0
ARC
  5
22E
330
1F
100
AcDbEntity
  8
0
  6
Continuous
 62
     7
370
    15
100
AcDbCircle
 10
245.669997195
 20
39.8319131457
 30
0.0
 40
6.301293068877831
100
AcDbArc
 50
300.2349493088
 51
358.0401048282
  0
LWPOLYLINE
  5
22F
330
1F
100
AcDbEntity
  8
0
  6
Continuous
 62
     7
370
    15
100
AcDbPolyline
 90
       13
 70
   128
 43
0.0
 10
246.1510639276
 20
35.2812322334
 10
246.0431444437
 20
35.849337604
 10
246.0431444437
 20
36.5432453397
 10
246.1641065713
 20
37.2927786932
 10
246.4010786227
 20
38.0672516808
 10
246.7443589344
 20
38.8349572876
 10
247.17989357
 20
39.5644655557
 10
247.6898516905
 20
40.225910331
 10
248.2533555503
 20
40.7922119866
 10
248.8473352354
 20
41.2401860662
 10
249.4474731475
 20
41.5514924584
 10
250.0291995701
 20
41.7133862428
 10
250.1100741261
 20
41.723926759
  0
LWPOLYLINE
  5
230
330
1F
100
AcDbEntity
  8
0
  6
Continuous
 62
     7
370
    15
100
AcDbPolyline
 90
       13
 70
   128
 43
0.0
 10
251.684761361
 20
39.6164092169
 10
251.6229534422
 20
38.9016547416
 10
251.4402309884
 20
38.1467765625
 10
251.1445798476
 20
37.3847664784
 10
250.7489213933
 20
36.6489279865
 10
250.2705477987
 20
35.9714207598
 10
249.7303662852
 20
35.3818551152
 10
249.1519853771
 20
34.9059979004
 10
248.5606830955
 20
34.5646463591
 10
247.9823021874
 20
34.3727191916
 10
247.4421206739
 20
34.3386045362
 10
246.9637470793
 20
34.4637933669
 10
246.856496771
 20
34.5193975437
  0
ARC
  5
231
330
1F
100
AcDbEntity
  8
0
  6
Continuous
 62
     7
370
    15
100
AcDbCircle
 10
249.7053479797
 20
39.8239762142
 30
0.0
 40
1.990266663716822
100
AcDbArc
 50
354.0136776181
 51
54.6741419885
  0
LINE
  5
232
330
1F
100
AcDbEntity
  8
0
  6
Continuous
 62
     7
370
    15
100
AcDbLine
 10
225.1800421796
 20
68.7825890118
 30
0.0
 11
225.1577051003
 21
67.8298900421
 31
0.0
  0
LWPOLYLINE
  5
233
330
1F
100
AcDbEntity
  8
0
  6
Continuous
 62
     7
370
    15
100
AcDbPolyline
 90
       56
 70
   128
 43
0.0
 10
211.1588428434
 20
43.5805218954
 10
211.0082648919
 20
43.4849006333
 10
209.6769048834
 20
42.71632286
 10
208.3509045389
 20
42.0886511123
 10
207.0409400335
 20
41.6069390339
 10
205.7575584311
 20
41.2750650874
 10
204.5110927658
 20
41.0957013265
 10
203.3115788462
 20
41.0702918827
 10
202.1686744531
 20
41.1990413381
 10
201.0915815806
 20
41.4809130777
 10
200.0889723473
 20
41.9136376359
 10
199.1689191731
 20
42.4937309692
 10
198.3388297852
 20
43.2165225069
 10
197.6053875753
 20
44.0761927568
 10
196.9744977888
 20
45.0658201593
 10
196.4512399794
 20
46.1774368166
 10
196.0398271111
 20
47.402092645
 10
195.7435716386
 20
48.7299274357
 10
195.5648588367
 20
50.1502502439
 10
195.5051275958
 20
51.6516254654
 10
195.5648588367
 20
53.2219649096
 10
195.7435716386
 20
54.8486251269
 10
196.0398271111
 20
56.5185092055
 10
196.4512399794
 20
58.2181722207
 10
196.9744977888
 20
59.9339294853
 10
197.6053875753
 20
61.6519667307
 10
198.3388297852
 20
63.3584513311
 10
199.1689191731
 20
65.039643676
 10
200.0889723473
 20
66.6820077931
 10
201.0915815806
 20
68.2723203322
 10
202.1686744531
 20
69.7977770319
 10
203.3115788462
 20
71.2460958118
 10
204.5110927658
 20
72.6056156606
 10
205.7575584311
 20
73.8653905239
 10
207.0409400335
 20
75.0152774353
 10
208.3509045389
 20
76.0460181814
 10
209.6769048834
 20
76.9493138438
 10
211.0082648919
 20
77.7178916171
 10
212.3342652364
 20
78.3455633648
 10
213.6442297418
 20
78.8272754432
 10
214.9276113442
 20
79.1591493898
 10
216.1740770095
 20
79.3385131507
 10
217.3735909291
 20
79.3639225944
 10
218.5164953222
 20
79.235173139
 10
219.5935881947
 20
78.9533013994
 10
220.596197428
 20
78.5205768412
 10
221.5162506022
 20
77.940483508
 10
222.3463399901
 20
77.2176919702
 10
223.0797822
 20
76.3580217203
 10
223.7106719865
 20
75.3683943178
 10
224.233929796
 20
74.2567776605
 10
224.6453426642
 20
73.0321218322
 10
224.9415981367
 20
71.7042870414
 10
225.1203109386
 20
70.2839642332
 10
225.1800421796
 20
68.7825890118
 10
225.1800421796
 20
68.7825890118
  0
ARC
  5
234
330
1F
100
AcDbEntity
  8
0
  6
Continuous
 62
     7
370
    15
100
AcDbCircle
 10
202.9205573027
 20
51.2391007746
 30
0.0
 40
9.519782274793913
100
AcDbArc
 50
185.1123632199
 51
236.0579677312
  0
SPLINE
  5
235
330
1F
100
AcDbEntity
  8
0
  6
Continuous
 62
     7
370
    15
100
AcDbSpline
210
0.0
220
0.0
230
1.0
 70
     8
 71
     3
 72
    32
 73
    28
 74
     0
 42
0.000000001
 43
0.00000001
 40
0.0
 40
0.0
 40
0.0
 40
0.0
 40
0.1249999999999995
 40
0.1249999999999995
 40
0.2499999999999989
 40
0.2499999999999989
 40
0.3124999999999989
 40
0.3124999999999989
 40
0.3749999999999989
 40
0.3749999999999989
 40
0.4374999999999989
 40
0.4374999999999989
 40
0.4999999999999989
 40
0.4999999999999989
 40
0.5624999999999989
 40
0.5624999999999989
 40
0.6249999999999988
 40
0.6249999999999988
 40
0.6874999999999988
 40
0.6874999999999988
 40
0.7499999999999988
 40
0.7499999999999988
 40
0.8749999999999992
 40
0.8749999999999992
 40
0.9374999999999996
 40
0.9374999999999996
 40
1.0
 40
1.0
 40
1.0
 40
1.0
 10
193.4386460478225
 20
55.71432780963539
 30
0.0
 10
193.6604881845422
 20
55.46609270401348
 30
0.0
 10
193.8631766282523
 20
55.19034442708213
 30
0.0
 10
194.2320553651667
 20
54.58185640510268
 30
0.0
 10
194.3896516506653
 20
54.26328693243678
 30
0.0
 10
194.5873281853548
 20
53.76666829636756
 30
0.0
 10
194.6470122278427
 20
53.59654576438324
 30
0.0
 10
194.7489915104099
 20
53.26161728432815
 30
0.0
 10
194.791854676855
 20
53.09567247029497
 30
0.0
 10
194.861487666397
 20
52.76711970606872
 30
0.0
 10
194.8883953234856
 20
52.60322283857112
 30
0.0
 10
194.924332024818
 20
52.28533896406624
 30
0.0
 10
194.9333049368541
 20
52.13313428479306
 30
0.0
 10
194.9337844843637
 20
51.8419490651264
 30
0.0
 10
194.9252253945472
 20
51.70248021613039
 30
0.0
 10
194.8900178159123
 20
51.43937969968624
 30
0.0
 10
194.8638078463606
 20
51.31844733044731
 30
0.0
 10
194.7948324956682
 20
51.09645260200961
 30
0.0
 10
194.7519201712777
 20
50.99514410703847
 30
0.0
 10
194.6494590620362
 20
50.81340862094283
 30
0.0
 10
194.5909637077658
 20
50.73469577322186
 30
0.0
 10
194.394294010666
 20
50.53199915828171
 30
0.0
 10
194.2326938449932
 20
50.44123531047408
 30
0.0
 10
193.9594216718006
 20
50.37359570888358
 30
0.0
 10
193.8628273640467
 20
50.36202418042797
 30
0.0
 10
193.6580716874233
 20
50.36036283495683
 30
0.0
 10
193.550241177873
 20
50.37040049606124
 30
0.0
 10
193.4386460478225
 20
50.39080040691839
 30
0.0
  0
LWPOLYLINE
  5
236
330
1F
100
AcDbEntity
  8
0
  6
Continuous
 62
     7
370
    15
100
AcDbPolyline
 90
       20
 70
   128
 43
0.0
 10
193.4386460478
 20
55.7143278096
 10
193.7161569557
 20
57.4353627757
 10
194.1180310852
 20
59.1916721473
 10
194.6407928429
 20
60.9680665488
 10
195.2799211435
 20
62.7491829002
 10
196.02988851
 20
64.5196172837
 10
196.8842088778
 20
66.2640581643
 10
197.8354936893
 20
67.9674188106
 10
198.8755157937
 20
69.6149677722
 10
199.995280599
 20
71.1924562839
 10
201.1851038614
 20
72.6862414957
 10
202.4346954391
 20
74.0834044625
 10
203.7332482866
 20
75.3718618728
 10
205.0695319182
 20
76.5404705514
 10
206.4319895354
 20
77.57912383
 10
207.8088379748
 20
78.4788389548
 10
209.1881696144
 20
79.2318347735
 10
210.5580553565
 20
79.83159903
 10
211.9066477958
 20
80.2729446859
 10
213.2222836814
 20
80.5520547796
  0
SPLINE
  5
237
330
1F
100
AcDbEntity
  8
0
  6
Continuous
 62
     7
370
    15
100
AcDbSpline
210
0.0
220
0.0
230
1.0
 70
     8
 71
     3
 72
    34
 73
    30
 74
     0
 42
0.000000001
 43
0.00000001
 40
0.0
 40
0.0
 40
0.0
 40
0.0
 40
0.1249999999999991
 40
0.1249999999999991
 40
0.2499999999999983
 40
0.2499999999999983
 40
0.3124999999999984
 40
0.3124999999999984
 40
0.3749999999999986
 40
0.3749999999999986
 40
0.4374999999999988
 40
0.4374999999999988
 40
0.499999999999999
 40
0.499999999999999
 40
0.5624999999999992
 40
0.5624999999999992
 40
0.6249999999999994
 40
0.6249999999999994
 40
0.6874999999999997
 40
0.6874999999999997
 40
0.7499999999999999
 40
0.7499999999999999
 40
0.8125000000000002
 40
0.8125000000000002
 40
0.8750000000000001
 40
0.8750000000000001
 40
0.9375
 40
0.9375
 40
1.0
 40
1.0
 40
1.0
 40
1.0
 10
217.5911310451539
 20
80.16141399111923
 30
0.0
 10
217.7858299210609
 20
80.0352456688512
 30
0.0
 10
217.9377140511878
 20
79.9274916117954
 30
0.0
 10
218.1453761944008
 20
79.74527966533354
 30
0.0
 10
218.1963806206553
 20
79.67500658655672
 30
0.0
 10
218.1869587086659
 20
79.59596602864022
 30
0.0
 10
218.1688061929316
 20
79.57410648450924
 30
0.0
 10
218.1026298837102
 20
79.54054468169764
 30
0.0
 10
218.0547303136229
 20
79.52855105144963
 30
0.0
 10
217.9280093187722
 20
79.51365982932901
 30
0.0
 10
217.8480892079349
 20
79.51080543732425
 30
0.0
 10
217.6599171820415
 20
79.51442602866973
 30
0.0
 10
217.5521963014875
 20
79.52077152649784
 30
0.0
 10
217.3096778962512
 20
79.54226166821918
 30
0.0
 10
217.1733965683521
 20
79.55761361231183
 30
0.0
 10
216.8799187632751
 20
79.59677684510869
 30
0.0
 10
216.7236702236173
 20
79.62039951601882
 30
0.0
 10
216.3931348410707
 20
79.67589000697231
 30
0.0
 10
216.217195825181
 20
79.70810003898886
 30
0.0
 10
215.8567540457211
 20
79.77983116392298
 30
0.0
 10
215.6724085710405
 20
79.81926279611379
 30
0.0
 10
215.2961922303462
 20
79.90584162654595
 30
0.0
 10
215.1027925186673
 20
79.95340873025727
 30
0.0
 10
214.7180877142204
 20
80.05493351054406
 30
0.0
 10
214.5266372650715
 20
80.10886292185963
 30
0.0
 10
214.1457540846439
 20
80.22378070114327
 30
0.0
 10
213.9552973047057
 20
80.28512755714142
 30
0.0
 10
213.5817545996428
 20
80.4142280465815
 30
0.0
 10
213.3996766190559
 20
80.48158291449414
 30
0.0
 10
213.222283681381
 20
80.55205477963254
 30
0.0
  0
LINE
  5
238
330
1F
100
AcDbEntity
  8
0
  6
Continuous
 62
     7
370
    15
100
AcDbLine
 10
217.5911310452
 20
80.1614139911
 30
0.0
 11
218.5867782241
 21
79.6866457247
 31
0.0
  0
LWPOLYLINE
  5
239
330
1F
100
AcDbEntity
  8
0
  6
Continuous
 62
     7
370
    15
100
AcDbPolyline
 90
       21
 70
   128
 43
0.0
 10
192.0335863451
 20
56.2715644656
 10
192.1949328787
 20
57.8620368441
 10
192.4795565599
 20
59.4989912593
 10
192.8848477515
 20
61.1674189207
 10
193.4070904487
 20
62.8520224681
 10
194.0414963498
 20
64.5373562291
 10
194.7822487596
 20
66.2079678359
 10
195.6225559202
 20
67.8485399044
 10
196.5547132835
 20
69.4440304748
 10
197.5701741517
 20
70.9798109271
 10
198.6596280398
 20
72.4418001075
 10
199.8130860411
 20
73.8165934342
 10
201.0199724121
 20
75.0915858004
 10
202.2692215396
 20
76.2550871472
 10
203.5493793975
 20
77.2964296469
 10
204.8487085659
 20
78.2060655127
 10
206.1552958486
 20
78.9756545405
 10
207.4571615015
 20
79.5981405773
 10
208.7423690719
 20
80.0678162177
 10
209.9991348407
 20
80.3803751334
 10
211.2159358636
 20
80.5329515564
  0
SPLINE
  5
23A
330
1F
100
AcDbEntity
  8
0
  6
Continuous
 62
     7
370
    15
100
AcDbSpline
210
0.0
220
0.0
230
1.0
 70
     8
 71
     3
 72
     8
 73
     4
 74
     0
 42
0.000000001
 43
0.00000001
 40
0.0
 40
0.0
 40
0.0
 40
0.0
 40
1.0
 40
1.0
 40
1.0
 40
1.0
 10
191.5896502221145
 20
55.89604391531014
 30
0.0
 10
191.7249325002234
 20
56.03118430015743
 30
0.0
 10
191.8755747443632
 20
56.15605961776674
 30
0.0
 10
192.0335863450557
 20
56.27156446561838
 30
0.0
  0
SPLINE
  5
23B
330
1F
100
AcDbEntity
  8
0
  6
Continuous
 62
     7
370
    15
100
AcDbSpline
210
0.0
220
0.0
230
1.0
 70
     8
 71
     3
 72
    10
 73
     6
 74
     0
 42
0.000000001
 43
0.00000001
 40
0.0
 40
0.0
 40
0.0
 40
0.0
 40
0.5
 40
0.5
 40
1.0
 40
1.0
 40
1.0
 40
1.0
 10
190.1965174123516
 20
56.60395710333463
 30
0.0
 10
190.4356105158964
 20
56.49335496235819
 30
0.0
 10
190.6727568682951
 20
56.38089019206648
 30
0.0
 10
191.1394393664635
 20
56.14774290392316
 30
0.0
 10
191.3694672178907
 20
56.02767319336824
 30
0.0
 10
191.5896502221145
 20
55.89604391531015
 30
0.0
  0
LWPOLYLINE
  5
23C
330
1F
100
AcDbEntity
  8
0
  6
Continuous
 62
     7
370
    15
100
AcDbPolyline
 90
       21
 70
   128
 43
0.0
 10
190.1965174124
 20
56.6039571033
 10
190.4049883003
 20
58.3016173458
 10
190.7396182424
 20
60.0428741994
 10
191.1975052484
 20
61.8126270721
 10
191.7746784139
 20
63.5955282479
 10
192.4661323563
 20
65.3761159855
 10
193.2658706233
 20
67.1389486061
 10
194.1669576953
 20
68.8687384079
 10
195.1615791316
 20
70.5504842438
 10
196.2411093397
 20
72.1696016157
 10
197.3961863778
 20
73.7120491541
 10
198.6167931443
 20
75.1644503887
 10
199.8923442481
 20
76.514209752
 10
201.211777808
 20
77.7496218109
 10
202.5636513836
 20
78.8599727796
 10
203.936241207
 20
79.8356334313
 10
205.3176438541
 20
80.6681426059
 10
206.695879474
 20
81.3502805866
 10
208.058995681
 20
81.8761317112
 10
209.3951712083
 20
82.2411356741
 10
210.6928184254
 20
82.4421270747
  0
SPLINE
  5
23D
330
1F
100
AcDbEntity
  8
0
  6
Continuous
 62
     7
370
    15
100
AcDbSpline
210
0.0
220
0.0
230
1.0
 70
     8
 71
     3
 72
     8
 73
     4
 74
     0
 42
0.000000001
 43
0.00000001
 40
0.0
 40
0.0
 40
0.0
 40
0.0
 40
1.0
 40
1.0
 40
1.0
 40
1.0
 10
211.3778004537819
 20
81.0303737559615
 30
0.0
 10
211.1467834492843
 20
81.49611153919261
 30
0.0
 10
210.9196170136827
 20
81.96812989234704
 30
0.0
 10
210.6928184253944
 20
82.44212707472246
 30
0.0
  0
SPLINE
  5
23E
330
1F
100
AcDbEntity
  8
0
  6
Continuous
 62
     7
370
    15
100
AcDbSpline
210
0.0
220
0.0
230
1.0
 70
     8
 71
     3
 72
     8
 73
     4
 74
     0
 42
0.000000001
 43
0.00000001
 40
0.0
 40
0.0
 40
0.0
 40
0.0
 40
1.0
 40
1.0
 40
1.0
 40
1.0
 10
211.2159358636198
 20
80.53295155639086
 30
0.0
 10
211.2640960815002
 20
80.70490582240897
 30
0.0
 10
211.3175544568062
 20
80.87126428401919
 30
0.0
 10
211.3778004537819
 20
81.0303737559615
 30
0.0
  0
SPLINE
  5
23F
330
1F
100
AcDbEntity
  8
0
  6
Continuous
 62
     7
370
    15
100
AcDbSpline
210
0.0
220
0.0
230
1.0
 70
     8
 71
     3
 72
    22
 73
    18
 74
     0
 42
0.000000001
 43
0.00000001
 40
0.0
 40
0.0
 40
0.0
 40
0.0
 40
0.125
 40
0.125
 40
0.25
 40
0.25
 40
0.375
 40
0.375
 40
0.5
 40
0.5
 40
0.625
 40
0.625
 40
0.75
 40
0.75
 40
0.875
 40
0.875
 40
1.0
 40
1.0
 40
1.0
 40
1.0
 10
190.1965174123516
 20
53.01673209289643
 30
0.0
 10
190.0924936419454
 20
53.18751277758523
 30
0.0
 10
189.9987226785572
 20
53.36058428183313
 30
0.0
 10
189.8330193512257
 20
53.71200169849435
 30
0.0
 10
189.7605795616551
 20
53.89217284788625
 30
0.0
 10
189.6443289661671
 20
54.24687500459013
 30
0.0
 10
189.6000163467403
 20
54.42184190046991
 30
0.0
 10
189.5399154940895
 20
54.76722881595433
 30
0.0
 10
189.5242682153163
 20
54.93943007466582
 30
0.0
 10
189.5240979773863
 20
55.2665206876412
 30
0.0
 10
189.5390925638153
 20
55.42220861929911
 30
0.0
 10
189.5987071669448
 20
55.71797122442908
 30
0.0
 10
189.6439337439346
 20
55.85860583688186
 30
0.0
 10
189.7599061915376
 20
56.11311831733791
 30
0.0
 10
189.8307778745403
 20
56.22851396878143
 30
0.0
 10
189.9970033468546
 20
56.43576783706206
 30
0.0
 10
190.0921877181719
 20
56.52700539986124
 30
0.0
 10
190.1965174123517
 20
56.60395710333464
 30
0.0
  0
ARC
  5
240
330
1F
100
AcDbEntity
  8
0
  6
Continuous
 62
     7
370
    15
100
AcDbCircle
 10
211.8808739154
 20
75.3251412295
 30
0.0
 40
7.128658560304077
100
AcDbArc
 50
41.2637507547
 51
73.2840700446
  0
LWPOLYLINE
  5
241
330
1F
100
AcDbEntity
  8
0
  6
Continuous
 62
     7
370
    15
100
AcDbPolyline
 90
       11
 70
   128
 43
0.0
 10
196.1517656747
 20
44.4538647473
 10
195.8973890083
 20
44.5283293345
 10
194.8782095524
 20
44.934070526
 10
193.9404762378
 20
45.4885253107
 10
193.0917702555
 20
46.1872111479
 10
192.338953047
 20
47.0244794477
 10
191.6881108323
 20
47.9935612378
 10
191.1445054048
 20
49.0866218874
 10
190.7125315927
 20
50.2948244472
 10
190.395681728
 20
51.6084010927
 10
190.1965174124
 20
53.0167320929
  0
SPLINE
  5
242
330
1F
100
AcDbEntity
  8
0
  6
Continuous
 62
     7
370
    15
100
AcDbSpline
210
0.0
220
0.0
230
1.0
 70
     8
 71
     3
 72
    27
 73
    23
 74
     0
 42
0.000000001
 43
0.00000001
 40
0.0
 40
0.0
 40
0.0
 40
0.0
 40
0.1250000000000002
 40
0.1250000000000002
 40
0.2500000000000003
 40
0.2500000000000003
 40
0.3750000000000005
 40
0.3750000000000005
 40
0.4375000000000003
 40
0.4375000000000003
 40
0.5000000000000002
 40
0.5625000000000001
 40
0.5625000000000001
 40
0.6249999999999999
 40
0.6249999999999999
 40
0.7499999999999997
 40
0.7499999999999997
 40
0.8124999999999998
 40
0.8124999999999998
 40
0.8749999999999998
 40
0.8749999999999998
 40
1.0
 40
1.0
 40
1.0
 40
1.0
 10
210.6928184253944
 20
82.44212707472246
 30
0.0
 10
210.6777819668843
 20
82.52600647638054
 30
0.0
 10
210.6841509046035
 20
82.60170870824892
 30
0.0
 10
210.7407914945371
 20
82.7340404039332
 30
0.0
 10
210.7918281545999
 20
82.79051517265113
 30
0.0
 10
210.9353070513187
 20
82.8764453199618
 30
0.0
 10
211.0278524538439
 20
82.90676019324665
 30
0.0
 10
211.1997560769726
 20
82.93098993248374
 30
0.0
 10
211.2626575402062
 20
82.93543473551044
 30
0.0
 10
211.396421144615
 20
82.93677877606487
 30
0.0
 10
211.5388710085284
 20
82.93071238886557
 30
0.0
 10
211.6984661063762
 20
82.90994709725963
 30
0.0
 10
211.8667830927346
 20
82.8817400037706
 30
0.0
 10
211.9558547099613
 20
82.86376869145609
 30
0.0
 10
212.2306212354615
 20
82.79985747967754
 30
0.0
 10
212.4246641580473
 20
82.74399086573106
 30
0.0
 10
212.7316695912639
 20
82.64207144696586
 30
0.0
 10
212.8372701656013
 20
82.60483561446327
 30
0.0
 10
213.0505947909164
 20
82.5256767856683
 30
0.0
 10
213.1582564260231
 20
82.48380634939615
 30
0.0
 10
213.4842548916482
 20
82.35197746303649
 30
0.0
 10
213.7059544927296
 20
82.25567199735511
 30
0.0
 10
213.9312672530327
 20
82.15256094932319
 30
0.0
  0
SPLINE
  5
243
330
1F
100
AcDbEntity
  8
0
  6
Continuous
 62
     7
370
    15
100
AcDbSpline
210
0.0
220
0.0
230
1.0
 70
     8
 71
     3
 72
    16
 73
    12
 74
     0
 42
0.000000001
 43
0.00000001
 40
0.0
 40
0.0
 40
0.0
 40
0.0
 40
0.1249999999999996
 40
0.1249999999999996
 40
0.2499999999999992
 40
0.2499999999999992
 40
0.4999999999999994
 40
0.4999999999999994
 40
0.7499999999999997
 40
0.7499999999999997
 40
1.0
 40
1.0
 40
1.0
 40
1.0
 10
192.0797264877883
 20
56.29820060305175
 30
0.0
 10
192.1170571173247
 20
56.31975111676754
 30
0.0
 10
192.1591949267093
 20
56.34613659160466
 30
0.0
 10
192.2453665340189
 20
56.40227153807859
 30
0.0
 10
192.2899385702268
 20
56.43226311054242
 30
0.0
 10
192.4220246706103
 20
56.52089101960034
 30
0.0
 10
192.5097560544568
 20
56.57912402499749
 30
0.0
 10
192.6799091345349
 20
56.68193069383878
 30
0.0
 10
192.7632264341046
 20
56.72730029143085
 30
0.0
 10
192.9237276484762
 20
56.7995559512896
 30
0.0
 10
192.9988274872923
 20
56.82567379039926
 30
0.0
 10
193.0668987601639
 20
56.83895222713529
 30
0.0
  0
SPLINE
  5
244
330
1F
100
AcDbEntity
  8
0
  6
Continuous
 62
     7
370
    15
100
AcDbSpline
210
0.0
220
0.0
230
1.0
 70
     8
 71
     3
 72
    10
 73
     6
 74
     0
 42
0.000000001
 43
0.00000001
 40
0.0
 40
0.0
 40
0.0
 40
0.0
 40
0.4389228646823556
 40
0.7972574839652804
 40
1.0
 40
1.0
 40
1.0
 40
1.0
 10
211.0534624573677
 20
79.99383754878315
 30
0.0
 10
211.0665800453064
 20
80.05923886194194
 30
0.0
 10
211.090406772044
 20
80.17803350804621
 30
0.0
 10
211.1458018674849
 20
80.34822723446243
 30
0.0
 10
211.1803326608615
 20
80.44013656124444
 30
0.0
 10
211.1928101964608
 20
80.47334755307767
 30
0.0
  0
SPLINE
  5
245
330
1F
100
AcDbEntity
  8
0
  6
Continuous
 62
     7
370
    15
100
AcDbSpline
210
0.0
220
0.0
230
1.0
 70
     8
 71
     3
 72
     9
 73
     5
 74
     0
 42
0.000000001
 43
0.00000001
 40
0.0
 40
0.0
 40
0.0
 40
0.0
 40
0.9797356811187555
 40
1.0
 40
1.0
 40
1.0
 40
1.0
 10
193.0668987601639
 20
56.8389522271353
 30
0.0
 10
193.2527097221254
 20
56.86144588651205
 30
0.0
 10
193.4423638967589
 20
56.8844047924805
 30
0.0
 10
193.6446618732783
 20
56.80756793212625
 30
0.0
 10
193.6487613039835
 20
56.8060108854862
 30
0.0
  0
LINE
  5
246
330
1F
100
AcDbEntity
  8
0
  6
Continuous
 62
     7
370
    15
100
AcDbLine
 10
192.0335863451
 20
56.2715644656
 30
0.0
 11
192.0797264878
 21
56.2982006031
 31
0.0
  0
LINE
  5
247
330
1F
100
AcDbEntity
  8
0
  6
Continuous
 62
     7
370
    15
100
AcDbLine
 10
211.1928101965
 20
80.4733475531
 30
0.0
 11
211.2159358636
 21
80.5329515564
 31
0.0
  0
SPLINE
  5
248
330
1F
100
AcDbEntity
  8
0
  6
Continuous
 62
     7
370
    15
100
AcDbSpline
210
0.0
220
0.0
230
1.0
 70
     8
 71
     3
 72
    10
 73
     6
 74
     0
 42
0.000000001
 43
0.00000001
 40
0.0
 40
0.0
 40
0.0
 40
0.0
 40
0.5
 40
0.5
 40
1.0
 40
1.0
 40
1.0
 40
1.0
 10
191.5896502221145
 20
54.10500926310041
 30
0.0
 10
191.3694672178907
 20
53.91170939074676
 30
0.0
 10
191.1394393664635
 20
53.72803386245047
 30
0.0
 10
190.6727568682951
 20
53.36748053837729
 30
0.0
 10
190.4356105158964
 20
53.19106908018811
 30
0.0
 10
190.1965174123516
 20
53.01673209289644
 30
0.0
  0
SPLINE
  5
249
330
1F
100
AcDbEntity
  8
0
  6
Continuous
 62
     7
370
    15
100
AcDbSpline
210
0.0
220
0.0
230
1.0
 70
     8
 71
     3
 72
     8
 73
     4
 74
     0
 42
0.000000001
 43
0.00000001
 40
0.0
 40
0.0
 40
0.0
 40
0.0
 40
1.0
 40
1.0
 40
1.0
 40
1.0
 10
192.0335863450557
 20
53.88175814028111
 30
0.0
 10
191.8751086333884
 20
53.94340048460507
 30
0.0
 10
191.725622124113
 20
54.0159475517975
 30
0.0
 10
191.5896502221145
 20
54.10500926310041
 30
0.0
  0
ARC
  5
24A
330
1F
100
AcDbEntity
  8
0
  6
Continuous
 62
     7
370
    15
100
AcDbCircle
 10
202.9539380907
 20
54.2536537497
 30
0.0
 40
10.92668241479059
100
AcDbArc
 50
181.950469879
 51
215.1963634032
  0
SPLINE
  5
24B
330
1F
100
AcDbEntity
  8
0
  6
Continuous
 62
     7
370
    15
100
AcDbSpline
210
0.0
220
0.0
230
1.0
 70
     8
 71
     3
 72
     8
 73
     4
 74
     0
 42
0.000000001
 43
0.00000001
 40
0.0
 40
0.0
 40
0.0
 40
0.0
 40
1.0
 40
1.0
 40
1.0
 40
1.0
 10
213.4509927466201
 20
80.84499912403237
 30
0.0
 10
213.5192757219535
 20
80.67464378514771
 30
0.0
 10
213.5817033110026
 20
80.49706921020756
 30
0.0
 10
213.6388516346144
 20
80.31630637552907
 30
0.0
  0
SPLINE
  5
24C
330
1F
100
AcDbEntity
  8
0
  6
Continuous
 62
     7
370
    15
100
AcDbSpline
210
0.0
220
0.0
230
1.0
 70
     8
 71
     3
 72
     8
 73
     4
 74
     0
 42
0.000000001
 43
0.00000001
 40
0.0
 40
0.0
 40
0.0
 40
0.0
 40
1.0
 40
1.0
 40
1.0
 40
1.0
 10
213.9312672530327
 20
82.15256094932319
 30
0.0
 10
213.776729844842
 20
81.71266095138782
 30
0.0
 10
213.6182543979375
 20
81.27512479376972
 30
0.0
 10
213.4509927466201
 20
80.84499912403237
 30
0.0
  0
LWPOLYLINE
  5
24D
330
1F
100
AcDbEntity
  8
0
  6
Continuous
 62
     7
370
    15
100
AcDbPolyline
 90
       28
 70
   128
 43
0.0
 10
187.195933349
 20
54.8607364603
 10
187.1734788194
 20
55.1126662349
 10
187.1141271257
 20
56.6045013437
 10
187.1734788194
 20
58.1648624596
 10
187.3510560356
 20
59.7811864721
 10
187.6454290269
 20
61.4404596908
 10
188.0542276752
 20
63.1293226233
 10
188.5741605741
 20
64.8341775383
 10
189.2010415295
 20
66.5412979466
 10
189.9298232647
 20
68.2369391182
 10
190.7546380576
 20
69.9074487477
 10
191.6688449844
 20
71.5393768735
 10
192.6650833887
 20
73.1195841702
 10
193.7353321444
 20
74.6353477375
 10
194.870974238
 20
76.0744635386
 10
196.0628661469
 20
77.4253446593
 10
197.3014114585
 20
78.6771145989
 10
198.5766381341
 20
79.819694842
 10
199.8782787984
 20
80.8438860044
 10
201.195853406
 20
81.7414419009
 10
202.5187536209
 20
82.5051359393
 10
203.8363282285
 20
83.1288193042
 10
205.1379688927
 20
83.6074704639
 10
206.4131955683
 20
83.9372356006
 10
207.6517408799
 20
84.1154596395
 10
208.8436327889
 20
84.1407076253
 10
209.9792748824
 20
84.012776276
 10
210.8088673455
 20
83.810717285
  0
SPLINE
  5
24E
330
1F
100
AcDbEntity
  8
0
  6
Continuous
 62
     7
370
    15
100
AcDbSpline
210
0.0
220
0.0
230
1.0
 70
     8
 71
     3
 72
     8
 73
     4
 74
     0
 42
0.000000001
 43
0.00000001
 40
0.0
 40
0.0
 40
0.0
 40
0.0
 40
1.0
 40
1.0
 40
1.0
 40
1.0
 10
193.4386460478226
 20
50.39080040691807
 30
0.0
 10
193.5299039955241
 20
50.8715241398012
 30
0.0
 10
193.6221346679704
 20
51.35350370067831
 30
0.0
 10
193.7151309570154
 20
51.83817064947218
 30
0.0
  0
ARC
  5
24F
330
1F
100
AcDbEntity
  8
0
  6
Continuous
 62
     7
370
    15
100
AcDbCircle
 10
193.9370086624
 20
52.776675025
 30
0.0
 40
0.9643755384093695
100
AcDbArc
 50
256.698573496
 51
353.8286456598
  0
SPLINE
  5
250
330
1F
100
AcDbEntity
  8
0
  6
Continuous
 62
     7
370
    15
100
AcDbSpline
210
0.0
220
0.0
230
1.0
 70
     8
 71
     3
 72
     8
 73
     4
 74
     0
 42
0.000000001
 43
0.00000001
 40
0.0
 40
0.0
 40
0.0
 40
0.0
 40
1.0
 40
1.0
 40
1.0
 40
1.0
 10
174.1486460070093
 20
75.98318948197537
 30
0.0
 10
174.7844225997102
 20
75.57096120266608
 30
0.0
 10
175.42015910217
 20
75.15850568862018
 30
0.0
 10
176.0558568246022
 20
74.74582321658727
 30
0.0
  0
LWPOLYLINE
  5
251
330
1F
100
AcDbEntity
  8
0
  6
Continuous
 62
     7
370
    15
100
AcDbPolyline
 90
       18
 70
   128
 43
0.0
 10
174.148646007
 20
75.9831894821
 10
174.7576336444
 20
77.4913813565
 10
175.4708923804
 20
78.9773553832
 10
176.2801348407
 20
80.4238459865
 10
177.1759584136
 20
81.8140463495
 10
178.1479544986
 20
83.1318036935
 10
179.1848294447
 20
84.3618069572
 10
180.2745357716
 20
85.4897646966
 10
181.4044121493
 20
86.5025711377
 10
182.5613305111
 20
87.3884584526
 10
183.7318485887
 20
88.1371334907
 10
184.902366098
 20
88.7398973747
 10
186.059282762
 20
89.1897465735
 10
187.1891563318
 20
89.4814542758
 10
188.2788587733
 20
89.6116311215
 10
189.3157288019
 20
89.5787645818
 10
190.2877189943
 20
89.3832365342
 10
191.1429298816
 20
89.0477669236
  0
ARC
  5
252
330
1F
100
AcDbEntity
  8
0
  6
Continuous
 62
     7
370
    15
100
AcDbCircle
 10
179.0269953389
 20
67.2171514874
 30
0.0
 40
5.790925647956869
100
AcDbArc
 50
204.1580181094
 51
235.8293509132
  0
SPLINE
  5
253
330
1F
100
AcDbEntity
  8
0
  6
Continuous
 62
     7
370
    15
100
AcDbSpline
210
0.0
220
0.0
230
1.0
 70
     8
 71
     3
 72
     8
 73
     4
 74
     0
 42
0.000000001
 43
0.00000001
 40
0.0
 40
0.0
 40
0.0
 40
0.0
 40
1.0
 40
1.0
 40
1.0
 40
1.0
 10
176.3352529783422
 20
63.17935377182057
 30
0.0
 10
175.4713096899575
 20
63.73499830412678
 30
0.0
 10
174.6073190538216
 20
64.29091485209581
 30
0.0
 10
173.7432789572879
 20
64.84710155634893
 30
0.0
  0
SPLINE
  5
254
330
1F
100
AcDbEntity
  8
0
  6
Continuous
 62
     7
370
    15
100
AcDbSpline
210
0.0
220
0.0
230
1.0
 70
     8
 71
     3
 72
    13
 73
     9
 74
     0
 42
0.000000001
 43
0.00000001
 40
0.0
 40
0.0
 40
0.0
 40
0.0
 40
0.1686319999748108
 40
0.3360343310905541
 40
0.5025367825908723
 40
0.6684737453788424
 40
0.8341822636915195
 40
1.0
 40
1.0
 40
1.0
 40
1.0
 10
176.7910145405505
 20
62.92756908823252
 30
0.0
 10
176.7673427712132
 20
62.93838133270152
 30
0.0
 10
176.7201718476862
 20
62.95992697847616
 30
0.0
 10
176.6467053628506
 20
62.9969302993023
 30
0.0
 10
176.571629865365
 20
63.03714698113398
 30
0.0
 10
176.4946808680373
 20
63.08097907085246
 30
0.0
 10
176.4160510295517
 20
63.12801991222904
 30
0.0
 10
176.362191576564
 20
63.16223872760835
 30
0.0
 10
176.3352529783422
 20
63.17935377182057
 30
0.0
  0
SPLINE
  5
255
330
1F
100
AcDbEntity
  8
0
  6
Continuous
 62
     7
370
    15
100
AcDbSpline
210
0.0
220
0.0
230
1.0
 70
     8
 71
     3
 72
     8
 73
     4
 74
     0
 42
0.000000001
 43
0.00000001
 40
0.0
 40
0.0
 40
0.0
 40
0.0
 40
1.0
 40
1.0
 40
1.0
 40
1.0
 10
179.1940189750439
 20
61.38228074596206
 30
0.0
 10
178.3930589421182
 20
61.89714955617
 30
0.0
 10
177.5920612821276
 20
62.41224099702332
 30
0.0
 10
176.79102447183
 20
62.92755374199609
 30
0.0
  0
SPLINE
  5
256
330
1F
100
AcDbEntity
  8
0
  6
Continuous
 62
     7
370
    15
100
AcDbSpline
210
0.0
220
0.0
230
1.0
 70
     8
 71
     3
 72
    18
 73
    14
 74
     0
 42
0.000000001
 43
0.00000001
 40
0.0
 40
0.0
 40
0.0
 40
0.0
 40
0.0923325137151694
 40
0.1843692047134009
 40
0.2763458873902312
 40
0.368498217575762
 40
0.4610598988406411
 40
0.5542609546627003
 40
0.6483261285518087
 40
0.743473463655427
 40
0.8399130993133287
 40
0.9201660718313618
 40
1.0
 40
1.0
 40
1.0
 40
1.0
 10
180.2793660901957
 20
60.52264858419099
 30
0.0
 10
180.2479427380305
 20
60.54301388321286
 30
0.0
 10
180.1851967104934
 20
60.58367923318909
 30
0.0
 10
180.0886663265342
 20
60.6498559966693
 30
0.0
 10
179.9906900480254
 20
60.71962872024062
 30
0.0
 10
179.8910907842863
 20
60.79338563447392
 30
0.0
 10
179.7899430648885
 20
60.87103672145945
 30
0.0
 10
179.687261356069
 20
60.95262726967728
 30
0.0
 10
179.5830851841456
 20
61.0381788941752
 30
0.0
 10
179.4774501887396
 20
61.12771083158356
 30
0.0
 10
179.3769545516288
 20
61.21559986608022
 30
0.0
 10
179.2823188329247
 20
61.30049043917364
 30
0.0
 10
179.2235830495324
 20
61.3548949001521
 30
0.0
 10
179.1942920313906
 20
61.38202592593359
 30
0.0
  0
LINE
  5
257
330
1F
100
AcDbEntity
  8
0
  6
Continuous
 62
     7
370
    15
100
AcDbLine
 10
181.1323077811
 20
59.973643345
 30
0.0
 11
180.2793660902
 21
60.5226485842
 31
0.0
  0
SPLINE
  5
258
330
1F
100
AcDbEntity
  8
0
  6
Continuous
 62
     7
370
    15
100
AcDbSpline
210
0.0
220
0.0
230
1.0
 70
     8
 71
     3
 72
    25
 73
    21
 74
     0
 42
0.000000001
 43
0.00000001
 40
0.0
 40
0.0
 40
0.0
 40
0.0
 40
0.0280105225425618
 40
0.0559601148859273
 40
0.0839014045041196
 40
0.1118870776784247
 40
0.1399695827586811
 40
0.1682008401737953
 40
0.1966319670422708
 40
0.2253130233140565
 40
0.2542927850735732
 40
0.3799486436574536
 40
0.5057850221666685
 40
0.6313085886327393
 40
0.7532068238012419
 40
0.803947326795536
 40
0.8535894438553622
 40
0.9025339722393254
 40
0.951197035379054
 40
1.0
 40
1.0
 40
1.0
 40
1.0
 10
182.6021289235159
 20
60.92818482936053
 30
0.0
 10
182.6087264002234
 20
60.89135301455066
 30
0.0
 10
182.6219070024041
 20
60.81776950374376
 30
0.0
 10
182.6372878685416
 20
60.71222189391746
 30
0.0
 10
182.6493853642919
 20
60.61048410845311
 30
0.0
 10
182.6578771092425
 20
60.51288976049369
 30
0.0
 10
182.6628320943227
 20
60.41935980287583
 30
0.0
 10
182.6642142556331
 20
60.32992475419204
 30
0.0
 10
182.662016288664
 20
60.24458620855661
 30
0.0
 10
182.6562214195055
 20
60.16334773753393
 30
0.0
 10
182.6364129867491
 20
60.00083024220503
 30
0.0
 10
182.5762953106614
 20
59.7942957466656
 30
0.0
 10
182.4251492833397
 20
59.61970492220854
 30
0.0
 10
182.2093836540145
 20
59.5452030544599
 30
0.0
 10
181.9773633618379
 20
59.5717017909713
 30
0.0
 10
181.7755488009225
 20
59.6347921941119
 30
0.0
 10
181.6283484906581
 20
59.69467942575902
 30
0.0
 10
181.4721358300598
 20
59.7711804008139
 30
0.0
 10
181.3073816074812
 20
59.8627498200844
 30
0.0
 10
181.1907215406876
 20
59.93664348135539
 30
0.0
 10
181.132307781112
 20
59.97364334499582
 30
0.0
  0
ARC
  5
259
330
1F
100
AcDbEntity
  8
0
  6
Continuous
 62
     7
370
    15
100
AcDbCircle
 10
197.5261266996
 20
63.3095855442
 30
0.0
 40
15.11280182445323
100
AcDbArc
 50
170.9338278112
 51
189.0661721888
  0
SPLINE
  5
25A
330
1F
100
AcDbEntity
  8
0
  6
Continuous
 62
     7
370
    15
100
AcDbSpline
210
0.0
220
0.0
230
1.0
 70
     8
 71
     3
 72
    26
 73
    22
 74
     0
 42
0.000000001
 43
0.00000001
 40
0.0
 40
0.0
 40
0.0
 40
0.0
 40
0.0241259796962594
 40
0.0482159912271147
 40
0.0723203915121655
 40
0.0964895678708044
 40
0.1207736231960655
 40
0.1452220711240092
 40
0.1698835501655297
 40
0.1948055644470513
 40
0.2200342569516523
 40
0.2456142191611222
 40
0.3690971486898452
 40
0.4940698769485167
 40
0.6192566784763793
 40
0.7454656653603262
 40
0.7971495824714568
 40
0.8481710308406679
 40
0.8988013269236526
 40
0.9493179290493045
 40
1.0
 40
1.0
 40
1.0
 40
1.0
 10
181.132307781112
 20
70.32579053348198
 30
0.0
 10
181.1612654202799
 20
70.30668183562196
 30
0.0
 10
181.2191375271812
 20
70.26849292806338
 30
0.0
 10
181.3035470169961
 20
70.20450319749182
 30
0.0
 10
181.3860291072865
 20
70.1357042669777
 30
0.0
 10
181.4664351274684
 20
70.0616045431468
 30
0.0
 10
181.5448215967215
 20
69.98233088897727
 30
0.0
 10
181.6211956212946
 20
69.89784514386074
 30
0.0
 10
181.6955838070629
 20
69.80815343990874
 30
0.0
 10
181.7680121369589
 20
69.71325462129512
 30
0.0
 10
181.8385174372378
 20
69.6131357682972
 30
0.0
 10
181.9942438702198
 20
69.37412983669535
 30
0.0
 10
182.2100699474553
 20
68.96038920757073
 30
0.0
 10
182.4276498241642
 20
68.33383749006138
 30
0.0
 10
182.5763316977292
 20
67.66855344484752
 30
0.0
 10
182.6391768152071
 20
67.12337521410467
 30
0.0
 10
182.6593354012502
 20
66.71767927198376
 30
0.0
 10
182.6619395865603
 20
66.44934694972312
 30
0.0
 10
182.6533022190415
 20
66.18846705675968
 30
0.0
 10
182.6344663221253
 20
65.93428533956326
 30
0.0
 10
182.6129197998788
 20
65.77217430791171
 30
0.0
 10
182.6021289235159
 20
65.69098625911333
 30
0.0
  0
LINE
  5
25B
330
1F
100
AcDbEntity
  8
0
  6
Continuous
 62
     7
370
    15
100
AcDbLine
 10
180.2793660902
 20
70.8764238841
 30
0.0
 11
181.1323077811
 21
70.3257905335
 31
0.0
  0
SPLINE
  5
25C
330
1F
100
AcDbEntity
  8
0
  6
Continuous
 62
     7
370
    15
100
AcDbSpline
210
0.0
220
0.0
230
1.0
 70
     8
 71
     3
 72
    14
 73
    10
 74
     0
 42
0.000000001
 43
0.00000001
 40
0.0
 40
0.0
 40
0.0
 40
0.0
 40
0.0786889129230217
 40
0.1577561817120102
 40
0.3304686003102582
 40
0.4997364082417218
 40
0.666847231663544
 40
0.833145083375537
 40
1.0
 40
1.0
 40
1.0
 40
1.0
 10
179.1947177701033
 20
71.15458880779414
 30
0.0
 10
179.2235711142393
 20
71.1567095864151
 30
0.0
 10
179.2814165365668
 20
71.16096134088818
 30
0.0
 10
179.4032414887316
 20
71.16204445108812
 30
0.0
 10
179.5590142204658
 20
71.15146983534316
 30
0.0
 10
179.7467746263438
 20
71.11643575338499
 30
0.0
 10
179.9297243819726
 20
71.059158917786
 30
0.0
 10
180.1082986114293
 20
70.98134942784027
 30
0.0
 10
180.2222800677899
 20
70.91143803166472
 30
0.0
 10
180.2793660901957
 20
70.8764238841365
 30
0.0
  0
SPLINE
  5
25D
330
1F
100
AcDbEntity
  8
0
  6
Continuous
 62
     7
370
    15
100
AcDbSpline
210
0.0
220
0.0
230
1.0
 70
     8
 71
     3
 72
     8
 73
     4
 74
     0
 42
0.000000001
 43
0.00000001
 40
0.0
 40
0.0
 40
0.0
 40
0.0
 40
1.0
 40
1.0
 40
1.0
 40
1.0
 10
177.2290682935719
 20
72.4222583454311
 30
0.0
 10
177.8842498730872
 20
71.99987421040865
 30
0.0
 10
178.5394054410461
 20
71.57731224201422
 30
0.0
 10
179.1945358271275
 20
71.15457267590172
 30
0.0
  0
SPLINE
  5
25E
330
1F
100
AcDbEntity
  8
0
  6
Continuous
 62
     7
370
    15
100
AcDbSpline
210
0.0
220
0.0
230
1.0
 70
     8
 71
     3
 72
    23
 73
    19
 74
     0
 42
0.000000001
 43
0.00000001
 40
0.0
 40
0.0
 40
0.0
 40
0.0
 40
0.0441308420115403
 40
0.0880968635201137
 40
0.1320155028394797
 40
0.1760048571417636
 40
0.220182730577585
 40
0.2646656976919496
 40
0.3095682184552906
 40
0.3550018365579412
 40
0.4010744854732484
 40
0.4478899182331895
 40
0.4955472680210786
 40
0.5953670562466713
 40
0.6949121173423626
 40
0.7950007649006683
 40
0.896438625518418
 40
1.0
 40
1.0
 40
1.0
 40
1.0
 10
176.0558568246022
 20
74.74582321658727
 30
0.0
 10
176.0844202703739
 20
74.7268658414586
 30
0.0
 10
176.1414404827497
 20
74.68902189347837
 30
0.0
 10
176.2237616662096
 20
74.62486516835149
 30
0.0
 10
176.3034151778243
 20
74.55548344185847
 30
0.0
 10
176.3802064265748
 20
74.48033243605757
 30
0.0
 10
176.4542072474923
 20
74.39955049466073
 30
0.0
 10
176.5254253399826
 20
74.3130935017519
 30
0.0
 10
176.5938929609722
 20
74.22096697001395
 30
0.0
 10
176.6596434787758
 20
74.12316334597818
 30
0.0
 10
176.7227162784446
 20
74.01967937775022
 30
0.0
 10
176.7831610253186
 20
73.91050974633379
 30
0.0
 10
176.8617303524304
 20
73.75453045704842
 30
0.0
 10
176.9522533394007
 20
73.54725712608824
 30
0.0
 10
177.0459333283342
 20
73.28334149258134
 30
0.0
 10
177.1233770454755
 20
73.00740469990183
 30
0.0
 10
177.1864219550305
 20
72.71985928672412
 30
0.0
 10
177.2155708385607
 20
72.52230105997356
 30
0.0
 10
177.230296251763
 20
72.42249872904037
 30
0.0
  0
SPLINE
  5
25F
330
1F
100
AcDbEntity
  8
0
  6
Continuous
 62
     7
370
    15
100
AcDbSpline
210
0.0
220
0.0
230
1.0
 70
    11
 71
     3
 72
    39
 73
    35
 74
     0
 42
0.000000001
 43
0.00000001
 40
0.0
 40
0.0
 40
0.0
 40
0.0
 40
0.0312651429932929
 40
0.0629601069329363
 40
0.0948697276489851
 40
0.1264264963751878
 40
0.1579651393672514
 40
0.1898765439017007
 40
0.221552335268766
 40
0.2527844076550835
 40
0.2838418966732524
 40
0.3148645781100705
 40
0.34591276392991
 40
0.3763475365526239
 40
0.406675132466265
 40
0.4379141187435676
 40
0.4688932367346729
 40
0.5000738678969627
 40
0.5313369410961
 40
0.5629183719104931
 40
0.5948445736346094
 40
0.6262809966135477
 40
0.6577486436588904
 40
0.6897584692806558
 40
0.7214430019612538
 40
0.752762334319555
 40
0.7839279690576615
 40
0.8148885765585969
 40
0.846037500498419
 40
0.8763409566916832
 40
0.9067589191462748
 40
0.9378312724751754
 40
0.9689189660503823
 40
0.9999999999999999
 40
0.9999999999999999
 40
0.9999999999999999
 40
0.9999999999999999
 10
185.878852322614
 20
83.62445462497737
 30
0.0
 10
185.8864488167206
 20
83.87059143216919
 30
0.0
 10
185.971887840985
 20
84.36626613847874
 30
0.0
 10
186.3081318505045
 20
85.0696847463572
 30
0.0
 10
186.8281485732522
 20
85.69460432786343
 30
0.0
 10
187.525276106682
 20
86.20234557416825
 30
0.0
 10
188.3681173163175
 20
86.57169695155537
 30
0.0
 10
189.3270595288082
 20
86.78883198806705
 30
0.0
 10
190.3540769220879
 20
86.86218353656687
 30
0.0
 10
191.4127261656437
 20
86.79823160041391
 30
0.0
 10
192.4672773339468
 20
86.62003151814905
 30
0.0
 10
193.4826323955612
 20
86.34845905624633
 30
0.0
 10
194.4203174692784
 20
86.0160340959277
 30
0.0
 10
195.2297484148882
 20
85.64338982221444
 30
0.0
 10
195.8824699260366
 20
85.25017161278625
 30
0.0
 10
196.3500679825475
 20
84.84766782821508
 30
0.0
 10
196.6337419360422
 20
84.43785364836012
 30
0.0
 10
196.7094883047855
 20
84.02322319484645
 30
0.0
 10
196.5828880736711
 20
83.59692804863391
 30
0.0
 10
196.248759674745
 20
83.15728877467929
 30
0.0
 10
195.7314824667851
 20
82.70528245034276
 30
0.0
 10
195.0356320502219
 20
82.2557354437787
 30
0.0
 10
194.192751998682
 20
81.82322492892474
 30
0.0
 10
193.2357747490426
 20
81.43014310036425
 30
0.0
 10
192.2135264137192
 20
81.09245967663159
 30
0.0
 10
191.1638499927838
 20
80.84568384785358
 30
0.0
 10
190.1217826092494
 20
80.70873826845083
 30
0.0
 10
189.1165870925497
 20
80.70789335845322
 30
0.0
 10
188.1861000856291
 20
80.84869156364584
 30
0.0
 10
187.3710079733272
 20
81.15196132941423
 30
0.0
 10
186.7052629329163
 20
81.61007444201637
 30
0.0
 10
186.2225054486401
 20
82.20580184283051
 30
0.0
 10
185.9250475294518
 20
82.89035698662397
 30
0.0
 10
185.8713005614953
 20
83.37976722782648
 30
0.0
 10
185.878852322614
 20
83.62445462497737
 30
0.0
  0
SPLINE
  5
260
330
1F
100
AcDbEntity
  8
0
  6
Continuous
 62
     7
370
    15
100
AcDbSpline
210
0.0
220
0.0
230
1.0
 70
     8
 71
     3
 72
     8
 73
     4
 74
     0
 42
0.000000001
 43
0.00000001
 40
0.0
 40
0.0
 40
0.0
 40
0.0
 40
1.0
 40
1.0
 40
1.0
 40
1.0
 10
193.7151309570153
 20
51.8381706494724
 30
0.0
 10
193.7674219332982
 20
51.92040896967446
 30
0.0
 10
193.8197163549034
 20
52.00810765073874
 30
0.0
 10
193.8719673181966
 20
52.10101346497638
 30
0.0
  0
LINE
  5
261
330
1F
100
AcDbEntity
  8
0
  6
Continuous
 62
     7
370
    15
100
AcDbLine
 10
193.8719673182
 20
52.101013465
 30
0.0
 11
193.9183489861
 21
52.1277890319
 31
0.0
  0
SPLINE
  5
262
330
1F
100
AcDbEntity
  8
0
  6
Continuous
 62
     7
370
    15
100
AcDbSpline
210
0.0
220
0.0
230
1.0
 70
     8
 71
     3
 72
    14
 73
    10
 74
     0
 42
0.000000001
 43
0.00000001
 40
0.0
 40
0.0
 40
0.0
 40
0.0
 40
0.25
 40
0.25
 40
0.5
 40
0.5
 40
0.75
 40
0.75
 40
1.0
 40
1.0
 40
1.0
 40
1.0
 10
193.9183489860534
 20
52.12778903189653
 30
0.0
 10
193.980498570094
 20
52.16366722307433
 30
0.0
 10
194.0305298700529
 20
52.2037284370741
 30
0.0
 10
194.0992707585181
 20
52.28798617905049
 30
0.0
 10
194.1178073384811
 20
52.3315867671295
 30
0.0
 10
194.1206524508141
 20
52.42197634688704
 30
0.0
 10
194.1048055302248
 20
52.46741125102693
 30
0.0
 10
194.0390503252308
 20
52.55793977237853
 30
0.0
 10
193.9895985525152
 20
52.60221984805607
 30
0.0
 10
193.9261853236967
 20
52.64345450996398
 30
0.0
  0
SPLINE
  5
263
330
1F
100
AcDbEntity
  8
0
  6
Continuous
 62
     7
370
    15
100
AcDbSpline
210
0.0
220
0.0
230
1.0
 70
     8
 71
     3
 72
    10
 73
     6
 74
     0
 42
0.000000001
 43
0.00000001
 40
0.0
 40
0.0
 40
0.0
 40
0.0
 40
0.5
 40
0.5
 40
1.0
 40
1.0
 40
1.0
 40
1.0
 10
193.9261853236965
 20
52.64345450996394
 30
0.0
 10
193.7774207658038
 20
52.74018915607616
 30
0.0
 10
193.6307173389267
 20
52.85368684075465
 30
0.0
 10
193.3419733590183
 20
53.1134612593412
 30
0.0
 10
193.1998678775369
 20
53.26033949713017
 30
0.0
 10
193.0668987601639
 20
53.41886334964203
 30
0.0
  0
SPLINE
  5
264
330
1F
100
AcDbEntity
  8
0
  6
Continuous
 62
     7
370
    15
100
AcDbSpline
210
0.0
220
0.0
230
1.0
 70
     8
 71
     3
 72
    14
 73
    10
 74
     0
 42
0.000000001
 43
0.00000001
 40
0.0
 40
0.0
 40
0.0
 40
0.0
 40
0.25
 40
0.25
 40
0.5
 40
0.5
 40
0.75
 40
0.75
 40
1.0
 40
1.0
 40
1.0
 40
1.0
 10
193.0668987601639
 20
53.41886334964203
 30
0.0
 10
192.9989319364048
 20
53.49989241081166
 30
0.0
 10
192.9238767530943
 20
53.57339738584866
 30
0.0
 10
192.7633077460269
 20
53.70928030704162
 30
0.0
 10
192.6802100877252
 20
53.76951009903008
 30
0.0
 10
192.5091374487519
 20
53.87067864110496
 30
0.0
 10
192.4225372284691
 20
53.91141082127427
 30
0.0
 10
192.245139946719
 20
53.95329915950546
 30
0.0
 10
192.1556217780023
 20
53.95220769616029
 30
0.0
 10
192.0797264877883
 20
53.90839427771454
 30
0.0
  0
LINE
  5
265
330
1F
100
AcDbEntity
  8
0
  6
Continuous
 62
     7
370
    15
100
AcDbLine
 10
192.0797264878
 20
53.9083942777
 30
0.0
 11
192.0335863451
 21
53.8817581403
 31
0.0
  0
ARC
  5
266
330
1F
100
AcDbEntity
  8
0
  6
Continuous
 62
     7
370
    15
100
AcDbCircle
 10
193.6992616208
 20
55.0005265892
 30
0.0
 40
2.291814027076689
100
AcDbArc
 50
156.9990699291
 51
203.0009300709
  0
LINE
  5
267
330
1F
100
AcDbEntity
  8
0
  6
Continuous
 62
     7
370
    15
100
AcDbLine
 10
216.5021411434
 20
79.6639185951
 30
0.0
 11
217.5911310452
 21
80.1614139911
 31
0.0
  0
LWPOLYLINE
  5
268
330
1F
100
AcDbEntity
  8
0
  6
Continuous
 62
     7
370
    15
100
AcDbPolyline
 90
        9
 70
   128
 43
0.0
 10
213.4509927466
 20
80.844999124
 10
213.0452859925
 20
80.9646290557
 10
212.664510284
 20
81.0597962807
 10
212.3184689184
 20
81.1280506624
 10
212.0160709365
 20
81.1676349511
 10
211.7651017543
 20
81.1775300256
 10
211.5720227227
 20
81.1574811314
 10
211.4418047764
 20
81.1080044392
 10
211.3778004538
 20
81.030373756
  0
ARC
  5
269
330
1F
100
AcDbEntity
  8
0
  6
Continuous
 62
     7
370
    15
100
AcDbCircle
 10
180.7005770072
 20
70.4187404931
 30
0.0
 40
5.979926313218212
100
AcDbArc
 50
267.6855118405
 51
286.9851708525
  0
SPLINE
  5
26A
330
1F
100
AcDbEntity
  8
0
  6
Continuous
 62
     7
370
    15
100
AcDbSpline
210
0.0
220
0.0
230
1.0
 70
     8
 71
     3
 72
    17
 73
    13
 74
     0
 42
0.000000001
 43
0.00000001
 40
0.0
 40
0.0
 40
0.0
 40
0.0
 40
0.0749546816476682
 40
0.1505453426576977
 40
0.263162600791879
 40
0.3788599601050642
 40
0.4915901714106534
 40
0.6082292052230447
 40
0.7115755581242615
 40
0.8179861430112082
 40
0.920338497526681
 40
1.0
 40
1.0
 40
1.0
 40
1.0
 10
193.1387311515886
 20
82.78274974240179
 30
0.0
 10
193.0057668066137
 20
82.85743727003525
 30
0.0
 10
192.7387099339077
 20
83.0074460379023
 30
0.0
 10
192.2274726828023
 20
83.26356783299535
 30
0.0
 10
191.5916292776464
 20
83.54649372164515
 30
0.0
 10
190.821934675033
 20
83.82935565443981
 30
0.0
 10
190.0055618619452
 20
84.05865907068267
 30
0.0
 10
189.203628416937
 20
84.20256686461781
 30
0.0
 10
188.4267259944959
 20
84.25421414879321
 30
0.0
 10
187.7138839858642
 20
84.2082809113717
 30
0.0
 10
187.0894873312868
 20
84.08692085832199
 30
0.0
 10
186.7443560437848
 20
83.93909184438157
 30
0.0
 10
186.5933033856641
 20
83.87439192782318
 30
0.0
  0
SPLINE
  5
26B
330
1F
100
AcDbEntity
  8
0
  6
Continuous
 62
     7
370
    15
100
AcDbSpline
210
0.0
220
0.0
230
1.0
 70
     8
 71
     3
 72
    10
 73
     6
 74
     0
 42
0.000000001
 43
0.00000001
 40
0.0
 40
0.0
 40
0.0
 40
0.0
 40
0.3823955424443034
 40
0.962151102234642
 40
1.0
 40
1.0
 40
1.0
 40
1.0
 10
194.6592506091497
 20
82.07825323055648
 30
0.0
 10
194.4850810630728
 20
82.17271839737391
 30
0.0
 10
194.046850482082
 20
82.4104036062422
 30
0.0
 10
193.5024116223885
 20
82.64117638171709
 30
0.0
 10
193.1613608797231
 20
82.77290717932156
 30
0.0
 10
193.1404601324341
 20
82.78098008979055
 30
0.0
  0
SPLINE
  5
26C
330
1F
100
AcDbEntity
  8
0
  6
Continuous
 62
     7
370
    15
100
AcDbSpline
210
0.0
220
0.0
230
1.0
 70
     8
 71
     3
 72
    13
 73
     9
 74
     0
 42
0.000000001
 43
0.00000001
 40
0.0
 40
0.0
 40
0.0
 40
0.0
 40
0.1623496701651002
 40
0.3077729546454199
 40
0.4363430635933389
 40
0.6628550650965161
 40
0.8711863309141117
 40
0.9999999999999999
 40
0.9999999999999999
 40
0.9999999999999999
 40
0.9999999999999999
 10
186.4645363104883
 20
83.2398244915565
 30
0.0
 10
186.473557438238
 20
83.07395346336685
 30
0.0
 10
186.4906591615675
 20
82.75950492531875
 30
0.0
 10
186.627059351856
 20
82.33257005515934
 30
0.0
 10
186.8630788492503
 20
81.87013645954269
 30
0.0
 10
187.2599130727068
 20
81.4128371638647
 30
0.0
 10
187.7784003808288
 20
81.03843501482577
 30
0.0
 10
188.1666749567671
 20
80.90891715376678
 30
0.0
 10
188.3150238345389
 20
80.85943199421679
 30
0.0
  0
LWPOLYLINE
  5
26D
330
1F
100
AcDbEntity
  8
0
  6
Continuous
 62
     7
370
    15
100
AcDbPolyline
 90
       29
 70
   128
 43
0.0
 10
195.6190372698
 20
82.6518998051
 10
195.7570789616
 20
82.7825434485
 10
195.9446514984
 20
83.0126745882
 10
196.0776048433
 20
83.2637589154
 10
196.1310590084
 20
83.532615516
 10
196.0975248071
 20
83.7655874183
 10
196.0099663174
 20
83.9625202224
 10
195.8976541646
 20
84.1227779073
 10
195.7843227722
 20
84.2480452749
 10
195.3184846368
 20
84.6217045214
 10
195.0442508346
 20
84.7907688009
 10
194.7540457983
 20
84.9485174493
 10
194.0534156917
 20
85.2736628131
 10
193.1868433116
 20
85.591471234
 10
192.6488842572
 20
85.7493259211
 10
192.0322029276
 20
85.8947464087
 10
191.3357329788
 20
86.0135411854
 10
190.5916457887
 20
86.0791210454
 10
189.9739035004
 20
86.0771574096
 10
189.4842010807
 20
86.0341751969
 10
188.6012964085
 20
85.8386319879
 10
187.9002336118
 20
85.5334308803
 10
187.3175496944
 20
85.1084497725
 10
187.1431459359
 20
84.9325442307
 10
186.9827200045
 20
84.7395177424
 10
186.838887842
 20
84.5295888447
 10
186.5848465244
 20
83.9825626199
 10
186.4645363105
 20
83.2398244916
 10
186.4645363105
 20
83.2398244916
  0
LINE
  5
26E
330
1F
100
AcDbEntity
  8
0
  6
Continuous
 62
     7
370
    15
100
AcDbLine
 10
182.6021289235
 20
65.6909862591
 30
0.0
 11
182.5951441989
 21
66.0857641509
 31
0.0
  0
LINE
  5
26F
330
1F
100
AcDbEntity
  8
0
  6
Continuous
 62
     7
370
    15
100
AcDbLine
 10
182.5951441989
 20
66.0857641509
 30
0.0
 11
182.6526097309
 21
66.9546218727
 31
0.0
  0
LINE
  5
270
330
1F
100
AcDbEntity
  8
0
  6
Continuous
 62
     7
370
    15
100
AcDbLine
 10
181.9557463057
 20
69.3933484907
 30
0.0
 11
181.5405266124
 21
69.8314768405
 31
0.0
  0
SPLINE
  5
271
330
1F
100
AcDbEntity
  8
0
  6
Continuous
 62
     7
370
    15
100
AcDbSpline
210
0.0
220
0.0
230
1.0
 70
     8
 71
     3
 72
    28
 73
    24
 74
     0
 42
0.000000001
 43
0.00000001
 40
0.0
 40
0.0
 40
0.0
 40
0.0
 40
0.0208353046965971
 40
0.082285110238186
 40
0.1454776449419113
 40
0.2074088756023537
 40
0.2712514282290543
 40
0.3312900276960281
 40
0.3931034849899906
 40
0.452645072143558
 40
0.5138518139105429
 40
0.5745803779315363
 40
0.6369635356462572
 40
0.6995823205363698
 40
0.7643811635837554
 40
0.7880728419342612
 40
0.8122462246906327
 40
0.8360081867306869
 40
0.8607723985653313
 40
0.8895140689725048
 40
0.9190031869024027
 40
0.9593602434986891
 40
1.0
 40
1.0
 40
1.0
 40
1.0
 10
186.4775703257739
 20
83.02168328257717
 30
0.0
 10
186.4739445376816
 20
83.09214979689494
 30
0.0
 10
186.4596251707598
 20
83.37044401832219
 30
0.0
 10
186.5556527058758
 20
83.82788755761169
 30
0.0
 10
186.7717708830556
 20
84.3767524299352
 30
0.0
 10
187.1215527012292
 20
84.86919967878111
 30
0.0
 10
187.5769075125143
 20
85.28009442315845
 30
0.0
 10
188.1312709021002
 20
85.60504126349127
 30
0.0
 10
188.7522949971413
 20
85.83144247829458
 30
0.0
 10
189.4379343369093
 20
85.96135404116846
 30
0.0
 10
190.1598265146276
 20
85.99016517154476
 30
0.0
 10
190.9123253118421
 20
85.9149863713832
 30
0.0
 10
191.6682578639819
 20
85.73211220281763
 30
0.0
 10
192.4116842333716
 20
85.43141348758789
 30
0.0
 10
192.956985955482
 20
85.08780528206071
 30
0.0
 10
193.3032390459804
 20
84.76289307037122
 30
0.0
 10
193.492779746047
 20
84.53061680392275
 30
0.0
 10
193.6411597706812
 20
84.27276885887643
 30
0.0
 10
193.7426225484238
 20
83.98815714097228
 30
0.0
 10
193.7921160967288
 20
83.68691024121226
 30
0.0
 10
193.798047018949
 20
83.34400310478276
 30
0.0
 10
193.7618764156822
 20
82.97629228183082
 30
0.0
 10
193.7107984275897
 20
82.71793239986853
 30
0.0
 10
193.6851702958242
 20
82.58830158735739
 30
0.0
  0
SPLINE
  5
272
330
1F
100
AcDbEntity
  8
0
  6
Continuous
 62
     7
370
    15
100
AcDbSpline
210
0.0
220
0.0
230
1.0
 70
     8
 71
     3
 72
    10
 73
     6
 74
     0
 42
0.000000001
 43
0.00000001
 40
0.0
 40
0.0
 40
0.0
 40
0.0
 40
0.2944403060911102
 40
0.9835046760578269
 40
1.0
 40
1.0
 40
1.0
 40
1.0
 10
193.6879107536502
 20
82.58705759349661
 30
0.0
 10
193.7973467916854
 20
82.53586383384416
 30
0.0
 10
194.1628906826214
 20
82.36486380103078
 30
0.0
 10
194.5275769249997
 20
82.17810948927014
 30
0.0
 10
194.7247786595184
 20
82.05355608842383
 30
0.0
 10
194.729389051128
 20
82.0506441467231
 30
0.0
  0
ARC
  5
273
330
1F
100
AcDbEntity
  8
0
  6
Continuous
 62
     7
370
    15
100
AcDbCircle
 10
199.0355585048
 20
63.636049024
 30
0.0
 40
16.62192307623793
100
AcDbArc
 50
171.5249591672
 51
179.8212373334
  0
SPLINE
  5
274
330
1F
100
AcDbEntity
  8
0
  6
Continuous
 62
     7
370
    15
100
AcDbSpline
210
0.0
220
0.0
230
1.0
 70
     8
 71
     3
 72
    14
 73
    10
 74
     0
 42
0.000000001
 43
0.00000001
 40
0.0
 40
0.0
 40
0.0
 40
0.0
 40
0.0003951392850831
 40
0.0003951392850831
 40
0.0003951392850831
 40
0.0008159035679249
 40
0.0008159035679249
 40
0.0008159035679249
 40
0.0012369936130996
 40
0.0012369936130996
 40
0.0012369936130996
 40
0.0012369936130996
 10
193.1435700215581
 20
82.78121674327507
 30
0.0
 10
193.2041948548718
 20
82.76198857366406
 30
0.0
 10
193.2640546547661
 20
82.74218810494368
 30
0.0
 10
193.3231098975696
 20
82.72182941348368
 30
0.0
 10
193.3859941274329
 20
82.70015071786393
 30
0.0
 10
193.4479776414726
 20
82.6778348355203
 30
0.0
 10
193.5090107139262
 20
82.65490561950583
 30
0.0
 10
193.5700909495701
 20
82.63195868498343
 30
0.0
 10
193.6302310538429
 20
82.60839281026547
 30
0.0
 10
193.6893797311116
 20
82.58424187179202
 30
0.0
  0
LINE
  5
275
330
1F
100
AcDbEntity
  8
0
  6
Continuous
 62
     7
370
    15
100
AcDbLine
 10
181.5405266124
 20
69.8314768405
 30
0.0
 11
180.687278352
 21
70.3811191566
 31
0.0
  0
LINE
  5
276
330
1F
100
AcDbEntity
  8
0
  6
Continuous
 62
     7
370
    15
100
AcDbLine
 10
180.2793660902
 20
70.8764238841
 30
0.0
 11
180.687278352
 21
70.3811191566
 31
0.0
  0
SPLINE
  5
277
330
1F
100
AcDbEntity
  8
0
  6
Continuous
 62
     7
370
    15
100
AcDbSpline
210
0.0
220
0.0
230
1.0
 70
     8
 71
     3
 72
    13
 73
     9
 74
     0
 42
0.000000001
 43
0.00000001
 40
0.0
 40
0.0
 40
0.0
 40
0.0
 40
0.1618542298857686
 40
0.3254858841563705
 40
0.4910085196618037
 40
0.6585318472800669
 40
0.8281616954210487
 40
1.0
 40
1.0
 40
1.0
 40
1.0
 10
180.687278351985
 20
70.38111915662064
 30
0.0
 10
180.6611751626283
 20
70.3978697926649
 30
0.0
 10
180.6086821281672
 20
70.43155501415649
 30
0.0
 10
180.5266342084733
 20
70.47514661004304
 30
0.0
 10
180.4418919961407
 20
70.51374137498556
 30
0.0
 10
180.3544011925984
 20
70.5464245316063
 30
0.0
 10
180.2644981671922
 20
70.57367128274421
 30
0.0
 10
180.203318700261
 20
70.58646682273053
 30
0.0
 10
180.1725311266944
 20
70.59290597051022
 30
0.0
  0
SPLINE
  5
278
330
1F
100
AcDbEntity
  8
0
  6
Continuous
 62
     7
370
    15
100
AcDbSpline
210
0.0
220
0.0
230
1.0
 70
     8
 71
     3
 72
     9
 73
     5
 74
     0
 42
0.000000001
 43
0.00000001
 40
0.0
 40
0.0
 40
0.0
 40
0.0
 40
0.4907532435227647
 40
0.9999999999999999
 40
0.9999999999999999
 40
0.9999999999999999
 40
0.9999999999999999
 10
180.1725233569719
 20
70.59286864113552
 30
0.0
 10
180.1404872068743
 20
70.60363370958028
 30
0.0
 10
180.0752076585058
 20
70.62556951660109
 30
0.0
 10
180.0078013590693
 20
70.64524634322123
 30
0.0
 10
179.9734749197151
 20
70.65526670335528
 30
0.0
  0
SPLINE
  5
279
330
1F
100
AcDbEntity
  8
0
  6
Continuous
 62
     7
370
    15
100
AcDbSpline
210
0.0
220
0.0
230
1.0
 70
     8
 71
     3
 72
    14
 73
    10
 74
     0
 42
0.000000001
 43
0.00000001
 40
0.0
 40
0.0
 40
0.0
 40
0.0
 40
0.0310294147488059
 40
0.0622870907567357
 40
0.1248019217230938
 40
0.2498303511435398
 40
0.4998901825558308
 40
0.7606872171869626
 40
1.0
 40
1.0
 40
1.0
 40
1.0
 10
179.19491249041
 20
71.15429344554556
 30
0.0
 10
179.2029021512014
 20
71.149182811466
 30
0.0
 10
179.2189402470164
 20
71.13892394801935
 30
0.0
 10
179.2510192048326
 20
71.11833093529965
 30
0.0
 10
179.3073283169291
 20
71.08222132657724
 30
0.0
 10
179.42007384464
 20
71.0099073581284
 30
0.0
 10
179.5844519083149
 20
70.90452312697676
 30
0.0
 10
179.7792878489753
 20
70.779660921662
 30
0.0
 10
179.9104408428099
 20
70.69564703680554
 30
0.0
 10
179.9732002345156
 20
70.65544467348727
 30
0.0
  0
LINE
  5
27A
330
1F
100
AcDbEntity
  8
0
  6
Continuous
 62
     7
370
    15
100
AcDbLine
 10
177.2305604887
 20
72.4212957537
 30
0.0
 11
177.497574509
 21
72.2488597647
 31
0.0
  0
SPLINE
  5
27B
330
1F
100
AcDbEntity
  8
0
  6
Continuous
 62
     7
370
    15
100
AcDbSpline
210
0.0
220
0.0
230
1.0
 70
     8
 71
     3
 72
     8
 73
     4
 74
     0
 42
0.000000001
 43
0.00000001
 40
0.0
 40
0.0
 40
0.0
 40
0.0
 40
1.0
 40
1.0
 40
1.0
 40
1.0
 10
177.5998708958615
 20
72.1828840814384
 30
0.0
 10
177.5659764069383
 20
72.2051065632308
 30
0.0
 10
177.5315986783411
 20
72.22728529695897
 30
0.0
 10
177.4967499116065
 20
72.2493900181921
 30
0.0
  0
LWPOLYLINE
  5
27C
330
1F
100
AcDbEntity
  8
0
  6
Continuous
 62
     7
370
    15
100
AcDbPolyline
 90
       14
 70
   128
 43
0.0
 10
173.9130473168
 20
76.6750466647
 10
174.5408254109
 20
78.168232562
 10
175.2733827784
 20
79.6344841589
 10
176.1016720327
 20
81.0556926416
 10
177.0154634589
 20
82.4143054972
 10
178.0034713549
 20
83.693543295
 10
179.0534934143
 20
84.8776069189
 10
180.1525614304
 20
85.9518726933
 10
181.2871014584
 20
86.9030729916
 10
182.4431014597
 20
87.7194600964
 10
183.6062843559
 20
88.3909512893
 10
184.7622843572
 20
88.9092533763
 10
185.8968243852
 20
89.2679651122
 10
186.7582710617
 20
89.4341101346
  0
SPLINE
  5
27D
330
1F
100
AcDbEntity
  8
0
  6
Continuous
 62
     7
370
    15
100
AcDbSpline
210
0.0
220
0.0
230
1.0
 70
     8
 71
     3
 72
     8
 73
     4
 74
     0
 42
0.000000001
 43
0.00000001
 40
0.0
 40
0.0
 40
0.0
 40
0.0
 40
1.0
 40
1.0
 40
1.0
 40
1.0
 10
173.9209288355304
 20
76.1302338512642
 30
0.0
 10
173.9965743261297
 20
76.08064648194164
 30
0.0
 10
174.0724789817531
 20
76.03163187786605
 30
0.0
 10
174.148646006985
 20
75.98318948213911
 30
0.0
  0
SPLINE
  5
27E
330
1F
100
AcDbEntity
  8
0
  6
Continuous
 62
     7
370
    15
100
AcDbSpline
210
0.0
220
0.0
230
1.0
 70
     8
 71
     3
 72
     8
 73
     4
 74
     0
 42
0.000000001
 43
0.00000001
 40
0.0
 40
0.0
 40
0.0
 40
0.0
 40
1.0
 40
1.0
 40
1.0
 40
1.0
 10
173.9130473168397
 20
76.67504666465062
 30
0.0
 10
173.9140891800025
 20
76.49373161804273
 30
0.0
 10
173.916745718533
 20
76.31212198943665
 30
0.0
 10
173.9209288355332
 20
76.13023385126458
 30
0.0
  0
SPLINE
  5
27F
330
1F
100
AcDbEntity
  8
0
  6
Continuous
 62
     7
370
    15
100
AcDbSpline
210
0.0
220
0.0
230
1.0
 70
     8
 71
     3
 72
    10
 73
     6
 74
     0
 42
0.000000001
 43
0.00000001
 40
0.0
 40
0.0
 40
0.0
 40
0.0
 40
0.2409820260271373
 40
0.5031431986318972
 40
0.9999999999999999
 40
0.9999999999999999
 40
0.9999999999999999
 40
0.9999999999999999
 10
181.5405266124233
 20
60.89035495036467
 30
0.0
 10
181.6501879833509
 20
60.82145293440761
 30
0.0
 10
181.879148515572
 20
60.67759332266661
 30
0.0
 10
182.2494420912272
 20
60.50462894843435
 30
0.0
 10
182.4107458077348
 20
60.53499975310031
 30
0.0
 10
182.5163359931861
 20
60.55488062730718
 30
0.0
  0
LINE
  5
280
330
1F
100
AcDbEntity
  8
0
  6
Continuous
 62
     7
370
    15
100
AcDbLine
 10
174.5228890618
 20
75.7392626409
 30
0.0
 11
173.9209288355
 21
76.1302338513
 31
0.0
  0
LINE
  5
281
330
1F
100
AcDbEntity
  8
0
  6
Continuous
 62
     7
370
    15
100
AcDbLine
 10
180.2793660902
 20
60.5226485842
 30
0.0
 11
180.687278352
 21
61.4399972665
 31
0.0
  0
LINE
  5
282
330
1F
100
AcDbEntity
  8
0
  6
Continuous
 62
     7
370
    15
100
AcDbLine
 10
180.687278352
 20
61.4399972665
 30
0.0
 11
181.5405266124
 21
60.8903549504
 31
0.0
  0
SPLINE
  5
283
330
1F
100
AcDbEntity
  8
0
  6
Continuous
 62
     7
370
    15
100
AcDbSpline
210
0.0
220
0.0
230
1.0
 70
     8
 71
     3
 72
    13
 73
     9
 74
     0
 42
0.000000001
 43
0.00000001
 40
0.0
 40
0.0
 40
0.0
 40
0.0
 40
0.1722587823387897
 40
0.3421398270959865
 40
0.5097456257587107
 40
0.6751828992986529
 40
0.838562618995617
 40
1.0
 40
1.0
 40
1.0
 40
1.0
 10
180.1725157776207
 20
61.81507659429165
 30
0.0
 10
180.2033844762214
 20
61.79091713971452
 30
0.0
 10
180.2646957838862
 20
61.7429317104695
 30
0.0
 10
180.3547504675003
 20
61.67493173258291
 30
0.0
 10
180.4422966204139
 20
61.61049882566207
 30
0.0
 10
180.5269953820811
 20
61.54992415111611
 30
0.0
 10
180.6089025537107
 20
61.49282339410212
 30
0.0
 10
180.6612574430092
 20
61.45753563786793
 30
0.0
 10
180.687278351985
 20
61.43999726647163
 30
0.0
  0
SPLINE
  5
284
330
1F
100
AcDbEntity
  8
0
  6
Continuous
 62
     7
370
    15
100
AcDbSpline
210
0.0
220
0.0
230
1.0
 70
     8
 71
     3
 72
    11
 73
     7
 74
     0
 42
0.000000001
 43
0.00000001
 40
0.0
 40
0.0
 40
0.0
 40
0.0
 40
0.2392913840897591
 40
0.5001130134987114
 40
0.7515028526612877
 40
1.0
 40
1.0
 40
1.0
 40
1.0
 10
179.9727733723496
 20
61.87832695472053
 30
0.0
 10
179.9100114975998
 20
61.84060391852242
 30
0.0
 10
179.7788407476235
 20
61.7617637154657
 30
0.0
 10
179.5837712103211
 20
61.63761072380318
 30
0.0
 10
179.386645144289
 20
61.51054839643479
 30
0.0
 10
179.2582578572334
 20
61.42456679865897
 30
0.0
 10
179.1944356825232
 20
61.3818247742657
 30
0.0
  0
SPLINE
  5
285
330
1F
100
AcDbEntity
  8
0
  6
Continuous
 62
     7
370
    15
100
AcDbSpline
210
0.0
220
0.0
230
1.0
 70
     8
 71
     3
 72
     9
 73
     5
 74
     0
 42
0.000000001
 43
0.00000001
 40
0.0
 40
0.0
 40
0.0
 40
0.0
 40
0.5090839669866044
 40
1.0
 40
1.0
 40
1.0
 40
1.0
 10
179.9737110118267
 20
61.87734212176318
 30
0.0
 10
180.0079786910513
 20
61.86733457067498
 30
0.0
 10
180.0752911217049
 20
61.84767661297609
 30
0.0
 10
180.1404947871828
 20
61.82577857206617
 30
0.0
 10
180.1725043119771
 20
61.81502847269191
 30
0.0
  0
LINE
  5
286
330
1F
100
AcDbEntity
  8
0
  6
Continuous
 62
     7
370
    15
100
AcDbLine
 10
180.1725071184
 20
61.8150844114
 30
0.0
 11
182.4139946661
 21
63.1090676295
 31
0.0
  0
LINE
  5
287
330
1F
100
AcDbEntity
  8
0
  6
Continuous
 62
     7
370
    15
100
AcDbLine
 10
177.1789534351
 20
63.6539902856
 30
0.0
 11
176.7909734488
 21
62.9275865573
 31
0.0
  0
SPLINE
  5
288
330
1F
100
AcDbEntity
  8
0
  6
Continuous
 62
     7
370
    15
100
AcDbSpline
210
0.0
220
0.0
230
1.0
 70
     8
 71
     3
 72
     8
 73
     4
 74
     0
 42
0.000000001
 43
0.00000001
 40
0.0
 40
0.0
 40
0.0
 40
0.0
 40
1.0
 40
1.0
 40
1.0
 40
1.0
 10
177.1789586417247
 20
63.65398746702755
 30
0.0
 10
177.1912952155212
 20
63.65234393576561
 30
0.0
 10
177.2036090925644
 20
63.65081380644952
 30
0.0
 10
177.2158988082028
 20
63.64939746733938
 30
0.0
  0
LINE
  5
289
330
1F
100
AcDbEntity
  8
0
  6
Continuous
 62
     7
370
    15
100
AcDbLine
 10
177.2207935721
 20
63.6488649361
 30
0.0
 11
179.9730269118
 21
61.8775376276
 31
0.0
  0
LINE
  5
28A
330
1F
100
AcDbEntity
  8
0
  6
Continuous
 62
     7
370
    15
100
AcDbLine
 10
182.4137163305
 20
63.2398010088
 30
0.0
 11
182.2963843005
 21
63.3831225242
 31
0.0
  0
LINE
  5
28B
330
1F
100
AcDbEntity
  8
0
  6
Continuous
 62
     7
370
    15
100
AcDbLine
 10
177.2207935721
 20
63.6488649361
 30
0.0
 11
179.5201260296
 21
64.9762413098
 31
0.0
  0
LINE
  5
28C
330
1F
100
AcDbEntity
  8
0
  6
Continuous
 62
     7
370
    15
100
AcDbLine
 10
179.6008609475
 20
64.9391323748
 30
0.0
 11
179.5201249805
 21
64.9762467259
 31
0.0
  0
LINE
  5
28D
330
1F
100
AcDbEntity
  8
0
  6
Continuous
 62
     7
370
    15
100
AcDbLine
 10
182.296481641
 20
63.382983672
 30
0.0
 11
179.6008609475
 21
64.9391323748
 31
0.0
  0
LINE
  5
28E
330
1F
100
AcDbEntity
  8
0
  6
Continuous
 62
     7
370
    15
100
AcDbLine
 10
182.4137163305
 20
63.315297884
 30
0.0
 11
182.2964196984
 21
63.3830194058
 31
0.0
  0
SPLINE
  5
28F
330
1F
100
AcDbEntity
  8
0
  6
Continuous
 62
     7
370
    15
100
AcDbSpline
210
0.0
220
0.0
230
1.0
 70
     8
 71
     3
 72
    13
 73
     9
 74
     0
 42
0.000000001
 43
0.00000001
 40
0.0
 40
0.0
 40
0.0
 40
0.0
 40
0.1621004456877203
 40
0.32594345520649
 40
0.4915935308810087
 40
0.6591130874452793
 40
0.8285624736348074
 40
1.0
 40
1.0
 40
1.0
 40
1.0
 10
176.760871874277
 20
63.89230788166096
 30
0.0
 10
176.7852909798347
 20
63.87653187775956
 30
0.0
 10
176.8343916939305
 20
63.84481027946809
 30
0.0
 10
176.9061175582092
 20
63.80082080954396
 30
0.0
 10
176.9767595523705
 20
63.75933776748786
 30
0.0
 10
177.0459440710438
 20
63.72089394447887
 30
0.0
 10
177.1137873892872
 20
63.68525572255127
 30
0.0
 10
177.1571572982354
 20
63.66445579392668
 30
0.0
 10
177.178968724943
 20
63.65399517434686
 30
0.0
  0
SPLINE
  5
290
330
1F
100
AcDbEntity
  8
0
  6
Continuous
 62
     7
370
    15
100
AcDbSpline
210
0.0
220
0.0
230
1.0
 70
     8
 71
     3
 72
    13
 73
     9
 74
     0
 42
0.000000001
 43
0.00000001
 40
0.0
 40
0.0
 40
0.0
 40
0.0
 40
0.1705273303835771
 40
0.3393382731990408
 40
0.506559245496943
 40
0.6723203022115876
 40
0.8367549624391394
 40
1.0
 40
1.0
 40
1.0
 40
1.0
 10
179.520117603528
 20
64.97623681805281
 30
0.0
 10
179.4966449536687
 20
64.98655211480472
 30
0.0
 10
179.4499359102987
 20
65.00707888303273
 30
0.0
 10
179.3755993321172
 20
65.04257186146884
 30
0.0
 10
179.2988574237211
 20
65.08110553423228
 30
0.0
 10
179.2195013489666
 20
65.12294024904321
 30
0.0
 10
179.1380395055517
 20
65.16753862272522
 30
0.0
 10
179.0816725683704
 20
65.1997963786754
 30
0.0
 10
179.0535914182734
 20
65.21586670166843
 30
0.0
  0
LINE
  5
291
330
1F
100
AcDbEntity
  8
0
  6
Continuous
 62
     7
370
    15
100
AcDbLine
 10
173.506121089
 20
65.4155953858
 30
0.0
 11
174.1471228309
 21
65.5755094231
 31
0.0
  0
LINE
  5
292
330
1F
100
AcDbEntity
  8
0
  6
Continuous
 62
     7
370
    15
100
AcDbLine
 10
174.1471228309
 20
65.5755094231
 30
0.0
 11
176.7608718743
 21
63.8923078817
 31
0.0
  0
SPLINE
  5
293
330
1F
100
AcDbEntity
  8
0
  6
Continuous
 62
     7
370
    15
100
AcDbSpline
210
0.0
220
0.0
230
1.0
 70
     8
 71
     3
 72
     8
 73
     4
 74
     0
 42
0.000000001
 43
0.00000001
 40
0.0
 40
0.0
 40
0.0
 40
0.0
 40
1.0
 40
1.0
 40
1.0
 40
1.0
 10
173.7432789572485
 20
64.84710155645736
 30
0.0
 10
173.6638375259306
 20
65.03705506509684
 30
0.0
 10
173.5847874412499
 20
65.22655616116059
 30
0.0
 10
173.5061210890233
 20
65.41559538579239
 30
0.0
  0
LINE
  5
294
330
1F
100
AcDbEntity
  8
0
  6
Continuous
 62
     7
370
    15
100
AcDbLine
 10
174.1471228309
 20
65.5755094231
 30
0.0
 11
175.8184578009
 21
66.5403505641
 31
0.0
  0
LINE
  5
295
330
1F
100
AcDbEntity
  8
0
  6
Continuous
 62
     7
370
    15
100
AcDbLine
 10
177.0155862797
 20
66.392382467
 30
0.0
 11
175.8136410905
 21
66.5375701319
 31
0.0
  0
LINE
  5
296
330
1F
100
AcDbEntity
  8
0
  6
Continuous
 62
     7
370
    15
100
AcDbLine
 10
179.0535914183
 20
65.2158667017
 30
0.0
 11
177.0155858971
 21
66.3923822462
 31
0.0
  0
SPLINE
  5
297
330
1F
100
AcDbEntity
  8
0
  6
Continuous
 62
     7
370
    15
100
AcDbSpline
210
0.0
220
0.0
230
1.0
 70
     8
 71
     3
 72
     8
 73
     4
 74
     0
 42
0.000000001
 43
0.00000001
 40
0.0
 40
0.0
 40
0.0
 40
0.0
 40
1.0
 40
1.0
 40
1.0
 40
1.0
 10
173.5061210890233
 20
65.41559538579239
 30
0.0
 10
173.4940151821981
 20
65.4537602880077
 30
0.0
 10
173.4829537103446
 20
65.49232781119531
 30
0.0
 10
173.4729880942238
 20
65.5313177776298
 30
0.0
  0
LINE
  5
298
330
1F
100
AcDbEntity
  8
0
  6
Continuous
 62
     7
370
    15
100
AcDbLine
 10
173.4729880942
 20
65.5313177776
 30
0.0
 11
174.4984356497
 21
66.1232960508
 31
0.0
  0
SPLINE
  5
299
330
1F
100
AcDbEntity
  8
0
  6
Continuous
 62
     7
370
    15
100
AcDbSpline
210
0.0
220
0.0
230
1.0
 70
     8
 71
     3
 72
     8
 73
     4
 74
     0
 42
0.000000001
 43
0.00000001
 40
0.0000004024872366
 40
0.0000004024872366
 40
0.0000004024872366
 40
0.0000004024872366
 40
0.0015137680586847
 40
0.0015137680586847
 40
0.0015137680586847
 40
0.0015137680586847
 10
174.4984356496878
 20
66.12329605078727
 30
0.0
 10
174.8113641632361
 20
66.24629566320836
 30
0.0
 10
175.1242832168929
 20
66.36931402164299
 30
0.0
 10
175.4371904764571
 20
66.49235548271615
 30
0.0
  0
SPLINE
  5
29A
330
1F
100
AcDbEntity
  8
0
  6
Continuous
 62
     7
370
    15
100
AcDbSpline
210
0.0
220
0.0
230
1.0
 70
     8
 71
     3
 72
     8
 73
     4
 74
     0
 42
0.000000001
 43
0.00000001
 40
0.0000002414707367
 40
0.0000002414707367
 40
0.0000002414707367
 40
0.0000002414707367
 40
0.0002447240690309
 40
0.0002447240690309
 40
0.0002447240690309
 40
0.0002447240690309
 10
175.4371904764571
 20
66.49235548271615
 30
0.0
 10
175.4802310199752
 20
66.50167868187445
 30
0.0
 10
175.523287571284
 20
66.51101392658929
 30
0.0
 10
175.5663602722856
 20
66.52036134832551
 30
0.0
  0
LINE
  5
29B
330
1F
100
AcDbEntity
  8
0
  6
Continuous
 62
     7
370
    15
100
AcDbLine
 10
175.8136412513
 20
66.5375700895
 30
0.0
 11
175.5663605211
 21
66.5203615358
 31
0.0
  0
LWPOLYLINE
  5
29C
330
1F
100
AcDbEntity
  8
0
  6
Continuous
 62
     7
370
    15
100
AcDbPolyline
 90
        3
 70
   128
 43
0.0
 10
182.4702250571
 20
65.0039745866
 10
181.8410196972
 20
64.7413385846
 10
180.8550458425
 20
64.4386354661
  0
LWPOLYLINE
  5
29D
330
1F
100
AcDbEntity
  8
0
  6
Continuous
 62
     7
370
     0
100
AcDbPolyline
 90
       32
 70
   128
 43
0.0
 10
245.2721172012
 20
28.760553607
 10
245.0653447308
 20
28.7609960099
 10
244.2626933199
 20
28.8595106023
 10
243.5288531126
 20
29.111661857
 10
242.8758737448
 20
29.5133094573
 10
242.3144771197
 20
30.0578583609
 10
241.8538813543
 20
30.7363670897
 10
241.5016494183
 20
31.5376945492
 10
241.2635649505
 20
32.4486829647
 10
241.1435372911
 20
33.4543739315
 10
241.1435372911
 20
34.5382540318
 10
241.2635649505
 20
35.6825259843
 10
241.5016494183
 20
36.8684008752
 10
241.8538813543
 20
38.0764066715
 10
242.3144771197
 20
39.2867079516
 10
242.8758737448
 20
40.4794316017
 10
243.5288531126
 20
41.6349931327
 10
244.2626933199
 20
42.7344182559
 10
245.0653447308
 20
43.7596544415
 10
245.9236278313
 20
44.6938673394
 10
246.8234496366
 20
45.5217171998
 10
247.7500350976
 20
46.2296107509
 10
248.6881697065
 20
46.8059244
 10
249.6224493192
 20
47.2411950931
 10
250.5375330901
 20
47.5282756974
 10
251.418395369
 20
47.6624523572
 10
252.2505724217
 20
47.6415218956
 10
253.0203999239
 20
47.4658279901
 10
253.7152373295
 20
47.1382555298
 10
254.3236754272
 20
46.6641832455
 10
254.8357236806
 20
46.051395391
 10
255.0508880875
 20
45.6997170112
  0
LWPOLYLINE
  5
29E
330
1F
100
AcDbEntity
  8
0
  6
Continuous
 62
     7
370
     0
100
AcDbPolyline
 90
       47
 70
   128
 43
0.0
 10
255.4681878024
 20
41.6372531887
 10
255.4079218476
 20
40.585050206
 10
255.228246624
 20
39.4828661838
 10
254.932509141
 20
38.3512327249
 10
254.5262184284
 20
37.2112300195
 10
254.0169429134
 20
36.0840941612
 10
253.4141694353
 20
34.9908215582
 10
252.7291265235
 20
33.9517778108
 10
251.9745752313
 20
32.9863183378
 10
251.1645714215
 20
32.1124278226
 10
250.3142039327
 20
31.346385192
 10
249.439313502
 20
30.7024603709
 10
248.556197683
 20
30.1926484602
 10
247.6813072524
 20
29.8264462913
 10
246.8309397635
 20
29.6106755177
 10
246.0209359538
 20
29.5493555407
 10
245.2663846615
 20
29.6436286354
 10
244.5813417497
 20
29.8917386724
 10
243.9785682716
 20
30.2890638311
 10
243.4692927566
 20
30.8282026958
 10
243.063002044
 20
31.4991121293
 10
242.767264561
 20
32.2892943583
 10
242.5875893374
 20
33.1840297831
 10
242.5273233827
 20
34.1666511754
 10
242.5875893374
 20
35.2188541581
 10
242.767264561
 20
36.3210381804
 10
243.063002044
 20
37.4526716393
 10
243.4692927566
 20
38.5926743446
 10
243.9785682716
 20
39.719810203
 10
244.5813417497
 20
40.8130828059
 10
245.2663846615
 20
41.8521265534
 10
246.0209359538
 20
42.8175860264
 10
246.8309397635
 20
43.6914765415
 10
247.6813072524
 20
44.4575191721
 10
248.556197683
 20
45.1014439933
 10
249.439313502
 20
45.6112559039
 10
250.3142039327
 20
45.9774580728
 10
251.1645714215
 20
46.1932288464
 10
251.9745752313
 20
46.2545488235
 10
252.7291265235
 20
46.1602757288
 10
253.4141694353
 20
45.9121656918
 10
254.0169429134
 20
45.514840533
 10
254.5262184284
 20
44.9757016684
 10
254.932509141
 20
44.3047922349
 10
255.228246624
 20
43.5146100058
 10
255.4079218476
 20
42.6198745811
 10
255.4681878024
 20
41.6372531887
  0
LWPOLYLINE
  5
29F
330
1F
100
AcDbEntity
  8
0
  6
Continuous
 62
     7
370
     0
100
AcDbPolyline
 90
       30
 70
   128
 43
0.0
 10
218.7562295785
 20
71.5253832001
 10
218.0501424765
 20
71.857989585
 10
217.1713089719
 20
72.0965578598
 10
216.2267506443
 20
72.1810156079
 10
215.2279331522
 20
72.1103376265
 10
214.186980787
 20
71.8853818507
 10
213.1165293002
 20
71.5088789388
 10
212.0295725228
 20
70.9853991262
 10
210.9393046377
 20
70.3212967486
 10
209.85896002
 20
69.5246331093
 10
208.80165259
 20
68.6050786258
 10
207.7802166276
 20
67.5737954437
 10
206.8070509817
 20
66.4433019438
 10
205.893968565
 20
65.227320786
 10
205.0520529611
 20
63.9406123341
 10
204.2915238849
 20
62.5987954859
 10
203.6216131292
 20
61.2181580801
 10
203.0504525031
 20
59.8154591846
 10
202.5849751228
 20
58.4077256638
 10
202.2308312533
 20
57.0120454958
 10
201.9923197213
 20
55.6453603471
 10
201.8723357338
 20
54.324259924
 10
201.8723357338
 20
53.0647805962
 10
201.9923197213
 20
51.8822107364
 10
202.2308312533
 20
50.7909051409
 10
202.5849751228
 20
49.8041107813
 10
203.0504525031
 20
48.9338060042
 10
203.6216131292
 20
48.1905551309
 10
204.2915238849
 20
47.58338022
 10
204.7573673216
 20
47.2760150534
  0
ARC
  5
2A0
330
1F
100
AcDbEntity
  8
0
  6
Continuous
 62
     7
370
     0
100
AcDbCircle
 10
247.8049508553
 20
35.7622885584
 30
0.0
 40
1.722427692899115
100
AcDbArc
 50
196.2178167637
 51
307.0608765038
  0
ARC
  5
2A1
330
1F
100
AcDbEntity
  8
0
  6
Continuous
 62
     7
370
     0
100
AcDbCircle
 10
250.1946786987
 20
39.9261394359
 30
0.0
 40
1.799776984271007
100
AcDbArc
 50
350.0904284222
 51
92.6943738447
  0
LWPOLYLINE
  5
2A2
330
1F
100
AcDbEntity
  8
0
  6
Continuous
 62
     7
370
     0
100
AcDbPolyline
 90
       43
 70
   128
 43
0.0
 10
207.216451827
 20
45.8564157855
 10
207.1805658853
 20
45.847687605
 10
206.0803953156
 20
45.6544963704
 10
205.0254050157
 20
45.6156724337
 10
204.0267781453
 20
45.7316273383
 10
203.0951003974
 20
46.0011319334
 10
202.2402477882
 20
46.4213294033
 10
201.4712819678
 20
46.9877655502
 10
200.7963541652
 20
47.6944360101
 10
200.2226187832
 20
48.5338499003
 10
199.7561575594
 20
49.4971092248
 10
199.4019150989
 20
50.574003195
 10
199.1636464599
 20
51.753116467
 10
199.0438773492
 20
53.0219501467
 10
199.0438773492
 20
54.3670542816
 10
199.1636464599
 20
55.7741704332
 10
199.4019150989
 20
57.2283828201
 10
199.7561575594
 20
58.7142764294
 10
200.2226187832
 20
60.2161004192
 10
200.7963541652
 20
61.7179350814
 10
201.4712819678
 20
63.2038605952
 10
202.2402477882
 20
64.6581257804
 10
203.0951003974
 20
66.0653150642
 10
204.0267781453
 20
67.4105118903
 10
205.0254050157
 20
68.6794568375
 10
206.0803953156
 20
69.8586987737
 10
207.1805658853
 20
70.9357374412
 10
208.314254643
 20
71.899155962
 10
209.4694442059
 20
72.7387418602
 10
210.6338892772
 20
73.4455953164
 10
211.7952464495
 20
74.0122235081
 10
212.9412050479
 20
74.4326200356
 10
214.0596176262
 20
74.7023285909
 10
215.1386287327
 20
74.8184901965
 10
216.1668005813
 20
74.7798735103
 10
217.1332342947
 20
74.5868878788
 10
218.0276854351
 20
74.2415789977
 10
218.8406725978
 20
73.7476072272
 10
219.5635779167
 20
73.1102087907
 10
220.1887384156
 20
72.3361402704
 10
220.7095272377
 20
71.433606985
 10
221.1204238919
 20
70.4121760121
 10
221.2153140839
 20
70.1057839321
  0
LWPOLYLINE
  5
2A3
330
1F
100
AcDbEntity
  8
0
  6
Continuous
 62
     7
370
     0
100
AcDbPolyline
 90
       37
 70
   128
 43
0.0
 10
191.460770381
 20
46.8885367398
 10
190.777918703
 20
47.3377524326
 10
189.9478293151
 20
48.0605439704
 10
189.2143871052
 20
48.9202142203
 10
188.5834973187
 20
49.9098416228
 10
188.0602395093
 20
51.0214582801
 10
187.648826641
 20
52.2461141085
 10
187.3525711685
 20
53.5739488992
 10
187.1738583666
 20
54.9942717074
 10
187.1141271257
 20
56.4956469288
 10
187.1738583666
 20
58.0659863731
 10
187.3525711685
 20
59.6926465904
 10
187.648826641
 20
61.362530669
 10
188.0602395093
 20
63.0621936842
 10
188.5834973187
 20
64.7779509488
 10
189.2143871052
 20
66.4959881942
 10
189.9478293151
 20
68.2024727946
 10
190.777918703
 20
69.8836651395
 10
191.6979718772
 20
71.5260292566
 10
192.7005811106
 20
73.1163417957
 10
193.777673983
 20
74.6417984954
 10
194.9205783762
 20
76.0901172753
 10
196.1200922958
 20
77.4496371241
 10
197.3665579611
 20
78.7094119874
 10
198.6499395634
 20
79.8592988987
 10
199.9599040689
 20
80.8900396449
 10
201.2859044133
 20
81.7933353073
 10
202.6172644218
 20
82.5619130806
 10
203.9432647663
 20
83.1895848283
 10
205.2532292717
 20
83.6712969067
 10
206.5366108741
 20
84.0031708532
 10
207.7830765394
 20
84.1825346142
 10
208.982590459
 20
84.2079440579
 10
210.1254948521
 20
84.0791946025
 10
211.2025877246
 20
83.7973228629
 10
212.2051969579
 20
83.3645983047
 10
212.4423984541
 20
83.2337206643
  0
LWPOLYLINE
  5
2A4
330
1F
100
AcDbEntity
  8
0
  6
Continuous
 62
     7
370
     0
100
AcDbPolyline
 90
       21
 70
   128
 43
0.0
 10
192.0797264878
 20
56.2982006031
 10
192.2407910097
 20
57.8829454462
 10
192.5246345819
 20
59.5139513686
 10
192.9286563643
 20
61.1762735699
 10
193.4491543318
 20
62.8546803007
 10
194.0813591956
 20
64.53379243
 10
194.819478104
 20
66.1982243634
 10
195.6567477217
 20
67.83272502
 10
196.5854962022
 20
69.4223175776
 10
197.5972134838
 20
70.9524367035
 10
198.6826292675
 20
72.4090620165
 10
199.8317979595
 20
73.7788465542
 10
201.0341898024
 20
75.0492390707
 10
202.2787873584
 20
76.2085990425
 10
203.5541864617
 20
77.2463033303
 10
204.848700714
 20
78.1528435174
 10
206.1504685658
 20
78.9199130358
 10
207.4475620036
 20
79.5404832774
 10
208.7280958452
 20
80.008867998
 10
209.980336643
 20
80.320775419
 10
211.1928101965
 20
80.4733475531
  0
LWPOLYLINE
  5
2A5
330
1F
100
AcDbEntity
  8
0
  6
Continuous
 62
     7
370
     0
100
AcDbPolyline
 90
       19
 70
   128
 43
0.0
 10
193.0668987602
 20
56.8389522271
 10
193.2722583559
 20
58.411708529
 10
193.5988933729
 20
60.0245876769
 10
194.0437185751
 20
61.662355196
 10
194.6025323592
 20
63.3095415278
 10
195.270056441
 20
64.9505881485
 10
196.0399857113
 20
66.5699945267
 10
196.9050477915
 20
68.1524645346
 10
197.8570717242
 20
69.6830509273
 10
198.8870651528
 20
71.1472965272
 10
199.9852992582
 20
72.53137078
 10
201.1414006534
 20
73.822200391
 10
202.3444493648
 20
75.007592809
 10
203.5830819771
 20
76.0763513918
 10
204.845598967
 20
77.0183811636
 10
206.1200752105
 20
77.8247841676
 10
207.3944726228
 20
78.4879435118
 10
208.6567538633
 20
79.0015953143
 10
208.88384751
 20
79.0784639838
  0
LINE
  5
2A6
330
1F
100
AcDbEntity
  8
0
  6
Continuous
 62
     7
370
     0
100
AcDbLine
 10
193.9990742646
 20
52.1379353157
 30
0.0
 11
193.9261853237
 21
52.64345451
 31
0.0
  0
LWPOLYLINE
  5
2A7
330
1F
100
AcDbEntity
  8
0
  6
Continuous
 62
     7
370
     0
100
AcDbPolyline
 90
        3
 70
   128
 43
0.0
 10
193.544691541
 20
51.0181338238
 10
193.2752978087
 20
52.0685633827
 10
193.0668987602
 20
53.4188633496
  0
ARC
  5
2A8
330
1F
100
AcDbEntity
  8
0
  6
Continuous
 62
     7
370
     0
100
AcDbCircle
 10
203.0467348124
 20
54.2973283601
 30
0.0
 40
10.9739027384246
100
AcDbArc
 50
182.0310868315
 51
214.1212470232
  0
LINE
  5
2A9
330
1F
100
AcDbEntity
  8
0
  6
Continuous
 62
     7
370
     0
100
AcDbLine
 10
181.1323077811
 20
70.3257905335
 30
0.0
 11
181.5405266124
 21
69.8314768405
 31
0.0
  0
LINE
  5
2AA
330
1F
100
AcDbEntity
  8
0
  6
Continuous
 62
     7
370
     0
100
AcDbLine
 10
181.1323077811
 20
59.973643345
 30
0.0
 11
181.5405266124
 21
60.8903549504
 31
0.0
  0
LINE
  5
2AB
330
1F
100
AcDbEntity
  8
0
  6
Continuous
 62
     7
370
     0
100
AcDbLine
 10
181.5405363806
 20
60.8903605894
 30
0.0
 11
182.5217401508
 21
61.456797469
 31
0.0
  0
LINE
  5
2AC
330
1F
100
AcDbEntity
  8
0
  6
Continuous
 62
     7
370
     0
100
AcDbLine
 10
180.687278352
 20
61.4399972665
 30
0.0
 11
182.4329729839
 21
62.4477653265
 31
0.0
  0
LINE
  5
2AD
330
1F
100
AcDbEntity
  8
0
  6
Continuous
 62
     7
370
     0
100
AcDbLine
 10
176.7608718743
 20
63.8923078817
 30
0.0
 11
176.3352529783
 21
63.1793537718
 31
0.0
  0
LINE
  5
2AE
330
1F
100
AcDbEntity
  8
0
  6
Continuous
 62
     7
370
     0
100
AcDbLine
 10
176.7609622152
 20
63.8923600344
 30
0.0
 11
179.0547751228
 21
65.2165500397
 31
0.0
  0
LINE
  5
2AF
330
1F
100
AcDbEntity
  8
0
  6
Continuous
 62
     7
370
    15
100
AcDbLine
 10
66.4167568756
 20
156.3644034515
 30
0.0
 11
65.5517762827
 21
157.2293840443
 31
0.0
  0
LINE
  5
2B0
330
1F
100
AcDbEntity
  8
0
  6
Continuous
 62
     7
370
    15
100
AcDbLine
 10
55.3517762827
 20
157.2293840443
 30
0.0
 11
54.4867956899
 21
156.3644034515
 31
0.0
  0
LINE
  5
2B1
330
1F
100
AcDbEntity
  8
0
  6
Continuous
 62
     7
370
    15
100
AcDbLine
 10
56.4831493161
 20
140.7293840443
 30
0.0
 11
64.4204032493
 21
140.7293840443
 31
0.0
  0
LINE
  5
2B2
330
1F
100
AcDbEntity
  8
0
  6
Continuous
 62
     7
370
    15
100
AcDbLine
 10
55.3517762827
 20
157.2293840443
 30
0.0
 11
65.5517762827
 21
157.2293840443
 31
0.0
  0
CIRCLE
  5
2B3
330
1F
100
AcDbEntity
  8
0
  6
Continuous
 62
     7
370
    15
100
AcDbCircle
 10
60.4517762827
 20
136.2293840443
 30
0.0
 40
6.0
  0
CIRCLE
  5
2B4
330
1F
100
AcDbEntity
  8
0
  6
Continuous
 62
     7
370
    15
100
AcDbCircle
 10
60.4517762827
 20
136.2293840443
 30
0.0
 40
21.0
  0
CIRCLE
  5
2B5
330
1F
100
AcDbEntity
  8
0
  6
Continuous
 62
     7
370
    15
100
AcDbCircle
 10
60.4517762827
 20
136.2293840443
 30
0.0
 40
4.0
  0
CIRCLE
  5
2B6
330
1F
100
AcDbEntity
  8
0
  6
Continuous
 62
     7
370
    15
100
AcDbCircle
 10
60.4517762827
 20
136.2293840443
 30
0.0
 40
31.47499999999999
  0
INSERT
  5
2C2
330
1F
100
AcDbEntity
  8
VERMASSUNG
100
AcDbBlockReference
  2
SW_CENTERMARKSYMBOL_0
 10
60.4517762827
 20
136.2293840443
 30
0.0
  0
OLE2FRAME
  5
2C3
330
1F
100
AcDbEntity
  8
0
100
AcDbOle2Frame
 70
     2
  3
Paintbrush-Bild
 10
13.8511154363
 20
38.264191557
 30
0.0
 11
51.6290888628
 21
31.9806341108
 31
0.0
 71
     2
 72
     0
 73
     1
 90
    12928
310
80552BED0767C5B32B40DDAF6807D121434000000000000000006FFBDDFB85D0
310
4940DDAF6807D121434000000000000000006FFBDDFB85D04940416F4BD60AFB
310
3F4000000000000000002BED0767C5B32B40416F4BD60AFB3F40000000000000
310
0000000000000100000000010000010000000100000000000100000000320000
310
D0CF11E0A1B11AE1000000000000000000000000000000003E000300FEFF0900
310
0600000000000000000000000100000001000000000000000010000002000000
310
01000000FEFFFFFF0000000000000000FFFFFFFFFFFFFFFFFFFFFFFFFFFFFFFF
310
FFFFFFFFFFFFFFFFFFFFFFFFFFFFFFFFFFFFFFFFFFFFFFFFFFFFFFFFFFFFFFFF
310
FFFFFFFFFFFFFFFFFFFFFFFFFFFFFFFFFFFFFFFFFFFFFFFFFFFFFFFFFFFFFFFF
310
FFFFFFFFFFFFFFFFFFFFFFFFFFFFFFFFFFFFFFFFFFFFFFFFFFFFFFFFFFFFFFFF
310
FFFFFFFFFFFFFFFFFFFFFFFFFFFFFFFFFFFFFFFFFFFFFFFFFFFFFFFFFFFFFFFF
310
FFFFFFFFFFFFFFFFFFFFFFFFFFFFFFFFFFFFFFFFFFFFFFFFFFFFFFFFFFFFFFFF
310
FFFFFFFFFFFFFFFFFFFFFFFFFFFFFFFFFFFFFFFFFFFFFFFFFFFFFFFFFFFFFFFF
310
FFFFFFFFFFFFFFFFFFFFFFFFFFFFFFFFFFFFFFFFFFFFFFFFFFFFFFFFFFFFFFFF
310
FFFFFFFFFFFFFFFFFFFFFFFFFFFFFFFFFFFFFFFFFFFFFFFFFFFFFFFFFFFFFFFF
310
FFFFFFFFFFFFFFFFFFFFFFFFFFFFFFFFFFFFFFFFFFFFFFFFFFFFFFFFFFFFFFFF
310
FFFFFFFFFFFFFFFFFFFFFFFFFFFFFFFFFFFFFFFFFFFFFFFFFFFFFFFFFFFFFFFF
310
FFFFFFFFFFFFFFFFFFFFFFFFFFFFFFFFFFFFFFFFFFFFFFFFFFFFFFFFFFFFFFFF
310
FFFFFFFFFFFFFFFFFFFFFFFFFFFFFFFFFFFFFFFFFFFFFFFFFFFFFFFFFFFFFFFF
310
FFFFFFFFFFFFFFFFFFFFFFFFFFFFFFFFFFFFFFFFFFFFFFFFFFFFFFFFFFFFFFFF
310
FDFFFFFFFEFFFFFFFEFFFFFFFEFFFFFF05000000060000000700000008000000
310
090000000A0000000B0000000C0000000D0000000E0000000F00000010000000
310
11000000120000001300000014000000150000001600000017000000FEFFFFFF
310
FFFFFFFFFFFFFFFFFFFFFFFFFFFFFFFFFFFFFFFFFFFFFFFFFFFFFFFFFFFFFFFF
310
FFFFFFFFFFFFFFFFFFFFFFFFFFFFFFFFFFFFFFFFFFFFFFFFFFFFFFFFFFFFFFFF
310
FFFFFFFFFFFFFFFFFFFFFFFFFFFFFFFFFFFFFFFFFFFFFFFFFFFFFFFFFFFFFFFF
310
FFFFFFFFFFFFFFFFFFFFFFFFFFFFFFFFFFFFFFFFFFFFFFFFFFFFFFFFFFFFFFFF
310
FFFFFFFFFFFFFFFFFFFFFFFFFFFFFFFFFFFFFFFFFFFFFFFFFFFFFFFFFFFFFFFF
310
FFFFFFFFFFFFFFFFFFFFFFFFFFFFFFFFFFFFFFFFFFFFFFFFFFFFFFFFFFFFFFFF
310
FFFFFFFFFFFFFFFFFFFFFFFFFFFFFFFFFFFFFFFFFFFFFFFFFFFFFFFFFFFFFFFF
310
FFFFFFFFFFFFFFFFFFFFFFFFFFFFFFFFFFFFFFFFFFFFFFFFFFFFFFFFFFFFFFFF
310
FFFFFFFFFFFFFFFFFFFFFFFFFFFFFFFFFFFFFFFFFFFFFFFFFFFFFFFFFFFFFFFF
310
FFFFFFFFFFFFFFFFFFFFFFFFFFFFFFFFFFFFFFFFFFFFFFFFFFFFFFFFFFFFFFFF
310
FFFFFFFFFFFFFFFFFFFFFFFFFFFFFFFFFFFFFFFFFFFFFFFFFFFFFFFFFFFFFFFF
310
FFFFFFFFFFFFFFFFFFFFFFFFFFFFFFFFFFFFFFFFFFFFFFFFFFFFFFFFFFFFFFFF
310
FFFFFFFFFFFFFFFFFFFFFFFFFFFFFFFFFFFFFFFFFFFFFFFFFFFFFFFFFFFFFFFF
310
52006F006F007400200045006E00740072007900000000000000000000000000
310
0000000000000000000000000000000000000000000000000000000000000000
310
16000500FFFFFFFFFFFFFFFF020000000A00030000000000C000000000000046
310
000000000000000000000000F06CC9329DD0D20103000000C000000000000000
310
01004F006C006500000000000000000000000000000000000000000000000000
310
0000000000000000000000000000000000000000000000000000000000000000
310
0A000200FFFFFFFFFFFFFFFFFFFFFFFF00000000000000000000000000000000
310
0000000000000000000000000000000000000000000000001400000000000000
310
010043006F006D0070004F0062006A0000000000000000000000000000000000
310
0000000000000000000000000000000000000000000000000000000000000000
310
120002010100000003000000FFFFFFFF00000000000000000000000000000000
310
0000000000000000000000000000000000000000010000004D00000000000000
310
01004F006C006500310030004E00610074006900760065000000000000000000
310
0000000000000000000000000000000000000000000000000000000000000000
310
1A000200FFFFFFFFFFFFFFFFFFFFFFFF00000000000000000000000000000000
310
0000000000000000000000000000000000000000040000002426000000000000
310
FEFFFFFF02000000FEFFFFFFFFFFFFFFFFFFFFFFFFFFFFFFFFFFFFFFFFFFFFFF
310
FFFFFFFFFFFFFFFFFFFFFFFFFFFFFFFFFFFFFFFFFFFFFFFFFFFFFFFFFFFFFFFF
310
FFFFFFFFFFFFFFFFFFFFFFFFFFFFFFFFFFFFFFFFFFFFFFFFFFFFFFFFFFFFFFFF
310
FFFFFFFFFFFFFFFFFFFFFFFFFFFFFFFFFFFFFFFFFFFFFFFFFFFFFFFFFFFFFFFF
310
FFFFFFFFFFFFFFFFFFFFFFFFFFFFFFFFFFFFFFFFFFFFFFFFFFFFFFFFFFFFFFFF
310
FFFFFFFFFFFFFFFFFFFFFFFFFFFFFFFFFFFFFFFFFFFFFFFFFFFFFFFFFFFFFFFF
310
FFFFFFFFFFFFFFFFFFFFFFFFFFFFFFFFFFFFFFFFFFFFFFFFFFFFFFFFFFFFFFFF
310
FFFFFFFFFFFFFFFFFFFFFFFFFFFFFFFFFFFFFFFFFFFFFFFFFFFFFFFFFFFFFFFF
310
FFFFFFFFFFFFFFFFFFFFFFFFFFFFFFFFFFFFFFFFFFFFFFFFFFFFFFFFFFFFFFFF
310
FFFFFFFFFFFFFFFFFFFFFFFFFFFFFFFFFFFFFFFFFFFFFFFFFFFFFFFFFFFFFFFF
310
FFFFFFFFFFFFFFFFFFFFFFFFFFFFFFFFFFFFFFFFFFFFFFFFFFFFFFFFFFFFFFFF
310
FFFFFFFFFFFFFFFFFFFFFFFFFFFFFFFFFFFFFFFFFFFFFFFFFFFFFFFFFFFFFFFF
310
FFFFFFFFFFFFFFFFFFFFFFFFFFFFFFFFFFFFFFFFFFFFFFFFFFFFFFFFFFFFFFFF
310
FFFFFFFFFFFFFFFFFFFFFFFFFFFFFFFFFFFFFFFFFFFFFFFFFFFFFFFFFFFFFFFF
310
FFFFFFFFFFFFFFFFFFFFFFFFFFFFFFFFFFFFFFFFFFFFFFFFFFFFFFFFFFFFFFFF
310
FFFFFFFFFFFFFFFFFFFFFFFFFFFFFFFFFFFFFFFFFFFFFFFFFFFFFFFFFFFFFFFF
310
0100000200000000000000000000000000000000000000000000000000000000
310
0000000000000000000000000000000000000000000000000000000000000000
310
0100FEFF030A0000FFFFFFFF0A00030000000000C00000000000004607000000
310
5042727573680007000000504272757368000700000050427275736800F439B2
310
7100000000000000000000000000000000000000000000000000000000000000
310
0000000000000000000000000000000000000000000000000000000000000000
310
0000000000000000000000000000000000000000000000000000000000000000
310
0000000000000000000000000000000000000000000000000000000000000000
310
0000000000000000000000000000000000000000000000000000000000000000
310
0000000000000000000000000000000000000000000000000000000000000000
310
0000000000000000000000000000000000000000000000000000000000000000
310
0000000000000000000000000000000000000000000000000000000000000000
310
0000000000000000000000000000000000000000000000000000000000000000
310
0000000000000000000000000000000000000000000000000000000000000000
310
0000000000000000000000000000000000000000000000000000000000000000
310
0000000000000000000000000000000000000000000000000000000000000000
310
20260000424D0E260000000000003E00000028000000B40200006E0000000100
310
01000000000000000000130B0000130B00000200000002000000000000FFFFFF
310
FFFFFFFFFFFFFFFFFFFFFFFFFFFFFFFFFFFFFFFFFFFFFFFFFFFFFFFFFFFFFFFF
310
FFFFFFFFFFFFFFFFFFFFFFFFFFFFFFFFFFFFFFFFFFFFFFFFFFFFFFFFFFFFFFFF
310
FFFFFFFFFFFFFFFFFFFFFFFFFFFFFFFFFFFFFFFFFFFFFFFFF000FFFFFFFFFFFF
310
FFFFFFFFFFFFFFFFFFFFFFFFFFFFFFFFFFFFFFFFFFFFFFFFFFFFFFFFFFFFFFFF
310
FFFFFFFFFFFFFFFFFFFFFFFFFFFFFFFFFFFFFFFFFFFFFFFFFFFFFFFFFFFFFFFF
310
FFFFFFFFFFFFFFFFFFFFFFFFFFFFFFFFF000FFFFFFFFFFFFFFFFFFFFFFFFFFFF
310
FFFFFFFFFFFFFFFFFFFFFFFFFFFFFFFFFFFFFFFFFFFFFFFFFFFFFFFFFFFFFFFF
310
FFFFFFFFFFFFFFFFFFFFFFFFFFFFFFFFFFFFFFFFFFFFFFFFFFFFFFFFFFFFFFFF
310
FFFFFFFFFFFFFFFFF000FFFFFFFFFFFFFFFFFFFFFFFFFFFFFFFFFFFFFFFFFFFF
310
FFFFFFFFFFFFFFFFFFFFFFFFFFFFFFFFFFFFFFFFFFFFFFFFFFFFFFFFFFFFFFFF
310
FFFFFFFFFFFFFFFFFFFFFFFFFFFFFFFFFFFFFFFFFFFFFFFFFFFFFFFFFFFFFFFF
310
F000FFFFFFFFFFFFFFFFFFFFFFFFFFFFFFFFFFFFFFFFFFFFFFFFFFFFFFFFFFFF
310
FFFFFFFFFFFFFFFFFFFFFFFFFFFFFFFFFFFFFFFFFFFFFFFFFFFFFFFFFFFFFFFF
310
FFFFFFFFFFFFFFFFFFFFFFFFFFFFFFFFFFFFFFFFFFFFFFFFF000FFFFFFFFFFFF
310
FFFFFFFFFFFFFFFFFFFFFFFFFFFFFFFFFFFFFFFFFFFFFFFFFFFFFFFFFFFFFFFF
310
FFFFFFFFFFFFFFFFFFFFFFFFFFFFFFFFFFFFFFFFFFFFFFFFFFFFFFFFFFFFFFFF
310
FFFFFFFFFFFFFFFFFFFFFFFFFFFFFFFFF000FFFFFFFFFFFFFFFFFFFFFFFFFFFF
310
FFFFFFFFFFFFFFFFFFFFFFFFFFFFFFFFFFFFFFFFFFFFFFFFFFFFFFFFFFFFFFFF
310
FFFFFFFFFFFFFFFFFFFFFFFFFFFFFFFFFFFFFFFFFFFFFFFFFFFFFFFFFFFFFFFF
310
FFFFFFFFFFFFFFFFF000FFFFFFFFFFFFFFFFFFFFFFFFFFFFFFFFFFFFFFFFFFFF
310
FFFFFFFFFFFFFFFFFFFFFFFFFFFFFFFFFFFFFFFFFFFFFFFFFFFFFFFFFFFFFFFF
310
FFFFFFFFFFFFFFFFFFFFFFFFFFFFFFFFFFFFFFFFFFFFFFFFFFFFFFFFFFFFFFFF
310
F000FFFFFFFFFFFFFFFFFFFFFFFFFFFFFFFFFFFFFFFFFFFFFFFFFFFFFFFFFFFF
310
FFFFFFFFFFFFFFFFFFFFFFFFFFFFFFFFFFFFFFFFFFFFFFFFFFFFFFFFFFFFFFFF
310
FFFFFFFFFFFFFFFFFFFFFFFFFFFFFFFFFFFFFFFFFFFFFFFFF000FFFFFFFFFFFF
310
FFFFFFFFFFFFFFFFFFFFFFFFFFFFFFFFFFFFFFFFFFFFFFFFFFFFFFFFFFFFFFFF
310
FFFFFFFFFFFFFFFFFFFFFFFFFFFFFFFFFFFFFFFFFFFFFFFFFFFFFFFFFFFFFFFF
310
FFFFFFFFFFFFFFFFFFFFFFFFFFFFFFFFF000FFFFFFFFFFFFFFFFFFFFFFFFFFFF
310
FFFFFFFFFFFFFFFFFFFFFFFFFFFFFFFFFFFFFFFFFFFFFFFFFFFFFFFFFFFFFFFF
310
FFFFFFFFFFFFFFFFFFFFFFFFFFFFFFFFFFFFFFFFFFFFFFFFFFFFFFFFFFFFFFFF
310
FFFFFFFFFFFFFFFFF000FFFFFFFFFFFFFFFFFFFFFFFFFFFFFFFFFFFFFFFFFFFF
310
FFFFFFFFFFFFFFFFFFFFFFFFFFFFFFFFFFFFFFFFFFFFFFFFFFFFFFFFFFFFFFFF
310
FFFFFFFFFFFFFFFFFFFFFFFFFFFFFFFFFFFFFFFFFFFFFFFFFFFFFFFFFFFFFFFF
310
F000FFFFFFFFFFFFFFFFFFFFFFFFFFFFFFFFFFFFFFFFFFFFFFFFFFFFFFFFFFFF
310
FFFFFFFFFFFFFFFFFFFFFFFFFFFFFFFFFFFFFFFFFFFFFFFFFFFFFFFFFFFFFFFF
310
FFFFFFFFFFFFFFFFFFFFFFFFFFFFFFFFFFFFFFFFFFFFFFFFF000FFFFFFFFFFFF
310
FFFFFFFFFFFFFFFFFFFFFFFFFFFFFFFFFFFFFFFFFFFFFFFFFFFFFFFFFFFFFFFF
310
FFFFFFFFFFFFFFFFFFFFFFFFFFFFFFFFFFFFFFFFFFFFFFFFFFFFFFFFFFFFFFFF
310
FFFFFFFFFFFFFFFFFFFFFFFFFFFFFFFFF000FFFFFFFFFFFFFFFFFFFFFFFFFFFF
310
FFFFFFFFFFFFFFFFFFFFFFFFFFFFFFFFFFFFFFFFFFFFFFFFFFFFFFFFFFFFFFFF
310
FFFFFFFFFFFFFFFFFFFFFFFFFFFFFFFFFFFFFFFFFFFFFFFFFFFFFFFFFFFFFFFF
310
FFFFFFFFFFFFFFFFF000FFFFFFFFFFFFFFFFFFFFFFFFFFFFFFFFFFFFFFFFFFFF
310
FFFFFFFFFFFFFFFFFFFFFFFFFFFFFFFFFFFFFFFFFFFFFFFFFFFFFFFFFFFFFFFF
310
FFFFFFFFFFFFFFFFFFFFFFFFFFFFFFFFFFFFFFFFFFFFFFFFFFFFFFFFFFFFFFFF
310
F000FFFFFFFFFFFFFFFFFFFFFFFFFFFFFFFFFFFFFFFFFFFFFFFFFFFFFFFFFFFF
310
FFFFFFFFFFFFFFFFFFFFFFFFFFFFFFFFFFFFFFFFFFFFFFFFFFFFFFFFFFFFFFFF
310
FFFFFFFFFFFFFFFFFFFFFFFFFFFFFFFFFFFFFFFFFFFFFFFFF000FFFFFFFFFFFF
310
FFFFFFFFFFFFFFFFFFFFFFFFFFFFFFFFFFFFFFFFFFFFFFFFFFFFFFFFFFFFFFFF
310
FFFFFFFFFFFFFFFFFFFFFFFFFFFFFFFFFFFFFFFFFFFFFFFFFFFFFFFFFFFFFFFF
310
FFFFFFFFFFFFFFFFFFFFFFFFFFFFFFFFF000FFFFFFFFFFFFFFFFFFFFFFFFFFFF
310
FFFFFFFFFFFFFFFFFFFFFFFFFFFFFFFFFFFFFFFFFFFFFFFFFFFFFFFFFFFFFFFF
310
FFFFFFFFFFFFFFFFFFFFFFFFFFFFFFFFFFFFFFFFFFFFFFFFFFFFFFFFFFFFFFFF
310
FFFFFFFFFFFFFFFFF000FFFFF80003FFFFFFFFFFFFFFFFFFFFFFFFFFFFFFFFFF
310
FFFFF00007FFFFFFFFFF00007FFFFFF800000000000000007FFFFFFFFFFFFFFF
310
FFFFFFFC001FFFFFFFFFFFFFFC001FFFFFFFFFFFFFFFFFFFFFFFFFFE0007FFFF
310
F000FFFF8000007FFFFFFFF8000FFFFFC0007FFFFF80007FFFFF0000007FFFFF
310
FFF8000007FFFFF800000000000000007FFFFFF0001FFFFFFFFFFFC00001FFFF
310
FFFFFFFFC00001FFFFFFFF000000000003FFFFE000007FFFF000FFFE0000000F
310
FFFFFFF0000FFFFF80007FFFFF80007FFFFC0000001FFFFFFFC0000001FFFFF8
310
00000000000000007FFFFFF0001FFFFFFFFFFE0000003FFFFFFFFFFE0000003F
310
FFFFFF000000000003FFFF0000000FFFF000FFF800000003FFFFFFF00007FFFF
310
80007FFFFF80007FFFF000000007FFFFFF000000003FFFF80000000000000000
310
7FFFFFF0001FFFFFFFFFF80000000FFFFFFFFFF80000000FFFFFFF0000000000
310
03FFFC00000003FFF000FFE000000000FFFFFFF00007FFFF80003FFFFF80007F
310
FFC000000001FFFFFC000000001FFFF800000000000000007FFFFFF0001FFFFF
310
FFFFE000000003FFFFFFFFE000000003FFFFFF000000000003FFF000000000FF
310
F000FF80000000007FFFFFF00007FFFF80003FFFFF80007FFF8000000000FFFF
310
F80000000007FFF800000000000000007FFFFFF0001FFFFFFFFFC000000001FF
310
FFFFFFC000000001FFFFFF000000000003FFC0000000007FF000FF0000000000
310
3FFFFFE00007FFFF00003FFFFF80007FFE00000000003FFFF00000000003FFF8
310
00000000000000007FFFFFF0001FFFFFFFFF8000000000FFFFFFFF8000000000
310
FFFFFF000000000003FF80000000003FF000FE00000000001FFFFFE00003FFFF
310
00003FFFFF80007FFC00000000001FFFE00000000001FFF8000001FFFE000000
310
7FFFFFF0001FFFFFFFFE00000000003FFFFFFE00000000003FFFFF0000000000
310
03FF00000000001FF000FC00000000000FFFFFE00003FFFF00001FFFFF80007F
310
F800000000001FFFC00000000000FFF8000001FFFE0000007FFFFFF0001FFFFF
310
FFFC00000000001FFFFFFC00000000001FFFFF000000000003FE00000000000F
310
F000F8000000000007FFFFE00003FFFF00001FFFFF80007FF800000000000FFF
310
800000000000FFF8000001FFFE0000007FFFFFF0001FFFFFFFF800000000000F
310
FFFFF800000000000FFFFF000000000003FC000000000007F000F80000000000
310
03FFFFC00003FFFE00001FFFFF80007FF0000000000007FF0000000000007FF8
310
000001FFFE0000007FFFFFF0001FFFFFFFF0000000000007FFFFF00000000000
310
07FFFF000000000003F8000000000003F000F0000000000003FFFFC00001FFFE
310
00001FFFFF80007FE0000000000007FE0000000000003FF8000001FFFE000000
310
7FFFFFF0001FFFFFFFF0000000000007FFFFF0000000000007FFFF0000000000
310
03F800001F800003F000E00001FFF00001FFFFC00001FFFE00000FFFFF80007F
310
E00001FFE00003FE00001FFF00003FF8000001FFFE0000007FFFFFF0001FFFFF
310
FFE000003E000003FFFFE000003E000003FFFF000000000003F00001FFF80001
310
F000E00007FFFC0001FFFFC00001FFFE00000FFFFF80007FC0000FFFFC0003FC
310
0000FFFFC0001FF8000001FFFE0000007FFFFFF0001FFFFFFFC00003FFE00001
310
FFFFC00003FFE00001FFFF0001FFFFFFFFF00007FFFE0001F000E0000FFFFF00
310
00FFFF800001FFFC00000FFFFF80007FC0001FFFFE0001FC0001FFFFE0001FF8
310
000001FFFE0000007FFFFFF0001FFFFFFF80000FFFF80000FFFF80000FFFF800
310
00FFFF0003FFFFFFFFE0000FFFFF8000F000C0003FFFFF8000FFFF800000FFFC
310
000007FFFF80007F80003FFFFF0001FC0003FFFFF0001FF8000001FFFE000000
310
7FFFFFF0001FFFFFFF80003FFFFE0000FFFF80003FFFFE0000FFFF0003FFFFFF
310
FFE0003FFFFF8000F000C0003FFFFF8000FFFF800000FFFC000007FFFF80007F
310
80007FFFFF8001F80007FFFFF8000FF8000001FFFE0000007FFFFFF0001FFFFF
310
FF00007FFFFF00007FFF00007FFFFF00007FFF0003FFFFFFFFE0003FFFFFC000
310
F000C0007FFFFFC000FFFF000000FFFC000007FFFF80007F8000FFFFFF8000F8
310
000FFFFFF8000FF8000001FFFE0000007FFFFFF0001FFFFFFF0000FFFFFF8000
310
7FFF0000FFFFFF80007FFF0003FFFFFFFFC0007FFFFFC00070008000FFFFFFC0
310
00FFFF000000FFF8000007FFFF80007F8000FFFFFF8000F8000FFFFFF8000FF8
310
000001FFFE0000007FFFFFF0001FFFFFFE0001FFFFFFC0003FFE0001FFFFFFC0
310
003FFF0003FFFFFFFFC0007FFFFFE00070008000FFFFFFC0007FFF0000007FF8
310
000003FFFF80007F0001FFFFFF8000F8000FFFFFF8000FF8000001FFFE000000
310
7FFFFFF0001FFFFFFE0001FFFFFFC0003FFE0001FFFFFFC0003FFF0003FFFFFF
310
FFC000FFFFFFE00070008000FFFFFFC0007FFF0000007FF8000003FFFF80007F
310
0001FFFFFF8000F8001FFFFFF8000FF8000001FFFE0000007FFFFFF0001FFFFF
310
FE0003FFFFFFE0003FFE0003FFFFFFE0003FFF0003FFFFFFFFC000FFFFFFE000
310
70008000FFFFFFC0007FFE0000007FF8000003FFFF80007F0001FFFFFF8000F0
310
001FFFFFF8000FF8000001FFFE0000007FFFFFF0001FFFFFFC0003FFFFFFE000
310
1FFC0003FFFFFFE0001FFF0003FFFFFFFFC000FFFFFFC00070008000FFFFFF80
310
007FFE0000007FF0000003FFFF80007F0001FFFFFF0000F0001FFFFFF8000FF8
310
000001FFFE0000007FFFFFF0001FFFFFFC0007FFFFFFF0001FFC0007FFFFFFF0
310
001FFF0003FFFFFFFFC000FFFFFFC00070008001FFFFFF0000FFFE0000003FF0
310
000001FFFF80007F0001FFFFFF0000F8001FFFFFF0000FF8000001FFFE000000
310
7FFFFFF0001FFFFFFC0007FFFFFFF0001FFC0007FFFFFFF0001FFF0003FFFFFF
310
FFC001FFFFFF80007000FFFFFFFFFE0000FFFE0008003FF0008001FFFF80007F
310
FFFFFFFFFC0000FFFFFFFFFFE0000FF8000001FFFE0000007FFFFFF0001FFFFF
310
F8000FFFFFFFF8000FF8000FFFFFFFF8000FFF0003FFFFFFFFFFFFFFFFFF0000
310
7000FFFFFFFFFC0000FFFC0008003FF0008001FFFF80007FFFFFFFFFF80001FF
310
FFFFFFFF80000FF8000001FFFE0000007FFFFFF0001FFFFFF8000FFFFFFFF800
310
0FF8000FFFFFFFF8000FFF0003FFFFFFFFFFFFFFFFFE0000F000FFFFFFFFE000
310
00FFFC000C003FE000C001FFFF80007FFFFFFFFFC00001FFFFFFFFFE00001FF8
310
000001FFFE0000007FFFFFF0001FFFFFF8000FFFFFFFF8000FF8000FFFFFFFF8
310
000FFF0003FFFFFFFFFFFFFFFFF00000F000FFFFFFFE000001FFFC000C001FE0
310
00C000FFFF80007FFFFFFFFE000001FFFFFFFFE000001FF80FFFFFFFFFFFFFC0
310
7FFFFFF0001FFFFFF8000FFFFFFFF8000FF8000FFFFFFFF8000FFF0003FFFFFF
310
FFFFFFFFFF800000F000FFFFFFC0000001FFFC001C001FE001C000FFFF80007F
310
FFFFFF80000003FFFFFFF80000001FF80FFFFFFFFFFFFFC07FFFFFF0001FFFFF
310
F8001FFFFFFFFC000FF8001FFFFFFFFC000FFF0003FFFFFFFFFFFFFFF0000001
310
F000FFFFF800000001FFF8001C001FE001C000FFFF80007FFFFFF800000003FF
310
FFFF800000003FF80FFFFFFFFFFFFFC07FFFFFF0001FFFFFF8001FFFFFFFFC00
310
0FF8001FFFFFFFFC000FFF0003FFFFFFFFFFFFFE00000001F000FFFFC0000000
310
03FFF8001E001FC001E000FFFF80007FFFFF8000000007FFFFFC000000003FF8
310
0FFFFFFFFFFFFFC07FFFFFF0001FFFFFF8001FFFFFFFFC000FF8001FFFFFFFFC
310
000FFF0003FFFFFFFFFFFFE000000003F000FFFE0000000007FFF8001E000FC0
310
01E0007FFF80007FFFFE0000000007FFFFE0000000007FF80FFFFFFFFFFFFFC0
310
7FFFFFF0001FFFFFF0001FFFFFFFFC0007F0001FFFFFFFFC0007FF0003FFFFFF
310
FFFFFF0000000003F000FFF80000000007FFF8001E000FC003E0007FFF80007F
310
FFF0000000000FFFFF8000000000FFF80FFFFFFFFFFFFFC07FFFFFF0001FFFFF
310
F0001FFFFFFFFC0007F0001FFFFFFFFC0007FF0003FFFFFFFFFFFC0000000007
310
F000FFE0000000000FFFF0003E000FC003E0007FFF80007FFFC0000000001FFF
310
FE0000000001FFF80FFFFFFFFFFFFFC07FFFFFF0001FFFFFF0001FFFFFFFFC00
310
07F0001FFFFFFFFC0007FF0003FFFFFFFFFFF0000000000FF000FFC000000000
310
1FFFF0003F000F8003F0003FFF80007FFF80000000003FFFF80000000003FFF8
310
0FFFFFFFFFFFFFC07FFFFFF0001FFFFFF0001FFFFFFFFC0007F0001FFFFFFFFC
310
0007FF0003FFFFFFFFFFE0000000001FF000FF00000000007FFFF0003F000780
310
03F0003FFF80007FFF00000000007FFFF00000000007FFF80FFFFFFFFFFFFFC0
310
7FFFFFF0001FFFFFF0001FFFFFFFFC0007F0001FFFFFFFFC0007FF0003FFFFFF
310
FFFF80000000007FF000FE0000000000FFFFE0003F00078007F0003FFF80007F
310
FE0000000001FFFFE0000000001FFFF80FFFFFFFFFFFFFC07FFFFFF0001FFFFF
310
F0001FFFFFFFFC0007F0001FFFFFFFFC0007FF0003FFFFFFFFFF0000000000FF
310
F000FC0000000003FFFFE0007F00078007F0003FFF80007FFC0000000007FFFF
310
C0000000007FFFF80FFFFFFFFFFFFFC07FFFFFF0001FFFFFF8001FFFFFFFFC00
310
0FF8001FFFFFFFFC000FFF0003FFFFFFFFFE0000000003FFF000FC000000000F
310
FFFFE0007F80070007F8001FFF80007FF8000000001FFFFF8000000001FFFFF8
310
0FFFFFFFFFFFFFC07FFFFFF0001FFFFFF8001FFFFFFFFC000FF8001FFFFFFFFC
310
000FFF0003FFFFFFFFFC000000000FFFF000F8000000007FFFFFE0007F800700
310
07F8001FFF80007FF000000000FFFFFF800000000FFFFFF80FFFFFFFFFFFFFC0
310
7FFFFFF0001FFFFFF8000FFFFFFFF8000FF8000FFFFFFFF8000FFF0003FFFFFF
310
FFFC000000007FFFF000F800000007FFFFFFC0007F8003000FF8001FFF80007F
310
F000000007FFFFFF000000007FFFFFF80FFFFFFFFFFFFFC07FFFFFF0001FFFFF
310
F8000FFFFFFFF8000FF8000FFFFFFFF8000FFF0003FFFFFFFFF80000000FFFFF
310
F000F0000000FFFFFFFFC000FF8003000FF8001FFF80007FE0000000FFFFFFFF
310
0000000FFFFFFFF8000001FFFE0000007FFFFFF0001FFFFFF8000FFFFFFFF800
310
0FF8000FFFFFFFF8000FFF0003FFFFFFFFF8000000FFFFFFF000F000000FFFFF
310
FFFFC000FFC002000FF8000FFF80007FE000001FFFFFFFFE000001FFFFFFFFF8
310
000001FFFE0000007FFFFFF0001FFFFFF8000FFFFFFFF8000FF8000FFFFFFFF8
310
000FFF0003FFFFFFFFF000001FFFFFFFF000E00000FFFFFFFFFFC000FFC00200
310
0FFC000FFF80007FE00001FFFFFFFFFE00001FFFFFFFFFF8000001FFFE000000
310
7FFFFFF0001FFFFFFC000FFFFFFFF8001FFC000FFFFFFFF8001FFF0003FFFFFF
310
FFF00001FFFFFFFFF000E00007FFFFFFFFFF8000FFC000001FFC000FFF80007F
310
C0000FFFFFFFFFFE0000FFFFFFFFFFF8000001FFFE0000007FFFFFF0001FFFFF
310
FC0007FFFFFFF0001FFC0007FFFFFFF0001FFF0003FFFFFFFFF00007FFFFFFFF
310
F000E0001FFFFFFFFFFF8000FFC000001FFC000FFF80007FC0003FFFFFFFFFFE
310
0001FFFFFFFFFFF8000001FFFE0000007FFFFFF0001FFFFFFC0007FFFFFFF000
310
1FFC0007FFFFFFF0001FFF0003FFFFFFFFF0001FFFFFFFFFF000E0003FFFFF00
310
03FF8001FFE000001FFC0007FF80007FC0007FFFFF0007FC0003FFFFF0003FF8
310
000001FFFE0000007FFFFFF0001FFFFFFC0003FFFFFFE0001FFC0003FFFFFFE0
310
001FFF0003FFFFFFFFF0003FFFFFFFFFF000E0003FFFFF0001FF8001FFE00000
310
1FFE0007FF80007FC0007FFFFE0003FC0007FFFFE0003FF8000001FFFE000000
310
7FFFFFF0001FFFFFFE0003FFFFFFE0003FFE0003FFFFFFE0003FFF0003FFFFFF
310
FFF0003FFFFF8001F000E0003FFFFF0001FF0001FFE000001FFE0007FF80007F
310
C0007FFFFE0003FC0007FFFFE0003FF8000001FFFE0000007FFFFFF0001FFFFF
310
FE0001FFFFFFC0003FFE0001FFFFFFC0003FFF0003FFFFFFFFF0003FFFFF0001
310
F000E0003FFFFF0003FF0001FFE000003FFE0007FF80007FC0007FFFFE0003FC
310
0007FFFFE0003FF8000001FFFE0000007FFFFFF0001FFFFFFF0001FFFFFFC000
310
7FFF0001FFFFFFC0007FFF0003FFFFFFFFF0003FFFFF0001F000E0003FFFFE00
310
03FF0003FFF000003FFE0003FF80007FC0007FFFFC0003FE0007FFFFE0003FF8
310
000001FFFE0000007FFFFFF0001FFFFFFF0000FFFFFF80007FFF0000FFFFFF80
310
007FFF0003FFFFFFFFF0003FFFFF0001F000E0003FFFFE0003FF0003FFF00000
310
3FFF0003FF80007FC0007FFFFC0007FE0007FFFFC0003FF8000001FFFE000000
310
7FFFFFF0001FFFFFFF80007FFFFF0000FFFF80007FFFFF0000FFFF0003FFFFFF
310
FFF0003FFFFF0003F000E0003FFFFC0003FE0003FFF000003FFF0003FF80007F
310
E0003FFFF80007FE0003FFFFC0007FF8000001FFFE0000007FFFFFF0001FFFFF
310
FF80003FFFFE0000FFFF80003FFFFE0000FFFF0003FFFFFFFFF0001FFFFE0003
310
F000F0001FFFF80003FE0003FFF000007FFF0001FF80007FE0003FFFF00007FE
310
0001FFFF80007FF8000001FFFE0000007FFFFFF0001FFFFFFFC0000FFFF80001
310
FFFFC0000FFFF80001FFFF0003FFFFFFFFF0001FFFFC0003F000F0000FFFF000
310
07FE0007FFF800007FFF0001FF80007FE0001FFFE00007FF0000FFFE00007FF8
310
000001FFFE0000007FFFFFF0001FFFFFFFC00003FFE00001FFFFC00003FFE000
310
01FFFF0003FFFFFFFFF8000FFFF80003F000F00003FFC00007FC0007FFF80000
310
7FFF8001FF80007FF00007FF80000FFF00007FF80000FFF8000001FFFE000000
310
7F80000000000001FFE000003E000003FFFFE000003E000003FFFF0003FFFFFF
310
FFF80003FFE00007F000F800000000000FFC0007FFF800007FFF8001FF80007F
310
F000000000000FFF000000000000FFF8000001FFFE0000007F80000000000001
310
FFF0000000000007FFFFF0000000000007FFFF0003FFFFFFFFFC00007E000007
310
F000F800000000000FFC0007FFF80000FFFF8000FF80007FF800000000001FFF
310
800000000001FFF8000001FFFE0000007F80000000000001FFF800000000000F
310
FFFFF800000000000FFFFF0003FFFFFFFFFC00000000000FF000FC0000000000
310
1FFC0007FFFC0000FFFF8000FF80007FF800000000003FFFC00000000001FFF8
310
000001FFFE0000007F80000000000001FFF800000000000FFFFFF80000000000
310
0FFFFF0003FFFFFFFFFE00000000001FF000FE00000000003FF8000FFFFC0000
310
FFFF8000FF80007FFC00000000003FFFC00000000003FFF8000001FFFE000000
310
7F80000000000001FFFC00000000001FFFFFFC00000000001FFFFF0003FFFFFF
310
FFFF00000000001FF000FF00000000003FF8000FFFFC0000FFFFC000FF80007F
310
FE00000000007FFFE00000000007FFF8000001FFFE0000007F80000000000001
310
FFFE00000000003FFFFFFE00000000003FFFFF0003FFFFFFFFFF80000000003F
310
F000FF80000000007FF8000FFFFC0001FFFFC0007F80007FFF0000000000FFFF
310
F0000000000FFFF800000000000000007F80000000000001FFFF8000000000FF
310
FFFFFF8000000000FFFFFF0003FFFFFFFFFFC0000000007FF000FFC000000000
310
FFF8000FFFFE0001FFFFC0007F80007FFF8000000001FFFFF8000000001FFFF8
310
00000000000000007F80000000000001FFFFC000000001FFFFFFFFC000000001
310
FFFFFF0003FFFFFFFFFFE000000000FFF000FFE000000003FFF0001FFFFE0001
310
FFFFC0007F80007FFFC000000007FFFFFE000000003FFFF80000000000000000
310
7F80000000000001FFFFE000000003FFFFFFFFE000000003FFFFFF0003FFFFFF
310
FFFFF000000003FFF000FFF80000000FFFF0001FFFFE0001FFFFE0007F80007F
310
FFF00000000FFFFFFF00000000FFFFF800000000000000007F80000000000001
310
FFFFF80000000FFFFFFFFFF80000000FFFFFFF0003FFFFFFFFFFFC0000000FFF
310
F000FFFE0000003FFFF0001FFFFE0003FFFFE0003F80007FFFFC0000003FFFFF
310
FFC0000003FFFFF800000000000000007F80000000000001FFFFFE0000003FFF
310
FFFFFFFE0000003FFFFFFF0003FFFFFFFFFFFF0000003FFFF000FFFF800000FF
310
FFF0001FFFFF0003FFFFE0003F80007FFFFF000001FFFFFFFFF800001FFFFFF8
310
00000000000000007F80000000000001FFFFFFC00001FFFFFFFFFFFFC00001FF
310
FFFFFF0003FFFFFFFFFFFFC00000FFFFF000FFFFF8000FFFFFFFFFFFFFFFFFFF
310
FFFFFFFFFFFFFFFFFFFFF0001FFFFFFFFFFF0000FFFFFFF80000000000000000
310
7FFFFFFFFFFFFFFFFFFFFFFC001FFFFFFFFFFFFFFC001FFFFFFFFFFFFFFFFFFF
310
FFFFFFFC001FFFFFF000FFFFFFFFFFFFFFFFFFFFFFFFFFFFFFFFFFFFFFFFFFFF
310
FFFFFFFFFFFFFFFFFFFFFFFFFFFFFFFFFFFFFFFFFFFFFFFFFFFFFFFFFFFFFFFF
310
FFFFFFFFFFFFFFFFFFFFFFFFFFFFFFFFFFFFFFFFFFFFFFFFFFFFFFFFFFFFFFFF
310
F000FFFFFFFFFFFFFFFFFFFFFFFFFFFFFFFFFFFFFFFFFFFFFFFFFFFFFFFFFFFF
310
FFFFFFFFFFFFFFFFFFFFFFFFFFFFFFFFFFFFFFFFFFFFFFFFFFFFFFFFFFFFFFFF
310
FFFFFFFFFFFFFFFFFFFFFFFFFFFFFFFFFFFFFFFFFFFFFFFFF000FFFFFFFFFFFF
310
FFFFFFFFFFFFFFFFFFFFFFFFFFFFFFFFFFFFFFFFFFFFFFFFFFFFFFFFFFFFFFFF
310
FFFFFFFFFFFFFFFFFFFFFFFFFFFFFFFFFFFFFFFFFFFFFFFFFFFFFFFFFFFFFFFF
310
FFFFFFFFFFFFFFFFFFFFFFFFFFFFFFFFF000FFFFFFFFFFFFFFFFFFFFFFFFFFFF
310
FFFFFFFFFFFFFFFFFFFFFFFFFFFFFFFFFFFFFFFFFFFFFFFFFFFFFFFFFFFFFFFF
310
FFFFFFFFFFFFFFFFFFFFFFFFFFFFFFFFFFFFFFFFFFFFFFFFFFFFFFFFFFFFFFFF
310
FFFFFFFFFFFFFFFFF000FFFFFFFFFFFFFFFFFFFFFFFFFFFFFFFFFFFFFFFFFFFF
310
FFFFFFFFFFFFFFFFFFFFFFFFFFFFFFFFFFFFFFFFFFFFFFFFFFFFFFFFFFFFFFFF
310
FFFFFFFFFFFFFFFFFFFFFFFFFFFFFFFFFFFFFFFFFFFFFFFFFFFFFFFFFFFFFFFF
310
F000FFFFFFFFFFFFFFFFFFFFFFFFFFFFFFFFFFFFFFFFFFFFFFFFFFFFFFFFFFFF
310
FFFFFFFFFFFFFFFFFFFFFFFFFFFFFFFFFFFFFFFFFFFFFFFFFFFFFFFFFFFFFFFF
310
FFFFFFFFFFFFFFFFFFFFFFFFFFFFFFFFFFFFFFFFFFFFFFFFF000FFFFFFFFFFFF
310
FFFFFFFFFFFFFFFFFFFFFFFFFFFFFFFFFFFFFFFFFFFFFFFFFFFFFFFFFFFFFFFF
310
FFFFFFFFFFFFFFFFFFFFFFFFFFFFFFFFFFFFFFFFFFFFFFFFFFFFFFFFFFFFFFFF
310
FFFFFFFFFFFFFFFFFFFFFFFFFFFFFFFFF000FFFFFFFFFFFFFFFFFFFFFFFFFFFF
310
FFFFFFFFFFFFFFFFFFFFFFFFFFFFFFFFFFFFFFFFFFFFFFFFFFFFFFFFFFFFFFFF
310
FFFFFFFFFFFFFFFFFFFFFFFFFFFFFFFFFFFFFFFFFFFFFFFFFFFFFFFFFFFFFFFF
310
FFFFFFFFFFFFFFFFF000FFFFFFFFFFFFFFFFFFFFFFFFFFFFFFFFFFFFFFFFFFFF
310
FFFFFFFFFFFFFFFFFFFFFFFFFFFFFFFFFFFFFFFFFFFFFFFFFFFFFFFFFFFFFFFF
310
FFFFFFFFFFFFFFFFFFFFFFFFFFFFFFFFFFFFFFFFFFFFFFFFFFFFFFFFFFFFFFFF
310
F000FFFFFFFFFFFFFFFFFFFFFFFFFFFFFFFFFFFFFFFFFFFFFFFFFFFFFFFFFFFF
310
FFFFFFFFFFFFFFFFFFFFFFFFFFFFFFFFFFFFFFFFFFFFFFFFFFFFFFFFFFFFFFFF
310
FFFFFFFFFFFFFFFFFFFFFFFFFFFFFFFFFFFFFFFFFFFFFFFFF000FFFFFFFFFFFF
310
FFFFFFFFFFFFFFFFFFFFFFFFFFFFFFFFFFFFFFFFFFFFFFFFFFFFFFFFFFFFFFFF
310
FFFFFFFFFFFFFFFFFFFFFFFFFFFFFFFFFFFFFFFFFFFFFFFFFFFFFFFFFFFFFFFF
310
FFFFFFFFFFFFFFFFFFFFFFFFFFFFFFFFF000FFFFFFFFFFFFFFFFFFFFFFFFFFFF
310
FFFFFFFFFFFFFFFFFFFFFFFFFFFFFFFFFFFFFFFFFFFFFFFFFFFFFFFFFFFFFFFF
310
FFFFFFFFFFFFFFFFFFFFFFFFFFFFFFFFFFFFFFFFFFFFFFFFFFFFFFFFFFFFFFFF
310
FFFFFFFFFFFFFFFFF000FFFFFFFFFFFFFFFFFFFFFFFFFFFFFFFFFFFFFFFFFFFF
310
FFFFFFFFFFFFFFFFFFFFFFFFFFFFFFFFFFFFFFFFFFFFFFFFFFFFFFFFFFFFFFFF
310
FFFFFFFFFFFFFFFFFFFFFFFFFFFFFFFFFFFFFFFFFFFFFFFFFFFFFFFFFFFFFFFF
310
F000FFFFFFFFFFFFFFFFFFFFFFFFFFFFFFFFFFFFFFFFFFFFFFFFFFFFFFFFFFFF
310
FFFFFFFFFFFFFFFFFFFFFFFFFFFFFFFFFFFFFFFFFFFFFFFFFFFFFFFFFFFFFFFF
310
FFFFFFFFFFFFFFFFFFFFFFFFFFFFFFFFFFFFFFFFFFFFFFFFF000FFFFFFFFFFFF
310
FFFFFFFFFFFFFFFFFFFFFFFFFFFFFFFFFFFFFFFFFFFFFFFFFFFFFFFFFFFFFFFF
310
FFFFFFFFFFFFFFFFFFFFFFFFFFFFFFFFFFFFFFFFFFFFFFFFFFFFFFFFFFFFFFFF
310
FFFFFFFFFFFFFFFFFFFFFFFFFFFFFFFFF000FFFFFFFFFFFFFFFFFFFFFFFFFFFF
310
FFFFFFFFFFFFFFFFFFFFFFFFFFFFFFFFFFFFFFFFFFFFFFFFFFFFFFFFFFFFFFFF
310
FFFFFFFFFFFFFFFFFFFFFFFFFFFFFFFFFFFFFFFFFFFFFFFFFFFFFFFFFFFFFFFF
310
FFFFFFFFFFFFFFFFF000FFFFFFFFFFFFFFFFFFFFFFFFFFFFFFFFFFFFFFFFFFFF
310
FFFFFFFFFFFFFFFFFFFFFFFFFFFFFFFFFFFFFFFFFFFFFFFFFFFFFFFFFFFFFFFF
310
FFFFFFFFFFFFFFFFFFFFFFFFFFFFFFFFFFFFFFFFFFFFFFFFFFFFFFFFFFFFFFFF
310
F000FFFFFFFFFFFFFFFFFFFFFFFFFFFFFFFFFFFFFFFFFFFFFFFFFFFFFFFFFFFF
310
FFFFFFFFFFFFFFFFFFFFFFFFFFFFFFFFFFFFFFFFFFFFFFFFFFFFFFFFFFFFFFFF
310
FFFFFFFFFFFFFFFFFFFFFFFFFFFFFFFFFFFFFFFFFFFFFFFFF000FFFFFFFFFFFF
310
FFFFFFFFFFFFFFFFFFFFFFFFFFFFFFFFFFFFFFFFFFFFFFFFFFFFFFFFFFFFFFFF
310
FFFFFFFFFFFFFFFFFFFFFFFFFFFFFFFFFFFFFFFFFFFFFFFFFFFFFFFFFFFFFFFF
310
FFFFFFFFFFFFFFFFFFFFFFFFFFFFFFFFF000FFFFFFFFFFFFFFFFFFFFFFFFFFFF
310
FFFFFFFFFFFFFFFFFFFFFFFFFFFFFFFFFFFFFFFFFFFFFFFFFFFFFFFFFFFFFFFF
310
FFFFFFFFFFFFFFFFFFFFFFFFFFFFFFFFFFFFFFFFFFFFFFFFFFFFFFFFFFFFFFFF
310
FFFFFFFFFFFFFFFFF000FFFFFFFFFFFFFFFFFFFFFFFFFFFFFFFFFFFFFFFFFFFF
310
FFFFFFFFFFFFFFFFFFFFFFFFFFFFFFFFFFFFFFFFFFFFFFFFFFFFFFFFFFFFFFFF
310
FFFFFFFFFFFFFFFFFFFFFFFFFFFFFFFFFFFFFFFFFFFFFFFFFFFFFFFFFFFFFFFF
310
F000FFFFFFFFFFFFFFFFFFFFFFFFFFFFFFFFFFFFFFFFFFFFFFFFFFFFFFFFFFFF
310
FFFFFFFFFFFFFFFFFFFFFFFFFFFFFFFFFFFFFFFFFFFFFFFFFFFFFFFFFFFFFFFF
310
FFFFFFFFFFFFFFFFFFFFFFFFFFFFFFFFFFFFFFFFFFFFFFFFF000FFFFFFFFFFFF
310
FFFFFFFFFFFFFFFFFFFFFFFFFFFFFFFFFFFFFFFFFFFFFFFFFFFFFFFFFFFFFFFF
310
FFFFFFFFFFFFFFFFFFFFFFFFFFFFFFFFFFFFFFFFFFFFFFFFFFFFFFFFFFFFFFFF
310
FFFFFFFFFFFFFFFFFFFFFFFFFFFFFFFFF0000000000000000000000000000000
310
0000000000000000000000000000000000000000000000000000000000000000
310
0000000000000000000000000000000000000000000000000000000000000000
310
0000000000000000000000000000000000000000000000000000000000000000
310
0000000000000000000000000000000000000000000000000000000000000000
310
0000000000000000000000000000000000000000000000000000000000000000
310
0000000000000000000000000000000000000000000000000000000000000000
310
0000000000000000000000000000000000000000000000000000000000000000
310
0000000000000000000000000000000000000000000000000000000000000000
310
0000000000000000000000000000000000000000000000000000000000000000
310
0000000000000000000000000000000000000000000000000000000000000000
310
0000000000000000000000000000000000000000000000000000000000000000
310
0000000000000000000000000000000000000000000000000000000000000000
310
0000000000000000000000000000000000000000000000000000000000000000
310
0000000000000000000000000000000000000000000000000000000000000000
310
0000000000000000000000000000000000000000000000000000000000000000
  1
OLE
  0
ENDSEC
  0
SECTION
  2
OBJECTS
  0
DICTIONARY
  5
C
330
0
100
AcDbDictionary
281
     1
  3
ACAD_GROUP
350
D
  3
ACAD_LAYOUT
350
1A
  3
ACAD_MLINESTYLE
350
17
  3
ACAD_PLOTSETTINGS
350
19
  3
ACAD_PLOTSTYLENAME
350
E
  3
ACAD_SCALELIST
350
47
  0
DICTIONARY
  5
D
102
{ACAD_REACTORS
330
C
102
}
330
C
100
AcDbDictionary
281
     1
  0
DICTIONARY
  5
1A
102
{ACAD_REACTORS
330
C
102
}
330
C
100
AcDbDictionary
281
     1
  3
Layout1
350
1E
  3
Layout2
350
26
  3
Model
350
22
  0
DICTIONARY
  5
17
102
{ACAD_REACTORS
330
C
102
}
330
C
100
AcDbDictionary
281
     1
  3
Standard
350
18
  0
DICTIONARY
  5
19
102
{ACAD_REACTORS
330
C
102
}
330
C
100
AcDbDictionary
281
     1
  0
ACDBDICTIONARYWDFLT
  5
E
102
{ACAD_REACTORS
330
C
102
}
330
C
100
AcDbDictionary
281
     1
  3
Normal
350
F
100
AcDbDictionaryWithDefault
340
F
  0
DICTIONARY
  5
47
102
{ACAD_REACTORS
330
C
102
}
330
C
100
AcDbDictionary
281
     1
  3
A0
350
48
  3
A1
350
49
  3
A2
350
4A
  3
A3
350
4B
  3
A4
350
4C
  3
A5
350
4D
  3
A6
350
4E
  3
A7
350
4F
  3
A8
350
50
  3
A9
350
51
  3
B0
350
52
  3
B1
350
53
  3
B2
350
54
  3
B3
350
55
  3
B4
350
56
  3
B5
350
57
  3
B6
350
58
  3
B7
350
59
  3
B8
350
5A
  3
B9
350
5B
  3
C0
350
5C
  3
C1
350
5D
  3
C2
350
5E
  3
C3
350
5F
  3
C4
350
60
  3
C5
350
61
  3
C6
350
62
  3
C7
350
63
  3
C8
350
64
  3
C9
350
65
  3
D0
350
66
  3
D1
350
67
  3
D2
350
68
  0
LAYOUT
  5
1E
102
{ACAD_REACTORS
330
1A
102
}
330
1A
100
AcDbPlotSettings
  1

  2
none_device
  4

  6

 40
0.0
 41
0.0
 42
0.0
 43
0.0
 44
0.0
 45
0.0
 46
0.0
 47
0.0
 48
0.0
 49
0.0
140
0.0
141
0.0
142
1.0
143
1.0
 70
   688
 72
     1
 73
     0
 74
     5
  7

 75
    16
147
1.0
148
0.0
149
0.0
100
AcDbLayout
  1
Layout1
 70
     1
 71
     1
 10
0.0
 20
0.0
 11
420.0
 21
297.0
 12
0.0
 22
0.0
 32
0.0
 14
1.0000000000E+20
 24
1.0000000000E+20
 34
1.0000000000E+20
 15
-1.0000000000E+20
 25
-1.0000000000E+20
 35
-1.0000000000E+20
146
0.0
 13
0.0
 23
0.0
 33
0.0
 16
1.0
 26
0.0
 36
0.0
 17
0.0
 27
1.0
 37
0.0
 76
     0
330
1B
  0
LAYOUT
  5
26
102
{ACAD_REACTORS
330
1A
102
}
330
1A
100
AcDbPlotSettings
  1

  2
none_device
  4

  6

 40
0.0
 41
0.0
 42
0.0
 43
0.0
 44
0.0
 45
0.0
 46
0.0
 47
0.0
 48
0.0
 49
0.0
140
0.0
141
0.0
142
1.0
143
1.0
 70
   688
 72
     1
 73
     0
 74
     5
  7

 75
    16
147
1.0
148
0.0
149
0.0
100
AcDbLayout
  1
Layout2
 70
     1
 71
     2
 10
0.0
 20
0.0
 11
0.0
 21
0.0
 12
0.0
 22
0.0
 32
0.0
 14
0.0
 24
0.0
 34
0.0
 15
0.0
 25
0.0
 35
0.0
146
0.0
 13
0.0
 23
0.0
 33
0.0
 16
1.0
 26
0.0
 36
0.0
 17
0.0
 27
1.0
 37
0.0
 76
     0
330
23
  0
LAYOUT
  5
22
102
{ACAD_REACTORS
330
1A
102
}
330
1A
100
AcDbPlotSettings
  1

  2
none_device
  4
Letter_(8.50_x_11.00_Inches)
  6

 40
6.35
 41
6.35
 42
6.35000508
 43
6.35000508
 44
215.9
 45
279.4
 46
0.0
 47
0.0
 48
0.0
 49
0.0
140
0.0
141
0.0
142
1.0
143
1.0
 70
  1712
 72
     1
 73
     0
 74
     0
  7

 75
     0
147
1.0
148
0.0
149
0.0
100
AcDbLayout
  1
Model
 70
     1
 71
     0
 10
0.0
 20
0.0
 11
297.0
 21
210.0
 12
0.0
 22
0.0
 32
0.0
 14
0.0
 24
0.0
 34
0.0
 15
297.0
 25
210.0
 35
0.0
146
0.0
 13
0.0
 23
0.0
 33
0.0
 16
1.0
 26
0.0
 36
0.0
 17
0.0
 27
1.0
 37
0.0
 76
     0
330
1F
331
29
  0
MLINESTYLE
  5
18
102
{ACAD_REACTORS
330
17
102
}
330
17
100
AcDbMlineStyle
  2
Standard
 70
     0
  3

 62
   256
 51
90.0
 52
90.0
 71
     2
 49
0.5
 62
   256
  6
BYLAYER
 49
-0.5
 62
   256
  6
BYLAYER
  0
ACDBPLACEHOLDER
  5
F
102
{ACAD_REACTORS
330
E
102
}
330
E
  0
SCALE
  5
48
102
{ACAD_REACTORS
330
47
102
}
330
47
100
AcDbScale
 70
     0
300
1:1
140
1.0
141
1.0
290
     1
  0
SCALE
  5
49
102
{ACAD_REACTORS
330
47
102
}
330
47
100
AcDbScale
 70
     0
300
1:2
140
1.0
141
2.0
290
     0
  0
SCALE
  5
4A
102
{ACAD_REACTORS
330
47
102
}
330
47
100
AcDbScale
 70
     0
300
1:4
140
1.0
141
4.0
290
     0
  0
SCALE
  5
4B
102
{ACAD_REACTORS
330
47
102
}
330
47
100
AcDbScale
 70
     0
300
1:5
140
1.0
141
5.0
290
     0
  0
SCALE
  5
4C
102
{ACAD_REACTORS
330
47
102
}
330
47
100
AcDbScale
 70
     0
300
1:8
140
1.0
141
8.0
290
     0
  0
SCALE
  5
4D
102
{ACAD_REACTORS
330
47
102
}
330
47
100
AcDbScale
 70
     0
300
1:10
140
1.0
141
10.0
290
     0
  0
SCALE
  5
4E
102
{ACAD_REACTORS
330
47
102
}
330
47
100
AcDbScale
 70
     0
300
1:16
140
1.0
141
16.0
290
     0
  0
SCALE
  5
4F
102
{ACAD_REACTORS
330
47
102
}
330
47
100
AcDbScale
 70
     0
300
1:20
140
1.0
141
20.0
290
     0
  0
SCALE
  5
50
102
{ACAD_REACTORS
330
47
102
}
330
47
100
AcDbScale
 70
     0
300
1:30
140
1.0
141
30.0
290
     0
  0
SCALE
  5
51
102
{ACAD_REACTORS
330
47
102
}
330
47
100
AcDbScale
 70
     0
300
1:40
140
1.0
141
40.0
290
     0
  0
SCALE
  5
52
102
{ACAD_REACTORS
330
47
102
}
330
47
100
AcDbScale
 70
     0
300
1:50
140
1.0
141
50.0
290
     0
  0
SCALE
  5
53
102
{ACAD_REACTORS
330
47
102
}
330
47
100
AcDbScale
 70
     0
300
1:100
140
1.0
141
100.0
290
     0
  0
SCALE
  5
54
102
{ACAD_REACTORS
330
47
102
}
330
47
100
AcDbScale
 70
     0
300
2:1
140
2.0
141
1.0
290
     0
  0
SCALE
  5
55
102
{ACAD_REACTORS
330
47
102
}
330
47
100
AcDbScale
 70
     0
300
4:1
140
4.0
141
1.0
290
     0
  0
SCALE
  5
56
102
{ACAD_REACTORS
330
47
102
}
330
47
100
AcDbScale
 70
     0
300
8:1
140
8.0
141
1.0
290
     0
  0
SCALE
  5
57
102
{ACAD_REACTORS
330
47
102
}
330
47
100
AcDbScale
 70
     0
300
10:1
140
10.0
141
1.0
290
     0
  0
SCALE
  5
58
102
{ACAD_REACTORS
330
47
102
}
330
47
100
AcDbScale
 70
     0
300
100:1
140
100.0
141
1.0
290
     0
  0
SCALE
  5
59
102
{ACAD_REACTORS
330
47
102
}
330
47
100
AcDbScale
 70
     0
300
1/128" = 1'-0"
140
0.0078125
141
12.0
290
     0
  0
SCALE
  5
5A
102
{ACAD_REACTORS
330
47
102
}
330
47
100
AcDbScale
 70
     0
300
1/64" = 1'-0"
140
0.015625
141
12.0
290
     0
  0
SCALE
  5
5B
102
{ACAD_REACTORS
330
47
102
}
330
47
100
AcDbScale
 70
     0
300
1/32" = 1'-0"
140
0.03125
141
12.0
290
     0
  0
SCALE
  5
5C
102
{ACAD_REACTORS
330
47
102
}
330
47
100
AcDbScale
 70
     0
300
1/16" = 1'-0"
140
0.0625
141
12.0
290
     0
  0
SCALE
  5
5D
102
{ACAD_REACTORS
330
47
102
}
330
47
100
AcDbScale
 70
     0
300
3/32" = 1'-0"
140
0.09375
141
12.0
290
     0
  0
SCALE
  5
5E
102
{ACAD_REACTORS
330
47
102
}
330
47
100
AcDbScale
 70
     0
300
1/8" = 1'-0"
140
0.125
141
12.0
290
     0
  0
SCALE
  5
5F
102
{ACAD_REACTORS
330
47
102
}
330
47
100
AcDbScale
 70
     0
300
3/16" = 1'-0"
140
0.1875
141
12.0
290
     0
  0
SCALE
  5
60
102
{ACAD_REACTORS
330
47
102
}
330
47
100
AcDbScale
 70
     0
300
1/4" = 1'-0"
140
0.25
141
12.0
290
     0
  0
SCALE
  5
61
102
{ACAD_REACTORS
330
47
102
}
330
47
100
AcDbScale
 70
     0
300
3/8" = 1'-0"
140
0.375
141
12.0
290
     0
  0
SCALE
  5
62
102
{ACAD_REACTORS
330
47
102
}
330
47
100
AcDbScale
 70
     0
300
1/2" = 1'-0"
140
0.5
141
12.0
290
     0
  0
SCALE
  5
63
102
{ACAD_REACTORS
330
47
102
}
330
47
100
AcDbScale
 70
     0
300
3/4" = 1'-0"
140
0.75
141
12.0
290
     0
  0
SCALE
  5
64
102
{ACAD_REACTORS
330
47
102
}
330
47
100
AcDbScale
 70
     0
300
1" = 1'-0"
140
1.0
141
12.0
290
     0
  0
SCALE
  5
65
102
{ACAD_REACTORS
330
47
102
}
330
47
100
AcDbScale
 70
     0
300
1-1/2" = 1'-0"
140
1.5
141
12.0
290
     0
  0
SCALE
  5
66
102
{ACAD_REACTORS
330
47
102
}
330
47
100
AcDbScale
 70
     0
300
3" = 1'-0"
140
3.0
141
12.0
290
     0
  0
SCALE
  5
67
102
{ACAD_REACTORS
330
47
102
}
330
47
100
AcDbScale
 70
     0
300
6" = 1'-0"
140
6.0
141
12.0
290
     0
  0
SCALE
  5
68
102
{ACAD_REACTORS
330
47
102
}
330
47
100
AcDbScale
 70
     0
300
1'-0" = 1'-0"
140
12.0
141
12.0
290
     0
  0
ENDSEC
  0
EOF
