  0
SECTION
  2
HEADER
  9
$ACADVER
  1
AC1015
  9
$ACADMAINTVER
 70
     6
  9
$DWGCODEPAGE
  3
ANSI_1252
  9
$INSBASE
 10
0.0
 20
0.0
 30
0.0
  9
$EXTMIN
 10
0.0
 20
0.0
 30
0.0
  9
$EXTMAX
 10
297.0
 20
210.0
 30
0.0
  9
$LIMMIN
 10
0.0
 20
0.0
  9
$LIMMAX
 10
297.0
 20
210.0
  9
$ORTHOMODE
 70
     0
  9
$REGENMODE
 70
     1
  9
$FILLMODE
 70
     1
  9
$QTEXTMODE
 70
     0
  9
$MIRRTEXT
 70
     1
  9
$LTSCALE
 40
1.0
  9
$ATTMODE
 70
     1
  9
$TEXTSIZE
 40
2.0
  9
$TRACEWID
 40
1.0
  9
$TEXTSTYLE
  7
Standard
  9
$CLAYER
  8
0
  9
$CELTYPE
  6
ByLayer
  9
$CECOLOR
 62
   256
  9
$CELTSCALE
 40
1.0
  9
$DISPSILH
 70
     0
  9
$DIMSCALE
 40
1.0
  9
$DIMASZ
 40
3.0
  9
$DIMEXO
 40
0.0
  9
$DIMDLI
 40
3.75
  9
$DIMRND
 40
0.0
  9
$DIMDLE
 40
0.0
  9
$DIMEXE
 40
1.0
  9
$DIMTP
 40
0.0
  9
$DIMTM
 40
0.0
  9
$DIMTXT
 40
2.0
  9
$DIMCEN
 40
2.5
  9
$DIMTSZ
 40
0.0
  9
$DIMTOL
 70
     0
  9
$DIMLIM
 70
     0
  9
$DIMTIH
 70
     1
  9
$DIMTOH
 70
     1
  9
$DIMSE1
 70
     0
  9
$DIMSE2
 70
     0
  9
$DIMTAD
 70
     1
  9
$DIMZIN
 70
     0
  9
$DIMBLK
  1

  9
$DIMASO
 70
     1
  9
$DIMSHO
 70
     1
  9
$DIMPOST
  1

  9
$DIMAPOST
  1

  9
$DIMALT
 70
     0
  9
$DIMALTD
 70
     3
  9
$DIMALTF
 40
0.0393700787
  9
$DIMLFAC
 40
2.0
  9
$DIMTOFL
 70
     1
  9
$DIMTVP
 40
0.0
  9
$DIMTIX
 70
     0
  9
$DIMSOXD
 70
     0
  9
$DIMSAH
 70
     0
  9
$DIMBLK1
  1

  9
$DIMBLK2
  1

  9
$DIMSTYLE
  2
ISO-25
  9
$DIMCLRD
 70
     0
  9
$DIMCLRE
 70
     0
  9
$DIMCLRT
 70
     0
  9
$DIMTFAC
 40
1.0
  9
$DIMGAP
 40
1.524
  9
$DIMJUST
 70
     0
  9
$DIMSD1
 70
     0
  9
$DIMSD2
 70
     0
  9
$DIMTOLJ
 70
     0
  9
$DIMTZIN
 70
     0
  9
$DIMALTZ
 70
     0
  9
$DIMALTTZ
 70
     0
  9
$DIMUPT
 70
     0
  9
$DIMDEC
 70
     2
  9
$DIMTDEC
 70
     3
  9
$DIMALTU
 70
     2
  9
$DIMALTTD
 70
     3
  9
$DIMTXSTY
  7
Standard
  9
$DIMAUNIT
 70
     0
  9
$DIMADEC
 70
     2
  9
$DIMALTRND
 40
0.0
  9
$DIMAZIN
 70
     0
  9
$DIMDSEP
 70
    44
  9
$DIMATFIT
 70
     3
  9
$DIMFRAC
 70
     0
  9
$DIMLDRBLK
  1

  9
$DIMLUNIT
 70
     2
  9
$DIMLWD
 70
    -2
  9
$DIMLWE
 70
    -2
  9
$DIMTMOVE
 70
     0
  9
$LUNITS
 70
     2
  9
$LUPREC
 70
     2
  9
$SKETCHINC
 40
1.0
  9
$FILLETRAD
 40
10.0
  9
$AUNITS
 70
     0
  9
$AUPREC
 70
     2
  9
$MENU
  1
.
  9
$ELEVATION
 40
0.0
  9
$PELEVATION
 40
0.0
  9
$THICKNESS
 40
0.0
  9
$LIMCHECK
 70
     0
  9
$CHAMFERA
 40
0.0
  9
$CHAMFERB
 40
0.0
  9
$CHAMFERC
 40
0.0
  9
$CHAMFERD
 40
0.0
  9
$SKPOLY
 70
     0
  9
$TDCREATE
 40
2458166.415880961
  9
$TDUCREATE
 40
2458166.374214294
  9
$TDUPDATE
 40
2458166.415884178
  9
$TDUUPDATE
 40
2458166.374217512
  9
$TDINDWG
 40
0.0000000116
  9
$TDUSRTIMER
 40
0.0000000116
  9
$USRTIMER
 70
     1
  9
$ANGBASE
 50
0.0
  9
$ANGDIR
 70
     0
  9
$PDMODE
 70
     0
  9
$PDSIZE
 40
-1.0
  9
$PLINEWID
 40
0.0
  9
$SPLFRAME
 70
     0
  9
$SPLINETYPE
 70
     6
  9
$SPLINESEGS
 70
     8
  9
$HANDSEED
  5
2C3
  9
$SURFTAB1
 70
     6
  9
$SURFTAB2
 70
     6
  9
$SURFTYPE
 70
     6
  9
$SURFU
 70
     6
  9
$SURFV
 70
     6
  9
$UCSBASE
  2

  9
$UCSNAME
  2

  9
$UCSORG
 10
0.0
 20
0.0
 30
0.0
  9
$UCSXDIR
 10
1.0
 20
0.0
 30
0.0
  9
$UCSYDIR
 10
0.0
 20
1.0
 30
0.0
  9
$UCSORTHOREF
  2

  9
$UCSORTHOVIEW
 70
     0
  9
$UCSORGTOP
 10
0.0
 20
0.0
 30
0.0
  9
$UCSORGBOTTOM
 10
0.0
 20
0.0
 30
0.0
  9
$UCSORGLEFT
 10
0.0
 20
0.0
 30
0.0
  9
$UCSORGRIGHT
 10
0.0
 20
0.0
 30
0.0
  9
$UCSORGFRONT
 10
0.0
 20
0.0
 30
0.0
  9
$UCSORGBACK
 10
0.0
 20
0.0
 30
0.0
  9
$PUCSBASE
  2

  9
$PUCSNAME
  2

  9
$PUCSORG
 10
0.0
 20
0.0
 30
0.0
  9
$PUCSXDIR
 10
1.0
 20
0.0
 30
0.0
  9
$PUCSYDIR
 10
0.0
 20
1.0
 30
0.0
  9
$PUCSORTHOREF
  2

  9
$PUCSORTHOVIEW
 70
     0
  9
$PUCSORGTOP
 10
0.0
 20
0.0
 30
0.0
  9
$PUCSORGBOTTOM
 10
0.0
 20
0.0
 30
0.0
  9
$PUCSORGLEFT
 10
0.0
 20
0.0
 30
0.0
  9
$PUCSORGRIGHT
 10
0.0
 20
0.0
 30
0.0
  9
$PUCSORGFRONT
 10
0.0
 20
0.0
 30
0.0
  9
$PUCSORGBACK
 10
0.0
 20
0.0
 30
0.0
  9
$USERI1
 70
     0
  9
$USERI2
 70
     0
  9
$USERI3
 70
     0
  9
$USERI4
 70
     0
  9
$USERI5
 70
     0
  9
$USERR1
 40
0.0
  9
$USERR2
 40
0.0
  9
$USERR3
 40
0.0
  9
$USERR4
 40
0.0
  9
$USERR5
 40
0.0
  9
$WORLDVIEW
 70
     1
  9
$SHADEDGE
 70
     3
  9
$SHADEDIF
 70
    70
  9
$TILEMODE
 70
     1
  9
$MAXACTVP
 70
    64
  9
$PINSBASE
 10
0.0
 20
0.0
 30
0.0
  9
$PLIMCHECK
 70
     0
  9
$PEXTMIN
 10
1.0000000000E+20
 20
1.0000000000E+20
 30
1.0000000000E+20
  9
$PEXTMAX
 10
-1.0000000000E+20
 20
-1.0000000000E+20
 30
-1.0000000000E+20
  9
$PLIMMIN
 10
0.0
 20
0.0
  9
$PLIMMAX
 10
420.0
 20
297.0
  9
$UNITMODE
 70
     0
  9
$VISRETAIN
 70
     1
  9
$PLINEGEN
 70
     0
  9
$PSLTSCALE
 70
     1
  9
$TREEDEPTH
 70
  3020
  9
$CMLSTYLE
  2
Standard
  9
$CMLJUST
 70
     0
  9
$CMLSCALE
 40
20.0
  9
$PROXYGRAPHICS
 70
     1
  9
$MEASUREMENT
 70
     1
  9
$CELWEIGHT
370
    -1
  9
$ENDCAPS
280
     0
  9
$JOINSTYLE
280
     0
  9
$LWDISPLAY
290
     1
  9
$INSUNITS
 70
     4
  9
$HYPERLINKBASE
  1

  9
$STYLESHEET
  1

  9
$XEDIT
290
     1
  9
$CEPSNTYPE
380
     0
  9
$PSTYLEMODE
290
     1
  9
$FINGERPRINTGUID
  2
{6BD98683-5569-4D04-AF5F-E3C095107C3B}
  9
$VERSIONGUID
  2
{FAEB1C32-E019-11D5-929B-00C0DF256EC4}
  9
$EXTNAMES
290
     1
  9
$PSVPSCALE
 40
0.0
  9
$OLESTARTUP
290
     0
  0
ENDSEC
  0
SECTION
  2
CLASSES
  0
CLASS
  1
ACDBDICTIONARYWDFLT
  2
AcDbDictionaryWithDefault
  3
ObjectDBX Classes
 90
        0
280
     0
281
     0
  0
CLASS
  1
VISUALSTYLE
  2
AcDbVisualStyle
  3
ObjectDBX Classes
 90
     4095
280
     0
281
     0
  0
CLASS
  1
MATERIAL
  2
AcDbMaterial
  3
ObjectDBX Classes
 90
     1153
280
     0
281
     0
  0
CLASS
  1
SCALE
  2
AcDbScale
  3
ObjectDBX Classes
 90
     1153
280
     0
281
     0
  0
CLASS
  1
TABLESTYLE
  2
AcDbTableStyle
  3
ObjectDBX Classes
 90
     4095
280
     0
281
     0
  0
CLASS
  1
MLEADERSTYLE
  2
AcDbMLeaderStyle
  3
ACDB_MLEADERSTYLE_CLASS
 90
     4095
280
     0
281
     0
  0
CLASS
  1
SUN
  2
AcDbSun
  3
SCENEOE
 90
     1153
280
     0
281
     0
  0
CLASS
  1
ACDBPLACEHOLDER
  2
AcDbPlaceHolder
  3
ObjectDBX Classes
 90
        0
280
     0
281
     0
  0
CLASS
  1
LAYOUT
  2
AcDbLayout
  3
ObjectDBX Classes
 90
        0
280
     0
281
     0
  0
ENDSEC
  0
SECTION
  2
TABLES
  0
TABLE
  2
VPORT
  5
8
330
0
100
AcDbSymbolTable
 70
     1
  0
VPORT
  5
29
330
8
100
AcDbSymbolTableRecord
100
AcDbViewportTableRecord
  2
*Active
 70
     0
 10
0.0
 20
0.0
 11
1.0
 21
1.0
 12
148.5
 22
105.0
 13
0.0
 23
0.0
 14
10.0
 24
10.0
 15
10.0
 25
10.0
 16
0.0
 26
0.0
 36
1.0
 17
0.0
 27
0.0
 37
0.0
 40
210.0
 41
1.4142857143
 42
50.0
 43
0.0
 44
0.0
 50
0.0
 51
0.0
 71
     0
 72
  2000
 73
     1
 74
     3
 75
     0
 76
     0
 77
     0
 78
     0
281
     0
 65
     1
110
0.0
120
0.0
130
0.0
111
1.0
121
0.0
131
0.0
112
0.0
122
1.0
132
0.0
 79
     0
146
0.0
  0
ENDTAB
  0
TABLE
  2
LTYPE
  5
5
330
0
100
AcDbSymbolTable
 70
     6
  0
LTYPE
  5
14
330
5
100
AcDbSymbolTableRecord
100
AcDbLinetypeTableRecord
  2
ByBlock
 70
     0
  3

 72
    65
 73
     0
 40
0.0
  0
LTYPE
  5
15
330
5
100
AcDbSymbolTableRecord
100
AcDbLinetypeTableRecord
  2
ByLayer
 70
     0
  3

 72
    65
 73
     0
 40
0.0
  0
LTYPE
  5
16
330
5
100
AcDbSymbolTableRecord
100
AcDbLinetypeTableRecord
  2
Continuous
 70
     0
  3
Solid line
 72
    65
 73
     0
 40
0.0
  0
LTYPE
  5
6E
330
5
100
AcDbSymbolTableRecord
100
AcDbLinetypeTableRecord
  2
HIDDEN
 70
     0
  3
Hidden __ __ __ __ __ __ __ __ __ __ __ __ __ __
 72
    65
 73
     2
 40
1.905
 49
1.27
 74
     0
 49
-0.635
 74
     0
  0
LTYPE
  5
6F
330
5
100
AcDbSymbolTableRecord
100
AcDbLinetypeTableRecord
  2
PHANTOM
 70
     0
  3
Phantom ______  __  __  ______  __  __  ______
 72
    65
 73
     6
 40
12.7
 49
6.35
 74
     0
 49
-1.27
 74
     0
 49
1.27
 74
     0
 49
-1.27
 74
     0
 49
1.27
 74
     0
 49
-1.27
 74
     0
  0
LTYPE
  5
70
330
5
100
AcDbSymbolTableRecord
100
AcDbLinetypeTableRecord
  2
CENTER
 70
     0
  3
Center ____ _ ____ _ ____ _ ____ _ ____ _ ____
 72
    65
 73
     4
 40
10.16
 49
6.35
 74
     0
 49
-1.27
 74
     0
 49
1.27
 74
     0
 49
-1.27
 74
     0
  0
LTYPE
  5
71
330
5
100
AcDbSymbolTableRecord
100
AcDbLinetypeTableRecord
  2
CENTERX2
 70
     0
  3
Center (2x) ________  __  ________  __  _____
 72
    65
 73
     4
 40
20.32
 49
12.7
 74
     0
 49
-2.54
 74
     0
 49
2.54
 74
     0
 49
-2.54
 74
     0
  0
LTYPE
  5
72
330
5
100
AcDbSymbolTableRecord
100
AcDbLinetypeTableRecord
  2
DOT2
 70
     0
  3
Dot (.5x) ........................................
 72
    65
 73
     2
 40
0.635
 49
0.0
 74
     0
 49
-0.635
 74
     0
  0
ENDTAB
  0
TABLE
  2
LAYER
  5
2
330
0
100
AcDbSymbolTable
 70
     5
  0
LAYER
  5
10
330
2
100
AcDbSymbolTableRecord
100
AcDbLayerTableRecord
  2
0
 70
     0
 62
     7
  6
Continuous
370
    -3
390
F
  0
LAYER
  5
73
330
2
100
AcDbSymbolTableRecord
100
AcDbLayerTableRecord
  2
FORMAT
 70
     0
 62
     7
  6
Continuous
370
    -3
390
F
  0
LAYER
  5
74
330
2
100
AcDbSymbolTableRecord
100
AcDbLayerTableRecord
  2
VERMASSUNG
 70
     0
 62
     7
  6
Continuous
370
    -3
390
F
  0
LAYER
  5
75
330
2
100
AcDbSymbolTableRecord
100
AcDbLayerTableRecord
  2
KOPF_DÜNN
 70
     0
 62
     7
  6
Continuous
370
    -3
390
F
  0
LAYER
  5
76
330
2
100
AcDbSymbolTableRecord
100
AcDbLayerTableRecord
  2
KOPF_DICK
 70
     0
 62
     7
  6
Continuous
370
    25
390
F
  0
ENDTAB
  0
TABLE
  2
STYLE
  5
3
330
0
100
AcDbSymbolTable
 70
     2
  0
STYLE
  5
11
330
3
100
AcDbSymbolTableRecord
100
AcDbTextStyleTableRecord
  2
Standard
 70
     0
 40
0.0
 41
1.0
 50
0.0
 71
     0
 42
2.0
  3
txt
  4

  0
STYLE
  5
77
330
3
100
AcDbSymbolTableRecord
100
AcDbTextStyleTableRecord
  2
SLDTEXTSTYLE0
 70
     0
 40
0.0
 41
0.7
 50
0.0
 71
     0
 42
2.0
  3
TXT
  4

  0
ENDTAB
  0
TABLE
  2
VIEW
  5
6
330
0
100
AcDbSymbolTable
 70
     0
  0
ENDTAB
  0
TABLE
  2
UCS
  5
7
330
0
100
AcDbSymbolTable
 70
     0
  0
ENDTAB
  0
TABLE
  2
APPID
  5
9
330
0
100
AcDbSymbolTable
 70
     1
  0
APPID
  5
12
330
9
100
AcDbSymbolTableRecord
100
AcDbRegAppTableRecord
  2
ACAD
 70
     0
  0
ENDTAB
  0
TABLE
  2
DIMSTYLE
  5
A
330
0
100
AcDbSymbolTable
 70
     4
100
AcDbDimStyleTable
  0
DIMSTYLE
105
27
330
A
100
AcDbSymbolTableRecord
100
AcDbDimStyleTableRecord
  2
ISO-25
 70
     0
 41
2.5
 42
0.625
 43
3.75
 44
1.25
 73
     0
 74
     0
 77
     1
 78
     8
140
2.5
141
2.5
143
0.0393700787
147
0.625
171
     3
172
     1
178
     0
271
     2
272
     2
274
     3
278
    44
283
     0
284
     8
340
11
  0
DIMSTYLE
105
1F4
102
{ACAD_REACTORS
330
1F3
102
}
330
A
100
AcDbSymbolTableRecord
100
AcDbDimStyleTableRecord
  2
SLDDIMSTYLE0
 70
     0
 41
3.0
 44
0.0
 45
0.000000001
 73
     0
 74
     0
 76
     1
 77
     1
 78
    12
 79
     3
140
2.0
147
0.5
173
     1
178
     0
271
     2
272
     3
276
     2
282
     1
284
    12
340
77
  0
DIMSTYLE
105
1FE
102
{ACAD_REACTORS
330
1FD
330
209
330
213
330
21D
102
}
330
A
100
AcDbSymbolTableRecord
100
AcDbDimStyleTableRecord
  2
SLDDIMSTYLE1
 70
     0
 41
3.0
 44
0.0
 45
0.000000001
 73
     0
 74
     0
 77
     1
 78
    12
 79
     3
140
2.0
147
0.5
173
     1
178
     0
271
     2
272
     3
276
     2
284
    12
340
77
  0
DIMSTYLE
105
228
102
{ACAD_REACTORS
330
227
102
}
330
A
100
AcDbSymbolTableRecord
100
AcDbDimStyleTableRecord
  2
SLDDIMSTYLE2
 70
     0
 41
3.0
 44
0.0
 45
0.000000001
 73
     0
 74
     0
 77
     1
 78
    12
 79
     3
140
2.0
147
0.5
173
     1
178
     0
271
     1
272
     3
276
     2
284
    12
340
77
  0
ENDTAB
  0
TABLE
  2
BLOCK_RECORD
  5
1
330
0
100
AcDbSymbolTable
 70
     7
  0
BLOCK_RECORD
  5
1F
330
1
100
AcDbSymbolTableRecord
100
AcDbBlockTableRecord
  2
*Model_Space
340
22
  0
BLOCK_RECORD
  5
1B
330
1
100
AcDbSymbolTableRecord
100
AcDbBlockTableRecord
  2
*Paper_Space
340
1E
  0
BLOCK_RECORD
  5
23
330
1
100
AcDbSymbolTableRecord
100
AcDbBlockTableRecord
  2
*Paper_Space0
340
26
  0
BLOCK_RECORD
  5
1F5
330
1
100
AcDbSymbolTableRecord
100
AcDbBlockTableRecord
  2
_D
340
0
  0
BLOCK_RECORD
  5
1FF
330
1
100
AcDbSymbolTableRecord
100
AcDbBlockTableRecord
  2
_D_1
340
0
  0
BLOCK_RECORD
  5
20A
330
1
100
AcDbSymbolTableRecord
100
AcDbBlockTableRecord
  2
_D_2
340
0
  0
BLOCK_RECORD
  5
214
330
1
100
AcDbSymbolTableRecord
100
AcDbBlockTableRecord
  2
_D_3
340
0
  0
BLOCK_RECORD
  5
21E
330
1
100
AcDbSymbolTableRecord
100
AcDbBlockTableRecord
  2
_D_4
340
0
  0
BLOCK_RECORD
  5
229
330
1
100
AcDbSymbolTableRecord
100
AcDbBlockTableRecord
  2
_D_5
340
0
  0
ENDTAB
  0
ENDSEC
  0
SECTION
  2
BLOCKS
  0
BLOCK
  5
20
330
1F
100
AcDbEntity
  8
0
100
AcDbBlockBegin
  2
*Model_Space
 70
     0
 10
0.0
 20
0.0
 30
0.0
  3
*Model_Space
  1

  0
ENDBLK
  5
21
330
1F
100
AcDbEntity
  8
0
100
AcDbBlockEnd
  0
BLOCK
  5
1C
330
1B
100
AcDbEntity
 67
     1
  8
0
100
AcDbBlockBegin
  2
*Paper_Space
 70
     0
 10
0.0
 20
0.0
 30
0.0
  3
*Paper_Space
  1

  0
ENDBLK
  5
1D
330
1B
100
AcDbEntity
 67
     1
  8
0
100
AcDbBlockEnd
  0
BLOCK
  5
24
330
23
100
AcDbEntity
  8
0
100
AcDbBlockBegin
  2
*Paper_Space0
 70
     0
 10
0.0
 20
0.0
 30
0.0
  3
*Paper_Space0
  1

  0
ENDBLK
  5
25
330
23
100
AcDbEntity
  8
0
100
AcDbBlockEnd
  0
BLOCK
  5
1F6
330
1F5
100
AcDbEntity
  8
0
100
AcDbBlockBegin
  2
_D
 70
     0
 10
0.0
 20
0.0
 30
0.0
  3
_D
  1

  0
SOLID
  5
1F8
330
1F5
100
AcDbEntity
  8
VERMASSUNG
100
AcDbTrace
 10
220.2080098696
 20
115.462996261
 30
0.0
 11
219.7580098696
 21
112.462996261
 31
0.0
 12
220.6580098696
 22
112.462996261
 32
0.0
 13
220.6580098696
 23
112.462996261
 33
0.0
  0
LINE
  5
1F9
330
1F5
100
AcDbEntity
  8
VERMASSUNG
100
AcDbLine
 10
171.5625455793
 20
115.462996261
 30
0.0
 11
221.2080098696
 21
115.462996261
 31
0.0
  0
LINE
  5
1FA
330
1F5
100
AcDbEntity
  8
VERMASSUNG
100
AcDbLine
 10
220.2080098696
 20
115.462996261
 30
0.0
 11
220.2080098696
 21
106.4579961969
 31
0.0
  0
MTEXT
  5
1FB
330
1F5
100
AcDbEntity
  8
VERMASSUNG
100
AcDbMText
 10
217.6298745647
 20
106.4579961969
 30
0.0
 40
2.0
 41
0.0
 71
     1
 72
     1
  1
%%c
  7
SLDTEXTSTYLE0
 11
-7.044195017643634E-15
 21
1.0
 31
0.0
 73
     1
 44
1.0
  0
MTEXT
  5
1FC
330
1F5
100
AcDbEntity
  8
VERMASSUNG
100
AcDbMText
 10
217.4298746134
 20
110.0679962112
 30
0.0
 40
2.0
 41
0.0
 71
     1
 72
     1
  1
12
  7
SLDTEXTSTYLE0
 11
-7.044195017643634E-15
 21
1.0
 31
0.0
 73
     1
 44
1.0
  0
ENDBLK
  5
1F7
330
1F5
100
AcDbEntity
  8
0
100
AcDbBlockEnd
  0
BLOCK
  5
200
330
1FF
100
AcDbEntity
  8
0
100
AcDbBlockBegin
  2
_D_1
 70
     0
 10
0.0
 20
0.0
 30
0.0
  3
_D_1
  1

  0
SOLID
  5
202
330
1FF
100
AcDbEntity
  8
VERMASSUNG
100
AcDbTrace
 10
232.6875455793
 20
130.462996261
 30
0.0
 11
232.2375455793
 21
127.462996261
 31
0.0
 12
233.1375455793
 22
127.462996261
 32
0.0
 13
233.1375455793
 23
127.462996261
 33
0.0
  0
SOLID
  5
203
330
1FF
100
AcDbEntity
  8
VERMASSUNG
100
AcDbTrace
 10
232.6875455793
 20
88.462996261
 30
0.0
 11
233.1375455793
 21
91.462996261
 31
0.0
 12
232.2375455793
 22
91.462996261
 32
0.0
 13
232.2375455793
 23
91.462996261
 33
0.0
  0
LINE
  5
204
330
1FF
100
AcDbEntity
  8
VERMASSUNG
100
AcDbLine
 10
185.8205040562
 20
130.462996261
 30
0.0
 11
233.6875455793
 21
130.462996261
 31
0.0
  0
LINE
  5
205
330
1FF
100
AcDbEntity
  8
VERMASSUNG
100
AcDbLine
 10
185.8205040562
 20
88.462996261
 30
0.0
 11
233.6875455793
 21
88.462996261
 31
0.0
  0
LINE
  5
206
330
1FF
100
AcDbEntity
  8
VERMASSUNG
100
AcDbLine
 10
232.6875455793
 20
130.462996261
 30
0.0
 11
232.6875455793
 21
88.462996261
 31
0.0
  0
MTEXT
  5
207
330
1FF
100
AcDbEntity
  8
VERMASSUNG
100
AcDbMText
 10
230.1094102744
 20
106.1579962408
 30
0.0
 40
2.0
 41
0.0
 71
     1
 72
     1
  1
%%c
  7
SLDTEXTSTYLE0
 11
-7.044195017643634E-15
 21
1.0
 31
0.0
 73
     1
 44
1.0
  0
MTEXT
  5
208
330
1FF
100
AcDbEntity
  8
VERMASSUNG
100
AcDbMText
 10
229.9094103231
 20
109.7679962551
 30
0.0
 40
2.0
 41
0.0
 71
     1
 72
     1
  1
42
  7
SLDTEXTSTYLE0
 11
-7.044195017643634E-15
 21
1.0
 31
0.0
 73
     1
 44
1.0
  0
ENDBLK
  5
201
330
1FF
100
AcDbEntity
  8
0
100
AcDbBlockEnd
  0
BLOCK
  5
20B
330
20A
100
AcDbEntity
  8
0
100
AcDbBlockBegin
  2
_D_2
 70
     0
 10
0.0
 20
0.0
 30
0.0
  3
_D_2
  1

  0
SOLID
  5
20D
330
20A
100
AcDbEntity
  8
VERMASSUNG
100
AcDbTrace
 10
156.6875455793
 20
148.4459241896
 30
0.0
 11
159.6875455793
 21
147.9959241896
 31
0.0
 12
159.6875455793
 22
148.8959241896
 32
0.0
 13
159.6875455793
 23
148.8959241896
 33
0.0
  0
SOLID
  5
20E
330
20A
100
AcDbEntity
  8
VERMASSUNG
100
AcDbTrace
 10
198.6875455793
 20
148.4459241896
 30
0.0
 11
195.6875455793
 21
148.8959241896
 31
0.0
 12
195.6875455793
 22
147.9959241896
 32
0.0
 13
195.6875455793
 23
147.9959241896
 33
0.0
  0
LINE
  5
20F
330
20A
100
AcDbEntity
  8
VERMASSUNG
100
AcDbLine
 10
156.6875455793
 20
140.937996261
 30
0.0
 11
156.6875455793
 21
149.4459241896
 31
0.0
  0
LINE
  5
210
330
20A
100
AcDbEntity
  8
VERMASSUNG
100
AcDbLine
 10
198.6875455793
 20
123.1888557394
 30
0.0
 11
198.6875455793
 21
149.4459241896
 31
0.0
  0
LINE
  5
211
330
20A
100
AcDbEntity
  8
VERMASSUNG
100
AcDbLine
 10
156.6875455793
 20
148.4459241896
 30
0.0
 11
198.6875455793
 21
148.4459241896
 31
0.0
  0
MTEXT
  5
212
330
20A
100
AcDbEntity
  8
VERMASSUNG
100
AcDbMText
 10
176.1875455663
 20
151.0240597855
 30
0.0
 40
2.0
 41
0.0
 71
     1
 72
     1
  1
42
  7
SLDTEXTSTYLE0
 73
     1
 44
1.0
  0
ENDBLK
  5
20C
330
20A
100
AcDbEntity
  8
0
100
AcDbBlockEnd
  0
BLOCK
  5
215
330
214
100
AcDbEntity
  8
0
100
AcDbBlockBegin
  2
_D_3
 70
     0
 10
0.0
 20
0.0
 30
0.0
  3
_D_3
  1

  0
SOLID
  5
217
330
214
100
AcDbEntity
  8
VERMASSUNG
100
AcDbTrace
 10
138.6875455793
 20
156.937996261
 30
0.0
 11
141.6875455793
 21
156.487996261
 31
0.0
 12
141.6875455793
 22
157.387996261
 32
0.0
 13
141.6875455793
 23
157.387996261
 33
0.0
  0
SOLID
  5
218
330
214
100
AcDbEntity
  8
VERMASSUNG
100
AcDbTrace
 10
198.6875455793
 20
156.937996261
 30
0.0
 11
195.6875455793
 21
157.387996261
 31
0.0
 12
195.6875455793
 22
156.487996261
 32
0.0
 13
195.6875455793
 23
156.487996261
 33
0.0
  0
LINE
  5
219
330
214
100
AcDbEntity
  8
VERMASSUNG
100
AcDbLine
 10
138.6875455793
 20
140.737996261
 30
0.0
 11
138.6875455793
 21
157.937996261
 31
0.0
  0
LINE
  5
21A
330
214
100
AcDbEntity
  8
VERMASSUNG
100
AcDbLine
 10
198.6875455793
 20
123.1888557394
 30
0.0
 11
198.6875455793
 21
157.937996261
 31
0.0
  0
LINE
  5
21B
330
214
100
AcDbEntity
  8
VERMASSUNG
100
AcDbLine
 10
138.6875455793
 20
156.937996261
 30
0.0
 11
198.6875455793
 21
156.937996261
 31
0.0
  0
MTEXT
  5
21C
330
214
100
AcDbEntity
  8
VERMASSUNG
100
AcDbMText
 10
167.2875456292
 20
159.516131857
 30
0.0
 40
2.0
 41
0.0
 71
     1
 72
     1
  1
60
  7
SLDTEXTSTYLE0
 73
     1
 44
1.0
  0
ENDBLK
  5
216
330
214
100
AcDbEntity
  8
0
100
AcDbBlockEnd
  0
BLOCK
  5
21F
330
21E
100
AcDbEntity
  8
0
100
AcDbBlockBegin
  2
_D_4
 70
     0
 10
0.0
 20
0.0
 30
0.0
  3
_D_4
  1

  0
SOLID
  5
221
330
21E
100
AcDbEntity
  8
VERMASSUNG
100
AcDbTrace
 10
98.7375455793
 20
164.5332370007
 30
0.0
 11
101.7375455793
 21
164.0832370007
 31
0.0
 12
101.7375455793
 22
164.9832370007
 32
0.0
 13
101.7375455793
 23
164.9832370007
 33
0.0
  0
SOLID
  5
222
330
21E
100
AcDbEntity
  8
VERMASSUNG
100
AcDbTrace
 10
198.6875455793
 20
164.5332370007
 30
0.0
 11
195.6875455793
 21
164.9832370007
 31
0.0
 12
195.6875455793
 22
164.0832370007
 32
0.0
 13
195.6875455793
 23
164.0832370007
 33
0.0
  0
LINE
  5
223
330
21E
100
AcDbEntity
  8
VERMASSUNG
100
AcDbLine
 10
98.7375455793
 20
131.6660909848
 30
0.0
 11
98.7375455793
 21
165.5332370007
 31
0.0
  0
LINE
  5
224
330
21E
100
AcDbEntity
  8
VERMASSUNG
100
AcDbLine
 10
198.6875455793
 20
123.1888557394
 30
0.0
 11
198.6875455793
 21
165.5332370007
 31
0.0
  0
LINE
  5
225
330
21E
100
AcDbEntity
  8
VERMASSUNG
100
AcDbLine
 10
98.7375455793
 20
164.5332370007
 30
0.0
 11
198.6875455793
 21
164.5332370007
 31
0.0
  0
MTEXT
  5
226
330
21E
100
AcDbEntity
  8
VERMASSUNG
100
AcDbMText
 10
145.6125457231
 20
167.1113725967
 30
0.0
 40
2.0
 41
0.0
 71
     1
 72
     1
  1
99.95
  7
SLDTEXTSTYLE0
 73
     1
 44
1.0
  0
ENDBLK
  5
220
330
21E
100
AcDbEntity
  8
0
100
AcDbBlockEnd
  0
BLOCK
  5
22A
330
229
100
AcDbEntity
  8
0
100
AcDbBlockBegin
  2
_D_5
 70
     0
 10
0.0
 20
0.0
 30
0.0
  3
_D_5
  1

  0
SOLID
  5
22C
330
229
100
AcDbEntity
  8
VERMASSUNG
100
AcDbTrace
 10
79.0454751677
 20
140.937996261
 30
0.0
 11
78.5954751677
 21
137.937996261
 31
0.0
 12
79.4954751677
 22
137.937996261
 32
0.0
 13
79.4954751677
 23
137.937996261
 33
0.0
  0
SOLID
  5
22D
330
229
100
AcDbEntity
  8
VERMASSUNG
100
AcDbTrace
 10
79.0454751677
 20
77.987996261
 30
0.0
 11
79.4954751677
 21
80.987996261
 31
0.0
 12
78.5954751677
 22
80.987996261
 32
0.0
 13
78.5954751677
 23
80.987996261
 33
0.0
  0
LINE
  5
22E
330
229
100
AcDbEntity
  8
VERMASSUNG
100
AcDbLine
 10
151.9217433839
 20
140.937996261
 30
0.0
 11
78.0454751677
 21
140.937996261
 31
0.0
  0
LINE
  5
22F
330
229
100
AcDbEntity
  8
VERMASSUNG
100
AcDbLine
 10
151.9217433839
 20
77.987996261
 30
0.0
 11
78.0454751677
 21
77.987996261
 31
0.0
  0
LINE
  5
230
330
229
100
AcDbEntity
  8
VERMASSUNG
100
AcDbLine
 10
79.0454751677
 20
140.937996261
 30
0.0
 11
79.0454751677
 21
77.987996261
 31
0.0
  0
MTEXT
  5
231
330
229
100
AcDbEntity
  8
VERMASSUNG
100
AcDbMText
 10
76.2673399115
 20
101.3579976427
 30
0.0
 40
2.0
 41
0.0
 71
     1
 72
     1
  1
KM
  7
SLDTEXTSTYLE0
 11
-7.044195017643634E-15
 21
1.0
 31
0.0
 73
     1
 44
1.0
  0
MTEXT
  5
232
330
229
100
AcDbEntity
  8
VERMASSUNG
100
AcDbMText
 10
76.4673398628
 20
104.7579974549
 30
0.0
 40
2.0
 41
0.0
 71
     1
 72
     1
  1
%%c
  7
SLDTEXTSTYLE0
 11
-7.044195017643634E-15
 21
1.0
 31
0.0
 73
     1
 44
1.0
  0
MTEXT
  5
233
330
229
100
AcDbEntity
  8
VERMASSUNG
100
AcDbMText
 10
76.2673399115
 20
108.3679974692
 30
0.0
 40
2.0
 41
0.0
 71
     1
 72
     1
  1
63
  7
SLDTEXTSTYLE0
 11
-7.044195017643634E-15
 21
1.0
 31
0.0
 73
     1
 44
1.0
  0
MTEXT
  5
234
330
229
100
AcDbEntity
  8
VERMASSUNG
100
AcDbMText
 10
76.2673399115
 20
112.3554973694
 30
0.0
 40
2.0
 41
0.0
 71
     1
 72
     1
  1
XMZ
  7
SLDTEXTSTYLE0
 11
-7.044195017643634E-15
 21
1.0
 31
0.0
 73
     1
 44
1.0
  0
ENDBLK
  5
22B
330
229
100
AcDbEntity
  8
0
100
AcDbBlockEnd
  0
ENDSEC
  0
SECTION
  2
ENTITIES
  0
MTEXT
  5
78
330
1F
100
AcDbEntity
  8
KOPF_DÜNN
100
AcDbMText
 10
13.8892156294
 20
23.8442973028
 30
0.0
 40
3.0
 41
0.0
 71
     1
 72
     1
  1
KY6.W12.K01.060
  7
SLDTEXTSTYLE0
 73
     1
 44
1.0
  0
MTEXT
  5
79
330
1F
100
AcDbEntity
  8
VERMASSUNG
100
AcDbMText
 10
13.9329988022
 20
28.8834360957
 30
0.0
 40
3.0
 41
0.0
 71
     1
 72
     1
  1
Flächenspannfutter Weldon_End mill adapter Weldon
  7
SLDTEXTSTYLE0
 73
     1
 44
1.0
  0
MTEXT
  5
7A
330
1F
100
AcDbEntity
  8
VERMASSUNG
100
AcDbMText
 10
98.8601118557
 20
13.8365368761
 30
0.0
 40
2.0
 41
0.0
 71
     1
 72
     1
  1
Datum: 16.02.2018
  7
SLDTEXTSTYLE0
 73
     1
 44
1.0
  0
MTEXT
  5
7B
330
1F
100
AcDbEntity
  8
VERMASSUNG
100
AcDbMText
 10
13.933048693
 20
18.0482802738
 30
0.0
 40
2.0
 41
0.0
 71
     1
 72
     1
  1
KM63 XMZ / Ø12
  7
SLDTEXTSTYLE0
 73
     1
 44
1.0
  0
MTEXT
  5
7C
330
1F
100
AcDbEntity
  8
VERMASSUNG
100
AcDbMText
 10
13.9808475933
 20
13.9090974274
 30
0.0
 40
2.0
 41
0.0
 71
     1
 72
     1
  1
Gewicht: 998g
  7
SLDTEXTSTYLE0
 73
     1
 44
1.0
  0
SPLINE
  5
7D
330
1F
100
AcDbEntity
  8
0
  6
Continuous
 62
     7
370
    25
100
AcDbSpline
210
0.0
220
0.0
230
1.0
 70
     8
 71
     3
 72
     8
 73
     4
 74
     0
 42
0.000000001
 43
0.00000001
 40
0.0
 40
0.0
 40
0.0
 40
0.0
 40
1.0
 40
1.0
 40
1.0
 40
1.0
 10
369.5957109685693
 20
105.0929953890555
 30
0.0
 10
369.5268725983826
 20
105.0299007157366
 30
0.0
 10
369.4584412379265
 20
104.9661783376058
 30
0.0
 10
369.3904249632618
 20
104.9018329053324
 30
0.0
  0
SPLINE
  5
7E
330
1F
100
AcDbEntity
  8
0
  6
Continuous
 62
     7
370
    25
100
AcDbSpline
210
0.0
220
0.0
230
1.0
 70
     8
 71
     3
 72
     8
 73
     4
 74
     0
 42
0.000000001
 43
0.00000001
 40
0.0
 40
0.0
 40
0.0
 40
0.0
 40
1.0
 40
1.0
 40
1.0
 40
1.0
 10
369.8537382098301
 20
104.9237335591282
 30
0.0
 10
369.7670347756696
 20
104.9798944787974
 30
0.0
 10
369.6810367281858
 20
105.0363192151233
 30
0.0
 10
369.5957109685693
 20
105.0929953890555
 30
0.0
  0
ARC
  5
7F
330
1F
100
AcDbEntity
  8
0
  6
Continuous
 62
     7
370
    25
100
AcDbCircle
 10
379.9848510782
 20
109.462996261
 30
0.0
 40
11.10154736189901
100
AcDbArc
 50
204.1348482805
 51
335.8651517195
  0
SPLINE
  5
80
330
1F
100
AcDbEntity
  8
0
  6
Continuous
 62
     7
370
    25
100
AcDbSpline
210
0.0
220
0.0
230
1.0
 70
     8
 71
     3
 72
     8
 73
     4
 74
     0
 42
0.000000001
 43
0.00000001
 40
0.0
 40
0.0
 40
0.0
 40
0.0
 40
1.0
 40
1.0
 40
1.0
 40
1.0
 10
390.3739911878351
 20
105.0929953890555
 30
0.0
 10
390.2886654282187
 20
105.0363192151233
 30
0.0
 10
390.2026673807349
 20
104.9798944787974
 30
0.0
 10
390.1159639465744
 20
104.9237335591282
 30
0.0
  0
SPLINE
  5
81
330
1F
100
AcDbEntity
  8
0
  6
Continuous
 62
     7
370
    25
100
AcDbSpline
210
0.0
220
0.0
230
1.0
 70
     8
 71
     3
 72
     8
 73
     4
 74
     0
 42
0.000000001
 43
0.00000001
 40
0.0
 40
0.0
 40
0.0
 40
0.0
 40
1.0
 40
1.0
 40
1.0
 40
1.0
 10
390.5792771931427
 20
104.9018329053324
 30
0.0
 10
390.511260918478
 20
104.9661783376058
 30
0.0
 10
390.4428295580219
 20
105.0299007157366
 30
0.0
 10
390.3739911878351
 20
105.0929953890555
 30
0.0
  0
ARC
  5
82
330
1F
100
AcDbEntity
  8
0
  6
Continuous
 62
     7
370
    25
100
AcDbCircle
 10
379.9848510782
 20
109.462996261
 30
0.0
 40
11.53456006379121
100
AcDbArc
 50
203.2930774359
 51
336.7074733161
  0
SPLINE
  5
83
330
1F
100
AcDbEntity
  8
0
  6
Continuous
 62
     7
370
    25
100
AcDbSpline
210
0.0
220
0.0
230
1.0
 70
     8
 71
     3
 72
     8
 73
     4
 74
     0
 42
0.000000001
 43
0.00000001
 40
0.0000004028655191
 40
0.0000004028655191
 40
0.0000004028655191
 40
0.0000004028655191
 40
0.0015137684369673
 40
0.0015137684369673
 40
0.0015137684369673
 40
0.0015137684369673
 10
371.5612564210602
 20
105.1407208572359
 30
0.0
 10
371.3545849335089
 20
105.0684269155212
 30
0.0
 10
371.1479659649683
 20
104.9960954295644
 30
0.0
 10
370.9413895901596
 20
104.9237335591282
 30
0.0
  0
LINE
  5
84
330
1F
100
AcDbEntity
  8
0
  6
Continuous
 62
     7
370
    25
100
AcDbLine
 10
370.9413895902
 20
104.9237335591
 30
0.0
 11
369.8537382098
 21
104.9237335591
 31
0.0
  0
LINE
  5
85
330
1F
100
AcDbEntity
  8
0
  6
Continuous
 62
     7
370
    25
100
AcDbLine
 10
369.8187660754
 20
105.356746261
 30
0.0
 11
369.5957109686
 21
105.0929953891
 31
0.0
  0
LINE
  5
86
330
1F
100
AcDbEntity
  8
0
  6
Continuous
 62
     7
370
    25
100
AcDbLine
 10
371.5863759027
 20
105.356746261
 30
0.0
 11
369.8189805328
 21
105.356746261
 31
0.0
  0
LINE
  5
87
330
1F
100
AcDbEntity
  8
0
  6
Continuous
 62
     7
370
    25
100
AcDbLine
 10
371.5970332529
 20
105.199165226
 30
0.0
 11
371.5863759062
 21
105.3567461853
 31
0.0
  0
SPLINE
  5
88
330
1F
100
AcDbEntity
  8
0
  6
Continuous
 62
     7
370
    25
100
AcDbSpline
210
0.0
220
0.0
230
1.0
 70
     8
 71
     3
 72
     8
 73
     4
 74
     0
 42
0.000000001
 43
0.00000001
 40
0.0006523765358268
 40
0.0006523765358268
 40
0.0006523765358268
 40
0.0006523765358268
 40
0.0009043636494504
 40
0.0009043636494504
 40
0.0009043636494504
 40
0.0009043636494504
 10
371.5981332960951
 20
105.2009589546846
 30
0.0
 10
371.5858163015776
 20
105.1808833737024
 30
0.0
 10
371.5735241041735
 20
105.1608039851799
 30
0.0
 10
371.5612564210602
 20
105.1407208572359
 30
0.0
  0
LINE
  5
89
330
1F
100
AcDbEntity
  8
0
  6
Continuous
 62
     7
370
    25
100
AcDbLine
 10
370.0089180289
 20
114.7412955104
 30
0.0
 11
370.2173263504
 21
114.492996261
 31
0.0
  0
SPLINE
  5
8A
330
1F
100
AcDbEntity
  8
0
  6
Continuous
 62
     7
370
    25
100
AcDbSpline
210
0.0
220
0.0
230
1.0
 70
     8
 71
     3
 72
     8
 73
     4
 74
     0
 42
0.000000001
 43
0.00000001
 40
0.0
 40
0.0
 40
0.0
 40
0.0
 40
1.0
 40
1.0
 40
1.0
 40
1.0
 10
370.0089180288778
 20
114.7412955104096
 30
0.0
 10
370.1118139427018
 20
114.8032641195005
 30
0.0
 10
370.2156536122566
 20
114.8648427716411
 30
0.0
 10
370.3204915004832
 20
114.9260089629126
 30
0.0
  0
LINE
  5
8B
330
1F
100
AcDbEntity
  8
0
  6
Continuous
 62
     7
370
    25
100
AcDbLine
 10
371.4675396608
 20
114.9260089629
 30
0.0
 11
370.3204915005
 21
114.9260089629
 31
0.0
  0
SPLINE
  5
8C
330
1F
100
AcDbEntity
  8
0
  6
Continuous
 62
     7
370
    25
100
AcDbSpline
210
0.0
220
0.0
230
1.0
 70
     8
 71
     3
 72
     8
 73
     4
 74
     0
 42
0.000000001
 43
0.00000001
 40
0.0000004089325119
 40
0.0000004089325119
 40
0.0000004089325119
 40
0.0000004089325119
 40
0.0015399868451459
 40
0.0015399868451459
 40
0.0015399868451459
 40
0.0015399868451459
 10
371.4675396607734
 20
114.9260089629126
 30
0.0
 10
371.6793009195678
 20
114.8535540802591
 30
0.0
 10
371.891221242758
 20
114.7812152102306
 30
0.0
 10
372.1033392259723
 20
114.7090216648048
 30
0.0
  0
LINE
  5
8D
330
1F
100
AcDbEntity
  8
0
  6
Continuous
 62
     7
370
    25
100
AcDbLine
 10
372.103339226
 20
114.7090216648
 30
0.0
 11
372.111492032
 21
114.6938092506
 31
0.0
  0
LINE
  5
8E
330
1F
100
AcDbEntity
  8
0
  6
Continuous
 62
     7
370
    25
100
AcDbLine
 10
372.1091215447
 20
114.4929964304
 30
0.0
 11
372.1114930298
 21
114.6938093843
 31
0.0
  0
LINE
  5
8F
330
1F
100
AcDbEntity
  8
0
  6
Continuous
 62
     7
370
    25
100
AcDbLine
 10
372.1091215447
 20
114.492996261
 30
0.0
 11
370.2173263504
 21
114.492996261
 31
0.0
  0
ARC
  5
90
330
1F
100
AcDbEntity
  8
0
  6
Continuous
 62
     7
370
    25
100
AcDbCircle
 10
379.9848510782
 20
109.462996261
 30
0.0
 40
11.10154736189904
100
AcDbArc
 50
29.4783538465
 51
150.5216461535
  0
SPLINE
  5
91
330
1F
100
AcDbEntity
  8
0
  6
Continuous
 62
     7
370
    25
100
AcDbSpline
210
0.0
220
0.0
230
1.0
 70
     8
 71
     3
 72
     8
 73
     4
 74
     0
 42
0.000000001
 43
0.00000001
 40
0.0
 40
0.0
 40
0.0
 40
0.0
 40
1.0
 40
1.0
 40
1.0
 40
1.0
 10
369.820381647764
 20
114.9154853312792
 30
0.0
 10
369.8829499561336
 20
114.8570348621716
 30
0.0
 10
369.9457965494974
 20
114.7989708516385
 30
0.0
 10
370.0089180288803
 20
114.7412955104073
 30
0.0
  0
ARC
  5
92
330
1F
100
AcDbEntity
  8
0
  6
Continuous
 62
     7
370
    25
100
AcDbCircle
 10
379.9848510782
 20
109.462996261
 30
0.0
 40
11.53456006379119
100
AcDbArc
 50
28.2102805322
 51
151.7902347364
  0
SPLINE
  5
93
330
1F
100
AcDbEntity
  8
0
  6
Continuous
 62
     7
370
    25
100
AcDbSpline
210
0.0
220
0.0
230
1.0
 70
     8
 71
     3
 72
     8
 73
     4
 74
     0
 42
0.000000001
 43
0.00000001
 40
0.0
 40
0.0
 40
0.0
 40
0.0
 40
1.0
 40
1.0
 40
1.0
 40
1.0
 10
389.9607841275246
 20
114.7412955104076
 30
0.0
 10
390.0239056069074
 20
114.7989708516387
 30
0.0
 10
390.0867522002711
 20
114.8570348621717
 30
0.0
 10
390.1493205086405
 20
114.9154853312792
 30
0.0
  0
SPLINE
  5
94
330
1F
100
AcDbEntity
  8
0
  6
Continuous
 62
     7
370
    25
100
AcDbSpline
210
0.0
220
0.0
230
1.0
 70
     8
 71
     3
 72
     8
 73
     4
 74
     0
 42
0.000000001
 43
0.00000001
 40
0.0
 40
0.0
 40
0.0
 40
0.0
 40
1.0
 40
1.0
 40
1.0
 40
1.0
 10
389.6492106559214
 20
114.9260089629126
 30
0.0
 10
389.7540485441475
 20
114.8648427716413
 30
0.0
 10
389.857888213702
 20
114.8032641195009
 30
0.0
 10
389.9607841275255
 20
114.7412955104102
 30
0.0
  0
LINE
  5
95
330
1F
100
AcDbEntity
  8
0
  6
Continuous
 62
     7
370
    25
100
AcDbLine
 10
390.3739911878
 20
105.0929953891
 30
0.0
 11
390.150936081
 21
105.356746261
 31
0.0
  0
LINE
  5
96
330
1F
100
AcDbEntity
  8
0
  6
Continuous
 62
     7
370
    25
100
AcDbLine
 10
390.1159639466
 20
104.9237335591
 30
0.0
 11
389.0283125662
 21
104.9237335591
 31
0.0
  0
SPLINE
  5
97
330
1F
100
AcDbEntity
  8
0
  6
Continuous
 62
     7
370
    25
100
AcDbSpline
210
0.0
220
0.0
230
1.0
 70
     8
 71
     3
 72
     8
 73
     4
 74
     0
 42
0.000000001
 43
0.00000001
 40
0.0000004024872366
 40
0.0000004024872366
 40
0.0000004024872366
 40
0.0000004024872366
 40
0.0015137680586847
 40
0.0015137680586847
 40
0.0015137680586847
 40
0.0015137680586847
 10
389.0283125662449
 20
104.9237335591282
 30
0.0
 10
388.8217361914362
 20
104.9960954295644
 30
0.0
 10
388.6151172228956
 20
105.0684269155212
 30
0.0
 10
388.4084457353443
 20
105.1407208572359
 30
0.0
  0
SPLINE
  5
98
330
1F
100
AcDbEntity
  8
0
  6
Continuous
 62
     7
370
    25
100
AcDbSpline
210
0.0
220
0.0
230
1.0
 70
     8
 71
     3
 72
     8
 73
     4
 74
     0
 42
0.000000001
 43
0.00000001
 40
0.0000002414707367
 40
0.0000002414707367
 40
0.0000002414707367
 40
0.0000002414707367
 40
0.0002447240690309
 40
0.0002447240690309
 40
0.0002447240690309
 40
0.0002447240690309
 10
388.4084457353443
 20
105.1407208572359
 30
0.0
 10
388.3965433999892
 20
105.1602058831825
 30
0.0
 10
388.3846179887775
 20
105.1796873890068
 30
0.0
 10
388.3726692434826
 20
105.1991653125187
 30
0.0
  0
LINE
  5
99
330
1F
100
AcDbEntity
  8
0
  6
Continuous
 62
     7
370
    25
100
AcDbLine
 10
388.3833262358
 20
105.3567461853
 30
0.0
 11
388.3726688842
 21
105.1991652575
 31
0.0
  0
LINE
  5
9A
330
1F
100
AcDbEntity
  8
0
  6
Continuous
 62
     7
370
    25
100
AcDbLine
 10
390.150936081
 20
105.356746261
 30
0.0
 11
388.3782176446
 21
105.356746261
 31
0.0
  0
SPLINE
  5
9B
330
1F
100
AcDbEntity
  8
0
  6
Continuous
 62
     7
370
    25
100
AcDbSpline
210
0.0
220
0.0
230
1.0
 70
     8
 71
     3
 72
     8
 73
     4
 74
     0
 42
0.000000001
 43
0.00000001
 40
0.000000410413179
 40
0.000000410413179
 40
0.000000410413179
 40
0.000000410413179
 40
0.0015399883258131
 40
0.0015399883258131
 40
0.0015399883258131
 40
0.0015399883258131
 10
387.8663629304322
 20
114.7090216648048
 30
0.0
 10
388.0784809136465
 20
114.7812152102306
 30
0.0
 10
388.2904012368367
 20
114.8535540802591
 30
0.0
 10
388.5021624956311
 20
114.9260089629126
 30
0.0
  0
LINE
  5
9C
330
1F
100
AcDbEntity
  8
0
  6
Continuous
 62
     7
370
    25
100
AcDbLine
 10
389.6492106559
 20
114.9260089629
 30
0.0
 11
388.5021624956
 21
114.9260089629
 31
0.0
  0
LINE
  5
9D
330
1F
100
AcDbEntity
  8
0
  6
Continuous
 62
     7
370
    25
100
AcDbLine
 10
389.752375806
 20
114.492996261
 30
0.0
 11
389.9607841275
 21
114.7412955104
 31
0.0
  0
LINE
  5
9E
330
1F
100
AcDbEntity
  8
0
  6
Continuous
 62
     7
370
    25
100
AcDbLine
 10
389.7521857503
 20
114.492996261
 30
0.0
 11
387.8605808124
 21
114.492996261
 31
0.0
  0
LINE
  5
9F
330
1F
100
AcDbEntity
  8
0
  6
Continuous
 62
     7
370
    25
100
AcDbLine
 10
387.8582090255
 20
114.6938091957
 30
0.0
 11
387.8605805357
 21
114.4929964304
 31
0.0
  0
LINE
  5
A0
330
1F
100
AcDbEntity
  8
0
  6
Continuous
 62
     7
370
    25
100
AcDbLine
 10
387.8582100233
 20
114.693809062
 30
0.0
 11
387.8663629304
 21
114.7090216648
 31
0.0
  0
ARC
  5
A1
330
1F
100
AcDbEntity
  8
0
  6
Continuous
 62
     7
370
    25
100
AcDbCircle
 10
379.9848510782
 20
109.462996261
 30
0.0
 40
10.11875000000003
100
AcDbArc
 50
32.6761561262
 51
147.3238438738
  0
ARC
  5
A2
330
1F
100
AcDbEntity
  8
0
  6
Continuous
 62
     7
370
    25
100
AcDbCircle
 10
379.9848510782
 20
109.462996261
 30
0.0
 40
10.11875000000005
100
AcDbArc
 50
206.6538426687
 51
333.3461573313
  0
ARC
  5
A3
330
1F
100
AcDbEntity
  8
0
  6
Continuous
 62
     7
370
    25
100
AcDbCircle
 10
379.9848510782
 20
109.462996261
 30
0.0
 40
9.467788105676732
100
AcDbArc
 50
33.6481949792
 51
146.3518050208
  0
ARC
  5
A4
330
1F
100
AcDbEntity
  8
0
  6
Continuous
 62
     7
370
    25
100
AcDbCircle
 10
379.9848510782
 20
109.462996261
 30
0.0
 40
9.467788105676709
100
AcDbArc
 50
207.1630537883
 51
332.8369462117
  0
SPLINE
  5
A5
330
1F
100
AcDbEntity
  8
0
  6
Continuous
 62
     7
370
    25
100
AcDbSpline
210
0.0
220
0.0
230
1.0
 70
     8
 71
     3
 72
     8
 73
     4
 74
     0
 42
0.000000001
 43
0.00000001
 40
0.0
 40
0.0
 40
0.0
 40
0.0
 40
1.0
 40
1.0
 40
1.0
 40
1.0
 10
369.3904249630718
 20
104.9018329054437
 30
0.0
 10
369.3371821381301
 20
104.9023566316815
 30
0.0
 10
369.2838868525145
 20
104.9031547249439
 30
0.0
 10
369.230541347025
 20
104.9042277728687
 30
0.0
  0
LINE
  5
A6
330
1F
100
AcDbEntity
  8
0
  6
Continuous
 62
     7
370
    25
100
AcDbLine
 10
369.6586289451
 20
105.356746261
 30
0.0
 11
369.8187660754
 21
105.356746261
 31
0.0
  0
LINE
  5
A7
330
1F
100
AcDbEntity
  8
0
  6
Continuous
 62
     7
370
    25
100
AcDbLine
 10
390.150936081
 20
105.356746261
 30
0.0
 11
390.3110732113
 21
105.356746261
 31
0.0
  0
SPLINE
  5
A8
330
1F
100
AcDbEntity
  8
0
  6
Continuous
 62
     7
370
    25
100
AcDbSpline
210
0.0
220
0.0
230
1.0
 70
     8
 71
     3
 72
     8
 73
     4
 74
     0
 42
0.000000001
 43
0.00000001
 40
0.0
 40
0.0
 40
0.0
 40
0.0
 40
1.0
 40
1.0
 40
1.0
 40
1.0
 10
390.7391608093795
 20
104.9042277728687
 30
0.0
 10
390.6858153038901
 20
104.9031547249439
 30
0.0
 10
390.6325200182744
 20
104.9023566316815
 30
0.0
 10
390.5792771933327
 20
104.9018329054437
 30
0.0
  0
LINE
  5
A9
330
1F
100
AcDbEntity
  8
0
  6
Continuous
 62
     7
370
    25
100
AcDbLine
 10
370.2173263504
 20
114.492996261
 30
0.0
 11
370.0939093666
 21
114.492996261
 31
0.0
  0
SPLINE
  5
AA
330
1F
100
AcDbEntity
  8
0
  6
Continuous
 62
     7
370
    25
100
AcDbSpline
210
0.0
220
0.0
230
1.0
 70
     8
 71
     3
 72
     8
 73
     4
 74
     0
 42
0.000000001
 43
0.00000001
 40
0.0
 40
0.0
 40
0.0
 40
0.0
 40
1.0
 40
1.0
 40
1.0
 40
1.0
 10
369.6971601535225
 20
114.9134417779567
 30
0.0
 10
369.7382755805643
 20
114.9143107155967
 30
0.0
 10
369.7793498751754
 20
114.9149917531796
 30
0.0
 10
369.8203816476645
 20
114.915485331241
 30
0.0
  0
SPLINE
  5
AB
330
1F
100
AcDbEntity
  8
0
  6
Continuous
 62
     7
370
    25
100
AcDbSpline
210
0.0
220
0.0
230
1.0
 70
     8
 71
     3
 72
     8
 73
     4
 74
     0
 42
0.000000001
 43
0.00000001
 40
0.0
 40
0.0
 40
0.0
 40
0.0
 40
1.0
 40
1.0
 40
1.0
 40
1.0
 10
390.14932050874
 20
114.915485331241
 30
0.0
 10
390.1903522812291
 20
114.9149917531796
 30
0.0
 10
390.2314265758401
 20
114.9143107155967
 30
0.0
 10
390.272542002882
 20
114.9134417779567
 30
0.0
  0
LINE
  5
AC
330
1F
100
AcDbEntity
  8
0
  6
Continuous
 62
     7
370
    25
100
AcDbLine
 10
389.8757927898
 20
114.492996261
 30
0.0
 11
389.752375806
 21
114.492996261
 31
0.0
  0
SPLINE
  5
AD
330
1F
100
AcDbEntity
  8
0
  6
Continuous
 62
     7
370
    25
100
AcDbSpline
210
0.0
220
0.0
230
1.0
 70
     8
 71
     3
 72
     9
 73
     5
 74
     0
 42
0.000000001
 43
0.00000001
 40
0.0
 40
0.0
 40
0.0
 40
0.0
 40
0.4897878789203994
 40
0.9999999999999999
 40
0.9999999999999999
 40
0.9999999999999999
 40
0.9999999999999999
 10
387.0904406428537
 20
114.6861131272581
 30
0.0
 10
387.2167957250749
 20
114.6874318530114
 30
0.0
 10
387.4747749190471
 20
114.6901242956177
 30
0.0
 10
387.7286696673365
 20
114.6925643734537
 30
0.0
 10
387.8582098453922
 20
114.693809330742
 30
0.0
  0
ARC
  5
AE
330
1F
100
AcDbEntity
  8
0
  6
Continuous
 62
     7
370
    25
100
AcDbCircle
 10
379.9848510782
 20
109.462996261
 30
0.0
 40
8.818750000000046
100
AcDbArc
 50
36.3185452201
 51
143.6814533294
  0
SPLINE
  5
AF
330
1F
100
AcDbEntity
  8
0
  6
Continuous
 62
     7
370
    25
100
AcDbSpline
210
0.0
220
0.0
230
1.0
 70
     8
 71
     3
 72
     9
 73
     5
 74
     0
 42
0.000000001
 43
0.00000001
 40
0.0
 40
0.0
 40
0.0
 40
0.0
 40
0.5102121239851395
 40
0.9999999999999999
 40
0.9999999999999999
 40
0.9999999999999999
 40
0.9999999999999999
 10
372.1114922098875
 20
114.6938095193463
 30
0.0
 10
372.2410324277383
 20
114.6925645606554
 30
0.0
 10
372.4949272525791
 20
114.6901244800844
 30
0.0
 10
372.7529065255889
 20
114.6874320343912
 30
0.0
 10
372.8792616457721
 20
114.6861133071339
 30
0.0
  0
SPLINE
  5
B0
330
1F
100
AcDbEntity
  8
0
  6
Continuous
 62
     7
370
    25
100
AcDbSpline
210
0.0
220
0.0
230
1.0
 70
     8
 71
     3
 72
     8
 73
     4
 74
     0
 42
0.000000001
 43
0.00000001
 40
0.0
 40
0.0
 40
0.0
 40
0.0
 40
1.0
 40
1.0
 40
1.0
 40
1.0
 10
372.8792613920975
 20
114.6861128378567
 30
0.0
 10
372.8715003341521
 20
114.6755546026576
 30
0.0
 10
372.8637628090562
 20
114.6649790691313
 30
0.0
 10
372.8560488936867
 20
114.6543863423518
 30
0.0
  0
SPLINE
  5
B1
330
1F
100
AcDbEntity
  8
0
  6
Continuous
 62
     7
370
    25
100
AcDbSpline
210
0.0
220
0.0
230
1.0
 70
     8
 71
     3
 72
     8
 73
     4
 74
     0
 42
0.000000001
 43
0.00000001
 40
0.0
 40
0.0
 40
0.0
 40
0.0
 40
1.0
 40
1.0
 40
1.0
 40
1.0
 10
372.6844910609237
 20
114.4929965998886
 30
0.0
 10
372.7417514679581
 20
114.5469047768764
 30
0.0
 10
372.7989378590678
 20
114.6007017019595
 30
0.0
 10
372.8560488936867
 20
114.6543863423518
 30
0.0
  0
LINE
  5
B2
330
1F
100
AcDbEntity
  8
0
  6
Continuous
 62
     7
370
    25
100
AcDbLine
 10
372.6844917607
 20
114.492996261
 30
0.0
 11
372.109121268
 21
114.492996261
 31
0.0
  0
SPLINE
  5
B3
330
1F
100
AcDbEntity
  8
0
  6
Continuous
 62
     7
370
    25
100
AcDbSpline
210
0.0
220
0.0
230
1.0
 70
     8
 71
     3
 72
     8
 73
     4
 74
     0
 42
0.000000001
 43
0.00000001
 40
0.0
 40
0.0
 40
0.0
 40
0.0
 40
1.0
 40
1.0
 40
1.0
 40
1.0
 10
387.1137686944988
 20
114.654227828053
 30
0.0
 10
387.1060165817982
 20
114.6648735047255
 30
0.0
 10
387.0982406231309
 20
114.6755018169198
 30
0.0
 10
387.0904408965276
 20
114.6861126579822
 30
0.0
  0
LINE
  5
B4
330
1F
100
AcDbEntity
  8
0
  6
Continuous
 62
     7
370
    25
100
AcDbLine
 10
387.8605808124
 20
114.492996261
 30
0.0
 11
387.285181796
 21
114.492996261
 31
0.0
  0
SPLINE
  5
B5
330
1F
100
AcDbEntity
  8
0
  6
Continuous
 62
     7
370
    25
100
AcDbSpline
210
0.0
220
0.0
230
1.0
 70
     8
 71
     3
 72
     8
 73
     4
 74
     0
 42
0.000000001
 43
0.00000001
 40
0.0
 40
0.0
 40
0.0
 40
0.0
 40
1.0
 40
1.0
 40
1.0
 40
1.0
 10
387.1137686944988
 20
114.654227828053
 30
0.0
 10
387.170831822185
 20
114.6005958776372
 30
0.0
 10
387.2279702019152
 20
114.5468517912722
 30
0.0
 10
387.2851824953891
 20
114.492996600022
 30
0.0
  0
ARC
  5
B6
330
1F
100
AcDbEntity
  8
0
  6
Continuous
 62
     7
370
    25
100
AcDbCircle
 10
379.9848510782
 20
109.462996261
 30
0.0
 40
8.818750000000003
100
AcDbArc
 50
209.2047569376
 51
330.7952430624
  0
SPLINE
  5
B7
330
1F
100
AcDbEntity
  8
0
  6
Continuous
 62
     7
370
    25
100
AcDbSpline
210
0.0
220
0.0
230
1.0
 70
    24
 71
     3
 72
     8
 73
     4
 74
     0
 42
0.000000001
 43
0.00000001
 40
0.0
 40
0.0
 40
0.0
 40
0.0
 40
0.0001360402183991
 40
0.0001360402183991
 40
0.0001360402183991
 40
0.0001360402183991
 10
387.7259864750465
 20
105.2034558301692
 30
0.0
 10
387.7115474753625
 20
105.1890168304851
 30
0.0
 10
387.6970770230002
 20
105.1745463781228
 30
0.0
 10
387.6825754244487
 20
105.1600447795714
 30
0.0
  0
SPLINE
  5
B8
330
1F
100
AcDbEntity
  8
0
  6
Continuous
 62
     7
370
    25
100
AcDbSpline
210
0.0
220
0.0
230
1.0
 70
     8
 71
     3
 72
     9
 73
     5
 74
     0
 42
0.000000001
 43
0.00000001
 40
0.0
 40
0.0
 40
0.0
 40
0.0
 40
0.5086448740972567
 40
1.0
 40
1.0
 40
1.0
 40
1.0
 10
388.3726692038028
 20
105.1991652243841
 30
0.0
 10
388.263503154805
 20
105.1998590732291
 30
0.0
 10
388.0488818058892
 20
105.201223185757
 30
0.0
 10
387.8323704932118
 20
105.2027200056948
 30
0.0
 10
387.7259865499119
 20
105.2034554758438
 30
0.0
  0
SPLINE
  5
B9
330
1F
100
AcDbEntity
  8
0
  6
Continuous
 62
     7
370
    25
100
AcDbSpline
210
0.0
220
0.0
230
1.0
 70
     8
 71
     3
 72
     9
 73
     5
 74
     0
 42
0.000000001
 43
0.00000001
 40
0.0
 40
0.0
 40
0.0
 40
0.0
 40
0.4913551252639924
 40
1.0
 40
1.0
 40
1.0
 40
1.0
 10
372.2437156369571
 20
105.2034554453792
 30
0.0
 10
372.1373316855651
 20
105.2027199750504
 30
0.0
 10
371.9208203561374
 20
105.2012231547447
 30
0.0
 10
371.7061989907706
 20
105.1998590418904
 30
0.0
 10
371.5970329332679
 20
105.1991651928785
 30
0.0
  0
SPLINE
  5
BA
330
1F
100
AcDbEntity
  8
0
  6
Continuous
 62
     7
370
    25
100
AcDbSpline
210
0.0
220
0.0
230
1.0
 70
    24
 71
     3
 72
     8
 73
     4
 74
     0
 42
0.000000001
 43
0.00000001
 40
0.0
 40
0.0
 40
0.0
 40
0.0
 40
0.0001360401227241
 40
0.0001360401227241
 40
0.0001360401227241
 40
0.0001360401227241
 10
372.2871267319558
 20
105.1600447795714
 30
0.0
 10
372.272625143603
 20
105.1745463679241
 30
0.0
 10
372.2581547013958
 20
105.1890168101313
 30
0.0
 10
372.2437157118225
 20
105.2034557997047
 30
0.0
  0
LINE
  5
BB
330
1F
100
AcDbEntity
  8
0
  6
Continuous
 62
     7
370
    25
100
AcDbLine
 10
371.5863757841
 20
105.356746261
 30
0.0
 11
372.0904256562
 21
105.356746261
 31
0.0
  0
SPLINE
  5
BC
330
1F
100
AcDbEntity
  8
0
  6
Continuous
 62
     7
370
    25
100
AcDbSpline
210
0.0
220
0.0
230
1.0
 70
     8
 71
     3
 72
     8
 73
     4
 74
     0
 42
0.000000001
 43
0.00000001
 40
0.0
 40
0.0
 40
0.0
 40
0.0
 40
1.0
 40
1.0
 40
1.0
 40
1.0
 10
372.2437159116544
 20
105.2034556001176
 30
0.0
 10
372.19264714905
 20
105.2544980918616
 30
0.0
 10
372.141550189414
 20
105.3055950638876
 30
0.0
 10
372.0904253478984
 20
105.3567461636288
 30
0.0
  0
SPLINE
  5
BD
330
1F
100
AcDbEntity
  8
0
  6
Continuous
 62
     7
370
    25
100
AcDbSpline
210
0.0
220
0.0
230
1.0
 70
     8
 71
     3
 72
     8
 73
     4
 74
     0
 42
0.000000001
 43
0.00000001
 40
0.0
 40
0.0
 40
0.0
 40
0.0
 40
1.0
 40
1.0
 40
1.0
 40
1.0
 10
387.8792768085062
 20
105.3567461636289
 30
0.0
 10
387.828151977161
 20
105.3055950740736
 30
0.0
 10
387.77705502768
 20
105.2544981122026
 30
0.0
 10
387.7259862752147
 20
105.2034556305821
 30
0.0
  0
LINE
  5
BE
330
1F
100
AcDbEntity
  8
0
  6
Continuous
 62
     7
370
    25
100
AcDbLine
 10
387.8792765002
 20
105.356746261
 30
0.0
 11
388.3833263578
 21
105.356746261
 31
0.0
  0
CIRCLE
  5
BF
330
1F
100
AcDbEntity
  8
0
  6
Continuous
 62
     7
370
    25
100
AcDbCircle
 10
379.9848510782
 20
109.462996261
 30
0.0
 40
12.47086902276408
  0
SPLINE
  5
C0
330
1F
100
AcDbEntity
  8
0
  6
Continuous
 62
     7
370
    25
100
AcDbSpline
210
0.0
220
0.0
230
1.0
 70
     8
 71
     3
 72
    23
 73
    19
 74
     0
 42
0.000000001
 43
0.00000001
 40
0.0
 40
0.0
 40
0.0
 40
0.0
 40
0.0521036415675031
 40
0.1035646240925967
 40
0.1544751946736949
 40
0.2049306267473421
 40
0.2550287880844035
 40
0.3048696389141012
 40
0.3545546704609132
 40
0.4041862979523234
 40
0.4538672252126086
 40
0.5036997999421611
 40
0.5901870230746071
 40
0.674271637822954
 40
0.7565997087222995
 40
0.8378563983721267
 40
0.9187511781367398
 40
1.0
 40
1.0
 40
1.0
 40
1.0
 10
369.1455989315447
 20
113.9534069737703
 30
0.0
 10
369.1588932864945
 20
113.9825748669318
 30
0.0
 10
369.1853180205727
 20
114.0405508893358
 30
0.0
 10
369.2245290267965
 20
114.1234501903478
 30
0.0
 10
369.2629709816022
 20
114.2026321713653
 30
0.0
 10
369.3005585630689
 20
114.2778869881673
 30
0.0
 10
369.3372144493764
 20
114.349306642425
 30
0.0
 10
369.372864313435
 20
114.4169032512066
 30
0.0
 10
369.4074380601963
 20
114.4807095726711
 30
0.0
 10
369.4408697541522
 20
114.5407531147403
 30
0.0
 10
369.4730966313772
 20
114.597059811467
 30
0.0
 10
369.5115980682668
 20
114.6624647932907
 30
0.0
 10
369.5542595489803
 20
114.7320258711268
 30
0.0
 10
369.5977525911033
 20
114.7987853677913
 30
0.0
 10
369.6341650879313
 20
114.8505094158891
 30
0.0
 10
369.6630658944085
 20
114.8869577279409
 30
0.0
 10
369.6849833505067
 20
114.9095551248241
 30
0.0
 10
369.693095315
 20
114.9121443423854
 30
0.0
 10
369.6971601535225
 20
114.9134417779567
 30
0.0
  0
SPLINE
  5
C1
330
1F
100
AcDbEntity
  8
0
  6
Continuous
 62
     7
370
    25
100
AcDbSpline
210
0.0
220
0.0
230
1.0
 70
     8
 71
     3
 72
     8
 73
     4
 74
     0
 42
0.000000001
 43
0.00000001
 40
0.0
 40
0.0
 40
0.0
 40
0.0
 40
1.0
 40
1.0
 40
1.0
 40
1.0
 10
369.0249609916819
 20
113.9511966163604
 30
0.0
 10
369.0651500052749
 20
113.951926926578
 30
0.0
 10
369.105312307365
 20
113.9525074524075
 30
0.0
 10
369.1454470178405
 20
113.9529384173572
 30
0.0
  0
SPLINE
  5
C2
330
1F
100
AcDbEntity
  8
0
  6
Continuous
 62
     7
370
    25
100
AcDbSpline
210
0.0
220
0.0
230
1.0
 70
     8
 71
     3
 72
    18
 73
    14
 74
     0
 42
0.000000001
 43
0.00000001
 40
0.0
 40
0.0
 40
0.0
 40
0.0
 40
0.0923824559439141
 40
0.1844689291621674
 40
0.2764953616012182
 40
0.3686975365563128
 40
0.4613092840072771
 40
0.5545607518505636
 40
0.6486768051587679
 40
0.7438756050178583
 40
0.8403674044309957
 40
0.9203921078131376
 40
1.0
 40
1.0
 40
1.0
 40
1.0
 10
369.0778999804814
 20
114.2180136232423
 30
0.0
 10
369.0797356341342
 20
114.2178053110271
 30
0.0
 10
369.0834010602172
 20
114.217389354005
 30
0.0
 10
369.0861963898365
 20
114.2105849305389
 30
0.0
 10
369.0869986849152
 20
114.1992515518867
 30
0.0
 10
369.085632547872
 20
114.1829511568602
 30
0.0
 10
369.0821709992431
 20
114.1617999180243
 30
0.0
 10
369.0766296934737
 20
114.1357642169079
 30
0.0
 10
369.0690452254047
 20
114.1048398372566
 30
0.0
 10
369.0594682234677
 20
114.069040805812
 30
0.0
 10
369.0486277474486
 20
114.0307898982802
 30
0.0
 10
369.0371391065094
 20
113.9915716848855
 30
0.0
 10
369.0290391216314
 20
113.9647167080362
 30
0.0
 10
369.0249997039887
 20
113.9513242796661
 30
0.0
  0
LINE
  5
C3
330
1F
100
AcDbEntity
  8
0
  6
Continuous
 62
     7
370
    25
100
AcDbLine
 10
369.0251446212
 20
114.2172659058
 30
0.0
 11
369.0778999805
 21
114.2180136232
 31
0.0
  0
SPLINE
  5
C4
330
1F
100
AcDbEntity
  8
0
  6
Continuous
 62
     7
370
    25
100
AcDbSpline
210
0.0
220
0.0
230
1.0
 70
     8
 71
     3
 72
    25
 73
    21
 74
     0
 42
0.000000001
 43
0.00000001
 40
0.0
 40
0.0
 40
0.0
 40
0.0
 40
0.0280105225426451
 40
0.0559601148860766
 40
0.0839014045043116
 40
0.1118870776786362
 40
0.1399695827588919
 40
0.1682008401739851
 40
0.1966319670424188
 40
0.2253130233141458
 40
0.2542927850735824
 40
0.3799486436570461
 40
0.50578502216665
 40
0.6313085886322404
 40
0.7532068238012486
 40
0.8039473267955931
 40
0.8535894438554454
 40
0.9025339722394081
 40
0.9511970353791097
 40
1.0
 40
1.0
 40
1.0
 40
1.0
 10
368.1141832134286
 20
111.6503340035547
 30
0.0
 10
368.1211622833395
 20
111.6876440170615
 30
0.0
 10
368.1351052418623
 20
111.7621828850551
 30
0.0
 10
368.1576271393052
 20
111.8734919305383
 30
0.0
 10
368.1812607514028
 20
111.9841541395527
 30
0.0
 10
368.2061103418908
 20
112.094138272497
 30
0.0
 10
368.232128966377
 20
112.2034334161115
 30
0.0
 10
368.2593103476949
 20
112.3120243853137
 30
0.0
 10
368.2876359890274
 20
112.4198950952561
 30
0.0
 10
368.31709476986
 20
112.5270400409811
 30
0.0
 10
368.3815030577715
 20
112.751214927491
 30
0.0
 10
368.4866047498431
 20
113.0778803415261
 30
0.0
 10
368.6320675106389
 20
113.4638269468458
 30
0.0
 10
368.7713309187499
 20
113.7859067595393
 30
0.0
 10
368.868479271617
 20
113.9817273435697
 30
0.0
 10
368.9287746778438
 20
114.0910747940541
 30
0.0
 10
368.963663260725
 20
114.1490028184694
 30
0.0
 10
368.9915577626529
 20
114.1894567712344
 30
0.0
 10
369.0129228550245
 20
114.2140709866333
 30
0.0
 10
369.0210668025971
 20
114.216199914141
 30
0.0
 10
369.0251446212422
 20
114.2172659058124
 30
0.0
  0
ARC
  5
C5
330
1F
100
AcDbEntity
  8
0
  6
Continuous
 62
     7
370
    25
100
AcDbCircle
 10
379.9848510782
 20
109.462996261
 30
0.0
 40
12.07050959801136
100
AcDbArc
 50
169.5595567507
 51
190.4404432494
  0
SPLINE
  5
C6
330
1F
100
AcDbEntity
  8
0
  6
Continuous
 62
     7
370
    25
100
AcDbSpline
210
0.0
220
0.0
230
1.0
 70
     8
 71
     3
 72
    26
 73
    22
 74
     0
 42
0.000000001
 43
0.00000001
 40
0.0
 40
0.0
 40
0.0
 40
0.0
 40
0.0241259796957183
 40
0.048215991226154
 40
0.072320391510906
 40
0.0964895678693673
 40
0.1207736231945699
 40
0.1452220711225729
 40
0.1698835501642671
 40
0.1948055644460739
 40
0.2200342569510659
 40
0.245614219161033
 40
0.3690971486881772
 40
0.4940698769484976
 40
0.6192566784762282
 40
0.7454656653603126
 40
0.7971495824713628
 40
0.8481710308405337
 40
0.8988013269235202
 40
0.9493179290492171
 40
1.0
 40
1.0
 40
1.0
 40
1.0
 10
369.0251446212422
 20
104.7087266162283
 30
0.0
 10
369.0232343065018
 20
104.7090135094177
 30
0.0
 10
369.0194165250097
 20
104.7095868680825
 30
0.0
 10
369.0114563998289
 20
104.715645556329
 30
0.0
 10
369.0018772992535
 20
104.7255248170598
 30
0.0
 10
368.9905300923849
 20
104.7396059081702
 30
0.0
 10
368.977473909091
 20
104.7578014561944
 30
0.0
 10
368.9627180058637
 20
104.7801519989331
 30
0.0
 10
368.9462908255662
 20
104.8066662346252
 30
0.0
 10
368.928222670846
 20
104.8373617453384
 30
0.0
 10
368.9085455244228
 20
104.8722628485784
 30
0.0
 10
368.8603461429957
 20
104.9610273836833
 30
0.0
 10
368.7720281035603
 20
105.1383076851318
 30
0.0
 10
368.6329684867929
 20
105.4593935919783
 30
0.0
 10
368.4872958069302
 20
105.8459762438703
 30
0.0
 10
368.3735572119207
 20
106.1996839480004
 30
0.0
 10
368.2938515933741
 20
106.4819376476131
 30
0.0
 10
368.2432020210198
 20
106.6763810783874
 30
0.0
 10
368.1962353511545
 20
106.8736224553215
 30
0.0
 10
368.1526755291501
 20
107.0735255004167
 30
0.0
 10
368.1270279640186
 20
107.2082074401489
 30
0.0
 10
368.1141832134286
 20
107.2756585184861
 30
0.0
  0
LINE
  5
C7
330
1F
100
AcDbEntity
  8
0
  6
Continuous
 62
     7
370
    25
100
AcDbLine
 10
369.0778999805
 20
104.7079788988
 30
0.0
 11
369.0251446212
 21
104.7087266162
 31
0.0
  0
SPLINE
  5
C8
330
1F
100
AcDbEntity
  8
0
  6
Continuous
 62
     7
370
    25
100
AcDbSpline
210
0.0
220
0.0
230
1.0
 70
     8
 71
     3
 72
    14
 73
    10
 74
     0
 42
0.000000001
 43
0.00000001
 40
0.0
 40
0.0
 40
0.0
 40
0.0
 40
0.0789261963166806
 40
0.1582328720532219
 40
0.3308475394593821
 40
0.5000195457654665
 40
0.6670357883621003
 40
0.8332395193691069
 40
1.0
 40
1.0
 40
1.0
 40
1.0
 10
369.0249031236298
 20
104.9750023761026
 30
0.0
 10
369.0289176702258
 20
104.9616992514651
 30
0.0
 10
369.0369661163379
 20
104.9350288718331
 30
0.0
 10
369.051866823147
 20
104.8842141325139
 30
0.0
 10
369.0677638047432
 20
104.8271743163274
 30
0.0
 10
369.0808422997411
 20
104.772871099599
 30
0.0
 10
369.0870749068584
 20
104.7347039568759
 30
0.0
 10
369.0868853270217
 20
104.7112952281988
 30
0.0
 10
369.080898432891
 20
104.7090855735201
 30
0.0
 10
369.0778999804814
 20
104.7079788987984
 30
0.0
  0
SPLINE
  5
C9
330
1F
100
AcDbEntity
  8
0
  6
Continuous
 62
     7
370
    25
100
AcDbSpline
210
0.0
220
0.0
230
1.0
 70
     8
 71
     3
 72
     8
 73
     4
 74
     0
 42
0.000000001
 43
0.00000001
 40
0.0
 40
0.0
 40
0.0
 40
0.0
 40
1.0
 40
1.0
 40
1.0
 40
1.0
 10
369.1722078148541
 20
104.9729412976526
 30
0.0
 10
369.1231398998254
 20
104.9734283508646
 30
0.0
 10
369.0740304623046
 20
104.9741394187395
 30
0.0
 10
369.0248811177793
 20
104.9750749119738
 30
0.0
  0
SPLINE
  5
CA
330
1F
100
AcDbEntity
  8
0
  6
Continuous
 62
     7
370
    25
100
AcDbSpline
210
0.0
220
0.0
230
1.0
 70
     8
 71
     3
 72
    13
 73
     9
 74
     0
 42
0.000000001
 43
0.00000001
 40
0.0
 40
0.0
 40
0.0
 40
0.0
 40
0.1667030582308039
 40
0.3329480818053005
 40
0.4990671507274865
 40
0.6653938523718437
 40
0.8322612710550082
 40
1.0
 40
1.0
 40
1.0
 40
1.0
 10
369.230541347025
 20
104.9042277728687
 30
0.0
 10
369.2286980331881
 20
104.9046448826345
 30
0.0
 10
369.2250164702182
 20
104.9054779561119
 30
0.0
 10
369.2174992164237
 20
104.9114924349383
 30
0.0
 10
369.2085484123072
 20
104.9209871672305
 30
0.0
 10
369.1979981238842
 20
104.9343967743401
 30
0.0
 10
369.1860249383672
 20
104.9513146779637
 30
0.0
 10
369.1768185307608
 20
104.9657274131031
 30
0.0
 10
369.1722033402719
 20
104.9729525459647
 30
0.0
  0
SPLINE
  5
CB
330
1F
100
AcDbEntity
  8
0
  6
Continuous
 62
     7
370
    25
100
AcDbSpline
210
0.0
220
0.0
230
1.0
 70
     8
 71
     3
 72
    13
 73
     9
 74
     0
 42
0.000000001
 43
0.00000001
 40
0.0
 40
0.0
 40
0.0
 40
0.0
 40
0.1686319999748108
 40
0.3360343310905603
 40
0.5025367825908784
 40
0.6684737453788424
 40
0.8341822636915194
 40
1.0
 40
1.0
 40
1.0
 40
1.0
 10
390.7975001972505
 20
104.9729559957775
 30
0.0
 10
390.7928629521523
 20
104.9656988357581
 30
0.0
 10
390.7836222768659
 20
104.9512374351158
 30
0.0
 10
390.7716069034989
 20
104.9342567384117
 30
0.0
 10
390.7610413497443
 20
104.9208239572322
 30
0.0
 10
390.7521020004513
 20
104.9113444886782
 30
0.0
 10
390.7446211198628
 20
104.9053792629804
 30
0.0
 10
390.7409813125733
 20
104.904611687196
 30
0.0
 10
390.7391608093795
 20
104.9042277728687
 30
0.0
  0
SPLINE
  5
CC
330
1F
100
AcDbEntity
  8
0
  6
Continuous
 62
     7
370
    25
100
AcDbSpline
210
0.0
220
0.0
230
1.0
 70
     8
 71
     3
 72
     8
 73
     4
 74
     0
 42
0.000000001
 43
0.00000001
 40
0.0
 40
0.0
 40
0.0
 40
0.0
 40
1.0
 40
1.0
 40
1.0
 40
1.0
 10
390.9448258092232
 20
104.9750750167203
 30
0.0
 10
390.8956748796148
 20
104.9741394864582
 30
0.0
 10
390.8465638595355
 20
104.9734283959462
 30
0.0
 10
390.7974943646277
 20
104.9729413344482
 30
0.0
  0
SPLINE
  5
CD
330
1F
100
AcDbEntity
  8
0
  6
Continuous
 62
     7
370
    25
100
AcDbSpline
210
0.0
220
0.0
230
1.0
 70
     8
 71
     3
 72
    18
 73
    14
 74
     0
 42
0.000000001
 43
0.00000001
 40
0.0
 40
0.0
 40
0.0
 40
0.0
 40
0.0923325137145546
 40
0.1843692047123243
 40
0.2763458873888429
 40
0.3684982175742124
 40
0.4610598988390781
 40
0.5542609546612685
 40
0.6483261285506466
 40
0.7434734636546699
 40
0.8399130993131055
 40
0.9201660718311621
 40
1.0
 40
1.0
 40
1.0
 40
1.0
 10
390.8918021759231
 20
104.7079788987984
 30
0.0
 10
390.8899665222705
 20
104.7081872110142
 30
0.0
 10
390.8863010961879
 20
104.7086031680375
 30
0.0
 10
390.8835057665654
 20
104.7154075914947
 30
0.0
 10
390.8827034714985
 20
104.7267409701805
 30
0.0
 10
390.8840696084976
 20
104.7430413650809
 30
0.0
 10
390.8875311572916
 20
104.764192604391
 30
0.0
 10
390.8930724624381
 20
104.7902283037185
 30
0.0
 10
390.9006569328654
 20
104.8211526901412
 30
0.0
 10
390.9102339258461
 20
104.8569516958693
 30
0.0
 10
390.9210852728722
 20
104.8952409409837
 30
0.0
 10
390.9326000345044
 20
104.9345465654007
 30
0.0
 10
390.9407317433256
 20
104.9615036432942
 30
0.0
 10
390.9447869549333
 20
104.9749469007436
 30
0.0
  0
LINE
  5
CE
330
1F
100
AcDbEntity
  8
0
  6
Continuous
 62
     7
370
    25
100
AcDbLine
 10
390.9445575352
 20
104.7087266162
 30
0.0
 11
390.8918021759
 21
104.7079788988
 31
0.0
  0
SPLINE
  5
CF
330
1F
100
AcDbEntity
  8
0
  6
Continuous
 62
     7
370
    25
100
AcDbSpline
210
0.0
220
0.0
230
1.0
 70
     8
 71
     3
 72
    25
 73
    21
 74
     0
 42
0.000000001
 43
0.00000001
 40
0.0
 40
0.0
 40
0.0
 40
0.0
 40
0.0280105225425619
 40
0.0559601148859271
 40
0.0839014045041196
 40
0.1118870776784246
 40
0.1399695827586811
 40
0.1682008401737954
 40
0.1966319670422708
 40
0.2253130233140564
 40
0.2542927850735731
 40
0.3799486436576643
 40
0.5057850221666753
 40
0.6313085886329383
 40
0.7532068238012418
 40
0.8039473267955356
 40
0.8535894438553621
 40
0.902533972239325
 40
0.9511970353790535
 40
1.0
 40
1.0
 40
1.0
 40
1.0
 10
391.8555189429759
 20
107.2756585184861
 30
0.0
 10
391.848539873065
 20
107.2383485049794
 30
0.0
 10
391.8345969145423
 20
107.163809636986
 30
0.0
 10
391.8120750170994
 20
107.0525005915031
 30
0.0
 10
391.7884414050019
 20
106.9418383824888
 30
0.0
 10
391.7635918145139
 20
106.8318542495446
 30
0.0
 10
391.7375731900277
 20
106.7225591059301
 30
0.0
 10
391.7103918087097
 20
106.6139681367278
 30
0.0
 10
391.6820661673772
 20
106.5060974267853
 30
0.0
 10
391.6526073865446
 20
106.39895248106
 30
0.0
 10
391.5881990986328
 20
106.1747775945491
 30
0.0
 10
391.483097406561
 20
105.8481121805133
 30
0.0
 10
391.3376346457651
 20
105.4621655751937
 30
0.0
 10
391.1983712376547
 20
105.1400857625017
 30
0.0
 10
391.1012228847873
 20
104.9442651784707
 30
0.0
 10
391.0409274785608
 20
104.8349177279867
 30
0.0
 10
391.0060388956795
 20
104.7769897035713
 30
0.0
 10
390.9781443937517
 20
104.7365357508064
 30
0.0
 10
390.95677930138
 20
104.7119215354074
 30
0.0
 10
390.9486353538073
 20
104.7097926078997
 30
0.0
 10
390.9445575351623
 20
104.7087266162283
 30
0.0
  0
ARC
  5
D0
330
1F
100
AcDbEntity
  8
0
  6
Continuous
 62
     7
370
    25
100
AcDbCircle
 10
379.9848510782
 20
109.462996261
 30
0.0
 40
12.07050959801147
100
AcDbArc
 50
349.5595567507
 51
10.4404432493
  0
SPLINE
  5
D1
330
1F
100
AcDbEntity
  8
0
  6
Continuous
 62
     7
370
    25
100
AcDbSpline
210
0.0
220
0.0
230
1.0
 70
     8
 71
     3
 72
    26
 73
    22
 74
     0
 42
0.000000001
 43
0.00000001
 40
0.0
 40
0.0
 40
0.0
 40
0.0
 40
0.0241259796963642
 40
0.0482159912273002
 40
0.0723203915124077
 40
0.0964895678710806
 40
0.1207736231963522
 40
0.1452220711242843
 40
0.169883550165771
 40
0.1948055644472372
 40
0.2200342569517615
 40
0.2456142191611365
 40
0.3690971486901609
 40
0.4940698769485148
 40
0.6192566784753816
 40
0.7454656653602874
 40
0.7971495824708217
 40
0.8481710308397286
 40
0.8988013269227123
 40
0.9493179290486754
 40
1.0
 40
1.0
 40
1.0
 40
1.0
 10
390.9445575351623
 20
114.2172659058124
 30
0.0
 10
390.9464678499027
 20
114.216979012623
 30
0.0
 10
390.9502856313949
 20
114.2164056539583
 30
0.0
 10
390.9582457565758
 20
114.2103469657118
 30
0.0
 10
390.9678248571512
 20
114.200467704981
 30
0.0
 10
390.97917206402
 20
114.1863866138706
 30
0.0
 10
390.9922282473138
 20
114.1681910658464
 30
0.0
 10
391.0069841505412
 20
114.1458405231077
 30
0.0
 10
391.0234113308385
 20
114.1193262874157
 30
0.0
 10
391.0414794855588
 20
114.0886307767024
 30
0.0
 10
391.0611566319818
 20
114.0537296734625
 30
0.0
 10
391.10935601341
 20
113.9649651383548
 30
0.0
 10
391.1976740528455
 20
113.7876848369059
 30
0.0
 10
391.3367336696119
 20
113.4665989300617
 30
0.0
 10
391.4824063494742
 20
113.0800162781708
 30
0.0
 10
391.5961449444833
 20
112.7263085740419
 30
0.0
 10
391.6758505630299
 20
112.4440548744295
 30
0.0
 10
391.726500135384
 20
112.2496114436562
 30
0.0
 10
391.7734668052494
 20
112.0523700667221
 30
0.0
 10
391.8170266272541
 20
111.8524670216259
 30
0.0
 10
391.8426741923858
 20
111.7177850818925
 30
0.0
 10
391.8555189429759
 20
111.6503340035547
 30
0.0
  0
LINE
  5
D2
330
1F
100
AcDbEntity
  8
0
  6
Continuous
 62
     7
370
    25
100
AcDbLine
 10
390.8918021759
 20
114.2180136232
 30
0.0
 11
390.9445575352
 21
114.2172659058
 31
0.0
  0
SPLINE
  5
D3
330
1F
100
AcDbEntity
  8
0
  6
Continuous
 62
     7
370
    25
100
AcDbSpline
210
0.0
220
0.0
230
1.0
 70
     8
 71
     3
 72
    14
 73
    10
 74
     0
 42
0.000000001
 43
0.00000001
 40
0.0
 40
0.0
 40
0.0
 40
0.0
 40
0.0786889129232047
 40
0.1577561817116865
 40
0.3304686003099994
 40
0.499736408241528
 40
0.6668472316634158
 40
0.8331450833754712
 40
0.9999999999999999
 40
0.9999999999999999
 40
0.9999999999999999
 40
0.9999999999999999
 10
390.9447104627001
 20
113.9512821140244
 30
0.0
 10
390.9407124537454
 20
113.9645320185403
 30
0.0
 10
390.9326972124146
 20
113.9910955364088
 30
0.0
 10
390.917824539125
 20
114.0418170641777
 30
0.0
 10
390.9019383743627
 20
114.0988181432016
 30
0.0
 10
390.8888598507184
 20
114.1531214388107
 30
0.0
 10
390.8826272511133
 20
114.1912885608479
 30
0.0
 10
390.8828168289898
 20
114.2146972949234
 30
0.0
 10
390.8888037233822
 20
114.2169069488815
 30
0.0
 10
390.8918021759231
 20
114.2180136232423
 30
0.0
  0
SPLINE
  5
D4
330
1F
100
AcDbEntity
  8
0
  6
Continuous
 62
     7
370
    25
100
AcDbSpline
210
0.0
220
0.0
230
1.0
 70
     8
 71
     3
 72
     8
 73
     4
 74
     0
 42
0.000000001
 43
0.00000001
 40
0.0
 40
0.0
 40
0.0
 40
0.0
 40
1.0
 40
1.0
 40
1.0
 40
1.0
 10
390.8242551220171
 20
113.9529384539901
 30
0.0
 10
390.8643882405238
 20
113.9525075000428
 30
0.0
 10
390.9045489484524
 20
113.9519269970303
 30
0.0
 10
390.9447363657954
 20
113.9511967214708
 30
0.0
  0
SPLINE
  5
D5
330
1F
100
AcDbEntity
  8
0
  6
Continuous
 62
     7
370
    25
100
AcDbSpline
210
0.0
220
0.0
230
1.0
 70
     8
 71
     3
 72
    23
 73
    19
 74
     0
 42
0.000000001
 43
0.00000001
 40
0.0
 40
0.0
 40
0.0
 40
0.0
 40
0.0441308420121292
 40
0.0880968635211716
 40
0.1320155028408941
 40
0.1760048571434164
 40
0.2201827305793597
 40
0.2646656976937351
 40
0.3095682184569769
 40
0.355001836559425
 40
0.401074485474427
 40
0.4478899182339682
 40
0.4955472680213688
 40
0.5953670562452651
 40
0.6949121173401501
 40
0.7950007648984784
 40
0.8964386255170008
 40
1.0
 40
1.0
 40
1.0
 40
1.0
 10
390.272542002882
 20
114.9134417779567
 30
0.0
 10
390.2745263929888
 20
114.9131589207268
 30
0.0
 10
390.2784877618737
 20
114.9125942626863
 30
0.0
 10
390.2873480661042
 20
114.9061749095075
 30
0.0
 10
390.2983205442266
 20
114.8956536600009
 30
0.0
 10
390.311599942247
 20
114.8806221236912
 30
0.0
 10
390.3271106659133
 20
114.8611698786288
 30
0.0
 10
390.3448421276664
 20
114.8372499006767
 30
0.0
 10
390.3647587743695
 20
114.8088488099628
 30
0.0
 10
390.3868243083817
 20
114.7759410701622
 30
0.0
 10
390.4109952320758
 20
114.738501087506
 30
0.0
 10
390.4372222421231
 20
114.6965010158761
 30
0.0
 10
390.4755588223541
 20
114.633223907353
 30
0.0
 10
390.5278916017326
 20
114.5431650449898
 30
0.0
 10
390.5962922129407
 20
114.418818925423
 30
0.0
 10
390.6689772877362
 20
114.2791058474425
 30
0.0
 10
390.7453375236361
 20
114.1247698322142
 30
0.0
 10
390.7976263382863
 20
114.0110471779864
 30
0.0
 10
390.8240415661898
 20
113.953596844692
 30
0.0
  0
SPLINE
  5
D6
330
1F
100
AcDbEntity
  8
0
  6
Continuous
 62
     7
370
    25
100
AcDbSpline
210
0.0
220
0.0
230
1.0
 70
    11
 71
     3
 72
    39
 73
    35
 74
     0
 42
0.000000001
 43
0.00000001
 40
0.0
 40
0.0
 40
0.0
 40
0.0
 40
0.0310664058348413
 40
0.0621048158426138
 40
0.0931361551796939
 40
0.1235538293503726
 40
0.1538561545809849
 40
0.1850588072749156
 40
0.2160250992946587
 40
0.2471867223797568
 40
0.2784462884304475
 40
0.3100516090231247
 40
0.3419834369138969
 40
0.3734259894013238
 40
0.4048604886787081
 40
0.436874065183343
 40
0.4685120685926471
 40
0.499805535863323
 40
0.5309508213226204
 40
0.5618649784438111
 40
0.5930416446590877
 40
0.623374245013332
 40
0.6540913579072549
 40
0.6849496782718453
 40
0.7158160645166705
 40
0.7471731804043553
 40
0.7784514311866318
 40
0.810129591156098
 40
0.8419598919688388
 40
0.8735175891922303
 40
0.9050808037886594
 40
0.9370235169792582
 40
0.9687441590030581
 40
1.0
 40
1.0
 40
1.0
 40
1.0
 10
382.8889776429996
 20
98.03136607726695
 30
0.0
 10
383.0786894719542
 20
98.07013465401442
 30
0.0
 10
383.4224303224031
 20
98.14656559979747
 30
0.0
 10
383.8053873096108
 20
98.2347051397907
 30
0.0
 10
384.0498277763258
 20
98.28165462643567
 30
0.0
 10
384.1308167131421
 20
98.2697457017219
 30
0.0
 10
384.0500942676604
 20
98.19778779500645
 30
0.0
 10
383.8102320740407
 20
98.07326752880908
 30
0.0
 10
383.4335823399435
 20
97.9158985389839
 30
0.0
 10
382.9273394031156
 20
97.74387445428889
 30
0.0
 10
382.3100650094322
 20
97.57895004670326
 30
0.0
 10
381.5975891952924
 20
97.44123747062474
 30
0.0
 10
380.8221239555198
 20
97.34960465811606
 30
0.0
 10
380.0116595219055
 20
97.31627208002058
 30
0.0
 10
379.199155048943
 20
97.34551952557386
 30
0.0
 10
378.4196420588059
 20
97.43384848256146
 30
0.0
 10
377.7013137594705
 20
97.56935398219628
 30
0.0
 10
377.0779416520704
 20
97.73313050368755
 30
0.0
 10
376.5648430574748
 20
97.90513664783288
 30
0.0
 10
376.1796409476134
 20
98.06394866230404
 30
0.0
 10
375.9302163423724
 20
98.19120762746951
 30
0.0
 10
375.839614302426
 20
98.2668145844245
 30
0.0
 10
375.9078258733851
 20
98.28358398110439
 30
0.0
 10
376.1400417397879
 20
98.24080363888912
 30
0.0
 10
376.5172587769722
 20
98.15367695397926
 30
0.0
 10
377.0289636447398
 20
98.03894789867226
 30
0.0
 10
377.6524347754867
 20
97.91952575361972
 30
0.0
 10
378.3689794786195
 20
97.81490030357043
 30
0.0
 10
379.1473105912304
 20
97.74425181064356
 30
0.0
 10
379.9591420780804
 20
97.71817298621353
 30
0.0
 10
380.7729166000775
 20
97.74119855790427
 30
0.0
 10
381.555290444243
 20
97.80943099604193
 30
0.0
 10
382.2773034789769
 20
97.91267817575167
 30
0.0
 10
382.6981089988259
 20
97.99236109944817
 30
0.0
 10
382.8889776429996
 20
98.03136607726692
 30
0.0
  0
SPLINE
  5
D7
330
1F
100
AcDbEntity
  8
0
  6
Continuous
 62
     7
370
    25
100
AcDbSpline
210
0.0
220
0.0
230
1.0
 70
    11
 71
     3
 72
    39
 73
    35
 74
     0
 42
0.000000001
 43
0.00000001
 40
0.0
 40
0.0
 40
0.0
 40
0.0
 40
0.0312651429934057
 40
0.0629601069329321
 40
0.0948697276489808
 40
0.1264264963751833
 40
0.1579651393672472
 40
0.1898765439016956
 40
0.221552335268876
 40
0.2527844076550827
 40
0.2838418966734154
 40
0.3148645781100674
 40
0.3459127639308091
 40
0.3763475365526575
 40
0.4066751324671412
 40
0.4379141187435632
 40
0.4688932367345488
 40
0.5000738678969536
 40
0.5313369410958942
 40
0.5629183719104849
 40
0.5948445736343699
 40
0.6262809966135365
 40
0.6577486436587271
 40
0.6897584692806508
 40
0.7214430019610059
 40
0.7527623343195418
 40
0.7839279690572818
 40
0.8148885765585865
 40
0.8460375004982862
 40
0.8763409566916784
 40
0.906758919146387
 40
0.9378312724751761
 40
0.9689189660506093
 40
1.0
 40
1.0
 40
1.0
 40
1.0
 10
382.8888733932127
 20
120.8946584972095
 30
0.0
 10
382.6977994569311
 20
120.9337224550902
 30
0.0
 10
382.2768648944916
 20
121.0134414496503
 30
0.0
 10
381.5554754893279
 20
121.1165568650007
 30
0.0
 10
380.7738194410375
 20
121.1847577374246
 30
0.0
 10
379.9607317213267
 20
121.2078146300665
 30
0.0
 10
379.1484515044746
 20
121.1818303564203
 30
0.0
 10
378.3698210794252
 20
121.1112401911822
 30
0.0
 10
377.6531452895136
 20
121.006624628943
 30
0.0
 10
377.0312700198521
 20
120.8874523039266
 30
0.0
 10
376.5217590863662
 20
120.7735151362003
 30
0.0
 10
376.1466397401219
 20
120.6874008572538
 30
0.0
 10
375.9106791652711
 20
120.643345135918
 30
0.0
 10
375.8392786220895
 20
120.6588749366292
 30
0.0
 10
375.9298750518873
 20
120.7343838188131
 30
0.0
 10
376.1788513322467
 20
120.8615573466573
 30
0.0
 10
376.5637661520896
 20
121.0204080252696
 30
0.0
 10
377.0765514589117
 20
121.1924322864796
 30
0.0
 10
377.6990105818365
 20
121.3561053660143
 30
0.0
 10
378.4155107266431
 20
121.4915069393945
 30
0.0
 10
379.1936097607531
 20
121.5800246068773
 30
0.0
 10
380.0053324494001
 20
121.6097320153601
 30
0.0
 10
380.8167746371014
 20
121.57684557071
 30
0.0
 10
381.5939005285835
 20
121.4853646626652
 30
0.0
 10
382.308338617754
 20
121.3474804727038
 30
0.0
 10
382.9265615759894
 20
121.1823526478539
 30
0.0
 10
383.4329289367153
 20
121.0103021105013
 30
0.0
 10
383.809481458129
 20
120.8530185887911
 30
0.0
 10
384.0491772695604
 20
120.7286147913071
 30
0.0
 10
384.1306439777546
 20
120.6564266178708
 30
0.0
 10
384.0505847352629
 20
120.6441541094927
 30
0.0
 10
383.8062387293091
 20
120.6910495199988
 30
0.0
 10
383.4232652958601
 20
120.7791830681444
 30
0.0
 10
383.0788221646503
 20
120.8558245727543
 30
0.0
 10
382.8888733932128
 20
120.8946584972095
 30
0.0
  0
SPLINE
  5
D8
330
1F
100
AcDbEntity
  8
0
  6
Continuous
 62
     7
370
    25
100
AcDbSpline
210
0.0
220
0.0
230
1.0
 70
     8
 71
     3
 72
    23
 73
    19
 74
     0
 42
0.000000001
 43
0.00000001
 40
0.0
 40
0.0
 40
0.0
 40
0.0
 40
0.0449850911547986
 40
0.0909520670823928
 40
0.1379394291328608
 40
0.1859832248994904
 40
0.2351171761776805
 40
0.2853728096486188
 40
0.3367795876649923
 40
0.3893650370847875
 40
0.4431548745956198
 40
0.4981731273942989
 40
0.5575107591316854
 40
0.626549228205273
 40
0.7053073139783237
 40
0.7937970254486392
 40
0.8920262116387118
 40
1.0
 40
1.0
 40
1.0
 40
1.0
 10
370.093909366645
 20
114.4929962610204
 30
0.0
 10
370.0917466772793
 20
114.4925673593607
 30
0.0
 10
370.0873740937585
 20
114.4917001944508
 30
0.0
 10
370.0770931345668
 20
114.484606626849
 30
0.0
 10
370.0640328565366
 20
114.4729938852688
 30
0.0
 10
370.0479136949824
 20
114.4562045150951
 30
0.0
 10
370.0288132673263
 20
114.4341325284793
 30
0.0
 10
370.0067109145705
 20
114.4065350547153
 30
0.0
 10
369.9816104360349
 20
114.3732266235058
 30
0.0
 10
369.9535193046572
 20
114.3340262850998
 30
0.0
 10
369.9224034038057
 20
114.2887842396282
 30
0.0
 10
369.8877644729127
 20
114.2363883072262
 30
0.0
 10
369.8470429646178
 20
114.1736058389801
 30
0.0
 10
369.7983220435748
 20
114.0958488396827
 30
0.0
 10
369.7405477052507
 20
113.9985642820829
 30
0.0
 10
369.6736370556119
 20
113.8788194483667
 30
0.0
 10
369.5976930913374
 20
113.7348992434965
 30
0.0
 10
369.5433319266681
 20
113.6241650386439
 30
0.0
 10
369.514866862564
 20
113.5661814347452
 30
0.0
  0
LINE
  5
D9
330
1F
100
AcDbEntity
  8
0
  6
Continuous
 62
     7
370
    25
100
AcDbLine
 10
369.5148668626
 20
113.5667077666
 30
0.0
 11
369.1455271246
 21
113.9527922936
 31
0.0
  0
LINE
  5
DA
330
1F
100
AcDbEntity
  8
0
  6
Continuous
 62
     7
370
    25
100
AcDbLine
 10
390.8241424601
 20
113.9527328887
 30
0.0
 11
390.4548757785
 21
113.5667247838
 31
0.0
  0
SPLINE
  5
DB
330
1F
100
AcDbEntity
  8
0
  6
Continuous
 62
     7
370
    25
100
AcDbSpline
210
0.0
220
0.0
230
1.0
 70
     8
 71
     3
 72
    26
 73
    22
 74
     0
 42
0.000000001
 43
0.00000001
 40
0.0
 40
0.0
 40
0.0
 40
0.0
 40
0.0509383868892029
 40
0.0998291548707016
 40
0.1466728127085954
 40
0.1914699457083821
 40
0.234221230056818
 40
0.2749274507522491
 40
0.3135895242581077
 40
0.3502085274510949
 40
0.3847857350792775
 40
0.4173226689079022
 40
0.447821163200901
 40
0.4762834534842163
 40
0.5027122992247015
 40
0.5939067005080522
 40
0.6816015993279136
 40
0.7659159552150709
 40
0.8469836289752605
 40
0.9249552229495878
 40
1.0
 40
1.0
 40
1.0
 40
1.0
 10
390.4548757785088
 20
113.5659907044955
 30
0.0
 10
390.4414179143054
 20
113.593611485673
 30
0.0
 10
390.4150431644981
 20
113.6477427491503
 30
0.0
 10
390.3766709847058
 20
113.7240507862551
 30
0.0
 10
390.3402048022028
 20
113.7948029658684
 30
0.0
 10
390.305668552571
 20
113.8599747925704
 30
0.0
 10
390.2730561007128
 20
113.9198330378291
 30
0.0
 10
390.2423688169172
 20
113.9745981973711
 30
0.0
 10
390.213606200616
 20
114.0245225886784
 30
0.0
 10
390.1867680361463
 20
114.0698648192639
 30
0.0
 10
390.1618544557234
 20
114.1108907581911
 30
0.0
 10
390.1388638089427
 20
114.1478681431212
 30
0.0
 10
390.1178003034638
 20
114.1810642590846
 30
0.0
 10
390.0986479330978
 20
114.2107399913295
 30
0.0
 10
390.0669768561625
 20
114.2594103163657
 30
0.0
 10
390.0255069107316
 20
114.3213056342799
 30
0.0
 10
389.9785173945872
 20
114.3866462417048
 30
0.0
 10
389.9398988248721
 20
114.4357646329957
 30
0.0
 10
389.9098503651509
 20
114.4692409215057
 30
0.0
 10
389.8875602541819
 20
114.4893583537416
 30
0.0
 10
389.8796649387489
 20
114.4917991875909
 30
0.0
 10
389.8757927897595
 20
114.4929962610204
 30
0.0
  0
SPLINE
  5
DC
330
1F
100
AcDbEntity
  8
0
  6
Continuous
 62
     7
370
    25
100
AcDbSpline
210
0.0
220
0.0
230
1.0
 70
     8
 71
     3
 72
     8
 73
     4
 74
     0
 42
0.000000001
 43
0.00000001
 40
0.0
 40
0.0
 40
0.0
 40
0.0
 40
1.0
 40
1.0
 40
1.0
 40
1.0
 10
387.7265315300026
 20
113.6859945875031
 30
0.0
 10
387.7901245103427
 20
113.6203258096563
 30
0.0
 10
387.854080936778
 20
113.555983511996
 30
0.0
 10
387.9182798564854
 20
113.4942462610204
 30
0.0
  0
SPLINE
  5
DD
330
1F
100
AcDbEntity
  8
0
  6
Continuous
 62
     7
370
    25
100
AcDbSpline
210
0.0
220
0.0
230
1.0
 70
     8
 71
     3
 72
    25
 73
    21
 74
     0
 42
0.000000001
 43
0.00000001
 40
0.0
 40
0.0
 40
0.0
 40
0.0
 40
0.0367725003254103
 40
0.074208401060063
 40
0.1123590542807964
 40
0.1512729822568881
 40
0.190995910016845
 40
0.2315708273504481
 40
0.2730380740418892
 40
0.3154354426077851
 40
0.3587982934432034
 40
0.4031596779810961
 40
0.4485504661847858
 40
0.494999475376923
 40
0.5532504315673752
 40
0.621829488573267
 40
0.7007739996560722
 40
0.7901076726660372
 40
0.8898461547533933
 40
1.0
 40
1.0
 40
1.0
 40
1.0
 10
387.2846103426911
 20
114.49299626102
 30
0.0
 10
387.284834116756
 20
114.4926715733863
 30
0.0
 10
387.2852857019189
 20
114.4920163405375
 30
0.0
 10
387.2900027417912
 20
114.4866539687497
 30
0.0
 10
387.2976553508738
 20
114.4778983750493
 30
0.0
 10
387.3085483300108
 20
114.4652741569574
 30
0.0
 10
387.3225969164266
 20
114.4487178188269
 30
0.0
 10
387.3398238140358
 20
114.4280606414492
 30
0.0
 10
387.3602223668173
 20
114.4031729054814
 30
0.0
 10
387.3837931801094
 20
114.373925359288
 30
0.0
 10
387.4105385286691
 20
114.3402024240915
 30
0.0
 10
387.4404463821015
 20
114.3018966089661
 30
0.0
 10
387.473562474446
 20
114.2589257136281
 30
0.0
 10
387.51248839602
 20
114.2075044319574
 30
0.0
 10
387.5613164757366
 20
114.1432882002683
 30
0.0
 10
387.6232370803376
 20
114.0603936711737
 30
0.0
 10
387.6976216386586
 20
113.9564479209592
 30
0.0
 10
387.7845960666472
 20
113.828361710702
 30
0.0
 10
387.8840209166298
 20
113.6742719307957
 30
0.0
 10
387.9554400923593
 20
113.5562076949252
 30
0.0
 10
387.9929216760402
 20
113.4942462610204
 30
0.0
  0
LINE
  5
DE
330
1F
100
AcDbEntity
  8
0
  6
Continuous
 62
     7
370
    25
100
AcDbLine
 10
387.992921676
 20
113.494246261
 30
0.0
 11
387.9182798565
 21
113.494246261
 31
0.0
  0
SPLINE
  5
DF
330
1F
100
AcDbEntity
  8
0
  6
Continuous
 62
     7
370
    25
100
AcDbSpline
210
0.0
220
0.0
230
1.0
 70
     8
 71
     3
 72
    23
 73
    19
 74
     0
 42
0.000000001
 43
0.00000001
 40
0.0
 40
0.0
 40
0.0
 40
0.0
 40
0.0511129009870105
 40
0.101689633186194
 40
0.1518293139134936
 40
0.2016336701929027
 40
0.2512064936790249
 40
0.3006530343041129
 40
0.3500793489747028
 40
0.3995916247955553
 40
0.4492954981456333
 40
0.4992953912355781
 40
0.5872572780531264
 40
0.6724255494364428
 40
0.7555067762557957
 40
0.8372616735287042
 40
0.9184882400177241
 40
1.0
 40
1.0
 40
1.0
 40
1.0
 10
387.726594206128
 20
113.6862373035982
 30
0.0
 10
387.7105786222272
 20
113.7153659058298
 30
0.0
 10
387.6787154561636
 20
113.7733175544147
 30
0.0
 10
387.6316716177438
 20
113.8560753896344
 30
0.0
 10
387.5856930935682
 20
113.9351642481197
 30
0.0
 10
387.5409124267642
 20
114.0103812360545
 30
0.0
 10
387.4974286623282
 20
114.0818442911003
 30
0.0
 10
387.4553426987436
 20
114.1495856952884
 30
0.0
 10
387.4147482343466
 20
114.2136592070328
 30
0.0
 10
387.375733327997
 20
114.274112806103
 30
0.0
 10
387.3383835055104
 20
114.3309903110298
 30
0.0
 10
387.293855248919
 20
114.3977047840892
 30
0.0
 10
387.2452149883785
 20
114.4690250679529
 30
0.0
 10
387.1973758886226
 20
114.537605320412
 30
0.0
 10
387.1597243765416
 20
114.5906216484541
 30
0.0
 10
387.1329016751542
 20
114.6278943045817
 30
0.0
 10
387.1161728443306
 20
114.6509317041618
 30
0.0
 10
387.1143244343667
 20
114.653466429427
 30
0.0
 10
387.1133986097463
 20
114.6547360130704
 30
0.0
  0
SPLINE
  5
E0
330
1F
100
AcDbEntity
  8
0
  6
Continuous
 62
     7
370
    25
100
AcDbSpline
210
0.0
220
0.0
230
1.0
 70
     8
 71
     3
 72
     8
 73
     4
 74
     0
 42
0.000000001
 43
0.00000001
 40
0.0
 40
0.0
 40
0.0
 40
0.0
 40
1.0
 40
1.0
 40
1.0
 40
1.0
 10
390.3887437252743
 20
113.4942462610202
 30
0.0
 10
390.4106290969174
 20
113.5185672772179
 30
0.0
 10
390.4325144685606
 20
113.5425918755404
 30
0.0
 10
390.4543998402037
 20
113.5662987276289
 30
0.0
  0
LINE
  5
E1
330
1F
100
AcDbEntity
  8
0
  6
Continuous
 62
     7
370
    25
100
AcDbLine
 10
390.3885835149
 20
113.494246261
 30
0.0
 11
387.992921676
 21
113.494246261
 31
0.0
  0
SPLINE
  5
E2
330
1F
100
AcDbEntity
  8
0
  6
Continuous
 62
     7
370
    25
100
AcDbSpline
210
0.0
220
0.0
230
1.0
 70
     8
 71
     3
 72
     8
 73
     4
 74
     0
 42
0.000000001
 43
0.00000001
 40
0.0
 40
0.0
 40
0.0
 40
0.0
 40
1.0
 40
1.0
 40
1.0
 40
1.0
 10
369.5152080903759
 20
113.566402295109
 30
0.0
 10
369.5371248628635
 20
113.5426618465499
 30
0.0
 10
369.5590416353511
 20
113.5186026947633
 30
0.0
 10
369.5809584078387
 20
113.4942462610204
 30
0.0
  0
SPLINE
  5
E3
330
1F
100
AcDbEntity
  8
0
  6
Continuous
 62
     7
370
    25
100
AcDbSpline
210
0.0
220
0.0
230
1.0
 70
     8
 71
     3
 72
    26
 73
    22
 74
     0
 42
0.000000001
 43
0.00000001
 40
0.0
 40
0.0
 40
0.0
 40
0.0
 40
0.0524616379932503
 40
0.1026498591890872
 40
0.150565513457809
 40
0.1962095861957063
 40
0.2395832262568645
 40
0.2806877815599511
 40
0.3195248450380211
 40
0.3560963147430692
 40
0.3904044736547445
 40
0.4224520974433627
 40
0.4522426027417772
 40
0.4797802555366611
 40
0.5050704712281336
 40
0.5966394156799991
 40
0.6841917884819224
 40
0.7679874773571101
 40
0.8483228539139507
 40
0.925534163520116
 40
1.0
 40
1.0
 40
1.0
 40
1.0
 10
371.9766029222861
 20
113.4942611530381
 30
0.0
 10
371.9944644065744
 20
113.5240346130792
 30
0.0
 10
372.0294133505502
 20
113.5822913049725
 30
0.0
 10
372.0801781840323
 20
113.6644902853371
 30
0.0
 10
372.1282481416741
 20
113.7405711542379
 30
0.0
 10
372.1735921144389
 20
113.8105225027041
 30
0.0
 10
372.2162180939442
 20
113.8746296646562
 30
0.0
 10
372.2561243924534
 20
113.9331375041263
 30
0.0
 10
372.2933117215687
 20
113.9863260817484
 30
0.0
 10
372.3277805441595
 20
114.0344841219855
 30
0.0
 10
372.3595306327918
 20
114.0779087952618
 30
0.0
 10
372.3885650373929
 20
114.1168988863587
 30
0.0
 10
372.414876326594
 20
114.1517529848852
 30
0.0
 10
372.4384929561382
 20
114.1827579793357
 30
0.0
 10
372.478138635144
 20
114.2350011979686
 30
0.0
 10
372.5296769319431
 20
114.3025305312259
 30
0.0
 10
372.5865030689243
 20
114.3747239774344
 30
0.0
 10
372.6306604968873
 20
114.4292079335569
 30
0.0
 10
372.6618381198293
 20
114.4664727247253
 30
0.0
 10
372.6812976864684
 20
114.4889370769999
 30
0.0
 10
372.6834392841489
 20
114.4916596264272
 30
0.0
 10
372.6844907007056
 20
114.4929962610204
 30
0.0
  0
LINE
  5
E4
330
1F
100
AcDbEntity
  8
0
  6
Continuous
 62
     7
370
    25
100
AcDbLine
 10
371.9766029223
 20
113.494246261
 30
0.0
 11
369.5809584078
 21
113.494246261
 31
0.0
  0
LINE
  5
E5
330
1F
100
AcDbEntity
  8
0
  6
Continuous
 62
     7
370
    25
100
AcDbLine
 10
372.0514222999
 20
113.494246261
 30
0.0
 11
371.9763027016
 21
113.494246261
 31
0.0
  0
SPLINE
  5
E6
330
1F
100
AcDbEntity
  8
0
  6
Continuous
 62
     7
370
    25
100
AcDbSpline
210
0.0
220
0.0
230
1.0
 70
     8
 71
     3
 72
     8
 73
     4
 74
     0
 42
0.000000001
 43
0.00000001
 40
0.0
 40
0.0
 40
0.0
 40
0.0
 40
1.0
 40
1.0
 40
1.0
 40
1.0
 10
372.0514222999191
 20
113.4942462610203
 30
0.0
 10
372.115331102579
 20
113.5562151244515
 30
0.0
 10
372.179106021931
 20
113.6201911895681
 30
0.0
 10
372.242466087812
 20
113.6857258459139
 30
0.0
  0
SPLINE
  5
E7
330
1F
100
AcDbEntity
  8
0
  6
Continuous
 62
     7
370
    25
100
AcDbSpline
210
0.0
220
0.0
230
1.0
 70
     8
 71
     3
 72
    24
 73
    20
 74
     0
 42
0.000000001
 43
0.00000001
 40
0.0
 40
0.0
 40
0.0
 40
0.0
 40
0.0410257106293119
 40
0.0818520099087221
 40
0.1225800578367529
 40
0.1633117464073406
 40
0.20414894028232
 40
0.2451927184766019
 40
0.2865426449252036
 40
0.3282960933661203
 40
0.3705476475506245
 40
0.4133885920111515
 40
0.4569065022356777
 40
0.5011849368588074
 40
0.6001856774981357
 40
0.6987388860498591
 40
0.7976800645504363
 40
0.8978349910062732
 40
1.0
 40
1.0
 40
1.0
 40
1.0
 10
372.8560488936867
 20
114.6543863423518
 30
0.0
 10
372.8558541302457
 20
114.6541189921943
 30
0.0
 10
372.8554655500392
 20
114.653585591373
 30
0.0
 10
372.8514107623649
 20
114.6480138453739
 30
0.0
 10
372.8448168033851
 20
114.6389330962201
 30
0.0
 10
372.8354525424751
 20
114.6259956358593
 30
0.0
 10
372.8234044287051
 20
114.6092771929535
 30
0.0
 10
372.8086818592447
 20
114.5887351821817
 30
0.0
 10
372.7913228663974
 20
114.564353808135
 30
0.0
 10
372.7713656952441
 20
114.5361050640631
 30
0.0
 10
372.7488566455486
 20
114.503959516662
 30
0.0
 10
372.7238474097871
 20
114.4678826766958
 30
0.0
 10
372.6963980402623
 20
114.4278390841765
 30
0.0
 10
372.654474927194
 20
114.3659186408337
 30
0.0
 10
372.5952687519813
 20
114.2766061497348
 30
0.0
 10
372.5154891588599
 20
114.1520615577041
 30
0.0
 10
372.4295083738736
 20
114.0122767652143
 30
0.0
 10
372.3382235866532
 20
113.8578639462304
 30
0.0
 10
372.2750192325963
 20
113.7438179245817
 30
0.0
 10
372.2431030826316
 20
113.6862283805679
 30
0.0
  0
LINE
  5
E8
330
1F
100
AcDbEntity
  8
0
  6
Continuous
 62
     7
370
    25
100
AcDbLine
 10
369.1722101761
 20
104.9729412633
 30
0.0
 11
369.5964475911
 21
105.4217341619
 31
0.0
  0
SPLINE
  5
E9
330
1F
100
AcDbEntity
  8
0
  6
Continuous
 62
     7
370
    25
100
AcDbSpline
210
0.0
220
0.0
230
1.0
 70
     8
 71
     3
 72
    13
 73
     9
 74
     0
 42
0.000000001
 43
0.00000001
 40
0.0
 40
0.0
 40
0.0
 40
0.0
 40
0.1706320847147904
 40
0.3395984166119918
 40
0.5069574112587142
 40
0.6727691831295072
 40
0.8370955448417806
 40
1.0
 40
1.0
 40
1.0
 40
1.0
 10
369.5964475910799
 20
105.4217135194911
 30
0.0
 10
369.6014530614894
 20
105.4147621464072
 30
0.0
 10
369.6114151376622
 20
105.400927261271
 30
0.0
 10
369.6242889655556
 20
105.3847995028122
 30
0.0
 10
369.635555278052
 20
105.3721307726546
 30
0.0
 10
369.645032641487
 20
105.3632743348187
 30
0.0
 10
369.6529148741807
 20
105.3577623063422
 30
0.0
 10
369.656729780413
 20
105.3570839602618
 30
0.0
 10
369.6586289451286
 20
105.3567462610204
 30
0.0
  0
SPLINE
  5
EA
330
1F
100
AcDbEntity
  8
0
  6
Continuous
 62
     7
370
    25
100
AcDbSpline
210
0.0
220
0.0
230
1.0
 70
     8
 71
     3
 72
    13
 73
     9
 74
     0
 42
0.000000001
 43
0.00000001
 40
0.0
 40
0.0
 40
0.0
 40
0.0
 40
0.1621004456571512
 40
0.325943455157606
 40
0.4915935308260523
 40
0.6591130873964648
 40
0.8285624736043361
 40
1.0
 40
1.0
 40
1.0
 40
1.0
 10
390.3110732112758
 20
105.3567462610204
 30
0.0
 10
390.3129503176181
 20
105.357080744121
 30
0.0
 10
390.3167247090109
 20
105.3577533059827
 30
0.0
 10
390.3245717861898
 20
105.3632265903783
 30
0.0
 10
390.334037845965
 20
105.3720460550387
 30
0.0
 10
390.3453187607673
 20
105.3846988120326
 30
0.0
 10
390.3582333792651
 20
105.4008508134291
 30
0.0
 10
390.3682290935108
 20
105.4147366133721
 30
0.0
 10
390.3732560994223
 20
105.4217200061227
 30
0.0
  0
LINE
  5
EB
330
1F
100
AcDbEntity
  8
0
  6
Continuous
 62
     7
370
    25
100
AcDbLine
 10
390.3732690673
 20
105.4217203741
 30
0.0
 11
390.797491232
 21
104.9729412888
 31
0.0
  0
LINE
  5
EC
330
1F
100
AcDbEntity
  8
0
  6
Continuous
 62
     7
370
    25
100
AcDbLine
 10
387.9182798565
 20
105.431746261
 30
0.0
 11
387.9270011661
 21
105.431746261
 31
0.0
  0
SPLINE
  5
ED
330
1F
100
AcDbEntity
  8
0
  6
Continuous
 62
     7
370
    25
100
AcDbSpline
210
0.0
220
0.0
230
1.0
 70
     8
 71
     3
 72
    13
 73
     9
 74
     0
 42
0.000000001
 43
0.00000001
 40
0.0
 40
0.0
 40
0.0
 40
0.0
 40
0.1705273303664273
 40
0.3393382731715426
 40
0.5065592454659538
 40
0.6723203021840038
 40
0.8367549624218799
 40
1.0
 40
1.0
 40
1.0
 40
1.0
 10
387.9270140459132
 20
105.4317461267049
 30
0.0
 10
387.9219786423708
 20
105.423740003938
 30
0.0
 10
387.9119585175078
 20
105.4078083414374
 30
0.0
 10
387.9001554748523
 20
105.3891913163281
 30
0.0
 10
387.890813371141
 20
105.3745523233414
 30
0.0
 10
387.8842177465183
 20
105.3643052538236
 30
0.0
 10
387.8800647238298
 20
105.357922263555
 30
0.0
 10
387.8795388755209
 20
105.3571373119577
 30
0.0
 10
387.8792769058978
 20
105.3567462610204
 30
0.0
  0
SPLINE
  5
EE
330
1F
100
AcDbEntity
  8
0
  6
Continuous
 62
     7
370
    25
100
AcDbSpline
210
0.0
220
0.0
230
1.0
 70
     8
 71
     3
 72
     8
 73
     4
 74
     0
 42
0.000000001
 43
0.00000001
 40
0.0
 40
0.0
 40
0.0
 40
0.0
 40
1.0
 40
1.0
 40
1.0
 40
1.0
 10
390.3732691404152
 20
105.42172061919
 30
0.0
 10
390.3710856561742
 20
105.4245692847063
 30
0.0
 10
390.368902171933
 20
105.4275100761038
 30
0.0
 10
390.3667186876919
 20
105.4305425733804
 30
0.0
  0
LINE
  5
EF
330
1F
100
AcDbEntity
  8
0
  6
Continuous
 62
     7
370
    25
100
AcDbLine
 10
390.3658159446
 20
105.431746261
 30
0.0
 11
387.9270055853
 21
105.431746261
 31
0.0
  0
SPLINE
  5
F0
330
1F
100
AcDbEntity
  8
0
  6
Continuous
 62
     7
370
    25
100
AcDbSpline
210
0.0
220
0.0
230
1.0
 70
     8
 71
     3
 72
     8
 73
     4
 74
     0
 42
0.000000001
 43
0.00000001
 40
0.0
 40
0.0
 40
0.0
 40
0.0
 40
1.0
 40
1.0
 40
1.0
 40
1.0
 10
369.603886235122
 20
105.431746261028
 30
0.0
 10
369.6014003164355
 20
105.428284561716
 30
0.0
 10
369.598914397749
 20
105.4249404098071
 30
0.0
 10
369.5964284790625
 20
105.4217144178667
 30
0.0
  0
LINE
  5
F1
330
1F
100
AcDbEntity
  8
0
  6
Continuous
 62
     7
370
    25
100
AcDbLine
 10
372.0411902917
 20
105.431746261
 30
0.0
 11
369.6041026814
 21
105.431746261
 31
0.0
  0
SPLINE
  5
F2
330
1F
100
AcDbEntity
  8
0
  6
Continuous
 62
     7
370
    25
100
AcDbSpline
210
0.0
220
0.0
230
1.0
 70
     8
 71
     3
 72
    13
 73
     9
 74
     0
 42
0.000000001
 43
0.00000001
 40
0.0
 40
0.0
 40
0.0
 40
0.0
 40
0.163159558385937
 40
0.3275424452471403
 40
0.4932858679977842
 40
0.6605236853047904
 40
0.8293862019218418
 40
1.0
 40
1.0
 40
1.0
 40
1.0
 10
372.0904252505068
 20
105.3567462610204
 30
0.0
 10
372.0901674050202
 20
105.3571369114129
 30
0.0
 10
372.0896497807876
 20
105.3579211411943
 30
0.0
 10
372.0855031845437
 20
105.364299310429
 30
0.0
 10
372.0789099058681
 20
105.3745417565764
 30
0.0
 10
372.0695655109905
 20
105.3891786726252
 30
0.0
 10
372.0577556979769
 20
105.407798531475
 30
0.0
 10
372.0477289806624
 20
105.4237362391225
 30
0.0
 10
372.0426897592227
 20
105.4317462024592
 30
0.0
  0
LINE
  5
F3
330
1F
100
AcDbEntity
  8
0
  6
Continuous
 62
     7
370
    25
100
AcDbLine
 10
372.0427001497
 20
105.431746261
 30
0.0
 11
372.0514222999
 21
105.431746261
 31
0.0
  0
SPLINE
  5
F4
330
1F
100
AcDbEntity
  8
0
  6
Continuous
 62
     7
370
    25
100
AcDbSpline
210
0.0
220
0.0
230
1.0
 70
     8
 71
     3
 72
    14
 73
    10
 74
     0
 42
0.000000001
 43
0.00000001
 40
0.0
 40
0.0
 40
0.0
 40
0.0
 40
0.0310276388056898
 40
0.0622853718658436
 40
0.124800316689171
 40
0.2498289731742531
 40
0.4998892603602845
 40
0.7606803621217882
 40
1.0
 40
1.0
 40
1.0
 40
1.0
 10
369.0247570837431
 20
104.9750080864051
 30
0.0
 10
369.029086377208
 20
104.9797920086829
 30
0.0
 10
369.0377770692414
 20
104.9893953297708
 30
0.0
 10
369.0551778479033
 20
105.0086896437686
 30
0.0
 10
369.0856540077485
 20
105.0424545902224
 30
0.0
 10
369.1464754005682
 20
105.1098733490846
 30
0.0
 10
369.2343657429755
 20
105.2073400239444
 30
0.0
 10
369.33720342306
 20
105.3214845358447
 30
0.0
 10
369.4044095345019
 20
105.3962693488503
 30
0.0
 10
369.4365698961551
 20
105.4320563715009
 30
0.0
  0
LINE
  5
F5
330
1F
100
AcDbEntity
  8
0
  6
Continuous
 62
     7
370
    25
100
AcDbLine
 10
369.436241397
 20
105.431746261
 30
0.0
 11
369.6038862351
 21
105.431746261
 31
0.0
  0
LINE
  5
F6
330
1F
100
AcDbEntity
  8
0
  6
Continuous
 62
     7
370
    25
100
AcDbLine
 10
390.3658159446
 20
105.431746261
 30
0.0
 11
390.5334681439
 21
105.431746261
 31
0.0
  0
SPLINE
  5
F7
330
1F
100
AcDbEntity
  8
0
  6
Continuous
 62
     7
370
    25
100
AcDbSpline
210
0.0
220
0.0
230
1.0
 70
     8
 71
     3
 72
    11
 73
     7
 74
     0
 42
0.000000001
 43
0.00000001
 40
0.0
 40
0.0
 40
0.0
 40
0.0
 40
0.2392913841800824
 40
0.5001130134990213
 40
0.7515028526582183
 40
0.9999999999999999
 40
0.9999999999999999
 40
0.9999999999999999
 40
0.9999999999999999
 10
390.5331643308726
 20
105.4320330635319
 30
0.0
 10
390.5653208838187
 20
105.3962563449892
 30
0.0
 10
390.6325272759447
 20
105.3214838972272
 30
0.0
 10
390.7355553656915
 20
105.2070251839104
 30
0.0
 10
390.8406460303424
 20
105.0908659977767
 30
0.0
 10
390.9103208504229
 20
105.0134780564664
 30
0.0
 10
390.9449566671158
 20
104.9750079958855
 30
0.0
  0
LINE
  5
F8
330
1F
100
AcDbEntity
  8
0
  6
Continuous
 62
     7
370
    25
100
AcDbLine
 10
369.5809584078
 20
113.494246261
 30
0.0
 11
369.4363861118
 21
113.494246261
 31
0.0
  0
SPLINE
  5
F9
330
1F
100
AcDbEntity
  8
0
  6
Continuous
 62
     7
370
    25
100
AcDbSpline
210
0.0
220
0.0
230
1.0
 70
     8
 71
     3
 72
    11
 73
     7
 74
     0
 42
0.000000001
 43
0.00000001
 40
0.0
 40
0.0
 40
0.0
 40
0.0
 40
0.2392845093988677
 40
0.5001120454070203
 40
0.7515010915051096
 40
1.0
 40
1.0
 40
1.0
 40
1.0
 10
369.4366887339926
 20
113.4939604748237
 30
0.0
 10
369.4045276042291
 20
113.5297583238789
 30
0.0
 10
369.337309845633
 20
113.6045769385777
 30
0.0
 10
369.2342651971351
 20
113.7191052028317
 30
0.0
 10
369.1291569682417
 20
113.8353361965087
 30
0.0
 10
369.0594714516141
 20
113.9127706922028
 30
0.0
 10
369.0248301391745
 20
113.9512640935401
 30
0.0
  0
SPLINE
  5
FA
330
1F
100
AcDbEntity
  8
0
  6
Continuous
 62
     7
370
    25
100
AcDbSpline
210
0.0
220
0.0
230
1.0
 70
     8
 71
     3
 72
    14
 73
    10
 74
     0
 42
0.000000001
 43
0.00000001
 40
0.0
 40
0.0
 40
0.0
 40
0.0
 40
0.0310294147494852
 40
0.0622870907573907
 40
0.1248019217237073
 40
0.2498303511440708
 40
0.4998901825562093
 40
0.7606872172475754
 40
1.0
 40
1.0
 40
1.0
 40
1.0
 10
390.9448604019048
 20
113.9512639852639
 30
0.0
 10
390.940530205589
 20
113.9464767986936
 30
0.0
 10
390.9318379587938
 20
113.9368672096382
 30
0.0
 10
390.9144343304462
 20
113.9175612159321
 30
0.0
 10
390.8839535949111
 20
113.8837760002801
 30
0.0
 10
390.823122973189
 20
113.8163168693331
 30
0.0
 10
390.7352180699956
 20
113.7187903635907
 30
0.0
 10
390.6323638253806
 20
113.604576356828
 30
0.0
 10
390.5651463672337
 20
113.5297453967173
 30
0.0
 10
390.532981437857
 20
113.4939372508352
 30
0.0
  0
LINE
  5
FB
330
1F
100
AcDbEntity
  8
0
  6
Continuous
 62
     7
370
    25
100
AcDbLine
 10
390.5333086479
 20
113.494246261
 30
0.0
 11
390.3887437253
 21
113.494246261
 31
0.0
  0
LINE
  5
FC
330
1F
100
AcDbEntity
  8
0
  6
Continuous
 62
     7
370
    25
100
AcDbLine
 10
368.1141832134
 20
107.2756585185
 30
0.0
 11
368.5542458708
 21
107.356746261
 31
0.0
  0
SPLINE
  5
FD
330
1F
100
AcDbEntity
  8
0
  6
Continuous
 62
     7
370
    25
100
AcDbSpline
210
0.0
220
0.0
230
1.0
 70
     8
 71
     3
 72
    25
 73
    21
 74
     0
 42
0.000000001
 43
0.00000001
 40
0.0
 40
0.0
 40
0.0
 40
0.0
 40
0.0274788704227078
 40
0.0560416006857243
 40
0.0856947086360536
 40
0.1164440166547212
 40
0.1482947438689518
 40
0.1812515840476732
 40
0.215318771675261
 40
0.2505001382254886
 40
0.3330514552534775
 40
0.5015081958163802
 40
0.5771663066143478
 40
0.6488981303024356
 40
0.7167477700061747
 40
0.7807674423486898
 40
0.8410194131339189
 40
0.8975784849923677
 40
0.9505352047787786
 40
0.9999999999999999
 40
0.9999999999999999
 40
0.9999999999999999
 40
0.9999999999999999
 10
368.554245870791
 20
107.3567462610204
 30
0.0
 10
368.5609540381345
 20
107.3275640565025
 30
0.0
 10
368.5746349656915
 20
107.268048602353
 30
0.0
 10
368.5973996943456
 20
107.1776581052934
 30
0.0
 10
368.622277331586
 20
107.0845264961718
 30
0.0
 10
368.6494165696036
 20
106.9889404518967
 30
0.0
 10
368.6787779766348
 20
106.8911869822836
 30
0.0
 10
368.7103631469228
 20
106.7916063062267
 30
0.0
 10
368.7442100167873
 20
106.6905971666491
 30
0.0
 10
368.7959112467211
 20
106.5438303593962
 30
0.0
 10
368.9002702597344
 20
106.2795639464824
 30
0.0
 10
369.0211434874183
 20
106.0095943166545
 30
0.0
 10
369.1346365338745
 20
105.7921846419401
 30
0.0
 10
369.2059095014903
 20
105.6624810712096
 30
0.0
 10
369.2679840736163
 20
105.5586059938847
 30
0.0
 10
369.3205680857835
 20
105.4787453600662
 30
0.0
 10
369.363814631711
 20
105.4207267339156
 30
0.0
 10
369.3974214439311
 20
105.3826231752632
 30
0.0
 10
369.4223684268038
 20
105.3606206442684
 30
0.0
 10
369.4313279636658
 20
105.3580080309171
 30
0.0
 10
369.4356550003839
 20
105.3567462610204
 30
0.0
  0
LINE
  5
FE
330
1F
100
AcDbEntity
  8
0
  6
Continuous
 62
     7
370
    25
100
AcDbLine
 10
391.855518943
 20
111.6503340036
 30
0.0
 11
391.4154562856
 21
111.569246261
 31
0.0
  0
SPLINE
  5
FF
330
1F
100
AcDbEntity
  8
0
  6
Continuous
 62
     7
370
    25
100
AcDbSpline
210
0.0
220
0.0
230
1.0
 70
     8
 71
     3
 72
    25
 73
    21
 74
     0
 42
0.000000001
 43
0.00000001
 40
0.0
 40
0.0
 40
0.0
 40
0.0
 40
0.0274788704238429
 40
0.0560416006876697
 40
0.0856947086384853
 40
0.116444016657314
 40
0.1482947438713826
 40
0.1812515840496191
 40
0.2153187716763987
 40
0.2505001382254958
 40
0.3330514552547554
 40
0.5015081958163917
 40
0.5771663066144659
 40
0.64889813030263
 40
0.7167477700064142
 40
0.780767442348944
 40
0.8410194131341576
 40
0.8975784849925587
 40
0.9505352047788901
 40
1.0
 40
1.0
 40
1.0
 40
1.0
 10
391.4154562856135
 20
111.5692462610204
 30
0.0
 10
391.4087481182697
 20
111.5984284655395
 30
0.0
 10
391.3950671907123
 20
111.657943919691
 30
0.0
 10
391.3723024620576
 20
111.7483344167531
 30
0.0
 10
391.3474248248168
 20
111.8414660258763
 30
0.0
 10
391.3202855867992
 20
111.9370520701519
 30
0.0
 10
391.290924179768
 20
112.0348055397643
 30
0.0
 10
391.2593390094805
 20
112.1343862158196
 30
0.0
 10
391.2254921396164
 20
112.2353953553948
 30
0.0
 10
391.1737909096823
 20
112.3821621626467
 30
0.0
 10
391.0694318966695
 20
112.6464285755594
 30
0.0
 10
390.9485586689856
 20
112.9163982053872
 30
0.0
 10
390.83506562253
 20
113.1338078801009
 30
0.0
 10
390.7637926549141
 20
113.2635114508315
 30
0.0
 10
390.7017180827883
 20
113.3673865281563
 30
0.0
 10
390.649134070621
 20
113.4472471619748
 30
0.0
 10
390.6058875246935
 20
113.5052657881253
 30
0.0
 10
390.5722807124733
 20
113.5433693467777
 30
0.0
 10
390.5473337296007
 20
113.5653718777723
 30
0.0
 10
390.5383741927387
 20
113.5679844911236
 30
0.0
 10
390.5340471560207
 20
113.5692462610204
 30
0.0
  0
SPLINE
  5
100
330
1F
100
AcDbEntity
  8
0
  6
Continuous
 62
     7
370
    25
100
AcDbSpline
210
0.0
220
0.0
230
1.0
 70
     8
 71
     3
 72
    25
 73
    21
 74
     0
 42
0.000000001
 43
0.00000001
 40
0.0
 40
0.0
 40
0.0
 40
0.0
 40
0.0288821753085224
 40
0.0583636593970509
 40
0.0884647204261505
 40
0.1192044006569852
 40
0.1506005800041717
 40
0.1826700399634661
 40
0.2154285269555558
 40
0.2488908143379429
 40
0.3610594471043705
 40
0.4984670131067063
 40
0.5822693905004617
 40
0.6661127642780392
 40
0.7499972937223975
 40
0.8007709755012506
 40
0.8511237700778294
 40
0.9010896024477144
 40
0.9507031914089353
 40
1.0
 40
1.0
 40
1.0
 40
1.0
 10
369.4356550003839
 20
113.5692462610204
 30
0.0
 10
369.4333647320063
 20
113.5688180190445
 30
0.0
 10
369.4287366718936
 20
113.5679526490179
 30
0.0
 10
369.4184264088066
 20
113.5608777163172
 30
0.0
 10
369.405590339576
 20
113.549309175158
 30
0.0
 10
369.3899767808333
 20
113.5326035990466
 30
0.0
 10
369.3716553374206
 20
113.5106666880311
 30
0.0
 10
369.3506077515892
 20
113.4832690525462
 30
0.0
 10
369.3268361795967
 20
113.4502345718628
 30
0.0
 10
369.2797796501675
 20
113.381243905741
 30
0.0
 10
369.1920852323083
 20
113.2412179363228
 30
0.0
 10
369.074533577776
 20
113.0219226351219
 30
0.0
 10
368.9630114134309
 20
112.7849925743347
 30
0.0
 10
368.8715520960827
 20
112.5691507004248
 30
0.0
 10
368.7906704449044
 20
112.3675890795468
 30
0.0
 10
368.7245255430363
 20
112.1887209991604
 30
0.0
 10
368.6751749822106
 20
112.0373447980224
 30
0.0
 10
368.6302079653457
 20
111.8831006428997
 30
0.0
 10
368.5894502514254
 20
111.7269447878184
 30
0.0
 10
368.5659555822069
 20
111.6217000808646
 30
0.0
 10
368.5542458707911
 20
111.5692462610204
 30
0.0
  0
LINE
  5
101
330
1F
100
AcDbEntity
  8
0
  6
Continuous
 62
     7
370
    25
100
AcDbLine
 10
368.1141832134
 20
111.6503340036
 30
0.0
 11
368.5542458708
 21
111.569246261
 31
0.0
  0
SPLINE
  5
102
330
1F
100
AcDbEntity
  8
0
  6
Continuous
 62
     7
370
    25
100
AcDbSpline
210
0.0
220
0.0
230
1.0
 70
     8
 71
     3
 72
    25
 73
    21
 74
     0
 42
0.000000001
 43
0.00000001
 40
0.0
 40
0.0
 40
0.0
 40
0.0
 40
0.0288821753102511
 40
0.0583636594000142
 40
0.0884647204298522
 40
0.1192044006609317
 40
0.1506005800078716
 40
0.1826700399664301
 40
0.2154285269572978
 40
0.2488908143379817
 40
0.3610594471164473
 40
0.4984670131067579
 40
0.5822693905006365
 40
0.6661127642782113
 40
0.7499972937224397
 40
0.8007709755032377
 40
0.8511237700807887
 40
0.9010896024506684
 40
0.9507031914109043
 40
1.0
 40
1.0
 40
1.0
 40
1.0
 10
390.5340471560207
 20
105.3567462610204
 30
0.0
 10
390.5363374243983
 20
105.3571745029962
 30
0.0
 10
390.5409654845112
 20
105.358039873023
 30
0.0
 10
390.5512757475985
 20
105.3651148057243
 30
0.0
 10
390.5641118168293
 20
105.3766833468844
 30
0.0
 10
390.5797253755719
 20
105.3933889229965
 30
0.0
 10
390.5980468189846
 20
105.4153258340125
 30
0.0
 10
390.6190944048157
 20
105.4427234694973
 30
0.0
 10
390.642865976808
 20
105.4757579501798
 30
0.0
 10
390.6899225062418
 20
105.5447486163051
 30
0.0
 10
390.7776169240997
 20
105.6847745857253
 30
0.0
 10
390.8951685786324
 20
105.9040698869284
 30
0.0
 10
391.0066907429751
 20
106.1409999477059
 30
0.0
 10
391.0981500603232
 20
106.3568418216158
 30
0.0
 10
391.179031711501
 20
106.5584034424959
 30
0.0
 10
391.2451766133691
 20
106.7372715228853
 30
0.0
 10
391.2945271741955
 20
106.8886477240265
 30
0.0
 10
391.3394941910605
 20
107.0428918791494
 30
0.0
 10
391.3802519049802
 20
107.1990477342275
 30
0.0
 10
391.403746574198
 20
107.3042924411783
 30
0.0
 10
391.4154562856135
 20
107.3567462610204
 30
0.0
  0
LINE
  5
103
330
1F
100
AcDbEntity
  8
0
  6
Continuous
 62
     7
370
    25
100
AcDbLine
 10
391.855518943
 20
107.2756585185
 30
0.0
 11
391.4154562856
 21
107.356746261
 31
0.0
  0
SPLINE
  5
104
330
1F
100
AcDbEntity
  8
0
  6
Continuous
 62
     7
370
    25
100
AcDbSpline
210
0.0
220
0.0
230
1.0
 70
     8
 71
     3
 72
    16
 73
    12
 74
     0
 42
0.000000001
 43
0.00000001
 40
0.0
 40
0.0
 40
0.0
 40
0.0
 40
0.0870061775074587
 40
0.1851056111355291
 40
0.2943803716251409
 40
0.3925759841529199
 40
0.4909775276861052
 40
0.5895880030703908
 40
0.7549180486651427
 40
0.9066441298749784
 40
0.9999999999999999
 40
0.9999999999999999
 40
0.9999999999999999
 40
0.9999999999999999
 10
371.0869931899237
 20
111.5692462610204
 30
0.0
 10
371.1092808963592
 20
111.6472028486036
 30
0.0
 10
371.1566979837284
 20
111.8130554604528
 30
0.0
 10
371.2436602092639
 20
112.0695504731909
 30
0.0
 10
371.3404212349288
 20
112.3245572469025
 30
0.0
 10
371.4410777600135
 20
112.5645975424314
 30
0.0
 10
371.5385984550894
 20
112.7796130468484
 30
0.0
 10
371.6626855307675
 20
113.0182241591202
 30
0.0
 10
371.7933646801619
 20
113.2490387719367
 30
0.0
 10
371.8973234468029
 20
113.4277035127
 30
0.0
 10
371.9318046321015
 20
113.4822046191932
 30
0.0
 10
371.9449391001396
 20
113.5029650146109
 30
0.0
  0
SPLINE
  5
105
330
1F
100
AcDbEntity
  8
0
  6
Continuous
 62
     7
370
    25
100
AcDbSpline
210
0.0
220
0.0
230
1.0
 70
     8
 71
     3
 72
    16
 73
    12
 74
     0
 42
0.000000001
 43
0.00000001
 40
0.0
 40
0.0
 40
0.0
 40
0.0
 40
0.0880319371339328
 40
0.1872879143798576
 40
0.2978509700519604
 40
0.3972042600988014
 40
0.4967659089756308
 40
0.5965389529066326
 40
0.7638181576519493
 40
0.917333014028731
 40
1.0
 40
1.0
 40
1.0
 40
1.0
 10
388.8827089664808
 20
107.3567462610204
 30
0.0
 10
388.8604212674982
 20
107.2787896875349
 30
0.0
 10
388.813004195982
 20
107.1129371056692
 30
0.0
 10
388.7260418347599
 20
106.8564418363438
 30
0.0
 10
388.6292813743437
 20
106.6014361315288
 30
0.0
 10
388.5286228994348
 20
106.3613921488101
 30
0.0
 10
388.4311093247322
 20
106.1463901092576
 30
0.0
 10
388.3069895679087
 20
105.9077171958504
 30
0.0
 10
388.1765103116127
 20
105.6772805875893
 30
0.0
 10
388.074865149788
 20
105.5024820434921
 30
0.0
 10
388.0417661119814
 20
105.4500857166429
 30
0.0
 10
388.0301809805132
 20
105.4317462610204
 30
0.0
  0
SPLINE
  5
106
330
1F
100
AcDbEntity
  8
0
  6
Continuous
 62
     7
370
    25
100
AcDbSpline
210
0.0
220
0.0
230
1.0
 70
     8
 71
     3
 72
    15
 73
    11
 74
     0
 42
0.000000001
 43
0.00000001
 40
0.0
 40
0.0
 40
0.0
 40
0.0
 40
0.0210215873997391
 40
0.0995174370234918
 40
0.2360970702300488
 40
0.3979402345642526
 40
0.5486163820120215
 40
0.700032141451838
 40
0.8517813609343974
 40
1.0
 40
1.0
 40
1.0
 40
1.0
 10
371.9380753725966
 20
105.4317462610204
 30
0.0
 10
371.9352265617724
 20
105.4362309085215
 30
0.0
 10
371.9217401229793
 20
105.4574614948127
 30
0.0
 10
371.8743341490364
 20
105.5345964320382
 30
0.0
 10
371.7811908202351
 20
105.690526413913
 30
0.0
 10
371.6447717998963
 20
105.9395416386172
 30
0.0
 10
371.4954486196599
 20
106.249180491171
 30
0.0
 10
371.342284923127
 20
106.5911448806999
 30
0.0
 10
371.1966509304565
 20
106.9622532065934
 30
0.0
 10
371.123257827862
 20
107.2262844466656
 30
0.0
 10
371.0869931899237
 20
107.3567462610204
 30
0.0
  0
LINE
  5
107
330
1F
100
AcDbEntity
  8
0
  6
Continuous
 62
     7
370
    25
100
AcDbLine
 10
371.4032533473
 20
107.4316095556
 30
0.0
 11
371.0869931899
 21
107.356746261
 31
0.0
  0
SPLINE
  5
108
330
1F
100
AcDbEntity
  8
0
  6
Continuous
 62
     7
370
    25
100
AcDbSpline
210
0.0
220
0.0
230
1.0
 70
     8
 71
     3
 72
    25
 73
    21
 74
     0
 42
0.000000001
 43
0.00000001
 40
0.0
 40
0.0
 40
0.0
 40
0.0
 40
0.0269872354797669
 40
0.0539362690259618
 40
0.0809037148829035
 40
0.1079460716545392
 40
0.1351193706855853
 40
0.162478838835575
 40
0.190078585418252
 40
0.2179713214290535
 40
0.2462081170984584
 40
0.3700050494705653
 40
0.4947542611659071
 40
0.6210439034695193
 40
0.7446557472315123
 40
0.7967060293738726
 40
0.8478613449329371
 40
0.8985210411990388
 40
0.9490962115257747
 40
1.0
 40
1.0
 40
1.0
 40
1.0
 10
371.4032533472651
 20
107.4316095556205
 30
0.0
 10
371.4110340919892
 20
107.3992131505928
 30
0.0
 10
371.4265845673602
 20
107.3344661994515
 30
0.0
 10
371.4512699733335
 20
107.2378196630228
 30
0.0
 10
371.4768899303324
 20
107.1417255745315
 30
0.0
 10
371.5035327939599
 20
107.0462133038148
 30
0.0
 10
371.5311579792444
 20
106.9512885764221
 30
0.0
 10
371.5597597583037
 20
106.8569624202864
 30
0.0
 10
371.5893218479452
 20
106.7632460758372
 30
0.0
 10
371.6198349949923
 20
106.6701419919469
 30
0.0
 10
371.6865691995816
 20
106.4738767498339
 30
0.0
 10
371.7937523756773
 20
106.1878036342305
 30
0.0
 10
371.9375324659862
 20
105.8505137382372
 30
0.0
 10
372.070780922198
 20
105.5690045614137
 30
0.0
 10
372.1584520984112
 20
105.3980136312353
 30
0.0
 10
372.2093271342035
 20
105.3021008128528
 30
0.0
 10
372.2369962888549
 20
105.2508836093982
 30
0.0
 10
372.2566952069724
 20
105.2149008153131
 30
0.0
 10
372.268942715676
 20
105.1927309269911
 30
0.0
 10
372.270229508832
 20
105.1904114592575
 30
0.0
 10
372.2708749889138
 20
105.1892479698379
 30
0.0
  0
LINE
  5
109
330
1F
100
AcDbEntity
  8
0
  6
Continuous
 62
     7
370
    25
100
AcDbLine
 10
371.4032533473
 20
111.4943829664
 30
0.0
 11
371.0869931899
 21
111.569246261
 31
0.0
  0
SPLINE
  5
10A
330
1F
100
AcDbEntity
  8
0
  6
Continuous
 62
     7
370
    25
100
AcDbSpline
210
0.0
220
0.0
230
1.0
 70
     8
 71
     3
 72
    25
 73
    21
 74
     0
 42
0.000000001
 43
0.00000001
 40
0.0
 40
0.0
 40
0.0
 40
0.0
 40
0.0278144320063462
 40
0.0555680196245754
 40
0.083331625367772
 40
0.111176035216759
 40
0.1391714221532265
 40
0.1673868326284763
 40
0.1958897140434718
 40
0.2247454979318961
 40
0.254017249222145
 40
0.3796724410016501
 40
0.5056484635002454
 40
0.629752729069345
 40
0.7535891720571729
 40
0.8038564806093713
 40
0.853339684343451
 40
0.9023264398358534
 40
0.9511131859219439
 40
1.0
 40
1.0
 40
1.0
 40
1.0
 10
372.2708749889138
 20
113.7367445522029
 30
0.0
 10
372.270727237599
 20
113.7364780096493
 30
0.0
 10
372.2704320581773
 20
113.7359455076071
 30
0.0
 10
372.2668073591615
 20
113.729398058911
 30
0.0
 10
372.2608614634912
 20
113.7186288156248
 30
0.0
 10
372.2523867405761
 20
113.7032180797004
 30
0.0
 10
372.241471753737
 20
113.6832617034467
 30
0.0
 10
372.2281356854986
 20
113.6587116069762
 30
0.0
 10
372.2124279208116
 20
113.6295549832203
 30
0.0
 10
372.1943963326538
 20
113.5957590117869
 30
0.0
 10
372.1519787879054
 20
113.5153522537291
 30
0.0
 10
372.0714577481519
 20
113.3583638040584
 30
0.0
 10
371.9380314012773
 20
113.0765780663111
 30
0.0
 10
371.7939544245942
 20
112.7387059566841
 30
0.0
 10
371.6782766731429
 20
112.4300250429458
 30
0.0
 10
371.5957651979256
 20
112.1839943231908
 30
0.0
 10
371.5428435734004
 20
112.0151684319176
 30
0.0
 10
371.4929864390231
 20
111.8438528609058
 30
0.0
 10
371.4459684457925
 20
111.670170510685
 30
0.0
 10
371.417501435064
 20
111.5530188223816
 30
0.0
 10
371.4032533472651
 20
111.4943829664202
 30
0.0
  0
SPLINE
  5
10B
330
1F
100
AcDbEntity
  8
0
  6
Continuous
 62
     7
370
    25
100
AcDbSpline
210
0.0
220
0.0
230
1.0
 70
     8
 71
     3
 72
    15
 73
    11
 74
     0
 42
0.000000001
 43
0.00000001
 40
0.0
 40
0.0
 40
0.0
 40
0.0
 40
0.0210215874028217
 40
0.0995174370237692
 40
0.2360970702364024
 40
0.3979402345644331
 40
0.5486163820121709
 40
0.7000321414519293
 40
0.8517813609347173
 40
1.0
 40
1.0
 40
1.0
 40
1.0
 10
388.0316267838064
 20
113.4942462610204
 30
0.0
 10
388.0344755946311
 20
113.4897616135185
 30
0.0
 10
388.0479620334243
 20
113.468531027227
 30
0.0
 10
388.0953680073708
 20
113.3913960899996
 30
0.0
 10
388.188511336172
 20
113.2354661081247
 30
0.0
 10
388.32493035651
 20
112.9864508834194
 30
0.0
 10
388.4742535367449
 20
112.6768120308697
 30
0.0
 10
388.6274172332775
 20
112.3348476413406
 30
0.0
 10
388.7730512259479
 20
111.9637393154471
 30
0.0
 10
388.8464443285425
 20
111.6997080753749
 30
0.0
 10
388.8827089664808
 20
111.5692462610204
 30
0.0
  0
LINE
  5
10C
330
1F
100
AcDbEntity
  8
0
  6
Continuous
 62
     7
370
    25
100
AcDbLine
 10
388.5664488091
 20
111.4943829664
 30
0.0
 11
388.8827089665
 21
111.569246261
 31
0.0
  0
SPLINE
  5
10D
330
1F
100
AcDbEntity
  8
0
  6
Continuous
 62
     7
370
    25
100
AcDbSpline
210
0.0
220
0.0
230
1.0
 70
     8
 71
     3
 72
    14
 73
    10
 74
     0
 42
0.000000001
 43
0.00000001
 40
0.0
 40
0.0
 40
0.0
 40
0.0
 40
0.1400505389350869
 40
0.2837941391411494
 40
0.4267315409806283
 40
0.5707684557847066
 40
0.7165839699846572
 40
0.859307666324277
 40
1.0
 40
1.0
 40
1.0
 40
1.0
 10
388.5664488091394
 20
111.4943829664202
 30
0.0
 10
388.5296818799371
 20
111.6399429976638
 30
0.0
 10
388.4551784963645
 20
111.9349014039237
 30
0.0
 10
388.319989277179
 20
112.3529654127976
 30
0.0
 10
388.176104874075
 20
112.7380181062322
 30
0.0
 10
388.0319681341028
 20
113.0758261148176
 30
0.0
 10
387.8995724613206
 20
113.3557669054418
 30
0.0
 10
387.7886516804967
 20
113.571907393078
 30
0.0
 10
387.7473162000592
 20
113.6479705387621
 30
0.0
 10
387.7267965942839
 20
113.6857295232219
 30
0.0
  0
LINE
  5
10E
330
1F
100
AcDbEntity
  8
0
  6
Continuous
 62
     7
370
    25
100
AcDbLine
 10
388.5664488091
 20
107.4316095556
 30
0.0
 11
388.8827089665
 21
107.356746261
 31
0.0
  0
SPLINE
  5
10F
330
1F
100
AcDbEntity
  8
0
  6
Continuous
 62
     7
370
    25
100
AcDbSpline
210
0.0
220
0.0
230
1.0
 70
     8
 71
     3
 72
    25
 73
    21
 74
     0
 42
0.000000001
 43
0.00000001
 40
0.0
 40
0.0
 40
0.0
 40
0.0
 40
0.0278144320057649
 40
0.0555680196235595
 40
0.083331625366468
 40
0.1111760352153128
 40
0.1391714221517827
 40
0.1673868326271739
 40
0.195889714042447
 40
0.2247454979312803
 40
0.2540172492220635
 40
0.3796724409988544
 40
0.505648463500191
 40
0.6297527290689083
 40
0.7535891720572004
 40
0.803856480609888
 40
0.85333968434422
 40
0.902326439836625
 40
0.9511131859224594
 40
1.0
 40
1.0
 40
1.0
 40
1.0
 10
387.6988271674908
 20
105.1892479698379
 30
0.0
 10
387.6989749188054
 20
105.1895145123914
 30
0.0
 10
387.6992700982273
 20
105.1900470144337
 30
0.0
 10
387.702894797243
 20
105.1965944631298
 30
0.0
 10
387.7088406929133
 20
105.207363706416
 30
0.0
 10
387.7173154158284
 20
105.2227744423404
 30
0.0
 10
387.7282304026676
 20
105.2427308185941
 30
0.0
 10
387.741566470906
 20
105.2672809150646
 30
0.0
 10
387.7572742355929
 20
105.2964375388205
 30
0.0
 10
387.7753058237508
 20
105.3302335102539
 30
0.0
 10
387.8177233684979
 20
105.4106402683092
 30
0.0
 10
387.8982444082517
 20
105.5676287179804
 30
0.0
 10
388.0316707551261
 20
105.8494144557272
 30
0.0
 10
388.1757477318096
 20
106.1872865653551
 30
0.0
 10
388.2914254832616
 20
106.4959674790949
 30
0.0
 10
388.3739369584794
 20
106.7419981988515
 30
0.0
 10
388.4268585830048
 20
106.9108240901256
 30
0.0
 10
388.4767157173821
 20
107.0821396611374
 30
0.0
 10
388.5237337106124
 20
107.2558220113573
 30
0.0
 10
388.5522007213407
 20
107.3729736996597
 30
0.0
 10
388.5664488091394
 20
107.4316095556205
 30
0.0
  0
ARC
  5
110
330
1F
100
AcDbEntity
  8
0
  6
Continuous
 62
     7
370
    25
100
AcDbCircle
 10
379.9848510782
 20
109.462996261
 30
0.0
 40
11.62303852141066
100
AcDbArc
 50
169.5595567507
 51
190.4404432494
  0
ARC
  5
111
330
1F
100
AcDbEntity
  8
0
  6
Continuous
 62
     7
370
    25
100
AcDbCircle
 10
379.9848510782
 20
109.462996261
 30
0.0
 40
9.143750000000006
100
AcDbArc
 50
166.6824039243
 51
193.3175960757
  0
ARC
  5
112
330
1F
100
AcDbEntity
  8
0
  6
Continuous
 62
     7
370
    25
100
AcDbCircle
 10
379.9848510782
 20
109.462996261
 30
0.0
 40
8.818749999999966
100
AcDbArc
 50
166.6824039243
 51
193.3175960757
  0
ARC
  5
113
330
1F
100
AcDbEntity
  8
0
  6
Continuous
 62
     7
370
    25
100
AcDbCircle
 10
379.9848510782
 20
109.462996261
 30
0.0
 40
9.143750000000061
100
AcDbArc
 50
346.6824039243
 51
13.3175960757
  0
ARC
  5
114
330
1F
100
AcDbEntity
  8
0
  6
Continuous
 62
     7
370
    25
100
AcDbCircle
 10
379.9848510782
 20
109.462996261
 30
0.0
 40
8.818750000000078
100
AcDbArc
 50
346.6824039243
 51
13.3175960757
  0
ARC
  5
115
330
1F
100
AcDbEntity
  8
0
  6
Continuous
 62
     7
370
    25
100
AcDbCircle
 10
379.9848510782
 20
109.462996261
 30
0.0
 40
11.6230385214107
100
AcDbArc
 50
349.5595567507
 51
10.4404432493
  0
CIRCLE
  5
116
330
1F
100
AcDbEntity
  8
0
  6
Continuous
 62
     7
370
    25
100
AcDbCircle
 10
379.9848510782
 20
109.462996261
 30
0.0
 40
7.774999999999977
  0
CIRCLE
  5
117
330
1F
100
AcDbEntity
  8
0
  6
Continuous
 62
     7
370
    25
100
AcDbCircle
 10
379.9848510782
 20
109.462996261
 30
0.0
 40
2.615470053837839
  0
CIRCLE
  5
118
330
1F
100
AcDbEntity
  8
0
  6
Continuous
 62
     7
370
    25
100
AcDbCircle
 10
379.9848510782
 20
109.462996261
 30
0.0
 40
2.5
  0
CIRCLE
  5
119
330
1F
100
AcDbEntity
  8
0
  6
Continuous
 62
     7
370
    25
100
AcDbCircle
 10
379.9848510782
 20
109.462996261
 30
0.0
 40
15.73749999999995
  0
CIRCLE
  5
11A
330
1F
100
AcDbEntity
  8
0
  6
Continuous
 62
     7
370
    25
100
AcDbCircle
 10
379.9848510782
 20
109.462996261
 30
0.0
 40
13.42499999999995
  0
CIRCLE
  5
11B
330
1F
100
AcDbEntity
  8
0
  6
Continuous
 62
     7
370
    25
100
AcDbCircle
 10
379.9848510782
 20
109.462996261
 30
0.0
 40
2.0
  0
LINE
  5
11C
330
1F
100
AcDbEntity
  8
0
  6
CENTER
 62
     7
370
    18
100
AcDbLine
 10
379.9848510782
 20
109.462996261
 30
0.0
 11
379.9848510782
 21
128.977496261
 31
0.0
  0
LINE
  5
11D
330
1F
100
AcDbEntity
  8
0
  6
CENTER
 62
     7
370
    18
100
AcDbLine
 10
379.9848510782
 20
109.462996261
 30
0.0
 11
399.4993510782
 21
109.462996261
 31
0.0
  0
LINE
  5
11E
330
1F
100
AcDbEntity
  8
0
  6
Continuous
 62
     7
370
    18
100
AcDbLine
 10
391.9848510782
 20
126.977496261
 30
0.0
 11
379.9848510782
 21
126.977496261
 31
0.0
  0
SOLID
  5
11F
330
1F
100
AcDbEntity
  8
0
  6
Continuous
 62
     7
370
    18
100
AcDbTrace
 10
379.9848510782
 20
126.977496261
 30
0.0
 11
385.9848510782
 21
125.477496261
 31
0.0
 12
385.9848510782
 22
128.477496261
 32
0.0
 13
385.9848510782
 23
128.477496261
 33
0.0
  0
LINE
  5
120
330
1F
100
AcDbEntity
  8
0
  6
Continuous
 62
     7
370
    18
100
AcDbLine
 10
409.4993510782
 20
109.462996261
 30
0.0
 11
397.4993510782
 21
109.462996261
 31
0.0
  0
SOLID
  5
121
330
1F
100
AcDbEntity
  8
0
  6
Continuous
 62
     7
370
    18
100
AcDbTrace
 10
397.4993510782
 20
109.462996261
 30
0.0
 11
403.4993510782
 21
107.962996261
 31
0.0
 12
403.4993510782
 22
110.962996261
 32
0.0
 13
403.4993510782
 23
110.962996261
 33
0.0
  0
MTEXT
  5
122
330
1F
100
AcDbEntity
  8
0
  6
Continuous
 62
     7
100
AcDbMText
 10
388.8374703342
 20
133.6237894777
 30
0.0
 40
3.5
 41
0.0
 71
     1
 72
     1
  1
A
  7
SLDTEXTSTYLE0
 73
     1
 44
1.0
  0
MTEXT
  5
123
330
1F
100
AcDbEntity
  8
0
  6
Continuous
 62
     7
100
AcDbMText
 10
406.3519703342
 20
107.2497806199
 30
0.0
 40
3.5
 41
0.0
 71
     1
 72
     1
  1
A
  7
SLDTEXTSTYLE0
 73
     1
 44
1.0
  0
LINE
  5
124
330
1F
100
AcDbEntity
  8
VERMASSUNG
  6
CENTERX2
370
    18
100
AcDbLine
 10
391.6530299008
 20
112.492996261
 30
0.0
 11
385.3065828967
 21
112.492996261
 31
0.0
  0
LINE
  5
125
330
1F
100
AcDbEntity
  8
VERMASSUNG
  6
CENTERX2
370
    18
100
AcDbLine
 10
392.6222676938
 20
111.569246261
 30
0.0
 11
385.8533179528
 21
111.569246261
 31
0.0
  0
LINE
  5
126
330
1F
100
AcDbEntity
  8
VERMASSUNG
  6
CENTERX2
370
    18
100
AcDbLine
 10
392.6216220516
 20
107.356746261
 30
0.0
 11
385.8517767068
 21
107.356746261
 31
0.0
  0
LINE
  5
127
330
1F
100
AcDbEntity
  8
VERMASSUNG
  6
CENTERX2
370
    18
100
AcDbLine
 10
373.3791705599
 20
107.356746261
 30
0.0
 11
366.4244512156
 21
107.356746261
 31
0.0
  0
LINE
  5
128
330
1F
100
AcDbEntity
  8
VERMASSUNG
  6
CENTERX2
370
    18
100
AcDbLine
 10
373.194643668
 20
111.569246261
 30
0.0
 11
366.4247983232
 21
111.569246261
 31
0.0
  0
LINE
  5
129
330
1F
100
AcDbEntity
  8
VERMASSUNG
  6
CENTERX2
370
    18
100
AcDbLine
 10
373.8811487523
 20
112.492996261
 30
0.0
 11
367.5368307036
 21
112.492996261
 31
0.0
  0
ARC
  5
12A
330
1F
100
AcDbEntity
  8
0
  6
Continuous
 62
     7
370
    25
100
AcDbCircle
 10
138.8875455793
 20
78.187996261
 30
0.0
 40
0.2000000000000171
100
AcDbArc
 50
180.0
 51
270.0
  0
LINE
  5
12B
330
1F
100
AcDbEntity
  8
0
  6
Continuous
 62
     7
370
    25
100
AcDbLine
 10
151.9217433839
 20
77.987996261
 30
0.0
 11
156.6875455793
 21
77.987996261
 31
0.0
  0
LINE
  5
12C
330
1F
100
AcDbEntity
  8
0
  6
Continuous
 62
     7
370
    25
100
AcDbLine
 10
138.8875455793
 20
77.987996261
 30
0.0
 11
145.2533477747
 21
77.987996261
 31
0.0
  0
LINE
  5
12D
330
1F
100
AcDbEntity
  8
0
  6
Continuous
 62
     7
370
    25
100
AcDbLine
 10
145.2533477747
 20
77.987996261
 30
0.0
 11
146.7125455793
 21
80.5154009968
 31
0.0
  0
LINE
  5
12E
330
1F
100
AcDbEntity
  8
0
  6
Continuous
 62
     7
370
    25
100
AcDbLine
 10
150.4625455793
 20
80.5154009968
 30
0.0
 11
151.9217433839
 21
77.987996261
 31
0.0
  0
ARC
  5
12F
330
1F
100
AcDbEntity
  8
0
  6
Continuous
 62
     7
370
    25
100
AcDbCircle
 10
147.7125455793
 20
80.612996261
 30
0.0
 40
1.0
100
AcDbArc
 50
90.0
 51
180.0
  0
ARC
  5
130
330
1F
100
AcDbEntity
  8
0
  6
Continuous
 62
     7
370
    25
100
AcDbCircle
 10
149.4625455793
 20
80.612996261
 30
0.0
 40
1.0
100
AcDbArc
 50
0.0
 51
90.0
  0
LINE
  5
131
330
1F
100
AcDbEntity
  8
0
  6
Continuous
 62
     7
370
    25
100
AcDbLine
 10
147.7125455793
 20
81.612996261
 30
0.0
 11
149.4625455793
 21
81.612996261
 31
0.0
  0
ARC
  5
132
330
1F
100
AcDbEntity
  8
0
  6
Continuous
 62
     7
370
    25
100
AcDbCircle
 10
138.2586107047
 20
83.912996261
 30
0.0
 40
0.8000000000000181
100
AcDbArc
 50
57.576802718
 51
107.5
  0
LINE
  5
133
330
1F
100
AcDbEntity
  8
0
  6
Continuous
 62
     7
370
    25
100
AcDbLine
 10
124.2011001113
 20
85.1904757403
 30
0.0
 11
137.5273635393
 21
84.5212582155
 31
0.0
  0
LINE
  5
134
330
1F
100
AcDbEntity
  8
0
  6
Continuous
 62
     7
370
    25
100
AcDbLine
 10
100.2375455793
 20
86.3938761334
 30
0.0
 11
108.2923824428
 21
85.9893788025
 31
0.0
  0
LINE
  5
135
330
1F
100
AcDbEntity
  8
0
  6
Continuous
 62
     7
370
    25
100
AcDbLine
 10
137.5273635393
 20
84.5212582155
 30
0.0
 11
138.0180460651
 21
84.6759698216
 31
0.0
  0
ARC
  5
136
330
1F
100
AcDbEntity
  8
0
  6
Continuous
 62
     7
370
    25
100
AcDbCircle
 10
159.6875455793
 20
85.462996261
 30
0.0
 40
2.999999999999986
100
AcDbArc
 50
90.0
 51
180.0
  0
LINE
  5
137
330
1F
100
AcDbEntity
  8
0
  6
Continuous
 62
     7
370
    25
100
AcDbLine
 10
98.7375455793
 20
87.2599015372
 30
0.0
 11
100.2375455793
 21
86.3938761334
 31
0.0
  0
LINE
  5
138
330
1F
100
AcDbEntity
  8
0
  6
Continuous
 62
     7
370
    25
100
AcDbLine
 10
159.6875455793
 20
88.462996261
 30
0.0
 11
185.8205040562
 21
88.462996261
 31
0.0
  0
LINE
  5
139
330
1F
100
AcDbEntity
  8
0
  6
Continuous
 62
     7
370
    25
100
AcDbLine
 10
185.8205040562
 20
88.462996261
 30
0.0
 11
197.5327821028
 21
93.9245212086
 31
0.0
  0
ARC
  5
13A
330
1F
100
AcDbEntity
  8
0
  6
Continuous
 62
     7
370
    25
100
AcDbCircle
 10
196.6875455793
 20
95.7371367826
 30
0.0
 40
2.000000000000001
100
AcDbArc
 50
295.0
 51
0.0
  0
LINE
  5
13B
330
1F
100
AcDbEntity
  8
0
  6
Continuous
 62
     7
370
    25
100
AcDbLine
 10
172.6875455793
 20
113.962996261
 30
0.0
 11
170.6875455793
 21
115.962996261
 31
0.0
  0
LINE
  5
13C
330
1F
100
AcDbEntity
  8
0
  6
Continuous
 62
     7
370
    25
100
AcDbLine
 10
170.6875455793
 20
115.962996261
 30
0.0
 11
170.6875455793
 21
129.562996261
 31
0.0
  0
LINE
  5
13D
330
1F
100
AcDbEntity
  8
0
  6
Continuous
 62
     7
370
    25
100
AcDbLine
 10
170.6875455793
 20
129.562996261
 30
0.0
 11
171.5875455793
 21
130.462996261
 31
0.0
  0
LINE
  5
13E
330
1F
100
AcDbEntity
  8
0
  6
Continuous
 62
     7
370
    25
100
AcDbLine
 10
171.5875455793
 20
130.462996261
 30
0.0
 11
173.6875455793
 21
130.462996261
 31
0.0
  0
LINE
  5
13F
330
1F
100
AcDbEntity
  8
0
  6
Continuous
 62
     7
370
    25
100
AcDbLine
 10
173.6875455793
 20
122.462996261
 30
0.0
 11
173.6875455793
 21
130.462996261
 31
0.0
  0
LINE
  5
140
330
1F
100
AcDbEntity
  8
0
  6
Continuous
 62
     7
370
    25
100
AcDbLine
 10
179.6875455793
 20
122.462996261
 30
0.0
 11
173.6875455793
 21
122.462996261
 31
0.0
  0
LINE
  5
141
330
1F
100
AcDbEntity
  8
0
  6
Continuous
 62
     7
370
    25
100
AcDbLine
 10
179.6875455793
 20
122.462996261
 30
0.0
 11
179.6875455793
 21
130.462996261
 31
0.0
  0
LINE
  5
142
330
1F
100
AcDbEntity
  8
0
  6
Continuous
 62
     7
370
    25
100
AcDbLine
 10
179.6875455793
 20
130.462996261
 30
0.0
 11
181.7875455793
 21
130.462996261
 31
0.0
  0
LINE
  5
143
330
1F
100
AcDbEntity
  8
0
  6
Continuous
 62
     7
370
    25
100
AcDbLine
 10
181.7875455793
 20
130.462996261
 30
0.0
 11
182.6875455793
 21
129.562996261
 31
0.0
  0
LINE
  5
144
330
1F
100
AcDbEntity
  8
0
  6
Continuous
 62
     7
370
    25
100
AcDbLine
 10
182.6875455793
 20
129.562996261
 30
0.0
 11
182.6875455793
 21
115.962996261
 31
0.0
  0
LINE
  5
145
330
1F
100
AcDbEntity
  8
0
  6
Continuous
 62
     7
370
    25
100
AcDbLine
 10
182.6875455793
 20
115.962996261
 30
0.0
 11
180.6875455793
 21
113.962996261
 31
0.0
  0
LINE
  5
146
330
1F
100
AcDbEntity
  8
0
  6
Continuous
 62
     7
370
    25
100
AcDbLine
 10
180.6875455793
 20
113.962996261
 30
0.0
 11
179.4375455793
 21
113.962996261
 31
0.0
  0
LINE
  5
147
330
1F
100
AcDbEntity
  8
0
  6
Continuous
 62
     7
370
    25
100
AcDbLine
 10
176.6875455793
 20
115.5507095013
 30
0.0
 11
179.4375455793
 21
113.962996261
 31
0.0
  0
LINE
  5
148
330
1F
100
AcDbEntity
  8
0
  6
Continuous
 62
     7
370
    25
100
AcDbLine
 10
173.9375455793
 20
113.962996261
 30
0.0
 11
176.6875455793
 21
115.5507095013
 31
0.0
  0
LINE
  5
149
330
1F
100
AcDbEntity
  8
0
  6
Continuous
 62
     7
370
    25
100
AcDbLine
 10
173.9375455793
 20
113.962996261
 30
0.0
 11
172.6875455793
 21
113.962996261
 31
0.0
  0
LINE
  5
14A
330
1F
100
AcDbEntity
  8
0
  6
Continuous
 62
     7
370
    25
100
AcDbLine
 10
179.4375455793
 20
113.962996261
 30
0.0
 11
173.9375455793
 21
113.962996261
 31
0.0
  0
LINE
  5
14B
330
1F
100
AcDbEntity
  8
0
  6
Continuous
 62
     7
370
    25
100
AcDbLine
 10
176.6875455793
 20
122.462996261
 30
0.0
 11
176.6875455793
 21
130.462996261
 31
0.0
  0
LINE
  5
14C
330
1F
100
AcDbEntity
  8
0
  6
Continuous
 62
     7
370
    25
100
AcDbLine
 10
173.6875455793
 20
130.462996261
 30
0.0
 11
176.6875455793
 21
130.462996261
 31
0.0
  0
LINE
  5
14D
330
1F
100
AcDbEntity
  8
0
  6
Continuous
 62
     7
370
    25
100
AcDbLine
 10
179.6875455793
 20
130.462996261
 30
0.0
 11
176.6875455793
 21
130.462996261
 31
0.0
  0
LINE
  5
14E
330
1F
100
AcDbEntity
  8
0
  6
Continuous
 62
     7
370
    25
100
AcDbLine
 10
138.6875455793
 20
78.187996261
 30
0.0
 11
138.6875455793
 21
109.462996261
 31
0.0
  0
LINE
  5
14F
330
1F
100
AcDbEntity
  8
0
  6
Continuous
 62
     7
370
    25
100
AcDbLine
 10
138.6875455793
 20
109.462996261
 30
0.0
 11
138.8875455793
 21
109.462996261
 31
0.0
  0
ARC
  5
150
330
1F
100
AcDbEntity
  8
0
  6
Continuous
 62
     7
370
    25
100
AcDbCircle
 10
138.8875455793
 20
140.737996261
 30
0.0
 40
0.2000000000000171
100
AcDbArc
 50
90.0
 51
180.0
  0
LINE
  5
151
330
1F
100
AcDbEntity
  8
0
  6
Continuous
 62
     7
370
    25
100
AcDbLine
 10
151.9217433839
 20
77.987996261
 30
0.0
 11
151.9217433839
 21
104.5732889813
 31
0.0
  0
SPLINE
  5
152
330
1F
100
AcDbEntity
  8
0
  6
Continuous
 62
     7
370
    25
100
AcDbSpline
210
0.0
220
0.0
230
1.0
 70
     8
 71
     3
 72
    20
 73
    16
 74
     0
 42
0.000000001
 43
0.00000001
 40
0.0
 40
0.0
 40
0.0
 40
0.0
 40
0.1249999999999996
 40
0.1249999999999996
 40
0.2499999999999992
 40
0.2499999999999992
 40
0.3749999999999989
 40
0.3749999999999989
 40
0.4999999999999987
 40
0.4999999999999987
 40
0.7499999999999994
 40
0.7499999999999994
 40
0.8749999999999997
 40
0.8749999999999997
 40
1.0
 40
1.0
 40
1.0
 40
1.0
 10
155.4750455792888
 20
109.4629962610205
 30
0.0
 10
155.4750455792888
 20
109.1963281735392
 30
0.0
 10
155.4529985502451
 20
108.9280159982652
 30
0.0
 10
155.3639925125402
 20
108.3951729630318
 30
0.0
 10
155.2981135443408
 20
108.1358827530459
 30
0.0
 10
155.1259386366336
 20
107.6307557870244
 30
0.0
 10
155.0192320657266
 20
107.3841755711032
 30
0.0
 10
154.7665551628504
 20
106.9077589203634
 30
0.0
 10
154.6230978986557
 20
106.6823388585986
 30
0.0
 10
154.1447757063752
 20
106.0417311769848
 30
0.0
 10
153.7567487234097
 20
105.6589654618818
 30
0.0
 10
153.1149440749643
 20
105.1830632137101
 30
0.0
 10
152.8901394473171
 20
105.0394675775584
 30
0.0
 10
152.4188303896949
 20
104.7821361921679
 30
0.0
 10
152.1731337898059
 20
104.6690838136459
 30
0.0
 10
151.9217433838589
 20
104.5732889813353
 30
0.0
  0
LINE
  5
153
330
1F
100
AcDbEntity
  8
0
  6
Continuous
 62
     7
370
    25
100
AcDbLine
 10
156.6875455793
 20
77.987996261
 30
0.0
 11
156.6875455793
 21
109.462996261
 31
0.0
  0
LINE
  5
154
330
1F
100
AcDbEntity
  8
0
  6
Continuous
 62
     7
370
    25
100
AcDbLine
 10
156.6875455793
 20
140.937996261
 30
0.0
 11
151.9217433839
 21
140.937996261
 31
0.0
  0
SPLINE
  5
155
330
1F
100
AcDbEntity
  8
0
  6
Continuous
 62
     7
370
    25
100
AcDbSpline
210
0.0
220
0.0
230
1.0
 70
     8
 71
     3
 72
    14
 73
    10
 74
     0
 42
0.000000001
 43
0.00000001
 40
0.0
 40
0.0
 40
0.0
 40
0.0
 40
0.25
 40
0.25
 40
0.5
 40
0.5
 40
0.75
 40
0.75
 40
1.0
 40
1.0
 40
1.0
 40
1.0
 10
145.2533477747187
 20
106.1680981755036
 30
0.0
 10
145.0564718891937
 20
106.3955947434327
 30
0.0
 10
144.8803635678042
 20
106.6371815185039
 30
0.0
 10
144.570627174031
 20
107.149338752878
 30
0.0
 10
144.4360691725375
 20
107.4228715559861
 30
0.0
 10
144.2208270198283
 20
107.9829766905236
 30
0.0
 10
144.1391837823094
 20
108.2699491859336
 30
0.0
 10
144.0286607600393
 20
108.8579881709779
 30
0.0
 10
144.0000455792888
 20
109.1624316267486
 30
0.0
 10
144.0000455792888
 20
109.4629962610203
 30
0.0
  0
LINE
  5
156
330
1F
100
AcDbEntity
  8
0
  6
Continuous
 62
     7
370
    25
100
AcDbLine
 10
145.2533477747
 20
77.987996261
 30
0.0
 11
145.2533477747
 21
106.1680981755
 31
0.0
  0
LINE
  5
157
330
1F
100
AcDbEntity
  8
0
  6
Continuous
 62
     7
370
    25
100
AcDbLine
 10
145.2533477747
 20
140.937996261
 30
0.0
 11
138.8875455793
 21
140.937996261
 31
0.0
  0
ARC
  5
158
330
1F
100
AcDbEntity
  8
0
  6
Continuous
 62
     7
370
    25
100
AcDbCircle
 10
149.7375455793
 20
109.462996261
 30
0.0
 40
3.737500000000011
100
AcDbArc
 50
180.0
 51
206.113804444
  0
SPLINE
  5
159
330
1F
100
AcDbEntity
  8
0
  6
Continuous
 62
     7
370
    25
100
AcDbSpline
210
0.0
220
0.0
230
1.0
 70
     8
 71
     3
 72
    10
 73
     6
 74
     0
 42
0.000000001
 43
0.00000001
 40
0.0
 40
0.0
 40
0.0
 40
0.0
 40
0.5
 40
0.5
 40
1.0
 40
1.0
 40
1.0
 40
1.0
 10
146.3815637718355
 20
107.8179149991847
 30
0.0
 10
146.2046786254121
 20
107.5194646838281
 30
0.0
 10
146.0191292505347
 20
107.2404719797007
 30
0.0
 10
145.6411803104871
 20
106.695152685575
 30
0.0
 10
145.4483937683079
 20
106.4298172997536
 30
0.0
 10
145.2533477747187
 20
106.1680981755036
 30
0.0
  0
SPLINE
  5
15A
330
1F
100
AcDbEntity
  8
0
  6
Continuous
 62
     7
370
    25
100
AcDbSpline
210
0.0
220
0.0
230
1.0
 70
     8
 71
     3
 72
     8
 73
     4
 74
     0
 42
0.000000001
 43
0.00000001
 40
0.0
 40
0.0
 40
0.0
 40
0.0
 40
1.0
 40
1.0
 40
1.0
 40
1.0
 10
151.9217433838585
 20
104.5732889813341
 30
0.0
 10
151.5733419791782
 20
105.011264307748
 30
0.0
 10
151.2287735939453
 20
105.4543474463328
 30
0.0
 10
150.8903892946244
 20
105.9077385181814
 30
0.0
  0
ARC
  5
15B
330
1F
100
AcDbEntity
  8
0
  6
Continuous
 62
     7
370
    25
100
AcDbCircle
 10
149.7375455793
 20
109.462996261
 30
0.0
 40
3.737500000000006
100
AcDbArc
 50
287.9660359156
 51
0.0
  0
SPLINE
  5
15C
330
1F
100
AcDbEntity
  8
0
  6
Continuous
 62
     7
370
    25
100
AcDbSpline
210
0.0
220
0.0
230
1.0
 70
     8
 71
     3
 72
     8
 73
     4
 74
     0
 42
0.000000001
 43
0.00000001
 40
0.0
 40
0.0
 40
0.0
 40
0.0
 40
1.0
 40
1.0
 40
1.0
 40
1.0
 10
146.7125455792888
 20
107.267937890498
 30
0.0
 10
146.5942488198588
 20
107.4309621189564
 30
0.0
 10
146.4828203376875
 20
107.6113506179789
 30
0.0
 10
146.3815637718355
 20
107.8179149991847
 30
0.0
  0
LINE
  5
15D
330
1F
100
AcDbEntity
  8
0
  6
Continuous
 62
     7
370
    25
100
AcDbLine
 10
146.7125455793
 20
80.5154009968
 30
0.0
 11
146.7125455793
 21
107.2679378905
 31
0.0
  0
SPLINE
  5
15E
330
1F
100
AcDbEntity
  8
0
  6
Continuous
 62
     7
370
    25
100
AcDbSpline
210
0.0
220
0.0
230
1.0
 70
     8
 71
     3
 72
     8
 73
     4
 74
     0
 42
0.000000001
 43
0.00000001
 40
0.0
 40
0.0
 40
0.0
 40
0.0
 40
1.0
 40
1.0
 40
1.0
 40
1.0
 10
150.8903892946248
 20
105.9077385181822
 30
0.0
 10
150.7488512063429
 20
105.8618427470851
 30
0.0
 10
150.606240737606
 20
105.8249018961478
 30
0.0
 10
150.462545579289
 20
105.7964882152072
 30
0.0
  0
LINE
  5
15F
330
1F
100
AcDbEntity
  8
0
  6
Continuous
 62
     7
370
    25
100
AcDbLine
 10
150.4625455793
 20
80.5154009968
 30
0.0
 11
150.4625455793
 21
105.7964882152
 31
0.0
  0
SPLINE
  5
160
330
1F
100
AcDbEntity
  8
0
  6
Continuous
 62
     7
370
    25
100
AcDbSpline
210
0.0
220
0.0
230
1.0
 70
     8
 71
     3
 72
    14
 73
    10
 74
     0
 42
0.000000001
 43
0.00000001
 40
0.0
 40
0.0
 40
0.0
 40
0.0
 40
0.25
 40
0.25
 40
0.5
 40
0.5
 40
0.75
 40
0.75
 40
1.0
 40
1.0
 40
1.0
 40
1.0
 10
147.7125455792888
 20
106.3216142005253
 30
0.0
 10
147.5781974929323
 20
106.4082177621529
 30
0.0
 10
147.4550208190763
 20
106.4996861594763
 30
0.0
 10
147.2262742141583
 20
106.6908775461072
 30
0.0
 10
147.1243522501911
 20
106.7877393982481
 30
0.0
 10
146.9449288477624
 20
106.9756140129834
 30
0.0
 10
146.8684875595796
 20
107.0658493643347
 30
0.0
 10
146.7511975867295
 20
107.2136557283121
 30
0.0
 10
146.7125455792888
 20
107.267937890498
 30
0.0
 10
146.7125455792888
 20
107.267937890498
 30
0.0
  0
SPLINE
  5
161
330
1F
100
AcDbEntity
  8
0
  6
Continuous
 62
     7
370
    25
100
AcDbSpline
210
0.0
220
0.0
230
1.0
 70
     8
 71
     3
 72
    14
 73
    10
 74
     0
 42
0.000000001
 43
0.00000001
 40
0.0
 40
0.0
 40
0.0
 40
0.0
 40
0.25
 40
0.25
 40
0.5
 40
0.5
 40
0.75
 40
0.75
 40
1.0
 40
1.0
 40
1.0
 40
1.0
 10
150.4625455792889
 20
105.7964882152078
 30
0.0
 10
150.4625455792891
 20
105.7964882152078
 30
0.0
 10
150.4366290567179
 20
105.7911114842195
 30
0.0
 10
150.3371842101404
 20
105.773566896619
 30
0.0
 10
150.2648858177282
 20
105.7617174929727
 30
0.0
 10
150.0801819232043
 20
105.7400736749724
 30
0.0
 10
149.9706046613283
 20
105.730784414288
 30
0.0
 10
149.7272744831102
 20
105.7235288779304
 30
0.0
 10
149.5957382241901
 20
105.7258002840898
 30
0.0
 10
149.4625455792888
 20
105.735627048023
 30
0.0
  0
SPLINE
  5
162
330
1F
100
AcDbEntity
  8
0
  6
Continuous
 62
     7
370
    25
100
AcDbSpline
210
0.0
220
0.0
230
1.0
 70
     8
 71
     3
 72
    10
 73
     6
 74
     0
 42
0.000000001
 43
0.00000001
 40
0.0
 40
0.0
 40
0.0
 40
0.0
 40
0.5
 40
0.5
 40
1.0
 40
1.0
 40
1.0
 40
1.0
 10
149.4625455792888
 20
105.7356270480231
 30
0.0
 10
149.1500816770007
 20
105.7586801903921
 30
0.0
 10
148.8471926950029
 20
105.8199148927985
 30
0.0
 10
148.2598495101988
 20
106.0160868567224
 30
0.0
 10
147.9753818496269
 20
106.1521844918223
 30
0.0
 10
147.7125455792888
 20
106.3216142005253
 30
0.0
  0
LINE
  5
163
330
1F
100
AcDbEntity
  8
0
  6
Continuous
 62
     7
370
    25
100
AcDbLine
 10
138.6875455793
 20
136.312996261
 30
0.0
 11
139.0215842653
 21
135.2535609006
 31
0.0
  0
LINE
  5
164
330
1F
100
AcDbEntity
  8
0
  6
Continuous
 62
     7
370
    25
100
AcDbLine
 10
138.6875455793
 20
136.312996261
 30
0.0
 11
138.6875455793
 21
134.3377075277
 31
0.0
  0
ARC
  5
165
330
1F
100
AcDbEntity
  8
0
  6
Continuous
 62
     7
370
    25
100
AcDbCircle
 10
138.2586107047
 20
135.012996261
 30
0.0
 40
0.8000000000000181
100
AcDbArc
 50
252.5
 51
17.5
  0
SPLINE
  5
166
330
1F
100
AcDbEntity
  8
0
  6
Continuous
 62
     7
370
    25
100
AcDbSpline
210
0.0
220
0.0
230
1.0
 70
     8
 71
     3
 72
    23
 73
    19
 74
     0
 42
0.000000001
 43
0.00000001
 40
0.0
 40
0.0
 40
0.0
 40
0.0
 40
0.0014465357521869
 40
0.0696020593676244
 40
0.1372543666871918
 40
0.2039589908844533
 40
0.2702907445977739
 40
0.3365481572098531
 40
0.4028600414027822
 40
0.4678618141050666
 40
0.5326346816646162
 40
0.599354072363532
 40
0.6655184433344428
 40
0.7321132007428625
 40
0.7988840356461461
 40
0.8663348102232905
 40
0.9345219372798427
 40
1.0
 40
1.0
 40
1.0
 40
1.0
 10
108.4473696491976
 20
132.887254447308
 30
0.0
 10
108.4485139301594
 20
132.8869014256615
 30
0.0
 10
108.5035725841291
 20
132.8699153030859
 30
0.0
 10
108.8999772209472
 20
132.7526538624212
 30
0.0
 10
109.616016233816
 20
132.5520493309517
 30
0.0
 10
110.6257008694752
 20
132.311432850451
 30
0.0
 10
111.8416777263814
 20
132.0841609717945
 30
0.0
 10
113.2458780300465
 20
131.9117713613006
 30
0.0
 10
114.7629420543351
 20
131.8237030803772
 30
0.0
 10
116.3372399182687
 20
131.8547507351364
 30
0.0
 10
117.9030601405124
 20
132.0057739759494
 30
0.0
 10
119.3929172110693
 20
132.2601107742184
 30
0.0
 10
120.7645974031311
 20
132.5778475529562
 30
0.0
 10
121.9505204969248
 20
132.9217639730687
 30
0.0
 10
122.9281198409128
 20
133.2496065733832
 30
0.0
 10
123.6476309925087
 20
133.5185310028653
 30
0.0
 10
124.1202659942097
 20
133.7011203384874
 30
0.0
 10
124.1777371085631
 20
133.7243687310722
 30
0.0
 10
124.2058902667377
 20
133.7357573335224
 30
0.0
  0
LINE
  5
167
330
1F
100
AcDbEntity
  8
0
  6
Continuous
 62
     7
370
    25
100
AcDbLine
 10
108.287979694
 20
132.9363926226
 30
0.0
 11
100.2375455793
 21
132.5321163886
 31
0.0
  0
LINE
  5
168
330
1F
100
AcDbEntity
  8
0
  6
Continuous
 62
     7
370
    25
100
AcDbLine
 10
100.2375455793
 20
86.3938761334
 30
0.0
 11
100.2375455793
 21
100.3408732264
 31
0.0
  0
SPLINE
  5
169
330
1F
100
AcDbEntity
  8
0
  6
Continuous
 62
     7
370
    25
100
AcDbSpline
210
0.0
220
0.0
230
1.0
 70
     8
 71
     3
 72
     8
 73
     4
 74
     0
 42
0.000000001
 43
0.00000001
 40
0.0
 40
0.0
 40
0.0
 40
0.0
 40
1.0
 40
1.0
 40
1.0
 40
1.0
 10
106.0557200322358
 20
100.345459284717
 30
0.0
 10
104.1163285479244
 20
100.3433131888674
 30
0.0
 10
102.1769370636129
 20
100.3417170023426
 30
0.0
 10
100.2375455793015
 20
100.3406695498669
 30
0.0
  0
SPLINE
  5
16A
330
1F
100
AcDbEntity
  8
0
  6
Continuous
 62
     7
370
    25
100
AcDbSpline
210
0.0
220
0.0
230
1.0
 70
     8
 71
     3
 72
    13
 73
     9
 74
     0
 42
0.000000001
 43
0.00000001
 40
0.0
 40
0.0
 40
0.0
 40
0.0
 40
0.1686319999748108
 40
0.3360343310905603
 40
0.5025367825908784
 40
0.6684737453788424
 40
0.8341822636915194
 40
1.0
 40
1.0
 40
1.0
 40
1.0
 10
107.1392150817027
 20
100.4829157305347
 30
0.0
 10
107.079725185643
 20
100.4684014104958
 30
0.0
 10
106.9611791953679
 20
100.4394786092112
 30
0.0
 10
106.781302499782
 20
100.405517215803
 30
0.0
 10
106.600912212154
 20
100.378651653444
 30
0.0
 10
106.4198000401202
 20
100.359692716336
 30
0.0
 10
106.2380392029528
 20
100.3477622649404
 30
0.0
 10
106.1165064350581
 20
100.3462271133715
 30
0.0
 10
106.0557200322357
 20
100.345459284717
 30
0.0
  0
SPLINE
  5
16B
330
1F
100
AcDbEntity
  8
0
  6
Continuous
 62
     7
370
    25
100
AcDbSpline
210
0.0
220
0.0
230
1.0
 70
     8
 71
     3
 72
     8
 73
     4
 74
     0
 42
0.000000001
 43
0.00000001
 40
0.0
 40
0.0
 40
0.0
 40
0.0
 40
1.0
 40
1.0
 40
1.0
 40
1.0
 10
112.5314084982018
 20
100.4871537724201
 30
0.0
 10
110.7340138267619
 20
100.4852827118961
 30
0.0
 10
108.936619155322
 20
100.483860530872
 30
0.0
 10
107.1392244838821
 20
100.482886407876
 30
0.0
  0
SPLINE
  5
16C
330
1F
100
AcDbEntity
  8
0
  6
Continuous
 62
     7
370
    25
100
AcDbSpline
210
0.0
220
0.0
230
1.0
 70
     8
 71
     3
 72
    18
 73
    14
 74
     0
 42
0.000000001
 43
0.00000001
 40
0.0
 40
0.0
 40
0.0
 40
0.0
 40
0.0923325137145546
 40
0.1843692047123243
 40
0.2763458873888429
 40
0.3684982175742124
 40
0.4610598988390781
 40
0.5542609546612685
 40
0.6483261285506466
 40
0.7434734636546699
 40
0.8399130993131055
 40
0.9201660718311621
 40
1.0
 40
1.0
 40
1.0
 40
1.0
 10
114.7277301467979
 20
99.95296153657645
 30
0.0
 10
114.6573998432823
 20
99.95337816100803
 30
0.0
 10
114.5169645664259
 20
99.95421007505463
 30
0.0
 10
114.3066020399174
 20
99.9678189219691
 30
0.0
 10
114.0971583769972
 20
99.99048567934067
 30
0.0
 10
113.8886087066228
 20
100.0230864691413
 30
0.0
 10
113.6809650893475
 20
100.0653889477616
 30
0.0
 10
113.4742269018098
 20
100.1174603464167
 30
0.0
 10
113.2684048098487
 20
100.1793091192621
 30
0.0
 10
113.0634731310623
 20
100.2509071307183
 30
0.0
 10
112.8719923856717
 20
100.3274856209469
 30
0.0
 10
112.6942692336212
 20
100.4060968697809
 30
0.0
 10
112.5859352390581
 20
100.4600110255681
 30
0.0
 10
112.5319100296058
 20
100.4868975404667
 30
0.0
  0
LINE
  5
16D
330
1F
100
AcDbEntity
  8
0
  6
Continuous
 62
     7
370
    25
100
AcDbLine
 10
116.6426034261
 20
99.9544569714
 30
0.0
 11
114.7277301468
 21
99.9529615366
 31
0.0
  0
SPLINE
  5
16E
330
1F
100
AcDbEntity
  8
0
  6
Continuous
 62
     7
370
    25
100
AcDbSpline
210
0.0
220
0.0
230
1.0
 70
     8
 71
     3
 72
    25
 73
    21
 74
     0
 42
0.000000001
 43
0.00000001
 40
0.0
 40
0.0
 40
0.0
 40
0.0
 40
0.0280105225425619
 40
0.0559601148859271
 40
0.0839014045041196
 40
0.1118870776784246
 40
0.1399695827586811
 40
0.1682008401737954
 40
0.1966319670422708
 40
0.2253130233140564
 40
0.2542927850735731
 40
0.3799486436576643
 40
0.5057850221666753
 40
0.6313085886329383
 40
0.7532068238012418
 40
0.8039473267955356
 40
0.8535894438553621
 40
0.902533972239325
 40
0.9511970353790535
 40
1.0
 40
1.0
 40
1.0
 40
1.0
 10
121.5824877324902
 20
105.0883207759518
 30
0.0
 10
121.582524954224
 20
105.0137007489385
 30
0.0
 10
121.5825993167247
 20
104.8646230129517
 30
0.0
 10
121.5701832660782
 20
104.6420049219858
 30
0.0
 10
121.5485787057244
 20
104.4206805039572
 30
0.0
 10
121.5168932360644
 20
104.2007122380688
 30
0.0
 10
121.4753670977445
 20
103.9821219508397
 30
0.0
 10
121.4239363420146
 20
103.7649400124352
 30
0.0
 10
121.3626224673034
 20
103.5491985925501
 30
0.0
 10
121.2914121318039
 20
103.3349087010996
 30
0.0
 10
121.1205755246002
 20
102.8865589280777
 30
0.0
 10
120.7828432911647
 20
102.2332281000062
 30
0.0
 10
120.1712886269663
 20
101.4613348893671
 30
0.0
 10
119.4350537918167
 20
100.817175263983
 30
0.0
 10
118.7485677201696
 20
100.4255340959209
 30
0.0
 10
118.1998635740203
 20
100.2068391949529
 30
0.0
 10
117.8178273955156
 20
100.0909831461222
 30
0.0
 10
117.4306612968111
 20
100.0100752405923
 30
0.0
 10
117.0384346280244
 20
99.96084680979435
 30
0.0
 10
116.774673359909
 20
99.95658895477901
 30
0.0
 10
116.6426034260874
 20
99.9544569714362
 30
0.0
  0
LINE
  5
16F
330
1F
100
AcDbEntity
  8
0
  6
Continuous
 62
     7
370
    25
100
AcDbLine
 10
121.5824877325
 20
109.462996261
 30
0.0
 11
121.5824877325
 21
105.088320776
 31
0.0
  0
LINE
  5
170
330
1F
100
AcDbEntity
  8
0
  6
Continuous
 62
     7
370
    25
100
AcDbLine
 10
137.5273635393
 20
84.5212582155
 30
0.0
 11
137.5273635393
 21
109.462996261
 31
0.0
  0
LINE
  5
171
330
1F
100
AcDbEntity
  8
0
  6
Continuous
 62
     7
370
    25
100
AcDbLine
 10
137.5273635393
 20
134.4047343065
 30
0.0
 11
124.2058902667
 21
133.7357573335
 31
0.0
  0
SPLINE
  5
172
330
1F
100
AcDbEntity
  8
0
  6
Continuous
 62
     7
370
    25
100
AcDbSpline
210
0.0
220
0.0
230
1.0
 70
     8
 71
     3
 72
    20
 73
    16
 74
     0
 42
0.000000001
 43
0.00000001
 40
0.0
 40
0.0
 40
0.0
 40
0.0
 40
0.0829621378684853
 40
0.1658495135106164
 40
0.2487180070857357
 40
0.3299477216398524
 40
0.4108693994445735
 40
0.4941953814850562
 40
0.5768901676626226
 40
0.6601065810557777
 40
0.7435845489350854
 40
0.8279858465401887
 40
0.9132590745392883
 40
0.9972257035811805
 40
1.0
 40
1.0
 40
1.0
 40
1.0
 10
110.5999616740158
 20
86.59973589351351
 30
0.0
 10
110.985707510087
 20
86.67665432011765
 30
0.0
 10
111.7568515632042
 20
86.83042185745524
 30
0.0
 10
113.1645997143741
 20
87.00633707884077
 30
0.0
 10
114.6724510822487
 20
87.10033336616982
 30
0.0
 10
116.2449400572665
 20
87.0764889843032
 30
0.0
 10
117.8122370884786
 20
86.93258393940262
 30
0.0
 10
119.3080131152601
 20
86.68352633660359
 30
0.0
 10
120.6882669909328
 20
86.36884564406495
 30
0.0
 10
121.8858611739884
 20
86.02458429208443
 30
0.0
 10
122.8727232038107
 20
85.69553706626468
 30
0.0
 10
123.6199614500086
 20
85.41707615805691
 30
0.0
 10
124.0671628793742
 20
85.24522036302534
 30
0.0
 10
124.2539174915242
 20
85.17136969142675
 30
0.0
 10
124.202819277626
 20
85.19152098249998
 30
0.0
 10
124.2011849672809
 20
85.19216549550652
 30
0.0
  0
SPLINE
  5
173
330
1F
100
AcDbEntity
  8
0
  6
Continuous
 62
     7
370
    25
100
AcDbSpline
210
0.0
220
0.0
230
1.0
 70
     8
 71
     3
 72
    11
 73
     7
 74
     0
 42
0.000000001
 43
0.00000001
 40
0.0
 40
0.0
 40
0.0
 40
0.0
 40
0.2435512231731374
 40
0.4981153923403526
 40
0.7509097881719445
 40
1.0
 40
1.0
 40
1.0
 40
1.0
 10
108.2924675562722
 20
85.9910736841304
 30
0.0
 10
108.3184184777975
 20
85.99930922066855
 30
0.0
 10
108.3714937746025
 20
86.01615268981801
 30
0.0
 10
108.849188758265
 20
86.15705413195555
 30
0.0
 10
109.5605282065318
 20
86.36234468240374
 30
0.0
 10
110.2551928537065
 20
86.52099580060094
 30
0.0
 10
110.5999616740158
 20
86.59973589351351
 30
0.0
  0
LINE
  5
174
330
1F
100
AcDbEntity
  8
0
  6
Continuous
 62
     7
370
    25
100
AcDbLine
 10
138.0180460651
 20
134.2500227004
 30
0.0
 11
137.5273635393
 21
134.4047343065
 31
0.0
  0
LINE
  5
175
330
1F
100
AcDbEntity
  8
0
  6
Continuous
 62
     7
370
    25
100
AcDbLine
 10
121.5824877325
 20
105.088320776
 30
0.0
 11
120.6875455793
 21
105.250496261
 31
0.0
  0
LINE
  5
176
330
1F
100
AcDbEntity
  8
0
  6
Continuous
 62
     7
370
    25
100
AcDbLine
 10
120.6875455793
 20
105.250496261
 30
0.0
 11
120.6875455793
 21
109.462996261
 31
0.0
  0
ARC
  5
177
330
1F
100
AcDbEntity
  8
0
  6
Continuous
 62
     7
370
    25
100
AcDbCircle
 10
159.6875455793
 20
133.462996261
 30
0.0
 40
3.0
100
AcDbArc
 50
180.0
 51
270.0
  0
SPLINE
  5
178
330
1F
100
AcDbEntity
  8
0
  6
Continuous
 62
     7
370
    25
100
AcDbSpline
210
0.0
220
0.0
230
1.0
 70
     8
 71
     3
 72
    25
 73
    21
 74
     0
 42
0.000000001
 43
0.00000001
 40
0.0
 40
0.0
 40
0.0
 40
0.0
 40
0.0288821753102511
 40
0.0583636594000142
 40
0.0884647204298522
 40
0.1192044006609317
 40
0.1506005800078716
 40
0.1826700399664301
 40
0.2154285269572978
 40
0.2488908143379817
 40
0.3610594471164473
 40
0.4984670131067579
 40
0.5822693905006365
 40
0.6661127642782113
 40
0.7499972937224397
 40
0.8007709755032377
 40
0.8511237700807887
 40
0.9010896024506684
 40
0.9507031914109043
 40
1.0
 40
1.0
 40
1.0
 40
1.0
 10
116.6875455792888
 20
101.2504962610203
 30
0.0
 10
116.7503460325245
 20
101.2513527449721
 30
0.0
 10
116.8772500563191
 20
101.2530834850256
 30
0.0
 10
117.0686044640271
 20
101.2672333504283
 30
0.0
 10
117.2625092767018
 20
101.2903704327484
 30
0.0
 10
117.4584099974291
 20
101.3237815849726
 30
0.0
 10
117.6557476654348
 20
101.3676554070046
 30
0.0
 10
117.853901007224
 20
101.4224506779741
 30
0.0
 10
118.0522167512385
 20
101.4885196393391
 30
0.0
 10
118.4035377387365
 20
101.6265009715898
 30
0.0
 10
118.9286495090625
 20
101.9065529104302
 30
0.0
 10
119.4656413375498
 20
102.3451435128365
 30
0.0
 10
119.8777010675954
 20
102.8190036343914
 30
0.0
 10
120.1646196556479
 20
103.2506873822112
 30
0.0
 10
120.3630463428551
 20
103.6538106239713
 30
0.0
 10
120.4951322169034
 20
104.0115467847503
 30
0.0
 10
120.5807660967012
 20
104.3142991870326
 30
0.0
 10
120.6418483080542
 20
104.6227874972783
 30
0.0
 10
120.6803492514197
 20
104.9350992074347
 30
0.0
 10
120.6851519305132
 20
105.1455886213361
 30
0.0
 10
120.6875455792888
 20
105.2504962610203
 30
0.0
  0
SPLINE
  5
179
330
1F
100
AcDbEntity
  8
0
  6
Continuous
 62
     7
370
    25
100
AcDbSpline
210
0.0
220
0.0
230
1.0
 70
     8
 71
     3
 72
    13
 73
     9
 74
     0
 42
0.000000001
 43
0.00000001
 40
0.0
 40
0.0
 40
0.0
 40
0.0
 40
0.172258782357064
 40
0.3421398271252745
 40
0.5097456257917113
 40
0.6751828993280184
 40
0.8385626190139852
 40
0.9999999999999999
 40
0.9999999999999999
 40
0.9999999999999999
 40
0.9999999999999999
 10
113.687563948199
 20
101.4004910837701
 30
0.0
 10
113.7484273378677
 20
101.3842273560716
 30
0.0
 10
113.8693140023069
 20
101.3519243935924
 30
0.0
 10
114.0523751602722
 20
101.3145367388995
 30
0.0
 10
114.2344778432104
 20
101.2854038039888
 30
0.0
 10
114.4154192915293
 20
101.2652170883823
 30
0.0
 10
114.5947582952327
 20
101.2527702840804
 30
0.0
 10
114.7136045236524
 20
101.2512512408529
 30
0.0
 10
114.7726722999993
 20
101.2504962610203
 30
0.0
  0
LINE
  5
17A
330
1F
100
AcDbEntity
  8
0
  6
Continuous
 62
     7
370
    25
100
AcDbLine
 10
114.7277301468
 20
99.9529615366
 30
0.0
 11
114.7726723
 21
101.250496261
 31
0.0
  0
SPLINE
  5
17B
330
1F
100
AcDbEntity
  8
0
  6
Continuous
 62
     7
370
    25
100
AcDbSpline
210
0.0
220
0.0
230
1.0
 70
     8
 71
     3
 72
    11
 73
     7
 74
     0
 42
0.000000001
 43
0.00000001
 40
0.0
 40
0.0
 40
0.0
 40
0.0
 40
0.2392913841800824
 40
0.5001130134990213
 40
0.7515028526582183
 40
0.9999999999999999
 40
0.9999999999999999
 40
0.9999999999999999
 40
0.9999999999999999
 10
113.3600730871428
 20
101.4010698660434
 30
0.0
 10
113.2912481512757
 20
101.329516428958
 30
0.0
 10
113.1474057551179
 20
101.179971533434
 30
0.0
 10
112.9396569567303
 20
100.9510541068005
 30
0.0
 10
112.7316707519819
 20
100.718735734533
 30
0.0
 10
112.598669828246
 20
100.5639598519124
 30
0.0
 10
112.5325541840411
 20
100.4870197307507
 30
0.0
  0
SPLINE
  5
17C
330
1F
100
AcDbEntity
  8
0
  6
Continuous
 62
     7
370
    25
100
AcDbSpline
210
0.0
220
0.0
230
1.0
 70
    24
 71
     3
 72
     9
 73
     5
 74
     0
 42
0.000000001
 43
0.00000001
 40
0.0
 40
0.0
 40
0.0
 40
0.0
 40
0.5090839669866033
 40
1.0
 40
1.0
 40
1.0
 40
1.0
 10
113.3623033554622
 20
101.4004962610203
 30
0.0
 10
113.4170367555746
 20
101.4004962610203
 30
0.0
 10
113.5245502575934
 20
101.4004962610203
 30
0.0
 10
113.6339428179644
 20
101.4004962610203
 30
0.0
 10
113.6876453797429
 20
101.4004962610203
 30
0.0
  0
LINE
  5
17D
330
1F
100
AcDbEntity
  8
0
  6
Continuous
 62
     7
370
    25
100
AcDbLine
 10
107.1136954909
 20
101.3804444873
 30
0.0
 11
107.1391099825
 21
100.4828863166
 31
0.0
  0
SPLINE
  5
17E
330
1F
100
AcDbEntity
  8
0
  6
Continuous
 62
     7
370
    25
100
AcDbSpline
210
0.0
220
0.0
230
1.0
 70
     8
 71
     3
 72
     8
 73
     4
 74
     0
 42
0.000000001
 43
0.00000001
 40
0.0
 40
0.0
 40
0.0
 40
0.0
 40
1.0
 40
1.0
 40
1.0
 40
1.0
 10
107.113706682017
 20
101.3804449773596
 30
0.0
 10
107.135509538499
 20
101.3861423083922
 30
0.0
 10
107.1572642478965
 20
101.3920238911872
 30
0.0
 10
107.1789677032146
 20
101.3980888857403
 30
0.0
  0
LINE
  5
17F
330
1F
100
AcDbEntity
  8
0
  6
Continuous
 62
     7
370
    25
100
AcDbLine
 10
107.1875455794
 20
101.400496261
 30
0.0
 11
113.3612185516
 21
101.400496261
 31
0.0
  0
LINE
  5
180
330
1F
100
AcDbEntity
  8
0
  6
Continuous
 62
     7
370
    25
100
AcDbLine
 10
114.7726723
 20
101.250496261
 30
0.0
 11
116.6875455793
 21
101.250496261
 31
0.0
  0
SPLINE
  5
181
330
1F
100
AcDbEntity
  8
0
  6
Continuous
 62
     7
370
    25
100
AcDbSpline
210
0.0
220
0.0
230
1.0
 70
     8
 71
     3
 72
    13
 73
     9
 74
     0
 42
0.000000001
 43
0.00000001
 40
0.0
 40
0.0
 40
0.0
 40
0.0
 40
0.1621004456571512
 40
0.325943455157606
 40
0.4915935308260523
 40
0.6591130873964648
 40
0.8285624736043361
 40
1.0
 40
1.0
 40
1.0
 40
1.0
 10
106.1024188585782
 20
101.2504962610203
 30
0.0
 10
106.1579738166438
 20
101.2511652272216
 30
0.0
 10
106.2696809431085
 20
101.2525103509449
 30
0.0
 10
106.4375286325023
 20
101.2634569197363
 30
0.0
 10
106.6063150513707
 20
101.281095849057
 30
0.0
 10
106.7756394079025
 20
101.3064013630448
 30
0.0
 10
106.9453860560799
 20
101.3387053658378
 30
0.0
 10
107.0573789547375
 20
101.3664769657239
 30
0.0
 10
107.1137019897673
 20
101.3804437512251
 30
0.0
  0
LINE
  5
182
330
1F
100
AcDbEntity
  8
0
  6
Continuous
 62
     7
370
    25
100
AcDbLine
 10
99.3238857577
 20
100.7229945171
 30
0.0
 11
100.2375455793
 21
101.250496261
 31
0.0
  0
LINE
  5
183
330
1F
100
AcDbEntity
  8
0
  6
Continuous
 62
     7
370
    25
100
AcDbLine
 10
100.2375455793
 20
101.250496261
 30
0.0
 11
106.1024188586
 21
101.250496261
 31
0.0
  0
SPLINE
  5
184
330
1F
100
AcDbEntity
  8
0
  6
Continuous
 62
     7
370
    25
100
AcDbSpline
210
0.0
220
0.0
230
1.0
 70
     8
 71
     3
 72
     8
 73
     4
 74
     0
 42
0.000000001
 43
0.00000001
 40
0.0
 40
0.0
 40
0.0
 40
0.0
 40
1.0
 40
1.0
 40
1.0
 40
1.0
 10
100.2375455788378
 20
100.3406695496443
 30
0.0
 10
99.9329923051323
 20
100.4693604141911
 30
0.0
 10
99.62843903142677
 20
100.5968051704529
 30
0.0
 10
99.32388575772124
 20
100.7229945170906
 30
0.0
  0
LINE
  5
185
330
1F
100
AcDbEntity
  8
0
  6
Continuous
 62
     7
370
    25
100
AcDbLine
 10
98.7375455793
 20
87.2599015372
 30
0.0
 11
98.7375455793
 21
100.3844708572
 31
0.0
  0
SPLINE
  5
186
330
1F
100
AcDbEntity
  8
0
  6
Continuous
 62
     7
370
    25
100
AcDbSpline
210
0.0
220
0.0
230
1.0
 70
    24
 71
     3
 72
     8
 73
     4
 74
     0
 42
0.000000001
 43
0.00000001
 40
0.0
 40
0.0
 40
0.0
 40
0.0
 40
1.0
 40
1.0
 40
1.0
 40
1.0
 10
99.32388575772123
 20
100.7229945170906
 30
0.0
 10
99.12755373206289
 20
100.6096421692262
 30
0.0
 10
98.93209271182268
 20
100.4967926965744
 30
0.0
 10
98.73754557928876
 20
100.3844708572359
 30
0.0
  0
SPLINE
  5
187
330
1F
100
AcDbEntity
  8
0
  6
Continuous
 62
     7
370
    25
100
AcDbSpline
210
0.0
220
0.0
230
1.0
 70
     8
 71
     3
 72
    10
 73
     6
 74
     0
 42
0.000000001
 43
0.00000001
 40
0.0
 40
0.0
 40
0.0
 40
0.0
 40
0.3892441559338555
 40
0.7832742835935873
 40
1.0
 40
1.0
 40
1.0
 40
1.0
 10
170.5625456341097
 20
130.4629962610204
 30
0.0
 10
170.5871548472872
 20
130.4552364699024
 30
0.0
 10
170.6366758575002
 20
130.4396214767521
 30
0.0
 10
170.9306561101625
 20
130.3470998999047
 30
0.0
 10
171.2414617541159
 20
130.2586039544325
 30
0.0
 10
171.3517506306012
 20
130.2272013123328
 30
0.0
  0
SPLINE
  5
188
330
1F
100
AcDbEntity
  8
0
  6
Continuous
 62
     7
370
    25
100
AcDbSpline
210
0.0
220
0.0
230
1.0
 70
     8
 71
     3
 72
    11
 73
     7
 74
     0
 42
0.000000001
 43
0.00000001
 40
0.0
 40
0.0
 40
0.0
 40
0.0
 40
0.2171856821197465
 40
0.610267655670445
 40
0.9996645357898076
 40
1.0
 40
1.0
 40
1.0
 40
1.0
 10
182.0236110728536
 20
130.2269307674555
 30
0.0
 10
182.1346527073671
 20
130.2585371515852
 30
0.0
 10
182.4466673729518
 20
130.3473475821753
 30
0.0
 10
182.726818935384
 20
130.4358412577906
 30
0.0
 10
182.812606984926
 20
130.462989286878
 30
0.0
 10
182.8125453629926
 20
130.4629962550225
 30
0.0
 10
182.8125453099512
 20
130.4629962610204
 30
0.0
  0
LINE
  5
189
330
1F
100
AcDbEntity
  8
0
  6
Continuous
 62
     7
370
    25
100
AcDbLine
 10
170.5625456341
 20
130.462996261
 30
0.0
 11
159.6875455793
 21
130.462996261
 31
0.0
  0
LINE
  5
18A
330
1F
100
AcDbEntity
  8
0
  6
Continuous
 62
     7
370
    25
100
AcDbLine
 10
185.8205040562
 20
88.462996261
 30
0.0
 11
185.8205040562
 21
109.462996261
 31
0.0
  0
LINE
  5
18B
330
1F
100
AcDbEntity
  8
0
  6
Continuous
 62
     7
370
    25
100
AcDbLine
 10
185.8205040562
 20
130.462996261
 30
0.0
 11
182.81254531
 21
130.462996261
 31
0.0
  0
LINE
  5
18C
330
1F
100
AcDbEntity
  8
0
  6
Continuous
 62
     7
370
    25
100
AcDbLine
 10
197.5327821028
 20
125.0014713135
 30
0.0
 11
185.8205040562
 21
130.462996261
 31
0.0
  0
ARC
  5
18D
330
1F
100
AcDbEntity
  8
0
  6
Continuous
 62
     7
370
    25
100
AcDbCircle
 10
131.8875455793
 20
126.912996261
 30
0.0
 40
0.8000000000000114
100
AcDbArc
 50
0.0
 51
90.0
  0
LINE
  5
18E
330
1F
100
AcDbEntity
  8
0
  6
Continuous
 62
     7
370
    25
100
AcDbLine
 10
130.4627860529
 20
127.712996261
 30
0.0
 11
131.8875455793
 21
127.712996261
 31
0.0
  0
ARC
  5
18F
330
1F
100
AcDbEntity
  8
0
  6
Continuous
 62
     7
370
    25
100
AcDbCircle
 10
130.4627860529
 20
126.912996261
 30
0.0
 40
0.8000000000000015
100
AcDbArc
 50
90.0
 51
120.0
  0
LINE
  5
190
330
1F
100
AcDbEntity
  8
0
  6
Continuous
 62
     7
370
    25
100
AcDbLine
 10
129.1875455793
 20
127.100496261
 30
0.0
 11
129.1875455793
 21
109.462996261
 31
0.0
  0
LINE
  5
191
330
1F
100
AcDbEntity
  8
0
  6
Continuous
 62
     7
370
    25
100
AcDbLine
 10
129.1875455793
 20
127.100496261
 30
0.0
 11
130.0627860529
 21
127.605816584
 31
0.0
  0
LINE
  5
192
330
1F
100
AcDbEntity
  8
0
  6
Continuous
 62
     7
370
    25
100
AcDbLine
 10
99.4892116291
 20
100.8184454535
 30
0.0
 11
99.3527428568
 21
100.739655171
 31
0.0
  0
SPLINE
  5
193
330
1F
100
AcDbEntity
  8
0
  6
Continuous
 62
     7
370
    25
100
AcDbSpline
210
0.0
220
0.0
230
1.0
 70
     8
 71
     3
 72
    32
 73
    28
 74
     0
 42
0.000000001
 43
0.00000001
 40
0.0
 40
0.0
 40
0.0
 40
0.0
 40
0.125000000000001
 40
0.125000000000001
 40
0.187500000000001
 40
0.187500000000001
 40
0.2500000000000011
 40
0.2500000000000011
 40
0.3125000000000011
 40
0.3125000000000011
 40
0.3750000000000011
 40
0.3750000000000011
 40
0.5000000000000007
 40
0.5000000000000007
 40
0.5625000000000004
 40
0.5625000000000004
 40
0.6250000000000003
 40
0.6250000000000003
 40
0.7500000000000002
 40
0.7500000000000002
 40
0.8125000000000002
 40
0.8125000000000002
 40
0.8750000000000001
 40
0.8750000000000001
 40
0.9375000000000001
 40
0.9375000000000001
 40
1.0
 40
1.0
 40
1.0
 40
1.0
 10
113.1551759106294
 20
125.6356650152299
 30
0.0
 10
112.6711016666754
 20
125.6360244078495
 30
0.0
 10
112.1877040961085
 20
125.6509836140308
 30
0.0
 10
111.4637987463725
 20
125.6979676605395
 30
0.0
 10
111.2231363128356
 20
125.717744215664
 30
0.0
 10
110.75179020376
 20
125.7647082991631
 30
0.0
 10
110.5199543874697
 20
125.7919621483476
 30
0.0
 10
110.0642513009134
 20
125.8535900769602
 30
0.0
 10
109.8403829779721
 20
125.8879651777557
 30
0.0
 10
109.4010553859643
 20
125.9632846214087
 30
0.0
 10
109.1843379932979
 20
126.004502572157
 30
0.0
 10
108.5579960146251
 20
126.1347393913377
 30
0.0
 10
108.1736033802717
 20
126.229779303237
 30
0.0
 10
107.6460616346518
 20
126.3760462651894
 30
0.0
 10
107.4784274831207
 20
126.42541490038
 30
0.0
 10
107.1600227358802
 20
126.5238186078803
 30
0.0
 10
107.010441861341
 20
126.5725018725128
 30
0.0
 10
106.5974217917926
 20
126.7121246756812
 30
0.0
 10
106.3658700206334
 20
126.7977113542617
 30
0.0
 10
106.0825605055438
 20
126.9066744021778
 30
0.0
 10
105.998992823772
 20
126.9397230547523
 30
0.0
 10
105.8570679914478
 20
126.9967264509926
 30
0.0
 10
105.7980798800052
 20
127.020923156603
 30
0.0
 10
105.7033639762954
 20
127.060125436982
 30
0.0
 10
105.6676360091487
 20
127.0751326034791
 30
0.0
 10
105.6196717314313
 20
127.095341601206
 30
0.0
 10
105.6075454239978
 20
127.1004962610203
 30
0.0
 10
105.6075454239978
 20
127.1004962610203
 30
0.0
  0
SPLINE
  5
194
330
1F
100
AcDbEntity
  8
0
  6
Continuous
 62
     7
370
    25
100
AcDbSpline
210
0.0
220
0.0
230
1.0
 70
     8
 71
     3
 72
    31
 73
    27
 74
     0
 42
0.000000001
 43
0.00000001
 40
0.0
 40
0.0
 40
0.0
 40
0.0
 40
0.0161756722761249
 40
0.0323169137829588
 40
0.0484425619883943
 40
0.0645715089961393
 40
0.0807226353341164
 40
0.0969147439450714
 40
0.1131664955255402
 40
0.129496346305073
 40
0.145922489261292
 40
0.1624627996346156
 40
0.1791347854482075
 40
0.1959555435639961
 40
0.2945755146269538
 40
0.3932797312250173
 40
0.4928176221931064
 40
0.5924285912822735
 40
0.6939020917449268
 40
0.792711538148638
 40
0.8267756331446499
 40
0.8608043324982594
 40
0.8949846314029171
 40
0.9295010594373622
 40
0.9645328322475691
 40
1.0
 40
1.0
 40
1.0
 40
1.0
 10
124.1634949693729
 20
127.1004962610203
 30
0.0
 10
124.1627618689217
 20
127.1001498695924
 30
0.0
 10
124.1612972284622
 20
127.0994578240489
 30
0.0
 10
124.1482408487971
 20
127.0938754620026
 30
0.0
 10
124.1272262882743
 20
127.0850086990086
 30
0.0
 10
124.0974790829336
 20
127.0725675982937
 30
0.0
 10
124.059206770278
 20
127.0566769397387
 30
0.0
 10
124.0123540893568
 20
127.0373511959115
 30
0.0
 10
123.9569363593198
 20
127.0146351063921
 30
0.0
 10
123.8929503954894
 20
126.9885661020175
 30
0.0
 10
123.8203969113388
 20
126.9591836546493
 30
0.0
 10
123.7392802138591
 20
126.9265294073144
 30
0.0
 10
123.6495865591091
 20
126.8906369602797
 30
0.0
 10
123.3925407124558
 20
126.7883990526133
 30
0.0
 10
122.8645047268621
 20
126.5818748391468
 30
0.0
 10
121.8858700796169
 20
126.2447895257973
 30
0.0
 10
120.6999937766972
 20
125.9016446664676
 30
0.0
 10
119.3295275116213
 20
125.6045327658077
 30
0.0
 10
117.8436702396559
 20
125.3944893380748
 30
0.0
 10
116.6235176058848
 20
125.3362639352062
 30
0.0
 10
115.7570935729312
 20
125.3499562764661
 30
0.0
 10
115.2288486444437
 20
125.3753243620769
 30
0.0
 10
114.7040754132348
 20
125.4173469777942
 30
0.0
 10
114.1830861736476
 20
125.475630941022
 30
0.0
 10
113.6658452285995
 20
125.5482544862676
 30
0.0
 10
113.3302081162754
 20
125.6071348039582
 30
0.0
 10
113.1613531282184
 20
125.636756782504
 30
0.0
  0
LINE
  5
195
330
1F
100
AcDbEntity
  8
0
  6
Continuous
 62
     7
370
    25
100
AcDbLine
 10
124.1634949694
 20
127.100496261
 30
0.0
 11
129.1875455793
 21
127.100496261
 31
0.0
  0
LINE
  5
196
330
1F
100
AcDbEntity
  8
0
  6
Continuous
 62
     7
370
    25
100
AcDbLine
 10
121.3375455793
 20
113.5257696718
 30
0.0
 11
121.3375455793
 21
109.462996261
 31
0.0
  0
SPLINE
  5
197
330
1F
100
AcDbEntity
  8
0
  6
Continuous
 62
     7
370
    25
100
AcDbSpline
210
0.0
220
0.0
230
1.0
 70
     8
 71
     3
 72
    25
 73
    21
 74
     0
 42
0.000000001
 43
0.00000001
 40
0.0
 40
0.0
 40
0.0
 40
0.0
 40
0.0278144320063462
 40
0.0555680196245754
 40
0.083331625367772
 40
0.111176035216759
 40
0.1391714221532265
 40
0.1673868326284763
 40
0.1958897140434718
 40
0.2247454979318961
 40
0.254017249222145
 40
0.3796724410016501
 40
0.5056484635002454
 40
0.629752729069345
 40
0.7535891720571729
 40
0.8038564806093713
 40
0.853339684343451
 40
0.9023264398358534
 40
0.9511131859219439
 40
1.0
 40
1.0
 40
1.0
 40
1.0
 10
116.6875455792888
 20
118.0104928433853
 30
0.0
 10
116.7562009332511
 20
118.0099597582782
 30
0.0
 10
116.8933614568038
 20
118.0088947541938
 30
0.0
 10
117.0986040393896
 20
117.9957998568016
 30
0.0
 10
117.3029250558866
 20
117.9742613702291
 30
0.0
 10
117.5063261079756
 20
117.9434398983805
 30
0.0
 10
117.7088017388215
 20
117.903527145873
 30
0.0
 10
117.9103506030691
 20
117.854426952932
 30
0.0
 10
118.1109646238718
 20
117.7961137054202
 30
0.0
 10
118.3106623882041
 20
117.7285217625534
 30
0.0
 10
118.7262272088834
 20
117.5677082464378
 30
0.0
 10
119.329003625426
 20
117.2537313470964
 30
0.0
 10
120.0230601809309
 20
116.6901598716017
 30
0.0
 10
120.589833810328
 20
116.0144156523477
 30
0.0
 10
120.9274116159992
 20
115.3970538248712
 30
0.0
 10
121.1158740252881
 20
114.9049923853612
 30
0.0
 10
121.2151352428126
 20
114.5673406028148
 30
0.0
 10
121.2854798315195
 20
114.2247094607912
 30
0.0
 10
121.3294784300381
 20
113.8773447603497
 30
0.0
 10
121.3348546935184
 20
113.6430413837428
 30
0.0
 10
121.3375455792888
 20
113.5257696718201
 30
0.0
  0
LINE
  5
198
330
1F
100
AcDbEntity
  8
0
  6
Continuous
 62
     7
370
    25
100
AcDbLine
 10
114.7726723
 20
118.0104928434
 30
0.0
 11
116.6875455793
 21
118.0104928434
 31
0.0
  0
SPLINE
  5
199
330
1F
100
AcDbEntity
  8
0
  6
Continuous
 62
     7
370
    25
100
AcDbSpline
210
0.0
220
0.0
230
1.0
 70
     8
 71
     3
 72
    12
 73
     8
 74
     0
 42
0.000000001
 43
0.00000001
 40
0.0
 40
0.0
 40
0.0
 40
0.0
 40
0.1992838848975283
 40
0.3984605265796802
 40
0.5979968004971712
 40
0.79835706848334
 40
1.0
 40
1.0
 40
1.0
 40
1.0
 10
113.7716384576605
 20
117.9082985306619
 30
0.0
 10
113.837091734961
 20
117.9213208834266
 30
0.0
 10
113.9679630663429
 20
117.9473585810687
 30
0.0
 10
114.1668125179666
 20
117.9757891400428
 30
0.0
 10
114.3672190338376
 20
117.9962203010243
 30
0.0
 10
114.5693899512548
 20
118.0086593780948
 30
0.0
 10
114.7047675349059
 20
118.0098803896695
 30
0.0
 10
114.7726722999993
 20
118.0104928433853
 30
0.0
  0
LINE
  5
19A
330
1F
100
AcDbEntity
  8
0
  6
Continuous
 62
     7
370
    25
100
AcDbLine
 10
108.3468754501
 20
117.9081346066
 30
0.0
 11
113.7708654686
 21
117.9081346066
 31
0.0
  0
SPLINE
  5
19B
330
1F
100
AcDbEntity
  8
0
  6
Continuous
 62
     7
370
    25
100
AcDbSpline
210
0.0
220
0.0
230
1.0
 70
     8
 71
     3
 72
    24
 73
    20
 74
     0
 42
0.000000001
 43
0.00000001
 40
0.0
 40
0.0
 40
0.0
 40
0.0
 40
0.0410257106293119
 40
0.0818520099087221
 40
0.1225800578367529
 40
0.1633117464073406
 40
0.20414894028232
 40
0.2451927184766019
 40
0.2865426449252036
 40
0.3282960933661203
 40
0.3705476475506245
 40
0.4133885920111515
 40
0.4569065022356777
 40
0.5011849368588074
 40
0.6001856774981357
 40
0.6987388860498591
 40
0.7976800645504363
 40
0.8978349910062732
 40
1.0
 40
1.0
 40
1.0
 40
1.0
 10
104.5748885431387
 20
119.8457764236833
 30
0.0
 10
104.637927631094
 20
119.8452417233682
 30
0.0
 10
104.7636993964774
 20
119.8441749217256
 30
0.0
 10
104.9516375579903
 20
119.8330314297274
 30
0.0
 10
105.1382276508164
 20
119.8148699314198
 30
0.0
 10
105.3234694333527
 20
119.7889950106983
 30
0.0
 10
105.5073586165813
 20
119.7555581248867
 30
0.0
 10
105.6898922825543
 20
119.7144741033431
 30
0.0
 10
105.8710676894934
 20
119.6657113552496
 30
0.0
 10
106.0508824734689
 20
119.6092138671059
 30
0.0
 10
106.2293356725473
 20
119.5449227723036
 30
0.0
 10
106.4064237106954
 20
119.4727690923712
 30
0.0
 10
106.5821558349791
 20
119.3926819073325
 30
0.0
 10
106.8271704685777
 20
119.268841020647
 30
0.0
 10
107.1313535477647
 20
119.0902160384493
 30
0.0
 10
107.4786610292158
 20
118.8411268543878
 30
0.0
 10
107.7978352926885
 20
118.5615572694082
 30
0.0
 10
108.0917471949479
 20
118.2527316314405
 30
0.0
 10
108.2612712816332
 20
118.024639588143
 30
0.0
 10
108.3468754501121
 20
117.9094605001154
 30
0.0
  0
LINE
  5
19C
330
1F
100
AcDbEntity
  8
0
  6
Continuous
 62
     7
370
    25
100
AcDbLine
 10
101.7833468262
 20
119.8457764237
 30
0.0
 11
104.5748885431
 21
119.8457764237
 31
0.0
  0
SPLINE
  5
19D
330
1F
100
AcDbEntity
  8
0
  6
Continuous
 62
     7
370
    25
100
AcDbSpline
210
0.0
220
0.0
230
1.0
 70
     8
 71
     3
 72
     8
 73
     4
 74
     0
 42
0.000000001
 43
0.00000001
 40
0.0
 40
0.0
 40
0.0
 40
0.0
 40
1.0
 40
1.0
 40
1.0
 40
1.0
 10
101.73754275453
 20
119.909229414693
 30
0.0
 10
101.7528107784277
 20
119.8881129442948
 30
0.0
 10
101.7680788023254
 20
119.8669618772422
 30
0.0
 10
101.7833468262231
 20
119.8457764236833
 30
0.0
  0
LINE
  5
19E
330
1F
100
AcDbEntity
  8
0
  6
Continuous
 62
     7
370
    25
100
AcDbLine
 10
101.7375455793
 20
127.100496261
 30
0.0
 11
101.7375455793
 21
119.9092294147
 31
0.0
  0
LINE
  5
19F
330
1F
100
AcDbEntity
  8
0
  6
Continuous
 62
     7
370
    25
100
AcDbLine
 10
101.7375455793
 20
127.100496261
 30
0.0
 11
105.607545424
 21
127.100496261
 31
0.0
  0
LINE
  5
1A0
330
1F
100
AcDbEntity
  8
0
  6
Continuous
 62
     7
370
    25
100
AcDbLine
 10
132.6875455793
 20
125.012996261
 30
0.0
 11
136.3875455793
 21
125.012996261
 31
0.0
  0
LINE
  5
1A1
330
1F
100
AcDbEntity
  8
0
  6
Continuous
 62
     7
370
    25
100
AcDbLine
 10
132.6875455793
 20
125.012996261
 30
0.0
 11
132.6875455793
 21
109.462996261
 31
0.0
  0
ARC
  5
1A2
330
1F
100
AcDbEntity
  8
0
  6
Continuous
 62
     7
370
    25
100
AcDbCircle
 10
136.3875455793
 20
123.812996261
 30
0.0
 40
1.199999999999989
100
AcDbArc
 50
0.0
 51
90.0
  0
LINE
  5
1A3
330
1F
100
AcDbEntity
  8
0
  6
Continuous
 62
     7
370
    25
100
AcDbLine
 10
198.6875455793
 20
95.7371367973
 30
0.0
 11
198.6875455793
 21
109.462996261
 31
0.0
  0
ARC
  5
1A4
330
1F
100
AcDbEntity
  8
0
  6
Continuous
 62
     7
370
    25
100
AcDbCircle
 10
196.6875455793
 20
123.1888557394
 30
0.0
 40
2.000000000000014
100
AcDbArc
 50
0.0
 51
65.0
  0
ARC
  5
1A5
330
1F
100
AcDbEntity
  8
0
  6
Continuous
 62
     7
370
    25
100
AcDbCircle
 10
155.7927715612
 20
115.362996261
 30
0.0
 40
0.4000000000000171
100
AcDbArc
 50
70.0
 51
90.0
  0
LINE
  5
1A6
330
1F
100
AcDbEntity
  8
0
  6
Continuous
 62
     7
370
    25
100
AcDbLine
 10
153.0875455793
 20
115.762996261
 30
0.0
 11
155.7927715612
 21
115.762996261
 31
0.0
  0
ARC
  5
1A7
330
1F
100
AcDbEntity
  8
0
  6
Continuous
 62
     7
370
    25
100
AcDbCircle
 10
198.3875455793
 20
115.762996261
 30
0.0
 40
0.3000000000000114
100
AcDbArc
 50
270.0
 51
0.0
  0
LINE
  5
1A8
330
1F
100
AcDbEntity
  8
0
  6
Continuous
 62
     7
370
    25
100
AcDbLine
 10
198.6875455793
 20
115.762996261
 30
0.0
 11
198.6875455793
 21
109.462996261
 31
0.0
  0
ARC
  5
1A9
330
1F
100
AcDbEntity
  8
0
  6
Continuous
 62
     7
370
    25
100
AcDbCircle
 10
153.0875455793
 20
115.362996261
 30
0.0
 40
0.4000000000000341
100
AcDbArc
 50
90.0
 51
180.0
  0
LINE
  5
1AA
330
1F
100
AcDbEntity
  8
0
  6
Continuous
 62
     7
370
    25
100
AcDbLine
 10
156.6875455793
 20
115.462996261
 30
0.0
 11
156.6875455793
 21
109.462996261
 31
0.0
  0
LINE
  5
1AB
330
1F
100
AcDbEntity
  8
0
  6
Continuous
 62
     7
370
    25
100
AcDbLine
 10
155.9295796185
 20
115.7388733093
 30
0.0
 11
156.6875455793
 21
115.462996261
 31
0.0
  0
SPLINE
  5
1AC
330
1F
100
AcDbEntity
  8
0
  6
Continuous
 62
     7
370
    25
100
AcDbSpline
210
0.0
220
0.0
230
1.0
 70
     8
 71
     3
 72
    27
 73
    23
 74
     0
 42
0.000000001
 43
0.00000001
 40
0.0
 40
0.0
 40
0.0
 40
0.0
 40
0.0402697624700542
 40
0.107532799477829
 40
0.1752033100493484
 40
0.2443421414388499
 40
0.3141691835577129
 40
0.3824820175242795
 40
0.417359470436925
 40
0.4525080293062946
 40
0.4999383320493061
 40
0.5333496338860315
 40
0.5670605051102956
 40
0.6016311753817762
 40
0.6364549459603586
 40
0.6840698964728499
 40
0.7320775681823153
 40
0.7810243288020462
 40
0.8302039675387931
 40
0.9021852747605695
 40
0.9746762606248124
 40
1.0
 40
1.0
 40
1.0
 40
1.0
 10
173.4470473055479
 20
113.9629962610203
 30
0.0
 10
173.5159832023531
 20
113.9131148581839
 30
0.0
 10
173.7000635026405
 20
113.7799159873717
 30
0.0
 10
174.0259446712044
 20
113.5609000544961
 30
0.0
 10
174.4249725072993
 20
113.3121310625619
 30
0.0
 10
174.8554599074284
 20
113.0743390340878
 30
0.0
 10
175.3148651623603
 20
112.8623900898403
 30
0.0
 10
175.7231807362623
 20
112.721655892505
 30
0.0
 10
176.0624558008229
 20
112.6415770616971
 30
0.0
 10
176.3566124456826
 20
112.5953174767561
 30
0.0
 10
176.6519081055947
 20
112.578020906084
 30
0.0
 10
176.9433252064217
 20
112.590008903961
 30
0.0
 10
177.1997175232416
 20
112.6213718293777
 30
0.0
 10
177.4551808378454
 20
112.6728544448827
 30
0.0
 10
177.738206265883
 20
112.7511084982714
 30
0.0
 10
178.0434267061663
 20
112.8604294448211
 30
0.0
 10
178.3676009165846
 20
113.0028666821403
 30
0.0
 10
178.6811885108908
 20
113.1625323868911
 30
0.0
 10
179.0308105417118
 20
113.3610994044087
 30
0.0
 10
179.4063491774502
 20
113.5981574380223
 30
0.0
 10
179.7204184287776
 20
113.8111918802433
 30
0.0
 10
179.8853009999951
 20
113.9317773028594
 30
0.0
 10
179.92798826667
 20
113.9629962610203
 30
0.0
  0
LINE
  5
1AD
330
1F
100
AcDbEntity
  8
0
  6
Continuous
 62
     7
370
    25
100
AcDbLine
 10
181.8125455793
 20
115.462996261
 30
0.0
 11
198.3875455793
 21
115.462996261
 31
0.0
  0
LINE
  5
1AE
330
1F
100
AcDbEntity
  8
0
  6
Continuous
 62
     7
370
    25
100
AcDbLine
 10
156.6875455793
 20
115.462996261
 30
0.0
 11
171.5625455793
 21
115.462996261
 31
0.0
  0
LINE
  5
1AF
330
1F
100
AcDbEntity
  8
0
  6
Continuous
 62
     7
370
    25
100
AcDbLine
 10
141.4125455793
 20
115.212996261
 30
0.0
 11
142.2375455793
 21
115.212996261
 31
0.0
  0
LINE
  5
1B0
330
1F
100
AcDbEntity
  8
0
  6
Continuous
 62
     7
370
    25
100
AcDbLine
 10
137.9875455793
 20
114.462996261
 30
0.0
 11
137.9875455793
 21
109.462996261
 31
0.0
  0
LINE
  5
1B1
330
1F
100
AcDbEntity
  8
0
  6
Continuous
 62
     7
370
    25
100
AcDbLine
 10
137.5875455793
 20
114.6939363687
 30
0.0
 11
137.9875455793
 21
114.462996261
 31
0.0
  0
LINE
  5
1B2
330
1F
100
AcDbEntity
  8
0
  6
Continuous
 62
     7
370
    25
100
AcDbLine
 10
137.5875455793
 20
114.6939363687
 30
0.0
 11
137.5875455793
 21
109.462996261
 31
0.0
  0
LINE
  5
1B3
330
1F
100
AcDbEntity
  8
0
  6
Continuous
 62
     7
370
    25
100
AcDbLine
 10
137.9875455793
 20
114.462996261
 30
0.0
 11
141.4125455793
 21
114.462996261
 31
0.0
  0
LINE
  5
1B4
330
1F
100
AcDbEntity
  8
0
  6
Continuous
 62
     7
370
    25
100
AcDbLine
 10
141.4125455793
 20
114.462996261
 30
0.0
 11
141.4125455793
 21
109.462996261
 31
0.0
  0
LINE
  5
1B5
330
1F
100
AcDbEntity
  8
0
  6
Continuous
 62
     7
370
    25
100
AcDbLine
 10
142.2375455793
 20
113.462996261
 30
0.0
 11
152.6875455793
 21
113.462996261
 31
0.0
  0
LINE
  5
1B6
330
1F
100
AcDbEntity
  8
0
  6
Continuous
 62
     7
370
    25
100
AcDbLine
 10
142.2375455793
 20
113.462996261
 30
0.0
 11
142.2375455793
 21
109.462996261
 31
0.0
  0
LINE
  5
1B7
330
1F
100
AcDbEntity
  8
0
  6
Continuous
 62
     7
370
    25
100
AcDbLine
 10
152.6875455793
 20
113.462996261
 30
0.0
 11
152.6875455793
 21
109.462996261
 31
0.0
  0
SPLINE
  5
1B8
330
1F
100
AcDbEntity
  8
0
  6
Continuous
 62
     7
370
    25
100
AcDbSpline
210
0.0
220
0.0
230
1.0
 70
     8
 71
     3
 72
    37
 73
    33
 74
     0
 42
0.000000001
 43
0.00000001
 40
0.0
 40
0.0
 40
0.0
 40
0.0
 40
0.0114878548102806
 40
0.0231559765621659
 40
0.035007648435437
 40
0.0470460033795327
 40
0.0592740307999939
 40
0.0716945830965817
 40
0.0843103820274691
 40
0.0971240248798044
 40
0.1101379904320565
 40
0.1233546446979449
 40
0.1811510010973282
 40
0.2483631736114464
 40
0.2888373415819289
 40
0.3232297457604655
 40
0.3515392131491969
 40
0.373766426625621
 40
0.4399300285953861
 40
0.4987424063270025
 40
0.5023253005651624
 40
0.5613100074513704
 40
0.6252595444338113
 40
0.6818650083849757
 40
0.7483890016987852
 40
0.7860781471964627
 40
0.819485659979972
 40
0.8486127715281655
 40
0.873462272774735
 40
0.9389926156604063
 40
0.9981523731393459
 40
1.0
 40
1.0
 40
1.0
 40
1.0
 10
123.5375455792888
 20
132.9266485643736
 30
0.0
 10
123.5366191280103
 20
132.9262050473651
 30
0.0
 10
123.5347516876182
 20
132.9253110536977
 30
0.0
 10
123.5194786272784
 20
132.9181190762394
 30
0.0
 10
123.4945769248146
 20
132.9066678326469
 30
0.0
 10
123.4587226528787
 20
132.8905180738724
 30
0.0
 10
123.4117551420411
 20
132.8697903943188
 30
0.0
 10
123.3532122316202
 20
132.844451875317
 30
0.0
 10
123.2827340920426
 20
132.8145114547625
 30
0.0
 10
123.199959527765
 20
132.7799674807205
 30
0.0
 10
123.1045429826469
 20
132.7408177391059
 30
0.0
 10
122.8749741492584
 20
132.6481190679447
 30
0.0
 10
122.3905559352858
 20
132.4593961774302
 30
0.0
 10
121.6115559637404
 20
132.181306377459
 30
0.0
 10
120.8203375123202
 20
131.9307195101296
 30
0.0
 10
120.1892870190774
 20
131.7557027487998
 30
0.0
 10
119.6362490627411
 20
131.6158681082008
 30
0.0
 10
118.8432911338446
 20
131.4354572628547
 30
0.0
 10
117.7729567935115
 20
131.2463909412126
 30
0.0
 10
116.7919665140762
 20
131.1411041335029
 30
0.0
 10
115.8639992849566
 20
131.0840713615499
 30
0.0
 10
114.8915437911962
 20
131.0694767631802
 30
0.0
 10
113.5654135857628
 20
131.1476699796713
 30
0.0
 10
112.2953781012691
 20
131.3081497012655
 30
0.0
 10
111.3356021005995
 20
131.4932612394792
 30
0.0
 10
110.6369504532547
 20
131.6607508432093
 30
0.0
 10
110.1931423150995
 20
131.7743740494175
 30
0.0
 10
109.8606052531696
 20
131.8675578843261
 30
0.0
 10
109.4734468429263
 20
131.9822227485847
 30
0.0
 10
109.1361988808145
 20
132.0895685576448
 30
0.0
 10
109.0384748144855
 20
132.1271341309314
 30
0.0
 10
109.0375728942137
 20
132.1272655397479
 30
0.0
 10
109.0375455792888
 20
132.1272695195032
 30
0.0
  0
LINE
  5
1B9
330
1F
100
AcDbEntity
  8
0
  6
Continuous
 62
     7
370
    25
100
AcDbLine
 10
123.5375455793
 20
132.9266485644
 30
0.0
 11
123.5375455793
 21
127.5692222818
 31
0.0
  0
SPLINE
  5
1BA
330
1F
100
AcDbEntity
  8
0
  6
Continuous
 62
     7
370
    25
100
AcDbSpline
210
0.0
220
0.0
230
1.0
 70
     8
 71
     3
 72
    30
 73
    26
 74
     0
 42
0.000000001
 43
0.00000001
 40
0.0
 40
0.0
 40
0.0
 40
0.0
 40
0.019241170074206
 40
0.0381353539376968
 40
0.0566868884861293
 40
0.0749003554931382
 40
0.0927805967284129
 40
0.1103327298326415
 40
0.1275621649289931
 40
0.144474621934186
 40
0.2455865830540401
 40
0.3577720192516979
 40
0.4505017408926386
 40
0.5720127868619931
 40
0.616806984023327
 40
0.6590088499484595
 40
0.6986242498830249
 40
0.7356603299386053
 40
0.7701258931933734
 40
0.8073679165912062
 40
0.8483950324901541
 40
0.8881367798832741
 40
0.9266264622122315
 40
0.9639007443622737
 40
1.0
 40
1.0
 40
1.0
 40
1.0
 10
114.3667269886767
 20
125.9051309714284
 30
0.0
 10
114.4497594685563
 20
125.8940038661035
 30
0.0
 10
114.6143270596291
 20
125.8719503164374
 30
0.0
 10
114.8622085753097
 20
125.8438984271747
 30
0.0
 10
115.1074852507521
 20
125.8199468966488
 30
0.0
 10
115.3500430843633
 20
125.8004169444554
 30
0.0
 10
115.5894777614722
 20
125.7852246522787
 30
0.0
 10
115.8254909568793
 20
125.7743930910479
 30
0.0
 10
116.0578090021901
 20
125.7679125257948
 30
0.0
 10
116.6663597718179
 20
125.7622810342087
 30
0.0
 10
117.7046722690381
 20
125.8222544336921
 30
0.0
 10
119.0200237971259
 20
126.0216769068659
 30
0.0
 10
120.2995690100147
 20
126.3271582675535
 30
0.0
 10
121.1910095541194
 20
126.6071010704726
 30
0.0
 10
121.8086744230034
 20
126.8345501669933
 30
0.0
 10
122.1519975082985
 20
126.9648288274984
 30
0.0
 10
122.4436885931924
 20
127.0809197654574
 30
0.0
 10
122.688233949007
 20
127.1822879948579
 30
0.0
 10
122.9005886294339
 20
127.2736260473712
 30
0.0
 10
123.0916516040519
 20
127.3577011313134
 30
0.0
 10
123.2568990082229
 20
127.4326940852773
 30
0.0
 10
123.3864395584667
 20
127.493682584823
 30
0.0
 10
123.4748059276879
 20
127.5369202465886
 30
0.0
 10
123.52795177295
 20
127.5641503324675
 30
0.0
 10
123.5343819688909
 20
127.5675497785975
 30
0.0
 10
123.5375455792888
 20
127.5692222817719
 30
0.0
  0
SPLINE
  5
1BB
330
1F
100
AcDbEntity
  8
0
  6
Continuous
 62
     7
370
    25
100
AcDbSpline
210
0.0
220
0.0
230
1.0
 70
     8
 71
     3
 72
    38
 73
    34
 74
     0
 42
0.000000001
 43
0.00000001
 40
0.0
 40
0.0
 40
0.0
 40
0.0
 40
0.125
 40
0.125
 40
0.2500000000000001
 40
0.2500000000000001
 40
0.3125000000000003
 40
0.3125000000000003
 40
0.3750000000000006
 40
0.3750000000000006
 40
0.4375000000000008
 40
0.4375000000000008
 40
0.500000000000001
 40
0.500000000000001
 40
0.5625000000000012
 40
0.5625000000000012
 40
0.6250000000000014
 40
0.6250000000000014
 40
0.6875000000000017
 40
0.6875000000000017
 40
0.7187500000000012
 40
0.7187500000000012
 40
0.7500000000000009
 40
0.7500000000000009
 40
0.7812500000000004
 40
0.7812500000000004
 40
0.8125
 40
0.8125
 40
0.875
 40
0.875
 40
0.9375
 40
0.9375
 40
1.0
 40
1.0
 40
1.0
 40
1.0
 10
109.0375455792888
 20
131.9990441459243
 30
0.0
 10
109.0375455792888
 20
131.9990441459243
 30
0.0
 10
109.0993513368522
 20
131.9764000632623
 30
0.0
 10
109.3489738822876
 20
131.8838156742063
 30
0.0
 10
109.5327015132257
 20
131.8154280942536
 30
0.0
 10
109.8890903498107
 20
131.6795859950518
 30
0.0
 10
110.0222508113162
 20
131.6283930099953
 30
0.0
 10
110.3133298220126
 20
131.5147044048829
 30
0.0
 10
110.4698197735219
 20
131.4527777973765
 30
0.0
 10
110.8032012148098
 20
131.317892688686
 30
0.0
 10
110.9801049731729
 20
131.2449544343994
 30
0.0
 10
111.3533466206462
 20
131.0859784996035
 30
0.0
 10
111.5510906115274
 20
130.999338729727
 30
0.0
 10
111.9571140447805
 20
130.8124210571746
 30
0.0
 10
112.1651674381675
 20
130.7123861433655
 30
0.0
 10
112.5874617109017
 20
130.4931225931865
 30
0.0
 10
112.8018270139768
 20
130.3741194015219
 30
0.0
 10
113.2296693255563
 20
130.103845551198
 30
0.0
 10
113.4460709766629
 20
129.9505967256864
 30
0.0
 10
113.7447034195431
 20
129.6845282021032
 30
0.0
 10
113.8398960090128
 20
129.5897559558304
 30
0.0
 10
114.0175212608696
 20
129.3839990986405
 30
0.0
 10
114.100135571498
 20
129.2721405568699
 30
0.0
 10
114.2422158465196
 20
129.0386250526475
 30
0.0
 10
114.3026013957646
 20
128.9160639866918
 30
0.0
 10
114.4020518879195
 20
128.6595932234666
 30
0.0
 10
114.4413433269443
 20
128.5243532099168
 30
0.0
 10
114.5280399130974
 20
128.1160712069523
 30
0.0
 10
114.5467482400921
 20
127.8398110291673
 30
0.0
 10
114.5432522194604
 20
127.2830632505316
 30
0.0
 10
114.5207725992518
 20
127.0048330065408
 30
0.0
 10
114.4551449514697
 20
126.453447186356
 30
0.0
 10
114.4116474077802
 20
126.1791935172535
 30
0.0
 10
114.3621678606702
 20
125.9057640452919
 30
0.0
  0
LINE
  5
1BC
330
1F
100
AcDbEntity
  8
0
  6
Continuous
 62
     7
370
    25
100
AcDbLine
 10
109.0375455793
 20
131.9990441459
 30
0.0
 11
109.0375455793
 21
132.1272695194
 31
0.0
  0
SPLINE
  5
1BD
330
1F
100
AcDbEntity
  8
0
  6
Continuous
 62
     7
370
    25
100
AcDbSpline
210
0.0
220
0.0
230
1.0
 70
     8
 71
     3
 72
    14
 73
    10
 74
     0
 42
0.000000001
 43
0.00000001
 40
0.0
 40
0.0
 40
0.0
 40
0.0
 40
0.0003951392850831
 40
0.0003951392850831
 40
0.0003951392850831
 40
0.0008159035679249
 40
0.0008159035679249
 40
0.0008159035679249
 40
0.0012369936130997
 40
0.0012369936130997
 40
0.0012369936130997
 40
0.0012369936130997
 10
113.1654295290203
 20
125.6379692580206
 30
0.0
 10
113.293938767127
 20
125.6668432257341
 30
0.0
 10
113.422502274856
 20
125.6955314392104
 30
0.0
 10
113.5510526531394
 20
125.7240342832478
 30
0.0
 10
113.687937900803
 20
125.7543851769386
 30
0.0
 10
113.8248335467028
 20
125.7845311419675
 30
0.0
 10
113.9616538080519
 20
125.8144829615361
 30
0.0
 10
114.0985797969968
 20
125.844457926316
 30
0.0
 10
114.235456868961
 20
125.8742439757612
 30
0.0
 10
114.3721937181481
 20
125.9038664489299
 30
0.0
  0
LINE
  5
1BE
330
1F
100
AcDbEntity
  8
0
  6
Continuous
 62
     7
370
    25
100
AcDbLine
 10
105.607545424
 20
127.100496261
 30
0.0
 11
109.0375455793
 21
131.9990441459
 31
0.0
  0
LINE
  5
1BF
330
1F
100
AcDbEntity
  8
0
  6
Continuous
 62
     7
370
    25
100
AcDbLine
 10
181.8125455793
 20
115.462996261
 30
0.0
 11
181.8125455793
 21
129.4629962526
 31
0.0
  0
LINE
  5
1C0
330
1F
100
AcDbEntity
  8
0
  6
Continuous
 62
     7
370
    25
100
AcDbLine
 10
171.5625455793
 20
129.4629963487
 30
0.0
 11
171.5625455793
 21
115.462996261
 31
0.0
  0
LINE
  5
1C1
330
1F
100
AcDbEntity
  8
0
  6
Continuous
 62
     7
370
    25
100
AcDbLine
 10
108.2879837309
 20
132.9363819707
 30
0.0
 11
109.0375737099
 21
132.1272706329
 31
0.0
  0
LINE
  5
1C2
330
1F
100
AcDbEntity
  8
0
  6
Continuous
 62
     7
370
    25
100
AcDbLine
 10
123.5375585274
 20
132.9266488202
 30
0.0
 11
124.2058886733
 21
133.7357606426
 31
0.0
  0
LINE
  5
1C3
330
1F
100
AcDbEntity
  8
0
  6
Continuous
 62
     7
370
    25
100
AcDbLine
 10
99.4892116291
 20
128.3985724724
 30
0.0
 11
101.7375455793
 21
127.100496261
 31
0.0
  0
LINE
  5
1C4
330
1F
100
AcDbEntity
  8
0
  6
Continuous
 62
     7
370
    25
100
AcDbLine
 10
98.7375455793
 20
129.700496261
 30
0.0
 11
99.4892116291
 21
128.3985724724
 31
0.0
  0
LINE
  5
1C5
330
1F
100
AcDbEntity
  8
0
  6
Continuous
 62
     7
370
    25
100
AcDbLine
 10
98.7375455793
 20
131.6660909848
 30
0.0
 11
98.7375455793
 21
129.700496261
 31
0.0
  0
LINE
  5
1C6
330
1F
100
AcDbEntity
  8
0
  6
Continuous
 62
     7
370
    25
100
AcDbLine
 10
100.2375455793
 20
132.5321163886
 30
0.0
 11
98.7375455793
 21
131.6660909848
 31
0.0
  0
ARC
  5
1C7
330
1F
100
AcDbEntity
  8
0
  6
Continuous
 62
     7
370
    25
100
AcDbCircle
 10
147.7125455793
 20
138.312996261
 30
0.0
 40
1.0
100
AcDbArc
 50
180.0
 51
270.0
  0
LINE
  5
1C8
330
1F
100
AcDbEntity
  8
0
  6
Continuous
 62
     7
370
    25
100
AcDbLine
 10
149.4625455793
 20
137.312996261
 30
0.0
 11
147.7125455793
 21
137.312996261
 31
0.0
  0
ARC
  5
1C9
330
1F
100
AcDbEntity
  8
0
  6
Continuous
 62
     7
370
    25
100
AcDbCircle
 10
149.4625455793
 20
138.312996261
 30
0.0
 40
1.0
100
AcDbArc
 50
270.0
 51
0.0
  0
LINE
  5
1CA
330
1F
100
AcDbEntity
  8
0
  6
Continuous
 62
     7
370
    25
100
AcDbLine
 10
150.4625455793
 20
138.4105915252
 30
0.0
 11
150.4625455793
 21
138.312996261
 31
0.0
  0
LINE
  5
1CB
330
1F
100
AcDbEntity
  8
0
  6
Continuous
 62
     7
370
    25
100
AcDbLine
 10
151.9217433839
 20
140.937996261
 30
0.0
 11
150.4625455793
 21
138.4105915252
 31
0.0
  0
LINE
  5
1CC
330
1F
100
AcDbEntity
  8
0
  6
Continuous
 62
     7
370
    25
100
AcDbLine
 10
170.5625456341
 20
130.462996261
 30
0.0
 11
171.5625455793
 21
129.4629963487
 31
0.0
  0
LINE
  5
1CD
330
1F
100
AcDbEntity
  8
0
  6
Continuous
 62
     7
370
    25
100
AcDbLine
 10
124.1634947211
 20
127.1004975513
 30
0.0
 11
123.5375487075
 21
127.5692224067
 31
0.0
  0
LINE
  5
1CE
330
1F
100
AcDbEntity
  8
0
  6
Continuous
 62
     7
370
    25
100
AcDbLine
 10
146.7125455793
 20
138.4105915252
 30
0.0
 11
145.2533477747
 21
140.937996261
 31
0.0
  0
LINE
  5
1CF
330
1F
100
AcDbEntity
  8
0
  6
Continuous
 62
     7
370
    25
100
AcDbLine
 10
146.7125455793
 20
138.312996261
 30
0.0
 11
146.7125455793
 21
138.4105915252
 31
0.0
  0
LINE
  5
1D0
330
1F
100
AcDbEntity
  8
0
  6
Continuous
 62
     7
370
    25
100
AcDbLine
 10
141.4125455793
 20
114.462996261
 30
0.0
 11
141.4125455793
 21
115.212996261
 31
0.0
  0
LINE
  5
1D1
330
1F
100
AcDbEntity
  8
0
  6
Continuous
 62
     7
370
    25
100
AcDbLine
 10
142.2375455793
 20
115.212996261
 30
0.0
 11
142.2375455793
 21
113.462996261
 31
0.0
  0
LINE
  5
1D2
330
1F
100
AcDbEntity
  8
0
  6
Continuous
 62
     7
370
    25
100
AcDbLine
 10
152.6875455793
 20
113.462996261
 30
0.0
 11
152.6875455793
 21
115.362996261
 31
0.0
  0
LINE
  5
1D3
330
1F
100
AcDbEntity
  8
0
  6
Continuous
 62
     7
370
    25
100
AcDbLine
 10
137.5875455793
 20
123.812996261
 30
0.0
 11
137.5875455793
 21
114.6939363687
 31
0.0
  0
LINE
  5
1D4
330
1F
100
AcDbEntity
  8
0
  6
Continuous
 62
     7
370
    25
100
AcDbLine
 10
132.6875455793
 20
126.912996261
 30
0.0
 11
132.6875455793
 21
125.012996261
 31
0.0
  0
LINE
  5
1D5
330
1F
100
AcDbEntity
  8
0
  6
Continuous
 62
     7
370
    25
100
AcDbLine
 10
138.6875455793
 20
140.737996261
 30
0.0
 11
138.6875455793
 21
136.312996261
 31
0.0
  0
LINE
  5
1D6
330
1F
100
AcDbEntity
  8
0
  6
Continuous
 62
     7
370
    25
100
AcDbLine
 10
156.6875455793
 20
133.462996261
 30
0.0
 11
156.6875455793
 21
140.937996261
 31
0.0
  0
LINE
  5
1D7
330
1F
100
AcDbEntity
  8
0
  6
Continuous
 62
     7
370
    25
100
AcDbLine
 10
181.8125453315
 20
129.4629962857
 30
0.0
 11
182.8125452283
 21
130.4629961949
 31
0.0
  0
LINE
  5
1D8
330
1F
100
AcDbEntity
  8
0
  6
Continuous
 62
     7
370
    25
100
AcDbLine
 10
198.6875455793
 20
115.762996261
 30
0.0
 11
198.6875455793
 21
123.1888557394
 31
0.0
  0
SPLINE
  5
1D9
330
1F
100
AcDbEntity
  8
0
  6
Continuous
 62
     7
370
    25
100
AcDbSpline
210
0.0
220
0.0
230
1.0
 70
     8
 71
     3
 72
     9
 73
     5
 74
     0
 42
0.000000001
 43
0.00000001
 40
0.0
 40
0.0
 40
0.0
 40
0.0
 40
0.5102121239851395
 40
0.9999999999999999
 40
0.9999999999999999
 40
0.9999999999999999
 40
0.9999999999999999
 10
99.54190897595988
 20
119.9246227776722
 30
0.0
 10
99.91677103293867
 20
119.9221328602905
 30
0.0
 10
100.6514890832485
 20
119.9172526991484
 30
0.0
 10
101.3804896737052
 20
119.9118678077621
 30
0.0
 10
101.7375453245186
 20
119.9092303532474
 30
0.0
  0
LINE
  5
1DA
330
1F
100
AcDbEntity
  8
0
  6
Continuous
 62
     7
370
    25
100
AcDbLine
 10
99.4892116291
 20
119.9550470686
 30
0.0
 11
99.5419089778
 21
119.9246222401
 31
0.0
  0
LINE
  5
1DB
330
1F
100
AcDbEntity
  8
0
  6
Continuous
 62
     7
370
    25
100
AcDbLine
 10
99.4892116291
 20
128.3985724724
 30
0.0
 11
99.4892116291
 21
119.9550470686
 31
0.0
  0
SPLINE
  5
1DC
330
1F
100
AcDbEntity
  8
0
  6
Continuous
 62
     7
370
    25
100
AcDbSpline
210
0.0
220
0.0
230
1.0
 70
    24
 71
     3
 72
     8
 73
     4
 74
     0
 42
0.000000001
 43
0.00000001
 40
0.0000004089325119
 40
0.0000004089325119
 40
0.0000004089325119
 40
0.0000004089325119
 40
0.0015399868451459
 40
0.0015399868451459
 40
0.0015399868451459
 40
0.0015399868451459
 10
98.73754557928878
 20
120.3890216648048
 30
0.0
 10
98.98853665531324
 20
120.2441118994979
 30
0.0
 10
99.23912585181618
 20
120.0994341594409
 30
0.0
 10
99.48921162912832
 20
119.9550470685892
 30
0.0
  0
LINE
  5
1DD
330
1F
100
AcDbEntity
  8
0
  6
Continuous
 62
     7
370
    25
100
AcDbLine
 10
98.7375455793
 20
129.700496261
 30
0.0
 11
98.7375455793
 21
120.3890216648
 31
0.0
  0
SPLINE
  5
1DE
330
1F
100
AcDbEntity
  8
0
  6
Continuous
 62
     7
370
    25
100
AcDbSpline
210
0.0
220
0.0
230
1.0
 70
     8
 71
     3
 72
     8
 73
     4
 74
     0
 42
0.000000001
 43
0.00000001
 40
0.0
 40
0.0
 40
0.0
 40
0.0
 40
1.0
 40
1.0
 40
1.0
 40
1.0
 10
101.8672273220456
 20
119.5229969387569
 30
0.0
 10
101.839279101926
 20
119.6308132927324
 30
0.0
 10
101.8113190137573
 20
119.7384071428986
 30
0.0
 10
101.7833468262231
 20
119.8457764236833
 30
0.0
  0
LINE
  5
1DF
330
1F
100
AcDbEntity
  8
0
  6
Continuous
 62
     7
370
    25
100
AcDbLine
 10
101.8672304606
 20
119.522996261
 30
0.0
 11
100.2375447925
 21
119.522996261
 31
0.0
  0
LINE
  5
1E0
330
1F
100
AcDbEntity
  8
0
  6
Continuous
 62
     7
370
    25
100
AcDbLine
 10
100.2375449924
 20
119.5229965998
 30
0.0
 11
99.5419085144
 21
119.9246225077
 31
0.0
  0
LINE
  5
1E1
330
1F
100
AcDbEntity
  8
0
  6
Continuous
 62
     7
370
    25
100
AcDbLine
 10
108.2915064765
 20
117.525496261
 30
0.0
 11
108.0393348485
 21
117.525496261
 31
0.0
  0
SPLINE
  5
1E2
330
1F
100
AcDbEntity
  8
0
  6
Continuous
 62
     7
370
    25
100
AcDbSpline
210
0.0
220
0.0
230
1.0
 70
     8
 71
     3
 72
    26
 73
    22
 74
     0
 42
0.000000001
 43
0.00000001
 40
0.0
 40
0.0
 40
0.0
 40
0.0
 40
0.0524616379932503
 40
0.1026498591890872
 40
0.150565513457809
 40
0.1962095861957063
 40
0.2395832262568645
 40
0.2806877815599511
 40
0.3195248450380211
 40
0.3560963147430692
 40
0.3904044736547445
 40
0.4224520974433627
 40
0.4522426027417772
 40
0.4797802555366611
 40
0.5050704712281336
 40
0.5966394156799991
 40
0.6841917884819224
 40
0.7679874773571101
 40
0.8483228539139507
 40
0.925534163520116
 40
1.0
 40
1.0
 40
1.0
 40
1.0
 10
108.0375283546194
 20
117.5255260450557
 30
0.0
 10
108.0018919555881
 20
117.5850729651379
 30
0.0
 10
107.9321634552497
 20
117.7015863489246
 30
0.0
 10
107.8186852944898
 20
117.8659843096538
 30
0.0
 10
107.7031597447648
 20
118.0181460474553
 30
0.0
 10
107.5860380487547
 20
118.1580487443879
 30
0.0
 10
107.4686663482753
 20
118.2862630682919
 30
0.0
 10
107.3520453822416
 20
118.4032787472323
 30
0.0
 10
107.2371424617966
 20
118.5096559024763
 30
0.0
 10
107.1248182361073
 20
118.6059719829506
 30
0.0
 10
107.0158492620724
 20
118.6928213295031
 30
0.0
 10
106.9109302212357
 20
118.770801511697
 30
0.0
 10
106.810672895287
 20
118.8405097087499
 30
0.0
 10
106.7156355527039
 20
118.9025196976511
 30
0.0
 10
106.5455286482731
 20
119.0070061349169
 30
0.0
 10
106.292609616868
 20
119.1420648014313
 30
0.0
 10
105.9466284598069
 20
119.2864516938484
 30
0.0
 10
105.5986699104825
 20
119.3954196060934
 30
0.0
 10
105.2525301501065
 20
119.4699491884301
 30
0.0
 10
104.9114653666724
 20
119.5148778929795
 30
0.0
 10
104.6857187551567
 20
119.520322991834
 30
0.0
 10
104.5748885431387
 20
119.5229962610203
 30
0.0
  0
SPLINE
  5
1E3
330
1F
100
AcDbEntity
  8
0
  6
Continuous
 62
     7
370
    25
100
AcDbSpline
210
0.0
220
0.0
230
1.0
 70
     8
 71
     3
 72
     8
 73
     4
 74
     0
 42
0.000000001
 43
0.00000001
 40
0.0
 40
0.0
 40
0.0
 40
0.0
 40
1.0
 40
1.0
 40
1.0
 40
1.0
 10
108.2915064765212
 20
117.5254962610202
 30
0.0
 10
108.3205111829488
 20
117.6494339878825
 30
0.0
 10
108.3395437026303
 20
117.7773861181158
 30
0.0
 10
108.3477952948219
 20
117.9084554308073
 30
0.0
  0
LINE
  5
1E4
330
1F
100
AcDbEntity
  8
0
  6
Continuous
 62
     7
370
    25
100
AcDbLine
 10
104.5748885431
 20
119.522996261
 30
0.0
 11
101.8672304606
 21
119.522996261
 31
0.0
  0
LINE
  5
1E5
330
1F
100
AcDbEntity
  8
0
  6
Continuous
 62
     7
370
    25
100
AcDbLine
 10
121.3375455793
 20
113.5257696718
 30
0.0
 11
120.6875455793
 21
113.675496261
 31
0.0
  0
SPLINE
  5
1E6
330
1F
100
AcDbEntity
  8
0
  6
Continuous
 62
     7
370
    25
100
AcDbSpline
210
0.0
220
0.0
230
1.0
 70
     8
 71
     3
 72
    26
 73
    22
 74
     0
 42
0.000000001
 43
0.00000001
 40
0.0
 40
0.0
 40
0.0
 40
0.0
 40
0.0305951740572542
 40
0.0629166281868252
 40
0.0969720532897518
 40
0.1327680143285475
 40
0.1703101548822826
 40
0.2096033578521445
 40
0.2506518729756858
 40
0.3342141733898277
 40
0.4179517165474626
 40
0.5018670561020881
 40
0.5659795686746639
 40
0.6277136397870199
 40
0.687135819210908
 40
0.7443207393864881
 40
0.7993521466017559
 40
0.8523240127975756
 40
0.903341702807647
 40
0.9525231537633125
 40
1.0
 40
1.0
 40
1.0
 40
1.0
 10
120.6875455792888
 20
113.6754962610203
 30
0.0
 10
120.6866373674441
 20
113.7400314284075
 30
0.0
 10
120.6847696994637
 20
113.8727430490009
 30
0.0
 10
120.6691771104021
 20
114.0755571405245
 30
0.0
 10
120.6425332492149
 20
114.2872701814249
 30
0.0
 10
120.6023788201365
 20
114.5069821747979
 30
0.0
 10
120.5474807034534
 20
114.7337290456691
 30
0.0
 10
120.4762377348416
 20
114.9663600494521
 30
0.0
 10
120.357825340559
 20
115.2817583639288
 30
0.0
 10
120.1696944441511
 20
115.6662402624638
 30
0.0
 10
119.8856776809166
 20
116.0962678769933
 30
0.0
 10
119.5762597243668
 20
116.4547545893342
 30
0.0
 10
119.2603501135653
 20
116.7465212456236
 30
0.0
 10
118.9536047054419
 20
116.9789803324608
 30
0.0
 10
118.6351855916198
 20
117.1757905670247
 30
0.0
 10
118.3092147154627
 20
117.337891269283
 30
0.0
 10
117.9796758803375
 20
117.4663611527627
 30
0.0
 10
117.6501139654909
 20
117.5629449721357
 30
0.0
 10
117.3236956421917
 20
117.6287972014219
 30
0.0
 10
117.0031774498878
 20
117.6683621492473
 30
0.0
 10
116.7915119363571
 20
117.6731463474626
 30
0.0
 10
116.6875455792888
 20
117.6754962610203
 30
0.0
  0
SPLINE
  5
1E7
330
1F
100
AcDbEntity
  8
0
  6
Continuous
 62
     7
370
    25
100
AcDbSpline
210
0.0
220
0.0
230
1.0
 70
     8
 71
     3
 72
    13
 73
     9
 74
     0
 42
0.000000001
 43
0.00000001
 40
0.0
 40
0.0
 40
0.0
 40
0.0
 40
0.1604061687300809
 40
0.3231296684563272
 40
0.4883154213007764
 40
0.6561019685773533
 40
0.8266215117792448
 40
1.0
 40
1.0
 40
1.0
 40
1.0
 10
114.7726722999993
 20
117.6754962610203
 30
0.0
 10
114.7136223484842
 20
117.6747406909823
 30
0.0
 10
114.5946693717594
 20
117.6732186354541
 30
0.0
 10
114.4154157381536
 20
117.6607735763267
 30
0.0
 10
114.2344827564659
 20
117.6405893951959
 30
0.0
 10
114.0523542620672
 20
117.6114540290553
 30
0.0
 10
113.8691872542728
 20
117.5740378772362
 30
0.0
 10
113.7484479393985
 20
117.5417720048791
 30
0.0
 10
113.6875764078136
 20
117.5255049499406
 30
0.0
  0
SPLINE
  5
1E8
330
1F
100
AcDbEntity
  8
0
  6
Continuous
 62
     7
370
    25
100
AcDbSpline
210
0.0
220
0.0
230
1.0
 70
    24
 71
     3
 72
    10
 73
     6
 74
     0
 42
0.000000001
 43
0.00000001
 40
0.0
 40
0.0
 40
0.0
 40
0.0
 40
0.3216623556917455
 40
0.6548175346390357
 40
1.0
 40
1.0
 40
1.0
 40
1.0
 10
113.6877244141936
 20
117.5254962610203
 30
0.0
 10
113.6191785063363
 20
117.5254962610203
 30
0.0
 10
113.479637582139
 20
117.5254962610203
 30
0.0
 10
113.2700291667885
 20
117.5254962610203
 30
0.0
 10
113.1303521716346
 20
117.5254962610203
 30
0.0
 10
113.0592754004338
 20
117.5254962610203
 30
0.0
  0
SPLINE
  5
1E9
330
1F
100
AcDbEntity
  8
0
  6
Continuous
 62
     7
370
    25
100
AcDbSpline
210
0.0
220
0.0
230
1.0
 70
     8
 71
     3
 72
     8
 73
     4
 74
     0
 42
0.000000001
 43
0.00000001
 40
0.0
 40
0.0
 40
0.0
 40
0.0
 40
1.0
 40
1.0
 40
1.0
 40
1.0
 10
113.7738756956876
 20
117.9039426102033
 30
0.0
 10
113.5045793656311
 20
117.80725322501
 30
0.0
 10
113.2684186802172
 20
117.6792540556332
 30
0.0
 10
113.0592211640333
 20
117.5257774579885
 30
0.0
  0
LINE
  5
1EA
330
1F
100
AcDbEntity
  8
0
  6
Continuous
 62
     7
370
    25
100
AcDbLine
 10
113.0597668756
 20
101.400496261
 30
0.0
 11
113.228454887
 21
101.400496261
 31
0.0
  0
LINE
  5
1EB
330
1F
100
AcDbEntity
  8
0
  6
Continuous
 62
     7
370
    25
100
AcDbLine
 10
116.6875455793
 20
117.675496261
 30
0.0
 11
114.7726723
 21
117.675496261
 31
0.0
  0
LINE
  5
1EC
330
1F
100
AcDbEntity
  8
0
  6
Continuous
 62
     7
370
    25
100
AcDbLine
 10
113.0596337612
 20
117.525496261
 30
0.0
 11
108.2915064765
 21
117.525496261
 31
0.0
  0
LINE
  5
1ED
330
1F
100
AcDbEntity
  8
0
  6
Continuous
 62
     7
370
    25
100
AcDbLine
 10
120.6875455793
 20
109.462996261
 30
0.0
 11
120.6875455793
 21
113.675496261
 31
0.0
  0
LINE
  5
1EE
330
1F
100
AcDbEntity
  8
VERMASSUNG
  6
CENTERX2
100
AcDbLine
 10
208.6825455793
 20
109.462996261
 30
0.0
 11
88.7425455793
 21
109.462996261
 31
0.0
  0
HATCH
  5
1EF
330
1F
100
AcDbEntity
  8
0
  6
Continuous
 62
     7
370
    18
100
AcDbHatch
 10
0.0
 20
0.0
 30
0.0
210
0.0
220
0.0
230
1.0
  2
ANSI31
 70
     0
 71
     0
 91
        1
 92
        0
 93
       44
 72
     1
 10
146.7125455792888
 20
138.3129962610203
 11
146.7125455792888
 21
138.410591525212
 72
     1
 10
146.7125455792888
 20
138.410591525212
 11
145.2533477747187
 21
140.9379962610203
 72
     1
 10
145.2533477747187
 20
140.9379962610203
 11
138.8875455792888
 21
140.9379962610203
 72
     2
 10
138.8875455792888
 20
140.7379962610204
 40
0.2000000000000028
 50
90.0
 51
180.0
 73
     1
 72
     1
 10
138.6875455792888
 20
140.7379962610204
 11
138.6875455792888
 21
136.3129962610203
 72
     1
 10
138.6875455792888
 20
136.3129962610203
 11
139.0215842653174
 21
135.2535609006238
 72
     2
 10
138.2586107047188
 20
135.0129962610203
 40
0.8000000000000049
 50
342.4999999999994
 51
467.5000000000015
 73
     0
 72
     1
 10
138.0180460651154
 20
134.2500227004217
 11
137.527363539258
 21
134.4047343065487
 72
     1
 10
137.527363539258
 20
134.4047343065487
 11
124.2058902667385
 21
133.7357573335225
 72
     1
 10
124.20588867334
 20
133.7357606425909
 11
123.5375585274105
 21
132.9266488201997
 72
     1
 10
123.5375585274105
 20
132.9266488201997
 11
123.5375455792888
 21
127.5692222817719
 72
     1
 10
123.5375487075225
 20
127.5692224066524
 11
124.1634947210646
 21
127.1004975513124
 72
     1
 10
124.1634949693736
 20
127.1004962610203
 11
129.1875455792888
 21
127.1004962610203
 72
     1
 10
129.1875455792888
 20
127.1004962610203
 11
130.0627860528696
 21
127.6058165840479
 72
     2
 10
130.4627860528696
 20
126.9129962610203
 40
0.7999999999999923
 50
239.9999999999981
 51
269.9999999999987
 73
     0
 72
     1
 10
130.4627860528696
 20
127.7129962610203
 11
131.8875455792888
 21
127.7129962610203
 72
     2
 10
131.8875455792888
 20
126.9129962610203
 40
0.7999999999999977
 50
270.0000000000008
 51
360.0000000000008
 73
     0
 72
     1
 10
132.6875455792888
 20
126.9129962610203
 11
132.6875455792888
 21
125.0129962610203
 72
     1
 10
132.6875455792888
 20
125.0129962610203
 11
136.3875455792888
 21
125.0129962610203
 72
     2
 10
136.3875455792888
 20
123.8129962610203
 40
1.2
 50
270.0000000000008
 51
360.0000000000008
 73
     0
 72
     1
 10
137.5875455792888
 20
123.8129962610203
 11
137.5875455792888
 21
114.6939363686962
 72
     1
 10
137.5875455792888
 20
114.6939363686962
 11
137.9875455792888
 21
114.4629962610203
 72
     1
 10
137.9875455792888
 20
114.4629962610203
 11
141.4125455792888
 21
114.4629962610203
 72
     1
 10
141.4125455792888
 20
114.4629962610203
 11
141.4125455792888
 21
115.2129962610203
 72
     1
 10
141.4125455792888
 20
115.2129962610203
 11
142.2375455792888
 21
115.2129962610203
 72
     1
 10
142.2375455792888
 20
115.2129962610203
 11
142.2375455792888
 21
113.4629962610203
 72
     1
 10
142.2375455792888
 20
113.4629962610203
 11
152.6875455792888
 21
113.4629962610203
 72
     1
 10
152.6875455792888
 20
113.4629962610203
 11
152.6875455792888
 21
115.3629962610203
 72
     2
 10
153.0875455792888
 20
115.3629962610203
 40
0.3999999999999989
 50
180.0
 51
270.0000000000008
 73
     0
 72
     1
 10
153.0875455792888
 20
115.7629962610203
 11
155.792771561169
 21
115.7629962610203
 72
     2
 10
155.792771561169
 20
115.3629962610203
 40
0.4000000000000014
 50
270.0000000000008
 51
290.0000000000069
 73
     0
 72
     1
 10
155.9295796184993
 20
115.7388733093347
 11
156.6875455792888
 21
115.4629962610203
 72
     1
 10
156.6875455792888
 20
115.4629962610203
 11
171.5625455792888
 21
115.4629962610203
 72
     1
 10
171.5625455792888
 20
115.4629962610203
 11
171.5625455792888
 21
129.4629963486785
 72
     1
 10
171.5625455792888
 20
129.4629963486785
 11
170.5625456341097
 21
130.4629962610204
 72
     1
 10
170.5625456341097
 20
130.4629962610204
 11
159.6875455792888
 21
130.4629962610204
 72
     2
 10
159.6875455792888
 20
133.4629962610204
 40
3.0
 50
90.0
 51
180.0
 73
     0
 72
     1
 10
156.6875455792888
 20
133.4629962610204
 11
156.6875455792888
 21
140.9379962610203
 72
     1
 10
156.6875455792888
 20
140.9379962610203
 11
151.9217433838589
 21
140.9379962610203
 72
     1
 10
151.9217433838589
 20
140.9379962610203
 11
150.4625455792888
 21
138.410591525212
 72
     1
 10
150.4625455792888
 20
138.410591525212
 11
150.4625455792888
 21
138.3129962610203
 72
     2
 10
149.4625455792888
 20
138.3129962610203
 40
1.000000000000003
 50
0.0
 51
90.0
 73
     0
 72
     1
 10
149.4625455792888
 20
137.3129962610203
 11
147.7125455792888
 21
137.3129962610203
 72
     2
 10
147.7125455792888
 20
138.3129962610203
 40
1.000000000000003
 50
90.0
 51
180.0
 73
     0
 97
        0
 75
     0
 76
     1
 52
0.0
 41
1.0
 77
     0
 78
     1
 53
45.0
 43
0.0
 44
0.0
 45
-2.245064030267288
 46
2.245064030267288
 79
     0
 98
        1
 10
0.0
 20
0.0
  0
HATCH
  5
1F0
330
1F
100
AcDbEntity
  8
0
  6
Continuous
 62
     7
370
    18
100
AcDbHatch
 10
0.0
 20
0.0
 30
0.0
210
0.0
220
0.0
230
1.0
  2
ANSI31
 70
     0
 71
     0
 91
        1
 92
        0
 93
        8
 72
     1
 10
181.8125455792888
 20
115.4629962610203
 11
198.3875455792888
 21
115.4629962610203
 72
     2
 10
198.3875455792888
 20
115.7629962610203
 40
0.3000000000000008
 50
270.0000000000008
 51
360.0000000000008
 73
     1
 72
     1
 10
198.6875455792888
 20
115.7629962610203
 11
198.6875455792888
 21
123.1888557394054
 72
     2
 10
196.6875455792888
 20
123.1888557394054
 40
2.000000000000003
 50
0.0
 51
65.00000000000031
 73
     1
 72
     1
 10
197.5327821027702
 20
125.0014713134787
 11
185.8205040562315
 21
130.4629962610204
 72
     1
 10
185.8205040562315
 20
130.4629962610204
 11
182.8125453099512
 21
130.4629962610204
 72
     1
 10
182.8125452283184
 20
130.4629961948931
 11
181.8125453314908
 21
129.4629962857003
 72
     1
 10
181.8125455792888
 20
129.4629962525652
 11
181.8125455792888
 21
115.4629962610203
 97
        0
 75
     0
 76
     1
 52
0.0
 41
1.0
 77
     0
 78
     1
 53
45.0
 43
0.0
 44
0.0
 45
-2.245064030267288
 46
2.245064030267288
 79
     0
 98
        1
 10
0.0
 20
0.0
  0
HATCH
  5
1F1
330
1F
100
AcDbEntity
  8
0
  6
Continuous
 62
     7
370
    18
100
AcDbHatch
 10
0.0
 20
0.0
 30
0.0
210
0.0
220
0.0
230
1.0
  2
ANSI31
 70
     0
 71
     0
 91
        1
 92
        0
 93
        9
 72
     1
 10
109.0375737098769
 20
132.1272706329032
 11
108.2879837309412
 21
132.9363819706708
 72
     1
 10
108.2879837309412
 20
132.9363819706708
 11
100.2375455792888
 21
132.5321163886027
 72
     1
 10
100.2375455792888
 20
132.5321163886027
 11
98.73754557928878
 21
131.6660909848183
 72
     1
 10
98.73754557928878
 20
131.6660909848183
 11
98.73754557928878
 21
129.7004962610203
 72
     1
 10
98.73754557928878
 20
129.7004962610203
 11
99.48921162912832
 21
128.3985724723736
 72
     1
 10
99.48921162912832
 20
128.3985724723736
 11
101.7375455792888
 21
127.1004962610203
 72
     1
 10
101.7375455792888
 20
127.1004962610203
 11
105.6075454239977
 21
127.1004962610204
 72
     1
 10
105.6075454239977
 20
127.1004962610204
 11
109.0375455792888
 21
131.9990441459243
 72
     1
 10
109.0375455792888
 20
131.9990441459243
 11
109.0375455792888
 21
132.12726951941
 97
        0
 75
     0
 76
     1
 52
0.0
 41
1.0
 77
     0
 78
     1
 53
45.0
 43
0.0
 44
0.0
 45
-2.245064030267288
 46
2.245064030267288
 79
     0
 98
        1
 10
0.0
 20
0.0
  0
HATCH
  5
1F2
330
1F
100
AcDbEntity
  8
0
  6
Continuous
 62
     7
370
    18
100
AcDbHatch
 10
0.0
 20
0.0
 30
0.0
210
0.0
220
0.0
230
1.0
  2
ANSI31
 70
     0
 71
     0
 91
        1
 92
        0
 93
       15
 72
     1
 10
172.6875455792888
 20
113.9629962610203
 11
173.9375455792888
 21
113.9629962610203
 72
     1
 10
173.9375455792888
 20
113.9629962610203
 11
176.6875455792888
 21
115.5507095012918
 72
     1
 10
176.6875455792888
 20
115.5507095012918
 11
179.4375455792888
 21
113.9629962610203
 72
     1
 10
179.4375455792888
 20
113.9629962610203
 11
180.6875455792888
 21
113.9629962610203
 72
     1
 10
180.6875455792888
 20
113.9629962610203
 11
182.6875455792888
 21
115.9629962610203
 72
     1
 10
182.6875455792888
 20
115.9629962610203
 11
182.6875455792888
 21
129.5629962610203
 72
     1
 10
182.6875455792888
 20
129.5629962610203
 11
181.7875455792888
 21
130.4629962610204
 72
     1
 10
181.7875455792888
 20
130.4629962610204
 11
179.6875455792888
 21
130.4629962610204
 72
     1
 10
179.6875455792888
 20
130.4629962610204
 11
179.6875455792888
 21
122.4629962610203
 72
     1
 10
179.6875455792888
 20
122.4629962610203
 11
173.6875455792888
 21
122.4629962610203
 72
     1
 10
173.6875455792888
 20
122.4629962610203
 11
173.6875455792888
 21
130.4629962610204
 72
     1
 10
173.6875455792888
 20
130.4629962610204
 11
171.5875455792888
 21
130.4629962610204
 72
     1
 10
171.5875455792888
 20
130.4629962610204
 11
170.6875455792888
 21
129.5629962610203
 72
     1
 10
170.6875455792888
 20
129.5629962610203
 11
170.6875455792888
 21
115.9629962610203
 72
     1
 10
170.6875455792888
 20
115.9629962610203
 11
172.6875455792888
 21
113.9629962610203
 97
        0
 75
     0
 76
     1
 52
0.0
 41
1.0
 77
     0
 78
     1
 53
45.0
 43
0.0
 44
0.0
 45
-2.245064030267288
 46
2.245064030267288
 79
     0
 98
        1
 10
0.0
 20
0.0
  0
DIMENSION
  5
1F3
330
1F
100
AcDbEntity
  8
VERMASSUNG
100
AcDbDimension
  2
_D
 10
220.2080098696
 20
103.462996261
 30
0.0
 11
220.2080098696
 21
109.462996261
 31
0.0
 70
   160
  1
%%c<>
 71
     2
 42
-1.0
  3
SLDDIMSTYLE0
100
AcDbAlignedDimension
 13
171.5625455793
 23
115.462996261
 33
0.0
 14
198.3875455793
 24
103.462996261
 34
0.0
 50
90.0
100
AcDbRotatedDimension
  0
DIMENSION
  5
1FD
330
1F
100
AcDbEntity
  8
VERMASSUNG
100
AcDbDimension
  2
_D_1
 10
232.6875455793
 20
88.462996261
 30
0.0
 11
232.6875455793
 21
109.462996261
 31
0.0
 70
   160
  1
%%c<>
 71
     2
 42
-1.0
  3
SLDDIMSTYLE1
100
AcDbAlignedDimension
 13
185.8205040562
 23
130.462996261
 33
0.0
 14
185.8205040562
 24
88.462996261
 34
0.0
 50
90.0
100
AcDbRotatedDimension
  0
DIMENSION
  5
209
330
1F
100
AcDbEntity
  8
VERMASSUNG
100
AcDbDimension
  2
_D_2
 10
198.6875455793
 20
148.4459241896
 30
0.0
 11
177.6875455793
 21
148.4459241896
 31
0.0
 70
   160
  1
<>
 71
     2
 42
-1.0
  3
SLDDIMSTYLE1
100
AcDbAlignedDimension
 13
156.6875455793
 23
140.937996261
 33
0.0
 14
198.6875455793
 24
123.1888557394
 34
0.0
100
AcDbRotatedDimension
  0
DIMENSION
  5
213
330
1F
100
AcDbEntity
  8
VERMASSUNG
100
AcDbDimension
  2
_D_3
 10
198.6875455793
 20
156.937996261
 30
0.0
 11
168.6875455793
 21
156.937996261
 31
0.0
 70
   160
  1
<>
 71
     2
 42
-1.0
  3
SLDDIMSTYLE1
100
AcDbAlignedDimension
 13
138.6875455793
 23
140.737996261
 33
0.0
 14
198.6875455793
 24
123.1888557394
 34
0.0
100
AcDbRotatedDimension
  0
DIMENSION
  5
21D
330
1F
100
AcDbEntity
  8
VERMASSUNG
100
AcDbDimension
  2
_D_4
 10
198.6875455793
 20
164.5332370007
 30
0.0
 11
148.7125455793
 21
164.5332370007
 31
0.0
 70
   160
  1
<>
 71
     2
 42
-1.0
  3
SLDDIMSTYLE1
100
AcDbAlignedDimension
 13
98.7375455793
 23
131.6660909848
 33
0.0
 14
198.6875455793
 24
123.1888557394
 34
0.0
100
AcDbRotatedDimension
  0
DIMENSION
  5
227
330
1F
100
AcDbEntity
  8
VERMASSUNG
100
AcDbDimension
  2
_D_5
 10
79.0454751677
 20
77.987996261
 30
0.0
 11
79.0454751677
 21
109.462996261
 31
0.0
 70
   160
  1
KM%%c<> XMZ
 71
     2
 42
-1.0
  3
SLDDIMSTYLE2
100
AcDbAlignedDimension
 13
151.9217433839
 23
140.937996261
 33
0.0
 14
151.9217433839
 24
77.987996261
 34
0.0
 50
90.0
100
AcDbRotatedDimension
  0
LINE
  5
235
330
1F
100
AcDbEntity
  8
VERMASSUNG
  6
CENTERX2
370
    18
100
AcDbLine
 10
176.6875455793
 20
132.462996261
 30
0.0
 11
176.6875455793
 21
110.4516323487
 31
0.0
  0
LINE
  5
236
330
1F
100
AcDbEntity
  8
0
  6
Continuous
 62
     7
370
    25
100
AcDbLine
 10
264.3232921913
 20
24.3317513023
 30
0.0
 11
269.302833892
 21
24.4338840248
 31
0.0
  0
LINE
  5
237
330
1F
100
AcDbEntity
  8
0
  6
Continuous
 62
     7
370
    25
100
AcDbLine
 10
276.6369120567
 20
37.138256578
 30
0.0
 11
274.2351812884
 21
41.5015071963
 31
0.0
  0
SPLINE
  5
238
330
1F
100
AcDbEntity
  8
0
  6
Continuous
 62
     7
370
    25
100
AcDbSpline
210
0.0
220
0.0
230
1.0
 70
     8
 71
     3
 72
    29
 73
    25
 74
     0
 42
0.000000001
 43
0.00000001
 40
0.0
 40
0.0
 40
0.0
 40
0.0
 40
0.0352499319342065
 40
0.0803387578672055
 40
0.1264513215368585
 40
0.1733010790440364
 40
0.220544551550328
 40
0.2678871413250695
 40
0.3151562865465496
 40
0.3623072612326196
 40
0.4093435291992678
 40
0.4562931781575739
 40
0.5031957917044965
 40
0.5500961256625427
 40
0.5970330035499612
 40
0.6440475134110646
 40
0.6911882328195205
 40
0.738501047969576
 40
0.7860224104178026
 40
0.833764794651165
 40
0.881689026405872
 40
0.9296040434031367
 40
0.977169372070029
 40
1.0
 40
1.0
 40
1.0
 40
1.0
 10
269.3870226308941
 20
24.44331022276748
 30
0.0
 10
269.5474124353526
 20
24.45251067188251
 30
0.0
 10
269.9129597416227
 20
24.47347958198144
 30
0.0
 10
270.4964932382487
 20
24.61079957498866
 30
0.0
 10
271.1325365838173
 20
24.83532746926552
 30
0.0
 10
271.7742072976864
 20
25.14886282232511
 30
0.0
 10
272.4117703140596
 20
25.54360481999474
 30
0.0
 10
273.0361445467112
 20
26.01421005362932
 30
0.0
 10
273.6391746655141
 20
26.55301707188376
 30
0.0
 10
274.213933486022
 20
27.15241616369715
 30
0.0
 10
274.7543288504081
 20
27.80467787966337
 30
0.0
 10
275.2547132326434
 20
28.50191500869776
 30
0.0
 10
275.709788364332
 20
29.23603450310174
 30
0.0
 10
276.1145649952869
 20
29.99871622096843
 30
0.0
 10
276.4643978630533
 20
30.78146432834187
 30
0.0
 10
276.7550312232328
 20
31.57573066028585
 30
0.0
 10
276.9826136201596
 20
32.37306591202973
 30
0.0
 10
277.1435889212101
 20
33.16514150454363
 30
0.0
 10
277.2347724926701
 20
33.94381830963407
 30
0.0
 10
277.2526416757956
 20
34.70051522114605
 30
0.0
 10
277.1957830477043
 20
35.42734727009242
 30
0.0
 10
277.056449561055
 20
36.10994057710956
 30
0.0
 10
276.8887830471267
 20
36.6440314394785
 30
0.0
 10
276.7370549235912
 20
36.92494432727904
 30
0.0
 10
276.6878468653104
 20
37.01604924199503
 30
0.0
  0
LINE
  5
239
330
1F
100
AcDbEntity
  8
0
  6
Continuous
 62
     7
370
    25
100
AcDbLine
 10
253.058907106
 20
30.1563989914
 30
0.0
 11
262.2983031817
 21
24.8226091698
 31
0.0
  0
LINE
  5
23A
330
1F
100
AcDbEntity
  8
0
  6
Continuous
 62
     7
370
    25
100
AcDbLine
 10
272.7974498744
 20
43.0096352798
 30
0.0
 11
263.5580537986
 21
48.3434251014
 31
0.0
  0
LINE
  5
23B
330
1F
100
AcDbEntity
  8
0
  6
Continuous
 62
     7
370
    25
100
AcDbLine
 10
247.694744228
 20
27.2054840515
 30
0.0
 11
249.3797097531
 21
26.2327741585
 31
0.0
  0
LINE
  5
23C
330
1F
100
AcDbEntity
  8
0
  6
Continuous
 62
     7
370
    25
100
AcDbLine
 10
265.1159308079
 20
53.491662102
 30
0.0
 11
263.4309652829
 21
54.4643719949
 31
0.0
  0
SPLINE
  5
23D
330
1F
100
AcDbEntity
  8
0
  6
Continuous
 62
     7
370
    25
100
AcDbSpline
210
0.0
220
0.0
230
1.0
 70
     8
 71
     3
 72
    10
 73
     6
 74
     0
 42
0.000000001
 43
0.00000001
 40
0.0
 40
0.0
 40
0.0
 40
0.0
 40
0.0503632157408157
 40
0.8921402560004755
 40
1.0
 40
1.0
 40
1.0
 40
1.0
 10
269.955419448511
 20
29.6177342199295
 30
0.0
 10
269.9535452504753
 20
29.62416987482772
 30
0.0
 10
269.9203454737971
 20
29.73817186465272
 30
0.0
 10
269.9149908255337
 20
29.89767854958166
 30
0.0
 10
269.913751113955
 20
30.04822205711581
 30
0.0
 10
269.9136103075164
 20
30.06532078839136
 30
0.0
  0
SPLINE
  5
23E
330
1F
100
AcDbEntity
  8
0
  6
Continuous
 62
     7
370
    25
100
AcDbSpline
210
0.0
220
0.0
230
1.0
 70
     8
 71
     3
 72
    10
 73
     6
 74
     0
 42
0.000000001
 43
0.00000001
 40
0.0
 40
0.0
 40
0.0
 40
0.0
 40
0.281060948913991
 40
0.6555535007117543
 40
0.9999999999999999
 40
0.9999999999999999
 40
0.9999999999999999
 40
0.9999999999999999
 10
270.3708579641046
 20
28.84776493319745
 30
0.0
 10
270.3153856305968
 20
28.8957285359392
 30
0.0
 10
270.1860005895077
 20
29.00760002788994
 30
0.0
 10
270.0413280033442
 20
29.26626604164957
 30
0.0
 10
269.9832465155243
 20
29.50388841529435
 30
0.0
 10
269.955419448511
 20
29.6177342199295
 30
0.0
  0
SPLINE
  5
23F
330
1F
100
AcDbEntity
  8
0
  6
Continuous
 62
     7
370
    25
100
AcDbSpline
210
0.0
220
0.0
230
1.0
 70
     8
 71
     3
 72
    12
 73
     8
 74
     0
 42
0.000000001
 43
0.00000001
 40
0.0
 40
0.0
 40
0.0
 40
0.0
 40
0.1426226074021285
 40
0.4091573776313572
 40
0.6774738584781976
 40
0.9512934641479043
 40
1.0
 40
1.0
 40
1.0
 40
1.0
 10
272.4194774409802
 20
33.95370144490917
 30
0.0
 10
272.4835393428879
 20
33.97945176724644
 30
0.0
 10
272.667320864402
 20
34.05332458834116
 30
0.0
 10
272.9491053893738
 20
34.08803633165794
 30
0.0
 10
273.2484110744378
 20
34.05655162067522
 30
0.0
 10
273.4466917491873
 20
33.9938561845211
 30
0.0
 10
273.5312302156602
 20
33.91928707807411
 30
0.0
 10
273.5439968578577
 20
33.90802596652674
 30
0.0
  0
LINE
  5
240
330
1F
100
AcDbEntity
  8
0
  6
Continuous
 62
     7
370
    25
100
AcDbLine
 10
269.9136103075
 20
30.0653207884
 30
0.0
 11
269.9153596207
 21
30.1106769972
 31
0.0
  0
LINE
  5
241
330
1F
100
AcDbEntity
  8
0
  6
Continuous
 62
     7
370
    25
100
AcDbLine
 10
243.0864594005
 20
29.8657902562
 30
0.0
 11
245.3371103506
 21
28.5665171185
 31
0.0
  0
LINE
  5
242
330
1F
100
AcDbEntity
  8
0
  6
Continuous
 62
     7
370
    25
100
AcDbLine
 10
261.0733314054
 20
55.8254050619
 30
0.0
 11
258.8226804554
 21
57.1246781996
 31
0.0
  0
LINE
  5
243
330
1F
100
AcDbEntity
  8
0
  6
Continuous
 62
     7
370
    25
100
AcDbLine
 10
252.0452915825
 20
56.904560235
 30
0.0
 11
242.848079026
 21
61.485212894
 31
0.0
  0
LINE
  5
244
330
1F
100
AcDbEntity
  8
0
  6
Continuous
 62
     7
370
    25
100
AcDbLine
 10
231.3217313143
 20
41.5188296326
 30
0.0
 11
239.8878316265
 21
35.8449400466
 31
0.0
  0
LINE
  5
245
330
1F
100
AcDbEntity
  8
0
  6
Continuous
 62
     7
370
    25
100
AcDbLine
 10
236.3011688627
 20
42.4653196702
 30
0.0
 11
236.3011688627
 21
42.1000006535
 31
0.0
  0
LINE
  5
246
330
1F
100
AcDbEntity
  8
0
  6
Continuous
 62
     7
370
    25
100
AcDbLine
 10
240.1991353636
 20
61.8621813678
 30
0.0
 11
239.5595849111
 21
61.7749703023
 31
0.0
  0
LINE
  5
247
330
1F
100
AcDbEntity
  8
0
  6
Continuous
 62
     7
370
    25
100
AcDbLine
 10
276.6369120567
 20
37.138256578
 30
0.0
 11
276.6889091835
 21
37.0401612765
 31
0.0
  0
LINE
  5
248
330
1F
100
AcDbEntity
  8
0
  6
Continuous
 62
     7
370
    25
100
AcDbLine
 10
269.3737007348
 20
24.4360548217
 30
0.0
 11
269.302833892
 21
24.4338840248
 31
0.0
  0
LWPOLYLINE
  5
249
330
1F
100
AcDbEntity
  8
0
  6
Continuous
 62
     7
370
    25
100
AcDbPolyline
 90
       28
 70
   128
 43
0.0
 10
260.1232553256
 20
29.6299796377
 10
260.1613486559
 20
30.5193551188
 10
260.2752377578
 20
31.443586027
 10
260.4637539749
 20
32.3931885025
 10
260.7249628757
 20
33.3584183388
 10
261.0561841035
 20
34.3293709717
 10
261.4540188803
 20
35.2960831132
 10
261.9143848828
 20
36.2486349886
 10
262.4325581329
 20
37.1772521266
 10
263.0032214719
 20
38.0724056589
 10
263.6205191216
 20
38.9249100988
 10
264.278116773
 20
39.7260175971
 10
264.9692665841
 20
40.4675077068
 10
265.6868764226
 20
41.1417717361
 10
266.4235826405
 20
41.7418908235
 10
267.1718256352
 20
42.2617069351
 10
267.9239274209
 20
42.6958860542
 10
268.6721704156
 20
43.0399729155
 10
269.4088766335
 20
43.2904367222
 10
270.126486472
 20
43.4447073767
 10
270.8176362831
 20
43.5012018532
 10
271.4752339345
 20
43.4593404421
 10
272.0925315842
 20
43.3195526981
 10
272.6631949232
 20
43.0832730325
 10
273.1813681733
 20
42.7529259945
 10
273.6417341758
 20
42.3319013917
 10
274.0395689526
 20
41.8245195063
 10
274.2351812884
 20
41.5015071963
  0
LWPOLYLINE
  5
24A
330
1F
100
AcDbEntity
  8
0
  6
Continuous
 62
     7
370
    25
100
AcDbPolyline
 90
       13
 70
   128
 43
0.0
 10
264.3232921913
 20
24.3317513023
 10
264.278116773
 20
24.3310425963
 10
263.6205191216
 20
24.3729040074
 10
263.0032214719
 20
24.5126917515
 10
262.4325581329
 20
24.748971417
 10
261.9143848828
 20
25.0793184551
 10
261.4540188803
 20
25.5003430578
 10
261.0561841035
 20
26.0077249433
 10
260.7249628757
 20
26.5962576866
 10
260.4637539749
 20
27.2599021454
 10
260.2752377578
 20
27.9918484295
 10
260.1613486559
 20
28.7845857796
 10
260.1232553256
 20
29.6299796377
  0
ARC
  5
24B
330
1F
100
AcDbEntity
  8
0
  6
Continuous
 62
     7
370
    25
100
AcDbCircle
 10
274.4783494716
 20
29.8917777541
 30
0.0
 40
4.610041459286161
100
AcDbArc
 50
115.8720659646
 51
178.6039898366
  0
ARC
  5
24C
330
1F
100
AcDbEntity
  8
0
  6
Continuous
 62
     7
370
    25
100
AcDbCircle
 10
269.5056037436
 20
32.8059505901
 30
0.0
 40
4.834924291982019
100
AcDbArc
 50
301.0742176445
 51
352.5216528953
  0
LWPOLYLINE
  5
24D
330
1F
100
AcDbEntity
  8
0
  6
Continuous
 62
     7
370
    25
100
AcDbPolyline
 90
        3
 70
   128
 43
0.0
 10
269.9142260314
 20
29.5179547759
 10
269.9076018102
 20
29.5533613083
 10
269.8696763247
 20
30.00409018
  0
LWPOLYLINE
  5
24E
330
1F
100
AcDbEntity
  8
0
  6
Continuous
 62
     7
370
    25
100
AcDbPolyline
 90
       40
 70
   128
 43
0.0
 10
246.1197273116
 20
33.4381068004
 10
246.1577353909
 20
34.5212186713
 10
246.2714999953
 20
35.6408149842
 10
246.460243997
 20
36.789247761
 10
246.7226780833
 20
37.9586720414
 10
247.057009563
 20
39.1410994718
 10
247.4609546134
 20
40.3284528738
 10
247.9317538799
 20
41.5126214198
 10
248.4661913264
 20
42.6855160378
 10
249.0606162031
 20
43.8391246683
 10
249.7109679853
 20
44.9655669946
 10
250.412804111
 20
46.0571482735
 10
251.1613303277
 20
47.1064118979
 10
251.9514334425
 20
48.1061903333
 10
252.7777162498
 20
49.0496540794
 10
253.6345344002
 20
49.9303583219
 10
254.5160349571
 20
50.742286958
 10
255.4161963777
 20
51.4798936918
 10
256.3288696468
 20
52.1381399213
 10
257.2478202805
 20
52.7125291573
 10
258.1667709142
 20
53.199137739
 10
259.0794441833
 20
53.5946416363
 10
259.9796056039
 20
53.8963391566
 10
260.8611061608
 20
54.1021693998
 10
261.7179243112
 20
54.2107263367
 10
262.5442071185
 20
54.2212684134
 10
263.3343102333
 20
54.1337236168
 10
264.08283645
 20
53.9486899666
 10
264.7846725757
 20
53.6674314303
 10
265.4350243579
 20
53.2918692888
 10
266.0294492346
 20
52.8245690124
 10
266.5638866811
 20
52.2687227358
 10
267.0346859477
 20
51.6281274528
 10
267.438630998
 20
50.9071590786
 10
267.7729624778
 20
50.1107425583
 10
268.035396564
 20
49.2443182243
 10
268.2241405657
 20
48.3138046333
 10
268.3379051701
 20
47.3255581367
 10
268.3759132494
 20
46.2863294602
 10
268.35916044
 20
45.5718052329
  0
LWPOLYLINE
  5
24F
330
1F
100
AcDbEntity
  8
0
  6
Continuous
 62
     7
370
    25
100
AcDbPolyline
 90
       21
 70
   128
 43
0.0
 10
257.8600137473
 20
27.3847791229
 10
257.2478202805
 20
27.0119071032
 10
256.3288696468
 20
26.5252985215
 10
255.4161963777
 20
26.1297946242
 10
254.5160349571
 20
25.828097104
 10
253.6345344002
 20
25.6222668607
 10
252.7777162498
 20
25.5137099238
 10
251.9514334425
 20
25.5031678471
 10
251.1613303277
 20
25.5907126437
 10
250.412804111
 20
25.7757462939
 10
249.7109679853
 20
26.0570048303
 10
249.0606162031
 20
26.4325669717
 10
248.4661913264
 20
26.8998672481
 10
247.9317538799
 20
27.4557135247
 10
247.4609546134
 20
28.0963088077
 10
247.057009563
 20
28.8172771819
 10
246.7226780833
 20
29.6136937022
 10
246.460243997
 20
30.4801180362
 10
246.2714999953
 20
31.4106316272
 10
246.1577353909
 20
32.3988781238
 10
246.1197273116
 20
33.4381068004
  0
SPLINE
  5
250
330
1F
100
AcDbEntity
  8
0
  6
Continuous
 62
     7
370
    25
100
AcDbSpline
210
0.0
220
0.0
230
1.0
 70
     8
 71
     3
 72
    25
 73
    21
 74
     0
 42
0.000000001
 43
0.00000001
 40
0.0
 40
0.0
 40
0.0
 40
0.0
 40
0.1249999999999998
 40
0.1249999999999998
 40
0.2499999999999997
 40
0.2499999999999997
 40
0.3749999999999995
 40
0.3749999999999995
 40
0.4999999999999993
 40
0.4999999999999993
 40
0.5624999999999996
 40
0.5624999999999996
 40
0.6249999999999998
 40
0.6875000000000001
 40
0.6875000000000001
 40
0.7500000000000003
 40
0.7500000000000003
 40
0.8750000000000001
 40
0.8750000000000001
 40
1.0
 40
1.0
 40
1.0
 40
1.0
 10
250.9533161566583
 20
49.86992139592938
 30
0.0
 10
250.9824394549193
 20
49.7587358754002
 30
0.0
 10
250.9948284957786
 20
49.64349366297217
 30
0.0
 10
250.9878510106783
 20
49.40439809513637
 30
0.0
 10
250.9678334228263
 20
49.2796241252611
 30
0.0
 10
250.897611265113
 20
49.03325521604869
 30
0.0
 10
250.8469606105194
 20
48.90904406868756
 30
0.0
 10
250.7170458668642
 20
48.66541557337739
 30
0.0
 10
250.6393449188749
 20
48.54835847831924
 30
0.0
 10
250.5039713366488
 20
48.3797019604692
 30
0.0
 10
250.4553368393416
 20
48.32433493919704
 30
0.0
 10
250.3538975039596
 20
48.21861512780002
 30
0.0
 10
250.2480275212189
 20
48.11745416917957
 30
0.0
 10
250.1334357288914
 20
48.02527984750278
 30
0.0
 10
250.0143530596732
 20
47.93774300476266
 30
0.0
 10
249.9523950466157
 20
47.89624453525047
 30
0.0
 10
249.7645313430952
 20
47.78212421351237
 30
0.0
 10
249.6351539067412
 20
47.71851678239777
 30
0.0
 10
249.3674706536792
 20
47.61724848142354
 30
0.0
 10
249.2315989672141
 20
47.58070757319874
 30
0.0
 10
249.0960817004865
 20
47.55953938884868
 30
0.0
  0
LWPOLYLINE
  5
251
330
1F
100
AcDbEntity
  8
0
  6
Continuous
 62
     7
370
    25
100
AcDbPolyline
 90
       16
 70
   128
 43
0.0
 10
250.9533161567
 20
49.8699213959
 10
251.8164596359
 20
50.7723659969
 10
252.7058482324
 20
51.6051945491
 10
253.6152513945
 20
52.3625727287
 10
254.5382983602
 20
53.039194774
 10
255.4685227862
 20
53.6303206552
 10
256.3994080485
 20
54.1318092799
 10
257.3244328933
 20
54.5401475035
 10
258.2371171218
 20
54.8524747404
 10
259.1310669865
 20
55.066603003
 10
260.000019982
 20
55.1810322305
 10
260.837888717
 20
55.1949607967
 10
261.6388035589
 20
55.1082911258
 10
262.397153753
 20
54.9216303764
 10
263.1076267283
 20
54.6362861877
 10
263.4309652829
 20
54.4643719949
  0
LWPOLYLINE
  5
252
330
1F
100
AcDbEntity
  8
0
  6
Continuous
 62
     7
370
    25
100
AcDbPolyline
 90
       22
 70
   128
 43
0.0
 10
247.694744228
 20
27.2054840515
 10
247.125709932
 20
27.5853464477
 10
246.5528866521
 20
28.0917409277
 10
246.0421693572
 20
28.6859745851
 10
245.5970784373
 20
29.3639513493
 10
245.2206819176
 20
30.1209979056
 10
244.9155743108
 20
30.9518959092
 10
244.683858733
 20
31.8509179546
 10
244.5271324066
 20
32.8118670556
 10
244.4464756512
 20
33.8281193606
 10
244.4424444361
 20
34.8926698115
 10
244.5150665486
 20
35.9981804296
 10
244.6638414023
 20
37.1370308964
 10
244.8877434876
 20
38.3013710809
 10
245.1852294406
 20
39.4831751507
 10
245.5542486814
 20
40.6742968943
 10
245.9922575494
 20
41.8665258732
 10
246.4962368359
 20
43.0516440167
 10
247.0627125963
 20
44.2214822691
 10
247.687780096
 20
45.3679768998
 10
248.3671307256
 20
46.4832250863
 10
249.0960817005
 20
47.5595393888
  0
LINE
  5
253
330
1F
100
AcDbEntity
  8
0
  6
Continuous
 62
     7
370
    25
100
AcDbLine
 10
273.4908747672
 20
33.9493101517
 30
0.0
 11
273.5533744958
 21
33.9100897394
 31
0.0
  0
LWPOLYLINE
  5
254
330
1F
100
AcDbEntity
  8
0
  6
Continuous
 62
     7
370
    25
100
AcDbPolyline
 90
        3
 70
   128
 43
0.0
 10
270.4911185693
 20
28.7530169774
 10
270.4557249299
 20
28.7744370263
 10
270.3527794298
 20
28.8491885201
  0
LWPOLYLINE
  5
255
330
1F
100
AcDbEntity
  8
0
  6
Continuous
 62
     7
370
    25
100
AcDbPolyline
 90
       13
 70
   128
 43
0.0
 10
249.2906949119
 20
49.9941982354
 10
250.1215382057
 20
50.8834910657
 10
250.9804286219
 20
51.702772154
 10
251.8606738914
 20
52.4456578576
 10
252.7554153533
 20
53.1063597885
 10
253.6576813958
 20
53.6797299151
 10
254.5604417773
 20
54.1613006743
 10
255.4566624046
 20
54.5473197816
 10
256.3393601405
 20
54.8347794684
 10
257.201657215
 20
55.0214399175
 10
258.0368348153
 20
55.1058467153
 10
258.8383854369
 20
55.087342184
 10
259.0912454171
 20
55.059084643
  0
SPLINE
  5
256
330
1F
100
AcDbEntity
  8
0
  6
Continuous
 62
     7
370
    25
100
AcDbSpline
210
0.0
220
0.0
230
1.0
 70
     8
 71
     3
 72
    26
 73
    22
 74
     0
 42
0.000000001
 43
0.00000001
 40
0.0
 40
0.0
 40
0.0
 40
0.0
 40
0.1250000000000009
 40
0.1250000000000009
 40
0.2500000000000019
 40
0.2500000000000019
 40
0.3125000000000011
 40
0.3125000000000011
 40
0.3750000000000004
 40
0.3750000000000004
 40
0.4375000000000002
 40
0.4375000000000002
 40
0.5000000000000001
 40
0.5000000000000001
 40
0.5625
 40
0.5625
 40
0.6249999999999999
 40
0.6249999999999999
 40
0.7500000000000001
 40
0.7500000000000001
 40
1.0
 40
1.0
 40
1.0
 40
1.0
 10
247.9465016710307
 20
48.3220346228042
 30
0.0
 10
247.9228640747987
 20
48.4316104823772
 30
0.0
 10
247.905296295917
 20
48.54249974074173
 30
0.0
 10
247.8864837130475
 20
48.76782970060467
 30
0.0
 10
247.8853039382801
 20
48.88350661392305
 30
0.0
 10
247.9014019415155
 20
49.0548621237826
 30
0.0
 10
247.9097206586157
 20
49.11166063587676
 30
0.0
 10
247.9334778078727
 20
49.22448684827386
 30
0.0
 10
247.9491001869216
 20
49.28093970194
 30
0.0
 10
247.9879573993187
 20
49.3895228183486
 30
0.0
 10
248.0111833560211
 20
49.44190277857415
 30
0.0
 10
248.0661820054995
 20
49.54235955384626
 30
0.0
 10
248.0982602725222
 20
49.5906384216177
 30
0.0
 10
248.1686750210573
 20
49.67833539720144
 30
0.0
 10
248.2072534431839
 20
49.71832452517739
 30
0.0
 10
248.2909617067801
 20
49.790803209293
 30
0.0
 10
248.336090416722
 20
49.82313983366961
 30
0.0
 10
248.4753710589121
 20
49.90633960102326
 30
0.0
 10
248.5761601304737
 20
49.94516832365935
 30
0.0
 10
248.8792324017064
 20
50.02058461111453
 30
0.0
 10
249.0877564921915
 20
50.02045446474376
 30
0.0
 10
249.2906949118819
 20
49.99419823541754
 30
0.0
  0
LWPOLYLINE
  5
257
330
1F
100
AcDbEntity
  8
0
  6
Continuous
 62
     7
370
    25
100
AcDbPolyline
 90
       19
 70
   128
 43
0.0
 10
245.0095232763
 20
30.6661834154
 10
244.7844926999
 20
30.9789536283
 10
244.3845236655
 20
31.6674062662
 10
244.055311761
 20
32.4333921541
 10
243.7993519079
 20
33.2711062931
 10
243.6185838898
 20
34.1742000938
 10
243.514377651
 20
35.1358294894
 10
243.4875229152
 20
36.148706803
 10
243.5382232002
 20
37.2051559768
 10
243.6660942753
 20
38.2971707454
 10
243.870167074
 20
39.4164753105
 10
244.1488950372
 20
40.554587059
 10
244.500165834
 20
41.7028808482
 10
244.9213173702
 20
42.8526543712
 10
245.4091579628
 20
43.9951941067
 10
245.9599905276
 20
45.1218413548
 10
246.569640598
 20
46.2240578562
 10
247.2334879611
 20
47.2934904989
 10
247.946501671
 20
48.3220346228
  0
LINE
  5
258
330
1F
100
AcDbEntity
  8
0
  6
Continuous
 62
     7
370
    25
100
AcDbLine
 10
246.4711097014
 20
28.0781137671
 30
0.0
 11
246.5850968876
 21
28.1319839153
 31
0.0
  0
LWPOLYLINE
  5
259
330
1F
100
AcDbEntity
  8
0
  6
Continuous
 62
     7
370
    25
100
AcDbPolyline
 90
       43
 70
   128
 43
0.0
 10
246.4711097014
 20
28.0781137671
 10
245.7643745733
 20
28.345301321
 10
245.1081928118
 20
28.7065907353
 10
244.5070225383
 20
29.1595273973
 10
243.9649481245
 20
29.7010340396
 10
243.4856524427
 20
30.3274316475
 10
243.0723918442
 20
31.034464454
 10
242.7279740358
 20
31.8173288538
 10
242.454739004
 20
32.6707060392
 10
242.254543117
 20
33.588798136
 10
242.1287465127
 20
34.565367595
 10
242.0782038573
 20
35.5937795695
 10
242.1032585396
 20
36.6670469931
 10
242.2037403372
 20
37.7778780498
 10
242.3789665731
 20
38.9187257152
 10
242.6277467544
 20
40.0818390308
 10
242.9483906599
 20
41.2593157647
 10
243.3387198238
 20
42.4431560992
 10
243.7960823364
 20
43.6253169822
 10
244.3173708608
 20
44.7977667721
 10
244.8990437451
 20
45.9525398043
 10
245.5371490833
 20
47.0817905111
 10
246.227351566
 20
48.1778467243
 10
246.9649619335
 20
49.2332618
 10
247.7449688357
 20
50.2408652118
 10
248.5620728787
 20
51.1938112675
 10
249.4107226293
 20
52.0856256185
 10
250.2851523321
 20
52.9102492475
 10
251.1794210813
 20
53.662079633
 10
252.0874531842
 20
54.3360088135
 10
253.0030794394
 20
54.9274580908
 10
253.9200790505
 20
55.4324091381
 10
254.8322218905
 20
55.8474313007
 10
255.7333108295
 20
56.1697049035
 10
256.6172238381
 20
56.3970404087
 10
257.4779555809
 20
56.527893291
 10
258.3096582166
 20
56.5613745313
 10
259.106681129
 20
56.497256657
 10
259.8636093167
 20
56.3359752871
 10
260.5753001837
 20
56.0786261728
 10
261.2369184775
 20
55.7269577529
 10
261.8439691406
 20
55.2833592748
 10
262.1633697626
 20
54.9911028516
  0
LWPOLYLINE
  5
25A
330
1F
100
AcDbEntity
  8
0
  6
Continuous
 62
     7
370
    25
100
AcDbPolyline
 90
       25
 70
   128
 43
0.0
 10
239.826476959
 20
37.1527637092
 10
239.8642435256
 20
38.2289932171
 10
239.9772852413
 20
39.3414753358
 10
240.1648299165
 20
40.4826106844
 10
240.4255964311
 20
41.6446041512
 10
240.7578034853
 20
42.8195181428
 10
241.159181768
 20
43.9993268052
 10
241.6269894586
 20
45.1759708489
 10
242.1580309563
 20
46.341412602
 10
242.748678709
 20
47.4876909155
 10
243.3948979939
 20
48.6069755464
 10
244.0922744778
 20
49.6916206455
 10
244.8360443722
 20
50.7342169872
 10
245.6211269747
 20
51.7276425811
 10
246.442159375
 20
52.6651113232
 10
247.2935330892
 20
53.5402193513
 10
248.1694323717
 20
54.3469887904
 10
249.0638739421
 20
55.079908587
 10
249.9707478576
 20
55.7339721557
 10
250.8838592498
 20
56.3047115793
 10
251.796970642
 20
56.7882281287
 10
252.7038445576
 20
57.1812188956
 10
253.598286128
 20
57.4809993546
 10
254.4741854105
 20
57.6855217011
 10
255.1829079041
 20
57.7819194614
  0
ARC
  5
25B
330
1F
100
AcDbEntity
  8
0
  6
Continuous
 62
     7
370
    25
100
AcDbCircle
 10
251.9842513844
 20
37.0437250126
 30
0.0
 40
12.15623180558957
100
AcDbArc
 50
180.8571235828
 51
191.8646627492
  0
SPLINE
  5
25C
330
1F
100
AcDbEntity
  8
0
  6
Continuous
 62
     7
370
    25
100
AcDbSpline
210
0.0
220
0.0
230
1.0
 70
     8
 71
     3
 72
    10
 73
     6
 74
     0
 42
0.000000001
 43
0.00000001
 40
0.0
 40
0.0
 40
0.0
 40
0.0
 40
0.5
 40
0.5
 40
1.0
 40
1.0
 40
1.0
 40
1.0
 10
248.673189738662
 20
46.85898134198447
 30
0.0
 10
248.5692252478777
 20
46.93231971505486
 30
0.0
 10
248.4794169714504
 20
47.01955547284827
 30
0.0
 10
248.3273745434517
 20
47.22048601404425
 30
0.0
 10
248.2654689550908
 20
47.33465678024123
 30
0.0
 10
248.2210192505003
 20
47.45767446340134
 30
0.0
  0
SPLINE
  5
25D
330
1F
100
AcDbEntity
  8
0
  6
Continuous
 62
     7
370
    25
100
AcDbSpline
210
0.0
220
0.0
230
1.0
 70
     8
 71
     3
 72
    14
 73
    10
 74
     0
 42
0.000000001
 43
0.00000001
 40
0.0
 40
0.0
 40
0.0
 40
0.0
 40
0.25
 40
0.25
 40
0.5
 40
0.5
 40
0.75
 40
0.75
 40
1.0
 40
1.0
 40
1.0
 40
1.0
 10
248.2210192505003
 20
47.45767446340133
 30
0.0
 10
248.1982984476352
 20
47.52055588305888
 30
0.0
 10
248.1763839372857
 20
47.58960231253229
 30
0.0
 10
248.1342728832229
 20
47.73725482915106
 30
0.0
 10
248.1147513293099
 20
47.81365461600937
 30
0.0
 10
248.0764050871361
 20
47.96798690740497
 30
0.0
 10
248.0580454942523
 20
48.04493950373661
 30
0.0
 10
248.0160420496707
 20
48.1903296712526
 30
0.0
 10
247.9922657286576
 20
48.25692057744563
 30
0.0
 10
247.9638042245554
 20
48.29741619267698
 30
0.0
  0
LINE
  5
25E
330
1F
100
AcDbEntity
  8
0
  6
Continuous
 62
     7
370
    25
100
AcDbLine
 10
247.9638042246
 20
48.2974161927
 30
0.0
 11
247.946501671
 21
48.3220346228
 31
0.0
  0
LINE
  5
25F
330
1F
100
AcDbEntity
  8
0
  6
Continuous
 62
     7
370
    25
100
AcDbLine
 10
249.2906949119
 20
49.9941982354
 30
0.0
 11
249.3079974654
 21
49.9695798053
 31
0.0
  0
SPLINE
  5
260
330
1F
100
AcDbEntity
  8
0
  6
Continuous
 62
     7
370
    25
100
AcDbSpline
210
0.0
220
0.0
230
1.0
 70
     8
 71
     3
 72
    16
 73
    12
 74
     0
 42
0.000000001
 43
0.00000001
 40
0.0
 40
0.0
 40
0.0
 40
0.0
 40
0.1250000000000001
 40
0.1250000000000001
 40
0.2500000000000003
 40
0.2500000000000003
 40
0.5000000000000002
 40
0.5000000000000002
 40
0.7500000000000001
 40
0.7500000000000001
 40
1.0
 40
1.0
 40
1.0
 40
1.0
 10
249.3079974654066
 20
49.96957980529025
 30
0.0
 10
249.3221498718107
 20
49.94944346947746
 30
0.0
 10
249.3438082762844
 20
49.93264604880004
 30
0.0
 10
249.3962262053197
 20
49.90580052746856
 30
0.0
 10
249.4268190844581
 20
49.89557504290757
 30
0.0
 10
249.5258999333156
 20
49.87107460247488
 30
0.0
 10
249.5997824709314
 20
49.86281468007338
 30
0.0
 10
249.7528820633228
 20
49.85162871336846
 30
0.0
 10
249.8309660379704
 20
49.84903204161728
 30
0.0
 10
249.9903096717125
 20
49.84700304078357
 30
0.0
 10
250.0689625665441
 20
49.8476406294458
 30
0.0
 10
250.1447150343367
 20
49.85073373026083
 30
0.0
  0
SPLINE
  5
261
330
1F
100
AcDbEntity
  8
0
  6
Continuous
 62
     7
370
    25
100
AcDbSpline
210
0.0
220
0.0
230
1.0
 70
     8
 71
     3
 72
    10
 73
     6
 74
     0
 42
0.000000001
 43
0.00000001
 40
0.0
 40
0.0
 40
0.0
 40
0.0
 40
0.5
 40
0.5
 40
1.0
 40
1.0
 40
1.0
 40
1.0
 10
250.1447150343367
 20
49.85073373026083
 30
0.0
 10
250.2929093742375
 20
49.8567847546946
 30
0.0
 10
250.4351338399681
 20
49.84662252448147
 30
0.0
 10
250.7075252303088
 20
49.79557208854138
 30
0.0
 10
250.8376525601774
 20
49.75421098589683
 30
0.0
 10
250.9557279023627
 20
49.69843711794456
 30
0.0
  0
ARC
  5
262
330
1F
100
AcDbEntity
  8
0
  6
Continuous
 62
     7
370
    25
100
AcDbCircle
 10
233.6440188418
 20
44.9799791188
 30
0.0
 40
4.168042121425086
100
AcDbArc
 50
211.8182858313
 51
236.1400299393
  0
SPLINE
  5
263
330
1F
100
AcDbEntity
  8
0
  6
Continuous
 62
     7
370
    25
100
AcDbSpline
210
0.0
220
0.0
230
1.0
 70
     8
 71
     3
 72
     8
 73
     4
 74
     0
 42
0.000000001
 43
0.00000001
 40
0.0
 40
0.0
 40
0.0
 40
0.0
 40
1.0
 40
1.0
 40
1.0
 40
1.0
 10
231.5327742332259
 20
41.85773269870589
 30
0.0
 10
231.0560009414018
 20
42.16582550663853
 30
0.0
 10
230.5791985645569
 20
42.47405495221128
 30
0.0
 10
230.1023661200312
 20
42.78242010843119
 30
0.0
  0
SPLINE
  5
264
330
1F
100
AcDbEntity
  8
0
  6
Continuous
 62
     7
370
    25
100
AcDbSpline
210
0.0
220
0.0
230
1.0
 70
     8
 71
     3
 72
    23
 73
    19
 74
     0
 42
0.000000001
 43
0.00000001
 40
0.0
 40
0.0
 40
0.0
 40
0.0
 40
0.0521036415675031
 40
0.1035646240925967
 40
0.1544751946736949
 40
0.2049306267473421
 40
0.2550287880844035
 40
0.3048696389141012
 40
0.3545546704609132
 40
0.4041862979523234
 40
0.4538672252126086
 40
0.5036997999421611
 40
0.5901870230746071
 40
0.674271637822954
 40
0.7565997087222995
 40
0.8378563983721267
 40
0.9187511781367398
 40
1.0
 40
1.0
 40
1.0
 40
1.0
 10
232.4133390367675
 20
41.68300200058579
 30
0.0
 10
232.4080700978274
 20
41.67308053835096
 30
0.0
 10
232.3975972083271
 20
41.65335998762001
 30
0.0
 10
232.3783509125644
 20
41.62879215866779
 30
0.0
 10
232.3565551722317
 20
41.60810357640856
 30
0.0
 10
232.3319038810268
 20
41.59157264111158
 30
0.0
 10
232.3044073664878
 20
41.57905514153542
 30
0.0
 10
232.2739963124805
 20
41.57052051771303
 30
0.0
 10
232.2406259407079
 20
41.56591064506495
 30
0.0
 10
232.204250052436
 20
41.56517590192848
 30
0.0
 10
232.164821680847
 20
41.56827098447977
 30
0.0
 10
232.111973289297
 20
41.5768067599589
 30
0.0
 10
232.0434342955269
 20
41.59440319880596
 30
0.0
 10
231.9557130635725
 20
41.62603980689182
 30
0.0
 10
231.8609821440785
 20
41.66821946422455
 30
0.0
 10
231.7589478967486
 20
41.72095589995153
 30
0.0
 10
231.6500339835595
 20
41.78327245586236
 30
0.0
 10
231.5719176725735
 20
41.83287651411347
 30
0.0
 10
231.5327742332259
 20
41.85773269870588
 30
0.0
  0
SPLINE
  5
265
330
1F
100
AcDbEntity
  8
0
  6
Continuous
 62
     7
370
    25
100
AcDbSpline
210
0.0
220
0.0
230
1.0
 70
     8
 71
     3
 72
     8
 73
     4
 74
     0
 42
0.000000001
 43
0.00000001
 40
0.0
 40
0.0
 40
0.0
 40
0.0
 40
1.0
 40
1.0
 40
1.0
 40
1.0
 10
233.8868420632227
 20
40.73568186402875
 30
0.0
 10
233.3954747511809
 20
41.05155648399651
 30
0.0
 10
232.9040885512542
 20
41.36754250528627
 30
0.0
 10
232.4126828411098
 20
41.68363938612924
 30
0.0
  0
SPLINE
  5
266
330
1F
100
AcDbEntity
  8
0
  6
Continuous
 62
     7
370
    25
100
AcDbSpline
210
0.0
220
0.0
230
1.0
 70
     8
 71
     3
 72
    18
 73
    14
 74
     0
 42
0.000000001
 43
0.00000001
 40
0.0
 40
0.0
 40
0.0
 40
0.0
 40
0.0923824559439141
 40
0.1844689291621674
 40
0.2764953616012182
 40
0.3686975365563128
 40
0.4613092840072771
 40
0.5545607518505636
 40
0.6486768051587679
 40
0.7438756050178583
 40
0.8403674044309957
 40
0.9203921078131376
 40
1.0
 40
1.0
 40
1.0
 40
1.0
 10
234.700406182421
 20
40.09137413948524
 30
0.0
 10
234.6768386682972
 20
40.10664811375122
 30
0.0
 10
234.6297791476447
 20
40.13714712623263
 30
0.0
 10
234.5573813596802
 20
40.18677969884452
 30
0.0
 10
234.4838991507837
 20
40.2391092415137
 30
0.0
 10
234.4091997030382
 20
40.29442692722188
 30
0.0
 10
234.3333389132701
 20
40.35266524233546
 30
0.0
 10
234.2563276324838
 20
40.41385815397269
 30
0.0
 10
234.1781955004039
 20
40.4780218705536
 30
0.0
 10
234.0989692657616
 20
40.54517083041971
 30
0.0
 10
234.0236727813528
 20
40.6110217401654
 30
0.0
 10
233.9528454732317
 20
40.67455332697327
 30
0.0
 10
233.9089411024248
 20
40.71521407198655
 30
0.0
 10
233.8870462356198
 20
40.73549136055482
 30
0.0
  0
LINE
  5
267
330
1F
100
AcDbEntity
  8
0
  6
Continuous
 62
     7
370
    25
100
AcDbLine
 10
235.3401124506
 20
39.6796202101
 30
0.0
 11
234.7004061824
 21
40.0913741395
 31
0.0
  0
SPLINE
  5
268
330
1F
100
AcDbEntity
  8
0
  6
Continuous
 62
     7
370
    25
100
AcDbSpline
210
0.0
220
0.0
230
1.0
 70
     8
 71
     3
 72
    25
 73
    21
 74
     0
 42
0.000000001
 43
0.00000001
 40
0.0
 40
0.0
 40
0.0
 40
0.0
 40
0.0280105225426451
 40
0.0559601148860766
 40
0.0839014045043116
 40
0.1118870776786362
 40
0.1399695827588919
 40
0.1682008401739851
 40
0.1966319670424188
 40
0.2253130233141458
 40
0.2542927850735824
 40
0.3799486436570461
 40
0.50578502216665
 40
0.6313085886322404
 40
0.7532068238012486
 40
0.8039473267955931
 40
0.8535894438554454
 40
0.9025339722394081
 40
0.9511970353791097
 40
1.0
 40
1.0
 40
1.0
 40
1.0
 10
236.4424783074112
 20
40.39552632336232
 30
0.0
 10
236.4474264149418
 20
40.36790246225483
 30
0.0
 10
236.4573118665773
 20
40.31271482914951
 30
0.0
 10
236.4688475161805
 20
40.23355412177959
 30
0.0
 10
236.4779206379933
 20
40.15725078268122
 30
0.0
 10
236.4842894467062
 20
40.0840550217116
 30
0.0
 10
236.4880056855164
 20
40.01390755349821
 30
0.0
 10
236.4890423064992
 20
39.94683126698543
 30
0.0
 10
236.4873938312723
 20
39.88282735775899
 30
0.0
 10
236.4830476794034
 20
39.82189850449217
 30
0.0
 10
236.468191354836
 20
39.70001038299604
 30
0.0
 10
236.4231030977697
 20
39.54510951134204
 30
0.0
 10
236.3097435772793
 20
39.4141663929986
 30
0.0
 10
236.1479193552859
 20
39.35828999218627
 30
0.0
 10
235.973904136153
 20
39.37816404457038
 30
0.0
 10
235.8225432154659
 20
39.42548184692601
 30
0.0
 10
235.7121429827676
 20
39.4703972706614
 30
0.0
 10
235.5949834873189
 20
39.52777300195256
 30
0.0
 10
235.471417820385
 20
39.59645006640538
 30
0.0
 10
235.3839227702899
 20
39.65187031235857
 30
0.0
 10
235.3401124506083
 20
39.67962021008886
 30
0.0
  0
ARC
  5
269
330
1F
100
AcDbEntity
  8
0
  6
Continuous
 62
     7
370
    25
100
AcDbCircle
 10
247.6354766395
 20
42.1815768595
 30
0.0
 40
11.33460136833746
100
AcDbArc
 50
170.9338278112
 51
189.0661721888
  0
SPLINE
  5
26A
330
1F
100
AcDbEntity
  8
0
  6
Continuous
 62
     7
370
    25
100
AcDbSpline
210
0.0
220
0.0
230
1.0
 70
     8
 71
     3
 72
    26
 73
    22
 74
     0
 42
0.000000001
 43
0.00000001
 40
0.0
 40
0.0
 40
0.0
 40
0.0
 40
0.0241259796957183
 40
0.048215991226154
 40
0.072320391510906
 40
0.0964895678693673
 40
0.1207736231945699
 40
0.1452220711225729
 40
0.1698835501642671
 40
0.1948055644460739
 40
0.2200342569510659
 40
0.245614219161033
 40
0.3690971486881772
 40
0.4940698769484976
 40
0.6192566784762282
 40
0.7454656653603126
 40
0.7971495824713628
 40
0.8481710308405337
 40
0.8988013269235202
 40
0.9493179290492171
 40
1.0
 40
1.0
 40
1.0
 40
1.0
 10
235.3401124506083
 20
47.44373060145343
 30
0.0
 10
235.3618306799837
 20
47.42939907805872
 30
0.0
 10
235.4052347601588
 20
47.40075739739033
 30
0.0
 10
235.4685418775188
 20
47.35276509946237
 30
0.0
 10
235.5304034452358
 20
47.30116590157731
 30
0.0
 10
235.5907079603717
 20
47.24559110870444
 30
0.0
 10
235.6494978123114
 20
47.18613586807741
 30
0.0
 10
235.7067783307413
 20
47.12277155923987
 30
0.0
 10
235.7625694700681
 20
47.05550278127557
 30
0.0
 10
235.8168907174909
 20
46.98432866731484
 30
0.0
 10
235.8697696927012
 20
46.90923952756565
 30
0.0
 10
235.9865645174384
 20
46.72998507886648
 30
0.0
 10
236.148434075366
 20
46.4196796070227
 30
0.0
 10
236.3116189828966
 20
45.94976581889017
 30
0.0
 10
236.4231303880711
 20
45.45080278497779
 30
0.0
 10
236.4702642261794
 20
45.04191911192072
 30
0.0
 10
236.485383165712
 20
44.73764715533002
 30
0.0
 10
236.4873363046945
 20
44.5363979136347
 30
0.0
 10
236.4808582790554
 20
44.34073799391211
 30
0.0
 10
236.4667313563683
 20
44.15010170601464
 30
0.0
 10
236.4505714646833
 20
44.02851843227584
 30
0.0
 10
236.4424783074112
 20
43.96762739567694
 30
0.0
  0
LINE
  5
26B
330
1F
100
AcDbEntity
  8
0
  6
Continuous
 62
     7
370
    25
100
AcDbLine
 10
234.7004061824
 20
47.8567056144
 30
0.0
 11
235.3401124506
 21
47.4437306015
 31
0.0
  0
SPLINE
  5
26C
330
1F
100
AcDbEntity
  8
0
  6
Continuous
 62
     7
370
    25
100
AcDbSpline
210
0.0
220
0.0
230
1.0
 70
     8
 71
     3
 72
    14
 73
    10
 74
     0
 42
0.000000001
 43
0.00000001
 40
0.0
 40
0.0
 40
0.0
 40
0.0
 40
0.0789261963166806
 40
0.1582328720532219
 40
0.3308475394593821
 40
0.5000195457654665
 40
0.6670357883621003
 40
0.8332395193691069
 40
1.0
 40
1.0
 40
1.0
 40
1.0
 10
233.8864534665689
 20
48.06528788473913
 30
0.0
 10
233.9081703479046
 20
48.06689104859762
 30
0.0
 10
233.9517088011198
 20
48.07010510468469
 30
0.0
 10
234.0432339197694
 20
48.07092614475143
 30
0.0
 10
234.1601422532039
 20
48.06299016296666
 30
0.0
 10
234.3009625915875
 20
48.03671449408817
 30
0.0
 10
234.4381748994
 20
47.99375689555598
 30
0.0
 10
234.5721055738155
 20
47.93539977074733
 30
0.0
 10
234.6575916657735
 20
47.88296622459819
 30
0.0
 10
234.700406182421
 20
47.85670561444432
 30
0.0
  0
SPLINE
  5
26D
330
1F
100
AcDbEntity
  8
0
  6
Continuous
 62
     7
370
    25
100
AcDbSpline
210
0.0
220
0.0
230
1.0
 70
     8
 71
     3
 72
     8
 73
     4
 74
     0
 42
0.000000001
 43
0.00000001
 40
0.0
 40
0.0
 40
0.0
 40
0.0
 40
1.0
 40
1.0
 40
1.0
 40
1.0
 10
232.0841498835653
 20
49.22767929615073
 30
0.0
 10
232.6849081072609
 20
48.84041181299217
 30
0.0
 10
233.2856369701207
 20
48.45294446306921
 30
0.0
 10
233.8863376144671
 20
48.06527757047993
 30
0.0
  0
SPLINE
  5
26E
330
1F
100
AcDbEntity
  8
0
  6
Continuous
 62
     7
370
    25
100
AcDbSpline
210
0.0
220
0.0
230
1.0
 70
     8
 71
     3
 72
    13
 73
     9
 74
     0
 42
0.000000001
 43
0.00000001
 40
0.0
 40
0.0
 40
0.0
 40
0.0
 40
0.1667030582308039
 40
0.3329480818053005
 40
0.4990671507274865
 40
0.6653938523718437
 40
0.8322612710550082
 40
1.0
 40
1.0
 40
1.0
 40
1.0
 10
231.7423213485309
 20
49.52874407523651
 30
0.0
 10
231.7626225309708
 20
49.51517896855728
 30
0.0
 10
231.8031691161595
 20
49.48808602679444
 30
0.0
 10
231.8623187531472
 20
49.44289145378672
 30
0.0
 10
231.9200902980496
 20
49.39448030530377
 30
0.0
 10
231.9763400355093
 20
49.3424451905333
 30
0.0
 10
232.0312672442554
 20
49.28714722332429
 30
0.0
 10
232.066487953846
 20
49.24752996816392
 30
0.0
 10
232.0841441657869
 20
49.22766975916299
 30
0.0
  0
SPLINE
  5
26F
330
1F
100
AcDbEntity
  8
0
  6
Continuous
 62
     7
370
    25
100
AcDbSpline
210
0.0
220
0.0
230
1.0
 70
     8
 71
     3
 72
     8
 73
     4
 74
     0
 42
0.000000001
 43
0.00000001
 40
0.0
 40
0.0
 40
0.0
 40
0.0
 40
1.0
 40
1.0
 40
1.0
 40
1.0
 10
229.7983408327402
 20
50.78346592761599
 30
0.0
 10
230.4463709051404
 20
50.36547061173123
 30
0.0
 10
231.0943638822423
 20
49.9472298493136
 30
0.0
 10
231.7423213485309
 20
49.52874407523651
 30
0.0
  0
LWPOLYLINE
  5
270
330
1F
100
AcDbEntity
  8
0
  6
Continuous
 62
     7
370
    25
100
AcDbPolyline
 90
       21
 70
   128
 43
0.0
 10
229.7983408328
 20
50.7834659278
 10
230.1459987052
 20
51.804646369
 10
230.5608492838
 20
52.8218681918
 10
231.0389905562
 20
53.825563585
 10
231.5759252088
 20
54.8062919643
 10
232.1666029277
 20
55.7548287693
 10
232.8054679011
 20
56.6622522278
 10
233.4865110763
 20
57.5200272729
 10
234.2033266796
 20
58.3200858217
 10
234.9491724685
 20
59.0549026627
 10
235.717033147
 20
59.7175662367
 10
236.4996863514
 20
60.3018436455
 10
237.2897705818
 20
60.8022392773
 10
238.0798544436
 20
61.2140464981
 10
238.8625065453
 20
61.5333919207
 10
239.6303653976
 20
61.7572718378
 10
240.3762086537
 20
61.8835804737
 10
241.0930210419
 20
61.9111297914
 10
241.7740603495
 20
61.8396606669
 10
242.4129208394
 20
61.6698453263
 10
242.848079026
 20
61.485212894
  0
SPLINE
  5
271
330
1F
100
AcDbEntity
  8
0
  6
Continuous
 62
     7
370
    25
100
AcDbSpline
210
0.0
220
0.0
230
1.0
 70
    11
 71
     3
 72
    39
 73
    35
 74
     0
 42
0.000000001
 43
0.00000001
 40
0.0
 40
0.0
 40
0.0
 40
0.0
 40
0.0310664058348413
 40
0.0621048158426138
 40
0.0931361551796939
 40
0.1235538293503726
 40
0.1538561545809849
 40
0.1850588072749156
 40
0.2160250992946587
 40
0.2471867223797568
 40
0.2784462884304475
 40
0.3100516090231247
 40
0.3419834369138969
 40
0.3734259894013238
 40
0.4048604886787081
 40
0.436874065183343
 40
0.4685120685926471
 40
0.499805535863323
 40
0.5309508213226204
 40
0.5618649784438111
 40
0.5930416446590877
 40
0.623374245013332
 40
0.6540913579072549
 40
0.6849496782718453
 40
0.7158160645166705
 40
0.7471731804043553
 40
0.7784514311866318
 40
0.810129591156098
 40
0.8419598919688388
 40
0.8735175891922303
 40
0.9050808037886594
 40
0.9370235169792582
 40
0.9687441590030581
 40
1.0
 40
1.0
 40
1.0
 40
1.0
 10
243.0069263139456
 20
59.7886563029574
 30
0.0
 10
243.2698119341437
 20
59.7601218156673
 30
0.0
 10
243.7967005446272
 20
59.67417932734569
 30
0.0
 10
244.5607126137032
 20
59.47380420727325
 30
0.0
 10
245.2678628017541
 20
59.22680210105372
 30
0.0
 10
245.8807738663496
 20
58.94882022290062
 30
0.0
 10
246.37790519202
 20
58.6546865255719
 30
0.0
 10
246.7370969130934
 20
58.35317999737967
 30
0.0
 10
246.9588161818523
 20
58.04618249247726
 30
0.0
 10
247.0240680592344
 20
57.73567723107557
 30
0.0
 10
246.9372208481205
 20
57.41653274632674
 30
0.0
 10
246.6948752603622
 20
57.08721278075454
 30
0.0
 10
246.3149373976357
 20
56.74827205919689
 30
0.0
 10
245.801131444476
 20
56.41043359478626
 30
0.0
 10
245.1752406335659
 20
56.08453569347542
 30
0.0
 10
244.461769647074
 20
55.78788880023593
 30
0.0
 10
243.6978671708097
 20
55.53178549179897
 30
0.0
 10
242.9120740879081
 20
55.34275792380819
 30
0.0
 10
242.1305366328681
 20
55.23458200175494
 30
0.0
 10
241.3744236481157
 20
55.22691811838523
 30
0.0
 10
240.6720590617222
 20
55.32484015377137
 30
0.0
 10
240.0530387146795
 20
55.54648858727387
 30
0.0
 10
239.5439814496658
 20
55.8823566741856
 30
0.0
 10
239.1710378562319
 20
56.32216724036637
 30
0.0
 10
238.9424359049835
 20
56.83324188088901
 30
0.0
 10
238.8735895982642
 20
57.38442696865246
 30
0.0
 10
238.9582060114893
 20
57.9420988969642
 30
0.0
 10
239.2013148014242
 20
58.47217903788319
 30
0.0
 10
239.5834446442419
 20
58.94470338699593
 30
0.0
 10
240.0995802186522
 20
59.33082489788915
 30
0.0
 10
240.7265580791541
 20
59.61444908522229
 30
0.0
 10
241.4424655115179
 20
59.7841863039487
 30
0.0
 10
242.2109089037036
 20
59.84572513866002
 30
0.0
 10
242.742437683076
 20
59.81736478640445
 30
0.0
 10
243.0069263139455
 20
59.78865630295739
 30
0.0
  0
LINE
  5
272
330
1F
100
AcDbEntity
  8
0
  6
Continuous
 62
     7
370
    25
100
AcDbLine
 10
233.7823893262
 20
43.3495292762
 30
0.0
 11
234.0964339333
 21
43.1813854918
 31
0.0
  0
LINE
  5
273
330
1F
100
AcDbEntity
  8
0
  6
Continuous
 62
     7
370
    25
100
AcDbLine
 10
232.7954302872
 20
43.9192886017
 30
0.0
 11
233.7823893262
 21
43.3495292762
 31
0.0
  0
ARC
  5
274
330
1F
100
AcDbEntity
  8
0
  6
Continuous
 62
     7
370
    25
100
AcDbCircle
 10
235.0192515289
 20
47.4906266349
 30
0.0
 40
4.462267193780182
100
AcDbArc
 50
267.6359980982
 51
287.0346845948
  0
SPLINE
  5
275
330
1F
100
AcDbEntity
  8
0
  6
Continuous
 62
     7
370
    25
100
AcDbSpline
210
0.0
220
0.0
230
1.0
 70
     8
 71
     3
 72
    16
 73
    12
 74
     0
 42
0.000000001
 43
0.00000001
 40
0.0
 40
0.0
 40
0.0
 40
0.0
 40
0.150516077399122
 40
0.2631372176921921
 40
0.3788385653419718
 40
0.4915726627001882
 40
0.6082157173107177
 40
0.7115656327827977
 40
0.8179798858712685
 40
0.9203357686923438
 40
1.0
 40
1.0
 40
1.0
 40
1.0
 10
244.3454321087722
 20
56.7861606700946
 30
0.0
 10
244.1405990262568
 20
56.89854962276711
 30
0.0
 10
243.7825030118257
 20
57.09503173163291
 30
0.0
 10
243.1837678177137
 20
57.35919038342146
 30
0.0
 10
242.6075524674741
 20
57.57142222683758
 30
0.0
 10
241.9949922627987
 20
57.74337709006733
 30
0.0
 10
241.3936173466749
 20
57.85131401621823
 30
0.0
 10
240.8109223187665
 20
57.89004800632382
 30
0.0
 10
240.2762955931085
 20
57.85559846435999
 30
0.0
 10
239.8079969589037
 20
57.76457833743643
 30
0.0
 10
239.5491486433274
 20
57.65370659859225
 30
0.0
 10
239.4358592292186
 20
57.60518167654701
 30
0.0
  0
SPLINE
  5
276
330
1F
100
AcDbEntity
  8
0
  6
Continuous
 62
     7
370
    25
100
AcDbSpline
210
0.0
220
0.0
230
1.0
 70
     8
 71
     3
 72
    10
 73
     6
 74
     0
 42
0.000000001
 43
0.00000001
 40
0.0
 40
0.0
 40
0.0
 40
0.0
 40
0.3798174487124792
 40
0.9603712743694167
 40
1.0
 40
1.0
 40
1.0
 40
1.0
 10
245.4853125578189
 20
56.25793364731334
 30
0.0
 10
245.3556598994716
 20
56.32826235321276
 30
0.0
 10
245.0278321781692
 20
56.50608901477958
 30
0.0
 10
244.6199037745235
 20
56.6791413152778
 30
0.0
 10
244.3632709759522
 20
56.7783469618775
 30
0.0
 10
244.3468725288477
 20
56.78468605242745
 30
0.0
  0
SPLINE
  5
277
330
1F
100
AcDbEntity
  8
0
  6
Continuous
 62
     7
370
    25
100
AcDbSpline
210
0.0
220
0.0
230
1.0
 70
     8
 71
     3
 72
    25
 73
    21
 74
     0
 42
0.000000001
 43
0.00000001
 40
0.0
 40
0.0
 40
0.0
 40
0.0
 40
0.0472533917872508
 40
0.0895736156386787
 40
0.1269632240823441
 40
0.1594267770588481
 40
0.2428507964512297
 40
0.3183672309096812
 40
0.3935858487026566
 40
0.4205144052940519
 40
0.4483683787012357
 40
0.4771558249980066
 40
0.5451773830434189
 40
0.6363664722698907
 40
0.696894012283923
 40
0.7498726465123202
 40
0.7959807071598741
 40
0.8771243677046747
 40
0.9543028052275159
 40
1.0
 40
1.0
 40
1.0
 40
1.0
 10
242.9520473729005
 20
59.21479844043494
 30
0.0
 10
242.8116432885375
 20
59.23011456758083
 30
0.0
 10
242.5454930501915
 20
59.25914784612763
 30
0.0
 10
242.1727144470294
 20
59.26641449932578
 30
0.0
 10
241.8501538376257
 20
59.25302804688076
 30
0.0
 10
241.4210370421374
 20
59.20707025153438
 30
0.0
 10
240.9134196147267
 20
59.09004965589561
 30
0.0
 10
240.3706108509964
 20
58.84746636624187
 30
0.0
 10
240.030210245671
 20
58.59011601223154
 30
0.0
 10
239.8235844120164
 20
58.37530516263557
 30
0.0
 10
239.7056003923858
 20
58.22880345782771
 30
0.0
 10
239.5534303344339
 20
57.99905123726032
 30
0.0
 10
239.3867487619276
 20
57.62610990478703
 30
0.0
 10
239.318388450572
 20
57.16355081890957
 30
0.0
 10
239.368742636978
 20
56.735216952881
 30
0.0
 10
239.4741725121683
 20
56.41529104079986
 30
0.0
 10
239.6563712721763
 20
56.07482477971699
 30
0.0
 10
239.9572502872083
 20
55.73887691089231
 30
0.0
 10
240.3469349879813
 20
55.46581819909089
 30
0.0
 10
240.6398538336567
 20
55.37186252823139
 30
0.0
 10
240.7487897495363
 20
55.33692060759958
 30
0.0
  0
SPLINE
  5
278
330
1F
100
AcDbEntity
  8
0
  6
Continuous
 62
     7
370
    25
100
AcDbSpline
210
0.0
220
0.0
230
1.0
 70
     8
 71
     3
 72
    22
 73
    18
 74
     0
 42
0.000000001
 43
0.00000001
 40
0.0
 40
0.0
 40
0.0
 40
0.0
 40
0.0348562881197234
 40
0.0924900456867643
 40
0.1569277512440201
 40
0.2282085045255817
 40
0.2894089389015432
 40
0.3420696599366521
 40
0.3861903415761853
 40
0.4217735618017079
 40
0.5236918804936475
 40
0.6145479382150776
 40
0.7067592537278896
 40
0.7559111263212961
 40
0.8071360145824484
 40
0.8951475406773878
 40
1.0
 40
1.0
 40
1.0
 40
1.0
 10
246.2157917968521
 20
56.69765413482211
 30
0.0
 10
246.2534276022364
 20
56.73282751332845
 30
0.0
 10
246.353293008085
 20
56.82615894821433
 30
0.0
 10
246.4721173805479
 20
56.98150382282653
 30
0.0
 10
246.5685284685498
 20
57.17023234896697
 30
0.0
 10
246.5998051205312
 20
57.35621187461416
 30
0.0
 10
246.5703988939935
 20
57.5280230938579
 30
0.0
 10
246.5019043703096
 20
57.6748309833907
 30
0.0
 10
246.414091625324
 20
57.79604011978009
 30
0.0
 10
246.2598000423301
 20
57.96162501229285
 30
0.0
 10
245.9919739011607
 20
58.17178827608931
 30
0.0
 10
245.5404040797409
 20
58.42723279227625
 30
0.0
 10
245.092841208317
 20
58.63386851897176
 30
0.0
 10
244.6839477191444
 20
58.79237336359937
 30
0.0
 10
244.2618677531207
 20
58.93488947282831
 30
0.0
 10
243.6835552186366
 20
59.09814694110502
 30
0.0
 10
243.2096763953959
 20
59.17371506461038
 30
0.0
 10
242.9520473729005
 20
59.21479844043494
 30
0.0
  0
LINE
  5
279
330
1F
100
AcDbEntity
  8
0
  6
Continuous
 62
     7
370
    25
100
AcDbLine
 10
236.4424783074
 20
43.9676273957
 30
0.0
 11
236.4372397639
 21
44.2637108145
 31
0.0
  0
LINE
  5
27A
330
1F
100
AcDbEntity
  8
0
  6
Continuous
 62
     7
370
    25
100
AcDbLine
 10
236.4372397639
 20
44.2637108145
 30
0.0
 11
236.4803365014
 21
44.9153176434
 31
0.0
  0
LINE
  5
27B
330
1F
100
AcDbEntity
  8
0
  6
Continuous
 62
     7
370
    25
100
AcDbLine
 10
235.9576913441
 20
46.7443990693
 30
0.0
 11
235.6462765741
 21
47.0729953317
 31
0.0
  0
SPLINE
  5
27C
330
1F
100
AcDbEntity
  8
0
  6
Continuous
 62
     7
370
    25
100
AcDbSpline
210
0.0
220
0.0
230
1.0
 70
     8
 71
     3
 72
    24
 73
    20
 74
     0
 42
0.000000001
 43
0.00000001
 40
0.0
 40
0.0
 40
0.0
 40
0.0
 40
0.0208485373664328
 40
0.082337624721483
 40
0.145570554909999
 40
0.2075413813861501
 40
0.2714247518575061
 40
0.3315017366461526
 40
0.3933547140842962
 40
0.4529343674601999
 40
0.5141802400798193
 40
0.5749476280822021
 40
0.6373706675512829
 40
0.7000294854400733
 40
0.7648697537683949
 40
0.8126336564436468
 40
0.860939867343154
 40
0.9190455624035468
 40
1.0
 40
1.0
 40
1.0
 40
1.0
 10
239.349059335988
 20
56.96565017243763
 30
0.0
 10
239.3463399967748
 20
57.01849983790473
 30
0.0
 10
239.3356004457122
 20
57.2272202793153
 30
0.0
 10
239.4076209755454
 20
57.57030272864471
 30
0.0
 10
239.5697094477918
 20
57.98195142959323
 30
0.0
 10
239.8320456831671
 20
58.35128693224645
 30
0.0
 10
240.1735616382521
 20
58.65945811994544
 30
0.0
 10
240.5893342216237
 20
58.9031682483301
 30
0.0
 10
241.0551017079198
 20
59.07296967959971
 30
0.0
 10
241.5693330197058
 20
59.17040196637874
 30
0.0
 10
242.1107450465808
 20
59.19201611820071
 30
0.0
 10
242.6751456949448
 20
59.13561075335791
 30
0.0
 10
243.2419933922091
 20
58.998537129726
 30
0.0
 10
243.7999508105778
 20
58.77270125186948
 30
0.0
 10
244.2726324775823
 20
58.47509124863375
 30
0.0
 10
244.6296265745378
 20
58.1041695855989
 30
0.0
 10
244.8244689989964
 20
57.67185096253573
 30
0.0
 10
244.8535002438984
 20
57.1689088178365
 30
0.0
 10
244.7911261257522
 20
56.83516402415258
 30
0.0
 10
244.7548147721052
 20
56.64087309721884
 30
0.0
  0
SPLINE
  5
27D
330
1F
100
AcDbEntity
  8
0
  6
Continuous
 62
     7
370
    25
100
AcDbSpline
210
0.0
220
0.0
230
1.0
 70
     8
 71
     3
 72
    10
 73
     6
 74
     0
 42
0.000000001
 43
0.00000001
 40
0.0
 40
0.0
 40
0.0
 40
0.0
 40
0.2949475040408695
 40
0.9798113369355143
 40
1.0
 40
1.0
 40
1.0
 40
1.0
 10
244.7575426470849
 20
56.63963453921433
 30
0.0
 10
244.8403676019113
 20
56.60086944984584
 30
0.0
 10
245.1155109023572
 20
56.47209238436744
 30
0.0
 10
245.3906471851326
 20
56.33077817648299
 30
0.0
 10
245.5392808262404
 20
56.2366802288969
 30
0.0
 10
245.5435368419521
 20
56.23398580292186
 30
0.0
  0
ARC
  5
27E
330
1F
100
AcDbEntity
  8
0
  6
Continuous
 62
     7
370
    25
100
AcDbCircle
 10
248.7675504934
 20
42.4264244693
 30
0.0
 40
12.46644230718653
100
AcDbArc
 50
171.5249591672
 51
179.8212373334
  0
SPLINE
  5
27F
330
1F
100
AcDbEntity
  8
0
  6
Continuous
 62
     7
370
    25
100
AcDbSpline
210
0.0
220
0.0
230
1.0
 70
     8
 71
     3
 72
    14
 73
    10
 74
     0
 42
0.000000001
 43
0.00000001
 40
0.0
 40
0.0
 40
0.0
 40
0.0
 40
0.0003951393068452
 40
0.0003951393068452
 40
0.0003951393068452
 40
0.0008163352168663
 40
0.0008163352168663
 40
0.0008163352168663
 40
0.0012378579337219
 40
0.0012378579337219
 40
0.0012378579337219
 40
0.0012378579337219
 10
244.3494648477846
 20
56.78488163423734
 30
0.0
 10
244.3949266620159
 20
56.7704447716123
 30
0.0
 10
244.4398142666369
 20
56.7555789110467
 30
0.0
 10
244.484097959312
 20
56.74029512344123
 30
0.0
 10
244.5313012515514
 20
56.72400368410354
 30
0.0
 10
244.5778270646105
 20
56.70723420601962
 30
0.0
 10
244.6236379738522
 20
56.69000539522433
 30
0.0
 10
244.6694843618413
 20
56.67276324139269
 30
0.0
 10
244.7146235974137
 20
56.65505753518819
 30
0.0
 10
244.7590171554561
 20
56.6369146784974
 30
0.0
  0
LINE
  5
280
330
1F
100
AcDbEntity
  8
0
  6
Continuous
 62
     7
370
    25
100
AcDbLine
 10
235.6462765741
 20
47.0729953317
 30
0.0
 11
235.0063403788
 21
47.4852270688
 31
0.0
  0
LINE
  5
281
330
1F
100
AcDbEntity
  8
0
  6
Continuous
 62
     7
370
    25
100
AcDbLine
 10
234.7004061824
 20
47.8567056144
 30
0.0
 11
235.0063403788
 21
47.4852270688
 31
0.0
  0
SPLINE
  5
282
330
1F
100
AcDbEntity
  8
0
  6
Continuous
 62
     7
370
    25
100
AcDbSpline
210
0.0
220
0.0
230
1.0
 70
     8
 71
     3
 72
    13
 73
     9
 74
     0
 42
0.000000001
 43
0.00000001
 40
0.0
 40
0.0
 40
0.0
 40
0.0
 40
0.1618542298867834
 40
0.3254858841579958
 40
0.491008519663627
 40
0.6585318472816848
 40
0.8281616954220586
 40
1.0
 40
1.0
 40
1.0
 40
1.0
 10
235.006340378763
 20
47.48522706880744
 30
0.0
 10
234.9867629867454
 20
47.49779004584072
 30
0.0
 10
234.9473932108993
 20
47.52305396195953
 30
0.0
 10
234.8858572711287
 20
47.55574765887454
 30
0.0
 10
234.8223006118792
 20
47.58469373258144
 30
0.0
 10
234.7566825092225
 20
47.60920610004693
 30
0.0
 10
234.6892552401681
 20
47.62964116340024
 30
0.0
 10
234.6433706399699
 20
47.6392378183899
 30
0.0
 10
234.6202799597951
 20
47.64406717922462
 30
0.0
  0
SPLINE
  5
283
330
1F
100
AcDbEntity
  8
0
  6
Continuous
 62
     7
370
    25
100
AcDbSpline
210
0.0
220
0.0
230
1.0
 70
     8
 71
     3
 72
     9
 73
     5
 74
     0
 42
0.000000001
 43
0.00000001
 40
0.0
 40
0.0
 40
0.0
 40
0.0
 40
0.4907282259506091
 40
1.0
 40
1.0
 40
1.0
 40
1.0
 10
234.6202741325031
 20
47.64403918219361
 30
0.0
 10
234.5961806100253
 20
47.65213471441174
 30
0.0
 10
234.5470831234661
 20
47.66863169133301
 30
0.0
 10
234.4963824296459
 20
47.68342536034925
 30
0.0
 10
234.4705619973586
 20
47.69095935841383
 30
0.0
  0
SPLINE
  5
284
330
1F
100
AcDbEntity
  8
0
  6
Continuous
 62
     7
370
    25
100
AcDbSpline
210
0.0
220
0.0
230
1.0
 70
     8
 71
     3
 72
    14
 73
    10
 74
     0
 42
0.000000001
 43
0.00000001
 40
0.0
 40
0.0
 40
0.0
 40
0.0
 40
0.0310276388056898
 40
0.0622853718658436
 40
0.124800316689171
 40
0.2498289731742531
 40
0.4998892603602845
 40
0.7606803621217882
 40
1.0
 40
1.0
 40
1.0
 40
1.0
 10
233.88662130807
 20
48.06506710105968
 30
0.0
 10
233.8926135474743
 20
48.06123605740624
 30
0.0
 10
233.9046424634335
 20
48.05354555990873
 30
0.0
 10
233.9287022714824
 20
48.03810767040212
 30
0.0
 10
233.970935944129
 20
48.01103721747116
 30
0.0
 10
234.0554985186415
 20
47.95682519267545
 30
0.0
 10
234.178785488104
 20
47.87782201081489
 30
0.0
 10
234.3249171945567
 20
47.78421583613623
 30
0.0
 10
234.423283811099
 20
47.72123275974384
 30
0.0
 10
234.470355511793
 20
47.69109326094895
 30
0.0
  0
LINE
  5
285
330
1F
100
AcDbEntity
  8
0
  6
Continuous
 62
     7
370
    25
100
AcDbLine
 10
232.0841210414
 20
49.2276979022
 30
0.0
 11
232.3750878759
 21
49.0396194731
 31
0.0
  0
SPLINE
  5
286
330
1F
100
AcDbEntity
  8
0
  6
Continuous
 62
     7
370
    25
100
AcDbSpline
210
0.0
220
0.0
230
1.0
 70
     8
 71
     3
 72
     8
 73
     4
 74
     0
 42
0.000000001
 43
0.00000001
 40
0.0
 40
0.0
 40
0.0
 40
0.0
 40
1.0
 40
1.0
 40
1.0
 40
1.0
 10
232.4064768103655
 20
49.01939670874854
 30
0.0
 10
232.3960343045137
 20
49.02622213364594
 30
0.0
 10
232.3855683716239
 20
49.03296510043246
 30
0.0
 10
232.3750806068074
 20
49.03962418808545
 30
0.0
  0
SPLINE
  5
287
330
1F
100
AcDbEntity
  8
0
  6
Continuous
 62
     7
370
    25
100
AcDbSpline
210
0.0
220
0.0
230
1.0
 70
     8
 71
     3
 72
     8
 73
     4
 74
     0
 42
0.000000001
 43
0.00000001
 40
0.0
 40
0.0
 40
0.0
 40
0.0
 40
1.0
 40
1.0
 40
1.0
 40
1.0
 10
229.6204724315417
 20
50.89765236055761
 30
0.0
 10
229.6794721957117
 20
50.85891169363865
 30
0.0
 10
229.7387597592222
 20
50.82084971633937
 30
0.0
 10
229.7983408327106
 20
50.78346592787907
 30
0.0
  0
SPLINE
  5
288
330
1F
100
AcDbEntity
  8
0
  6
Continuous
 62
     7
370
    25
100
AcDbSpline
210
0.0
220
0.0
230
1.0
 70
     8
 71
     3
 72
     8
 73
     4
 74
     0
 42
0.000000001
 43
0.00000001
 40
0.0
 40
0.0
 40
0.0
 40
0.0
 40
1.0
 40
1.0
 40
1.0
 40
1.0
 10
229.5956226854421
 20
51.26086253849594
 30
0.0
 10
229.6030968975327
 20
51.1399046977841
 30
0.0
 10
229.6113930014228
 20
51.01883285537344
 30
0.0
 10
229.6204724315417
 20
50.89765236055761
 30
0.0
  0
LWPOLYLINE
  5
289
330
1F
100
AcDbEntity
  8
0
  6
Continuous
 62
     7
370
    25
100
AcDbPolyline
 90
       17
 70
   128
 43
0.0
 10
229.5956226854
 20
51.2608625385
 10
229.9517031186
 20
52.2734768208
 10
230.3757522689
 20
53.2802649218
 10
230.8635363885
 20
54.2711749715
 10
231.4101853936
 20
55.2363136282
 10
232.0102414878
 20
56.1660448543
 10
232.6577136528
 20
57.0510861232
 10
233.346137464
 20
57.8826010972
 10
234.0686396315
 20
58.6522878505
 10
234.8180066237
 20
59.3524617561
 10
235.5867566881
 20
59.9761322099
 10
236.3672145496
 20
60.5170724258
 10
237.1515880416
 20
60.9698816044
 10
237.9320459032
 20
61.3300388551
 10
238.7007959676
 20
61.5939483329
 10
239.4501629598
 20
61.7589751403
 10
239.5595849111
 20
61.7749703023
  0
SPLINE
  5
28A
330
1F
100
AcDbEntity
  8
0
  6
Continuous
 62
     7
370
    25
100
AcDbSpline
210
0.0
220
0.0
230
1.0
 70
     8
 71
     3
 72
    10
 73
     6
 74
     0
 42
0.000000001
 43
0.00000001
 40
0.0
 40
0.0
 40
0.0
 40
0.0
 40
0.240982026022918
 40
0.5031431986318641
 40
1.0
 40
1.0
 40
1.0
 40
1.0
 10
235.6462765740917
 20
40.36715391411549
 30
0.0
 10
235.7285226022858
 20
40.3154774021484
 30
0.0
 10
235.9002430014511
 20
40.20758269334225
 30
0.0
 10
236.1779631831945
 20
40.07785941266786
 30
0.0
 10
236.2989409705755
 20
40.1006375161673
 30
0.0
 10
236.3781336096639
 20
40.11554817182235
 30
0.0
  0
LINE
  5
28B
330
1F
100
AcDbEntity
  8
0
  6
Continuous
 62
     7
370
    25
100
AcDbLine
 10
230.8631031195
 20
50.0962262676
 30
0.0
 11
230.101223738
 21
50.5868611863
 31
0.0
  0
LINE
  5
28C
330
1F
100
AcDbEntity
  8
0
  6
Continuous
 62
     7
370
    25
100
AcDbLine
 10
230.101223738
 20
50.5868611863
 30
0.0
 11
229.6204724315
 21
50.8976523606
 31
0.0
  0
LINE
  5
28D
330
1F
100
AcDbEntity
  8
0
  6
Continuous
 62
     7
370
    25
100
AcDbLine
 10
234.7004061824
 20
40.0913741395
 30
0.0
 11
235.0063403788
 21
40.7793856512
 31
0.0
  0
LINE
  5
28E
330
1F
100
AcDbEntity
  8
0
  6
Continuous
 62
     7
370
    25
100
AcDbLine
 10
235.0063403788
 20
40.7793856512
 30
0.0
 11
235.6462765741
 21
40.3671539141
 31
0.0
  0
SPLINE
  5
28F
330
1F
100
AcDbEntity
  8
0
  6
Continuous
 62
     7
370
    25
100
AcDbSpline
210
0.0
220
0.0
230
1.0
 70
     8
 71
     3
 72
    13
 73
     9
 74
     0
 42
0.000000001
 43
0.00000001
 40
0.0
 40
0.0
 40
0.0
 40
0.0
 40
0.1722587823393973
 40
0.3421398270969619
 40
0.5097456257598065
 40
0.6751828992996295
 40
0.8385626189962242
 40
1.0
 40
1.0
 40
1.0
 40
1.0
 10
234.6202684479898
 20
41.06069514706073
 30
0.0
 10
234.6434199719404
 20
41.04257555612781
 30
0.0
 10
234.6894034526891
 20
41.00658648419392
 30
0.0
 10
234.7569444653998
 20
40.95558650077888
 30
0.0
 10
234.822604080085
 20
40.90726182058825
 30
0.0
 10
234.8861281513354
 20
40.86183081467883
 30
0.0
 10
234.9475585300574
 20
40.81900524691845
 30
0.0
 10
234.9868246970312
 20
40.79253942974289
 30
0.0
 10
235.006340378763
 20
40.77938565119572
 30
0.0
  0
SPLINE
  5
290
330
1F
100
AcDbEntity
  8
0
  6
Continuous
 62
     7
370
    25
100
AcDbSpline
210
0.0
220
0.0
230
1.0
 70
     8
 71
     3
 72
    11
 73
     7
 74
     0
 42
0.000000001
 43
0.00000001
 40
0.0
 40
0.0
 40
0.0
 40
0.0
 40
0.2392845093988677
 40
0.5001120454070203
 40
0.7515010915051096
 40
1.0
 40
1.0
 40
1.0
 40
1.0
 10
234.4708880365137
 20
41.10800913927361
 30
0.0
 10
234.4238188045192
 20
41.07969461656582
 30
0.0
 10
234.3254426499257
 20
41.02051638600804
 30
0.0
 10
234.1791454283406
 20
40.92732848554999
 30
0.0
 10
234.0313046846834
 20
40.83195656957767
 30
0.0
 10
233.9350182219666
 20
40.76742131431095
 30
0.0
 10
233.887153334109
 20
40.73534024425141
 30
0.0
  0
SPLINE
  5
291
330
1F
100
AcDbEntity
  8
0
  6
Continuous
 62
     7
370
    25
100
AcDbSpline
210
0.0
220
0.0
230
1.0
 70
     8
 71
     3
 72
     9
 73
     5
 74
     0
 42
0.000000001
 43
0.00000001
 40
0.0
 40
0.0
 40
0.0
 40
0.0
 40
0.5090669353869852
 40
1.0
 40
1.0
 40
1.0
 40
1.0
 10
234.4714590400978
 20
41.10731018506183
 30
0.0
 10
234.4971076147218
 20
41.09981747690195
 30
0.0
 10
234.5474911160673
 20
41.08509896418969
 30
0.0
 10
234.5962986275626
 20
41.06870660633753
 30
0.0
 10
234.6202598487571
 20
41.06065905586092
 30
0.0
  0
LINE
  5
292
330
1F
100
AcDbEntity
  8
0
  6
Continuous
 62
     7
370
    25
100
AcDbLine
 10
236.3013776144
 20
42.0311884235
 30
0.0
 11
234.6202619536
 21
41.0607010099
 31
0.0
  0
LINE
  5
293
330
1F
100
AcDbEntity
  8
0
  6
Continuous
 62
     7
370
    25
100
AcDbLine
 10
232.6137741566
 20
42.1845222877
 30
0.0
 11
232.4134781042
 21
41.6833650063
 31
0.0
  0
SPLINE
  5
294
330
1F
100
AcDbEntity
  8
0
  6
Continuous
 62
     7
370
    25
100
AcDbSpline
210
0.0
220
0.0
230
1.0
 70
     8
 71
     3
 72
     8
 73
     4
 74
     0
 42
0.000000001
 43
0.00000001
 40
0.0
 40
0.0
 40
0.0
 40
0.0
 40
1.0
 40
1.0
 40
1.0
 40
1.0
 10
232.6133308419576
 20
42.18530621892317
 30
0.0
 10
232.6395061765269
 20
42.20747359590145
 30
0.0
 10
232.6653272164923
 20
42.23010573699307
 30
0.0
 10
232.6907847702007
 20
42.25319045708435
 30
0.0
  0
LINE
  5
295
330
1F
100
AcDbEntity
  8
0
  6
Continuous
 62
     7
370
    25
100
AcDbLine
 10
232.6907847702
 20
42.2531904571
 30
0.0
 11
234.4710777605
 21
41.1074191946
 31
0.0
  0
LINE
  5
296
330
1F
100
AcDbEntity
  8
0
  6
Continuous
 62
     7
370
    25
100
AcDbLine
 10
236.3011688627
 20
42.1292384579
 30
0.0
 11
236.2131698402
 21
42.2367295945
 31
0.0
  0
LINE
  5
297
330
1F
100
AcDbEntity
  8
0
  6
Continuous
 62
     7
370
    25
100
AcDbLine
 10
234.3847612517
 20
43.2311022644
 30
0.0
 11
232.6907847702
 21
42.2531904571
 31
0.0
  0
LINE
  5
298
330
1F
100
AcDbEntity
  8
0
  6
Continuous
 62
     7
370
    25
100
AcDbLine
 10
234.5274552773
 20
43.2098099037
 30
0.0
 11
234.3851815658
 21
43.2306145196
 31
0.0
  0
LINE
  5
299
330
1F
100
AcDbEntity
  8
0
  6
Continuous
 62
     7
370
    25
100
AcDbLine
 10
236.2132428455
 20
42.2366254553
 30
0.0
 11
234.5274552773
 21
43.2098099037
 31
0.0
  0
LINE
  5
29A
330
1F
100
AcDbEntity
  8
0
  6
Continuous
 62
     7
370
    25
100
AcDbLine
 10
236.3011688627
 20
42.1858611144
 30
0.0
 11
236.2131963886
 21
42.2366522557
 31
0.0
  0
SPLINE
  5
29B
330
1F
100
AcDbEntity
  8
0
  6
Continuous
 62
     7
370
    25
100
AcDbSpline
210
0.0
220
0.0
230
1.0
 70
     8
 71
     3
 72
    19
 73
    15
 74
     0
 42
0.000000001
 43
0.00000001
 40
0.0
 40
0.0
 40
0.0
 40
0.0
 40
0.0637852801492328
 40
0.1289627947854765
 40
0.1955871357598936
 40
0.263709415691744
 40
0.3333774494039265
 40
0.4046359392220364
 40
0.4775266604180973
 40
0.5520886438866394
 40
0.6283583538446277
 40
0.7063698589454841
 40
0.8377040422820777
 40
0.9999999999999999
 40
0.9999999999999999
 40
0.9999999999999999
 40
0.9999999999999999
 10
231.8292617359963
 20
42.35379430627506
 30
0.0
 10
231.8499511050029
 20
42.34043516626383
 30
0.0
 10
231.8917814276603
 20
42.31342529772132
 30
0.0
 10
231.9522724012585
 20
42.27590333219326
 30
0.0
 10
232.0117565994402
 20
42.24038359110194
 30
0.0
 10
232.0698377589132
 20
42.20740346218554
 30
0.0
 10
232.1263698760008
 20
42.17719702591578
 30
0.0
 10
232.1811149307538
 20
42.15008358595545
 30
0.0
 10
232.2338373083452
 20
42.12635196820585
 30
0.0
 10
232.2842789412712
 20
42.10631171476509
 30
0.0
 10
232.3321618597434
 20
42.09019185321647
 30
0.0
 10
232.3871260399392
 20
42.07591387686499
 30
0.0
 10
232.4499574036888
 20
42.06577531578546
 30
0.0
 10
232.4884649468614
 20
42.0722495951873
 30
0.0
 10
232.5097489287309
 20
42.07582807446835
 30
0.0
  0
LINE
  5
29C
330
1F
100
AcDbEntity
  8
0
  6
Continuous
 62
     7
370
    25
100
AcDbLine
 10
232.5343848597
 20
42.1018982216
 30
0.0
 11
232.6020593493
 21
42.1735124792
 31
0.0
  0
SPLINE
  5
29D
330
1F
100
AcDbEntity
  8
0
  6
Continuous
 62
     7
370
    25
100
AcDbSpline
210
0.0
220
0.0
230
1.0
 70
     8
 71
     3
 72
     9
 73
     5
 74
     0
 42
0.000000001
 43
0.00000001
 40
0.0
 40
0.0
 40
0.0
 40
0.0
 40
0.523202776288562
 40
0.9999999999999999
 40
0.9999999999999999
 40
0.9999999999999999
 40
0.9999999999999999
 10
234.2185838975017
 20
43.1351701198102
 30
0.0
 10
234.149559584508
 20
43.16021227888443
 30
0.0
 10
234.0176330808236
 20
43.20807547879305
 30
0.0
 10
233.7761959284692
 20
43.34567367572296
 30
0.0
 10
233.6610793645258
 20
43.41128011400684
 30
0.0
  0
LINE
  5
29E
330
1F
100
AcDbEntity
  8
0
  6
Continuous
 62
     7
370
    25
100
AcDbLine
 10
229.9315782414
 20
43.1771695808
 30
0.0
 11
230.3830484111
 21
43.2894341145
 31
0.0
  0
LINE
  5
29F
330
1F
100
AcDbEntity
  8
0
  6
Continuous
 62
     7
370
    25
100
AcDbLine
 10
230.3830484111
 20
43.2894341145
 30
0.0
 11
231.829261736
 21
42.3537943063
 31
0.0
  0
SPLINE
  5
2A0
330
1F
100
AcDbEntity
  8
0
  6
Continuous
 62
     7
370
    25
100
AcDbSpline
210
0.0
220
0.0
230
1.0
 70
     8
 71
     3
 72
     8
 73
     4
 74
     0
 42
0.000000001
 43
0.00000001
 40
0.0
 40
0.0
 40
0.0
 40
0.0
 40
1.0
 40
1.0
 40
1.0
 40
1.0
 10
230.102366120013
 20
42.78242010849173
 30
0.0
 10
230.045240851089
 20
42.91420629228737
 30
0.0
 10
229.9883123593714
 20
43.04579051394816
 30
0.0
 10
229.931578241422
 20
43.17716958084952
 30
0.0
  0
LINE
  5
2A1
330
1F
100
AcDbEntity
  8
0
  6
Continuous
 62
     7
370
    25
100
AcDbLine
 10
231.7207496216
 20
44.0616725857
 30
0.0
 11
230.3830484111
 21
43.2894341145
 31
0.0
  0
LINE
  5
2A2
330
1F
100
AcDbEntity
  8
0
  6
Continuous
 62
     7
370
    25
100
AcDbLine
 10
232.7037784184
 20
43.9639190524
 30
0.0
 11
231.7207491477
 21
44.0616726334
 31
0.0
  0
LINE
  5
2A3
330
1F
100
AcDbEntity
  8
0
  6
Continuous
 62
     7
370
    25
100
AcDbLine
 10
233.6610793645
 20
43.411280114
 30
0.0
 11
232.7037776689
 21
43.9639186197
 31
0.0
  0
SPLINE
  5
2A4
330
1F
100
AcDbEntity
  8
0
  6
Continuous
 62
     7
370
    25
100
AcDbSpline
210
0.0
220
0.0
230
1.0
 70
     8
 71
     3
 72
     8
 73
     4
 74
     0
 42
0.000000001
 43
0.00000001
 40
0.0
 40
0.0
 40
0.0
 40
0.0
 40
1.0
 40
1.0
 40
1.0
 40
1.0
 10
229.9315782414242
 20
43.17716958084441
 30
0.0
 10
229.9284409036741
 20
43.21238588771693
 30
0.0
 10
229.9264484997761
 20
43.24803014394463
 30
0.0
 10
229.925667102404
 20
43.2841270459395
 30
0.0
  0
LINE
  5
2A5
330
1F
100
AcDbEntity
  8
0
  6
Continuous
 62
     7
370
    25
100
AcDbLine
 10
230.7367526349
 20
43.7523567573
 30
0.0
 11
229.9256671024
 21
43.2841270459
 31
0.0
  0
SPLINE
  5
2A6
330
1F
100
AcDbEntity
  8
0
  6
Continuous
 62
     7
370
    25
100
AcDbSpline
210
0.0
220
0.0
230
1.0
 70
     8
 71
     3
 72
     8
 73
     4
 74
     0
 42
0.000000001
 43
0.00000001
 40
0.0000004089325119
 40
0.0000004089325119
 40
0.0000004089325119
 40
0.0000004089325119
 40
0.0015399868451459
 40
0.0015399868451459
 40
0.0015399868451459
 40
0.0015399868451459
 10
230.7367526348928
 20
43.75235675729562
 30
0.0
 10
230.9752292029161
 20
43.84673314311198
 30
0.0
 10
231.2136761605848
 20
43.94116175504218
 30
0.0
 10
231.4520848994351
 20
44.03565513800464
 30
0.0
  0
LINE
  5
2A7
330
1F
100
AcDbEntity
  8
0
  6
Continuous
 62
     7
370
    25
100
AcDbLine
 10
231.4520848994
 20
44.035655138
 30
0.0
 11
231.4764811301
 21
44.0406490678
 31
0.0
  0
LINE
  5
2A8
330
1F
100
AcDbEntity
  8
0
  6
Continuous
 62
     7
370
    25
100
AcDbLine
 10
231.7207494141
 20
44.0616725672
 30
0.0
 11
231.4764816719
 21
44.0406494605
 31
0.0
  0
SPLINE
  5
2A9
330
1F
100
AcDbEntity
  8
0
  6
Continuous
 62
     7
370
    25
100
AcDbSpline
210
0.0
220
0.0
230
1.0
 70
     8
 71
     3
 72
     8
 73
     4
 74
     0
 42
0.000000001
 43
0.00000001
 40
0.0
 40
0.0
 40
0.0
 40
0.0
 40
1.0
 40
1.0
 40
1.0
 40
1.0
 10
232.7037768139431
 20
43.96391913059161
 30
0.0
 10
232.7343848480663
 20
43.94897912278548
 30
0.0
 10
232.7649363490382
 20
43.93410216539211
 30
0.0
 10
232.7954302871528
 20
43.91928860171119
 30
0.0
  0
ARC
  5
2AA
330
1F
100
AcDbEntity
  8
0
  6
Continuous
 62
     7
370
    25
100
AcDbCircle
 10
233.5592945069
 20
49.4645435544
 30
0.0
 40
6.625581341059491
100
AcDbArc
 50
283.7327672817
 51
294.8489934469
  0
LWPOLYLINE
  5
2AB
330
1F
100
AcDbEntity
  8
0
  6
Continuous
 62
     7
370
    18
100
AcDbPolyline
 90
       24
 70
   128
 43
0.0
 10
266.1951116035
 20
28.3541882539
 10
266.2336712198
 20
29.1267613585
 10
266.348808776
 20
29.9330092155
 10
266.5389079933
 20
30.7616138722
 10
266.8013002954
 20
31.6009435357
 10
267.1323022695
 20
32.4392158573
 10
267.5272673735
 20
33.2646633311
 10
267.9806511631
 20
34.065698484
 10
268.4860891237
 20
34.8310765383
 10
269.0364860142
 20
35.5500532638
 10
269.6241154689
 20
36.2125358035
 10
270.2407284583
 20
36.8092243545
 10
270.8776690876
 20
37.3317427177
 10
271.5259961066
 20
37.7727558805
 10
272.1766084251
 20
38.1260729848
 10
272.8203728723
 20
38.386734233
 10
273.4482524065
 20
38.5510805126
 10
274.0514329754
 20
38.616804762
 10
274.621447246
 20
38.5829843568
 10
275.1502934674
 20
38.4500940614
 10
275.6305477979
 20
38.2199993642
 10
276.0554685195
 20
37.8959302905
 10
276.4190906766
 20
37.4824360596
 10
276.6369120567
 20
37.138256578
  0
LWPOLYLINE
  5
2AC
330
1F
100
AcDbEntity
  8
0
  6
Continuous
 62
     7
370
    18
100
AcDbPolyline
 90
       11
 70
   128
 43
0.0
 10
269.302833892
 20
24.4338840248
 10
269.0364860142
 20
24.4389043095
 10
268.4860891237
 20
24.5224063117
 10
267.9806511631
 20
24.7042181183
 10
267.5272673735
 20
24.98178749
 10
267.1323022695
 20
25.3512179613
 10
266.8013002954
 20
25.8073235382
 10
266.5389079933
 20
26.3437014982
 10
266.348808776
 20
26.9528222705
 10
266.2336712198
 20
27.6261351347
 10
266.1951116035
 20
28.3541882539
  0
LWPOLYLINE
  5
2AD
330
1F
100
AcDbEntity
  8
0
  6
Continuous
 62
     7
370
    18
100
AcDbPolyline
 90
       51
 70
   128
 43
0.0
 10
267.244238528
 20
28.4884572012
 10
267.282504496
 20
29.2128978469
 10
267.3966989227
 20
29.970094577
 10
267.5850208937
 20
30.7481059468
 10
267.8445004592
 20
31.5346622523
 10
268.1710454714
 20
32.3173590305
 10
268.5595061203
 20
33.0838526858
 10
269.0037561495
 20
33.8220551553
 10
269.4967894706
 20
34.5203245451
 10
270.0308306536
 20
35.1676487298
 10
270.5974575501
 20
35.7538190204
 10
271.1877341154
 20
36.2695911611
 10
271.7923513354
 20
36.7068311172
 10
272.4017740355
 20
37.0586433534
 10
273.0063912555
 20
37.3194795806
 10
273.5966678208
 20
37.4852262556
 10
274.1632947173
 20
37.5532694544
 10
274.6973359003
 20
37.5225360951
 10
275.1903692214
 20
37.3935108611
 10
275.6346192506
 20
37.1682285575
 10
276.0230798995
 20
36.8502420207
 10
276.3496249116
 20
36.4445660884
 10
276.6091044771
 20
35.9575985124
 10
276.7974264482
 20
35.3970190622
 10
276.9116208749
 20
34.7716684106
 10
276.9498868428
 20
34.0914087111
 10
276.9116208749
 20
33.3669680654
 10
276.7974264482
 20
32.6097713352
 10
276.6091044771
 20
31.8317599654
 10
276.3496249116
 20
31.04520366
 10
276.0230798995
 20
30.2625068818
 10
275.6346192506
 20
29.4960132265
 10
275.1903692214
 20
28.757810757
 10
274.6973359003
 20
28.0595413671
 10
274.1632947173
 20
27.4122171824
 10
273.5966678208
 20
26.8260468919
 10
273.0063912555
 20
26.3102747512
 10
272.4017740355
 20
25.8730347951
 10
271.7923513354
 20
25.5212225589
 10
271.1877341154
 20
25.2603863317
 10
270.5974575501
 20
25.0946396567
 10
270.0308306536
 20
25.0265964578
 10
269.4967894706
 20
25.0573298171
 10
269.0037561495
 20
25.1863550511
 10
268.5595061203
 20
25.4116373548
 10
268.1710454714
 20
25.7296238915
 10
267.8445004592
 20
26.1352998239
 10
267.5850208937
 20
26.6222673999
 10
267.3966989227
 20
27.1828468501
 10
267.282504496
 20
27.8081975016
 10
267.244238528
 20
28.4884572012
  0
LWPOLYLINE
  5
2AE
330
1F
100
AcDbEntity
  8
0
  6
Continuous
 62
     7
370
    18
100
AcDbPolyline
 90
        9
 70
   128
 43
0.0
 10
250.8838592498
 20
34.9637694593
 10
250.9219525802
 20
34.1183756012
 10
251.035841682
 20
33.3256382511
 10
251.2243578991
 20
32.593691967
 10
251.4855668
 20
31.9300475082
 10
251.8167880278
 20
31.3415147649
 10
252.2146228045
 20
30.8341328795
 10
252.674988807
 20
30.4131082767
 10
253.058907106
 20
30.1563989914
  0
LWPOLYLINE
  5
2AF
330
1F
100
AcDbEntity
  8
0
  6
Continuous
 62
     7
370
    18
100
AcDbPolyline
 90
       25
 70
   128
 43
0.0
 10
263.5580537986
 20
48.3434251014
 10
263.4237988475
 20
48.4170628541
 10
262.8531355085
 20
48.6533425197
 10
262.2358378587
 20
48.7931302638
 10
261.5782402074
 20
48.8349916749
 10
260.8870903963
 20
48.7784971983
 10
260.1694805578
 20
48.6242265438
 10
259.4327743398
 20
48.3737627372
 10
258.6845313451
 20
48.0296758759
 10
257.9324295594
 20
47.5954967567
 10
257.1841865648
 20
47.0756806451
 10
256.4474803468
 20
46.4755615577
 10
255.7298705083
 20
45.8012975284
 10
255.0387206972
 20
45.0598074187
 10
254.3811230459
 20
44.2586999204
 10
253.7638253961
 20
43.4061954805
 10
253.1931620571
 20
42.5110419483
 10
252.674988807
 20
41.5824248102
 10
252.2146228045
 20
40.6298729348
 10
251.8167880278
 20
39.6631607933
 10
251.4855668
 20
38.6922081604
 10
251.2243578991
 20
37.7269783241
 10
251.035841682
 20
36.7773758486
 10
250.9219525802
 20
35.8531449405
 10
250.8838592498
 20
34.9637694593
  0
LWPOLYLINE
  5
2B0
330
1F
100
AcDbEntity
  8
0
  6
Continuous
 62
     7
370
    18
100
AcDbPolyline
 90
       10
 70
   128
 43
0.0
 10
272.4666971884
 20
34.0397576658
 10
272.706615897
 20
34.1157356934
 10
273.0898942195
 20
34.1655350871
 10
273.439362855
 20
34.1174092991
 10
273.7431210681
 20
33.9729971955
 10
273.9908247372
 20
33.7372165571
 10
274.174038611
 20
33.4180966109
 10
274.2865235606
 20
33.0265046039
 10
274.3244490462
 20
32.5757757322
 10
274.2994027415
 20
32.1766779329
  0
ARC
  5
2B1
330
1F
100
AcDbEntity
  8
0
  6
Continuous
 62
     7
370
    18
100
AcDbCircle
 10
271.2147137865
 20
29.7201542356
 30
0.0
 40
1.316112845741977
100
AcDbArc
 50
188.8375715788
 51
306.6937110601
  0
LWPOLYLINE
  5
2B2
330
1F
100
AcDbEntity
  8
0
  6
Continuous
 62
     7
370
    18
100
AcDbPolyline
 90
       32
 70
   128
 43
0.0
 10
248.7625389063
 20
34.9637694593
 10
248.7998233852
 20
35.9028385055
 10
248.9113491646
 20
36.8767027223
 10
249.0961361519
 20
37.8768037557
 10
249.3525604324
 20
38.8943526821
 10
249.6783685403
 20
39.9204072449
 10
250.0706972623
 20
40.9459504396
 10
250.5260987995
 20
41.9619697558
 10
251.0405710667
 20
42.9595363792
 10
251.6095928632
 20
43.9298836585
 10
252.228163605
 20
44.8644841469
 10
252.8908472701
 20
45.7551245416
 10
253.5918201707
 20
46.5939778629
 10
254.3249221318
 20
47.3736722377
 10
255.0837106268
 20
48.0873556836
 10
255.8615173953
 20
48.728756325
 10
256.6515070434
 20
49.29223751
 10
257.4467371137
 20
49.7728473455
 10
258.2402190957
 20
50.1663622152
 10
259.0249798412
 20
50.4693238961
 10
259.7941228446
 20
50.6790699502
 10
260.5408888495
 20
50.7937571216
 10
261.2587152494
 20
50.8123775352
 10
261.9412937601
 20
50.7347675543
 10
262.5826258571
 20
50.5616092181
 10
263.1770754909
 20
50.2944242483
 10
263.7194186167
 20
49.9355606761
 10
264.2048891037
 20
49.4881722073
 10
264.6292206196
 20
48.956190508
 10
264.988684124
 20
48.3442906525
 10
265.2801206386
 20
47.6578500386
 10
265.4023671777
 20
47.2787256504
  0
LWPOLYLINE
  5
2B3
330
1F
100
AcDbEntity
  8
0
  6
Continuous
 62
     7
370
    18
100
AcDbPolyline
 90
       15
 70
   128
 43
0.0
 10
254.903220485
 20
29.0916995404
 10
254.3249221318
 20
28.9760576529
 10
253.5918201707
 20
28.9093305201
 10
252.8908472701
 20
28.9388577574
 10
252.228163605
 20
29.0643798784
 10
251.6095928632
 20
29.2847937902
 10
251.0405710667
 20
29.5981624874
 10
250.5260987995
 20
30.0017320747
 10
250.0706972623
 20
30.4919559679
 10
249.6783685403
 20
31.064526062
 10
249.3525604324
 20
31.7144105903
 10
249.0961361519
 20
32.4358983443
 10
248.9113491646
 20
33.2226488635
 10
248.7998233852
 20
34.0677481562
 10
248.7625389063
 20
34.9637694593
  0
LWPOLYLINE
  5
2B4
330
1F
100
AcDbEntity
  8
0
  6
Continuous
 62
     7
370
    18
100
AcDbPolyline
 90
       18
 70
   128
 43
0.0
 10
273.5533744958
 20
33.9100897394
 10
273.6584670892
 20
33.8280298703
 10
273.8765013876
 20
33.5621242383
 10
274.0263886327
 20
33.2163087269
 10
274.1027115091
 20
32.8030820099
 10
274.1027115091
 20
32.3373791772
 10
274.0263886327
 20
31.8360319428
 10
273.8765013876
 20
31.3171603018
 10
273.6584670892
 20
30.7995176274
 10
273.3801660654
 20
30.3018128744
 10
273.05165684
 20
29.8420343894
 10
272.6848125926
 20
29.4367997648
 10
272.2928920299
 20
29.1007552358
 10
271.8900601822
 20
28.8460463271
 10
271.4908764422
 20
28.6818788824
 10
271.1097683502
 20
28.6141863409
 10
270.7605101456
 20
28.6454152874
 10
270.4911185693
 20
28.7530169774
  0
LWPOLYLINE
  5
2B5
330
1F
100
AcDbEntity
  8
0
  6
Continuous
 62
     7
370
    18
100
AcDbPolyline
 90
       30
 70
   128
 43
0.0
 10
239.826476959
 20
37.071122898
 10
239.8644850384
 20
38.1542347689
 10
239.9782496427
 20
39.2738310818
 10
240.1669936445
 20
40.4222638586
 10
240.4294277307
 20
41.591688139
 10
240.7637592105
 20
42.7741155694
 10
241.1677042608
 20
43.9614689714
 10
241.6385035274
 20
45.1456375174
 10
242.1729409738
 20
46.3185321354
 10
242.7673658505
 20
47.4721407659
 10
243.4177176328
 20
48.5985830922
 10
244.1195537584
 20
49.6901643711
 10
244.8680799752
 20
50.7394279955
 10
245.6581830899
 20
51.739206431
 10
246.4844658972
 20
52.682670177
 10
247.3412840477
 20
53.5633744195
 10
248.2227846045
 20
54.3753030556
 10
249.1229460251
 20
55.1129097894
 10
250.0356192942
 20
55.7711560189
 10
250.954569928
 20
56.3455452549
 10
251.8735205617
 20
56.8321538366
 10
252.7861938308
 20
57.2276577339
 10
253.6863552514
 20
57.5293552542
 10
254.5678558082
 20
57.7351854974
 10
255.4246739587
 20
57.8437424344
 10
256.250956766
 20
57.8542845111
 10
257.0410598807
 20
57.7667397144
 10
257.7895860975
 20
57.5817060642
 10
258.4914222231
 20
57.3004475279
 10
258.8226804554
 20
57.1246781996
  0
LWPOLYLINE
  5
2B6
330
1F
100
AcDbEntity
  8
0
  6
Continuous
 62
     7
370
    18
100
AcDbPolyline
 90
       11
 70
   128
 43
0.0
 10
243.0864594005
 20
29.8657902562
 10
242.7673658505
 20
30.0655830694
 10
242.1729409738
 20
30.5328833457
 10
241.6385035274
 20
31.0887296223
 10
241.1677042608
 20
31.7293249054
 10
240.7637592105
 20
32.4502932796
 10
240.4294277307
 20
33.2467097998
 10
240.1669936445
 20
34.1131341339
 10
239.9782496427
 20
35.0436477248
 10
239.8644850384
 20
36.0318942214
 10
239.826476959
 20
37.071122898
  0
LWPOLYLINE
  5
2B7
330
1F
100
AcDbEntity
  8
0
  6
Continuous
 62
     7
370
    18
100
AcDbPolyline
 90
       15
 70
   128
 43
0.0
 10
244.4505580606
 20
33.7354861717
 10
244.4433176206
 20
33.770311527
 10
244.3007332994
 20
34.6742374759
 10
244.2337323479
 20
35.6324485519
 10
244.2428328944
 20
36.6375347666
 10
244.327964563
 20
37.681723639
 10
244.4884690178
 20
38.7569403016
 10
244.7231050541
 20
39.8548699445
 10
245.0300581966
 20
40.9670221146
 10
245.4069547311
 20
42.0847963742
 10
245.8508800607
 20
43.1995488091
 10
246.358401245
 20
44.3026588733
 10
246.9255935473
 20
45.3855960528
 10
247.5480707855
 20
46.4399858337
 10
248.2210192505
 20
47.4576744634
  0
LWPOLYLINE
  5
2B8
330
1F
100
AcDbEntity
  8
0
  6
Continuous
 62
     7
370
    18
100
AcDbPolyline
 90
       19
 70
   128
 43
0.0
 10
244.962354135
 20
30.8055586229
 10
244.8135737023
 20
31.0173312943
 10
244.4152355178
 20
31.7034269818
 10
244.0873771422
 20
32.4667341081
 10
243.832481669
 20
33.301471631
 10
243.6524795943
 20
34.2013175178
 10
243.548734196
 20
35.1594566255
 10
243.5220312081
 20
36.1686323176
 10
243.5725728706
 20
37.2212014226
 10
243.6999763971
 20
38.3091921215
 10
243.9032768744
 20
39.4243643233
 10
244.1809345702
 20
40.5582720733
 10
244.5308465947
 20
41.7023275198
 10
244.950362827
 20
42.8478659554
 10
245.4363059862
 20
43.9862114415
 10
245.9849956957
 20
45.1087425162
 10
246.5922763564
 20
46.206957491
 10
247.2535486203
 20
47.2725388397
 10
247.9638042246
 20
48.2974161927
  0
ARC
  5
2B9
330
1F
100
AcDbEntity
  8
0
  6
Continuous
 62
     7
370
    18
100
AcDbCircle
 10
261.1917189778
 20
40.3052762977
 30
0.0
 40
14.59972786471468
100
AcDbArc
 50
110.186167714
 51
139.1704721415
  0
LWPOLYLINE
  5
2BA
330
1F
100
AcDbEntity
  8
0
  6
Continuous
 62
     7
370
    18
100
AcDbPolyline
 90
       13
 70
   128
 43
0.0
 10
249.3079974654
 20
49.9695798053
 10
250.1359072146
 20
50.8554551728
 10
250.9917373398
 20
51.6715741896
 10
251.8688229468
 20
52.4115812172
 10
252.7603336112
 20
53.0697133495
 10
253.6593265718
 20
53.6408452924
 10
254.5588007978
 20
54.1205292776
 10
255.4517515104
 20
54.5050297005
 10
256.3312247337
 20
54.7913522114
 10
257.1903714496
 20
54.9772670345
 10
258.0225009354
 20
55.0613263326
 10
258.8211328687
 20
55.0428754825
 10
258.9469610828
 20
55.0302331744
  0
LINE
  5
2BB
330
1F
100
AcDbEntity
  8
0
  6
Continuous
 62
     7
370
    18
100
AcDbLine
 10
235.3401124506
 20
47.4437306015
 30
0.0
 11
235.6462765741
 21
47.0729953317
 31
0.0
  0
LINE
  5
2BC
330
1F
100
AcDbEntity
  8
0
  6
Continuous
 62
     7
370
    18
100
AcDbLine
 10
235.3401124506
 20
39.6796202101
 30
0.0
 11
235.6462765741
 21
40.3671539141
 31
0.0
  0
LINE
  5
2BD
330
1F
100
AcDbEntity
  8
0
  6
Continuous
 62
     7
370
    18
100
AcDbLine
 10
236.3821867279
 20
40.7919858031
 30
0.0
 11
235.6462839002
 21
40.3671581434
 31
0.0
  0
LINE
  5
2BE
330
1F
100
AcDbEntity
  8
0
  6
Continuous
 62
     7
370
    18
100
AcDbLine
 10
236.3156113527
 20
41.5352116962
 30
0.0
 11
235.0063403788
 21
40.7793856512
 31
0.0
  0
LINE
  5
2BF
330
1F
100
AcDbEntity
  8
0
  6
Continuous
 62
     7
370
    18
100
AcDbLine
 10
231.829261736
 20
42.3537943063
 30
0.0
 11
231.5327742332
 21
41.8577326987
 31
0.0
  0
LINE
  5
2C0
330
1F
100
AcDbEntity
  8
0
  6
Continuous
 62
     7
370
    18
100
AcDbLine
 10
233.6610793645
 20
43.411280114
 30
0.0
 11
231.8293219854
 21
42.3538290875
 31
0.0
  0
LINE
  5
2C1
330
1F
100
AcDbEntity
  8
0
  6
Continuous
 62
     7
370
    18
100
AcDbLine
 10
233.6610793645
 20
43.411280114
 30
0.0
 11
233.7823893262
 21
43.3495292762
 31
0.0
  0
OLE2FRAME
  5
2C2
330
1F
100
AcDbEntity
  8
0
100
AcDbOle2Frame
 70
     2
  3
Paintbrush-Bild
 10
13.8511154363
 20
38.264191557
 30
0.0
 11
51.6290888628
 21
31.9806341108
 31
0.0
 71
     2
 72
     0
 73
     1
 90
    12928
310
80552BED0767C5B32B40DDAF6807D121434000000000000000006FFBDDFB85D0
310
4940DDAF6807D121434000000000000000006FFBDDFB85D04940416F4BD60AFB
310
3F4000000000000000002BED0767C5B32B40416F4BD60AFB3F40000000000000
310
0000000000000100000000010000010000000100000000000100000000320000
310
D0CF11E0A1B11AE1000000000000000000000000000000003E000300FEFF0900
310
0600000000000000000000000100000001000000000000000010000002000000
310
01000000FEFFFFFF0000000000000000FFFFFFFFFFFFFFFFFFFFFFFFFFFFFFFF
310
FFFFFFFFFFFFFFFFFFFFFFFFFFFFFFFFFFFFFFFFFFFFFFFFFFFFFFFFFFFFFFFF
310
FFFFFFFFFFFFFFFFFFFFFFFFFFFFFFFFFFFFFFFFFFFFFFFFFFFFFFFFFFFFFFFF
310
FFFFFFFFFFFFFFFFFFFFFFFFFFFFFFFFFFFFFFFFFFFFFFFFFFFFFFFFFFFFFFFF
310
FFFFFFFFFFFFFFFFFFFFFFFFFFFFFFFFFFFFFFFFFFFFFFFFFFFFFFFFFFFFFFFF
310
FFFFFFFFFFFFFFFFFFFFFFFFFFFFFFFFFFFFFFFFFFFFFFFFFFFFFFFFFFFFFFFF
310
FFFFFFFFFFFFFFFFFFFFFFFFFFFFFFFFFFFFFFFFFFFFFFFFFFFFFFFFFFFFFFFF
310
FFFFFFFFFFFFFFFFFFFFFFFFFFFFFFFFFFFFFFFFFFFFFFFFFFFFFFFFFFFFFFFF
310
FFFFFFFFFFFFFFFFFFFFFFFFFFFFFFFFFFFFFFFFFFFFFFFFFFFFFFFFFFFFFFFF
310
FFFFFFFFFFFFFFFFFFFFFFFFFFFFFFFFFFFFFFFFFFFFFFFFFFFFFFFFFFFFFFFF
310
FFFFFFFFFFFFFFFFFFFFFFFFFFFFFFFFFFFFFFFFFFFFFFFFFFFFFFFFFFFFFFFF
310
FFFFFFFFFFFFFFFFFFFFFFFFFFFFFFFFFFFFFFFFFFFFFFFFFFFFFFFFFFFFFFFF
310
FFFFFFFFFFFFFFFFFFFFFFFFFFFFFFFFFFFFFFFFFFFFFFFFFFFFFFFFFFFFFFFF
310
FFFFFFFFFFFFFFFFFFFFFFFFFFFFFFFFFFFFFFFFFFFFFFFFFFFFFFFFFFFFFFFF
310
FDFFFFFFFEFFFFFFFEFFFFFFFEFFFFFF05000000060000000700000008000000
310
090000000A0000000B0000000C0000000D0000000E0000000F00000010000000
310
11000000120000001300000014000000150000001600000017000000FEFFFFFF
310
FFFFFFFFFFFFFFFFFFFFFFFFFFFFFFFFFFFFFFFFFFFFFFFFFFFFFFFFFFFFFFFF
310
FFFFFFFFFFFFFFFFFFFFFFFFFFFFFFFFFFFFFFFFFFFFFFFFFFFFFFFFFFFFFFFF
310
FFFFFFFFFFFFFFFFFFFFFFFFFFFFFFFFFFFFFFFFFFFFFFFFFFFFFFFFFFFFFFFF
310
FFFFFFFFFFFFFFFFFFFFFFFFFFFFFFFFFFFFFFFFFFFFFFFFFFFFFFFFFFFFFFFF
310
FFFFFFFFFFFFFFFFFFFFFFFFFFFFFFFFFFFFFFFFFFFFFFFFFFFFFFFFFFFFFFFF
310
FFFFFFFFFFFFFFFFFFFFFFFFFFFFFFFFFFFFFFFFFFFFFFFFFFFFFFFFFFFFFFFF
310
FFFFFFFFFFFFFFFFFFFFFFFFFFFFFFFFFFFFFFFFFFFFFFFFFFFFFFFFFFFFFFFF
310
FFFFFFFFFFFFFFFFFFFFFFFFFFFFFFFFFFFFFFFFFFFFFFFFFFFFFFFFFFFFFFFF
310
FFFFFFFFFFFFFFFFFFFFFFFFFFFFFFFFFFFFFFFFFFFFFFFFFFFFFFFFFFFFFFFF
310
FFFFFFFFFFFFFFFFFFFFFFFFFFFFFFFFFFFFFFFFFFFFFFFFFFFFFFFFFFFFFFFF
310
FFFFFFFFFFFFFFFFFFFFFFFFFFFFFFFFFFFFFFFFFFFFFFFFFFFFFFFFFFFFFFFF
310
FFFFFFFFFFFFFFFFFFFFFFFFFFFFFFFFFFFFFFFFFFFFFFFFFFFFFFFFFFFFFFFF
310
FFFFFFFFFFFFFFFFFFFFFFFFFFFFFFFFFFFFFFFFFFFFFFFFFFFFFFFFFFFFFFFF
310
52006F006F007400200045006E00740072007900000000000000000000000000
310
0000000000000000000000000000000000000000000000000000000000000000
310
16000500FFFFFFFFFFFFFFFF020000000A00030000000000C000000000000046
310
0000000000000000000000007057135E04A7D30103000000C000000000000000
310
01004F006C006500000000000000000000000000000000000000000000000000
310
0000000000000000000000000000000000000000000000000000000000000000
310
0A000200FFFFFFFFFFFFFFFFFFFFFFFF00000000000000000000000000000000
310
0000000000000000000000000000000000000000000000001400000000000000
310
010043006F006D0070004F0062006A0000000000000000000000000000000000
310
0000000000000000000000000000000000000000000000000000000000000000
310
120002010100000003000000FFFFFFFF00000000000000000000000000000000
310
0000000000000000000000000000000000000000010000004D00000000000000
310
01004F006C006500310030004E00610074006900760065000000000000000000
310
0000000000000000000000000000000000000000000000000000000000000000
310
1A000200FFFFFFFFFFFFFFFFFFFFFFFF00000000000000000000000000000000
310
0000000000000000000000000000000000000000040000002426000000000000
310
FEFFFFFF02000000FEFFFFFFFFFFFFFFFFFFFFFFFFFFFFFFFFFFFFFFFFFFFFFF
310
FFFFFFFFFFFFFFFFFFFFFFFFFFFFFFFFFFFFFFFFFFFFFFFFFFFFFFFFFFFFFFFF
310
FFFFFFFFFFFFFFFFFFFFFFFFFFFFFFFFFFFFFFFFFFFFFFFFFFFFFFFFFFFFFFFF
310
FFFFFFFFFFFFFFFFFFFFFFFFFFFFFFFFFFFFFFFFFFFFFFFFFFFFFFFFFFFFFFFF
310
FFFFFFFFFFFFFFFFFFFFFFFFFFFFFFFFFFFFFFFFFFFFFFFFFFFFFFFFFFFFFFFF
310
FFFFFFFFFFFFFFFFFFFFFFFFFFFFFFFFFFFFFFFFFFFFFFFFFFFFFFFFFFFFFFFF
310
FFFFFFFFFFFFFFFFFFFFFFFFFFFFFFFFFFFFFFFFFFFFFFFFFFFFFFFFFFFFFFFF
310
FFFFFFFFFFFFFFFFFFFFFFFFFFFFFFFFFFFFFFFFFFFFFFFFFFFFFFFFFFFFFFFF
310
FFFFFFFFFFFFFFFFFFFFFFFFFFFFFFFFFFFFFFFFFFFFFFFFFFFFFFFFFFFFFFFF
310
FFFFFFFFFFFFFFFFFFFFFFFFFFFFFFFFFFFFFFFFFFFFFFFFFFFFFFFFFFFFFFFF
310
FFFFFFFFFFFFFFFFFFFFFFFFFFFFFFFFFFFFFFFFFFFFFFFFFFFFFFFFFFFFFFFF
310
FFFFFFFFFFFFFFFFFFFFFFFFFFFFFFFFFFFFFFFFFFFFFFFFFFFFFFFFFFFFFFFF
310
FFFFFFFFFFFFFFFFFFFFFFFFFFFFFFFFFFFFFFFFFFFFFFFFFFFFFFFFFFFFFFFF
310
FFFFFFFFFFFFFFFFFFFFFFFFFFFFFFFFFFFFFFFFFFFFFFFFFFFFFFFFFFFFFFFF
310
FFFFFFFFFFFFFFFFFFFFFFFFFFFFFFFFFFFFFFFFFFFFFFFFFFFFFFFFFFFFFFFF
310
FFFFFFFFFFFFFFFFFFFFFFFFFFFFFFFFFFFFFFFFFFFFFFFFFFFFFFFFFFFFFFFF
310
0100000200000000000000000000000000000000000000000000000000000000
310
0000000000000000000000000000000000000000000000000000000000000000
310
0100FEFF030A0000FFFFFFFF0A00030000000000C00000000000004607000000
310
5042727573680007000000504272757368000700000050427275736800F439B2
310
7100000000000000000000000000000000000000000000000000000000000000
310
0000000000000000000000000000000000000000000000000000000000000000
310
0000000000000000000000000000000000000000000000000000000000000000
310
0000000000000000000000000000000000000000000000000000000000000000
310
0000000000000000000000000000000000000000000000000000000000000000
310
0000000000000000000000000000000000000000000000000000000000000000
310
0000000000000000000000000000000000000000000000000000000000000000
310
0000000000000000000000000000000000000000000000000000000000000000
310
0000000000000000000000000000000000000000000000000000000000000000
310
0000000000000000000000000000000000000000000000000000000000000000
310
0000000000000000000000000000000000000000000000000000000000000000
310
0000000000000000000000000000000000000000000000000000000000000000
310
20260000424D0E260000000000003E00000028000000B40200006E0000000100
310
01000000000000000000130B0000130B00000200000002000000000000FFFFFF
310
FFFFFFFFFFFFFFFFFFFFFFFFFFFFFFFFFFFFFFFFFFFFFFFFFFFFFFFFFFFFFFFF
310
FFFFFFFFFFFFFFFFFFFFFFFFFFFFFFFFFFFFFFFFFFFFFFFFFFFFFFFFFFFFFFFF
310
FFFFFFFFFFFFFFFFFFFFFFFFFFFFFFFFFFFFFFFFFFFFFFFFF000FFFFFFFFFFFF
310
FFFFFFFFFFFFFFFFFFFFFFFFFFFFFFFFFFFFFFFFFFFFFFFFFFFFFFFFFFFFFFFF
310
FFFFFFFFFFFFFFFFFFFFFFFFFFFFFFFFFFFFFFFFFFFFFFFFFFFFFFFFFFFFFFFF
310
FFFFFFFFFFFFFFFFFFFFFFFFFFFFFFFFF000FFFFFFFFFFFFFFFFFFFFFFFFFFFF
310
FFFFFFFFFFFFFFFFFFFFFFFFFFFFFFFFFFFFFFFFFFFFFFFFFFFFFFFFFFFFFFFF
310
FFFFFFFFFFFFFFFFFFFFFFFFFFFFFFFFFFFFFFFFFFFFFFFFFFFFFFFFFFFFFFFF
310
FFFFFFFFFFFFFFFFF000FFFFFFFFFFFFFFFFFFFFFFFFFFFFFFFFFFFFFFFFFFFF
310
FFFFFFFFFFFFFFFFFFFFFFFFFFFFFFFFFFFFFFFFFFFFFFFFFFFFFFFFFFFFFFFF
310
FFFFFFFFFFFFFFFFFFFFFFFFFFFFFFFFFFFFFFFFFFFFFFFFFFFFFFFFFFFFFFFF
310
F000FFFFFFFFFFFFFFFFFFFFFFFFFFFFFFFFFFFFFFFFFFFFFFFFFFFFFFFFFFFF
310
FFFFFFFFFFFFFFFFFFFFFFFFFFFFFFFFFFFFFFFFFFFFFFFFFFFFFFFFFFFFFFFF
310
FFFFFFFFFFFFFFFFFFFFFFFFFFFFFFFFFFFFFFFFFFFFFFFFF000FFFFFFFFFFFF
310
FFFFFFFFFFFFFFFFFFFFFFFFFFFFFFFFFFFFFFFFFFFFFFFFFFFFFFFFFFFFFFFF
310
FFFFFFFFFFFFFFFFFFFFFFFFFFFFFFFFFFFFFFFFFFFFFFFFFFFFFFFFFFFFFFFF
310
FFFFFFFFFFFFFFFFFFFFFFFFFFFFFFFFF000FFFFFFFFFFFFFFFFFFFFFFFFFFFF
310
FFFFFFFFFFFFFFFFFFFFFFFFFFFFFFFFFFFFFFFFFFFFFFFFFFFFFFFFFFFFFFFF
310
FFFFFFFFFFFFFFFFFFFFFFFFFFFFFFFFFFFFFFFFFFFFFFFFFFFFFFFFFFFFFFFF
310
FFFFFFFFFFFFFFFFF000FFFFFFFFFFFFFFFFFFFFFFFFFFFFFFFFFFFFFFFFFFFF
310
FFFFFFFFFFFFFFFFFFFFFFFFFFFFFFFFFFFFFFFFFFFFFFFFFFFFFFFFFFFFFFFF
310
FFFFFFFFFFFFFFFFFFFFFFFFFFFFFFFFFFFFFFFFFFFFFFFFFFFFFFFFFFFFFFFF
310
F000FFFFFFFFFFFFFFFFFFFFFFFFFFFFFFFFFFFFFFFFFFFFFFFFFFFFFFFFFFFF
310
FFFFFFFFFFFFFFFFFFFFFFFFFFFFFFFFFFFFFFFFFFFFFFFFFFFFFFFFFFFFFFFF
310
FFFFFFFFFFFFFFFFFFFFFFFFFFFFFFFFFFFFFFFFFFFFFFFFF000FFFFFFFFFFFF
310
FFFFFFFFFFFFFFFFFFFFFFFFFFFFFFFFFFFFFFFFFFFFFFFFFFFFFFFFFFFFFFFF
310
FFFFFFFFFFFFFFFFFFFFFFFFFFFFFFFFFFFFFFFFFFFFFFFFFFFFFFFFFFFFFFFF
310
FFFFFFFFFFFFFFFFFFFFFFFFFFFFFFFFF000FFFFFFFFFFFFFFFFFFFFFFFFFFFF
310
FFFFFFFFFFFFFFFFFFFFFFFFFFFFFFFFFFFFFFFFFFFFFFFFFFFFFFFFFFFFFFFF
310
FFFFFFFFFFFFFFFFFFFFFFFFFFFFFFFFFFFFFFFFFFFFFFFFFFFFFFFFFFFFFFFF
310
FFFFFFFFFFFFFFFFF000FFFFFFFFFFFFFFFFFFFFFFFFFFFFFFFFFFFFFFFFFFFF
310
FFFFFFFFFFFFFFFFFFFFFFFFFFFFFFFFFFFFFFFFFFFFFFFFFFFFFFFFFFFFFFFF
310
FFFFFFFFFFFFFFFFFFFFFFFFFFFFFFFFFFFFFFFFFFFFFFFFFFFFFFFFFFFFFFFF
310
F000FFFFFFFFFFFFFFFFFFFFFFFFFFFFFFFFFFFFFFFFFFFFFFFFFFFFFFFFFFFF
310
FFFFFFFFFFFFFFFFFFFFFFFFFFFFFFFFFFFFFFFFFFFFFFFFFFFFFFFFFFFFFFFF
310
FFFFFFFFFFFFFFFFFFFFFFFFFFFFFFFFFFFFFFFFFFFFFFFFF000FFFFFFFFFFFF
310
FFFFFFFFFFFFFFFFFFFFFFFFFFFFFFFFFFFFFFFFFFFFFFFFFFFFFFFFFFFFFFFF
310
FFFFFFFFFFFFFFFFFFFFFFFFFFFFFFFFFFFFFFFFFFFFFFFFFFFFFFFFFFFFFFFF
310
FFFFFFFFFFFFFFFFFFFFFFFFFFFFFFFFF000FFFFFFFFFFFFFFFFFFFFFFFFFFFF
310
FFFFFFFFFFFFFFFFFFFFFFFFFFFFFFFFFFFFFFFFFFFFFFFFFFFFFFFFFFFFFFFF
310
FFFFFFFFFFFFFFFFFFFFFFFFFFFFFFFFFFFFFFFFFFFFFFFFFFFFFFFFFFFFFFFF
310
FFFFFFFFFFFFFFFFF000FFFFFFFFFFFFFFFFFFFFFFFFFFFFFFFFFFFFFFFFFFFF
310
FFFFFFFFFFFFFFFFFFFFFFFFFFFFFFFFFFFFFFFFFFFFFFFFFFFFFFFFFFFFFFFF
310
FFFFFFFFFFFFFFFFFFFFFFFFFFFFFFFFFFFFFFFFFFFFFFFFFFFFFFFFFFFFFFFF
310
F000FFFFFFFFFFFFFFFFFFFFFFFFFFFFFFFFFFFFFFFFFFFFFFFFFFFFFFFFFFFF
310
FFFFFFFFFFFFFFFFFFFFFFFFFFFFFFFFFFFFFFFFFFFFFFFFFFFFFFFFFFFFFFFF
310
FFFFFFFFFFFFFFFFFFFFFFFFFFFFFFFFFFFFFFFFFFFFFFFFF000FFFFFFFFFFFF
310
FFFFFFFFFFFFFFFFFFFFFFFFFFFFFFFFFFFFFFFFFFFFFFFFFFFFFFFFFFFFFFFF
310
FFFFFFFFFFFFFFFFFFFFFFFFFFFFFFFFFFFFFFFFFFFFFFFFFFFFFFFFFFFFFFFF
310
FFFFFFFFFFFFFFFFFFFFFFFFFFFFFFFFF000FFFFFFFFFFFFFFFFFFFFFFFFFFFF
310
FFFFFFFFFFFFFFFFFFFFFFFFFFFFFFFFFFFFFFFFFFFFFFFFFFFFFFFFFFFFFFFF
310
FFFFFFFFFFFFFFFFFFFFFFFFFFFFFFFFFFFFFFFFFFFFFFFFFFFFFFFFFFFFFFFF
310
FFFFFFFFFFFFFFFFF000FFFFF80003FFFFFFFFFFFFFFFFFFFFFFFFFFFFFFFFFF
310
FFFFF00007FFFFFFFFFF00007FFFFFF800000000000000007FFFFFFFFFFFFFFF
310
FFFFFFFC001FFFFFFFFFFFFFFC001FFFFFFFFFFFFFFFFFFFFFFFFFFE0007FFFF
310
F000FFFF8000007FFFFFFFF8000FFFFFC0007FFFFF80007FFFFF0000007FFFFF
310
FFF8000007FFFFF800000000000000007FFFFFF0001FFFFFFFFFFFC00001FFFF
310
FFFFFFFFC00001FFFFFFFF000000000003FFFFE000007FFFF000FFFE0000000F
310
FFFFFFF0000FFFFF80007FFFFF80007FFFFC0000001FFFFFFFC0000001FFFFF8
310
00000000000000007FFFFFF0001FFFFFFFFFFE0000003FFFFFFFFFFE0000003F
310
FFFFFF000000000003FFFF0000000FFFF000FFF800000003FFFFFFF00007FFFF
310
80007FFFFF80007FFFF000000007FFFFFF000000003FFFF80000000000000000
310
7FFFFFF0001FFFFFFFFFF80000000FFFFFFFFFF80000000FFFFFFF0000000000
310
03FFFC00000003FFF000FFE000000000FFFFFFF00007FFFF80003FFFFF80007F
310
FFC000000001FFFFFC000000001FFFF800000000000000007FFFFFF0001FFFFF
310
FFFFE000000003FFFFFFFFE000000003FFFFFF000000000003FFF000000000FF
310
F000FF80000000007FFFFFF00007FFFF80003FFFFF80007FFF8000000000FFFF
310
F80000000007FFF800000000000000007FFFFFF0001FFFFFFFFFC000000001FF
310
FFFFFFC000000001FFFFFF000000000003FFC0000000007FF000FF0000000000
310
3FFFFFE00007FFFF00003FFFFF80007FFE00000000003FFFF00000000003FFF8
310
00000000000000007FFFFFF0001FFFFFFFFF8000000000FFFFFFFF8000000000
310
FFFFFF000000000003FF80000000003FF000FE00000000001FFFFFE00003FFFF
310
00003FFFFF80007FFC00000000001FFFE00000000001FFF8000001FFFE000000
310
7FFFFFF0001FFFFFFFFE00000000003FFFFFFE00000000003FFFFF0000000000
310
03FF00000000001FF000FC00000000000FFFFFE00003FFFF00001FFFFF80007F
310
F800000000001FFFC00000000000FFF8000001FFFE0000007FFFFFF0001FFFFF
310
FFFC00000000001FFFFFFC00000000001FFFFF000000000003FE00000000000F
310
F000F8000000000007FFFFE00003FFFF00001FFFFF80007FF800000000000FFF
310
800000000000FFF8000001FFFE0000007FFFFFF0001FFFFFFFF800000000000F
310
FFFFF800000000000FFFFF000000000003FC000000000007F000F80000000000
310
03FFFFC00003FFFE00001FFFFF80007FF0000000000007FF0000000000007FF8
310
000001FFFE0000007FFFFFF0001FFFFFFFF0000000000007FFFFF00000000000
310
07FFFF000000000003F8000000000003F000F0000000000003FFFFC00001FFFE
310
00001FFFFF80007FE0000000000007FE0000000000003FF8000001FFFE000000
310
7FFFFFF0001FFFFFFFF0000000000007FFFFF0000000000007FFFF0000000000
310
03F800001F800003F000E00001FFF00001FFFFC00001FFFE00000FFFFF80007F
310
E00001FFE00003FE00001FFF00003FF8000001FFFE0000007FFFFFF0001FFFFF
310
FFE000003E000003FFFFE000003E000003FFFF000000000003F00001FFF80001
310
F000E00007FFFC0001FFFFC00001FFFE00000FFFFF80007FC0000FFFFC0003FC
310
0000FFFFC0001FF8000001FFFE0000007FFFFFF0001FFFFFFFC00003FFE00001
310
FFFFC00003FFE00001FFFF0001FFFFFFFFF00007FFFE0001F000E0000FFFFF00
310
00FFFF800001FFFC00000FFFFF80007FC0001FFFFE0001FC0001FFFFE0001FF8
310
000001FFFE0000007FFFFFF0001FFFFFFF80000FFFF80000FFFF80000FFFF800
310
00FFFF0003FFFFFFFFE0000FFFFF8000F000C0003FFFFF8000FFFF800000FFFC
310
000007FFFF80007F80003FFFFF0001FC0003FFFFF0001FF8000001FFFE000000
310
7FFFFFF0001FFFFFFF80003FFFFE0000FFFF80003FFFFE0000FFFF0003FFFFFF
310
FFE0003FFFFF8000F000C0003FFFFF8000FFFF800000FFFC000007FFFF80007F
310
80007FFFFF8001F80007FFFFF8000FF8000001FFFE0000007FFFFFF0001FFFFF
310
FF00007FFFFF00007FFF00007FFFFF00007FFF0003FFFFFFFFE0003FFFFFC000
310
F000C0007FFFFFC000FFFF000000FFFC000007FFFF80007F8000FFFFFF8000F8
310
000FFFFFF8000FF8000001FFFE0000007FFFFFF0001FFFFFFF0000FFFFFF8000
310
7FFF0000FFFFFF80007FFF0003FFFFFFFFC0007FFFFFC00070008000FFFFFFC0
310
00FFFF000000FFF8000007FFFF80007F8000FFFFFF8000F8000FFFFFF8000FF8
310
000001FFFE0000007FFFFFF0001FFFFFFE0001FFFFFFC0003FFE0001FFFFFFC0
310
003FFF0003FFFFFFFFC0007FFFFFE00070008000FFFFFFC0007FFF0000007FF8
310
000003FFFF80007F0001FFFFFF8000F8000FFFFFF8000FF8000001FFFE000000
310
7FFFFFF0001FFFFFFE0001FFFFFFC0003FFE0001FFFFFFC0003FFF0003FFFFFF
310
FFC000FFFFFFE00070008000FFFFFFC0007FFF0000007FF8000003FFFF80007F
310
0001FFFFFF8000F8001FFFFFF8000FF8000001FFFE0000007FFFFFF0001FFFFF
310
FE0003FFFFFFE0003FFE0003FFFFFFE0003FFF0003FFFFFFFFC000FFFFFFE000
310
70008000FFFFFFC0007FFE0000007FF8000003FFFF80007F0001FFFFFF8000F0
310
001FFFFFF8000FF8000001FFFE0000007FFFFFF0001FFFFFFC0003FFFFFFE000
310
1FFC0003FFFFFFE0001FFF0003FFFFFFFFC000FFFFFFC00070008000FFFFFF80
310
007FFE0000007FF0000003FFFF80007F0001FFFFFF0000F0001FFFFFF8000FF8
310
000001FFFE0000007FFFFFF0001FFFFFFC0007FFFFFFF0001FFC0007FFFFFFF0
310
001FFF0003FFFFFFFFC000FFFFFFC00070008001FFFFFF0000FFFE0000003FF0
310
000001FFFF80007F0001FFFFFF0000F8001FFFFFF0000FF8000001FFFE000000
310
7FFFFFF0001FFFFFFC0007FFFFFFF0001FFC0007FFFFFFF0001FFF0003FFFFFF
310
FFC001FFFFFF80007000FFFFFFFFFE0000FFFE0008003FF0008001FFFF80007F
310
FFFFFFFFFC0000FFFFFFFFFFE0000FF8000001FFFE0000007FFFFFF0001FFFFF
310
F8000FFFFFFFF8000FF8000FFFFFFFF8000FFF0003FFFFFFFFFFFFFFFFFF0000
310
7000FFFFFFFFFC0000FFFC0008003FF0008001FFFF80007FFFFFFFFFF80001FF
310
FFFFFFFF80000FF8000001FFFE0000007FFFFFF0001FFFFFF8000FFFFFFFF800
310
0FF8000FFFFFFFF8000FFF0003FFFFFFFFFFFFFFFFFE0000F000FFFFFFFFE000
310
00FFFC000C003FE000C001FFFF80007FFFFFFFFFC00001FFFFFFFFFE00001FF8
310
000001FFFE0000007FFFFFF0001FFFFFF8000FFFFFFFF8000FF8000FFFFFFFF8
310
000FFF0003FFFFFFFFFFFFFFFFF00000F000FFFFFFFE000001FFFC000C001FE0
310
00C000FFFF80007FFFFFFFFE000001FFFFFFFFE000001FF80FFFFFFFFFFFFFC0
310
7FFFFFF0001FFFFFF8000FFFFFFFF8000FF8000FFFFFFFF8000FFF0003FFFFFF
310
FFFFFFFFFF800000F000FFFFFFC0000001FFFC001C001FE001C000FFFF80007F
310
FFFFFF80000003FFFFFFF80000001FF80FFFFFFFFFFFFFC07FFFFFF0001FFFFF
310
F8001FFFFFFFFC000FF8001FFFFFFFFC000FFF0003FFFFFFFFFFFFFFF0000001
310
F000FFFFF800000001FFF8001C001FE001C000FFFF80007FFFFFF800000003FF
310
FFFF800000003FF80FFFFFFFFFFFFFC07FFFFFF0001FFFFFF8001FFFFFFFFC00
310
0FF8001FFFFFFFFC000FFF0003FFFFFFFFFFFFFE00000001F000FFFFC0000000
310
03FFF8001E001FC001E000FFFF80007FFFFF8000000007FFFFFC000000003FF8
310
0FFFFFFFFFFFFFC07FFFFFF0001FFFFFF8001FFFFFFFFC000FF8001FFFFFFFFC
310
000FFF0003FFFFFFFFFFFFE000000003F000FFFE0000000007FFF8001E000FC0
310
01E0007FFF80007FFFFE0000000007FFFFE0000000007FF80FFFFFFFFFFFFFC0
310
7FFFFFF0001FFFFFF0001FFFFFFFFC0007F0001FFFFFFFFC0007FF0003FFFFFF
310
FFFFFF0000000003F000FFF80000000007FFF8001E000FC003E0007FFF80007F
310
FFF0000000000FFFFF8000000000FFF80FFFFFFFFFFFFFC07FFFFFF0001FFFFF
310
F0001FFFFFFFFC0007F0001FFFFFFFFC0007FF0003FFFFFFFFFFFC0000000007
310
F000FFE0000000000FFFF0003E000FC003E0007FFF80007FFFC0000000001FFF
310
FE0000000001FFF80FFFFFFFFFFFFFC07FFFFFF0001FFFFFF0001FFFFFFFFC00
310
07F0001FFFFFFFFC0007FF0003FFFFFFFFFFF0000000000FF000FFC000000000
310
1FFFF0003F000F8003F0003FFF80007FFF80000000003FFFF80000000003FFF8
310
0FFFFFFFFFFFFFC07FFFFFF0001FFFFFF0001FFFFFFFFC0007F0001FFFFFFFFC
310
0007FF0003FFFFFFFFFFE0000000001FF000FF00000000007FFFF0003F000780
310
03F0003FFF80007FFF00000000007FFFF00000000007FFF80FFFFFFFFFFFFFC0
310
7FFFFFF0001FFFFFF0001FFFFFFFFC0007F0001FFFFFFFFC0007FF0003FFFFFF
310
FFFF80000000007FF000FE0000000000FFFFE0003F00078007F0003FFF80007F
310
FE0000000001FFFFE0000000001FFFF80FFFFFFFFFFFFFC07FFFFFF0001FFFFF
310
F0001FFFFFFFFC0007F0001FFFFFFFFC0007FF0003FFFFFFFFFF0000000000FF
310
F000FC0000000003FFFFE0007F00078007F0003FFF80007FFC0000000007FFFF
310
C0000000007FFFF80FFFFFFFFFFFFFC07FFFFFF0001FFFFFF8001FFFFFFFFC00
310
0FF8001FFFFFFFFC000FFF0003FFFFFFFFFE0000000003FFF000FC000000000F
310
FFFFE0007F80070007F8001FFF80007FF8000000001FFFFF8000000001FFFFF8
310
0FFFFFFFFFFFFFC07FFFFFF0001FFFFFF8001FFFFFFFFC000FF8001FFFFFFFFC
310
000FFF0003FFFFFFFFFC000000000FFFF000F8000000007FFFFFE0007F800700
310
07F8001FFF80007FF000000000FFFFFF800000000FFFFFF80FFFFFFFFFFFFFC0
310
7FFFFFF0001FFFFFF8000FFFFFFFF8000FF8000FFFFFFFF8000FFF0003FFFFFF
310
FFFC000000007FFFF000F800000007FFFFFFC0007F8003000FF8001FFF80007F
310
F000000007FFFFFF000000007FFFFFF80FFFFFFFFFFFFFC07FFFFFF0001FFFFF
310
F8000FFFFFFFF8000FF8000FFFFFFFF8000FFF0003FFFFFFFFF80000000FFFFF
310
F000F0000000FFFFFFFFC000FF8003000FF8001FFF80007FE0000000FFFFFFFF
310
0000000FFFFFFFF8000001FFFE0000007FFFFFF0001FFFFFF8000FFFFFFFF800
310
0FF8000FFFFFFFF8000FFF0003FFFFFFFFF8000000FFFFFFF000F000000FFFFF
310
FFFFC000FFC002000FF8000FFF80007FE000001FFFFFFFFE000001FFFFFFFFF8
310
000001FFFE0000007FFFFFF0001FFFFFF8000FFFFFFFF8000FF8000FFFFFFFF8
310
000FFF0003FFFFFFFFF000001FFFFFFFF000E00000FFFFFFFFFFC000FFC00200
310
0FFC000FFF80007FE00001FFFFFFFFFE00001FFFFFFFFFF8000001FFFE000000
310
7FFFFFF0001FFFFFFC000FFFFFFFF8001FFC000FFFFFFFF8001FFF0003FFFFFF
310
FFF00001FFFFFFFFF000E00007FFFFFFFFFF8000FFC000001FFC000FFF80007F
310
C0000FFFFFFFFFFE0000FFFFFFFFFFF8000001FFFE0000007FFFFFF0001FFFFF
310
FC0007FFFFFFF0001FFC0007FFFFFFF0001FFF0003FFFFFFFFF00007FFFFFFFF
310
F000E0001FFFFFFFFFFF8000FFC000001FFC000FFF80007FC0003FFFFFFFFFFE
310
0001FFFFFFFFFFF8000001FFFE0000007FFFFFF0001FFFFFFC0007FFFFFFF000
310
1FFC0007FFFFFFF0001FFF0003FFFFFFFFF0001FFFFFFFFFF000E0003FFFFF00
310
03FF8001FFE000001FFC0007FF80007FC0007FFFFF0007FC0003FFFFF0003FF8
310
000001FFFE0000007FFFFFF0001FFFFFFC0003FFFFFFE0001FFC0003FFFFFFE0
310
001FFF0003FFFFFFFFF0003FFFFFFFFFF000E0003FFFFF0001FF8001FFE00000
310
1FFE0007FF80007FC0007FFFFE0003FC0007FFFFE0003FF8000001FFFE000000
310
7FFFFFF0001FFFFFFE0003FFFFFFE0003FFE0003FFFFFFE0003FFF0003FFFFFF
310
FFF0003FFFFF8001F000E0003FFFFF0001FF0001FFE000001FFE0007FF80007F
310
C0007FFFFE0003FC0007FFFFE0003FF8000001FFFE0000007FFFFFF0001FFFFF
310
FE0001FFFFFFC0003FFE0001FFFFFFC0003FFF0003FFFFFFFFF0003FFFFF0001
310
F000E0003FFFFF0003FF0001FFE000003FFE0007FF80007FC0007FFFFE0003FC
310
0007FFFFE0003FF8000001FFFE0000007FFFFFF0001FFFFFFF0001FFFFFFC000
310
7FFF0001FFFFFFC0007FFF0003FFFFFFFFF0003FFFFF0001F000E0003FFFFE00
310
03FF0003FFF000003FFE0003FF80007FC0007FFFFC0003FE0007FFFFE0003FF8
310
000001FFFE0000007FFFFFF0001FFFFFFF0000FFFFFF80007FFF0000FFFFFF80
310
007FFF0003FFFFFFFFF0003FFFFF0001F000E0003FFFFE0003FF0003FFF00000
310
3FFF0003FF80007FC0007FFFFC0007FE0007FFFFC0003FF8000001FFFE000000
310
7FFFFFF0001FFFFFFF80007FFFFF0000FFFF80007FFFFF0000FFFF0003FFFFFF
310
FFF0003FFFFF0003F000E0003FFFFC0003FE0003FFF000003FFF0003FF80007F
310
E0003FFFF80007FE0003FFFFC0007FF8000001FFFE0000007FFFFFF0001FFFFF
310
FF80003FFFFE0000FFFF80003FFFFE0000FFFF0003FFFFFFFFF0001FFFFE0003
310
F000F0001FFFF80003FE0003FFF000007FFF0001FF80007FE0003FFFF00007FE
310
0001FFFF80007FF8000001FFFE0000007FFFFFF0001FFFFFFFC0000FFFF80001
310
FFFFC0000FFFF80001FFFF0003FFFFFFFFF0001FFFFC0003F000F0000FFFF000
310
07FE0007FFF800007FFF0001FF80007FE0001FFFE00007FF0000FFFE00007FF8
310
000001FFFE0000007FFFFFF0001FFFFFFFC00003FFE00001FFFFC00003FFE000
310
01FFFF0003FFFFFFFFF8000FFFF80003F000F00003FFC00007FC0007FFF80000
310
7FFF8001FF80007FF00007FF80000FFF00007FF80000FFF8000001FFFE000000
310
7F80000000000001FFE000003E000003FFFFE000003E000003FFFF0003FFFFFF
310
FFF80003FFE00007F000F800000000000FFC0007FFF800007FFF8001FF80007F
310
F000000000000FFF000000000000FFF8000001FFFE0000007F80000000000001
310
FFF0000000000007FFFFF0000000000007FFFF0003FFFFFFFFFC00007E000007
310
F000F800000000000FFC0007FFF80000FFFF8000FF80007FF800000000001FFF
310
800000000001FFF8000001FFFE0000007F80000000000001FFF800000000000F
310
FFFFF800000000000FFFFF0003FFFFFFFFFC00000000000FF000FC0000000000
310
1FFC0007FFFC0000FFFF8000FF80007FF800000000003FFFC00000000001FFF8
310
000001FFFE0000007F80000000000001FFF800000000000FFFFFF80000000000
310
0FFFFF0003FFFFFFFFFE00000000001FF000FE00000000003FF8000FFFFC0000
310
FFFF8000FF80007FFC00000000003FFFC00000000003FFF8000001FFFE000000
310
7F80000000000001FFFC00000000001FFFFFFC00000000001FFFFF0003FFFFFF
310
FFFF00000000001FF000FF00000000003FF8000FFFFC0000FFFFC000FF80007F
310
FE00000000007FFFE00000000007FFF8000001FFFE0000007F80000000000001
310
FFFE00000000003FFFFFFE00000000003FFFFF0003FFFFFFFFFF80000000003F
310
F000FF80000000007FF8000FFFFC0001FFFFC0007F80007FFF0000000000FFFF
310
F0000000000FFFF800000000000000007F80000000000001FFFF8000000000FF
310
FFFFFF8000000000FFFFFF0003FFFFFFFFFFC0000000007FF000FFC000000000
310
FFF8000FFFFE0001FFFFC0007F80007FFF8000000001FFFFF8000000001FFFF8
310
00000000000000007F80000000000001FFFFC000000001FFFFFFFFC000000001
310
FFFFFF0003FFFFFFFFFFE000000000FFF000FFE000000003FFF0001FFFFE0001
310
FFFFC0007F80007FFFC000000007FFFFFE000000003FFFF80000000000000000
310
7F80000000000001FFFFE000000003FFFFFFFFE000000003FFFFFF0003FFFFFF
310
FFFFF000000003FFF000FFF80000000FFFF0001FFFFE0001FFFFE0007F80007F
310
FFF00000000FFFFFFF00000000FFFFF800000000000000007F80000000000001
310
FFFFF80000000FFFFFFFFFF80000000FFFFFFF0003FFFFFFFFFFFC0000000FFF
310
F000FFFE0000003FFFF0001FFFFE0003FFFFE0003F80007FFFFC0000003FFFFF
310
FFC0000003FFFFF800000000000000007F80000000000001FFFFFE0000003FFF
310
FFFFFFFE0000003FFFFFFF0003FFFFFFFFFFFF0000003FFFF000FFFF800000FF
310
FFF0001FFFFF0003FFFFE0003F80007FFFFF000001FFFFFFFFF800001FFFFFF8
310
00000000000000007F80000000000001FFFFFFC00001FFFFFFFFFFFFC00001FF
310
FFFFFF0003FFFFFFFFFFFFC00000FFFFF000FFFFF8000FFFFFFFFFFFFFFFFFFF
310
FFFFFFFFFFFFFFFFFFFFF0001FFFFFFFFFFF0000FFFFFFF80000000000000000
310
7FFFFFFFFFFFFFFFFFFFFFFC001FFFFFFFFFFFFFFC001FFFFFFFFFFFFFFFFFFF
310
FFFFFFFC001FFFFFF000FFFFFFFFFFFFFFFFFFFFFFFFFFFFFFFFFFFFFFFFFFFF
310
FFFFFFFFFFFFFFFFFFFFFFFFFFFFFFFFFFFFFFFFFFFFFFFFFFFFFFFFFFFFFFFF
310
FFFFFFFFFFFFFFFFFFFFFFFFFFFFFFFFFFFFFFFFFFFFFFFFFFFFFFFFFFFFFFFF
310
F000FFFFFFFFFFFFFFFFFFFFFFFFFFFFFFFFFFFFFFFFFFFFFFFFFFFFFFFFFFFF
310
FFFFFFFFFFFFFFFFFFFFFFFFFFFFFFFFFFFFFFFFFFFFFFFFFFFFFFFFFFFFFFFF
310
FFFFFFFFFFFFFFFFFFFFFFFFFFFFFFFFFFFFFFFFFFFFFFFFF000FFFFFFFFFFFF
310
FFFFFFFFFFFFFFFFFFFFFFFFFFFFFFFFFFFFFFFFFFFFFFFFFFFFFFFFFFFFFFFF
310
FFFFFFFFFFFFFFFFFFFFFFFFFFFFFFFFFFFFFFFFFFFFFFFFFFFFFFFFFFFFFFFF
310
FFFFFFFFFFFFFFFFFFFFFFFFFFFFFFFFF000FFFFFFFFFFFFFFFFFFFFFFFFFFFF
310
FFFFFFFFFFFFFFFFFFFFFFFFFFFFFFFFFFFFFFFFFFFFFFFFFFFFFFFFFFFFFFFF
310
FFFFFFFFFFFFFFFFFFFFFFFFFFFFFFFFFFFFFFFFFFFFFFFFFFFFFFFFFFFFFFFF
310
FFFFFFFFFFFFFFFFF000FFFFFFFFFFFFFFFFFFFFFFFFFFFFFFFFFFFFFFFFFFFF
310
FFFFFFFFFFFFFFFFFFFFFFFFFFFFFFFFFFFFFFFFFFFFFFFFFFFFFFFFFFFFFFFF
310
FFFFFFFFFFFFFFFFFFFFFFFFFFFFFFFFFFFFFFFFFFFFFFFFFFFFFFFFFFFFFFFF
310
F000FFFFFFFFFFFFFFFFFFFFFFFFFFFFFFFFFFFFFFFFFFFFFFFFFFFFFFFFFFFF
310
FFFFFFFFFFFFFFFFFFFFFFFFFFFFFFFFFFFFFFFFFFFFFFFFFFFFFFFFFFFFFFFF
310
FFFFFFFFFFFFFFFFFFFFFFFFFFFFFFFFFFFFFFFFFFFFFFFFF000FFFFFFFFFFFF
310
FFFFFFFFFFFFFFFFFFFFFFFFFFFFFFFFFFFFFFFFFFFFFFFFFFFFFFFFFFFFFFFF
310
FFFFFFFFFFFFFFFFFFFFFFFFFFFFFFFFFFFFFFFFFFFFFFFFFFFFFFFFFFFFFFFF
310
FFFFFFFFFFFFFFFFFFFFFFFFFFFFFFFFF000FFFFFFFFFFFFFFFFFFFFFFFFFFFF
310
FFFFFFFFFFFFFFFFFFFFFFFFFFFFFFFFFFFFFFFFFFFFFFFFFFFFFFFFFFFFFFFF
310
FFFFFFFFFFFFFFFFFFFFFFFFFFFFFFFFFFFFFFFFFFFFFFFFFFFFFFFFFFFFFFFF
310
FFFFFFFFFFFFFFFFF000FFFFFFFFFFFFFFFFFFFFFFFFFFFFFFFFFFFFFFFFFFFF
310
FFFFFFFFFFFFFFFFFFFFFFFFFFFFFFFFFFFFFFFFFFFFFFFFFFFFFFFFFFFFFFFF
310
FFFFFFFFFFFFFFFFFFFFFFFFFFFFFFFFFFFFFFFFFFFFFFFFFFFFFFFFFFFFFFFF
310
F000FFFFFFFFFFFFFFFFFFFFFFFFFFFFFFFFFFFFFFFFFFFFFFFFFFFFFFFFFFFF
310
FFFFFFFFFFFFFFFFFFFFFFFFFFFFFFFFFFFFFFFFFFFFFFFFFFFFFFFFFFFFFFFF
310
FFFFFFFFFFFFFFFFFFFFFFFFFFFFFFFFFFFFFFFFFFFFFFFFF000FFFFFFFFFFFF
310
FFFFFFFFFFFFFFFFFFFFFFFFFFFFFFFFFFFFFFFFFFFFFFFFFFFFFFFFFFFFFFFF
310
FFFFFFFFFFFFFFFFFFFFFFFFFFFFFFFFFFFFFFFFFFFFFFFFFFFFFFFFFFFFFFFF
310
FFFFFFFFFFFFFFFFFFFFFFFFFFFFFFFFF000FFFFFFFFFFFFFFFFFFFFFFFFFFFF
310
FFFFFFFFFFFFFFFFFFFFFFFFFFFFFFFFFFFFFFFFFFFFFFFFFFFFFFFFFFFFFFFF
310
FFFFFFFFFFFFFFFFFFFFFFFFFFFFFFFFFFFFFFFFFFFFFFFFFFFFFFFFFFFFFFFF
310
FFFFFFFFFFFFFFFFF000FFFFFFFFFFFFFFFFFFFFFFFFFFFFFFFFFFFFFFFFFFFF
310
FFFFFFFFFFFFFFFFFFFFFFFFFFFFFFFFFFFFFFFFFFFFFFFFFFFFFFFFFFFFFFFF
310
FFFFFFFFFFFFFFFFFFFFFFFFFFFFFFFFFFFFFFFFFFFFFFFFFFFFFFFFFFFFFFFF
310
F000FFFFFFFFFFFFFFFFFFFFFFFFFFFFFFFFFFFFFFFFFFFFFFFFFFFFFFFFFFFF
310
FFFFFFFFFFFFFFFFFFFFFFFFFFFFFFFFFFFFFFFFFFFFFFFFFFFFFFFFFFFFFFFF
310
FFFFFFFFFFFFFFFFFFFFFFFFFFFFFFFFFFFFFFFFFFFFFFFFF000FFFFFFFFFFFF
310
FFFFFFFFFFFFFFFFFFFFFFFFFFFFFFFFFFFFFFFFFFFFFFFFFFFFFFFFFFFFFFFF
310
FFFFFFFFFFFFFFFFFFFFFFFFFFFFFFFFFFFFFFFFFFFFFFFFFFFFFFFFFFFFFFFF
310
FFFFFFFFFFFFFFFFFFFFFFFFFFFFFFFFF000FFFFFFFFFFFFFFFFFFFFFFFFFFFF
310
FFFFFFFFFFFFFFFFFFFFFFFFFFFFFFFFFFFFFFFFFFFFFFFFFFFFFFFFFFFFFFFF
310
FFFFFFFFFFFFFFFFFFFFFFFFFFFFFFFFFFFFFFFFFFFFFFFFFFFFFFFFFFFFFFFF
310
FFFFFFFFFFFFFFFFF000FFFFFFFFFFFFFFFFFFFFFFFFFFFFFFFFFFFFFFFFFFFF
310
FFFFFFFFFFFFFFFFFFFFFFFFFFFFFFFFFFFFFFFFFFFFFFFFFFFFFFFFFFFFFFFF
310
FFFFFFFFFFFFFFFFFFFFFFFFFFFFFFFFFFFFFFFFFFFFFFFFFFFFFFFFFFFFFFFF
310
F000FFFFFFFFFFFFFFFFFFFFFFFFFFFFFFFFFFFFFFFFFFFFFFFFFFFFFFFFFFFF
310
FFFFFFFFFFFFFFFFFFFFFFFFFFFFFFFFFFFFFFFFFFFFFFFFFFFFFFFFFFFFFFFF
310
FFFFFFFFFFFFFFFFFFFFFFFFFFFFFFFFFFFFFFFFFFFFFFFFF000FFFFFFFFFFFF
310
FFFFFFFFFFFFFFFFFFFFFFFFFFFFFFFFFFFFFFFFFFFFFFFFFFFFFFFFFFFFFFFF
310
FFFFFFFFFFFFFFFFFFFFFFFFFFFFFFFFFFFFFFFFFFFFFFFFFFFFFFFFFFFFFFFF
310
FFFFFFFFFFFFFFFFFFFFFFFFFFFFFFFFF000FFFFFFFFFFFFFFFFFFFFFFFFFFFF
310
FFFFFFFFFFFFFFFFFFFFFFFFFFFFFFFFFFFFFFFFFFFFFFFFFFFFFFFFFFFFFFFF
310
FFFFFFFFFFFFFFFFFFFFFFFFFFFFFFFFFFFFFFFFFFFFFFFFFFFFFFFFFFFFFFFF
310
FFFFFFFFFFFFFFFFF000FFFFFFFFFFFFFFFFFFFFFFFFFFFFFFFFFFFFFFFFFFFF
310
FFFFFFFFFFFFFFFFFFFFFFFFFFFFFFFFFFFFFFFFFFFFFFFFFFFFFFFFFFFFFFFF
310
FFFFFFFFFFFFFFFFFFFFFFFFFFFFFFFFFFFFFFFFFFFFFFFFFFFFFFFFFFFFFFFF
310
F000FFFFFFFFFFFFFFFFFFFFFFFFFFFFFFFFFFFFFFFFFFFFFFFFFFFFFFFFFFFF
310
FFFFFFFFFFFFFFFFFFFFFFFFFFFFFFFFFFFFFFFFFFFFFFFFFFFFFFFFFFFFFFFF
310
FFFFFFFFFFFFFFFFFFFFFFFFFFFFFFFFFFFFFFFFFFFFFFFFF000FFFFFFFFFFFF
310
FFFFFFFFFFFFFFFFFFFFFFFFFFFFFFFFFFFFFFFFFFFFFFFFFFFFFFFFFFFFFFFF
310
FFFFFFFFFFFFFFFFFFFFFFFFFFFFFFFFFFFFFFFFFFFFFFFFFFFFFFFFFFFFFFFF
310
FFFFFFFFFFFFFFFFFFFFFFFFFFFFFFFFF0000000000000000000000000000000
310
0000000000000000000000000000000000000000000000000000000000000000
310
0000000000000000000000000000000000000000000000000000000000000000
310
0000000000000000000000000000000000000000000000000000000000000000
310
0000000000000000000000000000000000000000000000000000000000000000
310
0000000000000000000000000000000000000000000000000000000000000000
310
0000000000000000000000000000000000000000000000000000000000000000
310
0000000000000000000000000000000000000000000000000000000000000000
310
0000000000000000000000000000000000000000000000000000000000000000
310
0000000000000000000000000000000000000000000000000000000000000000
310
0000000000000000000000000000000000000000000000000000000000000000
310
0000000000000000000000000000000000000000000000000000000000000000
310
0000000000000000000000000000000000000000000000000000000000000000
310
0000000000000000000000000000000000000000000000000000000000000000
310
0000000000000000000000000000000000000000000000000000000000000000
310
0000000000000000000000000000000000000000000000000000000000000000
  1
OLE
  0
ENDSEC
  0
SECTION
  2
OBJECTS
  0
DICTIONARY
  5
C
330
0
100
AcDbDictionary
281
     1
  3
ACAD_GROUP
350
D
  3
ACAD_LAYOUT
350
1A
  3
ACAD_MLINESTYLE
350
17
  3
ACAD_PLOTSETTINGS
350
19
  3
ACAD_PLOTSTYLENAME
350
E
  3
ACAD_SCALELIST
350
47
  0
DICTIONARY
  5
D
102
{ACAD_REACTORS
330
C
102
}
330
C
100
AcDbDictionary
281
     1
  0
DICTIONARY
  5
1A
102
{ACAD_REACTORS
330
C
102
}
330
C
100
AcDbDictionary
281
     1
  3
Layout1
350
1E
  3
Layout2
350
26
  3
Model
350
22
  0
DICTIONARY
  5
17
102
{ACAD_REACTORS
330
C
102
}
330
C
100
AcDbDictionary
281
     1
  3
Standard
350
18
  0
DICTIONARY
  5
19
102
{ACAD_REACTORS
330
C
102
}
330
C
100
AcDbDictionary
281
     1
  0
ACDBDICTIONARYWDFLT
  5
E
102
{ACAD_REACTORS
330
C
102
}
330
C
100
AcDbDictionary
281
     1
  3
Normal
350
F
100
AcDbDictionaryWithDefault
340
F
  0
DICTIONARY
  5
47
102
{ACAD_REACTORS
330
C
102
}
330
C
100
AcDbDictionary
281
     1
  3
A0
350
48
  3
A1
350
49
  3
A2
350
4A
  3
A3
350
4B
  3
A4
350
4C
  3
A5
350
4D
  3
A6
350
4E
  3
A7
350
4F
  3
A8
350
50
  3
A9
350
51
  3
B0
350
52
  3
B1
350
53
  3
B2
350
54
  3
B3
350
55
  3
B4
350
56
  3
B5
350
57
  3
B6
350
58
  3
B7
350
59
  3
B8
350
5A
  3
B9
350
5B
  3
C0
350
5C
  3
C1
350
5D
  3
C2
350
5E
  3
C3
350
5F
  3
C4
350
60
  3
C5
350
61
  3
C6
350
62
  3
C7
350
63
  3
C8
350
64
  3
C9
350
65
  3
D0
350
66
  3
D1
350
67
  3
D2
350
68
  0
LAYOUT
  5
1E
102
{ACAD_REACTORS
330
1A
102
}
330
1A
100
AcDbPlotSettings
  1

  2
none_device
  4

  6

 40
0.0
 41
0.0
 42
0.0
 43
0.0
 44
0.0
 45
0.0
 46
0.0
 47
0.0
 48
0.0
 49
0.0
140
0.0
141
0.0
142
1.0
143
1.0
 70
   688
 72
     1
 73
     0
 74
     5
  7

 75
    16
147
1.0
148
0.0
149
0.0
100
AcDbLayout
  1
Layout1
 70
     1
 71
     1
 10
0.0
 20
0.0
 11
420.0
 21
297.0
 12
0.0
 22
0.0
 32
0.0
 14
1.0000000000E+20
 24
1.0000000000E+20
 34
1.0000000000E+20
 15
-1.0000000000E+20
 25
-1.0000000000E+20
 35
-1.0000000000E+20
146
0.0
 13
0.0
 23
0.0
 33
0.0
 16
1.0
 26
0.0
 36
0.0
 17
0.0
 27
1.0
 37
0.0
 76
     0
330
1B
  0
LAYOUT
  5
26
102
{ACAD_REACTORS
330
1A
102
}
330
1A
100
AcDbPlotSettings
  1

  2
none_device
  4

  6

 40
0.0
 41
0.0
 42
0.0
 43
0.0
 44
0.0
 45
0.0
 46
0.0
 47
0.0
 48
0.0
 49
0.0
140
0.0
141
0.0
142
1.0
143
1.0
 70
   688
 72
     1
 73
     0
 74
     5
  7

 75
    16
147
1.0
148
0.0
149
0.0
100
AcDbLayout
  1
Layout2
 70
     1
 71
     2
 10
0.0
 20
0.0
 11
0.0
 21
0.0
 12
0.0
 22
0.0
 32
0.0
 14
0.0
 24
0.0
 34
0.0
 15
0.0
 25
0.0
 35
0.0
146
0.0
 13
0.0
 23
0.0
 33
0.0
 16
1.0
 26
0.0
 36
0.0
 17
0.0
 27
1.0
 37
0.0
 76
     0
330
23
  0
LAYOUT
  5
22
102
{ACAD_REACTORS
330
1A
102
}
330
1A
100
AcDbPlotSettings
  1

  2
none_device
  4
Letter_(8.50_x_11.00_Inches)
  6

 40
6.35
 41
6.35
 42
6.35000508
 43
6.35000508
 44
215.9
 45
279.4
 46
0.0
 47
0.0
 48
0.0
 49
0.0
140
0.0
141
0.0
142
1.0
143
1.0
 70
  1712
 72
     1
 73
     0
 74
     0
  7

 75
     0
147
1.0
148
0.0
149
0.0
100
AcDbLayout
  1
Model
 70
     1
 71
     0
 10
0.0
 20
0.0
 11
297.0
 21
210.0
 12
0.0
 22
0.0
 32
0.0
 14
0.0
 24
0.0
 34
0.0
 15
297.0
 25
210.0
 35
0.0
146
0.0
 13
0.0
 23
0.0
 33
0.0
 16
1.0
 26
0.0
 36
0.0
 17
0.0
 27
1.0
 37
0.0
 76
     0
330
1F
331
29
  0
MLINESTYLE
  5
18
102
{ACAD_REACTORS
330
17
102
}
330
17
100
AcDbMlineStyle
  2
Standard
 70
     0
  3

 62
   256
 51
90.0
 52
90.0
 71
     2
 49
0.5
 62
   256
  6
BYLAYER
 49
-0.5
 62
   256
  6
BYLAYER
  0
ACDBPLACEHOLDER
  5
F
102
{ACAD_REACTORS
330
E
102
}
330
E
  0
SCALE
  5
48
102
{ACAD_REACTORS
330
47
102
}
330
47
100
AcDbScale
 70
     0
300
1:1
140
1.0
141
1.0
290
     1
  0
SCALE
  5
49
102
{ACAD_REACTORS
330
47
102
}
330
47
100
AcDbScale
 70
     0
300
1:2
140
1.0
141
2.0
290
     0
  0
SCALE
  5
4A
102
{ACAD_REACTORS
330
47
102
}
330
47
100
AcDbScale
 70
     0
300
1:4
140
1.0
141
4.0
290
     0
  0
SCALE
  5
4B
102
{ACAD_REACTORS
330
47
102
}
330
47
100
AcDbScale
 70
     0
300
1:5
140
1.0
141
5.0
290
     0
  0
SCALE
  5
4C
102
{ACAD_REACTORS
330
47
102
}
330
47
100
AcDbScale
 70
     0
300
1:8
140
1.0
141
8.0
290
     0
  0
SCALE
  5
4D
102
{ACAD_REACTORS
330
47
102
}
330
47
100
AcDbScale
 70
     0
300
1:10
140
1.0
141
10.0
290
     0
  0
SCALE
  5
4E
102
{ACAD_REACTORS
330
47
102
}
330
47
100
AcDbScale
 70
     0
300
1:16
140
1.0
141
16.0
290
     0
  0
SCALE
  5
4F
102
{ACAD_REACTORS
330
47
102
}
330
47
100
AcDbScale
 70
     0
300
1:20
140
1.0
141
20.0
290
     0
  0
SCALE
  5
50
102
{ACAD_REACTORS
330
47
102
}
330
47
100
AcDbScale
 70
     0
300
1:30
140
1.0
141
30.0
290
     0
  0
SCALE
  5
51
102
{ACAD_REACTORS
330
47
102
}
330
47
100
AcDbScale
 70
     0
300
1:40
140
1.0
141
40.0
290
     0
  0
SCALE
  5
52
102
{ACAD_REACTORS
330
47
102
}
330
47
100
AcDbScale
 70
     0
300
1:50
140
1.0
141
50.0
290
     0
  0
SCALE
  5
53
102
{ACAD_REACTORS
330
47
102
}
330
47
100
AcDbScale
 70
     0
300
1:100
140
1.0
141
100.0
290
     0
  0
SCALE
  5
54
102
{ACAD_REACTORS
330
47
102
}
330
47
100
AcDbScale
 70
     0
300
2:1
140
2.0
141
1.0
290
     0
  0
SCALE
  5
55
102
{ACAD_REACTORS
330
47
102
}
330
47
100
AcDbScale
 70
     0
300
4:1
140
4.0
141
1.0
290
     0
  0
SCALE
  5
56
102
{ACAD_REACTORS
330
47
102
}
330
47
100
AcDbScale
 70
     0
300
8:1
140
8.0
141
1.0
290
     0
  0
SCALE
  5
57
102
{ACAD_REACTORS
330
47
102
}
330
47
100
AcDbScale
 70
     0
300
10:1
140
10.0
141
1.0
290
     0
  0
SCALE
  5
58
102
{ACAD_REACTORS
330
47
102
}
330
47
100
AcDbScale
 70
     0
300
100:1
140
100.0
141
1.0
290
     0
  0
SCALE
  5
59
102
{ACAD_REACTORS
330
47
102
}
330
47
100
AcDbScale
 70
     0
300
1/128" = 1'-0"
140
0.0078125
141
12.0
290
     0
  0
SCALE
  5
5A
102
{ACAD_REACTORS
330
47
102
}
330
47
100
AcDbScale
 70
     0
300
1/64" = 1'-0"
140
0.015625
141
12.0
290
     0
  0
SCALE
  5
5B
102
{ACAD_REACTORS
330
47
102
}
330
47
100
AcDbScale
 70
     0
300
1/32" = 1'-0"
140
0.03125
141
12.0
290
     0
  0
SCALE
  5
5C
102
{ACAD_REACTORS
330
47
102
}
330
47
100
AcDbScale
 70
     0
300
1/16" = 1'-0"
140
0.0625
141
12.0
290
     0
  0
SCALE
  5
5D
102
{ACAD_REACTORS
330
47
102
}
330
47
100
AcDbScale
 70
     0
300
3/32" = 1'-0"
140
0.09375
141
12.0
290
     0
  0
SCALE
  5
5E
102
{ACAD_REACTORS
330
47
102
}
330
47
100
AcDbScale
 70
     0
300
1/8" = 1'-0"
140
0.125
141
12.0
290
     0
  0
SCALE
  5
5F
102
{ACAD_REACTORS
330
47
102
}
330
47
100
AcDbScale
 70
     0
300
3/16" = 1'-0"
140
0.1875
141
12.0
290
     0
  0
SCALE
  5
60
102
{ACAD_REACTORS
330
47
102
}
330
47
100
AcDbScale
 70
     0
300
1/4" = 1'-0"
140
0.25
141
12.0
290
     0
  0
SCALE
  5
61
102
{ACAD_REACTORS
330
47
102
}
330
47
100
AcDbScale
 70
     0
300
3/8" = 1'-0"
140
0.375
141
12.0
290
     0
  0
SCALE
  5
62
102
{ACAD_REACTORS
330
47
102
}
330
47
100
AcDbScale
 70
     0
300
1/2" = 1'-0"
140
0.5
141
12.0
290
     0
  0
SCALE
  5
63
102
{ACAD_REACTORS
330
47
102
}
330
47
100
AcDbScale
 70
     0
300
3/4" = 1'-0"
140
0.75
141
12.0
290
     0
  0
SCALE
  5
64
102
{ACAD_REACTORS
330
47
102
}
330
47
100
AcDbScale
 70
     0
300
1" = 1'-0"
140
1.0
141
12.0
290
     0
  0
SCALE
  5
65
102
{ACAD_REACTORS
330
47
102
}
330
47
100
AcDbScale
 70
     0
300
1-1/2" = 1'-0"
140
1.5
141
12.0
290
     0
  0
SCALE
  5
66
102
{ACAD_REACTORS
330
47
102
}
330
47
100
AcDbScale
 70
     0
300
3" = 1'-0"
140
3.0
141
12.0
290
     0
  0
SCALE
  5
67
102
{ACAD_REACTORS
330
47
102
}
330
47
100
AcDbScale
 70
     0
300
6" = 1'-0"
140
6.0
141
12.0
290
     0
  0
SCALE
  5
68
102
{ACAD_REACTORS
330
47
102
}
330
47
100
AcDbScale
 70
     0
300
1'-0" = 1'-0"
140
12.0
141
12.0
290
     0
  0
ENDSEC
  0
EOF
