  0
SECTION
  2
HEADER
  9
$ACADVER
  1
AC1015
  9
$ACADMAINTVER
 70
     6
  9
$DWGCODEPAGE
  3
ANSI_1252
  9
$INSBASE
 10
0.0
 20
0.0
 30
0.0
  9
$EXTMIN
 10
0.0
 20
0.0
 30
0.0
  9
$EXTMAX
 10
297.0
 20
210.0
 30
0.0
  9
$LIMMIN
 10
0.0
 20
0.0
  9
$LIMMAX
 10
297.0
 20
210.0
  9
$ORTHOMODE
 70
     0
  9
$REGENMODE
 70
     1
  9
$FILLMODE
 70
     1
  9
$QTEXTMODE
 70
     0
  9
$MIRRTEXT
 70
     1
  9
$LTSCALE
 40
1.0
  9
$ATTMODE
 70
     1
  9
$TEXTSIZE
 40
2.0
  9
$TRACEWID
 40
1.0
  9
$TEXTSTYLE
  7
Standard
  9
$CLAYER
  8
0
  9
$CELTYPE
  6
ByLayer
  9
$CECOLOR
 62
   256
  9
$CELTSCALE
 40
1.0
  9
$DISPSILH
 70
     0
  9
$DIMSCALE
 40
1.0
  9
$DIMASZ
 40
3.0
  9
$DIMEXO
 40
0.0
  9
$DIMDLI
 40
3.75
  9
$DIMRND
 40
0.0
  9
$DIMDLE
 40
0.0
  9
$DIMEXE
 40
1.0
  9
$DIMTP
 40
0.0
  9
$DIMTM
 40
0.0
  9
$DIMTXT
 40
2.0
  9
$DIMCEN
 40
2.5
  9
$DIMTSZ
 40
0.0
  9
$DIMTOL
 70
     0
  9
$DIMLIM
 70
     0
  9
$DIMTIH
 70
     1
  9
$DIMTOH
 70
     1
  9
$DIMSE1
 70
     0
  9
$DIMSE2
 70
     0
  9
$DIMTAD
 70
     1
  9
$DIMZIN
 70
     0
  9
$DIMBLK
  1

  9
$DIMASO
 70
     1
  9
$DIMSHO
 70
     1
  9
$DIMPOST
  1

  9
$DIMAPOST
  1

  9
$DIMALT
 70
     0
  9
$DIMALTD
 70
     3
  9
$DIMALTF
 40
0.0393700787
  9
$DIMLFAC
 40
2.0
  9
$DIMTOFL
 70
     1
  9
$DIMTVP
 40
0.0
  9
$DIMTIX
 70
     0
  9
$DIMSOXD
 70
     0
  9
$DIMSAH
 70
     0
  9
$DIMBLK1
  1

  9
$DIMBLK2
  1

  9
$DIMSTYLE
  2
ISO-25
  9
$DIMCLRD
 70
     0
  9
$DIMCLRE
 70
     0
  9
$DIMCLRT
 70
     0
  9
$DIMTFAC
 40
1.0
  9
$DIMGAP
 40
1.524
  9
$DIMJUST
 70
     0
  9
$DIMSD1
 70
     0
  9
$DIMSD2
 70
     0
  9
$DIMTOLJ
 70
     0
  9
$DIMTZIN
 70
     0
  9
$DIMALTZ
 70
     0
  9
$DIMALTTZ
 70
     0
  9
$DIMUPT
 70
     0
  9
$DIMDEC
 70
     2
  9
$DIMTDEC
 70
     3
  9
$DIMALTU
 70
     2
  9
$DIMALTTD
 70
     3
  9
$DIMTXSTY
  7
Standard
  9
$DIMAUNIT
 70
     0
  9
$DIMADEC
 70
     2
  9
$DIMALTRND
 40
0.0
  9
$DIMAZIN
 70
     0
  9
$DIMDSEP
 70
    44
  9
$DIMATFIT
 70
     3
  9
$DIMFRAC
 70
     0
  9
$DIMLDRBLK
  1

  9
$DIMLUNIT
 70
     2
  9
$DIMLWD
 70
    -2
  9
$DIMLWE
 70
    -2
  9
$DIMTMOVE
 70
     0
  9
$LUNITS
 70
     2
  9
$LUPREC
 70
     2
  9
$SKETCHINC
 40
1.0
  9
$FILLETRAD
 40
10.0
  9
$AUNITS
 70
     0
  9
$AUPREC
 70
     2
  9
$MENU
  1
.
  9
$ELEVATION
 40
0.0
  9
$PELEVATION
 40
0.0
  9
$THICKNESS
 40
0.0
  9
$LIMCHECK
 70
     0
  9
$CHAMFERA
 40
0.0
  9
$CHAMFERB
 40
0.0
  9
$CHAMFERC
 40
0.0
  9
$CHAMFERD
 40
0.0
  9
$SKPOLY
 70
     0
  9
$TDCREATE
 40
2458166.412470035
  9
$TDUCREATE
 40
2458166.370803368
  9
$TDUPDATE
 40
2458166.412473403
  9
$TDUUPDATE
 40
2458166.370806736
  9
$TDINDWG
 40
0.0000000116
  9
$TDUSRTIMER
 40
0.0000000116
  9
$USRTIMER
 70
     1
  9
$ANGBASE
 50
0.0
  9
$ANGDIR
 70
     0
  9
$PDMODE
 70
     0
  9
$PDSIZE
 40
-1.0
  9
$PLINEWID
 40
0.0
  9
$SPLFRAME
 70
     0
  9
$SPLINETYPE
 70
     6
  9
$SPLINESEGS
 70
     8
  9
$HANDSEED
  5
2BB
  9
$SURFTAB1
 70
     6
  9
$SURFTAB2
 70
     6
  9
$SURFTYPE
 70
     6
  9
$SURFU
 70
     6
  9
$SURFV
 70
     6
  9
$UCSBASE
  2

  9
$UCSNAME
  2

  9
$UCSORG
 10
0.0
 20
0.0
 30
0.0
  9
$UCSXDIR
 10
1.0
 20
0.0
 30
0.0
  9
$UCSYDIR
 10
0.0
 20
1.0
 30
0.0
  9
$UCSORTHOREF
  2

  9
$UCSORTHOVIEW
 70
     0
  9
$UCSORGTOP
 10
0.0
 20
0.0
 30
0.0
  9
$UCSORGBOTTOM
 10
0.0
 20
0.0
 30
0.0
  9
$UCSORGLEFT
 10
0.0
 20
0.0
 30
0.0
  9
$UCSORGRIGHT
 10
0.0
 20
0.0
 30
0.0
  9
$UCSORGFRONT
 10
0.0
 20
0.0
 30
0.0
  9
$UCSORGBACK
 10
0.0
 20
0.0
 30
0.0
  9
$PUCSBASE
  2

  9
$PUCSNAME
  2

  9
$PUCSORG
 10
0.0
 20
0.0
 30
0.0
  9
$PUCSXDIR
 10
1.0
 20
0.0
 30
0.0
  9
$PUCSYDIR
 10
0.0
 20
1.0
 30
0.0
  9
$PUCSORTHOREF
  2

  9
$PUCSORTHOVIEW
 70
     0
  9
$PUCSORGTOP
 10
0.0
 20
0.0
 30
0.0
  9
$PUCSORGBOTTOM
 10
0.0
 20
0.0
 30
0.0
  9
$PUCSORGLEFT
 10
0.0
 20
0.0
 30
0.0
  9
$PUCSORGRIGHT
 10
0.0
 20
0.0
 30
0.0
  9
$PUCSORGFRONT
 10
0.0
 20
0.0
 30
0.0
  9
$PUCSORGBACK
 10
0.0
 20
0.0
 30
0.0
  9
$USERI1
 70
     0
  9
$USERI2
 70
     0
  9
$USERI3
 70
     0
  9
$USERI4
 70
     0
  9
$USERI5
 70
     0
  9
$USERR1
 40
0.0
  9
$USERR2
 40
0.0
  9
$USERR3
 40
0.0
  9
$USERR4
 40
0.0
  9
$USERR5
 40
0.0
  9
$WORLDVIEW
 70
     1
  9
$SHADEDGE
 70
     3
  9
$SHADEDIF
 70
    70
  9
$TILEMODE
 70
     1
  9
$MAXACTVP
 70
    64
  9
$PINSBASE
 10
0.0
 20
0.0
 30
0.0
  9
$PLIMCHECK
 70
     0
  9
$PEXTMIN
 10
1.0000000000E+20
 20
1.0000000000E+20
 30
1.0000000000E+20
  9
$PEXTMAX
 10
-1.0000000000E+20
 20
-1.0000000000E+20
 30
-1.0000000000E+20
  9
$PLIMMIN
 10
0.0
 20
0.0
  9
$PLIMMAX
 10
420.0
 20
297.0
  9
$UNITMODE
 70
     0
  9
$VISRETAIN
 70
     1
  9
$PLINEGEN
 70
     0
  9
$PSLTSCALE
 70
     1
  9
$TREEDEPTH
 70
  3020
  9
$CMLSTYLE
  2
Standard
  9
$CMLJUST
 70
     0
  9
$CMLSCALE
 40
20.0
  9
$PROXYGRAPHICS
 70
     1
  9
$MEASUREMENT
 70
     1
  9
$CELWEIGHT
370
    -1
  9
$ENDCAPS
280
     0
  9
$JOINSTYLE
280
     0
  9
$LWDISPLAY
290
     1
  9
$INSUNITS
 70
     4
  9
$HYPERLINKBASE
  1

  9
$STYLESHEET
  1

  9
$XEDIT
290
     1
  9
$CEPSNTYPE
380
     0
  9
$PSTYLEMODE
290
     1
  9
$FINGERPRINTGUID
  2
{50612236-0D10-4B63-925F-B69EB6E3CC12}
  9
$VERSIONGUID
  2
{FAEB1C32-E019-11D5-929B-00C0DF256EC4}
  9
$EXTNAMES
290
     1
  9
$PSVPSCALE
 40
0.0
  9
$OLESTARTUP
290
     0
  0
ENDSEC
  0
SECTION
  2
CLASSES
  0
CLASS
  1
ACDBDICTIONARYWDFLT
  2
AcDbDictionaryWithDefault
  3
ObjectDBX Classes
 90
        0
280
     0
281
     0
  0
CLASS
  1
VISUALSTYLE
  2
AcDbVisualStyle
  3
ObjectDBX Classes
 90
     4095
280
     0
281
     0
  0
CLASS
  1
MATERIAL
  2
AcDbMaterial
  3
ObjectDBX Classes
 90
     1153
280
     0
281
     0
  0
CLASS
  1
SCALE
  2
AcDbScale
  3
ObjectDBX Classes
 90
     1153
280
     0
281
     0
  0
CLASS
  1
TABLESTYLE
  2
AcDbTableStyle
  3
ObjectDBX Classes
 90
     4095
280
     0
281
     0
  0
CLASS
  1
MLEADERSTYLE
  2
AcDbMLeaderStyle
  3
ACDB_MLEADERSTYLE_CLASS
 90
     4095
280
     0
281
     0
  0
CLASS
  1
SUN
  2
AcDbSun
  3
SCENEOE
 90
     1153
280
     0
281
     0
  0
CLASS
  1
ACDBPLACEHOLDER
  2
AcDbPlaceHolder
  3
ObjectDBX Classes
 90
        0
280
     0
281
     0
  0
CLASS
  1
LAYOUT
  2
AcDbLayout
  3
ObjectDBX Classes
 90
        0
280
     0
281
     0
  0
ENDSEC
  0
SECTION
  2
TABLES
  0
TABLE
  2
VPORT
  5
8
330
0
100
AcDbSymbolTable
 70
     1
  0
VPORT
  5
29
330
8
100
AcDbSymbolTableRecord
100
AcDbViewportTableRecord
  2
*Active
 70
     0
 10
0.0
 20
0.0
 11
1.0
 21
1.0
 12
148.5
 22
105.0
 13
0.0
 23
0.0
 14
10.0
 24
10.0
 15
10.0
 25
10.0
 16
0.0
 26
0.0
 36
1.0
 17
0.0
 27
0.0
 37
0.0
 40
210.0
 41
1.4142857143
 42
50.0
 43
0.0
 44
0.0
 50
0.0
 51
0.0
 71
     0
 72
  2000
 73
     1
 74
     3
 75
     0
 76
     0
 77
     0
 78
     0
281
     0
 65
     1
110
0.0
120
0.0
130
0.0
111
1.0
121
0.0
131
0.0
112
0.0
122
1.0
132
0.0
 79
     0
146
0.0
  0
ENDTAB
  0
TABLE
  2
LTYPE
  5
5
330
0
100
AcDbSymbolTable
 70
     6
  0
LTYPE
  5
14
330
5
100
AcDbSymbolTableRecord
100
AcDbLinetypeTableRecord
  2
ByBlock
 70
     0
  3

 72
    65
 73
     0
 40
0.0
  0
LTYPE
  5
15
330
5
100
AcDbSymbolTableRecord
100
AcDbLinetypeTableRecord
  2
ByLayer
 70
     0
  3

 72
    65
 73
     0
 40
0.0
  0
LTYPE
  5
16
330
5
100
AcDbSymbolTableRecord
100
AcDbLinetypeTableRecord
  2
Continuous
 70
     0
  3
Solid line
 72
    65
 73
     0
 40
0.0
  0
LTYPE
  5
6E
330
5
100
AcDbSymbolTableRecord
100
AcDbLinetypeTableRecord
  2
HIDDEN
 70
     0
  3
Hidden __ __ __ __ __ __ __ __ __ __ __ __ __ __
 72
    65
 73
     2
 40
1.905
 49
1.27
 74
     0
 49
-0.635
 74
     0
  0
LTYPE
  5
6F
330
5
100
AcDbSymbolTableRecord
100
AcDbLinetypeTableRecord
  2
PHANTOM
 70
     0
  3
Phantom ______  __  __  ______  __  __  ______
 72
    65
 73
     6
 40
12.7
 49
6.35
 74
     0
 49
-1.27
 74
     0
 49
1.27
 74
     0
 49
-1.27
 74
     0
 49
1.27
 74
     0
 49
-1.27
 74
     0
  0
LTYPE
  5
70
330
5
100
AcDbSymbolTableRecord
100
AcDbLinetypeTableRecord
  2
CENTER
 70
     0
  3
Center ____ _ ____ _ ____ _ ____ _ ____ _ ____
 72
    65
 73
     4
 40
10.16
 49
6.35
 74
     0
 49
-1.27
 74
     0
 49
1.27
 74
     0
 49
-1.27
 74
     0
  0
LTYPE
  5
71
330
5
100
AcDbSymbolTableRecord
100
AcDbLinetypeTableRecord
  2
CENTERX2
 70
     0
  3
Center (2x) ________  __  ________  __  _____
 72
    65
 73
     4
 40
20.32
 49
12.7
 74
     0
 49
-2.54
 74
     0
 49
2.54
 74
     0
 49
-2.54
 74
     0
  0
LTYPE
  5
72
330
5
100
AcDbSymbolTableRecord
100
AcDbLinetypeTableRecord
  2
DOT2
 70
     0
  3
Dot (.5x) ........................................
 72
    65
 73
     2
 40
0.635
 49
0.0
 74
     0
 49
-0.635
 74
     0
  0
ENDTAB
  0
TABLE
  2
LAYER
  5
2
330
0
100
AcDbSymbolTable
 70
     5
  0
LAYER
  5
10
330
2
100
AcDbSymbolTableRecord
100
AcDbLayerTableRecord
  2
0
 70
     0
 62
     7
  6
Continuous
370
    -3
390
F
  0
LAYER
  5
73
330
2
100
AcDbSymbolTableRecord
100
AcDbLayerTableRecord
  2
FORMAT
 70
     0
 62
     7
  6
Continuous
370
    -3
390
F
  0
LAYER
  5
74
330
2
100
AcDbSymbolTableRecord
100
AcDbLayerTableRecord
  2
VERMASSUNG
 70
     0
 62
     7
  6
Continuous
370
    -3
390
F
  0
LAYER
  5
75
330
2
100
AcDbSymbolTableRecord
100
AcDbLayerTableRecord
  2
KOPF_DÜNN
 70
     0
 62
     7
  6
Continuous
370
    -3
390
F
  0
LAYER
  5
76
330
2
100
AcDbSymbolTableRecord
100
AcDbLayerTableRecord
  2
KOPF_DICK
 70
     0
 62
     7
  6
Continuous
370
    25
390
F
  0
ENDTAB
  0
TABLE
  2
STYLE
  5
3
330
0
100
AcDbSymbolTable
 70
     2
  0
STYLE
  5
11
330
3
100
AcDbSymbolTableRecord
100
AcDbTextStyleTableRecord
  2
Standard
 70
     0
 40
0.0
 41
1.0
 50
0.0
 71
     0
 42
2.0
  3
txt
  4

  0
STYLE
  5
77
330
3
100
AcDbSymbolTableRecord
100
AcDbTextStyleTableRecord
  2
SLDTEXTSTYLE0
 70
     0
 40
0.0
 41
0.7
 50
0.0
 71
     0
 42
2.0
  3
TXT
  4

  0
ENDTAB
  0
TABLE
  2
VIEW
  5
6
330
0
100
AcDbSymbolTable
 70
     0
  0
ENDTAB
  0
TABLE
  2
UCS
  5
7
330
0
100
AcDbSymbolTable
 70
     0
  0
ENDTAB
  0
TABLE
  2
APPID
  5
9
330
0
100
AcDbSymbolTable
 70
     1
  0
APPID
  5
12
330
9
100
AcDbSymbolTableRecord
100
AcDbRegAppTableRecord
  2
ACAD
 70
     0
  0
ENDTAB
  0
TABLE
  2
DIMSTYLE
  5
A
330
0
100
AcDbSymbolTable
 70
     4
100
AcDbDimStyleTable
  0
DIMSTYLE
105
27
330
A
100
AcDbSymbolTableRecord
100
AcDbDimStyleTableRecord
  2
ISO-25
 70
     0
 41
2.5
 42
0.625
 43
3.75
 44
1.25
 73
     0
 74
     0
 77
     1
 78
     8
140
2.5
141
2.5
143
0.0393700787
147
0.625
171
     3
172
     1
178
     0
271
     2
272
     2
274
     3
278
    44
283
     0
284
     8
340
11
  0
DIMSTYLE
105
1F2
102
{ACAD_REACTORS
330
1F1
102
}
330
A
100
AcDbSymbolTableRecord
100
AcDbDimStyleTableRecord
  2
SLDDIMSTYLE0
 70
     0
 41
3.0
 44
0.0
 45
0.000000001
 73
     0
 74
     0
 76
     1
 77
     1
 78
    12
 79
     3
140
2.0
147
0.5
173
     1
178
     0
271
     2
272
     3
276
     2
282
     1
284
    12
340
77
  0
DIMSTYLE
105
1FC
102
{ACAD_REACTORS
330
1FB
330
215
330
21F
330
229
102
}
330
A
100
AcDbSymbolTableRecord
100
AcDbDimStyleTableRecord
  2
SLDDIMSTYLE1
 70
     0
 41
3.0
 44
0.0
 45
0.000000001
 73
     0
 74
     0
 77
     1
 78
    12
 79
     3
140
2.0
147
0.5
173
     1
178
     0
271
     2
272
     3
276
     2
284
    12
340
77
  0
DIMSTYLE
105
208
102
{ACAD_REACTORS
330
207
102
}
330
A
100
AcDbSymbolTableRecord
100
AcDbDimStyleTableRecord
  2
SLDDIMSTYLE2
 70
     0
 41
3.0
 44
0.0
 45
0.000000001
 73
     0
 74
     0
 77
     1
 78
    12
 79
     3
140
2.0
147
0.5
173
     1
178
     0
271
     1
272
     3
276
     2
284
    12
340
77
  0
ENDTAB
  0
TABLE
  2
BLOCK_RECORD
  5
1
330
0
100
AcDbSymbolTable
 70
     7
  0
BLOCK_RECORD
  5
1F
330
1
100
AcDbSymbolTableRecord
100
AcDbBlockTableRecord
  2
*Model_Space
340
22
  0
BLOCK_RECORD
  5
1B
330
1
100
AcDbSymbolTableRecord
100
AcDbBlockTableRecord
  2
*Paper_Space
340
1E
  0
BLOCK_RECORD
  5
23
330
1
100
AcDbSymbolTableRecord
100
AcDbBlockTableRecord
  2
*Paper_Space0
340
26
  0
BLOCK_RECORD
  5
1F3
330
1
100
AcDbSymbolTableRecord
100
AcDbBlockTableRecord
  2
_D
340
0
  0
BLOCK_RECORD
  5
1FD
330
1
100
AcDbSymbolTableRecord
100
AcDbBlockTableRecord
  2
_D_1
340
0
  0
BLOCK_RECORD
  5
209
330
1
100
AcDbSymbolTableRecord
100
AcDbBlockTableRecord
  2
_D_2
340
0
  0
BLOCK_RECORD
  5
216
330
1
100
AcDbSymbolTableRecord
100
AcDbBlockTableRecord
  2
_D_3
340
0
  0
BLOCK_RECORD
  5
220
330
1
100
AcDbSymbolTableRecord
100
AcDbBlockTableRecord
  2
_D_4
340
0
  0
BLOCK_RECORD
  5
22A
330
1
100
AcDbSymbolTableRecord
100
AcDbBlockTableRecord
  2
_D_5
340
0
  0
ENDTAB
  0
ENDSEC
  0
SECTION
  2
BLOCKS
  0
BLOCK
  5
20
330
1F
100
AcDbEntity
  8
0
100
AcDbBlockBegin
  2
*Model_Space
 70
     0
 10
0.0
 20
0.0
 30
0.0
  3
*Model_Space
  1

  0
ENDBLK
  5
21
330
1F
100
AcDbEntity
  8
0
100
AcDbBlockEnd
  0
BLOCK
  5
1C
330
1B
100
AcDbEntity
 67
     1
  8
0
100
AcDbBlockBegin
  2
*Paper_Space
 70
     0
 10
0.0
 20
0.0
 30
0.0
  3
*Paper_Space
  1

  0
ENDBLK
  5
1D
330
1B
100
AcDbEntity
 67
     1
  8
0
100
AcDbBlockEnd
  0
BLOCK
  5
24
330
23
100
AcDbEntity
  8
0
100
AcDbBlockBegin
  2
*Paper_Space0
 70
     0
 10
0.0
 20
0.0
 30
0.0
  3
*Paper_Space0
  1

  0
ENDBLK
  5
25
330
23
100
AcDbEntity
  8
0
100
AcDbBlockEnd
  0
BLOCK
  5
1F4
330
1F3
100
AcDbEntity
  8
0
100
AcDbBlockBegin
  2
_D
 70
     0
 10
0.0
 20
0.0
 30
0.0
  3
_D
  1

  0
SOLID
  5
1F6
330
1F3
100
AcDbEntity
  8
VERMASSUNG
100
AcDbTrace
 10
250.1730086546
 20
107.3550769605
 30
0.0
 11
249.7230086546
 21
104.3550769605
 31
0.0
 12
250.6230086546
 22
104.3550769605
 32
0.0
 13
250.6230086546
 23
104.3550769605
 33
0.0
  0
LINE
  5
1F7
330
1F3
100
AcDbEntity
  8
VERMASSUNG
100
AcDbLine
 10
200.3304742529
 20
107.3550769605
 30
0.0
 11
251.1730086546
 21
107.3550769605
 31
0.0
  0
LINE
  5
1F8
330
1F3
100
AcDbEntity
  8
VERMASSUNG
100
AcDbLine
 10
250.1730086546
 20
107.3550769605
 30
0.0
 11
250.1730086546
 21
99.3500768963
 31
0.0
  0
MTEXT
  5
1F9
330
1F3
100
AcDbEntity
  8
VERMASSUNG
100
AcDbMText
 10
247.5948733497
 20
99.3500768963
 30
0.0
 40
2.0
 41
0.0
 71
     1
 72
     1
  1
%%c
  7
SLDTEXTSTYLE0
 11
-7.044195017643634E-15
 21
1.0
 31
0.0
 73
     1
 44
1.0
  0
MTEXT
  5
1FA
330
1F3
100
AcDbEntity
  8
VERMASSUNG
100
AcDbMText
 10
247.3948733984
 20
102.9600769107
 30
0.0
 40
2.0
 41
0.0
 71
     1
 72
     1
  1
10
  7
SLDTEXTSTYLE0
 11
-7.044195017643634E-15
 21
1.0
 31
0.0
 73
     1
 44
1.0
  0
ENDBLK
  5
1F5
330
1F3
100
AcDbEntity
  8
0
100
AcDbBlockEnd
  0
BLOCK
  5
1FE
330
1FD
100
AcDbEntity
  8
0
100
AcDbBlockBegin
  2
_D_1
 70
     0
 10
0.0
 20
0.0
 30
0.0
  3
_D_1
  1

  0
SOLID
  5
200
330
1FD
100
AcDbEntity
  8
VERMASSUNG
100
AcDbTrace
 10
264.0804742529
 20
119.8550769605
 30
0.0
 11
263.6304742529
 21
116.8550769605
 31
0.0
 12
264.5304742529
 22
116.8550769605
 32
0.0
 13
264.5304742529
 23
116.8550769605
 33
0.0
  0
SOLID
  5
201
330
1FD
100
AcDbEntity
  8
VERMASSUNG
100
AcDbTrace
 10
264.0804742529
 20
84.8550769605
 30
0.0
 11
264.5304742529
 21
87.8550769605
 31
0.0
 12
263.6304742529
 22
87.8550769605
 32
0.0
 13
263.6304742529
 23
87.8550769605
 33
0.0
  0
LINE
  5
202
330
1FD
100
AcDbEntity
  8
VERMASSUNG
100
AcDbLine
 10
213.3579396504
 20
119.8550769605
 30
0.0
 11
265.0804742529
 21
119.8550769605
 31
0.0
  0
LINE
  5
203
330
1FD
100
AcDbEntity
  8
VERMASSUNG
100
AcDbLine
 10
213.3579396504
 20
84.8550769605
 30
0.0
 11
265.0804742529
 21
84.8550769605
 31
0.0
  0
LINE
  5
204
330
1FD
100
AcDbEntity
  8
VERMASSUNG
100
AcDbLine
 10
264.0804742529
 20
119.8550769605
 30
0.0
 11
264.0804742529
 21
84.8550769605
 31
0.0
  0
MTEXT
  5
205
330
1FD
100
AcDbEntity
  8
VERMASSUNG
100
AcDbMText
 10
261.502338948
 20
99.1500770033
 30
0.0
 40
2.0
 41
0.0
 71
     1
 72
     1
  1
%%c
  7
SLDTEXTSTYLE0
 11
-7.044195017643634E-15
 21
1.0
 31
0.0
 73
     1
 44
1.0
  0
MTEXT
  5
206
330
1FD
100
AcDbEntity
  8
VERMASSUNG
100
AcDbMText
 10
261.3023389967
 20
102.7600770176
 30
0.0
 40
2.0
 41
0.0
 71
     1
 72
     1
  1
35
  7
SLDTEXTSTYLE0
 11
-7.044195017643634E-15
 21
1.0
 31
0.0
 73
     1
 44
1.0
  0
ENDBLK
  5
1FF
330
1FD
100
AcDbEntity
  8
0
100
AcDbBlockEnd
  0
BLOCK
  5
20A
330
209
100
AcDbEntity
  8
0
100
AcDbBlockBegin
  2
_D_2
 70
     0
 10
0.0
 20
0.0
 30
0.0
  3
_D_2
  1

  0
SOLID
  5
20C
330
209
100
AcDbEntity
  8
VERMASSUNG
100
AcDbTrace
 10
62.1304492529
 20
133.8300769605
 30
0.0
 11
61.6804492529
 21
130.8300769605
 31
0.0
 12
62.5804492529
 22
130.8300769605
 32
0.0
 13
62.5804492529
 23
130.8300769605
 33
0.0
  0
SOLID
  5
20D
330
209
100
AcDbEntity
  8
VERMASSUNG
100
AcDbTrace
 10
62.1304492529
 20
70.8800769605
 30
0.0
 11
62.5804492529
 21
73.8800769605
 31
0.0
 12
61.6804492529
 22
73.8800769605
 32
0.0
 13
61.6804492529
 23
73.8800769605
 33
0.0
  0
LINE
  5
20E
330
209
100
AcDbEntity
  8
VERMASSUNG
100
AcDbLine
 10
137.3146720575
 20
133.8300769605
 30
0.0
 11
61.1304492529
 21
133.8300769605
 31
0.0
  0
LINE
  5
20F
330
209
100
AcDbEntity
  8
VERMASSUNG
100
AcDbLine
 10
137.3146720575
 20
70.8800769605
 30
0.0
 11
61.1304492529
 21
70.8800769605
 31
0.0
  0
LINE
  5
210
330
209
100
AcDbEntity
  8
VERMASSUNG
100
AcDbLine
 10
62.1304492529
 20
133.8300769605
 30
0.0
 11
62.1304492529
 21
70.8800769605
 31
0.0
  0
MTEXT
  5
211
330
209
100
AcDbEntity
  8
VERMASSUNG
100
AcDbMText
 10
59.3523139967
 20
94.2500783421
 30
0.0
 40
2.0
 41
0.0
 71
     1
 72
     1
  1
KM
  7
SLDTEXTSTYLE0
 11
-7.044195017643634E-15
 21
1.0
 31
0.0
 73
     1
 44
1.0
  0
MTEXT
  5
212
330
209
100
AcDbEntity
  8
VERMASSUNG
100
AcDbMText
 10
59.552313948
 20
97.6500781544
 30
0.0
 40
2.0
 41
0.0
 71
     1
 72
     1
  1
%%c
  7
SLDTEXTSTYLE0
 11
-7.044195017643634E-15
 21
1.0
 31
0.0
 73
     1
 44
1.0
  0
MTEXT
  5
213
330
209
100
AcDbEntity
  8
VERMASSUNG
100
AcDbMText
 10
59.3523139967
 20
101.2600781687
 30
0.0
 40
2.0
 41
0.0
 71
     1
 72
     1
  1
63
  7
SLDTEXTSTYLE0
 11
-7.044195017643634E-15
 21
1.0
 31
0.0
 73
     1
 44
1.0
  0
MTEXT
  5
214
330
209
100
AcDbEntity
  8
VERMASSUNG
100
AcDbMText
 10
59.3523139967
 20
105.2475780688
 30
0.0
 40
2.0
 41
0.0
 71
     1
 72
     1
  1
XMZ
  7
SLDTEXTSTYLE0
 11
-7.044195017643634E-15
 21
1.0
 31
0.0
 73
     1
 44
1.0
  0
ENDBLK
  5
20B
330
209
100
AcDbEntity
  8
0
100
AcDbBlockEnd
  0
BLOCK
  5
217
330
216
100
AcDbEntity
  8
0
100
AcDbBlockBegin
  2
_D_3
 70
     0
 10
0.0
 20
0.0
 30
0.0
  3
_D_3
  1

  0
SOLID
  5
219
330
216
100
AcDbEntity
  8
VERMASSUNG
100
AcDbTrace
 10
142.0804742529
 20
141.2503179724
 30
0.0
 11
145.0804742529
 21
140.8003179724
 31
0.0
 12
145.0804742529
 22
141.7003179724
 32
0.0
 13
145.0804742529
 23
141.7003179724
 33
0.0
  0
SOLID
  5
21A
330
216
100
AcDbEntity
  8
VERMASSUNG
100
AcDbTrace
 10
224.0804742529
 20
141.2503179724
 30
0.0
 11
221.0804742529
 21
141.7003179724
 31
0.0
 12
221.0804742529
 22
140.8003179724
 32
0.0
 13
221.0804742529
 23
140.8003179724
 33
0.0
  0
LINE
  5
21B
330
216
100
AcDbEntity
  8
VERMASSUNG
100
AcDbLine
 10
142.0804742529
 20
133.8300769605
 30
0.0
 11
142.0804742529
 21
142.2503179724
 31
0.0
  0
LINE
  5
21C
330
216
100
AcDbEntity
  8
VERMASSUNG
100
AcDbLine
 10
224.0804742529
 20
113.5809364389
 30
0.0
 11
224.0804742529
 21
142.2503179724
 31
0.0
  0
LINE
  5
21D
330
216
100
AcDbEntity
  8
VERMASSUNG
100
AcDbLine
 10
142.0804742529
 20
141.2503179724
 30
0.0
 11
224.0804742529
 21
141.2503179724
 31
0.0
  0
MTEXT
  5
21E
330
216
100
AcDbEntity
  8
VERMASSUNG
100
AcDbMText
 10
181.6804743028
 20
143.8284535684
 30
0.0
 40
2.0
 41
0.0
 71
     1
 72
     1
  1
82
  7
SLDTEXTSTYLE0
 73
     1
 44
1.0
  0
ENDBLK
  5
218
330
216
100
AcDbEntity
  8
0
100
AcDbBlockEnd
  0
BLOCK
  5
221
330
220
100
AcDbEntity
  8
0
100
AcDbBlockBegin
  2
_D_4
 70
     0
 10
0.0
 20
0.0
 30
0.0
  3
_D_4
  1

  0
SOLID
  5
223
330
220
100
AcDbEntity
  8
VERMASSUNG
100
AcDbTrace
 10
124.0804742529
 20
149.8300769605
 30
0.0
 11
127.0804742529
 21
149.3800769605
 31
0.0
 12
127.0804742529
 22
150.2800769605
 32
0.0
 13
127.0804742529
 23
150.2800769605
 33
0.0
  0
SOLID
  5
224
330
220
100
AcDbEntity
  8
VERMASSUNG
100
AcDbTrace
 10
224.0804742529
 20
149.8300769605
 30
0.0
 11
221.0804742529
 21
150.2800769605
 31
0.0
 12
221.0804742529
 22
149.3800769605
 32
0.0
 13
221.0804742529
 23
149.3800769605
 33
0.0
  0
LINE
  5
225
330
220
100
AcDbEntity
  8
VERMASSUNG
100
AcDbLine
 10
124.0804742529
 20
133.6300769605
 30
0.0
 11
124.0804742529
 21
150.8300769605
 31
0.0
  0
LINE
  5
226
330
220
100
AcDbEntity
  8
VERMASSUNG
100
AcDbLine
 10
224.0804742529
 20
113.5809364389
 30
0.0
 11
224.0804742529
 21
150.8300769605
 31
0.0
  0
LINE
  5
227
330
220
100
AcDbEntity
  8
VERMASSUNG
100
AcDbLine
 10
124.0804742529
 20
149.8300769605
 30
0.0
 11
224.0804742529
 21
149.8300769605
 31
0.0
  0
MTEXT
  5
228
330
220
100
AcDbEntity
  8
VERMASSUNG
100
AcDbMText
 10
172.1804742209
 20
152.4082125565
 30
0.0
 40
2.0
 41
0.0
 71
     1
 72
     1
  1
100
  7
SLDTEXTSTYLE0
 73
     1
 44
1.0
  0
ENDBLK
  5
222
330
220
100
AcDbEntity
  8
0
100
AcDbBlockEnd
  0
BLOCK
  5
22B
330
22A
100
AcDbEntity
  8
0
100
AcDbBlockBegin
  2
_D_5
 70
     0
 10
0.0
 20
0.0
 30
0.0
  3
_D_5
  1

  0
SOLID
  5
22D
330
22A
100
AcDbEntity
  8
VERMASSUNG
100
AcDbTrace
 10
224.0804742529
 20
158.1579471716
 30
0.0
 11
221.0804742529
 21
158.6079471716
 31
0.0
 12
221.0804742529
 22
157.7079471716
 32
0.0
 13
221.0804742529
 23
157.7079471716
 33
0.0
  0
SOLID
  5
22E
330
22A
100
AcDbEntity
  8
VERMASSUNG
100
AcDbTrace
 10
84.1304742529
 20
158.1579471716
 30
0.0
 11
87.1304742529
 21
157.7079471716
 31
0.0
 12
87.1304742529
 22
158.6079471716
 32
0.0
 13
87.1304742529
 23
158.6079471716
 33
0.0
  0
LINE
  5
22F
330
22A
100
AcDbEntity
  8
VERMASSUNG
100
AcDbLine
 10
224.0804742529
 20
113.5809364389
 30
0.0
 11
224.0804742529
 21
159.1579471716
 31
0.0
  0
LINE
  5
230
330
22A
100
AcDbEntity
  8
VERMASSUNG
100
AcDbLine
 10
84.1304742529
 20
124.5581716843
 30
0.0
 11
84.1304742529
 21
159.1579471716
 31
0.0
  0
LINE
  5
231
330
22A
100
AcDbEntity
  8
VERMASSUNG
100
AcDbLine
 10
224.0804742529
 20
158.1579471716
 30
0.0
 11
84.1304742529
 21
158.1579471716
 31
0.0
  0
MTEXT
  5
232
330
22A
100
AcDbEntity
  8
VERMASSUNG
100
AcDbMText
 10
150.5054743148
 20
160.7360827675
 30
0.0
 40
2.0
 41
0.0
 71
     1
 72
     1
  1
139.95
  7
SLDTEXTSTYLE0
 73
     1
 44
1.0
  0
ENDBLK
  5
22C
330
22A
100
AcDbEntity
  8
0
100
AcDbBlockEnd
  0
ENDSEC
  0
SECTION
  2
ENTITIES
  0
MTEXT
  5
78
330
1F
100
AcDbEntity
  8
KOPF_DÜNN
100
AcDbMText
 10
13.8892156294
 20
23.8442973028
 30
0.0
 40
3.0
 41
0.0
 71
     1
 72
     1
  1
KY6.W10.K01.100
  7
SLDTEXTSTYLE0
 73
     1
 44
1.0
  0
MTEXT
  5
79
330
1F
100
AcDbEntity
  8
VERMASSUNG
100
AcDbMText
 10
13.9329988022
 20
28.8834360957
 30
0.0
 40
3.0
 41
0.0
 71
     1
 72
     1
  1
Flächenspannfutter Weldon_End mill adapter Weldon
  7
SLDTEXTSTYLE0
 73
     1
 44
1.0
  0
MTEXT
  5
7A
330
1F
100
AcDbEntity
  8
VERMASSUNG
100
AcDbMText
 10
98.8601118557
 20
13.8365368761
 30
0.0
 40
2.0
 41
0.0
 71
     1
 72
     1
  1
Datum: 16.02.2018
  7
SLDTEXTSTYLE0
 73
     1
 44
1.0
  0
MTEXT
  5
7B
330
1F
100
AcDbEntity
  8
VERMASSUNG
100
AcDbMText
 10
13.933048693
 20
18.0482802738
 30
0.0
 40
2.0
 41
0.0
 71
     1
 72
     1
  1
KM63 XMZ / Ø10
  7
SLDTEXTSTYLE0
 73
     1
 44
1.0
  0
MTEXT
  5
7C
330
1F
100
AcDbEntity
  8
VERMASSUNG
100
AcDbMText
 10
13.9808475933
 20
13.9090974274
 30
0.0
 40
2.0
 41
0.0
 71
     1
 72
     1
  1
Gewicht: 1173g
  7
SLDTEXTSTYLE0
 73
     1
 44
1.0
  0
SPLINE
  5
7D
330
1F
100
AcDbEntity
  8
0
  6
Continuous
 62
     7
370
    25
100
AcDbSpline
210
0.0
220
0.0
230
1.0
 70
     8
 71
     3
 72
     8
 73
     4
 74
     0
 42
0.000000001
 43
0.00000001
 40
0.0
 40
0.0
 40
0.0
 40
0.0
 40
1.0
 40
1.0
 40
1.0
 40
1.0
 10
373.4808198596311
 20
97.98507608853389
 30
0.0
 10
373.4119814894444
 20
97.92198141521503
 30
0.0
 10
373.3435501289883
 20
97.85825903708417
 30
0.0
 10
373.2755338543236
 20
97.79391360481078
 30
0.0
  0
SPLINE
  5
7E
330
1F
100
AcDbEntity
  8
0
  6
Continuous
 62
     7
370
    25
100
AcDbSpline
210
0.0
220
0.0
230
1.0
 70
     8
 71
     3
 72
     8
 73
     4
 74
     0
 42
0.000000001
 43
0.00000001
 40
0.0
 40
0.0
 40
0.0
 40
0.0
 40
1.0
 40
1.0
 40
1.0
 40
1.0
 10
373.7388471008919
 20
97.81581425860657
 30
0.0
 10
373.6521436667314
 20
97.87197517827582
 30
0.0
 10
373.5661456192476
 20
97.9283999146017
 30
0.0
 10
373.4808198596311
 20
97.98507608853389
 30
0.0
  0
ARC
  5
7F
330
1F
100
AcDbEntity
  8
0
  6
Continuous
 62
     7
370
    25
100
AcDbCircle
 10
383.8699599693
 20
102.3550769605
 30
0.0
 40
11.10154736189896
100
AcDbArc
 50
204.1348482805
 51
335.8651517195
  0
SPLINE
  5
80
330
1F
100
AcDbEntity
  8
0
  6
Continuous
 62
     7
370
    25
100
AcDbSpline
210
0.0
220
0.0
230
1.0
 70
     8
 71
     3
 72
     8
 73
     4
 74
     0
 42
0.000000001
 43
0.00000001
 40
0.0
 40
0.0
 40
0.0
 40
0.0
 40
1.0
 40
1.0
 40
1.0
 40
1.0
 10
394.2591000788969
 20
97.98507608853389
 30
0.0
 10
394.1737743192805
 20
97.9283999146017
 30
0.0
 10
394.0877762717967
 20
97.87197517827582
 30
0.0
 10
394.0010728376362
 20
97.81581425860657
 30
0.0
  0
SPLINE
  5
81
330
1F
100
AcDbEntity
  8
0
  6
Continuous
 62
     7
370
    25
100
AcDbSpline
210
0.0
220
0.0
230
1.0
 70
     8
 71
     3
 72
     8
 73
     4
 74
     0
 42
0.000000001
 43
0.00000001
 40
0.0
 40
0.0
 40
0.0
 40
0.0
 40
1.0
 40
1.0
 40
1.0
 40
1.0
 10
394.4643860842045
 20
97.79391360481078
 30
0.0
 10
394.3963698095398
 20
97.85825903708417
 30
0.0
 10
394.3279384490837
 20
97.92198141521503
 30
0.0
 10
394.2591000788969
 20
97.98507608853389
 30
0.0
  0
ARC
  5
82
330
1F
100
AcDbEntity
  8
0
  6
Continuous
 62
     7
370
    25
100
AcDbCircle
 10
383.8699599693
 20
102.3550769605
 30
0.0
 40
11.53456006379121
100
AcDbArc
 50
203.2930774359
 51
336.7074733161
  0
ARC
  5
83
330
1F
100
AcDbEntity
  8
0
  6
Continuous
 62
     7
370
    25
100
AcDbCircle
 10
383.8699599693
 20
102.3550769605
 30
0.0
 40
11.10154736189899
100
AcDbArc
 50
29.4783538465
 51
150.5216461535
  0
SPLINE
  5
84
330
1F
100
AcDbEntity
  8
0
  6
Continuous
 62
     7
370
    25
100
AcDbSpline
210
0.0
220
0.0
230
1.0
 70
     8
 71
     3
 72
     8
 73
     4
 74
     0
 42
0.000000001
 43
0.00000001
 40
0.0
 40
0.0
 40
0.0
 40
0.0
 40
1.0
 40
1.0
 40
1.0
 40
1.0
 10
373.8940269199396
 20
107.633376209888
 30
0.0
 10
373.9969228337635
 20
107.6953448189789
 30
0.0
 10
374.1007625033184
 20
107.7569234711195
 30
0.0
 10
374.205600391545
 20
107.818089662391
 30
0.0
  0
SPLINE
  5
85
330
1F
100
AcDbEntity
  8
0
  6
Continuous
 62
     7
370
    25
100
AcDbSpline
210
0.0
220
0.0
230
1.0
 70
     8
 71
     3
 72
     8
 73
     4
 74
     0
 42
0.000000001
 43
0.00000001
 40
0.0
 40
0.0
 40
0.0
 40
0.0
 40
1.0
 40
1.0
 40
1.0
 40
1.0
 10
373.7054905388258
 20
107.8075660307576
 30
0.0
 10
373.7680588471954
 20
107.74911556165
 30
0.0
 10
373.8309054405592
 20
107.6910515511169
 30
0.0
 10
373.8940269199421
 20
107.6333762098857
 30
0.0
  0
ARC
  5
86
330
1F
100
AcDbEntity
  8
0
  6
Continuous
 62
     7
370
    25
100
AcDbCircle
 10
383.8699599693
 20
102.3550769605
 30
0.0
 40
11.53456006379119
100
AcDbArc
 50
28.2102805322
 51
151.7902347364
  0
SPLINE
  5
87
330
1F
100
AcDbEntity
  8
0
  6
Continuous
 62
     7
370
    25
100
AcDbSpline
210
0.0
220
0.0
230
1.0
 70
     8
 71
     3
 72
     8
 73
     4
 74
     0
 42
0.000000001
 43
0.00000001
 40
0.0
 40
0.0
 40
0.0
 40
0.0
 40
1.0
 40
1.0
 40
1.0
 40
1.0
 10
393.8458930185864
 20
107.633376209886
 30
0.0
 10
393.9090144979691
 20
107.6910515511171
 30
0.0
 10
393.9718610913328
 20
107.7491155616501
 30
0.0
 10
394.0344293997023
 20
107.8075660307576
 30
0.0
  0
SPLINE
  5
88
330
1F
100
AcDbEntity
  8
0
  6
Continuous
 62
     7
370
    25
100
AcDbSpline
210
0.0
220
0.0
230
1.0
 70
     8
 71
     3
 72
     8
 73
     4
 74
     0
 42
0.000000001
 43
0.00000001
 40
0.0
 40
0.0
 40
0.0
 40
0.0
 40
1.0
 40
1.0
 40
1.0
 40
1.0
 10
393.5343195469831
 20
107.818089662391
 30
0.0
 10
393.6391574352093
 20
107.7569234711197
 30
0.0
 10
393.7429971047638
 20
107.6953448189794
 30
0.0
 10
393.8458930185873
 20
107.6333762098887
 30
0.0
  0
LINE
  5
89
330
1F
100
AcDbEntity
  8
0
  6
Continuous
 62
     7
370
    25
100
AcDbLine
 10
373.8940269199
 20
107.6333762099
 30
0.0
 11
374.1024352415
 21
107.3850769605
 31
0.0
  0
LINE
  5
8A
330
1F
100
AcDbEntity
  8
0
  6
Continuous
 62
     7
370
    25
100
AcDbLine
 10
375.3526485518
 20
107.8180896624
 30
0.0
 11
374.2056003915
 21
107.8180896624
 31
0.0
  0
SPLINE
  5
8B
330
1F
100
AcDbEntity
  8
0
  6
Continuous
 62
     7
370
    25
100
AcDbSpline
210
0.0
220
0.0
230
1.0
 70
     8
 71
     3
 72
     8
 73
     4
 74
     0
 42
0.000000001
 43
0.00000001
 40
0.0000004089325119
 40
0.0000004089325119
 40
0.0000004089325119
 40
0.0000004089325119
 40
0.0015399868451459
 40
0.0015399868451459
 40
0.0015399868451459
 40
0.0015399868451459
 10
375.3526485518352
 20
107.818089662391
 30
0.0
 10
375.5644098106296
 20
107.7456347797375
 30
0.0
 10
375.7763301338198
 20
107.673295909709
 30
0.0
 10
375.9884481170341
 20
107.6011023642832
 30
0.0
  0
LINE
  5
8C
330
1F
100
AcDbEntity
  8
0
  6
Continuous
 62
     7
370
    25
100
AcDbLine
 10
375.988448117
 20
107.6011023643
 30
0.0
 11
375.996600923
 21
107.5858899501
 31
0.0
  0
LINE
  5
8D
330
1F
100
AcDbEntity
  8
0
  6
Continuous
 62
     7
370
    25
100
AcDbLine
 10
375.9942304357
 20
107.3850771299
 30
0.0
 11
375.9966019208
 21
107.5858900838
 31
0.0
  0
LINE
  5
8E
330
1F
100
AcDbEntity
  8
0
  6
Continuous
 62
     7
370
    25
100
AcDbLine
 10
375.9942304357
 20
107.3850769605
 30
0.0
 11
374.1024352415
 21
107.3850769605
 31
0.0
  0
SPLINE
  5
8F
330
1F
100
AcDbEntity
  8
0
  6
Continuous
 62
     7
370
    25
100
AcDbSpline
210
0.0
220
0.0
230
1.0
 70
     8
 71
     3
 72
     8
 73
     4
 74
     0
 42
0.000000001
 43
0.00000001
 40
0.0000004028655191
 40
0.0000004028655191
 40
0.0000004028655191
 40
0.0000004028655191
 40
0.0015137684369673
 40
0.0015137684369673
 40
0.0015137684369673
 40
0.0015137684369673
 10
375.4463653121219
 20
98.03280155671435
 30
0.0
 10
375.2396938245707
 20
97.96050761499966
 30
0.0
 10
375.0330748560301
 20
97.88817612904286
 30
0.0
 10
374.8264984812214
 20
97.81581425860657
 30
0.0
  0
LINE
  5
90
330
1F
100
AcDbEntity
  8
0
  6
Continuous
 62
     7
370
    25
100
AcDbLine
 10
374.8264984812
 20
97.8158142586
 30
0.0
 11
373.7388471009
 21
97.8158142586
 31
0.0
  0
LINE
  5
91
330
1F
100
AcDbEntity
  8
0
  6
Continuous
 62
     7
370
    25
100
AcDbLine
 10
373.7038749665
 20
98.2488269605
 30
0.0
 11
373.4808198596
 21
97.9850760885
 31
0.0
  0
LINE
  5
92
330
1F
100
AcDbEntity
  8
0
  6
Continuous
 62
     7
370
    25
100
AcDbLine
 10
375.4714847938
 20
98.2488269605
 30
0.0
 11
373.7040894239
 21
98.2488269605
 31
0.0
  0
LINE
  5
93
330
1F
100
AcDbEntity
  8
0
  6
Continuous
 62
     7
370
    25
100
AcDbLine
 10
375.482142144
 20
98.0912459254
 30
0.0
 11
375.4714847972
 21
98.2488268848
 31
0.0
  0
SPLINE
  5
94
330
1F
100
AcDbEntity
  8
0
  6
Continuous
 62
     7
370
    25
100
AcDbSpline
210
0.0
220
0.0
230
1.0
 70
     8
 71
     3
 72
     8
 73
     4
 74
     0
 42
0.000000001
 43
0.00000001
 40
0.0006523765358269
 40
0.0006523765358269
 40
0.0006523765358269
 40
0.0006523765358269
 40
0.0009043636494504
 40
0.0009043636494504
 40
0.0009043636494504
 40
0.0009043636494504
 10
375.4832421871569
 20
98.09303965416298
 30
0.0
 10
375.4709251926394
 20
98.07296407318081
 30
0.0
 10
375.4586329952353
 20
98.05288468465834
 30
0.0
 10
375.4463653121219
 20
98.03280155671435
 30
0.0
  0
LINE
  5
95
330
1F
100
AcDbEntity
  8
0
  6
Continuous
 62
     7
370
    25
100
AcDbLine
 10
394.2591000789
 20
97.9850760885
 30
0.0
 11
394.036044972
 21
98.2488269605
 31
0.0
  0
LINE
  5
96
330
1F
100
AcDbEntity
  8
0
  6
Continuous
 62
     7
370
    25
100
AcDbLine
 10
394.0010728376
 20
97.8158142586
 30
0.0
 11
392.9134214573
 21
97.8158142586
 31
0.0
  0
SPLINE
  5
97
330
1F
100
AcDbEntity
  8
0
  6
Continuous
 62
     7
370
    25
100
AcDbSpline
210
0.0
220
0.0
230
1.0
 70
     8
 71
     3
 72
     8
 73
     4
 74
     0
 42
0.000000001
 43
0.00000001
 40
0.0000004024872366
 40
0.0000004024872366
 40
0.0000004024872366
 40
0.0000004024872366
 40
0.0015137680586847
 40
0.0015137680586847
 40
0.0015137680586847
 40
0.0015137680586847
 10
392.9134214573067
 20
97.81581425860657
 30
0.0
 10
392.706845082498
 20
97.88817612904286
 30
0.0
 10
392.5002261139574
 20
97.96050761499966
 30
0.0
 10
392.2935546264061
 20
98.03280155671435
 30
0.0
  0
SPLINE
  5
98
330
1F
100
AcDbEntity
  8
0
  6
Continuous
 62
     7
370
    25
100
AcDbSpline
210
0.0
220
0.0
230
1.0
 70
     8
 71
     3
 72
     8
 73
     4
 74
     0
 42
0.000000001
 43
0.00000001
 40
0.0000002414707367
 40
0.0000002414707367
 40
0.0000002414707367
 40
0.0000002414707367
 40
0.0002447240690309
 40
0.0002447240690309
 40
0.0002447240690309
 40
0.0002447240690309
 10
392.2935546264061
 20
98.03280155671435
 30
0.0
 10
392.281652291051
 20
98.05228658266093
 30
0.0
 10
392.2697268798393
 20
98.07176808848527
 30
0.0
 10
392.2577781345444
 20
98.09124601199714
 30
0.0
  0
LINE
  5
99
330
1F
100
AcDbEntity
  8
0
  6
Continuous
 62
     7
370
    25
100
AcDbLine
 10
392.2684351269
 20
98.2488268848
 30
0.0
 11
392.2577777752
 21
98.0912459569
 31
0.0
  0
LINE
  5
9A
330
1F
100
AcDbEntity
  8
0
  6
Continuous
 62
     7
370
    25
100
AcDbLine
 10
394.036044972
 20
98.2488269605
 30
0.0
 11
392.2633265356
 21
98.2488269605
 31
0.0
  0
SPLINE
  5
9B
330
1F
100
AcDbEntity
  8
0
  6
Continuous
 62
     7
370
    25
100
AcDbSpline
210
0.0
220
0.0
230
1.0
 70
     8
 71
     3
 72
     8
 73
     4
 74
     0
 42
0.000000001
 43
0.00000001
 40
0.000000410413179
 40
0.000000410413179
 40
0.000000410413179
 40
0.000000410413179
 40
0.0015399883258131
 40
0.0015399883258131
 40
0.0015399883258131
 40
0.0015399883258131
 10
391.751471821494
 20
107.6011023642832
 30
0.0
 10
391.9635898047083
 20
107.673295909709
 30
0.0
 10
392.1755101278985
 20
107.7456347797375
 30
0.0
 10
392.3872713866929
 20
107.818089662391
 30
0.0
  0
LINE
  5
9C
330
1F
100
AcDbEntity
  8
0
  6
Continuous
 62
     7
370
    25
100
AcDbLine
 10
393.534319547
 20
107.8180896624
 30
0.0
 11
392.3872713867
 21
107.8180896624
 31
0.0
  0
LINE
  5
9D
330
1F
100
AcDbEntity
  8
0
  6
Continuous
 62
     7
370
    25
100
AcDbLine
 10
393.6374846971
 20
107.3850769605
 30
0.0
 11
393.8458930186
 21
107.6333762099
 31
0.0
  0
LINE
  5
9E
330
1F
100
AcDbEntity
  8
0
  6
Continuous
 62
     7
370
    25
100
AcDbLine
 10
393.6372946414
 20
107.3850769605
 30
0.0
 11
391.7456897035
 21
107.3850769605
 31
0.0
  0
LINE
  5
9F
330
1F
100
AcDbEntity
  8
0
  6
Continuous
 62
     7
370
    25
100
AcDbLine
 10
391.7433179166
 20
107.5858898952
 30
0.0
 11
391.7456894268
 21
107.3850771299
 31
0.0
  0
LINE
  5
A0
330
1F
100
AcDbEntity
  8
0
  6
Continuous
 62
     7
370
    25
100
AcDbLine
 10
391.7433189144
 20
107.5858897615
 30
0.0
 11
391.7514718215
 21
107.6011023643
 31
0.0
  0
ARC
  5
A1
330
1F
100
AcDbEntity
  8
0
  6
Continuous
 62
     7
370
    25
100
AcDbCircle
 10
383.8699599693
 20
102.3550769605
 30
0.0
 40
10.11875000000005
100
AcDbArc
 50
206.6538426687
 51
333.3461573313
  0
ARC
  5
A2
330
1F
100
AcDbEntity
  8
0
  6
Continuous
 62
     7
370
    25
100
AcDbCircle
 10
383.8699599693
 20
102.3550769605
 30
0.0
 40
10.11875000000003
100
AcDbArc
 50
32.6761561262
 51
147.3238438738
  0
ARC
  5
A3
330
1F
100
AcDbEntity
  8
0
  6
Continuous
 62
     7
370
    25
100
AcDbCircle
 10
383.8699599693
 20
102.3550769605
 30
0.0
 40
9.467788105676684
100
AcDbArc
 50
33.6481949792
 51
146.3518050208
  0
ARC
  5
A4
330
1F
100
AcDbEntity
  8
0
  6
Continuous
 62
     7
370
    25
100
AcDbCircle
 10
383.8699599693
 20
102.3550769605
 30
0.0
 40
9.467788105676709
100
AcDbArc
 50
207.1630537883
 51
332.8369462117
  0
SPLINE
  5
A5
330
1F
100
AcDbEntity
  8
0
  6
Continuous
 62
     7
370
    25
100
AcDbSpline
210
0.0
220
0.0
230
1.0
 70
     8
 71
     3
 72
     8
 73
     4
 74
     0
 42
0.000000001
 43
0.00000001
 40
0.0
 40
0.0
 40
0.0
 40
0.0
 40
1.0
 40
1.0
 40
1.0
 40
1.0
 10
373.2755338541336
 20
97.79391360492208
 30
0.0
 10
373.2222910291919
 20
97.79443733115993
 30
0.0
 10
373.1689957435762
 20
97.79523542442232
 30
0.0
 10
373.1156502380867
 20
97.79630847234712
 30
0.0
  0
LINE
  5
A6
330
1F
100
AcDbEntity
  8
0
  6
Continuous
 62
     7
370
    25
100
AcDbLine
 10
373.5437378362
 20
98.2488269605
 30
0.0
 11
373.7038749665
 21
98.2488269605
 31
0.0
  0
LINE
  5
A7
330
1F
100
AcDbEntity
  8
0
  6
Continuous
 62
     7
370
    25
100
AcDbLine
 10
394.036044972
 20
98.2488269605
 30
0.0
 11
394.1961821023
 21
98.2488269605
 31
0.0
  0
SPLINE
  5
A8
330
1F
100
AcDbEntity
  8
0
  6
Continuous
 62
     7
370
    25
100
AcDbSpline
210
0.0
220
0.0
230
1.0
 70
     8
 71
     3
 72
     8
 73
     4
 74
     0
 42
0.000000001
 43
0.00000001
 40
0.0
 40
0.0
 40
0.0
 40
0.0
 40
1.0
 40
1.0
 40
1.0
 40
1.0
 10
394.6242697004413
 20
97.79630847234712
 30
0.0
 10
394.5709241949518
 20
97.79523542442232
 30
0.0
 10
394.5176289093362
 20
97.79443733115993
 30
0.0
 10
394.4643860843945
 20
97.79391360492208
 30
0.0
  0
LINE
  5
A9
330
1F
100
AcDbEntity
  8
0
  6
Continuous
 62
     7
370
    25
100
AcDbLine
 10
374.1024352415
 20
107.3850769605
 30
0.0
 11
373.9790182577
 21
107.3850769605
 31
0.0
  0
SPLINE
  5
AA
330
1F
100
AcDbEntity
  8
0
  6
Continuous
 62
     7
370
    25
100
AcDbSpline
210
0.0
220
0.0
230
1.0
 70
     8
 71
     3
 72
     8
 73
     4
 74
     0
 42
0.000000001
 43
0.00000001
 40
0.0
 40
0.0
 40
0.0
 40
0.0
 40
1.0
 40
1.0
 40
1.0
 40
1.0
 10
373.5822690445842
 20
107.8055224774351
 30
0.0
 10
373.6233844716261
 20
107.8063914150751
 30
0.0
 10
373.6644587662371
 20
107.807072452658
 30
0.0
 10
373.7054905387263
 20
107.8075660307194
 30
0.0
  0
SPLINE
  5
AB
330
1F
100
AcDbEntity
  8
0
  6
Continuous
 62
     7
370
    25
100
AcDbSpline
210
0.0
220
0.0
230
1.0
 70
     8
 71
     3
 72
     8
 73
     4
 74
     0
 42
0.000000001
 43
0.00000001
 40
0.0
 40
0.0
 40
0.0
 40
0.0
 40
1.0
 40
1.0
 40
1.0
 40
1.0
 10
394.0344293998018
 20
107.8075660307195
 30
0.0
 10
394.0754611722909
 20
107.807072452658
 30
0.0
 10
394.116535466902
 20
107.8063914150751
 30
0.0
 10
394.1576508939438
 20
107.8055224774352
 30
0.0
  0
LINE
  5
AC
330
1F
100
AcDbEntity
  8
0
  6
Continuous
 62
     7
370
    25
100
AcDbLine
 10
393.7609016808
 20
107.3850769605
 30
0.0
 11
393.6374846971
 21
107.3850769605
 31
0.0
  0
SPLINE
  5
AD
330
1F
100
AcDbEntity
  8
0
  6
Continuous
 62
     7
370
    25
100
AcDbSpline
210
0.0
220
0.0
230
1.0
 70
     8
 71
     3
 72
     9
 73
     5
 74
     0
 42
0.000000001
 43
0.00000001
 40
0.0
 40
0.0
 40
0.0
 40
0.0
 40
0.4897878789203994
 40
0.9999999999999999
 40
0.9999999999999999
 40
0.9999999999999999
 40
0.9999999999999999
 10
390.9755495339155
 20
107.5781938267365
 30
0.0
 10
391.1019046161367
 20
107.5795125524898
 30
0.0
 10
391.3598838101088
 20
107.5822049950961
 30
0.0
 10
391.6137785583983
 20
107.5846450729321
 30
0.0
 10
391.743318736454
 20
107.5858900302204
 30
0.0
  0
ARC
  5
AE
330
1F
100
AcDbEntity
  8
0
  6
Continuous
 62
     7
370
    25
100
AcDbCircle
 10
383.8699599693
 20
102.3550769605
 30
0.0
 40
8.818750000000046
100
AcDbArc
 50
36.3185452201
 51
143.6814533294
  0
SPLINE
  5
AF
330
1F
100
AcDbEntity
  8
0
  6
Continuous
 62
     7
370
    25
100
AcDbSpline
210
0.0
220
0.0
230
1.0
 70
     8
 71
     3
 72
     9
 73
     5
 74
     0
 42
0.000000001
 43
0.00000001
 40
0.0
 40
0.0
 40
0.0
 40
0.0
 40
0.5102121239851395
 40
0.9999999999999999
 40
0.9999999999999999
 40
0.9999999999999999
 40
0.9999999999999999
 10
375.9966011009493
 20
107.5858902188247
 30
0.0
 10
376.1261413188001
 20
107.5846452601339
 30
0.0
 10
376.3800361436409
 20
107.5822051795628
 30
0.0
 10
376.6380154166506
 20
107.5795127338696
 30
0.0
 10
376.764370536834
 20
107.5781940066123
 30
0.0
  0
SPLINE
  5
B0
330
1F
100
AcDbEntity
  8
0
  6
Continuous
 62
     7
370
    25
100
AcDbSpline
210
0.0
220
0.0
230
1.0
 70
     8
 71
     3
 72
     8
 73
     4
 74
     0
 42
0.000000001
 43
0.00000001
 40
0.0
 40
0.0
 40
0.0
 40
0.0
 40
1.0
 40
1.0
 40
1.0
 40
1.0
 10
376.7643702831593
 20
107.5781935373351
 30
0.0
 10
376.7566092252139
 20
107.567635302136
 30
0.0
 10
376.748871700118
 20
107.5570597686097
 30
0.0
 10
376.7411577847485
 20
107.5464670418303
 30
0.0
  0
SPLINE
  5
B1
330
1F
100
AcDbEntity
  8
0
  6
Continuous
 62
     7
370
    25
100
AcDbSpline
210
0.0
220
0.0
230
1.0
 70
     8
 71
     3
 72
     8
 73
     4
 74
     0
 42
0.000000001
 43
0.00000001
 40
0.0
 40
0.0
 40
0.0
 40
0.0
 40
1.0
 40
1.0
 40
1.0
 40
1.0
 10
376.5695999519855
 20
107.3850772993671
 30
0.0
 10
376.6268603590199
 20
107.4389854763548
 30
0.0
 10
376.6840467501296
 20
107.4927824014379
 30
0.0
 10
376.7411577847485
 20
107.5464670418303
 30
0.0
  0
LINE
  5
B2
330
1F
100
AcDbEntity
  8
0
  6
Continuous
 62
     7
370
    25
100
AcDbLine
 10
376.5696006518
 20
107.3850769605
 30
0.0
 11
375.994230159
 21
107.3850769605
 31
0.0
  0
SPLINE
  5
B3
330
1F
100
AcDbEntity
  8
0
  6
Continuous
 62
     7
370
    25
100
AcDbSpline
210
0.0
220
0.0
230
1.0
 70
     8
 71
     3
 72
     8
 73
     4
 74
     0
 42
0.000000001
 43
0.00000001
 40
0.0
 40
0.0
 40
0.0
 40
0.0
 40
1.0
 40
1.0
 40
1.0
 40
1.0
 10
390.9988775855606
 20
107.5463085275314
 30
0.0
 10
390.99112547286
 20
107.556954204204
 30
0.0
 10
390.9833495141927
 20
107.5675825163982
 30
0.0
 10
390.9755497875894
 20
107.5781933574606
 30
0.0
  0
LINE
  5
B4
330
1F
100
AcDbEntity
  8
0
  6
Continuous
 62
     7
370
    25
100
AcDbLine
 10
391.7456897035
 20
107.3850769605
 30
0.0
 11
391.170290687
 21
107.3850769605
 31
0.0
  0
SPLINE
  5
B5
330
1F
100
AcDbEntity
  8
0
  6
Continuous
 62
     7
370
    25
100
AcDbSpline
210
0.0
220
0.0
230
1.0
 70
     8
 71
     3
 72
     8
 73
     4
 74
     0
 42
0.000000001
 43
0.00000001
 40
0.0
 40
0.0
 40
0.0
 40
0.0
 40
1.0
 40
1.0
 40
1.0
 40
1.0
 10
390.9988775855606
 20
107.5463085275314
 30
0.0
 10
391.0559407132467
 20
107.4926765771156
 30
0.0
 10
391.113079092977
 20
107.4389324907507
 30
0.0
 10
391.1702913864508
 20
107.3850772995005
 30
0.0
  0
ARC
  5
B6
330
1F
100
AcDbEntity
  8
0
  6
Continuous
 62
     7
370
    25
100
AcDbCircle
 10
383.8699599693
 20
102.3550769605
 30
0.0
 40
8.818749999999996
100
AcDbArc
 50
209.2047569376
 51
330.7952430624
  0
SPLINE
  5
B7
330
1F
100
AcDbEntity
  8
0
  6
Continuous
 62
     7
370
    25
100
AcDbSpline
210
0.0
220
0.0
230
1.0
 70
    24
 71
     3
 72
     8
 73
     4
 74
     0
 42
0.000000001
 43
0.00000001
 40
0.0
 40
0.0
 40
0.0
 40
0.0
 40
0.000136040218399
 40
0.000136040218399
 40
0.000136040218399
 40
0.000136040218399
 10
391.6110953661083
 20
98.0955365296476
 30
0.0
 10
391.5966563664243
 20
98.08109752996353
 30
0.0
 10
391.5821859140619
 20
98.06662707760127
 30
0.0
 10
391.5676843155105
 20
98.05212547904982
 30
0.0
  0
SPLINE
  5
B8
330
1F
100
AcDbEntity
  8
0
  6
Continuous
 62
     7
370
    25
100
AcDbSpline
210
0.0
220
0.0
230
1.0
 70
     8
 71
     3
 72
     9
 73
     5
 74
     0
 42
0.000000001
 43
0.00000001
 40
0.0
 40
0.0
 40
0.0
 40
0.0
 40
0.5086448740973026
 40
1.0
 40
1.0
 40
1.0
 40
1.0
 10
392.2577780948646
 20
98.09124592386247
 30
0.0
 10
392.1486120458667
 20
98.09193977270749
 30
0.0
 10
391.933990696951
 20
98.09330388523537
 30
0.0
 10
391.7174793842736
 20
98.09480070517324
 30
0.0
 10
391.6110954409737
 20
98.09553617532225
 30
0.0
  0
SPLINE
  5
B9
330
1F
100
AcDbEntity
  8
0
  6
Continuous
 62
     7
370
    25
100
AcDbSpline
210
0.0
220
0.0
230
1.0
 70
     8
 71
     3
 72
     9
 73
     5
 74
     0
 42
0.000000001
 43
0.00000001
 40
0.0
 40
0.0
 40
0.0
 40
0.0
 40
0.4913551252639757
 40
1.0
 40
1.0
 40
1.0
 40
1.0
 10
376.1288245280189
 20
98.09553614485765
 30
0.0
 10
376.0224405766269
 20
98.09480067452883
 30
0.0
 10
375.8059292471991
 20
98.09330385422311
 30
0.0
 10
375.5913078818324
 20
98.0919397413688
 30
0.0
 10
375.4821418243297
 20
98.0912458923569
 30
0.0
  0
SPLINE
  5
BA
330
1F
100
AcDbEntity
  8
0
  6
Continuous
 62
     7
370
    25
100
AcDbSpline
210
0.0
220
0.0
230
1.0
 70
    24
 71
     3
 72
     8
 73
     4
 74
     0
 42
0.000000001
 43
0.00000001
 40
0.0
 40
0.0
 40
0.0
 40
0.0
 40
0.0001360401227241
 40
0.0001360401227241
 40
0.0001360401227241
 40
0.0001360401227241
 10
376.1722356230176
 20
98.05212547904982
 30
0.0
 10
376.1577340346648
 20
98.06662706740252
 30
0.0
 10
376.1432635924576
 20
98.08109750960975
 30
0.0
 10
376.1288246028842
 20
98.09553649918313
 30
0.0
  0
LINE
  5
BB
330
1F
100
AcDbEntity
  8
0
  6
Continuous
 62
     7
370
    25
100
AcDbLine
 10
375.4714846752
 20
98.2488269605
 30
0.0
 11
375.9755345473
 21
98.2488269605
 31
0.0
  0
SPLINE
  5
BC
330
1F
100
AcDbEntity
  8
0
  6
Continuous
 62
     7
370
    25
100
AcDbSpline
210
0.0
220
0.0
230
1.0
 70
     8
 71
     3
 72
     8
 73
     4
 74
     0
 42
0.000000001
 43
0.00000001
 40
0.0
 40
0.0
 40
0.0
 40
0.0
 40
1.0
 40
1.0
 40
1.0
 40
1.0
 10
376.1288248027162
 20
98.09553629959599
 30
0.0
 10
376.0777560401118
 20
98.14657879134005
 30
0.0
 10
376.0266590804758
 20
98.19767576336601
 30
0.0
 10
375.9755342389601
 20
98.24882686310721
 30
0.0
  0
SPLINE
  5
BD
330
1F
100
AcDbEntity
  8
0
  6
Continuous
 62
     7
370
    25
100
AcDbSpline
210
0.0
220
0.0
230
1.0
 70
     8
 71
     3
 72
     8
 73
     4
 74
     0
 42
0.000000001
 43
0.00000001
 40
0.0
 40
0.0
 40
0.0
 40
0.0
 40
1.0
 40
1.0
 40
1.0
 40
1.0
 10
391.764385699568
 20
98.24882686310728
 30
0.0
 10
391.7132608682228
 20
98.19767577355198
 30
0.0
 10
391.6621639187417
 20
98.14657881168098
 30
0.0
 10
391.6110951662764
 20
98.09553633006054
 30
0.0
  0
LINE
  5
BE
330
1F
100
AcDbEntity
  8
0
  6
Continuous
 62
     7
370
    25
100
AcDbLine
 10
391.7643853912
 20
98.2488269605
 30
0.0
 11
392.2684352489
 21
98.2488269605
 31
0.0
  0
CIRCLE
  5
BF
330
1F
100
AcDbEntity
  8
0
  6
Continuous
 62
     7
370
    25
100
AcDbCircle
 10
383.8699599693
 20
102.3550769605
 30
0.0
 40
12.47086902276413
  0
SPLINE
  5
C0
330
1F
100
AcDbEntity
  8
0
  6
Continuous
 62
     7
370
    25
100
AcDbSpline
210
0.0
220
0.0
230
1.0
 70
     8
 71
     3
 72
    23
 73
    19
 74
     0
 42
0.000000001
 43
0.00000001
 40
0.0
 40
0.0
 40
0.0
 40
0.0
 40
0.0521036415675031
 40
0.1035646240925967
 40
0.1544751946736949
 40
0.2049306267473421
 40
0.2550287880844035
 40
0.3048696389141012
 40
0.3545546704609132
 40
0.4041862979523234
 40
0.4538672252126086
 40
0.5036997999421611
 40
0.5901870230746071
 40
0.674271637822954
 40
0.7565997087222995
 40
0.8378563983721267
 40
0.9187511781367398
 40
1.0
 40
1.0
 40
1.0
 40
1.0
 10
373.0307078226065
 20
106.8454876732487
 30
0.0
 10
373.0440021775563
 20
106.8746555664102
 30
0.0
 10
373.0704269116345
 20
106.9326315888142
 30
0.0
 10
373.1096379178583
 20
107.0155308898262
 30
0.0
 10
373.148079872664
 20
107.0947128708438
 30
0.0
 10
373.1856674541306
 20
107.1699676876457
 30
0.0
 10
373.2223233404382
 20
107.2413873419035
 30
0.0
 10
373.2579732044968
 20
107.3089839506851
 30
0.0
 10
373.292546951258
 20
107.3727902721496
 30
0.0
 10
373.325978645214
 20
107.4328338142187
 30
0.0
 10
373.358205522439
 20
107.4891405109454
 30
0.0
 10
373.3967069593286
 20
107.5545454927691
 30
0.0
 10
373.4393684400421
 20
107.6241065706052
 30
0.0
 10
373.4828614821651
 20
107.6908660672697
 30
0.0
 10
373.5192739789931
 20
107.7425901153675
 30
0.0
 10
373.5481747854703
 20
107.7790384274193
 30
0.0
 10
373.5700922415685
 20
107.8016358243025
 30
0.0
 10
373.5782042060618
 20
107.8042250418639
 30
0.0
 10
373.5822690445843
 20
107.8055224774351
 30
0.0
  0
SPLINE
  5
C1
330
1F
100
AcDbEntity
  8
0
  6
Continuous
 62
     7
370
    25
100
AcDbSpline
210
0.0
220
0.0
230
1.0
 70
     8
 71
     3
 72
     8
 73
     4
 74
     0
 42
0.000000001
 43
0.00000001
 40
0.0
 40
0.0
 40
0.0
 40
0.0
 40
1.0
 40
1.0
 40
1.0
 40
1.0
 10
372.9100698827438
 20
106.8432773158389
 30
0.0
 10
372.9502588963368
 20
106.8440076260564
 30
0.0
 10
372.9904211984268
 20
106.8445881518859
 30
0.0
 10
373.0305559089023
 20
106.8450191168356
 30
0.0
  0
SPLINE
  5
C2
330
1F
100
AcDbEntity
  8
0
  6
Continuous
 62
     7
370
    25
100
AcDbSpline
210
0.0
220
0.0
230
1.0
 70
     8
 71
     3
 72
    18
 73
    14
 74
     0
 42
0.000000001
 43
0.00000001
 40
0.0
 40
0.0
 40
0.0
 40
0.0
 40
0.0923824559411628
 40
0.1844689291573508
 40
0.2764953615950219
 40
0.3686975365494161
 40
0.4613092840003458
 40
0.5545607518442569
 40
0.6486768051537182
 40
0.7438756050146744
 40
0.8403674044302629
 40
0.9203921078121001
 40
1.0
 40
1.0
 40
1.0
 40
1.0
 10
372.9630088715432
 20
107.1100943227207
 30
0.0
 10
372.9648445251959
 20
107.1098860105055
 30
0.0
 10
372.9685099512789
 20
107.1094700534833
 30
0.0
 10
372.971305280898
 20
107.1026656300172
 30
0.0
 10
372.9721075759766
 20
107.091332251365
 30
0.0
 10
372.9707414389333
 20
107.0750318563385
 30
0.0
 10
372.9672798903045
 20
107.0538806175026
 30
0.0
 10
372.961738584535
 20
107.0278449163861
 30
0.0
 10
372.9541541164661
 20
106.9969205367349
 30
0.0
 10
372.9445771145293
 20
106.9611215052902
 30
0.0
 10
372.9337366385105
 20
106.9228705977591
 30
0.0
 10
372.9222479975716
 20
106.8836523843647
 30
0.0
 10
372.9141480126934
 20
106.8567974075152
 30
0.0
 10
372.9101085950508
 20
106.8434049791449
 30
0.0
  0
LINE
  5
C3
330
1F
100
AcDbEntity
  8
0
  6
Continuous
 62
     7
370
    25
100
AcDbLine
 10
372.9102535123
 20
107.1093466053
 30
0.0
 11
372.9630088715
 21
107.1100943227
 31
0.0
  0
SPLINE
  5
C4
330
1F
100
AcDbEntity
  8
0
  6
Continuous
 62
     7
370
    25
100
AcDbSpline
210
0.0
220
0.0
230
1.0
 70
     8
 71
     3
 72
    25
 73
    21
 74
     0
 42
0.000000001
 43
0.00000001
 40
0.0
 40
0.0
 40
0.0
 40
0.0
 40
0.0280105225426465
 40
0.0559601148860768
 40
0.0839014045043132
 40
0.1118870776786367
 40
0.1399695827588937
 40
0.1682008401739883
 40
0.196631967042422
 40
0.2253130233141467
 40
0.2542927850735845
 40
0.3799486436587335
 40
0.5057850221667067
 40
0.6313085886338298
 40
0.7532068238012468
 40
0.8039473267955921
 40
0.8535894438554446
 40
0.9025339722394071
 40
0.9511970353791085
 40
1.0
 40
1.0
 40
1.0
 40
1.0
 10
371.9992921044903
 20
104.5424147030331
 30
0.0
 10
372.0062711744013
 20
104.5797247165399
 30
0.0
 10
372.0202141329241
 20
104.6542635845335
 30
0.0
 10
372.042736030367
 20
104.7655726300167
 30
0.0
 10
372.0663696424645
 20
104.8762348390311
 30
0.0
 10
372.0912192329526
 20
104.9862189719754
 30
0.0
 10
372.1172378574389
 20
105.0955141155899
 30
0.0
 10
372.1444192387568
 20
105.2041050847921
 30
0.0
 10
372.1727448800892
 20
105.3119757947345
 30
0.0
 10
372.2022036609218
 20
105.4191207404595
 30
0.0
 10
372.2666119488339
 20
105.6432956269714
 30
0.0
 10
372.3717136409057
 20
105.9699610410074
 30
0.0
 10
372.5171764017019
 20
106.3559076463273
 30
0.0
 10
372.6564398098117
 20
106.6779874590174
 30
0.0
 10
372.7535881626793
 20
106.8738080430491
 30
0.0
 10
372.8138835689055
 20
106.9831554935325
 30
0.0
 10
372.8487721517868
 20
107.0410835179478
 30
0.0
 10
372.8766666537147
 20
107.0815374707128
 30
0.0
 10
372.8980317460862
 20
107.1061516861118
 30
0.0
 10
372.9061756936589
 20
107.1082806136194
 30
0.0
 10
372.910253512304
 20
107.1093466052908
 30
0.0
  0
ARC
  5
C5
330
1F
100
AcDbEntity
  8
0
  6
Continuous
 62
     7
370
    25
100
AcDbCircle
 10
383.8699599693
 20
102.3550769605
 30
0.0
 40
12.07050959801142
100
AcDbArc
 50
169.5595567507
 51
190.4404432494
  0
SPLINE
  5
C6
330
1F
100
AcDbEntity
  8
0
  6
Continuous
 62
     7
370
    25
100
AcDbSpline
210
0.0
220
0.0
230
1.0
 70
     8
 71
     3
 72
    26
 73
    22
 74
     0
 42
0.000000001
 43
0.00000001
 40
0.0
 40
0.0
 40
0.0
 40
0.0
 40
0.0241259796963635
 40
0.0482159912272988
 40
0.0723203915124065
 40
0.0964895678710797
 40
0.1207736231963513
 40
0.1452220711242836
 40
0.1698835501657706
 40
0.1948055644472379
 40
0.2200342569517627
 40
0.2456142191611387
 40
0.3690971486901655
 40
0.4940698769485187
 40
0.6192566784762451
 40
0.7454656653603225
 40
0.7971495824713707
 40
0.8481710308405392
 40
0.8988013269235234
 40
0.9493179290492194
 40
1.0
 40
1.0
 40
1.0
 40
1.0
 10
372.910253512304
 20
97.60080731570672
 30
0.0
 10
372.9083431975636
 20
97.60109420889614
 30
0.0
 10
372.9045254160714
 20
97.6016675675609
 30
0.0
 10
372.8965652908905
 20
97.60772625580732
 30
0.0
 10
372.886986190315
 20
97.61760551653816
 30
0.0
 10
372.8756389834463
 20
97.63168660764856
 30
0.0
 10
372.8625828001524
 20
97.64988215567273
 30
0.0
 10
372.8478268969251
 20
97.67223269841142
 30
0.0
 10
372.8313997166277
 20
97.69874693410347
 30
0.0
 10
372.8133315619075
 20
97.72944244481677
 30
0.0
 10
372.7936544154845
 20
97.76434354805667
 30
0.0
 10
372.7454550340562
 20
97.85310808316439
 30
0.0
 10
372.6571369946209
 20
98.03038838461323
 30
0.0
 10
372.5180773778541
 20
98.35147429145833
 30
0.0
 10
372.372404697992
 20
98.73805694334881
 30
0.0
 10
372.2586661029825
 20
99.09176464747877
 30
0.0
 10
372.1789604844359
 20
99.37401834709154
 30
0.0
 10
372.1283109120816
 20
99.56846177786583
 30
0.0
 10
372.0813442422163
 20
99.76570315479995
 30
0.0
 10
372.0377844202119
 20
99.96560619989508
 30
0.0
 10
372.0121368550804
 20
100.1002881396273
 30
0.0
 10
371.9992921044903
 20
100.1677392179645
 30
0.0
  0
LINE
  5
C7
330
1F
100
AcDbEntity
  8
0
  6
Continuous
 62
     7
370
    25
100
AcDbLine
 10
372.9630088715
 20
97.6000595983
 30
0.0
 11
372.9102535123
 21
97.6008073157
 31
0.0
  0
SPLINE
  5
C8
330
1F
100
AcDbEntity
  8
0
  6
Continuous
 62
     7
370
    25
100
AcDbSpline
210
0.0
220
0.0
230
1.0
 70
     8
 71
     3
 72
    14
 73
    10
 74
     0
 42
0.000000001
 43
0.00000001
 40
0.0
 40
0.0
 40
0.0
 40
0.0
 40
0.0789261963172865
 40
0.158232872055133
 40
0.330847539457262
 40
0.5000195457610529
 40
0.6670357883572423
 40
0.8332395193657144
 40
1.0
 40
1.0
 40
1.0
 40
1.0
 10
372.9100120146913
 20
97.86708307558152
 30
0.0
 10
372.9140265612874
 20
97.85377995094386
 30
0.0
 10
372.9220750073995
 20
97.82710957131142
 30
0.0
 10
372.936975714209
 20
97.77629483199162
 30
0.0
 10
372.9528726958056
 20
97.71925501580469
 30
0.0
 10
372.9659511908033
 20
97.66495179907675
 30
0.0
 10
372.9721837979206
 20
97.62678465635393
 30
0.0
 10
372.9719942180837
 20
97.60337592767705
 30
0.0
 10
372.9660073239529
 20
97.60116627299847
 30
0.0
 10
372.9630088715432
 20
97.60005959827683
 30
0.0
  0
SPLINE
  5
C9
330
1F
100
AcDbEntity
  8
0
  6
Continuous
 62
     7
370
    25
100
AcDbSpline
210
0.0
220
0.0
230
1.0
 70
     8
 71
     3
 72
     8
 73
     4
 74
     0
 42
0.000000001
 43
0.00000001
 40
0.0
 40
0.0
 40
0.0
 40
0.0
 40
1.0
 40
1.0
 40
1.0
 40
1.0
 10
373.0573167059158
 20
97.86502199713105
 30
0.0
 10
373.0082487908871
 20
97.86550905034301
 30
0.0
 10
372.9591393533663
 20
97.86622011821785
 30
0.0
 10
372.909990008841
 20
97.86715561145218
 30
0.0
  0
SPLINE
  5
CA
330
1F
100
AcDbEntity
  8
0
  6
Continuous
 62
     7
370
    25
100
AcDbSpline
210
0.0
220
0.0
230
1.0
 70
     8
 71
     3
 72
    13
 73
     9
 74
     0
 42
0.000000001
 43
0.00000001
 40
0.0
 40
0.0
 40
0.0
 40
0.0
 40
0.1667030582307992
 40
0.3329480818053035
 40
0.4990671507274896
 40
0.6653938523718403
 40
0.832261271055009
 40
1.0
 40
1.0
 40
1.0
 40
1.0
 10
373.1156502380867
 20
97.79630847234712
 30
0.0
 10
373.1138069242499
 20
97.79672558211288
 30
0.0
 10
373.11012536128
 20
97.79755865559028
 30
0.0
 10
373.1026081074855
 20
97.8035731344167
 30
0.0
 10
373.093657303369
 20
97.81306786670888
 30
0.0
 10
373.0831070149461
 20
97.82647747381853
 30
0.0
 10
373.0711338294289
 20
97.84339537744212
 30
0.0
 10
373.0619274218226
 20
97.85780811258155
 30
0.0
 10
373.0573122313338
 20
97.86503324544312
 30
0.0
  0
SPLINE
  5
CB
330
1F
100
AcDbEntity
  8
0
  6
Continuous
 62
     7
370
    25
100
AcDbSpline
210
0.0
220
0.0
230
1.0
 70
     8
 71
     3
 72
    13
 73
     9
 74
     0
 42
0.000000001
 43
0.00000001
 40
0.0
 40
0.0
 40
0.0
 40
0.0
 40
0.1686319999748085
 40
0.3360343310905433
 40
0.502536782590866
 40
0.6684737453788339
 40
0.834182263691515
 40
1.0
 40
1.0
 40
1.0
 40
1.0
 10
394.6826090883123
 20
97.86503669525594
 30
0.0
 10
394.6779718432142
 20
97.85777953523652
 30
0.0
 10
394.6687311679277
 20
97.84331813459424
 30
0.0
 10
394.6567157945606
 20
97.8263374378901
 30
0.0
 10
394.6461502408061
 20
97.81290465671061
 30
0.0
 10
394.6372108915131
 20
97.80342518815664
 30
0.0
 10
394.6297300109246
 20
97.7974599624588
 30
0.0
 10
394.626090203635
 20
97.7966923866744
 30
0.0
 10
394.6242697004413
 20
97.79630847234712
 30
0.0
  0
SPLINE
  5
CC
330
1F
100
AcDbEntity
  8
0
  6
Continuous
 62
     7
370
    25
100
AcDbSpline
210
0.0
220
0.0
230
1.0
 70
     8
 71
     3
 72
     8
 73
     4
 74
     0
 42
0.000000001
 43
0.00000001
 40
0.0
 40
0.0
 40
0.0
 40
0.0
 40
1.0
 40
1.0
 40
1.0
 40
1.0
 10
394.8299347002848
 20
97.86715571619865
 30
0.0
 10
394.7807837706765
 20
97.86622018593665
 30
0.0
 10
394.7316727505972
 20
97.8655090954246
 30
0.0
 10
394.6826032556895
 20
97.8650220339266
 30
0.0
  0
SPLINE
  5
CD
330
1F
100
AcDbEntity
  8
0
  6
Continuous
 62
     7
370
    25
100
AcDbSpline
210
0.0
220
0.0
230
1.0
 70
     8
 71
     3
 72
    18
 73
    14
 74
     0
 42
0.000000001
 43
0.00000001
 40
0.0
 40
0.0
 40
0.0
 40
0.0
 40
0.0923325137111192
 40
0.1843692047063016
 40
0.2763458873810836
 40
0.3684982175655623
 40
0.4610598988303626
 40
0.554260954653301
 40
0.6483261285442131
 40
0.74347346365053
 40
0.8399130993119804
 40
0.9201660718299768
 40
1.0
 40
1.0
 40
1.0
 40
1.0
 10
394.7769110669849
 20
97.60005959827683
 30
0.0
 10
394.7750754133324
 20
97.60026791049265
 30
0.0
 10
394.7714099872499
 20
97.60068386751597
 30
0.0
 10
394.7686146576276
 20
97.60748829097325
 30
0.0
 10
394.7678123625607
 20
97.61882166965907
 30
0.0
 10
394.7691784995599
 20
97.63512206455944
 30
0.0
 10
394.772640048354
 20
97.65627330386957
 30
0.0
 10
394.7781813535004
 20
97.68230900319716
 30
0.0
 10
394.7857658239276
 20
97.71323338961984
 30
0.0
 10
394.7953428169081
 20
97.74903239534795
 30
0.0
 10
394.8061941639339
 20
97.78732164046166
 30
0.0
 10
394.8177089255659
 20
97.82662726487817
 30
0.0
 10
394.825840634387
 20
97.85358434277187
 30
0.0
 10
394.8298958459948
 20
97.86702760022136
 30
0.0
  0
LINE
  5
CE
330
1F
100
AcDbEntity
  8
0
  6
Continuous
 62
     7
370
    25
100
AcDbLine
 10
394.8296664262
 20
97.6008073157
 30
0.0
 11
394.776911067
 21
97.6000595983
 31
0.0
  0
SPLINE
  5
CF
330
1F
100
AcDbEntity
  8
0
  6
Continuous
 62
     7
370
    25
100
AcDbSpline
210
0.0
220
0.0
230
1.0
 70
     8
 71
     3
 72
    25
 73
    21
 74
     0
 42
0.000000001
 43
0.00000001
 40
0.0
 40
0.0
 40
0.0
 40
0.0
 40
0.0280105225422753
 40
0.0559601148854256
 40
0.0839014045034749
 40
0.1118870776777086
 40
0.1399695827579646
 40
0.1682008401731476
 40
0.1966319670417595
 40
0.2253130233137476
 40
0.2542927850735311
 40
0.3799486436564626
 40
0.5057850221666382
 40
0.631308588631066
 40
0.7532068238011618
 40
0.8039473267946936
 40
0.8535894438541253
 40
0.9025339722380873
 40
0.9511970353782256
 40
1.0
 40
1.0
 40
1.0
 40
1.0
 10
395.7406278340378
 20
100.1677392179645
 30
0.0
 10
395.7336487641269
 20
100.1304292044583
 30
0.0
 10
395.7197058056042
 20
100.0558903364655
 30
0.0
 10
395.6971839081616
 20
99.94458129098342
 30
0.0
 10
395.6735502960642
 20
99.8339190819697
 30
0.0
 10
395.6487007055763
 20
99.72393494902576
 30
0.0
 10
395.6226820810901
 20
99.61463980541122
 30
0.0
 10
395.5955006997721
 20
99.5060488362087
 30
0.0
 10
395.5671750584395
 20
99.39817812626559
 30
0.0
 10
395.5377162776066
 20
99.29103318053949
 30
0.0
 10
395.4733079896951
 20
99.06685829402902
 30
0.0
 10
395.3682062976232
 20
98.74019287999296
 30
0.0
 10
395.222743536828
 20
98.35424627467489
 30
0.0
 10
395.0834801287174
 20
98.03216646198226
 30
0.0
 10
394.9863317758502
 20
97.83634587795125
 30
0.0
 10
394.9260363696226
 20
97.72699842746472
 30
0.0
 10
394.8911477867414
 20
97.6690704030495
 30
0.0
 10
394.8632532848136
 20
97.62861645028457
 30
0.0
 10
394.8418881924419
 20
97.6040022348857
 30
0.0
 10
394.8337442448692
 20
97.60187330737809
 30
0.0
 10
394.8296664262241
 20
97.6008073157067
 30
0.0
  0
ARC
  5
D0
330
1F
100
AcDbEntity
  8
0
  6
Continuous
 62
     7
370
    25
100
AcDbCircle
 10
383.8699599693
 20
102.3550769605
 30
0.0
 40
12.07050959801147
100
AcDbArc
 50
349.5595567507
 51
10.4404432493
  0
SPLINE
  5
D1
330
1F
100
AcDbEntity
  8
0
  6
Continuous
 62
     7
370
    25
100
AcDbSpline
210
0.0
220
0.0
230
1.0
 70
     8
 71
     3
 72
    26
 73
    22
 74
     0
 42
0.000000001
 43
0.00000001
 40
0.0
 40
0.0
 40
0.0
 40
0.0
 40
0.0241259796962591
 40
0.0482159912271133
 40
0.0723203915121637
 40
0.0964895678708023
 40
0.1207736231960627
 40
0.1452220711240065
 40
0.1698835501655268
 40
0.1948055644470484
 40
0.220034256951649
 40
0.2456142191611191
 40
0.3690971486898426
 40
0.4940698769485092
 40
0.6192566784753767
 40
0.7454656653602836
 40
0.7971495824708205
 40
0.848171030839725
 40
0.8988013269227118
 40
0.9493179290486752
 40
1.0
 40
1.0
 40
1.0
 40
1.0
 10
394.8296664262241
 20
107.1093466052909
 30
0.0
 10
394.8315767409645
 20
107.1090597121014
 30
0.0
 10
394.8353945224567
 20
107.1084863534367
 30
0.0
 10
394.8433546476375
 20
107.1024276651902
 30
0.0
 10
394.852933748213
 20
107.0925484044594
 30
0.0
 10
394.8642809550817
 20
107.078467313349
 30
0.0
 10
394.8773371383756
 20
107.0602717653248
 30
0.0
 10
394.8920930416029
 20
107.0379212225861
 30
0.0
 10
394.9085202219003
 20
107.0114069868941
 30
0.0
 10
394.9265883766205
 20
106.9807114761808
 30
0.0
 10
394.9462655230435
 20
106.9458103729409
 30
0.0
 10
394.9944649044716
 20
106.8570458378336
 30
0.0
 10
395.082782943907
 20
106.6797655363848
 30
0.0
 10
395.2218425606736
 20
106.3586796295404
 30
0.0
 10
395.3675152405359
 20
105.9720969776492
 30
0.0
 10
395.4812538355451
 20
105.6183892735203
 30
0.0
 10
395.5609594540917
 20
105.3361355739079
 30
0.0
 10
395.6116090264458
 20
105.1416921431346
 30
0.0
 10
395.6585756963112
 20
104.9444507662005
 30
0.0
 10
395.7021355183159
 20
104.7445477211043
 30
0.0
 10
395.7277830834475
 20
104.609865781371
 30
0.0
 10
395.7406278340378
 20
104.5424147030331
 30
0.0
  0
LINE
  5
D2
330
1F
100
AcDbEntity
  8
0
  6
Continuous
 62
     7
370
    25
100
AcDbLine
 10
394.776911067
 20
107.1100943227
 30
0.0
 11
394.8296664262
 21
107.1093466053
 31
0.0
  0
SPLINE
  5
D3
330
1F
100
AcDbEntity
  8
0
  6
Continuous
 62
     7
370
    25
100
AcDbSpline
210
0.0
220
0.0
230
1.0
 70
     8
 71
     3
 72
    14
 73
    10
 74
     0
 42
0.000000001
 43
0.00000001
 40
0.0
 40
0.0
 40
0.0
 40
0.0
 40
0.0786889129232242
 40
0.1577561817122941
 40
0.3304686003115578
 40
0.4997364082435315
 40
0.6668472316653192
 40
0.8331450833767118
 40
1.0
 40
1.0
 40
1.0
 40
1.0
 10
394.8298193537616
 20
106.8433628135032
 30
0.0
 10
394.825821344807
 20
106.856612718019
 30
0.0
 10
394.8178061034763
 20
106.8831762358873
 30
0.0
 10
394.8029334301868
 20
106.9338977636561
 30
0.0
 10
394.7870472654246
 20
106.99089884268
 30
0.0
 10
394.7739687417803
 20
107.045202138289
 30
0.0
 10
394.7677361421752
 20
107.0833692603263
 30
0.0
 10
394.7679257200516
 20
107.1067779944018
 30
0.0
 10
394.773912614444
 20
107.1089876483599
 30
0.0
 10
394.7769110669849
 20
107.1100943227207
 30
0.0
  0
SPLINE
  5
D4
330
1F
100
AcDbEntity
  8
0
  6
Continuous
 62
     7
370
    25
100
AcDbSpline
210
0.0
220
0.0
230
1.0
 70
     8
 71
     3
 72
     8
 73
     4
 74
     0
 42
0.000000001
 43
0.00000001
 40
0.0
 40
0.0
 40
0.0
 40
0.0
 40
1.0
 40
1.0
 40
1.0
 40
1.0
 10
394.7093640130789
 20
106.8450191534685
 30
0.0
 10
394.7494971315855
 20
106.8445881995212
 30
0.0
 10
394.7896578395141
 20
106.8440076965087
 30
0.0
 10
394.829845256857
 20
106.8432774209492
 30
0.0
  0
SPLINE
  5
D5
330
1F
100
AcDbEntity
  8
0
  6
Continuous
 62
     7
370
    25
100
AcDbSpline
210
0.0
220
0.0
230
1.0
 70
     8
 71
     3
 72
    23
 73
    19
 74
     0
 42
0.000000001
 43
0.00000001
 40
0.0
 40
0.0
 40
0.0
 40
0.0
 40
0.0441308420121292
 40
0.0880968635211716
 40
0.1320155028408941
 40
0.1760048571434164
 40
0.2201827305793597
 40
0.2646656976937351
 40
0.3095682184569769
 40
0.355001836559425
 40
0.401074485474427
 40
0.4478899182339682
 40
0.4955472680213688
 40
0.5953670562452651
 40
0.6949121173401501
 40
0.7950007648984784
 40
0.8964386255170008
 40
1.0
 40
1.0
 40
1.0
 40
1.0
 10
394.1576508939438
 20
107.8055224774352
 30
0.0
 10
394.1596352840506
 20
107.8052396202052
 30
0.0
 10
394.1635966529355
 20
107.8046749621647
 30
0.0
 10
394.172456957166
 20
107.7982556089859
 30
0.0
 10
394.1834294352884
 20
107.7877343594793
 30
0.0
 10
394.1967088333088
 20
107.7727028231696
 30
0.0
 10
394.2122195569751
 20
107.7532505781072
 30
0.0
 10
394.2299510187282
 20
107.7293306001551
 30
0.0
 10
394.2498676654313
 20
107.7009295094413
 30
0.0
 10
394.2719331994435
 20
107.6680217696406
 30
0.0
 10
394.2961041231375
 20
107.6305817869844
 30
0.0
 10
394.3223311331848
 20
107.5885817153545
 30
0.0
 10
394.3606677134159
 20
107.5253046068314
 30
0.0
 10
394.4130004927944
 20
107.4352457444682
 30
0.0
 10
394.4814011040025
 20
107.3108996249015
 30
0.0
 10
394.554086178798
 20
107.1711865469209
 30
0.0
 10
394.6304464146979
 20
107.0168505316926
 30
0.0
 10
394.6827352293481
 20
106.9031278774648
 30
0.0
 10
394.7091504572516
 20
106.8456775441704
 30
0.0
  0
SPLINE
  5
D6
330
1F
100
AcDbEntity
  8
0
  6
Continuous
 62
     7
370
    25
100
AcDbSpline
210
0.0
220
0.0
230
1.0
 70
    11
 71
     3
 72
    39
 73
    35
 74
     0
 42
0.000000001
 43
0.00000001
 40
0.0
 40
0.0
 40
0.0
 40
0.0
 40
0.0310664058348413
 40
0.0621048158426138
 40
0.0931361551796939
 40
0.1235538293503726
 40
0.1538561545809849
 40
0.1850588072749156
 40
0.2160250992946587
 40
0.2471867223797568
 40
0.2784462884304475
 40
0.3100516090231247
 40
0.3419834369138969
 40
0.3734259894013238
 40
0.4048604886787081
 40
0.436874065183343
 40
0.4685120685926471
 40
0.499805535863323
 40
0.5309508213226204
 40
0.5618649784438111
 40
0.5930416446590877
 40
0.623374245013332
 40
0.6540913579072549
 40
0.6849496782718453
 40
0.7158160645166705
 40
0.7471731804043553
 40
0.7784514311866318
 40
0.810129591156098
 40
0.8419598919688388
 40
0.8735175891922303
 40
0.9050808037886594
 40
0.9370235169792582
 40
0.9687441590030581
 40
1.0
 40
1.0
 40
1.0
 40
1.0
 10
386.7740865340614
 20
90.92344677674538
 30
0.0
 10
386.9637983630161
 20
90.96221535349285
 30
0.0
 10
387.3075392134648
 20
91.03864629927588
 30
0.0
 10
387.6904962006725
 20
91.12678583926912
 30
0.0
 10
387.9349366673876
 20
91.17373532591408
 30
0.0
 10
388.0159256042039
 20
91.16182640120033
 30
0.0
 10
387.9352031587221
 20
91.08986849448486
 30
0.0
 10
387.6953409651025
 20
90.9653482282875
 30
0.0
 10
387.3186912310053
 20
90.80797923846232
 30
0.0
 10
386.8124482941774
 20
90.63595515376731
 30
0.0
 10
386.195173900494
 20
90.47103074618168
 30
0.0
 10
385.4826980863542
 20
90.33331817010317
 30
0.0
 10
384.7072328465816
 20
90.24168535759448
 30
0.0
 10
383.8967684129673
 20
90.208352779499
 30
0.0
 10
383.0842639400049
 20
90.23760022505229
 30
0.0
 10
382.3047509498676
 20
90.32592918203987
 30
0.0
 10
381.5864226505322
 20
90.4614346816747
 30
0.0
 10
380.9630505431322
 20
90.62521120316596
 30
0.0
 10
380.4499519485366
 20
90.79721734731129
 30
0.0
 10
380.0647498386751
 20
90.95602936178246
 30
0.0
 10
379.8153252334341
 20
91.08328832694792
 30
0.0
 10
379.7247231934877
 20
91.15889528390291
 30
0.0
 10
379.7929347644469
 20
91.1756646805828
 30
0.0
 10
380.0251506308497
 20
91.13288433836753
 30
0.0
 10
380.4023676680339
 20
91.04575765345767
 30
0.0
 10
380.9140725358016
 20
90.93102859815068
 30
0.0
 10
381.5375436665485
 20
90.81160645309815
 30
0.0
 10
382.2540883696812
 20
90.70698100304884
 30
0.0
 10
383.0324194822922
 20
90.63633251012199
 30
0.0
 10
383.8442509691421
 20
90.61025368569194
 30
0.0
 10
384.6580254911393
 20
90.63327925738268
 30
0.0
 10
385.4403993353047
 20
90.70151169552035
 30
0.0
 10
386.1624123700387
 20
90.80475887523008
 30
0.0
 10
386.5832178898877
 20
90.8844417989266
 30
0.0
 10
386.7740865340613
 20
90.92344677674535
 30
0.0
  0
SPLINE
  5
D7
330
1F
100
AcDbEntity
  8
0
  6
Continuous
 62
     7
370
    25
100
AcDbSpline
210
0.0
220
0.0
230
1.0
 70
    11
 71
     3
 72
    39
 73
    35
 74
     0
 42
0.000000001
 43
0.00000001
 40
0.0
 40
0.0
 40
0.0
 40
0.0
 40
0.0312651429934057
 40
0.0629601069329321
 40
0.0948697276489808
 40
0.1264264963751833
 40
0.1579651393672472
 40
0.1898765439016956
 40
0.221552335268876
 40
0.2527844076550827
 40
0.2838418966734154
 40
0.3148645781100674
 40
0.3459127639308091
 40
0.3763475365526575
 40
0.4066751324671412
 40
0.4379141187435632
 40
0.4688932367345488
 40
0.5000738678969536
 40
0.5313369410958942
 40
0.5629183719104849
 40
0.5948445736343699
 40
0.6262809966135365
 40
0.6577486436587271
 40
0.6897584692806508
 40
0.7214430019610059
 40
0.7527623343195418
 40
0.7839279690572818
 40
0.8148885765585865
 40
0.8460375004982862
 40
0.8763409566916784
 40
0.906758919146387
 40
0.9378312724751761
 40
0.9689189660506093
 40
1.0
 40
1.0
 40
1.0
 40
1.0
 10
386.7739822842745
 20
113.7867391966879
 30
0.0
 10
386.5829083479928
 20
113.8258031545686
 30
0.0
 10
386.1619737855533
 20
113.9055221491287
 30
0.0
 10
385.4405843803896
 20
114.0086375644791
 30
0.0
 10
384.6589283320993
 20
114.0768384369031
 30
0.0
 10
383.8458406123884
 20
114.0998953295449
 30
0.0
 10
383.0335603955364
 20
114.0739110558988
 30
0.0
 10
382.2549299704869
 20
114.0033208906606
 30
0.0
 10
381.5382541805754
 20
113.8987053284214
 30
0.0
 10
380.9163789109139
 20
113.779533003405
 30
0.0
 10
380.406867977428
 20
113.6655958356787
 30
0.0
 10
380.0317486311837
 20
113.5794815567323
 30
0.0
 10
379.7957880563329
 20
113.5354258353964
 30
0.0
 10
379.7243875131513
 20
113.5509556361076
 30
0.0
 10
379.814983942949
 20
113.6264645182915
 30
0.0
 10
380.0639602233085
 20
113.7536380461357
 30
0.0
 10
380.4488750431514
 20
113.912488724748
 30
0.0
 10
380.9616603499735
 20
114.084512985958
 30
0.0
 10
381.5841194728984
 20
114.2481860654927
 30
0.0
 10
382.3006196177049
 20
114.3835876388729
 30
0.0
 10
383.0787186518149
 20
114.4721053063557
 30
0.0
 10
383.8904413404619
 20
114.5018127148385
 30
0.0
 10
384.7018835281632
 20
114.4689262701884
 30
0.0
 10
385.4790094196453
 20
114.3774453621437
 30
0.0
 10
386.1934475088158
 20
114.2395611721822
 30
0.0
 10
386.8116704670512
 20
114.0744333473323
 30
0.0
 10
387.3180378277771
 20
113.9023828099797
 30
0.0
 10
387.6945903491907
 20
113.7450992882695
 30
0.0
 10
387.9342861606222
 20
113.6206954907855
 30
0.0
 10
388.0157528688164
 20
113.5485073173492
 30
0.0
 10
387.9356936263246
 20
113.5362348089712
 30
0.0
 10
387.6913476203709
 20
113.5831302194773
 30
0.0
 10
387.3083741869219
 20
113.6712637676228
 30
0.0
 10
386.9639310557121
 20
113.7479052722327
 30
0.0
 10
386.7739822842746
 20
113.7867391966879
 30
0.0
  0
SPLINE
  5
D8
330
1F
100
AcDbEntity
  8
0
  6
Continuous
 62
     7
370
    25
100
AcDbSpline
210
0.0
220
0.0
230
1.0
 70
     8
 71
     3
 72
    23
 73
    19
 74
     0
 42
0.000000001
 43
0.00000001
 40
0.0
 40
0.0
 40
0.0
 40
0.0
 40
0.0449850911516383
 40
0.0909520670767777
 40
0.1379394291255006
 40
0.1859832248910951
 40
0.2351171761689533
 40
0.2853728096402591
 40
0.3367795876576951
 40
0.3893650370792399
 40
0.4431548745925064
 40
0.498173127394291
 40
0.5575107590849617
 40
0.6265492281305397
 40
0.7053073138942775
 40
0.7937970253739629
 40
0.8920262115920568
 40
1.0
 40
1.0
 40
1.0
 40
1.0
 10
373.9790182577068
 20
107.3850769604988
 30
0.0
 10
373.9768555683413
 20
107.3846480588392
 30
0.0
 10
373.9724829848206
 20
107.3837808939294
 30
0.0
 10
373.9622020256292
 20
107.3766873263284
 30
0.0
 10
373.9491417475993
 20
107.3650745847494
 30
0.0
 10
373.9330225860451
 20
107.3482852145768
 30
0.0
 10
373.9139221583891
 20
107.3262132279621
 30
0.0
 10
373.8918198056332
 20
107.2986157541988
 30
0.0
 10
373.8667193270975
 20
107.2653073229894
 30
0.0
 10
373.8386281957196
 20
107.2261069845827
 30
0.0
 10
373.8075122948675
 20
107.1808649391095
 30
0.0
 10
373.7728733639854
 20
107.1284690067202
 30
0.0
 10
373.7321518557066
 20
107.065686538501
 30
0.0
 10
373.6834309346818
 20
106.9879295392424
 30
0.0
 10
373.6256565963639
 20
106.8906449816639
 30
0.0
 10
373.5587459467188
 20
106.7709001479448
 30
0.0
 10
373.4828019824254
 20
106.6269799430406
 30
0.0
 10
373.4284408177402
 20
106.5162457381475
 30
0.0
 10
373.3999757536258
 20
106.4582621342237
 30
0.0
  0
LINE
  5
D9
330
1F
100
AcDbEntity
  8
0
  6
Continuous
 62
     7
370
    25
100
AcDbLine
 10
373.3999757536
 20
106.4587884661
 30
0.0
 11
373.0306360156
 21
106.8448729931
 31
0.0
  0
LINE
  5
DA
330
1F
100
AcDbEntity
  8
0
  6
Continuous
 62
     7
370
    25
100
AcDbLine
 10
394.7092513512
 20
106.8448135882
 30
0.0
 11
394.3399846696
 21
106.4588054832
 31
0.0
  0
SPLINE
  5
DB
330
1F
100
AcDbEntity
  8
0
  6
Continuous
 62
     7
370
    25
100
AcDbSpline
210
0.0
220
0.0
230
1.0
 70
     8
 71
     3
 72
    26
 73
    22
 74
     0
 42
0.000000001
 43
0.00000001
 40
0.0
 40
0.0
 40
0.0
 40
0.0
 40
0.0509383868653979
 40
0.0998291548270505
 40
0.1466728126490638
 40
0.1914699456369332
 40
0.2342212299774179
 40
0.274927450668867
 40
0.3135895241747119
 40
0.3502085273716571
 40
0.3847857350077695
 40
0.4173226688482998
 40
0.4478211631571791
 40
0.4762834534603437
 40
0.5027122992246547
 40
0.593906700502561
 40
0.6816015993191188
 40
0.7659159552051488
 40
0.846983628966416
 40
0.9249552229440475
 40
1.0
 40
1.0
 40
1.0
 40
1.0
 10
394.3399846695706
 20
106.4580714039739
 30
0.0
 10
394.3265268053726
 20
106.4856921851383
 30
0.0
 10
394.3001520555749
 20
106.5398234485915
 30
0.0
 10
394.2617798757959
 20
106.6161314856667
 30
0.0
 10
394.2253136933037
 20
106.6868836652585
 30
0.0
 10
394.1907774436799
 20
106.7520554919466
 30
0.0
 10
394.1581649918271
 20
106.8119137371983
 30
0.0
 10
394.1274777080341
 20
106.8666788967397
 30
0.0
 10
394.098715091733
 20
106.9166032880517
 30
0.0
 10
394.0718769272606
 20
106.9619455186468
 30
0.0
 10
394.0469633468324
 20
107.0029714575876
 30
0.0
 10
394.0239727000437
 20
107.0399488425347
 30
0.0
 10
394.002909194554
 20
107.073144958518
 30
0.0
 10
393.9837568241748
 20
107.1028206907853
 30
0.0
 10
393.9520857472299
 20
107.151491015835
 30
0.0
 10
393.9106158017934
 20
107.2133863337538
 30
0.0
 10
393.8636262856496
 20
107.2787269411775
 30
0.0
 10
393.8250077159347
 20
107.3278453324693
 30
0.0
 10
393.7949592562134
 20
107.3613216209815
 30
0.0
 10
393.7726691452442
 20
107.3814390532195
 30
0.0
 10
393.7647738298108
 20
107.3838798870691
 30
0.0
 10
393.7609016808213
 20
107.3850769604988
 30
0.0
  0
SPLINE
  5
DC
330
1F
100
AcDbEntity
  8
0
  6
Continuous
 62
     7
370
    25
100
AcDbSpline
210
0.0
220
0.0
230
1.0
 70
     8
 71
     3
 72
     8
 73
     4
 74
     0
 42
0.000000001
 43
0.00000001
 40
0.0
 40
0.0
 40
0.0
 40
0.0
 40
1.0
 40
1.0
 40
1.0
 40
1.0
 10
391.6116404210644
 20
106.5780752869815
 30
0.0
 10
391.6752334014045
 20
106.5124065091347
 30
0.0
 10
391.7391898278398
 20
106.4480642114745
 30
0.0
 10
391.8033887475472
 20
106.3863269604988
 30
0.0
  0
SPLINE
  5
DD
330
1F
100
AcDbEntity
  8
0
  6
Continuous
 62
     7
370
    25
100
AcDbSpline
210
0.0
220
0.0
230
1.0
 70
     8
 71
     3
 72
    25
 73
    21
 74
     0
 42
0.000000001
 43
0.00000001
 40
0.0
 40
0.0
 40
0.0
 40
0.0
 40
0.0367725003254103
 40
0.074208401060063
 40
0.1123590542807964
 40
0.1512729822568881
 40
0.190995910016845
 40
0.2315708273504481
 40
0.2730380740418892
 40
0.3154354426077851
 40
0.3587982934432034
 40
0.4031596779810961
 40
0.4485504661847858
 40
0.494999475376923
 40
0.5532504315673752
 40
0.621829488573267
 40
0.7007739996560722
 40
0.7901076726660372
 40
0.8898461547533933
 40
1.0
 40
1.0
 40
1.0
 40
1.0
 10
391.1697192337529
 20
107.3850769604984
 30
0.0
 10
391.1699430078177
 20
107.3847522728647
 30
0.0
 10
391.1703945929806
 20
107.3840970400159
 30
0.0
 10
391.175111632853
 20
107.3787346682281
 30
0.0
 10
391.1827642419356
 20
107.3699790745277
 30
0.0
 10
391.1936572210725
 20
107.3573548564358
 30
0.0
 10
391.2077058074884
 20
107.3407985183054
 30
0.0
 10
391.2249327050976
 20
107.3201413409276
 30
0.0
 10
391.245331257879
 20
107.2952536049598
 30
0.0
 10
391.2689020711712
 20
107.2660060587664
 30
0.0
 10
391.2956474197309
 20
107.2322831235699
 30
0.0
 10
391.3255552731633
 20
107.1939773084445
 30
0.0
 10
391.3586713655078
 20
107.1510064131065
 30
0.0
 10
391.3975972870817
 20
107.0995851314358
 30
0.0
 10
391.4464253667984
 20
107.0353688997467
 30
0.0
 10
391.5083459713994
 20
106.9524743706521
 30
0.0
 10
391.5827305297204
 20
106.8485286204376
 30
0.0
 10
391.669704957709
 20
106.7204424101804
 30
0.0
 10
391.7691298076915
 20
106.5663526302741
 30
0.0
 10
391.840548983421
 20
106.4482883944036
 30
0.0
 10
391.8780305671019
 20
106.3863269604988
 30
0.0
  0
LINE
  5
DE
330
1F
100
AcDbEntity
  8
0
  6
Continuous
 62
     7
370
    25
100
AcDbLine
 10
391.8780305671
 20
106.3863269605
 30
0.0
 11
391.8033887475
 21
106.3863269605
 31
0.0
  0
SPLINE
  5
DF
330
1F
100
AcDbEntity
  8
0
  6
Continuous
 62
     7
370
    25
100
AcDbSpline
210
0.0
220
0.0
230
1.0
 70
     8
 71
     3
 72
    23
 73
    19
 74
     0
 42
0.000000001
 43
0.00000001
 40
0.0
 40
0.0
 40
0.0
 40
0.0
 40
0.0511129009857221
 40
0.1016896331838983
 40
0.1518293139104713
 40
0.201633670189439
 40
0.2512064936754081
 40
0.3006530343006331
 40
0.3500793489716449
 40
0.3995916247932065
 40
0.4492954981442684
 40
0.4992953912354716
 40
0.5872572780521574
 40
0.6724255494349275
 40
0.7555067762540824
 40
0.8372616735271673
 40
0.9184882400167564
 40
1.0
 40
1.0
 40
1.0
 40
1.0
 10
391.6117030971898
 20
106.5783180030766
 30
0.0
 10
391.5956875132893
 20
106.6074466053075
 30
0.0
 10
391.5638243472264
 20
106.6653982538914
 30
0.0
 10
391.5167805088075
 20
106.7481560891096
 30
0.0
 10
391.4708019846325
 20
106.8272449475939
 30
0.0
 10
391.4260213178289
 20
106.902461935528
 30
0.0
 10
391.382537553393
 20
106.9739249905737
 30
0.0
 10
391.3404515898084
 20
107.041666394762
 30
0.0
 10
391.2998571254111
 20
107.105739906507
 30
0.0
 10
391.2608422190608
 20
107.1661935055782
 30
0.0
 10
391.2234923965734
 20
107.2230710105065
 30
0.0
 10
391.1789641399812
 20
107.289785483567
 30
0.0
 10
391.1303238794401
 20
107.3611057674315
 30
0.0
 10
391.0824847796843
 20
107.4296860198905
 30
0.0
 10
391.0448332676033
 20
107.4827023479327
 30
0.0
 10
391.0180105662159
 20
107.5199750040602
 30
0.0
 10
391.0012817353924
 20
107.5430124036402
 30
0.0
 10
390.9994333254285
 20
107.5455471289055
 30
0.0
 10
390.9985075008081
 20
107.5468167125489
 30
0.0
  0
SPLINE
  5
E0
330
1F
100
AcDbEntity
  8
0
  6
Continuous
 62
     7
370
    25
100
AcDbSpline
210
0.0
220
0.0
230
1.0
 70
     8
 71
     3
 72
     8
 73
     4
 74
     0
 42
0.000000001
 43
0.00000001
 40
0.0
 40
0.0
 40
0.0
 40
0.0
 40
1.0
 40
1.0
 40
1.0
 40
1.0
 10
394.2738526163361
 20
106.3863269604986
 30
0.0
 10
394.2957379879792
 20
106.4106479766963
 30
0.0
 10
394.3176233596224
 20
106.4346725750188
 30
0.0
 10
394.3395087312655
 20
106.4583794271073
 30
0.0
  0
LINE
  5
E1
330
1F
100
AcDbEntity
  8
0
  6
Continuous
 62
     7
370
    25
100
AcDbLine
 10
394.273692406
 20
106.3863269605
 30
0.0
 11
391.8780305671
 21
106.3863269605
 31
0.0
  0
SPLINE
  5
E2
330
1F
100
AcDbEntity
  8
0
  6
Continuous
 62
     7
370
    25
100
AcDbSpline
210
0.0
220
0.0
230
1.0
 70
     8
 71
     3
 72
     8
 73
     4
 74
     0
 42
0.000000001
 43
0.00000001
 40
0.0
 40
0.0
 40
0.0
 40
0.0
 40
1.0
 40
1.0
 40
1.0
 40
1.0
 10
373.4003169814378
 20
106.4584829945874
 30
0.0
 10
373.4222337539253
 20
106.4347425460283
 30
0.0
 10
373.4441505264129
 20
106.4106833942417
 30
0.0
 10
373.4660672989004
 20
106.3863269604988
 30
0.0
  0
SPLINE
  5
E3
330
1F
100
AcDbEntity
  8
0
  6
Continuous
 62
     7
370
    25
100
AcDbSpline
210
0.0
220
0.0
230
1.0
 70
     8
 71
     3
 72
    26
 73
    22
 74
     0
 42
0.000000001
 43
0.00000001
 40
0.0
 40
0.0
 40
0.0
 40
0.0
 40
0.0524616379932503
 40
0.1026498591890872
 40
0.150565513457809
 40
0.1962095861957063
 40
0.2395832262568645
 40
0.2806877815599511
 40
0.3195248450380211
 40
0.3560963147430692
 40
0.3904044736547445
 40
0.4224520974433627
 40
0.4522426027417772
 40
0.4797802555366611
 40
0.5050704712281336
 40
0.5966394156799991
 40
0.6841917884819224
 40
0.7679874773571101
 40
0.8483228539139507
 40
0.925534163520116
 40
1.0
 40
1.0
 40
1.0
 40
1.0
 10
375.8617118133479
 20
106.3863418525165
 30
0.0
 10
375.8795732976362
 20
106.4161153125576
 30
0.0
 10
375.914522241612
 20
106.4743720044509
 30
0.0
 10
375.9652870750941
 20
106.5565709848155
 30
0.0
 10
376.0133570327359
 20
106.6326518537163
 30
0.0
 10
376.0587010055007
 20
106.7026032021826
 30
0.0
 10
376.101326985006
 20
106.7667103641346
 30
0.0
 10
376.1412332835151
 20
106.8252182036048
 30
0.0
 10
376.1784206126305
 20
106.8784067812268
 30
0.0
 10
376.2128894352213
 20
106.9265648214639
 30
0.0
 10
376.2446395238536
 20
106.9699894947402
 30
0.0
 10
376.2736739284547
 20
107.0089795858371
 30
0.0
 10
376.2999852176558
 20
107.0438336843636
 30
0.0
 10
376.3236018471999
 20
107.0748386788141
 30
0.0
 10
376.3632475262058
 20
107.127081897447
 30
0.0
 10
376.4147858230049
 20
107.1946112307043
 30
0.0
 10
376.4716119599861
 20
107.2668046769128
 30
0.0
 10
376.5157693879491
 20
107.3212886330353
 30
0.0
 10
376.5469470108911
 20
107.3585534242037
 30
0.0
 10
376.5664065775302
 20
107.3810177764784
 30
0.0
 10
376.5685481752107
 20
107.3837403259056
 30
0.0
 10
376.5695995917674
 20
107.3850769604988
 30
0.0
  0
LINE
  5
E4
330
1F
100
AcDbEntity
  8
0
  6
Continuous
 62
     7
370
    25
100
AcDbLine
 10
375.8617118133
 20
106.3863269605
 30
0.0
 11
373.4660672989
 21
106.3863269605
 31
0.0
  0
LINE
  5
E5
330
1F
100
AcDbEntity
  8
0
  6
Continuous
 62
     7
370
    25
100
AcDbLine
 10
375.936531191
 20
106.3863269605
 30
0.0
 11
375.8614115926
 21
106.3863269605
 31
0.0
  0
SPLINE
  5
E6
330
1F
100
AcDbEntity
  8
0
  6
Continuous
 62
     7
370
    25
100
AcDbSpline
210
0.0
220
0.0
230
1.0
 70
     8
 71
     3
 72
     8
 73
     4
 74
     0
 42
0.000000001
 43
0.00000001
 40
0.0
 40
0.0
 40
0.0
 40
0.0
 40
1.0
 40
1.0
 40
1.0
 40
1.0
 10
375.9365311909809
 20
106.3863269604987
 30
0.0
 10
376.0004399936408
 20
106.4482958239299
 30
0.0
 10
376.0642149129928
 20
106.5122718890465
 30
0.0
 10
376.1275749788737
 20
106.5778065453922
 30
0.0
  0
SPLINE
  5
E7
330
1F
100
AcDbEntity
  8
0
  6
Continuous
 62
     7
370
    25
100
AcDbSpline
210
0.0
220
0.0
230
1.0
 70
     8
 71
     3
 72
    24
 73
    20
 74
     0
 42
0.000000001
 43
0.00000001
 40
0.0
 40
0.0
 40
0.0
 40
0.0
 40
0.0410257106287842
 40
0.0818520099077639
 40
0.1225800578354648
 40
0.1633117464058233
 40
0.2041489402806705
 40
0.2451927184749161
 40
0.2865426449235763
 40
0.3282960933646444
 40
0.370547647549383
 40
0.4133885920102291
 40
0.4569065022351533
 40
0.5011849368587563
 40
0.6001856774947433
 40
0.6987388860447942
 40
0.7976800645453981
 40
0.8978349910029445
 40
1.0
 40
1.0
 40
1.0
 40
1.0
 10
376.7411577847485
 20
107.5464670418303
 30
0.0
 10
376.7409630213075
 20
107.5461996916727
 30
0.0
 10
376.740574441101
 20
107.5456662908514
 30
0.0
 10
376.7365196534267
 20
107.5400945448523
 30
0.0
 10
376.7299256944469
 20
107.5310137956985
 30
0.0
 10
376.7205614335369
 20
107.5180763353377
 30
0.0
 10
376.7085133197668
 20
107.5013578924319
 30
0.0
 10
376.6937907503064
 20
107.4808158816601
 30
0.0
 10
376.6764317574592
 20
107.4564345076134
 30
0.0
 10
376.6564745863058
 20
107.4281857635415
 30
0.0
 10
376.6339655366103
 20
107.3960402161404
 30
0.0
 10
376.6089563008489
 20
107.3599633761742
 30
0.0
 10
376.581506931324
 20
107.3199197836548
 30
0.0
 10
376.5395838182568
 20
107.2579993403136
 30
0.0
 10
376.4803776430456
 20
107.168686849217
 30
0.0
 10
376.4005980499253
 20
107.0441422571884
 30
0.0
 10
376.3146172649389
 20
106.9043574646986
 30
0.0
 10
376.223332477717
 20
106.7499446457125
 30
0.0
 10
376.160128123659
 20
106.6358986240616
 30
0.0
 10
376.1282119736934
 20
106.5783090800463
 30
0.0
  0
LINE
  5
E8
330
1F
100
AcDbEntity
  8
0
  6
Continuous
 62
     7
370
    25
100
AcDbLine
 10
373.0573190671
 20
97.8650219628
 30
0.0
 11
373.4815564821
 21
98.3138148614
 31
0.0
  0
SPLINE
  5
E9
330
1F
100
AcDbEntity
  8
0
  6
Continuous
 62
     7
370
    25
100
AcDbSpline
210
0.0
220
0.0
230
1.0
 70
     8
 71
     3
 72
    13
 73
     9
 74
     0
 42
0.000000001
 43
0.00000001
 40
0.0
 40
0.0
 40
0.0
 40
0.0
 40
0.170632084649598
 40
0.3395984165075754
 40
0.5069574111411415
 40
0.6727691830249297
 40
0.8370955447763889
 40
1.0
 40
1.0
 40
1.0
 40
1.0
 10
373.4815564821417
 20
98.3137942189695
 30
0.0
 10
373.4865619525506
 20
98.30684284588816
 30
0.0
 10
373.4965240287228
 20
98.29300796075603
 30
0.0
 10
373.5093978566148
 20
98.2768802022991
 30
0.0
 10
373.5206641691107
 20
98.26421147214009
 30
0.0
 10
373.530141532546
 20
98.25535503430112
 30
0.0
 10
373.5380237652408
 20
98.24984300582133
 30
0.0
 10
373.5418386714742
 20
98.24916465974049
 30
0.0
 10
373.5437378361904
 20
98.24882696049877
 30
0.0
  0
SPLINE
  5
EA
330
1F
100
AcDbEntity
  8
0
  6
Continuous
 62
     7
370
    25
100
AcDbSpline
210
0.0
220
0.0
230
1.0
 70
     8
 71
     3
 72
    13
 73
     9
 74
     0
 42
0.000000001
 43
0.00000001
 40
0.0
 40
0.0
 40
0.0
 40
0.0
 40
0.1621004456571512
 40
0.325943455157606
 40
0.4915935308260523
 40
0.6591130873964648
 40
0.8285624736043361
 40
1.0
 40
1.0
 40
1.0
 40
1.0
 10
394.1961821023376
 20
98.24882696049877
 30
0.0
 10
394.1980592086799
 20
98.2491614435994
 30
0.0
 10
394.2018336000727
 20
98.24983400546107
 30
0.0
 10
394.2096806772516
 20
98.25530728985675
 30
0.0
 10
394.2191467370267
 20
98.2641267545171
 30
0.0
 10
394.2304276518291
 20
98.27677951151104
 30
0.0
 10
394.2433422703268
 20
98.29293151290753
 30
0.0
 10
394.2533379845726
 20
98.30681731285054
 30
0.0
 10
394.2583649904841
 20
98.31380070560115
 30
0.0
  0
LINE
  5
EB
330
1F
100
AcDbEntity
  8
0
  6
Continuous
 62
     7
370
    25
100
AcDbLine
 10
394.2583779583
 20
98.3138010736
 30
0.0
 11
394.6826001231
 21
97.8650219883
 31
0.0
  0
LINE
  5
EC
330
1F
100
AcDbEntity
  8
0
  6
Continuous
 62
     7
370
    25
100
AcDbLine
 10
391.8033887475
 20
98.3238269605
 30
0.0
 11
391.8121100571
 21
98.3238269605
 31
0.0
  0
SPLINE
  5
ED
330
1F
100
AcDbEntity
  8
0
  6
Continuous
 62
     7
370
    25
100
AcDbSpline
210
0.0
220
0.0
230
1.0
 70
     8
 71
     3
 72
     8
 73
     4
 74
     0
 42
0.000000001
 43
0.00000001
 40
0.0
 40
0.0
 40
0.0
 40
0.0
 40
1.0
 40
1.0
 40
1.0
 40
1.0
 10
394.258378031477
 20
98.3138013186684
 30
0.0
 10
394.2561945472359
 20
98.31664998418472
 30
0.0
 10
394.2540110629948
 20
98.31959077558223
 30
0.0
 10
394.2518275787537
 20
98.32262327285876
 30
0.0
  0
LINE
  5
EE
330
1F
100
AcDbEntity
  8
0
  6
Continuous
 62
     7
370
    25
100
AcDbLine
 10
394.2509248357
 20
98.3238269605
 30
0.0
 11
391.8121144763
 21
98.3238269605
 31
0.0
  0
SPLINE
  5
EF
330
1F
100
AcDbEntity
  8
0
  6
Continuous
 62
     7
370
    25
100
AcDbSpline
210
0.0
220
0.0
230
1.0
 70
     8
 71
     3
 72
     8
 73
     4
 74
     0
 42
0.000000001
 43
0.00000001
 40
0.0
 40
0.0
 40
0.0
 40
0.0
 40
1.0
 40
1.0
 40
1.0
 40
1.0
 10
373.4889951261839
 20
98.32382696050641
 30
0.0
 10
373.4865092074973
 20
98.32036526119437
 30
0.0
 10
373.4840232888108
 20
98.31702110928549
 30
0.0
 10
373.4815373701242
 20
98.3137951173451
 30
0.0
  0
LINE
  5
F0
330
1F
100
AcDbEntity
  8
0
  6
Continuous
 62
     7
370
    25
100
AcDbLine
 10
375.9262991828
 20
98.3238269605
 30
0.0
 11
373.4892115725
 21
98.3238269605
 31
0.0
  0
LINE
  5
F1
330
1F
100
AcDbEntity
  8
0
  6
Continuous
 62
     7
370
    25
100
AcDbLine
 10
375.9278090408
 20
98.3238269605
 30
0.0
 11
375.936531191
 21
98.3238269605
 31
0.0
  0
SPLINE
  5
F2
330
1F
100
AcDbEntity
  8
0
  6
Continuous
 62
     7
370
    25
100
AcDbSpline
210
0.0
220
0.0
230
1.0
 70
     8
 71
     3
 72
    14
 73
    10
 74
     0
 42
0.000000001
 43
0.00000001
 40
0.0
 40
0.0
 40
0.0
 40
0.0
 40
0.0310276388071746
 40
0.0622853718672815
 40
0.1248003166904892
 40
0.2498289731753984
 40
0.499889260361071
 40
0.7606803621682141
 40
1.0
 40
1.0
 40
1.0
 40
1.0
 10
372.9098659748049
 20
97.86708878588337
 30
0.0
 10
372.91419526827
 20
97.87187270816148
 30
0.0
 10
372.9228859603035
 20
97.88147602924977
 30
0.0
 10
372.9402867389656
 20
97.90077034324759
 30
0.0
 10
372.9707628988107
 20
97.93453528970123
 30
0.0
 10
373.03158429163
 20
98.00195404856298
 30
0.0
 10
373.1194746340433
 20
98.0994207234299
 30
0.0
 10
373.2223123141267
 20
98.21356523532683
 30
0.0
 10
373.2895184255684
 20
98.28835004833343
 30
0.0
 10
373.3216787872153
 20
98.32413707097761
 30
0.0
  0
LINE
  5
F3
330
1F
100
AcDbEntity
  8
0
  6
Continuous
 62
     7
370
    25
100
AcDbLine
 10
373.3213502881
 20
98.3238269605
 30
0.0
 11
373.4889951262
 21
98.3238269605
 31
0.0
  0
LINE
  5
F4
330
1F
100
AcDbEntity
  8
0
  6
Continuous
 62
     7
370
    25
100
AcDbLine
 10
394.2509248357
 20
98.3238269605
 30
0.0
 11
394.418577035
 21
98.3238269605
 31
0.0
  0
SPLINE
  5
F5
330
1F
100
AcDbEntity
  8
0
  6
Continuous
 62
     7
370
    25
100
AcDbSpline
210
0.0
220
0.0
230
1.0
 70
     8
 71
     3
 72
    11
 73
     7
 74
     0
 42
0.000000001
 43
0.00000001
 40
0.0
 40
0.0
 40
0.0
 40
0.0
 40
0.2392913844325938
 40
0.5001130135003002
 40
0.7515028526498353
 40
0.9999999999999999
 40
0.9999999999999999
 40
0.9999999999999999
 40
0.9999999999999999
 10
394.4182732219344
 20
98.32411376301035
 30
0.0
 10
394.4504297749141
 20
98.28833704443302
 30
0.0
 10
394.5176361670397
 20
98.21356459667737
 30
0.0
 10
394.6206642567871
 20
98.09910588335461
 30
0.0
 10
394.7257549214042
 20
97.98294669723471
 30
0.0
 10
394.795429741484
 20
97.90555875593908
 30
0.0
 10
394.8300655581776
 20
97.86708869536415
 30
0.0
  0
LINE
  5
F6
330
1F
100
AcDbEntity
  8
0
  6
Continuous
 62
     7
370
    25
100
AcDbLine
 10
373.4660672989
 20
106.3863269605
 30
0.0
 11
373.3214950028
 21
106.3863269605
 31
0.0
  0
SPLINE
  5
F7
330
1F
100
AcDbEntity
  8
0
  6
Continuous
 62
     7
370
    25
100
AcDbSpline
210
0.0
220
0.0
230
1.0
 70
     8
 71
     3
 72
    11
 73
     7
 74
     0
 42
0.000000001
 43
0.00000001
 40
0.0
 40
0.0
 40
0.0
 40
0.0
 40
0.2392845094479873
 40
0.5001120454076898
 40
0.7515010915036774
 40
1.0
 40
1.0
 40
1.0
 40
1.0
 10
373.3217976250543
 20
106.3860411743021
 30
0.0
 10
373.2896364952844
 20
106.421839023364
 30
0.0
 10
373.2224187366883
 20
106.4966576380617
 30
0.0
 10
373.1193740881902
 20
106.6111859023169
 30
0.0
 10
373.0142658593034
 20
106.7274168959912
 30
0.0
 10
372.944580342676
 20
106.8048513916823
 30
0.0
 10
372.9099390302363
 20
106.8433447930183
 30
0.0
  0
SPLINE
  5
F8
330
1F
100
AcDbEntity
  8
0
  6
Continuous
 62
     7
370
    25
100
AcDbSpline
210
0.0
220
0.0
230
1.0
 70
     8
 71
     3
 72
    14
 73
    10
 74
     0
 42
0.000000001
 43
0.00000001
 40
0.0
 40
0.0
 40
0.0
 40
0.0
 40
0.031029414748255
 40
0.0622870907562092
 40
0.1248019217225762
 40
0.249830351143087
 40
0.4998901825554788
 40
0.7606872170552411
 40
1.0
 40
1.0
 40
1.0
 40
1.0
 10
394.8299692929666
 20
106.8433446847422
 30
0.0
 10
394.825639096651
 20
106.8385574981722
 30
0.0
 10
394.8169468498559
 20
106.828947909117
 30
0.0
 10
394.7995432215085
 20
106.8096419154111
 30
0.0
 10
394.7690624859734
 20
106.7758566997591
 30
0.0
 10
394.7082318642512
 20
106.7083975688116
 30
0.0
 10
394.6203269610845
 20
106.6108710631013
 30
0.0
 10
394.5174727164676
 20
106.4966570563268
 30
0.0
 10
394.4502552583211
 20
106.4218260962218
 30
0.0
 10
394.4180903289188
 20
106.3860179503136
 30
0.0
  0
LINE
  5
F9
330
1F
100
AcDbEntity
  8
0
  6
Continuous
 62
     7
370
    25
100
AcDbLine
 10
394.4184175389
 20
106.3863269605
 30
0.0
 11
394.2738526163
 21
106.3863269605
 31
0.0
  0
LINE
  5
FA
330
1F
100
AcDbEntity
  8
0
  6
Continuous
 62
     7
370
    25
100
AcDbLine
 10
371.9992921045
 20
100.167739218
 30
0.0
 11
372.4393547619
 21
100.2488269605
 31
0.0
  0
SPLINE
  5
FB
330
1F
100
AcDbEntity
  8
0
  6
Continuous
 62
     7
370
    25
100
AcDbSpline
210
0.0
220
0.0
230
1.0
 70
     8
 71
     3
 72
    25
 73
    21
 74
     0
 42
0.000000001
 43
0.00000001
 40
0.0
 40
0.0
 40
0.0
 40
0.0
 40
0.0274788704223154
 40
0.0560416006850518
 40
0.0856947086352136
 40
0.116444016653826
 40
0.1482947438681133
 40
0.1812515840470034
 40
0.2153187716748716
 40
0.2505001382254911
 40
0.333051455250936
 40
0.5015081958163736
 40
0.5771663066143947
 40
0.648898130302521
 40
0.716747770006283
 40
0.7807674423488066
 40
0.84101941313403
 40
0.8975784849924567
 40
0.9505352047788314
 40
1.0
 40
1.0
 40
1.0
 40
1.0
 10
372.4393547618528
 20
100.2488269604988
 30
0.0
 10
372.4460629291962
 20
100.2196447559813
 30
0.0
 10
372.459743856753
 20
100.1601293018326
 30
0.0
 10
372.4825085854069
 20
100.0697388047739
 30
0.0
 10
372.5073862226473
 20
99.97660719565272
 30
0.0
 10
372.5345254606648
 20
99.88102115137781
 30
0.0
 10
372.5638868676961
 20
99.78326768176456
 30
0.0
 10
372.5954720379841
 20
99.6836870057071
 30
0.0
 10
372.6293189078489
 20
99.58267786612853
 30
0.0
 10
372.6810201377818
 20
99.43591105887745
 30
0.0
 10
372.7853791507954
 20
99.17164464596311
 30
0.0
 10
372.9062523784792
 20
98.90167501613463
 30
0.0
 10
373.0197454249363
 20
98.68426534141835
 30
0.0
 10
373.0910183925521
 20
98.55456177068783
 30
0.0
 10
373.153092964678
 20
98.450686693363
 30
0.0
 10
373.2056769768453
 20
98.3708260595445
 30
0.0
 10
373.2489235227728
 20
98.31280743339391
 30
0.0
 10
373.2825303349929
 20
98.27470387474153
 30
0.0
 10
373.3074773178656
 20
98.2527013437468
 30
0.0
 10
373.3164368547276
 20
98.2500887303955
 30
0.0
 10
373.3207638914457
 20
98.24882696049877
 30
0.0
  0
LINE
  5
FC
330
1F
100
AcDbEntity
  8
0
  6
Continuous
 62
     7
370
    25
100
AcDbLine
 10
395.740627834
 20
104.542414703
 30
0.0
 11
395.3005651767
 21
104.4613269605
 31
0.0
  0
SPLINE
  5
FD
330
1F
100
AcDbEntity
  8
0
  6
Continuous
 62
     7
370
    25
100
AcDbSpline
210
0.0
220
0.0
230
1.0
 70
     8
 71
     3
 72
    25
 73
    21
 74
     0
 42
0.000000001
 43
0.00000001
 40
0.0
 40
0.0
 40
0.0
 40
0.0
 40
0.0274788704223041
 40
0.0560416006850305
 40
0.0856947086351823
 40
0.1164440166537841
 40
0.1482947438680617
 40
0.1812515840469434
 40
0.2153187716748025
 40
0.2505001382254136
 40
0.3330514552861967
 40
0.5015081958164245
 40
0.5771663066128696
 40
0.6488981302998588
 40
0.7167477700029257
 40
0.7807674423452041
 40
0.8410194131306359
 40
0.8975784849897311
 40
0.950535204777236
 40
1.0
 40
1.0
 40
1.0
 40
1.0
 10
395.3005651766753
 20
104.4613269604988
 30
0.0
 10
395.2938570093318
 20
104.4905091650163
 30
0.0
 10
395.2801760817751
 20
104.550024619165
 30
0.0
 10
395.2574113531211
 20
104.6404151162237
 30
0.0
 10
395.2325337158808
 20
104.7335467253448
 30
0.0
 10
395.2053944778633
 20
104.8291327696197
 30
0.0
 10
395.176033070832
 20
104.926886239233
 30
0.0
 10
395.144447900544
 20
105.0264669152905
 30
0.0
 10
395.1106010306792
 20
105.127476054869
 30
0.0
 10
395.058899800734
 20
105.2742428621542
 30
0.0
 10
394.954540787723
 20
105.5385092750667
 30
0.0
 10
394.8336675600372
 20
105.8084789048858
 30
0.0
 10
394.7201745135919
 20
106.0258885795761
 30
0.0
 10
394.6489015459763
 20
106.155592150305
 30
0.0
 10
394.5868269738506
 20
106.2594672276297
 30
0.0
 10
394.5342429616834
 20
106.339327861449
 30
0.0
 10
394.4909964157558
 20
106.3973464876009
 30
0.0
 10
394.4573896035356
 20
106.4354500462547
 30
0.0
 10
394.4324426206628
 20
106.4574525772505
 30
0.0
 10
394.4234830838006
 20
106.460065190602
 30
0.0
 10
394.4191560470824
 20
106.4613269604988
 30
0.0
  0
SPLINE
  5
FE
330
1F
100
AcDbEntity
  8
0
  6
Continuous
 62
     7
370
    25
100
AcDbSpline
210
0.0
220
0.0
230
1.0
 70
     8
 71
     3
 72
    25
 73
    21
 74
     0
 42
0.000000001
 43
0.00000001
 40
0.0
 40
0.0
 40
0.0
 40
0.0
 40
0.0288821753110086
 40
0.0583636594013118
 40
0.0884647204314734
 40
0.1192044006626603
 40
0.150600580009491
 40
0.1826700399677263
 40
0.2154285269580574
 40
0.248890814337993
 40
0.361059447124065
 40
0.4984670131067773
 40
0.5822693905007604
 40
0.666112764278331
 40
0.7499972937224478
 40
0.8007709755049082
 40
0.8511237700832938
 40
0.9010896024531745
 40
0.9507031914125761
 40
1.0
 40
1.0
 40
1.0
 40
1.0
 10
373.3207638914457
 20
106.4613269604988
 30
0.0
 10
373.3184736230679
 20
106.4608987185229
 30
0.0
 10
373.313845562955
 20
106.4600333484961
 30
0.0
 10
373.3035352998676
 20
106.4529584157944
 30
0.0
 10
373.2906992306367
 20
106.441389874634
 30
0.0
 10
373.275085671894
 20
106.4246842985216
 30
0.0
 10
373.2567642284815
 20
106.4027473875054
 30
0.0
 10
373.2357166426503
 20
106.3753497520207
 30
0.0
 10
373.2119450706583
 20
106.3423152713386
 30
0.0
 10
373.1648885412218
 20
106.2733246052108
 30
0.0
 10
373.0771941233648
 20
106.1332986357891
 30
0.0
 10
372.9596424688315
 20
105.9140033345846
 30
0.0
 10
372.84812030449
 20
105.6770732738134
 30
0.0
 10
372.756660987142
 20
105.4612313999036
 30
0.0
 10
372.6757793359645
 20
105.2596697790217
 30
0.0
 10
372.6096344340964
 20
105.0808016986296
 30
0.0
 10
372.5602838732693
 20
104.9294254974857
 30
0.0
 10
372.5153168564044
 20
104.7751813423627
 30
0.0
 10
372.4745591424852
 20
104.6190254872871
 30
0.0
 10
372.4510644732679
 20
104.5137807803391
 30
0.0
 10
372.4393547618528
 20
104.4613269604988
 30
0.0
  0
LINE
  5
FF
330
1F
100
AcDbEntity
  8
0
  6
Continuous
 62
     7
370
    25
100
AcDbLine
 10
371.9992921045
 20
104.542414703
 30
0.0
 11
372.4393547619
 21
104.4613269605
 31
0.0
  0
SPLINE
  5
100
330
1F
100
AcDbEntity
  8
0
  6
Continuous
 62
     7
370
    25
100
AcDbSpline
210
0.0
220
0.0
230
1.0
 70
     8
 71
     3
 72
    25
 73
    21
 74
     0
 42
0.000000001
 43
0.00000001
 40
0.0
 40
0.0
 40
0.0
 40
0.0
 40
0.0288821753116583
 40
0.0583636594024247
 40
0.088464720432864
 40
0.1192044006641432
 40
0.1506005800108822
 40
0.1826700399688414
 40
0.2154285269587146
 40
0.2488908143380118
 40
0.3610594471217245
 40
0.498467013106778
 40
0.5822693905006526
 40
0.6661127642782239
 40
0.7499972937224496
 40
0.8007709755032478
 40
0.8511237700807983
 40
0.901089602450676
 40
0.9507031914109089
 40
1.0
 40
1.0
 40
1.0
 40
1.0
 10
394.4191560470824
 20
98.24882696049877
 30
0.0
 10
394.4214463154602
 20
98.2492552024747
 30
0.0
 10
394.4260743755733
 20
98.25012057250154
 30
0.0
 10
394.4363846386607
 20
98.25719550520344
 30
0.0
 10
394.4492207078916
 20
98.26876404636414
 30
0.0
 10
394.4648342666343
 20
98.28546962247687
 30
0.0
 10
394.4831557100469
 20
98.30740653349324
 30
0.0
 10
394.5042032958779
 20
98.3348041689779
 30
0.0
 10
394.5279748678699
 20
98.36783864965967
 30
0.0
 10
394.5750313973062
 20
98.43682931578618
 30
0.0
 10
394.6627258151639
 20
98.57685528520676
 30
0.0
 10
394.780277469696
 20
98.79615058641095
 30
0.0
 10
394.8917996340369
 20
99.03308064718429
 30
0.0
 10
394.9832589513849
 20
99.2489225210942
 30
0.0
 10
395.0641406025628
 20
99.45048414197427
 30
0.0
 10
395.1302855044309
 20
99.62935222236376
 30
0.0
 10
395.1796360652573
 20
99.78072842350494
 30
0.0
 10
395.2246030821223
 20
99.93497257862778
 30
0.0
 10
395.265360796042
 20
100.091128433706
 30
0.0
 10
395.2888554652598
 20
100.1963731406567
 30
0.0
 10
395.3005651766753
 20
100.2488269604988
 30
0.0
  0
LINE
  5
101
330
1F
100
AcDbEntity
  8
0
  6
Continuous
 62
     7
370
    25
100
AcDbLine
 10
395.740627834
 20
100.167739218
 30
0.0
 11
395.3005651767
 21
100.2488269605
 31
0.0
  0
SPLINE
  5
102
330
1F
100
AcDbEntity
  8
0
  6
Continuous
 62
     7
370
    25
100
AcDbSpline
210
0.0
220
0.0
230
1.0
 70
     8
 71
     3
 72
    14
 73
    10
 74
     0
 42
0.000000001
 43
0.00000001
 40
0.0
 40
0.0
 40
0.0
 40
0.0
 40
0.1359145300112974
 40
0.2970841336547354
 40
0.4458230192132127
 40
0.5950336724695611
 40
0.7620249554136269
 40
0.9152755812521424
 40
1.0
 40
1.0
 40
1.0
 40
1.0
 10
374.9721020809855
 20
104.4613269604988
 30
0.0
 10
375.0073461006392
 20
104.581755329274
 30
0.0
 10
375.0843830373407
 20
104.8449895662764
 30
0.0
 10
375.2250908967156
 20
105.2185874224025
 30
0.0
 10
375.3740443991582
 20
105.5705484703302
 30
0.0
 10
375.5318546681123
 20
105.8832460069411
 30
0.0
 10
375.6784741926217
 20
106.1408207936819
 30
0.0
 10
375.7803928161031
 20
106.3163772399534
 30
0.0
 10
375.813762389973
 20
106.3691634636616
 30
0.0
 10
375.8256427018557
 20
106.3879565355543
 30
0.0
  0
SPLINE
  5
103
330
1F
100
AcDbEntity
  8
0
  6
Continuous
 62
     7
370
    25
100
AcDbSpline
210
0.0
220
0.0
230
1.0
 70
     8
 71
     3
 72
    14
 73
    10
 74
     0
 42
0.000000001
 43
0.00000001
 40
0.0
 40
0.0
 40
0.0
 40
0.0
 40
0.1359145300005337
 40
0.2970841336540051
 40
0.445823019211832
 40
0.5950336724681434
 40
0.7620249554082487
 40
0.9152755812451852
 40
1.0
 40
1.0
 40
1.0
 40
1.0
 10
392.7678178575426
 20
100.2488269604988
 30
0.0
 10
392.7325738378911
 20
100.128398591733
 30
0.0
 10
392.6555369011884
 20
99.8651643547311
 30
0.0
 10
392.5148290418156
 20
99.49156649860335
 30
0.0
 10
392.3658755393732
 20
99.13960545066661
 30
0.0
 10
392.208065270417
 20
98.82690791405923
 30
0.0
 10
392.0614457459052
 20
98.56933312732063
 30
0.0
 10
391.9595271224229
 20
98.3937766810468
 30
0.0
 10
391.9261575485528
 20
98.34099045733632
 30
0.0
 10
391.9142772366693
 20
98.32219738544173
 30
0.0
  0
SPLINE
  5
104
330
1F
100
AcDbEntity
  8
0
  6
Continuous
 62
     7
370
    25
100
AcDbSpline
210
0.0
220
0.0
230
1.0
 70
     8
 71
     3
 72
    13
 73
     9
 74
     0
 42
0.000000001
 43
0.00000001
 40
0.0
 40
0.0
 40
0.0
 40
0.0
 40
0.0217286921435962
 40
0.1003820497560808
 40
0.2372357405520672
 40
0.3994036557033713
 40
0.7008666741923809
 40
1.0
 40
1.0
 40
1.0
 40
1.0
 10
375.8234631996473
 20
98.3233863658057
 30
0.0
 10
375.8205265086672
 20
98.32800836974205
 30
0.0
 10
375.8069596056004
 20
98.349361069023
 30
0.0
 10
375.7595057616887
 20
98.42665615387652
 30
0.0
 10
375.665948694965
 20
98.58258908044492
 30
0.0
 10
375.4863513632749
 20
98.91505694336367
 30
0.0
 10
375.2173218524115
 20
99.4630532738643
 30
0.0
 10
375.053630353552
 20
99.98758060614898
 30
0.0
 10
374.9721020809855
 20
100.2488269604988
 30
0.0
  0
LINE
  5
105
330
1F
100
AcDbEntity
  8
0
  6
Continuous
 62
     7
370
    25
100
AcDbLine
 10
375.2883622383
 20
104.3864636659
 30
0.0
 11
374.972102081
 21
104.4613269605
 31
0.0
  0
SPLINE
  5
106
330
1F
100
AcDbEntity
  8
0
  6
Continuous
 62
     7
370
    25
100
AcDbSpline
210
0.0
220
0.0
230
1.0
 70
     8
 71
     3
 72
    25
 73
    21
 74
     0
 42
0.000000001
 43
0.00000001
 40
0.0
 40
0.0
 40
0.0
 40
0.0
 40
0.0278144320063462
 40
0.0555680196245754
 40
0.083331625367772
 40
0.111176035216759
 40
0.1391714221532265
 40
0.1673868326284763
 40
0.1958897140434718
 40
0.2247454979318961
 40
0.254017249222145
 40
0.3796724410016501
 40
0.5056484635002454
 40
0.629752729069345
 40
0.7535891720571729
 40
0.8038564806093713
 40
0.853339684343451
 40
0.9023264398358534
 40
0.9511131859219439
 40
1.0
 40
1.0
 40
1.0
 40
1.0
 10
376.1559838799756
 20
106.6288252516813
 30
0.0
 10
376.1558361286608
 20
106.6285587091277
 30
0.0
 10
376.1555409492391
 20
106.6280262070855
 30
0.0
 10
376.1519162502233
 20
106.6214787583894
 30
0.0
 10
376.145970354553
 20
106.6107095151032
 30
0.0
 10
376.1374956316379
 20
106.5952987791789
 30
0.0
 10
376.1265806447988
 20
106.5753424029251
 30
0.0
 10
376.1132445765604
 20
106.5507923064546
 30
0.0
 10
376.0975368118734
 20
106.5216356826987
 30
0.0
 10
376.0795052237156
 20
106.4878397112653
 30
0.0
 10
376.0370876789672
 20
106.4074329532075
 30
0.0
 10
375.9565666392137
 20
106.2504445035368
 30
0.0
 10
375.8231402923391
 20
105.9686587657895
 30
0.0
 10
375.679063315656
 20
105.6307866561625
 30
0.0
 10
375.5633855642047
 20
105.3221057424242
 30
0.0
 10
375.4808740889874
 20
105.0760750226692
 30
0.0
 10
375.4279524644622
 20
104.907249131396
 30
0.0
 10
375.3780953300849
 20
104.7359335603842
 30
0.0
 10
375.3310773368543
 20
104.5622512101635
 30
0.0
 10
375.3026103261258
 20
104.44509952186
 30
0.0
 10
375.288362238327
 20
104.3864636658986
 30
0.0
  0
LINE
  5
107
330
1F
100
AcDbEntity
  8
0
  6
Continuous
 62
     7
370
    25
100
AcDbLine
 10
375.2883622383
 20
100.3236902551
 30
0.0
 11
374.972102081
 21
100.2488269605
 31
0.0
  0
SPLINE
  5
108
330
1F
100
AcDbEntity
  8
0
  6
Continuous
 62
     7
370
    25
100
AcDbSpline
210
0.0
220
0.0
230
1.0
 70
     8
 71
     3
 72
    25
 73
    21
 74
     0
 42
0.000000001
 43
0.00000001
 40
0.0
 40
0.0
 40
0.0
 40
0.0
 40
0.0269872354797669
 40
0.0539362690259618
 40
0.0809037148829035
 40
0.1079460716545392
 40
0.1351193706855853
 40
0.162478838835575
 40
0.190078585418252
 40
0.2179713214290535
 40
0.2462081170984584
 40
0.3700050494705653
 40
0.4947542611659071
 40
0.6210439034695193
 40
0.7446557472315123
 40
0.7967060293738726
 40
0.8478613449329371
 40
0.8985210411990388
 40
0.9490962115257747
 40
1.0
 40
1.0
 40
1.0
 40
1.0
 10
375.288362238327
 20
100.3236902550989
 30
0.0
 10
375.296142983051
 20
100.2912938500712
 30
0.0
 10
375.311693458422
 20
100.2265468989299
 30
0.0
 10
375.3363788643953
 20
100.1299003625012
 30
0.0
 10
375.3619988213943
 20
100.0338062740099
 30
0.0
 10
375.3886416850217
 20
99.9382940032932
 30
0.0
 10
375.4162668703062
 20
99.84336927590054
 30
0.0
 10
375.4448686493654
 20
99.74904311976485
 30
0.0
 10
375.474430739007
 20
99.65532677531559
 30
0.0
 10
375.5049438860541
 20
99.5622226914253
 30
0.0
 10
375.5716780906434
 20
99.36595744931228
 30
0.0
 10
375.6788612667391
 20
99.07988433370896
 30
0.0
 10
375.8226413570479
 20
98.74259443771561
 30
0.0
 10
375.9558898132597
 20
98.46108526089212
 30
0.0
 10
376.043560989473
 20
98.2900943307137
 30
0.0
 10
376.0944360252653
 20
98.19418151233124
 30
0.0
 10
376.1221051799167
 20
98.14296430887657
 30
0.0
 10
376.1418040980342
 20
98.10698151479153
 30
0.0
 10
376.1540516067378
 20
98.08481162646953
 30
0.0
 10
376.1553383998938
 20
98.08249215873595
 30
0.0
 10
376.1559838799756
 20
98.08132866931628
 30
0.0
  0
SPLINE
  5
109
330
1F
100
AcDbEntity
  8
0
  6
Continuous
 62
     7
370
    25
100
AcDbSpline
210
0.0
220
0.0
230
1.0
 70
     8
 71
     3
 72
    13
 73
     9
 74
     0
 42
0.000000001
 43
0.00000001
 40
0.0
 40
0.0
 40
0.0
 40
0.0
 40
0.0217286921488609
 40
0.1003820497583595
 40
0.2372357405601296
 40
0.399403655704887
 40
0.7008666741931369
 40
1.0
 40
1.0
 40
1.0
 40
1.0
 10
391.9164567388785
 20
106.3867675551933
 30
0.0
 10
391.9193934298593
 20
106.3821455512558
 30
0.0
 10
391.9329603329264
 20
106.3607928519741
 30
0.0
 10
391.980414176842
 20
106.2834977671182
 30
0.0
 10
392.0739712435657
 20
106.1275648405496
 30
0.0
 10
392.2535685752548
 20
105.7950969776295
 30
0.0
 10
392.5225980861167
 20
105.2471006471333
 30
0.0
 10
392.6862895849761
 20
104.7225733148486
 30
0.0
 10
392.7678178575426
 20
104.4613269604988
 30
0.0
  0
LINE
  5
10A
330
1F
100
AcDbEntity
  8
0
  6
Continuous
 62
     7
370
    25
100
AcDbLine
 10
392.4515577002
 20
104.3864636659
 30
0.0
 11
392.7678178575
 21
104.4613269605
 31
0.0
  0
SPLINE
  5
10B
330
1F
100
AcDbEntity
  8
0
  6
Continuous
 62
     7
370
    25
100
AcDbSpline
210
0.0
220
0.0
230
1.0
 70
     8
 71
     3
 72
    14
 73
    10
 74
     0
 42
0.000000001
 43
0.00000001
 40
0.0
 40
0.0
 40
0.0
 40
0.0
 40
0.1400505389350903
 40
0.2837941391411564
 40
0.4267315409806389
 40
0.5707684557847207
 40
0.7165839699846748
 40
0.8593076663242981
 40
1.0
 40
1.0
 40
1.0
 40
1.0
 10
392.4515577002011
 20
104.3864636658986
 30
0.0
 10
392.4147907709988
 20
104.5320236971422
 30
0.0
 10
392.3402873874263
 20
104.8269821034021
 30
0.0
 10
392.2050981682409
 20
105.2450461122761
 30
0.0
 10
392.0612137651368
 20
105.6300988057107
 30
0.0
 10
391.9170770251646
 20
105.967906814296
 30
0.0
 10
391.7846813523824
 20
106.2478476049202
 30
0.0
 10
391.6737605715584
 20
106.4639880925564
 30
0.0
 10
391.632425091121
 20
106.5400512382405
 30
0.0
 10
391.6119054853456
 20
106.5778102227003
 30
0.0
  0
LINE
  5
10C
330
1F
100
AcDbEntity
  8
0
  6
Continuous
 62
     7
370
    25
100
AcDbLine
 10
392.4515577002
 20
100.3236902551
 30
0.0
 11
392.7678178575
 21
100.2488269605
 31
0.0
  0
SPLINE
  5
10D
330
1F
100
AcDbEntity
  8
0
  6
Continuous
 62
     7
370
    25
100
AcDbSpline
210
0.0
220
0.0
230
1.0
 70
     8
 71
     3
 72
    25
 73
    21
 74
     0
 42
0.000000001
 43
0.00000001
 40
0.0
 40
0.0
 40
0.0
 40
0.0
 40
0.0278144320057649
 40
0.0555680196235595
 40
0.083331625366468
 40
0.1111760352153128
 40
0.1391714221517827
 40
0.1673868326271739
 40
0.195889714042447
 40
0.2247454979312803
 40
0.2540172492220635
 40
0.3796724409988544
 40
0.505648463500191
 40
0.6297527290689083
 40
0.7535891720572004
 40
0.803856480609888
 40
0.85333968434422
 40
0.902326439836625
 40
0.9511131859224594
 40
1.0
 40
1.0
 40
1.0
 40
1.0
 10
391.5839360585525
 20
98.08132866931628
 30
0.0
 10
391.5840838098673
 20
98.08159521186984
 30
0.0
 10
391.584378989289
 20
98.08212771391207
 30
0.0
 10
391.5880036883048
 20
98.0886751626082
 30
0.0
 10
391.5939495839751
 20
98.09944440589445
 30
0.0
 10
391.6024243068902
 20
98.11485514181878
 30
0.0
 10
391.6133392937294
 20
98.13481151807254
 30
0.0
 10
391.6266753619678
 20
98.15936161454302
 30
0.0
 10
391.6423831266547
 20
98.18851823829893
 30
0.0
 10
391.6604147148125
 20
98.22231420973236
 30
0.0
 10
391.7028322595597
 20
98.30272096778761
 30
0.0
 10
391.7833532993135
 20
98.45970941745884
 30
0.0
 10
391.9167796461879
 20
98.74149515520567
 30
0.0
 10
392.0608566228714
 20
99.07936726483348
 30
0.0
 10
392.1765343743234
 20
99.38804817857329
 30
0.0
 10
392.2590458495412
 20
99.63407889832995
 30
0.0
 10
392.3119674740666
 20
99.80290478960404
 30
0.0
 10
392.361824608444
 20
99.97422036061579
 30
0.0
 10
392.4088426016742
 20
100.1479027108357
 30
0.0
 10
392.4373096124025
 20
100.2650543991382
 30
0.0
 10
392.4515577002011
 20
100.3236902550989
 30
0.0
  0
ARC
  5
10E
330
1F
100
AcDbEntity
  8
0
  6
Continuous
 62
     7
370
    25
100
AcDbCircle
 10
383.8699599693
 20
102.3550769605
 30
0.0
 40
11.62303852141066
100
AcDbArc
 50
169.5595567507
 51
190.4404432494
  0
ARC
  5
10F
330
1F
100
AcDbEntity
  8
0
  6
Continuous
 62
     7
370
    25
100
AcDbCircle
 10
383.8699599693
 20
102.3550769605
 30
0.0
 40
9.143750000000006
100
AcDbArc
 50
166.6824039243
 51
193.3175960757
  0
ARC
  5
110
330
1F
100
AcDbEntity
  8
0
  6
Continuous
 62
     7
370
    25
100
AcDbCircle
 10
383.8699599693
 20
102.3550769605
 30
0.0
 40
8.81874999999997
100
AcDbArc
 50
166.6824039243
 51
193.3175960757
  0
ARC
  5
111
330
1F
100
AcDbEntity
  8
0
  6
Continuous
 62
     7
370
    25
100
AcDbCircle
 10
383.8699599693
 20
102.3550769605
 30
0.0
 40
9.143750000000061
100
AcDbArc
 50
346.6824039243
 51
13.3175960757
  0
ARC
  5
112
330
1F
100
AcDbEntity
  8
0
  6
Continuous
 62
     7
370
    25
100
AcDbCircle
 10
383.8699599693
 20
102.3550769605
 30
0.0
 40
8.818750000000026
100
AcDbArc
 50
346.6824039243
 51
13.3175960757
  0
ARC
  5
113
330
1F
100
AcDbEntity
  8
0
  6
Continuous
 62
     7
370
    25
100
AcDbCircle
 10
383.8699599693
 20
102.3550769605
 30
0.0
 40
11.6230385214107
100
AcDbArc
 50
349.5595567507
 51
10.4404432493
  0
CIRCLE
  5
114
330
1F
100
AcDbEntity
  8
0
  6
Continuous
 62
     7
370
    25
100
AcDbCircle
 10
383.8699599693
 20
102.3550769605
 30
0.0
 40
7.775000000000034
  0
CIRCLE
  5
115
330
1F
100
AcDbEntity
  8
0
  6
Continuous
 62
     7
370
    25
100
AcDbCircle
 10
383.8699599693
 20
102.3550769605
 30
0.0
 40
2.615470053837896
  0
CIRCLE
  5
116
330
1F
100
AcDbEntity
  8
0
  6
Continuous
 62
     7
370
    25
100
AcDbCircle
 10
383.8699599693
 20
102.3550769605
 30
0.0
 40
2.5
  0
CIRCLE
  5
117
330
1F
100
AcDbEntity
  8
0
  6
Continuous
 62
     7
370
    25
100
AcDbCircle
 10
383.8699599693
 20
102.3550769605
 30
0.0
 40
15.73750000000001
  0
CIRCLE
  5
118
330
1F
100
AcDbEntity
  8
0
  6
Continuous
 62
     7
370
    25
100
AcDbCircle
 10
383.8699599693
 20
102.3550769605
 30
0.0
 40
13.42500000000001
  0
CIRCLE
  5
119
330
1F
100
AcDbEntity
  8
0
  6
Continuous
 62
     7
370
    25
100
AcDbCircle
 10
383.8699599693
 20
102.3550769605
 30
0.0
 40
2.0
  0
LINE
  5
11A
330
1F
100
AcDbEntity
  8
0
  6
CENTER
 62
     7
370
    18
100
AcDbLine
 10
383.8699599693
 20
102.3550769605
 30
0.0
 11
383.8699599693
 21
121.8590776617
 31
0.0
  0
LINE
  5
11B
330
1F
100
AcDbEntity
  8
0
  6
CENTER
 62
     7
370
    18
100
AcDbLine
 10
383.8699599693
 20
102.3550769605
 30
0.0
 11
403.3844599693
 21
102.3550769605
 31
0.0
  0
LINE
  5
11C
330
1F
100
AcDbEntity
  8
0
  6
Continuous
 62
     7
370
    18
100
AcDbLine
 10
395.8699599693
 20
119.8590776617
 30
0.0
 11
383.8699599693
 21
119.8590776617
 31
0.0
  0
SOLID
  5
11D
330
1F
100
AcDbEntity
  8
0
  6
Continuous
 62
     7
370
    18
100
AcDbTrace
 10
383.8699599693
 20
119.8590776617
 30
0.0
 11
389.8699599693
 21
118.3590776617
 31
0.0
 12
389.8699599693
 22
121.3590776617
 32
0.0
 13
389.8699599693
 23
121.3590776617
 33
0.0
  0
LINE
  5
11E
330
1F
100
AcDbEntity
  8
0
  6
Continuous
 62
     7
370
    18
100
AcDbLine
 10
413.3844599693
 20
102.3550769605
 30
0.0
 11
401.3844599693
 21
102.3550769605
 31
0.0
  0
SOLID
  5
11F
330
1F
100
AcDbEntity
  8
0
  6
Continuous
 62
     7
370
    18
100
AcDbTrace
 10
401.3844599693
 20
102.3550769605
 30
0.0
 11
407.3844599693
 21
100.8550769605
 31
0.0
 12
407.3844599693
 22
103.8550769605
 32
0.0
 13
407.3844599693
 23
103.8550769605
 33
0.0
  0
MTEXT
  5
120
330
1F
100
AcDbEntity
  8
0
  6
Continuous
 62
     7
100
AcDbMText
 10
392.7225792253
 20
126.5053708784
 30
0.0
 40
3.5
 41
0.0
 71
     1
 72
     1
  1
A
  7
SLDTEXTSTYLE0
 73
     1
 44
1.0
  0
MTEXT
  5
121
330
1F
100
AcDbEntity
  8
0
  6
Continuous
 62
     7
100
AcDbMText
 10
410.2370792253
 20
100.1418613194
 30
0.0
 40
3.5
 41
0.0
 71
     1
 72
     1
  1
A
  7
SLDTEXTSTYLE0
 73
     1
 44
1.0
  0
LINE
  5
122
330
1F
100
AcDbEntity
  8
VERMASSUNG
  6
CENTERX2
370
    18
100
AcDbLine
 10
395.5381387919
 20
105.3850769605
 30
0.0
 11
389.1916917878
 21
105.3850769605
 31
0.0
  0
LINE
  5
123
330
1F
100
AcDbEntity
  8
VERMASSUNG
  6
CENTERX2
370
    18
100
AcDbLine
 10
396.5073765849
 20
104.4613269605
 30
0.0
 11
389.7384268439
 21
104.4613269605
 31
0.0
  0
LINE
  5
124
330
1F
100
AcDbEntity
  8
VERMASSUNG
  6
CENTERX2
370
    18
100
AcDbLine
 10
396.5067309426
 20
100.2488269605
 30
0.0
 11
389.7368855978
 21
100.2488269605
 31
0.0
  0
LINE
  5
125
330
1F
100
AcDbEntity
  8
VERMASSUNG
  6
CENTERX2
370
    18
100
AcDbLine
 10
377.264279451
 20
100.2488269605
 30
0.0
 11
370.3095601066
 21
100.2488269605
 31
0.0
  0
LINE
  5
126
330
1F
100
AcDbEntity
  8
VERMASSUNG
  6
CENTERX2
370
    18
100
AcDbLine
 10
377.0797525591
 20
104.4613269605
 30
0.0
 11
370.3099072143
 21
104.4613269605
 31
0.0
  0
LINE
  5
127
330
1F
100
AcDbEntity
  8
VERMASSUNG
  6
CENTERX2
370
    18
100
AcDbLine
 10
377.7662576434
 20
105.3850769605
 30
0.0
 11
371.4219395947
 21
105.3850769605
 31
0.0
  0
LINE
  5
128
330
1F
100
AcDbEntity
  8
0
  6
Continuous
 62
     7
370
    25
100
AcDbLine
 10
137.3146720575
 20
70.8800769605
 30
0.0
 11
142.0804742529
 21
70.8800769605
 31
0.0
  0
ARC
  5
129
330
1F
100
AcDbEntity
  8
0
  6
Continuous
 62
     7
370
    25
100
AcDbCircle
 10
124.2804742529
 20
71.0800769605
 30
0.0
 40
0.2000000000000028
100
AcDbArc
 50
180.0
 51
270.0
  0
LINE
  5
12A
330
1F
100
AcDbEntity
  8
0
  6
Continuous
 62
     7
370
    25
100
AcDbLine
 10
124.2804742529
 20
70.8800769605
 30
0.0
 11
130.6462764484
 21
70.8800769605
 31
0.0
  0
LINE
  5
12B
330
1F
100
AcDbEntity
  8
0
  6
Continuous
 62
     7
370
    25
100
AcDbLine
 10
130.6462764484
 20
70.8800769605
 30
0.0
 11
132.1054742529
 21
73.4074816963
 31
0.0
  0
LINE
  5
12C
330
1F
100
AcDbEntity
  8
0
  6
Continuous
 62
     7
370
    25
100
AcDbLine
 10
135.8554742529
 20
73.4074816963
 30
0.0
 11
137.3146720575
 21
70.8800769605
 31
0.0
  0
ARC
  5
12D
330
1F
100
AcDbEntity
  8
0
  6
Continuous
 62
     7
370
    25
100
AcDbCircle
 10
133.1054742529
 20
73.5050769605
 30
0.0
 40
1.0
100
AcDbArc
 50
90.0
 51
180.0
  0
ARC
  5
12E
330
1F
100
AcDbEntity
  8
0
  6
Continuous
 62
     7
370
    25
100
AcDbCircle
 10
134.8554742529
 20
73.5050769605
 30
0.0
 40
1.0
100
AcDbArc
 50
0.0
 51
90.0
  0
LINE
  5
12F
330
1F
100
AcDbEntity
  8
0
  6
Continuous
 62
     7
370
    25
100
AcDbLine
 10
133.1054742529
 20
74.5050769605
 30
0.0
 11
134.8554742529
 21
74.5050769605
 31
0.0
  0
ARC
  5
130
330
1F
100
AcDbEntity
  8
0
  6
Continuous
 62
     7
370
    25
100
AcDbCircle
 10
123.6515393784
 20
76.8050769605
 30
0.0
 40
0.8000000000000038
100
AcDbArc
 50
57.576802718
 51
107.5
  0
LINE
  5
131
330
1F
100
AcDbEntity
  8
0
  6
Continuous
 62
     7
370
    25
100
AcDbLine
 10
122.9202922129
 20
77.413338915
 30
0.0
 11
123.4109747388
 21
77.5680505211
 31
0.0
  0
LINE
  5
132
330
1F
100
AcDbEntity
  8
0
  6
Continuous
 62
     7
370
    25
100
AcDbLine
 10
109.5940287849
 20
78.0825564397
 30
0.0
 11
122.9202922129
 21
77.413338915
 31
0.0
  0
LINE
  5
133
330
1F
100
AcDbEntity
  8
0
  6
Continuous
 62
     7
370
    25
100
AcDbLine
 10
85.6304742529
 20
79.2859568329
 30
0.0
 11
93.6853111164
 21
78.881459502
 31
0.0
  0
LINE
  5
134
330
1F
100
AcDbEntity
  8
0
  6
Continuous
 62
     7
370
    25
100
AcDbLine
 10
84.1304742529
 20
80.1519822367
 30
0.0
 11
85.6304742529
 21
79.2859568329
 31
0.0
  0
ARC
  5
135
330
1F
100
AcDbEntity
  8
0
  6
Continuous
 62
     7
370
    25
100
AcDbCircle
 10
145.0804742529
 20
81.8550769605
 30
0.0
 40
3.0
100
AcDbArc
 50
90.0
 51
180.0
  0
LINE
  5
136
330
1F
100
AcDbEntity
  8
0
  6
Continuous
 62
     7
370
    25
100
AcDbLine
 10
145.0804742529
 20
84.8550769605
 30
0.0
 11
213.3579396504
 21
84.8550769605
 31
0.0
  0
LINE
  5
137
330
1F
100
AcDbEntity
  8
0
  6
Continuous
 62
     7
370
    25
100
AcDbLine
 10
213.3579396504
 20
84.8550769605
 30
0.0
 11
222.9257107764
 21
89.316601908
 31
0.0
  0
ARC
  5
138
330
1F
100
AcDbEntity
  8
0
  6
Continuous
 62
     7
370
    25
100
AcDbCircle
 10
222.0804742529
 20
91.1292174821
 30
0.0
 40
2.000000000000001
100
AcDbArc
 50
295.0
 51
0.0
  0
LINE
  5
139
330
1F
100
AcDbEntity
  8
0
  6
Continuous
 62
     7
370
    25
100
AcDbLine
 10
201.0804742529
 20
107.3550769605
 30
0.0
 11
199.5804742529
 21
108.8550769605
 31
0.0
  0
LINE
  5
13A
330
1F
100
AcDbEntity
  8
0
  6
Continuous
 62
     7
370
    25
100
AcDbLine
 10
199.5804742529
 20
108.8550769605
 30
0.0
 11
199.5804742529
 21
119.0550769605
 31
0.0
  0
LINE
  5
13B
330
1F
100
AcDbEntity
  8
0
  6
Continuous
 62
     7
370
    25
100
AcDbLine
 10
199.5804742529
 20
119.0550769605
 30
0.0
 11
200.3804742529
 21
119.8550769605
 31
0.0
  0
LINE
  5
13C
330
1F
100
AcDbEntity
  8
0
  6
Continuous
 62
     7
370
    25
100
AcDbLine
 10
200.3804742529
 20
119.8550769605
 30
0.0
 11
202.0804742529
 21
119.8550769605
 31
0.0
  0
LINE
  5
13D
330
1F
100
AcDbEntity
  8
0
  6
Continuous
 62
     7
370
    25
100
AcDbLine
 10
202.0804742529
 20
113.8550769605
 30
0.0
 11
202.0804742529
 21
119.8550769605
 31
0.0
  0
LINE
  5
13E
330
1F
100
AcDbEntity
  8
0
  6
Continuous
 62
     7
370
    25
100
AcDbLine
 10
202.0804742529
 20
113.8550769605
 30
0.0
 11
207.0804742529
 21
113.8550769605
 31
0.0
  0
LINE
  5
13F
330
1F
100
AcDbEntity
  8
0
  6
Continuous
 62
     7
370
    25
100
AcDbLine
 10
207.0804742529
 20
113.8550769605
 30
0.0
 11
207.0804742529
 21
119.8550769605
 31
0.0
  0
LINE
  5
140
330
1F
100
AcDbEntity
  8
0
  6
Continuous
 62
     7
370
    25
100
AcDbLine
 10
207.0804742529
 20
119.8550769605
 30
0.0
 11
208.7804742529
 21
119.8550769605
 31
0.0
  0
LINE
  5
141
330
1F
100
AcDbEntity
  8
0
  6
Continuous
 62
     7
370
    25
100
AcDbLine
 10
208.7804742529
 20
119.8550769605
 30
0.0
 11
209.5804742529
 21
119.0550769605
 31
0.0
  0
LINE
  5
142
330
1F
100
AcDbEntity
  8
0
  6
Continuous
 62
     7
370
    25
100
AcDbLine
 10
209.5804742529
 20
119.0550769605
 30
0.0
 11
209.5804742529
 21
108.8550769605
 31
0.0
  0
LINE
  5
143
330
1F
100
AcDbEntity
  8
0
  6
Continuous
 62
     7
370
    25
100
AcDbLine
 10
209.5804742529
 20
108.8550769605
 30
0.0
 11
208.0804742529
 21
107.3550769605
 31
0.0
  0
LINE
  5
144
330
1F
100
AcDbEntity
  8
0
  6
Continuous
 62
     7
370
    25
100
AcDbLine
 10
208.0804742529
 20
107.3550769605
 30
0.0
 11
207.0804742529
 21
107.3550769605
 31
0.0
  0
LINE
  5
145
330
1F
100
AcDbEntity
  8
0
  6
Continuous
 62
     7
370
    25
100
AcDbLine
 10
204.5804742529
 20
108.7984526335
 30
0.0
 11
207.0804742529
 21
107.3550769605
 31
0.0
  0
LINE
  5
146
330
1F
100
AcDbEntity
  8
0
  6
Continuous
 62
     7
370
    25
100
AcDbLine
 10
202.0804742529
 20
107.3550769605
 30
0.0
 11
204.5804742529
 21
108.7984526335
 31
0.0
  0
LINE
  5
147
330
1F
100
AcDbEntity
  8
0
  6
Continuous
 62
     7
370
    25
100
AcDbLine
 10
202.0804742529
 20
107.3550769605
 30
0.0
 11
201.0804742529
 21
107.3550769605
 31
0.0
  0
LINE
  5
148
330
1F
100
AcDbEntity
  8
0
  6
Continuous
 62
     7
370
    25
100
AcDbLine
 10
207.0804742529
 20
107.3550769605
 30
0.0
 11
202.0804742529
 21
107.3550769605
 31
0.0
  0
LINE
  5
149
330
1F
100
AcDbEntity
  8
0
  6
Continuous
 62
     7
370
    25
100
AcDbLine
 10
204.5804742529
 20
113.8550769605
 30
0.0
 11
204.5804742529
 21
119.8550769605
 31
0.0
  0
LINE
  5
14A
330
1F
100
AcDbEntity
  8
0
  6
Continuous
 62
     7
370
    25
100
AcDbLine
 10
207.0804742529
 20
119.8550769605
 30
0.0
 11
204.5804742529
 21
119.8550769605
 31
0.0
  0
LINE
  5
14B
330
1F
100
AcDbEntity
  8
0
  6
Continuous
 62
     7
370
    25
100
AcDbLine
 10
202.0804742529
 20
119.8550769605
 30
0.0
 11
204.5804742529
 21
119.8550769605
 31
0.0
  0
LINE
  5
14C
330
1F
100
AcDbEntity
  8
0
  6
Continuous
 62
     7
370
    25
100
AcDbLine
 10
137.3146720575
 20
70.8800769605
 30
0.0
 11
137.3146720575
 21
97.4653696808
 31
0.0
  0
SPLINE
  5
14D
330
1F
100
AcDbEntity
  8
0
  6
Continuous
 62
     7
370
    25
100
AcDbSpline
210
0.0
220
0.0
230
1.0
 70
     8
 71
     3
 72
    20
 73
    16
 74
     0
 42
0.000000001
 43
0.00000001
 40
0.0
 40
0.0
 40
0.0
 40
0.0
 40
0.1249999999999996
 40
0.1249999999999996
 40
0.2499999999999992
 40
0.2499999999999992
 40
0.3749999999999989
 40
0.3749999999999989
 40
0.4999999999999987
 40
0.4999999999999987
 40
0.7499999999999994
 40
0.7499999999999994
 40
0.8749999999999997
 40
0.8749999999999997
 40
1.0
 40
1.0
 40
1.0
 40
1.0
 10
140.8679742529277
 20
102.3550769604987
 30
0.0
 10
140.8679742529277
 20
102.0884088730175
 30
0.0
 10
140.845927223884
 20
101.8200966977435
 30
0.0
 10
140.7569211861791
 20
101.2872536625101
 30
0.0
 10
140.6910422179797
 20
101.0279634525242
 30
0.0
 10
140.5188673102725
 20
100.5228364865027
 30
0.0
 10
140.4121607393656
 20
100.2762562705815
 30
0.0
 10
140.1594838364893
 20
99.7998396198417
 30
0.0
 10
140.0160265722946
 20
99.57441955807687
 30
0.0
 10
139.5377043800141
 20
98.93381187646314
 30
0.0
 10
139.1496773970485
 20
98.55104616136009
 30
0.0
 10
138.5078727486031
 20
98.07514391318841
 30
0.0
 10
138.283068120956
 20
97.93154827703673
 30
0.0
 10
137.8117590633338
 20
97.67421689164618
 30
0.0
 10
137.5660624634448
 20
97.56116451312424
 30
0.0
 10
137.3146720574977
 20
97.46536968081354
 30
0.0
  0
LINE
  5
14E
330
1F
100
AcDbEntity
  8
0
  6
Continuous
 62
     7
370
    25
100
AcDbLine
 10
142.0804742529
 20
70.8800769605
 30
0.0
 11
142.0804742529
 21
102.3550769605
 31
0.0
  0
LINE
  5
14F
330
1F
100
AcDbEntity
  8
0
  6
Continuous
 62
     7
370
    25
100
AcDbLine
 10
142.0804742529
 20
133.8300769605
 30
0.0
 11
137.3146720575
 21
133.8300769605
 31
0.0
  0
LINE
  5
150
330
1F
100
AcDbEntity
  8
0
  6
Continuous
 62
     7
370
    25
100
AcDbLine
 10
124.0804742529
 20
71.0800769605
 30
0.0
 11
124.0804742529
 21
102.3550769605
 31
0.0
  0
LINE
  5
151
330
1F
100
AcDbEntity
  8
0
  6
Continuous
 62
     7
370
    25
100
AcDbLine
 10
124.0804742529
 20
102.3550769605
 30
0.0
 11
124.2804742529
 21
102.3550769605
 31
0.0
  0
ARC
  5
152
330
1F
100
AcDbEntity
  8
0
  6
Continuous
 62
     7
370
    25
100
AcDbCircle
 10
124.2804742529
 20
133.6300769605
 30
0.0
 40
0.2000000000000171
100
AcDbArc
 50
90.0
 51
179.9999999999
  0
SPLINE
  5
153
330
1F
100
AcDbEntity
  8
0
  6
Continuous
 62
     7
370
    25
100
AcDbSpline
210
0.0
220
0.0
230
1.0
 70
     8
 71
     3
 72
    14
 73
    10
 74
     0
 42
0.000000001
 43
0.00000001
 40
0.0
 40
0.0
 40
0.0
 40
0.0
 40
0.25
 40
0.25
 40
0.5
 40
0.5
 40
0.75
 40
0.75
 40
1.0
 40
1.0
 40
1.0
 40
1.0
 10
130.6462764483576
 20
99.06017887498187
 30
0.0
 10
130.4494005628326
 20
99.28767544291104
 30
0.0
 10
130.2732922414431
 20
99.52926221798216
 30
0.0
 10
129.9635558476699
 20
100.0414194523563
 30
0.0
 10
129.8289978461763
 20
100.3149522554644
 30
0.0
 10
129.6137556934672
 20
100.8750573900019
 30
0.0
 10
129.5321124559482
 20
101.1620298854119
 30
0.0
 10
129.4215894336782
 20
101.7500688704562
 30
0.0
 10
129.3929742529277
 20
102.0545123262269
 30
0.0
 10
129.3929742529276
 20
102.3550769604986
 30
0.0
  0
LINE
  5
154
330
1F
100
AcDbEntity
  8
0
  6
Continuous
 62
     7
370
    25
100
AcDbLine
 10
130.6462764484
 20
70.8800769605
 30
0.0
 11
130.6462764484
 21
99.060178875
 31
0.0
  0
LINE
  5
155
330
1F
100
AcDbEntity
  8
0
  6
Continuous
 62
     7
370
    25
100
AcDbLine
 10
130.6462764484
 20
133.8300769605
 30
0.0
 11
124.2804742529
 21
133.8300769605
 31
0.0
  0
ARC
  5
156
330
1F
100
AcDbEntity
  8
0
  6
Continuous
 62
     7
370
    25
100
AcDbCircle
 10
135.1304742529
 20
102.3550769605
 30
0.0
 40
3.737499999999983
100
AcDbArc
 50
180.0
 51
206.113804444
  0
SPLINE
  5
157
330
1F
100
AcDbEntity
  8
0
  6
Continuous
 62
     7
370
    25
100
AcDbSpline
210
0.0
220
0.0
230
1.0
 70
     8
 71
     3
 72
    10
 73
     6
 74
     0
 42
0.000000001
 43
0.00000001
 40
0.0
 40
0.0
 40
0.0
 40
0.0
 40
0.5
 40
0.5
 40
1.0
 40
1.0
 40
1.0
 40
1.0
 10
131.7744924454744
 20
100.709995698663
 30
0.0
 10
131.597607299051
 20
100.4115453833064
 30
0.0
 10
131.4120579241736
 20
100.132552679179
 30
0.0
 10
131.034108984126
 20
99.58723338505331
 30
0.0
 10
130.8413224419468
 20
99.32189799923185
 30
0.0
 10
130.6462764483576
 20
99.0601788749819
 30
0.0
  0
SPLINE
  5
158
330
1F
100
AcDbEntity
  8
0
  6
Continuous
 62
     7
370
    25
100
AcDbSpline
210
0.0
220
0.0
230
1.0
 70
     8
 71
     3
 72
     8
 73
     4
 74
     0
 42
0.000000001
 43
0.00000001
 40
0.0
 40
0.0
 40
0.0
 40
0.0
 40
1.0
 40
1.0
 40
1.0
 40
1.0
 10
137.3146720574973
 20
97.46536968081243
 30
0.0
 10
136.966270652817
 20
97.90334500722635
 30
0.0
 10
136.6217022675842
 20
98.34642814581113
 30
0.0
 10
136.2833179682633
 20
98.79981921765972
 30
0.0
  0
ARC
  5
159
330
1F
100
AcDbEntity
  8
0
  6
Continuous
 62
     7
370
    25
100
AcDbCircle
 10
135.1304742529
 20
102.3550769605
 30
0.0
 40
3.737500000000011
100
AcDbArc
 50
287.9660359156
 51
0.0
  0
SPLINE
  5
15A
330
1F
100
AcDbEntity
  8
0
  6
Continuous
 62
     7
370
    25
100
AcDbSpline
210
0.0
220
0.0
230
1.0
 70
     8
 71
     3
 72
     8
 73
     4
 74
     0
 42
0.000000001
 43
0.00000001
 40
0.0
 40
0.0
 40
0.0
 40
0.0
 40
1.0
 40
1.0
 40
1.0
 40
1.0
 10
132.1054742529277
 20
100.1600185899763
 30
0.0
 10
131.9871774934977
 20
100.3230428184347
 30
0.0
 10
131.8757490113264
 20
100.5034313174572
 30
0.0
 10
131.7744924454744
 20
100.709995698663
 30
0.0
  0
LINE
  5
15B
330
1F
100
AcDbEntity
  8
0
  6
Continuous
 62
     7
370
    25
100
AcDbLine
 10
132.1054742529
 20
73.4074816963
 30
0.0
 11
132.1054742529
 21
100.16001859
 31
0.0
  0
SPLINE
  5
15C
330
1F
100
AcDbEntity
  8
0
  6
Continuous
 62
     7
370
    25
100
AcDbSpline
210
0.0
220
0.0
230
1.0
 70
     8
 71
     3
 72
     8
 73
     4
 74
     0
 42
0.000000001
 43
0.00000001
 40
0.0
 40
0.0
 40
0.0
 40
0.0
 40
1.0
 40
1.0
 40
1.0
 40
1.0
 10
136.2833179682636
 20
98.79981921766053
 30
0.0
 10
136.1417798799818
 20
98.75392344656346
 30
0.0
 10
135.9991694112449
 20
98.71698259562613
 30
0.0
 10
135.8554742529279
 20
98.68856891468555
 30
0.0
  0
LINE
  5
15D
330
1F
100
AcDbEntity
  8
0
  6
Continuous
 62
     7
370
    25
100
AcDbLine
 10
135.8554742529
 20
73.4074816963
 30
0.0
 11
135.8554742529
 21
98.6885689147
 31
0.0
  0
SPLINE
  5
15E
330
1F
100
AcDbEntity
  8
0
  6
Continuous
 62
     7
370
    25
100
AcDbSpline
210
0.0
220
0.0
230
1.0
 70
     8
 71
     3
 72
    14
 73
    10
 74
     0
 42
0.000000001
 43
0.00000001
 40
0.0
 40
0.0
 40
0.0
 40
0.0
 40
0.25
 40
0.25
 40
0.5
 40
0.5
 40
0.75
 40
0.75
 40
1.0
 40
1.0
 40
1.0
 40
1.0
 10
133.1054742529276
 20
99.21369490000362
 30
0.0
 10
132.9711261665712
 20
99.3002984616312
 30
0.0
 10
132.8479494927152
 20
99.3917668589546
 30
0.0
 10
132.6192028877972
 20
99.58295824558552
 30
0.0
 10
132.51728092383
 20
99.67982009772643
 30
0.0
 10
132.3378575214012
 20
99.86769471246174
 30
0.0
 10
132.2614162332185
 20
99.957930063813
 30
0.0
 10
132.1441262603684
 20
100.1057364277904
 30
0.0
 10
132.1054742529276
 20
100.1600185899763
 30
0.0
 10
132.1054742529276
 20
100.1600185899763
 30
0.0
  0
SPLINE
  5
15F
330
1F
100
AcDbEntity
  8
0
  6
Continuous
 62
     7
370
    25
100
AcDbSpline
210
0.0
220
0.0
230
1.0
 70
     8
 71
     3
 72
    14
 73
    10
 74
     0
 42
0.000000001
 43
0.00000001
 40
0.0
 40
0.0
 40
0.0
 40
0.0
 40
0.25
 40
0.25
 40
0.5
 40
0.5
 40
0.75
 40
0.75
 40
1.0
 40
1.0
 40
1.0
 40
1.0
 10
135.8554742529278
 20
98.68856891468612
 30
0.0
 10
135.855474252928
 20
98.68856891468613
 30
0.0
 10
135.8295577303568
 20
98.68319218369777
 30
0.0
 10
135.7301128837793
 20
98.66564759609729
 30
0.0
 10
135.657814491367
 20
98.65379819245102
 30
0.0
 10
135.4731105968431
 20
98.63215437445072
 30
0.0
 10
135.3635333349672
 20
98.62286511376635
 30
0.0
 10
135.1202031567491
 20
98.61560957740872
 30
0.0
 10
134.9886668978289
 20
98.61788098356811
 30
0.0
 10
134.8554742529276
 20
98.62770774750126
 30
0.0
  0
SPLINE
  5
160
330
1F
100
AcDbEntity
  8
0
  6
Continuous
 62
     7
370
    25
100
AcDbSpline
210
0.0
220
0.0
230
1.0
 70
     8
 71
     3
 72
    10
 73
     6
 74
     0
 42
0.000000001
 43
0.00000001
 40
0.0
 40
0.0
 40
0.0
 40
0.0
 40
0.5
 40
0.5
 40
1.0
 40
1.0
 40
1.0
 40
1.0
 10
134.8554742529276
 20
98.62770774750136
 30
0.0
 10
134.5430103506395
 20
98.6507608898704
 30
0.0
 10
134.2401213686418
 20
98.71199559227679
 30
0.0
 10
133.6527781838377
 20
98.90816755620071
 30
0.0
 10
133.3683105232658
 20
99.04426519130057
 30
0.0
 10
133.1054742529276
 20
99.21369490000362
 30
0.0
  0
LINE
  5
161
330
1F
100
AcDbEntity
  8
0
  6
Continuous
 62
     7
370
    25
100
AcDbLine
 10
124.0804742529
 20
129.2050769605
 30
0.0
 11
124.414512939
 21
128.1456416001
 31
0.0
  0
LINE
  5
162
330
1F
100
AcDbEntity
  8
0
  6
Continuous
 62
     7
370
    25
100
AcDbLine
 10
124.0804742529
 20
129.2050769605
 30
0.0
 11
124.0804742529
 21
127.2297882272
 31
0.0
  0
ARC
  5
163
330
1F
100
AcDbEntity
  8
0
  6
Continuous
 62
     7
370
    25
100
AcDbCircle
 10
123.6515393784
 20
127.9050769605
 30
0.0
 40
0.8000000000000181
100
AcDbArc
 50
252.5
 51
17.5
  0
LINE
  5
164
330
1F
100
AcDbEntity
  8
0
  6
Continuous
 62
     7
370
    25
100
AcDbLine
 10
122.9202922129
 20
77.413338915
 30
0.0
 11
122.9202922129
 21
102.3550769605
 31
0.0
  0
LINE
  5
165
330
1F
100
AcDbEntity
  8
0
  6
Continuous
 62
     7
370
    25
100
AcDbLine
 10
123.4109747388
 20
127.1421033999
 30
0.0
 11
122.9202922129
 21
127.296815006
 31
0.0
  0
SPLINE
  5
166
330
1F
100
AcDbEntity
  8
0
  6
Continuous
 62
     7
370
    25
100
AcDbSpline
210
0.0
220
0.0
230
1.0
 70
     8
 71
     3
 72
    23
 73
    19
 74
     0
 42
0.000000001
 43
0.00000001
 40
0.0
 40
0.0
 40
0.0
 40
0.0
 40
0.0014752899205275
 40
0.0696288509416035
 40
0.1372792101573364
 40
0.2039819135400783
 40
0.2703117571759917
 40
0.3365672618513769
 40
0.4028772365390579
 40
0.4678771374618322
 40
0.5326481398333837
 40
0.5993656092925664
 40
0.6655280750059939
 40
0.7321209147635985
 40
0.7988898269457709
 40
0.866338659222382
 40
0.9345238227745254
 40
1.0
 40
1.0
 40
1.0
 40
1.0
 10
93.84022872908812
 20
125.7793565951783
 30
0.0
 10
93.84139537335373
 20
125.7789966669591
 30
0.0
 10
93.8964571605596
 20
125.7620092342004
 30
0.0
 10
94.29288817247034
 20
125.6447397194409
 30
0.0
 10
95.00894956830724
 20
125.4441286740152
 30
0.0
 10
96.01862830937557
 20
125.2035139089755
 30
0.0
 10
97.2346067294112
 20
124.9762415754125
 30
0.0
 10
98.63880661532751
 20
124.803852086493
 30
0.0
 10
100.1558707511384
 20
124.7157837731141
 30
0.0
 10
101.7301685857831
 20
124.746831436397
 30
0.0
 10
103.2959888158452
 20
124.8978546749347
 30
0.0
 10
104.785845884253
 20
125.1521914738292
 30
0.0
 10
106.1575260768923
 20
125.4699282523989
 30
0.0
 10
107.3434491705307
 20
125.8138446725565
 30
0.0
 10
108.3210485145606
 20
126.1416872728589
 30
0.0
 10
109.0405596661452
 20
126.4106117023443
 30
0.0
 10
109.5131946678491
 20
126.5932010379656
 30
0.0
 10
109.5706657822021
 20
126.6164494305504
 30
0.0
 10
109.5988189403766
 20
126.6278380330007
 30
0.0
  0
LINE
  5
167
330
1F
100
AcDbEntity
  8
0
  6
Continuous
 62
     7
370
    25
100
AcDbLine
 10
93.6809083677
 20
125.8284733221
 30
0.0
 11
85.6304742529
 21
125.4241970881
 31
0.0
  0
LINE
  5
168
330
1F
100
AcDbEntity
  8
0
  6
Continuous
 62
     7
370
    25
100
AcDbLine
 10
85.6304742529
 20
79.2859568329
 30
0.0
 11
85.6304742529
 21
93.2329539259
 31
0.0
  0
SPLINE
  5
169
330
1F
100
AcDbEntity
  8
0
  6
Continuous
 62
     7
370
    25
100
AcDbSpline
210
0.0
220
0.0
230
1.0
 70
     8
 71
     3
 72
     8
 73
     4
 74
     0
 42
0.000000001
 43
0.00000001
 40
0.0
 40
0.0
 40
0.0
 40
0.0
 40
1.0
 40
1.0
 40
1.0
 40
1.0
 10
91.44864870587463
 20
93.23753998419531
 30
0.0
 10
89.50925722156322
 20
93.2353938883457
 30
0.0
 10
87.56986573725182
 20
93.23379770182095
 30
0.0
 10
85.6304742529404
 20
93.23275024934526
 30
0.0
  0
SPLINE
  5
16A
330
1F
100
AcDbEntity
  8
0
  6
Continuous
 62
     7
370
    25
100
AcDbSpline
210
0.0
220
0.0
230
1.0
 70
     8
 71
     3
 72
    13
 73
     9
 74
     0
 42
0.000000001
 43
0.00000001
 40
0.0
 40
0.0
 40
0.0
 40
0.0
 40
0.1686319999748085
 40
0.3360343310905433
 40
0.502536782590866
 40
0.6684737453788339
 40
0.834182263691515
 40
1.0
 40
1.0
 40
1.0
 40
1.0
 10
92.53214375534164
 20
93.37499643001296
 30
0.0
 10
92.47265385928188
 20
93.36048210997411
 30
0.0
 10
92.35410786900682
 20
93.33155930868953
 30
0.0
 10
92.17423117342094
 20
93.29759791528129
 30
0.0
 10
91.99384088579293
 20
93.2707323529223
 30
0.0
 10
91.81272871375909
 20
93.25177341581436
 30
0.0
 10
91.63096787659164
 20
93.23984296441867
 30
0.0
 10
91.50943510869699
 20
93.23830781284985
 30
0.0
 10
91.44864870587463
 20
93.23753998419531
 30
0.0
  0
SPLINE
  5
16B
330
1F
100
AcDbEntity
  8
0
  6
Continuous
 62
     7
370
    25
100
AcDbSpline
210
0.0
220
0.0
230
1.0
 70
     8
 71
     3
 72
     8
 73
     4
 74
     0
 42
0.000000001
 43
0.00000001
 40
0.0
 40
0.0
 40
0.0
 40
0.0
 40
1.0
 40
1.0
 40
1.0
 40
1.0
 10
97.92433717183448
 20
93.37923447189839
 30
0.0
 10
96.12694250039665
 20
93.3773634113744
 30
0.0
 10
94.32954782895881
 20
93.37594123035028
 30
0.0
 10
92.53215315752098
 20
93.3749671073543
 30
0.0
  0
SPLINE
  5
16C
330
1F
100
AcDbEntity
  8
0
  6
Continuous
 62
     7
370
    25
100
AcDbSpline
210
0.0
220
0.0
230
1.0
 70
     8
 71
     3
 72
    18
 73
    14
 74
     0
 42
0.000000001
 43
0.00000001
 40
0.0
 40
0.0
 40
0.0
 40
0.0
 40
0.0923325137111192
 40
0.1843692047063016
 40
0.2763458873810836
 40
0.3684982175655623
 40
0.4610598988303626
 40
0.554260954653301
 40
0.6483261285442131
 40
0.74347346365053
 40
0.8399130993119804
 40
0.9201660718299768
 40
1.0
 40
1.0
 40
1.0
 40
1.0
 10
100.1206588204368
 20
92.84504223605475
 30
0.0
 10
100.0503285169237
 20
92.84545886048637
 30
0.0
 10
99.90989324007178
 20
92.846290774533
 30
0.0
 10
99.69953071356916
 20
92.85989962144758
 30
0.0
 10
99.49008705065279
 20
92.88256637881922
 30
0.0
 10
99.2815373802803
 20
92.91516716861997
 30
0.0
 10
99.07389376300502
 20
92.95746964724022
 30
0.0
 10
98.86715557546543
 20
93.00954104589539
 30
0.0
 10
98.66133348350058
 20
93.07138981874076
 30
0.0
 10
98.45640180470843
 20
93.14298783019697
 30
0.0
 10
98.26492105931273
 20
93.21956632042438
 30
0.0
 10
98.08719790725812
 20
93.29817756925743
 30
0.0
 10
97.9788639126941
 20
93.35209172504483
 30
0.0
 10
97.92483870324082
 20
93.3789782399438
 30
0.0
  0
LINE
  5
16D
330
1F
100
AcDbEntity
  8
0
  6
Continuous
 62
     7
370
    25
100
AcDbLine
 10
102.0355320997
 20
92.8465376709
 30
0.0
 11
100.1206588204
 21
92.8450422361
 31
0.0
  0
SPLINE
  5
16E
330
1F
100
AcDbEntity
  8
0
  6
Continuous
 62
     7
370
    25
100
AcDbSpline
210
0.0
220
0.0
230
1.0
 70
     8
 71
     3
 72
    25
 73
    21
 74
     0
 42
0.000000001
 43
0.00000001
 40
0.0
 40
0.0
 40
0.0
 40
0.0
 40
0.0280105225422753
 40
0.0559601148854256
 40
0.0839014045034749
 40
0.1118870776777086
 40
0.1399695827579646
 40
0.1682008401731476
 40
0.1966319670417595
 40
0.2253130233137476
 40
0.2542927850735311
 40
0.3799486436564626
 40
0.5057850221666382
 40
0.631308588631066
 40
0.7532068238011618
 40
0.8039473267946936
 40
0.8535894438541253
 40
0.9025339722380873
 40
0.9511970353782256
 40
1.0
 40
1.0
 40
1.0
 40
1.0
 10
106.9754164061291
 20
97.98040147543007
 30
0.0
 10
106.9754536278629
 20
97.90578144841757
 30
0.0
 10
106.9755279903636
 20
97.75670371243208
 30
0.0
 10
106.963111939717
 20
97.53408562146791
 30
0.0
 10
106.9415073793632
 20
97.31276120344047
 30
0.0
 10
106.9098219097032
 20
97.09279293755259
 30
0.0
 10
106.8682957713832
 20
96.87420265032353
 30
0.0
 10
106.8168650156533
 20
96.65702071191846
 30
0.0
 10
106.7555511409421
 20
96.44127929203223
 30
0.0
 10
106.6843408054427
 20
96.22698940058005
 30
0.0
 10
106.5135041982415
 20
95.7786396275591
 30
0.0
 10
106.1757719648055
 20
95.12530879948699
 30
0.0
 10
105.5642173006108
 20
94.35341558885084
 30
0.0
 10
104.8279824654582
 20
93.7092559634656
 30
0.0
 10
104.141496393814
 20
93.31761479540359
 30
0.0
 10
103.5927922476652
 20
93.09891989443054
 30
0.0
 10
103.2107560691636
 20
92.9830638456001
 30
0.0
 10
102.823589970459
 20
92.90215594007023
 30
0.0
 10
102.4313633016689
 20
92.85292750927249
 30
0.0
 10
102.1676020335501
 20
92.84866965425726
 30
0.0
 10
102.0355320997262
 20
92.84653767091451
 30
0.0
  0
LINE
  5
16F
330
1F
100
AcDbEntity
  8
0
  6
Continuous
 62
     7
370
    25
100
AcDbLine
 10
106.9754164061
 20
102.3550769605
 30
0.0
 11
106.9754164061
 21
97.9804014754
 31
0.0
  0
LINE
  5
170
330
1F
100
AcDbEntity
  8
0
  6
Continuous
 62
     7
370
    25
100
AcDbLine
 10
122.9202922129
 20
127.296815006
 30
0.0
 11
109.5988189404
 21
126.627838033
 31
0.0
  0
SPLINE
  5
171
330
1F
100
AcDbEntity
  8
0
  6
Continuous
 62
     7
370
    25
100
AcDbSpline
210
0.0
220
0.0
230
1.0
 70
     8
 71
     3
 72
    20
 73
    16
 74
     0
 42
0.000000001
 43
0.00000001
 40
0.0
 40
0.0
 40
0.0
 40
0.0
 40
0.0829621378684853
 40
0.1658495135106165
 40
0.2487180070857357
 40
0.3299477216398525
 40
0.4108693994445736
 40
0.4941953814850564
 40
0.5768901676626228
 40
0.6601065810557779
 40
0.7435845489350856
 40
0.827985846540189
 40
0.9132590745392887
 40
0.9972257035811808
 40
1.0
 40
1.0
 40
1.0
 40
1.0
 10
95.99289034765462
 20
79.49181659299181
 30
0.0
 10
96.37863618372593
 20
79.56873501959595
 30
0.0
 10
97.14978023684311
 20
79.72250255693355
 30
0.0
 10
98.55752838801294
 20
79.89841777831907
 30
0.0
 10
100.0653797558876
 20
79.9924140656481
 30
0.0
 10
101.6378687309054
 20
79.96856968378152
 30
0.0
 10
103.2051657621175
 20
79.82466463888093
 30
0.0
 10
104.700941788899
 20
79.57560703608189
 30
0.0
 10
106.0811956645717
 20
79.26092634354326
 30
0.0
 10
107.2787898476273
 20
78.91666499156271
 30
0.0
 10
108.2656518774495
 20
78.58761776574296
 30
0.0
 10
109.0128901236475
 20
78.30915685753523
 30
0.0
 10
109.4600915530131
 20
78.1373010625036
 30
0.0
 10
109.646846165163
 20
78.06345039090515
 30
0.0
 10
109.5957479512649
 20
78.08360168197827
 30
0.0
 10
109.5941136409198
 20
78.0842461949848
 30
0.0
  0
SPLINE
  5
172
330
1F
100
AcDbEntity
  8
0
  6
Continuous
 62
     7
370
    25
100
AcDbSpline
210
0.0
220
0.0
230
1.0
 70
     8
 71
     3
 72
    11
 73
     7
 74
     0
 42
0.000000001
 43
0.00000001
 40
0.0
 40
0.0
 40
0.0
 40
0.0
 40
0.243551223173136
 40
0.4981153923403517
 40
0.7509097881719441
 40
0.9999999999999999
 40
0.9999999999999999
 40
0.9999999999999999
 40
0.9999999999999999
 10
93.68539622991105
 20
78.8831543836087
 30
0.0
 10
93.71134715143634
 20
78.89138992014684
 30
0.0
 10
93.76442244824145
 20
78.90823338929633
 30
0.0
 10
94.24211743190392
 20
79.04913483143383
 30
0.0
 10
94.95345688017068
 20
79.25442538188204
 30
0.0
 10
95.64812152734537
 20
79.41307650007926
 30
0.0
 10
95.99289034765462
 20
79.49181659299181
 30
0.0
  0
LINE
  5
173
330
1F
100
AcDbEntity
  8
0
  6
Continuous
 62
     7
370
    25
100
AcDbLine
 10
106.9754164061
 20
97.9804014754
 30
0.0
 11
106.0804742529
 21
98.1425769605
 31
0.0
  0
LINE
  5
174
330
1F
100
AcDbEntity
  8
0
  6
Continuous
 62
     7
370
    25
100
AcDbLine
 10
106.0804742529
 20
98.1425769605
 30
0.0
 11
106.0804742529
 21
102.3550769605
 31
0.0
  0
SPLINE
  5
175
330
1F
100
AcDbEntity
  8
0
  6
Continuous
 62
     7
370
    25
100
AcDbSpline
210
0.0
220
0.0
230
1.0
 70
     8
 71
     3
 72
    25
 73
    21
 74
     0
 42
0.000000001
 43
0.00000001
 40
0.0
 40
0.0
 40
0.0
 40
0.0
 40
0.0288821753116583
 40
0.0583636594024247
 40
0.088464720432864
 40
0.1192044006641432
 40
0.1506005800108822
 40
0.1826700399688414
 40
0.2154285269587146
 40
0.2488908143380118
 40
0.3610594471217245
 40
0.498467013106778
 40
0.5822693905006526
 40
0.6661127642782239
 40
0.7499972937224496
 40
0.8007709755032478
 40
0.8511237700807983
 40
0.901089602450676
 40
0.9507031914109089
 40
1.0
 40
1.0
 40
1.0
 40
1.0
 10
102.0804742529277
 20
94.14257696049864
 30
0.0
 10
102.1432747061664
 20
94.14343344445048
 30
0.0
 10
102.2701787299663
 20
94.14516418450415
 30
0.0
 10
102.4615331376808
 20
94.15931404990795
 30
0.0
 10
102.6554379503594
 20
94.18245113222937
 30
0.0
 10
102.8513386710878
 20
94.2158622844548
 30
0.0
 10
103.048676339092
 20
94.25973610648754
 30
0.0
 10
103.2468296808771
 20
94.31453137745686
 30
0.0
 10
103.4451454248853
 20
94.38060033882043
 30
0.0
 10
103.7964664123879
 20
94.51858167107343
 30
0.0
 10
104.3215781827103
 20
94.7986336099146
 30
0.0
 10
104.8585700111958
 20
95.23722421232297
 30
0.0
 10
105.2706297412343
 20
95.71108433386964
 30
0.0
 10
105.5575483292867
 20
96.14276808168947
 30
0.0
 10
105.7559750164939
 20
96.54589132344961
 30
0.0
 10
105.8880608905423
 20
96.9036274842286
 30
0.0
 10
105.9736947703401
 20
97.20637988651094
 30
0.0
 10
106.0347769816931
 20
97.51486819675662
 30
0.0
 10
106.0732779250586
 20
97.82717990691302
 30
0.0
 10
106.0780806041521
 20
98.03766932081443
 30
0.0
 10
106.0804742529277
 20
98.14257696049863
 30
0.0
  0
SPLINE
  5
176
330
1F
100
AcDbEntity
  8
0
  6
Continuous
 62
     7
370
    25
100
AcDbSpline
210
0.0
220
0.0
230
1.0
 70
     8
 71
     3
 72
    13
 73
     9
 74
     0
 42
0.000000001
 43
0.00000001
 40
0.0
 40
0.0
 40
0.0
 40
0.0
 40
0.1722587823678385
 40
0.3421398271425444
 40
0.5097456258111679
 40
0.6751828993453325
 40
0.8385626190248169
 40
1.0
 40
1.0
 40
1.0
 40
1.0
 10
99.08049262183792
 20
94.29257178324845
 30
0.0
 10
99.14135601151047
 20
94.27630805554892
 30
0.0
 10
99.26224267595587
 20
94.2440050930682
 30
0.0
 10
99.44530383392832
 20
94.20661743837458
 30
0.0
 10
99.62740651686896
 20
94.17748450346447
 30
0.0
 10
99.80834796518562
 20
94.15729778785908
 30
0.0
 10
99.98768696888189
 20
94.14485098355843
 30
0.0
 10
100.1065331972953
 20
94.14333194033105
 30
0.0
 10
100.1656009736382
 20
94.14257696049864
 30
0.0
  0
LINE
  5
177
330
1F
100
AcDbEntity
  8
0
  6
Continuous
 62
     7
370
    25
100
AcDbLine
 10
100.1206588204
 20
92.8450422361
 30
0.0
 11
100.1656009736
 21
94.1425769605
 31
0.0
  0
SPLINE
  5
178
330
1F
100
AcDbEntity
  8
0
  6
Continuous
 62
     7
370
    25
100
AcDbSpline
210
0.0
220
0.0
230
1.0
 70
     8
 71
     3
 72
    11
 73
     7
 74
     0
 42
0.000000001
 43
0.00000001
 40
0.0
 40
0.0
 40
0.0
 40
0.0
 40
0.2392913844325938
 40
0.5001130135003002
 40
0.7515028526498353
 40
0.9999999999999999
 40
0.9999999999999999
 40
0.9999999999999999
 40
0.9999999999999999
 10
98.75300176078171
 20
94.29315056552176
 30
0.0
 10
98.68417682483478
 20
94.22159712836711
 30
0.0
 10
98.54033442866158
 20
94.07205223285584
 30
0.0
 10
98.332585630295
 20
93.84313480621033
 30
0.0
 10
98.12459942567389
 20
93.61081643397053
 30
0.0
 10
97.99159850190364
 20
93.45604055137925
 30
0.0
 10
97.92548285767919
 20
93.37910043022937
 30
0.0
  0
SPLINE
  5
179
330
1F
100
AcDbEntity
  8
0
  6
Continuous
 62
     7
370
    25
100
AcDbSpline
210
0.0
220
0.0
230
1.0
 70
    24
 71
     3
 72
     9
 73
     5
 74
     0
 42
0.000000001
 43
0.00000001
 40
0.0
 40
0.0
 40
0.0
 40
0.0
 40
0.509083966986604
 40
1.0
 40
1.0
 40
1.0
 40
1.0
 10
98.7552320291012
 20
94.29257696049864
 30
0.0
 10
98.80996542921355
 20
94.29257696049864
 30
0.0
 10
98.91747893123237
 20
94.29257696049864
 30
0.0
 10
99.02687149160332
 20
94.29257696049864
 30
0.0
 10
99.08057405338181
 20
94.29257696049864
 30
0.0
  0
LINE
  5
17A
330
1F
100
AcDbEntity
  8
0
  6
Continuous
 62
     7
370
    25
100
AcDbLine
 10
92.5066241645
 20
94.2725251867
 30
0.0
 11
92.5320386561
 21
93.3749670161
 31
0.0
  0
SPLINE
  5
17B
330
1F
100
AcDbEntity
  8
0
  6
Continuous
 62
     7
370
    25
100
AcDbSpline
210
0.0
220
0.0
230
1.0
 70
     8
 71
     3
 72
     8
 73
     4
 74
     0
 42
0.000000001
 43
0.00000001
 40
0.0
 40
0.0
 40
0.0
 40
0.0
 40
1.0
 40
1.0
 40
1.0
 40
1.0
 10
92.50663535565587
 20
94.27252567683786
 30
0.0
 10
92.52843821213791
 20
94.27822300787054
 30
0.0
 10
92.55019292153544
 20
94.28410459066552
 30
0.0
 10
92.5718963768535
 20
94.29016958521859
 30
0.0
  0
LINE
  5
17C
330
1F
100
AcDbEntity
  8
0
  6
Continuous
 62
     7
370
    25
100
AcDbLine
 10
92.580474253
 20
94.2925769605
 30
0.0
 11
98.7541472253
 21
94.2925769605
 31
0.0
  0
LINE
  5
17D
330
1F
100
AcDbEntity
  8
0
  6
Continuous
 62
     7
370
    25
100
AcDbLine
 10
100.1656009736
 20
94.1425769605
 30
0.0
 11
102.0804742529
 21
94.1425769605
 31
0.0
  0
SPLINE
  5
17E
330
1F
100
AcDbEntity
  8
0
  6
Continuous
 62
     7
370
    25
100
AcDbSpline
210
0.0
220
0.0
230
1.0
 70
     8
 71
     3
 72
    13
 73
     9
 74
     0
 42
0.000000001
 43
0.00000001
 40
0.0
 40
0.0
 40
0.0
 40
0.0
 40
0.1621004456571512
 40
0.325943455157606
 40
0.4915935308260523
 40
0.6591130873964648
 40
0.8285624736043361
 40
1.0
 40
1.0
 40
1.0
 40
1.0
 10
91.49534753221712
 20
94.14257696049864
 30
0.0
 10
91.55090249028267
 20
94.14324592669989
 30
0.0
 10
91.6626096167474
 20
94.14459105042323
 30
0.0
 10
91.83045730614117
 20
94.15553761921458
 30
0.0
 10
91.99924372500956
 20
94.17317654853527
 30
0.0
 10
92.1685680815414
 20
94.19848206252315
 30
0.0
 10
92.33831472971877
 20
94.23078606531614
 30
0.0
 10
92.45030762837642
 20
94.25855766520216
 30
0.0
 10
92.50663066340616
 20
94.27252445070339
 30
0.0
  0
LINE
  5
17F
330
1F
100
AcDbEntity
  8
0
  6
Continuous
 62
     7
370
    25
100
AcDbLine
 10
84.7168144314
 20
93.6150752166
 30
0.0
 11
85.630474253
 21
94.1425769605
 31
0.0
  0
LINE
  5
180
330
1F
100
AcDbEntity
  8
0
  6
Continuous
 62
     7
370
    25
100
AcDbLine
 10
85.630474253
 20
94.1425769605
 30
0.0
 11
91.4953475322
 21
94.1425769605
 31
0.0
  0
SPLINE
  5
181
330
1F
100
AcDbEntity
  8
0
  6
Continuous
 62
     7
370
    25
100
AcDbSpline
210
0.0
220
0.0
230
1.0
 70
     8
 71
     3
 72
     8
 73
     4
 74
     0
 42
0.000000001
 43
0.00000001
 40
0.0
 40
0.0
 40
0.0
 40
0.0
 40
1.0
 40
1.0
 40
1.0
 40
1.0
 10
85.63047425247672
 20
93.23275024912265
 30
0.0
 10
85.32592097877118
 20
93.36144111366944
 30
0.0
 10
85.02136770506566
 20
93.48888586993115
 30
0.0
 10
84.71681443136012
 20
93.61507521656887
 30
0.0
  0
LINE
  5
182
330
1F
100
AcDbEntity
  8
0
  6
Continuous
 62
     7
370
    25
100
AcDbLine
 10
84.1304742529
 20
80.1519822367
 30
0.0
 11
84.1304742529
 21
93.2765515567
 31
0.0
  0
SPLINE
  5
183
330
1F
100
AcDbEntity
  8
0
  6
Continuous
 62
     7
370
    25
100
AcDbSpline
210
0.0
220
0.0
230
1.0
 70
    24
 71
     3
 72
     8
 73
     4
 74
     0
 42
0.000000001
 43
0.00000001
 40
0.0
 40
0.0
 40
0.0
 40
0.0
 40
1.0
 40
1.0
 40
1.0
 40
1.0
 10
84.71681443136012
 20
93.61507521656888
 30
0.0
 10
84.52048240570177
 20
93.50172286870449
 30
0.0
 10
84.32502138546155
 20
93.38887339605273
 30
0.0
 10
84.13047425292766
 20
93.27655155671421
 30
0.0
  0
ARC
  5
184
330
1F
100
AcDbEntity
  8
0
  6
Continuous
 62
     7
370
    25
100
AcDbCircle
 10
145.0804742529
 20
122.8550769605
 30
0.0
 40
3.0
100
AcDbArc
 50
180.0
 51
270.0
  0
ARC
  5
185
330
1F
100
AcDbEntity
  8
0
  6
Continuous
 62
     7
370
    25
100
AcDbCircle
 10
117.2804742529
 20
119.8050769605
 30
0.0
 40
0.8000000000000114
100
AcDbArc
 50
0.0
 51
90.0
  0
ARC
  5
186
330
1F
100
AcDbEntity
  8
0
  6
Continuous
 62
     7
370
    25
100
AcDbCircle
 10
115.8557147265
 20
119.8050769605
 30
0.0
 40
0.7999999999999996
100
AcDbArc
 50
90.0
 51
120.0
  0
LINE
  5
187
330
1F
100
AcDbEntity
  8
0
  6
Continuous
 62
     7
370
    25
100
AcDbLine
 10
115.8557147265
 20
120.6050769605
 30
0.0
 11
117.2804742529
 21
120.6050769605
 31
0.0
  0
LINE
  5
188
330
1F
100
AcDbEntity
  8
0
  6
Continuous
 62
     7
370
    25
100
AcDbLine
 10
114.5804742529
 20
119.9925769605
 30
0.0
 11
114.5804742529
 21
102.3550769605
 31
0.0
  0
LINE
  5
189
330
1F
100
AcDbEntity
  8
0
  6
Continuous
 62
     7
370
    25
100
AcDbLine
 10
114.5804742529
 20
119.9925769605
 30
0.0
 11
115.4557147265
 21
120.4978972835
 31
0.0
  0
LINE
  5
18A
330
1F
100
AcDbEntity
  8
0
  6
Continuous
 62
     7
370
    25
100
AcDbLine
 10
84.8821403028
 20
93.7105261529
 30
0.0
 11
84.7456715304
 21
93.6317358705
 31
0.0
  0
SPLINE
  5
18B
330
1F
100
AcDbEntity
  8
0
  6
Continuous
 62
     7
370
    25
100
AcDbSpline
210
0.0
220
0.0
230
1.0
 70
     8
 71
     3
 72
    32
 73
    28
 74
     0
 42
0.000000001
 43
0.00000001
 40
0.0
 40
0.0
 40
0.0
 40
0.0
 40
0.1250000000000016
 40
0.1250000000000016
 40
0.187500000000002
 40
0.187500000000002
 40
0.2500000000000023
 40
0.2500000000000023
 40
0.3125000000000027
 40
0.3125000000000027
 40
0.375000000000003
 40
0.375000000000003
 40
0.5000000000000027
 40
0.5000000000000027
 40
0.5625000000000026
 40
0.5625000000000026
 40
0.6250000000000026
 40
0.6250000000000026
 40
0.7500000000000021
 40
0.7500000000000021
 40
0.8125000000000017
 40
0.8125000000000017
 40
0.8750000000000011
 40
0.8750000000000011
 40
0.9375000000000007
 40
0.9375000000000007
 40
1.0
 40
1.0
 40
1.0
 40
1.0
 10
98.54810458426829
 20
118.5277457147082
 30
0.0
 10
98.06403034031428
 20
118.5281051073278
 30
0.0
 10
97.5806327697474
 20
118.5430643135091
 30
0.0
 10
96.85672742001138
 20
118.5900483600178
 30
0.0
 10
96.61606498647454
 20
118.6098249151423
 30
0.0
 10
96.14471887739892
 20
118.6567889986414
 30
0.0
 10
95.91288306110866
 20
118.6840428478259
 30
0.0
 10
95.45717997455236
 20
118.7456707764385
 30
0.0
 10
95.23331165161103
 20
118.780045877234
 30
0.0
 10
94.79398405960323
 20
118.855365320887
 30
0.0
 10
94.57726666693684
 20
118.8965832716353
 30
0.0
 10
93.95092468826401
 20
119.026820090816
 30
0.0
 10
93.5665320539106
 20
119.1218600027152
 30
0.0
 10
93.03899030829079
 20
119.2681269646677
 30
0.0
 10
92.87135615675969
 20
119.3174955998583
 30
0.0
 10
92.55295140951914
 20
119.4158993073586
 30
0.0
 10
92.40337053497998
 20
119.4645825719911
 30
0.0
 10
91.99035046543153
 20
119.6042053751595
 30
0.0
 10
91.75879869427239
 20
119.68979205374
 30
0.0
 10
91.47548917918274
 20
119.7987551016561
 30
0.0
 10
91.39192149741093
 20
119.8318037542305
 30
0.0
 10
91.24999666508674
 20
119.8888071504709
 30
0.0
 10
91.19100855364418
 20
119.9130038560813
 30
0.0
 10
91.09629264993437
 20
119.9522061364603
 30
0.0
 10
91.06056468278759
 20
119.9672133029574
 30
0.0
 10
91.01260040507013
 20
119.9874223006843
 30
0.0
 10
91.00047409763667
 20
119.9925769604986
 30
0.0
 10
91.00047409763664
 20
119.9925769604986
 30
0.0
  0
SPLINE
  5
18C
330
1F
100
AcDbEntity
  8
0
  6
Continuous
 62
     7
370
    25
100
AcDbSpline
210
0.0
220
0.0
230
1.0
 70
     8
 71
     3
 72
    31
 73
    27
 74
     0
 42
0.000000001
 43
0.00000001
 40
0.0
 40
0.0
 40
0.0
 40
0.0
 40
0.0161756722762526
 40
0.0323169137831901
 40
0.0484425619887058
 40
0.0645715089965098
 40
0.0807226353345217
 40
0.0969147439454887
 40
0.1131664955259477
 40
0.1294963463054467
 40
0.1459224892616117
 40
0.16246279963486
 40
0.1791347854483568
 40
0.1959555435640281
 40
0.2945755146277851
 40
0.3932797312250729
 40
0.492817622193321
 40
0.5924285912823333
 40
0.693902091744813
 40
0.7927115381487325
 40
0.8267756331435501
 40
0.860804332496487
 40
0.89498463140099
 40
0.9295010594357854
 40
0.964532832246829
 40
1.0
 40
1.0
 40
1.0
 40
1.0
 10
109.5564236430117
 20
119.9925769604986
 30
0.0
 10
109.5556905425606
 20
119.9922305690707
 30
0.0
 10
109.5542259021011
 20
119.9915385235272
 30
0.0
 10
109.541169522436
 20
119.9859561614808
 30
0.0
 10
109.5201549619132
 20
119.9770893984867
 30
0.0
 10
109.4904077565725
 20
119.9646482977717
 30
0.0
 10
109.4521354439169
 20
119.9487576392165
 30
0.0
 10
109.4052827629957
 20
119.9294318953893
 30
0.0
 10
109.3498650329588
 20
119.9067158058698
 30
0.0
 10
109.2858790691283
 20
119.8806468014951
 30
0.0
 10
109.2133255849777
 20
119.851264354127
 30
0.0
 10
109.1322088874981
 20
119.8186101067922
 30
0.0
 10
109.0425152327481
 20
119.7827176597578
 30
0.0
 10
108.7854693860916
 20
119.680479752091
 30
0.0
 10
108.2574334004987
 20
119.4739555386243
 30
0.0
 10
107.2787987532525
 20
119.1368702252744
 30
0.0
 10
106.0929224503338
 20
118.7937253659465
 30
0.0
 10
104.7224561852605
 20
118.4966134652859
 30
0.0
 10
103.2365989132959
 20
118.286570037553
 30
0.0
 10
102.0164462795309
 20
118.2283446346844
 30
0.0
 10
101.150022246586
 20
118.2420369759444
 30
0.0
 10
100.6217773181092
 20
118.2674050615556
 30
0.0
 10
100.097004086903
 20
118.309427677273
 30
0.0
 10
99.57601484731057
 20
118.3677116405011
 30
0.0
 10
99.0587739022521
 20
118.4403351857465
 30
0.0
 10
98.72313678991823
 20
118.4992155034364
 30
0.0
 10
98.5542818018565
 20
118.5288374819817
 30
0.0
  0
LINE
  5
18D
330
1F
100
AcDbEntity
  8
0
  6
Continuous
 62
     7
370
    25
100
AcDbLine
 10
109.556423643
 20
119.9925769605
 30
0.0
 11
114.5804742529
 21
119.9925769605
 31
0.0
  0
LINE
  5
18E
330
1F
100
AcDbEntity
  8
0
  6
Continuous
 62
     7
370
    25
100
AcDbLine
 10
106.7304742529
 20
106.4178503713
 30
0.0
 11
106.7304742529
 21
102.3550769605
 31
0.0
  0
SPLINE
  5
18F
330
1F
100
AcDbEntity
  8
0
  6
Continuous
 62
     7
370
    25
100
AcDbSpline
210
0.0
220
0.0
230
1.0
 70
     8
 71
     3
 72
    25
 73
    21
 74
     0
 42
0.000000001
 43
0.00000001
 40
0.0
 40
0.0
 40
0.0
 40
0.0
 40
0.0278144320063462
 40
0.0555680196245754
 40
0.083331625367772
 40
0.111176035216759
 40
0.1391714221532265
 40
0.1673868326284763
 40
0.1958897140434718
 40
0.2247454979318961
 40
0.254017249222145
 40
0.3796724410016501
 40
0.5056484635002454
 40
0.629752729069345
 40
0.7535891720571729
 40
0.8038564806093713
 40
0.853339684343451
 40
0.9023264398358534
 40
0.9511131859219439
 40
1.0
 40
1.0
 40
1.0
 40
1.0
 10
102.0804742529277
 20
110.9025735428636
 30
0.0
 10
102.14912960689
 20
110.9020404577565
 30
0.0
 10
102.2862901304427
 20
110.9009754536721
 30
0.0
 10
102.4915327130284
 20
110.8878805562799
 30
0.0
 10
102.6958537295255
 20
110.8663420697074
 30
0.0
 10
102.8992547816145
 20
110.8355205978588
 30
0.0
 10
103.1017304124604
 20
110.7956078453513
 30
0.0
 10
103.303279276708
 20
110.7465076524104
 30
0.0
 10
103.5038932975107
 20
110.6881944048985
 30
0.0
 10
103.703591061843
 20
110.6206024620317
 30
0.0
 10
104.1191558825223
 20
110.4597889459161
 30
0.0
 10
104.7219322990648
 20
110.1458120465747
 30
0.0
 10
105.4159888545697
 20
109.58224057108
 30
0.0
 10
105.9827624839669
 20
108.906496351826
 30
0.0
 10
106.3203402896381
 20
108.2891345243495
 30
0.0
 10
106.508802698927
 20
107.7970730848395
 30
0.0
 10
106.6080639164515
 20
107.4594213022931
 30
0.0
 10
106.6784085051583
 20
107.1167901602695
 30
0.0
 10
106.7224071036769
 20
106.769425459828
 30
0.0
 10
106.7277833671572
 20
106.5351220832211
 30
0.0
 10
106.7304742529277
 20
106.4178503712984
 30
0.0
  0
LINE
  5
190
330
1F
100
AcDbEntity
  8
0
  6
Continuous
 62
     7
370
    25
100
AcDbLine
 10
100.1656009736
 20
110.9025735429
 30
0.0
 11
102.0804742529
 21
110.9025735429
 31
0.0
  0
SPLINE
  5
191
330
1F
100
AcDbEntity
  8
0
  6
Continuous
 62
     7
370
    25
100
AcDbSpline
210
0.0
220
0.0
230
1.0
 70
     8
 71
     3
 72
    12
 73
     8
 74
     0
 42
0.000000001
 43
0.00000001
 40
0.0
 40
0.0
 40
0.0
 40
0.0
 40
0.1992838848975294
 40
0.3984605265796777
 40
0.5979968004971673
 40
0.7983570684833388
 40
1.0
 40
1.0
 40
1.0
 40
1.0
 10
99.16456713129921
 20
110.8003792301402
 30
0.0
 10
99.23002040859967
 20
110.8134015829049
 30
0.0
 10
99.36089173998164
 20
110.839439280547
 30
0.0
 10
99.5597411916054
 20
110.8678698395211
 30
0.0
 10
99.76014770747646
 20
110.8883010005026
 30
0.0
 10
99.9623186248937
 20
110.9007400775731
 30
0.0
 10
100.0976962085448
 20
110.9019610891478
 30
0.0
 10
100.1656009736382
 20
110.9025735428636
 30
0.0
  0
LINE
  5
192
330
1F
100
AcDbEntity
  8
0
  6
Continuous
 62
     7
370
    25
100
AcDbLine
 10
93.7398041238
 20
110.8002153061
 30
0.0
 11
99.1637941422
 21
110.8002153061
 31
0.0
  0
SPLINE
  5
193
330
1F
100
AcDbEntity
  8
0
  6
Continuous
 62
     7
370
    25
100
AcDbSpline
210
0.0
220
0.0
230
1.0
 70
     8
 71
     3
 72
    24
 73
    20
 74
     0
 42
0.000000001
 43
0.00000001
 40
0.0
 40
0.0
 40
0.0
 40
0.0
 40
0.0410257106287842
 40
0.0818520099077639
 40
0.1225800578354648
 40
0.1633117464058233
 40
0.2041489402806705
 40
0.2451927184749161
 40
0.2865426449235763
 40
0.3282960933646444
 40
0.370547647549383
 40
0.4133885920102291
 40
0.4569065022351533
 40
0.5011849368587563
 40
0.6001856774947433
 40
0.6987388860447942
 40
0.7976800645453981
 40
0.8978349910029445
 40
1.0
 40
1.0
 40
1.0
 40
1.0
 10
89.96781721677753
 20
112.7378571231616
 30
0.0
 10
90.03085630473205
 20
112.7373224228465
 30
0.0
 10
90.15662807011395
 20
112.7362556212038
 30
0.0
 10
90.34456623162477
 20
112.7251121292057
 30
0.0
 10
90.53115632444936
 20
112.706950630898
 30
0.0
 10
90.71639810698449
 20
112.6810757101765
 30
0.0
 10
90.9002872902124
 20
112.6476388243649
 30
0.0
 10
91.08282095618517
 20
112.6065548028213
 30
0.0
 10
91.26399636312449
 20
112.5577920547278
 30
0.0
 10
91.44381114710063
 20
112.5012945665841
 30
0.0
 10
91.6222643461802
 20
112.4370034717818
 30
0.0
 10
91.79935238432988
 20
112.3648497918495
 30
0.0
 10
91.97508450861561
 20
112.2847626068107
 30
0.0
 10
92.22009914221194
 20
112.1609217201283
 30
0.0
 10
92.52428222139415
 20
111.9822967379352
 30
0.0
 10
92.87158970283923
 20
111.7332075538779
 30
0.0
 10
93.19076396631165
 20
111.4536379688983
 30
0.0
 10
93.48467586857635
 20
111.144812330926
 30
0.0
 10
93.6541999552682
 20
110.9167202876243
 30
0.0
 10
93.739804123751
 20
110.8015411995937
 30
0.0
  0
LINE
  5
194
330
1F
100
AcDbEntity
  8
0
  6
Continuous
 62
     7
370
    25
100
AcDbLine
 10
87.1762754999
 20
112.7378571232
 30
0.0
 11
89.9678172168
 21
112.7378571232
 31
0.0
  0
SPLINE
  5
195
330
1F
100
AcDbEntity
  8
0
  6
Continuous
 62
     7
370
    25
100
AcDbSpline
210
0.0
220
0.0
230
1.0
 70
     8
 71
     3
 72
     8
 73
     4
 74
     0
 42
0.000000001
 43
0.00000001
 40
0.0
 40
0.0
 40
0.0
 40
0.0
 40
1.0
 40
1.0
 40
1.0
 40
1.0
 10
87.13047142816892
 20
112.8013101141713
 30
0.0
 10
87.1457394520666
 20
112.7801936437731
 30
0.0
 10
87.16100747596428
 20
112.7590425767205
 30
0.0
 10
87.17627549986197
 20
112.7378571231616
 30
0.0
  0
LINE
  5
196
330
1F
100
AcDbEntity
  8
0
  6
Continuous
 62
     7
370
    25
100
AcDbLine
 10
87.1304742529
 20
119.9925769605
 30
0.0
 11
87.1304742529
 21
112.8013101142
 31
0.0
  0
LINE
  5
197
330
1F
100
AcDbEntity
  8
0
  6
Continuous
 62
     7
370
    25
100
AcDbLine
 10
87.1304742529
 20
119.9925769605
 30
0.0
 11
91.0004740976
 21
119.9925769605
 31
0.0
  0
SPLINE
  5
198
330
1F
100
AcDbEntity
  8
0
  6
Continuous
 62
     7
370
    25
100
AcDbSpline
210
0.0
220
0.0
230
1.0
 70
     8
 71
     3
 72
    10
 73
     6
 74
     0
 42
0.000000001
 43
0.00000001
 40
0.0
 40
0.0
 40
0.0
 40
0.0
 40
0.3872395626427372
 40
0.7792414004086559
 40
1.0
 40
1.0
 40
1.0
 40
1.0
 10
199.5304742961883
 20
119.8550769604986
 30
0.0
 10
199.5507400522412
 20
119.8487813187545
 30
0.0
 10
199.591520792771
 20
119.8361126114157
 30
0.0
 10
199.8355521863659
 20
119.760458467897
 30
0.0
 10
200.0940799490116
 20
119.687946143044
 30
0.0
 10
200.1872194915763
 20
119.6618221991472
 30
0.0
  0
LWPOLYLINE
  5
199
330
1F
100
AcDbEntity
  8
0
  6
Continuous
 62
     7
370
    25
100
AcDbPolyline
 90
        6
 70
   128
 43
0.0
 10
208.9739532883
 20
119.6615979252
 10
209.2400098315
 20
119.7367665563
 10
209.5328738586
 20
119.8246447265
 10
209.630474152
 20
119.8550769422
 10
209.6304740705
 20
119.8550769605
 10
209.6304740705
 20
119.8550769605
  0
LINE
  5
19A
330
1F
100
AcDbEntity
  8
0
  6
Continuous
 62
     7
370
    25
100
AcDbLine
 10
199.5304742962
 20
119.8550769605
 30
0.0
 11
145.0804742529
 21
119.8550769605
 31
0.0
  0
LINE
  5
19B
330
1F
100
AcDbEntity
  8
0
  6
Continuous
 62
     7
370
    25
100
AcDbLine
 10
213.3579396504
 20
84.8550769605
 30
0.0
 11
213.3579396504
 21
102.3550769605
 31
0.0
  0
LINE
  5
19C
330
1F
100
AcDbEntity
  8
0
  6
Continuous
 62
     7
370
    25
100
AcDbLine
 10
213.3579396504
 20
119.8550769605
 30
0.0
 11
209.6304740705
 21
119.8550769605
 31
0.0
  0
LINE
  5
19D
330
1F
100
AcDbEntity
  8
0
  6
Continuous
 62
     7
370
    25
100
AcDbLine
 10
222.9257107764
 20
115.393552013
 30
0.0
 11
213.3579396504
 21
119.8550769605
 31
0.0
  0
ARC
  5
19E
330
1F
100
AcDbEntity
  8
0
  6
Continuous
 62
     7
370
    25
100
AcDbCircle
 10
121.7804742529
 20
116.7050769605
 30
0.0
 40
1.200000000000017
100
AcDbArc
 50
0.0
 51
90.0
  0
LINE
  5
19F
330
1F
100
AcDbEntity
  8
0
  6
Continuous
 62
     7
370
    25
100
AcDbLine
 10
118.0804742529
 20
117.9050769605
 30
0.0
 11
121.7804742529
 21
117.9050769605
 31
0.0
  0
LINE
  5
1A0
330
1F
100
AcDbEntity
  8
0
  6
Continuous
 62
     7
370
    25
100
AcDbLine
 10
118.0804742529
 20
117.9050769605
 30
0.0
 11
118.0804742529
 21
102.3550769605
 31
0.0
  0
LINE
  5
1A1
330
1F
100
AcDbEntity
  8
0
  6
Continuous
 62
     7
370
    25
100
AcDbLine
 10
224.0804742529
 20
91.129217516
 30
0.0
 11
224.0804742529
 21
102.3550769605
 31
0.0
  0
ARC
  5
1A2
330
1F
100
AcDbEntity
  8
0
  6
Continuous
 62
     7
370
    25
100
AcDbCircle
 10
222.0804742529
 20
113.5809364389
 30
0.0
 40
2.0
100
AcDbArc
 50
0.0
 51
65.0
  0
LINE
  5
1A3
330
1F
100
AcDbEntity
  8
0
  6
Continuous
 62
     7
370
    25
100
AcDbLine
 10
126.8054742529
 20
108.1050769605
 30
0.0
 11
127.6304742529
 21
108.1050769605
 31
0.0
  0
ARC
  5
1A4
330
1F
100
AcDbEntity
  8
0
  6
Continuous
 62
     7
370
    25
100
AcDbCircle
 10
186.1857002348
 20
107.2550769605
 30
0.0
 40
0.4000000000000057
100
AcDbArc
 50
70.0
 51
90.0
  0
LINE
  5
1A5
330
1F
100
AcDbEntity
  8
0
  6
Continuous
 62
     7
370
    25
100
AcDbLine
 10
183.4804742529
 20
107.6550769605
 30
0.0
 11
186.1857002348
 21
107.6550769605
 31
0.0
  0
ARC
  5
1A6
330
1F
100
AcDbEntity
  8
0
  6
Continuous
 62
     7
370
    25
100
AcDbCircle
 10
223.7804742529
 20
107.6550769605
 30
0.0
 40
0.2999999999999972
100
AcDbArc
 50
270.0
 51
0.0
  0
LINE
  5
1A7
330
1F
100
AcDbEntity
  8
0
  6
Continuous
 62
     7
370
    25
100
AcDbLine
 10
224.0804742529
 20
107.6550769605
 30
0.0
 11
224.0804742529
 21
102.3550769605
 31
0.0
  0
ARC
  5
1A8
330
1F
100
AcDbEntity
  8
0
  6
Continuous
 62
     7
370
    25
100
AcDbCircle
 10
183.4804742529
 20
107.2550769605
 30
0.0
 40
0.4000000000000057
100
AcDbArc
 50
90.0
 51
180.0
  0
LINE
  5
1A9
330
1F
100
AcDbEntity
  8
0
  6
Continuous
 62
     7
370
    25
100
AcDbLine
 10
187.0804742529
 20
107.3550769605
 30
0.0
 11
187.0804742529
 21
102.3550769605
 31
0.0
  0
LINE
  5
1AA
330
1F
100
AcDbEntity
  8
0
  6
Continuous
 62
     7
370
    25
100
AcDbLine
 10
186.3225082921
 20
107.6309540088
 30
0.0
 11
187.0804742529
 21
107.3550769605
 31
0.0
  0
LINE
  5
1AB
330
1F
100
AcDbEntity
  8
0
  6
Continuous
 62
     7
370
    25
100
AcDbLine
 10
123.3804742529
 20
107.3550769605
 30
0.0
 11
123.3804742529
 21
102.3550769605
 31
0.0
  0
LINE
  5
1AC
330
1F
100
AcDbEntity
  8
0
  6
Continuous
 62
     7
370
    25
100
AcDbLine
 10
122.9804742529
 20
107.5860170682
 30
0.0
 11
123.3804742529
 21
107.3550769605
 31
0.0
  0
LINE
  5
1AD
330
1F
100
AcDbEntity
  8
0
  6
Continuous
 62
     7
370
    25
100
AcDbLine
 10
122.9804742529
 20
107.5860170682
 30
0.0
 11
122.9804742529
 21
102.3550769605
 31
0.0
  0
LINE
  5
1AE
330
1F
100
AcDbEntity
  8
0
  6
Continuous
 62
     7
370
    25
100
AcDbLine
 10
123.3804742529
 20
107.3550769605
 30
0.0
 11
126.8054742529
 21
107.3550769605
 31
0.0
  0
LINE
  5
1AF
330
1F
100
AcDbEntity
  8
0
  6
Continuous
 62
     7
370
    25
100
AcDbLine
 10
126.8054742529
 20
107.3550769605
 30
0.0
 11
126.8054742529
 21
102.3550769605
 31
0.0
  0
SPLINE
  5
1B0
330
1F
100
AcDbEntity
  8
0
  6
Continuous
 62
     7
370
    25
100
AcDbSpline
210
0.0
220
0.0
230
1.0
 70
     8
 71
     3
 72
    44
 73
    40
 74
     0
 42
0.000000001
 43
0.00000001
 40
0.0
 40
0.0
 40
0.0
 40
0.0
 40
0.0624999999999986
 40
0.0624999999999986
 40
0.1249999999999972
 40
0.1249999999999972
 40
0.1874999999999957
 40
0.1874999999999957
 40
0.2499999999999942
 40
0.2499999999999942
 40
0.3124999999999927
 40
0.3124999999999927
 40
0.3749999999999912
 40
0.3749999999999912
 40
0.4062499999999904
 40
0.4062499999999904
 40
0.4374999999999897
 40
0.4374999999999897
 40
0.4687499999999889
 40
0.4687499999999889
 40
0.4999999999999881
 40
0.4999999999999881
 40
0.5624999999999895
 40
0.5624999999999895
 40
0.6249999999999908
 40
0.6249999999999908
 40
0.6874999999999922
 40
0.6874999999999922
 40
0.7499999999999936
 40
0.7499999999999936
 40
0.812499999999995
 40
0.812499999999995
 40
0.8749999999999964
 40
0.8749999999999964
 40
0.937499999999998
 40
0.937499999999998
 40
0.9687499999999989
 40
0.9687499999999989
 40
1.0
 40
1.0
 40
1.0
 40
1.0
 10
200.3304742529277
 20
107.3550769604986
 30
0.0
 10
200.3304742529276
 20
107.3550769604986
 30
0.0
 10
200.362788238194
 20
107.327531311295
 30
0.0
 10
200.4851851248032
 20
107.2241446325286
 30
0.0
 10
200.5764769288131
 20
107.1472988586824
 30
0.0
 10
200.8049851426234
 20
106.9580883847666
 30
0.0
 10
200.9423305668688
 20
106.8455838092415
 30
0.0
 10
201.2557172481836
 20
106.5956631721905
 30
0.0
 10
201.4282476048483
 20
106.4609908308643
 30
0.0
 10
201.8032019975246
 20
106.1806797954296
 30
0.0
 10
202.0069938661034
 20
106.0339254090295
 30
0.0
 10
202.4427523450072
 20
105.7434363808512
 30
0.0
 10
202.671941791276
 20
105.6011805906828
 30
0.0
 10
203.0390245483317
 20
105.4051368528578
 30
0.0
 10
203.1653300507224
 20
105.3427482910025
 30
0.0
 10
203.4281429845585
 20
105.2276044569972
 30
0.0
 10
203.565865970007
 20
105.1745025896647
 30
0.0
 10
203.8467668037901
 20
105.0860213999823
 30
0.0
 10
203.9902185040438
 20
105.0504156551263
 30
0.0
 10
204.2844769555977
 20
105.0015960383995
 30
0.0
 10
204.4367940873971
 20
104.9885665228178
 30
0.0
 10
204.8905474755147
 20
104.9898707935858
 30
0.0
 10
205.1825311300948
 20
105.043721451132
 30
0.0
 10
205.7452704525294
 20
105.2226694873887
 30
0.0
 10
206.0044429603592
 20
105.3420454028257
 30
0.0
 10
206.4966928253669
 20
105.6056441745514
 30
0.0
 10
206.7291304672691
 20
105.750440728466
 30
0.0
 10
207.1602097628995
 20
106.0383916213451
 30
0.0
 10
207.3610732797493
 20
106.1830917288236
 30
0.0
 10
207.7366445186822
 20
106.4640156148211
 30
0.0
 10
207.9117382541186
 20
106.6007954789787
 30
0.0
 10
208.2210776607404
 20
106.8476039849595
 30
0.0
 10
208.3572092265224
 20
106.9591064126153
 30
0.0
 10
208.5867900269595
 20
107.14923238314
 30
0.0
 10
208.6760620936813
 20
107.224395936642
 30
0.0
 10
208.7678395152851
 20
107.3019203704848
 30
0.0
 10
208.791485471835
 20
107.3219720897416
 30
0.0
 10
208.8227287857128
 20
107.348488145257
 30
0.0
 10
208.8304742529277
 20
107.3550769604986
 30
0.0
 10
208.8304742529277
 20
107.3550769604986
 30
0.0
  0
LINE
  5
1B1
330
1F
100
AcDbEntity
  8
0
  6
Continuous
 62
     7
370
    25
100
AcDbLine
 10
208.8304742529
 20
107.3550769605
 30
0.0
 11
223.7804742529
 21
107.3550769605
 31
0.0
  0
LINE
  5
1B2
330
1F
100
AcDbEntity
  8
0
  6
Continuous
 62
     7
370
    25
100
AcDbLine
 10
187.0804742529
 20
107.3550769605
 30
0.0
 11
200.3304742529
 21
107.3550769605
 31
0.0
  0
LINE
  5
1B3
330
1F
100
AcDbEntity
  8
0
  6
Continuous
 62
     7
370
    25
100
AcDbLine
 10
127.6304742529
 20
106.3550769605
 30
0.0
 11
183.0804742529
 21
106.3550769605
 31
0.0
  0
LINE
  5
1B4
330
1F
100
AcDbEntity
  8
0
  6
Continuous
 62
     7
370
    25
100
AcDbLine
 10
183.0804742529
 20
106.3550769605
 30
0.0
 11
183.0804742529
 21
102.3550769605
 31
0.0
  0
LINE
  5
1B5
330
1F
100
AcDbEntity
  8
0
  6
Continuous
 62
     7
370
    25
100
AcDbLine
 10
127.6304742529
 20
106.3550769605
 30
0.0
 11
127.6304742529
 21
102.3550769605
 31
0.0
  0
SPLINE
  5
1B6
330
1F
100
AcDbEntity
  8
0
  6
Continuous
 62
     7
370
    25
100
AcDbSpline
210
0.0
220
0.0
230
1.0
 70
     8
 71
     3
 72
    37
 73
    33
 74
     0
 42
0.000000001
 43
0.00000001
 40
0.0
 40
0.0
 40
0.0
 40
0.0
 40
0.0114878548102799
 40
0.0231559765621647
 40
0.0350076484354353
 40
0.0470460033795304
 40
0.0592740307999908
 40
0.0716945830965779
 40
0.0843103820274647
 40
0.0971240248797991
 40
0.1101379904320507
 40
0.1233546446979382
 40
0.1811510010973226
 40
0.2483631736114421
 40
0.2888373415819253
 40
0.3232297457604625
 40
0.3515392131491945
 40
0.3737664266256189
 40
0.4399300285953852
 40
0.4987424063270027
 40
0.5023253005651628
 40
0.5613100074513717
 40
0.6252595444338138
 40
0.6818650083849792
 40
0.74838900169879
 40
0.7860781471964682
 40
0.8194856599799781
 40
0.848612771528172
 40
0.873462272774742
 40
0.9389926156604146
 40
0.9981523731393552
 40
1.0
 40
1.0
 40
1.0
 40
1.0
 10
108.9304742529277
 20
125.8187292638519
 30
0.0
 10
108.9295478016492
 20
125.8182857468434
 30
0.0
 10
108.927680361257
 20
125.817391753176
 30
0.0
 10
108.9124073009173
 20
125.8101997757177
 30
0.0
 10
108.8875055984534
 20
125.7987485321252
 30
0.0
 10
108.8516513265176
 20
125.7825987733507
 30
0.0
 10
108.8046838156799
 20
125.7618710937971
 30
0.0
 10
108.746140905259
 20
125.7365325747953
 30
0.0
 10
108.6756627656814
 20
125.7065921542408
 30
0.0
 10
108.5928882014039
 20
125.6720481801988
 30
0.0
 10
108.4974716562858
 20
125.6328984385842
 30
0.0
 10
108.2679028228973
 20
125.540199767423
 30
0.0
 10
107.7834846089247
 20
125.3514768769085
 30
0.0
 10
107.0044846373793
 20
125.0733870769373
 30
0.0
 10
106.2132661859591
 20
124.8228002096079
 30
0.0
 10
105.5822156927163
 20
124.6477834482781
 30
0.0
 10
105.0291777363799
 20
124.5079488076791
 30
0.0
 10
104.2362198074835
 20
124.327537962333
 30
0.0
 10
103.1658854671504
 20
124.1384716406909
 30
0.0
 10
102.1848951877151
 20
124.0331848329812
 30
0.0
 10
101.2569279585955
 20
123.9761520610282
 30
0.0
 10
100.2844724648351
 20
123.9615574626585
 30
0.0
 10
98.9583422594017
 20
124.0397506791496
 30
0.0
 10
97.68830677490799
 20
124.2002304007438
 30
0.0
 10
96.72853077423835
 20
124.3853419389575
 30
0.0
 10
96.02987912689353
 20
124.5528315426876
 30
0.0
 10
95.58607098873841
 20
124.6664547488958
 30
0.0
 10
95.25353392680843
 20
124.7596385838044
 30
0.0
 10
94.86637551656521
 20
124.874303448063
 30
0.0
 10
94.52912755445345
 20
124.9816492571231
 30
0.0
 10
94.43140348812439
 20
125.0192148304097
 30
0.0
 10
94.43050156785255
 20
125.0193462392262
 30
0.0
 10
94.43047425292767
 20
125.0193502189814
 30
0.0
  0
LINE
  5
1B7
330
1F
100
AcDbEntity
  8
0
  6
Continuous
 62
     7
370
    25
100
AcDbLine
 10
108.9304742529
 20
125.8187292639
 30
0.0
 11
108.9304742529
 21
120.4613029813
 31
0.0
  0
SPLINE
  5
1B8
330
1F
100
AcDbEntity
  8
0
  6
Continuous
 62
     7
370
    25
100
AcDbSpline
210
0.0
220
0.0
230
1.0
 70
     8
 71
     3
 72
    30
 73
    26
 74
     0
 42
0.000000001
 43
0.00000001
 40
0.0
 40
0.0
 40
0.0
 40
0.0
 40
0.0192411700742056
 40
0.0381353539376964
 40
0.0566868884861289
 40
0.0749003554931371
 40
0.0927805967284126
 40
0.1103327298326406
 40
0.127562164928992
 40
0.1444746219341848
 40
0.2455865830532022
 40
0.3577720192516864
 40
0.4505017408956519
 40
0.5720127868619944
 40
0.6168069840200017
 40
0.6590088499432826
 40
0.6986242498774748
 40
0.7356603299341613
 40
0.7701258931915136
 40
0.8073679165907882
 40
0.8483950324891437
 40
0.8881367798820078
 40
0.9266264622110474
 40
0.9639007443615107
 40
1.0
 40
1.0
 40
1.0
 40
1.0
 10
99.75965566231557
 20
118.7972116709067
 30
0.0
 10
99.8426881421952
 20
118.7860845655818
 30
0.0
 10
100.007255733268
 20
118.7640310159157
 30
0.0
 10
100.2551372489486
 20
118.735979126653
 30
0.0
 10
100.500413924391
 20
118.7120275961271
 30
0.0
 10
100.7429717580022
 20
118.6924976439337
 30
0.0
 10
100.9824064351111
 20
118.6773053517571
 30
0.0
 10
101.2184196305182
 20
118.6664737905262
 30
0.0
 10
101.450737675829
 20
118.6599932252731
 30
0.0
 10
102.059288445453
 20
118.654361733687
 30
0.0
 10
103.097600942673
 20
118.7143351331716
 30
0.0
 10
104.4129524707743
 20
118.9137576063465
 30
0.0
 10
105.6924976836659
 20
119.2192389670303
 30
0.0
 10
106.583938227756
 20
119.4991817699492
 30
0.0
 10
107.201603096617
 20
119.7266308664646
 30
0.0
 10
107.5449261819004
 20
119.8569095269646
 30
0.0
 10
107.8366172667959
 20
119.9730004649225
 30
0.0
 10
108.0811626226217
 20
120.0743686943258
 30
0.0
 10
108.2935173030611
 20
120.1657067468434
 30
0.0
 10
108.4845802776857
 20
120.2497818307906
 30
0.0
 10
108.6498276818582
 20
120.3247747847559
 30
0.0
 10
108.7793682321023
 20
120.3857632843016
 30
0.0
 10
108.8677346013248
 20
120.429000946067
 30
0.0
 10
108.9208804465885
 20
120.4562310319459
 30
0.0
 10
108.9273106425297
 20
120.4596304780758
 30
0.0
 10
108.9304742529277
 20
120.4613029812503
 30
0.0
  0
SPLINE
  5
1B9
330
1F
100
AcDbEntity
  8
0
  6
Continuous
 62
     7
370
    25
100
AcDbSpline
210
0.0
220
0.0
230
1.0
 70
     8
 71
     3
 72
    38
 73
    34
 74
     0
 42
0.000000001
 43
0.00000001
 40
0.0
 40
0.0
 40
0.0
 40
0.0
 40
0.125000000000001
 40
0.125000000000001
 40
0.2500000000000019
 40
0.2500000000000019
 40
0.3125000000000023
 40
0.3125000000000023
 40
0.3750000000000026
 40
0.3750000000000026
 40
0.4375000000000029
 40
0.4375000000000029
 40
0.5000000000000032
 40
0.5000000000000032
 40
0.5625000000000034
 40
0.5625000000000034
 40
0.6250000000000038
 40
0.6250000000000038
 40
0.687500000000004
 40
0.687500000000004
 40
0.7187500000000036
 40
0.7187500000000036
 40
0.7500000000000031
 40
0.7500000000000031
 40
0.7812500000000028
 40
0.7812500000000028
 40
0.8125000000000023
 40
0.8125000000000023
 40
0.8750000000000016
 40
0.8750000000000016
 40
0.9375000000000009
 40
0.9375000000000009
 40
1.0
 40
1.0
 40
1.0
 40
1.0
 10
94.43047425292765
 20
124.8911248454026
 30
0.0
 10
94.43047425292781
 20
124.8911248454025
 30
0.0
 10
94.49228001049131
 20
124.8684807627405
 30
0.0
 10
94.74190255592687
 20
124.7758963736845
 30
0.0
 10
94.92563018686504
 20
124.7075087937317
 30
0.0
 10
95.28201902345013
 20
124.5716666945299
 30
0.0
 10
95.41517948495567
 20
124.5204737094734
 30
0.0
 10
95.70625849565207
 20
124.406785104361
 30
0.0
 10
95.86274844716138
 20
124.3448584968546
 30
0.0
 10
96.1961298884493
 20
124.2099733881641
 30
0.0
 10
96.37303364681243
 20
124.1370351338774
 30
0.0
 10
96.74627529428574
 20
123.9780591990815
 30
0.0
 10
96.94401928516687
 20
123.891419429205
 30
0.0
 10
97.35004271842
 20
123.7045017566526
 30
0.0
 10
97.55809611180698
 20
123.6044668428435
 30
0.0
 10
97.98039038454112
 20
123.3852032926645
 30
0.0
 10
98.19475568761618
 20
123.2662001009999
 30
0.0
 10
98.62259799919558
 20
122.995926250676
 30
0.0
 10
98.8389996503022
 20
122.8426774251643
 30
0.0
 10
99.13763209318229
 20
122.5766089015811
 30
0.0
 10
99.23282468265198
 20
122.4818366553084
 30
0.0
 10
99.41044993450876
 20
122.2760797981185
 30
0.0
 10
99.49306424513713
 20
122.1642212563478
 30
0.0
 10
99.6351445201587
 20
121.9307057521255
 30
0.0
 10
99.69553006940363
 20
121.8081446861697
 30
0.0
 10
99.79498056155848
 20
121.5516739229446
 30
0.0
 10
99.83427200058327
 20
121.4164339093948
 30
0.0
 10
99.92096858673628
 20
121.0081519064303
 30
0.0
 10
99.93967691373099
 20
120.7318917286454
 30
0.0
 10
99.93618089309928
 20
120.1751439500097
 30
0.0
 10
99.91370127289069
 20
119.896913706019
 30
0.0
 10
99.84807362510858
 20
119.3455278858342
 30
0.0
 10
99.8045760814191
 20
119.0712742167318
 30
0.0
 10
99.75509653430906
 20
118.7978447447702
 30
0.0
  0
LINE
  5
1BA
330
1F
100
AcDbEntity
  8
0
  6
Continuous
 62
     7
370
    25
100
AcDbLine
 10
94.4304742529
 20
124.8911248454
 30
0.0
 11
94.4304742529
 21
125.0193502189
 31
0.0
  0
SPLINE
  5
1BB
330
1F
100
AcDbEntity
  8
0
  6
Continuous
 62
     7
370
    25
100
AcDbSpline
210
0.0
220
0.0
230
1.0
 70
     8
 71
     3
 72
    14
 73
    10
 74
     0
 42
0.000000001
 43
0.00000001
 40
0.0
 40
0.0
 40
0.0
 40
0.0
 40
0.0003951392850831
 40
0.0003951392850831
 40
0.0003951392850831
 40
0.0008159035679249
 40
0.0008159035679249
 40
0.0008159035679249
 40
0.0012369936130997
 40
0.0012369936130997
 40
0.0012369936130997
 40
0.0012369936130997
 10
98.55835820265918
 20
118.5300499574989
 30
0.0
 10
98.6868674407659
 20
118.5589239252124
 30
0.0
 10
98.8154309484949
 20
118.5876121386887
 30
0.0
 10
98.94398132677829
 20
118.6161149827261
 30
0.0
 10
99.08086657444188
 20
118.6464658764169
 30
0.0
 10
99.2177622203417
 20
118.6766118414459
 30
0.0
 10
99.35458248169077
 20
118.7065636610144
 30
0.0
 10
99.49150847063568
 20
118.7365386257943
 30
0.0
 10
99.62838554259986
 20
118.7663246752395
 30
0.0
 10
99.765122391787
 20
118.7959471484082
 30
0.0
  0
LINE
  5
1BC
330
1F
100
AcDbEntity
  8
0
  6
Continuous
 62
     7
370
    25
100
AcDbLine
 10
91.0004740976
 20
119.9925769605
 30
0.0
 11
94.4304742529
 21
124.8911248454
 31
0.0
  0
LINE
  5
1BD
330
1F
100
AcDbEntity
  8
0
  6
Continuous
 62
     7
370
    25
100
AcDbLine
 10
208.8304742529
 20
107.3550769605
 30
0.0
 11
208.8304742529
 21
119.0550769529
 31
0.0
  0
LINE
  5
1BE
330
1F
100
AcDbEntity
  8
0
  6
Continuous
 62
     7
370
    25
100
AcDbLine
 10
200.3304742529
 20
119.0550770302
 30
0.0
 11
200.3304742529
 21
107.3550769605
 31
0.0
  0
LINE
  5
1BF
330
1F
100
AcDbEntity
  8
0
  6
Continuous
 62
     7
370
    25
100
AcDbLine
 10
93.6809124046
 20
125.8284626701
 30
0.0
 11
94.4305023835
 21
125.0193513324
 31
0.0
  0
LINE
  5
1C0
330
1F
100
AcDbEntity
  8
0
  6
Continuous
 62
     7
370
    25
100
AcDbLine
 10
108.930487201
 20
125.8187295197
 30
0.0
 11
109.598817347
 21
126.6278413421
 31
0.0
  0
LINE
  5
1C1
330
1F
100
AcDbEntity
  8
0
  6
Continuous
 62
     7
370
    25
100
AcDbLine
 10
84.8821403028
 20
121.2906531719
 30
0.0
 11
87.1304742529
 21
119.9925769605
 31
0.0
  0
LINE
  5
1C2
330
1F
100
AcDbEntity
  8
0
  6
Continuous
 62
     7
370
    25
100
AcDbLine
 10
84.1304742529
 20
122.5925769605
 30
0.0
 11
84.8821403028
 21
121.2906531719
 31
0.0
  0
LINE
  5
1C3
330
1F
100
AcDbEntity
  8
0
  6
Continuous
 62
     7
370
    25
100
AcDbLine
 10
84.1304742529
 20
124.5581716843
 30
0.0
 11
84.1304742529
 21
122.5925769605
 31
0.0
  0
LINE
  5
1C4
330
1F
100
AcDbEntity
  8
0
  6
Continuous
 62
     7
370
    25
100
AcDbLine
 10
85.6304742529
 20
125.4241970881
 30
0.0
 11
84.1304742529
 21
124.5581716843
 31
0.0
  0
ARC
  5
1C5
330
1F
100
AcDbEntity
  8
0
  6
Continuous
 62
     7
370
    25
100
AcDbCircle
 10
133.1054742529
 20
131.2050769605
 30
0.0
 40
1.0
100
AcDbArc
 50
180.0
 51
270.0
  0
LINE
  5
1C6
330
1F
100
AcDbEntity
  8
0
  6
Continuous
 62
     7
370
    25
100
AcDbLine
 10
134.8554742529
 20
130.2050769605
 30
0.0
 11
133.1054742529
 21
130.2050769605
 31
0.0
  0
ARC
  5
1C7
330
1F
100
AcDbEntity
  8
0
  6
Continuous
 62
     7
370
    25
100
AcDbCircle
 10
134.8554742529
 20
131.2050769605
 30
0.0
 40
1.0
100
AcDbArc
 50
270.0
 51
0.0
  0
LINE
  5
1C8
330
1F
100
AcDbEntity
  8
0
  6
Continuous
 62
     7
370
    25
100
AcDbLine
 10
135.8554742529
 20
131.3026722247
 30
0.0
 11
135.8554742529
 21
131.2050769605
 31
0.0
  0
LINE
  5
1C9
330
1F
100
AcDbEntity
  8
0
  6
Continuous
 62
     7
370
    25
100
AcDbLine
 10
137.3146720575
 20
133.8300769605
 30
0.0
 11
135.8554742529
 21
131.3026722247
 31
0.0
  0
LINE
  5
1CA
330
1F
100
AcDbEntity
  8
0
  6
Continuous
 62
     7
370
    25
100
AcDbLine
 10
199.5304742962
 20
119.8550769605
 30
0.0
 11
200.3304742529
 21
119.0550770302
 31
0.0
  0
LINE
  5
1CB
330
1F
100
AcDbEntity
  8
0
  6
Continuous
 62
     7
370
    25
100
AcDbLine
 10
109.5564233947
 20
119.9925782508
 30
0.0
 11
108.9304773812
 21
120.4613031061
 31
0.0
  0
LINE
  5
1CC
330
1F
100
AcDbEntity
  8
0
  6
Continuous
 62
     7
370
    25
100
AcDbLine
 10
132.1054742529
 20
131.3026722247
 30
0.0
 11
130.6462764484
 21
133.8300769605
 31
0.0
  0
LINE
  5
1CD
330
1F
100
AcDbEntity
  8
0
  6
Continuous
 62
     7
370
    25
100
AcDbLine
 10
132.1054742529
 20
131.2050769605
 30
0.0
 11
132.1054742529
 21
131.3026722247
 31
0.0
  0
LINE
  5
1CE
330
1F
100
AcDbEntity
  8
0
  6
Continuous
 62
     7
370
    25
100
AcDbLine
 10
183.0804742529
 20
106.3550769605
 30
0.0
 11
183.0804742529
 21
107.2550769605
 31
0.0
  0
LINE
  5
1CF
330
1F
100
AcDbEntity
  8
0
  6
Continuous
 62
     7
370
    25
100
AcDbLine
 10
126.8054742529
 20
107.3550769605
 30
0.0
 11
126.8054742529
 21
108.1050769605
 31
0.0
  0
LINE
  5
1D0
330
1F
100
AcDbEntity
  8
0
  6
Continuous
 62
     7
370
    25
100
AcDbLine
 10
127.6304742529
 20
108.1050769605
 30
0.0
 11
127.6304742529
 21
106.3550769605
 31
0.0
  0
LINE
  5
1D1
330
1F
100
AcDbEntity
  8
0
  6
Continuous
 62
     7
370
    25
100
AcDbLine
 10
122.9804742529
 20
116.7050769605
 30
0.0
 11
122.9804742529
 21
107.5860170682
 31
0.0
  0
LINE
  5
1D2
330
1F
100
AcDbEntity
  8
0
  6
Continuous
 62
     7
370
    25
100
AcDbLine
 10
118.0804742529
 20
119.8050769605
 30
0.0
 11
118.0804742529
 21
117.9050769605
 31
0.0
  0
LINE
  5
1D3
330
1F
100
AcDbEntity
  8
0
  6
Continuous
 62
     7
370
    25
100
AcDbLine
 10
124.0804742529
 20
133.6300769605
 30
0.0
 11
124.0804742529
 21
129.2050769605
 31
0.0
  0
LINE
  5
1D4
330
1F
100
AcDbEntity
  8
0
  6
Continuous
 62
     7
370
    25
100
AcDbLine
 10
142.0804742529
 20
122.8550769605
 30
0.0
 11
142.0804742529
 21
133.8300769605
 31
0.0
  0
LINE
  5
1D5
330
1F
100
AcDbEntity
  8
0
  6
Continuous
 62
     7
370
    25
100
AcDbLine
 10
208.8304740749
 20
119.0550769861
 30
0.0
 11
209.6304739981
 21
119.8550769144
 31
0.0
  0
LINE
  5
1D6
330
1F
100
AcDbEntity
  8
0
  6
Continuous
 62
     7
370
    25
100
AcDbLine
 10
224.0804742529
 20
107.6550769605
 30
0.0
 11
224.0804742529
 21
113.5809364389
 31
0.0
  0
SPLINE
  5
1D7
330
1F
100
AcDbEntity
  8
0
  6
Continuous
 62
     7
370
    25
100
AcDbSpline
210
0.0
220
0.0
230
1.0
 70
     8
 71
     3
 72
     9
 73
     5
 74
     0
 42
0.000000001
 43
0.00000001
 40
0.0
 40
0.0
 40
0.0
 40
0.0
 40
0.5102121239851395
 40
0.9999999999999999
 40
0.9999999999999999
 40
0.9999999999999999
 40
0.9999999999999999
 10
84.93483764959876
 20
112.8167034771505
 30
0.0
 10
85.30969970657755
 20
112.8142135597688
 30
0.0
 10
86.04441775688734
 20
112.8093333986267
 30
0.0
 10
86.77341834734408
 20
112.8039485072404
 30
0.0
 10
87.13047399815746
 20
112.8013110527257
 30
0.0
  0
LINE
  5
1D8
330
1F
100
AcDbEntity
  8
0
  6
Continuous
 62
     7
370
    25
100
AcDbLine
 10
84.8821403028
 20
112.8471277681
 30
0.0
 11
84.9348376514
 21
112.8167029396
 31
0.0
  0
LINE
  5
1D9
330
1F
100
AcDbEntity
  8
0
  6
Continuous
 62
     7
370
    25
100
AcDbLine
 10
84.8821403028
 20
121.2906531719
 30
0.0
 11
84.8821403028
 21
112.8471277681
 31
0.0
  0
SPLINE
  5
1DA
330
1F
100
AcDbEntity
  8
0
  6
Continuous
 62
     7
370
    25
100
AcDbSpline
210
0.0
220
0.0
230
1.0
 70
    24
 71
     3
 72
     8
 73
     4
 74
     0
 42
0.000000001
 43
0.00000001
 40
0.0000004089325119
 40
0.0000004089325119
 40
0.0000004089325119
 40
0.0000004089325119
 40
0.0015399868451459
 40
0.0015399868451459
 40
0.0015399868451459
 40
0.0015399868451459
 10
84.13047425292766
 20
113.2811023642831
 30
0.0
 10
84.38146532895212
 20
113.1361925989762
 30
0.0
 10
84.63205452545505
 20
112.9915148589192
 30
0.0
 10
84.8821403027672
 20
112.8471277680675
 30
0.0
  0
LINE
  5
1DB
330
1F
100
AcDbEntity
  8
0
  6
Continuous
 62
     7
370
    25
100
AcDbLine
 10
84.1304742529
 20
122.5925769605
 30
0.0
 11
84.1304742529
 21
113.2811023643
 31
0.0
  0
SPLINE
  5
1DC
330
1F
100
AcDbEntity
  8
0
  6
Continuous
 62
     7
370
    25
100
AcDbSpline
210
0.0
220
0.0
230
1.0
 70
     8
 71
     3
 72
     8
 73
     4
 74
     0
 42
0.000000001
 43
0.00000001
 40
0.0
 40
0.0
 40
0.0
 40
0.0
 40
1.0
 40
1.0
 40
1.0
 40
1.0
 10
87.26015599568443
 20
112.4150776382352
 30
0.0
 10
87.2322077755649
 20
112.5228939922107
 30
0.0
 10
87.20424768739618
 20
112.630487842377
 30
0.0
 10
87.17627549986196
 20
112.7378571231616
 30
0.0
  0
LINE
  5
1DD
330
1F
100
AcDbEntity
  8
0
  6
Continuous
 62
     7
370
    25
100
AcDbLine
 10
87.2601591342
 20
112.4150769605
 30
0.0
 11
85.6304734661
 21
112.4150769605
 31
0.0
  0
LINE
  5
1DE
330
1F
100
AcDbEntity
  8
0
  6
Continuous
 62
     7
370
    25
100
AcDbLine
 10
85.6304736661
 20
112.4150772993
 30
0.0
 11
84.9348371881
 21
112.8167032071
 31
0.0
  0
LINE
  5
1DF
330
1F
100
AcDbEntity
  8
0
  6
Continuous
 62
     7
370
    25
100
AcDbLine
 10
93.6844351502
 20
110.4175769605
 30
0.0
 11
93.4322635222
 21
110.4175769605
 31
0.0
  0
SPLINE
  5
1E0
330
1F
100
AcDbEntity
  8
0
  6
Continuous
 62
     7
370
    25
100
AcDbSpline
210
0.0
220
0.0
230
1.0
 70
     8
 71
     3
 72
    26
 73
    22
 74
     0
 42
0.000000001
 43
0.00000001
 40
0.0
 40
0.0
 40
0.0
 40
0.0
 40
0.0524616379932503
 40
0.1026498591890872
 40
0.150565513457809
 40
0.1962095861957063
 40
0.2395832262568645
 40
0.2806877815599511
 40
0.3195248450380211
 40
0.3560963147430692
 40
0.3904044736547445
 40
0.4224520974433627
 40
0.4522426027417772
 40
0.4797802555366611
 40
0.5050704712281336
 40
0.5966394156799991
 40
0.6841917884819224
 40
0.7679874773571101
 40
0.8483228539139507
 40
0.925534163520116
 40
1.0
 40
1.0
 40
1.0
 40
1.0
 10
93.43045702825825
 20
110.417606744534
 30
0.0
 10
93.39482062922697
 20
110.4771536646162
 30
0.0
 10
93.32509212888854
 20
110.5936670484029
 30
0.0
 10
93.21161396812869
 20
110.7580650091321
 30
0.0
 10
93.09608841840367
 20
110.9102267469337
 30
0.0
 10
92.97896672239354
 20
111.0501294438662
 30
0.0
 10
92.86159502191416
 20
111.1783437677702
 30
0.0
 10
92.74497405588053
 20
111.2953594467106
 30
0.0
 10
92.6300711354355
 20
111.4017366019546
 30
0.0
 10
92.51774690974615
 20
111.4980526824289
 30
0.0
 10
92.40877793571131
 20
111.5849020289815
 30
0.0
 10
92.30385889487462
 20
111.6628822111753
 30
0.0
 10
92.20360156892589
 20
111.7325904082282
 30
0.0
 10
92.10856422634275
 20
111.7946003971294
 30
0.0
 10
91.938457321912
 20
111.8990868343952
 30
0.0
 10
91.68553829050691
 20
112.0341455009096
 30
0.0
 10
91.33955713344577
 20
112.1785323933267
 30
0.0
 10
90.99159858412142
 20
112.2875003055717
 30
0.0
 10
90.64545882374536
 20
112.3620298879084
 30
0.0
 10
90.30439404031127
 20
112.4069585924578
 30
0.0
 10
90.0786474287956
 20
112.4124036913122
 30
0.0
 10
89.96781721677755
 20
112.4150769604986
 30
0.0
  0
SPLINE
  5
1E1
330
1F
100
AcDbEntity
  8
0
  6
Continuous
 62
     7
370
    25
100
AcDbSpline
210
0.0
220
0.0
230
1.0
 70
     8
 71
     3
 72
     8
 73
     4
 74
     0
 42
0.000000001
 43
0.00000001
 40
0.0
 40
0.0
 40
0.0
 40
0.0
 40
1.0
 40
1.0
 40
1.0
 40
1.0
 10
93.68443515016014
 20
110.4175769604985
 30
0.0
 10
93.71343985658773
 20
110.5415146873608
 30
0.0
 10
93.73247237626919
 20
110.6694668175941
 30
0.0
 10
93.74072396846083
 20
110.8005361302856
 30
0.0
  0
LINE
  5
1E2
330
1F
100
AcDbEntity
  8
0
  6
Continuous
 62
     7
370
    25
100
AcDbLine
 10
89.9678172168
 20
112.4150769605
 30
0.0
 11
87.2601591342
 21
112.4150769605
 31
0.0
  0
LINE
  5
1E3
330
1F
100
AcDbEntity
  8
0
  6
Continuous
 62
     7
370
    25
100
AcDbLine
 10
106.7304742529
 20
106.4178503713
 30
0.0
 11
106.0804742529
 21
106.5675769605
 31
0.0
  0
SPLINE
  5
1E4
330
1F
100
AcDbEntity
  8
0
  6
Continuous
 62
     7
370
    25
100
AcDbSpline
210
0.0
220
0.0
230
1.0
 70
     8
 71
     3
 72
    26
 73
    22
 74
     0
 42
0.000000001
 43
0.00000001
 40
0.0
 40
0.0
 40
0.0
 40
0.0
 40
0.0305951740572542
 40
0.0629166281868252
 40
0.0969720532897518
 40
0.1327680143285475
 40
0.1703101548822826
 40
0.2096033578521445
 40
0.2506518729756858
 40
0.3342141733898277
 40
0.4179517165474626
 40
0.5018670561020881
 40
0.5659795686746639
 40
0.6277136397870199
 40
0.687135819210908
 40
0.7443207393864881
 40
0.7993521466017559
 40
0.8523240127975756
 40
0.903341702807647
 40
0.9525231537633125
 40
1.0
 40
1.0
 40
1.0
 40
1.0
 10
106.0804742529277
 20
106.5675769604986
 30
0.0
 10
106.079566041083
 20
106.6321121278858
 30
0.0
 10
106.0776983731025
 20
106.7648237484792
 30
0.0
 10
106.062105784041
 20
106.9676378400029
 30
0.0
 10
106.0354619228538
 20
107.1793508809032
 30
0.0
 10
105.9953074937754
 20
107.3990628742762
 30
0.0
 10
105.9404093770922
 20
107.6258097451474
 30
0.0
 10
105.8691664084805
 20
107.8584407489305
 30
0.0
 10
105.7507540141979
 20
108.1738390634071
 30
0.0
 10
105.56262311779
 20
108.5583209619421
 30
0.0
 10
105.2786063545554
 20
108.9883485764716
 30
0.0
 10
104.9691883980057
 20
109.3468352888125
 30
0.0
 10
104.6532787872041
 20
109.6386019451019
 30
0.0
 10
104.3465333790808
 20
109.8710610319391
 30
0.0
 10
104.0281142652587
 20
110.067871266503
 30
0.0
 10
103.7021433891016
 20
110.2299719687613
 30
0.0
 10
103.3726045539764
 20
110.358441852241
 30
0.0
 10
103.0430426391298
 20
110.455025671614
 30
0.0
 10
102.7166243158306
 20
110.5208779009002
 30
0.0
 10
102.3961061235267
 20
110.5604428487256
 30
0.0
 10
102.1844406099959
 20
110.5652270469409
 30
0.0
 10
102.0804742529277
 20
110.5675769604986
 30
0.0
  0
SPLINE
  5
1E5
330
1F
100
AcDbEntity
  8
0
  6
Continuous
 62
     7
370
    25
100
AcDbSpline
210
0.0
220
0.0
230
1.0
 70
     8
 71
     3
 72
    13
 73
     9
 74
     0
 42
0.000000001
 43
0.00000001
 40
0.0
 40
0.0
 40
0.0
 40
0.0
 40
0.1604061687300809
 40
0.3231296684563272
 40
0.4883154213007764
 40
0.6561019685773533
 40
0.8266215117792448
 40
1.0
 40
1.0
 40
1.0
 40
1.0
 10
100.1656009736382
 20
110.5675769604986
 30
0.0
 10
100.106551022123
 20
110.5668213904606
 30
0.0
 10
99.98759804539831
 20
110.5652993349324
 30
0.0
 10
99.80834441179249
 20
110.552854275805
 30
0.0
 10
99.62741143010483
 20
110.5326700946743
 30
0.0
 10
99.44528293570605
 20
110.5035347285336
 30
0.0
 10
99.26211592791171
 20
110.4661185767145
 30
0.0
 10
99.14137661303737
 20
110.4338527043574
 30
0.0
 10
99.08050508145249
 20
110.4175856494189
 30
0.0
  0
SPLINE
  5
1E6
330
1F
100
AcDbEntity
  8
0
  6
Continuous
 62
     7
370
    25
100
AcDbSpline
210
0.0
220
0.0
230
1.0
 70
    24
 71
     3
 72
    10
 73
     6
 74
     0
 42
0.000000001
 43
0.00000001
 40
0.0
 40
0.0
 40
0.0
 40
0.0
 40
0.3216623556917455
 40
0.6548175346390357
 40
1.0
 40
1.0
 40
1.0
 40
1.0
 10
99.08065308783245
 20
110.4175769604986
 30
0.0
 10
99.01210717997516
 20
110.4175769604986
 30
0.0
 10
98.87256625577788
 20
110.4175769604986
 30
0.0
 10
98.66295784042734
 20
110.4175769604986
 30
0.0
 10
98.5232808452735
 20
110.4175769604986
 30
0.0
 10
98.45220407407268
 20
110.4175769604986
 30
0.0
  0
SPLINE
  5
1E7
330
1F
100
AcDbEntity
  8
0
  6
Continuous
 62
     7
370
    25
100
AcDbSpline
210
0.0
220
0.0
230
1.0
 70
     8
 71
     3
 72
     8
 73
     4
 74
     0
 42
0.000000001
 43
0.00000001
 40
0.0
 40
0.0
 40
0.0
 40
0.0
 40
1.0
 40
1.0
 40
1.0
 40
1.0
 10
99.16680436932629
 20
110.7960233096816
 30
0.0
 10
98.89750803926984
 20
110.6993339244883
 30
0.0
 10
98.66134735385607
 20
110.5713347551115
 30
0.0
 10
98.45214983767214
 20
110.4178581574668
 30
0.0
  0
LINE
  5
1E8
330
1F
100
AcDbEntity
  8
0
  6
Continuous
 62
     7
370
    25
100
AcDbLine
 10
98.4526955492
 20
94.2925769605
 30
0.0
 11
98.5893663771
 21
94.2925769605
 31
0.0
  0
LINE
  5
1E9
330
1F
100
AcDbEntity
  8
0
  6
Continuous
 62
     7
370
    25
100
AcDbLine
 10
102.0804742529
 20
110.5675769605
 30
0.0
 11
100.1656009736
 21
110.5675769605
 31
0.0
  0
LINE
  5
1EA
330
1F
100
AcDbEntity
  8
0
  6
Continuous
 62
     7
370
    25
100
AcDbLine
 10
98.4525624349
 20
110.4175769605
 30
0.0
 11
93.6844351502
 21
110.4175769605
 31
0.0
  0
LINE
  5
1EB
330
1F
100
AcDbEntity
  8
0
  6
Continuous
 62
     7
370
    25
100
AcDbLine
 10
106.0804742529
 20
102.3550769605
 30
0.0
 11
106.0804742529
 21
106.5675769605
 31
0.0
  0
LINE
  5
1EC
330
1F
100
AcDbEntity
  8
VERMASSUNG
  6
CENTERX2
100
AcDbLine
 10
238.0754742529
 20
102.3550769605
 30
0.0
 11
70.1354742529
 21
102.3550769605
 31
0.0
  0
HATCH
  5
1ED
330
1F
100
AcDbEntity
  8
0
  6
Continuous
 62
     7
370
    18
100
AcDbHatch
 10
0.0
 20
0.0
 30
0.0
210
0.0
220
0.0
230
1.0
  2
ANSI31
 70
     0
 71
     0
 91
        1
 92
        0
 93
       44
 72
     1
 10
132.1054742529276
 20
131.2050769604986
 11
132.1054742529276
 21
131.3026722246903
 72
     1
 10
132.1054742529276
 20
131.3026722246903
 11
130.6462764483576
 21
133.8300769604986
 72
     1
 10
130.6462764483576
 20
133.8300769604986
 11
124.2804742529276
 21
133.8300769604986
 72
     2
 10
124.2804742529276
 20
133.6300769604986
 40
0.2000000000000028
 50
90.0
 51
180.0
 73
     1
 72
     1
 10
124.0804742529276
 20
133.6300769604986
 11
124.0804742529276
 21
129.2050769604986
 72
     1
 10
124.0804742529276
 20
129.2050769604986
 11
124.4145129389562
 21
128.1456416001021
 72
     2
 10
123.6515393783577
 20
127.9050769604986
 40
0.8000000000000049
 50
342.4999999999998
 51
467.5000000000003
 73
     0
 72
     1
 10
123.4109747387543
 20
127.1421033999001
 11
122.9202922128969
 21
127.296815006027
 72
     1
 10
122.9202922128969
 20
127.296815006027
 11
109.5988189403774
 21
126.6278380330008
 72
     1
 10
109.5988173469788
 20
126.6278413420692
 11
108.9304872010493
 21
125.818729519678
 72
     1
 10
108.9304872010493
 20
125.818729519678
 11
108.9304742529277
 21
120.4613029812502
 72
     1
 10
108.9304773811613
 20
120.4613031061307
 11
109.5564233947035
 21
119.9925782507907
 72
     1
 10
109.5564236430124
 20
119.9925769604986
 11
114.5804742529277
 21
119.9925769604986
 72
     1
 10
114.5804742529277
 20
119.9925769604986
 11
115.4557147265085
 21
120.4978972835262
 72
     2
 10
115.8557147265085
 20
119.8050769604986
 40
0.7999999999999962
 50
239.9999999999994
 51
269.9999999999998
 73
     0
 72
     1
 10
115.8557147265085
 20
120.6050769604986
 11
117.2804742529276
 21
120.6050769604986
 72
     2
 10
117.2804742529276
 20
119.8050769604986
 40
0.7999999999999977
 50
270.0000000000008
 51
360.0000000000008
 73
     0
 72
     1
 10
118.0804742529277
 20
119.8050769604986
 11
118.0804742529277
 21
117.9050769604986
 72
     1
 10
118.0804742529277
 20
117.9050769604986
 11
121.7804742529276
 21
117.9050769604986
 72
     2
 10
121.7804742529276
 20
116.7050769604986
 40
1.2
 50
270.0000000000008
 51
360.0000000000008
 73
     0
 72
     1
 10
122.9804742529276
 20
116.7050769604986
 11
122.9804742529277
 21
107.5860170681745
 72
     1
 10
122.9804742529277
 20
107.5860170681745
 11
123.3804742529277
 21
107.3550769604986
 72
     1
 10
123.3804742529277
 20
107.3550769604986
 11
126.8054742529277
 21
107.3550769604986
 72
     1
 10
126.8054742529277
 20
107.3550769604986
 11
126.8054742529277
 21
108.1050769604986
 72
     1
 10
126.8054742529277
 20
108.1050769604986
 11
127.6304742529276
 21
108.1050769604986
 72
     1
 10
127.6304742529276
 20
108.1050769604986
 11
127.6304742529277
 21
106.3550769604986
 72
     1
 10
127.6304742529277
 20
106.3550769604986
 11
183.0804742529277
 21
106.3550769604987
 72
     1
 10
183.0804742529277
 20
106.3550769604987
 11
183.0804742529277
 21
107.2550769604987
 72
     2
 10
183.4804742529276
 20
107.2550769604987
 40
0.3999999999999989
 50
180.0
 51
269.9999999999968
 73
     0
 72
     1
 10
183.4804742529276
 20
107.6550769604987
 11
186.1857002348079
 21
107.6550769604987
 72
     2
 10
186.1857002348079
 20
107.2550769604987
 40
0.3999999999999989
 50
270.0000000000008
 51
289.9999999999954
 73
     0
 72
     1
 10
186.3225082921381
 20
107.630954008813
 11
187.0804742529277
 21
107.3550769604987
 72
     1
 10
187.0804742529277
 20
107.3550769604987
 11
200.3304742529277
 21
107.3550769604987
 72
     1
 10
200.3304742529277
 20
107.3550769604987
 11
200.3304742529277
 21
119.0550770301615
 72
     1
 10
200.3304742529277
 20
119.0550770301615
 11
199.5304742961883
 21
119.8550769604987
 72
     1
 10
199.5304742961883
 20
119.8550769604987
 11
145.0804742529276
 21
119.8550769604986
 72
     2
 10
145.0804742529276
 20
122.8550769604986
 40
3.0
 50
90.0
 51
180.0
 73
     0
 72
     1
 10
142.0804742529276
 20
122.8550769604986
 11
142.0804742529276
 21
133.8300769604986
 72
     1
 10
142.0804742529276
 20
133.8300769604986
 11
137.3146720574977
 21
133.8300769604986
 72
     1
 10
137.3146720574977
 20
133.8300769604986
 11
135.8554742529276
 21
131.3026722246903
 72
     1
 10
135.8554742529276
 20
131.3026722246903
 11
135.8554742529276
 21
131.2050769604986
 72
     2
 10
134.8554742529276
 20
131.2050769604986
 40
1.000000000000003
 50
0.0
 51
90.0
 73
     0
 72
     1
 10
134.8554742529276
 20
130.2050769604986
 11
133.1054742529276
 21
130.2050769604986
 72
     2
 10
133.1054742529276
 20
131.2050769604986
 40
1.000000000000003
 50
90.0
 51
180.0
 73
     0
 97
        0
 75
     0
 76
     1
 52
0.0
 41
1.0
 77
     0
 78
     1
 53
45.0
 43
0.0
 44
0.0
 45
-2.245064030267288
 46
2.245064030267288
 79
     0
 98
        1
 10
0.0
 20
0.0
  0
HATCH
  5
1EE
330
1F
100
AcDbEntity
  8
0
  6
Continuous
 62
     7
370
    18
100
AcDbHatch
 10
0.0
 20
0.0
 30
0.0
210
0.0
220
0.0
230
1.0
  2
ANSI31
 70
     0
 71
     0
 91
        1
 92
        0
 93
        8
 72
     1
 10
208.8304742529277
 20
107.3550769604987
 11
223.7804742529277
 21
107.3550769604987
 72
     2
 10
223.7804742529277
 20
107.6550769604987
 40
0.2999999999999973
 50
270.0000000000008
 51
360.0000000000008
 73
     1
 72
     1
 10
224.0804742529276
 20
107.6550769604987
 11
224.0804742529276
 21
113.5809364388837
 72
     2
 10
222.0804742529276
 20
113.5809364388837
 40
2.000000000000006
 50
0.0
 51
65.00000000000013
 73
     1
 72
     1
 10
222.925710776409
 20
115.393552012957
 11
213.3579396503799
 21
119.8550769604987
 72
     1
 10
213.3579396503799
 20
119.8550769604987
 11
209.6304740705445
 21
119.8550769604987
 72
     1
 10
209.6304739981178
 20
119.855076914377
 11
208.8304740748914
 21
119.0550769861483
 72
     1
 10
208.8304742529277
 20
119.0550769529407
 11
208.8304742529277
 21
107.3550769604987
 97
        0
 75
     0
 76
     1
 52
0.0
 41
1.0
 77
     0
 78
     1
 53
45.0
 43
0.0
 44
0.0
 45
-2.245064030267288
 46
2.245064030267288
 79
     0
 98
        1
 10
0.0
 20
0.0
  0
HATCH
  5
1EF
330
1F
100
AcDbEntity
  8
0
  6
Continuous
 62
     7
370
    18
100
AcDbHatch
 10
0.0
 20
0.0
 30
0.0
210
0.0
220
0.0
230
1.0
  2
ANSI31
 70
     0
 71
     0
 91
        1
 92
        0
 93
        9
 72
     1
 10
94.43050238351582
 20
125.0193513323815
 11
93.6809124045801
 21
125.8284626701491
 72
     1
 10
93.6809124045801
 20
125.8284626701491
 11
85.63047425292767
 21
125.424197088081
 72
     1
 10
85.63047425292767
 20
125.424197088081
 11
84.13047425292764
 21
124.5581716842966
 72
     1
 10
84.13047425292764
 20
124.5581716842966
 11
84.13047425292764
 21
122.5925769604986
 72
     1
 10
84.13047425292764
 20
122.5925769604986
 11
84.8821403027672
 21
121.2906531718519
 72
     1
 10
84.8821403027672
 20
121.2906531718519
 11
87.13047425292767
 21
119.9925769604986
 72
     1
 10
87.13047425292767
 20
119.9925769604986
 11
91.0004740976366
 21
119.9925769604986
 72
     1
 10
91.0004740976366
 20
119.9925769604986
 11
94.43047425292765
 21
124.8911248454026
 72
     1
 10
94.43047425292764
 20
124.8911248454026
 11
94.43047425292764
 21
125.0193502188883
 97
        0
 75
     0
 76
     1
 52
0.0
 41
1.0
 77
     0
 78
     1
 53
45.0
 43
0.0
 44
0.0
 45
-2.245064030267288
 46
2.245064030267288
 79
     0
 98
        1
 10
0.0
 20
0.0
  0
HATCH
  5
1F0
330
1F
100
AcDbEntity
  8
0
  6
Continuous
 62
     7
370
    18
100
AcDbHatch
 10
0.0
 20
0.0
 30
0.0
210
0.0
220
0.0
230
1.0
  2
ANSI31
 70
     0
 71
     0
 91
        1
 92
        0
 93
       15
 72
     1
 10
201.0804742529277
 20
107.3550769604987
 11
202.0804742529277
 21
107.3550769604987
 72
     1
 10
202.0804742529277
 20
107.3550769604987
 11
204.5804742529277
 21
108.7984526334727
 72
     1
 10
204.5804742529277
 20
108.7984526334727
 11
207.0804742529277
 21
107.3550769604987
 72
     1
 10
207.0804742529277
 20
107.3550769604987
 11
208.0804742529277
 21
107.3550769604987
 72
     1
 10
208.0804742529277
 20
107.3550769604987
 11
209.5804742529277
 21
108.8550769604987
 72
     1
 10
209.5804742529277
 20
108.8550769604987
 11
209.5804742529276
 21
119.0550769604987
 72
     1
 10
209.5804742529276
 20
119.0550769604987
 11
208.7804742529276
 21
119.8550769604987
 72
     1
 10
208.7804742529276
 20
119.8550769604987
 11
207.0804742529276
 21
119.8550769604987
 72
     1
 10
207.0804742529276
 20
119.8550769604987
 11
207.0804742529276
 21
113.8550769604987
 72
     1
 10
207.0804742529276
 20
113.8550769604987
 11
202.0804742529277
 21
113.8550769604987
 72
     1
 10
202.0804742529277
 20
113.8550769604987
 11
202.0804742529276
 21
119.8550769604987
 72
     1
 10
202.0804742529276
 20
119.8550769604987
 11
200.3804742529277
 21
119.8550769604987
 72
     1
 10
200.3804742529277
 20
119.8550769604987
 11
199.5804742529276
 21
119.0550769604987
 72
     1
 10
199.5804742529276
 20
119.0550769604987
 11
199.5804742529277
 21
108.8550769604986
 72
     1
 10
199.5804742529277
 20
108.8550769604986
 11
201.0804742529277
 21
107.3550769604987
 97
        0
 75
     0
 76
     1
 52
0.0
 41
1.0
 77
     0
 78
     1
 53
45.0
 43
0.0
 44
0.0
 45
-2.245064030267288
 46
2.245064030267288
 79
     0
 98
        1
 10
0.0
 20
0.0
  0
DIMENSION
  5
1F1
330
1F
100
AcDbEntity
  8
VERMASSUNG
100
AcDbDimension
  2
_D
 10
250.1730086546
 20
97.3550769605
 30
0.0
 11
250.1730086546
 21
102.3550769605
 31
0.0
 70
   160
  1
%%c<>
 71
     2
 42
-1.0
  3
SLDDIMSTYLE0
100
AcDbAlignedDimension
 13
200.3304742529
 23
107.3550769605
 33
0.0
 14
223.7804742529
 24
97.3550769605
 34
0.0
 50
90.0
100
AcDbRotatedDimension
  0
DIMENSION
  5
1FB
330
1F
100
AcDbEntity
  8
VERMASSUNG
100
AcDbDimension
  2
_D_1
 10
264.0804742529
 20
84.8550769605
 30
0.0
 11
264.0804742529
 21
102.3550769605
 31
0.0
 70
   160
  1
%%c<>
 71
     2
 42
-1.0
  3
SLDDIMSTYLE1
100
AcDbAlignedDimension
 13
213.3579396504
 23
119.8550769605
 33
0.0
 14
213.3579396504
 24
84.8550769605
 34
0.0
 50
90.0
100
AcDbRotatedDimension
  0
DIMENSION
  5
207
330
1F
100
AcDbEntity
  8
VERMASSUNG
100
AcDbDimension
  2
_D_2
 10
62.1304492529
 20
70.8800769605
 30
0.0
 11
62.1304492529
 21
102.3550769605
 31
0.0
 70
   160
  1
KM%%c<> XMZ
 71
     2
 42
-1.0
  3
SLDDIMSTYLE2
100
AcDbAlignedDimension
 13
137.3146720575
 23
133.8300769605
 33
0.0
 14
137.3146720575
 24
70.8800769605
 34
0.0
 50
90.0
100
AcDbRotatedDimension
  0
DIMENSION
  5
215
330
1F
100
AcDbEntity
  8
VERMASSUNG
100
AcDbDimension
  2
_D_3
 10
224.0804742529
 20
141.2503179724
 30
0.0
 11
183.0804742529
 21
141.2503179724
 31
0.0
 70
   160
  1
<>
 71
     2
 42
-1.0
  3
SLDDIMSTYLE1
100
AcDbAlignedDimension
 13
142.0804742529
 23
133.8300769605
 33
0.0
 14
224.0804742529
 24
113.5809364389
 34
0.0
100
AcDbRotatedDimension
  0
DIMENSION
  5
21F
330
1F
100
AcDbEntity
  8
VERMASSUNG
100
AcDbDimension
  2
_D_4
 10
224.0804742529
 20
149.8300769605
 30
0.0
 11
174.0804742529
 21
149.8300769605
 31
0.0
 70
   160
  1
<>
 71
     2
 42
-1.0
  3
SLDDIMSTYLE1
100
AcDbAlignedDimension
 13
124.0804742529
 23
133.6300769605
 33
0.0
 14
224.0804742529
 24
113.5809364389
 34
0.0
 50
0.0
100
AcDbRotatedDimension
  0
DIMENSION
  5
229
330
1F
100
AcDbEntity
  8
VERMASSUNG
100
AcDbDimension
  2
_D_5
 10
84.1304742529
 20
158.1579471716
 30
0.0
 11
154.1054742529
 21
158.1579471716
 31
0.0
 70
   160
  1
<>
 71
     2
 42
-1.0
  3
SLDDIMSTYLE1
100
AcDbAlignedDimension
 13
224.0804742529
 23
113.5809364389
 33
0.0
 14
84.1304742529
 24
124.5581716843
 34
0.0
 50
0.0
100
AcDbRotatedDimension
  0
LINE
  5
233
330
1F
100
AcDbEntity
  8
VERMASSUNG
  6
CENTERX2
370
    18
100
AcDbLine
 10
204.5804742529
 20
121.8550769605
 30
0.0
 11
204.5804742529
 21
102.8674842217
 31
0.0
  0
LINE
  5
234
330
1F
100
AcDbEntity
  8
0
  6
Continuous
 62
     7
370
    25
100
AcDbLine
 10
268.9403166464
 20
19.3002173135
 30
0.0
 11
273.0081090191
 21
19.3836496321
 31
0.0
  0
LINE
  5
235
330
1F
100
AcDbEntity
  8
0
  6
Continuous
 62
     7
370
    25
100
AcDbLine
 10
279.1622003865
 20
30.0440036264
 30
0.0
 11
277.2002242274
 21
33.6083472252
 31
0.0
  0
SPLINE
  5
236
330
1F
100
AcDbEntity
  8
0
  6
Continuous
 62
     7
370
    25
100
AcDbSpline
210
0.0
220
0.0
230
1.0
 70
     8
 71
     3
 72
    26
 73
    22
 74
     0
 42
0.000000001
 43
0.00000001
 40
0.0
 40
0.0
 40
0.0
 40
0.0
 40
0.0233045523363597
 40
0.0760319815200223
 40
0.1304478554584887
 40
0.1861698981244014
 40
0.2425831946728481
 40
0.2991230192015609
 40
0.3555226145458525
 40
0.4117425246688102
 40
0.4678253055305834
 40
0.5238488169777894
 40
0.5799052550371344
 40
0.6360639484385597
 40
0.6924231074341382
 40
0.74908065657397
 40
0.8061132644275615
 40
0.8635315163420966
 40
0.9211441892464729
 40
0.978337106774072
 40
1.0
 40
1.0
 40
1.0
 40
1.0
 10
273.0794299904339
 20
19.39823165111638
 30
0.0
 10
273.16967483667
 20
19.39914978969785
 30
0.0
 10
273.4641020533903
 20
19.40214525147077
 30
0.0
 10
273.9771790038442
 20
19.51751517721648
 30
0.0
 10
274.6131996912413
 20
19.7382511674535
 30
0.0
 10
275.25563157851
 20
20.06697519181945
 30
0.0
 10
275.890824564032
 20
20.49024020796488
 30
0.0
 10
276.5058770324291
 20
21.0008726837977
 30
0.0
 10
277.089365774918
 20
21.58705141750952
 30
0.0
 10
277.6320452747534
 20
22.23754931486888
 30
0.0
 10
278.1259359809148
 20
22.94103509484555
 30
0.0
 10
278.5637529633699
 20
23.68609143004912
 30
0.0
 10
278.9386959174447
 20
24.46100041878276
 30
0.0
 10
279.2445507593164
 20
25.25396788943071
 30
0.0
 10
279.4756094081142
 20
26.05325812313225
 30
0.0
 10
279.6268134715374
 20
26.84763022976934
 30
0.0
 10
279.692555648987
 20
27.6254564507031
 30
0.0
 10
279.6700154030381
 20
28.3765196054377
 30
0.0
 10
279.546494074594
 20
29.08097950019328
 30
0.0
 10
279.3896402835255
 20
29.61089055648446
 30
0.0
 10
279.2383736587005
 20
29.87596819806842
 30
0.0
 10
279.1968184110793
 20
29.94878906683308
 30
0.0
  0
LINE
  5
237
330
1F
100
AcDbEntity
  8
0
  6
Continuous
 62
     7
370
    25
100
AcDbLine
 10
243.1130964127
 20
33.6448346877
 30
0.0
 11
267.2528258051
 21
19.7092655364
 31
0.0
  0
LINE
  5
238
330
1F
100
AcDbEntity
  8
0
  6
Continuous
 62
     7
370
    25
100
AcDbLine
 10
276.0021147157
 20
34.8651206281
 30
0.0
 11
251.8623853233
 21
48.8006897794
 31
0.0
  0
LINE
  5
239
330
1F
100
AcDbEntity
  8
0
  6
Continuous
 62
     7
370
    25
100
AcDbLine
 10
273.5890352817
 20
24.0633723501
 30
0.0
 11
273.5885597375
 21
24.0781918852
 31
0.0
  0
LINE
  5
23A
330
1F
100
AcDbEntity
  8
0
  6
Continuous
 62
     7
370
    25
100
AcDbLine
 10
236.8740046437
 20
29.1783342386
 30
0.0
 11
238.5589701688
 21
28.2056243457
 31
0.0
  0
LINE
  5
23B
330
1F
100
AcDbEntity
  8
0
  6
Continuous
 62
     7
370
    25
100
AcDbLine
 10
254.2951912237
 20
55.4645122891
 30
0.0
 11
252.6102256986
 21
56.437222182
 31
0.0
  0
LINE
  5
23C
330
1F
100
AcDbEntity
  8
0
  6
Continuous
 62
     7
370
    25
100
AcDbLine
 10
232.2657198162
 20
31.8386404433
 30
0.0
 11
234.5163707663
 21
30.5393673056
 31
0.0
  0
LINE
  5
23D
330
1F
100
AcDbEntity
  8
0
  6
Continuous
 62
     7
370
    25
100
AcDbLine
 10
250.2525918211
 20
57.7982552491
 30
0.0
 11
248.0019408711
 21
59.0975283867
 31
0.0
  0
LINE
  5
23E
330
1F
100
AcDbEntity
  8
0
  6
Continuous
 62
     7
370
    25
100
AcDbLine
 10
241.2245519982
 20
58.8774104221
 30
0.0
 11
232.0273394417
 21
63.4580630811
 31
0.0
  0
LINE
  5
23F
330
1F
100
AcDbEntity
  8
0
  6
Continuous
 62
     7
370
    25
100
AcDbLine
 10
220.50099173
 20
43.4916798197
 30
0.0
 11
229.0670920422
 21
37.8177902337
 31
0.0
  0
LINE
  5
240
330
1F
100
AcDbEntity
  8
0
  6
Continuous
 62
     7
370
    25
100
AcDbLine
 10
225.4804292784
 20
44.4381698573
 30
0.0
 11
225.4804292784
 21
44.0728508406
 31
0.0
  0
LINE
  5
241
330
1F
100
AcDbEntity
  8
0
  6
Continuous
 62
     7
370
    25
100
AcDbLine
 10
229.3783957793
 20
63.8350315549
 30
0.0
 11
228.7388453268
 21
63.7478204895
 31
0.0
  0
LINE
  5
242
330
1F
100
AcDbEntity
  8
0
  6
Continuous
 62
     7
370
    25
100
AcDbLine
 10
279.1622003865
 20
30.0440036264
 30
0.0
 11
279.2004563066
 21
29.9721749593
 31
0.0
  0
LINE
  5
243
330
1F
100
AcDbEntity
  8
0
  6
Continuous
 62
     7
370
    25
100
AcDbLine
 10
273.0662669513
 20
19.3854182753
 30
0.0
 11
273.0081090191
 21
19.3836496321
 31
0.0
  0
LWPOLYLINE
  5
244
330
1F
100
AcDbEntity
  8
0
  6
Continuous
 62
     7
370
    25
100
AcDbPolyline
 90
       24
 70
   128
 43
0.0
 10
265.440285925
 20
23.715407593
 10
265.485397465
 20
24.6026522198
 10
265.620074257
 20
25.5290434975
 10
265.8423524103
 20
26.4810725551
 10
266.1489906088
 20
27.4448566652
 10
266.5355173771
 20
28.4063416853
 10
266.9962962844
 20
29.3515069986
 10
267.5246081369
 20
30.2665699666
 10
268.1127489579
 20
31.1381869106
 10
268.75214233
 20
31.953647693
 10
269.433464458
 20
32.7010610592
 10
270.1467801311
 20
33.3695280393
 10
270.8816876005
 20
33.9493008795
 10
271.6274702604
 20
34.4319251862
 10
272.3732529203
 20
34.8103632104
 10
273.1081603897
 20
35.0790964734
 10
273.8214760627
 20
35.234206239
 10
274.5027981907
 20
35.2734306578
 10
275.1421915628
 20
35.1961977493
 10
275.7303323839
 20
35.0036337432
 10
276.2586442363
 20
34.6985466563
 10
276.7194231437
 20
34.2853853454
 10
277.105949912
 20
33.7701746328
 10
277.2002242274
 20
33.6083472252
  0
LWPOLYLINE
  5
245
330
1F
100
AcDbEntity
  8
0
  6
Continuous
 62
     7
370
    25
100
AcDbPolyline
 90
       11
 70
   128
 43
0.0
 10
268.9403166464
 20
19.3002173135
 10
268.75214233
 20
19.3009555066
 10
268.1127489579
 20
19.3781884152
 10
267.5246081369
 20
19.5707524213
 10
266.9962962844
 20
19.8758395082
 10
266.5355173771
 20
20.289000819
 10
266.1489906088
 20
20.8042115317
 10
265.8423524103
 20
21.4139587137
 10
265.620074257
 20
22.1093508782
 10
265.485397465
 20
22.8802476416
 10
265.440285925
 20
23.715407593
  0
ARC
  5
246
330
1F
100
AcDbEntity
  8
0
  6
Continuous
 62
     7
370
    25
100
AcDbCircle
 10
277.2556577194
 20
24.0036541538
 30
0.0
 40
3.711055823099984
100
AcDbArc
 50
110.249061124
 51
179.7945480584
  0
LWPOLYLINE
  5
247
330
1F
100
AcDbEntity
  8
0
  6
Continuous
 62
     7
370
    25
100
AcDbPolyline
 90
       22
 70
   128
 43
0.0
 10
275.3643573441
 20
27.2304010489
 10
275.7057578611
 20
27.3771885752
 10
276.0793980431
 20
27.4419100159
 10
276.4145773749
 20
27.3922035819
 10
276.6944885652
 20
27.2305617614
 10
276.905095698
 20
26.9650899502
 10
277.0358380524
 20
26.6091000135
 10
277.0801596607
 20
26.1804427732
 10
277.0358380524
 20
25.7006128932
 10
276.905095698
 20
25.1936710472
 10
276.6944885652
 20
24.6850374163
 10
276.4145773749
 20
24.2002170146
 10
276.0793980431
 20
23.7635207615
 10
275.7057578611
 20
23.3968464305
 10
275.3123927077
 20
23.1185806037
 10
274.9190275543
 20
22.9426766916
 10
274.5453873722
 20
22.877955251
 10
274.2102080405
 20
22.9276616849
 10
273.9302968502
 20
23.0893035054
 10
273.7196897174
 20
23.3547753166
 10
273.588947363
 20
23.7107652533
 10
273.554039897
 20
23.9344639122
  0
LWPOLYLINE
  5
248
330
1F
100
AcDbEntity
  8
0
  6
Continuous
 62
     7
370
    25
100
AcDbPolyline
 90
       39
 70
   128
 43
0.0
 10
235.2989877273
 20
35.4109569875
 10
235.343786158
 20
36.5887115707
 10
235.4778207594
 20
37.8087067336
 10
235.7000123638
 20
39.0611197926
 10
236.008572015
 20
40.335867054
 10
236.4010153721
 20
41.6226850024
 10
236.874182712
 20
42.9112129365
 10
237.4242643694
 20
44.1910763868
 10
238.0468314103
 20
45.4519706455
 10
238.7368712909
 20
46.6837437333
 10
239.488828216
 20
47.8764781376
 10
240.2966478703
 20
49.0205706624
 10
241.1538261652
 20
50.1068097473
 10
242.0534616049
 20
51.1264496339
 10
242.9883108538
 20
52.0712807814
 10
243.9508470556
 20
52.9336959649
 10
244.9333204347
 20
53.7067515245
 10
245.927820693
 20
54.3842232713
 10
246.9263406994
 20
54.9606566013
 10
247.9208409578
 20
55.4314104121
 10
248.9033143368
 20
55.7926944708
 10
249.8658505386
 20
56.0415999308
 10
250.8006997876
 20
56.1761227515
 10
251.7003352273
 20
56.1951798343
 10
252.5575135221
 20
56.0986177427
 10
253.3653331765
 20
55.887213938
 10
254.1172901015
 20
55.5626705194
 10
254.8073299822
 20
55.1276005194
 10
255.4298970231
 20
54.5855068661
 10
255.9799786805
 20
53.9407541787
 10
256.4531460203
 20
53.1985336268
 10
256.8455893774
 20
52.3648211338
 10
257.1541490286
 20
51.4463292626
 10
257.376340633
 20
50.4504531695
 10
257.5103752345
 20
49.3852110634
 10
257.5551736651
 20
48.2591796473
 10
257.5103752345
 20
47.0814250641
 10
257.376340633
 20
45.8614299011
 10
257.3426389992
 20
45.6370066731
  0
LWPOLYLINE
  5
249
330
1F
100
AcDbEntity
  8
0
  6
Continuous
 62
     7
370
    25
100
AcDbPolyline
 90
       21
 70
   128
 43
0.0
 10
248.5933500887
 20
30.4811515815
 10
247.9208409578
 20
29.9633851103
 10
246.9263406994
 20
29.2859133634
 10
245.927820693
 20
28.7094800335
 10
244.9333204347
 20
28.2387262227
 10
243.9508470556
 20
27.8774421639
 10
242.9883108538
 20
27.628536704
 10
242.0534616049
 20
27.4940138833
 10
241.1538261652
 20
27.4749568005
 10
240.2966478703
 20
27.5715188921
 10
239.488828216
 20
27.7829226967
 10
238.7368712909
 20
28.1074661154
 10
238.0468314103
 20
28.5425361153
 10
237.4242643694
 20
29.0846297687
 10
236.874182712
 20
29.729382456
 10
236.4010153721
 20
30.471603008
 10
236.008572015
 20
31.3053155009
 10
235.7000123638
 20
32.2238073722
 10
235.4778207594
 20
33.2196834653
 10
235.343786158
 20
34.2849255714
 10
235.2989877273
 20
35.4109569875
  0
SPLINE
  5
24A
330
1F
100
AcDbEntity
  8
0
  6
Continuous
 62
     7
370
    25
100
AcDbSpline
210
0.0
220
0.0
230
1.0
 70
     8
 71
     3
 72
    25
 73
    21
 74
     0
 42
0.000000001
 43
0.00000001
 40
0.0
 40
0.0
 40
0.0
 40
0.0
 40
0.1249999999999998
 40
0.1249999999999998
 40
0.2499999999999997
 40
0.2499999999999997
 40
0.3749999999999995
 40
0.3749999999999995
 40
0.4999999999999993
 40
0.4999999999999993
 40
0.5624999999999996
 40
0.5624999999999996
 40
0.6249999999999998
 40
0.6875000000000001
 40
0.6875000000000001
 40
0.7500000000000003
 40
0.7500000000000003
 40
0.8750000000000001
 40
0.8750000000000001
 40
1.0
 40
1.0
 40
1.0
 40
1.0
 10
240.1325765723641
 20
51.84277158305167
 30
0.0
 10
240.1616998706251
 20
51.73158606252249
 30
0.0
 10
240.1740889114844
 20
51.61634385009446
 30
0.0
 10
240.1671114263841
 20
51.37724828225866
 30
0.0
 10
240.147093838532
 20
51.2524743123834
 30
0.0
 10
240.0768716808188
 20
51.00610540317098
 30
0.0
 10
240.0262210262252
 20
50.88189425580985
 30
0.0
 10
239.89630628257
 20
50.63826576049969
 30
0.0
 10
239.8186053345807
 20
50.52120866544153
 30
0.0
 10
239.6832317523545
 20
50.35255214759149
 30
0.0
 10
239.6345972550474
 20
50.29718512631933
 30
0.0
 10
239.5331579196654
 20
50.19146531492232
 30
0.0
 10
239.4272879369247
 20
50.09030435630186
 30
0.0
 10
239.3126961445972
 20
49.99813003462507
 30
0.0
 10
239.193613475379
 20
49.91059319188496
 30
0.0
 10
239.1316554623216
 20
49.86909472237276
 30
0.0
 10
238.943791758801
 20
49.75497440063467
 30
0.0
 10
238.814414322447
 20
49.69136696952006
 30
0.0
 10
238.5467310693849
 20
49.59009866854583
 30
0.0
 10
238.4108593829199
 20
49.55355776032104
 30
0.0
 10
238.2753421161923
 20
49.53238957597097
 30
0.0
  0
LWPOLYLINE
  5
24B
330
1F
100
AcDbEntity
  8
0
  6
Continuous
 62
     7
370
    25
100
AcDbPolyline
 90
       15
 70
   128
 43
0.0
 10
240.1325765724
 20
51.8427715831
 10
241.0835793859
 20
52.8317319902
 10
242.0655902409
 20
53.7357340445
 10
243.0702860718
 20
54.5471158464
 10
244.0891515456
 20
55.2590005026
 10
245.1135512344
 20
55.8653544111
 10
246.1348028044
 20
56.3610383992
 10
247.1442506043
 20
56.7418512808
 10
248.1333390255
 20
57.0045654638
 10
249.0936850164
 20
57.1469543052
 10
250.0171491327
 20
57.1678109838
 10
250.8959045236
 20
57.0669587281
 10
251.7225032686
 20
56.8452523147
 10
252.4899395027
 20
56.5045708237
 10
252.6102256986
 20
56.437222182
  0
LWPOLYLINE
  5
24C
330
1F
100
AcDbEntity
  8
0
  6
Continuous
 62
     7
370
    25
100
AcDbPolyline
 90
       21
 70
   128
 43
0.0
 10
236.8740046437
 20
29.1783342386
 10
236.8703569065
 20
29.1804419856
 10
236.1856207868
 20
29.6522719227
 10
235.5722420668
 20
30.233812996
 10
235.0353360553
 20
30.9202154087
 10
234.5793803123
 20
31.7057548667
 10
234.208177308
 20
32.5838803163
 10
233.9248227124
 20
33.5472685776
 10
233.7316795781
 20
34.5878854161
 10
233.6303586338
 20
35.6970525451
 10
233.6217048518
 20
36.8655199986
 10
233.7057904007
 20
38.083543272
 10
233.881914044
 20
39.340964587
 10
234.1486069881
 20
40.6272976027
 10
234.503645131
 20
41.9318148676
 10
234.9440676108
 20
43.2436372816
 10
235.4662014978
 20
44.5518248226
 10
236.065692425
 20
45.8454677819
 10
236.7375409017
 20
47.1137777463
 10
237.4761440071
 20
48.3461775685
 10
238.2753421162
 20
49.532389576
  0
LWPOLYLINE
  5
24D
330
1F
100
AcDbEntity
  8
0
  6
Continuous
 62
     7
370
    25
100
AcDbPolyline
 90
       12
 70
   128
 43
0.0
 10
238.4699553276
 20
51.9670484225
 10
239.3855344214
 20
52.9415296664
 10
240.3342471197
 20
53.8305052127
 10
241.3071501501
 20
54.6255949159
 10
242.2950722043
 20
55.3193036685
 10
243.2887003936
 20
55.9050920553
 10
244.2786680387
 20
56.3774379988
 10
245.2556429676
 20
56.7318888146
 10
246.2104154872
 20
56.9651031852
 10
247.1339852008
 20
57.0748826584
 10
248.0176458526
 20
57.0601923711
 10
248.2705058328
 20
57.0319348301
  0
SPLINE
  5
24E
330
1F
100
AcDbEntity
  8
0
  6
Continuous
 62
     7
370
    25
100
AcDbSpline
210
0.0
220
0.0
230
1.0
 70
     8
 71
     3
 72
    26
 73
    22
 74
     0
 42
0.000000001
 43
0.00000001
 40
0.0
 40
0.0
 40
0.0
 40
0.0
 40
0.1250000000000009
 40
0.1250000000000009
 40
0.2500000000000019
 40
0.2500000000000019
 40
0.3125000000000011
 40
0.3125000000000011
 40
0.3750000000000004
 40
0.3750000000000004
 40
0.4375000000000002
 40
0.4375000000000002
 40
0.5000000000000001
 40
0.5000000000000001
 40
0.5625
 40
0.5625
 40
0.6249999999999999
 40
0.6249999999999999
 40
0.7500000000000001
 40
0.7500000000000001
 40
1.0
 40
1.0
 40
1.0
 40
1.0
 10
237.1257620867365
 20
50.2948848099265
 30
0.0
 10
237.1021244905045
 20
50.40446066949948
 30
0.0
 10
237.0845567116227
 20
50.51534992786402
 30
0.0
 10
237.0657441287533
 20
50.74067988772696
 30
0.0
 10
237.0645643539859
 20
50.85635680104533
 30
0.0
 10
237.0806623572213
 20
51.02771231090489
 30
0.0
 10
237.0889810743215
 20
51.08451082299906
 30
0.0
 10
237.1127382235784
 20
51.19733703539614
 30
0.0
 10
237.1283606026275
 20
51.25378988906229
 30
0.0
 10
237.1672178150245
 20
51.36237300547089
 30
0.0
 10
237.1904437717269
 20
51.41475296569644
 30
0.0
 10
237.2454424212053
 20
51.51520974096855
 30
0.0
 10
237.277520688228
 20
51.56348860873999
 30
0.0
 10
237.347935436763
 20
51.65118558432373
 30
0.0
 10
237.3865138588897
 20
51.69117471229969
 30
0.0
 10
237.4702221224859
 20
51.76365339641528
 30
0.0
 10
237.5153508324278
 20
51.7959900207919
 30
0.0
 10
237.6546314746179
 20
51.87918978814554
 30
0.0
 10
237.7554205461796
 20
51.91801851078164
 30
0.0
 10
238.0584928174122
 20
51.99343479823681
 30
0.0
 10
238.2670169078972
 20
51.99330465186605
 30
0.0
 10
238.4699553275877
 20
51.96704842253983
 30
0.0
  0
LWPOLYLINE
  5
24F
330
1F
100
AcDbEntity
  8
0
  6
Continuous
 62
     7
370
    25
100
AcDbPolyline
 90
       17
 70
   128
 43
0.0
 10
234.188783692
 20
32.6390336025
 10
233.755101086
 20
33.2859981323
 10
233.3575941568
 20
34.0909028466
 10
233.0475824914
 20
34.9854784882
 10
232.8279085027
 20
35.9615229359
 10
232.7005863217
 20
37.0100871033
 10
232.6667833309
 20
38.1215569901
 10
232.7268094609
 20
39.2857418308
 10
232.8801143483
 20
40.4919675307
 10
233.1252923823
 20
41.7291745338
 10
233.460095592
 20
42.9860192252
 10
233.8814542576
 20
44.250977937
 10
234.3855050561
 20
45.5124526064
 10
234.9676264825
 20
46.7588771145
 10
235.6224812235
 20
47.9788233337
 10
236.3440650937
 20
49.1611059081
 10
237.1257620867
 20
50.2948848099
  0
LINE
  5
250
330
1F
100
AcDbEntity
  8
0
  6
Continuous
 62
     7
370
    25
100
AcDbLine
 10
235.6503701171
 20
30.0509639542
 30
0.0
 11
235.7710470421
 21
30.1079956614
 31
0.0
  0
LWPOLYLINE
  5
251
330
1F
100
AcDbEntity
  8
0
  6
Continuous
 62
     7
370
    25
100
AcDbPolyline
 90
       40
 70
   128
 43
0.0
 10
235.6503701171
 20
30.0509639542
 10
234.8818235729
 20
30.3471398361
 10
234.1739329542
 20
30.7550582903
 10
233.5324212676
 20
31.2714214626
 10
232.9624748734
 20
31.8920547675
 10
232.4687015555
 20
32.6119406381
 10
232.0550932697
 20
33.4252590908
 10
231.7249938701
 20
34.3254347779
 10
231.4810720757
 20
35.3051901465
 10
231.3252998946
 20
36.3566042743
 10
231.2589366813
 20
37.4711769071
 10
231.2825189553
 20
38.6398971802
 10
231.3958560636
 20
39.8533164672
 10
231.5980317219
 20
41.1016247683
 10
231.8874114224
 20
42.3747300205
 10
232.2616556485
 20
43.6623396873
 10
232.7177387884
 20
44.9540439703
 10
233.2519735959
 20
46.2393999674
 10
233.8600410007
 20
47.5080161001
 10
234.537025026
 20
48.7496361247
 10
235.2774525323
 20
49.9542220501
 10
236.0753374655
 20
51.1120352907
 10
236.9242292514
 20
52.213715399
 10
237.8172649465
 20
53.2503557409
 10
238.7472247216
 20
54.2135755026
 10
239.7065902316
 20
55.0955874452
 10
240.6876053979
 20
55.8892608623
 10
241.6823391132
 20
56.5881792281
 10
242.6827493614
 20
57.1866920731
 10
243.680748234
 20
57.679960665
 10
244.6682673175
 20
58.0639971287
 10
245.6373229232
 20
58.3356966861
 10
246.5800806319
 20
58.4928627572
 10
247.4889186323
 20
58.5342247184
 10
248.3564893403
 20
58.4594481752
 10
249.1757788007
 20
58.2691376654
 10
249.9401633926
 20
57.9648317717
 10
250.6434633786
 20
57.5489906832
 10
251.2799928653
 20
57.0249763053
 10
251.3426301783
 20
56.9639530387
  0
LWPOLYLINE
  5
252
330
1F
100
AcDbEntity
  8
0
  6
Continuous
 62
     7
370
    25
100
AcDbPolyline
 90
       26
 70
   128
 43
0.0
 10
229.0057373747
 20
39.1256138963
 10
229.050251145
 20
40.2958847331
 10
229.1834340572
 20
41.5081277425
 10
229.4042138007
 20
42.7525826565
 10
229.7108127869
 20
44.0192298559
 10
230.100762461
 20
45.2978710422
 10
230.5709231776
 20
46.5782113484
 10
231.117509479
 20
47.8499422271
 10
231.7361205736
 20
49.1028244492
 10
232.4217757688
 20
50.3267705436
 10
233.168954572
 20
51.5119260161
 10
233.9716411388
 20
52.6487486916
 10
234.8233727089
 20
53.7280855424
 10
235.7172916407
 20
54.7412463829
 10
236.6462006244
 20
55.6800738376
 10
237.6026206311
 20
56.53700902
 10
238.5788511293
 20
57.3051523918
 10
239.5670320849
 20
57.9783193142
 10
240.5592072461
 20
58.5510898429
 10
241.5473882018
 20
59.0188523666
 10
242.5236187
 20
59.3778407364
 10
243.4800387067
 20
59.6251645889
 10
244.4089476904
 20
59.7588326181
 10
245.3028666221
 20
59.7777686074
 10
246.1545981923
 20
59.6818200955
 10
246.9041870376
 20
59.4896976981
  0
ARC
  5
253
330
1F
100
AcDbEntity
  8
0
  6
Continuous
 62
     7
370
    25
100
AcDbCircle
 10
241.1638730303
 20
39.0178090444
 30
0.0
 40
12.15706644166741
100
AcDbArc
 50
180.4744415793
 51
191.6440230834
  0
SPLINE
  5
254
330
1F
100
AcDbEntity
  8
0
  6
Continuous
 62
     7
370
    25
100
AcDbSpline
210
0.0
220
0.0
230
1.0
 70
     8
 71
     3
 72
    10
 73
     6
 74
     0
 42
0.000000001
 43
0.00000001
 40
0.0
 40
0.0
 40
0.0
 40
0.0
 40
0.5
 40
0.5
 40
1.0
 40
1.0
 40
1.0
 40
1.0
 10
237.8524501543678
 20
48.83183152910677
 30
0.0
 10
237.7484856635835
 20
48.90516990217715
 30
0.0
 10
237.6586773871562
 20
48.99240565997055
 30
0.0
 10
237.5066349591575
 20
49.19333620116655
 30
0.0
 10
237.4447293707966
 20
49.30750696736352
 30
0.0
 10
237.4002796662061
 20
49.43052465052362
 30
0.0
  0
SPLINE
  5
255
330
1F
100
AcDbEntity
  8
0
  6
Continuous
 62
     7
370
    25
100
AcDbSpline
210
0.0
220
0.0
230
1.0
 70
     8
 71
     3
 72
    14
 73
    10
 74
     0
 42
0.000000001
 43
0.00000001
 40
0.0
 40
0.0
 40
0.0
 40
0.0
 40
0.25
 40
0.25
 40
0.5
 40
0.5
 40
0.75
 40
0.75
 40
1.0
 40
1.0
 40
1.0
 40
1.0
 10
237.4002796662061
 20
49.43052465052362
 30
0.0
 10
237.3775588633409
 20
49.49340607018117
 30
0.0
 10
237.3556443529915
 20
49.56245249965458
 30
0.0
 10
237.3135332989287
 20
49.71010501627335
 30
0.0
 10
237.2940117450156
 20
49.78650480313166
 30
0.0
 10
237.2556655028419
 20
49.94083709452726
 30
0.0
 10
237.2373059099581
 20
50.01778969085891
 30
0.0
 10
237.1953024653764
 20
50.16317985837489
 30
0.0
 10
237.1715261443634
 20
50.22977076456792
 30
0.0
 10
237.1430646402612
 20
50.27026637979927
 30
0.0
  0
LINE
  5
256
330
1F
100
AcDbEntity
  8
0
  6
Continuous
 62
     7
370
    25
100
AcDbLine
 10
237.1430646403
 20
50.2702663798
 30
0.0
 11
237.1257620867
 21
50.2948848099
 31
0.0
  0
LINE
  5
257
330
1F
100
AcDbEntity
  8
0
  6
Continuous
 62
     7
370
    25
100
AcDbLine
 10
238.4699553276
 20
51.9670484225
 30
0.0
 11
238.4872578811
 21
51.9424299924
 31
0.0
  0
SPLINE
  5
258
330
1F
100
AcDbEntity
  8
0
  6
Continuous
 62
     7
370
    25
100
AcDbSpline
210
0.0
220
0.0
230
1.0
 70
     8
 71
     3
 72
    16
 73
    12
 74
     0
 42
0.000000001
 43
0.00000001
 40
0.0
 40
0.0
 40
0.0
 40
0.0
 40
0.1250000000000001
 40
0.1250000000000001
 40
0.2500000000000003
 40
0.2500000000000003
 40
0.5000000000000002
 40
0.5000000000000002
 40
0.7500000000000001
 40
0.7500000000000001
 40
1.0
 40
1.0
 40
1.0
 40
1.0
 10
238.4872578811124
 20
51.94242999241255
 30
0.0
 10
238.5014102875165
 20
51.92229365659976
 30
0.0
 10
238.5230686919902
 20
51.90549623592234
 30
0.0
 10
238.5754866210255
 20
51.87865071459084
 30
0.0
 10
238.6060795001638
 20
51.86842523002986
 30
0.0
 10
238.7051603490214
 20
51.84392478959717
 30
0.0
 10
238.7790428866373
 20
51.83566486719567
 30
0.0
 10
238.9321424790286
 20
51.82447890049076
 30
0.0
 10
239.0102264536762
 20
51.82188222873957
 30
0.0
 10
239.1695700874183
 20
51.81985322790586
 30
0.0
 10
239.2482229822499
 20
51.82049081656809
 30
0.0
 10
239.3239754500425
 20
51.82358391738313
 30
0.0
  0
SPLINE
  5
259
330
1F
100
AcDbEntity
  8
0
  6
Continuous
 62
     7
370
    25
100
AcDbSpline
210
0.0
220
0.0
230
1.0
 70
     8
 71
     3
 72
    10
 73
     6
 74
     0
 42
0.000000001
 43
0.00000001
 40
0.0
 40
0.0
 40
0.0
 40
0.0
 40
0.5
 40
0.5
 40
1.0
 40
1.0
 40
1.0
 40
1.0
 10
239.3239754500425
 20
51.82358391738313
 30
0.0
 10
239.4721697899433
 20
51.82963494181688
 30
0.0
 10
239.6143942556739
 20
51.81947271160375
 30
0.0
 10
239.8867856460146
 20
51.76842227566368
 30
0.0
 10
240.0169129758831
 20
51.72706117301912
 30
0.0
 10
240.1349883180685
 20
51.67128730506684
 30
0.0
  0
LINE
  5
25A
330
1F
100
AcDbEntity
  8
0
  6
Continuous
 62
     7
370
    25
100
AcDbLine
 10
240.2901915362
 20
51.6997063679
 30
0.0
 11
240.2727984107
 21
51.7244536656
 31
0.0
  0
ARC
  5
25B
330
1F
100
AcDbEntity
  8
0
  6
Continuous
 62
     7
370
    25
100
AcDbCircle
 10
222.81151753
 20
46.9414794032
 30
0.0
 40
4.152065346119957
100
AcDbArc
 50
211.7707720659
 51
236.1875437047
  0
SPLINE
  5
25C
330
1F
100
AcDbEntity
  8
0
  6
Continuous
 62
     7
370
    25
100
AcDbSpline
210
0.0
220
0.0
230
1.0
 70
     8
 71
     3
 72
     8
 73
     4
 74
     0
 42
0.000000001
 43
0.00000001
 40
0.0
 40
0.0
 40
0.0
 40
0.0
 40
1.0
 40
1.0
 40
1.0
 40
1.0
 10
220.7120346489317
 20
43.83058288582818
 30
0.0
 10
220.2352613571076
 20
44.13867569376082
 30
0.0
 10
219.7584589802627
 20
44.44690513933357
 30
0.0
 10
219.281626535737
 20
44.75527029555349
 30
0.0
  0
SPLINE
  5
25D
330
1F
100
AcDbEntity
  8
0
  6
Continuous
 62
     7
370
    25
100
AcDbSpline
210
0.0
220
0.0
230
1.0
 70
     8
 71
     3
 72
    23
 73
    19
 74
     0
 42
0.000000001
 43
0.00000001
 40
0.0
 40
0.0
 40
0.0
 40
0.0
 40
0.0521036415675031
 40
0.1035646240925967
 40
0.1544751946736949
 40
0.2049306267473421
 40
0.2550287880844035
 40
0.3048696389141012
 40
0.3545546704609132
 40
0.4041862979523234
 40
0.4538672252126086
 40
0.5036997999421611
 40
0.5901870230746071
 40
0.674271637822954
 40
0.7565997087222995
 40
0.8378563983721267
 40
0.9187511781367398
 40
1.0
 40
1.0
 40
1.0
 40
1.0
 10
221.5925994524733
 20
43.65585218770808
 30
0.0
 10
221.5873305135332
 20
43.64593072547325
 30
0.0
 10
221.5768576240329
 20
43.62621017474231
 30
0.0
 10
221.5576113282702
 20
43.60164234579008
 30
0.0
 10
221.5358155879375
 20
43.58095376353085
 30
0.0
 10
221.5111642967325
 20
43.56442282823387
 30
0.0
 10
221.4836677821936
 20
43.55190532865771
 30
0.0
 10
221.4532567281863
 20
43.54337070483532
 30
0.0
 10
221.4198863564137
 20
43.53876083218724
 30
0.0
 10
221.3835104681418
 20
43.53802608905077
 30
0.0
 10
221.3440820965527
 20
43.54112117160206
 30
0.0
 10
221.2912337050028
 20
43.5496569470812
 30
0.0
 10
221.2226947112326
 20
43.56725338592825
 30
0.0
 10
221.1349734792783
 20
43.59888999401412
 30
0.0
 10
221.0402425597843
 20
43.64106965134683
 30
0.0
 10
220.9382083124544
 20
43.69380608707382
 30
0.0
 10
220.8292943992653
 20
43.75612264298465
 30
0.0
 10
220.7511780882793
 20
43.80572670123577
 30
0.0
 10
220.7120346489317
 20
43.83058288582816
 30
0.0
  0
SPLINE
  5
25E
330
1F
100
AcDbEntity
  8
0
  6
Continuous
 62
     7
370
    25
100
AcDbSpline
210
0.0
220
0.0
230
1.0
 70
     8
 71
     3
 72
     8
 73
     4
 74
     0
 42
0.000000001
 43
0.00000001
 40
0.0
 40
0.0
 40
0.0
 40
0.0
 40
1.0
 40
1.0
 40
1.0
 40
1.0
 10
223.0661024789272
 20
42.70853205115188
 30
0.0
 10
222.5747351668858
 20
43.02440667111936
 30
0.0
 10
222.0833489669595
 20
43.34039269240883
 30
0.0
 10
221.5919432568156
 20
43.65648957325152
 30
0.0
  0
SPLINE
  5
25F
330
1F
100
AcDbEntity
  8
0
  6
Continuous
 62
     7
370
    25
100
AcDbSpline
210
0.0
220
0.0
230
1.0
 70
     8
 71
     3
 72
    18
 73
    14
 74
     0
 42
0.000000001
 43
0.00000001
 40
0.0
 40
0.0
 40
0.0
 40
0.0
 40
0.0923824559411628
 40
0.1844689291573508
 40
0.2764953615950219
 40
0.3686975365494161
 40
0.4613092840003458
 40
0.5545607518442569
 40
0.6486768051537182
 40
0.7438756050146744
 40
0.8403674044302629
 40
0.9203921078121001
 40
1.0
 40
1.0
 40
1.0
 40
1.0
 10
223.8796665981268
 20
42.06422432660753
 30
0.0
 10
223.8560990840037
 20
42.07949830087307
 30
0.0
 10
223.8090395633523
 20
42.10999731335371
 30
0.0
 10
223.7366417753895
 20
42.15962988596463
 30
0.0
 10
223.663159566494
 20
42.21195942863314
 30
0.0
 10
223.588460118749
 20
42.26727711434102
 30
0.0
 10
223.5125993289809
 20
42.32551542945459
 30
0.0
 10
223.4355880481941
 20
42.38670834109218
 30
0.0
 10
223.3574559161131
 20
42.45087205767373
 30
0.0
 10
223.2782296814693
 20
42.51802101754084
 30
0.0
 10
223.2029331970594
 20
42.58387192728701
 30
0.0
 10
223.1321058889373
 20
42.64740351409533
 30
0.0
 10
223.0882015181302
 20
42.68806425910882
 30
0.0
 10
223.0663066513249
 20
42.70834154767738
 30
0.0
  0
LINE
  5
260
330
1F
100
AcDbEntity
  8
0
  6
Continuous
 62
     7
370
    25
100
AcDbLine
 10
224.5193728663
 20
41.6524703972
 30
0.0
 11
223.8796665981
 21
42.0642243266
 31
0.0
  0
SPLINE
  5
261
330
1F
100
AcDbEntity
  8
0
  6
Continuous
 62
     7
370
    25
100
AcDbSpline
210
0.0
220
0.0
230
1.0
 70
     8
 71
     3
 72
    25
 73
    21
 74
     0
 42
0.000000001
 43
0.00000001
 40
0.0
 40
0.0
 40
0.0
 40
0.0
 40
0.0280105225426465
 40
0.0559601148860768
 40
0.0839014045043132
 40
0.1118870776786367
 40
0.1399695827588937
 40
0.1682008401739883
 40
0.196631967042422
 40
0.2253130233141467
 40
0.2542927850735845
 40
0.3799486436587335
 40
0.5057850221667067
 40
0.6313085886338298
 40
0.7532068238012468
 40
0.8039473267955921
 40
0.8535894438554446
 40
0.9025339722394071
 40
0.9511970353791085
 40
1.0
 40
1.0
 40
1.0
 40
1.0
 10
225.621738723117
 20
42.3683765104846
 30
0.0
 10
225.6266868306476
 20
42.34075264937712
 30
0.0
 10
225.6365722822831
 20
42.2855650162718
 30
0.0
 10
225.6481079318863
 20
42.20640430890189
 30
0.0
 10
225.6571810536991
 20
42.1301009698035
 30
0.0
 10
225.6635498624121
 20
42.05690520883389
 30
0.0
 10
225.6672661012222
 20
41.9867577406205
 30
0.0
 10
225.668302722205
 20
41.91968145410772
 30
0.0
 10
225.6666542469781
 20
41.85567754488128
 30
0.0
 10
225.6623080951092
 20
41.79474869161444
 30
0.0
 10
225.6474517705416
 20
41.67286057011728
 30
0.0
 10
225.6023635134765
 20
41.51795969846213
 30
0.0
 10
225.4890039929839
 20
41.38701658012008
 30
0.0
 10
225.3271797709896
 20
41.33114017931006
 30
0.0
 10
225.1531645518578
 20
41.35101423169284
 30
0.0
 10
225.0018036311717
 20
41.39833203404832
 30
0.0
 10
224.8914033984734
 20
41.44324745778368
 30
0.0
 10
224.7742439030246
 20
41.50062318907485
 30
0.0
 10
224.6506782360908
 20
41.56930025352766
 30
0.0
 10
224.5631831859957
 20
41.62472049948086
 30
0.0
 10
224.5193728663141
 20
41.65247039721115
 30
0.0
  0
ARC
  5
262
330
1F
100
AcDbEntity
  8
0
  6
Continuous
 62
     7
370
    25
100
AcDbCircle
 10
236.8147370552
 20
44.1544270466
 30
0.0
 40
11.33460136833713
100
AcDbArc
 50
170.9338278112
 51
189.0661721888
  0
SPLINE
  5
263
330
1F
100
AcDbEntity
  8
0
  6
Continuous
 62
     7
370
    25
100
AcDbSpline
210
0.0
220
0.0
230
1.0
 70
     8
 71
     3
 72
    26
 73
    22
 74
     0
 42
0.000000001
 43
0.00000001
 40
0.0
 40
0.0
 40
0.0
 40
0.0
 40
0.0241259796963635
 40
0.0482159912272988
 40
0.0723203915124065
 40
0.0964895678710797
 40
0.1207736231963513
 40
0.1452220711242836
 40
0.1698835501657706
 40
0.1948055644472379
 40
0.2200342569517627
 40
0.2456142191611387
 40
0.3690971486901655
 40
0.4940698769485187
 40
0.6192566784762451
 40
0.7454656653603225
 40
0.7971495824713707
 40
0.8481710308405392
 40
0.8988013269235234
 40
0.9493179290492194
 40
1.0
 40
1.0
 40
1.0
 40
1.0
 10
224.5193728663141
 20
49.41658078857573
 30
0.0
 10
224.5410910956901
 20
49.40224926518064
 30
0.0
 10
224.5844951758662
 20
49.3736075845116
 30
0.0
 10
224.6478022932276
 20
49.32561528658279
 30
0.0
 10
224.7096638609456
 20
49.27401608869711
 30
0.0
 10
224.7699683760821
 20
49.21844129582387
 30
0.0
 10
224.8287582280219
 20
49.15898605519672
 30
0.0
 10
224.8860387464517
 20
49.09562174635933
 30
0.0
 10
224.9418298857779
 20
49.0283529683954
 30
0.0
 10
224.9961511331997
 20
48.95717885443528
 30
0.0
 10
225.0490301084087
 20
48.88208971468698
 30
0.0
 10
225.165824933145
 20
48.70283526598514
 30
0.0
 10
225.3276944910715
 20
48.39252979414176
 30
0.0
 10
225.4908793986033
 20
47.92261600601007
 30
0.0
 10
225.6023908037768
 20
47.42365297210002
 30
0.0
 10
225.6495246418853
 20
47.01476929904302
 30
0.0
 10
225.6646435814178
 20
46.71049734245231
 30
0.0
 10
225.6665967204003
 20
46.509248100757
 30
0.0
 10
225.6601186947612
 20
46.3135881810344
 30
0.0
 10
225.6459917720741
 20
46.12295189313694
 30
0.0
 10
225.6298318803891
 20
46.00136861939812
 30
0.0
 10
225.621738723117
 20
45.94047758279923
 30
0.0
  0
LINE
  5
264
330
1F
100
AcDbEntity
  8
0
  6
Continuous
 62
     7
370
    25
100
AcDbLine
 10
223.8796665981
 20
49.8295558016
 30
0.0
 11
224.5193728663
 21
49.4165807886
 31
0.0
  0
SPLINE
  5
265
330
1F
100
AcDbEntity
  8
0
  6
Continuous
 62
     7
370
    25
100
AcDbSpline
210
0.0
220
0.0
230
1.0
 70
     8
 71
     3
 72
    14
 73
    10
 74
     0
 42
0.000000001
 43
0.00000001
 40
0.0
 40
0.0
 40
0.0
 40
0.0
 40
0.0789261963172865
 40
0.158232872055133
 40
0.330847539457262
 40
0.5000195457610529
 40
0.6670357883572423
 40
0.8332395193657144
 40
1.0
 40
1.0
 40
1.0
 40
1.0
 10
223.0657138822755
 20
50.03813807186032
 30
0.0
 10
223.0874307636113
 20
50.03974123571889
 30
0.0
 10
223.130969216827
 20
50.04295529180615
 30
0.0
 10
223.222494335476
 20
50.04377633187404
 30
0.0
 10
223.3394026689091
 20
50.03584035009073
 30
0.0
 10
223.4802230072908
 20
50.00956468121292
 30
0.0
 10
223.6174353151028
 20
49.96660708268067
 30
0.0
 10
223.7513659895193
 20
49.90824995787104
 30
0.0
 10
223.8368520814785
 20
49.85581641172106
 30
0.0
 10
223.8796665981268
 20
49.82955580156661
 30
0.0
  0
SPLINE
  5
266
330
1F
100
AcDbEntity
  8
0
  6
Continuous
 62
     7
370
    25
100
AcDbSpline
210
0.0
220
0.0
230
1.0
 70
     8
 71
     3
 72
     8
 73
     4
 74
     0
 42
0.000000001
 43
0.00000001
 40
0.0
 40
0.0
 40
0.0
 40
0.0
 40
1.0
 40
1.0
 40
1.0
 40
1.0
 10
221.2634102992711
 20
51.20052948327303
 30
0.0
 10
221.8641685229672
 20
50.81326200011413
 30
0.0
 10
222.4648973858276
 20
50.42579465019082
 30
0.0
 10
223.0655980301745
 20
50.03812775760119
 30
0.0
  0
SPLINE
  5
267
330
1F
100
AcDbEntity
  8
0
  6
Continuous
 62
     7
370
    25
100
AcDbSpline
210
0.0
220
0.0
230
1.0
 70
     8
 71
     3
 72
    13
 73
     9
 74
     0
 42
0.000000001
 43
0.00000001
 40
0.0
 40
0.0
 40
0.0
 40
0.0
 40
0.1667030582307992
 40
0.3329480818053035
 40
0.4990671507274896
 40
0.6653938523718403
 40
0.832261271055009
 40
1.0
 40
1.0
 40
1.0
 40
1.0
 10
220.9215817642367
 20
51.50159426235881
 30
0.0
 10
220.9418829466767
 20
51.48802915567957
 30
0.0
 10
220.9824295318653
 20
51.46093621391673
 30
0.0
 10
221.0415791688529
 20
51.41574164090901
 30
0.0
 10
221.0993507137554
 20
51.36733049242607
 30
0.0
 10
221.1556004512151
 20
51.31529537765561
 30
0.0
 10
221.2105276599612
 20
51.25999741044659
 30
0.0
 10
221.2457483695517
 20
51.22038015528622
 30
0.0
 10
221.2634045814927
 20
51.2005199462853
 30
0.0
  0
SPLINE
  5
268
330
1F
100
AcDbEntity
  8
0
  6
Continuous
 62
     7
370
    25
100
AcDbSpline
210
0.0
220
0.0
230
1.0
 70
     8
 71
     3
 72
     8
 73
     4
 74
     0
 42
0.000000001
 43
0.00000001
 40
0.0
 40
0.0
 40
0.0
 40
0.0
 40
1.0
 40
1.0
 40
1.0
 40
1.0
 10
218.977601248446
 20
52.75631611473827
 30
0.0
 10
219.6256313208462
 20
52.33832079885352
 30
0.0
 10
220.2736242979481
 20
51.92008003643589
 30
0.0
 10
220.9215817642367
 20
51.5015942623588
 30
0.0
  0
LWPOLYLINE
  5
269
330
1F
100
AcDbEntity
  8
0
  6
Continuous
 62
     7
370
    25
100
AcDbPolyline
 90
       20
 70
   128
 43
0.0
 10
218.9776012485
 20
52.7563161149
 10
219.3602504537
 20
53.8702791533
 10
219.8224609834
 20
54.9784933846
 10
220.3590597584
 20
56.0685556298
 10
220.9640411432
 20
57.1282658675
 10
221.6306341613
 20
58.1457637773
 10
222.3513782764
 20
59.1096614809
 10
223.1182068907
 20
60.0091709958
 10
223.9225376271
 20
60.8342249744
 10
224.7553683829
 20
61.575589379
 10
225.6073780822
 20
62.2249668287
 10
226.4690309975
 20
62.7750894645
 10
227.3306834741
 20
63.2198002912
 10
228.1826918621
 20
63.5541220871
 10
229.0155204488
 20
63.774313109
 10
229.8198481824
 20
63.8779089698
 10
230.586672994
 20
63.8637502206
 10
231.3074125489
 20
63.7319953265
 10
231.9740003004
 20
63.4841188938
 10
232.0273394417
 20
63.4580630811
  0
SPLINE
  5
26A
330
1F
100
AcDbEntity
  8
0
  6
Continuous
 62
     7
370
    25
100
AcDbSpline
210
0.0
220
0.0
230
1.0
 70
    11
 71
     3
 72
    39
 73
    35
 74
     0
 42
0.000000001
 43
0.00000001
 40
0.0
 40
0.0
 40
0.0
 40
0.0
 40
0.0310664058348413
 40
0.0621048158426138
 40
0.0931361551796939
 40
0.1235538293503726
 40
0.1538561545809849
 40
0.1850588072749156
 40
0.2160250992946587
 40
0.2471867223797568
 40
0.2784462884304475
 40
0.3100516090231247
 40
0.3419834369138969
 40
0.3734259894013238
 40
0.4048604886787081
 40
0.436874065183343
 40
0.4685120685926471
 40
0.499805535863323
 40
0.5309508213226204
 40
0.5618649784438111
 40
0.5930416446590877
 40
0.623374245013332
 40
0.6540913579072549
 40
0.6849496782718453
 40
0.7158160645166705
 40
0.7471731804043553
 40
0.7784514311866318
 40
0.810129591156098
 40
0.8419598919688388
 40
0.8735175891922303
 40
0.9050808037886594
 40
0.9370235169792582
 40
0.9687441590030581
 40
1.0
 40
1.0
 40
1.0
 40
1.0
 10
232.1861867296513
 20
61.76150649007969
 30
0.0
 10
232.4490723498495
 20
61.73297200278959
 30
0.0
 10
232.975960960333
 20
61.64702951446799
 30
0.0
 10
233.739973029409
 20
61.44665439439553
 30
0.0
 10
234.4471232174599
 20
61.19965228817602
 30
0.0
 10
235.0600342820553
 20
60.92167041002291
 30
0.0
 10
235.5571656077258
 20
60.62753671269419
 30
0.0
 10
235.9163573287993
 20
60.32603018450197
 30
0.0
 10
236.1380765975581
 20
60.01903267959954
 30
0.0
 10
236.2033284749402
 20
59.70852741819786
 30
0.0
 10
236.1164812638263
 20
59.38938293344903
 30
0.0
 10
235.874135676068
 20
59.06006296787684
 30
0.0
 10
235.4941978133415
 20
58.72112224631918
 30
0.0
 10
234.9803918601818
 20
58.38328378190855
 30
0.0
 10
234.3545010492717
 20
58.0573858805977
 30
0.0
 10
233.6410300627798
 20
57.76073898735822
 30
0.0
 10
232.8771275865155
 20
57.50463567892127
 30
0.0
 10
232.0913345036139
 20
57.31560811093048
 30
0.0
 10
231.309797048574
 20
57.20743218887723
 30
0.0
 10
230.5536840638215
 20
57.19976830550752
 30
0.0
 10
229.851319477428
 20
57.29769034089367
 30
0.0
 10
229.2322991303853
 20
57.51933877439616
 30
0.0
 10
228.7232418653716
 20
57.85520686130789
 30
0.0
 10
228.3502982719377
 20
58.29501742748866
 30
0.0
 10
228.1216963206893
 20
58.80609206801131
 30
0.0
 10
228.05285001397
 20
59.35727715577474
 30
0.0
 10
228.1374664271951
 20
59.91494908408649
 30
0.0
 10
228.3805752171299
 20
60.44502922500548
 30
0.0
 10
228.7627050599477
 20
60.91755357411821
 30
0.0
 10
229.278840634358
 20
61.30367508501144
 30
0.0
 10
229.9058184948599
 20
61.58729927234457
 30
0.0
 10
230.6217259272237
 20
61.757036491071
 30
0.0
 10
231.3901693194094
 20
61.81857532578231
 30
0.0
 10
231.9216980987818
 20
61.79021497352674
 30
0.0
 10
232.1861867296513
 20
61.76150649007968
 30
0.0
  0
LINE
  5
26B
330
1F
100
AcDbEntity
  8
0
  6
Continuous
 62
     7
370
    25
100
AcDbLine
 10
222.9616497419
 20
45.3223794633
 30
0.0
 11
223.275694349
 21
45.1542356789
 31
0.0
  0
LINE
  5
26C
330
1F
100
AcDbEntity
  8
0
  6
Continuous
 62
     7
370
    25
100
AcDbLine
 10
221.9746907029
 20
45.8921387888
 30
0.0
 11
222.9616497419
 21
45.3223794633
 31
0.0
  0
ARC
  5
26D
330
1F
100
AcDbEntity
  8
0
  6
Continuous
 62
     7
370
    25
100
AcDbCircle
 10
224.1956593224
 20
49.485636562
 30
0.0
 40
4.48429198968381
100
AcDbArc
 50
267.6840937494
 51
286.9865889436
  0
SPLINE
  5
26E
330
1F
100
AcDbEntity
  8
0
  6
Continuous
 62
     7
370
    25
100
AcDbSpline
210
0.0
220
0.0
230
1.0
 70
     8
 71
     3
 72
    16
 73
    12
 74
     0
 42
0.000000001
 43
0.00000001
 40
0.0
 40
0.0
 40
0.0
 40
0.0
 40
0.150516077399123
 40
0.2631372176921929
 40
0.3788385653419725
 40
0.4915726627001887
 40
0.608215717310718
 40
0.7115656327827979
 40
0.8179798858712685
 40
0.9203357686923436
 40
1.0
 40
1.0
 40
1.0
 40
1.0
 10
233.524692524478
 20
58.75901085721688
 30
0.0
 10
233.3198594419626
 20
58.8713998098894
 30
0.0
 10
232.9617634275315
 20
59.0678819187552
 30
0.0
 10
232.3630282334195
 20
59.33204057054375
 30
0.0
 10
231.7868128831799
 20
59.54427241395987
 30
0.0
 10
231.1742526785046
 20
59.71622727718962
 30
0.0
 10
230.5728777623806
 20
59.82416420334052
 30
0.0
 10
229.9901827344723
 20
59.86289819344611
 30
0.0
 10
229.4555560088143
 20
59.82844865148229
 30
0.0
 10
228.9872573746095
 20
59.73742852455871
 30
0.0
 10
228.7284090590332
 20
59.62655678571454
 30
0.0
 10
228.6151196449244
 20
59.5780318636693
 30
0.0
  0
SPLINE
  5
26F
330
1F
100
AcDbEntity
  8
0
  6
Continuous
 62
     7
370
    25
100
AcDbSpline
210
0.0
220
0.0
230
1.0
 70
     8
 71
     3
 72
    10
 73
     6
 74
     0
 42
0.000000001
 43
0.00000001
 40
0.0
 40
0.0
 40
0.0
 40
0.0
 40
0.3798174487108013
 40
0.9603712743694113
 40
1.0
 40
1.0
 40
1.0
 40
1.0
 10
234.6645729735247
 20
58.23078383443563
 30
0.0
 10
234.5349203151779
 20
58.30111254033471
 30
0.0
 10
234.2070925938753
 20
58.4789392019015
 30
0.0
 10
233.7991641902298
 20
58.65199150239974
 30
0.0
 10
233.542531391658
 20
58.75119714899981
 30
0.0
 10
233.5261329445536
 20
58.75753623954976
 30
0.0
  0
SPLINE
  5
270
330
1F
100
AcDbEntity
  8
0
  6
Continuous
 62
     7
370
    25
100
AcDbSpline
210
0.0
220
0.0
230
1.0
 70
     8
 71
     3
 72
    24
 73
    20
 74
     0
 42
0.000000001
 43
0.00000001
 40
0.0
 40
0.0
 40
0.0
 40
0.0
 40
0.0618857619093494
 40
0.1150115624342297
 40
0.1593831322308222
 40
0.2428114832232123
 40
0.3183318386985426
 40
0.3935543620449526
 40
0.420484316839609
 40
0.4483397365001899
 40
0.477128677518787
 40
0.5451537674268876
 40
0.6363475914367293
 40
0.6968782742038289
 40
0.7498596592257523
 40
0.7959701139281281
 40
0.8771179876705577
 40
0.9543004325059576
 40
1.0
 40
1.0
 40
1.0
 40
1.0
 10
232.1313077886063
 20
61.18764862755723
 30
0.0
 10
231.9473512227776
 20
61.20654300249714
 30
0.0
 10
231.6054772374983
 20
61.24165724389957
 30
0.0
 10
231.1412591538035
 20
61.23516786606199
 30
0.0
 10
230.6317976209257
 20
61.18744296840035
 30
0.0
 10
230.0927024660144
 20
61.06282663503217
 30
0.0
 10
229.5498653567151
 20
60.82033583783181
 30
0.0
 10
229.2094711674507
 20
60.56296454801934
 30
0.0
 10
229.0028447477315
 20
60.34815561076999
 30
0.0
 10
228.8848608300325
 20
60.20165357335603
 30
0.0
 10
228.7326907348082
 20
59.97190147440999
 30
0.0
 10
228.566009185179
 20
59.59896006728788
 30
0.0
 10
228.4976488648265
 20
59.1364010107676
 30
0.0
 10
228.5480030529603
 20
58.7080671391011
 30
0.0
 10
228.6534329278154
 20
58.38814122811347
 30
0.0
 10
228.8356316879099
 20
58.04767496674857
 30
0.0
 10
229.1365107029053
 20
57.71172709804312
 30
0.0
 10
229.5261954036882
 20
57.43866838620941
 30
0.0
 10
229.8191142493629
 20
57.34471271535265
 30
0.0
 10
229.928050165242
 20
57.30977079472187
 30
0.0
  0
SPLINE
  5
271
330
1F
100
AcDbEntity
  8
0
  6
Continuous
 62
     7
370
    25
100
AcDbSpline
210
0.0
220
0.0
230
1.0
 70
     8
 71
     3
 72
    22
 73
    18
 74
     0
 42
0.000000001
 43
0.00000001
 40
0.0
 40
0.0
 40
0.0
 40
0.0
 40
0.0219614350649738
 40
0.0803652114651397
 40
0.1456638403585972
 40
0.21789694387348
 40
0.2799150498546654
 40
0.3332793472081466
 40
0.3779895055229293
 40
0.4140481372238363
 40
0.517328140944588
 40
0.609398085778404
 40
0.7028413953962249
 40
0.7526499641548304
 40
0.804559245215462
 40
0.8937466539091778
 40
1.0
 40
1.0
 40
1.0
 40
1.0
 10
235.4361568053269
 20
58.7103220257735
 30
0.0
 10
235.459324668725
 20
58.73217725394687
 30
0.0
 10
235.5441046585424
 20
58.81215381415687
 30
0.0
 10
235.6507361005904
 20
58.95431584502225
 30
0.0
 10
235.7479911913185
 20
59.1430945683261
 30
0.0
 10
235.7790175370024
 20
59.32905920697623
 30
0.0
 10
235.7496695408955
 20
59.5008738894818
 30
0.0
 10
235.6811626700903
 20
59.64768104466809
 30
0.0
 10
235.5933524377641
 20
59.7688903304982
 30
0.0
 10
235.4390601470079
 20
59.93447518091671
 30
0.0
 10
235.1712344185713
 20
60.14463846926051
 30
0.0
 10
234.7196644685777
 20
60.40008297780049
 30
0.0
 10
234.2721016276107
 20
60.60671870630743
 30
0.0
 10
233.8632081341271
 20
60.76522355067867
 30
0.0
 10
233.441128169183
 20
60.90773965997181
 30
0.0
 10
232.8628156342106
 20
61.07099712821948
 30
0.0
 10
232.3889368110553
 20
61.14656525172991
 30
0.0
 10
232.1313077886063
 20
61.18764862755722
 30
0.0
  0
LINE
  5
272
330
1F
100
AcDbEntity
  8
0
  6
Continuous
 62
     7
370
    25
100
AcDbLine
 10
225.6217387231
 20
45.9404775828
 30
0.0
 11
225.6165001796
 21
46.2365610016
 31
0.0
  0
LINE
  5
273
330
1F
100
AcDbEntity
  8
0
  6
Continuous
 62
     7
370
    25
100
AcDbLine
 10
225.6165001796
 20
46.2365610016
 30
0.0
 11
225.6595993287
 21
46.888204293
 31
0.0
  0
LINE
  5
274
330
1F
100
AcDbEntity
  8
0
  6
Continuous
 62
     7
370
    25
100
AcDbLine
 10
225.1369517598
 20
48.7172492565
 30
0.0
 11
224.8255369898
 21
49.0458455188
 31
0.0
  0
SPLINE
  5
275
330
1F
100
AcDbEntity
  8
0
  6
Continuous
 62
     7
370
    25
100
AcDbSpline
210
0.0
220
0.0
230
1.0
 70
     8
 71
     3
 72
    24
 73
    20
 74
     0
 42
0.000000001
 43
0.00000001
 40
0.0
 40
0.0
 40
0.0
 40
0.0
 40
0.0208485373664272
 40
0.0823376247214632
 40
0.1455705549099646
 40
0.2075413813861011
 40
0.2714247518574422
 40
0.3315017366460747
 40
0.3933547140842038
 40
0.4529343674600938
 40
0.514180240079699
 40
0.5749476280820675
 40
0.6373706675511337
 40
0.7000294854399094
 40
0.764869753768216
 40
0.8126336564434572
 40
0.8609398673429536
 40
0.9190455624033324
 40
1.0
 40
1.0
 40
1.0
 40
1.0
 10
228.5283197516938
 20
58.93850035955992
 30
0.0
 10
228.5256004124806
 20
58.99135002502702
 30
0.0
 10
228.514860861418
 20
59.20007046643758
 30
0.0
 10
228.5868813912512
 20
59.543152915767
 30
0.0
 10
228.7489698634976
 20
59.95480161671553
 30
0.0
 10
229.0113060988729
 20
60.32413711936874
 30
0.0
 10
229.3528220539579
 20
60.63230830706774
 30
0.0
 10
229.7685946373295
 20
60.87601843545239
 30
0.0
 10
230.2343621236256
 20
61.04581986672199
 30
0.0
 10
230.7485934354116
 20
61.14325215350103
 30
0.0
 10
231.2900054622866
 20
61.164866305323
 30
0.0
 10
231.8544061106506
 20
61.10846094048021
 30
0.0
 10
232.4212538079149
 20
60.9713873168483
 30
0.0
 10
232.9792112262836
 20
60.74555143899178
 30
0.0
 10
233.4518928932881
 20
60.44794143575604
 30
0.0
 10
233.8088869902436
 20
60.0770197727212
 30
0.0
 10
234.0037294147022
 20
59.64470114965802
 30
0.0
 10
234.0327606596043
 20
59.14175900495817
 30
0.0
 10
233.9703865414578
 20
58.80801421127374
 30
0.0
 10
233.9340751878106
 20
58.61372328433948
 30
0.0
  0
SPLINE
  5
276
330
1F
100
AcDbEntity
  8
0
  6
Continuous
 62
     7
370
    25
100
AcDbSpline
210
0.0
220
0.0
230
1.0
 70
     8
 71
     3
 72
    10
 73
     6
 74
     0
 42
0.000000001
 43
0.00000001
 40
0.0
 40
0.0
 40
0.0
 40
0.0
 40
0.2951234317486784
 40
0.9803957662378208
 40
1.0
 40
1.0
 40
1.0
 40
1.0
 10
233.9368030627904
 20
58.61248472633493
 30
0.0
 10
234.0196270750978
 20
58.57371975201728
 30
0.0
 10
234.2947672445106
 20
58.44494306873545
 30
0.0
 10
234.5697681482855
 20
58.30370960518454
 30
0.0
 10
234.7182884638163
 20
58.209689709926
 30
0.0
 10
234.722419154373
 20
58.20707480103561
 30
0.0
  0
ARC
  5
277
330
1F
100
AcDbEntity
  8
0
  6
Continuous
 62
     7
370
    25
100
AcDbCircle
 10
237.9468109091
 20
44.3992746564
 30
0.0
 40
12.46644230718201
100
AcDbArc
 50
171.5249591672
 51
179.8212373334
  0
SPLINE
  5
278
330
1F
100
AcDbEntity
  8
0
  6
Continuous
 62
     7
370
    25
100
AcDbSpline
210
0.0
220
0.0
230
1.0
 70
     8
 71
     3
 72
    14
 73
    10
 74
     0
 42
0.000000001
 43
0.00000001
 40
0.0
 40
0.0
 40
0.0
 40
0.0
 40
0.0003951393068452
 40
0.0003951393068452
 40
0.0003951393068452
 40
0.0008163352168663
 40
0.0008163352168663
 40
0.0008163352168663
 40
0.0012378579337219
 40
0.0012378579337219
 40
0.0012378579337219
 40
0.0012378579337219
 10
233.5287252634904
 20
58.75773182135963
 30
0.0
 10
233.5741870777217
 20
58.74329495873459
 30
0.0
 10
233.6190746823427
 20
58.72842909816899
 30
0.0
 10
233.6633583750179
 20
58.71314531056352
 30
0.0
 10
233.7105616672572
 20
58.69685387122583
 30
0.0
 10
233.7570874803163
 20
58.68008439314192
 30
0.0
 10
233.802898389558
 20
58.66285558234663
 30
0.0
 10
233.8487447775471
 20
58.64561342851498
 30
0.0
 10
233.8938840131195
 20
58.62790772231048
 30
0.0
 10
233.9382775711618
 20
58.6097648656197
 30
0.0
  0
LINE
  5
279
330
1F
100
AcDbEntity
  8
0
  6
Continuous
 62
     7
370
    25
100
AcDbLine
 10
224.8255369898
 20
49.0458455188
 30
0.0
 11
224.1856007945
 21
49.4580772559
 31
0.0
  0
LINE
  5
27A
330
1F
100
AcDbEntity
  8
0
  6
Continuous
 62
     7
370
    25
100
AcDbLine
 10
223.8796665981
 20
49.8295558016
 30
0.0
 11
224.1856007945
 21
49.4580772559
 31
0.0
  0
SPLINE
  5
27B
330
1F
100
AcDbEntity
  8
0
  6
Continuous
 62
     7
370
    25
100
AcDbSpline
210
0.0
220
0.0
230
1.0
 70
     8
 71
     3
 72
    13
 73
     9
 74
     0
 42
0.000000001
 43
0.00000001
 40
0.0
 40
0.0
 40
0.0
 40
0.0
 40
0.161854229885178
 40
0.3254858841554281
 40
0.4910085196607404
 40
0.6585318472791263
 40
0.8281616954204583
 40
0.9999999999999999
 40
0.9999999999999999
 40
0.9999999999999999
 40
0.9999999999999999
 10
224.1856007944688
 20
49.45807725592972
 30
0.0
 10
224.1660234024513
 20
49.47064023296289
 30
0.0
 10
224.1266536266056
 20
49.4959041490815
 30
0.0
 10
224.0651176868353
 20
49.52859784599636
 30
0.0
 10
224.0015610275859
 20
49.55754391970325
 30
0.0
 10
223.9359429249291
 20
49.58205628716885
 30
0.0
 10
223.8685156558743
 20
49.60249135052235
 30
0.0
 10
223.8226310556759
 20
49.61208800551213
 30
0.0
 10
223.7995403755009
 20
49.61691736634692
 30
0.0
  0
SPLINE
  5
27C
330
1F
100
AcDbEntity
  8
0
  6
Continuous
 62
     7
370
    25
100
AcDbSpline
210
0.0
220
0.0
230
1.0
 70
     8
 71
     3
 72
     9
 73
     5
 74
     0
 42
0.000000001
 43
0.00000001
 40
0.0
 40
0.0
 40
0.0
 40
0.0
 40
0.4907282259506175
 40
1.0
 40
1.0
 40
1.0
 40
1.0
 10
223.799534548209
 20
49.6168893693159
 30
0.0
 10
223.7754410257311
 20
49.62498490153403
 30
0.0
 10
223.7263435391719
 20
49.64148187845531
 30
0.0
 10
223.6756428453517
 20
49.65627554747154
 30
0.0
 10
223.6498224130644
 20
49.66380954553614
 30
0.0
  0
SPLINE
  5
27D
330
1F
100
AcDbEntity
  8
0
  6
Continuous
 62
     7
370
    25
100
AcDbSpline
210
0.0
220
0.0
230
1.0
 70
     8
 71
     3
 72
    14
 73
    10
 74
     0
 42
0.000000001
 43
0.00000001
 40
0.0
 40
0.0
 40
0.0
 40
0.0
 40
0.0310276388071746
 40
0.0622853718672815
 40
0.1248003166904892
 40
0.2498289731753984
 40
0.499889260361071
 40
0.7606803621682141
 40
1.0
 40
1.0
 40
1.0
 40
1.0
 10
223.0658817237761
 20
50.03791728818201
 30
0.0
 10
223.0718739631805
 20
50.03408624452837
 30
0.0
 10
223.0839028791398
 20
50.02639574703066
 30
0.0
 10
223.1079626871889
 20
50.01095785752398
 30
0.0
 10
223.1501963598352
 20
49.98388740459315
 30
0.0
 10
223.2347589343474
 20
49.92967537979777
 30
0.0
 10
223.3580459038176
 20
49.85067219793174
 30
0.0
 10
223.5041776102716
 20
49.7570660232543
 30
0.0
 10
223.6025442268123
 20
49.69408294686183
 30
0.0
 10
223.6496159274965
 20
49.66394344807271
 30
0.0
  0
LINE
  5
27E
330
1F
100
AcDbEntity
  8
0
  6
Continuous
 62
     7
370
    25
100
AcDbLine
 10
221.2633814571
 20
51.2005480893
 30
0.0
 11
221.5543482916
 21
51.0124696602
 31
0.0
  0
SPLINE
  5
27F
330
1F
100
AcDbEntity
  8
0
  6
Continuous
 62
     7
370
    25
100
AcDbSpline
210
0.0
220
0.0
230
1.0
 70
     8
 71
     3
 72
     8
 73
     4
 74
     0
 42
0.000000001
 43
0.00000001
 40
0.0
 40
0.0
 40
0.0
 40
0.0
 40
1.0
 40
1.0
 40
1.0
 40
1.0
 10
221.5857372260713
 20
50.99224689587083
 30
0.0
 10
221.5752947202195
 20
50.99907232076824
 30
0.0
 10
221.5648287873297
 20
51.00581528755476
 30
0.0
 10
221.5543410225131
 20
51.01247437520774
 30
0.0
  0
SPLINE
  5
280
330
1F
100
AcDbEntity
  8
0
  6
Continuous
 62
     7
370
    25
100
AcDbSpline
210
0.0
220
0.0
230
1.0
 70
     8
 71
     3
 72
     8
 73
     4
 74
     0
 42
0.000000001
 43
0.00000001
 40
0.0
 40
0.0
 40
0.0
 40
0.0
 40
1.0
 40
1.0
 40
1.0
 40
1.0
 10
218.7997328472475
 20
52.87050254767991
 30
0.0
 10
218.8587326114175
 20
52.83176188076095
 30
0.0
 10
218.918020174928
 20
52.79369990346166
 30
0.0
 10
218.9776012484164
 20
52.75631611500137
 30
0.0
  0
SPLINE
  5
281
330
1F
100
AcDbEntity
  8
0
  6
Continuous
 62
     7
370
    25
100
AcDbSpline
210
0.0
220
0.0
230
1.0
 70
     8
 71
     3
 72
     8
 73
     4
 74
     0
 42
0.000000001
 43
0.00000001
 40
0.0
 40
0.0
 40
0.0
 40
0.0
 40
1.0
 40
1.0
 40
1.0
 40
1.0
 10
218.7748831011479
 20
53.23371272561823
 30
0.0
 10
218.7823573132385
 20
53.11275488490638
 30
0.0
 10
218.7906534171286
 20
52.99168304249574
 30
0.0
 10
218.7997328472475
 20
52.87050254767991
 30
0.0
  0
LWPOLYLINE
  5
282
330
1F
100
AcDbEntity
  8
0
  6
Continuous
 62
     7
370
    25
100
AcDbPolyline
 90
       15
 70
   128
 43
0.0
 10
218.7748831011
 20
53.2337127256
 10
219.1684824429
 20
54.3426214621
 10
219.6431506051
 20
55.4433895165
 10
220.1932037224
 20
56.522835854
 10
220.8120552399
 20
57.5680347547
 10
221.4922947832
 20
58.5664705911
 10
222.2257768933
 20
59.5061876951
 10
223.0037185636
 20
60.3759335202
 10
223.8168044111
 20
61.1652933839
 10
224.6552982221
 20
61.8648151769
 10
225.5091595383
 20
62.4661225471
 10
226.3681638844
 20
62.9620152008
 10
227.2220252005
 20
63.3465551218
 10
228.0605190116
 20
63.6151376763
 10
228.7388453268
 20
63.7478204895
  0
SPLINE
  5
283
330
1F
100
AcDbEntity
  8
0
  6
Continuous
 62
     7
370
    25
100
AcDbSpline
210
0.0
220
0.0
230
1.0
 70
     8
 71
     3
 72
    10
 73
     6
 74
     0
 42
0.000000001
 43
0.00000001
 40
0.0
 40
0.0
 40
0.0
 40
0.0
 40
0.2409820260343464
 40
0.5031431986319208
 40
1.0
 40
1.0
 40
1.0
 40
1.0
 10
224.8255369897975
 20
42.34000410123779
 30
0.0
 10
224.9077830179961
 20
42.28832758926879
 30
0.0
 10
225.0795034171628
 20
42.18043288046373
 30
0.0
 10
225.3572235989008
 20
42.05070959978983
 30
0.0
 10
225.4782013862808
 20
42.07348770328934
 30
0.0
 10
225.5573940253697
 20
42.08839835894464
 30
0.0
  0
LINE
  5
284
330
1F
100
AcDbEntity
  8
0
  6
Continuous
 62
     7
370
    25
100
AcDbLine
 10
220.0423635352
 20
52.0690764547
 30
0.0
 11
219.2804841537
 21
52.5597113734
 31
0.0
  0
LINE
  5
285
330
1F
100
AcDbEntity
  8
0
  6
Continuous
 62
     7
370
    25
100
AcDbLine
 10
219.2804841537
 20
52.5597113734
 30
0.0
 11
218.7997328472
 21
52.8705025477
 31
0.0
  0
LINE
  5
286
330
1F
100
AcDbEntity
  8
0
  6
Continuous
 62
     7
370
    25
100
AcDbLine
 10
223.8796665981
 20
42.0642243266
 30
0.0
 11
224.1856007945
 21
42.7522358383
 31
0.0
  0
LINE
  5
287
330
1F
100
AcDbEntity
  8
0
  6
Continuous
 62
     7
370
    25
100
AcDbLine
 10
224.1856007945
 20
42.7522358383
 30
0.0
 11
224.8255369898
 21
42.3400041012
 31
0.0
  0
SPLINE
  5
288
330
1F
100
AcDbEntity
  8
0
  6
Continuous
 62
     7
370
    25
100
AcDbSpline
210
0.0
220
0.0
230
1.0
 70
     8
 71
     3
 72
    13
 73
     9
 74
     0
 42
0.000000001
 43
0.00000001
 40
0.0
 40
0.0
 40
0.0
 40
0.0
 40
0.172258782378417
 40
0.342139827159501
 40
0.5097456258302661
 40
0.6751828993623331
 40
0.8385626190354498
 40
1.0
 40
1.0
 40
1.0
 40
1.0
 10
223.7995288636955
 20
43.03354533418302
 30
0.0
 10
223.8226803876507
 20
43.01542574324557
 30
0.0
 10
223.8686638684063
 20
42.97943667130425
 30
0.0
 10
223.9362048811256
 20
42.92843668788259
 30
0.0
 10
224.0018644958139
 20
42.88011200769082
 30
0.0
 10
224.0653885670617
 20
42.83468100178499
 30
0.0
 10
224.1268189457754
 20
42.79185543403211
 30
0.0
 10
224.1660851127417
 20
42.76538961686187
 30
0.0
 10
224.1856007944688
 20
42.75223583831801
 30
0.0
  0
SPLINE
  5
289
330
1F
100
AcDbEntity
  8
0
  6
Continuous
 62
     7
370
    25
100
AcDbSpline
210
0.0
220
0.0
230
1.0
 70
     8
 71
     3
 72
    11
 73
     7
 74
     0
 42
0.000000001
 43
0.00000001
 40
0.0
 40
0.0
 40
0.0
 40
0.0
 40
0.2392845094479873
 40
0.5001120454076898
 40
0.7515010915036774
 40
1.0
 40
1.0
 40
1.0
 40
1.0
 10
223.6501484522194
 20
43.0808593263959
 30
0.0
 10
223.6030792202149
 20
43.05254480368311
 30
0.0
 10
223.5047030656203
 20
42.99336657312692
 30
0.0
 10
223.3584058440364
 20
42.900178672667
 30
0.0
 10
223.2105651003926
 20
42.80480675669455
 30
0.0
 10
223.1142786376737
 20
42.74027150143174
 30
0.0
 10
223.0664137498146
 20
42.7081904313739
 30
0.0
  0
SPLINE
  5
28A
330
1F
100
AcDbEntity
  8
0
  6
Continuous
 62
     7
370
    25
100
AcDbSpline
210
0.0
220
0.0
230
1.0
 70
     8
 71
     3
 72
     9
 73
     5
 74
     0
 42
0.000000001
 43
0.00000001
 40
0.0
 40
0.0
 40
0.0
 40
0.0
 40
0.5090669353869915
 40
1.0
 40
1.0
 40
1.0
 40
1.0
 10
223.6507194558036
 20
43.08016037218413
 30
0.0
 10
223.6763680304276
 20
43.07266766402424
 30
0.0
 10
223.7267515317731
 20
43.05794915131198
 30
0.0
 10
223.7755590432683
 20
43.04155679345981
 30
0.0
 10
223.7995202644629
 20
43.03350924298322
 30
0.0
  0
LINE
  5
28B
330
1F
100
AcDbEntity
  8
0
  6
Continuous
 62
     7
370
    25
100
AcDbLine
 10
225.4806380301
 20
44.0040386106
 30
0.0
 11
223.7995223693
 21
43.033551197
 31
0.0
  0
LINE
  5
28C
330
1F
100
AcDbEntity
  8
0
  6
Continuous
 62
     7
370
    25
100
AcDbLine
 10
221.7930345723
 20
44.1573724748
 30
0.0
 11
221.5927385199
 21
43.6562151934
 31
0.0
  0
SPLINE
  5
28D
330
1F
100
AcDbEntity
  8
0
  6
Continuous
 62
     7
370
    25
100
AcDbSpline
210
0.0
220
0.0
230
1.0
 70
     8
 71
     3
 72
     8
 73
     4
 74
     0
 42
0.000000001
 43
0.00000001
 40
0.0
 40
0.0
 40
0.0
 40
0.0
 40
1.0
 40
1.0
 40
1.0
 40
1.0
 10
221.7925912576634
 20
44.15815640604547
 30
0.0
 10
221.8187665922327
 20
44.18032378302374
 30
0.0
 10
221.8445876321981
 20
44.20295592411536
 30
0.0
 10
221.8700451859065
 20
44.22604064420664
 30
0.0
  0
LINE
  5
28E
330
1F
100
AcDbEntity
  8
0
  6
Continuous
 62
     7
370
    25
100
AcDbLine
 10
221.8700451859
 20
44.2260406442
 30
0.0
 11
223.6503381762
 21
43.0802693817
 31
0.0
  0
LINE
  5
28F
330
1F
100
AcDbEntity
  8
0
  6
Continuous
 62
     7
370
    25
100
AcDbLine
 10
225.4804292784
 20
44.102088645
 30
0.0
 11
225.3924302559
 21
44.2095797816
 31
0.0
  0
LINE
  5
290
330
1F
100
AcDbEntity
  8
0
  6
Continuous
 62
     7
370
    25
100
AcDbLine
 10
223.5640216674
 20
45.2039524515
 30
0.0
 11
221.8700451859
 21
44.2260406442
 31
0.0
  0
LINE
  5
291
330
1F
100
AcDbEntity
  8
0
  6
Continuous
 62
     7
370
    25
100
AcDbLine
 10
223.706715693
 20
45.1826600908
 30
0.0
 11
223.5644419815
 21
45.2034647067
 31
0.0
  0
LINE
  5
292
330
1F
100
AcDbEntity
  8
0
  6
Continuous
 62
     7
370
    25
100
AcDbLine
 10
225.3925032613
 20
44.2094756424
 30
0.0
 11
223.706715693
 21
45.1826600908
 31
0.0
  0
LINE
  5
293
330
1F
100
AcDbEntity
  8
0
  6
Continuous
 62
     7
370
    25
100
AcDbLine
 10
225.4804292784
 20
44.1587113015
 30
0.0
 11
225.3924568043
 21
44.2095024428
 31
0.0
  0
SPLINE
  5
294
330
1F
100
AcDbEntity
  8
0
  6
Continuous
 62
     7
370
    25
100
AcDbSpline
210
0.0
220
0.0
230
1.0
 70
     8
 71
     3
 72
    19
 73
    15
 74
     0
 42
0.000000001
 43
0.00000001
 40
0.0
 40
0.0
 40
0.0
 40
0.0
 40
0.0637852801523487
 40
0.1289627947928742
 40
0.1955871357727518
 40
0.2637094157112479
 40
0.3333774494312574
 40
0.4046359392583752
 40
0.477526660464624
 40
0.5520886439445272
 40
0.6283583539150506
 40
0.7063698590296017
 40
0.8377040422924708
 40
1.0
 40
1.0
 40
1.0
 40
1.0
 10
221.0085221517021
 20
44.32664449339735
 30
0.0
 10
221.0292115207072
 20
44.31328535338703
 30
0.0
 10
221.071041843362
 20
44.28627548484612
 30
0.0
 10
221.1315328169567
 20
44.2487535193196
 30
0.0
 10
221.191017015136
 20
44.21323377822893
 30
0.0
 10
221.2490981746076
 20
44.18025364931243
 30
0.0
 10
221.3056302916949
 20
44.15004721304205
 30
0.0
 10
221.3603753464486
 20
44.12293377308072
 30
0.0
 10
221.4130977240415
 20
44.09920215532998
 30
0.0
 10
221.46353935697
 20
44.07916190188819
 30
0.0
 10
221.5114222754452
 20
44.06304204033871
 30
0.0
 10
221.5663864556281
 20
44.04876406399232
 30
0.0
 10
221.6292178193586
 20
44.03862550291083
 30
0.0
 10
221.6677253625194
 20
44.04509978230033
 30
0.0
 10
221.6890093443872
 20
44.04867826157536
 30
0.0
  0
LINE
  5
295
330
1F
100
AcDbEntity
  8
0
  6
Continuous
 62
     7
370
    25
100
AcDbLine
 10
221.7136452754
 20
44.0747484088
 30
0.0
 11
221.7924492961
 21
44.1581401191
 31
0.0
  0
SPLINE
  5
296
330
1F
100
AcDbEntity
  8
0
  6
Continuous
 62
     7
370
    25
100
AcDbSpline
210
0.0
220
0.0
230
1.0
 70
     8
 71
     3
 72
     9
 73
     5
 74
     0
 42
0.000000001
 43
0.00000001
 40
0.0
 40
0.0
 40
0.0
 40
0.0
 40
0.523202776288562
 40
0.9999999999999999
 40
0.9999999999999999
 40
0.9999999999999999
 40
0.9999999999999999
 10
223.3978443132075
 20
45.10802030693249
 30
0.0
 10
223.3288200002138
 20
45.13306246600673
 30
0.0
 10
223.1968934965294
 20
45.18092566591534
 30
0.0
 10
222.955456344175
 20
45.31852386284525
 30
0.0
 10
222.8403397802316
 20
45.38413030112913
 30
0.0
  0
LINE
  5
297
330
1F
100
AcDbEntity
  8
0
  6
Continuous
 62
     7
370
    25
100
AcDbLine
 10
219.1108386571
 20
45.150019768
 30
0.0
 11
219.5623088268
 21
45.2622843016
 31
0.0
  0
LINE
  5
298
330
1F
100
AcDbEntity
  8
0
  6
Continuous
 62
     7
370
    25
100
AcDbLine
 10
219.5623088268
 20
45.2622843016
 30
0.0
 11
221.0085221517
 21
44.3266444934
 31
0.0
  0
SPLINE
  5
299
330
1F
100
AcDbEntity
  8
0
  6
Continuous
 62
     7
370
    25
100
AcDbSpline
210
0.0
220
0.0
230
1.0
 70
     8
 71
     3
 72
     8
 73
     4
 74
     0
 42
0.000000001
 43
0.00000001
 40
0.0
 40
0.0
 40
0.0
 40
0.0
 40
1.0
 40
1.0
 40
1.0
 40
1.0
 10
219.2816265357188
 20
44.75527029561403
 30
0.0
 10
219.2245012667948
 20
44.88705647940967
 30
0.0
 10
219.1675727750772
 20
45.01864070107046
 30
0.0
 10
219.1108386571278
 20
45.15001976797182
 30
0.0
  0
LINE
  5
29A
330
1F
100
AcDbEntity
  8
0
  6
Continuous
 62
     7
370
    25
100
AcDbLine
 10
220.9000100373
 20
46.0345227728
 30
0.0
 11
219.5623088268
 21
45.2622843016
 31
0.0
  0
LINE
  5
29B
330
1F
100
AcDbEntity
  8
0
  6
Continuous
 62
     7
370
    25
100
AcDbLine
 10
221.8830388341
 20
45.9367692395
 30
0.0
 11
220.9000095634
 21
46.0345228205
 31
0.0
  0
LINE
  5
29C
330
1F
100
AcDbEntity
  8
0
  6
Continuous
 62
     7
370
    25
100
AcDbLine
 10
222.8403397802
 20
45.3841303011
 30
0.0
 11
221.8830380846
 21
45.9367688068
 31
0.0
  0
SPLINE
  5
29D
330
1F
100
AcDbEntity
  8
0
  6
Continuous
 62
     7
370
    25
100
AcDbSpline
210
0.0
220
0.0
230
1.0
 70
     8
 71
     3
 72
     8
 73
     4
 74
     0
 42
0.000000001
 43
0.00000001
 40
0.0
 40
0.0
 40
0.0
 40
0.0
 40
1.0
 40
1.0
 40
1.0
 40
1.0
 10
219.11083865713
 20
45.1500197679667
 30
0.0
 10
219.1077013193799
 20
45.18523607483922
 30
0.0
 10
219.1057089154819
 20
45.22088033106692
 30
0.0
 10
219.1049275181098
 20
45.2569772330618
 30
0.0
  0
LINE
  5
29E
330
1F
100
AcDbEntity
  8
0
  6
Continuous
 62
     7
370
    25
100
AcDbLine
 10
219.9160130506
 20
45.7252069444
 30
0.0
 11
219.1049275181
 21
45.2569772331
 31
0.0
  0
SPLINE
  5
29F
330
1F
100
AcDbEntity
  8
0
  6
Continuous
 62
     7
370
    25
100
AcDbSpline
210
0.0
220
0.0
230
1.0
 70
     8
 71
     3
 72
     8
 73
     4
 74
     0
 42
0.000000001
 43
0.00000001
 40
0.0000004089325119
 40
0.0000004089325119
 40
0.0000004089325119
 40
0.0000004089325119
 40
0.0015399868451459
 40
0.0015399868451459
 40
0.0015399868451459
 40
0.0015399868451459
 10
219.9160130505986
 20
45.72520694441791
 30
0.0
 10
220.1544896186219
 20
45.81958333023427
 30
0.0
 10
220.3929365762906
 20
45.91401194216447
 30
0.0
 10
220.6313453151409
 20
46.00850532512693
 30
0.0
  0
LINE
  5
2A0
330
1F
100
AcDbEntity
  8
0
  6
Continuous
 62
     7
370
    25
100
AcDbLine
 10
220.6313453151
 20
46.0085053251
 30
0.0
 11
220.6557415458
 21
46.0134992549
 31
0.0
  0
LINE
  5
2A1
330
1F
100
AcDbEntity
  8
0
  6
Continuous
 62
     7
370
    25
100
AcDbLine
 10
220.9000098298
 20
46.0345227543
 30
0.0
 11
220.6557420876
 21
46.0134996476
 31
0.0
  0
SPLINE
  5
2A2
330
1F
100
AcDbEntity
  8
0
  6
Continuous
 62
     7
370
    25
100
AcDbSpline
210
0.0
220
0.0
230
1.0
 70
     8
 71
     3
 72
     8
 73
     4
 74
     0
 42
0.000000001
 43
0.00000001
 40
0.0
 40
0.0
 40
0.0
 40
0.0
 40
1.0
 40
1.0
 40
1.0
 40
1.0
 10
221.8830372296489
 20
45.9367693177139
 30
0.0
 10
221.9136452637721
 20
45.92182930990778
 30
0.0
 10
221.944196764744
 20
45.9069523525144
 30
0.0
 10
221.9746907028586
 20
45.89213878883348
 30
0.0
  0
LWPOLYLINE
  5
2A3
330
1F
100
AcDbEntity
  8
0
  6
Continuous
 62
     7
370
    25
100
AcDbPolyline
 90
        3
 70
   128
 43
0.0
 10
225.5228108233
 20
45.4252188284
 10
225.0482811599
 20
45.2272570446
 10
224.3114264124
 20
45.001214488
  0
LWPOLYLINE
  5
2A4
330
1F
100
AcDbEntity
  8
0
  6
Continuous
 62
     7
370
    18
100
AcDbPolyline
 90
       21
 70
   128
 43
0.0
 10
270.4003911194
 20
22.6732123927
 10
270.4452533476
 20
23.4399603277
 10
270.5789668397
 20
24.2435812124
 10
270.7989290149
 20
25.0684334803
 10
271.1008585595
 20
25.8984623204
 10
271.4788787584
 20
26.7175121654
 10
271.9256318785
 20
27.5096411417
 10
272.4324223784
 20
28.2594313598
 10
272.9893861575
 20
28.952289006
 10
273.5856825493
 20
29.5747283944
 10
274.209705323
 20
30.1146344502
 10
274.849308585
 20
30.5614985163
 10
275.4920431854
 20
30.9066228918
 10
276.1253990262
 20
31.1432901234
 10
276.7370485565
 20
31.2668937526
 10
277.3150867139
 20
31.2750279754
 10
277.8482626431
 20
31.1675344684
 10
278.3261986813
 20
30.9465054704
 10
278.739592347
 20
30.6162430594
 10
279.0803974027
 20
30.1831754177
 10
279.1622003865
 20
30.0440036264
  0
LWPOLYLINE
  5
2A5
330
1F
100
AcDbEntity
  8
0
  6
Continuous
 62
     7
370
    18
100
AcDbPolyline
 90
       10
 70
   128
 43
0.0
 10
273.0081090191
 20
19.3836496321
 10
272.9893861575
 20
19.3833258236
 10
272.4324223784
 20
19.4331267784
 10
271.9256318785
 20
19.5977891401
 10
271.4788787584
 20
19.8741079433
 10
271.1008585595
 20
20.2567049568
 10
270.7989290149
 20
20.7381333648
 10
270.5789668397
 20
21.3090227111
 10
270.4452533476
 20
21.9582612838
 10
270.4003911194
 20
22.6732123927
  0
LWPOLYLINE
  5
2A6
330
1F
100
AcDbEntity
  8
0
  6
Continuous
 62
     7
370
    18
100
AcDbPolyline
 90
       43
 70
   128
 43
0.0
 10
271.449518044
 20
22.8074813399
 10
271.4938478321
 20
23.5161608404
 10
271.6258469424
 20
24.2601916959
 10
271.8425667328
 20
25.0229534865
 10
272.1391660413
 20
25.7874073743
 10
272.5090193295
 20
26.5364767227
 10
272.9438646861
 20
27.2534285602
 10
273.4339883844
 20
27.9222473674
 10
273.9684418709
 20
28.5279928375
 10
274.5352863377
 20
29.0571336175
 10
275.1218594163
 20
29.4978495769
 10
275.7150580334
 20
29.8402958494
 10
276.301631112
 20
30.076822751
 10
276.8684755789
 20
30.2021466617
 10
277.4029290653
 20
30.2134680525
 10
277.8930527636
 20
30.1105340221
 10
278.3278981202
 20
29.8956439466
 10
278.6977514084
 20
29.5735981154
 10
278.9943507169
 20
29.1515905
 10
279.2110705073
 20
28.6390480533
 10
279.3430696176
 20
28.0474201266
 10
279.3873994058
 20
27.3899227101
 10
279.3430696176
 20
26.6812432096
 10
279.2110705073
 20
25.9372123541
 10
278.9943507169
 20
25.1744505635
 10
278.6977514084
 20
24.4099966757
 10
278.3278981202
 20
23.6609273273
 10
277.8930527636
 20
22.9439754899
 10
277.4029290653
 20
22.2751566826
 10
276.8684755789
 20
21.6694112126
 10
276.301631112
 20
21.1402704325
 10
275.7150580334
 20
20.6995544731
 10
275.1218594163
 20
20.3571082007
 10
274.5352863377
 20
20.120581299
 10
273.9684418709
 20
19.9952573883
 10
273.4339883844
 20
19.9839359976
 10
272.9438646861
 20
20.086870028
 10
272.5090193295
 20
20.3017601034
 10
272.1391660413
 20
20.6238059346
 10
271.8425667328
 20
21.04581355
 10
271.6258469424
 20
21.5583559967
 10
271.4938478321
 20
22.1499839234
 10
271.449518044
 20
22.8074813399
  0
LWPOLYLINE
  5
2A7
330
1F
100
AcDbEntity
  8
0
  6
Continuous
 62
     7
370
    18
100
AcDbPolyline
 90
        8
 70
   128
 43
0.0
 10
241.3005565326
 20
37.6509767443
 10
241.3456680726
 20
36.8158167929
 10
241.4803448647
 20
36.0449200295
 10
241.7026230179
 20
35.349527865
 10
242.0092612164
 20
34.739780683
 10
242.3957879847
 20
34.2245699703
 10
242.8565668921
 20
33.8114086595
 10
243.1130964127
 20
33.6448346877
  0
LWPOLYLINE
  5
2A8
330
1F
100
AcDbEntity
  8
0
  6
Continuous
 62
     7
370
    18
100
AcDbPolyline
 90
       21
 70
   128
 43
0.0
 10
251.8623853233
 20
48.8006897794
 10
251.5906029915
 20
48.9392028944
 10
251.0024621705
 20
49.1317669006
 10
250.3630687984
 20
49.2089998091
 10
249.6817466704
 20
49.1697753903
 10
248.9684309973
 20
49.0146656246
 10
248.2335235279
 20
48.7459323617
 10
247.487740868
 20
48.3674943375
 10
246.7419582081
 20
47.8848700308
 10
246.0070507387
 20
47.3050971906
 10
245.2937350656
 20
46.6366302104
 10
244.6124129376
 20
45.8892168443
 10
243.9730195655
 20
45.0737560619
 10
243.3848787445
 20
44.2021391179
 10
242.8565668921
 20
43.2870761499
 10
242.3957879847
 20
42.3419108366
 10
242.0092612164
 20
41.3804258165
 10
241.7026230179
 20
40.4166417064
 10
241.4803448647
 20
39.4646126488
 10
241.3456680726
 20
38.5382213711
 10
241.3005565326
 20
37.6509767443
  0
LWPOLYLINE
  5
2A9
330
1F
100
AcDbEntity
  8
0
  6
Continuous
 62
     7
370
    18
100
AcDbPolyline
 90
       22
 70
   128
 43
0.0
 10
275.9712550519
 20
27.4853556214
 10
276.2314843804
 20
27.5175980504
 10
276.5867744721
 20
27.4649092304
 10
276.8834803338
 20
27.2935689007
 10
277.1067238946
 20
27.0121687809
 10
277.2453107902
 20
26.6348194479
 10
277.292291695
 20
26.1804427732
 10
277.2453107902
 20
25.6718231004
 10
277.1067238946
 20
25.1344647437
 10
276.8834803338
 20
24.5953130949
 10
276.5867744721
 20
24.0814034691
 10
276.2314843804
 20
23.6185054408
 10
275.8354257875
 20
23.2298306499
 10
275.4184587249
 20
22.9348688735
 10
275.0014916623
 20
22.7484107267
 10
274.6054330693
 20
22.6798059996
 10
274.2501429776
 20
22.7324948196
 10
273.9534371159
 20
22.9038351494
 10
273.7301935551
 20
23.1852352692
 10
273.5916066595
 20
23.5625846021
 10
273.5446257547
 20
24.0169612769
 10
273.5446257547
 20
24.0169612769
  0
LWPOLYLINE
  5
2AA
330
1F
100
AcDbEntity
  8
0
  6
Continuous
 62
     7
370
    18
100
AcDbPolyline
 90
       27
 70
   128
 43
0.0
 10
239.1792361891
 20
37.6509767443
 10
239.224809114
 20
38.6143769671
 10
239.360954783
 20
39.6182792524
 10
239.5859610852
 20
40.6500589464
 10
239.8969984359
 20
41.6967408208
 10
240.2901553598
 20
42.7451622437
 10
240.7604876805
 20
43.7821387074
 10
241.3020806962
 20
44.7946296312
 10
241.9081235605
 20
45.7699023544
 10
242.5709949328
 20
46.6956922565
 10
243.2823588209
 20
47.5603569924
 10
244.0332694112
 20
48.3530229013
 10
244.8142835673
 20
49.0637217494
 10
245.6155795831
 20
49.6835160866
 10
246.4270806962
 20
50.2046116392
 10
247.2385818093
 20
50.6204553285
 10
248.0398778251
 20
50.9258176787
 10
248.8208919812
 20
51.116858581
 10
249.5718025715
 20
51.1911755855
 10
250.2831664596
 20
51.1478341124
 10
250.9460378319
 20
50.9873792061
 10
251.5520806962
 20
50.7118286801
 10
252.093673712
 20
50.3246477421
 10
252.5640060327
 20
49.8307054171
 10
252.9571629566
 20
49.2362133164
 10
253.2682003072
 20
48.548647523
 10
253.4712116214
 20
47.8719341266
  0
LWPOLYLINE
  5
2AB
330
1F
100
AcDbEntity
  8
0
  6
Continuous
 62
     7
370
    18
100
AcDbPolyline
 90
       13
 70
   128
 43
0.0
 10
244.7219227108
 20
32.7160790349
 10
244.0332694112
 20
32.5532780537
 10
243.2823588209
 20
32.4789610493
 10
242.5709949328
 20
32.5223025223
 10
241.9081235605
 20
32.6827574286
 10
241.3020806962
 20
32.9583079546
 10
240.7604876805
 20
33.3454888926
 10
240.2901553598
 20
33.8394312177
 10
239.8969984359
 20
34.4339233184
 10
239.5859610852
 20
35.1214891117
 10
239.360954783
 20
35.8934820589
 10
239.224809114
 20
36.7401939006
 10
239.1792361891
 20
37.6509767443
  0
LWPOLYLINE
  5
2AC
330
1F
100
AcDbEntity
  8
0
  6
Continuous
 62
     7
370
    18
100
AcDbPolyline
 90
       28
 70
   128
 43
0.0
 10
229.0057373747
 20
39.0439730851
 10
229.0505358054
 20
40.2217276683
 10
229.1845704069
 20
41.4417228312
 10
229.4067620112
 20
42.6941358902
 10
229.7153216624
 20
43.9688831516
 10
230.1077650195
 20
45.2557011001
 10
230.5809323594
 20
46.5442290341
 10
231.1310140168
 20
47.8240924844
 10
231.7535810577
 20
49.0849867431
 10
232.4436209384
 20
50.3167598309
 10
233.1955778634
 20
51.5094942353
 10
234.0033975178
 20
52.65358676
 10
234.8605758126
 20
53.7398258449
 10
235.7602112523
 20
54.7594657315
 10
236.6950605013
 20
55.704296879
 10
237.6575967031
 20
56.5667120625
 10
238.6400700821
 20
57.3397676221
 10
239.6345703405
 20
58.017239369
 10
240.6330903468
 20
58.5936726989
 10
241.6275906052
 20
59.0644265097
 10
242.6100639843
 20
59.4257105685
 10
243.572600186
 20
59.6746160284
 10
244.507449435
 20
59.8091388491
 10
245.4070848747
 20
59.8281959319
 10
246.2642631696
 20
59.7316338403
 10
247.0720828239
 20
59.5202300357
 10
247.8240397489
 20
59.195686617
 10
248.0019408711
 20
59.0975283867
  0
LWPOLYLINE
  5
2AD
330
1F
100
AcDbEntity
  8
0
  6
Continuous
 62
     7
370
    18
100
AcDbPolyline
 90
       10
 70
   128
 43
0.0
 10
232.2657198162
 20
31.8386404433
 10
231.7535810577
 20
32.1755522129
 10
231.1310140168
 20
32.7176458663
 10
230.5809323594
 20
33.3623985537
 10
230.1077650195
 20
34.1046191056
 10
229.7153216624
 20
34.9383315985
 10
229.4067620112
 20
35.8568234698
 10
229.1845704069
 20
36.8526995629
 10
229.0505358054
 20
37.917941669
 10
229.0057373747
 20
39.0439730851
  0
LWPOLYLINE
  5
2AE
330
1F
100
AcDbEntity
  8
0
  6
Continuous
 62
     7
370
    18
100
AcDbPolyline
 90
       13
 70
   128
 43
0.0
 10
233.6298184763
 20
35.7083363588
 10
233.4975035145
 20
36.5005689186
 10
233.4146238915
 20
37.5536314785
 10
233.4246816714
 20
38.6644368598
 10
233.5275818535
 20
39.822492933
 10
233.7223524924
 20
41.0168612616
 10
234.0071538791
 20
42.2362604211
 10
234.3792959177
 20
43.4691725578
 10
234.8352635347
 20
44.7039521813
 10
235.3707498811
 20
45.9289361613
 10
235.9806970122
 20
47.1325538929
 10
236.6593436631
 20
48.3034365862
 10
237.4002796662
 20
49.4305246505
  0
LWPOLYLINE
  5
2AF
330
1F
100
AcDbEntity
  8
0
  6
Continuous
 62
     7
370
    18
100
AcDbPolyline
 90
       17
 70
   128
 43
0.0
 10
234.1416145507
 20
32.77840881
 10
233.7850313426
 20
33.3232389393
 10
233.3891522179
 20
34.1253534499
 10
233.0804239018
 20
35.0167665535
 10
232.8616752517
 20
35.9893102903
 10
232.7349106471
 20
37.0340733057
 10
232.7012916238
 20
38.1414825047
 10
232.7611262308
 20
39.3013907694
 10
232.9138662074
 20
40.5031699362
 10
233.1581120071
 20
41.7358081814
 10
233.4916256219
 20
42.9880109215
 10
233.9113510882
 20
44.2483043048
 10
234.4134424891
 20
45.5051403457
 10
234.9932991941
 20
46.7470027377
 10
235.645608014
 20
47.9625123772
 10
236.3643918859
 20
49.140531629
 10
237.1430646403
 20
50.2702663798
  0
LINE
  5
2B0
330
1F
100
AcDbEntity
  8
0
  6
Continuous
 62
     7
370
    18
100
AcDbLine
 10
240.1349883181
 20
51.6712873051
 30
0.0
 11
240.1765373576
 21
51.7148316181
 31
0.0
  0
ARC
  5
2B1
330
1F
100
AcDbEntity
  8
0
  6
Continuous
 62
     7
370
    18
100
AcDbCircle
 10
250.22619003
 20
42.4873980266
 30
0.0
 40
14.35348911364144
100
AcDbArc
 50
109.9319623821
 51
139.4246774734
  0
LWPOLYLINE
  5
2B2
330
1F
100
AcDbEntity
  8
0
  6
Continuous
 62
     7
370
    18
100
AcDbPolyline
 90
       12
 70
   128
 43
0.0
 10
238.4872578811
 20
51.9424299924
 10
239.3996026609
 20
52.913165593
 10
240.3449309621
 20
53.7987079883
 10
241.3143361323
 20
54.5907138143
 10
242.2986846732
 20
55.2817209858
 10
243.2887022933
 20
55.865219002
 10
244.2750612888
 20
56.3357102874
 10
245.2484684261
 20
56.6887619881
 10
246.1997525014
 20
56.9210477372
 10
247.1199507484
 20
57.0303789952
 10
248.0003932844
 20
57.0157256697
 10
248.1262214985
 20
57.0030833615
  0
LINE
  5
2B3
330
1F
100
AcDbEntity
  8
0
  6
Continuous
 62
     7
370
    18
100
AcDbLine
 10
224.5193728663
 20
49.4165807886
 30
0.0
 11
224.8255369898
 21
49.0458455188
 31
0.0
  0
LINE
  5
2B4
330
1F
100
AcDbEntity
  8
0
  6
Continuous
 62
     7
370
    18
100
AcDbLine
 10
224.5193728663
 20
41.6524703972
 30
0.0
 11
224.8255369898
 21
42.3400041012
 31
0.0
  0
LINE
  5
2B5
330
1F
100
AcDbEntity
  8
0
  6
Continuous
 62
     7
370
    18
100
AcDbLine
 10
225.5614471436
 20
42.7648359902
 30
0.0
 11
224.8255443159
 21
42.3400083305
 31
0.0
  0
LINE
  5
2B6
330
1F
100
AcDbEntity
  8
0
  6
Continuous
 62
     7
370
    18
100
AcDbLine
 10
225.4948717684
 20
43.5080618833
 30
0.0
 11
224.1856007945
 21
42.7522358383
 31
0.0
  0
LINE
  5
2B7
330
1F
100
AcDbEntity
  8
0
  6
Continuous
 62
     7
370
    18
100
AcDbLine
 10
221.0085221517
 20
44.3266444934
 30
0.0
 11
220.7120346489
 21
43.8305828858
 31
0.0
  0
LINE
  5
2B8
330
1F
100
AcDbEntity
  8
0
  6
Continuous
 62
     7
370
    18
100
AcDbLine
 10
222.8403397802
 20
45.3841303011
 30
0.0
 11
221.0085824011
 21
44.3266792747
 31
0.0
  0
LINE
  5
2B9
330
1F
100
AcDbEntity
  8
0
  6
Continuous
 62
     7
370
    18
100
AcDbLine
 10
222.8403397802
 20
45.3841303011
 30
0.0
 11
222.9616497419
 21
45.3223794633
 31
0.0
  0
OLE2FRAME
  5
2BA
330
1F
100
AcDbEntity
  8
0
100
AcDbOle2Frame
 70
     2
  3
Paintbrush-Bild
 10
13.8511154363
 20
38.264191557
 30
0.0
 11
51.6290888628
 21
31.9806341108
 31
0.0
 71
     2
 72
     0
 73
     1
 90
    12928
310
80552BED0767C5B32B40DDAF6807D121434000000000000000006FFBDDFB85D0
310
4940DDAF6807D121434000000000000000006FFBDDFB85D04940416F4BD60AFB
310
3F4000000000000000002BED0767C5B32B40416F4BD60AFB3F40000000000000
310
0000000000000100000000010000010000000100000000000100000000320000
310
D0CF11E0A1B11AE1000000000000000000000000000000003E000300FEFF0900
310
0600000000000000000000000100000001000000000000000010000002000000
310
01000000FEFFFFFF0000000000000000FFFFFFFFFFFFFFFFFFFFFFFFFFFFFFFF
310
FFFFFFFFFFFFFFFFFFFFFFFFFFFFFFFFFFFFFFFFFFFFFFFFFFFFFFFFFFFFFFFF
310
FFFFFFFFFFFFFFFFFFFFFFFFFFFFFFFFFFFFFFFFFFFFFFFFFFFFFFFFFFFFFFFF
310
FFFFFFFFFFFFFFFFFFFFFFFFFFFFFFFFFFFFFFFFFFFFFFFFFFFFFFFFFFFFFFFF
310
FFFFFFFFFFFFFFFFFFFFFFFFFFFFFFFFFFFFFFFFFFFFFFFFFFFFFFFFFFFFFFFF
310
FFFFFFFFFFFFFFFFFFFFFFFFFFFFFFFFFFFFFFFFFFFFFFFFFFFFFFFFFFFFFFFF
310
FFFFFFFFFFFFFFFFFFFFFFFFFFFFFFFFFFFFFFFFFFFFFFFFFFFFFFFFFFFFFFFF
310
FFFFFFFFFFFFFFFFFFFFFFFFFFFFFFFFFFFFFFFFFFFFFFFFFFFFFFFFFFFFFFFF
310
FFFFFFFFFFFFFFFFFFFFFFFFFFFFFFFFFFFFFFFFFFFFFFFFFFFFFFFFFFFFFFFF
310
FFFFFFFFFFFFFFFFFFFFFFFFFFFFFFFFFFFFFFFFFFFFFFFFFFFFFFFFFFFFFFFF
310
FFFFFFFFFFFFFFFFFFFFFFFFFFFFFFFFFFFFFFFFFFFFFFFFFFFFFFFFFFFFFFFF
310
FFFFFFFFFFFFFFFFFFFFFFFFFFFFFFFFFFFFFFFFFFFFFFFFFFFFFFFFFFFFFFFF
310
FFFFFFFFFFFFFFFFFFFFFFFFFFFFFFFFFFFFFFFFFFFFFFFFFFFFFFFFFFFFFFFF
310
FFFFFFFFFFFFFFFFFFFFFFFFFFFFFFFFFFFFFFFFFFFFFFFFFFFFFFFFFFFFFFFF
310
FDFFFFFFFEFFFFFFFEFFFFFFFEFFFFFF05000000060000000700000008000000
310
090000000A0000000B0000000C0000000D0000000E0000000F00000010000000
310
11000000120000001300000014000000150000001600000017000000FEFFFFFF
310
FFFFFFFFFFFFFFFFFFFFFFFFFFFFFFFFFFFFFFFFFFFFFFFFFFFFFFFFFFFFFFFF
310
FFFFFFFFFFFFFFFFFFFFFFFFFFFFFFFFFFFFFFFFFFFFFFFFFFFFFFFFFFFFFFFF
310
FFFFFFFFFFFFFFFFFFFFFFFFFFFFFFFFFFFFFFFFFFFFFFFFFFFFFFFFFFFFFFFF
310
FFFFFFFFFFFFFFFFFFFFFFFFFFFFFFFFFFFFFFFFFFFFFFFFFFFFFFFFFFFFFFFF
310
FFFFFFFFFFFFFFFFFFFFFFFFFFFFFFFFFFFFFFFFFFFFFFFFFFFFFFFFFFFFFFFF
310
FFFFFFFFFFFFFFFFFFFFFFFFFFFFFFFFFFFFFFFFFFFFFFFFFFFFFFFFFFFFFFFF
310
FFFFFFFFFFFFFFFFFFFFFFFFFFFFFFFFFFFFFFFFFFFFFFFFFFFFFFFFFFFFFFFF
310
FFFFFFFFFFFFFFFFFFFFFFFFFFFFFFFFFFFFFFFFFFFFFFFFFFFFFFFFFFFFFFFF
310
FFFFFFFFFFFFFFFFFFFFFFFFFFFFFFFFFFFFFFFFFFFFFFFFFFFFFFFFFFFFFFFF
310
FFFFFFFFFFFFFFFFFFFFFFFFFFFFFFFFFFFFFFFFFFFFFFFFFFFFFFFFFFFFFFFF
310
FFFFFFFFFFFFFFFFFFFFFFFFFFFFFFFFFFFFFFFFFFFFFFFFFFFFFFFFFFFFFFFF
310
FFFFFFFFFFFFFFFFFFFFFFFFFFFFFFFFFFFFFFFFFFFFFFFFFFFFFFFFFFFFFFFF
310
FFFFFFFFFFFFFFFFFFFFFFFFFFFFFFFFFFFFFFFFFFFFFFFFFFFFFFFFFFFFFFFF
310
52006F006F007400200045006E00740072007900000000000000000000000000
310
0000000000000000000000000000000000000000000000000000000000000000
310
16000500FFFFFFFFFFFFFFFF020000000A00030000000000C000000000000046
310
00000000000000000000000050376DAE03A7D30103000000C000000000000000
310
01004F006C006500000000000000000000000000000000000000000000000000
310
0000000000000000000000000000000000000000000000000000000000000000
310
0A000200FFFFFFFFFFFFFFFFFFFFFFFF00000000000000000000000000000000
310
0000000000000000000000000000000000000000000000001400000000000000
310
010043006F006D0070004F0062006A0000000000000000000000000000000000
310
0000000000000000000000000000000000000000000000000000000000000000
310
120002010100000003000000FFFFFFFF00000000000000000000000000000000
310
0000000000000000000000000000000000000000010000004D00000000000000
310
01004F006C006500310030004E00610074006900760065000000000000000000
310
0000000000000000000000000000000000000000000000000000000000000000
310
1A000200FFFFFFFFFFFFFFFFFFFFFFFF00000000000000000000000000000000
310
0000000000000000000000000000000000000000040000002426000000000000
310
FEFFFFFF02000000FEFFFFFFFFFFFFFFFFFFFFFFFFFFFFFFFFFFFFFFFFFFFFFF
310
FFFFFFFFFFFFFFFFFFFFFFFFFFFFFFFFFFFFFFFFFFFFFFFFFFFFFFFFFFFFFFFF
310
FFFFFFFFFFFFFFFFFFFFFFFFFFFFFFFFFFFFFFFFFFFFFFFFFFFFFFFFFFFFFFFF
310
FFFFFFFFFFFFFFFFFFFFFFFFFFFFFFFFFFFFFFFFFFFFFFFFFFFFFFFFFFFFFFFF
310
FFFFFFFFFFFFFFFFFFFFFFFFFFFFFFFFFFFFFFFFFFFFFFFFFFFFFFFFFFFFFFFF
310
FFFFFFFFFFFFFFFFFFFFFFFFFFFFFFFFFFFFFFFFFFFFFFFFFFFFFFFFFFFFFFFF
310
FFFFFFFFFFFFFFFFFFFFFFFFFFFFFFFFFFFFFFFFFFFFFFFFFFFFFFFFFFFFFFFF
310
FFFFFFFFFFFFFFFFFFFFFFFFFFFFFFFFFFFFFFFFFFFFFFFFFFFFFFFFFFFFFFFF
310
FFFFFFFFFFFFFFFFFFFFFFFFFFFFFFFFFFFFFFFFFFFFFFFFFFFFFFFFFFFFFFFF
310
FFFFFFFFFFFFFFFFFFFFFFFFFFFFFFFFFFFFFFFFFFFFFFFFFFFFFFFFFFFFFFFF
310
FFFFFFFFFFFFFFFFFFFFFFFFFFFFFFFFFFFFFFFFFFFFFFFFFFFFFFFFFFFFFFFF
310
FFFFFFFFFFFFFFFFFFFFFFFFFFFFFFFFFFFFFFFFFFFFFFFFFFFFFFFFFFFFFFFF
310
FFFFFFFFFFFFFFFFFFFFFFFFFFFFFFFFFFFFFFFFFFFFFFFFFFFFFFFFFFFFFFFF
310
FFFFFFFFFFFFFFFFFFFFFFFFFFFFFFFFFFFFFFFFFFFFFFFFFFFFFFFFFFFFFFFF
310
FFFFFFFFFFFFFFFFFFFFFFFFFFFFFFFFFFFFFFFFFFFFFFFFFFFFFFFFFFFFFFFF
310
FFFFFFFFFFFFFFFFFFFFFFFFFFFFFFFFFFFFFFFFFFFFFFFFFFFFFFFFFFFFFFFF
310
0100000200000000000000000000000000000000000000000000000000000000
310
0000000000000000000000000000000000000000000000000000000000000000
310
0100FEFF030A0000FFFFFFFF0A00030000000000C00000000000004607000000
310
5042727573680007000000504272757368000700000050427275736800F439B2
310
7100000000000000000000000000000000000000000000000000000000000000
310
0000000000000000000000000000000000000000000000000000000000000000
310
0000000000000000000000000000000000000000000000000000000000000000
310
0000000000000000000000000000000000000000000000000000000000000000
310
0000000000000000000000000000000000000000000000000000000000000000
310
0000000000000000000000000000000000000000000000000000000000000000
310
0000000000000000000000000000000000000000000000000000000000000000
310
0000000000000000000000000000000000000000000000000000000000000000
310
0000000000000000000000000000000000000000000000000000000000000000
310
0000000000000000000000000000000000000000000000000000000000000000
310
0000000000000000000000000000000000000000000000000000000000000000
310
0000000000000000000000000000000000000000000000000000000000000000
310
20260000424D0E260000000000003E00000028000000B40200006E0000000100
310
01000000000000000000130B0000130B00000200000002000000000000FFFFFF
310
FFFFFFFFFFFFFFFFFFFFFFFFFFFFFFFFFFFFFFFFFFFFFFFFFFFFFFFFFFFFFFFF
310
FFFFFFFFFFFFFFFFFFFFFFFFFFFFFFFFFFFFFFFFFFFFFFFFFFFFFFFFFFFFFFFF
310
FFFFFFFFFFFFFFFFFFFFFFFFFFFFFFFFFFFFFFFFFFFFFFFFF000FFFFFFFFFFFF
310
FFFFFFFFFFFFFFFFFFFFFFFFFFFFFFFFFFFFFFFFFFFFFFFFFFFFFFFFFFFFFFFF
310
FFFFFFFFFFFFFFFFFFFFFFFFFFFFFFFFFFFFFFFFFFFFFFFFFFFFFFFFFFFFFFFF
310
FFFFFFFFFFFFFFFFFFFFFFFFFFFFFFFFF000FFFFFFFFFFFFFFFFFFFFFFFFFFFF
310
FFFFFFFFFFFFFFFFFFFFFFFFFFFFFFFFFFFFFFFFFFFFFFFFFFFFFFFFFFFFFFFF
310
FFFFFFFFFFFFFFFFFFFFFFFFFFFFFFFFFFFFFFFFFFFFFFFFFFFFFFFFFFFFFFFF
310
FFFFFFFFFFFFFFFFF000FFFFFFFFFFFFFFFFFFFFFFFFFFFFFFFFFFFFFFFFFFFF
310
FFFFFFFFFFFFFFFFFFFFFFFFFFFFFFFFFFFFFFFFFFFFFFFFFFFFFFFFFFFFFFFF
310
FFFFFFFFFFFFFFFFFFFFFFFFFFFFFFFFFFFFFFFFFFFFFFFFFFFFFFFFFFFFFFFF
310
F000FFFFFFFFFFFFFFFFFFFFFFFFFFFFFFFFFFFFFFFFFFFFFFFFFFFFFFFFFFFF
310
FFFFFFFFFFFFFFFFFFFFFFFFFFFFFFFFFFFFFFFFFFFFFFFFFFFFFFFFFFFFFFFF
310
FFFFFFFFFFFFFFFFFFFFFFFFFFFFFFFFFFFFFFFFFFFFFFFFF000FFFFFFFFFFFF
310
FFFFFFFFFFFFFFFFFFFFFFFFFFFFFFFFFFFFFFFFFFFFFFFFFFFFFFFFFFFFFFFF
310
FFFFFFFFFFFFFFFFFFFFFFFFFFFFFFFFFFFFFFFFFFFFFFFFFFFFFFFFFFFFFFFF
310
FFFFFFFFFFFFFFFFFFFFFFFFFFFFFFFFF000FFFFFFFFFFFFFFFFFFFFFFFFFFFF
310
FFFFFFFFFFFFFFFFFFFFFFFFFFFFFFFFFFFFFFFFFFFFFFFFFFFFFFFFFFFFFFFF
310
FFFFFFFFFFFFFFFFFFFFFFFFFFFFFFFFFFFFFFFFFFFFFFFFFFFFFFFFFFFFFFFF
310
FFFFFFFFFFFFFFFFF000FFFFFFFFFFFFFFFFFFFFFFFFFFFFFFFFFFFFFFFFFFFF
310
FFFFFFFFFFFFFFFFFFFFFFFFFFFFFFFFFFFFFFFFFFFFFFFFFFFFFFFFFFFFFFFF
310
FFFFFFFFFFFFFFFFFFFFFFFFFFFFFFFFFFFFFFFFFFFFFFFFFFFFFFFFFFFFFFFF
310
F000FFFFFFFFFFFFFFFFFFFFFFFFFFFFFFFFFFFFFFFFFFFFFFFFFFFFFFFFFFFF
310
FFFFFFFFFFFFFFFFFFFFFFFFFFFFFFFFFFFFFFFFFFFFFFFFFFFFFFFFFFFFFFFF
310
FFFFFFFFFFFFFFFFFFFFFFFFFFFFFFFFFFFFFFFFFFFFFFFFF000FFFFFFFFFFFF
310
FFFFFFFFFFFFFFFFFFFFFFFFFFFFFFFFFFFFFFFFFFFFFFFFFFFFFFFFFFFFFFFF
310
FFFFFFFFFFFFFFFFFFFFFFFFFFFFFFFFFFFFFFFFFFFFFFFFFFFFFFFFFFFFFFFF
310
FFFFFFFFFFFFFFFFFFFFFFFFFFFFFFFFF000FFFFFFFFFFFFFFFFFFFFFFFFFFFF
310
FFFFFFFFFFFFFFFFFFFFFFFFFFFFFFFFFFFFFFFFFFFFFFFFFFFFFFFFFFFFFFFF
310
FFFFFFFFFFFFFFFFFFFFFFFFFFFFFFFFFFFFFFFFFFFFFFFFFFFFFFFFFFFFFFFF
310
FFFFFFFFFFFFFFFFF000FFFFFFFFFFFFFFFFFFFFFFFFFFFFFFFFFFFFFFFFFFFF
310
FFFFFFFFFFFFFFFFFFFFFFFFFFFFFFFFFFFFFFFFFFFFFFFFFFFFFFFFFFFFFFFF
310
FFFFFFFFFFFFFFFFFFFFFFFFFFFFFFFFFFFFFFFFFFFFFFFFFFFFFFFFFFFFFFFF
310
F000FFFFFFFFFFFFFFFFFFFFFFFFFFFFFFFFFFFFFFFFFFFFFFFFFFFFFFFFFFFF
310
FFFFFFFFFFFFFFFFFFFFFFFFFFFFFFFFFFFFFFFFFFFFFFFFFFFFFFFFFFFFFFFF
310
FFFFFFFFFFFFFFFFFFFFFFFFFFFFFFFFFFFFFFFFFFFFFFFFF000FFFFFFFFFFFF
310
FFFFFFFFFFFFFFFFFFFFFFFFFFFFFFFFFFFFFFFFFFFFFFFFFFFFFFFFFFFFFFFF
310
FFFFFFFFFFFFFFFFFFFFFFFFFFFFFFFFFFFFFFFFFFFFFFFFFFFFFFFFFFFFFFFF
310
FFFFFFFFFFFFFFFFFFFFFFFFFFFFFFFFF000FFFFFFFFFFFFFFFFFFFFFFFFFFFF
310
FFFFFFFFFFFFFFFFFFFFFFFFFFFFFFFFFFFFFFFFFFFFFFFFFFFFFFFFFFFFFFFF
310
FFFFFFFFFFFFFFFFFFFFFFFFFFFFFFFFFFFFFFFFFFFFFFFFFFFFFFFFFFFFFFFF
310
FFFFFFFFFFFFFFFFF000FFFFFFFFFFFFFFFFFFFFFFFFFFFFFFFFFFFFFFFFFFFF
310
FFFFFFFFFFFFFFFFFFFFFFFFFFFFFFFFFFFFFFFFFFFFFFFFFFFFFFFFFFFFFFFF
310
FFFFFFFFFFFFFFFFFFFFFFFFFFFFFFFFFFFFFFFFFFFFFFFFFFFFFFFFFFFFFFFF
310
F000FFFFFFFFFFFFFFFFFFFFFFFFFFFFFFFFFFFFFFFFFFFFFFFFFFFFFFFFFFFF
310
FFFFFFFFFFFFFFFFFFFFFFFFFFFFFFFFFFFFFFFFFFFFFFFFFFFFFFFFFFFFFFFF
310
FFFFFFFFFFFFFFFFFFFFFFFFFFFFFFFFFFFFFFFFFFFFFFFFF000FFFFFFFFFFFF
310
FFFFFFFFFFFFFFFFFFFFFFFFFFFFFFFFFFFFFFFFFFFFFFFFFFFFFFFFFFFFFFFF
310
FFFFFFFFFFFFFFFFFFFFFFFFFFFFFFFFFFFFFFFFFFFFFFFFFFFFFFFFFFFFFFFF
310
FFFFFFFFFFFFFFFFFFFFFFFFFFFFFFFFF000FFFFFFFFFFFFFFFFFFFFFFFFFFFF
310
FFFFFFFFFFFFFFFFFFFFFFFFFFFFFFFFFFFFFFFFFFFFFFFFFFFFFFFFFFFFFFFF
310
FFFFFFFFFFFFFFFFFFFFFFFFFFFFFFFFFFFFFFFFFFFFFFFFFFFFFFFFFFFFFFFF
310
FFFFFFFFFFFFFFFFF000FFFFF80003FFFFFFFFFFFFFFFFFFFFFFFFFFFFFFFFFF
310
FFFFF00007FFFFFFFFFF00007FFFFFF800000000000000007FFFFFFFFFFFFFFF
310
FFFFFFFC001FFFFFFFFFFFFFFC001FFFFFFFFFFFFFFFFFFFFFFFFFFE0007FFFF
310
F000FFFF8000007FFFFFFFF8000FFFFFC0007FFFFF80007FFFFF0000007FFFFF
310
FFF8000007FFFFF800000000000000007FFFFFF0001FFFFFFFFFFFC00001FFFF
310
FFFFFFFFC00001FFFFFFFF000000000003FFFFE000007FFFF000FFFE0000000F
310
FFFFFFF0000FFFFF80007FFFFF80007FFFFC0000001FFFFFFFC0000001FFFFF8
310
00000000000000007FFFFFF0001FFFFFFFFFFE0000003FFFFFFFFFFE0000003F
310
FFFFFF000000000003FFFF0000000FFFF000FFF800000003FFFFFFF00007FFFF
310
80007FFFFF80007FFFF000000007FFFFFF000000003FFFF80000000000000000
310
7FFFFFF0001FFFFFFFFFF80000000FFFFFFFFFF80000000FFFFFFF0000000000
310
03FFFC00000003FFF000FFE000000000FFFFFFF00007FFFF80003FFFFF80007F
310
FFC000000001FFFFFC000000001FFFF800000000000000007FFFFFF0001FFFFF
310
FFFFE000000003FFFFFFFFE000000003FFFFFF000000000003FFF000000000FF
310
F000FF80000000007FFFFFF00007FFFF80003FFFFF80007FFF8000000000FFFF
310
F80000000007FFF800000000000000007FFFFFF0001FFFFFFFFFC000000001FF
310
FFFFFFC000000001FFFFFF000000000003FFC0000000007FF000FF0000000000
310
3FFFFFE00007FFFF00003FFFFF80007FFE00000000003FFFF00000000003FFF8
310
00000000000000007FFFFFF0001FFFFFFFFF8000000000FFFFFFFF8000000000
310
FFFFFF000000000003FF80000000003FF000FE00000000001FFFFFE00003FFFF
310
00003FFFFF80007FFC00000000001FFFE00000000001FFF8000001FFFE000000
310
7FFFFFF0001FFFFFFFFE00000000003FFFFFFE00000000003FFFFF0000000000
310
03FF00000000001FF000FC00000000000FFFFFE00003FFFF00001FFFFF80007F
310
F800000000001FFFC00000000000FFF8000001FFFE0000007FFFFFF0001FFFFF
310
FFFC00000000001FFFFFFC00000000001FFFFF000000000003FE00000000000F
310
F000F8000000000007FFFFE00003FFFF00001FFFFF80007FF800000000000FFF
310
800000000000FFF8000001FFFE0000007FFFFFF0001FFFFFFFF800000000000F
310
FFFFF800000000000FFFFF000000000003FC000000000007F000F80000000000
310
03FFFFC00003FFFE00001FFFFF80007FF0000000000007FF0000000000007FF8
310
000001FFFE0000007FFFFFF0001FFFFFFFF0000000000007FFFFF00000000000
310
07FFFF000000000003F8000000000003F000F0000000000003FFFFC00001FFFE
310
00001FFFFF80007FE0000000000007FE0000000000003FF8000001FFFE000000
310
7FFFFFF0001FFFFFFFF0000000000007FFFFF0000000000007FFFF0000000000
310
03F800001F800003F000E00001FFF00001FFFFC00001FFFE00000FFFFF80007F
310
E00001FFE00003FE00001FFF00003FF8000001FFFE0000007FFFFFF0001FFFFF
310
FFE000003E000003FFFFE000003E000003FFFF000000000003F00001FFF80001
310
F000E00007FFFC0001FFFFC00001FFFE00000FFFFF80007FC0000FFFFC0003FC
310
0000FFFFC0001FF8000001FFFE0000007FFFFFF0001FFFFFFFC00003FFE00001
310
FFFFC00003FFE00001FFFF0001FFFFFFFFF00007FFFE0001F000E0000FFFFF00
310
00FFFF800001FFFC00000FFFFF80007FC0001FFFFE0001FC0001FFFFE0001FF8
310
000001FFFE0000007FFFFFF0001FFFFFFF80000FFFF80000FFFF80000FFFF800
310
00FFFF0003FFFFFFFFE0000FFFFF8000F000C0003FFFFF8000FFFF800000FFFC
310
000007FFFF80007F80003FFFFF0001FC0003FFFFF0001FF8000001FFFE000000
310
7FFFFFF0001FFFFFFF80003FFFFE0000FFFF80003FFFFE0000FFFF0003FFFFFF
310
FFE0003FFFFF8000F000C0003FFFFF8000FFFF800000FFFC000007FFFF80007F
310
80007FFFFF8001F80007FFFFF8000FF8000001FFFE0000007FFFFFF0001FFFFF
310
FF00007FFFFF00007FFF00007FFFFF00007FFF0003FFFFFFFFE0003FFFFFC000
310
F000C0007FFFFFC000FFFF000000FFFC000007FFFF80007F8000FFFFFF8000F8
310
000FFFFFF8000FF8000001FFFE0000007FFFFFF0001FFFFFFF0000FFFFFF8000
310
7FFF0000FFFFFF80007FFF0003FFFFFFFFC0007FFFFFC00070008000FFFFFFC0
310
00FFFF000000FFF8000007FFFF80007F8000FFFFFF8000F8000FFFFFF8000FF8
310
000001FFFE0000007FFFFFF0001FFFFFFE0001FFFFFFC0003FFE0001FFFFFFC0
310
003FFF0003FFFFFFFFC0007FFFFFE00070008000FFFFFFC0007FFF0000007FF8
310
000003FFFF80007F0001FFFFFF8000F8000FFFFFF8000FF8000001FFFE000000
310
7FFFFFF0001FFFFFFE0001FFFFFFC0003FFE0001FFFFFFC0003FFF0003FFFFFF
310
FFC000FFFFFFE00070008000FFFFFFC0007FFF0000007FF8000003FFFF80007F
310
0001FFFFFF8000F8001FFFFFF8000FF8000001FFFE0000007FFFFFF0001FFFFF
310
FE0003FFFFFFE0003FFE0003FFFFFFE0003FFF0003FFFFFFFFC000FFFFFFE000
310
70008000FFFFFFC0007FFE0000007FF8000003FFFF80007F0001FFFFFF8000F0
310
001FFFFFF8000FF8000001FFFE0000007FFFFFF0001FFFFFFC0003FFFFFFE000
310
1FFC0003FFFFFFE0001FFF0003FFFFFFFFC000FFFFFFC00070008000FFFFFF80
310
007FFE0000007FF0000003FFFF80007F0001FFFFFF0000F0001FFFFFF8000FF8
310
000001FFFE0000007FFFFFF0001FFFFFFC0007FFFFFFF0001FFC0007FFFFFFF0
310
001FFF0003FFFFFFFFC000FFFFFFC00070008001FFFFFF0000FFFE0000003FF0
310
000001FFFF80007F0001FFFFFF0000F8001FFFFFF0000FF8000001FFFE000000
310
7FFFFFF0001FFFFFFC0007FFFFFFF0001FFC0007FFFFFFF0001FFF0003FFFFFF
310
FFC001FFFFFF80007000FFFFFFFFFE0000FFFE0008003FF0008001FFFF80007F
310
FFFFFFFFFC0000FFFFFFFFFFE0000FF8000001FFFE0000007FFFFFF0001FFFFF
310
F8000FFFFFFFF8000FF8000FFFFFFFF8000FFF0003FFFFFFFFFFFFFFFFFF0000
310
7000FFFFFFFFFC0000FFFC0008003FF0008001FFFF80007FFFFFFFFFF80001FF
310
FFFFFFFF80000FF8000001FFFE0000007FFFFFF0001FFFFFF8000FFFFFFFF800
310
0FF8000FFFFFFFF8000FFF0003FFFFFFFFFFFFFFFFFE0000F000FFFFFFFFE000
310
00FFFC000C003FE000C001FFFF80007FFFFFFFFFC00001FFFFFFFFFE00001FF8
310
000001FFFE0000007FFFFFF0001FFFFFF8000FFFFFFFF8000FF8000FFFFFFFF8
310
000FFF0003FFFFFFFFFFFFFFFFF00000F000FFFFFFFE000001FFFC000C001FE0
310
00C000FFFF80007FFFFFFFFE000001FFFFFFFFE000001FF80FFFFFFFFFFFFFC0
310
7FFFFFF0001FFFFFF8000FFFFFFFF8000FF8000FFFFFFFF8000FFF0003FFFFFF
310
FFFFFFFFFF800000F000FFFFFFC0000001FFFC001C001FE001C000FFFF80007F
310
FFFFFF80000003FFFFFFF80000001FF80FFFFFFFFFFFFFC07FFFFFF0001FFFFF
310
F8001FFFFFFFFC000FF8001FFFFFFFFC000FFF0003FFFFFFFFFFFFFFF0000001
310
F000FFFFF800000001FFF8001C001FE001C000FFFF80007FFFFFF800000003FF
310
FFFF800000003FF80FFFFFFFFFFFFFC07FFFFFF0001FFFFFF8001FFFFFFFFC00
310
0FF8001FFFFFFFFC000FFF0003FFFFFFFFFFFFFE00000001F000FFFFC0000000
310
03FFF8001E001FC001E000FFFF80007FFFFF8000000007FFFFFC000000003FF8
310
0FFFFFFFFFFFFFC07FFFFFF0001FFFFFF8001FFFFFFFFC000FF8001FFFFFFFFC
310
000FFF0003FFFFFFFFFFFFE000000003F000FFFE0000000007FFF8001E000FC0
310
01E0007FFF80007FFFFE0000000007FFFFE0000000007FF80FFFFFFFFFFFFFC0
310
7FFFFFF0001FFFFFF0001FFFFFFFFC0007F0001FFFFFFFFC0007FF0003FFFFFF
310
FFFFFF0000000003F000FFF80000000007FFF8001E000FC003E0007FFF80007F
310
FFF0000000000FFFFF8000000000FFF80FFFFFFFFFFFFFC07FFFFFF0001FFFFF
310
F0001FFFFFFFFC0007F0001FFFFFFFFC0007FF0003FFFFFFFFFFFC0000000007
310
F000FFE0000000000FFFF0003E000FC003E0007FFF80007FFFC0000000001FFF
310
FE0000000001FFF80FFFFFFFFFFFFFC07FFFFFF0001FFFFFF0001FFFFFFFFC00
310
07F0001FFFFFFFFC0007FF0003FFFFFFFFFFF0000000000FF000FFC000000000
310
1FFFF0003F000F8003F0003FFF80007FFF80000000003FFFF80000000003FFF8
310
0FFFFFFFFFFFFFC07FFFFFF0001FFFFFF0001FFFFFFFFC0007F0001FFFFFFFFC
310
0007FF0003FFFFFFFFFFE0000000001FF000FF00000000007FFFF0003F000780
310
03F0003FFF80007FFF00000000007FFFF00000000007FFF80FFFFFFFFFFFFFC0
310
7FFFFFF0001FFFFFF0001FFFFFFFFC0007F0001FFFFFFFFC0007FF0003FFFFFF
310
FFFF80000000007FF000FE0000000000FFFFE0003F00078007F0003FFF80007F
310
FE0000000001FFFFE0000000001FFFF80FFFFFFFFFFFFFC07FFFFFF0001FFFFF
310
F0001FFFFFFFFC0007F0001FFFFFFFFC0007FF0003FFFFFFFFFF0000000000FF
310
F000FC0000000003FFFFE0007F00078007F0003FFF80007FFC0000000007FFFF
310
C0000000007FFFF80FFFFFFFFFFFFFC07FFFFFF0001FFFFFF8001FFFFFFFFC00
310
0FF8001FFFFFFFFC000FFF0003FFFFFFFFFE0000000003FFF000FC000000000F
310
FFFFE0007F80070007F8001FFF80007FF8000000001FFFFF8000000001FFFFF8
310
0FFFFFFFFFFFFFC07FFFFFF0001FFFFFF8001FFFFFFFFC000FF8001FFFFFFFFC
310
000FFF0003FFFFFFFFFC000000000FFFF000F8000000007FFFFFE0007F800700
310
07F8001FFF80007FF000000000FFFFFF800000000FFFFFF80FFFFFFFFFFFFFC0
310
7FFFFFF0001FFFFFF8000FFFFFFFF8000FF8000FFFFFFFF8000FFF0003FFFFFF
310
FFFC000000007FFFF000F800000007FFFFFFC0007F8003000FF8001FFF80007F
310
F000000007FFFFFF000000007FFFFFF80FFFFFFFFFFFFFC07FFFFFF0001FFFFF
310
F8000FFFFFFFF8000FF8000FFFFFFFF8000FFF0003FFFFFFFFF80000000FFFFF
310
F000F0000000FFFFFFFFC000FF8003000FF8001FFF80007FE0000000FFFFFFFF
310
0000000FFFFFFFF8000001FFFE0000007FFFFFF0001FFFFFF8000FFFFFFFF800
310
0FF8000FFFFFFFF8000FFF0003FFFFFFFFF8000000FFFFFFF000F000000FFFFF
310
FFFFC000FFC002000FF8000FFF80007FE000001FFFFFFFFE000001FFFFFFFFF8
310
000001FFFE0000007FFFFFF0001FFFFFF8000FFFFFFFF8000FF8000FFFFFFFF8
310
000FFF0003FFFFFFFFF000001FFFFFFFF000E00000FFFFFFFFFFC000FFC00200
310
0FFC000FFF80007FE00001FFFFFFFFFE00001FFFFFFFFFF8000001FFFE000000
310
7FFFFFF0001FFFFFFC000FFFFFFFF8001FFC000FFFFFFFF8001FFF0003FFFFFF
310
FFF00001FFFFFFFFF000E00007FFFFFFFFFF8000FFC000001FFC000FFF80007F
310
C0000FFFFFFFFFFE0000FFFFFFFFFFF8000001FFFE0000007FFFFFF0001FFFFF
310
FC0007FFFFFFF0001FFC0007FFFFFFF0001FFF0003FFFFFFFFF00007FFFFFFFF
310
F000E0001FFFFFFFFFFF8000FFC000001FFC000FFF80007FC0003FFFFFFFFFFE
310
0001FFFFFFFFFFF8000001FFFE0000007FFFFFF0001FFFFFFC0007FFFFFFF000
310
1FFC0007FFFFFFF0001FFF0003FFFFFFFFF0001FFFFFFFFFF000E0003FFFFF00
310
03FF8001FFE000001FFC0007FF80007FC0007FFFFF0007FC0003FFFFF0003FF8
310
000001FFFE0000007FFFFFF0001FFFFFFC0003FFFFFFE0001FFC0003FFFFFFE0
310
001FFF0003FFFFFFFFF0003FFFFFFFFFF000E0003FFFFF0001FF8001FFE00000
310
1FFE0007FF80007FC0007FFFFE0003FC0007FFFFE0003FF8000001FFFE000000
310
7FFFFFF0001FFFFFFE0003FFFFFFE0003FFE0003FFFFFFE0003FFF0003FFFFFF
310
FFF0003FFFFF8001F000E0003FFFFF0001FF0001FFE000001FFE0007FF80007F
310
C0007FFFFE0003FC0007FFFFE0003FF8000001FFFE0000007FFFFFF0001FFFFF
310
FE0001FFFFFFC0003FFE0001FFFFFFC0003FFF0003FFFFFFFFF0003FFFFF0001
310
F000E0003FFFFF0003FF0001FFE000003FFE0007FF80007FC0007FFFFE0003FC
310
0007FFFFE0003FF8000001FFFE0000007FFFFFF0001FFFFFFF0001FFFFFFC000
310
7FFF0001FFFFFFC0007FFF0003FFFFFFFFF0003FFFFF0001F000E0003FFFFE00
310
03FF0003FFF000003FFE0003FF80007FC0007FFFFC0003FE0007FFFFE0003FF8
310
000001FFFE0000007FFFFFF0001FFFFFFF0000FFFFFF80007FFF0000FFFFFF80
310
007FFF0003FFFFFFFFF0003FFFFF0001F000E0003FFFFE0003FF0003FFF00000
310
3FFF0003FF80007FC0007FFFFC0007FE0007FFFFC0003FF8000001FFFE000000
310
7FFFFFF0001FFFFFFF80007FFFFF0000FFFF80007FFFFF0000FFFF0003FFFFFF
310
FFF0003FFFFF0003F000E0003FFFFC0003FE0003FFF000003FFF0003FF80007F
310
E0003FFFF80007FE0003FFFFC0007FF8000001FFFE0000007FFFFFF0001FFFFF
310
FF80003FFFFE0000FFFF80003FFFFE0000FFFF0003FFFFFFFFF0001FFFFE0003
310
F000F0001FFFF80003FE0003FFF000007FFF0001FF80007FE0003FFFF00007FE
310
0001FFFF80007FF8000001FFFE0000007FFFFFF0001FFFFFFFC0000FFFF80001
310
FFFFC0000FFFF80001FFFF0003FFFFFFFFF0001FFFFC0003F000F0000FFFF000
310
07FE0007FFF800007FFF0001FF80007FE0001FFFE00007FF0000FFFE00007FF8
310
000001FFFE0000007FFFFFF0001FFFFFFFC00003FFE00001FFFFC00003FFE000
310
01FFFF0003FFFFFFFFF8000FFFF80003F000F00003FFC00007FC0007FFF80000
310
7FFF8001FF80007FF00007FF80000FFF00007FF80000FFF8000001FFFE000000
310
7F80000000000001FFE000003E000003FFFFE000003E000003FFFF0003FFFFFF
310
FFF80003FFE00007F000F800000000000FFC0007FFF800007FFF8001FF80007F
310
F000000000000FFF000000000000FFF8000001FFFE0000007F80000000000001
310
FFF0000000000007FFFFF0000000000007FFFF0003FFFFFFFFFC00007E000007
310
F000F800000000000FFC0007FFF80000FFFF8000FF80007FF800000000001FFF
310
800000000001FFF8000001FFFE0000007F80000000000001FFF800000000000F
310
FFFFF800000000000FFFFF0003FFFFFFFFFC00000000000FF000FC0000000000
310
1FFC0007FFFC0000FFFF8000FF80007FF800000000003FFFC00000000001FFF8
310
000001FFFE0000007F80000000000001FFF800000000000FFFFFF80000000000
310
0FFFFF0003FFFFFFFFFE00000000001FF000FE00000000003FF8000FFFFC0000
310
FFFF8000FF80007FFC00000000003FFFC00000000003FFF8000001FFFE000000
310
7F80000000000001FFFC00000000001FFFFFFC00000000001FFFFF0003FFFFFF
310
FFFF00000000001FF000FF00000000003FF8000FFFFC0000FFFFC000FF80007F
310
FE00000000007FFFE00000000007FFF8000001FFFE0000007F80000000000001
310
FFFE00000000003FFFFFFE00000000003FFFFF0003FFFFFFFFFF80000000003F
310
F000FF80000000007FF8000FFFFC0001FFFFC0007F80007FFF0000000000FFFF
310
F0000000000FFFF800000000000000007F80000000000001FFFF8000000000FF
310
FFFFFF8000000000FFFFFF0003FFFFFFFFFFC0000000007FF000FFC000000000
310
FFF8000FFFFE0001FFFFC0007F80007FFF8000000001FFFFF8000000001FFFF8
310
00000000000000007F80000000000001FFFFC000000001FFFFFFFFC000000001
310
FFFFFF0003FFFFFFFFFFE000000000FFF000FFE000000003FFF0001FFFFE0001
310
FFFFC0007F80007FFFC000000007FFFFFE000000003FFFF80000000000000000
310
7F80000000000001FFFFE000000003FFFFFFFFE000000003FFFFFF0003FFFFFF
310
FFFFF000000003FFF000FFF80000000FFFF0001FFFFE0001FFFFE0007F80007F
310
FFF00000000FFFFFFF00000000FFFFF800000000000000007F80000000000001
310
FFFFF80000000FFFFFFFFFF80000000FFFFFFF0003FFFFFFFFFFFC0000000FFF
310
F000FFFE0000003FFFF0001FFFFE0003FFFFE0003F80007FFFFC0000003FFFFF
310
FFC0000003FFFFF800000000000000007F80000000000001FFFFFE0000003FFF
310
FFFFFFFE0000003FFFFFFF0003FFFFFFFFFFFF0000003FFFF000FFFF800000FF
310
FFF0001FFFFF0003FFFFE0003F80007FFFFF000001FFFFFFFFF800001FFFFFF8
310
00000000000000007F80000000000001FFFFFFC00001FFFFFFFFFFFFC00001FF
310
FFFFFF0003FFFFFFFFFFFFC00000FFFFF000FFFFF8000FFFFFFFFFFFFFFFFFFF
310
FFFFFFFFFFFFFFFFFFFFF0001FFFFFFFFFFF0000FFFFFFF80000000000000000
310
7FFFFFFFFFFFFFFFFFFFFFFC001FFFFFFFFFFFFFFC001FFFFFFFFFFFFFFFFFFF
310
FFFFFFFC001FFFFFF000FFFFFFFFFFFFFFFFFFFFFFFFFFFFFFFFFFFFFFFFFFFF
310
FFFFFFFFFFFFFFFFFFFFFFFFFFFFFFFFFFFFFFFFFFFFFFFFFFFFFFFFFFFFFFFF
310
FFFFFFFFFFFFFFFFFFFFFFFFFFFFFFFFFFFFFFFFFFFFFFFFFFFFFFFFFFFFFFFF
310
F000FFFFFFFFFFFFFFFFFFFFFFFFFFFFFFFFFFFFFFFFFFFFFFFFFFFFFFFFFFFF
310
FFFFFFFFFFFFFFFFFFFFFFFFFFFFFFFFFFFFFFFFFFFFFFFFFFFFFFFFFFFFFFFF
310
FFFFFFFFFFFFFFFFFFFFFFFFFFFFFFFFFFFFFFFFFFFFFFFFF000FFFFFFFFFFFF
310
FFFFFFFFFFFFFFFFFFFFFFFFFFFFFFFFFFFFFFFFFFFFFFFFFFFFFFFFFFFFFFFF
310
FFFFFFFFFFFFFFFFFFFFFFFFFFFFFFFFFFFFFFFFFFFFFFFFFFFFFFFFFFFFFFFF
310
FFFFFFFFFFFFFFFFFFFFFFFFFFFFFFFFF000FFFFFFFFFFFFFFFFFFFFFFFFFFFF
310
FFFFFFFFFFFFFFFFFFFFFFFFFFFFFFFFFFFFFFFFFFFFFFFFFFFFFFFFFFFFFFFF
310
FFFFFFFFFFFFFFFFFFFFFFFFFFFFFFFFFFFFFFFFFFFFFFFFFFFFFFFFFFFFFFFF
310
FFFFFFFFFFFFFFFFF000FFFFFFFFFFFFFFFFFFFFFFFFFFFFFFFFFFFFFFFFFFFF
310
FFFFFFFFFFFFFFFFFFFFFFFFFFFFFFFFFFFFFFFFFFFFFFFFFFFFFFFFFFFFFFFF
310
FFFFFFFFFFFFFFFFFFFFFFFFFFFFFFFFFFFFFFFFFFFFFFFFFFFFFFFFFFFFFFFF
310
F000FFFFFFFFFFFFFFFFFFFFFFFFFFFFFFFFFFFFFFFFFFFFFFFFFFFFFFFFFFFF
310
FFFFFFFFFFFFFFFFFFFFFFFFFFFFFFFFFFFFFFFFFFFFFFFFFFFFFFFFFFFFFFFF
310
FFFFFFFFFFFFFFFFFFFFFFFFFFFFFFFFFFFFFFFFFFFFFFFFF000FFFFFFFFFFFF
310
FFFFFFFFFFFFFFFFFFFFFFFFFFFFFFFFFFFFFFFFFFFFFFFFFFFFFFFFFFFFFFFF
310
FFFFFFFFFFFFFFFFFFFFFFFFFFFFFFFFFFFFFFFFFFFFFFFFFFFFFFFFFFFFFFFF
310
FFFFFFFFFFFFFFFFFFFFFFFFFFFFFFFFF000FFFFFFFFFFFFFFFFFFFFFFFFFFFF
310
FFFFFFFFFFFFFFFFFFFFFFFFFFFFFFFFFFFFFFFFFFFFFFFFFFFFFFFFFFFFFFFF
310
FFFFFFFFFFFFFFFFFFFFFFFFFFFFFFFFFFFFFFFFFFFFFFFFFFFFFFFFFFFFFFFF
310
FFFFFFFFFFFFFFFFF000FFFFFFFFFFFFFFFFFFFFFFFFFFFFFFFFFFFFFFFFFFFF
310
FFFFFFFFFFFFFFFFFFFFFFFFFFFFFFFFFFFFFFFFFFFFFFFFFFFFFFFFFFFFFFFF
310
FFFFFFFFFFFFFFFFFFFFFFFFFFFFFFFFFFFFFFFFFFFFFFFFFFFFFFFFFFFFFFFF
310
F000FFFFFFFFFFFFFFFFFFFFFFFFFFFFFFFFFFFFFFFFFFFFFFFFFFFFFFFFFFFF
310
FFFFFFFFFFFFFFFFFFFFFFFFFFFFFFFFFFFFFFFFFFFFFFFFFFFFFFFFFFFFFFFF
310
FFFFFFFFFFFFFFFFFFFFFFFFFFFFFFFFFFFFFFFFFFFFFFFFF000FFFFFFFFFFFF
310
FFFFFFFFFFFFFFFFFFFFFFFFFFFFFFFFFFFFFFFFFFFFFFFFFFFFFFFFFFFFFFFF
310
FFFFFFFFFFFFFFFFFFFFFFFFFFFFFFFFFFFFFFFFFFFFFFFFFFFFFFFFFFFFFFFF
310
FFFFFFFFFFFFFFFFFFFFFFFFFFFFFFFFF000FFFFFFFFFFFFFFFFFFFFFFFFFFFF
310
FFFFFFFFFFFFFFFFFFFFFFFFFFFFFFFFFFFFFFFFFFFFFFFFFFFFFFFFFFFFFFFF
310
FFFFFFFFFFFFFFFFFFFFFFFFFFFFFFFFFFFFFFFFFFFFFFFFFFFFFFFFFFFFFFFF
310
FFFFFFFFFFFFFFFFF000FFFFFFFFFFFFFFFFFFFFFFFFFFFFFFFFFFFFFFFFFFFF
310
FFFFFFFFFFFFFFFFFFFFFFFFFFFFFFFFFFFFFFFFFFFFFFFFFFFFFFFFFFFFFFFF
310
FFFFFFFFFFFFFFFFFFFFFFFFFFFFFFFFFFFFFFFFFFFFFFFFFFFFFFFFFFFFFFFF
310
F000FFFFFFFFFFFFFFFFFFFFFFFFFFFFFFFFFFFFFFFFFFFFFFFFFFFFFFFFFFFF
310
FFFFFFFFFFFFFFFFFFFFFFFFFFFFFFFFFFFFFFFFFFFFFFFFFFFFFFFFFFFFFFFF
310
FFFFFFFFFFFFFFFFFFFFFFFFFFFFFFFFFFFFFFFFFFFFFFFFF000FFFFFFFFFFFF
310
FFFFFFFFFFFFFFFFFFFFFFFFFFFFFFFFFFFFFFFFFFFFFFFFFFFFFFFFFFFFFFFF
310
FFFFFFFFFFFFFFFFFFFFFFFFFFFFFFFFFFFFFFFFFFFFFFFFFFFFFFFFFFFFFFFF
310
FFFFFFFFFFFFFFFFFFFFFFFFFFFFFFFFF000FFFFFFFFFFFFFFFFFFFFFFFFFFFF
310
FFFFFFFFFFFFFFFFFFFFFFFFFFFFFFFFFFFFFFFFFFFFFFFFFFFFFFFFFFFFFFFF
310
FFFFFFFFFFFFFFFFFFFFFFFFFFFFFFFFFFFFFFFFFFFFFFFFFFFFFFFFFFFFFFFF
310
FFFFFFFFFFFFFFFFF000FFFFFFFFFFFFFFFFFFFFFFFFFFFFFFFFFFFFFFFFFFFF
310
FFFFFFFFFFFFFFFFFFFFFFFFFFFFFFFFFFFFFFFFFFFFFFFFFFFFFFFFFFFFFFFF
310
FFFFFFFFFFFFFFFFFFFFFFFFFFFFFFFFFFFFFFFFFFFFFFFFFFFFFFFFFFFFFFFF
310
F000FFFFFFFFFFFFFFFFFFFFFFFFFFFFFFFFFFFFFFFFFFFFFFFFFFFFFFFFFFFF
310
FFFFFFFFFFFFFFFFFFFFFFFFFFFFFFFFFFFFFFFFFFFFFFFFFFFFFFFFFFFFFFFF
310
FFFFFFFFFFFFFFFFFFFFFFFFFFFFFFFFFFFFFFFFFFFFFFFFF000FFFFFFFFFFFF
310
FFFFFFFFFFFFFFFFFFFFFFFFFFFFFFFFFFFFFFFFFFFFFFFFFFFFFFFFFFFFFFFF
310
FFFFFFFFFFFFFFFFFFFFFFFFFFFFFFFFFFFFFFFFFFFFFFFFFFFFFFFFFFFFFFFF
310
FFFFFFFFFFFFFFFFFFFFFFFFFFFFFFFFF000FFFFFFFFFFFFFFFFFFFFFFFFFFFF
310
FFFFFFFFFFFFFFFFFFFFFFFFFFFFFFFFFFFFFFFFFFFFFFFFFFFFFFFFFFFFFFFF
310
FFFFFFFFFFFFFFFFFFFFFFFFFFFFFFFFFFFFFFFFFFFFFFFFFFFFFFFFFFFFFFFF
310
FFFFFFFFFFFFFFFFF000FFFFFFFFFFFFFFFFFFFFFFFFFFFFFFFFFFFFFFFFFFFF
310
FFFFFFFFFFFFFFFFFFFFFFFFFFFFFFFFFFFFFFFFFFFFFFFFFFFFFFFFFFFFFFFF
310
FFFFFFFFFFFFFFFFFFFFFFFFFFFFFFFFFFFFFFFFFFFFFFFFFFFFFFFFFFFFFFFF
310
F000FFFFFFFFFFFFFFFFFFFFFFFFFFFFFFFFFFFFFFFFFFFFFFFFFFFFFFFFFFFF
310
FFFFFFFFFFFFFFFFFFFFFFFFFFFFFFFFFFFFFFFFFFFFFFFFFFFFFFFFFFFFFFFF
310
FFFFFFFFFFFFFFFFFFFFFFFFFFFFFFFFFFFFFFFFFFFFFFFFF000FFFFFFFFFFFF
310
FFFFFFFFFFFFFFFFFFFFFFFFFFFFFFFFFFFFFFFFFFFFFFFFFFFFFFFFFFFFFFFF
310
FFFFFFFFFFFFFFFFFFFFFFFFFFFFFFFFFFFFFFFFFFFFFFFFFFFFFFFFFFFFFFFF
310
FFFFFFFFFFFFFFFFFFFFFFFFFFFFFFFFF0000000000000000000000000000000
310
0000000000000000000000000000000000000000000000000000000000000000
310
0000000000000000000000000000000000000000000000000000000000000000
310
0000000000000000000000000000000000000000000000000000000000000000
310
0000000000000000000000000000000000000000000000000000000000000000
310
0000000000000000000000000000000000000000000000000000000000000000
310
0000000000000000000000000000000000000000000000000000000000000000
310
0000000000000000000000000000000000000000000000000000000000000000
310
0000000000000000000000000000000000000000000000000000000000000000
310
0000000000000000000000000000000000000000000000000000000000000000
310
0000000000000000000000000000000000000000000000000000000000000000
310
0000000000000000000000000000000000000000000000000000000000000000
310
0000000000000000000000000000000000000000000000000000000000000000
310
0000000000000000000000000000000000000000000000000000000000000000
310
0000000000000000000000000000000000000000000000000000000000000000
310
0000000000000000000000000000000000000000000000000000000000000000
  1
OLE
  0
ENDSEC
  0
SECTION
  2
OBJECTS
  0
DICTIONARY
  5
C
330
0
100
AcDbDictionary
281
     1
  3
ACAD_GROUP
350
D
  3
ACAD_LAYOUT
350
1A
  3
ACAD_MLINESTYLE
350
17
  3
ACAD_PLOTSETTINGS
350
19
  3
ACAD_PLOTSTYLENAME
350
E
  3
ACAD_SCALELIST
350
47
  0
DICTIONARY
  5
D
102
{ACAD_REACTORS
330
C
102
}
330
C
100
AcDbDictionary
281
     1
  0
DICTIONARY
  5
1A
102
{ACAD_REACTORS
330
C
102
}
330
C
100
AcDbDictionary
281
     1
  3
Layout1
350
1E
  3
Layout2
350
26
  3
Model
350
22
  0
DICTIONARY
  5
17
102
{ACAD_REACTORS
330
C
102
}
330
C
100
AcDbDictionary
281
     1
  3
Standard
350
18
  0
DICTIONARY
  5
19
102
{ACAD_REACTORS
330
C
102
}
330
C
100
AcDbDictionary
281
     1
  0
ACDBDICTIONARYWDFLT
  5
E
102
{ACAD_REACTORS
330
C
102
}
330
C
100
AcDbDictionary
281
     1
  3
Normal
350
F
100
AcDbDictionaryWithDefault
340
F
  0
DICTIONARY
  5
47
102
{ACAD_REACTORS
330
C
102
}
330
C
100
AcDbDictionary
281
     1
  3
A0
350
48
  3
A1
350
49
  3
A2
350
4A
  3
A3
350
4B
  3
A4
350
4C
  3
A5
350
4D
  3
A6
350
4E
  3
A7
350
4F
  3
A8
350
50
  3
A9
350
51
  3
B0
350
52
  3
B1
350
53
  3
B2
350
54
  3
B3
350
55
  3
B4
350
56
  3
B5
350
57
  3
B6
350
58
  3
B7
350
59
  3
B8
350
5A
  3
B9
350
5B
  3
C0
350
5C
  3
C1
350
5D
  3
C2
350
5E
  3
C3
350
5F
  3
C4
350
60
  3
C5
350
61
  3
C6
350
62
  3
C7
350
63
  3
C8
350
64
  3
C9
350
65
  3
D0
350
66
  3
D1
350
67
  3
D2
350
68
  0
LAYOUT
  5
1E
102
{ACAD_REACTORS
330
1A
102
}
330
1A
100
AcDbPlotSettings
  1

  2
none_device
  4

  6

 40
0.0
 41
0.0
 42
0.0
 43
0.0
 44
0.0
 45
0.0
 46
0.0
 47
0.0
 48
0.0
 49
0.0
140
0.0
141
0.0
142
1.0
143
1.0
 70
   688
 72
     1
 73
     0
 74
     5
  7

 75
    16
147
1.0
148
0.0
149
0.0
100
AcDbLayout
  1
Layout1
 70
     1
 71
     1
 10
0.0
 20
0.0
 11
420.0
 21
297.0
 12
0.0
 22
0.0
 32
0.0
 14
1.0000000000E+20
 24
1.0000000000E+20
 34
1.0000000000E+20
 15
-1.0000000000E+20
 25
-1.0000000000E+20
 35
-1.0000000000E+20
146
0.0
 13
0.0
 23
0.0
 33
0.0
 16
1.0
 26
0.0
 36
0.0
 17
0.0
 27
1.0
 37
0.0
 76
     0
330
1B
  0
LAYOUT
  5
26
102
{ACAD_REACTORS
330
1A
102
}
330
1A
100
AcDbPlotSettings
  1

  2
none_device
  4

  6

 40
0.0
 41
0.0
 42
0.0
 43
0.0
 44
0.0
 45
0.0
 46
0.0
 47
0.0
 48
0.0
 49
0.0
140
0.0
141
0.0
142
1.0
143
1.0
 70
   688
 72
     1
 73
     0
 74
     5
  7

 75
    16
147
1.0
148
0.0
149
0.0
100
AcDbLayout
  1
Layout2
 70
     1
 71
     2
 10
0.0
 20
0.0
 11
0.0
 21
0.0
 12
0.0
 22
0.0
 32
0.0
 14
0.0
 24
0.0
 34
0.0
 15
0.0
 25
0.0
 35
0.0
146
0.0
 13
0.0
 23
0.0
 33
0.0
 16
1.0
 26
0.0
 36
0.0
 17
0.0
 27
1.0
 37
0.0
 76
     0
330
23
  0
LAYOUT
  5
22
102
{ACAD_REACTORS
330
1A
102
}
330
1A
100
AcDbPlotSettings
  1

  2
none_device
  4
Letter_(8.50_x_11.00_Inches)
  6

 40
6.35
 41
6.35
 42
6.35000508
 43
6.35000508
 44
215.9
 45
279.4
 46
0.0
 47
0.0
 48
0.0
 49
0.0
140
0.0
141
0.0
142
1.0
143
1.0
 70
  1712
 72
     1
 73
     0
 74
     0
  7

 75
     0
147
1.0
148
0.0
149
0.0
100
AcDbLayout
  1
Model
 70
     1
 71
     0
 10
0.0
 20
0.0
 11
297.0
 21
210.0
 12
0.0
 22
0.0
 32
0.0
 14
0.0
 24
0.0
 34
0.0
 15
297.0
 25
210.0
 35
0.0
146
0.0
 13
0.0
 23
0.0
 33
0.0
 16
1.0
 26
0.0
 36
0.0
 17
0.0
 27
1.0
 37
0.0
 76
     0
330
1F
331
29
  0
MLINESTYLE
  5
18
102
{ACAD_REACTORS
330
17
102
}
330
17
100
AcDbMlineStyle
  2
Standard
 70
     0
  3

 62
   256
 51
90.0
 52
90.0
 71
     2
 49
0.5
 62
   256
  6
BYLAYER
 49
-0.5
 62
   256
  6
BYLAYER
  0
ACDBPLACEHOLDER
  5
F
102
{ACAD_REACTORS
330
E
102
}
330
E
  0
SCALE
  5
48
102
{ACAD_REACTORS
330
47
102
}
330
47
100
AcDbScale
 70
     0
300
1:1
140
1.0
141
1.0
290
     1
  0
SCALE
  5
49
102
{ACAD_REACTORS
330
47
102
}
330
47
100
AcDbScale
 70
     0
300
1:2
140
1.0
141
2.0
290
     0
  0
SCALE
  5
4A
102
{ACAD_REACTORS
330
47
102
}
330
47
100
AcDbScale
 70
     0
300
1:4
140
1.0
141
4.0
290
     0
  0
SCALE
  5
4B
102
{ACAD_REACTORS
330
47
102
}
330
47
100
AcDbScale
 70
     0
300
1:5
140
1.0
141
5.0
290
     0
  0
SCALE
  5
4C
102
{ACAD_REACTORS
330
47
102
}
330
47
100
AcDbScale
 70
     0
300
1:8
140
1.0
141
8.0
290
     0
  0
SCALE
  5
4D
102
{ACAD_REACTORS
330
47
102
}
330
47
100
AcDbScale
 70
     0
300
1:10
140
1.0
141
10.0
290
     0
  0
SCALE
  5
4E
102
{ACAD_REACTORS
330
47
102
}
330
47
100
AcDbScale
 70
     0
300
1:16
140
1.0
141
16.0
290
     0
  0
SCALE
  5
4F
102
{ACAD_REACTORS
330
47
102
}
330
47
100
AcDbScale
 70
     0
300
1:20
140
1.0
141
20.0
290
     0
  0
SCALE
  5
50
102
{ACAD_REACTORS
330
47
102
}
330
47
100
AcDbScale
 70
     0
300
1:30
140
1.0
141
30.0
290
     0
  0
SCALE
  5
51
102
{ACAD_REACTORS
330
47
102
}
330
47
100
AcDbScale
 70
     0
300
1:40
140
1.0
141
40.0
290
     0
  0
SCALE
  5
52
102
{ACAD_REACTORS
330
47
102
}
330
47
100
AcDbScale
 70
     0
300
1:50
140
1.0
141
50.0
290
     0
  0
SCALE
  5
53
102
{ACAD_REACTORS
330
47
102
}
330
47
100
AcDbScale
 70
     0
300
1:100
140
1.0
141
100.0
290
     0
  0
SCALE
  5
54
102
{ACAD_REACTORS
330
47
102
}
330
47
100
AcDbScale
 70
     0
300
2:1
140
2.0
141
1.0
290
     0
  0
SCALE
  5
55
102
{ACAD_REACTORS
330
47
102
}
330
47
100
AcDbScale
 70
     0
300
4:1
140
4.0
141
1.0
290
     0
  0
SCALE
  5
56
102
{ACAD_REACTORS
330
47
102
}
330
47
100
AcDbScale
 70
     0
300
8:1
140
8.0
141
1.0
290
     0
  0
SCALE
  5
57
102
{ACAD_REACTORS
330
47
102
}
330
47
100
AcDbScale
 70
     0
300
10:1
140
10.0
141
1.0
290
     0
  0
SCALE
  5
58
102
{ACAD_REACTORS
330
47
102
}
330
47
100
AcDbScale
 70
     0
300
100:1
140
100.0
141
1.0
290
     0
  0
SCALE
  5
59
102
{ACAD_REACTORS
330
47
102
}
330
47
100
AcDbScale
 70
     0
300
1/128" = 1'-0"
140
0.0078125
141
12.0
290
     0
  0
SCALE
  5
5A
102
{ACAD_REACTORS
330
47
102
}
330
47
100
AcDbScale
 70
     0
300
1/64" = 1'-0"
140
0.015625
141
12.0
290
     0
  0
SCALE
  5
5B
102
{ACAD_REACTORS
330
47
102
}
330
47
100
AcDbScale
 70
     0
300
1/32" = 1'-0"
140
0.03125
141
12.0
290
     0
  0
SCALE
  5
5C
102
{ACAD_REACTORS
330
47
102
}
330
47
100
AcDbScale
 70
     0
300
1/16" = 1'-0"
140
0.0625
141
12.0
290
     0
  0
SCALE
  5
5D
102
{ACAD_REACTORS
330
47
102
}
330
47
100
AcDbScale
 70
     0
300
3/32" = 1'-0"
140
0.09375
141
12.0
290
     0
  0
SCALE
  5
5E
102
{ACAD_REACTORS
330
47
102
}
330
47
100
AcDbScale
 70
     0
300
1/8" = 1'-0"
140
0.125
141
12.0
290
     0
  0
SCALE
  5
5F
102
{ACAD_REACTORS
330
47
102
}
330
47
100
AcDbScale
 70
     0
300
3/16" = 1'-0"
140
0.1875
141
12.0
290
     0
  0
SCALE
  5
60
102
{ACAD_REACTORS
330
47
102
}
330
47
100
AcDbScale
 70
     0
300
1/4" = 1'-0"
140
0.25
141
12.0
290
     0
  0
SCALE
  5
61
102
{ACAD_REACTORS
330
47
102
}
330
47
100
AcDbScale
 70
     0
300
3/8" = 1'-0"
140
0.375
141
12.0
290
     0
  0
SCALE
  5
62
102
{ACAD_REACTORS
330
47
102
}
330
47
100
AcDbScale
 70
     0
300
1/2" = 1'-0"
140
0.5
141
12.0
290
     0
  0
SCALE
  5
63
102
{ACAD_REACTORS
330
47
102
}
330
47
100
AcDbScale
 70
     0
300
3/4" = 1'-0"
140
0.75
141
12.0
290
     0
  0
SCALE
  5
64
102
{ACAD_REACTORS
330
47
102
}
330
47
100
AcDbScale
 70
     0
300
1" = 1'-0"
140
1.0
141
12.0
290
     0
  0
SCALE
  5
65
102
{ACAD_REACTORS
330
47
102
}
330
47
100
AcDbScale
 70
     0
300
1-1/2" = 1'-0"
140
1.5
141
12.0
290
     0
  0
SCALE
  5
66
102
{ACAD_REACTORS
330
47
102
}
330
47
100
AcDbScale
 70
     0
300
3" = 1'-0"
140
3.0
141
12.0
290
     0
  0
SCALE
  5
67
102
{ACAD_REACTORS
330
47
102
}
330
47
100
AcDbScale
 70
     0
300
6" = 1'-0"
140
6.0
141
12.0
290
     0
  0
SCALE
  5
68
102
{ACAD_REACTORS
330
47
102
}
330
47
100
AcDbScale
 70
     0
300
1'-0" = 1'-0"
140
12.0
141
12.0
290
     0
  0
ENDSEC
  0
EOF
