  0
SECTION
  2
HEADER
  9
$ACADVER
  1
AC1015
  9
$ACADMAINTVER
 70
     6
  9
$DWGCODEPAGE
  3
ANSI_1252
  9
$INSBASE
 10
0.0
 20
0.0
 30
0.0
  9
$EXTMIN
 10
0.0
 20
0.0
 30
0.0
  9
$EXTMAX
 10
297.0
 20
210.0
 30
0.0
  9
$LIMMIN
 10
0.0
 20
0.0
  9
$LIMMAX
 10
297.0
 20
210.0
  9
$ORTHOMODE
 70
     0
  9
$REGENMODE
 70
     1
  9
$FILLMODE
 70
     1
  9
$QTEXTMODE
 70
     0
  9
$MIRRTEXT
 70
     1
  9
$LTSCALE
 40
1.0
  9
$ATTMODE
 70
     1
  9
$TEXTSIZE
 40
2.0
  9
$TRACEWID
 40
1.0
  9
$TEXTSTYLE
  7
Standard
  9
$CLAYER
  8
0
  9
$CELTYPE
  6
ByLayer
  9
$CECOLOR
 62
   256
  9
$CELTSCALE
 40
1.0
  9
$DISPSILH
 70
     0
  9
$DIMSCALE
 40
1.0
  9
$DIMASZ
 40
3.0
  9
$DIMEXO
 40
0.0
  9
$DIMDLI
 40
3.75
  9
$DIMRND
 40
0.0
  9
$DIMDLE
 40
0.0
  9
$DIMEXE
 40
1.0
  9
$DIMTP
 40
0.0
  9
$DIMTM
 40
0.0
  9
$DIMTXT
 40
2.0
  9
$DIMCEN
 40
2.5
  9
$DIMTSZ
 40
0.0
  9
$DIMTOL
 70
     0
  9
$DIMLIM
 70
     0
  9
$DIMTIH
 70
     1
  9
$DIMTOH
 70
     1
  9
$DIMSE1
 70
     0
  9
$DIMSE2
 70
     0
  9
$DIMTAD
 70
     1
  9
$DIMZIN
 70
     0
  9
$DIMBLK
  1

  9
$DIMASO
 70
     1
  9
$DIMSHO
 70
     1
  9
$DIMPOST
  1

  9
$DIMAPOST
  1

  9
$DIMALT
 70
     0
  9
$DIMALTD
 70
     3
  9
$DIMALTF
 40
0.0393700787
  9
$DIMLFAC
 40
2.0
  9
$DIMTOFL
 70
     1
  9
$DIMTVP
 40
0.0
  9
$DIMTIX
 70
     0
  9
$DIMSOXD
 70
     0
  9
$DIMSAH
 70
     0
  9
$DIMBLK1
  1

  9
$DIMBLK2
  1

  9
$DIMSTYLE
  2
ISO-25
  9
$DIMCLRD
 70
     0
  9
$DIMCLRE
 70
     0
  9
$DIMCLRT
 70
     0
  9
$DIMTFAC
 40
1.0
  9
$DIMGAP
 40
1.524
  9
$DIMJUST
 70
     0
  9
$DIMSD1
 70
     0
  9
$DIMSD2
 70
     0
  9
$DIMTOLJ
 70
     0
  9
$DIMTZIN
 70
     0
  9
$DIMALTZ
 70
     0
  9
$DIMALTTZ
 70
     0
  9
$DIMUPT
 70
     0
  9
$DIMDEC
 70
     2
  9
$DIMTDEC
 70
     3
  9
$DIMALTU
 70
     2
  9
$DIMALTTD
 70
     3
  9
$DIMTXSTY
  7
Standard
  9
$DIMAUNIT
 70
     0
  9
$DIMADEC
 70
     2
  9
$DIMALTRND
 40
0.0
  9
$DIMAZIN
 70
     0
  9
$DIMDSEP
 70
    44
  9
$DIMATFIT
 70
     3
  9
$DIMFRAC
 70
     0
  9
$DIMLDRBLK
  1

  9
$DIMLUNIT
 70
     2
  9
$DIMLWD
 70
    -2
  9
$DIMLWE
 70
    -2
  9
$DIMTMOVE
 70
     0
  9
$LUNITS
 70
     2
  9
$LUPREC
 70
     2
  9
$SKETCHINC
 40
1.0
  9
$FILLETRAD
 40
10.0
  9
$AUNITS
 70
     0
  9
$AUPREC
 70
     2
  9
$MENU
  1
.
  9
$ELEVATION
 40
0.0
  9
$PELEVATION
 40
0.0
  9
$THICKNESS
 40
0.0
  9
$LIMCHECK
 70
     0
  9
$CHAMFERA
 40
0.0
  9
$CHAMFERB
 40
0.0
  9
$CHAMFERC
 40
0.0
  9
$CHAMFERD
 40
0.0
  9
$SKPOLY
 70
     0
  9
$TDCREATE
 40
2458166.40950713
  9
$TDUCREATE
 40
2458166.367840463
  9
$TDUPDATE
 40
2458166.409510151
  9
$TDUUPDATE
 40
2458166.367843484
  9
$TDINDWG
 40
0.0000000116
  9
$TDUSRTIMER
 40
0.0000000116
  9
$USRTIMER
 70
     1
  9
$ANGBASE
 50
0.0
  9
$ANGDIR
 70
     0
  9
$PDMODE
 70
     0
  9
$PDSIZE
 40
-1.0
  9
$PLINEWID
 40
0.0
  9
$SPLFRAME
 70
     0
  9
$SPLINETYPE
 70
     6
  9
$SPLINESEGS
 70
     8
  9
$HANDSEED
  5
2BE
  9
$SURFTAB1
 70
     6
  9
$SURFTAB2
 70
     6
  9
$SURFTYPE
 70
     6
  9
$SURFU
 70
     6
  9
$SURFV
 70
     6
  9
$UCSBASE
  2

  9
$UCSNAME
  2

  9
$UCSORG
 10
0.0
 20
0.0
 30
0.0
  9
$UCSXDIR
 10
1.0
 20
0.0
 30
0.0
  9
$UCSYDIR
 10
0.0
 20
1.0
 30
0.0
  9
$UCSORTHOREF
  2

  9
$UCSORTHOVIEW
 70
     0
  9
$UCSORGTOP
 10
0.0
 20
0.0
 30
0.0
  9
$UCSORGBOTTOM
 10
0.0
 20
0.0
 30
0.0
  9
$UCSORGLEFT
 10
0.0
 20
0.0
 30
0.0
  9
$UCSORGRIGHT
 10
0.0
 20
0.0
 30
0.0
  9
$UCSORGFRONT
 10
0.0
 20
0.0
 30
0.0
  9
$UCSORGBACK
 10
0.0
 20
0.0
 30
0.0
  9
$PUCSBASE
  2

  9
$PUCSNAME
  2

  9
$PUCSORG
 10
0.0
 20
0.0
 30
0.0
  9
$PUCSXDIR
 10
1.0
 20
0.0
 30
0.0
  9
$PUCSYDIR
 10
0.0
 20
1.0
 30
0.0
  9
$PUCSORTHOREF
  2

  9
$PUCSORTHOVIEW
 70
     0
  9
$PUCSORGTOP
 10
0.0
 20
0.0
 30
0.0
  9
$PUCSORGBOTTOM
 10
0.0
 20
0.0
 30
0.0
  9
$PUCSORGLEFT
 10
0.0
 20
0.0
 30
0.0
  9
$PUCSORGRIGHT
 10
0.0
 20
0.0
 30
0.0
  9
$PUCSORGFRONT
 10
0.0
 20
0.0
 30
0.0
  9
$PUCSORGBACK
 10
0.0
 20
0.0
 30
0.0
  9
$USERI1
 70
     0
  9
$USERI2
 70
     0
  9
$USERI3
 70
     0
  9
$USERI4
 70
     0
  9
$USERI5
 70
     0
  9
$USERR1
 40
0.0
  9
$USERR2
 40
0.0
  9
$USERR3
 40
0.0
  9
$USERR4
 40
0.0
  9
$USERR5
 40
0.0
  9
$WORLDVIEW
 70
     1
  9
$SHADEDGE
 70
     3
  9
$SHADEDIF
 70
    70
  9
$TILEMODE
 70
     1
  9
$MAXACTVP
 70
    64
  9
$PINSBASE
 10
0.0
 20
0.0
 30
0.0
  9
$PLIMCHECK
 70
     0
  9
$PEXTMIN
 10
1.0000000000E+20
 20
1.0000000000E+20
 30
1.0000000000E+20
  9
$PEXTMAX
 10
-1.0000000000E+20
 20
-1.0000000000E+20
 30
-1.0000000000E+20
  9
$PLIMMIN
 10
0.0
 20
0.0
  9
$PLIMMAX
 10
420.0
 20
297.0
  9
$UNITMODE
 70
     0
  9
$VISRETAIN
 70
     1
  9
$PLINEGEN
 70
     0
  9
$PSLTSCALE
 70
     1
  9
$TREEDEPTH
 70
  3020
  9
$CMLSTYLE
  2
Standard
  9
$CMLJUST
 70
     0
  9
$CMLSCALE
 40
20.0
  9
$PROXYGRAPHICS
 70
     1
  9
$MEASUREMENT
 70
     1
  9
$CELWEIGHT
370
    -1
  9
$ENDCAPS
280
     0
  9
$JOINSTYLE
280
     0
  9
$LWDISPLAY
290
     1
  9
$INSUNITS
 70
     4
  9
$HYPERLINKBASE
  1

  9
$STYLESHEET
  1

  9
$XEDIT
290
     1
  9
$CEPSNTYPE
380
     0
  9
$PSTYLEMODE
290
     1
  9
$FINGERPRINTGUID
  2
{1D62B85A-8D5C-42A4-8525-7A6E2DBA41E5}
  9
$VERSIONGUID
  2
{FAEB1C32-E019-11D5-929B-00C0DF256EC4}
  9
$EXTNAMES
290
     1
  9
$PSVPSCALE
 40
0.0
  9
$OLESTARTUP
290
     0
  0
ENDSEC
  0
SECTION
  2
CLASSES
  0
CLASS
  1
ACDBDICTIONARYWDFLT
  2
AcDbDictionaryWithDefault
  3
ObjectDBX Classes
 90
        0
280
     0
281
     0
  0
CLASS
  1
VISUALSTYLE
  2
AcDbVisualStyle
  3
ObjectDBX Classes
 90
     4095
280
     0
281
     0
  0
CLASS
  1
MATERIAL
  2
AcDbMaterial
  3
ObjectDBX Classes
 90
     1153
280
     0
281
     0
  0
CLASS
  1
SCALE
  2
AcDbScale
  3
ObjectDBX Classes
 90
     1153
280
     0
281
     0
  0
CLASS
  1
TABLESTYLE
  2
AcDbTableStyle
  3
ObjectDBX Classes
 90
     4095
280
     0
281
     0
  0
CLASS
  1
MLEADERSTYLE
  2
AcDbMLeaderStyle
  3
ACDB_MLEADERSTYLE_CLASS
 90
     4095
280
     0
281
     0
  0
CLASS
  1
SUN
  2
AcDbSun
  3
SCENEOE
 90
     1153
280
     0
281
     0
  0
CLASS
  1
ACDBPLACEHOLDER
  2
AcDbPlaceHolder
  3
ObjectDBX Classes
 90
        0
280
     0
281
     0
  0
CLASS
  1
LAYOUT
  2
AcDbLayout
  3
ObjectDBX Classes
 90
        0
280
     0
281
     0
  0
ENDSEC
  0
SECTION
  2
TABLES
  0
TABLE
  2
VPORT
  5
8
330
0
100
AcDbSymbolTable
 70
     1
  0
VPORT
  5
29
330
8
100
AcDbSymbolTableRecord
100
AcDbViewportTableRecord
  2
*Active
 70
     0
 10
0.0
 20
0.0
 11
1.0
 21
1.0
 12
148.5
 22
105.0
 13
0.0
 23
0.0
 14
10.0
 24
10.0
 15
10.0
 25
10.0
 16
0.0
 26
0.0
 36
1.0
 17
0.0
 27
0.0
 37
0.0
 40
210.0
 41
1.4142857143
 42
50.0
 43
0.0
 44
0.0
 50
0.0
 51
0.0
 71
     0
 72
  2000
 73
     1
 74
     3
 75
     0
 76
     0
 77
     0
 78
     0
281
     0
 65
     1
110
0.0
120
0.0
130
0.0
111
1.0
121
0.0
131
0.0
112
0.0
122
1.0
132
0.0
 79
     0
146
0.0
  0
ENDTAB
  0
TABLE
  2
LTYPE
  5
5
330
0
100
AcDbSymbolTable
 70
     6
  0
LTYPE
  5
14
330
5
100
AcDbSymbolTableRecord
100
AcDbLinetypeTableRecord
  2
ByBlock
 70
     0
  3

 72
    65
 73
     0
 40
0.0
  0
LTYPE
  5
15
330
5
100
AcDbSymbolTableRecord
100
AcDbLinetypeTableRecord
  2
ByLayer
 70
     0
  3

 72
    65
 73
     0
 40
0.0
  0
LTYPE
  5
16
330
5
100
AcDbSymbolTableRecord
100
AcDbLinetypeTableRecord
  2
Continuous
 70
     0
  3
Solid line
 72
    65
 73
     0
 40
0.0
  0
LTYPE
  5
6E
330
5
100
AcDbSymbolTableRecord
100
AcDbLinetypeTableRecord
  2
HIDDEN
 70
     0
  3
Hidden __ __ __ __ __ __ __ __ __ __ __ __ __ __
 72
    65
 73
     2
 40
1.905
 49
1.27
 74
     0
 49
-0.635
 74
     0
  0
LTYPE
  5
6F
330
5
100
AcDbSymbolTableRecord
100
AcDbLinetypeTableRecord
  2
PHANTOM
 70
     0
  3
Phantom ______  __  __  ______  __  __  ______
 72
    65
 73
     6
 40
12.7
 49
6.35
 74
     0
 49
-1.27
 74
     0
 49
1.27
 74
     0
 49
-1.27
 74
     0
 49
1.27
 74
     0
 49
-1.27
 74
     0
  0
LTYPE
  5
70
330
5
100
AcDbSymbolTableRecord
100
AcDbLinetypeTableRecord
  2
CENTER
 70
     0
  3
Center ____ _ ____ _ ____ _ ____ _ ____ _ ____
 72
    65
 73
     4
 40
10.16
 49
6.35
 74
     0
 49
-1.27
 74
     0
 49
1.27
 74
     0
 49
-1.27
 74
     0
  0
LTYPE
  5
71
330
5
100
AcDbSymbolTableRecord
100
AcDbLinetypeTableRecord
  2
CENTERX2
 70
     0
  3
Center (2x) ________  __  ________  __  _____
 72
    65
 73
     4
 40
20.32
 49
12.7
 74
     0
 49
-2.54
 74
     0
 49
2.54
 74
     0
 49
-2.54
 74
     0
  0
LTYPE
  5
72
330
5
100
AcDbSymbolTableRecord
100
AcDbLinetypeTableRecord
  2
DOT2
 70
     0
  3
Dot (.5x) ........................................
 72
    65
 73
     2
 40
0.635
 49
0.0
 74
     0
 49
-0.635
 74
     0
  0
ENDTAB
  0
TABLE
  2
LAYER
  5
2
330
0
100
AcDbSymbolTable
 70
     5
  0
LAYER
  5
10
330
2
100
AcDbSymbolTableRecord
100
AcDbLayerTableRecord
  2
0
 70
     0
 62
     7
  6
Continuous
370
    -3
390
F
  0
LAYER
  5
73
330
2
100
AcDbSymbolTableRecord
100
AcDbLayerTableRecord
  2
FORMAT
 70
     0
 62
     7
  6
Continuous
370
    -3
390
F
  0
LAYER
  5
74
330
2
100
AcDbSymbolTableRecord
100
AcDbLayerTableRecord
  2
VERMASSUNG
 70
     0
 62
     7
  6
Continuous
370
    -3
390
F
  0
LAYER
  5
75
330
2
100
AcDbSymbolTableRecord
100
AcDbLayerTableRecord
  2
KOPF_DÜNN
 70
     0
 62
     7
  6
Continuous
370
    -3
390
F
  0
LAYER
  5
76
330
2
100
AcDbSymbolTableRecord
100
AcDbLayerTableRecord
  2
KOPF_DICK
 70
     0
 62
     7
  6
Continuous
370
    25
390
F
  0
ENDTAB
  0
TABLE
  2
STYLE
  5
3
330
0
100
AcDbSymbolTable
 70
     2
  0
STYLE
  5
11
330
3
100
AcDbSymbolTableRecord
100
AcDbTextStyleTableRecord
  2
Standard
 70
     0
 40
0.0
 41
1.0
 50
0.0
 71
     0
 42
2.0
  3
txt
  4

  0
STYLE
  5
77
330
3
100
AcDbSymbolTableRecord
100
AcDbTextStyleTableRecord
  2
SLDTEXTSTYLE0
 70
     0
 40
0.0
 41
0.7
 50
0.0
 71
     0
 42
2.0
  3
TXT
  4

  0
ENDTAB
  0
TABLE
  2
VIEW
  5
6
330
0
100
AcDbSymbolTable
 70
     0
  0
ENDTAB
  0
TABLE
  2
UCS
  5
7
330
0
100
AcDbSymbolTable
 70
     0
  0
ENDTAB
  0
TABLE
  2
APPID
  5
9
330
0
100
AcDbSymbolTable
 70
     1
  0
APPID
  5
12
330
9
100
AcDbSymbolTableRecord
100
AcDbRegAppTableRecord
  2
ACAD
 70
     0
  0
ENDTAB
  0
TABLE
  2
DIMSTYLE
  5
A
330
0
100
AcDbSymbolTable
 70
     3
100
AcDbDimStyleTable
  0
DIMSTYLE
105
27
330
A
100
AcDbSymbolTableRecord
100
AcDbDimStyleTableRecord
  2
ISO-25
 70
     0
 41
2.5
 42
0.625
 43
3.75
 44
1.25
 73
     0
 74
     0
 77
     1
 78
     8
140
2.5
141
2.5
143
0.0393700787
147
0.625
171
     3
172
     1
178
     0
271
     2
272
     2
274
     3
278
    44
283
     0
284
     8
340
11
  0
DIMSTYLE
105
1F4
102
{ACAD_REACTORS
330
1F3
330
1FF
330
218
330
222
330
22C
102
}
330
A
100
AcDbSymbolTableRecord
100
AcDbDimStyleTableRecord
  2
SLDDIMSTYLE0
 70
     0
 41
3.0
 44
0.0
 45
0.000000001
 73
     0
 74
     0
 77
     1
 78
    12
 79
     3
140
2.0
147
0.5
173
     1
178
     0
271
     2
272
     3
276
     2
284
    12
340
77
  0
DIMSTYLE
105
20B
102
{ACAD_REACTORS
330
20A
102
}
330
A
100
AcDbSymbolTableRecord
100
AcDbDimStyleTableRecord
  2
SLDDIMSTYLE1
 70
     0
 41
3.0
 44
0.0
 45
0.000000001
 73
     0
 74
     0
 77
     1
 78
    12
 79
     3
140
2.0
147
0.5
173
     1
178
     0
271
     1
272
     3
276
     2
284
    12
340
77
  0
ENDTAB
  0
TABLE
  2
BLOCK_RECORD
  5
1
330
0
100
AcDbSymbolTable
 70
     7
  0
BLOCK_RECORD
  5
1F
330
1
100
AcDbSymbolTableRecord
100
AcDbBlockTableRecord
  2
*Model_Space
340
22
  0
BLOCK_RECORD
  5
1B
330
1
100
AcDbSymbolTableRecord
100
AcDbBlockTableRecord
  2
*Paper_Space
340
1E
  0
BLOCK_RECORD
  5
23
330
1
100
AcDbSymbolTableRecord
100
AcDbBlockTableRecord
  2
*Paper_Space0
340
26
  0
BLOCK_RECORD
  5
1F5
330
1
100
AcDbSymbolTableRecord
100
AcDbBlockTableRecord
  2
_D
340
0
  0
BLOCK_RECORD
  5
200
330
1
100
AcDbSymbolTableRecord
100
AcDbBlockTableRecord
  2
_D_1
340
0
  0
BLOCK_RECORD
  5
20C
330
1
100
AcDbSymbolTableRecord
100
AcDbBlockTableRecord
  2
_D_2
340
0
  0
BLOCK_RECORD
  5
219
330
1
100
AcDbSymbolTableRecord
100
AcDbBlockTableRecord
  2
_D_3
340
0
  0
BLOCK_RECORD
  5
223
330
1
100
AcDbSymbolTableRecord
100
AcDbBlockTableRecord
  2
_D_4
340
0
  0
BLOCK_RECORD
  5
22D
330
1
100
AcDbSymbolTableRecord
100
AcDbBlockTableRecord
  2
_D_5
340
0
  0
ENDTAB
  0
ENDSEC
  0
SECTION
  2
BLOCKS
  0
BLOCK
  5
20
330
1F
100
AcDbEntity
  8
0
100
AcDbBlockBegin
  2
*Model_Space
 70
     0
 10
0.0
 20
0.0
 30
0.0
  3
*Model_Space
  1

  0
ENDBLK
  5
21
330
1F
100
AcDbEntity
  8
0
100
AcDbBlockEnd
  0
BLOCK
  5
1C
330
1B
100
AcDbEntity
 67
     1
  8
0
100
AcDbBlockBegin
  2
*Paper_Space
 70
     0
 10
0.0
 20
0.0
 30
0.0
  3
*Paper_Space
  1

  0
ENDBLK
  5
1D
330
1B
100
AcDbEntity
 67
     1
  8
0
100
AcDbBlockEnd
  0
BLOCK
  5
24
330
23
100
AcDbEntity
  8
0
100
AcDbBlockBegin
  2
*Paper_Space0
 70
     0
 10
0.0
 20
0.0
 30
0.0
  3
*Paper_Space0
  1

  0
ENDBLK
  5
25
330
23
100
AcDbEntity
  8
0
100
AcDbBlockEnd
  0
BLOCK
  5
1F6
330
1F5
100
AcDbEntity
  8
0
100
AcDbBlockBegin
  2
_D
 70
     0
 10
0.0
 20
0.0
 30
0.0
  3
_D
  1

  0
SOLID
  5
1F8
330
1F5
100
AcDbEntity
  8
VERMASSUNG
100
AcDbTrace
 10
221.8569881118
 20
120.1440969297
 30
0.0
 11
221.4069881118
 21
117.1440969297
 31
0.0
 12
222.3069881118
 22
117.1440969297
 32
0.0
 13
222.3069881118
 23
117.1440969297
 33
0.0
  0
SOLID
  5
1F9
330
1F5
100
AcDbEntity
  8
VERMASSUNG
100
AcDbTrace
 10
221.8569881118
 20
110.1440969297
 30
0.0
 11
222.3069881118
 21
113.1440969297
 31
0.0
 12
221.4069881118
 22
113.1440969297
 32
0.0
 13
221.4069881118
 23
113.1440969297
 33
0.0
  0
LINE
  5
1FA
330
1F5
100
AcDbEntity
  8
VERMASSUNG
100
AcDbLine
 10
177.8905809688
 20
120.1440969297
 30
0.0
 11
222.8569881118
 21
120.1440969297
 31
0.0
  0
LINE
  5
1FB
330
1F5
100
AcDbEntity
  8
VERMASSUNG
100
AcDbLine
 10
201.3405809688
 20
110.1440969297
 30
0.0
 11
222.8569881118
 21
110.1440969297
 31
0.0
  0
LINE
  5
1FC
330
1F5
100
AcDbEntity
  8
VERMASSUNG
100
AcDbLine
 10
221.8569881118
 20
120.1440969297
 30
0.0
 11
221.8569881118
 21
110.1440969297
 31
0.0
  0
MTEXT
  5
1FD
330
1F5
100
AcDbEntity
  8
VERMASSUNG
100
AcDbMText
 10
219.2788528069
 20
112.1390968655
 30
0.0
 40
2.0
 41
0.0
 71
     1
 72
     1
  1
%%c
  7
SLDTEXTSTYLE0
 11
-7.932373437343760E-15
 21
1.0
 31
0.0
 73
     1
 44
1.0
  0
MTEXT
  5
1FE
330
1F5
100
AcDbEntity
  8
VERMASSUNG
100
AcDbMText
 10
219.0788528556
 20
115.7490968798
 30
0.0
 40
2.0
 41
0.0
 71
     1
 72
     1
  1
10
  7
SLDTEXTSTYLE0
 11
-7.932373437343760E-15
 21
1.0
 31
0.0
 73
     1
 44
1.0
  0
ENDBLK
  5
1F7
330
1F5
100
AcDbEntity
  8
0
100
AcDbBlockEnd
  0
BLOCK
  5
201
330
200
100
AcDbEntity
  8
0
100
AcDbBlockBegin
  2
_D_1
 70
     0
 10
0.0
 20
0.0
 30
0.0
  3
_D_1
  1

  0
SOLID
  5
203
330
200
100
AcDbEntity
  8
VERMASSUNG
100
AcDbTrace
 10
235.6405809688
 20
132.6440969297
 30
0.0
 11
235.1905809688
 21
129.6440969297
 31
0.0
 12
236.0905809688
 22
129.6440969297
 32
0.0
 13
236.0905809688
 23
129.6440969297
 33
0.0
  0
SOLID
  5
204
330
200
100
AcDbEntity
  8
VERMASSUNG
100
AcDbTrace
 10
235.6405809688
 20
97.6440969297
 30
0.0
 11
236.0905809688
 21
100.6440969297
 31
0.0
 12
235.1905809688
 22
100.6440969297
 32
0.0
 13
235.1905809688
 23
100.6440969297
 33
0.0
  0
LINE
  5
205
330
200
100
AcDbEntity
  8
VERMASSUNG
100
AcDbLine
 10
190.9180463662
 20
132.6440969297
 30
0.0
 11
236.6405809688
 21
132.6440969297
 31
0.0
  0
LINE
  5
206
330
200
100
AcDbEntity
  8
VERMASSUNG
100
AcDbLine
 10
190.9180463662
 20
97.6440969297
 30
0.0
 11
236.6405809688
 21
97.6440969297
 31
0.0
  0
LINE
  5
207
330
200
100
AcDbEntity
  8
VERMASSUNG
100
AcDbLine
 10
235.6405809688
 20
132.6440969297
 30
0.0
 11
235.6405809688
 21
97.6440969297
 31
0.0
  0
MTEXT
  5
208
330
200
100
AcDbEntity
  8
VERMASSUNG
100
AcDbMText
 10
233.0624456639
 20
111.9390969724
 30
0.0
 40
2.0
 41
0.0
 71
     1
 72
     1
  1
%%c
  7
SLDTEXTSTYLE0
 11
-7.932373437343760E-15
 21
1.0
 31
0.0
 73
     1
 44
1.0
  0
MTEXT
  5
209
330
200
100
AcDbEntity
  8
VERMASSUNG
100
AcDbMText
 10
232.8624457126
 20
115.5490969868
 30
0.0
 40
2.0
 41
0.0
 71
     1
 72
     1
  1
35
  7
SLDTEXTSTYLE0
 11
-7.932373437343760E-15
 21
1.0
 31
0.0
 73
     1
 44
1.0
  0
ENDBLK
  5
202
330
200
100
AcDbEntity
  8
0
100
AcDbBlockEnd
  0
BLOCK
  5
20D
330
20C
100
AcDbEntity
  8
0
100
AcDbBlockBegin
  2
_D_2
 70
     0
 10
0.0
 20
0.0
 30
0.0
  3
_D_2
  1

  0
SOLID
  5
20F
330
20C
100
AcDbEntity
  8
VERMASSUNG
100
AcDbTrace
 10
85.6905559688
 20
146.6190969297
 30
0.0
 11
85.2405559688
 21
143.6190969297
 31
0.0
 12
86.1405559688
 22
143.6190969297
 32
0.0
 13
86.1405559688
 23
143.6190969297
 33
0.0
  0
SOLID
  5
210
330
20C
100
AcDbEntity
  8
VERMASSUNG
100
AcDbTrace
 10
85.6905559688
 20
83.6690969297
 30
0.0
 11
86.1405559688
 21
86.6690969297
 31
0.0
 12
85.2405559688
 22
86.6690969297
 32
0.0
 13
85.2405559688
 23
86.6690969297
 33
0.0
  0
LINE
  5
211
330
20C
100
AcDbEntity
  8
VERMASSUNG
100
AcDbLine
 10
154.8747787734
 20
146.6190969297
 30
0.0
 11
84.6905559688
 21
146.6190969297
 31
0.0
  0
LINE
  5
212
330
20C
100
AcDbEntity
  8
VERMASSUNG
100
AcDbLine
 10
154.8747787734
 20
83.6690969297
 30
0.0
 11
84.6905559688
 21
83.6690969297
 31
0.0
  0
LINE
  5
213
330
20C
100
AcDbEntity
  8
VERMASSUNG
100
AcDbLine
 10
85.6905559688
 20
146.6190969297
 30
0.0
 11
85.6905559688
 21
83.6690969297
 31
0.0
  0
MTEXT
  5
214
330
20C
100
AcDbEntity
  8
VERMASSUNG
100
AcDbMText
 10
82.9124207126
 20
107.0390983113
 30
0.0
 40
2.0
 41
0.0
 71
     1
 72
     1
  1
KM
  7
SLDTEXTSTYLE0
 11
-7.932373437343760E-15
 21
1.0
 31
0.0
 73
     1
 44
1.0
  0
MTEXT
  5
215
330
20C
100
AcDbEntity
  8
VERMASSUNG
100
AcDbMText
 10
83.1124206639
 20
110.4390981236
 30
0.0
 40
2.0
 41
0.0
 71
     1
 72
     1
  1
%%c
  7
SLDTEXTSTYLE0
 11
-7.932373437343760E-15
 21
1.0
 31
0.0
 73
     1
 44
1.0
  0
MTEXT
  5
216
330
20C
100
AcDbEntity
  8
VERMASSUNG
100
AcDbMText
 10
82.9124207126
 20
114.0490981379
 30
0.0
 40
2.0
 41
0.0
 71
     1
 72
     1
  1
63
  7
SLDTEXTSTYLE0
 11
-7.932373437343760E-15
 21
1.0
 31
0.0
 73
     1
 44
1.0
  0
MTEXT
  5
217
330
20C
100
AcDbEntity
  8
VERMASSUNG
100
AcDbMText
 10
82.9124207126
 20
118.036598038
 30
0.0
 40
2.0
 41
0.0
 71
     1
 72
     1
  1
XMZ
  7
SLDTEXTSTYLE0
 11
-7.932373437343760E-15
 21
1.0
 31
0.0
 73
     1
 44
1.0
  0
ENDBLK
  5
20E
330
20C
100
AcDbEntity
  8
0
100
AcDbBlockEnd
  0
BLOCK
  5
21A
330
219
100
AcDbEntity
  8
0
100
AcDbBlockBegin
  2
_D_3
 70
     0
 10
0.0
 20
0.0
 30
0.0
  3
_D_3
  1

  0
SOLID
  5
21C
330
219
100
AcDbEntity
  8
VERMASSUNG
100
AcDbTrace
 10
159.6405809688
 20
152.2398492365
 30
0.0
 11
162.6405809688
 21
151.7898492365
 31
0.0
 12
162.6405809688
 22
152.6898492365
 32
0.0
 13
162.6405809688
 23
152.6898492365
 33
0.0
  0
SOLID
  5
21D
330
219
100
AcDbEntity
  8
VERMASSUNG
100
AcDbTrace
 10
201.6405809688
 20
152.2398492365
 30
0.0
 11
198.6405809688
 21
152.6898492365
 31
0.0
 12
198.6405809688
 22
151.7898492365
 32
0.0
 13
198.6405809688
 23
151.7898492365
 33
0.0
  0
LINE
  5
21E
330
219
100
AcDbEntity
  8
VERMASSUNG
100
AcDbLine
 10
159.6405809688
 20
146.6190969297
 30
0.0
 11
159.6405809688
 21
153.2398492365
 31
0.0
  0
LINE
  5
21F
330
219
100
AcDbEntity
  8
VERMASSUNG
100
AcDbLine
 10
201.6405809688
 20
126.3699564081
 30
0.0
 11
201.6405809688
 21
153.2398492365
 31
0.0
  0
LINE
  5
220
330
219
100
AcDbEntity
  8
VERMASSUNG
100
AcDbLine
 10
159.6405809688
 20
152.2398492365
 30
0.0
 11
201.6405809688
 21
152.2398492365
 31
0.0
  0
MTEXT
  5
221
330
219
100
AcDbEntity
  8
VERMASSUNG
100
AcDbMText
 10
179.1405809558
 20
154.8179848324
 30
0.0
 40
2.0
 41
0.0
 71
     1
 72
     1
  1
42
  7
SLDTEXTSTYLE0
 73
     1
 44
1.0
  0
ENDBLK
  5
21B
330
219
100
AcDbEntity
  8
0
100
AcDbBlockEnd
  0
BLOCK
  5
224
330
223
100
AcDbEntity
  8
0
100
AcDbBlockBegin
  2
_D_4
 70
     0
 10
0.0
 20
0.0
 30
0.0
  3
_D_4
  1

  0
SOLID
  5
226
330
223
100
AcDbEntity
  8
VERMASSUNG
100
AcDbTrace
 10
141.6405809688
 20
160.3140243219
 30
0.0
 11
144.6405809688
 21
159.8640243219
 31
0.0
 12
144.6405809688
 22
160.7640243219
 32
0.0
 13
144.6405809688
 23
160.7640243219
 33
0.0
  0
SOLID
  5
227
330
223
100
AcDbEntity
  8
VERMASSUNG
100
AcDbTrace
 10
201.6405809688
 20
160.3140243219
 30
0.0
 11
198.6405809688
 21
160.7640243219
 31
0.0
 12
198.6405809688
 22
159.8640243219
 32
0.0
 13
198.6405809688
 23
159.8640243219
 33
0.0
  0
LINE
  5
228
330
223
100
AcDbEntity
  8
VERMASSUNG
100
AcDbLine
 10
141.6405809688
 20
146.4190969297
 30
0.0
 11
141.6405809688
 21
161.3140243219
 31
0.0
  0
LINE
  5
229
330
223
100
AcDbEntity
  8
VERMASSUNG
100
AcDbLine
 10
201.6405809688
 20
126.3699564081
 30
0.0
 11
201.6405809688
 21
161.3140243219
 31
0.0
  0
LINE
  5
22A
330
223
100
AcDbEntity
  8
VERMASSUNG
100
AcDbLine
 10
141.6405809688
 20
160.3140243219
 30
0.0
 11
201.6405809688
 21
160.3140243219
 31
0.0
  0
MTEXT
  5
22B
330
223
100
AcDbEntity
  8
VERMASSUNG
100
AcDbMText
 10
170.2405810187
 20
162.8921599179
 30
0.0
 40
2.0
 41
0.0
 71
     1
 72
     1
  1
60
  7
SLDTEXTSTYLE0
 73
     1
 44
1.0
  0
ENDBLK
  5
225
330
223
100
AcDbEntity
  8
0
100
AcDbBlockEnd
  0
BLOCK
  5
22E
330
22D
100
AcDbEntity
  8
0
100
AcDbBlockBegin
  2
_D_5
 70
     0
 10
0.0
 20
0.0
 30
0.0
  3
_D_5
  1

  0
SOLID
  5
230
330
22D
100
AcDbEntity
  8
VERMASSUNG
100
AcDbTrace
 10
201.6405809688
 20
168.6190969297
 30
0.0
 11
198.6405809688
 21
169.0690969297
 31
0.0
 12
198.6405809688
 22
168.1690969297
 32
0.0
 13
198.6405809688
 23
168.1690969297
 33
0.0
  0
SOLID
  5
231
330
22D
100
AcDbEntity
  8
VERMASSUNG
100
AcDbTrace
 10
101.6905809688
 20
168.6190969297
 30
0.0
 11
104.6905809688
 21
168.1690969297
 31
0.0
 12
104.6905809688
 22
169.0690969297
 32
0.0
 13
104.6905809688
 23
169.0690969297
 33
0.0
  0
LINE
  5
232
330
22D
100
AcDbEntity
  8
VERMASSUNG
100
AcDbLine
 10
201.6405809688
 20
126.3699564081
 30
0.0
 11
201.6405809688
 21
169.6190969297
 31
0.0
  0
LINE
  5
233
330
22D
100
AcDbEntity
  8
VERMASSUNG
100
AcDbLine
 10
101.6905809688
 20
137.3471916535
 30
0.0
 11
101.6905809688
 21
169.6190969297
 31
0.0
  0
LINE
  5
234
330
22D
100
AcDbEntity
  8
VERMASSUNG
100
AcDbLine
 10
201.6405809688
 20
168.6190969297
 30
0.0
 11
101.6905809688
 21
168.6190969297
 31
0.0
  0
MTEXT
  5
235
330
22D
100
AcDbEntity
  8
VERMASSUNG
100
AcDbMText
 10
148.5655811126
 20
171.1972325256
 30
0.0
 40
2.0
 41
0.0
 71
     1
 72
     1
  1
99.95
  7
SLDTEXTSTYLE0
 73
     1
 44
1.0
  0
ENDBLK
  5
22F
330
22D
100
AcDbEntity
  8
0
100
AcDbBlockEnd
  0
ENDSEC
  0
SECTION
  2
ENTITIES
  0
MTEXT
  5
78
330
1F
100
AcDbEntity
  8
KOPF_DÜNN
100
AcDbMText
 10
13.8892156294
 20
23.8442973028
 30
0.0
 40
3.0
 41
0.0
 71
     1
 72
     1
  1
KY6.W10.K01.060
  7
SLDTEXTSTYLE0
 73
     1
 44
1.0
  0
MTEXT
  5
79
330
1F
100
AcDbEntity
  8
VERMASSUNG
100
AcDbMText
 10
13.9329988022
 20
28.8834360957
 30
0.0
 40
3.0
 41
0.0
 71
     1
 72
     1
  1
Flächenspannfutter Weldon_End mill adapter Weldon
  7
SLDTEXTSTYLE0
 73
     1
 44
1.0
  0
MTEXT
  5
7A
330
1F
100
AcDbEntity
  8
VERMASSUNG
100
AcDbMText
 10
98.8601118557
 20
13.8365368761
 30
0.0
 40
2.0
 41
0.0
 71
     1
 72
     1
  1
Datum: 16.02.2018
  7
SLDTEXTSTYLE0
 73
     1
 44
1.0
  0
MTEXT
  5
7B
330
1F
100
AcDbEntity
  8
VERMASSUNG
100
AcDbMText
 10
13.933048693
 20
18.0482802738
 30
0.0
 40
2.0
 41
0.0
 71
     1
 72
     1
  1
KM63 XMZ / Ø10
  7
SLDTEXTSTYLE0
 73
     1
 44
1.0
  0
MTEXT
  5
7C
330
1F
100
AcDbEntity
  8
VERMASSUNG
100
AcDbMText
 10
13.9808475933
 20
13.9090974274
 30
0.0
 40
2.0
 41
0.0
 71
     1
 72
     1
  1
Gewicht: 886g
  7
SLDTEXTSTYLE0
 73
     1
 44
1.0
  0
SPLINE
  5
7D
330
1F
100
AcDbEntity
  8
0
  6
Continuous
 62
     7
370
    25
100
AcDbSpline
210
0.0
220
0.0
230
1.0
 70
     8
 71
     3
 72
     8
 73
     4
 74
     0
 42
0.000000001
 43
0.00000001
 40
0.0
 40
0.0
 40
0.0
 40
0.0
 40
1.0
 40
1.0
 40
1.0
 40
1.0
 10
380.1761775862169
 20
110.7740960577165
 30
0.0
 10
380.1073392160302
 20
110.7110013843976
 30
0.0
 10
380.0389078555741
 20
110.6472790062668
 30
0.0
 10
379.9708915809094
 20
110.5829335739934
 30
0.0
  0
SPLINE
  5
7E
330
1F
100
AcDbEntity
  8
0
  6
Continuous
 62
     7
370
    25
100
AcDbSpline
210
0.0
220
0.0
230
1.0
 70
     8
 71
     3
 72
     8
 73
     4
 74
     0
 42
0.000000001
 43
0.00000001
 40
0.0
 40
0.0
 40
0.0
 40
0.0
 40
1.0
 40
1.0
 40
1.0
 40
1.0
 10
380.4342048274776
 20
110.6048342277891
 30
0.0
 10
380.3475013933172
 20
110.6609951474584
 30
0.0
 10
380.2615033458334
 20
110.7174198837843
 30
0.0
 10
380.1761775862169
 20
110.7740960577165
 30
0.0
  0
ARC
  5
7F
330
1F
100
AcDbEntity
  8
0
  6
Continuous
 62
     7
370
    25
100
AcDbCircle
 10
390.5653176958
 20
115.1440969297
 30
0.0
 40
11.10154736189901
100
AcDbArc
 50
204.1348482805
 51
335.8651517195
  0
SPLINE
  5
80
330
1F
100
AcDbEntity
  8
0
  6
Continuous
 62
     7
370
    25
100
AcDbSpline
210
0.0
220
0.0
230
1.0
 70
     8
 71
     3
 72
     8
 73
     4
 74
     0
 42
0.000000001
 43
0.00000001
 40
0.0
 40
0.0
 40
0.0
 40
0.0
 40
1.0
 40
1.0
 40
1.0
 40
1.0
 10
400.9544578054827
 20
110.7740960577165
 30
0.0
 10
400.8691320458663
 20
110.7174198837843
 30
0.0
 10
400.7831339983824
 20
110.6609951474584
 30
0.0
 10
400.696430564222
 20
110.6048342277891
 30
0.0
  0
SPLINE
  5
81
330
1F
100
AcDbEntity
  8
0
  6
Continuous
 62
     7
370
    25
100
AcDbSpline
210
0.0
220
0.0
230
1.0
 70
     8
 71
     3
 72
     8
 73
     4
 74
     0
 42
0.000000001
 43
0.00000001
 40
0.0
 40
0.0
 40
0.0
 40
0.0
 40
1.0
 40
1.0
 40
1.0
 40
1.0
 10
401.1597438107903
 20
110.5829335739934
 30
0.0
 10
401.0917275361255
 20
110.6472790062668
 30
0.0
 10
401.0232961756694
 20
110.7110013843976
 30
0.0
 10
400.9544578054827
 20
110.7740960577165
 30
0.0
  0
ARC
  5
82
330
1F
100
AcDbEntity
  8
0
  6
Continuous
 62
     7
370
    25
100
AcDbCircle
 10
390.5653176958
 20
115.1440969297
 30
0.0
 40
11.53456006379122
100
AcDbArc
 50
203.2930774359
 51
336.7074733161
  0
ARC
  5
83
330
1F
100
AcDbEntity
  8
0
  6
Continuous
 62
     7
370
    25
100
AcDbCircle
 10
390.5653176958
 20
115.1440969297
 30
0.0
 40
11.10154736189899
100
AcDbArc
 50
29.4783538465
 51
150.5216461535
  0
SPLINE
  5
84
330
1F
100
AcDbEntity
  8
0
  6
Continuous
 62
     7
370
    25
100
AcDbSpline
210
0.0
220
0.0
230
1.0
 70
     8
 71
     3
 72
     8
 73
     4
 74
     0
 42
0.000000001
 43
0.00000001
 40
0.0
 40
0.0
 40
0.0
 40
0.0
 40
1.0
 40
1.0
 40
1.0
 40
1.0
 10
380.5893846465254
 20
120.4223961790705
 30
0.0
 10
380.6922805603493
 20
120.4843647881615
 30
0.0
 10
380.7961202299041
 20
120.5459434403021
 30
0.0
 10
380.9009581181307
 20
120.6071096315736
 30
0.0
  0
SPLINE
  5
85
330
1F
100
AcDbEntity
  8
0
  6
Continuous
 62
     7
370
    25
100
AcDbSpline
210
0.0
220
0.0
230
1.0
 70
     8
 71
     3
 72
     8
 73
     4
 74
     0
 42
0.000000001
 43
0.00000001
 40
0.0
 40
0.0
 40
0.0
 40
0.0
 40
1.0
 40
1.0
 40
1.0
 40
1.0
 10
380.4008482654115
 20
120.5965859999401
 30
0.0
 10
380.4634165737812
 20
120.5381355308326
 30
0.0
 10
380.5262631671449
 20
120.4800715202995
 30
0.0
 10
380.5893846465278
 20
120.4223961790683
 30
0.0
  0
ARC
  5
86
330
1F
100
AcDbEntity
  8
0
  6
Continuous
 62
     7
370
    25
100
AcDbCircle
 10
390.5653176958
 20
115.1440969297
 30
0.0
 40
11.53456006379119
100
AcDbArc
 50
28.2102805322
 51
151.7902347364
  0
SPLINE
  5
87
330
1F
100
AcDbEntity
  8
0
  6
Continuous
 62
     7
370
    25
100
AcDbSpline
210
0.0
220
0.0
230
1.0
 70
     8
 71
     3
 72
     8
 73
     4
 74
     0
 42
0.000000001
 43
0.00000001
 40
0.0
 40
0.0
 40
0.0
 40
0.0
 40
1.0
 40
1.0
 40
1.0
 40
1.0
 10
400.5412507451721
 20
120.4223961790686
 30
0.0
 10
400.6043722245549
 20
120.4800715202997
 30
0.0
 10
400.6672188179186
 20
120.5381355308327
 30
0.0
 10
400.7297871262881
 20
120.5965859999402
 30
0.0
  0
SPLINE
  5
88
330
1F
100
AcDbEntity
  8
0
  6
Continuous
 62
     7
370
    25
100
AcDbSpline
210
0.0
220
0.0
230
1.0
 70
     8
 71
     3
 72
     8
 73
     4
 74
     0
 42
0.000000001
 43
0.00000001
 40
0.0
 40
0.0
 40
0.0
 40
0.0
 40
1.0
 40
1.0
 40
1.0
 40
1.0
 10
400.2296772735689
 20
120.6071096315736
 30
0.0
 10
400.3345151617951
 20
120.5459434403023
 30
0.0
 10
400.4383548313496
 20
120.4843647881619
 30
0.0
 10
400.5412507451731
 20
120.4223961790712
 30
0.0
  0
LINE
  5
89
330
1F
100
AcDbEntity
  8
0
  6
Continuous
 62
     7
370
    25
100
AcDbLine
 10
380.5893846465
 20
120.4223961791
 30
0.0
 11
380.797792968
 21
120.1740969297
 31
0.0
  0
LINE
  5
8A
330
1F
100
AcDbEntity
  8
0
  6
Continuous
 62
     7
370
    25
100
AcDbLine
 10
382.0480062784
 20
120.6071096316
 30
0.0
 11
380.9009581181
 21
120.6071096316
 31
0.0
  0
SPLINE
  5
8B
330
1F
100
AcDbEntity
  8
0
  6
Continuous
 62
     7
370
    25
100
AcDbSpline
210
0.0
220
0.0
230
1.0
 70
     8
 71
     3
 72
     8
 73
     4
 74
     0
 42
0.000000001
 43
0.00000001
 40
0.0000004089325119
 40
0.0000004089325119
 40
0.0000004089325119
 40
0.0000004089325119
 40
0.0015399868451459
 40
0.0015399868451459
 40
0.0015399868451459
 40
0.0015399868451459
 10
382.0480062784209
 20
120.6071096315736
 30
0.0
 10
382.2597675372153
 20
120.5346547489201
 30
0.0
 10
382.4716878604056
 20
120.4623158788916
 30
0.0
 10
382.6838058436199
 20
120.3901223334658
 30
0.0
  0
LINE
  5
8C
330
1F
100
AcDbEntity
  8
0
  6
Continuous
 62
     7
370
    25
100
AcDbLine
 10
382.6838058436
 20
120.3901223335
 30
0.0
 11
382.6919586496
 21
120.3749099192
 31
0.0
  0
LINE
  5
8D
330
1F
100
AcDbEntity
  8
0
  6
Continuous
 62
     7
370
    25
100
AcDbLine
 10
382.6895881623
 20
120.1740970991
 30
0.0
 11
382.6919596474
 21
120.374910053
 31
0.0
  0
LINE
  5
8E
330
1F
100
AcDbEntity
  8
0
  6
Continuous
 62
     7
370
    25
100
AcDbLine
 10
382.6895881623
 20
120.1740969297
 30
0.0
 11
380.797792968
 21
120.1740969297
 31
0.0
  0
SPLINE
  5
8F
330
1F
100
AcDbEntity
  8
0
  6
Continuous
 62
     7
370
    25
100
AcDbSpline
210
0.0
220
0.0
230
1.0
 70
     8
 71
     3
 72
     8
 73
     4
 74
     0
 42
0.000000001
 43
0.00000001
 40
0.0000004028655191
 40
0.0000004028655191
 40
0.0000004028655191
 40
0.0000004028655191
 40
0.0015137684369673
 40
0.0015137684369673
 40
0.0015137684369673
 40
0.0015137684369673
 10
382.1417230387078
 20
110.8218215258969
 30
0.0
 10
381.9350515511565
 20
110.7495275841822
 30
0.0
 10
381.7284325826158
 20
110.6771960982255
 30
0.0
 10
381.5218562078072
 20
110.6048342277891
 30
0.0
  0
LINE
  5
90
330
1F
100
AcDbEntity
  8
0
  6
Continuous
 62
     7
370
    25
100
AcDbLine
 10
381.5218562078
 20
110.6048342278
 30
0.0
 11
380.4342048275
 21
110.6048342278
 31
0.0
  0
LINE
  5
91
330
1F
100
AcDbEntity
  8
0
  6
Continuous
 62
     7
370
    25
100
AcDbLine
 10
380.3992326931
 20
111.0378469297
 30
0.0
 11
380.1761775862
 21
110.7740960577
 31
0.0
  0
LINE
  5
92
330
1F
100
AcDbEntity
  8
0
  6
Continuous
 62
     7
370
    25
100
AcDbLine
 10
382.1668425204
 20
111.0378469297
 30
0.0
 11
380.3994471505
 21
111.0378469297
 31
0.0
  0
LINE
  5
93
330
1F
100
AcDbEntity
  8
0
  6
Continuous
 62
     7
370
    25
100
AcDbLine
 10
382.1774998705
 20
110.8802658946
 30
0.0
 11
382.1668425238
 21
111.037846854
 31
0.0
  0
SPLINE
  5
94
330
1F
100
AcDbEntity
  8
0
  6
Continuous
 62
     7
370
    25
100
AcDbSpline
210
0.0
220
0.0
230
1.0
 70
     8
 71
     3
 72
     8
 73
     4
 74
     0
 42
0.000000001
 43
0.00000001
 40
0.0006523765358269
 40
0.0006523765358269
 40
0.0006523765358269
 40
0.0006523765358269
 40
0.0009043636494504
 40
0.0009043636494504
 40
0.0009043636494504
 40
0.0009043636494504
 10
382.1785999137426
 20
110.8820596233456
 30
0.0
 10
382.1662829192252
 20
110.8619840423634
 30
0.0
 10
382.1539907218211
 20
110.8419046538409
 30
0.0
 10
382.1417230387078
 20
110.8218215258969
 30
0.0
  0
LINE
  5
95
330
1F
100
AcDbEntity
  8
0
  6
Continuous
 62
     7
370
    25
100
AcDbLine
 10
400.9544578055
 20
110.7740960577
 30
0.0
 11
400.7314026986
 21
111.0378469297
 31
0.0
  0
LINE
  5
96
330
1F
100
AcDbEntity
  8
0
  6
Continuous
 62
     7
370
    25
100
AcDbLine
 10
400.6964305642
 20
110.6048342278
 30
0.0
 11
399.6087791839
 21
110.6048342278
 31
0.0
  0
SPLINE
  5
97
330
1F
100
AcDbEntity
  8
0
  6
Continuous
 62
     7
370
    25
100
AcDbSpline
210
0.0
220
0.0
230
1.0
 70
     8
 71
     3
 72
     8
 73
     4
 74
     0
 42
0.000000001
 43
0.00000001
 40
0.0000004024872366
 40
0.0000004024872366
 40
0.0000004024872366
 40
0.0000004024872366
 40
0.0015137680586847
 40
0.0015137680586847
 40
0.0015137680586847
 40
0.0015137680586847
 10
399.6087791838924
 20
110.6048342277891
 30
0.0
 10
399.4022028090838
 20
110.6771960982255
 30
0.0
 10
399.1955838405432
 20
110.7495275841822
 30
0.0
 10
398.9889123529919
 20
110.8218215258969
 30
0.0
  0
SPLINE
  5
98
330
1F
100
AcDbEntity
  8
0
  6
Continuous
 62
     7
370
    25
100
AcDbSpline
210
0.0
220
0.0
230
1.0
 70
     8
 71
     3
 72
     8
 73
     4
 74
     0
 42
0.000000001
 43
0.00000001
 40
0.0000002414707367
 40
0.0000002414707367
 40
0.0000002414707367
 40
0.0000002414707367
 40
0.0002447240690309
 40
0.0002447240690309
 40
0.0002447240690309
 40
0.0002447240690309
 10
398.9889123529919
 20
110.8218215258969
 30
0.0
 10
398.9770100176368
 20
110.8413065518435
 30
0.0
 10
398.965084606425
 20
110.8607880576678
 30
0.0
 10
398.9531358611301
 20
110.8802659811797
 30
0.0
  0
LINE
  5
99
330
1F
100
AcDbEntity
  8
0
  6
Continuous
 62
     7
370
    25
100
AcDbLine
 10
398.9637928535
 20
111.037846854
 30
0.0
 11
398.9531355018
 21
110.8802659261
 31
0.0
  0
LINE
  5
9A
330
1F
100
AcDbEntity
  8
0
  6
Continuous
 62
     7
370
    25
100
AcDbLine
 10
400.7314026986
 20
111.0378469297
 30
0.0
 11
398.9586842622
 21
111.0378469297
 31
0.0
  0
SPLINE
  5
9B
330
1F
100
AcDbEntity
  8
0
  6
Continuous
 62
     7
370
    25
100
AcDbSpline
210
0.0
220
0.0
230
1.0
 70
     8
 71
     3
 72
     8
 73
     4
 74
     0
 42
0.000000001
 43
0.00000001
 40
0.000000410413179
 40
0.000000410413179
 40
0.000000410413179
 40
0.000000410413179
 40
0.0015399883258131
 40
0.0015399883258131
 40
0.0015399883258131
 40
0.0015399883258131
 10
398.4468295480797
 20
120.3901223334658
 30
0.0
 10
398.6589475312941
 20
120.4623158788916
 30
0.0
 10
398.8708678544842
 20
120.5346547489201
 30
0.0
 10
399.0826291132787
 20
120.6071096315736
 30
0.0
  0
LINE
  5
9C
330
1F
100
AcDbEntity
  8
0
  6
Continuous
 62
     7
370
    25
100
AcDbLine
 10
400.2296772736
 20
120.6071096316
 30
0.0
 11
399.0826291133
 21
120.6071096316
 31
0.0
  0
LINE
  5
9D
330
1F
100
AcDbEntity
  8
0
  6
Continuous
 62
     7
370
    25
100
AcDbLine
 10
400.3328424237
 20
120.1740969297
 30
0.0
 11
400.5412507452
 21
120.4223961791
 31
0.0
  0
LINE
  5
9E
330
1F
100
AcDbEntity
  8
0
  6
Continuous
 62
     7
370
    25
100
AcDbLine
 10
400.332652368
 20
120.1740969297
 30
0.0
 11
398.4410474301
 21
120.1740969297
 31
0.0
  0
LINE
  5
9F
330
1F
100
AcDbEntity
  8
0
  6
Continuous
 62
     7
370
    25
100
AcDbLine
 10
398.4386756431
 20
120.3749098644
 30
0.0
 11
398.4410471534
 21
120.1740970991
 31
0.0
  0
LINE
  5
A0
330
1F
100
AcDbEntity
  8
0
  6
Continuous
 62
     7
370
    25
100
AcDbLine
 10
398.438676641
 20
120.3749097306
 30
0.0
 11
398.4468295481
 21
120.3901223335
 31
0.0
  0
ARC
  5
A1
330
1F
100
AcDbEntity
  8
0
  6
Continuous
 62
     7
370
    25
100
AcDbCircle
 10
390.5653176958
 20
115.1440969297
 30
0.0
 40
10.11875
100
AcDbArc
 50
206.6538426687
 51
333.3461573313
  0
ARC
  5
A2
330
1F
100
AcDbEntity
  8
0
  6
Continuous
 62
     7
370
    25
100
AcDbCircle
 10
390.5653176958
 20
115.1440969297
 30
0.0
 40
10.11875000000003
100
AcDbArc
 50
32.6761561262
 51
147.3238438738
  0
ARC
  5
A3
330
1F
100
AcDbEntity
  8
0
  6
Continuous
 62
     7
370
    25
100
AcDbCircle
 10
390.5653176958
 20
115.1440969297
 30
0.0
 40
9.467788105676675
100
AcDbArc
 50
33.6481949792
 51
146.3518050208
  0
ARC
  5
A4
330
1F
100
AcDbEntity
  8
0
  6
Continuous
 62
     7
370
    25
100
AcDbCircle
 10
390.5653176958
 20
115.1440969297
 30
0.0
 40
9.467788105676664
100
AcDbArc
 50
207.1630537883
 51
332.8369462117
  0
SPLINE
  5
A5
330
1F
100
AcDbEntity
  8
0
  6
Continuous
 62
     7
370
    25
100
AcDbSpline
210
0.0
220
0.0
230
1.0
 70
     8
 71
     3
 72
     8
 73
     4
 74
     0
 42
0.000000001
 43
0.00000001
 40
0.0
 40
0.0
 40
0.0
 40
0.0
 40
1.0
 40
1.0
 40
1.0
 40
1.0
 10
379.9708915807194
 20
110.5829335741047
 30
0.0
 10
379.9176487557776
 20
110.5834573003425
 30
0.0
 10
379.864353470162
 20
110.5842553936049
 30
0.0
 10
379.8110079646726
 20
110.5853284415297
 30
0.0
  0
LINE
  5
A6
330
1F
100
AcDbEntity
  8
0
  6
Continuous
 62
     7
370
    25
100
AcDbLine
 10
380.2390955628
 20
111.0378469297
 30
0.0
 11
380.3992326931
 21
111.0378469297
 31
0.0
  0
LINE
  5
A7
330
1F
100
AcDbEntity
  8
0
  6
Continuous
 62
     7
370
    25
100
AcDbLine
 10
400.7314026986
 20
111.0378469297
 30
0.0
 11
400.8915398289
 21
111.0378469297
 31
0.0
  0
SPLINE
  5
A8
330
1F
100
AcDbEntity
  8
0
  6
Continuous
 62
     7
370
    25
100
AcDbSpline
210
0.0
220
0.0
230
1.0
 70
     8
 71
     3
 72
     8
 73
     4
 74
     0
 42
0.000000001
 43
0.00000001
 40
0.0
 40
0.0
 40
0.0
 40
0.0
 40
1.0
 40
1.0
 40
1.0
 40
1.0
 10
401.3196274270271
 20
110.5853284415297
 30
0.0
 10
401.2662819215377
 20
110.5842553936049
 30
0.0
 10
401.2129866359219
 20
110.5834573003425
 30
0.0
 10
401.1597438109802
 20
110.5829335741047
 30
0.0
  0
LINE
  5
A9
330
1F
100
AcDbEntity
  8
0
  6
Continuous
 62
     7
370
    25
100
AcDbLine
 10
380.797792968
 20
120.1740969297
 30
0.0
 11
380.6743759843
 21
120.1740969297
 31
0.0
  0
SPLINE
  5
AA
330
1F
100
AcDbEntity
  8
0
  6
Continuous
 62
     7
370
    25
100
AcDbSpline
210
0.0
220
0.0
230
1.0
 70
     8
 71
     3
 72
     8
 73
     4
 74
     0
 42
0.000000001
 43
0.00000001
 40
0.0
 40
0.0
 40
0.0
 40
0.0
 40
1.0
 40
1.0
 40
1.0
 40
1.0
 10
380.27762677117
 20
120.5945424466177
 30
0.0
 10
380.3187421982119
 20
120.5954113842577
 30
0.0
 10
380.359816492823
 20
120.5960924218406
 30
0.0
 10
380.400848265312
 20
120.596585999902
 30
0.0
  0
SPLINE
  5
AB
330
1F
100
AcDbEntity
  8
0
  6
Continuous
 62
     7
370
    25
100
AcDbSpline
210
0.0
220
0.0
230
1.0
 70
     8
 71
     3
 72
     8
 73
     4
 74
     0
 42
0.000000001
 43
0.00000001
 40
0.0
 40
0.0
 40
0.0
 40
0.0
 40
1.0
 40
1.0
 40
1.0
 40
1.0
 10
400.7297871263876
 20
120.596585999902
 30
0.0
 10
400.7708188988767
 20
120.5960924218406
 30
0.0
 10
400.8118931934877
 20
120.5954113842577
 30
0.0
 10
400.8530086205296
 20
120.5945424466177
 30
0.0
  0
LINE
  5
AC
330
1F
100
AcDbEntity
  8
0
  6
Continuous
 62
     7
370
    25
100
AcDbLine
 10
400.4562594074
 20
120.1740969297
 30
0.0
 11
400.3328424237
 21
120.1740969297
 31
0.0
  0
SPLINE
  5
AD
330
1F
100
AcDbEntity
  8
0
  6
Continuous
 62
     7
370
    25
100
AcDbSpline
210
0.0
220
0.0
230
1.0
 70
     8
 71
     3
 72
     9
 73
     5
 74
     0
 42
0.000000001
 43
0.00000001
 40
0.0
 40
0.0
 40
0.0
 40
0.0
 40
0.4897878789203994
 40
0.9999999999999999
 40
0.9999999999999999
 40
0.9999999999999999
 40
0.9999999999999999
 10
397.6709072605012
 20
120.3672137959191
 30
0.0
 10
397.7972623427224
 20
120.3685325216724
 30
0.0
 10
398.0552415366946
 20
120.3712249642787
 30
0.0
 10
398.309136284984
 20
120.3736650421147
 30
0.0
 10
398.4386764630398
 20
120.374909999403
 30
0.0
  0
ARC
  5
AE
330
1F
100
AcDbEntity
  8
0
  6
Continuous
 62
     7
370
    25
100
AcDbCircle
 10
390.5653176958
 20
115.1440969297
 30
0.0
 40
8.818749999999993
100
AcDbArc
 50
36.3185452201
 51
143.6814533294
  0
SPLINE
  5
AF
330
1F
100
AcDbEntity
  8
0
  6
Continuous
 62
     7
370
    25
100
AcDbSpline
210
0.0
220
0.0
230
1.0
 70
     8
 71
     3
 72
     9
 73
     5
 74
     0
 42
0.000000001
 43
0.00000001
 40
0.0
 40
0.0
 40
0.0
 40
0.0
 40
0.5102121239851395
 40
0.9999999999999999
 40
0.9999999999999999
 40
0.9999999999999999
 40
0.9999999999999999
 10
382.691958827535
 20
120.3749101880073
 30
0.0
 10
382.8214990453858
 20
120.3736652293164
 30
0.0
 10
383.0753938702267
 20
120.3712251487454
 30
0.0
 10
383.3333731432364
 20
120.3685327030522
 30
0.0
 10
383.4597282634197
 20
120.3672139757949
 30
0.0
  0
SPLINE
  5
B0
330
1F
100
AcDbEntity
  8
0
  6
Continuous
 62
     7
370
    25
100
AcDbSpline
210
0.0
220
0.0
230
1.0
 70
     8
 71
     3
 72
     8
 73
     4
 74
     0
 42
0.000000001
 43
0.00000001
 40
0.0
 40
0.0
 40
0.0
 40
0.0
 40
1.0
 40
1.0
 40
1.0
 40
1.0
 10
383.4597280097451
 20
120.3672135065177
 30
0.0
 10
383.4519669517996
 20
120.3566552713186
 30
0.0
 10
383.4442294267038
 20
120.3460797377923
 30
0.0
 10
383.4365155113343
 20
120.3354870110128
 30
0.0
  0
SPLINE
  5
B1
330
1F
100
AcDbEntity
  8
0
  6
Continuous
 62
     7
370
    25
100
AcDbSpline
210
0.0
220
0.0
230
1.0
 70
     8
 71
     3
 72
     8
 73
     4
 74
     0
 42
0.000000001
 43
0.00000001
 40
0.0
 40
0.0
 40
0.0
 40
0.0
 40
1.0
 40
1.0
 40
1.0
 40
1.0
 10
383.2649576785712
 20
120.1740972685496
 30
0.0
 10
383.3222180856057
 20
120.2280054455374
 30
0.0
 10
383.3794044767154
 20
120.2818023706205
 30
0.0
 10
383.4365155113343
 20
120.3354870110128
 30
0.0
  0
LINE
  5
B2
330
1F
100
AcDbEntity
  8
0
  6
Continuous
 62
     7
370
    25
100
AcDbLine
 10
383.2649583783
 20
120.1740969297
 30
0.0
 11
382.6895878856
 21
120.1740969297
 31
0.0
  0
SPLINE
  5
B3
330
1F
100
AcDbEntity
  8
0
  6
Continuous
 62
     7
370
    25
100
AcDbSpline
210
0.0
220
0.0
230
1.0
 70
     8
 71
     3
 72
     8
 73
     4
 74
     0
 42
0.000000001
 43
0.00000001
 40
0.0
 40
0.0
 40
0.0
 40
0.0
 40
1.0
 40
1.0
 40
1.0
 40
1.0
 10
397.6942353121464
 20
120.335328496714
 30
0.0
 10
397.6864831994458
 20
120.3459741733866
 30
0.0
 10
397.6787072407785
 20
120.3566024855808
 30
0.0
 10
397.6709075141751
 20
120.3672133266432
 30
0.0
  0
LINE
  5
B4
330
1F
100
AcDbEntity
  8
0
  6
Continuous
 62
     7
370
    25
100
AcDbLine
 10
398.4410474301
 20
120.1740969297
 30
0.0
 11
397.8656484136
 21
120.1740969297
 31
0.0
  0
SPLINE
  5
B5
330
1F
100
AcDbEntity
  8
0
  6
Continuous
 62
     7
370
    25
100
AcDbSpline
210
0.0
220
0.0
230
1.0
 70
     8
 71
     3
 72
     8
 73
     4
 74
     0
 42
0.000000001
 43
0.00000001
 40
0.0
 40
0.0
 40
0.0
 40
0.0
 40
1.0
 40
1.0
 40
1.0
 40
1.0
 10
397.6942353121464
 20
120.335328496714
 30
0.0
 10
397.7512984398325
 20
120.2816965462982
 30
0.0
 10
397.8084368195628
 20
120.2279524599332
 30
0.0
 10
397.8656491130366
 20
120.174097268683
 30
0.0
  0
ARC
  5
B6
330
1F
100
AcDbEntity
  8
0
  6
Continuous
 62
     7
370
    25
100
AcDbCircle
 10
390.5653176958
 20
115.1440969297
 30
0.0
 40
8.818750000000003
100
AcDbArc
 50
209.2047569376
 51
330.7952430624
  0
SPLINE
  5
B7
330
1F
100
AcDbEntity
  8
0
  6
Continuous
 62
     7
370
    25
100
AcDbSpline
210
0.0
220
0.0
230
1.0
 70
    24
 71
     3
 72
     8
 73
     4
 74
     0
 42
0.000000001
 43
0.00000001
 40
0.0
 40
0.0
 40
0.0
 40
0.0
 40
0.000136040218399
 40
0.000136040218399
 40
0.000136040218399
 40
0.000136040218399
 10
398.3064530926941
 20
110.8845564988302
 30
0.0
 10
398.29201409301
 20
110.8701174991461
 30
0.0
 10
398.2775436406478
 20
110.8556470467838
 30
0.0
 10
398.2630420420963
 20
110.8411454482324
 30
0.0
  0
SPLINE
  5
B8
330
1F
100
AcDbEntity
  8
0
  6
Continuous
 62
     7
370
    25
100
AcDbSpline
210
0.0
220
0.0
230
1.0
 70
     8
 71
     3
 72
     9
 73
     5
 74
     0
 42
0.000000001
 43
0.00000001
 40
0.0
 40
0.0
 40
0.0
 40
0.0
 40
0.5086448740973026
 40
1.0
 40
1.0
 40
1.0
 40
1.0
 10
398.9531358214504
 20
110.8802658930451
 30
0.0
 10
398.8439697724525
 20
110.8809597418901
 30
0.0
 10
398.6293484235368
 20
110.882323854418
 30
0.0
 10
398.4128371108594
 20
110.8838206743558
 30
0.0
 10
398.3064531675594
 20
110.8845561445048
 30
0.0
  0
SPLINE
  5
B9
330
1F
100
AcDbEntity
  8
0
  6
Continuous
 62
     7
370
    25
100
AcDbSpline
210
0.0
220
0.0
230
1.0
 70
     8
 71
     3
 72
     9
 73
     5
 74
     0
 42
0.000000001
 43
0.00000001
 40
0.0
 40
0.0
 40
0.0
 40
0.0
 40
0.4913551252639757
 40
1.0
 40
1.0
 40
1.0
 40
1.0
 10
382.8241822546046
 20
110.8845561140402
 30
0.0
 10
382.7177983032126
 20
110.8838206437114
 30
0.0
 10
382.5012869737849
 20
110.8823238234057
 30
0.0
 10
382.2866656084182
 20
110.8809597105514
 30
0.0
 10
382.1774995509155
 20
110.8802658615395
 30
0.0
  0
SPLINE
  5
BA
330
1F
100
AcDbEntity
  8
0
  6
Continuous
 62
     7
370
    25
100
AcDbSpline
210
0.0
220
0.0
230
1.0
 70
    24
 71
     3
 72
     8
 73
     4
 74
     0
 42
0.000000001
 43
0.00000001
 40
0.0
 40
0.0
 40
0.0
 40
0.0
 40
0.0001360401227241
 40
0.0001360401227241
 40
0.0001360401227241
 40
0.0001360401227241
 10
382.8675933496033
 20
110.8411454482324
 30
0.0
 10
382.8530917612506
 20
110.8556470365851
 30
0.0
 10
382.8386213190434
 20
110.8701174787923
 30
0.0
 10
382.82418232947
 20
110.8845564683657
 30
0.0
  0
LINE
  5
BB
330
1F
100
AcDbEntity
  8
0
  6
Continuous
 62
     7
370
    25
100
AcDbLine
 10
382.1668424018
 20
111.0378469297
 30
0.0
 11
382.6708922739
 21
111.0378469297
 31
0.0
  0
SPLINE
  5
BC
330
1F
100
AcDbEntity
  8
0
  6
Continuous
 62
     7
370
    25
100
AcDbSpline
210
0.0
220
0.0
230
1.0
 70
     8
 71
     3
 72
     8
 73
     4
 74
     0
 42
0.000000001
 43
0.00000001
 40
0.0
 40
0.0
 40
0.0
 40
0.0
 40
1.0
 40
1.0
 40
1.0
 40
1.0
 10
382.8241825293019
 20
110.8845562687786
 30
0.0
 10
382.7731137666975
 20
110.9355987605226
 30
0.0
 10
382.7220168070616
 20
110.9866957325486
 30
0.0
 10
382.6708919655459
 20
111.0378468322898
 30
0.0
  0
SPLINE
  5
BD
330
1F
100
AcDbEntity
  8
0
  6
Continuous
 62
     7
370
    25
100
AcDbSpline
210
0.0
220
0.0
230
1.0
 70
     8
 71
     3
 72
     8
 73
     4
 74
     0
 42
0.000000001
 43
0.00000001
 40
0.0
 40
0.0
 40
0.0
 40
0.0
 40
1.0
 40
1.0
 40
1.0
 40
1.0
 10
398.4597434261538
 20
111.0378468322899
 30
0.0
 10
398.4086185948085
 20
110.9866957427346
 30
0.0
 10
398.3575216453275
 20
110.9355987808636
 30
0.0
 10
398.3064528928622
 20
110.8845562992431
 30
0.0
  0
LINE
  5
BE
330
1F
100
AcDbEntity
  8
0
  6
Continuous
 62
     7
370
    25
100
AcDbLine
 10
398.4597431178
 20
111.0378469297
 30
0.0
 11
398.9637929755
 21
111.0378469297
 31
0.0
  0
CIRCLE
  5
BF
330
1F
100
AcDbEntity
  8
0
  6
Continuous
 62
     7
370
    25
100
AcDbCircle
 10
390.5653176958
 20
115.1440969297
 30
0.0
 40
12.47086902276413
  0
SPLINE
  5
C0
330
1F
100
AcDbEntity
  8
0
  6
Continuous
 62
     7
370
    25
100
AcDbSpline
210
0.0
220
0.0
230
1.0
 70
     8
 71
     3
 72
    23
 73
    19
 74
     0
 42
0.000000001
 43
0.00000001
 40
0.0
 40
0.0
 40
0.0
 40
0.0
 40
0.0521036415675031
 40
0.1035646240925967
 40
0.1544751946736949
 40
0.2049306267473421
 40
0.2550287880844035
 40
0.3048696389141012
 40
0.3545546704609132
 40
0.4041862979523234
 40
0.4538672252126086
 40
0.5036997999421611
 40
0.5901870230746071
 40
0.674271637822954
 40
0.7565997087222995
 40
0.8378563983721267
 40
0.9187511781367398
 40
1.0
 40
1.0
 40
1.0
 40
1.0
 10
379.7260655491923
 20
119.6345076424313
 30
0.0
 10
379.739359904142
 20
119.6636755355928
 30
0.0
 10
379.7657846382202
 20
119.7216515579968
 30
0.0
 10
379.8049956444441
 20
119.8045508590088
 30
0.0
 10
379.8434375992497
 20
119.8837328400263
 30
0.0
 10
379.8810251807164
 20
119.9589876568283
 30
0.0
 10
379.917681067024
 20
120.030407311086
 30
0.0
 10
379.9533309310826
 20
120.0980039198676
 30
0.0
 10
379.9879046778438
 20
120.1618102413321
 30
0.0
 10
380.0213363717998
 20
120.2218537834013
 30
0.0
 10
380.0535632490247
 20
120.278160480128
 30
0.0
 10
380.0920646859144
 20
120.3435654619517
 30
0.0
 10
380.1347261666278
 20
120.4131265397878
 30
0.0
 10
380.1782192087508
 20
120.4798860364523
 30
0.0
 10
380.2146317055788
 20
120.53161008455
 30
0.0
 10
380.243532512056
 20
120.5680583966019
 30
0.0
 10
380.2654499681543
 20
120.5906557934851
 30
0.0
 10
380.2735619326476
 20
120.5932450110464
 30
0.0
 10
380.27762677117
 20
120.5945424466177
 30
0.0
  0
SPLINE
  5
C1
330
1F
100
AcDbEntity
  8
0
  6
Continuous
 62
     7
370
    25
100
AcDbSpline
210
0.0
220
0.0
230
1.0
 70
     8
 71
     3
 72
     8
 73
     4
 74
     0
 42
0.000000001
 43
0.00000001
 40
0.0
 40
0.0
 40
0.0
 40
0.0
 40
1.0
 40
1.0
 40
1.0
 40
1.0
 10
379.6054276093295
 20
119.6322972850214
 30
0.0
 10
379.6456166229225
 20
119.633027595239
 30
0.0
 10
379.6857789250125
 20
119.6336081210685
 30
0.0
 10
379.7259136354881
 20
119.6340390860182
 30
0.0
  0
SPLINE
  5
C2
330
1F
100
AcDbEntity
  8
0
  6
Continuous
 62
     7
370
    25
100
AcDbSpline
210
0.0
220
0.0
230
1.0
 70
     8
 71
     3
 72
    18
 73
    14
 74
     0
 42
0.000000001
 43
0.00000001
 40
0.0
 40
0.0
 40
0.0
 40
0.0
 40
0.0923824559411628
 40
0.1844689291573508
 40
0.2764953615950219
 40
0.3686975365494161
 40
0.4613092840003458
 40
0.5545607518442569
 40
0.6486768051537182
 40
0.7438756050146744
 40
0.8403674044302629
 40
0.9203921078121001
 40
1.0
 40
1.0
 40
1.0
 40
1.0
 10
379.658366598129
 20
119.8991142919033
 30
0.0
 10
379.6602022517816
 20
119.8989059796881
 30
0.0
 10
379.6638676778646
 20
119.8984900226659
 30
0.0
 10
379.6666630074837
 20
119.8916855991998
 30
0.0
 10
379.6674653025623
 20
119.8803522205476
 30
0.0
 10
379.6660991655191
 20
119.8640518255211
 30
0.0
 10
379.6626376168902
 20
119.8429005866852
 30
0.0
 10
379.6570963111208
 20
119.8168648855687
 30
0.0
 10
379.6495118430519
 20
119.7859405059175
 30
0.0
 10
379.6399348411151
 20
119.7501414744728
 30
0.0
 10
379.6290943650963
 20
119.7118905669416
 30
0.0
 10
379.6176057241573
 20
119.6726723535473
 30
0.0
 10
379.6095057392792
 20
119.6458173766978
 30
0.0
 10
379.6054663216365
 20
119.6324249483275
 30
0.0
  0
LINE
  5
C3
330
1F
100
AcDbEntity
  8
0
  6
Continuous
 62
     7
370
    25
100
AcDbLine
 10
379.6056112389
 20
119.8983665745
 30
0.0
 11
379.6583665981
 21
119.8991142919
 31
0.0
  0
SPLINE
  5
C4
330
1F
100
AcDbEntity
  8
0
  6
Continuous
 62
     7
370
    25
100
AcDbSpline
210
0.0
220
0.0
230
1.0
 70
     8
 71
     3
 72
    25
 73
    21
 74
     0
 42
0.000000001
 43
0.00000001
 40
0.0
 40
0.0
 40
0.0
 40
0.0
 40
0.0280105225426465
 40
0.0559601148860768
 40
0.0839014045043132
 40
0.1118870776786367
 40
0.1399695827588937
 40
0.1682008401739883
 40
0.196631967042422
 40
0.2253130233141467
 40
0.2542927850735845
 40
0.3799486436587335
 40
0.5057850221667067
 40
0.6313085886338298
 40
0.7532068238012468
 40
0.8039473267955921
 40
0.8535894438554446
 40
0.9025339722394071
 40
0.9511970353791085
 40
1.0
 40
1.0
 40
1.0
 40
1.0
 10
378.6946498310762
 20
117.3314346722157
 30
0.0
 10
378.7016289009871
 20
117.3687446857224
 30
0.0
 10
378.7155718595099
 20
117.4432835537161
 30
0.0
 10
378.7380937569528
 20
117.5545925991992
 30
0.0
 10
378.7617273690503
 20
117.6652548082137
 30
0.0
 10
378.7865769595383
 20
117.775238941158
 30
0.0
 10
378.8125955840246
 20
117.8845340847725
 30
0.0
 10
378.8397769653425
 20
117.9931250539747
 30
0.0
 10
378.868102606675
 20
118.1009957639171
 30
0.0
 10
378.8975613875076
 20
118.2081407096421
 30
0.0
 10
378.9619696754197
 20
118.432315596154
 30
0.0
 10
379.0670713674916
 20
118.75898101019
 30
0.0
 10
379.2125341282877
 20
119.1449276155098
 30
0.0
 10
379.3517975363975
 20
119.4670074282
 30
0.0
 10
379.448945889265
 20
119.6628280122317
 30
0.0
 10
379.5092412954913
 20
119.772175462715
 30
0.0
 10
379.5441298783725
 20
119.8301034871304
 30
0.0
 10
379.5720243803004
 20
119.8705574398954
 30
0.0
 10
379.5933894726721
 20
119.8951716552943
 30
0.0
 10
379.6015334202447
 20
119.897300582802
 30
0.0
 10
379.6056112388898
 20
119.8983665744734
 30
0.0
  0
ARC
  5
C5
330
1F
100
AcDbEntity
  8
0
  6
Continuous
 62
     7
370
    25
100
AcDbCircle
 10
390.5653176958
 20
115.1440969297
 30
0.0
 40
12.07050959801136
100
AcDbArc
 50
169.5595567507
 51
190.4404432494
  0
SPLINE
  5
C6
330
1F
100
AcDbEntity
  8
0
  6
Continuous
 62
     7
370
    25
100
AcDbSpline
210
0.0
220
0.0
230
1.0
 70
     8
 71
     3
 72
    26
 73
    22
 74
     0
 42
0.000000001
 43
0.00000001
 40
0.0
 40
0.0
 40
0.0
 40
0.0
 40
0.0241259796963635
 40
0.0482159912272988
 40
0.0723203915124065
 40
0.0964895678710797
 40
0.1207736231963513
 40
0.1452220711242836
 40
0.1698835501657706
 40
0.1948055644472379
 40
0.2200342569517627
 40
0.2456142191611387
 40
0.3690971486901655
 40
0.4940698769485187
 40
0.6192566784762451
 40
0.7454656653603225
 40
0.7971495824713707
 40
0.8481710308405392
 40
0.8988013269235234
 40
0.9493179290492194
 40
1.0
 40
1.0
 40
1.0
 40
1.0
 10
379.6056112388898
 20
110.3898272848893
 30
0.0
 10
379.6037009241493
 20
110.3901141780787
 30
0.0
 10
379.5998831426571
 20
110.3906875367435
 30
0.0
 10
379.5919230174762
 20
110.3967462249899
 30
0.0
 10
379.5823439169008
 20
110.4066254857208
 30
0.0
 10
379.5709967100321
 20
110.4207065768312
 30
0.0
 10
379.5579405267382
 20
110.4389021248553
 30
0.0
 10
379.5431846235109
 20
110.461252667594
 30
0.0
 10
379.5267574432135
 20
110.487766903286
 30
0.0
 10
379.5086892884933
 20
110.5184624139993
 30
0.0
 10
379.4890121420703
 20
110.5533635172392
 30
0.0
 10
379.440812760642
 20
110.642128052347
 30
0.0
 10
379.3524947212067
 20
110.8194083537958
 30
0.0
 10
379.2134351044398
 20
111.1404942606409
 30
0.0
 10
379.0677624245777
 20
111.5270769125314
 30
0.0
 10
378.9540238295683
 20
111.8807846166613
 30
0.0
 10
378.8743182110217
 20
112.1630383162741
 30
0.0
 10
378.8236686386674
 20
112.3574817470484
 30
0.0
 10
378.7767019688021
 20
112.5547231239825
 30
0.0
 10
378.7331421467977
 20
112.7546261690777
 30
0.0
 10
378.7074945816661
 20
112.8893081088099
 30
0.0
 10
378.6946498310762
 20
112.9567591871471
 30
0.0
  0
LINE
  5
C7
330
1F
100
AcDbEntity
  8
0
  6
Continuous
 62
     7
370
    25
100
AcDbLine
 10
379.6583665981
 20
110.3890795675
 30
0.0
 11
379.6056112389
 21
110.3898272849
 31
0.0
  0
SPLINE
  5
C8
330
1F
100
AcDbEntity
  8
0
  6
Continuous
 62
     7
370
    25
100
AcDbSpline
210
0.0
220
0.0
230
1.0
 70
     8
 71
     3
 72
    14
 73
    10
 74
     0
 42
0.000000001
 43
0.00000001
 40
0.0
 40
0.0
 40
0.0
 40
0.0
 40
0.0789261963172865
 40
0.158232872055133
 40
0.330847539457262
 40
0.5000195457610529
 40
0.6670357883572423
 40
0.8332395193657144
 40
1.0
 40
1.0
 40
1.0
 40
1.0
 10
379.6053697412771
 20
110.6561030447641
 30
0.0
 10
379.6093842878732
 20
110.6427999201264
 30
0.0
 10
379.6174327339853
 20
110.616129540494
 30
0.0
 10
379.6323334407948
 20
110.5653148011742
 30
0.0
 10
379.6482304223913
 20
110.5082749849873
 30
0.0
 10
379.6613089173891
 20
110.4539717682593
 30
0.0
 10
379.6675415245064
 20
110.4158046255365
 30
0.0
 10
379.6673519446695
 20
110.3923958968596
 30
0.0
 10
379.6613650505387
 20
110.3901862421811
 30
0.0
 10
379.658366598129
 20
110.3890795674594
 30
0.0
  0
SPLINE
  5
C9
330
1F
100
AcDbEntity
  8
0
  6
Continuous
 62
     7
370
    25
100
AcDbSpline
210
0.0
220
0.0
230
1.0
 70
     8
 71
     3
 72
     8
 73
     4
 74
     0
 42
0.000000001
 43
0.00000001
 40
0.0
 40
0.0
 40
0.0
 40
0.0
 40
1.0
 40
1.0
 40
1.0
 40
1.0
 10
379.7526744325016
 20
110.6540419663136
 30
0.0
 10
379.7036065174728
 20
110.6545290195256
 30
0.0
 10
379.654497079952
 20
110.6552400874004
 30
0.0
 10
379.6053477354267
 20
110.6561755806348
 30
0.0
  0
SPLINE
  5
CA
330
1F
100
AcDbEntity
  8
0
  6
Continuous
 62
     7
370
    25
100
AcDbSpline
210
0.0
220
0.0
230
1.0
 70
     8
 71
     3
 72
    13
 73
     9
 74
     0
 42
0.000000001
 43
0.00000001
 40
0.0
 40
0.0
 40
0.0
 40
0.0
 40
0.1667030582307992
 40
0.3329480818053035
 40
0.4990671507274896
 40
0.6653938523718403
 40
0.832261271055009
 40
1.0
 40
1.0
 40
1.0
 40
1.0
 10
379.8110079646726
 20
110.5853284415297
 30
0.0
 10
379.8091646508356
 20
110.5857455512955
 30
0.0
 10
379.8054830878658
 20
110.5865786247729
 30
0.0
 10
379.7979658340712
 20
110.5925931035993
 30
0.0
 10
379.7890150299548
 20
110.6020878358915
 30
0.0
 10
379.7784647415318
 20
110.6154974430011
 30
0.0
 10
379.7664915560147
 20
110.6324153466247
 30
0.0
 10
379.7572851484084
 20
110.6468280817641
 30
0.0
 10
379.7526699579196
 20
110.6540532146257
 30
0.0
  0
SPLINE
  5
CB
330
1F
100
AcDbEntity
  8
0
  6
Continuous
 62
     7
370
    25
100
AcDbSpline
210
0.0
220
0.0
230
1.0
 70
     8
 71
     3
 72
    13
 73
     9
 74
     0
 42
0.000000001
 43
0.00000001
 40
0.0
 40
0.0
 40
0.0
 40
0.0
 40
0.1686319999748085
 40
0.3360343310905433
 40
0.502536782590866
 40
0.6684737453788339
 40
0.834182263691515
 40
1.0
 40
1.0
 40
1.0
 40
1.0
 10
401.3779668148981
 20
110.6540566644385
 30
0.0
 10
401.3733295697999
 20
110.6467995044191
 30
0.0
 10
401.3640888945135
 20
110.6323381037768
 30
0.0
 10
401.3520735211465
 20
110.6153574070727
 30
0.0
 10
401.3415079673918
 20
110.6019246258932
 30
0.0
 10
401.3325686180988
 20
110.5924451573392
 30
0.0
 10
401.3250877375103
 20
110.5864799316414
 30
0.0
 10
401.3214479302209
 20
110.585712355857
 30
0.0
 10
401.3196274270271
 20
110.5853284415297
 30
0.0
  0
SPLINE
  5
CC
330
1F
100
AcDbEntity
  8
0
  6
Continuous
 62
     7
370
    25
100
AcDbSpline
210
0.0
220
0.0
230
1.0
 70
     8
 71
     3
 72
     8
 73
     4
 74
     0
 42
0.000000001
 43
0.00000001
 40
0.0
 40
0.0
 40
0.0
 40
0.0
 40
1.0
 40
1.0
 40
1.0
 40
1.0
 10
401.5252924268706
 20
110.6561756853812
 30
0.0
 10
401.4761414972623
 20
110.6552401551192
 30
0.0
 10
401.427030477183
 20
110.6545290646072
 30
0.0
 10
401.3779609822752
 20
110.6540420031092
 30
0.0
  0
SPLINE
  5
CD
330
1F
100
AcDbEntity
  8
0
  6
Continuous
 62
     7
370
    25
100
AcDbSpline
210
0.0
220
0.0
230
1.0
 70
     8
 71
     3
 72
    18
 73
    14
 74
     0
 42
0.000000001
 43
0.00000001
 40
0.0
 40
0.0
 40
0.0
 40
0.0
 40
0.0923325137111192
 40
0.1843692047063016
 40
0.2763458873810836
 40
0.3684982175655623
 40
0.4610598988303626
 40
0.554260954653301
 40
0.6483261285442131
 40
0.74347346365053
 40
0.8399130993119804
 40
0.9201660718299768
 40
1.0
 40
1.0
 40
1.0
 40
1.0
 10
401.4722687935706
 20
110.3890795674594
 30
0.0
 10
401.4704331399182
 20
110.3892878796752
 30
0.0
 10
401.4667677138356
 20
110.3897038366985
 30
0.0
 10
401.4639723842133
 20
110.3965082601558
 30
0.0
 10
401.4631700891465
 20
110.4078416388417
 30
0.0
 10
401.4645362261458
 20
110.424142033742
 30
0.0
 10
401.4679977749398
 20
110.4452932730521
 30
0.0
 10
401.4735390800862
 20
110.4713289723797
 30
0.0
 10
401.4811235505135
 20
110.5022533588024
 30
0.0
 10
401.4907005434939
 20
110.5380523645305
 30
0.0
 10
401.5015518905197
 20
110.5763416096442
 30
0.0
 10
401.5130666521516
 20
110.6156472340608
 30
0.0
 10
401.5211983609727
 20
110.6426043119545
 30
0.0
 10
401.5252535725805
 20
110.656047569404
 30
0.0
  0
LINE
  5
CE
330
1F
100
AcDbEntity
  8
0
  6
Continuous
 62
     7
370
    25
100
AcDbLine
 10
401.5250241528
 20
110.3898272849
 30
0.0
 11
401.4722687936
 21
110.3890795675
 31
0.0
  0
SPLINE
  5
CF
330
1F
100
AcDbEntity
  8
0
  6
Continuous
 62
     7
370
    25
100
AcDbSpline
210
0.0
220
0.0
230
1.0
 70
     8
 71
     3
 72
    25
 73
    21
 74
     0
 42
0.000000001
 43
0.00000001
 40
0.0
 40
0.0
 40
0.0
 40
0.0
 40
0.0280105225422753
 40
0.0559601148854256
 40
0.0839014045034749
 40
0.1118870776777086
 40
0.1399695827579646
 40
0.1682008401731476
 40
0.1966319670417595
 40
0.2253130233137476
 40
0.2542927850735311
 40
0.3799486436564626
 40
0.5057850221666382
 40
0.631308588631066
 40
0.7532068238011618
 40
0.8039473267946936
 40
0.8535894438541253
 40
0.9025339722380873
 40
0.9511970353782256
 40
1.0
 40
1.0
 40
1.0
 40
1.0
 10
402.4359855606235
 20
112.9567591871471
 30
0.0
 10
402.4290064907127
 20
112.9194491736408
 30
0.0
 10
402.41506353219
 20
112.8449103056481
 30
0.0
 10
402.3925416347474
 20
112.733601260166
 30
0.0
 10
402.36890802265
 20
112.6229390511523
 30
0.0
 10
402.3440584321621
 20
112.5129549182083
 30
0.0
 10
402.3180398076759
 20
112.4036597745938
 30
0.0
 10
402.2908584263579
 20
112.2950688053913
 30
0.0
 10
402.2625327850253
 20
112.1871980954482
 30
0.0
 10
402.2330740041924
 20
112.0800531497221
 30
0.0
 10
402.1686657162808
 20
111.8558782632116
 30
0.0
 10
402.063564024209
 20
111.5292128491755
 30
0.0
 10
401.9181012634137
 20
111.1432662438575
 30
0.0
 10
401.7788378553032
 20
110.8211864311648
 30
0.0
 10
401.6816895024359
 20
110.6253658471338
 30
0.0
 10
401.6213940962083
 20
110.5160183966473
 30
0.0
 10
401.5865055133273
 20
110.4580903722321
 30
0.0
 10
401.5586110113994
 20
110.4176364194672
 30
0.0
 10
401.5372459190277
 20
110.3930222040683
 30
0.0
 10
401.529101971455
 20
110.3908932765607
 30
0.0
 10
401.5250241528098
 20
110.3898272848893
 30
0.0
  0
ARC
  5
D0
330
1F
100
AcDbEntity
  8
0
  6
Continuous
 62
     7
370
    25
100
AcDbCircle
 10
390.5653176958
 20
115.1440969297
 30
0.0
 40
12.07050959801141
100
AcDbArc
 50
349.5595567507
 51
10.4404432493
  0
SPLINE
  5
D1
330
1F
100
AcDbEntity
  8
0
  6
Continuous
 62
     7
370
    25
100
AcDbSpline
210
0.0
220
0.0
230
1.0
 70
     8
 71
     3
 72
    26
 73
    22
 74
     0
 42
0.000000001
 43
0.00000001
 40
0.0
 40
0.0
 40
0.0
 40
0.0
 40
0.0241259796962591
 40
0.0482159912271133
 40
0.0723203915121637
 40
0.0964895678708023
 40
0.1207736231960627
 40
0.1452220711240065
 40
0.1698835501655268
 40
0.1948055644470484
 40
0.220034256951649
 40
0.2456142191611191
 40
0.3690971486898426
 40
0.4940698769485092
 40
0.6192566784753767
 40
0.7454656653602836
 40
0.7971495824708205
 40
0.848171030839725
 40
0.8988013269227118
 40
0.9493179290486752
 40
1.0
 40
1.0
 40
1.0
 40
1.0
 10
401.5250241528098
 20
119.8983665744734
 30
0.0
 10
401.5269344675503
 20
119.898079681284
 30
0.0
 10
401.5307522490425
 20
119.8975063226193
 30
0.0
 10
401.5387123742233
 20
119.8914476343728
 30
0.0
 10
401.5482914747988
 20
119.881568373642
 30
0.0
 10
401.5596386816674
 20
119.8674872825316
 30
0.0
 10
401.5726948649613
 20
119.8492917345074
 30
0.0
 10
401.5874507681887
 20
119.8269411917687
 30
0.0
 10
401.6038779484861
 20
119.8004269560766
 30
0.0
 10
401.6219461032063
 20
119.7697314453634
 30
0.0
 10
401.6416232496293
 20
119.7348303421234
 30
0.0
 10
401.6898226310574
 20
119.6460658070162
 30
0.0
 10
401.7781406704928
 20
119.4687855055674
 30
0.0
 10
401.9172002872593
 20
119.147699598723
 30
0.0
 10
402.0628729671217
 20
118.7611169468318
 30
0.0
 10
402.1766115621309
 20
118.4074092427029
 30
0.0
 10
402.2563171806775
 20
118.1251555430905
 30
0.0
 10
402.3069667530315
 20
117.9307121123172
 30
0.0
 10
402.3539334228969
 20
117.7334707353831
 30
0.0
 10
402.3974932449016
 20
117.5335676902869
 30
0.0
 10
402.4231408100333
 20
117.3988857505535
 30
0.0
 10
402.4359855606235
 20
117.3314346722157
 30
0.0
  0
LINE
  5
D2
330
1F
100
AcDbEntity
  8
0
  6
Continuous
 62
     7
370
    25
100
AcDbLine
 10
401.4722687936
 20
119.8991142919
 30
0.0
 11
401.5250241528
 21
119.8983665745
 31
0.0
  0
SPLINE
  5
D3
330
1F
100
AcDbEntity
  8
0
  6
Continuous
 62
     7
370
    25
100
AcDbSpline
210
0.0
220
0.0
230
1.0
 70
     8
 71
     3
 72
    14
 73
    10
 74
     0
 42
0.000000001
 43
0.00000001
 40
0.0
 40
0.0
 40
0.0
 40
0.0
 40
0.0786889129232242
 40
0.1577561817122941
 40
0.3304686003115578
 40
0.4997364082435315
 40
0.6668472316653192
 40
0.8331450833767118
 40
1.0
 40
1.0
 40
1.0
 40
1.0
 10
401.5251770803474
 20
119.6323827826858
 30
0.0
 10
401.5211790713928
 20
119.6456326872016
 30
0.0
 10
401.5131638300621
 20
119.6721962050699
 30
0.0
 10
401.4982911567726
 20
119.7229177328387
 30
0.0
 10
401.4824049920104
 20
119.7799188118625
 30
0.0
 10
401.4693264683661
 20
119.8342221074716
 30
0.0
 10
401.463093868761
 20
119.8723892295089
 30
0.0
 10
401.4632834466374
 20
119.8957979635844
 30
0.0
 10
401.4692703410299
 20
119.8980076175425
 30
0.0
 10
401.4722687935706
 20
119.8991142919033
 30
0.0
  0
SPLINE
  5
D4
330
1F
100
AcDbEntity
  8
0
  6
Continuous
 62
     7
370
    25
100
AcDbSpline
210
0.0
220
0.0
230
1.0
 70
     8
 71
     3
 72
     8
 73
     4
 74
     0
 42
0.000000001
 43
0.00000001
 40
0.0
 40
0.0
 40
0.0
 40
0.0
 40
1.0
 40
1.0
 40
1.0
 40
1.0
 10
401.4047217396646
 20
119.6340391226511
 30
0.0
 10
401.4448548581713
 20
119.6336081687038
 30
0.0
 10
401.4850155660998
 20
119.6330276656913
 30
0.0
 10
401.5252029834429
 20
119.6322973901317
 30
0.0
  0
SPLINE
  5
D5
330
1F
100
AcDbEntity
  8
0
  6
Continuous
 62
     7
370
    25
100
AcDbSpline
210
0.0
220
0.0
230
1.0
 70
     8
 71
     3
 72
    23
 73
    19
 74
     0
 42
0.000000001
 43
0.00000001
 40
0.0
 40
0.0
 40
0.0
 40
0.0
 40
0.0441308420121292
 40
0.0880968635211716
 40
0.1320155028408941
 40
0.1760048571434164
 40
0.2201827305793597
 40
0.2646656976937351
 40
0.3095682184569769
 40
0.355001836559425
 40
0.401074485474427
 40
0.4478899182339682
 40
0.4955472680213688
 40
0.5953670562452651
 40
0.6949121173401501
 40
0.7950007648984784
 40
0.8964386255170008
 40
1.0
 40
1.0
 40
1.0
 40
1.0
 10
400.8530086205296
 20
120.5945424466177
 30
0.0
 10
400.8549930106363
 20
120.5942595893878
 30
0.0
 10
400.8589543795213
 20
120.5936949313472
 30
0.0
 10
400.8678146837518
 20
120.5872755781685
 30
0.0
 10
400.8787871618741
 20
120.5767543286619
 30
0.0
 10
400.8920665598945
 20
120.5617227923522
 30
0.0
 10
400.9075772835608
 20
120.5422705472898
 30
0.0
 10
400.9253087453139
 20
120.5183505693377
 30
0.0
 10
400.9452253920171
 20
120.4899494786238
 30
0.0
 10
400.9672909260292
 20
120.4570417388232
 30
0.0
 10
400.9914618497234
 20
120.419601756167
 30
0.0
 10
401.0176888597706
 20
120.3776016845371
 30
0.0
 10
401.0560254400017
 20
120.314324576014
 30
0.0
 10
401.1083582193801
 20
120.2242657136508
 30
0.0
 10
401.1767588305883
 20
120.099919594084
 30
0.0
 10
401.2494439053838
 20
119.9602065161035
 30
0.0
 10
401.3258041412836
 20
119.8058705008752
 30
0.0
 10
401.3780929559339
 20
119.6921478466474
 30
0.0
 10
401.4045081838374
 20
119.634697513353
 30
0.0
  0
SPLINE
  5
D6
330
1F
100
AcDbEntity
  8
0
  6
Continuous
 62
     7
370
    25
100
AcDbSpline
210
0.0
220
0.0
230
1.0
 70
    11
 71
     3
 72
    39
 73
    35
 74
     0
 42
0.000000001
 43
0.00000001
 40
0.0
 40
0.0
 40
0.0
 40
0.0
 40
0.0310664058348413
 40
0.0621048158426138
 40
0.0931361551796939
 40
0.1235538293503726
 40
0.1538561545809849
 40
0.1850588072749156
 40
0.2160250992946587
 40
0.2471867223797568
 40
0.2784462884304475
 40
0.3100516090231247
 40
0.3419834369138969
 40
0.3734259894013238
 40
0.4048604886787081
 40
0.436874065183343
 40
0.4685120685926471
 40
0.499805535863323
 40
0.5309508213226204
 40
0.5618649784438111
 40
0.5930416446590877
 40
0.623374245013332
 40
0.6540913579072549
 40
0.6849496782718453
 40
0.7158160645166705
 40
0.7471731804043553
 40
0.7784514311866318
 40
0.810129591156098
 40
0.8419598919688388
 40
0.8735175891922303
 40
0.9050808037886594
 40
0.9370235169792582
 40
0.9687441590030581
 40
1.0
 40
1.0
 40
1.0
 40
1.0
 10
393.4694442606472
 20
103.7124667459279
 30
0.0
 10
393.6591560896019
 20
103.7512353226754
 30
0.0
 10
394.0028969400506
 20
103.8276662684585
 30
0.0
 10
394.3858539272583
 20
103.9158058084517
 30
0.0
 10
394.6302943939734
 20
103.9627552950967
 30
0.0
 10
394.7112833307896
 20
103.9508463703829
 30
0.0
 10
394.6305608853079
 20
103.8788884636674
 30
0.0
 10
394.3906986916883
 20
103.7543681974701
 30
0.0
 10
394.014048957591
 20
103.5969992076449
 30
0.0
 10
393.5078060207632
 20
103.4249751229499
 30
0.0
 10
392.8905316270798
 20
103.2600507153643
 30
0.0
 10
392.1780558129399
 20
103.1223381392857
 30
0.0
 10
391.4025905731673
 20
103.0307053267771
 30
0.0
 10
390.5921261395531
 20
102.9973727486816
 30
0.0
 10
389.7796216665906
 20
103.0266201942349
 30
0.0
 10
389.0001086764535
 20
103.1149491512224
 30
0.0
 10
388.281780377118
 20
103.2504546508573
 30
0.0
 10
387.658408269718
 20
103.4142311723486
 30
0.0
 10
387.1453096751224
 20
103.5862373164939
 30
0.0
 10
386.760107565261
 20
103.745049330965
 30
0.0
 10
386.5106829600199
 20
103.8723082961305
 30
0.0
 10
386.4200809200735
 20
103.9479152530855
 30
0.0
 10
386.4882924910327
 20
103.9646846497654
 30
0.0
 10
386.7205083574355
 20
103.9219043075501
 30
0.0
 10
387.0977253946197
 20
103.8347776226402
 30
0.0
 10
387.6094302623874
 20
103.7200485673333
 30
0.0
 10
388.2329013931342
 20
103.6006264222807
 30
0.0
 10
388.949446096267
 20
103.4960009722314
 30
0.0
 10
389.727777208878
 20
103.4253524793046
 30
0.0
 10
390.539608695728
 20
103.3992736548745
 30
0.0
 10
391.353383217725
 20
103.4222992265653
 30
0.0
 10
392.1357570618905
 20
103.4905316647029
 30
0.0
 10
392.8577700966244
 20
103.5937788444127
 30
0.0
 10
393.2785756164735
 20
103.6734617681092
 30
0.0
 10
393.4694442606471
 20
103.7124667459279
 30
0.0
  0
SPLINE
  5
D7
330
1F
100
AcDbEntity
  8
0
  6
Continuous
 62
     7
370
    25
100
AcDbSpline
210
0.0
220
0.0
230
1.0
 70
    11
 71
     3
 72
    39
 73
    35
 74
     0
 42
0.000000001
 43
0.00000001
 40
0.0
 40
0.0
 40
0.0
 40
0.0
 40
0.0312651429934057
 40
0.0629601069329321
 40
0.0948697276489808
 40
0.1264264963751833
 40
0.1579651393672472
 40
0.1898765439016956
 40
0.221552335268876
 40
0.2527844076550827
 40
0.2838418966734154
 40
0.3148645781100674
 40
0.3459127639308091
 40
0.3763475365526575
 40
0.4066751324671412
 40
0.4379141187435632
 40
0.4688932367345488
 40
0.5000738678969536
 40
0.5313369410958942
 40
0.5629183719104849
 40
0.5948445736343699
 40
0.6262809966135365
 40
0.6577486436587271
 40
0.6897584692806508
 40
0.7214430019610059
 40
0.7527623343195418
 40
0.7839279690572818
 40
0.8148885765585865
 40
0.8460375004982862
 40
0.8763409566916784
 40
0.906758919146387
 40
0.9378312724751761
 40
0.9689189660506093
 40
1.0
 40
1.0
 40
1.0
 40
1.0
 10
393.4693400108604
 20
126.5757591658705
 30
0.0
 10
393.2782660745787
 20
126.6148231237512
 30
0.0
 10
392.8573315121391
 20
126.6945421183113
 30
0.0
 10
392.1359421069754
 20
126.7976575336617
 30
0.0
 10
391.354286058685
 20
126.8658584060857
 30
0.0
 10
390.5411983389742
 20
126.8889152987275
 30
0.0
 10
389.7289181221221
 20
126.8629310250813
 30
0.0
 10
388.9502876970727
 20
126.7923408598432
 30
0.0
 10
388.2336119071612
 20
126.687725297604
 30
0.0
 10
387.6117366374996
 20
126.5685529725876
 30
0.0
 10
387.1022257040137
 20
126.4546158048613
 30
0.0
 10
386.7271063577695
 20
126.3685015259148
 30
0.0
 10
386.4911457829186
 20
126.324445804579
 30
0.0
 10
386.419745239737
 20
126.3399756052902
 30
0.0
 10
386.5103416695349
 20
126.4154844874741
 30
0.0
 10
386.7593179498942
 20
126.5426580153183
 30
0.0
 10
387.1442327697371
 20
126.7015086939306
 30
0.0
 10
387.6570180765592
 20
126.8735329551406
 30
0.0
 10
388.2794771994841
 20
127.0372060346753
 30
0.0
 10
388.9959773442906
 20
127.1726076080555
 30
0.0
 10
389.7740763784007
 20
127.2611252755383
 30
0.0
 10
390.5857990670477
 20
127.2908326840211
 30
0.0
 10
391.397241254749
 20
127.257946239371
 30
0.0
 10
392.1743671462311
 20
127.1664653313262
 30
0.0
 10
392.8888052354015
 20
127.0285811413648
 30
0.0
 10
393.507028193637
 20
126.8634533165149
 30
0.0
 10
394.0133955543629
 20
126.6914027791623
 30
0.0
 10
394.3899480757765
 20
126.5341192574521
 30
0.0
 10
394.629643887208
 20
126.409715459968
 30
0.0
 10
394.7111105954022
 20
126.3375272865318
 30
0.0
 10
394.6310513529104
 20
126.3252547781537
 30
0.0
 10
394.3867053469567
 20
126.3721501886598
 30
0.0
 10
394.0037319135077
 20
126.4602837368054
 30
0.0
 10
393.6592887822978
 20
126.5369252414153
 30
0.0
 10
393.4693400108604
 20
126.5757591658705
 30
0.0
  0
SPLINE
  5
D8
330
1F
100
AcDbEntity
  8
0
  6
Continuous
 62
     7
370
    25
100
AcDbSpline
210
0.0
220
0.0
230
1.0
 70
     8
 71
     3
 72
    23
 73
    19
 74
     0
 42
0.000000001
 43
0.00000001
 40
0.0
 40
0.0
 40
0.0
 40
0.0
 40
0.0449850911516383
 40
0.0909520670767777
 40
0.1379394291255006
 40
0.1859832248910951
 40
0.2351171761689533
 40
0.2853728096402591
 40
0.3367795876576951
 40
0.3893650370792399
 40
0.4431548745925064
 40
0.498173127394291
 40
0.5575107590849617
 40
0.6265492281305397
 40
0.7053073138942775
 40
0.7937970253739629
 40
0.8920262115920568
 40
1.0
 40
1.0
 40
1.0
 40
1.0
 10
380.6743759842926
 20
120.1740969296814
 30
0.0
 10
380.672213294927
 20
120.1736680280218
 30
0.0
 10
380.6678407114064
 20
120.172800863112
 30
0.0
 10
380.6575597522149
 20
120.165707295511
 30
0.0
 10
380.6444994741851
 20
120.1540945539319
 30
0.0
 10
380.6283803126308
 20
120.1373051837594
 30
0.0
 10
380.6092798849749
 20
120.1152331971446
 30
0.0
 10
380.587177532219
 20
120.0876357233813
 30
0.0
 10
380.5620770536833
 20
120.054327292172
 30
0.0
 10
380.5339859223054
 20
120.0151269537653
 30
0.0
 10
380.5028700214533
 20
119.969884908292
 30
0.0
 10
380.4682310905711
 20
119.9174889759028
 30
0.0
 10
380.4275095822924
 20
119.8547065076836
 30
0.0
 10
380.3787886612675
 20
119.7769495084249
 30
0.0
 10
380.3210143229497
 20
119.6796649508464
 30
0.0
 10
380.2541036733047
 20
119.5599201171273
 30
0.0
 10
380.1781597090112
 20
119.4159999122231
 30
0.0
 10
380.123798544326
 20
119.3052657073301
 30
0.0
 10
380.0953334802115
 20
119.2472821034062
 30
0.0
  0
LINE
  5
D9
330
1F
100
AcDbEntity
  8
0
  6
Continuous
 62
     7
370
    25
100
AcDbLine
 10
380.0953334802
 20
119.2478084353
 30
0.0
 11
379.7259937422
 21
119.6338929622
 31
0.0
  0
LINE
  5
DA
330
1F
100
AcDbEntity
  8
0
  6
Continuous
 62
     7
370
    25
100
AcDbLine
 10
401.4046090778
 20
119.6338335574
 30
0.0
 11
401.0353423962
 21
119.2478254524
 31
0.0
  0
SPLINE
  5
DB
330
1F
100
AcDbEntity
  8
0
  6
Continuous
 62
     7
370
    25
100
AcDbSpline
210
0.0
220
0.0
230
1.0
 70
     8
 71
     3
 72
    26
 73
    22
 74
     0
 42
0.000000001
 43
0.00000001
 40
0.0
 40
0.0
 40
0.0
 40
0.0
 40
0.0509383868653979
 40
0.0998291548270505
 40
0.1466728126490638
 40
0.1914699456369332
 40
0.2342212299774179
 40
0.274927450668867
 40
0.3135895241747119
 40
0.3502085273716571
 40
0.3847857350077695
 40
0.4173226688482998
 40
0.4478211631571791
 40
0.4762834534603437
 40
0.5027122992246547
 40
0.593906700502561
 40
0.6816015993191188
 40
0.7659159552051488
 40
0.846983628966416
 40
0.9249552229440475
 40
1.0
 40
1.0
 40
1.0
 40
1.0
 10
401.0353423961564
 20
119.2470913731565
 30
0.0
 10
401.0218845319583
 20
119.2747121543208
 30
0.0
 10
400.9955097821606
 20
119.3288434177741
 30
0.0
 10
400.9571376023816
 20
119.4051514548493
 30
0.0
 10
400.9206714198895
 20
119.4759036344411
 30
0.0
 10
400.8861351702657
 20
119.5410754611292
 30
0.0
 10
400.8535227184128
 20
119.6009337063809
 30
0.0
 10
400.8228354346199
 20
119.6556988659223
 30
0.0
 10
400.7940728183187
 20
119.7056232572343
 30
0.0
 10
400.7672346538464
 20
119.7509654878293
 30
0.0
 10
400.7423210734182
 20
119.7919914267702
 30
0.0
 10
400.7193304266295
 20
119.8289688117173
 30
0.0
 10
400.6982669211398
 20
119.8621649277006
 30
0.0
 10
400.6791145507606
 20
119.8918406599679
 30
0.0
 10
400.6474434738158
 20
119.9405109850176
 30
0.0
 10
400.6059735283792
 20
120.0024063029364
 30
0.0
 10
400.5589840122354
 20
120.0677469103601
 30
0.0
 10
400.5203654425205
 20
120.1168653016519
 30
0.0
 10
400.4903169827992
 20
120.1503415901641
 30
0.0
 10
400.46802687183
 20
120.1704590224021
 30
0.0
 10
400.4601315563966
 20
120.1728998562517
 30
0.0
 10
400.4562594074071
 20
120.1740969296814
 30
0.0
  0
SPLINE
  5
DC
330
1F
100
AcDbEntity
  8
0
  6
Continuous
 62
     7
370
    25
100
AcDbSpline
210
0.0
220
0.0
230
1.0
 70
     8
 71
     3
 72
     8
 73
     4
 74
     0
 42
0.000000001
 43
0.00000001
 40
0.0
 40
0.0
 40
0.0
 40
0.0
 40
1.0
 40
1.0
 40
1.0
 40
1.0
 10
398.3069981476502
 20
119.367095256164
 30
0.0
 10
398.3705911279902
 20
119.3014264783173
 30
0.0
 10
398.4345475544255
 20
119.237084180657
 30
0.0
 10
398.4987464741329
 20
119.1753469296814
 30
0.0
  0
SPLINE
  5
DD
330
1F
100
AcDbEntity
  8
0
  6
Continuous
 62
     7
370
    25
100
AcDbSpline
210
0.0
220
0.0
230
1.0
 70
     8
 71
     3
 72
    25
 73
    21
 74
     0
 42
0.000000001
 43
0.00000001
 40
0.0
 40
0.0
 40
0.0
 40
0.0
 40
0.0367725003254103
 40
0.074208401060063
 40
0.1123590542807964
 40
0.1512729822568881
 40
0.190995910016845
 40
0.2315708273504481
 40
0.2730380740418892
 40
0.3154354426077851
 40
0.3587982934432034
 40
0.4031596779810961
 40
0.4485504661847858
 40
0.494999475376923
 40
0.5532504315673752
 40
0.621829488573267
 40
0.7007739996560722
 40
0.7901076726660372
 40
0.8898461547533933
 40
1.0
 40
1.0
 40
1.0
 40
1.0
 10
397.8650769603387
 20
120.174096929681
 30
0.0
 10
397.8653007344035
 20
120.1737722420472
 30
0.0
 10
397.8657523195665
 20
120.1731170091985
 30
0.0
 10
397.8704693594387
 20
120.1677546374107
 30
0.0
 10
397.8781219685213
 20
120.1589990437103
 30
0.0
 10
397.8890149476583
 20
120.1463748256184
 30
0.0
 10
397.9030635340741
 20
120.129818487488
 30
0.0
 10
397.9202904316834
 20
120.1091613101102
 30
0.0
 10
397.9406889844648
 20
120.0842735741423
 30
0.0
 10
397.9642597977569
 20
120.055026027949
 30
0.0
 10
397.9910051463167
 20
120.0213030927525
 30
0.0
 10
398.020912999749
 20
119.9829972776271
 30
0.0
 10
398.0540290920935
 20
119.9400263822891
 30
0.0
 10
398.0929550136676
 20
119.8886051006184
 30
0.0
 10
398.1417830933842
 20
119.8243888689293
 30
0.0
 10
398.2037036979852
 20
119.7414943398347
 30
0.0
 10
398.2780882563061
 20
119.6375485896202
 30
0.0
 10
398.3650626842947
 20
119.509462379363
 30
0.0
 10
398.4644875342773
 20
119.3553725994567
 30
0.0
 10
398.5359067100068
 20
119.2373083635862
 30
0.0
 10
398.5733882936877
 20
119.1753469296814
 30
0.0
  0
LINE
  5
DE
330
1F
100
AcDbEntity
  8
0
  6
Continuous
 62
     7
370
    25
100
AcDbLine
 10
398.5733882937
 20
119.1753469297
 30
0.0
 11
398.4987464741
 21
119.1753469297
 31
0.0
  0
SPLINE
  5
DF
330
1F
100
AcDbEntity
  8
0
  6
Continuous
 62
     7
370
    25
100
AcDbSpline
210
0.0
220
0.0
230
1.0
 70
     8
 71
     3
 72
    23
 73
    19
 74
     0
 42
0.000000001
 43
0.00000001
 40
0.0
 40
0.0
 40
0.0
 40
0.0
 40
0.0511129009857221
 40
0.1016896331838983
 40
0.1518293139104713
 40
0.201633670189439
 40
0.2512064936754081
 40
0.3006530343006331
 40
0.3500793489716449
 40
0.3995916247932065
 40
0.4492954981442684
 40
0.4992953912354716
 40
0.5872572780521574
 40
0.6724255494349275
 40
0.7555067762540824
 40
0.8372616735271673
 40
0.9184882400167564
 40
1.0
 40
1.0
 40
1.0
 40
1.0
 10
398.3070608237756
 20
119.3673379722592
 30
0.0
 10
398.2910452398751
 20
119.3964665744901
 30
0.0
 10
398.2591820738121
 20
119.4544182230739
 30
0.0
 10
398.2121382353932
 20
119.5371760582922
 30
0.0
 10
398.1661597112183
 20
119.6162649167764
 30
0.0
 10
398.1213790444147
 20
119.6914819047106
 30
0.0
 10
398.0778952799789
 20
119.7629449597563
 30
0.0
 10
398.0358093163941
 20
119.8306863639446
 30
0.0
 10
397.9952148519968
 20
119.8947598756896
 30
0.0
 10
397.9561999456466
 20
119.9552134747608
 30
0.0
 10
397.9188501231591
 20
120.0120909796891
 30
0.0
 10
397.8743218665671
 20
120.0788054527496
 30
0.0
 10
397.8256816060259
 20
120.150125736614
 30
0.0
 10
397.7778425062701
 20
120.2187059890731
 30
0.0
 10
397.7401909941891
 20
120.2717223171152
 30
0.0
 10
397.7133682928017
 20
120.3089949732428
 30
0.0
 10
397.6966394619781
 20
120.3320323728228
 30
0.0
 10
397.6947910520142
 20
120.3345670980881
 30
0.0
 10
397.6938652273939
 20
120.3358366817314
 30
0.0
  0
SPLINE
  5
E0
330
1F
100
AcDbEntity
  8
0
  6
Continuous
 62
     7
370
    25
100
AcDbSpline
210
0.0
220
0.0
230
1.0
 70
     8
 71
     3
 72
     8
 73
     4
 74
     0
 42
0.000000001
 43
0.00000001
 40
0.0
 40
0.0
 40
0.0
 40
0.0
 40
1.0
 40
1.0
 40
1.0
 40
1.0
 10
400.9692103429219
 20
119.1753469296812
 30
0.0
 10
400.991095714565
 20
119.1996679458789
 30
0.0
 10
401.0129810862081
 20
119.2236925442014
 30
0.0
 10
401.0348664578513
 20
119.2473993962899
 30
0.0
  0
LINE
  5
E1
330
1F
100
AcDbEntity
  8
0
  6
Continuous
 62
     7
370
    25
100
AcDbLine
 10
400.9690501326
 20
119.1753469297
 30
0.0
 11
398.5733882937
 21
119.1753469297
 31
0.0
  0
SPLINE
  5
E2
330
1F
100
AcDbEntity
  8
0
  6
Continuous
 62
     7
370
    25
100
AcDbSpline
210
0.0
220
0.0
230
1.0
 70
     8
 71
     3
 72
     8
 73
     4
 74
     0
 42
0.000000001
 43
0.00000001
 40
0.0
 40
0.0
 40
0.0
 40
0.0
 40
1.0
 40
1.0
 40
1.0
 40
1.0
 10
380.0956747080235
 20
119.24750296377
 30
0.0
 10
380.1175914805111
 20
119.2237625152109
 30
0.0
 10
380.1395082529986
 20
119.1997033634242
 30
0.0
 10
380.1614250254862
 20
119.1753469296814
 30
0.0
  0
SPLINE
  5
E3
330
1F
100
AcDbEntity
  8
0
  6
Continuous
 62
     7
370
    25
100
AcDbSpline
210
0.0
220
0.0
230
1.0
 70
     8
 71
     3
 72
    26
 73
    22
 74
     0
 42
0.000000001
 43
0.00000001
 40
0.0
 40
0.0
 40
0.0
 40
0.0
 40
0.0524616379932503
 40
0.1026498591890872
 40
0.150565513457809
 40
0.1962095861957063
 40
0.2395832262568645
 40
0.2806877815599511
 40
0.3195248450380211
 40
0.3560963147430692
 40
0.3904044736547445
 40
0.4224520974433627
 40
0.4522426027417772
 40
0.4797802555366611
 40
0.5050704712281336
 40
0.5966394156799991
 40
0.6841917884819224
 40
0.7679874773571101
 40
0.8483228539139507
 40
0.925534163520116
 40
1.0
 40
1.0
 40
1.0
 40
1.0
 10
382.5570695399337
 20
119.1753618216991
 30
0.0
 10
382.5749310242219
 20
119.2051352817402
 30
0.0
 10
382.6098799681978
 20
119.2633919736335
 30
0.0
 10
382.6606448016798
 20
119.3455909539981
 30
0.0
 10
382.7087147593216
 20
119.4216718228989
 30
0.0
 10
382.7540587320864
 20
119.4916231713651
 30
0.0
 10
382.7966847115918
 20
119.5557303333172
 30
0.0
 10
382.8365910101009
 20
119.6142381727873
 30
0.0
 10
382.8737783392162
 20
119.6674267504093
 30
0.0
 10
382.908247161807
 20
119.7155847906465
 30
0.0
 10
382.9399972504394
 20
119.7590094639228
 30
0.0
 10
382.9690316550405
 20
119.7979995550197
 30
0.0
 10
382.9953429442416
 20
119.8328536535462
 30
0.0
 10
383.0189595737857
 20
119.8638586479967
 30
0.0
 10
383.0586052527916
 20
119.9161018666296
 30
0.0
 10
383.1101435495906
 20
119.9836311998868
 30
0.0
 10
383.1669696865719
 20
120.0558246460954
 30
0.0
 10
383.2111271145349
 20
120.1103086022179
 30
0.0
 10
383.2423047374768
 20
120.1475733933863
 30
0.0
 10
383.261764304116
 20
120.1700377456609
 30
0.0
 10
383.2639059017964
 20
120.1727602950882
 30
0.0
 10
383.2649573183532
 20
120.1740969296814
 30
0.0
  0
LINE
  5
E4
330
1F
100
AcDbEntity
  8
0
  6
Continuous
 62
     7
370
    25
100
AcDbLine
 10
382.5570695399
 20
119.1753469297
 30
0.0
 11
380.1614250255
 21
119.1753469297
 31
0.0
  0
LINE
  5
E5
330
1F
100
AcDbEntity
  8
0
  6
Continuous
 62
     7
370
    25
100
AcDbLine
 10
382.6318889176
 20
119.1753469297
 30
0.0
 11
382.5567693192
 21
119.1753469297
 31
0.0
  0
SPLINE
  5
E6
330
1F
100
AcDbEntity
  8
0
  6
Continuous
 62
     7
370
    25
100
AcDbSpline
210
0.0
220
0.0
230
1.0
 70
     8
 71
     3
 72
     8
 73
     4
 74
     0
 42
0.000000001
 43
0.00000001
 40
0.0
 40
0.0
 40
0.0
 40
0.0
 40
1.0
 40
1.0
 40
1.0
 40
1.0
 10
382.6318889175666
 20
119.1753469296813
 30
0.0
 10
382.6957977202266
 20
119.2373157931124
 30
0.0
 10
382.7595726395786
 20
119.3012918582291
 30
0.0
 10
382.8229327054595
 20
119.3668265145748
 30
0.0
  0
SPLINE
  5
E7
330
1F
100
AcDbEntity
  8
0
  6
Continuous
 62
     7
370
    25
100
AcDbSpline
210
0.0
220
0.0
230
1.0
 70
     8
 71
     3
 72
    24
 73
    20
 74
     0
 42
0.000000001
 43
0.00000001
 40
0.0
 40
0.0
 40
0.0
 40
0.0
 40
0.0410257106287842
 40
0.0818520099077639
 40
0.1225800578354648
 40
0.1633117464058233
 40
0.2041489402806705
 40
0.2451927184749161
 40
0.2865426449235763
 40
0.3282960933646444
 40
0.370547647549383
 40
0.4133885920102291
 40
0.4569065022351533
 40
0.5011849368587563
 40
0.6001856774947433
 40
0.6987388860447942
 40
0.7976800645453981
 40
0.8978349910029445
 40
1.0
 40
1.0
 40
1.0
 40
1.0
 10
383.4365155113343
 20
120.3354870110128
 30
0.0
 10
383.4363207478933
 20
120.3352196608553
 30
0.0
 10
383.4359321676868
 20
120.334686260034
 30
0.0
 10
383.4318773800125
 20
120.3291145140349
 30
0.0
 10
383.4252834210326
 20
120.3200337648811
 30
0.0
 10
383.4159191601227
 20
120.3070963045203
 30
0.0
 10
383.4038710463527
 20
120.2903778616145
 30
0.0
 10
383.3891484768922
 20
120.2698358508427
 30
0.0
 10
383.3717894840449
 20
120.2454544767959
 30
0.0
 10
383.3518323128916
 20
120.2172057327241
 30
0.0
 10
383.3293232631961
 20
120.185060185323
 30
0.0
 10
383.3043140274347
 20
120.1489833453568
 30
0.0
 10
383.2768646579098
 20
120.1089397528374
 30
0.0
 10
383.2349415448426
 20
120.0470193094962
 30
0.0
 10
383.1757353696314
 20
119.9577068183996
 30
0.0
 10
383.0959557765111
 20
119.833162226371
 30
0.0
 10
383.0099749915247
 20
119.6933774338812
 30
0.0
 10
382.9186902043027
 20
119.5389646148951
 30
0.0
 10
382.8554858502447
 20
119.4249185932442
 30
0.0
 10
382.8235697002792
 20
119.3673290492289
 30
0.0
  0
LINE
  5
E8
330
1F
100
AcDbEntity
  8
0
  6
Continuous
 62
     7
370
    25
100
AcDbLine
 10
379.7526767937
 20
110.654041932
 30
0.0
 11
380.1769142087
 21
111.1028348305
 31
0.0
  0
SPLINE
  5
E9
330
1F
100
AcDbEntity
  8
0
  6
Continuous
 62
     7
370
    25
100
AcDbSpline
210
0.0
220
0.0
230
1.0
 70
     8
 71
     3
 72
    13
 73
     9
 74
     0
 42
0.000000001
 43
0.00000001
 40
0.0
 40
0.0
 40
0.0
 40
0.0
 40
0.170632084649598
 40
0.3395984165075754
 40
0.5069574111411415
 40
0.6727691830249297
 40
0.8370955447763889
 40
1.0
 40
1.0
 40
1.0
 40
1.0
 10
380.1769142087275
 20
111.1028141881521
 30
0.0
 10
380.1819196791363
 20
111.0958628150707
 30
0.0
 10
380.1918817553087
 20
111.0820279299386
 30
0.0
 10
380.2047555832006
 20
111.0659001714817
 30
0.0
 10
380.2160218956965
 20
111.0532314413227
 30
0.0
 10
380.2254992591318
 20
111.0443750034837
 30
0.0
 10
380.2333814918265
 20
111.0388629750039
 30
0.0
 10
380.2371963980599
 20
111.0381846289231
 30
0.0
 10
380.2390955627762
 20
111.0378469296814
 30
0.0
  0
SPLINE
  5
EA
330
1F
100
AcDbEntity
  8
0
  6
Continuous
 62
     7
370
    25
100
AcDbSpline
210
0.0
220
0.0
230
1.0
 70
     8
 71
     3
 72
    13
 73
     9
 74
     0
 42
0.000000001
 43
0.00000001
 40
0.0
 40
0.0
 40
0.0
 40
0.0
 40
0.1621004456571512
 40
0.325943455157606
 40
0.4915935308260523
 40
0.6591130873964648
 40
0.8285624736043361
 40
1.0
 40
1.0
 40
1.0
 40
1.0
 10
400.8915398289234
 20
111.0378469296814
 30
0.0
 10
400.8934169352656
 20
111.038181412782
 30
0.0
 10
400.8971913266585
 20
111.0388539746436
 30
0.0
 10
400.9050384038374
 20
111.0443272590393
 30
0.0
 10
400.9145044636126
 20
111.0531467236997
 30
0.0
 10
400.9257853784149
 20
111.0657994806936
 30
0.0
 10
400.9386999969126
 20
111.0819514820901
 30
0.0
 10
400.9486957111583
 20
111.0958372820331
 30
0.0
 10
400.9537227170699
 20
111.1028206747837
 30
0.0
  0
LINE
  5
EB
330
1F
100
AcDbEntity
  8
0
  6
Continuous
 62
     7
370
    25
100
AcDbLine
 10
400.9537356849
 20
111.1028210428
 30
0.0
 11
401.3779578497
 21
110.6540419575
 31
0.0
  0
LINE
  5
EC
330
1F
100
AcDbEntity
  8
0
  6
Continuous
 62
     7
370
    25
100
AcDbLine
 10
398.4987464741
 20
111.1128469297
 30
0.0
 11
398.5074677837
 21
111.1128469297
 31
0.0
  0
SPLINE
  5
ED
330
1F
100
AcDbEntity
  8
0
  6
Continuous
 62
     7
370
    25
100
AcDbSpline
210
0.0
220
0.0
230
1.0
 70
     8
 71
     3
 72
    13
 73
     9
 74
     0
 42
0.000000001
 43
0.00000001
 40
0.0
 40
0.0
 40
0.0
 40
0.0
 40
0.170527330366418
 40
0.3393382731715298
 40
0.5065592454659379
 40
0.672320302183991
 40
0.8367549624218703
 40
1.0
 40
1.0
 40
1.0
 40
1.0
 10
398.5074806635607
 20
111.1128467953659
 30
0.0
 10
398.5024452600183
 20
111.104840672599
 30
0.0
 10
398.4924251351554
 20
111.0889090100984
 30
0.0
 10
398.4806220924999
 20
111.0702919849891
 30
0.0
 10
398.4712799887886
 20
111.0556529920024
 30
0.0
 10
398.4646843641658
 20
111.0454059224846
 30
0.0
 10
398.4605313414774
 20
111.039022932216
 30
0.0
 10
398.4600054931685
 20
111.0382379806187
 30
0.0
 10
398.4597435235453
 20
111.0378469296814
 30
0.0
  0
SPLINE
  5
EE
330
1F
100
AcDbEntity
  8
0
  6
Continuous
 62
     7
370
    25
100
AcDbSpline
210
0.0
220
0.0
230
1.0
 70
     8
 71
     3
 72
     8
 73
     4
 74
     0
 42
0.000000001
 43
0.00000001
 40
0.0
 40
0.0
 40
0.0
 40
0.0
 40
1.0
 40
1.0
 40
1.0
 40
1.0
 10
400.9537357580628
 20
111.102821287851
 30
0.0
 10
400.9515522738217
 20
111.1056699533673
 30
0.0
 10
400.9493687895806
 20
111.1086107447648
 30
0.0
 10
400.9471853053395
 20
111.1116432420413
 30
0.0
  0
LINE
  5
EF
330
1F
100
AcDbEntity
  8
0
  6
Continuous
 62
     7
370
    25
100
AcDbLine
 10
400.9462825623
 20
111.1128469297
 30
0.0
 11
398.5074722029
 21
111.1128469297
 31
0.0
  0
SPLINE
  5
F0
330
1F
100
AcDbEntity
  8
0
  6
Continuous
 62
     7
370
    25
100
AcDbSpline
210
0.0
220
0.0
230
1.0
 70
     8
 71
     3
 72
     8
 73
     4
 74
     0
 42
0.000000001
 43
0.00000001
 40
0.0
 40
0.0
 40
0.0
 40
0.0
 40
1.0
 40
1.0
 40
1.0
 40
1.0
 10
380.1843528527696
 20
111.112846929689
 30
0.0
 10
380.1818669340831
 20
111.1093852303769
 30
0.0
 10
380.1793810153965
 20
111.1060410784681
 30
0.0
 10
380.17689509671
 20
111.1028150865277
 30
0.0
  0
LINE
  5
F1
330
1F
100
AcDbEntity
  8
0
  6
Continuous
 62
     7
370
    25
100
AcDbLine
 10
382.6216569094
 20
111.1128469297
 30
0.0
 11
380.1845692991
 21
111.1128469297
 31
0.0
  0
SPLINE
  5
F2
330
1F
100
AcDbEntity
  8
0
  6
Continuous
 62
     7
370
    25
100
AcDbSpline
210
0.0
220
0.0
230
1.0
 70
     8
 71
     3
 72
    13
 73
     9
 74
     0
 42
0.000000001
 43
0.00000001
 40
0.0
 40
0.0
 40
0.0
 40
0.0
 40
0.1631595583870535
 40
0.3275424452489252
 40
0.4932858679997912
 40
0.6605236853065742
 40
0.8293862019229544
 40
1.0
 40
1.0
 40
1.0
 40
1.0
 10
382.6708918681543
 20
111.0378469296814
 30
0.0
 10
382.6706340226677
 20
111.0382375800739
 30
0.0
 10
382.6701163984352
 20
111.0390218098553
 30
0.0
 10
382.6659698021912
 20
111.0453999790901
 30
0.0
 10
382.6593765235157
 20
111.0556424252375
 30
0.0
 10
382.6500321286381
 20
111.0702793412864
 30
0.0
 10
382.6382223156244
 20
111.0888992001361
 30
0.0
 10
382.62819559831
 20
111.1048369077835
 30
0.0
 10
382.6231563768703
 20
111.1128468711202
 30
0.0
  0
LINE
  5
F3
330
1F
100
AcDbEntity
  8
0
  6
Continuous
 62
     7
370
    25
100
AcDbLine
 10
382.6231667674
 20
111.1128469297
 30
0.0
 11
382.6318889176
 21
111.1128469297
 31
0.0
  0
SPLINE
  5
F4
330
1F
100
AcDbEntity
  8
0
  6
Continuous
 62
     7
370
    25
100
AcDbSpline
210
0.0
220
0.0
230
1.0
 70
     8
 71
     3
 72
    14
 73
    10
 74
     0
 42
0.000000001
 43
0.00000001
 40
0.0
 40
0.0
 40
0.0
 40
0.0
 40
0.0310276388071746
 40
0.0622853718672815
 40
0.1248003166904892
 40
0.2498289731753984
 40
0.499889260361071
 40
0.7606803621682141
 40
1.0
 40
1.0
 40
1.0
 40
1.0
 10
379.6052237013907
 20
110.6561087550659
 30
0.0
 10
379.6095529948558
 20
110.6608926773441
 30
0.0
 10
379.6182436868893
 20
110.6704959984323
 30
0.0
 10
379.6356444655514
 20
110.6897903124302
 30
0.0
 10
379.6661206253964
 20
110.7235552588838
 30
0.0
 10
379.7269420182158
 20
110.7909740177456
 30
0.0
 10
379.814832360629
 20
110.8884406926125
 30
0.0
 10
379.9176700407126
 20
111.0025852045094
 30
0.0
 10
379.9848761521541
 20
111.077370017516
 30
0.0
 10
380.0170365138011
 20
111.1131570401602
 30
0.0
  0
LINE
  5
F5
330
1F
100
AcDbEntity
  8
0
  6
Continuous
 62
     7
370
    25
100
AcDbLine
 10
380.0167080147
 20
111.1128469297
 30
0.0
 11
380.1843528528
 21
111.1128469297
 31
0.0
  0
LINE
  5
F6
330
1F
100
AcDbEntity
  8
0
  6
Continuous
 62
     7
370
    25
100
AcDbLine
 10
400.9462825623
 20
111.1128469297
 30
0.0
 11
401.1139347616
 21
111.1128469297
 31
0.0
  0
SPLINE
  5
F7
330
1F
100
AcDbEntity
  8
0
  6
Continuous
 62
     7
370
    25
100
AcDbSpline
210
0.0
220
0.0
230
1.0
 70
     8
 71
     3
 72
    11
 73
     7
 74
     0
 42
0.000000001
 43
0.00000001
 40
0.0
 40
0.0
 40
0.0
 40
0.0
 40
0.2392913844325938
 40
0.5001130135003002
 40
0.7515028526498353
 40
0.9999999999999999
 40
0.9999999999999999
 40
0.9999999999999999
 40
0.9999999999999999
 10
401.1136309485202
 20
111.1131337321929
 30
0.0
 10
401.1457875014999
 20
111.0773570136156
 30
0.0
 10
401.2129938936254
 20
111.00258456586
 30
0.0
 10
401.3160219833729
 20
110.8881258525372
 30
0.0
 10
401.42111264799
 20
110.7719666664173
 30
0.0
 10
401.4907874680697
 20
110.6945787251217
 30
0.0
 10
401.5254232847633
 20
110.6561086645467
 30
0.0
  0
LINE
  5
F8
330
1F
100
AcDbEntity
  8
0
  6
Continuous
 62
     7
370
    25
100
AcDbLine
 10
380.1614250255
 20
119.1753469297
 30
0.0
 11
380.0168527294
 21
119.1753469297
 31
0.0
  0
SPLINE
  5
F9
330
1F
100
AcDbEntity
  8
0
  6
Continuous
 62
     7
370
    25
100
AcDbSpline
210
0.0
220
0.0
230
1.0
 70
     8
 71
     3
 72
    11
 73
     7
 74
     0
 42
0.000000001
 43
0.00000001
 40
0.0
 40
0.0
 40
0.0
 40
0.0
 40
0.2392845094479873
 40
0.5001120454076898
 40
0.7515010915036774
 40
1.0
 40
1.0
 40
1.0
 40
1.0
 10
380.0171553516402
 20
119.1750611434847
 30
0.0
 10
379.9849942218702
 20
119.2108589925466
 30
0.0
 10
379.917776463274
 20
119.2856776072443
 30
0.0
 10
379.8147318147759
 20
119.4002058714995
 30
0.0
 10
379.7096235858892
 20
119.5164368651738
 30
0.0
 10
379.6399380692617
 20
119.5938713608649
 30
0.0
 10
379.605296756822
 20
119.6323647622009
 30
0.0
  0
SPLINE
  5
FA
330
1F
100
AcDbEntity
  8
0
  6
Continuous
 62
     7
370
    25
100
AcDbSpline
210
0.0
220
0.0
230
1.0
 70
     8
 71
     3
 72
    14
 73
    10
 74
     0
 42
0.000000001
 43
0.00000001
 40
0.0
 40
0.0
 40
0.0
 40
0.0
 40
0.031029414748255
 40
0.0622870907562092
 40
0.1248019217225762
 40
0.249830351143087
 40
0.4998901825554788
 40
0.7606872170552411
 40
1.0
 40
1.0
 40
1.0
 40
1.0
 10
401.5253270195523
 20
119.6323646539248
 30
0.0
 10
401.5209968232368
 20
119.6275774673548
 30
0.0
 10
401.5123045764417
 20
119.6179678782996
 30
0.0
 10
401.4949009480943
 20
119.5986618845936
 30
0.0
 10
401.4644202125591
 20
119.5648766689417
 30
0.0
 10
401.4035895908369
 20
119.4974175379942
 30
0.0
 10
401.3156846876703
 20
119.3998910322838
 30
0.0
 10
401.2128304430533
 20
119.2856770255094
 30
0.0
 10
401.1456129849068
 20
119.2108460654044
 30
0.0
 10
401.1134480555046
 20
119.1750379194962
 30
0.0
  0
LINE
  5
FB
330
1F
100
AcDbEntity
  8
0
  6
Continuous
 62
     7
370
    25
100
AcDbLine
 10
401.1137752655
 20
119.1753469297
 30
0.0
 11
400.9692103429
 21
119.1753469297
 31
0.0
  0
LINE
  5
FC
330
1F
100
AcDbEntity
  8
0
  6
Continuous
 62
     7
370
    25
100
AcDbLine
 10
378.6946498311
 20
112.9567591871
 30
0.0
 11
379.1347124884
 21
113.0378469297
 31
0.0
  0
SPLINE
  5
FD
330
1F
100
AcDbEntity
  8
0
  6
Continuous
 62
     7
370
    25
100
AcDbSpline
210
0.0
220
0.0
230
1.0
 70
     8
 71
     3
 72
    25
 73
    21
 74
     0
 42
0.000000001
 43
0.00000001
 40
0.0
 40
0.0
 40
0.0
 40
0.0
 40
0.0274788704223154
 40
0.0560416006850518
 40
0.0856947086352136
 40
0.116444016653826
 40
0.1482947438681133
 40
0.1812515840470034
 40
0.2153187716748716
 40
0.2505001382254911
 40
0.333051455250936
 40
0.5015081958163736
 40
0.5771663066143947
 40
0.648898130302521
 40
0.716747770006283
 40
0.7807674423488066
 40
0.84101941313403
 40
0.8975784849924567
 40
0.9505352047788314
 40
1.0
 40
1.0
 40
1.0
 40
1.0
 10
379.1347124884385
 20
113.0378469296814
 30
0.0
 10
379.141420655782
 20
113.0086647251639
 30
0.0
 10
379.1551015833388
 20
112.9491492710151
 30
0.0
 10
379.1778663119927
 20
112.8587587739565
 30
0.0
 10
379.202743949233
 20
112.7656271648353
 30
0.0
 10
379.2298831872506
 20
112.6700411205604
 30
0.0
 10
379.2592445942818
 20
112.5722876509471
 30
0.0
 10
379.2908297645698
 20
112.4727069748897
 30
0.0
 10
379.3246766344347
 20
112.3716978353111
 30
0.0
 10
379.3763778643675
 20
112.22493102806
 30
0.0
 10
379.4807368773812
 20
111.9606646151457
 30
0.0
 10
379.601610105065
 20
111.6906949853172
 30
0.0
 10
379.715103151522
 20
111.4732853106009
 30
0.0
 10
379.7863761191379
 20
111.3435817398704
 30
0.0
 10
379.8484506912638
 20
111.2397066625456
 30
0.0
 10
379.901034703431
 20
111.1598460287271
 30
0.0
 10
379.9442812493586
 20
111.1018274025765
 30
0.0
 10
379.9778880615787
 20
111.0637238439241
 30
0.0
 10
380.0028350444514
 20
111.0417213129294
 30
0.0
 10
380.0117945813133
 20
111.0391086995781
 30
0.0
 10
380.0161216180314
 20
111.0378469296814
 30
0.0
  0
LINE
  5
FE
330
1F
100
AcDbEntity
  8
0
  6
Continuous
 62
     7
370
    25
100
AcDbLine
 10
402.4359855606
 20
117.3314346722
 30
0.0
 11
401.9959229033
 21
117.2503469297
 31
0.0
  0
SPLINE
  5
FF
330
1F
100
AcDbEntity
  8
0
  6
Continuous
 62
     7
370
    25
100
AcDbSpline
210
0.0
220
0.0
230
1.0
 70
     8
 71
     3
 72
    25
 73
    21
 74
     0
 42
0.000000001
 43
0.00000001
 40
0.0
 40
0.0
 40
0.0
 40
0.0
 40
0.0274788704223041
 40
0.0560416006850305
 40
0.0856947086351823
 40
0.1164440166537841
 40
0.1482947438680617
 40
0.1812515840469434
 40
0.2153187716748025
 40
0.2505001382254136
 40
0.3330514552861967
 40
0.5015081958164245
 40
0.5771663066128696
 40
0.6488981302998588
 40
0.7167477700029257
 40
0.7807674423452041
 40
0.8410194131306359
 40
0.8975784849897311
 40
0.950535204777236
 40
1.0
 40
1.0
 40
1.0
 40
1.0
 10
401.995922903261
 20
117.2503469296814
 30
0.0
 10
401.9892147359176
 20
117.2795291341988
 30
0.0
 10
401.9755338083608
 20
117.3390445883476
 30
0.0
 10
401.952769079707
 20
117.4294350854062
 30
0.0
 10
401.9278914424666
 20
117.5225666945274
 30
0.0
 10
401.900752204449
 20
117.6181527388023
 30
0.0
 10
401.8713907974178
 20
117.7159062084156
 30
0.0
 10
401.8398056271297
 20
117.815486884473
 30
0.0
 10
401.805958757265
 20
117.9164960240516
 30
0.0
 10
401.7542575273197
 20
118.0632628313368
 30
0.0
 10
401.6498985143087
 20
118.3275292442493
 30
0.0
 10
401.529025286623
 20
118.5974988740684
 30
0.0
 10
401.4155322401778
 20
118.8149085487587
 30
0.0
 10
401.3442592725621
 20
118.9446121194876
 30
0.0
 10
401.2821847004363
 20
119.0484871968123
 30
0.0
 10
401.2296006882691
 20
119.1283478306316
 30
0.0
 10
401.1863541423416
 20
119.1863664567835
 30
0.0
 10
401.1527473301214
 20
119.2244700154373
 30
0.0
 10
401.1278003472485
 20
119.2464725464331
 30
0.0
 10
401.1188408103864
 20
119.2490851597846
 30
0.0
 10
401.1145137736682
 20
119.2503469296814
 30
0.0
  0
SPLINE
  5
100
330
1F
100
AcDbEntity
  8
0
  6
Continuous
 62
     7
370
    25
100
AcDbSpline
210
0.0
220
0.0
230
1.0
 70
     8
 71
     3
 72
    25
 73
    21
 74
     0
 42
0.000000001
 43
0.00000001
 40
0.0
 40
0.0
 40
0.0
 40
0.0
 40
0.0288821753110086
 40
0.0583636594013118
 40
0.0884647204314734
 40
0.1192044006626603
 40
0.150600580009491
 40
0.1826700399677263
 40
0.2154285269580574
 40
0.248890814337993
 40
0.361059447124065
 40
0.4984670131067773
 40
0.5822693905007604
 40
0.666112764278331
 40
0.7499972937224478
 40
0.8007709755049082
 40
0.8511237700832938
 40
0.9010896024531745
 40
0.9507031914125761
 40
1.0
 40
1.0
 40
1.0
 40
1.0
 10
380.0161216180314
 20
119.2503469296814
 30
0.0
 10
380.0138313496537
 20
119.2499186877055
 30
0.0
 10
380.0092032895407
 20
119.2490533176787
 30
0.0
 10
379.9988930264533
 20
119.241978384977
 30
0.0
 10
379.9860569572225
 20
119.2304098438166
 30
0.0
 10
379.9704433984799
 20
119.2137042677042
 30
0.0
 10
379.9521219550672
 20
119.191767356688
 30
0.0
 10
379.9310743692361
 20
119.1643697212033
 30
0.0
 10
379.907302797244
 20
119.1313352405212
 30
0.0
 10
379.8602462678075
 20
119.0623445743934
 30
0.0
 10
379.7725518499506
 20
118.9223186049717
 30
0.0
 10
379.6550001954172
 20
118.7030233037672
 30
0.0
 10
379.5434780310758
 20
118.466093242996
 30
0.0
 10
379.4520187137277
 20
118.2502513690861
 30
0.0
 10
379.3711370625502
 20
118.0486897482043
 30
0.0
 10
379.3049921606822
 20
117.8698216678121
 30
0.0
 10
379.2556415998551
 20
117.7184454666683
 30
0.0
 10
379.2106745829901
 20
117.5642013115453
 30
0.0
 10
379.1699168690709
 20
117.4080454564697
 30
0.0
 10
379.1464221998536
 20
117.3028007495217
 30
0.0
 10
379.1347124884386
 20
117.2503469296814
 30
0.0
  0
LINE
  5
101
330
1F
100
AcDbEntity
  8
0
  6
Continuous
 62
     7
370
    25
100
AcDbLine
 10
378.6946498311
 20
117.3314346722
 30
0.0
 11
379.1347124884
 21
117.2503469297
 31
0.0
  0
SPLINE
  5
102
330
1F
100
AcDbEntity
  8
0
  6
Continuous
 62
     7
370
    25
100
AcDbSpline
210
0.0
220
0.0
230
1.0
 70
     8
 71
     3
 72
    25
 73
    21
 74
     0
 42
0.000000001
 43
0.00000001
 40
0.0
 40
0.0
 40
0.0
 40
0.0
 40
0.0288821753116583
 40
0.0583636594024247
 40
0.088464720432864
 40
0.1192044006641432
 40
0.1506005800108822
 40
0.1826700399688414
 40
0.2154285269587146
 40
0.2488908143380118
 40
0.3610594471217245
 40
0.498467013106778
 40
0.5822693905006526
 40
0.6661127642782239
 40
0.7499972937224496
 40
0.8007709755032478
 40
0.8511237700807983
 40
0.901089602450676
 40
0.9507031914109089
 40
1.0
 40
1.0
 40
1.0
 40
1.0
 10
401.1145137736682
 20
111.0378469296814
 30
0.0
 10
401.116804042046
 20
111.0382751716573
 30
0.0
 10
401.121432102159
 20
111.0391405416841
 30
0.0
 10
401.1317423652465
 20
111.046215474386
 30
0.0
 10
401.1445784344774
 20
111.0577840155467
 30
0.0
 10
401.1601919932201
 20
111.0744895916594
 30
0.0
 10
401.1785134366326
 20
111.0964265026758
 30
0.0
 10
401.1995610224637
 20
111.1238241381605
 30
0.0
 10
401.2233325944557
 20
111.1568586188423
 30
0.0
 10
401.270389123892
 20
111.2258492849688
 30
0.0
 10
401.3580835417497
 20
111.3658752543894
 30
0.0
 10
401.4756351962818
 20
111.5851705555935
 30
0.0
 10
401.5871573606226
 20
111.8221006163669
 30
0.0
 10
401.6786166779707
 20
112.0379424902768
 30
0.0
 10
401.7594983291486
 20
112.2395041111568
 30
0.0
 10
401.8256432310167
 20
112.4183721915463
 30
0.0
 10
401.8749937918432
 20
112.5697483926875
 30
0.0
 10
401.919960808708
 20
112.7239925478104
 30
0.0
 10
401.9607185226278
 20
112.8801484028886
 30
0.0
 10
401.9842131918456
 20
112.9853931098393
 30
0.0
 10
401.995922903261
 20
113.0378469296814
 30
0.0
  0
LINE
  5
103
330
1F
100
AcDbEntity
  8
0
  6
Continuous
 62
     7
370
    25
100
AcDbLine
 10
402.4359855606
 20
112.9567591871
 30
0.0
 11
401.9959229033
 21
113.0378469297
 31
0.0
  0
SPLINE
  5
104
330
1F
100
AcDbEntity
  8
0
  6
Continuous
 62
     7
370
    25
100
AcDbSpline
210
0.0
220
0.0
230
1.0
 70
     8
 71
     3
 72
    16
 73
    12
 74
     0
 42
0.000000001
 43
0.00000001
 40
0.0
 40
0.0
 40
0.0
 40
0.0
 40
0.0870061775074587
 40
0.1851056111355291
 40
0.2943803716251409
 40
0.3925759841529199
 40
0.4909775276861052
 40
0.5895880030703908
 40
0.7549180486651427
 40
0.9066441298749784
 40
0.9999999999999999
 40
0.9999999999999999
 40
0.9999999999999999
 40
0.9999999999999999
 10
381.6674598075713
 20
117.2503469296814
 30
0.0
 10
381.6897475140067
 20
117.3283035172646
 30
0.0
 10
381.737164601376
 20
117.4941561291138
 30
0.0
 10
381.8241268269115
 20
117.7506511418519
 30
0.0
 10
381.9208878525764
 20
118.0056579155635
 30
0.0
 10
382.021544377661
 20
118.2456982110924
 30
0.0
 10
382.1190650727369
 20
118.4607137155094
 30
0.0
 10
382.243152148415
 20
118.6993248277812
 30
0.0
 10
382.3738312978094
 20
118.9301394405977
 30
0.0
 10
382.4777900644505
 20
119.108804181361
 30
0.0
 10
382.5122712497491
 20
119.1633052878542
 30
0.0
 10
382.5254057177871
 20
119.1840656832719
 30
0.0
  0
SPLINE
  5
105
330
1F
100
AcDbEntity
  8
0
  6
Continuous
 62
     7
370
    25
100
AcDbSpline
210
0.0
220
0.0
230
1.0
 70
     8
 71
     3
 72
    16
 73
    12
 74
     0
 42
0.000000001
 43
0.00000001
 40
0.0
 40
0.0
 40
0.0
 40
0.0
 40
0.0880319371339328
 40
0.1872879143798576
 40
0.2978509700519604
 40
0.3972042600988014
 40
0.4967659089756308
 40
0.5965389529066326
 40
0.7638181576519493
 40
0.917333014028731
 40
1.0
 40
1.0
 40
1.0
 40
1.0
 10
399.4631755841283
 20
113.0378469296814
 30
0.0
 10
399.4408878851457
 20
112.9598903561959
 30
0.0
 10
399.3934708136295
 20
112.7940377743302
 30
0.0
 10
399.3065084524075
 20
112.5375425050049
 30
0.0
 10
399.2097479919913
 20
112.2825368001897
 30
0.0
 10
399.1090895170824
 20
112.0424928174711
 30
0.0
 10
399.0115759423798
 20
111.8274907779186
 30
0.0
 10
398.8874561855562
 20
111.5888178645114
 30
0.0
 10
398.7569769292602
 20
111.3583812562503
 30
0.0
 10
398.6553317674355
 20
111.1835827121531
 30
0.0
 10
398.6222327296289
 20
111.1311863853039
 30
0.0
 10
398.6106475981607
 20
111.1128469296814
 30
0.0
  0
SPLINE
  5
106
330
1F
100
AcDbEntity
  8
0
  6
Continuous
 62
     7
370
    25
100
AcDbSpline
210
0.0
220
0.0
230
1.0
 70
     8
 71
     3
 72
    15
 73
    11
 74
     0
 42
0.000000001
 43
0.00000001
 40
0.0
 40
0.0
 40
0.0
 40
0.0
 40
0.0210215873997391
 40
0.0995174370234918
 40
0.2360970702300488
 40
0.3979402345642526
 40
0.5486163820120215
 40
0.700032141451838
 40
0.8517813609343974
 40
1.0
 40
1.0
 40
1.0
 40
1.0
 10
382.5185419902442
 20
111.1128469296814
 30
0.0
 10
382.5156931794199
 20
111.1173315771825
 30
0.0
 10
382.5022067406268
 20
111.1385621634737
 30
0.0
 10
382.454800766684
 20
111.2156971006992
 30
0.0
 10
382.3616574378826
 20
111.3716270825741
 30
0.0
 10
382.2252384175438
 20
111.6206423072782
 30
0.0
 10
382.0759152373074
 20
111.930281159832
 30
0.0
 10
381.9227515407745
 20
112.2722455493609
 30
0.0
 10
381.7771175481041
 20
112.6433538752544
 30
0.0
 10
381.7037244455095
 20
112.9073851153266
 30
0.0
 10
381.6674598075713
 20
113.0378469296814
 30
0.0
  0
LINE
  5
107
330
1F
100
AcDbEntity
  8
0
  6
Continuous
 62
     7
370
    25
100
AcDbLine
 10
381.9837199649
 20
117.1754836351
 30
0.0
 11
381.6674598076
 21
117.2503469297
 31
0.0
  0
SPLINE
  5
108
330
1F
100
AcDbEntity
  8
0
  6
Continuous
 62
     7
370
    25
100
AcDbSpline
210
0.0
220
0.0
230
1.0
 70
     8
 71
     3
 72
    25
 73
    21
 74
     0
 42
0.000000001
 43
0.00000001
 40
0.0
 40
0.0
 40
0.0
 40
0.0
 40
0.0278144320063462
 40
0.0555680196245754
 40
0.083331625367772
 40
0.111176035216759
 40
0.1391714221532265
 40
0.1673868326284763
 40
0.1958897140434718
 40
0.2247454979318961
 40
0.254017249222145
 40
0.3796724410016501
 40
0.5056484635002454
 40
0.629752729069345
 40
0.7535891720571729
 40
0.8038564806093713
 40
0.853339684343451
 40
0.9023264398358534
 40
0.9511131859219439
 40
1.0
 40
1.0
 40
1.0
 40
1.0
 10
382.8513416065613
 20
119.4178452208639
 30
0.0
 10
382.8511938552465
 20
119.4175786783103
 30
0.0
 10
382.8508986758249
 20
119.4170461762681
 30
0.0
 10
382.847273976809
 20
119.410498727572
 30
0.0
 10
382.8413280811387
 20
119.3997294842857
 30
0.0
 10
382.8328533582236
 20
119.3843187483615
 30
0.0
 10
382.8219383713846
 20
119.3643623721077
 30
0.0
 10
382.8086023031461
 20
119.3398122756372
 30
0.0
 10
382.7928945384592
 20
119.3106556518813
 30
0.0
 10
382.7748629503013
 20
119.2768596804479
 30
0.0
 10
382.7324454055529
 20
119.1964529223901
 30
0.0
 10
382.6519243657994
 20
119.0394644727194
 30
0.0
 10
382.5184980189249
 20
118.7576787349721
 30
0.0
 10
382.3744210422418
 20
118.4198066253451
 30
0.0
 10
382.2587432907904
 20
118.1111257116068
 30
0.0
 10
382.1762318155731
 20
117.8650949918518
 30
0.0
 10
382.123310191048
 20
117.6962691005786
 30
0.0
 10
382.0734530566706
 20
117.5249535295668
 30
0.0
 10
382.02643506344
 20
117.351271179346
 30
0.0
 10
381.9979680527115
 20
117.2341194910426
 30
0.0
 10
381.9837199649127
 20
117.1754836350812
 30
0.0
  0
LINE
  5
109
330
1F
100
AcDbEntity
  8
0
  6
Continuous
 62
     7
370
    25
100
AcDbLine
 10
381.9837199649
 20
113.1127102243
 30
0.0
 11
381.6674598076
 21
113.0378469297
 31
0.0
  0
SPLINE
  5
10A
330
1F
100
AcDbEntity
  8
0
  6
Continuous
 62
     7
370
    25
100
AcDbSpline
210
0.0
220
0.0
230
1.0
 70
     8
 71
     3
 72
    25
 73
    21
 74
     0
 42
0.000000001
 43
0.00000001
 40
0.0
 40
0.0
 40
0.0
 40
0.0
 40
0.0269872354797669
 40
0.0539362690259618
 40
0.0809037148829035
 40
0.1079460716545392
 40
0.1351193706855853
 40
0.162478838835575
 40
0.190078585418252
 40
0.2179713214290535
 40
0.2462081170984584
 40
0.3700050494705653
 40
0.4947542611659071
 40
0.6210439034695193
 40
0.7446557472315123
 40
0.7967060293738726
 40
0.8478613449329371
 40
0.8985210411990388
 40
0.9490962115257747
 40
1.0
 40
1.0
 40
1.0
 40
1.0
 10
381.9837199649127
 20
113.1127102242815
 30
0.0
 10
381.9915007096368
 20
113.0803138192538
 30
0.0
 10
382.0070511850078
 20
113.0155668681125
 30
0.0
 10
382.031736590981
 20
112.9189203316838
 30
0.0
 10
382.05735654798
 20
112.8228262431925
 30
0.0
 10
382.0839994116075
 20
112.7273139724758
 30
0.0
 10
382.1116245968919
 20
112.6323892450831
 30
0.0
 10
382.1402263759512
 20
112.5380630889474
 30
0.0
 10
382.1697884655927
 20
112.4443467444982
 30
0.0
 10
382.2003016126399
 20
112.3512426606079
 30
0.0
 10
382.2670358172292
 20
112.1549774184949
 30
0.0
 10
382.3742189933249
 20
111.8689043028915
 30
0.0
 10
382.5179990836337
 20
111.5316144068982
 30
0.0
 10
382.6512475398455
 20
111.2501052300747
 30
0.0
 10
382.7389187160588
 20
111.0791142998963
 30
0.0
 10
382.7897937518511
 20
110.9832014815138
 30
0.0
 10
382.8174629065025
 20
110.9319842780592
 30
0.0
 10
382.83716182462
 20
110.8960014839741
 30
0.0
 10
382.8494093333235
 20
110.8738315956521
 30
0.0
 10
382.8506961264795
 20
110.8715121279185
 30
0.0
 10
382.8513416065613
 20
110.8703486384989
 30
0.0
  0
SPLINE
  5
10B
330
1F
100
AcDbEntity
  8
0
  6
Continuous
 62
     7
370
    25
100
AcDbSpline
210
0.0
220
0.0
230
1.0
 70
     8
 71
     3
 72
    15
 73
    11
 74
     0
 42
0.000000001
 43
0.00000001
 40
0.0
 40
0.0
 40
0.0
 40
0.0
 40
0.0210215874028217
 40
0.0995174370237692
 40
0.2360970702364024
 40
0.3979402345644331
 40
0.5486163820121709
 40
0.7000321414519293
 40
0.8517813609347173
 40
1.0
 40
1.0
 40
1.0
 40
1.0
 10
398.612093401454
 20
119.1753469296814
 30
0.0
 10
398.6149422122787
 20
119.1708622821795
 30
0.0
 10
398.6284286510718
 20
119.1496316958879
 30
0.0
 10
398.6758346250183
 20
119.0724967586606
 30
0.0
 10
398.7689779538196
 20
118.9165667767857
 30
0.0
 10
398.9053969741576
 20
118.6675515520804
 30
0.0
 10
399.0547201543924
 20
118.3579126995307
 30
0.0
 10
399.2078838509251
 20
118.0159483100016
 30
0.0
 10
399.3535178435955
 20
117.6448399841081
 30
0.0
 10
399.4269109461901
 20
117.3808087440359
 30
0.0
 10
399.4631755841283
 20
117.2503469296814
 30
0.0
  0
LINE
  5
10C
330
1F
100
AcDbEntity
  8
0
  6
Continuous
 62
     7
370
    25
100
AcDbLine
 10
399.1469154268
 20
117.1754836351
 30
0.0
 11
399.4631755841
 21
117.2503469297
 31
0.0
  0
SPLINE
  5
10D
330
1F
100
AcDbEntity
  8
0
  6
Continuous
 62
     7
370
    25
100
AcDbSpline
210
0.0
220
0.0
230
1.0
 70
     8
 71
     3
 72
    14
 73
    10
 74
     0
 42
0.000000001
 43
0.00000001
 40
0.0
 40
0.0
 40
0.0
 40
0.0
 40
0.1400505389350903
 40
0.2837941391411564
 40
0.4267315409806389
 40
0.5707684557847207
 40
0.7165839699846748
 40
0.8593076663242981
 40
1.0
 40
1.0
 40
1.0
 40
1.0
 10
399.1469154267869
 20
117.1754836350812
 30
0.0
 10
399.1101484975846
 20
117.3210436663248
 30
0.0
 10
399.035645114012
 20
117.6160020725847
 30
0.0
 10
398.9004558948266
 20
118.0340660814586
 30
0.0
 10
398.7565714917226
 20
118.4191187748932
 30
0.0
 10
398.6124347517504
 20
118.7569267834786
 30
0.0
 10
398.4800390789681
 20
119.0368675741028
 30
0.0
 10
398.3691182981443
 20
119.253008061739
 30
0.0
 10
398.3277828177068
 20
119.3290712074231
 30
0.0
 10
398.3072632119315
 20
119.3668301918829
 30
0.0
  0
LINE
  5
10E
330
1F
100
AcDbEntity
  8
0
  6
Continuous
 62
     7
370
    25
100
AcDbLine
 10
399.1469154268
 20
113.1127102243
 30
0.0
 11
399.4631755841
 21
113.0378469297
 31
0.0
  0
SPLINE
  5
10F
330
1F
100
AcDbEntity
  8
0
  6
Continuous
 62
     7
370
    25
100
AcDbSpline
210
0.0
220
0.0
230
1.0
 70
     8
 71
     3
 72
    25
 73
    21
 74
     0
 42
0.000000001
 43
0.00000001
 40
0.0
 40
0.0
 40
0.0
 40
0.0
 40
0.0278144320057649
 40
0.0555680196235595
 40
0.083331625366468
 40
0.1111760352153128
 40
0.1391714221517827
 40
0.1673868326271739
 40
0.195889714042447
 40
0.2247454979312803
 40
0.2540172492220635
 40
0.3796724409988544
 40
0.505648463500191
 40
0.6297527290689083
 40
0.7535891720572004
 40
0.803856480609888
 40
0.85333968434422
 40
0.902326439836625
 40
0.9511131859224594
 40
1.0
 40
1.0
 40
1.0
 40
1.0
 10
398.2792937851383
 20
110.8703486384989
 30
0.0
 10
398.279441536453
 20
110.8706151810524
 30
0.0
 10
398.2797367158748
 20
110.8711476830946
 30
0.0
 10
398.2833614148906
 20
110.8776951317908
 30
0.0
 10
398.2893073105609
 20
110.888464375077
 30
0.0
 10
398.297782033476
 20
110.9038751110014
 30
0.0
 10
398.3086970203152
 20
110.9238314872551
 30
0.0
 10
398.3220330885535
 20
110.9483815837256
 30
0.0
 10
398.3377408532405
 20
110.9775382074815
 30
0.0
 10
398.3557724413984
 20
111.0113341789149
 30
0.0
 10
398.3981899861454
 20
111.0917409369702
 30
0.0
 10
398.4787110258993
 20
111.2487293866414
 30
0.0
 10
398.6121373727736
 20
111.5305151243882
 30
0.0
 10
398.7562143494572
 20
111.8683872340161
 30
0.0
 10
398.8718921009092
 20
112.1770681477559
 30
0.0
 10
398.954403576127
 20
112.4230988675125
 30
0.0
 10
399.0073252006524
 20
112.5919247587866
 30
0.0
 10
399.0571823350297
 20
112.7632403297984
 30
0.0
 10
399.1042003282599
 20
112.9369226800182
 30
0.0
 10
399.1326673389882
 20
113.0540743683207
 30
0.0
 10
399.1469154267869
 20
113.1127102242815
 30
0.0
  0
ARC
  5
110
330
1F
100
AcDbEntity
  8
0
  6
Continuous
 62
     7
370
    25
100
AcDbCircle
 10
390.5653176958
 20
115.1440969297
 30
0.0
 40
11.62303852141071
100
AcDbArc
 50
169.5595567507
 51
190.4404432494
  0
ARC
  5
111
330
1F
100
AcDbEntity
  8
0
  6
Continuous
 62
     7
370
    25
100
AcDbCircle
 10
390.5653176958
 20
115.1440969297
 30
0.0
 40
9.143750000000008
100
AcDbArc
 50
166.6824039243
 51
193.3175960757
  0
ARC
  5
112
330
1F
100
AcDbEntity
  8
0
  6
Continuous
 62
     7
370
    25
100
AcDbCircle
 10
390.5653176958
 20
115.1440969297
 30
0.0
 40
8.81874999999997
100
AcDbArc
 50
166.6824039243
 51
193.3175960757
  0
ARC
  5
113
330
1F
100
AcDbEntity
  8
0
  6
Continuous
 62
     7
370
    25
100
AcDbCircle
 10
390.5653176958
 20
115.1440969297
 30
0.0
 40
9.143750000000008
100
AcDbArc
 50
346.6824039243
 51
13.3175960757
  0
ARC
  5
114
330
1F
100
AcDbEntity
  8
0
  6
Continuous
 62
     7
370
    25
100
AcDbCircle
 10
390.5653176958
 20
115.1440969297
 30
0.0
 40
8.818750000000026
100
AcDbArc
 50
346.6824039243
 51
13.3175960757
  0
ARC
  5
115
330
1F
100
AcDbEntity
  8
0
  6
Continuous
 62
     7
370
    25
100
AcDbCircle
 10
390.5653176958
 20
115.1440969297
 30
0.0
 40
11.62303852141071
100
AcDbArc
 50
349.5595567507
 51
10.4404432493
  0
CIRCLE
  5
116
330
1F
100
AcDbEntity
  8
0
  6
Continuous
 62
     7
370
    25
100
AcDbCircle
 10
390.5653176958
 20
115.1440969297
 30
0.0
 40
7.774999999999977
  0
CIRCLE
  5
117
330
1F
100
AcDbEntity
  8
0
  6
Continuous
 62
     7
370
    25
100
AcDbCircle
 10
390.5653176958
 20
115.1440969297
 30
0.0
 40
2.615470053837896
  0
CIRCLE
  5
118
330
1F
100
AcDbEntity
  8
0
  6
Continuous
 62
     7
370
    25
100
AcDbCircle
 10
390.5653176958
 20
115.1440969297
 30
0.0
 40
2.5
  0
CIRCLE
  5
119
330
1F
100
AcDbEntity
  8
0
  6
Continuous
 62
     7
370
    25
100
AcDbCircle
 10
390.5653176958
 20
115.1440969297
 30
0.0
 40
15.73749999999995
  0
CIRCLE
  5
11A
330
1F
100
AcDbEntity
  8
0
  6
Continuous
 62
     7
370
    25
100
AcDbCircle
 10
390.5653176958
 20
115.1440969297
 30
0.0
 40
13.42499999999995
  0
CIRCLE
  5
11B
330
1F
100
AcDbEntity
  8
0
  6
Continuous
 62
     7
370
    25
100
AcDbCircle
 10
390.5653176958
 20
115.1440969297
 30
0.0
 40
2.0
  0
LINE
  5
11C
330
1F
100
AcDbEntity
  8
0
  6
CENTER
 62
     7
370
    18
100
AcDbLine
 10
390.5653176958
 20
115.1440969297
 30
0.0
 11
390.5653176958
 21
134.6585969297
 31
0.0
  0
LINE
  5
11D
330
1F
100
AcDbEntity
  8
0
  6
CENTER
 62
     7
370
    18
100
AcDbLine
 10
390.5653176958
 20
115.1440969297
 30
0.0
 11
410.0798176958
 21
115.1440969297
 31
0.0
  0
LINE
  5
11E
330
1F
100
AcDbEntity
  8
0
  6
Continuous
 62
     7
370
    18
100
AcDbLine
 10
402.5653176958
 20
132.6585969297
 30
0.0
 11
390.5653176958
 21
132.6585969297
 31
0.0
  0
SOLID
  5
11F
330
1F
100
AcDbEntity
  8
0
  6
Continuous
 62
     7
370
    18
100
AcDbTrace
 10
390.5653176958
 20
132.6585969297
 30
0.0
 11
396.5653176958
 21
131.1585969297
 31
0.0
 12
396.5653176958
 22
134.1585969297
 32
0.0
 13
396.5653176958
 23
134.1585969297
 33
0.0
  0
LINE
  5
120
330
1F
100
AcDbEntity
  8
0
  6
Continuous
 62
     7
370
    18
100
AcDbLine
 10
420.0798176958
 20
115.1440969297
 30
0.0
 11
408.0798176958
 21
115.1440969297
 31
0.0
  0
SOLID
  5
121
330
1F
100
AcDbEntity
  8
0
  6
Continuous
 62
     7
370
    18
100
AcDbTrace
 10
408.0798176958
 20
115.1440969297
 30
0.0
 11
414.0798176958
 21
113.6440969297
 31
0.0
 12
414.0798176958
 22
116.6440969297
 32
0.0
 13
414.0798176958
 23
116.6440969297
 33
0.0
  0
MTEXT
  5
122
330
1F
100
AcDbEntity
  8
0
  6
Continuous
 62
     7
100
AcDbMText
 10
399.4179369519
 20
139.3048901463
 30
0.0
 40
3.5
 41
0.0
 71
     1
 72
     1
  1
A
  7
SLDTEXTSTYLE0
 73
     1
 44
1.0
  0
MTEXT
  5
123
330
1F
100
AcDbEntity
  8
0
  6
Continuous
 62
     7
100
AcDbMText
 10
416.9324369519
 20
112.9308812885
 30
0.0
 40
3.5
 41
0.0
 71
     1
 72
     1
  1
A
  7
SLDTEXTSTYLE0
 73
     1
 44
1.0
  0
LINE
  5
124
330
1F
100
AcDbEntity
  8
VERMASSUNG
  6
CENTERX2
370
    18
100
AcDbLine
 10
402.2334965185
 20
118.1740969297
 30
0.0
 11
395.8870495144
 21
118.1740969297
 31
0.0
  0
LINE
  5
125
330
1F
100
AcDbEntity
  8
VERMASSUNG
  6
CENTERX2
370
    18
100
AcDbLine
 10
403.2027343115
 20
117.2503469297
 30
0.0
 11
396.4337845705
 21
117.2503469297
 31
0.0
  0
LINE
  5
126
330
1F
100
AcDbEntity
  8
VERMASSUNG
  6
CENTERX2
370
    18
100
AcDbLine
 10
403.2020886692
 20
113.0378469297
 30
0.0
 11
396.4322433244
 21
113.0378469297
 31
0.0
  0
LINE
  5
127
330
1F
100
AcDbEntity
  8
VERMASSUNG
  6
CENTERX2
370
    18
100
AcDbLine
 10
383.9596371776
 20
113.0378469297
 30
0.0
 11
377.0049178332
 21
113.0378469297
 31
0.0
  0
LINE
  5
128
330
1F
100
AcDbEntity
  8
VERMASSUNG
  6
CENTERX2
370
    18
100
AcDbLine
 10
383.7751102857
 20
117.2503469297
 30
0.0
 11
377.0052649409
 21
117.2503469297
 31
0.0
  0
LINE
  5
129
330
1F
100
AcDbEntity
  8
VERMASSUNG
  6
CENTERX2
370
    18
100
AcDbLine
 10
384.4616153699
 20
118.1740969297
 30
0.0
 11
378.1172973213
 21
118.1740969297
 31
0.0
  0
LINE
  5
12A
330
1F
100
AcDbEntity
  8
0
  6
Continuous
 62
     7
370
    25
100
AcDbLine
 10
154.8747787734
 20
83.6690969297
 30
0.0
 11
159.6405809688
 21
83.6690969297
 31
0.0
  0
ARC
  5
12B
330
1F
100
AcDbEntity
  8
0
  6
Continuous
 62
     7
370
    25
100
AcDbCircle
 10
141.8405809688
 20
83.8690969297
 30
0.0
 40
0.2000000000000171
100
AcDbArc
 50
180.0
 51
270.0
  0
LINE
  5
12C
330
1F
100
AcDbEntity
  8
0
  6
Continuous
 62
     7
370
    25
100
AcDbLine
 10
141.8405809688
 20
83.6690969297
 30
0.0
 11
148.2063831642
 21
83.6690969297
 31
0.0
  0
LINE
  5
12D
330
1F
100
AcDbEntity
  8
0
  6
Continuous
 62
     7
370
    25
100
AcDbLine
 10
148.2063831642
 20
83.6690969297
 30
0.0
 11
149.6655809688
 21
86.1965016655
 31
0.0
  0
LINE
  5
12E
330
1F
100
AcDbEntity
  8
0
  6
Continuous
 62
     7
370
    25
100
AcDbLine
 10
153.4155809688
 20
86.1965016655
 30
0.0
 11
154.8747787734
 21
83.6690969297
 31
0.0
  0
ARC
  5
12F
330
1F
100
AcDbEntity
  8
0
  6
Continuous
 62
     7
370
    25
100
AcDbCircle
 10
150.6655809688
 20
86.2940969297
 30
0.0
 40
1.0
100
AcDbArc
 50
90.0
 51
180.0
  0
ARC
  5
130
330
1F
100
AcDbEntity
  8
0
  6
Continuous
 62
     7
370
    25
100
AcDbCircle
 10
152.4155809688
 20
86.2940969297
 30
0.0
 40
1.0
100
AcDbArc
 50
0.0
 51
90.0
  0
LINE
  5
131
330
1F
100
AcDbEntity
  8
0
  6
Continuous
 62
     7
370
    25
100
AcDbLine
 10
150.6655809688
 20
87.2940969297
 30
0.0
 11
152.4155809688
 21
87.2940969297
 31
0.0
  0
ARC
  5
132
330
1F
100
AcDbEntity
  8
0
  6
Continuous
 62
     7
370
    25
100
AcDbCircle
 10
141.2116460942
 20
89.5940969297
 30
0.0
 40
0.8000000000000181
100
AcDbArc
 50
57.576802718
 51
107.5
  0
LINE
  5
133
330
1F
100
AcDbEntity
  8
0
  6
Continuous
 62
     7
370
    25
100
AcDbLine
 10
140.4803989288
 20
90.2023588842
 30
0.0
 11
140.9710814546
 21
90.3570704903
 31
0.0
  0
LINE
  5
134
330
1F
100
AcDbEntity
  8
0
  6
Continuous
 62
     7
370
    25
100
AcDbLine
 10
127.1541355008
 20
90.8715764089
 30
0.0
 11
140.4803989288
 21
90.2023588842
 31
0.0
  0
LINE
  5
135
330
1F
100
AcDbEntity
  8
0
  6
Continuous
 62
     7
370
    25
100
AcDbLine
 10
103.1905809688
 20
92.0749768021
 30
0.0
 11
111.2454178323
 21
91.6704794711
 31
0.0
  0
LINE
  5
136
330
1F
100
AcDbEntity
  8
0
  6
Continuous
 62
     7
370
    25
100
AcDbLine
 10
101.6905809688
 20
92.9410022059
 30
0.0
 11
103.1905809688
 21
92.0749768021
 31
0.0
  0
ARC
  5
137
330
1F
100
AcDbEntity
  8
0
  6
Continuous
 62
     7
370
    25
100
AcDbCircle
 10
162.6405809688
 20
94.6440969297
 30
0.0
 40
3.0
100
AcDbArc
 50
90.0
 51
180.0
  0
LINE
  5
138
330
1F
100
AcDbEntity
  8
0
  6
Continuous
 62
     7
370
    25
100
AcDbLine
 10
162.6405809688
 20
97.6440969297
 30
0.0
 11
190.9180463662
 21
97.6440969297
 31
0.0
  0
LINE
  5
139
330
1F
100
AcDbEntity
  8
0
  6
Continuous
 62
     7
370
    25
100
AcDbLine
 10
190.9180463662
 20
97.6440969297
 30
0.0
 11
200.4858174923
 21
102.1056218772
 31
0.0
  0
ARC
  5
13A
330
1F
100
AcDbEntity
  8
0
  6
Continuous
 62
     7
370
    25
100
AcDbCircle
 10
199.6405809688
 20
103.9182374513
 30
0.0
 40
2.000000000000001
100
AcDbArc
 50
295.0
 51
0.0
  0
LINE
  5
13B
330
1F
100
AcDbEntity
  8
0
  6
Continuous
 62
     7
370
    25
100
AcDbLine
 10
178.6405809688
 20
120.1440969297
 30
0.0
 11
177.1405809688
 21
121.6440969297
 31
0.0
  0
LINE
  5
13C
330
1F
100
AcDbEntity
  8
0
  6
Continuous
 62
     7
370
    25
100
AcDbLine
 10
177.1405809688
 20
121.6440969297
 30
0.0
 11
177.1405809688
 21
131.8440969297
 31
0.0
  0
LINE
  5
13D
330
1F
100
AcDbEntity
  8
0
  6
Continuous
 62
     7
370
    25
100
AcDbLine
 10
177.1405809688
 20
131.8440969297
 30
0.0
 11
177.9405809688
 21
132.6440969297
 31
0.0
  0
LINE
  5
13E
330
1F
100
AcDbEntity
  8
0
  6
Continuous
 62
     7
370
    25
100
AcDbLine
 10
177.9405809688
 20
132.6440969297
 30
0.0
 11
179.6405809688
 21
132.6440969297
 31
0.0
  0
LINE
  5
13F
330
1F
100
AcDbEntity
  8
0
  6
Continuous
 62
     7
370
    25
100
AcDbLine
 10
179.6405809688
 20
126.6440969297
 30
0.0
 11
179.6405809688
 21
132.6440969297
 31
0.0
  0
LINE
  5
140
330
1F
100
AcDbEntity
  8
0
  6
Continuous
 62
     7
370
    25
100
AcDbLine
 10
179.6405809688
 20
126.6440969297
 30
0.0
 11
184.6405809688
 21
126.6440969297
 31
0.0
  0
LINE
  5
141
330
1F
100
AcDbEntity
  8
0
  6
Continuous
 62
     7
370
    25
100
AcDbLine
 10
184.6405809688
 20
126.6440969297
 30
0.0
 11
184.6405809688
 21
132.6440969297
 31
0.0
  0
LINE
  5
142
330
1F
100
AcDbEntity
  8
0
  6
Continuous
 62
     7
370
    25
100
AcDbLine
 10
184.6405809688
 20
132.6440969297
 30
0.0
 11
186.3405809688
 21
132.6440969297
 31
0.0
  0
LINE
  5
143
330
1F
100
AcDbEntity
  8
0
  6
Continuous
 62
     7
370
    25
100
AcDbLine
 10
186.3405809688
 20
132.6440969297
 30
0.0
 11
187.1405809688
 21
131.8440969297
 31
0.0
  0
LINE
  5
144
330
1F
100
AcDbEntity
  8
0
  6
Continuous
 62
     7
370
    25
100
AcDbLine
 10
187.1405809688
 20
131.8440969297
 30
0.0
 11
187.1405809688
 21
121.6440969297
 31
0.0
  0
LINE
  5
145
330
1F
100
AcDbEntity
  8
0
  6
Continuous
 62
     7
370
    25
100
AcDbLine
 10
187.1405809688
 20
121.6440969297
 30
0.0
 11
185.6405809688
 21
120.1440969297
 31
0.0
  0
LINE
  5
146
330
1F
100
AcDbEntity
  8
0
  6
Continuous
 62
     7
370
    25
100
AcDbLine
 10
185.6405809688
 20
120.1440969297
 30
0.0
 11
184.6405809688
 21
120.1440969297
 31
0.0
  0
LINE
  5
147
330
1F
100
AcDbEntity
  8
0
  6
Continuous
 62
     7
370
    25
100
AcDbLine
 10
182.1405809688
 20
121.5874726027
 30
0.0
 11
184.6405809688
 21
120.1440969297
 31
0.0
  0
LINE
  5
148
330
1F
100
AcDbEntity
  8
0
  6
Continuous
 62
     7
370
    25
100
AcDbLine
 10
179.6405809688
 20
120.1440969297
 30
0.0
 11
182.1405809688
 21
121.5874726027
 31
0.0
  0
LINE
  5
149
330
1F
100
AcDbEntity
  8
0
  6
Continuous
 62
     7
370
    25
100
AcDbLine
 10
179.6405809688
 20
120.1440969297
 30
0.0
 11
178.6405809688
 21
120.1440969297
 31
0.0
  0
LINE
  5
14A
330
1F
100
AcDbEntity
  8
0
  6
Continuous
 62
     7
370
    25
100
AcDbLine
 10
184.6405809688
 20
120.1440969297
 30
0.0
 11
179.6405809688
 21
120.1440969297
 31
0.0
  0
LINE
  5
14B
330
1F
100
AcDbEntity
  8
0
  6
Continuous
 62
     7
370
    25
100
AcDbLine
 10
182.1405809688
 20
126.6440969297
 30
0.0
 11
182.1405809688
 21
132.6440969297
 31
0.0
  0
LINE
  5
14C
330
1F
100
AcDbEntity
  8
0
  6
Continuous
 62
     7
370
    25
100
AcDbLine
 10
184.6405809688
 20
132.6440969297
 30
0.0
 11
182.1405809688
 21
132.6440969297
 31
0.0
  0
LINE
  5
14D
330
1F
100
AcDbEntity
  8
0
  6
Continuous
 62
     7
370
    25
100
AcDbLine
 10
179.6405809688
 20
132.6440969297
 30
0.0
 11
182.1405809688
 21
132.6440969297
 31
0.0
  0
LINE
  5
14E
330
1F
100
AcDbEntity
  8
0
  6
Continuous
 62
     7
370
    25
100
AcDbLine
 10
154.8747787734
 20
83.6690969297
 30
0.0
 11
154.8747787734
 21
110.25438965
 31
0.0
  0
SPLINE
  5
14F
330
1F
100
AcDbEntity
  8
0
  6
Continuous
 62
     7
370
    25
100
AcDbSpline
210
0.0
220
0.0
230
1.0
 70
     8
 71
     3
 72
    20
 73
    16
 74
     0
 42
0.000000001
 43
0.00000001
 40
0.0
 40
0.0
 40
0.0
 40
0.0
 40
0.1249999999999996
 40
0.1249999999999996
 40
0.2499999999999992
 40
0.2499999999999992
 40
0.3749999999999989
 40
0.3749999999999989
 40
0.4999999999999987
 40
0.4999999999999987
 40
0.7499999999999994
 40
0.7499999999999994
 40
0.8749999999999997
 40
0.8749999999999997
 40
1.0
 40
1.0
 40
1.0
 40
1.0
 10
158.4280809687887
 20
115.1440969296812
 30
0.0
 10
158.4280809687887
 20
114.8774288421999
 30
0.0
 10
158.4060339397451
 20
114.6091166669259
 30
0.0
 10
158.3170279020402
 20
114.0762736316925
 30
0.0
 10
158.2511489338408
 20
113.8169834217066
 30
0.0
 10
158.0789740261336
 20
113.3118564556851
 30
0.0
 10
157.9722674552266
 20
113.0652762397639
 30
0.0
 10
157.7195905523504
 20
112.5888595890241
 30
0.0
 10
157.5761332881557
 20
112.3634395272593
 30
0.0
 10
157.0978110958752
 20
111.7228318456455
 30
0.0
 10
156.7097841129096
 20
111.3400661305425
 30
0.0
 10
156.0679794644643
 20
110.8641638823708
 30
0.0
 10
155.8431748368171
 20
110.7205682462191
 30
0.0
 10
155.3718657791949
 20
110.4632368608286
 30
0.0
 10
155.1261691793059
 20
110.3501844823066
 30
0.0
 10
154.8747787733588
 20
110.254389649996
 30
0.0
  0
LINE
  5
150
330
1F
100
AcDbEntity
  8
0
  6
Continuous
 62
     7
370
    25
100
AcDbLine
 10
159.6405809688
 20
83.6690969297
 30
0.0
 11
159.6405809688
 21
115.1440969297
 31
0.0
  0
LINE
  5
151
330
1F
100
AcDbEntity
  8
0
  6
Continuous
 62
     7
370
    25
100
AcDbLine
 10
159.6405809688
 20
146.6190969297
 30
0.0
 11
154.8747787734
 21
146.6190969297
 31
0.0
  0
LINE
  5
152
330
1F
100
AcDbEntity
  8
0
  6
Continuous
 62
     7
370
    25
100
AcDbLine
 10
141.6405809688
 20
83.8690969297
 30
0.0
 11
141.6405809688
 21
115.1440969297
 31
0.0
  0
LINE
  5
153
330
1F
100
AcDbEntity
  8
0
  6
Continuous
 62
     7
370
    25
100
AcDbLine
 10
141.6405809688
 20
115.1440969297
 30
0.0
 11
141.8405809688
 21
115.1440969297
 31
0.0
  0
ARC
  5
154
330
1F
100
AcDbEntity
  8
0
  6
Continuous
 62
     7
370
    25
100
AcDbCircle
 10
141.8405809688
 20
146.4190969297
 30
0.0
 40
0.2000000000000455
100
AcDbArc
 50
90.0
 51
179.9999999999
  0
SPLINE
  5
155
330
1F
100
AcDbEntity
  8
0
  6
Continuous
 62
     7
370
    25
100
AcDbSpline
210
0.0
220
0.0
230
1.0
 70
     8
 71
     3
 72
    14
 73
    10
 74
     0
 42
0.000000001
 43
0.00000001
 40
0.0
 40
0.0
 40
0.0
 40
0.0
 40
0.25
 40
0.25
 40
0.5
 40
0.5
 40
0.75
 40
0.75
 40
1.0
 40
1.0
 40
1.0
 40
1.0
 10
148.2063831642187
 20
111.8491988441643
 30
0.0
 10
148.0095072786937
 20
112.0766954120934
 30
0.0
 10
147.8333989573042
 20
112.3182821871646
 30
0.0
 10
147.523662563531
 20
112.8304394215387
 30
0.0
 10
147.3891045620374
 20
113.1039722246469
 30
0.0
 10
147.1738624093283
 20
113.6640773591843
 30
0.0
 10
147.0922191718093
 20
113.9510498545943
 30
0.0
 10
146.9816961495393
 20
114.5390888396386
 30
0.0
 10
146.9530809687888
 20
114.8435322954093
 30
0.0
 10
146.9530809687888
 20
115.144096929681
 30
0.0
  0
LINE
  5
156
330
1F
100
AcDbEntity
  8
0
  6
Continuous
 62
     7
370
    25
100
AcDbLine
 10
148.2063831642
 20
83.6690969297
 30
0.0
 11
148.2063831642
 21
111.8491988442
 31
0.0
  0
LINE
  5
157
330
1F
100
AcDbEntity
  8
0
  6
Continuous
 62
     7
370
    25
100
AcDbLine
 10
148.2063831642
 20
146.6190969297
 30
0.0
 11
141.8405809688
 21
146.6190969297
 31
0.0
  0
ARC
  5
158
330
1F
100
AcDbEntity
  8
0
  6
Continuous
 62
     7
370
    25
100
AcDbCircle
 10
152.6905809688
 20
115.1440969297
 30
0.0
 40
3.737500000000011
100
AcDbArc
 50
180.0
 51
206.113804444
  0
SPLINE
  5
159
330
1F
100
AcDbEntity
  8
0
  6
Continuous
 62
     7
370
    25
100
AcDbSpline
210
0.0
220
0.0
230
1.0
 70
     8
 71
     3
 72
    10
 73
     6
 74
     0
 42
0.000000001
 43
0.00000001
 40
0.0
 40
0.0
 40
0.0
 40
0.0
 40
0.5
 40
0.5
 40
1.0
 40
1.0
 40
1.0
 40
1.0
 10
149.3345991613355
 20
113.4990156678454
 30
0.0
 10
149.1577140149121
 20
113.2005653524889
 30
0.0
 10
148.9721646400347
 20
112.9215726483614
 30
0.0
 10
148.5942156999871
 20
112.3762533542357
 30
0.0
 10
148.4014291578079
 20
112.1109179684143
 30
0.0
 10
148.2063831642186
 20
111.8491988441643
 30
0.0
  0
SPLINE
  5
15A
330
1F
100
AcDbEntity
  8
0
  6
Continuous
 62
     7
370
    25
100
AcDbSpline
210
0.0
220
0.0
230
1.0
 70
     8
 71
     3
 72
     8
 73
     4
 74
     0
 42
0.000000001
 43
0.00000001
 40
0.0
 40
0.0
 40
0.0
 40
0.0
 40
1.0
 40
1.0
 40
1.0
 40
1.0
 10
154.8747787733584
 20
110.2543896499948
 30
0.0
 10
154.5263773686781
 20
110.6923649764087
 30
0.0
 10
154.1818089834453
 20
111.1354481149935
 30
0.0
 10
153.8434246841244
 20
111.5888391868421
 30
0.0
  0
ARC
  5
15B
330
1F
100
AcDbEntity
  8
0
  6
Continuous
 62
     7
370
    25
100
AcDbCircle
 10
152.6905809688
 20
115.1440969297
 30
0.0
 40
3.737500000000011
100
AcDbArc
 50
287.9660359156
 51
0.0
  0
SPLINE
  5
15C
330
1F
100
AcDbEntity
  8
0
  6
Continuous
 62
     7
370
    25
100
AcDbSpline
210
0.0
220
0.0
230
1.0
 70
     8
 71
     3
 72
     8
 73
     4
 74
     0
 42
0.000000001
 43
0.00000001
 40
0.0
 40
0.0
 40
0.0
 40
0.0
 40
1.0
 40
1.0
 40
1.0
 40
1.0
 10
149.6655809687888
 20
112.9490385591587
 30
0.0
 10
149.5472842093588
 20
113.1120627876171
 30
0.0
 10
149.4358557271875
 20
113.2924512866396
 30
0.0
 10
149.3345991613355
 20
113.4990156678454
 30
0.0
  0
LINE
  5
15D
330
1F
100
AcDbEntity
  8
0
  6
Continuous
 62
     7
370
    25
100
AcDbLine
 10
149.6655809688
 20
86.1965016655
 30
0.0
 11
149.6655809688
 21
112.9490385592
 31
0.0
  0
SPLINE
  5
15E
330
1F
100
AcDbEntity
  8
0
  6
Continuous
 62
     7
370
    25
100
AcDbSpline
210
0.0
220
0.0
230
1.0
 70
     8
 71
     3
 72
     8
 73
     4
 74
     0
 42
0.000000001
 43
0.00000001
 40
0.0
 40
0.0
 40
0.0
 40
0.0
 40
1.0
 40
1.0
 40
1.0
 40
1.0
 10
153.8434246841247
 20
111.5888391868429
 30
0.0
 10
153.7018865958429
 20
111.5429434157459
 30
0.0
 10
153.559276127106
 20
111.5060025648086
 30
0.0
 10
153.415580968789
 20
111.477588883868
 30
0.0
  0
LINE
  5
15F
330
1F
100
AcDbEntity
  8
0
  6
Continuous
 62
     7
370
    25
100
AcDbLine
 10
153.4155809688
 20
86.1965016655
 30
0.0
 11
153.4155809688
 21
111.4775888839
 31
0.0
  0
SPLINE
  5
160
330
1F
100
AcDbEntity
  8
0
  6
Continuous
 62
     7
370
    25
100
AcDbSpline
210
0.0
220
0.0
230
1.0
 70
     8
 71
     3
 72
    14
 73
    10
 74
     0
 42
0.000000001
 43
0.00000001
 40
0.0
 40
0.0
 40
0.0
 40
0.0
 40
0.25
 40
0.25
 40
0.5
 40
0.5
 40
0.75
 40
0.75
 40
1.0
 40
1.0
 40
1.0
 40
1.0
 10
150.6655809687888
 20
112.002714869186
 30
0.0
 10
150.5312328824323
 20
112.0893184308136
 30
0.0
 10
150.4080562085763
 20
112.180786828137
 30
0.0
 10
150.1793096036583
 20
112.3719782147679
 30
0.0
 10
150.0773876396911
 20
112.4688400669088
 30
0.0
 10
149.8979642372624
 20
112.6567146816441
 30
0.0
 10
149.8215229490796
 20
112.7469500329954
 30
0.0
 10
149.7042329762295
 20
112.8947563969728
 30
0.0
 10
149.6655809687888
 20
112.9490385591588
 30
0.0
 10
149.6655809687888
 20
112.9490385591588
 30
0.0
  0
SPLINE
  5
161
330
1F
100
AcDbEntity
  8
0
  6
Continuous
 62
     7
370
    25
100
AcDbSpline
210
0.0
220
0.0
230
1.0
 70
     8
 71
     3
 72
    14
 73
    10
 74
     0
 42
0.000000001
 43
0.00000001
 40
0.0
 40
0.0
 40
0.0
 40
0.0
 40
0.25
 40
0.25
 40
0.5
 40
0.5
 40
0.75
 40
0.75
 40
1.0
 40
1.0
 40
1.0
 40
1.0
 10
153.4155809687889
 20
111.4775888838685
 30
0.0
 10
153.415580968789
 20
111.4775888838685
 30
0.0
 10
153.3896644462179
 20
111.4722121528802
 30
0.0
 10
153.2902195996404
 20
111.4546675652797
 30
0.0
 10
153.2179212072281
 20
111.4428181616334
 30
0.0
 10
153.0332173127042
 20
111.4211743436331
 30
0.0
 10
152.9236400508283
 20
111.4118850829487
 30
0.0
 10
152.6803098726102
 20
111.4046295465911
 30
0.0
 10
152.54877361369
 20
111.4069009527505
 30
0.0
 10
152.4155809687888
 20
111.4167277166837
 30
0.0
  0
SPLINE
  5
162
330
1F
100
AcDbEntity
  8
0
  6
Continuous
 62
     7
370
    25
100
AcDbSpline
210
0.0
220
0.0
230
1.0
 70
     8
 71
     3
 72
    10
 73
     6
 74
     0
 42
0.000000001
 43
0.00000001
 40
0.0
 40
0.0
 40
0.0
 40
0.0
 40
0.5
 40
0.5
 40
1.0
 40
1.0
 40
1.0
 40
1.0
 10
152.4155809687887
 20
111.4167277166838
 30
0.0
 10
152.1031170665007
 20
111.4397808590528
 30
0.0
 10
151.8002280845029
 20
111.5010155614592
 30
0.0
 10
151.2128848996988
 20
111.6971875253831
 30
0.0
 10
150.9284172391269
 20
111.833285160483
 30
0.0
 10
150.6655809687888
 20
112.002714869186
 30
0.0
  0
LINE
  5
163
330
1F
100
AcDbEntity
  8
0
  6
Continuous
 62
     7
370
    25
100
AcDbLine
 10
141.6405809688
 20
141.9940969297
 30
0.0
 11
141.9746196548
 21
140.9346615693
 31
0.0
  0
LINE
  5
164
330
1F
100
AcDbEntity
  8
0
  6
Continuous
 62
     7
370
    25
100
AcDbLine
 10
141.6405809688
 20
141.9940969297
 30
0.0
 11
141.6405809688
 21
140.0188081963
 31
0.0
  0
ARC
  5
165
330
1F
100
AcDbEntity
  8
0
  6
Continuous
 62
     7
370
    25
100
AcDbCircle
 10
141.2116460942
 20
140.6940969297
 30
0.0
 40
0.8000000000000181
100
AcDbArc
 50
252.5
 51
17.5
  0
LINE
  5
166
330
1F
100
AcDbEntity
  8
0
  6
Continuous
 62
     7
370
    25
100
AcDbLine
 10
140.4803989288
 20
90.2023588842
 30
0.0
 11
140.4803989288
 21
115.1440969297
 31
0.0
  0
LINE
  5
167
330
1F
100
AcDbEntity
  8
0
  6
Continuous
 62
     7
370
    25
100
AcDbLine
 10
140.9710814546
 20
139.9311233691
 30
0.0
 11
140.4803989288
 21
140.0858349752
 31
0.0
  0
SPLINE
  5
168
330
1F
100
AcDbEntity
  8
0
  6
Continuous
 62
     7
370
    25
100
AcDbSpline
210
0.0
220
0.0
230
1.0
 70
     8
 71
     3
 72
    23
 73
    19
 74
     0
 42
0.000000001
 43
0.00000001
 40
0.0
 40
0.0
 40
0.0
 40
0.0
 40
0.001446538067684
 40
0.0696020615250797
 40
0.1372543686877721
 40
0.2039589927303561
 40
0.2702907462898638
 40
0.3365481587483026
 40
0.4028600427874649
 40
0.4678618153390205
 40
0.5326346827483721
 40
0.5993540732925763
 40
0.6655184441100623
 40
0.7321132013640592
 40
0.7988840361125119
 40
0.8663348105332486
 40
0.9345219374316857
 40
0.9999999999999999
 40
0.9999999999999999
 40
0.9999999999999999
 40
0.9999999999999999
 10
111.4004050330935
 20
138.5683551176959
 30
0.0
 10
111.4015493158568
 20
138.568002095493
 30
0.0
 10
111.4566079700786
 20
138.5510159728118
 30
0.0
 10
111.8530126090195
 20
138.4337545314974
 30
0.0
 10
112.5690516236915
 20
138.2331499995031
 30
0.0
 10
113.5787362588758
 20
137.9925335191407
 30
0.0
 10
114.7947131159079
 20
137.7652616404474
 30
0.0
 10
116.1989134195394
 20
137.5928720299633
 30
0.0
 10
117.7159774438369
 20
137.5048037490374
 30
0.0
 10
119.2902753077681
 20
137.5358514037973
 30
0.0
 10
120.8560955300125
 20
137.68687464461
 30
0.0
 10
122.3459526005693
 20
137.9412114428792
 30
0.0
 10
123.717632792631
 20
138.2589482216169
 30
0.0
 10
124.9035558864248
 20
138.6028646417294
 30
0.0
 10
125.8811552304128
 20
138.9307072420439
 30
0.0
 10
126.6006663820087
 20
139.199631671526
 30
0.0
 10
127.0733013837096
 20
139.3822210071481
 30
0.0
 10
127.130772498063
 20
139.4054693997329
 30
0.0
 10
127.1589256562377
 20
139.4168580021831
 30
0.0
  0
LINE
  5
169
330
1F
100
AcDbEntity
  8
0
  6
Continuous
 62
     7
370
    25
100
AcDbLine
 10
111.2410150835
 20
138.6174932912
 30
0.0
 11
103.1905809688
 21
138.2132170573
 31
0.0
  0
LINE
  5
16A
330
1F
100
AcDbEntity
  8
0
  6
Continuous
 62
     7
370
    25
100
AcDbLine
 10
103.1905809688
 20
92.0749768021
 30
0.0
 11
103.1905809688
 21
106.0219738951
 31
0.0
  0
SPLINE
  5
16B
330
1F
100
AcDbEntity
  8
0
  6
Continuous
 62
     7
370
    25
100
AcDbSpline
210
0.0
220
0.0
230
1.0
 70
     8
 71
     3
 72
     8
 73
     4
 74
     0
 42
0.000000001
 43
0.00000001
 40
0.0
 40
0.0
 40
0.0
 40
0.0
 40
1.0
 40
1.0
 40
1.0
 40
1.0
 10
109.0087554217357
 20
106.0265599533777
 30
0.0
 10
107.0693639374243
 20
106.0244138575281
 30
0.0
 10
105.1299724531129
 20
106.0228176710034
 30
0.0
 10
103.1905809688015
 20
106.0217702185276
 30
0.0
  0
SPLINE
  5
16C
330
1F
100
AcDbEntity
  8
0
  6
Continuous
 62
     7
370
    25
100
AcDbSpline
210
0.0
220
0.0
230
1.0
 70
     8
 71
     3
 72
    13
 73
     9
 74
     0
 42
0.000000001
 43
0.00000001
 40
0.0
 40
0.0
 40
0.0
 40
0.0
 40
0.1686319999748085
 40
0.3360343310905433
 40
0.502536782590866
 40
0.6684737453788339
 40
0.834182263691515
 40
1.0
 40
1.0
 40
1.0
 40
1.0
 10
110.0922504712027
 20
106.1640163991954
 30
0.0
 10
110.032760575143
 20
106.1495020791565
 30
0.0
 10
109.9142145848679
 20
106.1205792778719
 30
0.0
 10
109.734337889282
 20
106.0866178844637
 30
0.0
 10
109.553947601654
 20
106.0597523221047
 30
0.0
 10
109.3728354296202
 20
106.0407933849967
 30
0.0
 10
109.1910745924527
 20
106.0288629336011
 30
0.0
 10
109.0695418245581
 20
106.0273277820322
 30
0.0
 10
109.0087554217357
 20
106.0265599533777
 30
0.0
  0
SPLINE
  5
16D
330
1F
100
AcDbEntity
  8
0
  6
Continuous
 62
     7
370
    25
100
AcDbSpline
210
0.0
220
0.0
230
1.0
 70
     8
 71
     3
 72
     8
 73
     4
 74
     0
 42
0.000000001
 43
0.00000001
 40
0.0
 40
0.0
 40
0.0
 40
0.0
 40
1.0
 40
1.0
 40
1.0
 40
1.0
 10
115.4844438876956
 20
106.1682544410808
 30
0.0
 10
113.6870492162577
 20
106.1663833805568
 30
0.0
 10
111.8896545448199
 20
106.1649611995327
 30
0.0
 10
110.0922598733821
 20
106.1639870765367
 30
0.0
  0
SPLINE
  5
16E
330
1F
100
AcDbEntity
  8
0
  6
Continuous
 62
     7
370
    25
100
AcDbSpline
210
0.0
220
0.0
230
1.0
 70
     8
 71
     3
 72
    18
 73
    14
 74
     0
 42
0.000000001
 43
0.00000001
 40
0.0
 40
0.0
 40
0.0
 40
0.0
 40
0.0923325137111192
 40
0.1843692047063016
 40
0.2763458873810836
 40
0.3684982175655623
 40
0.4610598988303626
 40
0.554260954653301
 40
0.6483261285442131
 40
0.74347346365053
 40
0.8399130993119804
 40
0.9201660718299768
 40
1.0
 40
1.0
 40
1.0
 40
1.0
 10
117.6807655362979
 20
105.6340622052371
 30
0.0
 10
117.6104352327848
 20
105.6344788296688
 30
0.0
 10
117.4699999559329
 20
105.6353107437154
 30
0.0
 10
117.2596374294303
 20
105.64891959063
 30
0.0
 10
117.0501937665139
 20
105.6715863480016
 30
0.0
 10
116.8416440961414
 20
105.7041871378024
 30
0.0
 10
116.6340004788661
 20
105.7464896164226
 30
0.0
 10
116.4272622913265
 20
105.7985610150778
 30
0.0
 10
116.2214401993617
 20
105.8604097879232
 30
0.0
 10
116.0165085205695
 20
105.9320077993794
 30
0.0
 10
115.8250277751738
 20
106.0085862896068
 30
0.0
 10
115.6473046231192
 20
106.0871975384398
 30
0.0
 10
115.5389706285552
 20
106.1411116942272
 30
0.0
 10
115.4849454191019
 20
106.1679982091262
 30
0.0
  0
LINE
  5
16F
330
1F
100
AcDbEntity
  8
0
  6
Continuous
 62
     7
370
    25
100
AcDbLine
 10
119.5956388156
 20
105.6355576401
 30
0.0
 11
117.6807655363
 21
105.6340622052
 31
0.0
  0
SPLINE
  5
170
330
1F
100
AcDbEntity
  8
0
  6
Continuous
 62
     7
370
    25
100
AcDbSpline
210
0.0
220
0.0
230
1.0
 70
     8
 71
     3
 72
    25
 73
    21
 74
     0
 42
0.000000001
 43
0.00000001
 40
0.0
 40
0.0
 40
0.0
 40
0.0
 40
0.0280105225422753
 40
0.0559601148854256
 40
0.0839014045034749
 40
0.1118870776777086
 40
0.1399695827579646
 40
0.1682008401731476
 40
0.1966319670417595
 40
0.2253130233137476
 40
0.2542927850735311
 40
0.3799486436564626
 40
0.5057850221666382
 40
0.631308588631066
 40
0.7532068238011618
 40
0.8039473267946936
 40
0.8535894438541253
 40
0.9025339722380873
 40
0.9511970353782256
 40
1.0
 40
1.0
 40
1.0
 40
1.0
 10
124.5355231219902
 20
110.7694214446125
 30
0.0
 10
124.535560343724
 20
110.6948014176
 30
0.0
 10
124.5356347062247
 20
110.5457236816145
 30
0.0
 10
124.5232186555781
 20
110.3231055906503
 30
0.0
 10
124.5016140952243
 20
110.1017811726229
 30
0.0
 10
124.4699286255643
 20
109.881812906735
 30
0.0
 10
124.4284024872444
 20
109.6632226195059
 30
0.0
 10
124.3769717315145
 20
109.4460406811009
 30
0.0
 10
124.3156578568032
 20
109.2302992612146
 30
0.0
 10
124.2444475213038
 20
109.0160093697625
 30
0.0
 10
124.0736109141026
 20
108.5676595967415
 30
0.0
 10
123.7358786806666
 20
107.9143287686694
 30
0.0
 10
123.1243240164719
 20
107.1424355580333
 30
0.0
 10
122.3880891813194
 20
106.498275932648
 30
0.0
 10
121.7016031096751
 20
106.106634764586
 30
0.0
 10
121.1528989635263
 20
105.8879398636129
 30
0.0
 10
120.7708627850247
 20
105.7720838147825
 30
0.0
 10
120.3836966863201
 20
105.6911759092526
 30
0.0
 10
119.99147001753
 20
105.6419474784549
 30
0.0
 10
119.7277087494112
 20
105.6376896234397
 30
0.0
 10
119.5956388155873
 20
105.6355576400969
 30
0.0
  0
LINE
  5
171
330
1F
100
AcDbEntity
  8
0
  6
Continuous
 62
     7
370
    25
100
AcDbLine
 10
124.535523122
 20
115.1440969297
 30
0.0
 11
124.535523122
 21
110.7694214446
 31
0.0
  0
LINE
  5
172
330
1F
100
AcDbEntity
  8
0
  6
Continuous
 62
     7
370
    25
100
AcDbLine
 10
140.4803989288
 20
140.0858349752
 30
0.0
 11
127.1589256562
 21
139.4168580022
 31
0.0
  0
SPLINE
  5
173
330
1F
100
AcDbEntity
  8
0
  6
Continuous
 62
     7
370
    25
100
AcDbSpline
210
0.0
220
0.0
230
1.0
 70
     8
 71
     3
 72
    20
 73
    16
 74
     0
 42
0.000000001
 43
0.00000001
 40
0.0
 40
0.0
 40
0.0
 40
0.0
 40
0.0829621378684854
 40
0.1658495135106167
 40
0.248718007085736
 40
0.3299477216398529
 40
0.4108693994445741
 40
0.4941953814850569
 40
0.5768901676626235
 40
0.6601065810557787
 40
0.7435845489350865
 40
0.8279858465401899
 40
0.9132590745392897
 40
0.9972257035811819
 40
1.0
 40
1.0
 40
1.0
 40
1.0
 10
113.5529970635157
 20
92.28083656217422
 30
0.0
 10
113.938742899587
 20
92.35775498877835
 30
0.0
 10
114.7098869527042
 20
92.51152252611594
 30
0.0
 10
116.1176351038741
 20
92.68743774750148
 30
0.0
 10
117.6254864717487
 20
92.78143403483053
 30
0.0
 10
119.1979754467665
 20
92.7575896529639
 30
0.0
 10
120.7652724779786
 20
92.61368460806332
 30
0.0
 10
122.2610485047601
 20
92.3646270052643
 30
0.0
 10
123.6413023804328
 20
92.04994631272564
 30
0.0
 10
124.8388965634884
 20
91.70568496074513
 30
0.0
 10
125.8257585933106
 20
91.37663773492538
 30
0.0
 10
126.5729968395086
 20
91.09817682671762
 30
0.0
 10
127.0201982688742
 20
90.92632103168602
 30
0.0
 10
127.2069528810242
 20
90.85247036008754
 30
0.0
 10
127.155854667126
 20
90.87262165116067
 30
0.0
 10
127.1542203567809
 20
90.87326616416722
 30
0.0
  0
SPLINE
  5
174
330
1F
100
AcDbEntity
  8
0
  6
Continuous
 62
     7
370
    25
100
AcDbSpline
210
0.0
220
0.0
230
1.0
 70
     8
 71
     3
 72
    11
 73
     7
 74
     0
 42
0.000000001
 43
0.00000001
 40
0.0
 40
0.0
 40
0.0
 40
0.0
 40
0.2435512231731341
 40
0.4981153923403505
 40
0.7509097881719435
 40
1.0
 40
1.0
 40
1.0
 40
1.0
 10
111.2455029457721
 20
91.6721743527911
 30
0.0
 10
111.2714538672974
 20
91.68040988932924
 30
0.0
 10
111.3245291641025
 20
91.69725335847872
 30
0.0
 10
111.802224147765
 20
91.83815480061624
 30
0.0
 10
112.5135635960318
 20
92.04344535106446
 30
0.0
 10
113.2082282432064
 20
92.20209646926166
 30
0.0
 10
113.5529970635157
 20
92.28083656217422
 30
0.0
  0
LINE
  5
175
330
1F
100
AcDbEntity
  8
0
  6
Continuous
 62
     7
370
    25
100
AcDbLine
 10
124.535523122
 20
110.7694214446
 30
0.0
 11
123.6405809688
 21
110.9315969297
 31
0.0
  0
LINE
  5
176
330
1F
100
AcDbEntity
  8
0
  6
Continuous
 62
     7
370
    25
100
AcDbLine
 10
123.6405809688
 20
110.9315969297
 30
0.0
 11
123.6405809688
 21
115.1440969297
 31
0.0
  0
SPLINE
  5
177
330
1F
100
AcDbEntity
  8
0
  6
Continuous
 62
     7
370
    25
100
AcDbSpline
210
0.0
220
0.0
230
1.0
 70
     8
 71
     3
 72
    25
 73
    21
 74
     0
 42
0.000000001
 43
0.00000001
 40
0.0
 40
0.0
 40
0.0
 40
0.0
 40
0.0288821753116583
 40
0.0583636594024247
 40
0.088464720432864
 40
0.1192044006641432
 40
0.1506005800108822
 40
0.1826700399688414
 40
0.2154285269587146
 40
0.2488908143380118
 40
0.3610594471217245
 40
0.498467013106778
 40
0.5822693905006526
 40
0.6661127642782239
 40
0.7499972937224496
 40
0.8007709755032478
 40
0.8511237700807983
 40
0.901089602450676
 40
0.9507031914109089
 40
1.0
 40
1.0
 40
1.0
 40
1.0
 10
119.6405809687888
 20
106.931596929681
 30
0.0
 10
119.7033814220275
 20
106.9324534136329
 30
0.0
 10
119.8302854458274
 20
106.9341841536865
 30
0.0
 10
120.0216398535419
 20
106.9483340190904
 30
0.0
 10
120.2155446662205
 20
106.9714711014118
 30
0.0
 10
120.4114453869489
 20
107.0048822536372
 30
0.0
 10
120.608783054953
 20
107.0487560756699
 30
0.0
 10
120.8069363967382
 20
107.1035513466393
 30
0.0
 10
121.0052521407464
 20
107.1696203080028
 30
0.0
 10
121.356573128249
 20
107.3076016402558
 30
0.0
 10
121.8816848985714
 20
107.587653579097
 30
0.0
 10
122.4186767270569
 20
108.0262441815054
 30
0.0
 10
122.8307364570954
 20
108.5001043030521
 30
0.0
 10
123.1176550451479
 20
108.9317880508719
 30
0.0
 10
123.3160817323551
 20
109.334911292632
 30
0.0
 10
123.4481676064034
 20
109.692647453411
 30
0.0
 10
123.5338014862012
 20
109.9953998556933
 30
0.0
 10
123.5948836975542
 20
110.303888165939
 30
0.0
 10
123.6333846409197
 20
110.6161998760954
 30
0.0
 10
123.6381873200132
 20
110.8266892899968
 30
0.0
 10
123.6405809687888
 20
110.931596929681
 30
0.0
  0
SPLINE
  5
178
330
1F
100
AcDbEntity
  8
0
  6
Continuous
 62
     7
370
    25
100
AcDbSpline
210
0.0
220
0.0
230
1.0
 70
     8
 71
     3
 72
    13
 73
     9
 74
     0
 42
0.000000001
 43
0.00000001
 40
0.0
 40
0.0
 40
0.0
 40
0.0
 40
0.1722587823678385
 40
0.3421398271425444
 40
0.5097456258111679
 40
0.6751828993453325
 40
0.8385626190248169
 40
1.0
 40
1.0
 40
1.0
 40
1.0
 10
116.640599337699
 20
107.0815917524309
 30
0.0
 10
116.7014627273716
 20
107.0653280247313
 30
0.0
 10
116.822349391817
 20
107.0330250622506
 30
0.0
 10
117.0054105497894
 20
106.995637407557
 30
0.0
 10
117.1875132327301
 20
106.9665044726469
 30
0.0
 10
117.3684546810467
 20
106.9463177570415
 30
0.0
 10
117.547793684743
 20
106.9338709527408
 30
0.0
 10
117.6666399131564
 20
106.9323519095135
 30
0.0
 10
117.7257076894993
 20
106.931596929681
 30
0.0
  0
LINE
  5
179
330
1F
100
AcDbEntity
  8
0
  6
Continuous
 62
     7
370
    25
100
AcDbLine
 10
117.6807655363
 20
105.6340622052
 30
0.0
 11
117.7257076895
 21
106.9315969297
 31
0.0
  0
SPLINE
  5
17A
330
1F
100
AcDbEntity
  8
0
  6
Continuous
 62
     7
370
    25
100
AcDbSpline
210
0.0
220
0.0
230
1.0
 70
     8
 71
     3
 72
    11
 73
     7
 74
     0
 42
0.000000001
 43
0.00000001
 40
0.0
 40
0.0
 40
0.0
 40
0.0
 40
0.2392913844325938
 40
0.5001130135003002
 40
0.7515028526498353
 40
0.9999999999999999
 40
0.9999999999999999
 40
0.9999999999999999
 40
0.9999999999999999
 10
116.3131084766428
 20
107.0821705347042
 30
0.0
 10
116.2442835406959
 20
107.0106170975495
 30
0.0
 10
116.1004411445227
 20
106.8610722020382
 30
0.0
 10
115.8926923461561
 20
106.6321547753927
 30
0.0
 10
115.684706141535
 20
106.3998364031529
 30
0.0
 10
115.5517052177647
 20
106.2450605205617
 30
0.0
 10
115.4855895735403
 20
106.1681203994118
 30
0.0
  0
SPLINE
  5
17B
330
1F
100
AcDbEntity
  8
0
  6
Continuous
 62
     7
370
    25
100
AcDbSpline
210
0.0
220
0.0
230
1.0
 70
    24
 71
     3
 72
     9
 73
     5
 74
     0
 42
0.000000001
 43
0.00000001
 40
0.0
 40
0.0
 40
0.0
 40
0.0
 40
0.509083966986604
 40
1.0
 40
1.0
 40
1.0
 40
1.0
 10
116.3153387449623
 20
107.081596929681
 30
0.0
 10
116.3700721450747
 20
107.081596929681
 30
0.0
 10
116.4775856470935
 20
107.081596929681
 30
0.0
 10
116.5869782074644
 20
107.081596929681
 30
0.0
 10
116.6406807692429
 20
107.081596929681
 30
0.0
  0
LINE
  5
17C
330
1F
100
AcDbEntity
  8
0
  6
Continuous
 62
     7
370
    25
100
AcDbLine
 10
110.0667308804
 20
107.0615451559
 30
0.0
 11
110.092145372
 21
106.1639869853
 31
0.0
  0
SPLINE
  5
17D
330
1F
100
AcDbEntity
  8
0
  6
Continuous
 62
     7
370
    25
100
AcDbSpline
210
0.0
220
0.0
230
1.0
 70
     8
 71
     3
 72
     8
 73
     4
 74
     0
 42
0.000000001
 43
0.00000001
 40
0.0
 40
0.0
 40
0.0
 40
0.0
 40
1.0
 40
1.0
 40
1.0
 40
1.0
 10
110.066742071517
 20
107.0615456460203
 30
0.0
 10
110.088544927999
 20
107.0672429770529
 30
0.0
 10
110.1102996373965
 20
107.0731245598479
 30
0.0
 10
110.1320030927146
 20
107.079189554401
 30
0.0
  0
LINE
  5
17E
330
1F
100
AcDbEntity
  8
0
  6
Continuous
 62
     7
370
    25
100
AcDbLine
 10
110.1405809689
 20
107.0815969297
 30
0.0
 11
116.3142539411
 21
107.0815969297
 31
0.0
  0
LINE
  5
17F
330
1F
100
AcDbEntity
  8
0
  6
Continuous
 62
     7
370
    25
100
AcDbLine
 10
117.7257076895
 20
106.9315969297
 30
0.0
 11
119.6405809688
 21
106.9315969297
 31
0.0
  0
SPLINE
  5
180
330
1F
100
AcDbEntity
  8
0
  6
Continuous
 62
     7
370
    25
100
AcDbSpline
210
0.0
220
0.0
230
1.0
 70
     8
 71
     3
 72
    13
 73
     9
 74
     0
 42
0.000000001
 43
0.00000001
 40
0.0
 40
0.0
 40
0.0
 40
0.0
 40
0.1621004456571512
 40
0.325943455157606
 40
0.4915935308260523
 40
0.6591130873964648
 40
0.8285624736043361
 40
1.0
 40
1.0
 40
1.0
 40
1.0
 10
109.0554542480782
 20
106.931596929681
 30
0.0
 10
109.1110092061438
 20
106.9322658958823
 30
0.0
 10
109.2227163326085
 20
106.9336110196056
 30
0.0
 10
109.3905640220023
 20
106.944557588397
 30
0.0
 10
109.5593504408707
 20
106.9621965177177
 30
0.0
 10
109.7286747974025
 20
106.9875020317056
 30
0.0
 10
109.8984214455799
 20
107.0198060344985
 30
0.0
 10
110.0104143442375
 20
107.0475776343846
 30
0.0
 10
110.0667373792673
 20
107.0615444198858
 30
0.0
  0
LINE
  5
181
330
1F
100
AcDbEntity
  8
0
  6
Continuous
 62
     7
370
    25
100
AcDbLine
 10
102.2769211472
 20
106.4040951858
 30
0.0
 11
103.1905809688
 21
106.9315969297
 31
0.0
  0
LINE
  5
182
330
1F
100
AcDbEntity
  8
0
  6
Continuous
 62
     7
370
    25
100
AcDbLine
 10
103.1905809688
 20
106.9315969297
 30
0.0
 11
109.0554542481
 21
106.9315969297
 31
0.0
  0
SPLINE
  5
183
330
1F
100
AcDbEntity
  8
0
  6
Continuous
 62
     7
370
    25
100
AcDbSpline
210
0.0
220
0.0
230
1.0
 70
     8
 71
     3
 72
     8
 73
     4
 74
     0
 42
0.000000001
 43
0.00000001
 40
0.0
 40
0.0
 40
0.0
 40
0.0
 40
1.0
 40
1.0
 40
1.0
 40
1.0
 10
103.1905809683378
 20
106.021770218305
 30
0.0
 10
102.8860276946323
 20
106.1504610828518
 30
0.0
 10
102.5814744209267
 20
106.2779058391136
 30
0.0
 10
102.2769211472212
 20
106.4040951857513
 30
0.0
  0
LINE
  5
184
330
1F
100
AcDbEntity
  8
0
  6
Continuous
 62
     7
370
    25
100
AcDbLine
 10
101.6905809688
 20
92.9410022059
 30
0.0
 11
101.6905809688
 21
106.0655715259
 31
0.0
  0
SPLINE
  5
185
330
1F
100
AcDbEntity
  8
0
  6
Continuous
 62
     7
370
    25
100
AcDbSpline
210
0.0
220
0.0
230
1.0
 70
    24
 71
     3
 72
     8
 73
     4
 74
     0
 42
0.000000001
 43
0.00000001
 40
0.0
 40
0.0
 40
0.0
 40
0.0
 40
1.0
 40
1.0
 40
1.0
 40
1.0
 10
102.2769211472212
 20
106.4040951857513
 30
0.0
 10
102.0805891215629
 20
106.2907428378869
 30
0.0
 10
101.8851281013226
 20
106.1778933652351
 30
0.0
 10
101.6905809687888
 20
106.0655715258966
 30
0.0
  0
ARC
  5
186
330
1F
100
AcDbEntity
  8
0
  6
Continuous
 62
     7
370
    25
100
AcDbCircle
 10
162.6405809688
 20
135.6440969297
 30
0.0
 40
3.0
100
AcDbArc
 50
180.0
 51
270.0
  0
ARC
  5
187
330
1F
100
AcDbEntity
  8
0
  6
Continuous
 62
     7
370
    25
100
AcDbCircle
 10
134.8405809688
 20
132.5940969297
 30
0.0
 40
0.799999999999983
100
AcDbArc
 50
0.0
 51
90.0
  0
ARC
  5
188
330
1F
100
AcDbEntity
  8
0
  6
Continuous
 62
     7
370
    25
100
AcDbCircle
 10
133.4158214424
 20
132.5940969297
 30
0.0
 40
0.799999999999983
100
AcDbArc
 50
90.0
 51
120.0
  0
LINE
  5
189
330
1F
100
AcDbEntity
  8
0
  6
Continuous
 62
     7
370
    25
100
AcDbLine
 10
133.4158214424
 20
133.3940969297
 30
0.0
 11
134.8405809688
 21
133.3940969297
 31
0.0
  0
LINE
  5
18A
330
1F
100
AcDbEntity
  8
0
  6
Continuous
 62
     7
370
    25
100
AcDbLine
 10
132.1405809688
 20
132.7815969297
 30
0.0
 11
132.1405809688
 21
115.1440969297
 31
0.0
  0
LINE
  5
18B
330
1F
100
AcDbEntity
  8
0
  6
Continuous
 62
     7
370
    25
100
AcDbLine
 10
132.1405809688
 20
132.7815969297
 30
0.0
 11
133.0158214424
 21
133.2869172527
 31
0.0
  0
LINE
  5
18C
330
1F
100
AcDbEntity
  8
0
  6
Continuous
 62
     7
370
    25
100
AcDbLine
 10
102.4422470186
 20
106.4995461221
 30
0.0
 11
102.3057782463
 21
106.4207558396
 31
0.0
  0
SPLINE
  5
18D
330
1F
100
AcDbEntity
  8
0
  6
Continuous
 62
     7
370
    25
100
AcDbSpline
210
0.0
220
0.0
230
1.0
 70
     8
 71
     3
 72
    32
 73
    28
 74
     0
 42
0.000000001
 43
0.00000001
 40
0.0
 40
0.0
 40
0.0
 40
0.0
 40
0.1250000000000013
 40
0.1250000000000013
 40
0.1875000000000015
 40
0.1875000000000015
 40
0.2500000000000017
 40
0.2500000000000017
 40
0.3125000000000019
 40
0.3125000000000019
 40
0.3750000000000021
 40
0.3750000000000021
 40
0.5000000000000018
 40
0.5000000000000018
 40
0.5625000000000017
 40
0.5625000000000017
 40
0.6250000000000016
 40
0.6250000000000016
 40
0.750000000000001
 40
0.750000000000001
 40
0.8125000000000007
 40
0.8125000000000007
 40
0.8750000000000004
 40
0.8750000000000004
 40
0.9375000000000002
 40
0.9375000000000002
 40
1.0
 40
1.0
 40
1.0
 40
1.0
 10
116.1082113001294
 20
131.3167656838906
 30
0.0
 10
115.6241370561754
 20
131.3171250765102
 30
0.0
 10
115.1407394856085
 20
131.3320842826915
 30
0.0
 10
114.4168341358725
 20
131.3790683292002
 30
0.0
 10
114.1761717023356
 20
131.3988448843247
 30
0.0
 10
113.70482559326
 20
131.4458089678238
 30
0.0
 10
113.4729897769698
 20
131.4730628170083
 30
0.0
 10
113.0172866904135
 20
131.5346907456209
 30
0.0
 10
112.7934183674721
 20
131.5690658464164
 30
0.0
 10
112.3540907754643
 20
131.6443852900694
 30
0.0
 10
112.1373733827979
 20
131.6856032408177
 30
0.0
 10
111.5110314041251
 20
131.8158400599984
 30
0.0
 10
111.1266387697717
 20
131.9108799718977
 30
0.0
 10
110.5990970241519
 20
132.0571469338501
 30
0.0
 10
110.4314628726208
 20
132.1065155690407
 30
0.0
 10
110.1130581253802
 20
132.204919276541
 30
0.0
 10
109.9634772508411
 20
132.2536025411735
 30
0.0
 10
109.5504571812926
 20
132.3932253443419
 30
0.0
 10
109.3189054101335
 20
132.4788120229224
 30
0.0
 10
109.0355958950438
 20
132.5877750708385
 30
0.0
 10
108.952028213272
 20
132.6208237234129
 30
0.0
 10
108.8101033809478
 20
132.6778271196533
 30
0.0
 10
108.7511152695053
 20
132.7020238252637
 30
0.0
 10
108.6563993657955
 20
132.7412261056427
 30
0.0
 10
108.6206713986487
 20
132.7562332721398
 30
0.0
 10
108.5727071209312
 20
132.7764422698667
 30
0.0
 10
108.5605808134978
 20
132.781596929681
 30
0.0
 10
108.5605808134978
 20
132.7815969296811
 30
0.0
  0
SPLINE
  5
18E
330
1F
100
AcDbEntity
  8
0
  6
Continuous
 62
     7
370
    25
100
AcDbSpline
210
0.0
220
0.0
230
1.0
 70
     8
 71
     3
 72
    31
 73
    27
 74
     0
 42
0.000000001
 43
0.00000001
 40
0.0
 40
0.0
 40
0.0
 40
0.0
 40
0.0161756722762516
 40
0.032316913783192
 40
0.0484425619887066
 40
0.0645715089965106
 40
0.0807226353345234
 40
0.0969147439454904
 40
0.1131664955259493
 40
0.1294963463054482
 40
0.1459224892616141
 40
0.1624627996348624
 40
0.1791347854483601
 40
0.1959555435640313
 40
0.2945755146277879
 40
0.3932797312250754
 40
0.4928176221933231
 40
0.5924285912823349
 40
0.6939020917448143
 40
0.7927115381487335
 40
0.8267756331435508
 40
0.8608043324964876
 40
0.8949846314009906
 40
0.9295010594357859
 40
0.9645328322468292
 40
1.0
 40
1.0
 40
1.0
 40
1.0
 10
127.1165303588729
 20
132.7815969296811
 30
0.0
 10
127.1157972584217
 20
132.7812505382531
 30
0.0
 10
127.1143326179622
 20
132.7805584927096
 30
0.0
 10
127.1012762382971
 20
132.7749761306632
 30
0.0
 10
127.0802616777743
 20
132.7661093676691
 30
0.0
 10
127.0505144724336
 20
132.7536682669542
 30
0.0
 10
127.012242159778
 20
132.7377776083989
 30
0.0
 10
126.9653894788568
 20
132.7184518645717
 30
0.0
 10
126.9099717488199
 20
132.6957357750522
 30
0.0
 10
126.8459857849894
 20
132.6696667706775
 30
0.0
 10
126.7734323008388
 20
132.6402843233094
 30
0.0
 10
126.6923156033592
 20
132.6076300759746
 30
0.0
 10
126.6026219486092
 20
132.5717376289402
 30
0.0
 10
126.3455761019527
 20
132.4694997212734
 30
0.0
 10
125.8175401163599
 20
132.2629755078067
 30
0.0
 10
124.8389054691136
 20
131.9258901944567
 30
0.0
 10
123.6530291661949
 20
131.5827453351289
 30
0.0
 10
122.2825629011216
 20
131.2856334344683
 30
0.0
 10
120.796705629157
 20
131.0755900067354
 30
0.0
 10
119.576552995392
 20
131.0173646038668
 30
0.0
 10
118.7101289624471
 20
131.0310569451268
 30
0.0
 10
118.1818840339703
 20
131.056425030738
 30
0.0
 10
117.6571108027641
 20
131.0984476464554
 30
0.0
 10
117.1361215631717
 20
131.1567316096835
 30
0.0
 10
116.6188806181132
 20
131.229355154929
 30
0.0
 10
116.2832435057793
 20
131.2882354726188
 30
0.0
 10
116.1143885177176
 20
131.3178574511641
 30
0.0
  0
LINE
  5
18F
330
1F
100
AcDbEntity
  8
0
  6
Continuous
 62
     7
370
    25
100
AcDbLine
 10
127.1165303589
 20
132.7815969297
 30
0.0
 11
132.1405809688
 21
132.7815969297
 31
0.0
  0
LINE
  5
190
330
1F
100
AcDbEntity
  8
0
  6
Continuous
 62
     7
370
    25
100
AcDbLine
 10
124.2905809688
 20
119.2068703405
 30
0.0
 11
124.2905809688
 21
115.1440969297
 31
0.0
  0
SPLINE
  5
191
330
1F
100
AcDbEntity
  8
0
  6
Continuous
 62
     7
370
    25
100
AcDbSpline
210
0.0
220
0.0
230
1.0
 70
     8
 71
     3
 72
    25
 73
    21
 74
     0
 42
0.000000001
 43
0.00000001
 40
0.0
 40
0.0
 40
0.0
 40
0.0
 40
0.0278144320063462
 40
0.0555680196245754
 40
0.083331625367772
 40
0.111176035216759
 40
0.1391714221532265
 40
0.1673868326284763
 40
0.1958897140434718
 40
0.2247454979318961
 40
0.254017249222145
 40
0.3796724410016501
 40
0.5056484635002454
 40
0.629752729069345
 40
0.7535891720571729
 40
0.8038564806093713
 40
0.853339684343451
 40
0.9023264398358534
 40
0.9511131859219439
 40
1.0
 40
1.0
 40
1.0
 40
1.0
 10
119.6405809687888
 20
123.691593512046
 30
0.0
 10
119.7092363227511
 20
123.6910604269389
 30
0.0
 10
119.8463968463037
 20
123.6899954228545
 30
0.0
 10
120.0516394288895
 20
123.6769005254623
 30
0.0
 10
120.2559604453866
 20
123.6553620388898
 30
0.0
 10
120.4593614974756
 20
123.6245405670412
 30
0.0
 10
120.6618371283215
 20
123.5846278145337
 30
0.0
 10
120.8633859925691
 20
123.5355276215928
 30
0.0
 10
121.0640000133718
 20
123.4772143740809
 30
0.0
 10
121.2636977777041
 20
123.4096224312141
 30
0.0
 10
121.6792625983834
 20
123.2488089150985
 30
0.0
 10
122.2820390149259
 20
122.9348320157572
 30
0.0
 10
122.9760955704308
 20
122.3712605402624
 30
0.0
 10
123.542869199828
 20
121.6955163210084
 30
0.0
 10
123.8804470054992
 20
121.0781544935319
 30
0.0
 10
124.0689094147881
 20
120.5860930540219
 30
0.0
 10
124.1681706323126
 20
120.2484412714755
 30
0.0
 10
124.2385152210194
 20
119.905810129452
 30
0.0
 10
124.282513819538
 20
119.5584454290104
 30
0.0
 10
124.2878900830183
 20
119.3241420524035
 30
0.0
 10
124.2905809687888
 20
119.2068703404808
 30
0.0
  0
LINE
  5
192
330
1F
100
AcDbEntity
  8
0
  6
Continuous
 62
     7
370
    25
100
AcDbLine
 10
117.7257076895
 20
123.691593512
 30
0.0
 11
119.6405809688
 21
123.691593512
 31
0.0
  0
SPLINE
  5
193
330
1F
100
AcDbEntity
  8
0
  6
Continuous
 62
     7
370
    25
100
AcDbSpline
210
0.0
220
0.0
230
1.0
 70
     8
 71
     3
 72
    12
 73
     8
 74
     0
 42
0.000000001
 43
0.00000001
 40
0.0
 40
0.0
 40
0.0
 40
0.0
 40
0.1992838848975294
 40
0.3984605265796777
 40
0.5979968004971673
 40
0.7983570684833388
 40
1.0
 40
1.0
 40
1.0
 40
1.0
 10
116.7246738471603
 20
123.5893991993226
 30
0.0
 10
116.7901271244608
 20
123.6024215520873
 30
0.0
 10
116.9209984558427
 20
123.6284592497294
 30
0.0
 10
117.1198479074665
 20
123.6568898087035
 30
0.0
 10
117.3202544233375
 20
123.677320969685
 30
0.0
 10
117.5224253407548
 20
123.6897600467556
 30
0.0
 10
117.6578029244059
 20
123.6909810583302
 30
0.0
 10
117.7257076894993
 20
123.691593512046
 30
0.0
  0
LINE
  5
194
330
1F
100
AcDbEntity
  8
0
  6
Continuous
 62
     7
370
    25
100
AcDbLine
 10
111.2999108396
 20
123.5892352753
 30
0.0
 11
116.7239008581
 21
123.5892352753
 31
0.0
  0
SPLINE
  5
195
330
1F
100
AcDbEntity
  8
0
  6
Continuous
 62
     7
370
    25
100
AcDbSpline
210
0.0
220
0.0
230
1.0
 70
     8
 71
     3
 72
    24
 73
    20
 74
     0
 42
0.000000001
 43
0.00000001
 40
0.0
 40
0.0
 40
0.0
 40
0.0
 40
0.0410257106287842
 40
0.0818520099077639
 40
0.1225800578354648
 40
0.1633117464058233
 40
0.2041489402806705
 40
0.2451927184749161
 40
0.2865426449235763
 40
0.3282960933646444
 40
0.370547647549383
 40
0.4133885920102291
 40
0.4569065022351533
 40
0.5011849368587563
 40
0.6001856774947433
 40
0.6987388860447942
 40
0.7976800645453981
 40
0.8978349910029445
 40
1.0
 40
1.0
 40
1.0
 40
1.0
 10
107.5279239326386
 20
125.526877092344
 30
0.0
 10
107.5909630205932
 20
125.5263423920289
 30
0.0
 10
107.716734785975
 20
125.5252755903862
 30
0.0
 10
107.9046729474858
 20
125.5141320983881
 30
0.0
 10
108.0912630403105
 20
125.4959706000804
 30
0.0
 10
108.2765048228456
 20
125.470095679359
 30
0.0
 10
108.4603940060735
 20
125.4366587935473
 30
0.0
 10
108.6429276720463
 20
125.3955747720037
 30
0.0
 10
108.8241030789856
 20
125.3468120239102
 30
0.0
 10
109.0039178629617
 20
125.2903145357665
 30
0.0
 10
109.1823710620413
 20
125.2260234409642
 30
0.0
 10
109.359459100191
 20
125.1538697610319
 30
0.0
 10
109.5351912244767
 20
125.0737825759931
 30
0.0
 10
109.780205858073
 20
124.9499416893107
 30
0.0
 10
110.0843889372552
 20
124.7713167071175
 30
0.0
 10
110.4316964187003
 20
124.5222275230603
 30
0.0
 10
110.7508706821727
 20
124.2426579380807
 30
0.0
 10
111.0447825844375
 20
123.9338323001084
 30
0.0
 10
111.2143066711293
 20
123.7057402568067
 30
0.0
 10
111.2999108396121
 20
123.5905611687761
 30
0.0
  0
LINE
  5
196
330
1F
100
AcDbEntity
  8
0
  6
Continuous
 62
     7
370
    25
100
AcDbLine
 10
104.7363822157
 20
125.5268770923
 30
0.0
 11
107.5279239326
 21
125.5268770923
 31
0.0
  0
SPLINE
  5
197
330
1F
100
AcDbEntity
  8
0
  6
Continuous
 62
     7
370
    25
100
AcDbSpline
210
0.0
220
0.0
230
1.0
 70
     8
 71
     3
 72
     8
 73
     4
 74
     0
 42
0.000000001
 43
0.00000001
 40
0.0
 40
0.0
 40
0.0
 40
0.0
 40
1.0
 40
1.0
 40
1.0
 40
1.0
 10
104.69057814403
 20
125.5903300833537
 30
0.0
 10
104.7058461679277
 20
125.5692136129556
 30
0.0
 10
104.7211141918254
 20
125.5480625459029
 30
0.0
 10
104.7363822157231
 20
125.526877092344
 30
0.0
  0
LINE
  5
198
330
1F
100
AcDbEntity
  8
0
  6
Continuous
 62
     7
370
    25
100
AcDbLine
 10
104.6905809688
 20
132.7815969297
 30
0.0
 11
104.6905809688
 21
125.5903300834
 31
0.0
  0
LINE
  5
199
330
1F
100
AcDbEntity
  8
0
  6
Continuous
 62
     7
370
    25
100
AcDbLine
 10
104.6905809688
 20
132.7815969297
 30
0.0
 11
108.5605808135
 21
132.7815969297
 31
0.0
  0
SPLINE
  5
19A
330
1F
100
AcDbEntity
  8
0
  6
Continuous
 62
     7
370
    25
100
AcDbSpline
210
0.0
220
0.0
230
1.0
 70
     8
 71
     3
 72
    10
 73
     6
 74
     0
 42
0.000000001
 43
0.00000001
 40
0.0
 40
0.0
 40
0.0
 40
0.0
 40
0.3872395626463393
 40
0.7792414004093058
 40
0.9999999999999999
 40
0.9999999999999999
 40
0.9999999999999999
 40
0.9999999999999999
 10
177.0905810120494
 20
132.644096929681
 30
0.0
 10
177.1108467681018
 20
132.6378012879368
 30
0.0
 10
177.1516275086302
 20
132.6251325805979
 30
0.0
 10
177.3956589022278
 20
132.5494784370791
 30
0.0
 10
177.6541866648729
 20
132.4769661122265
 30
0.0
 10
177.7473262074376
 20
132.4508421683299
 30
0.0
  0
LWPOLYLINE
  5
19B
330
1F
100
AcDbEntity
  8
0
  6
Continuous
 62
     7
370
    25
100
AcDbPolyline
 90
        6
 70
   128
 43
0.0
 10
186.5340600041
 20
132.4506178944
 10
186.8001165473
 20
132.5257865255
 10
187.0929805744
 20
132.6136646957
 10
187.1905808679
 20
132.6440969114
 10
187.1905807864
 20
132.6440969297
 10
187.1905807864
 20
132.6440969297
  0
LINE
  5
19C
330
1F
100
AcDbEntity
  8
0
  6
Continuous
 62
     7
370
    25
100
AcDbLine
 10
177.090581012
 20
132.6440969297
 30
0.0
 11
162.6405809688
 21
132.6440969297
 31
0.0
  0
LINE
  5
19D
330
1F
100
AcDbEntity
  8
0
  6
Continuous
 62
     7
370
    25
100
AcDbLine
 10
190.9180463662
 20
97.6440969297
 30
0.0
 11
190.9180463662
 21
115.1440969297
 31
0.0
  0
LINE
  5
19E
330
1F
100
AcDbEntity
  8
0
  6
Continuous
 62
     7
370
    25
100
AcDbLine
 10
190.9180463662
 20
132.6440969297
 30
0.0
 11
187.1905807864
 21
132.6440969297
 31
0.0
  0
LINE
  5
19F
330
1F
100
AcDbEntity
  8
0
  6
Continuous
 62
     7
370
    25
100
AcDbLine
 10
200.4858174923
 20
128.1825719821
 30
0.0
 11
190.9180463662
 21
132.6440969297
 31
0.0
  0
ARC
  5
1A0
330
1F
100
AcDbEntity
  8
0
  6
Continuous
 62
     7
370
    25
100
AcDbCircle
 10
139.3405809688
 20
129.4940969297
 30
0.0
 40
1.19999999999996
100
AcDbArc
 50
0.0
 51
90.0
  0
LINE
  5
1A1
330
1F
100
AcDbEntity
  8
0
  6
Continuous
 62
     7
370
    25
100
AcDbLine
 10
135.6405809688
 20
130.6940969297
 30
0.0
 11
139.3405809688
 21
130.6940969297
 31
0.0
  0
LINE
  5
1A2
330
1F
100
AcDbEntity
  8
0
  6
Continuous
 62
     7
370
    25
100
AcDbLine
 10
135.6405809688
 20
130.6940969297
 30
0.0
 11
135.6405809688
 21
115.1440969297
 31
0.0
  0
LINE
  5
1A3
330
1F
100
AcDbEntity
  8
0
  6
Continuous
 62
     7
370
    25
100
AcDbLine
 10
201.6405809688
 20
103.9182374652
 30
0.0
 11
201.6405809688
 21
115.1440969297
 31
0.0
  0
ARC
  5
1A4
330
1F
100
AcDbEntity
  8
0
  6
Continuous
 62
     7
370
    25
100
AcDbCircle
 10
199.6405809688
 20
126.3699564081
 30
0.0
 40
2.000000000000001
100
AcDbArc
 50
0.0
 51
65.0
  0
LINE
  5
1A5
330
1F
100
AcDbEntity
  8
0
  6
Continuous
 62
     7
370
    25
100
AcDbLine
 10
144.3655809688
 20
120.8940969297
 30
0.0
 11
145.1905809688
 21
120.8940969297
 31
0.0
  0
LINE
  5
1A6
330
1F
100
AcDbEntity
  8
0
  6
Continuous
 62
     7
370
    25
100
AcDbLine
 10
161.0405809688
 20
120.4440969297
 30
0.0
 11
163.7458069507
 21
120.4440969297
 31
0.0
  0
ARC
  5
1A7
330
1F
100
AcDbEntity
  8
0
  6
Continuous
 62
     7
370
    25
100
AcDbCircle
 10
161.0405809688
 20
120.0440969297
 30
0.0
 40
0.4000000000000057
100
AcDbArc
 50
90.0
 51
180.0
  0
ARC
  5
1A8
330
1F
100
AcDbEntity
  8
0
  6
Continuous
 62
     7
370
    25
100
AcDbCircle
 10
163.7458069507
 20
120.0440969297
 30
0.0
 40
0.3999999999999977
100
AcDbArc
 50
70.0
 51
90.0
  0
ARC
  5
1A9
330
1F
100
AcDbEntity
  8
0
  6
Continuous
 62
     7
370
    25
100
AcDbCircle
 10
201.3405809688
 20
120.4440969297
 30
0.0
 40
0.2999999999999972
100
AcDbArc
 50
270.0
 51
0.0
  0
LINE
  5
1AA
330
1F
100
AcDbEntity
  8
0
  6
Continuous
 62
     7
370
    25
100
AcDbLine
 10
201.6405809688
 20
120.4440969297
 30
0.0
 11
201.6405809688
 21
115.1440969297
 31
0.0
  0
LINE
  5
1AB
330
1F
100
AcDbEntity
  8
0
  6
Continuous
 62
     7
370
    25
100
AcDbLine
 10
164.6405809688
 20
120.1440969297
 30
0.0
 11
164.6405809688
 21
115.1440969297
 31
0.0
  0
LINE
  5
1AC
330
1F
100
AcDbEntity
  8
0
  6
Continuous
 62
     7
370
    25
100
AcDbLine
 10
163.882615008
 20
120.419973978
 30
0.0
 11
164.6405809688
 21
120.1440969297
 31
0.0
  0
LINE
  5
1AD
330
1F
100
AcDbEntity
  8
0
  6
Continuous
 62
     7
370
    25
100
AcDbLine
 10
140.9405809688
 20
120.1440969297
 30
0.0
 11
140.9405809688
 21
115.1440969297
 31
0.0
  0
LINE
  5
1AE
330
1F
100
AcDbEntity
  8
0
  6
Continuous
 62
     7
370
    25
100
AcDbLine
 10
140.5405809688
 20
120.3750370374
 30
0.0
 11
140.9405809688
 21
120.1440969297
 31
0.0
  0
LINE
  5
1AF
330
1F
100
AcDbEntity
  8
0
  6
Continuous
 62
     7
370
    25
100
AcDbLine
 10
140.5405809688
 20
120.3750370374
 30
0.0
 11
140.5405809688
 21
115.1440969297
 31
0.0
  0
LINE
  5
1B0
330
1F
100
AcDbEntity
  8
0
  6
Continuous
 62
     7
370
    25
100
AcDbLine
 10
140.9405809688
 20
120.1440969297
 30
0.0
 11
144.3655809688
 21
120.1440969297
 31
0.0
  0
LINE
  5
1B1
330
1F
100
AcDbEntity
  8
0
  6
Continuous
 62
     7
370
    25
100
AcDbLine
 10
144.3655809688
 20
120.1440969297
 30
0.0
 11
144.3655809688
 21
115.1440969297
 31
0.0
  0
SPLINE
  5
1B2
330
1F
100
AcDbEntity
  8
0
  6
Continuous
 62
     7
370
    25
100
AcDbSpline
210
0.0
220
0.0
230
1.0
 70
     8
 71
     3
 72
    44
 73
    40
 74
     0
 42
0.000000001
 43
0.00000001
 40
0.0
 40
0.0
 40
0.0
 40
0.0
 40
0.0625
 40
0.0625
 40
0.1249999999999999
 40
0.1249999999999999
 40
0.1874999999999999
 40
0.1874999999999999
 40
0.2499999999999999
 40
0.2499999999999999
 40
0.3124999999999999
 40
0.3124999999999999
 40
0.3749999999999999
 40
0.3749999999999999
 40
0.4062500000000006
 40
0.4062500000000006
 40
0.4375000000000012
 40
0.4375000000000012
 40
0.4687500000000017
 40
0.4687500000000017
 40
0.5000000000000023
 40
0.5000000000000023
 40
0.5625000000000021
 40
0.5625000000000021
 40
0.6250000000000018
 40
0.6250000000000018
 40
0.6875000000000016
 40
0.6875000000000016
 40
0.7500000000000012
 40
0.7500000000000012
 40
0.812500000000001
 40
0.812500000000001
 40
0.8750000000000008
 40
0.8750000000000008
 40
0.9375000000000004
 40
0.9375000000000004
 40
0.9687500000000002
 40
0.9687500000000002
 40
1.0
 40
1.0
 40
1.0
 40
1.0
 10
177.8905809687887
 20
120.144096929681
 30
0.0
 10
177.8905809687888
 20
120.144096929681
 30
0.0
 10
177.9228949540551
 20
120.1165512804774
 30
0.0
 10
178.0452918406643
 20
120.013164601711
 30
0.0
 10
178.1365836446742
 20
119.9363188278648
 30
0.0
 10
178.3650918584845
 20
119.747108353949
 30
0.0
 10
178.5024372827299
 20
119.6346037784239
 30
0.0
 10
178.8158239640447
 20
119.3846831413729
 30
0.0
 10
178.9883543207094
 20
119.2500108000467
 30
0.0
 10
179.3633087133856
 20
118.969699764612
 30
0.0
 10
179.5671005819645
 20
118.8229453782119
 30
0.0
 10
180.0028590608684
 20
118.5324563500336
 30
0.0
 10
180.2320485071371
 20
118.3902005598652
 30
0.0
 10
180.5991312641928
 20
118.1941568220402
 30
0.0
 10
180.7254367665836
 20
118.1317682601848
 30
0.0
 10
180.9882497004197
 20
118.0166244261796
 30
0.0
 10
181.125972685868
 20
117.963522558847
 30
0.0
 10
181.4068735196512
 20
117.8750413691647
 30
0.0
 10
181.5503252199049
 20
117.8394356243087
 30
0.0
 10
181.8445836714588
 20
117.7906160075819
 30
0.0
 10
181.9969008032581
 20
117.7775864920002
 30
0.0
 10
182.4506541913758
 20
117.7788907627682
 30
0.0
 10
182.7426378459559
 20
117.8327414203144
 30
0.0
 10
183.3053771683905
 20
118.0116894565711
 30
0.0
 10
183.5645496762203
 20
118.1310653720081
 30
0.0
 10
184.056799541228
 20
118.3946641437338
 30
0.0
 10
184.2892371831302
 20
118.5394606976483
 30
0.0
 10
184.7203164787605
 20
118.8274115905275
 30
0.0
 10
184.9211799956104
 20
118.972111698006
 30
0.0
 10
185.2967512345432
 20
119.2530355840035
 30
0.0
 10
185.4718449699797
 20
119.3898154481611
 30
0.0
 10
185.7811843766015
 20
119.6366239541419
 30
0.0
 10
185.9173159423834
 20
119.7481263817977
 30
0.0
 10
186.1468967428206
 20
119.9382523523223
 30
0.0
 10
186.2361688095424
 20
120.0134159058244
 30
0.0
 10
186.3279462311462
 20
120.0909403396671
 30
0.0
 10
186.3515921876961
 20
120.110992058924
 30
0.0
 10
186.3828355015738
 20
120.1375081144394
 30
0.0
 10
186.3905809687888
 20
120.144096929681
 30
0.0
 10
186.3905809687888
 20
120.144096929681
 30
0.0
  0
LINE
  5
1B3
330
1F
100
AcDbEntity
  8
0
  6
Continuous
 62
     7
370
    25
100
AcDbLine
 10
186.3905809688
 20
120.1440969297
 30
0.0
 11
201.3405809688
 21
120.1440969297
 31
0.0
  0
LINE
  5
1B4
330
1F
100
AcDbEntity
  8
0
  6
Continuous
 62
     7
370
    25
100
AcDbLine
 10
164.6405809688
 20
120.1440969297
 30
0.0
 11
177.8905809688
 21
120.1440969297
 31
0.0
  0
LINE
  5
1B5
330
1F
100
AcDbEntity
  8
0
  6
Continuous
 62
     7
370
    25
100
AcDbLine
 10
145.1905809688
 20
119.1440969297
 30
0.0
 11
160.6405809688
 21
119.1440969297
 31
0.0
  0
LINE
  5
1B6
330
1F
100
AcDbEntity
  8
0
  6
Continuous
 62
     7
370
    25
100
AcDbLine
 10
160.6405809688
 20
119.1440969297
 30
0.0
 11
160.6405809688
 21
115.1440969297
 31
0.0
  0
LINE
  5
1B7
330
1F
100
AcDbEntity
  8
0
  6
Continuous
 62
     7
370
    25
100
AcDbLine
 10
145.1905809688
 20
119.1440969297
 30
0.0
 11
145.1905809688
 21
115.1440969297
 31
0.0
  0
SPLINE
  5
1B8
330
1F
100
AcDbEntity
  8
0
  6
Continuous
 62
     7
370
    25
100
AcDbSpline
210
0.0
220
0.0
230
1.0
 70
     8
 71
     3
 72
    37
 73
    33
 74
     0
 42
0.000000001
 43
0.00000001
 40
0.0
 40
0.0
 40
0.0
 40
0.0
 40
0.0114878548102801
 40
0.0231559765621649
 40
0.0350076484354353
 40
0.0470460033795305
 40
0.059274030799991
 40
0.0716945830965781
 40
0.0843103820274648
 40
0.0971240248797992
 40
0.1101379904320508
 40
0.1233546446979384
 40
0.1811510010973227
 40
0.2483631736114421
 40
0.2888373415819253
 40
0.3232297457604624
 40
0.3515392131491944
 40
0.3737664266256188
 40
0.4399300285953851
 40
0.4987424063270026
 40
0.5023253005651626
 40
0.5613100074513715
 40
0.6252595444338135
 40
0.681865008384979
 40
0.7483890016987896
 40
0.7860781471964678
 40
0.8194856599799777
 40
0.8486127715281717
 40
0.8734622727747415
 40
0.938992615660414
 40
0.9981523731393548
 40
1.0
 40
1.0
 40
1.0
 40
1.0
 10
126.4905809687888
 20
138.6077492330343
 30
0.0
 10
126.4896545175102
 20
138.6073057160258
 30
0.0
 10
126.4877870771181
 20
138.6064117223584
 30
0.0
 10
126.4725140167784
 20
138.5992197449001
 30
0.0
 10
126.4476123143145
 20
138.5877685013076
 30
0.0
 10
126.4117580423787
 20
138.5716187425331
 30
0.0
 10
126.364790531541
 20
138.5508910629795
 30
0.0
 10
126.3062476211201
 20
138.5255525439777
 30
0.0
 10
126.2357694815425
 20
138.4956121234232
 30
0.0
 10
126.152994917265
 20
138.4610681493812
 30
0.0
 10
126.0575783721468
 20
138.4219184077666
 30
0.0
 10
125.8280095387584
 20
138.3292197366054
 30
0.0
 10
125.3435913247858
 20
138.1404968460909
 30
0.0
 10
124.5645913532404
 20
137.8624070461197
 30
0.0
 10
123.7733729018202
 20
137.6118201787903
 30
0.0
 10
123.1423224085774
 20
137.4368034174605
 30
0.0
 10
122.589284452241
 20
137.2969687768615
 30
0.0
 10
121.7963265233446
 20
137.1165579315154
 30
0.0
 10
120.7259921830114
 20
136.9274916098733
 30
0.0
 10
119.7450019035762
 20
136.8222048021636
 30
0.0
 10
118.8170346744566
 20
136.7651720302107
 30
0.0
 10
117.8445791806962
 20
136.7505774318409
 30
0.0
 10
116.5184489752628
 20
136.828770648332
 30
0.0
 10
115.2484134907691
 20
136.9892503699263
 30
0.0
 10
114.2886374900994
 20
137.1743619081399
 30
0.0
 10
113.5899858427546
 20
137.3418515118699
 30
0.0
 10
113.1461777045995
 20
137.4554747180782
 30
0.0
 10
112.8136406426696
 20
137.5486585529868
 30
0.0
 10
112.4264822324263
 20
137.6633234172454
 30
0.0
 10
112.0892342703145
 20
137.7706692263055
 30
0.0
 10
111.9915102039856
 20
137.8082347995921
 30
0.0
 10
111.9906082837136
 20
137.8083662084086
 30
0.0
 10
111.9905809687887
 20
137.8083701881638
 30
0.0
  0
LINE
  5
1B9
330
1F
100
AcDbEntity
  8
0
  6
Continuous
 62
     7
370
    25
100
AcDbLine
 10
126.4905809688
 20
138.607749233
 30
0.0
 11
126.4905809688
 21
133.2503229504
 31
0.0
  0
SPLINE
  5
1BA
330
1F
100
AcDbEntity
  8
0
  6
Continuous
 62
     7
370
    25
100
AcDbSpline
210
0.0
220
0.0
230
1.0
 70
     8
 71
     3
 72
    30
 73
    26
 74
     0
 42
0.000000001
 43
0.00000001
 40
0.0
 40
0.0
 40
0.0
 40
0.0
 40
0.0192411700742056
 40
0.0381353539376964
 40
0.0566868884861288
 40
0.074900355493137
 40
0.0927805967284125
 40
0.1103327298326405
 40
0.1275621649289919
 40
0.1444746219341846
 40
0.245586583053202
 40
0.357772019251686
 40
0.4505017408956515
 40
0.5720127868619939
 40
0.616806984020001
 40
0.6590088499432819
 40
0.6986242498774752
 40
0.7356603299341614
 40
0.7701258931915136
 40
0.8073679165907875
 40
0.848395032489143
 40
0.888136779882007
 40
0.9266264622110474
 40
0.9639007443615107
 40
1.0
 40
1.0
 40
1.0
 40
1.0
 10
117.3197623781767
 20
131.5862316400891
 30
0.0
 10
117.4027948580563
 20
131.5751045347642
 30
0.0
 10
117.5673624491291
 20
131.5530509850981
 30
0.0
 10
117.8152439648097
 20
131.5249990958354
 30
0.0
 10
118.060520640252
 20
131.5010475653095
 30
0.0
 10
118.3030784738633
 20
131.4815176131161
 30
0.0
 10
118.5425131509722
 20
131.4663253209395
 30
0.0
 10
118.7785263463793
 20
131.4554937597086
 30
0.0
 10
119.0108443916901
 20
131.4490131944555
 30
0.0
 10
119.6193951613141
 20
131.4433817028694
 30
0.0
 10
120.6577076585341
 20
131.503355102354
 30
0.0
 10
121.9730591866354
 20
131.7027775755288
 30
0.0
 10
123.252604399527
 20
132.0082589362127
 30
0.0
 10
124.1440449436171
 20
132.2882017391316
 30
0.0
 10
124.7617098124781
 20
132.515650835647
 30
0.0
 10
125.1050328977615
 20
132.645929496147
 30
0.0
 10
125.396723982657
 20
132.762020434105
 30
0.0
 10
125.6412693384828
 20
132.8633886635083
 30
0.0
 10
125.8536240189222
 20
132.9547267160258
 30
0.0
 10
126.0446869935468
 20
133.038801799973
 30
0.0
 10
126.2099343977193
 20
133.1137947539383
 30
0.0
 10
126.3394749479634
 20
133.174783253484
 30
0.0
 10
126.4278413171859
 20
133.2180209152494
 30
0.0
 10
126.4809871624496
 20
133.2452510011283
 30
0.0
 10
126.4874173583908
 20
133.2486504472582
 30
0.0
 10
126.4905809687888
 20
133.2503229504327
 30
0.0
  0
SPLINE
  5
1BB
330
1F
100
AcDbEntity
  8
0
  6
Continuous
 62
     7
370
    25
100
AcDbSpline
210
0.0
220
0.0
230
1.0
 70
     8
 71
     3
 72
    38
 73
    34
 74
     0
 42
0.000000001
 43
0.00000001
 40
0.0
 40
0.0
 40
0.0
 40
0.0
 40
0.125000000000001
 40
0.125000000000001
 40
0.2500000000000021
 40
0.2500000000000021
 40
0.3125000000000023
 40
0.3125000000000023
 40
0.3750000000000026
 40
0.3750000000000026
 40
0.4375000000000029
 40
0.4375000000000029
 40
0.5000000000000032
 40
0.5000000000000032
 40
0.5625000000000036
 40
0.5625000000000036
 40
0.6250000000000038
 40
0.6250000000000038
 40
0.6875000000000041
 40
0.6875000000000041
 40
0.7187500000000037
 40
0.7187500000000037
 40
0.7500000000000032
 40
0.7500000000000032
 40
0.7812500000000029
 40
0.7812500000000029
 40
0.8125000000000024
 40
0.8125000000000024
 40
0.8750000000000017
 40
0.8750000000000017
 40
0.9375000000000008
 40
0.9375000000000008
 40
1.0
 40
1.0
 40
1.0
 40
1.0
 10
111.9905809687887
 20
137.680144814585
 30
0.0
 10
111.9905809687889
 20
137.6801448145849
 30
0.0
 10
112.0523867263524
 20
137.6575007319229
 30
0.0
 10
112.302009271788
 20
137.5649163428669
 30
0.0
 10
112.4857369027261
 20
137.4965287629141
 30
0.0
 10
112.8421257393112
 20
137.3606866637123
 30
0.0
 10
112.9752862008168
 20
137.3094936786558
 30
0.0
 10
113.2663652115131
 20
137.1958050735434
 30
0.0
 10
113.4228551630225
 20
137.133878466037
 30
0.0
 10
113.7562366043104
 20
136.9989933573465
 30
0.0
 10
113.9331403626735
 20
136.9260551030598
 30
0.0
 10
114.3063820101468
 20
136.767079168264
 30
0.0
 10
114.5041260010279
 20
136.6804393983874
 30
0.0
 10
114.9101494342811
 20
136.493521725835
 30
0.0
 10
115.1182028276681
 20
136.3934868120259
 30
0.0
 10
115.5404971004022
 20
136.1742232618469
 30
0.0
 10
115.7548624034773
 20
136.0552200701823
 30
0.0
 10
116.1827047150567
 20
135.7849462198584
 30
0.0
 10
116.3991063661633
 20
135.6316973943467
 30
0.0
 10
116.6977388090434
 20
135.3656288707635
 30
0.0
 10
116.7929313985131
 20
135.2708566244908
 30
0.0
 10
116.9705566503699
 20
135.0650997673009
 30
0.0
 10
117.0531709609982
 20
134.9532412255303
 30
0.0
 10
117.1952512360198
 20
134.7197257213079
 30
0.0
 10
117.2556367852647
 20
134.5971646553521
 30
0.0
 10
117.3550872774196
 20
134.340693892127
 30
0.0
 10
117.3943787164444
 20
134.2054538785772
 30
0.0
 10
117.4810753025974
 20
133.7971718756127
 30
0.0
 10
117.4997836295921
 20
133.5209116978278
 30
0.0
 10
117.4962876089604
 20
132.9641639191921
 30
0.0
 10
117.4738079887518
 20
132.6859336752014
 30
0.0
 10
117.4081803409697
 20
132.1345478550166
 30
0.0
 10
117.3646827972802
 20
131.8602941859142
 30
0.0
 10
117.3152032501702
 20
131.5868647139526
 30
0.0
  0
LINE
  5
1BC
330
1F
100
AcDbEntity
  8
0
  6
Continuous
 62
     7
370
    25
100
AcDbLine
 10
111.9905809688
 20
137.6801448146
 30
0.0
 11
111.9905809688
 21
137.8083701881
 31
0.0
  0
SPLINE
  5
1BD
330
1F
100
AcDbEntity
  8
0
  6
Continuous
 62
     7
370
    25
100
AcDbSpline
210
0.0
220
0.0
230
1.0
 70
     8
 71
     3
 72
    14
 73
    10
 74
     0
 42
0.000000001
 43
0.00000001
 40
0.0
 40
0.0
 40
0.0
 40
0.0
 40
0.0003951392850831
 40
0.0003951392850831
 40
0.0003951392850831
 40
0.0008159035679249
 40
0.0008159035679249
 40
0.0008159035679249
 40
0.0012369936130997
 40
0.0012369936130997
 40
0.0012369936130997
 40
0.0012369936130997
 10
116.1184649185203
 20
131.3190699266813
 30
0.0
 10
116.246974156627
 20
131.3479438943948
 30
0.0
 10
116.375537664356
 20
131.3766321078711
 30
0.0
 10
116.5040880426394
 20
131.4051349519085
 30
0.0
 10
116.640973290303
 20
131.4354858455993
 30
0.0
 10
116.7778689362028
 20
131.4656318106283
 30
0.0
 10
116.9146891975519
 20
131.4955836301968
 30
0.0
 10
117.0516151864968
 20
131.5255585949767
 30
0.0
 10
117.188492258461
 20
131.5553446444219
 30
0.0
 10
117.3252291076481
 20
131.5849671175906
 30
0.0
  0
LINE
  5
1BE
330
1F
100
AcDbEntity
  8
0
  6
Continuous
 62
     7
370
    25
100
AcDbLine
 10
108.5605808135
 20
132.7815969297
 30
0.0
 11
111.9905809688
 21
137.6801448146
 31
0.0
  0
LINE
  5
1BF
330
1F
100
AcDbEntity
  8
0
  6
Continuous
 62
     7
370
    25
100
AcDbLine
 10
186.3905809688
 20
120.1440969297
 30
0.0
 11
186.3905809688
 21
131.8440969221
 31
0.0
  0
LINE
  5
1C0
330
1F
100
AcDbEntity
  8
0
  6
Continuous
 62
     7
370
    25
100
AcDbLine
 10
177.8905809688
 20
131.8440969993
 30
0.0
 11
177.8905809688
 21
120.1440969297
 31
0.0
  0
LINE
  5
1C1
330
1F
100
AcDbEntity
  8
0
  6
Continuous
 62
     7
370
    25
100
AcDbLine
 10
111.2410191204
 20
138.6174826393
 30
0.0
 11
111.9906090994
 21
137.8083713016
 31
0.0
  0
LINE
  5
1C2
330
1F
100
AcDbEntity
  8
0
  6
Continuous
 62
     7
370
    25
100
AcDbLine
 10
126.4905939169
 20
138.6077494889
 30
0.0
 11
127.1589240628
 21
139.4168613113
 31
0.0
  0
LINE
  5
1C3
330
1F
100
AcDbEntity
  8
0
  6
Continuous
 62
     7
370
    25
100
AcDbLine
 10
102.4422470186
 20
134.079673141
 30
0.0
 11
104.6905809688
 21
132.7815969297
 31
0.0
  0
LINE
  5
1C4
330
1F
100
AcDbEntity
  8
0
  6
Continuous
 62
     7
370
    25
100
AcDbLine
 10
101.6905809688
 20
135.3815969297
 30
0.0
 11
102.4422470186
 21
134.079673141
 31
0.0
  0
LINE
  5
1C5
330
1F
100
AcDbEntity
  8
0
  6
Continuous
 62
     7
370
    25
100
AcDbLine
 10
101.6905809688
 20
137.3471916535
 30
0.0
 11
101.6905809688
 21
135.3815969297
 31
0.0
  0
LINE
  5
1C6
330
1F
100
AcDbEntity
  8
0
  6
Continuous
 62
     7
370
    25
100
AcDbLine
 10
103.1905809688
 20
138.2132170573
 30
0.0
 11
101.6905809688
 21
137.3471916535
 31
0.0
  0
ARC
  5
1C7
330
1F
100
AcDbEntity
  8
0
  6
Continuous
 62
     7
370
    25
100
AcDbCircle
 10
150.6655809688
 20
143.9940969297
 30
0.0
 40
1.0
100
AcDbArc
 50
180.0
 51
270.0
  0
LINE
  5
1C8
330
1F
100
AcDbEntity
  8
0
  6
Continuous
 62
     7
370
    25
100
AcDbLine
 10
152.4155809688
 20
142.9940969297
 30
0.0
 11
150.6655809688
 21
142.9940969297
 31
0.0
  0
ARC
  5
1C9
330
1F
100
AcDbEntity
  8
0
  6
Continuous
 62
     7
370
    25
100
AcDbCircle
 10
152.4155809688
 20
143.9940969297
 30
0.0
 40
1.0
100
AcDbArc
 50
270.0
 51
0.0
  0
LINE
  5
1CA
330
1F
100
AcDbEntity
  8
0
  6
Continuous
 62
     7
370
    25
100
AcDbLine
 10
153.4155809688
 20
144.0916921939
 30
0.0
 11
153.4155809688
 21
143.9940969297
 31
0.0
  0
LINE
  5
1CB
330
1F
100
AcDbEntity
  8
0
  6
Continuous
 62
     7
370
    25
100
AcDbLine
 10
154.8747787734
 20
146.6190969297
 30
0.0
 11
153.4155809688
 21
144.0916921939
 31
0.0
  0
LINE
  5
1CC
330
1F
100
AcDbEntity
  8
0
  6
Continuous
 62
     7
370
    25
100
AcDbLine
 10
177.090581012
 20
132.6440969297
 30
0.0
 11
177.8905809688
 21
131.8440969993
 31
0.0
  0
LINE
  5
1CD
330
1F
100
AcDbEntity
  8
0
  6
Continuous
 62
     7
370
    25
100
AcDbLine
 10
127.1165301106
 20
132.78159822
 30
0.0
 11
126.490584097
 21
133.2503230753
 31
0.0
  0
LINE
  5
1CE
330
1F
100
AcDbEntity
  8
0
  6
Continuous
 62
     7
370
    25
100
AcDbLine
 10
149.6655809688
 20
144.0916921939
 30
0.0
 11
148.2063831642
 21
146.6190969297
 31
0.0
  0
LINE
  5
1CF
330
1F
100
AcDbEntity
  8
0
  6
Continuous
 62
     7
370
    25
100
AcDbLine
 10
149.6655809688
 20
143.9940969297
 30
0.0
 11
149.6655809688
 21
144.0916921939
 31
0.0
  0
LINE
  5
1D0
330
1F
100
AcDbEntity
  8
0
  6
Continuous
 62
     7
370
    25
100
AcDbLine
 10
160.6405809688
 20
119.1440969297
 30
0.0
 11
160.6405809688
 21
120.0440969297
 31
0.0
  0
LINE
  5
1D1
330
1F
100
AcDbEntity
  8
0
  6
Continuous
 62
     7
370
    25
100
AcDbLine
 10
144.3655809688
 20
120.1440969297
 30
0.0
 11
144.3655809688
 21
120.8940969297
 31
0.0
  0
LINE
  5
1D2
330
1F
100
AcDbEntity
  8
0
  6
Continuous
 62
     7
370
    25
100
AcDbLine
 10
145.1905809688
 20
120.8940969297
 30
0.0
 11
145.1905809688
 21
119.1440969297
 31
0.0
  0
LINE
  5
1D3
330
1F
100
AcDbEntity
  8
0
  6
Continuous
 62
     7
370
    25
100
AcDbLine
 10
140.5405809688
 20
129.4940969297
 30
0.0
 11
140.5405809688
 21
120.3750370374
 31
0.0
  0
LINE
  5
1D4
330
1F
100
AcDbEntity
  8
0
  6
Continuous
 62
     7
370
    25
100
AcDbLine
 10
135.6405809688
 20
132.5940969297
 30
0.0
 11
135.6405809688
 21
130.6940969297
 31
0.0
  0
LINE
  5
1D5
330
1F
100
AcDbEntity
  8
0
  6
Continuous
 62
     7
370
    25
100
AcDbLine
 10
141.6405809688
 20
146.4190969297
 30
0.0
 11
141.6405809688
 21
141.9940969297
 31
0.0
  0
LINE
  5
1D6
330
1F
100
AcDbEntity
  8
0
  6
Continuous
 62
     7
370
    25
100
AcDbLine
 10
159.6405809688
 20
135.6440969297
 30
0.0
 11
159.6405809688
 21
146.6190969297
 31
0.0
  0
LINE
  5
1D7
330
1F
100
AcDbEntity
  8
0
  6
Continuous
 62
     7
370
    25
100
AcDbLine
 10
186.3905807908
 20
131.8440969553
 30
0.0
 11
187.190580714
 21
132.6440968836
 31
0.0
  0
LINE
  5
1D8
330
1F
100
AcDbEntity
  8
0
  6
Continuous
 62
     7
370
    25
100
AcDbLine
 10
201.6405809688
 20
120.4440969297
 30
0.0
 11
201.6405809688
 21
126.3699564081
 31
0.0
  0
SPLINE
  5
1D9
330
1F
100
AcDbEntity
  8
0
  6
Continuous
 62
     7
370
    25
100
AcDbSpline
210
0.0
220
0.0
230
1.0
 70
     8
 71
     3
 72
     9
 73
     5
 74
     0
 42
0.000000001
 43
0.00000001
 40
0.0
 40
0.0
 40
0.0
 40
0.0
 40
0.5102121239851395
 40
0.9999999999999999
 40
0.9999999999999999
 40
0.9999999999999999
 40
0.9999999999999999
 10
102.4949443654599
 20
125.6057234463329
 30
0.0
 10
102.8698064224386
 20
125.6032335289512
 30
0.0
 10
103.6045244727484
 20
125.5983533678091
 30
0.0
 10
104.3335250632052
 20
125.5929684764228
 30
0.0
 10
104.6905807140186
 20
125.5903310219081
 30
0.0
  0
LINE
  5
1DA
330
1F
100
AcDbEntity
  8
0
  6
Continuous
 62
     7
370
    25
100
AcDbLine
 10
102.4422470186
 20
125.6361477372
 30
0.0
 11
102.4949443673
 21
125.6057229088
 31
0.0
  0
LINE
  5
1DB
330
1F
100
AcDbEntity
  8
0
  6
Continuous
 62
     7
370
    25
100
AcDbLine
 10
102.4422470186
 20
134.079673141
 30
0.0
 11
102.4422470186
 21
125.6361477372
 31
0.0
  0
SPLINE
  5
1DC
330
1F
100
AcDbEntity
  8
0
  6
Continuous
 62
     7
370
    25
100
AcDbSpline
210
0.0
220
0.0
230
1.0
 70
    24
 71
     3
 72
     8
 73
     4
 74
     0
 42
0.000000001
 43
0.00000001
 40
0.0000004089325119
 40
0.0000004089325119
 40
0.0000004089325119
 40
0.0000004089325119
 40
0.0015399868451459
 40
0.0015399868451459
 40
0.0015399868451459
 40
0.0015399868451459
 10
101.6905809687888
 20
126.0701223334655
 30
0.0
 10
101.9415720448132
 20
125.9252125681586
 30
0.0
 10
102.1921612413162
 20
125.7805348281016
 30
0.0
 10
102.4422470186283
 20
125.6361477372499
 30
0.0
  0
LINE
  5
1DD
330
1F
100
AcDbEntity
  8
0
  6
Continuous
 62
     7
370
    25
100
AcDbLine
 10
101.6905809688
 20
135.3815969297
 30
0.0
 11
101.6905809688
 21
126.0701223335
 31
0.0
  0
SPLINE
  5
1DE
330
1F
100
AcDbEntity
  8
0
  6
Continuous
 62
     7
370
    25
100
AcDbSpline
210
0.0
220
0.0
230
1.0
 70
     8
 71
     3
 72
     8
 73
     4
 74
     0
 42
0.000000001
 43
0.00000001
 40
0.0
 40
0.0
 40
0.0
 40
0.0
 40
1.0
 40
1.0
 40
1.0
 40
1.0
 10
104.8202627115455
 20
125.2040976074176
 30
0.0
 10
104.792314491426
 20
125.3119139613931
 30
0.0
 10
104.7643544032573
 20
125.4195078115594
 30
0.0
 10
104.7363822157231
 20
125.526877092344
 30
0.0
  0
LINE
  5
1DF
330
1F
100
AcDbEntity
  8
0
  6
Continuous
 62
     7
370
    25
100
AcDbLine
 10
104.8202658501
 20
125.2040969297
 30
0.0
 11
103.190580182
 21
125.2040969297
 31
0.0
  0
LINE
  5
1E0
330
1F
100
AcDbEntity
  8
0
  6
Continuous
 62
     7
370
    25
100
AcDbLine
 10
103.1905803819
 20
125.2040972685
 30
0.0
 11
102.4949439039
 21
125.6057231763
 31
0.0
  0
LINE
  5
1E1
330
1F
100
AcDbEntity
  8
0
  6
Continuous
 62
     7
370
    25
100
AcDbLine
 10
111.244541866
 20
123.2065969297
 30
0.0
 11
110.992370238
 21
123.2065969297
 31
0.0
  0
SPLINE
  5
1E2
330
1F
100
AcDbEntity
  8
0
  6
Continuous
 62
     7
370
    25
100
AcDbSpline
210
0.0
220
0.0
230
1.0
 70
     8
 71
     3
 72
    26
 73
    22
 74
     0
 42
0.000000001
 43
0.00000001
 40
0.0
 40
0.0
 40
0.0
 40
0.0
 40
0.0524616379932503
 40
0.1026498591890872
 40
0.150565513457809
 40
0.1962095861957063
 40
0.2395832262568645
 40
0.2806877815599511
 40
0.3195248450380211
 40
0.3560963147430692
 40
0.3904044736547445
 40
0.4224520974433627
 40
0.4522426027417772
 40
0.4797802555366611
 40
0.5050704712281336
 40
0.5966394156799991
 40
0.6841917884819224
 40
0.7679874773571101
 40
0.8483228539139507
 40
0.925534163520116
 40
1.0
 40
1.0
 40
1.0
 40
1.0
 10
110.9905637441194
 20
123.2066267137164
 30
0.0
 10
110.9549273450881
 20
123.2661736337986
 30
0.0
 10
110.8851988447496
 20
123.3826870175853
 30
0.0
 10
110.7717206839898
 20
123.5470849783145
 30
0.0
 10
110.6561951342648
 20
123.6992467161161
 30
0.0
 10
110.5390734382546
 20
123.8391494130486
 30
0.0
 10
110.4217017377753
 20
123.9673637369526
 30
0.0
 10
110.3050807717416
 20
124.084379415893
 30
0.0
 10
110.1901778512966
 20
124.190756571137
 30
0.0
 10
110.0778536256072
 20
124.2870726516113
 30
0.0
 10
109.9688846515724
 20
124.3739219981639
 30
0.0
 10
109.8639656107357
 20
124.4519021803577
 30
0.0
 10
109.763708284787
 20
124.5216103774106
 30
0.0
 10
109.6686709422038
 20
124.5836203663118
 30
0.0
 10
109.4985640377731
 20
124.6881068035776
 30
0.0
 10
109.245645006368
 20
124.823165470092
 30
0.0
 10
108.8996638493069
 20
124.9675523625091
 30
0.0
 10
108.5517052999825
 20
125.0765202747541
 30
0.0
 10
108.2055655396065
 20
125.1510498570908
 30
0.0
 10
107.8645007561723
 20
125.1959785616402
 30
0.0
 10
107.6387541446567
 20
125.2014236604946
 30
0.0
 10
107.5279239326386
 20
125.204096929681
 30
0.0
  0
SPLINE
  5
1E3
330
1F
100
AcDbEntity
  8
0
  6
Continuous
 62
     7
370
    25
100
AcDbSpline
210
0.0
220
0.0
230
1.0
 70
     8
 71
     3
 72
     8
 73
     4
 74
     0
 42
0.000000001
 43
0.00000001
 40
0.0
 40
0.0
 40
0.0
 40
0.0
 40
1.0
 40
1.0
 40
1.0
 40
1.0
 10
111.2445418660213
 20
123.2065969296809
 30
0.0
 10
111.2735465724488
 20
123.3305346565432
 30
0.0
 10
111.2925790921303
 20
123.4584867867765
 30
0.0
 10
111.3008306843219
 20
123.589556099468
 30
0.0
  0
LINE
  5
1E4
330
1F
100
AcDbEntity
  8
0
  6
Continuous
 62
     7
370
    25
100
AcDbLine
 10
107.5279239326
 20
125.2040969297
 30
0.0
 11
104.8202658501
 21
125.2040969297
 31
0.0
  0
LINE
  5
1E5
330
1F
100
AcDbEntity
  8
0
  6
Continuous
 62
     7
370
    25
100
AcDbLine
 10
124.2905809688
 20
119.2068703405
 30
0.0
 11
123.6405809688
 21
119.3565969297
 31
0.0
  0
SPLINE
  5
1E6
330
1F
100
AcDbEntity
  8
0
  6
Continuous
 62
     7
370
    25
100
AcDbSpline
210
0.0
220
0.0
230
1.0
 70
     8
 71
     3
 72
    26
 73
    22
 74
     0
 42
0.000000001
 43
0.00000001
 40
0.0
 40
0.0
 40
0.0
 40
0.0
 40
0.0305951740572542
 40
0.0629166281868252
 40
0.0969720532897518
 40
0.1327680143285475
 40
0.1703101548822826
 40
0.2096033578521445
 40
0.2506518729756858
 40
0.3342141733898277
 40
0.4179517165474626
 40
0.5018670561020881
 40
0.5659795686746639
 40
0.6277136397870199
 40
0.687135819210908
 40
0.7443207393864881
 40
0.7993521466017559
 40
0.8523240127975756
 40
0.903341702807647
 40
0.9525231537633125
 40
1.0
 40
1.0
 40
1.0
 40
1.0
 10
123.6405809687888
 20
119.356596929681
 30
0.0
 10
123.6396727569441
 20
119.4211320970682
 30
0.0
 10
123.6378050889636
 20
119.5538437176616
 30
0.0
 10
123.622212499902
 20
119.7566578091852
 30
0.0
 10
123.5955686387149
 20
119.9683708500856
 30
0.0
 10
123.5554142096365
 20
120.1880828434586
 30
0.0
 10
123.5005160929533
 20
120.4148297143298
 30
0.0
 10
123.4292731243416
 20
120.6474607181129
 30
0.0
 10
123.310860730059
 20
120.9628590325896
 30
0.0
 10
123.1227298336511
 20
121.3473409311245
 30
0.0
 10
122.8387130704165
 20
121.777368545654
 30
0.0
 10
122.5292951138668
 20
122.1358552579949
 30
0.0
 10
122.2133855030652
 20
122.4276219142843
 30
0.0
 10
121.9066400949419
 20
122.6600810011215
 30
0.0
 10
121.5882209811198
 20
122.8568912356855
 30
0.0
 10
121.2622501049627
 20
123.0189919379437
 30
0.0
 10
120.9327112698375
 20
123.1474618214234
 30
0.0
 10
120.6031493549909
 20
123.2440456407964
 30
0.0
 10
120.2767310316917
 20
123.3098978700826
 30
0.0
 10
119.9562128393878
 20
123.349462817908
 30
0.0
 10
119.744547325857
 20
123.3542470161234
 30
0.0
 10
119.6405809687888
 20
123.356596929681
 30
0.0
  0
SPLINE
  5
1E7
330
1F
100
AcDbEntity
  8
0
  6
Continuous
 62
     7
370
    25
100
AcDbSpline
210
0.0
220
0.0
230
1.0
 70
     8
 71
     3
 72
    13
 73
     9
 74
     0
 42
0.000000001
 43
0.00000001
 40
0.0
 40
0.0
 40
0.0
 40
0.0
 40
0.1604061687300809
 40
0.3231296684563272
 40
0.4883154213007764
 40
0.6561019685773533
 40
0.8266215117792448
 40
1.0
 40
1.0
 40
1.0
 40
1.0
 10
117.7257076894993
 20
123.356596929681
 30
0.0
 10
117.6666577379842
 20
123.355841359643
 30
0.0
 10
117.5477047612594
 20
123.3543193041148
 30
0.0
 10
117.3684511276536
 20
123.3418742449874
 30
0.0
 10
117.1875181459659
 20
123.3216900638566
 30
0.0
 10
117.0053896515671
 20
123.292554697716
 30
0.0
 10
116.8222226437728
 20
123.2551385458969
 30
0.0
 10
116.7014833288985
 20
123.2228726735398
 30
0.0
 10
116.6406117973136
 20
123.2066056186013
 30
0.0
  0
SPLINE
  5
1E8
330
1F
100
AcDbEntity
  8
0
  6
Continuous
 62
     7
370
    25
100
AcDbSpline
210
0.0
220
0.0
230
1.0
 70
    24
 71
     3
 72
    10
 73
     6
 74
     0
 42
0.000000001
 43
0.00000001
 40
0.0
 40
0.0
 40
0.0
 40
0.0
 40
0.3216623556917455
 40
0.6548175346390357
 40
1.0
 40
1.0
 40
1.0
 40
1.0
 10
116.6407598036935
 20
123.206596929681
 30
0.0
 10
116.5722138958362
 20
123.206596929681
 30
0.0
 10
116.432672971639
 20
123.206596929681
 30
0.0
 10
116.2230645562884
 20
123.206596929681
 30
0.0
 10
116.0833875611346
 20
123.206596929681
 30
0.0
 10
116.0123107899338
 20
123.206596929681
 30
0.0
  0
SPLINE
  5
1E9
330
1F
100
AcDbEntity
  8
0
  6
Continuous
 62
     7
370
    25
100
AcDbSpline
210
0.0
220
0.0
230
1.0
 70
     8
 71
     3
 72
     8
 73
     4
 74
     0
 42
0.000000001
 43
0.00000001
 40
0.0
 40
0.0
 40
0.0
 40
0.0
 40
1.0
 40
1.0
 40
1.0
 40
1.0
 10
116.7269110851874
 20
123.5850432788639
 30
0.0
 10
116.4576147551309
 20
123.4883538936707
 30
0.0
 10
116.2214540697172
 20
123.3603547242939
 30
0.0
 10
116.0122565535332
 20
123.2068781266492
 30
0.0
  0
LINE
  5
1EA
330
1F
100
AcDbEntity
  8
0
  6
Continuous
 62
     7
370
    25
100
AcDbLine
 10
116.0128022651
 20
107.0815969297
 30
0.0
 11
116.1814902765
 21
107.0815969297
 31
0.0
  0
LINE
  5
1EB
330
1F
100
AcDbEntity
  8
0
  6
Continuous
 62
     7
370
    25
100
AcDbLine
 10
119.6405809688
 20
123.3565969297
 30
0.0
 11
117.7257076895
 21
123.3565969297
 31
0.0
  0
LINE
  5
1EC
330
1F
100
AcDbEntity
  8
0
  6
Continuous
 62
     7
370
    25
100
AcDbLine
 10
116.0126691507
 20
123.2065969297
 30
0.0
 11
111.244541866
 21
123.2065969297
 31
0.0
  0
LINE
  5
1ED
330
1F
100
AcDbEntity
  8
0
  6
Continuous
 62
     7
370
    25
100
AcDbLine
 10
123.6405809688
 20
115.1440969297
 30
0.0
 11
123.6405809688
 21
119.3565969297
 31
0.0
  0
LINE
  5
1EE
330
1F
100
AcDbEntity
  8
VERMASSUNG
  6
CENTERX2
100
AcDbLine
 10
211.6355809688
 20
115.1440969297
 30
0.0
 11
91.6955809688
 21
115.1440969297
 31
0.0
  0
HATCH
  5
1EF
330
1F
100
AcDbEntity
  8
0
  6
Continuous
 62
     7
370
    18
100
AcDbHatch
 10
0.0
 20
0.0
 30
0.0
210
0.0
220
0.0
230
1.0
  2
ANSI31
 70
     0
 71
     0
 91
        1
 92
        0
 93
       44
 72
     1
 10
149.6655809687887
 20
143.994096929681
 11
149.6655809687887
 21
144.0916921938727
 72
     1
 10
149.6655809687887
 20
144.0916921938727
 11
148.2063831642186
 21
146.6190969296811
 72
     1
 10
148.2063831642186
 20
146.6190969296811
 11
141.8405809687887
 21
146.6190969296811
 72
     2
 10
141.8405809687887
 20
146.419096929681
 40
0.2000000000000028
 50
90.0
 51
180.0
 73
     1
 72
     1
 10
141.6405809687887
 20
146.419096929681
 11
141.6405809687887
 21
141.994096929681
 72
     1
 10
141.6405809687887
 20
141.994096929681
 11
141.9746196548173
 21
140.9346615692845
 72
     2
 10
141.2116460942188
 20
140.6940969296811
 40
0.8000000000000049
 50
342.5000000000014
 51
467.5000000000015
 73
     0
 72
     1
 10
140.9710814546153
 20
139.9311233690825
 11
140.480398928758
 21
140.0858349752094
 72
     1
 10
140.480398928758
 20
140.0858349752094
 11
127.1589256562385
 21
139.4168580021831
 72
     1
 10
127.1589240628399
 20
139.4168613112516
 11
126.4905939169104
 21
138.6077494888604
 72
     1
 10
126.4905939169104
 20
138.6077494888604
 11
126.4905809687887
 21
133.2503229504326
 72
     1
 10
126.4905840970224
 20
133.2503230753131
 11
127.1165301105646
 21
132.7815982199731
 72
     1
 10
127.1165303588735
 20
132.781596929681
 11
132.1405809687888
 21
132.781596929681
 72
     1
 10
132.1405809687888
 20
132.781596929681
 11
133.0158214423696
 21
133.2869172527086
 72
     2
 10
133.4158214423696
 20
132.594096929681
 40
0.7999999999999962
 50
240.0000000000003
 51
270.0000000000008
 73
     0
 72
     1
 10
133.4158214423696
 20
133.394096929681
 11
134.8405809687887
 21
133.394096929681
 72
     2
 10
134.8405809687887
 20
132.594096929681
 40
0.7999999999999977
 50
270.0000000000008
 51
359.9999999999987
 73
     0
 72
     1
 10
135.6405809687887
 20
132.5940969296811
 11
135.6405809687888
 21
130.694096929681
 72
     1
 10
135.6405809687888
 20
130.694096929681
 11
139.3405809687887
 21
130.694096929681
 72
     2
 10
139.3405809687887
 20
129.494096929681
 40
1.2
 50
270.0000000000008
 51
360.0000000000008
 73
     0
 72
     1
 10
140.5405809687887
 20
129.494096929681
 11
140.5405809687888
 21
120.3750370373569
 72
     1
 10
140.5405809687888
 20
120.3750370373569
 11
140.9405809687888
 21
120.144096929681
 72
     1
 10
140.9405809687888
 20
120.144096929681
 11
144.3655809687888
 21
120.144096929681
 72
     1
 10
144.3655809687888
 20
120.144096929681
 11
144.3655809687887
 21
120.894096929681
 72
     1
 10
144.3655809687887
 20
120.894096929681
 11
145.1905809687888
 21
120.894096929681
 72
     1
 10
145.1905809687888
 20
120.894096929681
 11
145.1905809687888
 21
119.144096929681
 72
     1
 10
145.1905809687888
 20
119.144096929681
 11
160.6405809687888
 21
119.1440969296811
 72
     1
 10
160.6405809687888
 20
119.1440969296811
 11
160.6405809687888
 21
120.0440969296811
 72
     2
 10
161.0405809687888
 20
120.0440969296811
 40
0.4000000000000024
 50
180.0
 51
270.0000000000008
 73
     0
 72
     1
 10
161.0405809687888
 20
120.4440969296811
 11
163.745806950669
 21
120.4440969296811
 72
     2
 10
163.745806950669
 20
120.0440969296811
 40
0.4000000000000006
 50
270.0000000000008
 51
289.9999999999992
 73
     0
 72
     1
 10
163.8826150079992
 20
120.4199739779954
 11
164.6405809687888
 21
120.1440969296811
 72
     1
 10
164.6405809687888
 20
120.1440969296811
 11
177.8905809687887
 21
120.1440969296811
 72
     1
 10
177.8905809687887
 20
120.1440969296811
 11
177.8905809687887
 21
131.8440969993439
 72
     1
 10
177.8905809687887
 20
131.8440969993439
 11
177.0905810120493
 21
132.6440969296811
 72
     1
 10
177.0905810120493
 20
132.6440969296811
 11
162.6405809687887
 21
132.6440969296811
 72
     2
 10
162.6405809687887
 20
135.6440969296811
 40
3.0
 50
90.0
 51
179.9999999999995
 73
     0
 72
     1
 10
159.6405809687887
 20
135.644096929681
 11
159.6405809687887
 21
146.6190969296811
 72
     1
 10
159.6405809687887
 20
146.6190969296811
 11
154.8747787733588
 21
146.6190969296811
 72
     1
 10
154.8747787733588
 20
146.6190969296811
 11
153.4155809687887
 21
144.0916921938727
 72
     1
 10
153.4155809687887
 20
144.0916921938727
 11
153.4155809687887
 21
143.9940969296811
 72
     2
 10
152.4155809687887
 20
143.9940969296811
 40
1.000000000000003
 50
0.0
 51
90.0
 73
     0
 72
     1
 10
152.4155809687887
 20
142.9940969296811
 11
150.6655809687887
 21
142.994096929681
 72
     2
 10
150.6655809687887
 20
143.994096929681
 40
1.000000000000003
 50
90.0
 51
180.0
 73
     0
 97
        0
 75
     0
 76
     1
 52
0.0
 41
1.0
 77
     0
 78
     1
 53
45.0
 43
0.0
 44
0.0
 45
-2.245064030267288
 46
2.245064030267288
 79
     0
 98
        1
 10
0.0
 20
0.0
  0
HATCH
  5
1F0
330
1F
100
AcDbEntity
  8
0
  6
Continuous
 62
     7
370
    18
100
AcDbHatch
 10
0.0
 20
0.0
 30
0.0
210
0.0
220
0.0
230
1.0
  2
ANSI31
 70
     0
 71
     0
 91
        1
 92
        0
 93
        8
 72
     1
 10
186.3905809687888
 20
120.1440969296811
 11
201.3405809687888
 21
120.1440969296811
 72
     2
 10
201.3405809687888
 20
120.4440969296811
 40
0.3000000000000008
 50
270.0000000000008
 51
360.0000000000008
 73
     1
 72
     1
 10
201.6405809687888
 20
120.4440969296811
 11
201.6405809687887
 21
126.3699564080661
 72
     2
 10
199.6405809687887
 20
126.3699564080661
 40
2.000000000000002
 50
0.0
 51
64.99999999999997
 73
     1
 72
     1
 10
200.4858174922701
 20
128.1825719821394
 11
190.918046366241
 21
132.6440969296811
 72
     1
 10
190.918046366241
 20
132.6440969296811
 11
187.1905807864056
 21
132.6440969296811
 72
     1
 10
187.1905807139789
 20
132.6440968835594
 11
186.3905807907525
 21
131.8440969553307
 72
     1
 10
186.3905809687888
 20
131.8440969221231
 11
186.3905809687888
 21
120.1440969296811
 97
        0
 75
     0
 76
     1
 52
0.0
 41
1.0
 77
     0
 78
     1
 53
45.0
 43
0.0
 44
0.0
 45
-2.245064030267288
 46
2.245064030267288
 79
     0
 98
        1
 10
0.0
 20
0.0
  0
HATCH
  5
1F1
330
1F
100
AcDbEntity
  8
0
  6
Continuous
 62
     7
370
    18
100
AcDbHatch
 10
0.0
 20
0.0
 30
0.0
210
0.0
220
0.0
230
1.0
  2
ANSI31
 70
     0
 71
     0
 91
        1
 92
        0
 93
        9
 72
     1
 10
111.9906090993769
 20
137.8083713015639
 11
111.2410191204412
 21
138.6174826393315
 72
     1
 10
111.2410191204412
 20
138.6174826393315
 11
103.1905809687888
 21
138.2132170572634
 72
     1
 10
103.1905809687888
 20
138.2132170572634
 11
101.6905809687887
 21
137.3471916534789
 72
     1
 10
101.6905809687887
 20
137.3471916534789
 11
101.6905809687887
 21
135.381596929681
 72
     1
 10
101.6905809687887
 20
135.381596929681
 11
102.4422470186283
 21
134.0796731410343
 72
     1
 10
102.4422470186283
 20
134.0796731410343
 11
104.6905809687888
 21
132.781596929681
 72
     1
 10
104.6905809687888
 20
132.781596929681
 11
108.5605808134977
 21
132.781596929681
 72
     1
 10
108.5605808134977
 20
132.781596929681
 11
111.9905809687887
 21
137.680144814585
 72
     1
 10
111.9905809687887
 20
137.6801448145849
 11
111.9905809687887
 21
137.8083701880707
 97
        0
 75
     0
 76
     1
 52
0.0
 41
1.0
 77
     0
 78
     1
 53
45.0
 43
0.0
 44
0.0
 45
-2.245064030267288
 46
2.245064030267288
 79
     0
 98
        1
 10
0.0
 20
0.0
  0
HATCH
  5
1F2
330
1F
100
AcDbEntity
  8
0
  6
Continuous
 62
     7
370
    18
100
AcDbHatch
 10
0.0
 20
0.0
 30
0.0
210
0.0
220
0.0
230
1.0
  2
ANSI31
 70
     0
 71
     0
 91
        1
 92
        0
 93
       15
 72
     1
 10
178.6405809687887
 20
120.1440969296811
 11
179.6405809687887
 21
120.1440969296811
 72
     1
 10
179.6405809687887
 20
120.1440969296811
 11
182.1405809687888
 21
121.5874726026551
 72
     1
 10
182.1405809687888
 20
121.5874726026551
 11
184.6405809687888
 21
120.1440969296811
 72
     1
 10
184.6405809687888
 20
120.1440969296811
 11
185.6405809687888
 21
120.1440969296811
 72
     1
 10
185.6405809687888
 20
120.1440969296811
 11
187.1405809687888
 21
121.6440969296811
 72
     1
 10
187.1405809687888
 20
121.6440969296811
 11
187.1405809687887
 21
131.8440969296811
 72
     1
 10
187.1405809687887
 20
131.8440969296811
 11
186.3405809687887
 21
132.6440969296811
 72
     1
 10
186.3405809687887
 20
132.6440969296811
 11
184.6405809687887
 21
132.6440969296811
 72
     1
 10
184.6405809687887
 20
132.6440969296811
 11
184.6405809687887
 21
126.6440969296811
 72
     1
 10
184.6405809687887
 20
126.6440969296811
 11
179.6405809687887
 21
126.6440969296811
 72
     1
 10
179.6405809687887
 20
126.6440969296811
 11
179.6405809687887
 21
132.6440969296811
 72
     1
 10
179.6405809687887
 20
132.6440969296811
 11
177.9405809687887
 21
132.6440969296811
 72
     1
 10
177.9405809687887
 20
132.6440969296811
 11
177.1405809687887
 21
131.8440969296811
 72
     1
 10
177.1405809687887
 20
131.8440969296811
 11
177.1405809687888
 21
121.6440969296811
 72
     1
 10
177.1405809687888
 20
121.6440969296811
 11
178.6405809687887
 21
120.1440969296811
 97
        0
 75
     0
 76
     1
 52
0.0
 41
1.0
 77
     0
 78
     1
 53
45.0
 43
0.0
 44
0.0
 45
-2.245064030267288
 46
2.245064030267288
 79
     0
 98
        1
 10
0.0
 20
0.0
  0
DIMENSION
  5
1F3
330
1F
100
AcDbEntity
  8
VERMASSUNG
100
AcDbDimension
  2
_D
 10
221.8569881118
 20
110.1440969297
 30
0.0
 11
221.8569881118
 21
115.1440969297
 31
0.0
 70
   160
  1
%%c<>
 71
     2
 42
-1.0
  3
SLDDIMSTYLE0
100
AcDbAlignedDimension
 13
177.8905809688
 23
120.1440969297
 33
0.0
 14
201.3405809688
 24
110.1440969297
 34
0.0
 50
90.0
100
AcDbRotatedDimension
  0
DIMENSION
  5
1FF
330
1F
100
AcDbEntity
  8
VERMASSUNG
100
AcDbDimension
  2
_D_1
 10
235.6405809688
 20
97.6440969297
 30
0.0
 11
235.6405809688
 21
115.1440969297
 31
0.0
 70
   160
  1
%%c<>
 71
     2
 42
-1.0
  3
SLDDIMSTYLE0
100
AcDbAlignedDimension
 13
190.9180463662
 23
132.6440969297
 33
0.0
 14
190.9180463662
 24
97.6440969297
 34
0.0
 50
90.0
100
AcDbRotatedDimension
  0
DIMENSION
  5
20A
330
1F
100
AcDbEntity
  8
VERMASSUNG
100
AcDbDimension
  2
_D_2
 10
85.6905559688
 20
83.6690969297
 30
0.0
 11
85.6905559688
 21
115.1440969297
 31
0.0
 70
   160
  1
KM%%c<> XMZ
 71
     2
 42
-1.0
  3
SLDDIMSTYLE1
100
AcDbAlignedDimension
 13
154.8747787734
 23
146.6190969297
 33
0.0
 14
154.8747787734
 24
83.6690969297
 34
0.0
 50
90.0
100
AcDbRotatedDimension
  0
DIMENSION
  5
218
330
1F
100
AcDbEntity
  8
VERMASSUNG
100
AcDbDimension
  2
_D_3
 10
201.6405809688
 20
152.2398492365
 30
0.0
 11
180.6405809688
 21
152.2398492365
 31
0.0
 70
   160
  1
<>
 71
     2
 42
-1.0
  3
SLDDIMSTYLE0
100
AcDbAlignedDimension
 13
159.6405809688
 23
146.6190969297
 33
0.0
 14
201.6405809688
 24
126.3699564081
 34
0.0
 50
0.0
100
AcDbRotatedDimension
  0
DIMENSION
  5
222
330
1F
100
AcDbEntity
  8
VERMASSUNG
100
AcDbDimension
  2
_D_4
 10
201.6405809688
 20
160.3140243219
 30
0.0
 11
171.6405809688
 21
160.3140243219
 31
0.0
 70
   160
  1
<>
 71
     2
 42
-1.0
  3
SLDDIMSTYLE0
100
AcDbAlignedDimension
 13
141.6405809688
 23
146.4190969297
 33
0.0
 14
201.6405809688
 24
126.3699564081
 34
0.0
 50
0.0
100
AcDbRotatedDimension
  0
DIMENSION
  5
22C
330
1F
100
AcDbEntity
  8
VERMASSUNG
100
AcDbDimension
  2
_D_5
 10
101.6905809688
 20
168.6190969297
 30
0.0
 11
151.6655809688
 21
168.6190969297
 31
0.0
 70
   160
  1
<>
 71
     2
 42
-1.0
  3
SLDDIMSTYLE0
100
AcDbAlignedDimension
 13
201.6405809688
 23
126.3699564081
 33
0.0
 14
101.6905809688
 24
137.3471916535
 34
0.0
 50
0.0
100
AcDbRotatedDimension
  0
LINE
  5
236
330
1F
100
AcDbEntity
  8
VERMASSUNG
  6
CENTERX2
370
    18
100
AcDbLine
 10
182.1405809688
 20
134.6440969297
 30
0.0
 11
182.1405809688
 21
115.6565041909
 31
0.0
  0
LINE
  5
237
330
1F
100
AcDbEntity
  8
0
  6
Continuous
 62
     7
370
    25
100
AcDbLine
 10
257.4165136048
 20
29.9441834743
 30
0.0
 11
261.4843059775
 21
30.0276157929
 31
0.0
  0
LINE
  5
238
330
1F
100
AcDbEntity
  8
0
  6
Continuous
 62
     7
370
    25
100
AcDbLine
 10
267.6383973449
 20
40.6879697873
 30
0.0
 11
265.6764211857
 21
44.2523133861
 31
0.0
  0
SPLINE
  5
239
330
1F
100
AcDbEntity
  8
0
  6
Continuous
 62
     7
370
    25
100
AcDbSpline
210
0.0
220
0.0
230
1.0
 70
     8
 71
     3
 72
    27
 73
    23
 74
     0
 42
0.000000001
 43
0.00000001
 40
0.0
 40
0.0
 40
0.0
 40
0.0
 40
0.027146924308595
 40
0.0761914506089356
 40
0.1266510732854038
 40
0.178188559418427
 40
0.23031464815773
 40
0.2825821975518197
 40
0.3347430965254496
 40
0.3867442278959084
 40
0.4386045917989979
 40
0.4903772925800297
 40
0.5421302209329987
 40
0.5939304877068782
 40
0.6458376761774262
 40
0.6979301241658393
 40
0.7502816135324011
 40
0.8029473647338267
 40
0.8559320686133097
 40
0.9091091330887321
 40
0.9620360033262223
 40
0.9999999999999999
 40
0.9999999999999999
 40
0.9999999999999999
 40
0.9999999999999999
 10
261.5899915560975
 20
30.04176051211153
 30
0.0
 10
261.6947706906064
 20
30.045635835212
 30
0.0
 10
261.9888472556356
 20
30.05651244448262
 30
0.0
 10
262.4834040251722
 20
30.1712474689922
 30
0.0
 10
263.0696025511003
 20
30.37654200159422
 30
0.0
 10
263.6610044429202
 20
30.67241583453854
 30
0.0
 10
264.2469628895475
 20
31.04898007681858
 30
0.0
 10
264.8173235383359
 20
31.50057273823715
 30
0.0
 10
265.3630782469099
 20
32.01821739124262
 30
0.0
 10
265.876835420163
 20
32.59325898404467
 30
0.0
 10
266.352248122058
 20
33.21701915257687
 30
0.0
 10
266.7834996377418
 20
33.88076140116136
 30
0.0
 10
267.1651532117154
 20
34.57557925353283
 30
0.0
 10
267.4921112098278
 20
35.29238009736449
 30
0.0
 10
267.7596878229384
 20
36.02204920046882
 30
0.0
 10
267.9635597505174
 20
36.7555784517254
 30
0.0
 10
268.0997837352428
 20
37.48425281195534
 30
0.0
 10
268.1641967739661
 20
38.19918390889539
 30
0.0
 10
268.1539346834481
 20
38.89197730178189
 30
0.0
 10
268.0616575733884
 20
39.54939140156996
 30
0.0
 10
267.9138075091829
 20
40.11329327323433
 30
0.0
 10
267.7583557936316
 20
40.42982459232886
 30
0.0
 10
267.6934255249184
 20
40.56203582931686
 30
0.0
  0
LINE
  5
23A
330
1F
100
AcDbEntity
  8
0
  6
Continuous
 62
     7
370
    25
100
AcDbLine
 10
245.7314289948
 20
36.1247197303
 30
0.0
 11
255.7290227635
 21
30.3532316973
 31
0.0
  0
LINE
  5
23B
330
1F
100
AcDbEntity
  8
0
  6
Continuous
 62
     7
370
    25
100
AcDbLine
 10
264.478311674
 20
45.5090867889
 30
0.0
 11
254.4807179054
 21
51.280574822
 31
0.0
  0
LINE
  5
23C
330
1F
100
AcDbEntity
  8
0
  6
Continuous
 62
     7
370
    25
100
AcDbLine
 10
239.4923372258
 20
31.6582192812
 30
0.0
 11
241.1773027509
 21
30.6855093883
 31
0.0
  0
LINE
  5
23D
330
1F
100
AcDbEntity
  8
0
  6
Continuous
 62
     7
370
    25
100
AcDbLine
 10
256.9135238058
 20
57.9443973317
 30
0.0
 11
255.2285582807
 21
58.9171072247
 31
0.0
  0
SPLINE
  5
23E
330
1F
100
AcDbEntity
  8
0
  6
Continuous
 62
     7
370
    25
100
AcDbSpline
210
0.0
220
0.0
230
1.0
 70
     8
 71
     3
 72
     9
 73
     5
 74
     0
 42
0.000000001
 43
0.00000001
 40
0.0
 40
0.0
 40
0.0
 40
0.0
 40
0.9734017898721589
 40
0.9999999999999999
 40
0.9999999999999999
 40
0.9999999999999999
 40
0.9999999999999999
 10
262.4679741102478
 20
33.6993307283764
 30
0.0
 10
262.258315935836
 20
33.97172412941477
 30
0.0
 10
262.0429288504689
 20
34.25156068187698
 30
0.0
 10
262.0658050657917
 20
34.7484365140424
 30
0.0
 10
262.0664135321738
 20
34.76165252183379
 30
0.0
  0
SPLINE
  5
23F
330
1F
100
AcDbEntity
  8
0
  6
Continuous
 62
     7
370
    25
100
AcDbSpline
210
0.0
220
0.0
230
1.0
 70
     8
 71
     3
 72
    10
 73
     6
 74
     0
 42
0.000000001
 43
0.00000001
 40
0.0
 40
0.0
 40
0.0
 40
0.0
 40
0.2841356532536706
 40
0.6403043617467956
 40
1.0
 40
1.0
 40
1.0
 40
1.0
 10
264.3365279795144
 20
38.02957446808326
 30
0.0
 10
264.4188853245508
 20
38.04750289850551
 30
0.0
 10
264.6044789543712
 20
38.08790491094986
 30
0.0
 10
264.8561193705447
 20
38.06054559824015
 30
0.0
 10
265.0017945983832
 20
37.98410745753551
 30
0.0
 10
265.0749910696047
 20
37.94570008897104
 30
0.0
  0
LINE
  5
240
330
1F
100
AcDbEntity
  8
0
  6
Continuous
 62
     7
370
    25
100
AcDbLine
 10
234.8840523983
 20
34.3185254859
 30
0.0
 11
237.1347033484
 21
33.0192523483
 31
0.0
  0
LINE
  5
241
330
1F
100
AcDbEntity
  8
0
  6
Continuous
 62
     7
370
    25
100
AcDbLine
 10
252.8709244032
 20
60.2781402917
 30
0.0
 11
250.6202734532
 21
61.5774134294
 31
0.0
  0
LINE
  5
242
330
1F
100
AcDbEntity
  8
0
  6
Continuous
 62
     7
370
    25
100
AcDbLine
 10
243.8428845803
 20
61.3572954647
 30
0.0
 11
234.6456720238
 21
65.9379481238
 31
0.0
  0
LINE
  5
243
330
1F
100
AcDbEntity
  8
0
  6
Continuous
 62
     7
370
    25
100
AcDbLine
 10
223.1193243121
 20
45.9715648623
 30
0.0
 11
231.6854246243
 21
40.2976752763
 31
0.0
  0
LINE
  5
244
330
1F
100
AcDbEntity
  8
0
  6
Continuous
 62
     7
370
    25
100
AcDbLine
 10
228.0987618605
 20
46.9180549
 30
0.0
 11
228.0987618605
 21
46.5527358832
 31
0.0
  0
LINE
  5
245
330
1F
100
AcDbEntity
  8
0
  6
Continuous
 62
     7
370
    25
100
AcDbLine
 10
231.9967283614
 20
66.3149165975
 30
0.0
 11
231.3571779089
 21
66.2277055321
 31
0.0
  0
LWPOLYLINE
  5
246
330
1F
100
AcDbEntity
  8
0
  6
Continuous
 62
     7
370
    25
100
AcDbPolyline
 90
        3
 70
   128
 43
0.0
 10
267.6383973449
 20
40.6879697873
 10
267.6396687819
 20
40.6856574815
 10
267.691006978
 20
40.587917822
  0
LINE
  5
247
330
1F
100
AcDbEntity
  8
0
  6
Continuous
 62
     7
370
    25
100
AcDbLine
 10
261.5711703802
 20
30.0306777793
 30
0.0
 11
261.4843059775
 21
30.0276157929
 31
0.0
  0
LWPOLYLINE
  5
248
330
1F
100
AcDbEntity
  8
0
  6
Continuous
 62
     7
370
    25
100
AcDbPolyline
 90
       26
 70
   128
 43
0.0
 10
253.9164828834
 20
34.3593737539
 10
253.9540349016
 20
35.1670313408
 10
254.0662351256
 20
36.0082416961
 10
254.2517215968
 20
36.8727936655
 10
254.5082427605
 20
37.7501927594
 10
254.8326847974
 20
38.6297885412
 10
255.2211094206
 20
39.5009039097
 10
255.6688016814
 20
40.3529647044
 10
256.1703272022
 20
41.1756280615
 10
256.7195981426
 20
41.9589079622
 10
257.3099470973
 20
42.6932964496
 10
257.9342080299
 20
43.3698790422
 10
258.5848032582
 20
43.980442944
 10
259.2538354374
 20
44.5175767362
 10
259.9331834233
 20
44.9747603423
 10
260.6146008515
 20
45.3464441725
 10
261.2898162375
 20
45.6281164887
 10
261.9506333813
 20
45.8163581705
 10
262.5890308578
 20
45.9088842189
 10
263.1972593865
 20
45.904571493
 10
263.7679358969
 20
45.8034723435
 10
264.2941331494
 20
45.606813977
 10
264.769463822
 20
45.3169835598
 10
265.1881580443
 20
44.9374992405
 10
265.5451334356
 20
44.4729674446
 10
265.6764211857
 20
44.2523133861
  0
LWPOLYLINE
  5
249
330
1F
100
AcDbEntity
  8
0
  6
Continuous
 62
     7
370
    25
100
AcDbPolyline
 90
       12
 70
   128
 43
0.0
 10
257.4165136048
 20
29.9441834743
 10
257.3099470973
 20
29.9434614424
 10
256.7195981426
 20
29.9962475349
 10
256.1703272022
 20
30.1453527067
 10
255.6688016814
 20
30.3889670228
 10
255.2211094206
 20
30.7241333356
 10
254.8326847974
 20
31.14678318
 10
254.5082427605
 20
31.6517861595
 10
254.2517215968
 20
32.2330122219
 10
254.0662351256
 20
32.8834060703
 10
253.9540349016
 20
33.5950728043
 10
253.9164828834
 20
34.3593737539
  0
LWPOLYLINE
  5
24A
330
1F
100
AcDbEntity
  8
0
  6
Continuous
 62
     7
370
    25
100
AcDbPolyline
 90
       32
 70
   128
 43
0.0
 10
262.0208227131
 20
34.6609274377
 10
262.0591801841
 20
35.1186471455
 10
262.1726822377
 20
35.601914348
 10
262.3566820864
 20
36.0909440291
 10
262.6036467549
 20
36.5657152564
 10
262.9034654807
 20
37.0067908398
 10
263.2438636498
 20
37.3961130933
 10
263.6109053212
 20
37.7177431179
 10
263.9895637657
 20
37.9585133428
 10
264.3643366622
 20
38.1085666067
 10
264.7198807643
 20
38.1617597112
 10
265.0416400546
 20
38.1159149244
 10
265.3164416699
 20
37.9729091373
 10
265.5330351999
 20
37.7385970236
 10
265.68255328
 20
37.4225713488
 10
265.7588746224
 20
37.0377702411
 10
265.7588746224
 20
36.5999475031
 10
265.68255328
 20
36.1270276491
 10
265.5330351999
 20
35.6383720736
 10
265.3164416699
 20
35.1539863931
 10
265.0416400546
 20
34.6937014144
 10
264.7198807643
 20
34.2763612586
 10
264.3643366622
 20
33.9190518807
 10
263.9895637657
 20
33.6364015685
 10
263.6109053212
 20
33.4399820592
 10
263.2438636498
 20
33.3378347904
 10
262.9034654807
 20
33.3341416834
 10
262.6036467549
 20
33.4290539344
 10
262.3566820864
 20
33.6186858247
 10
262.1726822377
 20
33.8952738024
 10
262.0591801841
 20
34.2474943233
 10
262.0208227131
 20
34.6609274377
  0
LWPOLYLINE
  5
24B
330
1F
100
AcDbEntity
  8
0
  6
Continuous
 62
     7
370
    25
100
AcDbPolyline
 90
       42
 70
   128
 43
0.0
 10
237.9173203094
 20
37.8908420301
 10
237.9553283888
 20
38.973953901
 10
238.0690929931
 20
40.0935502139
 10
238.2578369949
 20
41.2419829908
 10
238.5202710811
 20
42.4114072712
 10
238.8546025608
 20
43.5938347016
 10
239.2585476112
 20
44.7811881036
 10
239.7293468778
 20
45.9653566495
 10
240.2637843242
 20
47.1382512676
 10
240.8582092009
 20
48.2918598981
 10
241.5085609831
 20
49.4183022244
 10
242.2103971088
 20
50.5098835033
 10
242.9589233256
 20
51.5591471277
 10
243.7490264403
 20
52.5589255631
 10
244.5753092476
 20
53.5023893091
 10
245.4321273981
 20
54.3830935517
 10
246.3136279549
 20
55.1950221878
 10
247.2137893755
 20
55.9326289215
 10
248.1264626446
 20
56.590875151
 10
249.0454132783
 20
57.1652643871
 10
249.9643639121
 20
57.6518729688
 10
250.8770371812
 20
58.0473768661
 10
251.7771986018
 20
58.3490743863
 10
252.6586991586
 20
58.5549046296
 10
253.5155173091
 20
58.6634615665
 10
254.3418001164
 20
58.6740036432
 10
255.1319032311
 20
58.5864588466
 10
255.8804294478
 20
58.4014251964
 10
256.5822655735
 20
58.12016666
 10
257.2326173558
 20
57.7446045185
 10
257.8270422324
 20
57.2773042422
 10
258.3614796789
 20
56.7214579656
 10
258.8322789455
 20
56.0808626825
 10
259.2362239958
 20
55.3598943083
 10
259.5705554756
 20
54.5634777881
 10
259.8329895618
 20
53.697053454
 10
260.0217335635
 20
52.7665398631
 10
260.1354981679
 20
51.7782933665
 10
260.1735062472
 20
50.7390646899
 10
260.1354981679
 20
49.655952819
 10
260.0217335635
 20
48.5363565061
 10
259.9609715813
 20
48.1168917158
  0
LWPOLYLINE
  5
24C
330
1F
100
AcDbEntity
  8
0
  6
Continuous
 62
     7
370
    25
100
AcDbPolyline
 90
       23
 70
   128
 43
0.0
 10
251.2116826708
 20
32.9610366241
 10
250.8770371812
 20
32.6972777985
 10
249.9643639121
 20
32.039031569
 10
249.0454132783
 20
31.464642333
 10
248.1264626446
 20
30.9780337513
 10
247.2137893755
 20
30.582529854
 10
246.3136279549
 20
30.2808323337
 10
245.4321273981
 20
30.0750020905
 10
244.5753092476
 20
29.9664451535
 10
243.7490264403
 20
29.9559030768
 10
242.9589233256
 20
30.0434478735
 10
242.2103971088
 20
30.2284815237
 10
241.5085609831
 20
30.50974006
 10
240.8582092009
 20
30.8853022015
 10
240.2637843242
 20
31.3526024779
 10
239.7293468778
 20
31.9084487545
 10
239.2585476112
 20
32.5490440375
 10
238.8546025608
 20
33.2700124117
 10
238.5202710811
 20
34.066428932
 10
238.2578369949
 20
34.932853266
 10
238.0690929931
 20
35.863366857
 10
237.9553283888
 20
36.8516133536
 10
237.9173203094
 20
37.8908420301
  0
SPLINE
  5
24D
330
1F
100
AcDbEntity
  8
0
  6
Continuous
 62
     7
370
    25
100
AcDbSpline
210
0.0
220
0.0
230
1.0
 70
     8
 71
     3
 72
    25
 73
    21
 74
     0
 42
0.000000001
 43
0.00000001
 40
0.0
 40
0.0
 40
0.0
 40
0.0
 40
0.1249999999999998
 40
0.1249999999999998
 40
0.2499999999999997
 40
0.2499999999999997
 40
0.3749999999999995
 40
0.3749999999999995
 40
0.4999999999999993
 40
0.4999999999999993
 40
0.5624999999999996
 40
0.5624999999999996
 40
0.6249999999999998
 40
0.6875000000000001
 40
0.6875000000000001
 40
0.7500000000000003
 40
0.7500000000000003
 40
0.8750000000000001
 40
0.8750000000000001
 40
1.0
 40
1.0
 40
1.0
 40
1.0
 10
242.7509091544702
 20
54.32265662568869
 30
0.0
 10
242.7800324527312
 20
54.2114711051595
 30
0.0
 10
242.7924214935905
 20
54.09622889273147
 30
0.0
 10
242.7854440084902
 20
53.85713332489567
 30
0.0
 10
242.7654264206382
 20
53.73235935502041
 30
0.0
 10
242.6952042629249
 20
53.48599044580799
 30
0.0
 10
242.6445536083313
 20
53.36177929844686
 30
0.0
 10
242.5146388646761
 20
53.1181508031367
 30
0.0
 10
242.4369379166868
 20
53.00109370807854
 30
0.0
 10
242.3015643344607
 20
52.8324371902285
 30
0.0
 10
242.2529298371536
 20
52.77707016895634
 30
0.0
 10
242.1514905017715
 20
52.67135035755932
 30
0.0
 10
242.0456205190308
 20
52.57018939893888
 30
0.0
 10
241.9310287267033
 20
52.47801507726207
 30
0.0
 10
241.8119460574851
 20
52.39047823452196
 30
0.0
 10
241.7499880444277
 20
52.34897976500977
 30
0.0
 10
241.5621243409071
 20
52.23485944327167
 30
0.0
 10
241.4327469045531
 20
52.17125201215708
 30
0.0
 10
241.1650636514911
 20
52.06998371118285
 30
0.0
 10
241.029191965026
 20
52.03344280295805
 30
0.0
 10
240.8936746982984
 20
52.01227461860798
 30
0.0
  0
LWPOLYLINE
  5
24E
330
1F
100
AcDbEntity
  8
0
  6
Continuous
 62
     7
370
    25
100
AcDbPolyline
 90
       16
 70
   128
 43
0.0
 10
242.7509091545
 20
54.3226566257
 10
243.6140526337
 20
55.2251012266
 10
244.5034412302
 20
56.0579297789
 10
245.4128443924
 20
56.8153079584
 10
246.335891358
 20
57.4919300038
 10
247.266115784
 20
58.0830558849
 10
248.1970010463
 20
58.5845445097
 10
249.1220258912
 20
58.9928827333
 10
250.0347101197
 20
59.3052099701
 10
250.9286599843
 20
59.5193382328
 10
251.7976129798
 20
59.6337674603
 10
252.6354817148
 20
59.6476960264
 10
253.4363965567
 20
59.5610263555
 10
254.1947467508
 20
59.3743656061
 10
254.9052197261
 20
59.0890214175
 10
255.2285582807
 20
58.9171072247
  0
LWPOLYLINE
  5
24F
330
1F
100
AcDbEntity
  8
0
  6
Continuous
 62
     7
370
    25
100
AcDbPolyline
 90
       22
 70
   128
 43
0.0
 10
239.4923372258
 20
31.6582192812
 10
238.9233029298
 20
32.0380816775
 10
238.3504796499
 20
32.5444761575
 10
237.839762355
 20
33.1387098149
 10
237.3946714351
 20
33.816686579
 10
237.0182749154
 20
34.5737331354
 10
236.7131673086
 20
35.4046311389
 10
236.4814517308
 20
36.3036531844
 10
236.3247254045
 20
37.2646022853
 10
236.244068649
 20
38.2808545903
 10
236.2400374339
 20
39.3454050412
 10
236.3126595464
 20
40.4509156593
 10
236.4614344001
 20
41.5897661261
 10
236.6853364854
 20
42.7541063106
 10
236.9828224384
 20
43.9359103805
 10
237.3518416793
 20
45.1270321241
 10
237.7898505472
 20
46.319261103
 10
238.2938298337
 20
47.5043792464
 10
238.8603055941
 20
48.6742174989
 10
239.4853730938
 20
49.8207121296
 10
240.1647237234
 20
50.9359603161
 10
240.8936746983
 20
52.0122746186
  0
LWPOLYLINE
  5
250
330
1F
100
AcDbEntity
  8
0
  6
Continuous
 62
     7
370
    25
100
AcDbPolyline
 90
       13
 70
   128
 43
0.0
 10
241.0882879097
 20
54.4469334652
 10
241.9191312035
 20
55.3362262955
 10
242.7780216197
 20
56.1555073838
 10
243.6582668892
 20
56.8983930874
 10
244.5530083511
 20
57.5590950183
 10
245.4552743936
 20
58.1324651449
 10
246.3580347751
 20
58.614035904
 10
247.2542554024
 20
59.0000550114
 10
248.1369531383
 20
59.2875146982
 10
248.9992502128
 20
59.4741751473
 10
249.8344278131
 20
59.558581945
 10
250.6359784347
 20
59.5400774137
 10
250.8888384149
 20
59.5118198728
  0
SPLINE
  5
251
330
1F
100
AcDbEntity
  8
0
  6
Continuous
 62
     7
370
    25
100
AcDbSpline
210
0.0
220
0.0
230
1.0
 70
     8
 71
     3
 72
    26
 73
    22
 74
     0
 42
0.000000001
 43
0.00000001
 40
0.0
 40
0.0
 40
0.0
 40
0.0
 40
0.1250000000000009
 40
0.1250000000000009
 40
0.2500000000000019
 40
0.2500000000000019
 40
0.3125000000000011
 40
0.3125000000000011
 40
0.3750000000000004
 40
0.3750000000000004
 40
0.4375000000000002
 40
0.4375000000000002
 40
0.5000000000000001
 40
0.5000000000000001
 40
0.5625
 40
0.5625
 40
0.6249999999999999
 40
0.6249999999999999
 40
0.7500000000000001
 40
0.7500000000000001
 40
1.0
 40
1.0
 40
1.0
 40
1.0
 10
239.7440946688426
 20
52.7747698525635
 30
0.0
 10
239.7204570726106
 20
52.88434571213649
 30
0.0
 10
239.7028892937289
 20
52.99523497050103
 30
0.0
 10
239.6840767108594
 20
53.22056493036397
 30
0.0
 10
239.682896936092
 20
53.33624184368234
 30
0.0
 10
239.6989949393274
 20
53.5075973535419
 30
0.0
 10
239.7073136564276
 20
53.56439586563607
 30
0.0
 10
239.7310708056846
 20
53.67722207803315
 30
0.0
 10
239.7466931847336
 20
53.7336749316993
 30
0.0
 10
239.7855503971306
 20
53.8422580481079
 30
0.0
 10
239.8087763538331
 20
53.89463800833344
 30
0.0
 10
239.8637750033115
 20
53.99509478360557
 30
0.0
 10
239.8958532703341
 20
54.043373651377
 30
0.0
 10
239.9662680188692
 20
54.13107062696074
 30
0.0
 10
240.0048464409958
 20
54.17105975493671
 30
0.0
 10
240.088554704592
 20
54.24353843905229
 30
0.0
 10
240.1336834145339
 20
54.27587506342891
 30
0.0
 10
240.272964056724
 20
54.35907483078255
 30
0.0
 10
240.3737531282856
 20
54.39790355341865
 30
0.0
 10
240.6768253995183
 20
54.47331984087382
 30
0.0
 10
240.8853494900034
 20
54.47318969450306
 30
0.0
 10
241.0882879096938
 20
54.44693346517685
 30
0.0
  0
LWPOLYLINE
  5
252
330
1F
100
AcDbEntity
  8
0
  6
Continuous
 62
     7
370
    25
100
AcDbPolyline
 90
       19
 70
   128
 43
0.0
 10
236.8071162741
 20
35.1189186452
 10
236.5820856977
 20
35.4316888581
 10
236.1821166633
 20
36.120141496
 10
235.8529047588
 20
36.8861273839
 10
235.5969449058
 20
37.7238415228
 10
235.4161768876
 20
38.6269353236
 10
235.3119706488
 20
39.5885647192
 10
235.285115913
 20
40.6014420327
 10
235.335816198
 20
41.6578912066
 10
235.4636872732
 20
42.7499059752
 10
235.6677600718
 20
43.8692105403
 10
235.946488035
 20
45.0073222888
 10
236.2977588318
 20
46.155616078
 10
236.7189103681
 20
47.3053896009
 10
237.2067509606
 20
48.4479293365
 10
237.7575835254
 20
49.5745765846
 10
238.3672335959
 20
50.6767930859
 10
239.0310809589
 20
51.7462257287
 10
239.7440946688
 20
52.7747698526
  0
LINE
  5
253
330
1F
100
AcDbEntity
  8
0
  6
Continuous
 62
     7
370
    25
100
AcDbLine
 10
238.2687026993
 20
32.5308489969
 30
0.0
 11
238.3826898854
 21
32.584719145
 31
0.0
  0
LWPOLYLINE
  5
254
330
1F
100
AcDbEntity
  8
0
  6
Continuous
 62
     7
370
    25
100
AcDbPolyline
 90
       43
 70
   128
 43
0.0
 10
238.2687026993
 20
32.5308489969
 10
237.5619675711
 20
32.7980365508
 10
236.9057858096
 20
33.1593259651
 10
236.3046155361
 20
33.612262627
 10
235.7625411223
 20
34.1537692694
 10
235.2832454405
 20
34.7801668773
 10
234.869984842
 20
35.4871996838
 10
234.5255670336
 20
36.2700640836
 10
234.2523320018
 20
37.1234412689
 10
234.0521361148
 20
38.0415333658
 10
233.9263395105
 20
39.0181028248
 10
233.8757968552
 20
40.0465147993
 10
233.9008515374
 20
41.1197822229
 10
234.001333335
 20
42.2306132796
 10
234.1765595709
 20
43.371460945
 10
234.4253397522
 20
44.5345742606
 10
234.7459836577
 20
45.7120509944
 10
235.1363128216
 20
46.8958913289
 10
235.5936753342
 20
48.078052212
 10
236.1149638587
 20
49.2505020018
 10
236.6966367429
 20
50.4052750341
 10
237.3347420811
 20
51.5345257409
 10
238.0249445638
 20
52.630581954
 10
238.7625549314
 20
53.6859970297
 10
239.5425618335
 20
54.6936004416
 10
240.3596658765
 20
55.6465464972
 10
241.2083156271
 20
56.5383608483
 10
242.0827453299
 20
57.3629844773
 10
242.9770140791
 20
58.1148148628
 10
243.885046182
 20
58.7887440432
 10
244.8006724372
 20
59.3801933205
 10
245.7176720483
 20
59.8851443679
 10
246.6298148883
 20
60.3001665304
 10
247.5309038273
 20
60.6224401333
 10
248.4148168359
 20
60.8497756385
 10
249.2755485787
 20
60.9806285207
 10
250.1072512145
 20
61.0141097611
 10
250.9042741268
 20
60.9499918868
 10
251.6612023145
 20
60.7887105169
 10
252.3728931815
 20
60.5313614026
 10
253.0345114753
 20
60.1796929827
 10
253.6415621384
 20
59.7360945045
 10
253.9609627604
 20
59.4438380814
  0
LINE
  5
255
330
1F
100
AcDbEntity
  8
0
  6
Continuous
 62
     7
370
    25
100
AcDbLine
 10
265.0384880819
 20
37.9690209502
 30
0.0
 11
265.0805152815
 21
37.9430700848
 31
0.0
  0
LINE
  5
256
330
1F
100
AcDbEntity
  8
0
  6
Continuous
 62
     7
370
    25
100
AcDbLine
 10
262.5386912503
 20
33.6387766383
 30
0.0
 11
262.4523139499
 21
33.696063985
 31
0.0
  0
LWPOLYLINE
  5
257
330
1F
100
AcDbEntity
  8
0
  6
Continuous
 62
     7
370
    25
100
AcDbPolyline
 90
       25
 70
   128
 43
0.0
 10
231.6240699568
 20
41.6054989389
 10
231.6618365234
 20
42.6817284469
 10
231.7748782391
 20
43.7942105656
 10
231.9624229143
 20
44.9353459141
 10
232.2231894289
 20
46.097339381
 10
232.5553964831
 20
47.2722533726
 10
232.9567747658
 20
48.4520620349
 10
233.4245824565
 20
49.6287060786
 10
233.9556239541
 20
50.7941478317
 10
234.5462717068
 20
51.9404261453
 10
235.1924909917
 20
53.0597107761
 10
235.8898674756
 20
54.1443558753
 10
236.63363737
 20
55.1869522169
 10
237.4187199725
 20
56.1803778108
 10
238.2397523728
 20
57.1178465529
 10
239.091126087
 20
57.9929545811
 10
239.9670253695
 20
58.7997240201
 10
240.8614669399
 20
59.5326438167
 10
241.7683408554
 20
60.1867073855
 10
242.6814522476
 20
60.7574468091
 10
243.5945636399
 20
61.2409633585
 10
244.5014375554
 20
61.6339541254
 10
245.3958791258
 20
61.9337345844
 10
246.2717784083
 20
62.1382569309
 10
246.9805009019
 20
62.2346546911
  0
ARC
  5
258
330
1F
100
AcDbEntity
  8
0
  6
Continuous
 62
     7
370
    25
100
AcDbCircle
 10
243.7818443822
 20
41.4964602424
 30
0.0
 40
12.15623180558613
100
AcDbArc
 50
180.8571235828
 51
191.8646627492
  0
SPLINE
  5
259
330
1F
100
AcDbEntity
  8
0
  6
Continuous
 62
     7
370
    25
100
AcDbSpline
210
0.0
220
0.0
230
1.0
 70
     8
 71
     3
 72
    10
 73
     6
 74
     0
 42
0.000000001
 43
0.00000001
 40
0.0
 40
0.0
 40
0.0
 40
0.0
 40
0.5
 40
0.5
 40
1.0
 40
1.0
 40
1.0
 40
1.0
 10
240.470782736474
 20
51.31171657174378
 30
0.0
 10
240.3668182456897
 20
51.38505494481416
 30
0.0
 10
240.2770099692623
 20
51.47229070260757
 30
0.0
 10
240.1249675412636
 20
51.67322124380357
 30
0.0
 10
240.0630619529027
 20
51.78739201000054
 30
0.0
 10
240.0186122483122
 20
51.91040969316063
 30
0.0
  0
SPLINE
  5
25A
330
1F
100
AcDbEntity
  8
0
  6
Continuous
 62
     7
370
    25
100
AcDbSpline
210
0.0
220
0.0
230
1.0
 70
     8
 71
     3
 72
    14
 73
    10
 74
     0
 42
0.000000001
 43
0.00000001
 40
0.0
 40
0.0
 40
0.0
 40
0.0
 40
0.25
 40
0.25
 40
0.5
 40
0.5
 40
0.75
 40
0.75
 40
1.0
 40
1.0
 40
1.0
 40
1.0
 10
240.0186122483122
 20
51.91040969316063
 30
0.0
 10
239.9958914454471
 20
51.97329111281817
 30
0.0
 10
239.9739769350977
 20
52.04233754229159
 30
0.0
 10
239.9318658810348
 20
52.18999005891036
 30
0.0
 10
239.9123443271218
 20
52.26638984576867
 30
0.0
 10
239.873998084948
 20
52.42072213716427
 30
0.0
 10
239.8556384920642
 20
52.49767473349593
 30
0.0
 10
239.8136350474825
 20
52.6430649010119
 30
0.0
 10
239.7898587264695
 20
52.70965580720493
 30
0.0
 10
239.7613972223673
 20
52.75015142243628
 30
0.0
  0
LINE
  5
25B
330
1F
100
AcDbEntity
  8
0
  6
Continuous
 62
     7
370
    25
100
AcDbLine
 10
239.7613972224
 20
52.7501514224
 30
0.0
 11
239.7440946688
 21
52.7747698526
 31
0.0
  0
LINE
  5
25C
330
1F
100
AcDbEntity
  8
0
  6
Continuous
 62
     7
370
    25
100
AcDbLine
 10
241.0882879097
 20
54.4469334652
 30
0.0
 11
241.1055904632
 21
54.422315035
 31
0.0
  0
SPLINE
  5
25D
330
1F
100
AcDbEntity
  8
0
  6
Continuous
 62
     7
370
    25
100
AcDbSpline
210
0.0
220
0.0
230
1.0
 70
     8
 71
     3
 72
    16
 73
    12
 74
     0
 42
0.000000001
 43
0.00000001
 40
0.0
 40
0.0
 40
0.0
 40
0.0
 40
0.1250000000000001
 40
0.1250000000000001
 40
0.2500000000000003
 40
0.2500000000000003
 40
0.5000000000000002
 40
0.5000000000000002
 40
0.7500000000000001
 40
0.7500000000000001
 40
1.0
 40
1.0
 40
1.0
 40
1.0
 10
241.1055904632185
 20
54.42231503504955
 30
0.0
 10
241.1197428696227
 20
54.40217869923676
 30
0.0
 10
241.1414012740963
 20
54.38538127855934
 30
0.0
 10
241.1938192031316
 20
54.35853575722785
 30
0.0
 10
241.22441208227
 20
54.34831027266687
 30
0.0
 10
241.3234929311275
 20
54.32380983223418
 30
0.0
 10
241.3973754687434
 20
54.31554990983268
 30
0.0
 10
241.5504750611347
 20
54.30436394312777
 30
0.0
 10
241.6285590357823
 20
54.30176727137658
 30
0.0
 10
241.7879026695245
 20
54.29973827054287
 30
0.0
 10
241.866555564356
 20
54.3003758592051
 30
0.0
 10
241.9423080321486
 20
54.30346896002013
 30
0.0
  0
SPLINE
  5
25E
330
1F
100
AcDbEntity
  8
0
  6
Continuous
 62
     7
370
    25
100
AcDbSpline
210
0.0
220
0.0
230
1.0
 70
     8
 71
     3
 72
    10
 73
     6
 74
     0
 42
0.000000001
 43
0.00000001
 40
0.0
 40
0.0
 40
0.0
 40
0.0
 40
0.5
 40
0.5
 40
1.0
 40
1.0
 40
1.0
 40
1.0
 10
241.9423080321486
 20
54.30346896002013
 30
0.0
 10
242.0905023720494
 20
54.30951998445389
 30
0.0
 10
242.23272683778
 20
54.29935775424077
 30
0.0
 10
242.5051182281207
 20
54.24830731830069
 30
0.0
 10
242.6352455579893
 20
54.20694621565614
 30
0.0
 10
242.7533209001746
 20
54.15117234770385
 30
0.0
  0
ARC
  5
25F
330
1F
100
AcDbEntity
  8
0
  6
Continuous
 62
     7
370
    25
100
AcDbCircle
 10
225.4416118396
 20
49.4327143485
 30
0.0
 40
4.168042121425809
100
AcDbArc
 50
211.8182858313
 51
236.1400299393
  0
SPLINE
  5
260
330
1F
100
AcDbEntity
  8
0
  6
Continuous
 62
     7
370
    25
100
AcDbSpline
210
0.0
220
0.0
230
1.0
 70
     8
 71
     3
 72
     8
 73
     4
 74
     0
 42
0.000000001
 43
0.00000001
 40
0.0
 40
0.0
 40
0.0
 40
0.0
 40
1.0
 40
1.0
 40
1.0
 40
1.0
 10
223.3303672310378
 20
46.31046792846519
 30
0.0
 10
222.8535939392137
 20
46.61856073639782
 30
0.0
 10
222.3767915623688
 20
46.92679018197058
 30
0.0
 10
221.8999591178431
 20
47.23515533819049
 30
0.0
  0
SPLINE
  5
261
330
1F
100
AcDbEntity
  8
0
  6
Continuous
 62
     7
370
    25
100
AcDbSpline
210
0.0
220
0.0
230
1.0
 70
     8
 71
     3
 72
    23
 73
    19
 74
     0
 42
0.000000001
 43
0.00000001
 40
0.0
 40
0.0
 40
0.0
 40
0.0
 40
0.0521036415675031
 40
0.1035646240925967
 40
0.1544751946736949
 40
0.2049306267473421
 40
0.2550287880844035
 40
0.3048696389141012
 40
0.3545546704609132
 40
0.4041862979523234
 40
0.4538672252126086
 40
0.5036997999421611
 40
0.5901870230746071
 40
0.674271637822954
 40
0.7565997087222995
 40
0.8378563983721267
 40
0.9187511781367398
 40
1.0
 40
1.0
 40
1.0
 40
1.0
 10
224.2109320345795
 20
46.13573723034509
 30
0.0
 10
224.2056630956393
 20
46.12581576811026
 30
0.0
 10
224.195190206139
 20
46.10609521737932
 30
0.0
 10
224.1759439103763
 20
46.08152738842708
 30
0.0
 10
224.1541481700436
 20
46.06083880616786
 30
0.0
 10
224.1294968788387
 20
46.04430787087088
 30
0.0
 10
224.1020003642997
 20
46.03179037129472
 30
0.0
 10
224.0715893102924
 20
46.02325574747233
 30
0.0
 10
224.0382189385198
 20
46.01864587482425
 30
0.0
 10
224.0018430502479
 20
46.01791113168778
 30
0.0
 10
223.9624146786589
 20
46.02100621423907
 30
0.0
 10
223.9095662871089
 20
46.0295419897182
 30
0.0
 10
223.8410272933388
 20
46.04713842856526
 30
0.0
 10
223.7533060613844
 20
46.07877503665113
 30
0.0
 10
223.6585751418905
 20
46.12095469398385
 30
0.0
 10
223.5565408945605
 20
46.17369112971083
 30
0.0
 10
223.4476269813714
 20
46.23600768562166
 30
0.0
 10
223.3695106703854
 20
46.28561174387277
 30
0.0
 10
223.3303672310378
 20
46.31046792846518
 30
0.0
  0
SPLINE
  5
262
330
1F
100
AcDbEntity
  8
0
  6
Continuous
 62
     7
370
    25
100
AcDbSpline
210
0.0
220
0.0
230
1.0
 70
     8
 71
     3
 72
     8
 73
     4
 74
     0
 42
0.000000001
 43
0.00000001
 40
0.0
 40
0.0
 40
0.0
 40
0.0
 40
1.0
 40
1.0
 40
1.0
 40
1.0
 10
225.6844350610333
 20
45.18841709378888
 30
0.0
 10
225.1930677489919
 20
45.50429171375637
 30
0.0
 10
224.7016815490657
 20
45.82027773504584
 30
0.0
 10
224.2102758389217
 20
46.13637461588853
 30
0.0
  0
SPLINE
  5
263
330
1F
100
AcDbEntity
  8
0
  6
Continuous
 62
     7
370
    25
100
AcDbSpline
210
0.0
220
0.0
230
1.0
 70
     8
 71
     3
 72
    18
 73
    14
 74
     0
 42
0.000000001
 43
0.00000001
 40
0.0
 40
0.0
 40
0.0
 40
0.0
 40
0.0923824559411628
 40
0.1844689291573508
 40
0.2764953615950219
 40
0.3686975365494161
 40
0.4613092840003458
 40
0.5545607518442569
 40
0.6486768051537182
 40
0.7438756050146744
 40
0.8403674044302629
 40
0.9203921078121001
 40
1.0
 40
1.0
 40
1.0
 40
1.0
 10
226.4979991802329
 20
44.54410936924454
 30
0.0
 10
226.4744316661098
 20
44.55938334351008
 30
0.0
 10
226.4273721454584
 20
44.58988235599072
 30
0.0
 10
226.3549743574956
 20
44.63951492860163
 30
0.0
 10
226.2814921486001
 20
44.69184447127016
 30
0.0
 10
226.2067927008551
 20
44.74716215697804
 30
0.0
 10
226.130931911087
 20
44.80540047209161
 30
0.0
 10
226.0539206303002
 20
44.86659338372918
 30
0.0
 10
225.9757884982192
 20
44.93075710031074
 30
0.0
 10
225.8965622635754
 20
44.99790606017785
 30
0.0
 10
225.8212657791655
 20
45.06375696992402
 30
0.0
 10
225.7504384710435
 20
45.12728855673235
 30
0.0
 10
225.7065341002364
 20
45.16794930174584
 30
0.0
 10
225.6846392334311
 20
45.18822659031439
 30
0.0
  0
LINE
  5
264
330
1F
100
AcDbEntity
  8
0
  6
Continuous
 62
     7
370
    25
100
AcDbLine
 10
227.1377054484
 20
44.1323554398
 30
0.0
 11
226.4979991802
 21
44.5441093692
 31
0.0
  0
SPLINE
  5
265
330
1F
100
AcDbEntity
  8
0
  6
Continuous
 62
     7
370
    25
100
AcDbSpline
210
0.0
220
0.0
230
1.0
 70
     8
 71
     3
 72
    25
 73
    21
 74
     0
 42
0.000000001
 43
0.00000001
 40
0.0
 40
0.0
 40
0.0
 40
0.0
 40
0.0280105225426465
 40
0.0559601148860768
 40
0.0839014045043132
 40
0.1118870776786367
 40
0.1399695827588937
 40
0.1682008401739883
 40
0.196631967042422
 40
0.2253130233141467
 40
0.2542927850735845
 40
0.3799486436587335
 40
0.5057850221667067
 40
0.6313085886338298
 40
0.7532068238012468
 40
0.8039473267955921
 40
0.8535894438554446
 40
0.9025339722394071
 40
0.9511970353791085
 40
1.0
 40
1.0
 40
1.0
 40
1.0
 10
228.2400713052232
 20
44.84826155312162
 30
0.0
 10
228.2450194127538
 20
44.82063769201413
 30
0.0
 10
228.2549048643893
 20
44.7654500589088
 30
0.0
 10
228.2664405139925
 20
44.68628935153889
 30
0.0
 10
228.2755136358053
 20
44.60998601244051
 30
0.0
 10
228.2818824445182
 20
44.5367902514709
 30
0.0
 10
228.2855986833283
 20
44.46664278325751
 30
0.0
 10
228.2866353043111
 20
44.39956649674473
 30
0.0
 10
228.2849868290842
 20
44.33556258751829
 30
0.0
 10
228.2806406772154
 20
44.27463373425145
 30
0.0
 10
228.2657843526477
 20
44.15274561275429
 30
0.0
 10
228.2206960955827
 20
43.99784474109914
 30
0.0
 10
228.1073365750901
 20
43.86690162275708
 30
0.0
 10
227.9455123530957
 20
43.81102522194708
 30
0.0
 10
227.7714971339639
 20
43.83089927432986
 30
0.0
 10
227.6201362132779
 20
43.87821707668534
 30
0.0
 10
227.5097359805795
 20
43.92313250042068
 30
0.0
 10
227.3925764851308
 20
43.98050823171186
 30
0.0
 10
227.2690108181969
 20
44.04918529616468
 30
0.0
 10
227.1815157681018
 20
44.10460554211787
 30
0.0
 10
227.1377054484202
 20
44.13235543984816
 30
0.0
  0
ARC
  5
266
330
1F
100
AcDbEntity
  8
0
  6
Continuous
 62
     7
370
    25
100
AcDbCircle
 10
239.4330696373
 20
46.6343120893
 30
0.0
 40
11.33460136833991
100
AcDbArc
 50
170.9338278112
 51
189.0661721888
  0
SPLINE
  5
267
330
1F
100
AcDbEntity
  8
0
  6
Continuous
 62
     7
370
    25
100
AcDbSpline
210
0.0
220
0.0
230
1.0
 70
     8
 71
     3
 72
    26
 73
    22
 74
     0
 42
0.000000001
 43
0.00000001
 40
0.0
 40
0.0
 40
0.0
 40
0.0
 40
0.0241259796963635
 40
0.0482159912272988
 40
0.0723203915124065
 40
0.0964895678710797
 40
0.1207736231963513
 40
0.1452220711242836
 40
0.1698835501657706
 40
0.1948055644472379
 40
0.2200342569517627
 40
0.2456142191611387
 40
0.3690971486901655
 40
0.4940698769485187
 40
0.6192566784762451
 40
0.7454656653603225
 40
0.7971495824713707
 40
0.8481710308405392
 40
0.8988013269235234
 40
0.9493179290492194
 40
1.0
 40
1.0
 40
1.0
 40
1.0
 10
227.1377054484202
 20
51.89646583121274
 30
0.0
 10
227.1594236777962
 20
51.88213430781766
 30
0.0
 10
227.2028277579724
 20
51.85349262714861
 30
0.0
 10
227.2661348753337
 20
51.8055003292198
 30
0.0
 10
227.3279964430517
 20
51.75390113133412
 30
0.0
 10
227.3883009581882
 20
51.69832633846088
 30
0.0
 10
227.4470908101281
 20
51.63887109783374
 30
0.0
 10
227.5043713285578
 20
51.57550678899634
 30
0.0
 10
227.560162467884
 20
51.50823801103241
 30
0.0
 10
227.6144837153059
 20
51.43706389707229
 30
0.0
 10
227.6673626905148
 20
51.361974757324
 30
0.0
 10
227.7841575152512
 20
51.18272030862216
 30
0.0
 10
227.9460270731776
 20
50.87241483677876
 30
0.0
 10
228.1092119807095
 20
50.40250104864707
 30
0.0
 10
228.2207233858829
 20
49.90353801473704
 30
0.0
 10
228.2678572239914
 20
49.49465434168003
 30
0.0
 10
228.2829761635239
 20
49.19038238508933
 30
0.0
 10
228.2849293025065
 20
48.989133143394
 30
0.0
 10
228.2784512768673
 20
48.79347322367141
 30
0.0
 10
228.2643243541802
 20
48.60283693577394
 30
0.0
 10
228.2481644624953
 20
48.48125366203513
 30
0.0
 10
228.2400713052232
 20
48.42036262543625
 30
0.0
  0
LINE
  5
268
330
1F
100
AcDbEntity
  8
0
  6
Continuous
 62
     7
370
    25
100
AcDbLine
 10
226.4979991802
 20
52.3094408442
 30
0.0
 11
227.1377054484
 21
51.8964658312
 31
0.0
  0
SPLINE
  5
269
330
1F
100
AcDbEntity
  8
0
  6
Continuous
 62
     7
370
    25
100
AcDbSpline
210
0.0
220
0.0
230
1.0
 70
     8
 71
     3
 72
    14
 73
    10
 74
     0
 42
0.000000001
 43
0.00000001
 40
0.0
 40
0.0
 40
0.0
 40
0.0
 40
0.0789261963172865
 40
0.158232872055133
 40
0.330847539457262
 40
0.5000195457610529
 40
0.6670357883572423
 40
0.8332395193657144
 40
1.0
 40
1.0
 40
1.0
 40
1.0
 10
225.6840464643817
 20
52.51802311449733
 30
0.0
 10
225.7057633457175
 20
52.51962627835591
 30
0.0
 10
225.7493017989331
 20
52.52284033444315
 30
0.0
 10
225.8408269175822
 20
52.52366137451104
 30
0.0
 10
225.9577352510152
 20
52.51572539272774
 30
0.0
 10
226.0985555893969
 20
52.48944972384993
 30
0.0
 10
226.2357678972089
 20
52.44649212531767
 30
0.0
 10
226.3696985716255
 20
52.38813500050805
 30
0.0
 10
226.4551846635846
 20
52.33570145435807
 30
0.0
 10
226.4979991802329
 20
52.30944084420362
 30
0.0
  0
SPLINE
  5
26A
330
1F
100
AcDbEntity
  8
0
  6
Continuous
 62
     7
370
    25
100
AcDbSpline
210
0.0
220
0.0
230
1.0
 70
     8
 71
     3
 72
     8
 73
     4
 74
     0
 42
0.000000001
 43
0.00000001
 40
0.0
 40
0.0
 40
0.0
 40
0.0
 40
1.0
 40
1.0
 40
1.0
 40
1.0
 10
223.8817428813772
 20
53.68041452591003
 30
0.0
 10
224.4825011050733
 20
53.29314704275114
 30
0.0
 10
225.0832299679337
 20
52.90567969282782
 30
0.0
 10
225.6839306122806
 20
52.5180128002382
 30
0.0
  0
SPLINE
  5
26B
330
1F
100
AcDbEntity
  8
0
  6
Continuous
 62
     7
370
    25
100
AcDbSpline
210
0.0
220
0.0
230
1.0
 70
     8
 71
     3
 72
    13
 73
     9
 74
     0
 42
0.000000001
 43
0.00000001
 40
0.0
 40
0.0
 40
0.0
 40
0.0
 40
0.1667030582307992
 40
0.3329480818053035
 40
0.4990671507274896
 40
0.6653938523718403
 40
0.832261271055009
 40
1.0
 40
1.0
 40
1.0
 40
1.0
 10
223.5399143463428
 20
53.98147930499582
 30
0.0
 10
223.5602155287828
 20
53.96791419831658
 30
0.0
 10
223.6007621139715
 20
53.94082125655375
 30
0.0
 10
223.6599117509591
 20
53.89562668354602
 30
0.0
 10
223.7176832958615
 20
53.84721553506308
 30
0.0
 10
223.7739330333212
 20
53.79518042029262
 30
0.0
 10
223.8288602420673
 20
53.7398824530836
 30
0.0
 10
223.8640809516579
 20
53.70026519792323
 30
0.0
 10
223.8817371635988
 20
53.68040498892231
 30
0.0
  0
SPLINE
  5
26C
330
1F
100
AcDbEntity
  8
0
  6
Continuous
 62
     7
370
    25
100
AcDbSpline
210
0.0
220
0.0
230
1.0
 70
     8
 71
     3
 72
     8
 73
     4
 74
     0
 42
0.000000001
 43
0.00000001
 40
0.0
 40
0.0
 40
0.0
 40
0.0
 40
1.0
 40
1.0
 40
1.0
 40
1.0
 10
221.5959338305521
 20
55.23620115737528
 30
0.0
 10
222.2439639029524
 20
54.81820584149053
 30
0.0
 10
222.8919568800543
 20
54.3999650790729
 30
0.0
 10
223.5399143463428
 20
53.98147930499582
 30
0.0
  0
LWPOLYLINE
  5
26D
330
1F
100
AcDbEntity
  8
0
  6
Continuous
 62
     7
370
    25
100
AcDbPolyline
 90
       21
 70
   128
 43
0.0
 10
221.5959338306
 20
55.2362011575
 10
221.943591703
 20
56.2573815987
 10
222.3584422816
 20
57.2746034216
 10
222.836583554
 20
58.2782988148
 10
223.3735182066
 20
59.2590271941
 10
223.9641959255
 20
60.207563999
 10
224.6030608989
 20
61.1149874576
 10
225.2841040741
 20
61.9727625026
 10
226.0009196775
 20
62.7728210514
 10
226.7467654663
 20
63.5076378925
 10
227.5146261448
 20
64.1703014665
 10
228.2972793492
 20
64.7545788752
 10
229.0873635796
 20
65.2549745071
 10
229.8774474414
 20
65.6667817279
 10
230.6600995431
 20
65.9861271505
 10
231.4279583954
 20
66.2100070675
 10
232.1738016516
 20
66.3363157035
 10
232.8906140397
 20
66.3638650212
 10
233.5716533473
 20
66.2923958967
 10
234.2105138372
 20
66.1225805561
 10
234.6456720238
 20
65.9379481238
  0
SPLINE
  5
26E
330
1F
100
AcDbEntity
  8
0
  6
Continuous
 62
     7
370
    25
100
AcDbSpline
210
0.0
220
0.0
230
1.0
 70
    11
 71
     3
 72
    39
 73
    35
 74
     0
 42
0.000000001
 43
0.00000001
 40
0.0
 40
0.0
 40
0.0
 40
0.0
 40
0.0310664058348413
 40
0.0621048158426138
 40
0.0931361551796939
 40
0.1235538293503726
 40
0.1538561545809849
 40
0.1850588072749156
 40
0.2160250992946587
 40
0.2471867223797568
 40
0.2784462884304475
 40
0.3100516090231247
 40
0.3419834369138969
 40
0.3734259894013238
 40
0.4048604886787081
 40
0.436874065183343
 40
0.4685120685926471
 40
0.499805535863323
 40
0.5309508213226204
 40
0.5618649784438111
 40
0.5930416446590877
 40
0.623374245013332
 40
0.6540913579072549
 40
0.6849496782718453
 40
0.7158160645166705
 40
0.7471731804043553
 40
0.7784514311866318
 40
0.810129591156098
 40
0.8419598919688388
 40
0.8735175891922303
 40
0.9050808037886594
 40
0.9370235169792582
 40
0.9687441590030581
 40
1.0
 40
1.0
 40
1.0
 40
1.0
 10
234.8045193117575
 20
64.2413915327167
 30
0.0
 10
235.0674049319556
 20
64.2128570454266
 30
0.0
 10
235.5942935424391
 20
64.126914557105
 30
0.0
 10
236.3583056115151
 20
63.92653943703255
 30
0.0
 10
237.065455799566
 20
63.67953733081303
 30
0.0
 10
237.6783668641615
 20
63.40155545265992
 30
0.0
 10
238.1754981898319
 20
63.1074217553312
 30
0.0
 10
238.5346899109054
 20
62.80591522713897
 30
0.0
 10
238.7564091796642
 20
62.49891772223656
 30
0.0
 10
238.8216610570463
 20
62.18841246083487
 30
0.0
 10
238.7348138459324
 20
61.86926797608604
 30
0.0
 10
238.4924682581741
 20
61.53994801051385
 30
0.0
 10
238.1125303954477
 20
61.20100728895619
 30
0.0
 10
237.5987244422879
 20
60.86316882454555
 30
0.0
 10
236.9728336313778
 20
60.53727092323471
 30
0.0
 10
236.259362644886
 20
60.24062402999522
 30
0.0
 10
235.4954601686217
 20
59.98452072155827
 30
0.0
 10
234.70966708572
 20
59.79549315356748
 30
0.0
 10
233.9281296306801
 20
59.68731723151424
 30
0.0
 10
233.1720166459276
 20
59.67965334814453
 30
0.0
 10
232.4696520595341
 20
59.77757538353068
 30
0.0
 10
231.8506317124914
 20
59.99922381703318
 30
0.0
 10
231.3415744474777
 20
60.33509190394491
 30
0.0
 10
230.9686308540438
 20
60.77490247012567
 30
0.0
 10
230.7400289027954
 20
61.28597711064832
 30
0.0
 10
230.6711825960761
 20
61.83716219841175
 30
0.0
 10
230.7557990093012
 20
62.3948341267235
 30
0.0
 10
230.9989077992361
 20
62.92491426764249
 30
0.0
 10
231.3810376420538
 20
63.39743861675523
 30
0.0
 10
231.8971732164641
 20
63.78356012764845
 30
0.0
 10
232.5241510769661
 20
64.0671843149816
 30
0.0
 10
233.2400585093298
 20
64.236921533708
 30
0.0
 10
234.0085019015155
 20
64.29846036841933
 30
0.0
 10
234.5400306808879
 20
64.27010001616375
 30
0.0
 10
234.8045193117574
 20
64.24139153271669
 30
0.0
  0
LINE
  5
26F
330
1F
100
AcDbEntity
  8
0
  6
Continuous
 62
     7
370
    25
100
AcDbLine
 10
225.579982324
 20
47.8022645059
 30
0.0
 11
225.8940269311
 21
47.6341207215
 31
0.0
  0
LINE
  5
270
330
1F
100
AcDbEntity
  8
0
  6
Continuous
 62
     7
370
    25
100
AcDbLine
 10
224.593023285
 20
48.3720238315
 30
0.0
 11
225.579982324
 21
47.8022645059
 31
0.0
  0
ARC
  5
271
330
1F
100
AcDbEntity
  8
0
  6
Continuous
 62
     7
370
    25
100
AcDbCircle
 10
226.8168445267
 20
51.9433618647
 30
0.0
 40
4.462267193778276
100
AcDbArc
 50
267.6359980982
 51
287.0346845948
  0
SPLINE
  5
272
330
1F
100
AcDbEntity
  8
0
  6
Continuous
 62
     7
370
    25
100
AcDbSpline
210
0.0
220
0.0
230
1.0
 70
     8
 71
     3
 72
    25
 73
    21
 74
     0
 42
0.000000001
 43
0.00000001
 40
0.0
 40
0.0
 40
0.0
 40
0.0
 40
0.0749889634923831
 40
0.1506151987128994
 40
0.2067741001978619
 40
0.2632754695450089
 40
0.3209372172108098
 40
0.3790388980908424
 40
0.435212311149176
 40
0.4918390747094605
 40
0.5499385337278955
 40
0.6085642772234836
 40
0.660079400024914
 40
0.7119620781777398
 40
0.7649977203287219
 40
0.8184301331103909
 40
0.8694556121987843
 40
0.9208295048930724
 40
0.9732963533911112
 40
0.9999999999999999
 40
0.9999999999999999
 40
0.9999999999999999
 40
0.9999999999999999
 10
236.1430251065842
 20
61.23889589985389
 30
0.0
 10
236.0432426917697
 20
61.2949573590119
 30
0.0
 10
235.8428298905332
 20
61.4075566992078
 30
0.0
 10
235.5412527842365
 20
61.55858810543759
 30
0.0
 10
235.2525876843546
 20
61.69178507043948
 30
0.0
 10
234.9799770931913
 20
61.80746932858912
 30
0.0
 10
234.6940103603504
 20
61.91788081859263
 30
0.0
 10
234.3996171865248
 20
62.0194313249356
 30
0.0
 10
234.10004512477
 20
62.10977624076923
 30
0.0
 10
233.7955671789851
 20
62.18761468637336
 30
0.0
 10
233.4838965230423
 20
62.25159188822337
 30
0.0
 10
233.1809972002974
 20
62.29694842996874
 30
0.0
 10
232.8911803743233
 20
62.32387093825555
 30
0.0
 10
232.61477598706
 20
62.33365770709613
 30
0.0
 10
232.3402519787159
 20
62.32610547424084
 30
0.0
 10
232.0743707947167
 20
62.30027621812066
 30
0.0
 10
231.8196956187855
 20
62.25689835237618
 30
0.0
 10
231.5771897229699
 20
62.19519081004357
 30
0.0
 10
231.3801909547477
 20
62.13100305443873
 30
0.0
 10
231.269701154521
 20
62.08036461224833
 30
0.0
 10
231.2324337283775
 20
62.06328462477003
 30
0.0
  0
SPLINE
  5
273
330
1F
100
AcDbEntity
  8
0
  6
Continuous
 62
     7
370
    25
100
AcDbSpline
210
0.0
220
0.0
230
1.0
 70
     8
 71
     3
 72
    10
 73
     6
 74
     0
 42
0.000000001
 43
0.00000001
 40
0.0
 40
0.0
 40
0.0
 40
0.0
 40
0.3798174487108013
 40
0.9603712743694113
 40
1.0
 40
1.0
 40
1.0
 40
1.0
 10
237.2829055556308
 20
60.71066887707264
 30
0.0
 10
237.1532528972841
 20
60.78099758297171
 30
0.0
 10
236.8254251759815
 20
60.95882424453851
 30
0.0
 10
236.417496772336
 20
61.13187654503675
 30
0.0
 10
236.1608639737641
 20
61.23108219163682
 30
0.0
 10
236.1444655266597
 20
61.23742128218677
 30
0.0
  0
SPLINE
  5
274
330
1F
100
AcDbEntity
  8
0
  6
Continuous
 62
     7
370
    25
100
AcDbSpline
210
0.0
220
0.0
230
1.0
 70
     8
 71
     3
 72
    25
 73
    21
 74
     0
 42
0.000000001
 43
0.00000001
 40
0.0
 40
0.0
 40
0.0
 40
0.0
 40
0.0472533917872508
 40
0.0895736156386787
 40
0.1269632240823441
 40
0.1594267770588481
 40
0.2428507964512297
 40
0.3183672309096812
 40
0.3935858487026566
 40
0.4205144052940519
 40
0.4483683787012357
 40
0.4771558249980066
 40
0.5451773830434189
 40
0.6363664722698907
 40
0.696894012283923
 40
0.7498726465123202
 40
0.7959807071598741
 40
0.8771243677046747
 40
0.9543028052275159
 40
1.0
 40
1.0
 40
1.0
 40
1.0
 10
234.7496403707124
 20
63.66753367019423
 30
0.0
 10
234.6092362863494
 20
63.68284979734014
 30
0.0
 10
234.3430860480034
 20
63.71188307588693
 30
0.0
 10
233.9703074448414
 20
63.71914972908509
 30
0.0
 10
233.6477468354376
 20
63.70576327664006
 30
0.0
 10
233.2186300399493
 20
63.65980548129369
 30
0.0
 10
232.7110126125386
 20
63.54278488565492
 30
0.0
 10
232.1682038488084
 20
63.30020159600118
 30
0.0
 10
231.8278032434829
 20
63.04285124199084
 30
0.0
 10
231.6211774098283
 20
62.82804039239487
 30
0.0
 10
231.5031933901977
 20
62.68153868758701
 30
0.0
 10
231.3510233322458
 20
62.45178646701962
 30
0.0
 10
231.1843417597395
 20
62.07884513454633
 30
0.0
 10
231.1159814483839
 20
61.61628604866887
 30
0.0
 10
231.1663356347899
 20
61.1879521826403
 30
0.0
 10
231.2717655099802
 20
60.86802627055916
 30
0.0
 10
231.4539642699882
 20
60.52756000947629
 30
0.0
 10
231.7548432850202
 20
60.19161214065161
 30
0.0
 10
232.1445279857932
 20
59.91855342885019
 30
0.0
 10
232.4374468314687
 20
59.82459775799069
 30
0.0
 10
232.5463827473482
 20
59.78965583735889
 30
0.0
  0
SPLINE
  5
275
330
1F
100
AcDbEntity
  8
0
  6
Continuous
 62
     7
370
    25
100
AcDbSpline
210
0.0
220
0.0
230
1.0
 70
     8
 71
     3
 72
    22
 73
    18
 74
     0
 42
0.000000001
 43
0.00000001
 40
0.0
 40
0.0
 40
0.0
 40
0.0
 40
0.0348562881197234
 40
0.0924900456867643
 40
0.1569277512440201
 40
0.2282085045255817
 40
0.2894089389015432
 40
0.3420696599366521
 40
0.3861903415761853
 40
0.4217735618017079
 40
0.5236918804936475
 40
0.6145479382150776
 40
0.7067592537278896
 40
0.7559111263212961
 40
0.8071360145824484
 40
0.8951475406773878
 40
1.0
 40
1.0
 40
1.0
 40
1.0
 10
238.013384794664
 20
61.15038936458142
 30
0.0
 10
238.0510206000483
 20
61.18556274308776
 30
0.0
 10
238.1508860058969
 20
61.27889417797363
 30
0.0
 10
238.2697103783598
 20
61.43423905258582
 30
0.0
 10
238.3661214663617
 20
61.62296757872627
 30
0.0
 10
238.3973981183431
 20
61.80894710437347
 30
0.0
 10
238.3679918918054
 20
61.9807583236172
 30
0.0
 10
238.2994973681216
 20
62.12756621315
 30
0.0
 10
238.2116846231359
 20
62.24877534953939
 30
0.0
 10
238.057393040142
 20
62.41436024205215
 30
0.0
 10
237.7895668989726
 20
62.6245235058486
 30
0.0
 10
237.3379970775528
 20
62.87996802203555
 30
0.0
 10
236.8904342061289
 20
63.08660374873106
 30
0.0
 10
236.4815407169563
 20
63.24510859335867
 30
0.0
 10
236.0594607509327
 20
63.38762470258762
 30
0.0
 10
235.4811482164486
 20
63.55088217086433
 30
0.0
 10
235.0072693932078
 20
63.62645029436968
 30
0.0
 10
234.7496403707124
 20
63.66753367019423
 30
0.0
  0
LINE
  5
276
330
1F
100
AcDbEntity
  8
0
  6
Continuous
 62
     7
370
    25
100
AcDbLine
 10
228.2400713052
 20
48.4203626254
 30
0.0
 11
228.2348327617
 21
48.7164460443
 31
0.0
  0
LINE
  5
277
330
1F
100
AcDbEntity
  8
0
  6
Continuous
 62
     7
370
    25
100
AcDbLine
 10
228.2348327617
 20
48.7164460443
 30
0.0
 11
228.2779294992
 21
49.3680528732
 31
0.0
  0
LINE
  5
278
330
1F
100
AcDbEntity
  8
0
  6
Continuous
 62
     7
370
    25
100
AcDbLine
 10
227.7552843419
 20
51.1971342991
 30
0.0
 11
227.4438695719
 21
51.5257305615
 31
0.0
  0
SPLINE
  5
279
330
1F
100
AcDbEntity
  8
0
  6
Continuous
 62
     7
370
    25
100
AcDbSpline
210
0.0
220
0.0
230
1.0
 70
     8
 71
     3
 72
    40
 73
    36
 74
     0
 42
0.000000001
 43
0.00000001
 40
0.0
 40
0.0
 40
0.0
 40
0.0
 40
0.0207361951232769
 40
0.0513661859238714
 40
0.0822015816855869
 40
0.1136927926056238
 40
0.145415157376396
 40
0.176278367697087
 40
0.2073666050471181
 40
0.239174557279189
 40
0.2712350862589916
 40
0.3011573564590632
 40
0.3312916247723527
 40
0.3620939820501588
 40
0.3931264274039258
 40
0.4228042091245606
 40
0.4526835145336829
 40
0.4831892780041093
 40
0.5139074591148666
 40
0.5441787969830993
 40
0.5746505171609173
 40
0.6057442275084883
 40
0.6370503183347425
 40
0.6682568738938293
 40
0.6996898608659893
 40
0.7319286323160364
 40
0.7645547377490701
 40
0.7882326105415217
 40
0.8123919062449526
 40
0.836140021816173
 40
0.8608898036675151
 40
0.8896146896609319
 40
0.9190865871890891
 40
0.9594021650679301
 40
1.0
 40
1.0
 40
1.0
 40
1.0
 10
231.139354428595
 20
61.42117070179105
 30
0.0
 10
231.1393081087906
 20
61.47302746873263
 30
0.0
 10
231.1391933687589
 20
61.60148325902089
 30
0.0
 10
231.1643365831017
 20
61.79971727778005
 30
0.0
 10
231.2120981944998
 20
62.0173238894564
 30
0.0
 10
231.2845345048328
 20
62.22846092121434
 30
0.0
 10
231.3801936969963
 20
62.42954762630522
 30
0.0
 10
231.4982270232221
 20
62.61839816271608
 30
0.0
 10
231.638265300486
 20
62.79490709011555
 30
0.0
 10
231.8017714564915
 20
62.95950558098259
 30
0.0
 10
231.9838895390385
 20
63.10661840051537
 30
0.0
 10
232.1810877371873
 20
63.23523752356427
 30
0.0
 10
232.3917829564269
 20
63.34605692391911
 30
0.0
 10
232.6201318401962
 20
63.44094624136464
 30
0.0
 10
232.8608329025714
 20
63.51721690260687
 30
0.0
 10
233.1103748613164
 20
63.57453458949261
 30
0.0
 10
233.3676899357467
 20
63.61340678623535
 30
0.0
 10
233.6355408195862
 20
63.63386948467434
 30
0.0
 10
233.9102309802028
 20
63.63502730044438
 30
0.0
 10
234.1884305128162
 20
63.61676015317413
 30
0.0
 10
234.4693543315364
 20
63.57891675358459
 30
0.0
 10
234.7529370707321
 20
63.52056082831024
 30
0.0
 10
235.0359551993611
 20
63.44101663030785
 30
0.0
 10
235.3146973012564
 20
63.33989613000071
 30
0.0
 10
235.5880105556518
 20
63.21531126750482
 30
0.0
 10
235.8531850346782
 20
63.06396440253295
 30
0.0
 10
236.0803815948424
 20
62.89848509594898
 30
0.0
 10
236.2658905106817
 20
62.72428064470289
 30
0.0
 10
236.4080623464173
 20
62.55008956918942
 30
0.0
 10
236.5193432038658
 20
62.35669929952036
 30
0.0
 10
236.5954416463846
 20
62.14324178844277
 30
0.0
 10
236.6325615118575
 20
61.91730634108225
 30
0.0
 10
236.6370091866732
 20
61.66017306006709
 30
0.0
 10
236.6098981782918
 20
61.38447714098001
 30
0.0
 10
236.5716157539737
 20
61.19078981689731
 30
0.0
 10
236.5524077699167
 20
61.09360832697648
 30
0.0
  0
SPLINE
  5
27A
330
1F
100
AcDbEntity
  8
0
  6
Continuous
 62
     7
370
    25
100
AcDbSpline
210
0.0
220
0.0
230
1.0
 70
     8
 71
     3
 72
    10
 73
     6
 74
     0
 42
0.000000001
 43
0.00000001
 40
0.0
 40
0.0
 40
0.0
 40
0.0
 40
0.294947504039395
 40
0.9798113369353982
 40
1.0
 40
1.0
 40
1.0
 40
1.0
 10
236.5551356448966
 20
61.09236976897195
 30
0.0
 10
236.6379605997226
 20
61.05360467960347
 30
0.0
 10
236.9131039001685
 20
60.9248276141245
 30
0.0
 10
237.188240182944
 20
60.78351340624187
 30
0.0
 10
237.3368738240524
 20
60.68941545865621
 30
0.0
 10
237.3411298397642
 20
60.68672103268118
 30
0.0
  0
ARC
  5
27B
330
1F
100
AcDbEntity
  8
0
  6
Continuous
 62
     7
370
    25
100
AcDbCircle
 10
240.5651434912
 20
46.8791596991
 30
0.0
 40
12.46644230717655
100
AcDbArc
 50
171.5249591672
 51
179.8212373334
  0
SPLINE
  5
27C
330
1F
100
AcDbEntity
  8
0
  6
Continuous
 62
     7
370
    25
100
AcDbSpline
210
0.0
220
0.0
230
1.0
 70
     8
 71
     3
 72
    14
 73
    10
 74
     0
 42
0.000000001
 43
0.00000001
 40
0.0
 40
0.0
 40
0.0
 40
0.0
 40
0.0003951393068452
 40
0.0003951393068452
 40
0.0003951393068452
 40
0.0008163352168663
 40
0.0008163352168663
 40
0.0008163352168663
 40
0.0012378579337219
 40
0.0012378579337219
 40
0.0012378579337219
 40
0.0012378579337219
 10
236.1470578455965
 20
61.23761686399664
 30
0.0
 10
236.1925196598278
 20
61.22318000137161
 30
0.0
 10
236.2374072644488
 20
61.208314140806
 30
0.0
 10
236.2816909571239
 20
61.19303035320053
 30
0.0
 10
236.3288942493633
 20
61.17673891386284
 30
0.0
 10
236.3754200624224
 20
61.15996943577893
 30
0.0
 10
236.4212309716641
 20
61.14274062498365
 30
0.0
 10
236.4670773596532
 20
61.12549847115199
 30
0.0
 10
236.5122165952256
 20
61.1077927649475
 30
0.0
 10
236.556610153268
 20
61.08964990825671
 30
0.0
  0
LINE
  5
27D
330
1F
100
AcDbEntity
  8
0
  6
Continuous
 62
     7
370
    25
100
AcDbLine
 10
227.4438695719
 20
51.5257305615
 30
0.0
 11
226.8039333766
 21
51.9379622986
 31
0.0
  0
LINE
  5
27E
330
1F
100
AcDbEntity
  8
0
  6
Continuous
 62
     7
370
    25
100
AcDbLine
 10
226.4979991802
 20
52.3094408442
 30
0.0
 11
226.8039333766
 21
51.9379622986
 31
0.0
  0
SPLINE
  5
27F
330
1F
100
AcDbEntity
  8
0
  6
Continuous
 62
     7
370
    25
100
AcDbSpline
210
0.0
220
0.0
230
1.0
 70
     8
 71
     3
 72
    13
 73
     9
 74
     0
 42
0.000000001
 43
0.00000001
 40
0.0
 40
0.0
 40
0.0
 40
0.0
 40
0.161854229885178
 40
0.3254858841554281
 40
0.4910085196607404
 40
0.6585318472791263
 40
0.8281616954204583
 40
0.9999999999999999
 40
0.9999999999999999
 40
0.9999999999999999
 40
0.9999999999999999
 10
226.8039333765749
 20
51.93796229856674
 30
0.0
 10
226.7843559845575
 20
51.9505252755999
 30
0.0
 10
226.7449862087118
 20
51.97578919171851
 30
0.0
 10
226.6834502689414
 20
52.00848288863337
 30
0.0
 10
226.619893609692
 20
52.03742896234025
 30
0.0
 10
226.5542755070353
 20
52.06194132980585
 30
0.0
 10
226.4868482379805
 20
52.08237639315936
 30
0.0
 10
226.4409636377819
 20
52.09197304814914
 30
0.0
 10
226.417872957607
 20
52.09680240898393
 30
0.0
  0
SPLINE
  5
280
330
1F
100
AcDbEntity
  8
0
  6
Continuous
 62
     7
370
    25
100
AcDbSpline
210
0.0
220
0.0
230
1.0
 70
     8
 71
     3
 72
     9
 73
     5
 74
     0
 42
0.000000001
 43
0.00000001
 40
0.0
 40
0.0
 40
0.0
 40
0.0
 40
0.4907282259506175
 40
1.0
 40
1.0
 40
1.0
 40
1.0
 10
226.417867130315
 20
52.09677441195291
 30
0.0
 10
226.3937736078372
 20
52.10486994417104
 30
0.0
 10
226.344676121278
 20
52.12136692109232
 30
0.0
 10
226.2939754274578
 20
52.13616059010855
 30
0.0
 10
226.2681549951705
 20
52.14369458817315
 30
0.0
  0
SPLINE
  5
281
330
1F
100
AcDbEntity
  8
0
  6
Continuous
 62
     7
370
    25
100
AcDbSpline
210
0.0
220
0.0
230
1.0
 70
     8
 71
     3
 72
    14
 73
    10
 74
     0
 42
0.000000001
 43
0.00000001
 40
0.0
 40
0.0
 40
0.0
 40
0.0
 40
0.0310276388071746
 40
0.0622853718672815
 40
0.1248003166904892
 40
0.2498289731753984
 40
0.499889260361071
 40
0.7606803621682141
 40
1.0
 40
1.0
 40
1.0
 40
1.0
 10
225.6842143058822
 20
52.51780233081902
 30
0.0
 10
225.6902065452867
 20
52.51397128716538
 30
0.0
 10
225.7022354612459
 20
52.50628078966767
 30
0.0
 10
225.7262952692951
 20
52.49084290016099
 30
0.0
 10
225.7685289419413
 20
52.46377244723016
 30
0.0
 10
225.8530915164535
 20
52.40956042243477
 30
0.0
 10
225.9763784859237
 20
52.33055724056874
 30
0.0
 10
226.1225101923777
 20
52.23695106589131
 30
0.0
 10
226.2208768089184
 20
52.17396798949885
 30
0.0
 10
226.2679485096027
 20
52.14382849070972
 30
0.0
  0
LINE
  5
282
330
1F
100
AcDbEntity
  8
0
  6
Continuous
 62
     7
370
    25
100
AcDbLine
 10
223.8817140392
 20
53.6804331319
 30
0.0
 11
224.1726808737
 21
53.4923547029
 31
0.0
  0
SPLINE
  5
283
330
1F
100
AcDbEntity
  8
0
  6
Continuous
 62
     7
370
    25
100
AcDbSpline
210
0.0
220
0.0
230
1.0
 70
     8
 71
     3
 72
     8
 73
     4
 74
     0
 42
0.000000001
 43
0.00000001
 40
0.0
 40
0.0
 40
0.0
 40
0.0
 40
1.0
 40
1.0
 40
1.0
 40
1.0
 10
224.2040698081774
 20
53.47213193850784
 30
0.0
 10
224.1936273023256
 20
53.47895736340524
 30
0.0
 10
224.1831613694358
 20
53.48570033019177
 30
0.0
 10
224.1726736046193
 20
53.49235941784475
 30
0.0
  0
SPLINE
  5
284
330
1F
100
AcDbEntity
  8
0
  6
Continuous
 62
     7
370
    25
100
AcDbSpline
210
0.0
220
0.0
230
1.0
 70
     8
 71
     3
 72
     8
 73
     4
 74
     0
 42
0.000000001
 43
0.00000001
 40
0.0
 40
0.0
 40
0.0
 40
0.0
 40
1.0
 40
1.0
 40
1.0
 40
1.0
 10
221.4180654293536
 20
55.35038759031692
 30
0.0
 10
221.4770651935236
 20
55.31164692339796
 30
0.0
 10
221.5363527570341
 20
55.27358494609867
 30
0.0
 10
221.5959338305225
 20
55.23620115763838
 30
0.0
  0
SPLINE
  5
285
330
1F
100
AcDbEntity
  8
0
  6
Continuous
 62
     7
370
    25
100
AcDbSpline
210
0.0
220
0.0
230
1.0
 70
     8
 71
     3
 72
     8
 73
     4
 74
     0
 42
0.000000001
 43
0.00000001
 40
0.0
 40
0.0
 40
0.0
 40
0.0
 40
1.0
 40
1.0
 40
1.0
 40
1.0
 10
221.393215683254
 20
55.71359776825524
 30
0.0
 10
221.4006898953446
 20
55.5926399275434
 30
0.0
 10
221.4089859992347
 20
55.47156808513274
 30
0.0
 10
221.4180654293536
 20
55.35038759031692
 30
0.0
  0
LWPOLYLINE
  5
286
330
1F
100
AcDbEntity
  8
0
  6
Continuous
 62
     7
370
    25
100
AcDbPolyline
 90
       17
 70
   128
 43
0.0
 10
221.3932156833
 20
55.7135977683
 10
221.7492961164
 20
56.7262120506
 10
222.1733452667
 20
57.7330001515
 10
222.6611293863
 20
58.7239102012
 10
223.2077783914
 20
59.689048858
 10
223.8078344856
 20
60.618780084
 10
224.4553066506
 20
61.5038213529
 10
225.1437304618
 20
62.335336327
 10
225.8662326293
 20
63.1050230803
 10
226.6155996215
 20
63.8051969858
 10
227.3843496859
 20
64.4288674397
 10
228.1648075475
 20
64.9698076556
 10
228.9491810394
 20
65.4226168342
 10
229.729638901
 20
65.7827740848
 10
230.4983889654
 20
66.0466835627
 10
231.2477559576
 20
66.21171037
 10
231.3571779089
 20
66.2277055321
  0
SPLINE
  5
287
330
1F
100
AcDbEntity
  8
0
  6
Continuous
 62
     7
370
    25
100
AcDbSpline
210
0.0
220
0.0
230
1.0
 70
     8
 71
     3
 72
    10
 73
     6
 74
     0
 42
0.000000001
 43
0.00000001
 40
0.0
 40
0.0
 40
0.0
 40
0.0
 40
0.2409820260343464
 40
0.5031431986319208
 40
1.0
 40
1.0
 40
1.0
 40
1.0
 10
227.4438695719036
 20
44.8198891438748
 30
0.0
 10
227.5261156001022
 20
44.76821263190579
 30
0.0
 10
227.697835999269
 20
44.66031792310075
 30
0.0
 10
227.9755561810069
 20
44.53059464242684
 30
0.0
 10
228.0965339683869
 20
44.55337274592634
 30
0.0
 10
228.1757266074758
 20
44.56828340158166
 30
0.0
  0
LINE
  5
288
330
1F
100
AcDbEntity
  8
0
  6
Continuous
 62
     7
370
    25
100
AcDbLine
 10
222.6606961173
 20
54.5489614973
 30
0.0
 11
221.8988167358
 21
55.039596416
 31
0.0
  0
LINE
  5
289
330
1F
100
AcDbEntity
  8
0
  6
Continuous
 62
     7
370
    25
100
AcDbLine
 10
221.8988167358
 20
55.039596416
 30
0.0
 11
221.4180654294
 21
55.3503875903
 31
0.0
  0
LINE
  5
28A
330
1F
100
AcDbEntity
  8
0
  6
Continuous
 62
     7
370
    25
100
AcDbLine
 10
226.4979991802
 20
44.5441093692
 30
0.0
 11
226.8039333766
 21
45.232120881
 31
0.0
  0
LINE
  5
28B
330
1F
100
AcDbEntity
  8
0
  6
Continuous
 62
     7
370
    25
100
AcDbLine
 10
226.8039333766
 20
45.232120881
 30
0.0
 11
227.4438695719
 21
44.8198891439
 31
0.0
  0
SPLINE
  5
28C
330
1F
100
AcDbEntity
  8
0
  6
Continuous
 62
     7
370
    25
100
AcDbSpline
210
0.0
220
0.0
230
1.0
 70
     8
 71
     3
 72
    13
 73
     9
 74
     0
 42
0.000000001
 43
0.00000001
 40
0.0
 40
0.0
 40
0.0
 40
0.0
 40
0.172258782378417
 40
0.342139827159501
 40
0.5097456258302661
 40
0.6751828993623331
 40
0.8385626190354498
 40
1.0
 40
1.0
 40
1.0
 40
1.0
 10
226.4178614458017
 20
45.51343037682003
 30
0.0
 10
226.4410129697568
 20
45.49531078588258
 30
0.0
 10
226.4869964505125
 20
45.45932171394126
 30
0.0
 10
226.5545374632318
 20
45.4083217305196
 30
0.0
 10
226.62019707792
 20
45.35999705032783
 30
0.0
 10
226.6837211491678
 20
45.31456604442201
 30
0.0
 10
226.7451515278815
 20
45.27174047666911
 30
0.0
 10
226.7844176948479
 20
45.24527465949888
 30
0.0
 10
226.8039333765749
 20
45.23212088095502
 30
0.0
  0
SPLINE
  5
28D
330
1F
100
AcDbEntity
  8
0
  6
Continuous
 62
     7
370
    25
100
AcDbSpline
210
0.0
220
0.0
230
1.0
 70
     8
 71
     3
 72
    11
 73
     7
 74
     0
 42
0.000000001
 43
0.00000001
 40
0.0
 40
0.0
 40
0.0
 40
0.0
 40
0.2392845094479873
 40
0.5001120454076898
 40
0.7515010915036774
 40
1.0
 40
1.0
 40
1.0
 40
1.0
 10
226.2684810343256
 20
45.56074436903291
 30
0.0
 10
226.221411802321
 20
45.53242984632012
 30
0.0
 10
226.1230356477264
 20
45.47325161576393
 30
0.0
 10
225.9767384261426
 20
45.38006371530401
 30
0.0
 10
225.8288976824988
 20
45.28469179933155
 30
0.0
 10
225.7326112197798
 20
45.22015654406874
 30
0.0
 10
225.6847463319208
 20
45.18807547401091
 30
0.0
  0
SPLINE
  5
28E
330
1F
100
AcDbEntity
  8
0
  6
Continuous
 62
     7
370
    25
100
AcDbSpline
210
0.0
220
0.0
230
1.0
 70
     8
 71
     3
 72
     9
 73
     5
 74
     0
 42
0.000000001
 43
0.00000001
 40
0.0
 40
0.0
 40
0.0
 40
0.0
 40
0.5090669353869915
 40
1.0
 40
1.0
 40
1.0
 40
1.0
 10
226.2690520379097
 20
45.56004541482114
 30
0.0
 10
226.2947006125337
 20
45.55255270666125
 30
0.0
 10
226.3450841138792
 20
45.537834193949
 30
0.0
 10
226.3938916253745
 20
45.52144183609683
 30
0.0
 10
226.417852846569
 20
45.51339428562023
 30
0.0
  0
LINE
  5
28F
330
1F
100
AcDbEntity
  8
0
  6
Continuous
 62
     7
370
    25
100
AcDbLine
 10
228.0989706122
 20
46.4839236532
 30
0.0
 11
226.4178549514
 21
45.5134362397
 31
0.0
  0
LINE
  5
290
330
1F
100
AcDbEntity
  8
0
  6
Continuous
 62
     7
370
    25
100
AcDbLine
 10
224.4113671544
 20
46.6372575175
 30
0.0
 11
224.211071102
 21
46.1361002361
 31
0.0
  0
SPLINE
  5
291
330
1F
100
AcDbEntity
  8
0
  6
Continuous
 62
     7
370
    25
100
AcDbSpline
210
0.0
220
0.0
230
1.0
 70
     8
 71
     3
 72
     8
 73
     4
 74
     0
 42
0.000000001
 43
0.00000001
 40
0.0
 40
0.0
 40
0.0
 40
0.0
 40
1.0
 40
1.0
 40
1.0
 40
1.0
 10
224.4109238397696
 20
46.63804144868249
 30
0.0
 10
224.4370991743388
 20
46.66020882566075
 30
0.0
 10
224.4629202143043
 20
46.68284096675237
 30
0.0
 10
224.4883777680126
 20
46.70592568684366
 30
0.0
  0
LINE
  5
292
330
1F
100
AcDbEntity
  8
0
  6
Continuous
 62
     7
370
    25
100
AcDbLine
 10
224.488377768
 20
46.7059256868
 30
0.0
 11
226.2686707583
 21
45.5601544244
 31
0.0
  0
LINE
  5
293
330
1F
100
AcDbEntity
  8
0
  6
Continuous
 62
     7
370
    25
100
AcDbLine
 10
228.0987618605
 20
46.5819736877
 30
0.0
 11
228.010762838
 21
46.6894648243
 31
0.0
  0
LINE
  5
294
330
1F
100
AcDbEntity
  8
0
  6
Continuous
 62
     7
370
    25
100
AcDbLine
 10
226.1823542495
 20
47.6838374942
 30
0.0
 11
224.488377768
 21
46.7059256868
 31
0.0
  0
LINE
  5
295
330
1F
100
AcDbEntity
  8
0
  6
Continuous
 62
     7
370
    25
100
AcDbLine
 10
226.3250482751
 20
47.6625451334
 30
0.0
 11
226.1827745636
 21
47.6833497494
 31
0.0
  0
LINE
  5
296
330
1F
100
AcDbEntity
  8
0
  6
Continuous
 62
     7
370
    25
100
AcDbLine
 10
228.0108358434
 20
46.6893606851
 30
0.0
 11
226.3250482751
 21
47.6625451334
 31
0.0
  0
LINE
  5
297
330
1F
100
AcDbEntity
  8
0
  6
Continuous
 62
     7
370
    25
100
AcDbLine
 10
228.0987618605
 20
46.6385963441
 30
0.0
 11
228.0107893864
 21
46.6893874855
 31
0.0
  0
SPLINE
  5
298
330
1F
100
AcDbEntity
  8
0
  6
Continuous
 62
     7
370
    25
100
AcDbSpline
210
0.0
220
0.0
230
1.0
 70
     8
 71
     3
 72
    19
 73
    15
 74
     0
 42
0.000000001
 43
0.00000001
 40
0.0
 40
0.0
 40
0.0
 40
0.0
 40
0.0637852801523487
 40
0.1289627947928742
 40
0.1955871357727518
 40
0.2637094157112479
 40
0.3333774494312574
 40
0.4046359392583752
 40
0.477526660464624
 40
0.5520886439445272
 40
0.6283583539150506
 40
0.7063698590296017
 40
0.8377040422924708
 40
1.0
 40
1.0
 40
1.0
 40
1.0
 10
223.6268547338082
 20
46.80652953603435
 30
0.0
 10
223.6475441028133
 20
46.79317039602404
 30
0.0
 10
223.6893744254681
 20
46.76616052748314
 30
0.0
 10
223.7498653990628
 20
46.72863856195661
 30
0.0
 10
223.8093495972421
 20
46.69311882086594
 30
0.0
 10
223.8674307567138
 20
46.66013869194945
 30
0.0
 10
223.9239628738011
 20
46.62993225567906
 30
0.0
 10
223.9787079285547
 20
46.60281881571773
 30
0.0
 10
224.0314303061476
 20
46.57908719796699
 30
0.0
 10
224.0818719390761
 20
46.5590469445252
 30
0.0
 10
224.1297548575513
 20
46.54292708297572
 30
0.0
 10
224.1847190377342
 20
46.52864910662932
 30
0.0
 10
224.2475504014648
 20
46.51851054554785
 30
0.0
 10
224.2860579446256
 20
46.52498482493735
 30
0.0
 10
224.3073419264933
 20
46.52856330421236
 30
0.0
  0
LINE
  5
299
330
1F
100
AcDbEntity
  8
0
  6
Continuous
 62
     7
370
    25
100
AcDbLine
 10
224.3319778575
 20
46.5546334514
 30
0.0
 11
224.3996523471
 21
46.626247709
 31
0.0
  0
SPLINE
  5
29A
330
1F
100
AcDbEntity
  8
0
  6
Continuous
 62
     7
370
    25
100
AcDbSpline
210
0.0
220
0.0
230
1.0
 70
     8
 71
     3
 72
     9
 73
     5
 74
     0
 42
0.000000001
 43
0.00000001
 40
0.0
 40
0.0
 40
0.0
 40
0.0
 40
0.523202776288562
 40
0.9999999999999999
 40
0.9999999999999999
 40
0.9999999999999999
 40
0.9999999999999999
 10
226.0161768953136
 20
47.5879053495695
 30
0.0
 10
225.9471525823199
 20
47.61294750864374
 30
0.0
 10
225.8152260786356
 20
47.66081070855235
 30
0.0
 10
225.5737889262811
 20
47.79840890548226
 30
0.0
 10
225.4586723623378
 20
47.86401534376614
 30
0.0
  0
LINE
  5
29B
330
1F
100
AcDbEntity
  8
0
  6
Continuous
 62
     7
370
    25
100
AcDbLine
 10
221.7291712392
 20
47.6299048106
 30
0.0
 11
222.1806414089
 21
47.7421693442
 31
0.0
  0
LINE
  5
29C
330
1F
100
AcDbEntity
  8
0
  6
Continuous
 62
     7
370
    25
100
AcDbLine
 10
222.1806414089
 20
47.7421693442
 30
0.0
 11
223.6268547338
 21
46.806529536
 31
0.0
  0
SPLINE
  5
29D
330
1F
100
AcDbEntity
  8
0
  6
Continuous
 62
     7
370
    25
100
AcDbSpline
210
0.0
220
0.0
230
1.0
 70
     8
 71
     3
 72
     8
 73
     4
 74
     0
 42
0.000000001
 43
0.00000001
 40
0.0
 40
0.0
 40
0.0
 40
0.0
 40
1.0
 40
1.0
 40
1.0
 40
1.0
 10
221.8999591178249
 20
47.23515533825104
 30
0.0
 10
221.8428338489009
 20
47.36694152204668
 30
0.0
 10
221.7859053571833
 20
47.49852574370747
 30
0.0
 10
221.7291712392339
 20
47.62990481060882
 30
0.0
  0
LINE
  5
29E
330
1F
100
AcDbEntity
  8
0
  6
Continuous
 62
     7
370
    25
100
AcDbLine
 10
223.5183426194
 20
48.5144078155
 30
0.0
 11
222.1806414089
 21
47.7421693442
 31
0.0
  0
LINE
  5
29F
330
1F
100
AcDbEntity
  8
0
  6
Continuous
 62
     7
370
    25
100
AcDbLine
 10
224.5013714162
 20
48.4166542821
 30
0.0
 11
223.5183421456
 21
48.5144078631
 31
0.0
  0
LINE
  5
2A0
330
1F
100
AcDbEntity
  8
0
  6
Continuous
 62
     7
370
    25
100
AcDbLine
 10
225.4586723623
 20
47.8640153438
 30
0.0
 11
224.5013706667
 21
48.4166538494
 31
0.0
  0
SPLINE
  5
2A1
330
1F
100
AcDbEntity
  8
0
  6
Continuous
 62
     7
370
    25
100
AcDbSpline
210
0.0
220
0.0
230
1.0
 70
     8
 71
     3
 72
     8
 73
     4
 74
     0
 42
0.000000001
 43
0.00000001
 40
0.0
 40
0.0
 40
0.0
 40
0.0
 40
1.0
 40
1.0
 40
1.0
 40
1.0
 10
221.7291712392361
 20
47.62990481060372
 30
0.0
 10
221.726033901486
 20
47.66512111747623
 30
0.0
 10
221.724041497588
 20
47.70076537370392
 30
0.0
 10
221.723260100216
 20
47.7368622756988
 30
0.0
  0
LINE
  5
2A2
330
1F
100
AcDbEntity
  8
0
  6
Continuous
 62
     7
370
    25
100
AcDbLine
 10
222.5343456327
 20
48.2050919871
 30
0.0
 11
221.7232601002
 21
47.7368622757
 31
0.0
  0
SPLINE
  5
2A3
330
1F
100
AcDbEntity
  8
0
  6
Continuous
 62
     7
370
    25
100
AcDbSpline
210
0.0
220
0.0
230
1.0
 70
     8
 71
     3
 72
     8
 73
     4
 74
     0
 42
0.000000001
 43
0.00000001
 40
0.0000004089325119
 40
0.0000004089325119
 40
0.0000004089325119
 40
0.0000004089325119
 40
0.0015399868451459
 40
0.0015399868451459
 40
0.0015399868451459
 40
0.0015399868451459
 10
222.5343456327047
 20
48.20509198705491
 30
0.0
 10
222.772822200728
 20
48.29946837287127
 30
0.0
 10
223.0112691583967
 20
48.39389698480148
 30
0.0
 10
223.249677897247
 20
48.48839036776393
 30
0.0
  0
LINE
  5
2A4
330
1F
100
AcDbEntity
  8
0
  6
Continuous
 62
     7
370
    25
100
AcDbLine
 10
223.2496778972
 20
48.4883903678
 30
0.0
 11
223.2740741279
 21
48.4933842976
 31
0.0
  0
LINE
  5
2A5
330
1F
100
AcDbEntity
  8
0
  6
Continuous
 62
     7
370
    25
100
AcDbLine
 10
223.5183424119
 20
48.5144077969
 30
0.0
 11
223.2740746697
 21
48.4933846902
 31
0.0
  0
SPLINE
  5
2A6
330
1F
100
AcDbEntity
  8
0
  6
Continuous
 62
     7
370
    25
100
AcDbSpline
210
0.0
220
0.0
230
1.0
 70
     8
 71
     3
 72
     8
 73
     4
 74
     0
 42
0.000000001
 43
0.00000001
 40
0.0
 40
0.0
 40
0.0
 40
0.0
 40
1.0
 40
1.0
 40
1.0
 40
1.0
 10
224.501369811755
 20
48.4166543603509
 30
0.0
 10
224.5319778458783
 20
48.40171435254479
 30
0.0
 10
224.5625293468502
 20
48.38683739515141
 30
0.0
 10
224.5930232849647
 20
48.37202383147049
 30
0.0
  0
ARC
  5
2A7
330
1F
100
AcDbEntity
  8
0
  6
Continuous
 62
     7
370
    25
100
AcDbCircle
 10
225.3568875047
 20
53.9172787842
 30
0.0
 40
6.625581341076145
100
AcDbArc
 50
283.7327672817
 51
294.8489934469
  0
LWPOLYLINE
  5
2A8
330
1F
100
AcDbEntity
  8
0
  6
Continuous
 62
     7
370
    18
100
AcDbPolyline
 90
       22
 70
   128
 43
0.0
 10
258.8765880778
 20
33.3171785536
 10
258.914434448
 20
34.0197455106
 10
259.0273521221
 20
34.7544728264
 10
259.2134869952
 20
35.5092962989
 10
259.4697827376
 20
36.2718217475
 10
259.7920309805
 20
37.0295285254
 10
260.1749404165
 20
37.7699751084
 10
260.6122236834
 20
38.4810033838
 10
261.0967006019
 20
39.1509382873
 10
261.6204160745
 20
39.768779506
 10
262.1747707076
 20
40.3243821044
 10
262.7506620134
 20
40.8086231031
 10
263.3386338726
 20
41.2135512782
 10
263.9290318036
 20
41.5325177205
 10
264.5121614886
 20
41.7602850096
 10
265.0784479543
 20
41.893113213
 10
265.6185927926
 20
41.9288212953
 10
266.1237268403
 20
41.8668229307
 10
266.5855558101
 20
41.7081361308
 10
266.9964964833
 20
41.4553665282
 10
267.3498012252
 20
41.1126645931
 10
267.6383973449
 20
40.6879697873
  0
LWPOLYLINE
  5
2A9
330
1F
100
AcDbEntity
  8
0
  6
Continuous
 62
     7
370
    18
100
AcDbPolyline
 90
       10
 70
   128
 43
0.0
 10
261.4843059775
 20
30.0276157929
 10
261.0967006019
 20
30.0467061791
 10
260.6122236834
 20
30.1572759388
 10
260.1749404165
 20
30.363427701
 10
259.7920309805
 20
30.6617764594
 10
259.4697827376
 20
31.0474233356
 10
259.2134869952
 20
31.5140360187
 10
259.0273521221
 20
32.0539527412
 10
258.914434448
 20
32.6583080855
 10
258.8765880778
 20
33.3171785536
  0
LWPOLYLINE
  5
2AA
330
1F
100
AcDbEntity
  8
0
  6
Continuous
 62
     7
370
    18
100
AcDbPolyline
 90
       46
 70
   128
 43
0.0
 10
259.9257150023
 20
33.4514475008
 10
259.9643404602
 20
34.1116017396
 10
260.0794650332
 20
34.8035028315
 10
260.2688479525
 20
35.5136837087
 10
260.528803095
 20
36.2283215083
 10
260.8542707296
 20
36.9335066184
 10
261.2389159988
 20
37.615513413
 10
261.6752522202
 20
38.2610674055
 10
262.1547866054
 20
38.8576036219
 10
262.6681855632
 20
39.3935111632
 10
263.2054563667
 20
39.8583591987
 10
263.756141651
 20
40.2430999902
 10
264.3095229534
 20
40.5402449958
 10
264.8548293363
 20
40.744010626
 10
265.3814470312
 20
40.8504308144
 10
265.8791260237
 20
40.8574342134
 10
266.3381795583
 20
40.7648845095
 10
266.7496726802
 20
40.5745830776
 10
267.1055961438
 20
40.2902339186
 10
267.3990223037
 20
39.9173715653
 10
267.6242399534
 20
39.4632533594
 10
267.7768654877
 20
38.9367181952
 10
267.8539282241
 20
38.3480144808
 10
267.8539282241
 20
37.7086006643
 10
267.7768654877
 20
37.0309222083
 10
267.6242399534
 20
36.3281693531
 10
267.3990223037
 20
35.6140203837
 10
267.1055961438
 20
34.9023753974
 10
266.7496726802
 20
34.2070857544
 10
266.3381795583
 20
33.5416844768
 10
265.8791260237
 20
32.9191228435
 10
265.3814470312
 20
32.3515183085
 10
264.8548293363
 20
31.8499186486
 10
264.3095229534
 20
31.4240869304
 10
263.756141651
 20
31.082311484
 10
263.2054563667
 20
30.8312445798
 10
262.6681855632
 20
30.6757729494
 10
262.1547866054
 20
30.6189226713
 10
261.6752522202
 20
30.6618002715
 10
261.2389159988
 20
30.8035711862
 10
260.8542707296
 20
31.0414760058
 10
260.528803095
 20
31.3708841837
 10
260.2688479525
 20
31.7853841644
 10
260.0794650332
 20
32.2769081773
 10
259.9643404602
 20
32.8358892664
 10
259.9257150023
 20
33.4514475008
  0
LWPOLYLINE
  5
2AB
330
1F
100
AcDbEntity
  8
0
  6
Continuous
 62
     7
370
    18
100
AcDbPolyline
 90
        9
 70
   128
 43
0.0
 10
243.9188891147
 20
40.1308617869
 10
243.9564411329
 20
39.3665608374
 10
244.068641357
 20
38.6548941034
 10
244.2541278281
 20
38.004500255
 10
244.5106489918
 20
37.4232741926
 10
244.8350910287
 20
36.9182712131
 10
245.223515652
 20
36.4956213687
 10
245.6712079128
 20
36.1604550559
 10
245.7314289948
 20
36.1247197303
  0
LWPOLYLINE
  5
2AC
330
1F
100
AcDbEntity
  8
0
  6
Continuous
 62
     7
370
    18
100
AcDbPolyline
 90
       23
 70
   128
 43
0.0
 10
254.4807179054
 20
51.280574822
 10
254.2965393807
 20
51.3783020101
 10
253.7703421283
 20
51.5749603765
 10
253.1996656178
 20
51.6760595261
 10
252.5914370891
 20
51.680372252
 10
251.9530396126
 20
51.5878462036
 10
251.2922224689
 20
51.3996045218
 10
250.6170070828
 20
51.1179322056
 10
249.9355896546
 20
50.7462483753
 10
249.2562416688
 20
50.2890647693
 10
248.5872094895
 20
49.7519309771
 10
247.9366142612
 20
49.1413670753
 10
247.3123533287
 20
48.4647844826
 10
246.7220043739
 20
47.7303959953
 10
246.1727334336
 20
46.9471160946
 10
245.6712079128
 20
46.1244527375
 10
245.223515652
 20
45.2723919428
 10
244.8350910287
 20
44.4012765742
 10
244.5106489918
 20
43.5216807924
 10
244.2541278281
 20
42.6442816986
 10
244.068641357
 20
41.7797297291
 10
243.9564411329
 20
40.9385193739
 10
243.9188891147
 20
40.1308617869
  0
LWPOLYLINE
  5
2AD
330
1F
100
AcDbEntity
  8
0
  6
Continuous
 62
     7
370
    18
100
AcDbPolyline
 90
       30
 70
   128
 43
0.0
 10
241.7975687712
 20
40.1308617869
 10
241.8347551174
 20
40.9990616614
 10
241.945932574
 20
41.9012870717
 10
242.1299603098
 20
42.8282799644
 10
242.3849499511
 20
43.770528138
 10
242.7082849591
 20
44.718362851
 10
243.0966474793
 20
45.6620580368
 10
243.5460523865
 20
46.5919301056
 10
244.0518881783
 20
47.4984373118
 10
244.6089642949
 20
48.3722776648
 10
245.2115643816
 20
49.2044843799
 10
245.853504946
 20
49.9865178901
 10
246.5281988092
 20
50.7103534734
 10
247.2287226992
 20
51.3685635972
 10
247.9478882929
 20
51.954394135
 10
248.6783159782
 20
52.4618336725
 10
249.4125105785
 20
52.8856751935
 10
250.1429382637
 20
53.2215695105
 10
250.8621038575
 20
53.4660698932
 10
251.5626277475
 20
53.6166674369
 10
252.2373216107
 20
53.6718168069
 10
252.8792621751
 20
53.630952096
 10
253.4818622617
 20
53.4944926316
 10
254.0389383784
 20
53.2638386723
 10
254.5447741702
 20
52.94135704
 10
254.9941790774
 20
52.5303568325
 10
255.3825415975
 20
52.0350554682
 10
255.7058766056
 20
51.4605354092
 10
255.9608662469
 20
50.812692009
 10
256.0895442035
 20
50.3518191692
  0
LWPOLYLINE
  5
2AE
330
1F
100
AcDbEntity
  8
0
  6
Continuous
 62
     7
370
    18
100
AcDbPolyline
 90
       15
 70
   128
 43
0.0
 10
247.3402552929
 20
35.1959640776
 10
247.2287226992
 20
35.1638368268
 10
246.5281988092
 20
35.0132392832
 10
245.853504946
 20
34.9580899132
 10
245.2115643816
 20
34.998954624
 10
244.6089642949
 20
35.1354140885
 10
244.0518881783
 20
35.3660680477
 10
243.5460523865
 20
35.6885496801
 10
243.0966474793
 20
36.0995498875
 10
242.7082849591
 20
36.5948512519
 10
242.3849499511
 20
37.1693713108
 10
242.1299603098
 20
37.8172147111
 10
241.945932574
 20
38.5317337027
 10
241.8347551174
 20
39.305596354
 10
241.7975687712
 20
40.1308617869
  0
LWPOLYLINE
  5
2AF
330
1F
100
AcDbEntity
  8
0
  6
Continuous
 62
     7
370
    18
100
AcDbPolyline
 90
       17
 70
   128
 43
0.0
 10
265.0805152815
 20
37.9430700848
 10
265.2187431731
 20
37.8293854581
 10
265.4035251361
 20
37.5664738688
 10
265.5177266698
 20
37.2265292911
 10
265.556356619
 20
36.824408934
 10
265.5177266698
 20
36.377687387
 10
265.4035251361
 20
35.905888525
 10
265.2187431731
 20
35.4296322225
 10
264.9714566392
 20
34.969733165
 10
264.6724731425
 20
34.5462911484
 10
264.3348596966
 20
34.1778126205
 10
263.9733716291
 20
33.8804018612
 10
263.6038077031
 20
33.6670571479
 10
263.2423196355
 20
33.5471026682
 10
262.9047061896
 20
33.5257810086
 10
262.6057226929
 20
33.6040240278
 10
262.5386912503
 20
33.6387766383
  0
LWPOLYLINE
  5
2B0
330
1F
100
AcDbEntity
  8
0
  6
Continuous
 62
     7
370
    18
100
AcDbPolyline
 90
       30
 70
   128
 43
0.0
 10
231.6240699568
 20
41.5238581277
 10
231.6620780362
 20
42.6069699986
 10
231.7758426406
 20
43.7265663115
 10
231.9645866423
 20
44.8749990884
 10
232.2270207285
 20
46.0444233688
 10
232.5613522083
 20
47.2268507992
 10
232.9652972586
 20
48.4142042012
 10
233.4360965252
 20
49.5983727472
 10
233.9705339717
 20
50.7712673652
 10
234.5649588483
 20
51.9248759957
 10
235.2153106306
 20
53.051318322
 10
235.9171467563
 20
54.1428996009
 10
236.665672973
 20
55.1921632253
 10
237.4557760877
 20
56.1919416607
 10
238.282058895
 20
57.1354054067
 10
239.1388770455
 20
58.0161096493
 10
240.0203776023
 20
58.8280382854
 10
240.9205390229
 20
59.5656450191
 10
241.833212292
 20
60.2238912486
 10
242.7521629258
 20
60.7982804847
 10
243.6711135595
 20
61.2848890664
 10
244.5837868286
 20
61.6803929637
 10
245.4839482492
 20
61.9820904839
 10
246.365448806
 20
62.1879207272
 10
247.2222669565
 20
62.2964776641
 10
248.0485497638
 20
62.3070197408
 10
248.8386528785
 20
62.2194749442
 10
249.5871790953
 20
62.034441294
 10
250.289015221
 20
61.7531827576
 10
250.6202734532
 20
61.5774134294
  0
LWPOLYLINE
  5
2B1
330
1F
100
AcDbEntity
  8
0
  6
Continuous
 62
     7
370
    18
100
AcDbPolyline
 90
       11
 70
   128
 43
0.0
 10
234.8840523983
 20
34.3185254859
 10
234.5649588483
 20
34.5183182991
 10
233.9705339717
 20
34.9856185755
 10
233.4360965252
 20
35.5414648521
 10
232.9652972586
 20
36.1820601351
 10
232.5613522083
 20
36.9030285093
 10
232.2270207285
 20
37.6994450296
 10
231.9645866423
 20
38.5658693636
 10
231.7758426406
 20
39.4963829546
 10
231.6620780362
 20
40.4846294512
 10
231.6240699568
 20
41.5238581277
  0
LWPOLYLINE
  5
2B2
330
1F
100
AcDbEntity
  8
0
  6
Continuous
 62
     7
370
    18
100
AcDbPolyline
 90
       15
 70
   128
 43
0.0
 10
236.2481510584
 20
38.1882214015
 10
236.2409106184
 20
38.2230467567
 10
236.0983262973
 20
39.1269727057
 10
236.0313253458
 20
40.0851837817
 10
236.0404258922
 20
41.0902699963
 10
236.1255575608
 20
42.1344588688
 10
236.2860620156
 20
43.2096755314
 10
236.5206980519
 20
44.3076051742
 10
236.8276511944
 20
45.4197573444
 10
237.2045477289
 20
46.537531604
 10
237.6484730585
 20
47.6522840389
 10
238.1559942428
 20
48.755394103
 10
238.7231865451
 20
49.8383312825
 10
239.3456637833
 20
50.8927210635
 10
240.0186122483
 20
51.9104096932
  0
LWPOLYLINE
  5
2B3
330
1F
100
AcDbEntity
  8
0
  6
Continuous
 62
     7
370
    18
100
AcDbPolyline
 90
       19
 70
   128
 43
0.0
 10
236.7599471328
 20
35.2582938527
 10
236.6111667001
 20
35.470066524
 10
236.2128285156
 20
36.1561622115
 10
235.88497014
 20
36.9194693378
 10
235.6300746668
 20
37.7542068608
 10
235.4500725921
 20
38.6540527475
 10
235.3463271938
 20
39.6121918553
 10
235.319624206
 20
40.6213675474
 10
235.3701658684
 20
41.6739366524
 10
235.4975693949
 20
42.7619273512
 10
235.7008698722
 20
43.8770995531
 10
235.9785275681
 20
45.0110073031
 10
236.3284395925
 20
46.1550627495
 10
236.7479558248
 20
47.3006011852
 10
237.233898984
 20
48.4389466713
 10
237.7825886935
 20
49.561477746
 10
238.3898693542
 20
50.6596927208
 10
239.0511416182
 20
51.7252740695
 10
239.7613972224
 20
52.7501514224
  0
ARC
  5
2B4
330
1F
100
AcDbEntity
  8
0
  6
Continuous
 62
     7
370
    18
100
AcDbCircle
 10
252.9893119756
 20
44.7580115275
 30
0.0
 40
14.59972786471477
100
AcDbArc
 50
110.186167714
 51
139.1704721415
  0
LWPOLYLINE
  5
2B5
330
1F
100
AcDbEntity
  8
0
  6
Continuous
 62
     7
370
    18
100
AcDbPolyline
 90
       13
 70
   128
 43
0.0
 10
241.1055904632
 20
54.422315035
 10
241.9335002124
 20
55.3081904026
 10
242.7893303376
 20
56.1243094194
 10
243.6664159446
 20
56.864316447
 10
244.557926609
 20
57.5224485793
 10
245.4569195696
 20
58.0935805221
 10
246.3563937956
 20
58.5732645074
 10
247.2493445082
 20
58.9577649303
 10
248.1288177315
 20
59.2440874411
 10
248.9879644474
 20
59.4300022642
 10
249.8200939332
 20
59.5140615624
 10
250.6187258665
 20
59.4956107123
 10
250.7445540806
 20
59.4829684042
  0
LINE
  5
2B6
330
1F
100
AcDbEntity
  8
0
  6
Continuous
 62
     7
370
    18
100
AcDbLine
 10
227.1377054484
 20
51.8964658312
 30
0.0
 11
227.4438695719
 21
51.5257305615
 31
0.0
  0
LINE
  5
2B7
330
1F
100
AcDbEntity
  8
0
  6
Continuous
 62
     7
370
    18
100
AcDbLine
 10
227.1377054484
 20
44.1323554398
 30
0.0
 11
227.4438695719
 21
44.8198891439
 31
0.0
  0
LINE
  5
2B8
330
1F
100
AcDbEntity
  8
0
  6
Continuous
 62
     7
370
    18
100
AcDbLine
 10
228.1797797257
 20
45.2447210328
 30
0.0
 11
227.443876898
 21
44.8198933732
 31
0.0
  0
LINE
  5
2B9
330
1F
100
AcDbEntity
  8
0
  6
Continuous
 62
     7
370
    18
100
AcDbLine
 10
228.1132043505
 20
45.987946926
 30
0.0
 11
226.8039333766
 21
45.232120881
 31
0.0
  0
LINE
  5
2BA
330
1F
100
AcDbEntity
  8
0
  6
Continuous
 62
     7
370
    18
100
AcDbLine
 10
223.6268547338
 20
46.806529536
 30
0.0
 11
223.330367231
 21
46.3104679285
 31
0.0
  0
LINE
  5
2BB
330
1F
100
AcDbEntity
  8
0
  6
Continuous
 62
     7
370
    18
100
AcDbLine
 10
225.4586723623
 20
47.8640153438
 30
0.0
 11
223.6269149832
 21
46.8065643173
 31
0.0
  0
LINE
  5
2BC
330
1F
100
AcDbEntity
  8
0
  6
Continuous
 62
     7
370
    18
100
AcDbLine
 10
225.4586723623
 20
47.8640153438
 30
0.0
 11
225.579982324
 21
47.8022645059
 31
0.0
  0
OLE2FRAME
  5
2BD
330
1F
100
AcDbEntity
  8
0
100
AcDbOle2Frame
 70
     2
  3
Paintbrush-Bild
 10
13.8511154363
 20
38.264191557
 30
0.0
 11
51.6290888628
 21
31.9806341108
 31
0.0
 71
     2
 72
     0
 73
     1
 90
    12928
310
80552BED0767C5B32B40DDAF6807D121434000000000000000006FFBDDFB85D0
310
4940DDAF6807D121434000000000000000006FFBDDFB85D04940416F4BD60AFB
310
3F4000000000000000002BED0767C5B32B40416F4BD60AFB3F40000000000000
310
0000000000000100000000010000010000000100000000000100000000320000
310
D0CF11E0A1B11AE1000000000000000000000000000000003E000300FEFF0900
310
0600000000000000000000000100000001000000000000000010000002000000
310
01000000FEFFFFFF0000000000000000FFFFFFFFFFFFFFFFFFFFFFFFFFFFFFFF
310
FFFFFFFFFFFFFFFFFFFFFFFFFFFFFFFFFFFFFFFFFFFFFFFFFFFFFFFFFFFFFFFF
310
FFFFFFFFFFFFFFFFFFFFFFFFFFFFFFFFFFFFFFFFFFFFFFFFFFFFFFFFFFFFFFFF
310
FFFFFFFFFFFFFFFFFFFFFFFFFFFFFFFFFFFFFFFFFFFFFFFFFFFFFFFFFFFFFFFF
310
FFFFFFFFFFFFFFFFFFFFFFFFFFFFFFFFFFFFFFFFFFFFFFFFFFFFFFFFFFFFFFFF
310
FFFFFFFFFFFFFFFFFFFFFFFFFFFFFFFFFFFFFFFFFFFFFFFFFFFFFFFFFFFFFFFF
310
FFFFFFFFFFFFFFFFFFFFFFFFFFFFFFFFFFFFFFFFFFFFFFFFFFFFFFFFFFFFFFFF
310
FFFFFFFFFFFFFFFFFFFFFFFFFFFFFFFFFFFFFFFFFFFFFFFFFFFFFFFFFFFFFFFF
310
FFFFFFFFFFFFFFFFFFFFFFFFFFFFFFFFFFFFFFFFFFFFFFFFFFFFFFFFFFFFFFFF
310
FFFFFFFFFFFFFFFFFFFFFFFFFFFFFFFFFFFFFFFFFFFFFFFFFFFFFFFFFFFFFFFF
310
FFFFFFFFFFFFFFFFFFFFFFFFFFFFFFFFFFFFFFFFFFFFFFFFFFFFFFFFFFFFFFFF
310
FFFFFFFFFFFFFFFFFFFFFFFFFFFFFFFFFFFFFFFFFFFFFFFFFFFFFFFFFFFFFFFF
310
FFFFFFFFFFFFFFFFFFFFFFFFFFFFFFFFFFFFFFFFFFFFFFFFFFFFFFFFFFFFFFFF
310
FFFFFFFFFFFFFFFFFFFFFFFFFFFFFFFFFFFFFFFFFFFFFFFFFFFFFFFFFFFFFFFF
310
FDFFFFFFFEFFFFFFFEFFFFFFFEFFFFFF05000000060000000700000008000000
310
090000000A0000000B0000000C0000000D0000000E0000000F00000010000000
310
11000000120000001300000014000000150000001600000017000000FEFFFFFF
310
FFFFFFFFFFFFFFFFFFFFFFFFFFFFFFFFFFFFFFFFFFFFFFFFFFFFFFFFFFFFFFFF
310
FFFFFFFFFFFFFFFFFFFFFFFFFFFFFFFFFFFFFFFFFFFFFFFFFFFFFFFFFFFFFFFF
310
FFFFFFFFFFFFFFFFFFFFFFFFFFFFFFFFFFFFFFFFFFFFFFFFFFFFFFFFFFFFFFFF
310
FFFFFFFFFFFFFFFFFFFFFFFFFFFFFFFFFFFFFFFFFFFFFFFFFFFFFFFFFFFFFFFF
310
FFFFFFFFFFFFFFFFFFFFFFFFFFFFFFFFFFFFFFFFFFFFFFFFFFFFFFFFFFFFFFFF
310
FFFFFFFFFFFFFFFFFFFFFFFFFFFFFFFFFFFFFFFFFFFFFFFFFFFFFFFFFFFFFFFF
310
FFFFFFFFFFFFFFFFFFFFFFFFFFFFFFFFFFFFFFFFFFFFFFFFFFFFFFFFFFFFFFFF
310
FFFFFFFFFFFFFFFFFFFFFFFFFFFFFFFFFFFFFFFFFFFFFFFFFFFFFFFFFFFFFFFF
310
FFFFFFFFFFFFFFFFFFFFFFFFFFFFFFFFFFFFFFFFFFFFFFFFFFFFFFFFFFFFFFFF
310
FFFFFFFFFFFFFFFFFFFFFFFFFFFFFFFFFFFFFFFFFFFFFFFFFFFFFFFFFFFFFFFF
310
FFFFFFFFFFFFFFFFFFFFFFFFFFFFFFFFFFFFFFFFFFFFFFFFFFFFFFFFFFFFFFFF
310
FFFFFFFFFFFFFFFFFFFFFFFFFFFFFFFFFFFFFFFFFFFFFFFFFFFFFFFFFFFFFFFF
310
FFFFFFFFFFFFFFFFFFFFFFFFFFFFFFFFFFFFFFFFFFFFFFFFFFFFFFFFFFFFFFFF
310
52006F006F007400200045006E00740072007900000000000000000000000000
310
0000000000000000000000000000000000000000000000000000000000000000
310
16000500FFFFFFFFFFFFFFFF020000000A00030000000000C000000000000046
310
000000000000000000000000C0E6D21503A7D30103000000C000000000000000
310
01004F006C006500000000000000000000000000000000000000000000000000
310
0000000000000000000000000000000000000000000000000000000000000000
310
0A000200FFFFFFFFFFFFFFFFFFFFFFFF00000000000000000000000000000000
310
0000000000000000000000000000000000000000000000001400000000000000
310
010043006F006D0070004F0062006A0000000000000000000000000000000000
310
0000000000000000000000000000000000000000000000000000000000000000
310
120002010100000003000000FFFFFFFF00000000000000000000000000000000
310
0000000000000000000000000000000000000000010000004D00000000000000
310
01004F006C006500310030004E00610074006900760065000000000000000000
310
0000000000000000000000000000000000000000000000000000000000000000
310
1A000200FFFFFFFFFFFFFFFFFFFFFFFF00000000000000000000000000000000
310
0000000000000000000000000000000000000000040000002426000000000000
310
FEFFFFFF02000000FEFFFFFFFFFFFFFFFFFFFFFFFFFFFFFFFFFFFFFFFFFFFFFF
310
FFFFFFFFFFFFFFFFFFFFFFFFFFFFFFFFFFFFFFFFFFFFFFFFFFFFFFFFFFFFFFFF
310
FFFFFFFFFFFFFFFFFFFFFFFFFFFFFFFFFFFFFFFFFFFFFFFFFFFFFFFFFFFFFFFF
310
FFFFFFFFFFFFFFFFFFFFFFFFFFFFFFFFFFFFFFFFFFFFFFFFFFFFFFFFFFFFFFFF
310
FFFFFFFFFFFFFFFFFFFFFFFFFFFFFFFFFFFFFFFFFFFFFFFFFFFFFFFFFFFFFFFF
310
FFFFFFFFFFFFFFFFFFFFFFFFFFFFFFFFFFFFFFFFFFFFFFFFFFFFFFFFFFFFFFFF
310
FFFFFFFFFFFFFFFFFFFFFFFFFFFFFFFFFFFFFFFFFFFFFFFFFFFFFFFFFFFFFFFF
310
FFFFFFFFFFFFFFFFFFFFFFFFFFFFFFFFFFFFFFFFFFFFFFFFFFFFFFFFFFFFFFFF
310
FFFFFFFFFFFFFFFFFFFFFFFFFFFFFFFFFFFFFFFFFFFFFFFFFFFFFFFFFFFFFFFF
310
FFFFFFFFFFFFFFFFFFFFFFFFFFFFFFFFFFFFFFFFFFFFFFFFFFFFFFFFFFFFFFFF
310
FFFFFFFFFFFFFFFFFFFFFFFFFFFFFFFFFFFFFFFFFFFFFFFFFFFFFFFFFFFFFFFF
310
FFFFFFFFFFFFFFFFFFFFFFFFFFFFFFFFFFFFFFFFFFFFFFFFFFFFFFFFFFFFFFFF
310
FFFFFFFFFFFFFFFFFFFFFFFFFFFFFFFFFFFFFFFFFFFFFFFFFFFFFFFFFFFFFFFF
310
FFFFFFFFFFFFFFFFFFFFFFFFFFFFFFFFFFFFFFFFFFFFFFFFFFFFFFFFFFFFFFFF
310
FFFFFFFFFFFFFFFFFFFFFFFFFFFFFFFFFFFFFFFFFFFFFFFFFFFFFFFFFFFFFFFF
310
FFFFFFFFFFFFFFFFFFFFFFFFFFFFFFFFFFFFFFFFFFFFFFFFFFFFFFFFFFFFFFFF
310
0100000200000000000000000000000000000000000000000000000000000000
310
0000000000000000000000000000000000000000000000000000000000000000
310
0100FEFF030A0000FFFFFFFF0A00030000000000C00000000000004607000000
310
5042727573680007000000504272757368000700000050427275736800F439B2
310
7100000000000000000000000000000000000000000000000000000000000000
310
0000000000000000000000000000000000000000000000000000000000000000
310
0000000000000000000000000000000000000000000000000000000000000000
310
0000000000000000000000000000000000000000000000000000000000000000
310
0000000000000000000000000000000000000000000000000000000000000000
310
0000000000000000000000000000000000000000000000000000000000000000
310
0000000000000000000000000000000000000000000000000000000000000000
310
0000000000000000000000000000000000000000000000000000000000000000
310
0000000000000000000000000000000000000000000000000000000000000000
310
0000000000000000000000000000000000000000000000000000000000000000
310
0000000000000000000000000000000000000000000000000000000000000000
310
0000000000000000000000000000000000000000000000000000000000000000
310
20260000424D0E260000000000003E00000028000000B40200006E0000000100
310
01000000000000000000130B0000130B00000200000002000000000000FFFFFF
310
FFFFFFFFFFFFFFFFFFFFFFFFFFFFFFFFFFFFFFFFFFFFFFFFFFFFFFFFFFFFFFFF
310
FFFFFFFFFFFFFFFFFFFFFFFFFFFFFFFFFFFFFFFFFFFFFFFFFFFFFFFFFFFFFFFF
310
FFFFFFFFFFFFFFFFFFFFFFFFFFFFFFFFFFFFFFFFFFFFFFFFF000FFFFFFFFFFFF
310
FFFFFFFFFFFFFFFFFFFFFFFFFFFFFFFFFFFFFFFFFFFFFFFFFFFFFFFFFFFFFFFF
310
FFFFFFFFFFFFFFFFFFFFFFFFFFFFFFFFFFFFFFFFFFFFFFFFFFFFFFFFFFFFFFFF
310
FFFFFFFFFFFFFFFFFFFFFFFFFFFFFFFFF000FFFFFFFFFFFFFFFFFFFFFFFFFFFF
310
FFFFFFFFFFFFFFFFFFFFFFFFFFFFFFFFFFFFFFFFFFFFFFFFFFFFFFFFFFFFFFFF
310
FFFFFFFFFFFFFFFFFFFFFFFFFFFFFFFFFFFFFFFFFFFFFFFFFFFFFFFFFFFFFFFF
310
FFFFFFFFFFFFFFFFF000FFFFFFFFFFFFFFFFFFFFFFFFFFFFFFFFFFFFFFFFFFFF
310
FFFFFFFFFFFFFFFFFFFFFFFFFFFFFFFFFFFFFFFFFFFFFFFFFFFFFFFFFFFFFFFF
310
FFFFFFFFFFFFFFFFFFFFFFFFFFFFFFFFFFFFFFFFFFFFFFFFFFFFFFFFFFFFFFFF
310
F000FFFFFFFFFFFFFFFFFFFFFFFFFFFFFFFFFFFFFFFFFFFFFFFFFFFFFFFFFFFF
310
FFFFFFFFFFFFFFFFFFFFFFFFFFFFFFFFFFFFFFFFFFFFFFFFFFFFFFFFFFFFFFFF
310
FFFFFFFFFFFFFFFFFFFFFFFFFFFFFFFFFFFFFFFFFFFFFFFFF000FFFFFFFFFFFF
310
FFFFFFFFFFFFFFFFFFFFFFFFFFFFFFFFFFFFFFFFFFFFFFFFFFFFFFFFFFFFFFFF
310
FFFFFFFFFFFFFFFFFFFFFFFFFFFFFFFFFFFFFFFFFFFFFFFFFFFFFFFFFFFFFFFF
310
FFFFFFFFFFFFFFFFFFFFFFFFFFFFFFFFF000FFFFFFFFFFFFFFFFFFFFFFFFFFFF
310
FFFFFFFFFFFFFFFFFFFFFFFFFFFFFFFFFFFFFFFFFFFFFFFFFFFFFFFFFFFFFFFF
310
FFFFFFFFFFFFFFFFFFFFFFFFFFFFFFFFFFFFFFFFFFFFFFFFFFFFFFFFFFFFFFFF
310
FFFFFFFFFFFFFFFFF000FFFFFFFFFFFFFFFFFFFFFFFFFFFFFFFFFFFFFFFFFFFF
310
FFFFFFFFFFFFFFFFFFFFFFFFFFFFFFFFFFFFFFFFFFFFFFFFFFFFFFFFFFFFFFFF
310
FFFFFFFFFFFFFFFFFFFFFFFFFFFFFFFFFFFFFFFFFFFFFFFFFFFFFFFFFFFFFFFF
310
F000FFFFFFFFFFFFFFFFFFFFFFFFFFFFFFFFFFFFFFFFFFFFFFFFFFFFFFFFFFFF
310
FFFFFFFFFFFFFFFFFFFFFFFFFFFFFFFFFFFFFFFFFFFFFFFFFFFFFFFFFFFFFFFF
310
FFFFFFFFFFFFFFFFFFFFFFFFFFFFFFFFFFFFFFFFFFFFFFFFF000FFFFFFFFFFFF
310
FFFFFFFFFFFFFFFFFFFFFFFFFFFFFFFFFFFFFFFFFFFFFFFFFFFFFFFFFFFFFFFF
310
FFFFFFFFFFFFFFFFFFFFFFFFFFFFFFFFFFFFFFFFFFFFFFFFFFFFFFFFFFFFFFFF
310
FFFFFFFFFFFFFFFFFFFFFFFFFFFFFFFFF000FFFFFFFFFFFFFFFFFFFFFFFFFFFF
310
FFFFFFFFFFFFFFFFFFFFFFFFFFFFFFFFFFFFFFFFFFFFFFFFFFFFFFFFFFFFFFFF
310
FFFFFFFFFFFFFFFFFFFFFFFFFFFFFFFFFFFFFFFFFFFFFFFFFFFFFFFFFFFFFFFF
310
FFFFFFFFFFFFFFFFF000FFFFFFFFFFFFFFFFFFFFFFFFFFFFFFFFFFFFFFFFFFFF
310
FFFFFFFFFFFFFFFFFFFFFFFFFFFFFFFFFFFFFFFFFFFFFFFFFFFFFFFFFFFFFFFF
310
FFFFFFFFFFFFFFFFFFFFFFFFFFFFFFFFFFFFFFFFFFFFFFFFFFFFFFFFFFFFFFFF
310
F000FFFFFFFFFFFFFFFFFFFFFFFFFFFFFFFFFFFFFFFFFFFFFFFFFFFFFFFFFFFF
310
FFFFFFFFFFFFFFFFFFFFFFFFFFFFFFFFFFFFFFFFFFFFFFFFFFFFFFFFFFFFFFFF
310
FFFFFFFFFFFFFFFFFFFFFFFFFFFFFFFFFFFFFFFFFFFFFFFFF000FFFFFFFFFFFF
310
FFFFFFFFFFFFFFFFFFFFFFFFFFFFFFFFFFFFFFFFFFFFFFFFFFFFFFFFFFFFFFFF
310
FFFFFFFFFFFFFFFFFFFFFFFFFFFFFFFFFFFFFFFFFFFFFFFFFFFFFFFFFFFFFFFF
310
FFFFFFFFFFFFFFFFFFFFFFFFFFFFFFFFF000FFFFFFFFFFFFFFFFFFFFFFFFFFFF
310
FFFFFFFFFFFFFFFFFFFFFFFFFFFFFFFFFFFFFFFFFFFFFFFFFFFFFFFFFFFFFFFF
310
FFFFFFFFFFFFFFFFFFFFFFFFFFFFFFFFFFFFFFFFFFFFFFFFFFFFFFFFFFFFFFFF
310
FFFFFFFFFFFFFFFFF000FFFFFFFFFFFFFFFFFFFFFFFFFFFFFFFFFFFFFFFFFFFF
310
FFFFFFFFFFFFFFFFFFFFFFFFFFFFFFFFFFFFFFFFFFFFFFFFFFFFFFFFFFFFFFFF
310
FFFFFFFFFFFFFFFFFFFFFFFFFFFFFFFFFFFFFFFFFFFFFFFFFFFFFFFFFFFFFFFF
310
F000FFFFFFFFFFFFFFFFFFFFFFFFFFFFFFFFFFFFFFFFFFFFFFFFFFFFFFFFFFFF
310
FFFFFFFFFFFFFFFFFFFFFFFFFFFFFFFFFFFFFFFFFFFFFFFFFFFFFFFFFFFFFFFF
310
FFFFFFFFFFFFFFFFFFFFFFFFFFFFFFFFFFFFFFFFFFFFFFFFF000FFFFFFFFFFFF
310
FFFFFFFFFFFFFFFFFFFFFFFFFFFFFFFFFFFFFFFFFFFFFFFFFFFFFFFFFFFFFFFF
310
FFFFFFFFFFFFFFFFFFFFFFFFFFFFFFFFFFFFFFFFFFFFFFFFFFFFFFFFFFFFFFFF
310
FFFFFFFFFFFFFFFFFFFFFFFFFFFFFFFFF000FFFFFFFFFFFFFFFFFFFFFFFFFFFF
310
FFFFFFFFFFFFFFFFFFFFFFFFFFFFFFFFFFFFFFFFFFFFFFFFFFFFFFFFFFFFFFFF
310
FFFFFFFFFFFFFFFFFFFFFFFFFFFFFFFFFFFFFFFFFFFFFFFFFFFFFFFFFFFFFFFF
310
FFFFFFFFFFFFFFFFF000FFFFF80003FFFFFFFFFFFFFFFFFFFFFFFFFFFFFFFFFF
310
FFFFF00007FFFFFFFFFF00007FFFFFF800000000000000007FFFFFFFFFFFFFFF
310
FFFFFFFC001FFFFFFFFFFFFFFC001FFFFFFFFFFFFFFFFFFFFFFFFFFE0007FFFF
310
F000FFFF8000007FFFFFFFF8000FFFFFC0007FFFFF80007FFFFF0000007FFFFF
310
FFF8000007FFFFF800000000000000007FFFFFF0001FFFFFFFFFFFC00001FFFF
310
FFFFFFFFC00001FFFFFFFF000000000003FFFFE000007FFFF000FFFE0000000F
310
FFFFFFF0000FFFFF80007FFFFF80007FFFFC0000001FFFFFFFC0000001FFFFF8
310
00000000000000007FFFFFF0001FFFFFFFFFFE0000003FFFFFFFFFFE0000003F
310
FFFFFF000000000003FFFF0000000FFFF000FFF800000003FFFFFFF00007FFFF
310
80007FFFFF80007FFFF000000007FFFFFF000000003FFFF80000000000000000
310
7FFFFFF0001FFFFFFFFFF80000000FFFFFFFFFF80000000FFFFFFF0000000000
310
03FFFC00000003FFF000FFE000000000FFFFFFF00007FFFF80003FFFFF80007F
310
FFC000000001FFFFFC000000001FFFF800000000000000007FFFFFF0001FFFFF
310
FFFFE000000003FFFFFFFFE000000003FFFFFF000000000003FFF000000000FF
310
F000FF80000000007FFFFFF00007FFFF80003FFFFF80007FFF8000000000FFFF
310
F80000000007FFF800000000000000007FFFFFF0001FFFFFFFFFC000000001FF
310
FFFFFFC000000001FFFFFF000000000003FFC0000000007FF000FF0000000000
310
3FFFFFE00007FFFF00003FFFFF80007FFE00000000003FFFF00000000003FFF8
310
00000000000000007FFFFFF0001FFFFFFFFF8000000000FFFFFFFF8000000000
310
FFFFFF000000000003FF80000000003FF000FE00000000001FFFFFE00003FFFF
310
00003FFFFF80007FFC00000000001FFFE00000000001FFF8000001FFFE000000
310
7FFFFFF0001FFFFFFFFE00000000003FFFFFFE00000000003FFFFF0000000000
310
03FF00000000001FF000FC00000000000FFFFFE00003FFFF00001FFFFF80007F
310
F800000000001FFFC00000000000FFF8000001FFFE0000007FFFFFF0001FFFFF
310
FFFC00000000001FFFFFFC00000000001FFFFF000000000003FE00000000000F
310
F000F8000000000007FFFFE00003FFFF00001FFFFF80007FF800000000000FFF
310
800000000000FFF8000001FFFE0000007FFFFFF0001FFFFFFFF800000000000F
310
FFFFF800000000000FFFFF000000000003FC000000000007F000F80000000000
310
03FFFFC00003FFFE00001FFFFF80007FF0000000000007FF0000000000007FF8
310
000001FFFE0000007FFFFFF0001FFFFFFFF0000000000007FFFFF00000000000
310
07FFFF000000000003F8000000000003F000F0000000000003FFFFC00001FFFE
310
00001FFFFF80007FE0000000000007FE0000000000003FF8000001FFFE000000
310
7FFFFFF0001FFFFFFFF0000000000007FFFFF0000000000007FFFF0000000000
310
03F800001F800003F000E00001FFF00001FFFFC00001FFFE00000FFFFF80007F
310
E00001FFE00003FE00001FFF00003FF8000001FFFE0000007FFFFFF0001FFFFF
310
FFE000003E000003FFFFE000003E000003FFFF000000000003F00001FFF80001
310
F000E00007FFFC0001FFFFC00001FFFE00000FFFFF80007FC0000FFFFC0003FC
310
0000FFFFC0001FF8000001FFFE0000007FFFFFF0001FFFFFFFC00003FFE00001
310
FFFFC00003FFE00001FFFF0001FFFFFFFFF00007FFFE0001F000E0000FFFFF00
310
00FFFF800001FFFC00000FFFFF80007FC0001FFFFE0001FC0001FFFFE0001FF8
310
000001FFFE0000007FFFFFF0001FFFFFFF80000FFFF80000FFFF80000FFFF800
310
00FFFF0003FFFFFFFFE0000FFFFF8000F000C0003FFFFF8000FFFF800000FFFC
310
000007FFFF80007F80003FFFFF0001FC0003FFFFF0001FF8000001FFFE000000
310
7FFFFFF0001FFFFFFF80003FFFFE0000FFFF80003FFFFE0000FFFF0003FFFFFF
310
FFE0003FFFFF8000F000C0003FFFFF8000FFFF800000FFFC000007FFFF80007F
310
80007FFFFF8001F80007FFFFF8000FF8000001FFFE0000007FFFFFF0001FFFFF
310
FF00007FFFFF00007FFF00007FFFFF00007FFF0003FFFFFFFFE0003FFFFFC000
310
F000C0007FFFFFC000FFFF000000FFFC000007FFFF80007F8000FFFFFF8000F8
310
000FFFFFF8000FF8000001FFFE0000007FFFFFF0001FFFFFFF0000FFFFFF8000
310
7FFF0000FFFFFF80007FFF0003FFFFFFFFC0007FFFFFC00070008000FFFFFFC0
310
00FFFF000000FFF8000007FFFF80007F8000FFFFFF8000F8000FFFFFF8000FF8
310
000001FFFE0000007FFFFFF0001FFFFFFE0001FFFFFFC0003FFE0001FFFFFFC0
310
003FFF0003FFFFFFFFC0007FFFFFE00070008000FFFFFFC0007FFF0000007FF8
310
000003FFFF80007F0001FFFFFF8000F8000FFFFFF8000FF8000001FFFE000000
310
7FFFFFF0001FFFFFFE0001FFFFFFC0003FFE0001FFFFFFC0003FFF0003FFFFFF
310
FFC000FFFFFFE00070008000FFFFFFC0007FFF0000007FF8000003FFFF80007F
310
0001FFFFFF8000F8001FFFFFF8000FF8000001FFFE0000007FFFFFF0001FFFFF
310
FE0003FFFFFFE0003FFE0003FFFFFFE0003FFF0003FFFFFFFFC000FFFFFFE000
310
70008000FFFFFFC0007FFE0000007FF8000003FFFF80007F0001FFFFFF8000F0
310
001FFFFFF8000FF8000001FFFE0000007FFFFFF0001FFFFFFC0003FFFFFFE000
310
1FFC0003FFFFFFE0001FFF0003FFFFFFFFC000FFFFFFC00070008000FFFFFF80
310
007FFE0000007FF0000003FFFF80007F0001FFFFFF0000F0001FFFFFF8000FF8
310
000001FFFE0000007FFFFFF0001FFFFFFC0007FFFFFFF0001FFC0007FFFFFFF0
310
001FFF0003FFFFFFFFC000FFFFFFC00070008001FFFFFF0000FFFE0000003FF0
310
000001FFFF80007F0001FFFFFF0000F8001FFFFFF0000FF8000001FFFE000000
310
7FFFFFF0001FFFFFFC0007FFFFFFF0001FFC0007FFFFFFF0001FFF0003FFFFFF
310
FFC001FFFFFF80007000FFFFFFFFFE0000FFFE0008003FF0008001FFFF80007F
310
FFFFFFFFFC0000FFFFFFFFFFE0000FF8000001FFFE0000007FFFFFF0001FFFFF
310
F8000FFFFFFFF8000FF8000FFFFFFFF8000FFF0003FFFFFFFFFFFFFFFFFF0000
310
7000FFFFFFFFFC0000FFFC0008003FF0008001FFFF80007FFFFFFFFFF80001FF
310
FFFFFFFF80000FF8000001FFFE0000007FFFFFF0001FFFFFF8000FFFFFFFF800
310
0FF8000FFFFFFFF8000FFF0003FFFFFFFFFFFFFFFFFE0000F000FFFFFFFFE000
310
00FFFC000C003FE000C001FFFF80007FFFFFFFFFC00001FFFFFFFFFE00001FF8
310
000001FFFE0000007FFFFFF0001FFFFFF8000FFFFFFFF8000FF8000FFFFFFFF8
310
000FFF0003FFFFFFFFFFFFFFFFF00000F000FFFFFFFE000001FFFC000C001FE0
310
00C000FFFF80007FFFFFFFFE000001FFFFFFFFE000001FF80FFFFFFFFFFFFFC0
310
7FFFFFF0001FFFFFF8000FFFFFFFF8000FF8000FFFFFFFF8000FFF0003FFFFFF
310
FFFFFFFFFF800000F000FFFFFFC0000001FFFC001C001FE001C000FFFF80007F
310
FFFFFF80000003FFFFFFF80000001FF80FFFFFFFFFFFFFC07FFFFFF0001FFFFF
310
F8001FFFFFFFFC000FF8001FFFFFFFFC000FFF0003FFFFFFFFFFFFFFF0000001
310
F000FFFFF800000001FFF8001C001FE001C000FFFF80007FFFFFF800000003FF
310
FFFF800000003FF80FFFFFFFFFFFFFC07FFFFFF0001FFFFFF8001FFFFFFFFC00
310
0FF8001FFFFFFFFC000FFF0003FFFFFFFFFFFFFE00000001F000FFFFC0000000
310
03FFF8001E001FC001E000FFFF80007FFFFF8000000007FFFFFC000000003FF8
310
0FFFFFFFFFFFFFC07FFFFFF0001FFFFFF8001FFFFFFFFC000FF8001FFFFFFFFC
310
000FFF0003FFFFFFFFFFFFE000000003F000FFFE0000000007FFF8001E000FC0
310
01E0007FFF80007FFFFE0000000007FFFFE0000000007FF80FFFFFFFFFFFFFC0
310
7FFFFFF0001FFFFFF0001FFFFFFFFC0007F0001FFFFFFFFC0007FF0003FFFFFF
310
FFFFFF0000000003F000FFF80000000007FFF8001E000FC003E0007FFF80007F
310
FFF0000000000FFFFF8000000000FFF80FFFFFFFFFFFFFC07FFFFFF0001FFFFF
310
F0001FFFFFFFFC0007F0001FFFFFFFFC0007FF0003FFFFFFFFFFFC0000000007
310
F000FFE0000000000FFFF0003E000FC003E0007FFF80007FFFC0000000001FFF
310
FE0000000001FFF80FFFFFFFFFFFFFC07FFFFFF0001FFFFFF0001FFFFFFFFC00
310
07F0001FFFFFFFFC0007FF0003FFFFFFFFFFF0000000000FF000FFC000000000
310
1FFFF0003F000F8003F0003FFF80007FFF80000000003FFFF80000000003FFF8
310
0FFFFFFFFFFFFFC07FFFFFF0001FFFFFF0001FFFFFFFFC0007F0001FFFFFFFFC
310
0007FF0003FFFFFFFFFFE0000000001FF000FF00000000007FFFF0003F000780
310
03F0003FFF80007FFF00000000007FFFF00000000007FFF80FFFFFFFFFFFFFC0
310
7FFFFFF0001FFFFFF0001FFFFFFFFC0007F0001FFFFFFFFC0007FF0003FFFFFF
310
FFFF80000000007FF000FE0000000000FFFFE0003F00078007F0003FFF80007F
310
FE0000000001FFFFE0000000001FFFF80FFFFFFFFFFFFFC07FFFFFF0001FFFFF
310
F0001FFFFFFFFC0007F0001FFFFFFFFC0007FF0003FFFFFFFFFF0000000000FF
310
F000FC0000000003FFFFE0007F00078007F0003FFF80007FFC0000000007FFFF
310
C0000000007FFFF80FFFFFFFFFFFFFC07FFFFFF0001FFFFFF8001FFFFFFFFC00
310
0FF8001FFFFFFFFC000FFF0003FFFFFFFFFE0000000003FFF000FC000000000F
310
FFFFE0007F80070007F8001FFF80007FF8000000001FFFFF8000000001FFFFF8
310
0FFFFFFFFFFFFFC07FFFFFF0001FFFFFF8001FFFFFFFFC000FF8001FFFFFFFFC
310
000FFF0003FFFFFFFFFC000000000FFFF000F8000000007FFFFFE0007F800700
310
07F8001FFF80007FF000000000FFFFFF800000000FFFFFF80FFFFFFFFFFFFFC0
310
7FFFFFF0001FFFFFF8000FFFFFFFF8000FF8000FFFFFFFF8000FFF0003FFFFFF
310
FFFC000000007FFFF000F800000007FFFFFFC0007F8003000FF8001FFF80007F
310
F000000007FFFFFF000000007FFFFFF80FFFFFFFFFFFFFC07FFFFFF0001FFFFF
310
F8000FFFFFFFF8000FF8000FFFFFFFF8000FFF0003FFFFFFFFF80000000FFFFF
310
F000F0000000FFFFFFFFC000FF8003000FF8001FFF80007FE0000000FFFFFFFF
310
0000000FFFFFFFF8000001FFFE0000007FFFFFF0001FFFFFF8000FFFFFFFF800
310
0FF8000FFFFFFFF8000FFF0003FFFFFFFFF8000000FFFFFFF000F000000FFFFF
310
FFFFC000FFC002000FF8000FFF80007FE000001FFFFFFFFE000001FFFFFFFFF8
310
000001FFFE0000007FFFFFF0001FFFFFF8000FFFFFFFF8000FF8000FFFFFFFF8
310
000FFF0003FFFFFFFFF000001FFFFFFFF000E00000FFFFFFFFFFC000FFC00200
310
0FFC000FFF80007FE00001FFFFFFFFFE00001FFFFFFFFFF8000001FFFE000000
310
7FFFFFF0001FFFFFFC000FFFFFFFF8001FFC000FFFFFFFF8001FFF0003FFFFFF
310
FFF00001FFFFFFFFF000E00007FFFFFFFFFF8000FFC000001FFC000FFF80007F
310
C0000FFFFFFFFFFE0000FFFFFFFFFFF8000001FFFE0000007FFFFFF0001FFFFF
310
FC0007FFFFFFF0001FFC0007FFFFFFF0001FFF0003FFFFFFFFF00007FFFFFFFF
310
F000E0001FFFFFFFFFFF8000FFC000001FFC000FFF80007FC0003FFFFFFFFFFE
310
0001FFFFFFFFFFF8000001FFFE0000007FFFFFF0001FFFFFFC0007FFFFFFF000
310
1FFC0007FFFFFFF0001FFF0003FFFFFFFFF0001FFFFFFFFFF000E0003FFFFF00
310
03FF8001FFE000001FFC0007FF80007FC0007FFFFF0007FC0003FFFFF0003FF8
310
000001FFFE0000007FFFFFF0001FFFFFFC0003FFFFFFE0001FFC0003FFFFFFE0
310
001FFF0003FFFFFFFFF0003FFFFFFFFFF000E0003FFFFF0001FF8001FFE00000
310
1FFE0007FF80007FC0007FFFFE0003FC0007FFFFE0003FF8000001FFFE000000
310
7FFFFFF0001FFFFFFE0003FFFFFFE0003FFE0003FFFFFFE0003FFF0003FFFFFF
310
FFF0003FFFFF8001F000E0003FFFFF0001FF0001FFE000001FFE0007FF80007F
310
C0007FFFFE0003FC0007FFFFE0003FF8000001FFFE0000007FFFFFF0001FFFFF
310
FE0001FFFFFFC0003FFE0001FFFFFFC0003FFF0003FFFFFFFFF0003FFFFF0001
310
F000E0003FFFFF0003FF0001FFE000003FFE0007FF80007FC0007FFFFE0003FC
310
0007FFFFE0003FF8000001FFFE0000007FFFFFF0001FFFFFFF0001FFFFFFC000
310
7FFF0001FFFFFFC0007FFF0003FFFFFFFFF0003FFFFF0001F000E0003FFFFE00
310
03FF0003FFF000003FFE0003FF80007FC0007FFFFC0003FE0007FFFFE0003FF8
310
000001FFFE0000007FFFFFF0001FFFFFFF0000FFFFFF80007FFF0000FFFFFF80
310
007FFF0003FFFFFFFFF0003FFFFF0001F000E0003FFFFE0003FF0003FFF00000
310
3FFF0003FF80007FC0007FFFFC0007FE0007FFFFC0003FF8000001FFFE000000
310
7FFFFFF0001FFFFFFF80007FFFFF0000FFFF80007FFFFF0000FFFF0003FFFFFF
310
FFF0003FFFFF0003F000E0003FFFFC0003FE0003FFF000003FFF0003FF80007F
310
E0003FFFF80007FE0003FFFFC0007FF8000001FFFE0000007FFFFFF0001FFFFF
310
FF80003FFFFE0000FFFF80003FFFFE0000FFFF0003FFFFFFFFF0001FFFFE0003
310
F000F0001FFFF80003FE0003FFF000007FFF0001FF80007FE0003FFFF00007FE
310
0001FFFF80007FF8000001FFFE0000007FFFFFF0001FFFFFFFC0000FFFF80001
310
FFFFC0000FFFF80001FFFF0003FFFFFFFFF0001FFFFC0003F000F0000FFFF000
310
07FE0007FFF800007FFF0001FF80007FE0001FFFE00007FF0000FFFE00007FF8
310
000001FFFE0000007FFFFFF0001FFFFFFFC00003FFE00001FFFFC00003FFE000
310
01FFFF0003FFFFFFFFF8000FFFF80003F000F00003FFC00007FC0007FFF80000
310
7FFF8001FF80007FF00007FF80000FFF00007FF80000FFF8000001FFFE000000
310
7F80000000000001FFE000003E000003FFFFE000003E000003FFFF0003FFFFFF
310
FFF80003FFE00007F000F800000000000FFC0007FFF800007FFF8001FF80007F
310
F000000000000FFF000000000000FFF8000001FFFE0000007F80000000000001
310
FFF0000000000007FFFFF0000000000007FFFF0003FFFFFFFFFC00007E000007
310
F000F800000000000FFC0007FFF80000FFFF8000FF80007FF800000000001FFF
310
800000000001FFF8000001FFFE0000007F80000000000001FFF800000000000F
310
FFFFF800000000000FFFFF0003FFFFFFFFFC00000000000FF000FC0000000000
310
1FFC0007FFFC0000FFFF8000FF80007FF800000000003FFFC00000000001FFF8
310
000001FFFE0000007F80000000000001FFF800000000000FFFFFF80000000000
310
0FFFFF0003FFFFFFFFFE00000000001FF000FE00000000003FF8000FFFFC0000
310
FFFF8000FF80007FFC00000000003FFFC00000000003FFF8000001FFFE000000
310
7F80000000000001FFFC00000000001FFFFFFC00000000001FFFFF0003FFFFFF
310
FFFF00000000001FF000FF00000000003FF8000FFFFC0000FFFFC000FF80007F
310
FE00000000007FFFE00000000007FFF8000001FFFE0000007F80000000000001
310
FFFE00000000003FFFFFFE00000000003FFFFF0003FFFFFFFFFF80000000003F
310
F000FF80000000007FF8000FFFFC0001FFFFC0007F80007FFF0000000000FFFF
310
F0000000000FFFF800000000000000007F80000000000001FFFF8000000000FF
310
FFFFFF8000000000FFFFFF0003FFFFFFFFFFC0000000007FF000FFC000000000
310
FFF8000FFFFE0001FFFFC0007F80007FFF8000000001FFFFF8000000001FFFF8
310
00000000000000007F80000000000001FFFFC000000001FFFFFFFFC000000001
310
FFFFFF0003FFFFFFFFFFE000000000FFF000FFE000000003FFF0001FFFFE0001
310
FFFFC0007F80007FFFC000000007FFFFFE000000003FFFF80000000000000000
310
7F80000000000001FFFFE000000003FFFFFFFFE000000003FFFFFF0003FFFFFF
310
FFFFF000000003FFF000FFF80000000FFFF0001FFFFE0001FFFFE0007F80007F
310
FFF00000000FFFFFFF00000000FFFFF800000000000000007F80000000000001
310
FFFFF80000000FFFFFFFFFF80000000FFFFFFF0003FFFFFFFFFFFC0000000FFF
310
F000FFFE0000003FFFF0001FFFFE0003FFFFE0003F80007FFFFC0000003FFFFF
310
FFC0000003FFFFF800000000000000007F80000000000001FFFFFE0000003FFF
310
FFFFFFFE0000003FFFFFFF0003FFFFFFFFFFFF0000003FFFF000FFFF800000FF
310
FFF0001FFFFF0003FFFFE0003F80007FFFFF000001FFFFFFFFF800001FFFFFF8
310
00000000000000007F80000000000001FFFFFFC00001FFFFFFFFFFFFC00001FF
310
FFFFFF0003FFFFFFFFFFFFC00000FFFFF000FFFFF8000FFFFFFFFFFFFFFFFFFF
310
FFFFFFFFFFFFFFFFFFFFF0001FFFFFFFFFFF0000FFFFFFF80000000000000000
310
7FFFFFFFFFFFFFFFFFFFFFFC001FFFFFFFFFFFFFFC001FFFFFFFFFFFFFFFFFFF
310
FFFFFFFC001FFFFFF000FFFFFFFFFFFFFFFFFFFFFFFFFFFFFFFFFFFFFFFFFFFF
310
FFFFFFFFFFFFFFFFFFFFFFFFFFFFFFFFFFFFFFFFFFFFFFFFFFFFFFFFFFFFFFFF
310
FFFFFFFFFFFFFFFFFFFFFFFFFFFFFFFFFFFFFFFFFFFFFFFFFFFFFFFFFFFFFFFF
310
F000FFFFFFFFFFFFFFFFFFFFFFFFFFFFFFFFFFFFFFFFFFFFFFFFFFFFFFFFFFFF
310
FFFFFFFFFFFFFFFFFFFFFFFFFFFFFFFFFFFFFFFFFFFFFFFFFFFFFFFFFFFFFFFF
310
FFFFFFFFFFFFFFFFFFFFFFFFFFFFFFFFFFFFFFFFFFFFFFFFF000FFFFFFFFFFFF
310
FFFFFFFFFFFFFFFFFFFFFFFFFFFFFFFFFFFFFFFFFFFFFFFFFFFFFFFFFFFFFFFF
310
FFFFFFFFFFFFFFFFFFFFFFFFFFFFFFFFFFFFFFFFFFFFFFFFFFFFFFFFFFFFFFFF
310
FFFFFFFFFFFFFFFFFFFFFFFFFFFFFFFFF000FFFFFFFFFFFFFFFFFFFFFFFFFFFF
310
FFFFFFFFFFFFFFFFFFFFFFFFFFFFFFFFFFFFFFFFFFFFFFFFFFFFFFFFFFFFFFFF
310
FFFFFFFFFFFFFFFFFFFFFFFFFFFFFFFFFFFFFFFFFFFFFFFFFFFFFFFFFFFFFFFF
310
FFFFFFFFFFFFFFFFF000FFFFFFFFFFFFFFFFFFFFFFFFFFFFFFFFFFFFFFFFFFFF
310
FFFFFFFFFFFFFFFFFFFFFFFFFFFFFFFFFFFFFFFFFFFFFFFFFFFFFFFFFFFFFFFF
310
FFFFFFFFFFFFFFFFFFFFFFFFFFFFFFFFFFFFFFFFFFFFFFFFFFFFFFFFFFFFFFFF
310
F000FFFFFFFFFFFFFFFFFFFFFFFFFFFFFFFFFFFFFFFFFFFFFFFFFFFFFFFFFFFF
310
FFFFFFFFFFFFFFFFFFFFFFFFFFFFFFFFFFFFFFFFFFFFFFFFFFFFFFFFFFFFFFFF
310
FFFFFFFFFFFFFFFFFFFFFFFFFFFFFFFFFFFFFFFFFFFFFFFFF000FFFFFFFFFFFF
310
FFFFFFFFFFFFFFFFFFFFFFFFFFFFFFFFFFFFFFFFFFFFFFFFFFFFFFFFFFFFFFFF
310
FFFFFFFFFFFFFFFFFFFFFFFFFFFFFFFFFFFFFFFFFFFFFFFFFFFFFFFFFFFFFFFF
310
FFFFFFFFFFFFFFFFFFFFFFFFFFFFFFFFF000FFFFFFFFFFFFFFFFFFFFFFFFFFFF
310
FFFFFFFFFFFFFFFFFFFFFFFFFFFFFFFFFFFFFFFFFFFFFFFFFFFFFFFFFFFFFFFF
310
FFFFFFFFFFFFFFFFFFFFFFFFFFFFFFFFFFFFFFFFFFFFFFFFFFFFFFFFFFFFFFFF
310
FFFFFFFFFFFFFFFFF000FFFFFFFFFFFFFFFFFFFFFFFFFFFFFFFFFFFFFFFFFFFF
310
FFFFFFFFFFFFFFFFFFFFFFFFFFFFFFFFFFFFFFFFFFFFFFFFFFFFFFFFFFFFFFFF
310
FFFFFFFFFFFFFFFFFFFFFFFFFFFFFFFFFFFFFFFFFFFFFFFFFFFFFFFFFFFFFFFF
310
F000FFFFFFFFFFFFFFFFFFFFFFFFFFFFFFFFFFFFFFFFFFFFFFFFFFFFFFFFFFFF
310
FFFFFFFFFFFFFFFFFFFFFFFFFFFFFFFFFFFFFFFFFFFFFFFFFFFFFFFFFFFFFFFF
310
FFFFFFFFFFFFFFFFFFFFFFFFFFFFFFFFFFFFFFFFFFFFFFFFF000FFFFFFFFFFFF
310
FFFFFFFFFFFFFFFFFFFFFFFFFFFFFFFFFFFFFFFFFFFFFFFFFFFFFFFFFFFFFFFF
310
FFFFFFFFFFFFFFFFFFFFFFFFFFFFFFFFFFFFFFFFFFFFFFFFFFFFFFFFFFFFFFFF
310
FFFFFFFFFFFFFFFFFFFFFFFFFFFFFFFFF000FFFFFFFFFFFFFFFFFFFFFFFFFFFF
310
FFFFFFFFFFFFFFFFFFFFFFFFFFFFFFFFFFFFFFFFFFFFFFFFFFFFFFFFFFFFFFFF
310
FFFFFFFFFFFFFFFFFFFFFFFFFFFFFFFFFFFFFFFFFFFFFFFFFFFFFFFFFFFFFFFF
310
FFFFFFFFFFFFFFFFF000FFFFFFFFFFFFFFFFFFFFFFFFFFFFFFFFFFFFFFFFFFFF
310
FFFFFFFFFFFFFFFFFFFFFFFFFFFFFFFFFFFFFFFFFFFFFFFFFFFFFFFFFFFFFFFF
310
FFFFFFFFFFFFFFFFFFFFFFFFFFFFFFFFFFFFFFFFFFFFFFFFFFFFFFFFFFFFFFFF
310
F000FFFFFFFFFFFFFFFFFFFFFFFFFFFFFFFFFFFFFFFFFFFFFFFFFFFFFFFFFFFF
310
FFFFFFFFFFFFFFFFFFFFFFFFFFFFFFFFFFFFFFFFFFFFFFFFFFFFFFFFFFFFFFFF
310
FFFFFFFFFFFFFFFFFFFFFFFFFFFFFFFFFFFFFFFFFFFFFFFFF000FFFFFFFFFFFF
310
FFFFFFFFFFFFFFFFFFFFFFFFFFFFFFFFFFFFFFFFFFFFFFFFFFFFFFFFFFFFFFFF
310
FFFFFFFFFFFFFFFFFFFFFFFFFFFFFFFFFFFFFFFFFFFFFFFFFFFFFFFFFFFFFFFF
310
FFFFFFFFFFFFFFFFFFFFFFFFFFFFFFFFF000FFFFFFFFFFFFFFFFFFFFFFFFFFFF
310
FFFFFFFFFFFFFFFFFFFFFFFFFFFFFFFFFFFFFFFFFFFFFFFFFFFFFFFFFFFFFFFF
310
FFFFFFFFFFFFFFFFFFFFFFFFFFFFFFFFFFFFFFFFFFFFFFFFFFFFFFFFFFFFFFFF
310
FFFFFFFFFFFFFFFFF000FFFFFFFFFFFFFFFFFFFFFFFFFFFFFFFFFFFFFFFFFFFF
310
FFFFFFFFFFFFFFFFFFFFFFFFFFFFFFFFFFFFFFFFFFFFFFFFFFFFFFFFFFFFFFFF
310
FFFFFFFFFFFFFFFFFFFFFFFFFFFFFFFFFFFFFFFFFFFFFFFFFFFFFFFFFFFFFFFF
310
F000FFFFFFFFFFFFFFFFFFFFFFFFFFFFFFFFFFFFFFFFFFFFFFFFFFFFFFFFFFFF
310
FFFFFFFFFFFFFFFFFFFFFFFFFFFFFFFFFFFFFFFFFFFFFFFFFFFFFFFFFFFFFFFF
310
FFFFFFFFFFFFFFFFFFFFFFFFFFFFFFFFFFFFFFFFFFFFFFFFF000FFFFFFFFFFFF
310
FFFFFFFFFFFFFFFFFFFFFFFFFFFFFFFFFFFFFFFFFFFFFFFFFFFFFFFFFFFFFFFF
310
FFFFFFFFFFFFFFFFFFFFFFFFFFFFFFFFFFFFFFFFFFFFFFFFFFFFFFFFFFFFFFFF
310
FFFFFFFFFFFFFFFFFFFFFFFFFFFFFFFFF000FFFFFFFFFFFFFFFFFFFFFFFFFFFF
310
FFFFFFFFFFFFFFFFFFFFFFFFFFFFFFFFFFFFFFFFFFFFFFFFFFFFFFFFFFFFFFFF
310
FFFFFFFFFFFFFFFFFFFFFFFFFFFFFFFFFFFFFFFFFFFFFFFFFFFFFFFFFFFFFFFF
310
FFFFFFFFFFFFFFFFF000FFFFFFFFFFFFFFFFFFFFFFFFFFFFFFFFFFFFFFFFFFFF
310
FFFFFFFFFFFFFFFFFFFFFFFFFFFFFFFFFFFFFFFFFFFFFFFFFFFFFFFFFFFFFFFF
310
FFFFFFFFFFFFFFFFFFFFFFFFFFFFFFFFFFFFFFFFFFFFFFFFFFFFFFFFFFFFFFFF
310
F000FFFFFFFFFFFFFFFFFFFFFFFFFFFFFFFFFFFFFFFFFFFFFFFFFFFFFFFFFFFF
310
FFFFFFFFFFFFFFFFFFFFFFFFFFFFFFFFFFFFFFFFFFFFFFFFFFFFFFFFFFFFFFFF
310
FFFFFFFFFFFFFFFFFFFFFFFFFFFFFFFFFFFFFFFFFFFFFFFFF000FFFFFFFFFFFF
310
FFFFFFFFFFFFFFFFFFFFFFFFFFFFFFFFFFFFFFFFFFFFFFFFFFFFFFFFFFFFFFFF
310
FFFFFFFFFFFFFFFFFFFFFFFFFFFFFFFFFFFFFFFFFFFFFFFFFFFFFFFFFFFFFFFF
310
FFFFFFFFFFFFFFFFFFFFFFFFFFFFFFFFF0000000000000000000000000000000
310
0000000000000000000000000000000000000000000000000000000000000000
310
0000000000000000000000000000000000000000000000000000000000000000
310
0000000000000000000000000000000000000000000000000000000000000000
310
0000000000000000000000000000000000000000000000000000000000000000
310
0000000000000000000000000000000000000000000000000000000000000000
310
0000000000000000000000000000000000000000000000000000000000000000
310
0000000000000000000000000000000000000000000000000000000000000000
310
0000000000000000000000000000000000000000000000000000000000000000
310
0000000000000000000000000000000000000000000000000000000000000000
310
0000000000000000000000000000000000000000000000000000000000000000
310
0000000000000000000000000000000000000000000000000000000000000000
310
0000000000000000000000000000000000000000000000000000000000000000
310
0000000000000000000000000000000000000000000000000000000000000000
310
0000000000000000000000000000000000000000000000000000000000000000
310
0000000000000000000000000000000000000000000000000000000000000000
  1
OLE
  0
ENDSEC
  0
SECTION
  2
OBJECTS
  0
DICTIONARY
  5
C
330
0
100
AcDbDictionary
281
     1
  3
ACAD_GROUP
350
D
  3
ACAD_LAYOUT
350
1A
  3
ACAD_MLINESTYLE
350
17
  3
ACAD_PLOTSETTINGS
350
19
  3
ACAD_PLOTSTYLENAME
350
E
  3
ACAD_SCALELIST
350
47
  0
DICTIONARY
  5
D
102
{ACAD_REACTORS
330
C
102
}
330
C
100
AcDbDictionary
281
     1
  0
DICTIONARY
  5
1A
102
{ACAD_REACTORS
330
C
102
}
330
C
100
AcDbDictionary
281
     1
  3
Layout1
350
1E
  3
Layout2
350
26
  3
Model
350
22
  0
DICTIONARY
  5
17
102
{ACAD_REACTORS
330
C
102
}
330
C
100
AcDbDictionary
281
     1
  3
Standard
350
18
  0
DICTIONARY
  5
19
102
{ACAD_REACTORS
330
C
102
}
330
C
100
AcDbDictionary
281
     1
  0
ACDBDICTIONARYWDFLT
  5
E
102
{ACAD_REACTORS
330
C
102
}
330
C
100
AcDbDictionary
281
     1
  3
Normal
350
F
100
AcDbDictionaryWithDefault
340
F
  0
DICTIONARY
  5
47
102
{ACAD_REACTORS
330
C
102
}
330
C
100
AcDbDictionary
281
     1
  3
A0
350
48
  3
A1
350
49
  3
A2
350
4A
  3
A3
350
4B
  3
A4
350
4C
  3
A5
350
4D
  3
A6
350
4E
  3
A7
350
4F
  3
A8
350
50
  3
A9
350
51
  3
B0
350
52
  3
B1
350
53
  3
B2
350
54
  3
B3
350
55
  3
B4
350
56
  3
B5
350
57
  3
B6
350
58
  3
B7
350
59
  3
B8
350
5A
  3
B9
350
5B
  3
C0
350
5C
  3
C1
350
5D
  3
C2
350
5E
  3
C3
350
5F
  3
C4
350
60
  3
C5
350
61
  3
C6
350
62
  3
C7
350
63
  3
C8
350
64
  3
C9
350
65
  3
D0
350
66
  3
D1
350
67
  3
D2
350
68
  0
LAYOUT
  5
1E
102
{ACAD_REACTORS
330
1A
102
}
330
1A
100
AcDbPlotSettings
  1

  2
none_device
  4

  6

 40
0.0
 41
0.0
 42
0.0
 43
0.0
 44
0.0
 45
0.0
 46
0.0
 47
0.0
 48
0.0
 49
0.0
140
0.0
141
0.0
142
1.0
143
1.0
 70
   688
 72
     1
 73
     0
 74
     5
  7

 75
    16
147
1.0
148
0.0
149
0.0
100
AcDbLayout
  1
Layout1
 70
     1
 71
     1
 10
0.0
 20
0.0
 11
420.0
 21
297.0
 12
0.0
 22
0.0
 32
0.0
 14
1.0000000000E+20
 24
1.0000000000E+20
 34
1.0000000000E+20
 15
-1.0000000000E+20
 25
-1.0000000000E+20
 35
-1.0000000000E+20
146
0.0
 13
0.0
 23
0.0
 33
0.0
 16
1.0
 26
0.0
 36
0.0
 17
0.0
 27
1.0
 37
0.0
 76
     0
330
1B
  0
LAYOUT
  5
26
102
{ACAD_REACTORS
330
1A
102
}
330
1A
100
AcDbPlotSettings
  1

  2
none_device
  4

  6

 40
0.0
 41
0.0
 42
0.0
 43
0.0
 44
0.0
 45
0.0
 46
0.0
 47
0.0
 48
0.0
 49
0.0
140
0.0
141
0.0
142
1.0
143
1.0
 70
   688
 72
     1
 73
     0
 74
     5
  7

 75
    16
147
1.0
148
0.0
149
0.0
100
AcDbLayout
  1
Layout2
 70
     1
 71
     2
 10
0.0
 20
0.0
 11
0.0
 21
0.0
 12
0.0
 22
0.0
 32
0.0
 14
0.0
 24
0.0
 34
0.0
 15
0.0
 25
0.0
 35
0.0
146
0.0
 13
0.0
 23
0.0
 33
0.0
 16
1.0
 26
0.0
 36
0.0
 17
0.0
 27
1.0
 37
0.0
 76
     0
330
23
  0
LAYOUT
  5
22
102
{ACAD_REACTORS
330
1A
102
}
330
1A
100
AcDbPlotSettings
  1

  2
none_device
  4
Letter_(8.50_x_11.00_Inches)
  6

 40
6.35
 41
6.35
 42
6.35000508
 43
6.35000508
 44
215.9
 45
279.4
 46
0.0
 47
0.0
 48
0.0
 49
0.0
140
0.0
141
0.0
142
1.0
143
1.0
 70
  1712
 72
     1
 73
     0
 74
     0
  7

 75
     0
147
1.0
148
0.0
149
0.0
100
AcDbLayout
  1
Model
 70
     1
 71
     0
 10
0.0
 20
0.0
 11
297.0
 21
210.0
 12
0.0
 22
0.0
 32
0.0
 14
0.0
 24
0.0
 34
0.0
 15
297.0
 25
210.0
 35
0.0
146
0.0
 13
0.0
 23
0.0
 33
0.0
 16
1.0
 26
0.0
 36
0.0
 17
0.0
 27
1.0
 37
0.0
 76
     0
330
1F
331
29
  0
MLINESTYLE
  5
18
102
{ACAD_REACTORS
330
17
102
}
330
17
100
AcDbMlineStyle
  2
Standard
 70
     0
  3

 62
   256
 51
90.0
 52
90.0
 71
     2
 49
0.5
 62
   256
  6
BYLAYER
 49
-0.5
 62
   256
  6
BYLAYER
  0
ACDBPLACEHOLDER
  5
F
102
{ACAD_REACTORS
330
E
102
}
330
E
  0
SCALE
  5
48
102
{ACAD_REACTORS
330
47
102
}
330
47
100
AcDbScale
 70
     0
300
1:1
140
1.0
141
1.0
290
     1
  0
SCALE
  5
49
102
{ACAD_REACTORS
330
47
102
}
330
47
100
AcDbScale
 70
     0
300
1:2
140
1.0
141
2.0
290
     0
  0
SCALE
  5
4A
102
{ACAD_REACTORS
330
47
102
}
330
47
100
AcDbScale
 70
     0
300
1:4
140
1.0
141
4.0
290
     0
  0
SCALE
  5
4B
102
{ACAD_REACTORS
330
47
102
}
330
47
100
AcDbScale
 70
     0
300
1:5
140
1.0
141
5.0
290
     0
  0
SCALE
  5
4C
102
{ACAD_REACTORS
330
47
102
}
330
47
100
AcDbScale
 70
     0
300
1:8
140
1.0
141
8.0
290
     0
  0
SCALE
  5
4D
102
{ACAD_REACTORS
330
47
102
}
330
47
100
AcDbScale
 70
     0
300
1:10
140
1.0
141
10.0
290
     0
  0
SCALE
  5
4E
102
{ACAD_REACTORS
330
47
102
}
330
47
100
AcDbScale
 70
     0
300
1:16
140
1.0
141
16.0
290
     0
  0
SCALE
  5
4F
102
{ACAD_REACTORS
330
47
102
}
330
47
100
AcDbScale
 70
     0
300
1:20
140
1.0
141
20.0
290
     0
  0
SCALE
  5
50
102
{ACAD_REACTORS
330
47
102
}
330
47
100
AcDbScale
 70
     0
300
1:30
140
1.0
141
30.0
290
     0
  0
SCALE
  5
51
102
{ACAD_REACTORS
330
47
102
}
330
47
100
AcDbScale
 70
     0
300
1:40
140
1.0
141
40.0
290
     0
  0
SCALE
  5
52
102
{ACAD_REACTORS
330
47
102
}
330
47
100
AcDbScale
 70
     0
300
1:50
140
1.0
141
50.0
290
     0
  0
SCALE
  5
53
102
{ACAD_REACTORS
330
47
102
}
330
47
100
AcDbScale
 70
     0
300
1:100
140
1.0
141
100.0
290
     0
  0
SCALE
  5
54
102
{ACAD_REACTORS
330
47
102
}
330
47
100
AcDbScale
 70
     0
300
2:1
140
2.0
141
1.0
290
     0
  0
SCALE
  5
55
102
{ACAD_REACTORS
330
47
102
}
330
47
100
AcDbScale
 70
     0
300
4:1
140
4.0
141
1.0
290
     0
  0
SCALE
  5
56
102
{ACAD_REACTORS
330
47
102
}
330
47
100
AcDbScale
 70
     0
300
8:1
140
8.0
141
1.0
290
     0
  0
SCALE
  5
57
102
{ACAD_REACTORS
330
47
102
}
330
47
100
AcDbScale
 70
     0
300
10:1
140
10.0
141
1.0
290
     0
  0
SCALE
  5
58
102
{ACAD_REACTORS
330
47
102
}
330
47
100
AcDbScale
 70
     0
300
100:1
140
100.0
141
1.0
290
     0
  0
SCALE
  5
59
102
{ACAD_REACTORS
330
47
102
}
330
47
100
AcDbScale
 70
     0
300
1/128" = 1'-0"
140
0.0078125
141
12.0
290
     0
  0
SCALE
  5
5A
102
{ACAD_REACTORS
330
47
102
}
330
47
100
AcDbScale
 70
     0
300
1/64" = 1'-0"
140
0.015625
141
12.0
290
     0
  0
SCALE
  5
5B
102
{ACAD_REACTORS
330
47
102
}
330
47
100
AcDbScale
 70
     0
300
1/32" = 1'-0"
140
0.03125
141
12.0
290
     0
  0
SCALE
  5
5C
102
{ACAD_REACTORS
330
47
102
}
330
47
100
AcDbScale
 70
     0
300
1/16" = 1'-0"
140
0.0625
141
12.0
290
     0
  0
SCALE
  5
5D
102
{ACAD_REACTORS
330
47
102
}
330
47
100
AcDbScale
 70
     0
300
3/32" = 1'-0"
140
0.09375
141
12.0
290
     0
  0
SCALE
  5
5E
102
{ACAD_REACTORS
330
47
102
}
330
47
100
AcDbScale
 70
     0
300
1/8" = 1'-0"
140
0.125
141
12.0
290
     0
  0
SCALE
  5
5F
102
{ACAD_REACTORS
330
47
102
}
330
47
100
AcDbScale
 70
     0
300
3/16" = 1'-0"
140
0.1875
141
12.0
290
     0
  0
SCALE
  5
60
102
{ACAD_REACTORS
330
47
102
}
330
47
100
AcDbScale
 70
     0
300
1/4" = 1'-0"
140
0.25
141
12.0
290
     0
  0
SCALE
  5
61
102
{ACAD_REACTORS
330
47
102
}
330
47
100
AcDbScale
 70
     0
300
3/8" = 1'-0"
140
0.375
141
12.0
290
     0
  0
SCALE
  5
62
102
{ACAD_REACTORS
330
47
102
}
330
47
100
AcDbScale
 70
     0
300
1/2" = 1'-0"
140
0.5
141
12.0
290
     0
  0
SCALE
  5
63
102
{ACAD_REACTORS
330
47
102
}
330
47
100
AcDbScale
 70
     0
300
3/4" = 1'-0"
140
0.75
141
12.0
290
     0
  0
SCALE
  5
64
102
{ACAD_REACTORS
330
47
102
}
330
47
100
AcDbScale
 70
     0
300
1" = 1'-0"
140
1.0
141
12.0
290
     0
  0
SCALE
  5
65
102
{ACAD_REACTORS
330
47
102
}
330
47
100
AcDbScale
 70
     0
300
1-1/2" = 1'-0"
140
1.5
141
12.0
290
     0
  0
SCALE
  5
66
102
{ACAD_REACTORS
330
47
102
}
330
47
100
AcDbScale
 70
     0
300
3" = 1'-0"
140
3.0
141
12.0
290
     0
  0
SCALE
  5
67
102
{ACAD_REACTORS
330
47
102
}
330
47
100
AcDbScale
 70
     0
300
6" = 1'-0"
140
6.0
141
12.0
290
     0
  0
SCALE
  5
68
102
{ACAD_REACTORS
330
47
102
}
330
47
100
AcDbScale
 70
     0
300
1'-0" = 1'-0"
140
12.0
141
12.0
290
     0
  0
ENDSEC
  0
EOF
