  0
SECTION
  2
HEADER
  9
$ACADVER
  1
AC1015
  9
$ACADMAINTVER
 70
     6
  9
$DWGCODEPAGE
  3
ANSI_1252
  9
$INSBASE
 10
0.0
 20
0.0
 30
0.0
  9
$EXTMIN
 10
0.0
 20
0.0
 30
0.0
  9
$EXTMAX
 10
297.0
 20
210.0
 30
0.0
  9
$LIMMIN
 10
0.0
 20
0.0
  9
$LIMMAX
 10
297.0
 20
210.0
  9
$ORTHOMODE
 70
     0
  9
$REGENMODE
 70
     1
  9
$FILLMODE
 70
     1
  9
$QTEXTMODE
 70
     0
  9
$MIRRTEXT
 70
     1
  9
$LTSCALE
 40
1.0
  9
$ATTMODE
 70
     1
  9
$TEXTSIZE
 40
2.0
  9
$TRACEWID
 40
1.0
  9
$TEXTSTYLE
  7
Standard
  9
$CLAYER
  8
0
  9
$CELTYPE
  6
ByLayer
  9
$CECOLOR
 62
   256
  9
$CELTSCALE
 40
1.0
  9
$DISPSILH
 70
     0
  9
$DIMSCALE
 40
1.0
  9
$DIMASZ
 40
3.0
  9
$DIMEXO
 40
0.0
  9
$DIMDLI
 40
3.75
  9
$DIMRND
 40
0.0
  9
$DIMDLE
 40
0.0
  9
$DIMEXE
 40
1.0
  9
$DIMTP
 40
0.0
  9
$DIMTM
 40
0.0
  9
$DIMTXT
 40
2.0
  9
$DIMCEN
 40
2.5
  9
$DIMTSZ
 40
0.0
  9
$DIMTOL
 70
     0
  9
$DIMLIM
 70
     0
  9
$DIMTIH
 70
     1
  9
$DIMTOH
 70
     1
  9
$DIMSE1
 70
     0
  9
$DIMSE2
 70
     0
  9
$DIMTAD
 70
     1
  9
$DIMZIN
 70
     0
  9
$DIMBLK
  1

  9
$DIMASO
 70
     1
  9
$DIMSHO
 70
     1
  9
$DIMPOST
  1

  9
$DIMAPOST
  1

  9
$DIMALT
 70
     0
  9
$DIMALTD
 70
     3
  9
$DIMALTF
 40
0.0393700787
  9
$DIMLFAC
 40
2.0
  9
$DIMTOFL
 70
     1
  9
$DIMTVP
 40
0.0
  9
$DIMTIX
 70
     0
  9
$DIMSOXD
 70
     0
  9
$DIMSAH
 70
     0
  9
$DIMBLK1
  1

  9
$DIMBLK2
  1

  9
$DIMSTYLE
  2
ISO-25
  9
$DIMCLRD
 70
     0
  9
$DIMCLRE
 70
     0
  9
$DIMCLRT
 70
     0
  9
$DIMTFAC
 40
1.0
  9
$DIMGAP
 40
1.524
  9
$DIMJUST
 70
     0
  9
$DIMSD1
 70
     0
  9
$DIMSD2
 70
     0
  9
$DIMTOLJ
 70
     0
  9
$DIMTZIN
 70
     0
  9
$DIMALTZ
 70
     0
  9
$DIMALTTZ
 70
     0
  9
$DIMUPT
 70
     0
  9
$DIMDEC
 70
     2
  9
$DIMTDEC
 70
     3
  9
$DIMALTU
 70
     2
  9
$DIMALTTD
 70
     3
  9
$DIMTXSTY
  7
Standard
  9
$DIMAUNIT
 70
     0
  9
$DIMADEC
 70
     2
  9
$DIMALTRND
 40
0.0
  9
$DIMAZIN
 70
     0
  9
$DIMDSEP
 70
    44
  9
$DIMATFIT
 70
     3
  9
$DIMFRAC
 70
     0
  9
$DIMLDRBLK
  1

  9
$DIMLUNIT
 70
     2
  9
$DIMLWD
 70
    -2
  9
$DIMLWE
 70
    -2
  9
$DIMTMOVE
 70
     0
  9
$LUNITS
 70
     2
  9
$LUPREC
 70
     2
  9
$SKETCHINC
 40
1.0
  9
$FILLETRAD
 40
10.0
  9
$AUNITS
 70
     0
  9
$AUPREC
 70
     2
  9
$MENU
  1
.
  9
$ELEVATION
 40
0.0
  9
$PELEVATION
 40
0.0
  9
$THICKNESS
 40
0.0
  9
$LIMCHECK
 70
     0
  9
$CHAMFERA
 40
0.0
  9
$CHAMFERB
 40
0.0
  9
$CHAMFERC
 40
0.0
  9
$CHAMFERD
 40
0.0
  9
$SKPOLY
 70
     0
  9
$TDCREATE
 40
2458166.405993692
  9
$TDUCREATE
 40
2458166.364327026
  9
$TDUPDATE
 40
2458166.405996782
  9
$TDUUPDATE
 40
2458166.364330116
  9
$TDINDWG
 40
0.0000000116
  9
$TDUSRTIMER
 40
0.0000000116
  9
$USRTIMER
 70
     1
  9
$ANGBASE
 50
0.0
  9
$ANGDIR
 70
     0
  9
$PDMODE
 70
     0
  9
$PDSIZE
 40
-1.0
  9
$PLINEWID
 40
0.0
  9
$SPLFRAME
 70
     0
  9
$SPLINETYPE
 70
     6
  9
$SPLINESEGS
 70
     8
  9
$HANDSEED
  5
2BE
  9
$SURFTAB1
 70
     6
  9
$SURFTAB2
 70
     6
  9
$SURFTYPE
 70
     6
  9
$SURFU
 70
     6
  9
$SURFV
 70
     6
  9
$UCSBASE
  2

  9
$UCSNAME
  2

  9
$UCSORG
 10
0.0
 20
0.0
 30
0.0
  9
$UCSXDIR
 10
1.0
 20
0.0
 30
0.0
  9
$UCSYDIR
 10
0.0
 20
1.0
 30
0.0
  9
$UCSORTHOREF
  2

  9
$UCSORTHOVIEW
 70
     0
  9
$UCSORGTOP
 10
0.0
 20
0.0
 30
0.0
  9
$UCSORGBOTTOM
 10
0.0
 20
0.0
 30
0.0
  9
$UCSORGLEFT
 10
0.0
 20
0.0
 30
0.0
  9
$UCSORGRIGHT
 10
0.0
 20
0.0
 30
0.0
  9
$UCSORGFRONT
 10
0.0
 20
0.0
 30
0.0
  9
$UCSORGBACK
 10
0.0
 20
0.0
 30
0.0
  9
$PUCSBASE
  2

  9
$PUCSNAME
  2

  9
$PUCSORG
 10
0.0
 20
0.0
 30
0.0
  9
$PUCSXDIR
 10
1.0
 20
0.0
 30
0.0
  9
$PUCSYDIR
 10
0.0
 20
1.0
 30
0.0
  9
$PUCSORTHOREF
  2

  9
$PUCSORTHOVIEW
 70
     0
  9
$PUCSORGTOP
 10
0.0
 20
0.0
 30
0.0
  9
$PUCSORGBOTTOM
 10
0.0
 20
0.0
 30
0.0
  9
$PUCSORGLEFT
 10
0.0
 20
0.0
 30
0.0
  9
$PUCSORGRIGHT
 10
0.0
 20
0.0
 30
0.0
  9
$PUCSORGFRONT
 10
0.0
 20
0.0
 30
0.0
  9
$PUCSORGBACK
 10
0.0
 20
0.0
 30
0.0
  9
$USERI1
 70
     0
  9
$USERI2
 70
     0
  9
$USERI3
 70
     0
  9
$USERI4
 70
     0
  9
$USERI5
 70
     0
  9
$USERR1
 40
0.0
  9
$USERR2
 40
0.0
  9
$USERR3
 40
0.0
  9
$USERR4
 40
0.0
  9
$USERR5
 40
0.0
  9
$WORLDVIEW
 70
     1
  9
$SHADEDGE
 70
     3
  9
$SHADEDIF
 70
    70
  9
$TILEMODE
 70
     1
  9
$MAXACTVP
 70
    64
  9
$PINSBASE
 10
0.0
 20
0.0
 30
0.0
  9
$PLIMCHECK
 70
     0
  9
$PEXTMIN
 10
1.0000000000E+20
 20
1.0000000000E+20
 30
1.0000000000E+20
  9
$PEXTMAX
 10
-1.0000000000E+20
 20
-1.0000000000E+20
 30
-1.0000000000E+20
  9
$PLIMMIN
 10
0.0
 20
0.0
  9
$PLIMMAX
 10
420.0
 20
297.0
  9
$UNITMODE
 70
     0
  9
$VISRETAIN
 70
     1
  9
$PLINEGEN
 70
     0
  9
$PSLTSCALE
 70
     1
  9
$TREEDEPTH
 70
  3020
  9
$CMLSTYLE
  2
Standard
  9
$CMLJUST
 70
     0
  9
$CMLSCALE
 40
20.0
  9
$PROXYGRAPHICS
 70
     1
  9
$MEASUREMENT
 70
     1
  9
$CELWEIGHT
370
    -1
  9
$ENDCAPS
280
     0
  9
$JOINSTYLE
280
     0
  9
$LWDISPLAY
290
     1
  9
$INSUNITS
 70
     4
  9
$HYPERLINKBASE
  1

  9
$STYLESHEET
  1

  9
$XEDIT
290
     1
  9
$CEPSNTYPE
380
     0
  9
$PSTYLEMODE
290
     1
  9
$FINGERPRINTGUID
  2
{DC258C21-879A-4EB0-B3F6-9FB3A2578F30}
  9
$VERSIONGUID
  2
{FAEB1C32-E019-11D5-929B-00C0DF256EC4}
  9
$EXTNAMES
290
     1
  9
$PSVPSCALE
 40
0.0
  9
$OLESTARTUP
290
     0
  0
ENDSEC
  0
SECTION
  2
CLASSES
  0
CLASS
  1
ACDBDICTIONARYWDFLT
  2
AcDbDictionaryWithDefault
  3
ObjectDBX Classes
 90
        0
280
     0
281
     0
  0
CLASS
  1
VISUALSTYLE
  2
AcDbVisualStyle
  3
ObjectDBX Classes
 90
     4095
280
     0
281
     0
  0
CLASS
  1
MATERIAL
  2
AcDbMaterial
  3
ObjectDBX Classes
 90
     1153
280
     0
281
     0
  0
CLASS
  1
SCALE
  2
AcDbScale
  3
ObjectDBX Classes
 90
     1153
280
     0
281
     0
  0
CLASS
  1
TABLESTYLE
  2
AcDbTableStyle
  3
ObjectDBX Classes
 90
     4095
280
     0
281
     0
  0
CLASS
  1
MLEADERSTYLE
  2
AcDbMLeaderStyle
  3
ACDB_MLEADERSTYLE_CLASS
 90
     4095
280
     0
281
     0
  0
CLASS
  1
SUN
  2
AcDbSun
  3
SCENEOE
 90
     1153
280
     0
281
     0
  0
CLASS
  1
ACDBPLACEHOLDER
  2
AcDbPlaceHolder
  3
ObjectDBX Classes
 90
        0
280
     0
281
     0
  0
CLASS
  1
LAYOUT
  2
AcDbLayout
  3
ObjectDBX Classes
 90
        0
280
     0
281
     0
  0
ENDSEC
  0
SECTION
  2
TABLES
  0
TABLE
  2
VPORT
  5
8
330
0
100
AcDbSymbolTable
 70
     1
  0
VPORT
  5
29
330
8
100
AcDbSymbolTableRecord
100
AcDbViewportTableRecord
  2
*Active
 70
     0
 10
0.0
 20
0.0
 11
1.0
 21
1.0
 12
148.5
 22
105.0
 13
0.0
 23
0.0
 14
10.0
 24
10.0
 15
10.0
 25
10.0
 16
0.0
 26
0.0
 36
1.0
 17
0.0
 27
0.0
 37
0.0
 40
210.0
 41
1.4142857143
 42
50.0
 43
0.0
 44
0.0
 50
0.0
 51
0.0
 71
     0
 72
  2000
 73
     1
 74
     3
 75
     0
 76
     0
 77
     0
 78
     0
281
     0
 65
     1
110
0.0
120
0.0
130
0.0
111
1.0
121
0.0
131
0.0
112
0.0
122
1.0
132
0.0
 79
     0
146
0.0
  0
ENDTAB
  0
TABLE
  2
LTYPE
  5
5
330
0
100
AcDbSymbolTable
 70
     6
  0
LTYPE
  5
14
330
5
100
AcDbSymbolTableRecord
100
AcDbLinetypeTableRecord
  2
ByBlock
 70
     0
  3

 72
    65
 73
     0
 40
0.0
  0
LTYPE
  5
15
330
5
100
AcDbSymbolTableRecord
100
AcDbLinetypeTableRecord
  2
ByLayer
 70
     0
  3

 72
    65
 73
     0
 40
0.0
  0
LTYPE
  5
16
330
5
100
AcDbSymbolTableRecord
100
AcDbLinetypeTableRecord
  2
Continuous
 70
     0
  3
Solid line
 72
    65
 73
     0
 40
0.0
  0
LTYPE
  5
6E
330
5
100
AcDbSymbolTableRecord
100
AcDbLinetypeTableRecord
  2
HIDDEN
 70
     0
  3
Hidden __ __ __ __ __ __ __ __ __ __ __ __ __ __
 72
    65
 73
     2
 40
1.905
 49
1.27
 74
     0
 49
-0.635
 74
     0
  0
LTYPE
  5
6F
330
5
100
AcDbSymbolTableRecord
100
AcDbLinetypeTableRecord
  2
PHANTOM
 70
     0
  3
Phantom ______  __  __  ______  __  __  ______
 72
    65
 73
     6
 40
12.7
 49
6.35
 74
     0
 49
-1.27
 74
     0
 49
1.27
 74
     0
 49
-1.27
 74
     0
 49
1.27
 74
     0
 49
-1.27
 74
     0
  0
LTYPE
  5
70
330
5
100
AcDbSymbolTableRecord
100
AcDbLinetypeTableRecord
  2
CENTER
 70
     0
  3
Center ____ _ ____ _ ____ _ ____ _ ____ _ ____
 72
    65
 73
     4
 40
10.16
 49
6.35
 74
     0
 49
-1.27
 74
     0
 49
1.27
 74
     0
 49
-1.27
 74
     0
  0
LTYPE
  5
71
330
5
100
AcDbSymbolTableRecord
100
AcDbLinetypeTableRecord
  2
CENTERX2
 70
     0
  3
Center (2x) ________  __  ________  __  _____
 72
    65
 73
     4
 40
20.32
 49
12.7
 74
     0
 49
-2.54
 74
     0
 49
2.54
 74
     0
 49
-2.54
 74
     0
  0
LTYPE
  5
72
330
5
100
AcDbSymbolTableRecord
100
AcDbLinetypeTableRecord
  2
DOT2
 70
     0
  3
Dot (.5x) ........................................
 72
    65
 73
     2
 40
0.635
 49
0.0
 74
     0
 49
-0.635
 74
     0
  0
ENDTAB
  0
TABLE
  2
LAYER
  5
2
330
0
100
AcDbSymbolTable
 70
     5
  0
LAYER
  5
10
330
2
100
AcDbSymbolTableRecord
100
AcDbLayerTableRecord
  2
0
 70
     0
 62
     7
  6
Continuous
370
    -3
390
F
  0
LAYER
  5
73
330
2
100
AcDbSymbolTableRecord
100
AcDbLayerTableRecord
  2
FORMAT
 70
     0
 62
     7
  6
Continuous
370
    -3
390
F
  0
LAYER
  5
74
330
2
100
AcDbSymbolTableRecord
100
AcDbLayerTableRecord
  2
VERMASSUNG
 70
     0
 62
     7
  6
Continuous
370
    -3
390
F
  0
LAYER
  5
75
330
2
100
AcDbSymbolTableRecord
100
AcDbLayerTableRecord
  2
KOPF_DÜNN
 70
     0
 62
     7
  6
Continuous
370
    -3
390
F
  0
LAYER
  5
76
330
2
100
AcDbSymbolTableRecord
100
AcDbLayerTableRecord
  2
KOPF_DICK
 70
     0
 62
     7
  6
Continuous
370
    25
390
F
  0
ENDTAB
  0
TABLE
  2
STYLE
  5
3
330
0
100
AcDbSymbolTable
 70
     3
  0
STYLE
  5
11
330
3
100
AcDbSymbolTableRecord
100
AcDbTextStyleTableRecord
  2
Standard
 70
     0
 40
0.0
 41
1.0
 50
0.0
 71
     0
 42
2.0
  3
txt
  4

  0
STYLE
  5
77
330
3
100
AcDbSymbolTableRecord
100
AcDbTextStyleTableRecord
  2
SLDTEXTSTYLE0
 70
     0
 40
0.0
 41
0.7
 50
0.0
 71
     0
 42
2.0
  3
TXT
  4

  0
STYLE
  5
7B
330
3
100
AcDbSymbolTableRecord
100
AcDbTextStyleTableRecord
  2
SLDTEXTSTYLE1
 70
     0
 40
0.0
 41
0.6538461538
 50
0.0
 71
     0
 42
2.0
  3
TXT
  4

  0
ENDTAB
  0
TABLE
  2
VIEW
  5
6
330
0
100
AcDbSymbolTable
 70
     0
  0
ENDTAB
  0
TABLE
  2
UCS
  5
7
330
0
100
AcDbSymbolTable
 70
     0
  0
ENDTAB
  0
TABLE
  2
APPID
  5
9
330
0
100
AcDbSymbolTable
 70
     1
  0
APPID
  5
12
330
9
100
AcDbSymbolTableRecord
100
AcDbRegAppTableRecord
  2
ACAD
 70
     0
  0
ENDTAB
  0
TABLE
  2
DIMSTYLE
  5
A
330
0
100
AcDbSymbolTable
 70
     4
100
AcDbDimStyleTable
  0
DIMSTYLE
105
27
330
A
100
AcDbSymbolTableRecord
100
AcDbDimStyleTableRecord
  2
ISO-25
 70
     0
 41
2.5
 42
0.625
 43
3.75
 44
1.25
 73
     0
 74
     0
 77
     1
 78
     8
140
2.5
141
2.5
143
0.0393700787
147
0.625
171
     3
172
     1
178
     0
271
     2
272
     2
274
     3
278
    44
283
     0
284
     8
340
11
  0
DIMSTYLE
105
1F3
102
{ACAD_REACTORS
330
1F2
102
}
330
A
100
AcDbSymbolTableRecord
100
AcDbDimStyleTableRecord
  2
SLDDIMSTYLE0
 70
     0
 41
3.0
 44
0.0
 45
0.000000001
 73
     0
 74
     0
 76
     1
 77
     1
 78
    12
 79
     3
140
2.0
147
0.5
173
     1
178
     0
271
     2
272
     3
276
     2
282
     1
284
    12
340
77
  0
DIMSTYLE
105
1FD
102
{ACAD_REACTORS
330
1FC
330
216
330
220
330
22A
102
}
330
A
100
AcDbSymbolTableRecord
100
AcDbDimStyleTableRecord
  2
SLDDIMSTYLE1
 70
     0
 41
3.0
 44
0.0
 45
0.000000001
 73
     0
 74
     0
 77
     1
 78
    12
 79
     3
140
2.0
147
0.5
173
     1
178
     0
271
     2
272
     3
276
     2
284
    12
340
77
  0
DIMSTYLE
105
209
102
{ACAD_REACTORS
330
208
102
}
330
A
100
AcDbSymbolTableRecord
100
AcDbDimStyleTableRecord
  2
SLDDIMSTYLE2
 70
     0
 41
3.0
 44
0.0
 45
0.000000001
 73
     0
 74
     0
 77
     1
 78
    12
 79
     3
140
2.0
147
0.5
173
     1
178
     0
271
     1
272
     3
276
     2
284
    12
340
77
  0
ENDTAB
  0
TABLE
  2
BLOCK_RECORD
  5
1
330
0
100
AcDbSymbolTable
 70
     7
  0
BLOCK_RECORD
  5
1F
330
1
100
AcDbSymbolTableRecord
100
AcDbBlockTableRecord
  2
*Model_Space
340
22
  0
BLOCK_RECORD
  5
1B
330
1
100
AcDbSymbolTableRecord
100
AcDbBlockTableRecord
  2
*Paper_Space
340
1E
  0
BLOCK_RECORD
  5
23
330
1
100
AcDbSymbolTableRecord
100
AcDbBlockTableRecord
  2
*Paper_Space0
340
26
  0
BLOCK_RECORD
  5
1F4
330
1
100
AcDbSymbolTableRecord
100
AcDbBlockTableRecord
  2
_D
340
0
  0
BLOCK_RECORD
  5
1FE
330
1
100
AcDbSymbolTableRecord
100
AcDbBlockTableRecord
  2
_D_1
340
0
  0
BLOCK_RECORD
  5
20A
330
1
100
AcDbSymbolTableRecord
100
AcDbBlockTableRecord
  2
_D_2
340
0
  0
BLOCK_RECORD
  5
217
330
1
100
AcDbSymbolTableRecord
100
AcDbBlockTableRecord
  2
_D_3
340
0
  0
BLOCK_RECORD
  5
221
330
1
100
AcDbSymbolTableRecord
100
AcDbBlockTableRecord
  2
_D_4
340
0
  0
BLOCK_RECORD
  5
22B
330
1
100
AcDbSymbolTableRecord
100
AcDbBlockTableRecord
  2
_D_5
340
0
  0
ENDTAB
  0
ENDSEC
  0
SECTION
  2
BLOCKS
  0
BLOCK
  5
20
330
1F
100
AcDbEntity
  8
0
100
AcDbBlockBegin
  2
*Model_Space
 70
     0
 10
0.0
 20
0.0
 30
0.0
  3
*Model_Space
  1

  0
ENDBLK
  5
21
330
1F
100
AcDbEntity
  8
0
100
AcDbBlockEnd
  0
BLOCK
  5
1C
330
1B
100
AcDbEntity
 67
     1
  8
0
100
AcDbBlockBegin
  2
*Paper_Space
 70
     0
 10
0.0
 20
0.0
 30
0.0
  3
*Paper_Space
  1

  0
ENDBLK
  5
1D
330
1B
100
AcDbEntity
 67
     1
  8
0
100
AcDbBlockEnd
  0
BLOCK
  5
24
330
23
100
AcDbEntity
  8
0
100
AcDbBlockBegin
  2
*Paper_Space0
 70
     0
 10
0.0
 20
0.0
 30
0.0
  3
*Paper_Space0
  1

  0
ENDBLK
  5
25
330
23
100
AcDbEntity
  8
0
100
AcDbBlockEnd
  0
BLOCK
  5
1F5
330
1F4
100
AcDbEntity
  8
0
100
AcDbBlockBegin
  2
_D
 70
     0
 10
0.0
 20
0.0
 30
0.0
  3
_D
  1

  0
SOLID
  5
1F7
330
1F4
100
AcDbEntity
  8
VERMASSUNG
100
AcDbTrace
 10
242.2205431509
 20
116.917861374
 30
0.0
 11
241.7705431509
 21
113.917861374
 31
0.0
 12
242.6705431509
 22
113.917861374
 32
0.0
 13
242.6705431509
 23
113.917861374
 33
0.0
  0
LINE
  5
1F8
330
1F4
100
AcDbEntity
  8
VERMASSUNG
100
AcDbLine
 10
199.3205431509
 20
116.917861374
 30
0.0
 11
243.2205431509
 21
116.917861374
 31
0.0
  0
LINE
  5
1F9
330
1F4
100
AcDbEntity
  8
VERMASSUNG
100
AcDbLine
 10
242.2205431509
 20
116.917861374
 30
0.0
 11
242.2205431509
 21
110.4128613918
 31
0.0
  0
MTEXT
  5
1FA
330
1F4
100
AcDbEntity
  8
VERMASSUNG
100
AcDbMText
 10
239.642407846
 20
110.4128613918
 30
0.0
 40
2.0
 41
0.0
 71
     1
 72
     1
  1
%%c
  7
SLDTEXTSTYLE0
 11
-7.044195017643634E-15
 21
1.0
 31
0.0
 73
     1
 44
1.0
  0
MTEXT
  5
1FB
330
1F4
100
AcDbEntity
  8
VERMASSUNG
100
AcDbMText
 10
239.4424078947
 20
114.0228614061
 30
0.0
 40
2.0
 41
0.0
 71
     1
 72
     1
  1
8
  7
SLDTEXTSTYLE0
 11
-7.044195017643634E-15
 21
1.0
 31
0.0
 73
     1
 44
1.0
  0
ENDBLK
  5
1F6
330
1F4
100
AcDbEntity
  8
0
100
AcDbBlockEnd
  0
BLOCK
  5
1FF
330
1FE
100
AcDbEntity
  8
0
100
AcDbBlockBegin
  2
_D_1
 70
     0
 10
0.0
 20
0.0
 30
0.0
  3
_D_1
  1

  0
SOLID
  5
201
330
1FE
100
AcDbEntity
  8
VERMASSUNG
100
AcDbTrace
 10
254.2205431509
 20
126.917861374
 30
0.0
 11
253.7705431509
 21
123.917861374
 31
0.0
 12
254.6705431509
 22
123.917861374
 32
0.0
 13
254.6705431509
 23
123.917861374
 33
0.0
  0
SOLID
  5
202
330
1FE
100
AcDbEntity
  8
VERMASSUNG
100
AcDbTrace
 10
254.2205431509
 20
98.917861374
 30
0.0
 11
254.6705431509
 21
101.917861374
 31
0.0
 12
253.7705431509
 22
101.917861374
 32
0.0
 13
253.7705431509
 23
101.917861374
 33
0.0
  0
LINE
  5
203
330
1FE
100
AcDbEntity
  8
VERMASSUNG
100
AcDbLine
 10
211.6425154688
 20
126.917861374
 30
0.0
 11
255.2205431509
 21
126.917861374
 31
0.0
  0
LINE
  5
204
330
1FE
100
AcDbEntity
  8
VERMASSUNG
100
AcDbLine
 10
211.6425154688
 20
98.917861374
 30
0.0
 11
255.2205431509
 21
98.917861374
 31
0.0
  0
LINE
  5
205
330
1FE
100
AcDbEntity
  8
VERMASSUNG
100
AcDbLine
 10
254.2205431509
 20
126.917861374
 30
0.0
 11
254.2205431509
 21
98.917861374
 31
0.0
  0
MTEXT
  5
206
330
1FE
100
AcDbEntity
  8
VERMASSUNG
100
AcDbMText
 10
251.642407846
 20
109.7128614167
 30
0.0
 40
2.0
 41
0.0
 71
     1
 72
     1
  1
%%c
  7
SLDTEXTSTYLE0
 11
-7.044195017643634E-15
 21
1.0
 31
0.0
 73
     1
 44
1.0
  0
MTEXT
  5
207
330
1FE
100
AcDbEntity
  8
VERMASSUNG
100
AcDbMText
 10
251.4424078947
 20
113.322861431
 30
0.0
 40
2.0
 41
0.0
 71
     1
 72
     1
  1
28
  7
SLDTEXTSTYLE0
 11
-7.044195017643634E-15
 21
1.0
 31
0.0
 73
     1
 44
1.0
  0
ENDBLK
  5
200
330
1FE
100
AcDbEntity
  8
0
100
AcDbBlockEnd
  0
BLOCK
  5
20B
330
20A
100
AcDbEntity
  8
0
100
AcDbBlockBegin
  2
_D_2
 70
     0
 10
0.0
 20
0.0
 30
0.0
  3
_D_2
  1

  0
SOLID
  5
20D
330
20A
100
AcDbEntity
  8
VERMASSUNG
100
AcDbTrace
 10
58.2705181509
 20
144.392861374
 30
0.0
 11
57.8205181509
 21
141.392861374
 31
0.0
 12
58.7205181509
 22
141.392861374
 32
0.0
 13
58.7205181509
 23
141.392861374
 33
0.0
  0
SOLID
  5
20E
330
20A
100
AcDbEntity
  8
VERMASSUNG
100
AcDbTrace
 10
58.2705181509
 20
81.442861374
 30
0.0
 11
58.7205181509
 21
84.442861374
 31
0.0
 12
57.8205181509
 22
84.442861374
 32
0.0
 13
57.8205181509
 23
84.442861374
 33
0.0
  0
LINE
  5
20F
330
20A
100
AcDbEntity
  8
VERMASSUNG
100
AcDbLine
 10
120.4205431509
 20
144.392861374
 30
0.0
 11
57.2705181509
 21
144.392861374
 31
0.0
  0
LINE
  5
210
330
20A
100
AcDbEntity
  8
VERMASSUNG
100
AcDbLine
 10
120.4205431509
 20
81.442861374
 30
0.0
 11
57.2705181509
 21
81.442861374
 31
0.0
  0
LINE
  5
211
330
20A
100
AcDbEntity
  8
VERMASSUNG
100
AcDbLine
 10
58.2705181509
 20
144.392861374
 30
0.0
 11
58.2705181509
 21
81.442861374
 31
0.0
  0
MTEXT
  5
212
330
20A
100
AcDbEntity
  8
VERMASSUNG
100
AcDbMText
 10
55.4923828947
 20
104.8128627556
 30
0.0
 40
2.0
 41
0.0
 71
     1
 72
     1
  1
KM
  7
SLDTEXTSTYLE0
 11
-7.044195017643634E-15
 21
1.0
 31
0.0
 73
     1
 44
1.0
  0
MTEXT
  5
213
330
20A
100
AcDbEntity
  8
VERMASSUNG
100
AcDbMText
 10
55.692382846
 20
108.2128625678
 30
0.0
 40
2.0
 41
0.0
 71
     1
 72
     1
  1
%%c
  7
SLDTEXTSTYLE0
 11
-7.044195017643634E-15
 21
1.0
 31
0.0
 73
     1
 44
1.0
  0
MTEXT
  5
214
330
20A
100
AcDbEntity
  8
VERMASSUNG
100
AcDbMText
 10
55.4923828947
 20
111.8228625821
 30
0.0
 40
2.0
 41
0.0
 71
     1
 72
     1
  1
63
  7
SLDTEXTSTYLE0
 11
-7.044195017643634E-15
 21
1.0
 31
0.0
 73
     1
 44
1.0
  0
MTEXT
  5
215
330
20A
100
AcDbEntity
  8
VERMASSUNG
100
AcDbMText
 10
55.4923828947
 20
115.8103624823
 30
0.0
 40
2.0
 41
0.0
 71
     1
 72
     1
  1
XMZ
  7
SLDTEXTSTYLE0
 11
-7.044195017643634E-15
 21
1.0
 31
0.0
 73
     1
 44
1.0
  0
ENDBLK
  5
20C
330
20A
100
AcDbEntity
  8
0
100
AcDbBlockEnd
  0
BLOCK
  5
218
330
217
100
AcDbEntity
  8
0
100
AcDbBlockBegin
  2
_D_3
 70
     0
 10
0.0
 20
0.0
 30
0.0
  3
_D_3
  1

  0
SOLID
  5
21A
330
217
100
AcDbEntity
  8
VERMASSUNG
100
AcDbTrace
 10
138.2205431509
 20
151.580306476
 30
0.0
 11
141.2205431509
 21
151.130306476
 31
0.0
 12
141.2205431509
 22
152.030306476
 32
0.0
 13
141.2205431509
 23
152.030306476
 33
0.0
  0
SOLID
  5
21B
330
217
100
AcDbEntity
  8
VERMASSUNG
100
AcDbTrace
 10
220.2205431509
 20
151.580306476
 30
0.0
 11
217.2205431509
 21
152.030306476
 31
0.0
 12
217.2205431509
 22
151.130306476
 32
0.0
 13
217.2205431509
 23
151.130306476
 33
0.0
  0
LINE
  5
21C
330
217
100
AcDbEntity
  8
VERMASSUNG
100
AcDbLine
 10
138.2205431509
 20
144.392861374
 30
0.0
 11
138.2205431509
 21
152.580306476
 31
0.0
  0
LINE
  5
21D
330
217
100
AcDbEntity
  8
VERMASSUNG
100
AcDbLine
 10
220.2205431509
 20
121.6437208523
 30
0.0
 11
220.2205431509
 21
152.580306476
 31
0.0
  0
LINE
  5
21E
330
217
100
AcDbEntity
  8
VERMASSUNG
100
AcDbLine
 10
138.2205431509
 20
151.580306476
 30
0.0
 11
220.2205431509
 21
151.580306476
 31
0.0
  0
MTEXT
  5
21F
330
217
100
AcDbEntity
  8
VERMASSUNG
100
AcDbMText
 10
177.8205432008
 20
154.1584420719
 30
0.0
 40
2.0
 41
0.0
 71
     1
 72
     1
  1
82
  7
SLDTEXTSTYLE0
 73
     1
 44
1.0
  0
ENDBLK
  5
219
330
217
100
AcDbEntity
  8
0
100
AcDbBlockEnd
  0
BLOCK
  5
222
330
221
100
AcDbEntity
  8
0
100
AcDbBlockBegin
  2
_D_4
 70
     0
 10
0.0
 20
0.0
 30
0.0
  3
_D_4
  1

  0
SOLID
  5
224
330
221
100
AcDbEntity
  8
VERMASSUNG
100
AcDbTrace
 10
120.2205431509
 20
160.392861374
 30
0.0
 11
123.2205431509
 21
159.942861374
 31
0.0
 12
123.2205431509
 22
160.842861374
 32
0.0
 13
123.2205431509
 23
160.842861374
 33
0.0
  0
SOLID
  5
225
330
221
100
AcDbEntity
  8
VERMASSUNG
100
AcDbTrace
 10
220.2205431509
 20
160.392861374
 30
0.0
 11
217.2205431509
 21
160.842861374
 31
0.0
 12
217.2205431509
 22
159.942861374
 32
0.0
 13
217.2205431509
 23
159.942861374
 33
0.0
  0
LINE
  5
226
330
221
100
AcDbEntity
  8
VERMASSUNG
100
AcDbLine
 10
120.2205431509
 20
144.192861374
 30
0.0
 11
120.2205431509
 21
161.392861374
 31
0.0
  0
LINE
  5
227
330
221
100
AcDbEntity
  8
VERMASSUNG
100
AcDbLine
 10
220.2205431509
 20
121.6437208523
 30
0.0
 11
220.2205431509
 21
161.392861374
 31
0.0
  0
LINE
  5
228
330
221
100
AcDbEntity
  8
VERMASSUNG
100
AcDbLine
 10
120.2205431509
 20
160.392861374
 30
0.0
 11
220.2205431509
 21
160.392861374
 31
0.0
  0
MTEXT
  5
229
330
221
100
AcDbEntity
  8
VERMASSUNG
100
AcDbMText
 10
168.3205431188
 20
162.9709969699
 30
0.0
 40
2.0
 41
0.0
 71
     1
 72
     1
  1
100
  7
SLDTEXTSTYLE0
 73
     1
 44
1.0
  0
ENDBLK
  5
223
330
221
100
AcDbEntity
  8
0
100
AcDbBlockEnd
  0
BLOCK
  5
22C
330
22B
100
AcDbEntity
  8
0
100
AcDbBlockBegin
  2
_D_5
 70
     0
 10
0.0
 20
0.0
 30
0.0
  3
_D_5
  1

  0
SOLID
  5
22E
330
22B
100
AcDbEntity
  8
VERMASSUNG
100
AcDbTrace
 10
80.2705431509
 20
168.1937945574
 30
0.0
 11
83.2705431509
 21
167.7437945574
 31
0.0
 12
83.2705431509
 22
168.6437945574
 32
0.0
 13
83.2705431509
 23
168.6437945574
 33
0.0
  0
SOLID
  5
22F
330
22B
100
AcDbEntity
  8
VERMASSUNG
100
AcDbTrace
 10
220.2205431509
 20
168.1937945574
 30
0.0
 11
217.2205431509
 21
168.6437945574
 31
0.0
 12
217.2205431509
 22
167.7437945574
 32
0.0
 13
217.2205431509
 23
167.7437945574
 33
0.0
  0
LINE
  5
230
330
22B
100
AcDbEntity
  8
VERMASSUNG
100
AcDbLine
 10
80.2705431509
 20
135.1209560978
 30
0.0
 11
80.2705431509
 21
169.1937945574
 31
0.0
  0
LINE
  5
231
330
22B
100
AcDbEntity
  8
VERMASSUNG
100
AcDbLine
 10
220.2205431509
 20
121.6437208523
 30
0.0
 11
220.2205431509
 21
169.1937945574
 31
0.0
  0
LINE
  5
232
330
22B
100
AcDbEntity
  8
VERMASSUNG
100
AcDbLine
 10
80.2705431509
 20
168.1937945574
 30
0.0
 11
220.2205431509
 21
168.1937945574
 31
0.0
  0
MTEXT
  5
233
330
22B
100
AcDbEntity
  8
VERMASSUNG
100
AcDbMText
 10
146.6455432127
 20
170.7719301533
 30
0.0
 40
2.0
 41
0.0
 71
     1
 72
     1
  1
139.95
  7
SLDTEXTSTYLE0
 73
     1
 44
1.0
  0
ENDBLK
  5
22D
330
22B
100
AcDbEntity
  8
0
100
AcDbBlockEnd
  0
ENDSEC
  0
SECTION
  2
ENTITIES
  0
MTEXT
  5
78
330
1F
100
AcDbEntity
  8
KOPF_DÜNN
100
AcDbMText
 10
13.8892156294
 20
23.8442973028
 30
0.0
 40
3.0
 41
0.0
 71
     1
 72
     1
  1
KY6.W08.K01.100
  7
SLDTEXTSTYLE0
 73
     1
 44
1.0
  0
MTEXT
  5
79
330
1F
100
AcDbEntity
  8
VERMASSUNG
100
AcDbMText
 10
13.9329988022
 20
28.8834360957
 30
0.0
 40
3.0
 41
0.0
 71
     1
 72
     1
  1
Flächenspannfutter Weldon_End mill adapter Weldon
  7
SLDTEXTSTYLE0
 73
     1
 44
1.0
  0
MTEXT
  5
7A
330
1F
100
AcDbEntity
  8
VERMASSUNG
100
AcDbMText
 10
98.8601118557
 20
13.8365368761
 30
0.0
 40
2.0
 41
0.0
 71
     1
 72
     1
  1
Datum: 16.02.2018
  7
SLDTEXTSTYLE0
 73
     1
 44
1.0
  0
MTEXT
  5
7C
330
1F
100
AcDbEntity
  8
VERMASSUNG
100
AcDbMText
 10
13.933048693
 20
18.0482802738
 30
0.0
 40
2.0
 41
0.0
 71
     1
 72
     1
  1
KM63 XMZ / Ø8
  7
SLDTEXTSTYLE1
 73
     1
 44
1.0
  0
MTEXT
  5
7D
330
1F
100
AcDbEntity
  8
VERMASSUNG
100
AcDbMText
 10
13.9808475933
 20
13.9090974274
 30
0.0
 40
2.0
 41
0.0
 71
     1
 72
     1
  1
Gewicht: 983g
  7
SLDTEXTSTYLE0
 73
     1
 44
1.0
  0
SPLINE
  5
7E
330
1F
100
AcDbEntity
  8
0
  6
Continuous
 62
     7
370
    25
100
AcDbSpline
210
0.0
220
0.0
230
1.0
 70
     8
 71
     3
 72
     8
 73
     4
 74
     0
 42
0.000000001
 43
0.00000001
 40
0.0
 40
0.0
 40
0.0
 40
0.0
 40
1.0
 40
1.0
 40
1.0
 40
1.0
 10
376.9408999517967
 20
108.5478605019971
 30
0.0
 10
376.8720615816099
 20
108.4847658286783
 30
0.0
 10
376.8036302211538
 20
108.4210434505474
 30
0.0
 10
376.7356139464891
 20
108.356698018274
 30
0.0
  0
SPLINE
  5
7F
330
1F
100
AcDbEntity
  8
0
  6
Continuous
 62
     7
370
    25
100
AcDbSpline
210
0.0
220
0.0
230
1.0
 70
     8
 71
     3
 72
     8
 73
     4
 74
     0
 42
0.000000001
 43
0.00000001
 40
0.0
 40
0.0
 40
0.0
 40
0.0
 40
1.0
 40
1.0
 40
1.0
 40
1.0
 10
377.1989271930574
 20
108.3785986720698
 30
0.0
 10
377.112223758897
 20
108.4347595917391
 30
0.0
 10
377.0262257114131
 20
108.4911843280649
 30
0.0
 10
376.9408999517967
 20
108.5478605019971
 30
0.0
  0
ARC
  5
80
330
1F
100
AcDbEntity
  8
0
  6
Continuous
 62
     7
370
    25
100
AcDbCircle
 10
387.3300400614
 20
112.917861374
 30
0.0
 40
11.10154736189896
100
AcDbArc
 50
204.1348482805
 51
335.8651517195
  0
SPLINE
  5
81
330
1F
100
AcDbEntity
  8
0
  6
Continuous
 62
     7
370
    25
100
AcDbSpline
210
0.0
220
0.0
230
1.0
 70
     8
 71
     3
 72
     8
 73
     4
 74
     0
 42
0.000000001
 43
0.00000001
 40
0.0
 40
0.0
 40
0.0
 40
0.0
 40
1.0
 40
1.0
 40
1.0
 40
1.0
 10
397.7191801710625
 20
108.5478605019971
 30
0.0
 10
397.633854411446
 20
108.4911843280649
 30
0.0
 10
397.5478563639622
 20
108.4347595917391
 30
0.0
 10
397.4611529298017
 20
108.3785986720698
 30
0.0
  0
SPLINE
  5
82
330
1F
100
AcDbEntity
  8
0
  6
Continuous
 62
     7
370
    25
100
AcDbSpline
210
0.0
220
0.0
230
1.0
 70
     8
 71
     3
 72
     8
 73
     4
 74
     0
 42
0.000000001
 43
0.00000001
 40
0.0
 40
0.0
 40
0.0
 40
0.0
 40
1.0
 40
1.0
 40
1.0
 40
1.0
 10
397.92446617637
 20
108.356698018274
 30
0.0
 10
397.8564499017053
 20
108.4210434505474
 30
0.0
 10
397.7880185412492
 20
108.4847658286783
 30
0.0
 10
397.7191801710625
 20
108.5478605019971
 30
0.0
  0
ARC
  5
83
330
1F
100
AcDbEntity
  8
0
  6
Continuous
 62
     7
370
    25
100
AcDbCircle
 10
387.3300400614
 20
112.917861374
 30
0.0
 40
11.53456006379122
100
AcDbArc
 50
203.2930774359
 51
336.7074733161
  0
ARC
  5
84
330
1F
100
AcDbEntity
  8
0
  6
Continuous
 62
     7
370
    25
100
AcDbCircle
 10
387.3300400614
 20
112.917861374
 30
0.0
 40
11.10154736189899
100
AcDbArc
 50
29.4783538465
 51
150.5216461535
  0
SPLINE
  5
85
330
1F
100
AcDbEntity
  8
0
  6
Continuous
 62
     7
370
    25
100
AcDbSpline
210
0.0
220
0.0
230
1.0
 70
     8
 71
     3
 72
     8
 73
     4
 74
     0
 42
0.000000001
 43
0.00000001
 40
0.0
 40
0.0
 40
0.0
 40
0.0
 40
1.0
 40
1.0
 40
1.0
 40
1.0
 10
377.3541070121051
 20
118.1961606233512
 30
0.0
 10
377.457002925929
 20
118.2581292324422
 30
0.0
 10
377.560842595484
 20
118.3197078845827
 30
0.0
 10
377.6656804837105
 20
118.3808740758542
 30
0.0
  0
SPLINE
  5
86
330
1F
100
AcDbEntity
  8
0
  6
Continuous
 62
     7
370
    25
100
AcDbSpline
210
0.0
220
0.0
230
1.0
 70
     8
 71
     3
 72
     8
 73
     4
 74
     0
 42
0.000000001
 43
0.00000001
 40
0.0
 40
0.0
 40
0.0
 40
0.0
 40
1.0
 40
1.0
 40
1.0
 40
1.0
 10
377.1655706309913
 20
118.3703504442208
 30
0.0
 10
377.2281389393609
 20
118.3118999751132
 30
0.0
 10
377.2909855327247
 20
118.2538359645801
 30
0.0
 10
377.3541070121076
 20
118.196160623349
 30
0.0
  0
ARC
  5
87
330
1F
100
AcDbEntity
  8
0
  6
Continuous
 62
     7
370
    25
100
AcDbCircle
 10
387.3300400614
 20
112.917861374
 30
0.0
 40
11.53456006379119
100
AcDbArc
 50
28.2102805322
 51
151.7902347364
  0
SPLINE
  5
88
330
1F
100
AcDbEntity
  8
0
  6
Continuous
 62
     7
370
    25
100
AcDbSpline
210
0.0
220
0.0
230
1.0
 70
     8
 71
     3
 72
     8
 73
     4
 74
     0
 42
0.000000001
 43
0.00000001
 40
0.0
 40
0.0
 40
0.0
 40
0.0
 40
1.0
 40
1.0
 40
1.0
 40
1.0
 10
397.3059731107519
 20
118.1961606233493
 30
0.0
 10
397.3690945901346
 20
118.2538359645804
 30
0.0
 10
397.4319411834983
 20
118.3118999751134
 30
0.0
 10
397.4945094918679
 20
118.3703504442208
 30
0.0
  0
SPLINE
  5
89
330
1F
100
AcDbEntity
  8
0
  6
Continuous
 62
     7
370
    25
100
AcDbSpline
210
0.0
220
0.0
230
1.0
 70
     8
 71
     3
 72
     8
 73
     4
 74
     0
 42
0.000000001
 43
0.00000001
 40
0.0
 40
0.0
 40
0.0
 40
0.0
 40
1.0
 40
1.0
 40
1.0
 40
1.0
 10
396.9943996391486
 20
118.3808740758542
 30
0.0
 10
397.0992375273748
 20
118.319707884583
 30
0.0
 10
397.2030771969293
 20
118.2581292324426
 30
0.0
 10
397.3059731107529
 20
118.1961606233519
 30
0.0
  0
LINE
  5
8A
330
1F
100
AcDbEntity
  8
0
  6
Continuous
 62
     7
370
    25
100
AcDbLine
 10
377.3541070121
 20
118.1961606234
 30
0.0
 11
377.5625153336
 21
117.947861374
 31
0.0
  0
LINE
  5
8B
330
1F
100
AcDbEntity
  8
0
  6
Continuous
 62
     7
370
    25
100
AcDbLine
 10
378.812728644
 20
118.3808740759
 30
0.0
 11
377.6656804837
 21
118.3808740759
 31
0.0
  0
SPLINE
  5
8C
330
1F
100
AcDbEntity
  8
0
  6
Continuous
 62
     7
370
    25
100
AcDbSpline
210
0.0
220
0.0
230
1.0
 70
     8
 71
     3
 72
     8
 73
     4
 74
     0
 42
0.000000001
 43
0.00000001
 40
0.0000004089325119
 40
0.0000004089325119
 40
0.0000004089325119
 40
0.0000004089325119
 40
0.0015399868451459
 40
0.0015399868451459
 40
0.0015399868451459
 40
0.0015399868451459
 10
378.8127286440007
 20
118.3808740758542
 30
0.0
 10
379.0244899027952
 20
118.3084191932008
 30
0.0
 10
379.2364102259853
 20
118.2360803231723
 30
0.0
 10
379.4485282091996
 20
118.1638867777465
 30
0.0
  0
LINE
  5
8D
330
1F
100
AcDbEntity
  8
0
  6
Continuous
 62
     7
370
    25
100
AcDbLine
 10
379.4485282092
 20
118.1638867777
 30
0.0
 11
379.4566810152
 21
118.1486743635
 31
0.0
  0
LINE
  5
8E
330
1F
100
AcDbEntity
  8
0
  6
Continuous
 62
     7
370
    25
100
AcDbLine
 10
379.4543105279
 20
117.9478615434
 30
0.0
 11
379.456682013
 21
118.1486744973
 31
0.0
  0
LINE
  5
8F
330
1F
100
AcDbEntity
  8
0
  6
Continuous
 62
     7
370
    25
100
AcDbLine
 10
379.4543105279
 20
117.947861374
 30
0.0
 11
377.5625153336
 21
117.947861374
 31
0.0
  0
SPLINE
  5
90
330
1F
100
AcDbEntity
  8
0
  6
Continuous
 62
     7
370
    25
100
AcDbSpline
210
0.0
220
0.0
230
1.0
 70
     8
 71
     3
 72
     8
 73
     4
 74
     0
 42
0.000000001
 43
0.00000001
 40
0.0000004028655191
 40
0.0000004028655191
 40
0.0000004028655191
 40
0.0000004028655191
 40
0.0015137684369673
 40
0.0015137684369673
 40
0.0015137684369673
 40
0.0015137684369673
 10
378.9064454042875
 20
108.5955859701776
 30
0.0
 10
378.6997739167362
 20
108.5232920284629
 30
0.0
 10
378.4931549481956
 20
108.4509605425061
 30
0.0
 10
378.2865785733869
 20
108.3785986720698
 30
0.0
  0
LINE
  5
91
330
1F
100
AcDbEntity
  8
0
  6
Continuous
 62
     7
370
    25
100
AcDbLine
 10
378.2865785734
 20
108.3785986721
 30
0.0
 11
377.1989271931
 21
108.3785986721
 31
0.0
  0
LINE
  5
92
330
1F
100
AcDbEntity
  8
0
  6
Continuous
 62
     7
370
    25
100
AcDbLine
 10
377.1639550587
 20
108.811611374
 30
0.0
 11
376.9408999518
 21
108.547860502
 31
0.0
  0
LINE
  5
93
330
1F
100
AcDbEntity
  8
0
  6
Continuous
 62
     7
370
    25
100
AcDbLine
 10
378.931564886
 20
108.811611374
 30
0.0
 11
377.1641695161
 21
108.811611374
 31
0.0
  0
LINE
  5
94
330
1F
100
AcDbEntity
  8
0
  6
Continuous
 62
     7
370
    25
100
AcDbLine
 10
378.9422222361
 20
108.6540303389
 30
0.0
 11
378.9315648894
 21
108.8116112983
 31
0.0
  0
SPLINE
  5
95
330
1F
100
AcDbEntity
  8
0
  6
Continuous
 62
     7
370
    25
100
AcDbSpline
210
0.0
220
0.0
230
1.0
 70
     8
 71
     3
 72
     8
 73
     4
 74
     0
 42
0.000000001
 43
0.00000001
 40
0.0006523765358269
 40
0.0006523765358269
 40
0.0006523765358269
 40
0.0006523765358269
 40
0.0009043636494504
 40
0.0009043636494504
 40
0.0009043636494504
 40
0.0009043636494504
 10
378.9433222793224
 20
108.6558240676262
 30
0.0
 10
378.9310052848049
 20
108.635748486644
 30
0.0
 10
378.9187130874009
 20
108.6156690981216
 30
0.0
 10
378.9064454042875
 20
108.5955859701776
 30
0.0
  0
LINE
  5
96
330
1F
100
AcDbEntity
  8
0
  6
Continuous
 62
     7
370
    25
100
AcDbLine
 10
397.7191801711
 20
108.547860502
 30
0.0
 11
397.4961250642
 21
108.811611374
 31
0.0
  0
LINE
  5
97
330
1F
100
AcDbEntity
  8
0
  6
Continuous
 62
     7
370
    25
100
AcDbLine
 10
397.4611529298
 20
108.3785986721
 30
0.0
 11
396.3735015495
 21
108.3785986721
 31
0.0
  0
SPLINE
  5
98
330
1F
100
AcDbEntity
  8
0
  6
Continuous
 62
     7
370
    25
100
AcDbSpline
210
0.0
220
0.0
230
1.0
 70
     8
 71
     3
 72
     8
 73
     4
 74
     0
 42
0.000000001
 43
0.00000001
 40
0.0000004024872366
 40
0.0000004024872366
 40
0.0000004024872366
 40
0.0000004024872366
 40
0.0015137680586847
 40
0.0015137680586847
 40
0.0015137680586847
 40
0.0015137680586847
 10
396.3735015494722
 20
108.3785986720698
 30
0.0
 10
396.1669251746636
 20
108.4509605425061
 30
0.0
 10
395.9603062061229
 20
108.5232920284629
 30
0.0
 10
395.7536347185717
 20
108.5955859701776
 30
0.0
  0
SPLINE
  5
99
330
1F
100
AcDbEntity
  8
0
  6
Continuous
 62
     7
370
    25
100
AcDbSpline
210
0.0
220
0.0
230
1.0
 70
     8
 71
     3
 72
     8
 73
     4
 74
     0
 42
0.000000001
 43
0.00000001
 40
0.0000002414707367
 40
0.0000002414707367
 40
0.0000002414707367
 40
0.0000002414707367
 40
0.0002447240690309
 40
0.0002447240690309
 40
0.0002447240690309
 40
0.0002447240690309
 10
395.7536347185717
 20
108.5955859701776
 30
0.0
 10
395.7417323832165
 20
108.6150709961242
 30
0.0
 10
395.7298069720048
 20
108.6345525019485
 30
0.0
 10
395.7178582267099
 20
108.6540304254604
 30
0.0
  0
LINE
  5
9A
330
1F
100
AcDbEntity
  8
0
  6
Continuous
 62
     7
370
    25
100
AcDbLine
 10
395.728515219
 20
108.8116112983
 30
0.0
 11
395.7178578674
 21
108.6540303704
 31
0.0
  0
LINE
  5
9B
330
1F
100
AcDbEntity
  8
0
  6
Continuous
 62
     7
370
    25
100
AcDbLine
 10
397.4961250642
 20
108.811611374
 30
0.0
 11
395.7234066278
 21
108.811611374
 31
0.0
  0
SPLINE
  5
9C
330
1F
100
AcDbEntity
  8
0
  6
Continuous
 62
     7
370
    25
100
AcDbSpline
210
0.0
220
0.0
230
1.0
 70
     8
 71
     3
 72
     8
 73
     4
 74
     0
 42
0.000000001
 43
0.00000001
 40
0.000000410413179
 40
0.000000410413179
 40
0.000000410413179
 40
0.000000410413179
 40
0.0015399883258131
 40
0.0015399883258131
 40
0.0015399883258131
 40
0.0015399883258131
 10
395.2115519136595
 20
118.1638867777465
 30
0.0
 10
395.4236698968738
 20
118.2360803231723
 30
0.0
 10
395.635590220064
 20
118.3084191932008
 30
0.0
 10
395.8473514788585
 20
118.3808740758542
 30
0.0
  0
LINE
  5
9D
330
1F
100
AcDbEntity
  8
0
  6
Continuous
 62
     7
370
    25
100
AcDbLine
 10
396.9943996391
 20
118.3808740759
 30
0.0
 11
395.8473514789
 21
118.3808740759
 31
0.0
  0
LINE
  5
9E
330
1F
100
AcDbEntity
  8
0
  6
Continuous
 62
     7
370
    25
100
AcDbLine
 10
397.0975647892
 20
117.947861374
 30
0.0
 11
397.3059731108
 21
118.1961606234
 31
0.0
  0
LINE
  5
9F
330
1F
100
AcDbEntity
  8
0
  6
Continuous
 62
     7
370
    25
100
AcDbLine
 10
397.0973747336
 20
117.947861374
 30
0.0
 11
395.2057697956
 21
117.947861374
 31
0.0
  0
LINE
  5
A0
330
1F
100
AcDbEntity
  8
0
  6
Continuous
 62
     7
370
    25
100
AcDbLine
 10
395.2033980087
 20
118.1486743087
 30
0.0
 11
395.2057695189
 21
117.9478615434
 31
0.0
  0
LINE
  5
A1
330
1F
100
AcDbEntity
  8
0
  6
Continuous
 62
     7
370
    25
100
AcDbLine
 10
395.2033990065
 20
118.1486741749
 30
0.0
 11
395.2115519137
 21
118.1638867777
 31
0.0
  0
ARC
  5
A2
330
1F
100
AcDbEntity
  8
0
  6
Continuous
 62
     7
370
    25
100
AcDbCircle
 10
387.3300400614
 20
112.917861374
 30
0.0
 40
10.11875000000005
100
AcDbArc
 50
206.6538426687
 51
333.3461573313
  0
ARC
  5
A3
330
1F
100
AcDbEntity
  8
0
  6
Continuous
 62
     7
370
    25
100
AcDbCircle
 10
387.3300400614
 20
112.917861374
 30
0.0
 40
10.11875000000003
100
AcDbArc
 50
32.6761561262
 51
147.3238438738
  0
ARC
  5
A4
330
1F
100
AcDbEntity
  8
0
  6
Continuous
 62
     7
370
    25
100
AcDbCircle
 10
387.3300400614
 20
112.917861374
 30
0.0
 40
9.467788105676675
100
AcDbArc
 50
33.6481949792
 51
146.3518050208
  0
ARC
  5
A5
330
1F
100
AcDbEntity
  8
0
  6
Continuous
 62
     7
370
    25
100
AcDbCircle
 10
387.3300400614
 20
112.917861374
 30
0.0
 40
9.467788105676714
100
AcDbArc
 50
207.1630537883
 51
332.8369462117
  0
SPLINE
  5
A6
330
1F
100
AcDbEntity
  8
0
  6
Continuous
 62
     7
370
    25
100
AcDbSpline
210
0.0
220
0.0
230
1.0
 70
     8
 71
     3
 72
     8
 73
     4
 74
     0
 42
0.000000001
 43
0.00000001
 40
0.0
 40
0.0
 40
0.0
 40
0.0
 40
1.0
 40
1.0
 40
1.0
 40
1.0
 10
376.7356139462991
 20
108.3566980183853
 30
0.0
 10
376.6823711213574
 20
108.3572217446232
 30
0.0
 10
376.6290758357417
 20
108.3580198378855
 30
0.0
 10
376.5757303302523
 20
108.3590928858104
 30
0.0
  0
LINE
  5
A7
330
1F
100
AcDbEntity
  8
0
  6
Continuous
 62
     7
370
    25
100
AcDbLine
 10
377.0038179284
 20
108.811611374
 30
0.0
 11
377.1639550587
 21
108.811611374
 31
0.0
  0
LINE
  5
A8
330
1F
100
AcDbEntity
  8
0
  6
Continuous
 62
     7
370
    25
100
AcDbLine
 10
397.4961250642
 20
108.811611374
 30
0.0
 11
397.6562621945
 21
108.811611374
 31
0.0
  0
SPLINE
  5
A9
330
1F
100
AcDbEntity
  8
0
  6
Continuous
 62
     7
370
    25
100
AcDbSpline
210
0.0
220
0.0
230
1.0
 70
     8
 71
     3
 72
     8
 73
     4
 74
     0
 42
0.000000001
 43
0.00000001
 40
0.0
 40
0.0
 40
0.0
 40
0.0
 40
1.0
 40
1.0
 40
1.0
 40
1.0
 10
398.0843497926069
 20
108.3590928858104
 30
0.0
 10
398.0310042871174
 20
108.3580198378855
 30
0.0
 10
397.9777090015017
 20
108.3572217446232
 30
0.0
 10
397.92446617656
 20
108.3566980183853
 30
0.0
  0
LINE
  5
AA
330
1F
100
AcDbEntity
  8
0
  6
Continuous
 62
     7
370
    25
100
AcDbLine
 10
377.5625153336
 20
117.947861374
 30
0.0
 11
377.4390983499
 21
117.947861374
 31
0.0
  0
SPLINE
  5
AB
330
1F
100
AcDbEntity
  8
0
  6
Continuous
 62
     7
370
    25
100
AcDbSpline
210
0.0
220
0.0
230
1.0
 70
     8
 71
     3
 72
     8
 73
     4
 74
     0
 42
0.000000001
 43
0.00000001
 40
0.0
 40
0.0
 40
0.0
 40
0.0
 40
1.0
 40
1.0
 40
1.0
 40
1.0
 10
377.0423491367497
 20
118.3683068908984
 30
0.0
 10
377.0834645637917
 20
118.3691758285384
 30
0.0
 10
377.1245388584027
 20
118.3698568661212
 30
0.0
 10
377.1655706308918
 20
118.3703504441827
 30
0.0
  0
SPLINE
  5
AC
330
1F
100
AcDbEntity
  8
0
  6
Continuous
 62
     7
370
    25
100
AcDbSpline
210
0.0
220
0.0
230
1.0
 70
     8
 71
     3
 72
     8
 73
     4
 74
     0
 42
0.000000001
 43
0.00000001
 40
0.0
 40
0.0
 40
0.0
 40
0.0
 40
1.0
 40
1.0
 40
1.0
 40
1.0
 10
397.4945094919673
 20
118.3703504441827
 30
0.0
 10
397.5355412644564
 20
118.3698568661212
 30
0.0
 10
397.5766155590675
 20
118.3691758285384
 30
0.0
 10
397.6177309861093
 20
118.3683068908984
 30
0.0
  0
LINE
  5
AD
330
1F
100
AcDbEntity
  8
0
  6
Continuous
 62
     7
370
    25
100
AcDbLine
 10
397.220981773
 20
117.947861374
 30
0.0
 11
397.0975647892
 21
117.947861374
 31
0.0
  0
SPLINE
  5
AE
330
1F
100
AcDbEntity
  8
0
  6
Continuous
 62
     7
370
    25
100
AcDbSpline
210
0.0
220
0.0
230
1.0
 70
     8
 71
     3
 72
     9
 73
     5
 74
     0
 42
0.000000001
 43
0.00000001
 40
0.0
 40
0.0
 40
0.0
 40
0.0
 40
0.4897855392460848
 40
1.0
 40
1.0
 40
1.0
 40
1.0
 10
394.435629626081
 20
118.1409782401998
 30
0.0
 10
394.5619842986292
 20
118.1422965519908
 30
0.0
 10
394.8199638885181
 20
118.1449881622679
 30
0.0
 10
395.0738582525742
 20
118.147429061565
 30
0.0
 10
395.2033988286195
 20
118.1486744436837
 30
0.0
  0
ARC
  5
AF
330
1F
100
AcDbEntity
  8
0
  6
Continuous
 62
     7
370
    25
100
AcDbCircle
 10
387.3300400614
 20
112.917861374
 30
0.0
 40
8.818750000000039
100
AcDbArc
 50
36.3185452201
 51
143.6814533294
  0
SPLINE
  5
B0
330
1F
100
AcDbEntity
  8
0
  6
Continuous
 62
     7
370
    25
100
AcDbSpline
210
0.0
220
0.0
230
1.0
 70
     8
 71
     3
 72
     9
 73
     5
 74
     0
 42
0.000000001
 43
0.00000001
 40
0.0
 40
0.0
 40
0.0
 40
0.0
 40
0.5102144635023922
 40
1.0
 40
1.0
 40
1.0
 40
1.0
 10
379.4566811931148
 20
118.1486746322879
 30
0.0
 10
379.5862218089148
 20
118.1474292487656
 30
0.0
 10
379.8401162495206
 20
118.1449883467305
 30
0.0
 10
380.0980959184482
 20
118.1422967333696
 30
0.0
 10
380.2244506289995
 20
118.1409784200756
 30
0.0
  0
SPLINE
  5
B1
330
1F
100
AcDbEntity
  8
0
  6
Continuous
 62
     7
370
    25
100
AcDbSpline
210
0.0
220
0.0
230
1.0
 70
     8
 71
     3
 72
     8
 73
     4
 74
     0
 42
0.000000001
 43
0.00000001
 40
0.0
 40
0.0
 40
0.0
 40
0.0
 40
1.0
 40
1.0
 40
1.0
 40
1.0
 10
380.2244503753249
 20
118.1409779507983
 30
0.0
 10
380.2166893173794
 20
118.1304197155993
 30
0.0
 10
380.2089517922835
 20
118.1198441820729
 30
0.0
 10
380.2012378769141
 20
118.1092514552935
 30
0.0
  0
SPLINE
  5
B2
330
1F
100
AcDbEntity
  8
0
  6
Continuous
 62
     7
370
    25
100
AcDbSpline
210
0.0
220
0.0
230
1.0
 70
     8
 71
     3
 72
     8
 73
     4
 74
     0
 42
0.000000001
 43
0.00000001
 40
0.0
 40
0.0
 40
0.0
 40
0.0
 40
1.0
 40
1.0
 40
1.0
 40
1.0
 10
380.029680044151
 20
117.9478617128303
 30
0.0
 10
380.0869404511855
 20
118.001769889818
 30
0.0
 10
380.1441268422951
 20
118.0555668149012
 30
0.0
 10
380.2012378769141
 20
118.1092514552935
 30
0.0
  0
LINE
  5
B3
330
1F
100
AcDbEntity
  8
0
  6
Continuous
 62
     7
370
    25
100
AcDbLine
 10
380.0296807439
 20
117.947861374
 30
0.0
 11
379.4543102512
 21
117.947861374
 31
0.0
  0
SPLINE
  5
B4
330
1F
100
AcDbEntity
  8
0
  6
Continuous
 62
     7
370
    25
100
AcDbSpline
210
0.0
220
0.0
230
1.0
 70
     8
 71
     3
 72
     8
 73
     4
 74
     0
 42
0.000000001
 43
0.00000001
 40
0.0
 40
0.0
 40
0.0
 40
0.0
 40
1.0
 40
1.0
 40
1.0
 40
1.0
 10
394.4589576777262
 20
118.1090929409946
 30
0.0
 10
394.4512055650255
 20
118.1197386176672
 30
0.0
 10
394.4434296063583
 20
118.1303669298614
 30
0.0
 10
394.4356298797549
 20
118.1409777709239
 30
0.0
  0
LINE
  5
B5
330
1F
100
AcDbEntity
  8
0
  6
Continuous
 62
     7
370
    25
100
AcDbLine
 10
395.2057697956
 20
117.947861374
 30
0.0
 11
394.6303707792
 21
117.947861374
 31
0.0
  0
SPLINE
  5
B6
330
1F
100
AcDbEntity
  8
0
  6
Continuous
 62
     7
370
    25
100
AcDbSpline
210
0.0
220
0.0
230
1.0
 70
     8
 71
     3
 72
     8
 73
     4
 74
     0
 42
0.000000001
 43
0.00000001
 40
0.0
 40
0.0
 40
0.0
 40
0.0
 40
1.0
 40
1.0
 40
1.0
 40
1.0
 10
394.4589576777262
 20
118.1090929409946
 30
0.0
 10
394.5160208054123
 20
118.0554609905789
 30
0.0
 10
394.5731591851426
 20
118.0017169042139
 30
0.0
 10
394.6303714786163
 20
117.9478617129637
 30
0.0
  0
ARC
  5
B7
330
1F
100
AcDbEntity
  8
0
  6
Continuous
 62
     7
370
    25
100
AcDbCircle
 10
387.3300400614
 20
112.917861374
 30
0.0
 40
8.818750000000003
100
AcDbArc
 50
209.2047569376
 51
330.7952430624
  0
SPLINE
  5
B8
330
1F
100
AcDbEntity
  8
0
  6
Continuous
 62
     7
370
    25
100
AcDbSpline
210
0.0
220
0.0
230
1.0
 70
    24
 71
     3
 72
     8
 73
     4
 74
     0
 42
0.000000001
 43
0.00000001
 40
0.0
 40
0.0
 40
0.0
 40
0.0
 40
0.000136040218399
 40
0.000136040218399
 40
0.000136040218399
 40
0.000136040218399
 10
395.0711754582738
 20
108.6583209431108
 30
0.0
 10
395.0567364585898
 20
108.6438819434268
 30
0.0
 10
395.0422660062275
 20
108.6294114910645
 30
0.0
 10
395.027764407676
 20
108.6149098925131
 30
0.0
  0
SPLINE
  5
B9
330
1F
100
AcDbEntity
  8
0
  6
Continuous
 62
     7
370
    25
100
AcDbSpline
210
0.0
220
0.0
230
1.0
 70
     8
 71
     3
 72
     9
 73
     5
 74
     0
 42
0.000000001
 43
0.00000001
 40
0.0
 40
0.0
 40
0.0
 40
0.0
 40
0.5086468812161952
 40
0.9999999999999999
 40
0.9999999999999999
 40
0.9999999999999999
 40
0.9999999999999999
 10
395.7178581870302
 20
108.6540303373257
 30
0.0
 10
395.6086918062476
 20
108.6547244558593
 30
0.0
 10
395.3940706519381
 20
108.6560890932122
 30
0.0
 10
395.1775591398542
 20
108.6575853824177
 30
0.0
 10
395.0711755331392
 20
108.6583205887855
 30
0.0
  0
SPLINE
  5
BA
330
1F
100
AcDbEntity
  8
0
  6
Continuous
 62
     7
370
    25
100
AcDbSpline
210
0.0
220
0.0
230
1.0
 70
     8
 71
     3
 72
     9
 73
     5
 74
     0
 42
0.000000001
 43
0.00000001
 40
0.0
 40
0.0
 40
0.0
 40
0.0
 40
0.4913531182532287
 40
1.0
 40
1.0
 40
1.0
 40
1.0
 10
379.5889046201844
 20
108.6583205583209
 30
0.0
 10
379.4825210053535
 20
108.6575853517745
 30
0.0
 10
379.2660094765184
 20
108.6560890622036
 30
0.0
 10
379.0513883057589
 20
108.6547244245217
 30
0.0
 10
378.9422219164953
 20
108.6540303058201
 30
0.0
  0
SPLINE
  5
BB
330
1F
100
AcDbEntity
  8
0
  6
Continuous
 62
     7
370
    25
100
AcDbSpline
210
0.0
220
0.0
230
1.0
 70
    24
 71
     3
 72
     8
 73
     4
 74
     0
 42
0.000000001
 43
0.00000001
 40
0.0
 40
0.0
 40
0.0
 40
0.0
 40
0.0001360401227241
 40
0.0001360401227241
 40
0.0001360401227241
 40
0.0001360401227241
 10
379.6323157151831
 20
108.6149098925131
 30
0.0
 10
379.6178141268304
 20
108.6294114808658
 30
0.0
 10
379.6033436846231
 20
108.643881923073
 30
0.0
 10
379.5889046950497
 20
108.6583209126464
 30
0.0
  0
LINE
  5
BC
330
1F
100
AcDbEntity
  8
0
  6
Continuous
 62
     7
370
    25
100
AcDbLine
 10
378.9315647674
 20
108.811611374
 30
0.0
 11
379.4356146395
 21
108.811611374
 31
0.0
  0
SPLINE
  5
BD
330
1F
100
AcDbEntity
  8
0
  6
Continuous
 62
     7
370
    25
100
AcDbSpline
210
0.0
220
0.0
230
1.0
 70
     8
 71
     3
 72
     8
 73
     4
 74
     0
 42
0.000000001
 43
0.00000001
 40
0.0
 40
0.0
 40
0.0
 40
0.0
 40
1.0
 40
1.0
 40
1.0
 40
1.0
 10
379.5889048948818
 20
108.6583207130592
 30
0.0
 10
379.5378361322773
 20
108.7093632048033
 30
0.0
 10
379.4867391726413
 20
108.7604601768293
 30
0.0
 10
379.4356143311256
 20
108.8116112765704
 30
0.0
  0
SPLINE
  5
BE
330
1F
100
AcDbEntity
  8
0
  6
Continuous
 62
     7
370
    25
100
AcDbSpline
210
0.0
220
0.0
230
1.0
 70
     8
 71
     3
 72
     8
 73
     4
 74
     0
 42
0.000000001
 43
0.00000001
 40
0.0
 40
0.0
 40
0.0
 40
0.0
 40
1.0
 40
1.0
 40
1.0
 40
1.0
 10
395.2244657917336
 20
108.8116112765705
 30
0.0
 10
395.1733409603883
 20
108.7604601870152
 30
0.0
 10
395.1222440109073
 20
108.7093632251442
 30
0.0
 10
395.0711752584419
 20
108.6583207435238
 30
0.0
  0
LINE
  5
BF
330
1F
100
AcDbEntity
  8
0
  6
Continuous
 62
     7
370
    25
100
AcDbLine
 10
395.2244654834
 20
108.811611374
 30
0.0
 11
395.7285153411
 21
108.811611374
 31
0.0
  0
CIRCLE
  5
C0
330
1F
100
AcDbEntity
  8
0
  6
Continuous
 62
     7
370
    25
100
AcDbCircle
 10
387.3300400614
 20
112.917861374
 30
0.0
 40
12.47086902276413
  0
SPLINE
  5
C1
330
1F
100
AcDbEntity
  8
0
  6
Continuous
 62
     7
370
    25
100
AcDbSpline
210
0.0
220
0.0
230
1.0
 70
     8
 71
     3
 72
    23
 73
    19
 74
     0
 42
0.000000001
 43
0.00000001
 40
0.0
 40
0.0
 40
0.0
 40
0.0
 40
0.0521034701696204
 40
0.1035642834103258
 40
0.1544746865170929
 40
0.2049299526130454
 40
0.2550279491471202
 40
0.304868636019722
 40
0.354553504121484
 40
0.4041849683430035
 40
0.4538657321707252
 40
0.5036981429683899
 40
0.5902048055413047
 40
0.674300890334858
 40
0.7566325442054724
 40
0.8378852029912961
 40
0.9187688149236596
 40
1.0
 40
1.0
 40
1.0
 40
1.0
 10
376.4907879147721
 20
117.4082720867119
 30
0.0
 10
376.5040822697227
 20
117.4374399798755
 30
0.0
 10
376.5305070038027
 20
117.4954160022834
 30
0.0
 10
376.5697180100248
 20
117.5783153032914
 30
0.0
 10
376.6081599648447
 20
117.65749728434
 30
0.0
 10
376.6457475462643
 20
117.7327521010387
 30
0.0
 10
376.6824034327492
 20
117.8041717556841
 30
0.0
 10
376.7180532961522
 20
117.8717683630311
 30
0.0
 10
376.7526270453484
 20
117.9355746898224
 30
0.0
 10
376.7860587302247
 20
117.9956182120296
 30
0.0
 10
376.8182856413898
 20
118.0519249830015
 30
0.0
 10
376.8567910027925
 20
118.117336554298
 30
0.0
 10
376.8994591726575
 20
118.1869086601649
 30
0.0
 10
376.9429600795332
 20
118.2536807294584
 30
0.0
 10
376.9793756318064
 20
118.3054093940623
 30
0.0
 10
377.008274418755
 20
118.341854258047
 30
0.0
 10
377.0301851681092
 20
118.364441041387
 30
0.0
 10
377.0382886892361
 20
118.3670164338526
 30
0.0
 10
377.0423491367498
 20
118.3683068908984
 30
0.0
  0
SPLINE
  5
C2
330
1F
100
AcDbEntity
  8
0
  6
Continuous
 62
     7
370
    25
100
AcDbSpline
210
0.0
220
0.0
230
1.0
 70
     8
 71
     3
 72
     8
 73
     4
 74
     0
 42
0.000000001
 43
0.00000001
 40
0.0
 40
0.0
 40
0.0
 40
0.0
 40
1.0
 40
1.0
 40
1.0
 40
1.0
 10
376.3701499749093
 20
117.4060617293021
 30
0.0
 10
376.4103389885023
 20
117.4067920395196
 30
0.0
 10
376.4505012905923
 20
117.4073725653491
 30
0.0
 10
376.4906360010678
 20
117.4078035302989
 30
0.0
  0
SPLINE
  5
C3
330
1F
100
AcDbEntity
  8
0
  6
Continuous
 62
     7
370
    25
100
AcDbSpline
210
0.0
220
0.0
230
1.0
 70
     8
 71
     3
 72
    18
 73
    14
 74
     0
 42
0.000000001
 43
0.00000001
 40
0.0
 40
0.0
 40
0.0
 40
0.0
 40
0.0923645816205075
 40
0.1844372988294163
 40
0.276454302110804
 40
0.3686515499648411
 40
0.4612630116255962
 40
0.554518937065566
 40
0.6486442564287672
 40
0.7438571603357742
 40
0.8403678983473314
 40
0.9203923541258042
 40
0.9999999999999999
 40
0.9999999999999999
 40
0.9999999999999999
 40
0.9999999999999999
 10
376.4230889637087
 20
117.672878736184
 30
0.0
 10
376.4249255433024
 20
117.6726733931015
 30
0.0
 10
376.4285928990507
 20
117.6722633558037
 30
0.0
 10
376.4313900755919
 20
117.665465058469
 30
0.0
 10
376.4321936238422
 20
117.6541358547855
 30
0.0
 10
376.4308280438343
 20
117.637837441118
 30
0.0
 10
376.4273663981493
 20
117.6166860739984
 30
0.0
 10
376.4218243443895
 20
117.5906481120603
 30
0.0
 10
376.4142385093534
 20
117.5597193676154
 30
0.0
 10
376.4046595147503
 20
117.5239137945822
 30
0.0
 10
376.3938175391509
 20
117.485657834829
 30
0.0
 10
376.382328102191
 20
117.4464368257521
 30
0.0
 10
376.3742281090034
 20
117.4195818302712
 30
0.0
 10
376.3701886872167
 20
117.4061893926094
 30
0.0
  0
LINE
  5
C4
330
1F
100
AcDbEntity
  8
0
  6
Continuous
 62
     7
370
    25
100
AcDbLine
 10
376.3703336045
 20
117.6721310188
 30
0.0
 11
376.4230889637
 21
117.6728787362
 31
0.0
  0
SPLINE
  5
C5
330
1F
100
AcDbEntity
  8
0
  6
Continuous
 62
     7
370
    25
100
AcDbSpline
210
0.0
220
0.0
230
1.0
 70
     8
 71
     3
 72
    25
 73
    21
 74
     0
 42
0.000000001
 43
0.00000001
 40
0.0
 40
0.0
 40
0.0
 40
0.0
 40
0.0280056024288432
 40
0.0559514328347808
 40
0.0838901607643795
 40
0.1118745076912761
 40
0.1399569498912944
 40
0.1681894282721918
 40
0.1966230730105298
 40
0.2253079499156092
 40
0.2542928341277229
 40
0.3799484016866114
 40
0.5057844887502296
 40
0.6313077644974885
 40
0.753205717341519
 40
0.803962739492204
 40
0.8536129947759985
 40
0.9025574087118227
 40
0.9512124407386962
 40
1.0
 40
1.0
 40
1.0
 40
1.0
 10
375.4593721966559
 20
115.1051991164964
 30
0.0
 10
375.4663499085406
 20
115.1425026956007
 30
0.0
 10
375.4802904398629
 20
115.2170302372259
 30
0.0
 10
375.5028089417834
 20
115.3283250272898
 30
0.0
 10
375.5264400159792
 20
115.4389777845866
 30
0.0
 10
375.5512880545764
 20
115.5489572790583
 30
0.0
 10
375.5773062470187
 20
115.6582525562087
 30
0.0
 10
375.6044884487655
 20
115.7668483965623
 30
0.0
 10
375.6328162950896
 20
115.8747286912299
 30
0.0
 10
375.6622787894135
 20
115.9818878512248
 30
0.0
 10
375.7266900599399
 20
116.2060737261807
 30
0.0
 10
375.8317937734785
 20
116.5327456295602
 30
0.0
 10
375.977256395112
 20
116.9186917833961
 30
0.0
 10
376.1165202512627
 20
117.2407727889759
 30
0.0
 10
376.2136727268305
 20
117.4366009066457
 30
0.0
 10
376.2739759983311
 20
117.5459630278542
 30
0.0
 10
376.3088728934878
 20
117.6039063299008
 30
0.0
 10
376.3367680345913
 20
117.6443612336951
 30
0.0
 10
376.3581269623077
 20
117.6689645941155
 30
0.0
 10
376.3662610361544
 20
117.671074587306
 30
0.0
 10
376.3703336044695
 20
117.6721310187541
 30
0.0
  0
ARC
  5
C6
330
1F
100
AcDbEntity
  8
0
  6
Continuous
 62
     7
370
    25
100
AcDbCircle
 10
387.3300400614
 20
112.917861374
 30
0.0
 40
12.07050959801142
100
AcDbArc
 50
169.5595567507
 51
190.4404432494
  0
SPLINE
  5
C7
330
1F
100
AcDbEntity
  8
0
  6
Continuous
 62
     7
370
    25
100
AcDbSpline
210
0.0
220
0.0
230
1.0
 70
     8
 71
     3
 72
    26
 73
    22
 74
     0
 42
0.000000001
 43
0.00000001
 40
0.0
 40
0.0
 40
0.0
 40
0.0
 40
0.0241214275655765
 40
0.0482078233550631
 40
0.0723095879210365
 40
0.0964771461131097
 40
0.1207606318218786
 40
0.1452095829274057
 40
0.1698726554215267
 40
0.1947973643381856
 40
0.2200298573586289
 40
0.2456147249583995
 40
0.3690974744028633
 40
0.4940700204039666
 40
0.6192566393622437
 40
0.7454654421861411
 40
0.7971580294157585
 40
0.8481837569726721
 40
0.8988139831107741
 40
0.9493262809200852
 40
1.0
 40
1.0
 40
1.0
 40
1.0
 10
376.3703336044695
 20
108.16359172917
 30
0.0
 10
376.3684247897944
 20
108.1638759221498
 30
0.0
 10
376.3646099326336
 20
108.1644438953733
 30
0.0
 10
376.3566530989841
 20
108.1704967152888
 30
0.0
 10
376.3470763743152
 20
108.1803716838301
 30
0.0
 10
376.3357305410723
 20
108.1944502561954
 30
0.0
 10
376.322674760605
 20
108.2126450014146
 30
0.0
 10
376.3079182914906
 20
108.2349964765123
 30
0.0
 10
376.2914895888644
 20
108.261513388035
 30
0.0
 10
376.2734189823891
 20
108.2922132990827
 30
0.0
 10
376.2537384327046
 20
108.3271206482665
 30
0.0
 10
376.2055364661144
 20
108.415889960115
 30
0.0
 10
376.1172171916386
 20
108.5931725161279
 30
0.0
 10
375.9781574363718
 20
108.9142588226033
 30
0.0
 10
375.8324848193623
 20
109.3008411689909
 30
0.0
 10
375.7187428518254
 20
109.6545597426431
 30
0.0
 10
375.6390331225155
 20
109.9368292047597
 30
0.0
 10
375.5883799257691
 20
110.1312886886739
 30
0.0
 10
375.5414140060643
 20
110.3285303797833
 30
0.0
 10
375.4978585131276
 20
110.5284177679809
 30
0.0
 10
375.4722146053224
 20
110.6630833999315
 30
0.0
 10
375.4593721966559
 20
110.7305236314277
 30
0.0
  0
LINE
  5
C8
330
1F
100
AcDbEntity
  8
0
  6
Continuous
 62
     7
370
    25
100
AcDbLine
 10
376.4230889637
 20
108.1628440117
 30
0.0
 11
376.3703336045
 21
108.1635917292
 31
0.0
  0
SPLINE
  5
C9
330
1F
100
AcDbEntity
  8
0
  6
Continuous
 62
     7
370
    25
100
AcDbSpline
210
0.0
220
0.0
230
1.0
 70
     8
 71
     3
 72
    14
 73
    10
 74
     0
 42
0.000000001
 43
0.00000001
 40
0.0
 40
0.0
 40
0.0
 40
0.0
 40
0.0789259589571543
 40
0.158232396190405
 40
0.3308776440750645
 40
0.5000645817723345
 40
0.6670803235527131
 40
0.8332687177870088
 40
0.9999999999999999
 40
0.9999999999999999
 40
0.9999999999999999
 40
0.9999999999999999
 10
376.3700921068766
 20
108.4298674889798
 30
0.0
 10
376.3741066587107
 20
108.4165643526133
 30
0.0
 10
376.3821551153243
 20
108.3898939494667
 30
0.0
 10
376.3970571125967
 20
108.3390746804109
 30
0.0
 10
376.4129564009343
 20
108.2820274229577
 30
0.0
 10
376.4260374482616
 20
108.2277164059276
 30
0.0
 10
376.4322703781836
 20
108.1895486839858
 30
0.0
 10
376.4320792595691
 20
108.1661455499375
 30
0.0
 10
376.4260889850842
 20
108.1639457202176
 30
0.0
 10
376.4230889637087
 20
108.1628440117401
 30
0.0
  0
SPLINE
  5
CA
330
1F
100
AcDbEntity
  8
0
  6
Continuous
 62
     7
370
    25
100
AcDbSpline
210
0.0
220
0.0
230
1.0
 70
     8
 71
     3
 72
     8
 73
     4
 74
     0
 42
0.000000001
 43
0.00000001
 40
0.0
 40
0.0
 40
0.0
 40
0.0
 40
1.0
 40
1.0
 40
1.0
 40
1.0
 10
376.5173967980813
 20
108.4278064105943
 30
0.0
 10
376.4683288830526
 20
108.4282934638063
 30
0.0
 10
376.4192194455318
 20
108.4290045316811
 30
0.0
 10
376.3700701010065
 20
108.4299400249154
 30
0.0
  0
SPLINE
  5
CB
330
1F
100
AcDbEntity
  8
0
  6
Continuous
 62
     7
370
    25
100
AcDbSpline
210
0.0
220
0.0
230
1.0
 70
     8
 71
     3
 72
    13
 73
     9
 74
     0
 42
0.000000001
 43
0.00000001
 40
0.0
 40
0.0
 40
0.0
 40
0.0
 40
0.1666651380536976
 40
0.3328869540146011
 40
0.4989979369855639
 40
0.6653319948464096
 40
0.832222439950292
 40
1.0
 40
1.0
 40
1.0
 40
1.0
 10
376.5757303302523
 20
108.3590928858104
 30
0.0
 10
376.5738883675995
 20
108.3595076797761
 30
0.0
 10
376.5702093418352
 20
108.3603361643734
 30
0.0
 10
376.5626942435876
 20
108.3663470864391
 30
0.0
 10
376.5537441431234
 20
108.375840632864
 30
0.0
 10
376.543192987989
 20
108.3892517211583
 30
0.0
 10
376.5312173989198
 20
108.406173728145
 30
0.0
 10
376.5220088184635
 20
108.4205902771868
 30
0.0
 10
376.5173923234993
 20
108.4278176589063
 30
0.0
  0
SPLINE
  5
CC
330
1F
100
AcDbEntity
  8
0
  6
Continuous
 62
     7
370
    25
100
AcDbSpline
210
0.0
220
0.0
230
1.0
 70
     8
 71
     3
 72
    13
 73
     9
 74
     0
 42
0.000000001
 43
0.00000001
 40
0.0
 40
0.0
 40
0.0
 40
0.0
 40
0.1686717431976176
 40
0.3360976438050112
 40
0.5026076259545951
 40
0.6685363120001365
 40
0.8342210747535599
 40
1.0
 40
1.0
 40
1.0
 40
1.0
 10
398.1426891804779
 20
108.4278211087192
 30
0.0
 10
398.1380506043557
 20
108.4205616573585
 30
0.0
 10
398.1288077135447
 20
108.4060963743691
 30
0.0
 10
398.11678988699
 20
108.3891114949379
 30
0.0
 10
398.1062234476136
 20
108.3756772013195
 30
0.0
 10
398.0972848155184
 20
108.3661989388411
 30
0.0
 10
398.089806131381
 20
108.360237329501
 30
0.0
 10
398.0861689166193
 20
108.3594744392814
 30
0.0
 10
398.0843497926069
 20
108.3590928858104
 30
0.0
  0
SPLINE
  5
CD
330
1F
100
AcDbEntity
  8
0
  6
Continuous
 62
     7
370
    25
100
AcDbSpline
210
0.0
220
0.0
230
1.0
 70
     8
 71
     3
 72
     8
 73
     4
 74
     0
 42
0.000000001
 43
0.00000001
 40
0.0
 40
0.0
 40
0.0
 40
0.0
 40
1.0
 40
1.0
 40
1.0
 40
1.0
 10
398.2900147924503
 20
108.4299401296619
 30
0.0
 10
398.240863862842
 20
108.4290045993999
 30
0.0
 10
398.1917528427628
 20
108.4282935088879
 30
0.0
 10
398.142683347855
 20
108.4278064473899
 30
0.0
  0
SPLINE
  5
CE
330
1F
100
AcDbEntity
  8
0
  6
Continuous
 62
     7
370
    25
100
AcDbSpline
210
0.0
220
0.0
230
1.0
 70
     8
 71
     3
 72
    18
 73
    14
 74
     0
 42
0.000000001
 43
0.00000001
 40
0.0
 40
0.0
 40
0.0
 40
0.0
 40
0.0923146492083614
 40
0.1843375917871727
 40
0.2763048505572403
 40
0.3684522564592561
 40
0.4610136522432117
 40
0.5542191634081761
 40
0.648293598500629
 40
0.743455030187018
 40
0.8399135943669072
 40
0.9201663187095083
 40
1.0
 40
1.0
 40
1.0
 40
1.0
 10
398.2369911591504
 20
108.1628440117401
 30
0.0
 10
398.2351545795569
 20
108.1630493548232
 30
0.0
 10
398.2314872238091
 20
108.1634593921223
 30
0.0
 10
398.2286900472648
 20
108.1702576894484
 30
0.0
 10
398.2278864990263
 20
108.1815868931656
 30
0.0
 10
398.2292520789904
 20
108.1978853067075
 30
0.0
 10
398.2327137248399
 20
108.2190366742997
 30
0.0
 10
398.2382557779792
 20
108.2450746344546
 30
0.0
 10
398.2458416153641
 20
108.2760033856497
 30
0.0
 10
398.2554206010463
 20
108.3118089330445
 30
0.0
 10
398.266273447683
 20
108.3501032304162
 30
0.0
 10
398.2777890052129
 20
108.3894116502726
 30
0.0
 10
398.2859207223867
 20
108.4163687468943
 30
0.0
 10
398.2899759381599
 20
108.4298120136833
 30
0.0
  0
LINE
  5
CF
330
1F
100
AcDbEntity
  8
0
  6
Continuous
 62
     7
370
    25
100
AcDbLine
 10
398.2897465184
 20
108.1635917292
 30
0.0
 11
398.2369911592
 21
108.1628440117
 31
0.0
  0
SPLINE
  5
D0
330
1F
100
AcDbEntity
  8
0
  6
Continuous
 62
     7
370
    25
100
AcDbSpline
210
0.0
220
0.0
230
1.0
 70
     8
 71
     3
 72
    25
 73
    21
 74
     0
 42
0.000000001
 43
0.00000001
 40
0.0
 40
0.0
 40
0.0
 40
0.0
 40
0.0280056024284644
 40
0.0559514328341146
 40
0.0838901607635225
 40
0.1118745076903239
 40
0.1399569498903393
 40
0.168189428271326
 40
0.1966230730098432
 40
0.2253079499151899
 40
0.2542928341276564
 40
0.3799484016843204
 40
0.505784488750134
 40
0.6313077644946906
 40
0.7532057173413932
 40
0.8039627394917982
 40
0.8536129947754353
 40
0.9025574087112554
 40
0.951212440738308
 40
1.0
 40
1.0
 40
1.0
 40
1.0
 10
399.2007079262033
 20
110.7305236314277
 30
0.0
 10
399.1937302143186
 20
110.6932200523239
 30
0.0
 10
399.1797896829965
 20
110.6186925106996
 30
0.0
 10
399.1572711810762
 20
110.5073977206368
 30
0.0
 10
399.1336401068806
 20
110.3967449633408
 30
0.0
 10
399.1087920682835
 20
110.2867654688694
 30
0.0
 10
399.0827738758413
 20
110.1774701917191
 30
0.0
 10
399.0555916740944
 20
110.0688743513651
 30
0.0
 10
399.0272638277702
 20
109.9609940566966
 30
0.0
 10
398.997801333446
 20
109.8538348967007
 30
0.0
 10
398.9333900629201
 20
109.6296490217462
 30
0.0
 10
398.8282863493816
 20
109.3029771183667
 30
0.0
 10
398.6828237277491
 20
108.9170309645325
 30
0.0
 10
398.5435598715973
 20
108.5949499589502
 30
0.0
 10
398.4464073960299
 20
108.3991218412809
 30
0.0
 10
398.3861041245277
 20
108.2897597200687
 30
0.0
 10
398.3512072293709
 20
108.2318164180218
 30
0.0
 10
398.3233120882674
 20
108.1913615142275
 30
0.0
 10
398.3019531605511
 20
108.1667581538076
 30
0.0
 10
398.2938190867047
 20
108.1646481606177
 30
0.0
 10
398.2897465183896
 20
108.16359172917
 30
0.0
  0
ARC
  5
D1
330
1F
100
AcDbEntity
  8
0
  6
Continuous
 62
     7
370
    25
100
AcDbCircle
 10
387.3300400614
 20
112.917861374
 30
0.0
 40
12.07050959801147
100
AcDbArc
 50
349.5595567507
 51
10.4404432493
  0
SPLINE
  5
D2
330
1F
100
AcDbEntity
  8
0
  6
Continuous
 62
     7
370
    25
100
AcDbSpline
210
0.0
220
0.0
230
1.0
 70
     8
 71
     3
 72
    26
 73
    22
 74
     0
 42
0.000000001
 43
0.00000001
 40
0.0
 40
0.0
 40
0.0
 40
0.0
 40
0.0241214275654721
 40
0.0482078233548781
 40
0.0723095879207937
 40
0.0964771461128324
 40
0.1207606318215892
 40
0.1452095829271266
 40
0.1698726554212825
 40
0.1947973643379968
 40
0.2200298573585139
 40
0.24561472495838
 40
0.3690974744025406
 40
0.4940700204039573
 40
0.6192566393613755
 40
0.7454654421861023
 40
0.7971580294152084
 40
0.8481837569718568
 40
0.8988139831099585
 40
0.9493262809195422
 40
1.0
 40
1.0
 40
1.0
 40
1.0
 10
398.2897465183896
 20
117.6721310187541
 30
0.0
 10
398.2916553330647
 20
117.6718468257743
 30
0.0
 10
398.2954701902255
 20
117.6712788525507
 30
0.0
 10
398.3034270238751
 20
117.6652260326352
 30
0.0
 10
398.3130037485438
 20
117.6553510640939
 30
0.0
 10
398.3243495817867
 20
117.6412724917287
 30
0.0
 10
398.337405362254
 20
117.6230777465094
 30
0.0
 10
398.3521618313685
 20
117.6007262714117
 30
0.0
 10
398.3685905339946
 20
117.574209359889
 30
0.0
 10
398.38666114047
 20
117.5435094488413
 30
0.0
 10
398.4063416901545
 20
117.5086020996576
 30
0.0
 10
398.4545436567445
 20
117.4198327878094
 30
0.0
 10
398.5428629312203
 20
117.2425502317966
 30
0.0
 10
398.6819226864869
 20
116.9214639253219
 30
0.0
 10
398.8275953034966
 20
116.5348815789336
 30
0.0
 10
398.9413372710333
 20
116.1811630052824
 30
0.0
 10
399.0210470003432
 20
115.8988935431662
 30
0.0
 10
399.0717001970894
 20
115.7044340592531
 30
0.0
 10
399.1186661167943
 20
115.5071923681436
 30
0.0
 10
399.1622216097311
 20
115.3073049799449
 30
0.0
 10
399.1878655175365
 20
115.1726393479932
 30
0.0
 10
399.2007079262033
 20
115.1051991164963
 30
0.0
  0
LINE
  5
D3
330
1F
100
AcDbEntity
  8
0
  6
Continuous
 62
     7
370
    25
100
AcDbLine
 10
398.2369911592
 20
117.6728787362
 30
0.0
 11
398.2897465184
 21
117.6721310188
 31
0.0
  0
SPLINE
  5
D4
330
1F
100
AcDbEntity
  8
0
  6
Continuous
 62
     7
370
    25
100
AcDbSpline
210
0.0
220
0.0
230
1.0
 70
     8
 71
     3
 72
    14
 73
    10
 74
     0
 42
0.000000001
 43
0.00000001
 40
0.0
 40
0.0
 40
0.0
 40
0.0
 40
0.0786886761523965
 40
0.157755707032
 40
0.3304987231372113
 40
0.4997814706279777
 40
0.6668917926617962
 40
0.8331742986247858
 40
1.0
 40
1.0
 40
1.0
 40
1.0
 10
398.2898994459111
 20
117.4061472270192
 30
0.0
 10
398.285901431749
 20
117.4193971431961
 30
0.0
 10
398.2778861799783
 20
117.4459606844425
 30
0.0
 10
398.2630122160098
 20
117.4966867423757
 30
0.0
 10
398.2471237445403
 20
117.5536952626464
 30
0.0
 10
398.2340426686756
 20
117.6080063583149
 30
0.0
 10
398.2278097462361
 20
117.646174059638
 30
0.0
 10
398.2280008628983
 20
117.669577199066
 30
0.0
 10
398.2339911376442
 20
117.6717770280667
 30
0.0
 10
398.2369911591504
 20
117.672878736184
 30
0.0
  0
SPLINE
  5
D5
330
1F
100
AcDbEntity
  8
0
  6
Continuous
 62
     7
370
    25
100
AcDbSpline
210
0.0
220
0.0
230
1.0
 70
     8
 71
     3
 72
     8
 73
     4
 74
     0
 42
0.000000001
 43
0.00000001
 40
0.0
 40
0.0
 40
0.0
 40
0.0
 40
1.0
 40
1.0
 40
1.0
 40
1.0
 10
398.1694441052444
 20
117.4078035669318
 30
0.0
 10
398.2095772237511
 20
117.4073726129844
 30
0.0
 10
398.2497379316796
 20
117.406792109972
 30
0.0
 10
398.2899253490226
 20
117.4060618344124
 30
0.0
  0
SPLINE
  5
D6
330
1F
100
AcDbEntity
  8
0
  6
Continuous
 62
     7
370
    25
100
AcDbSpline
210
0.0
220
0.0
230
1.0
 70
     8
 71
     3
 72
    23
 73
    19
 74
     0
 42
0.000000001
 43
0.00000001
 40
0.0
 40
0.0
 40
0.0
 40
0.0
 40
0.0441204301561719
 40
0.0880778634030389
 40
0.1319898680064339
 40
0.1759746562181633
 40
0.2201501304179636
 40
0.264632945241185
 40
0.3095376220685568
 40
0.3549757475145112
 40
0.4010552803449985
 40
0.4478799826475656
 40
0.4955489822102321
 40
0.595368431235531
 40
0.6949131540650083
 40
0.7950014615104555
 40
0.8964389774310515
 40
1.0
 40
1.0
 40
1.0
 40
1.0
 10
397.6177309861093
 20
118.3683068908984
 30
0.0
 10
397.6197128102116
 20
118.3680280917364
 30
0.0
 10
397.6236691368374
 20
118.3674715233978
 30
0.0
 10
397.6325236226182
 20
118.3610613421806
 30
0.0
 10
397.6434916966062
 20
118.3505471151688
 30
0.0
 10
397.6567682420239
 20
118.3355202003868
 30
0.0
 10
397.6722776162566
 20
118.3160702500307
 30
0.0
 10
397.6900092306503
 20
118.2921502124558
 30
0.0
 10
397.7099275084233
 20
118.2637467075899
 30
0.0
 10
397.7319961317455
 20
118.2308341762685
 30
0.0
 10
397.7561715590293
 20
118.1933870367506
 30
0.0
 10
397.7824045021798
 20
118.15137730873
 30
0.0
 10
397.8207454597859
 20
118.0880929833145
 30
0.0
 10
397.8730805312893
 20
117.9980302756
 30
0.0
 10
397.9414812106074
 20
117.8736840067078
 30
0.0
 10
398.0141662670487
 20
117.7339709689676
 30
0.0
 10
398.0905265078716
 20
117.5796349429458
 30
0.0
 10
398.142815321852
 20
117.4659122901863
 30
0.0
 10
398.1692305494171
 20
117.4084619576336
 30
0.0
  0
SPLINE
  5
D7
330
1F
100
AcDbEntity
  8
0
  6
Continuous
 62
     7
370
    25
100
AcDbSpline
210
0.0
220
0.0
230
1.0
 70
    11
 71
     3
 72
    39
 73
    35
 74
     0
 42
0.000000001
 43
0.00000001
 40
0.0
 40
0.0
 40
0.0
 40
0.0
 40
0.0310664058348413
 40
0.0621048158426138
 40
0.0931361551796939
 40
0.1235538293503726
 40
0.1538561545809849
 40
0.1850588072749156
 40
0.2160250992946587
 40
0.2471867223797568
 40
0.2784462884304475
 40
0.3100516090231247
 40
0.3419834369138969
 40
0.3734259894013238
 40
0.4048604886787081
 40
0.436874065183343
 40
0.4685120685926471
 40
0.499805535863323
 40
0.5309508213226204
 40
0.5618649784438111
 40
0.5930416446590877
 40
0.623374245013332
 40
0.6540913579072549
 40
0.6849496782718453
 40
0.7158160645166705
 40
0.7471731804043553
 40
0.7784514311866318
 40
0.810129591156098
 40
0.8419598919688388
 40
0.8735175891922303
 40
0.9050808037886594
 40
0.9370235169792582
 40
0.9687441590030581
 40
1.0
 40
1.0
 40
1.0
 40
1.0
 10
390.2341666262269
 20
101.4862311902086
 30
0.0
 10
390.4238784551816
 20
101.5249997669561
 30
0.0
 10
390.7676193056304
 20
101.6014307127391
 30
0.0
 10
391.150576292838
 20
101.6895702527324
 30
0.0
 10
391.3950167595531
 20
101.7365197393773
 30
0.0
 10
391.4760056963694
 20
101.7246108146636
 30
0.0
 10
391.3952832508876
 20
101.6526529079481
 30
0.0
 10
391.155421057268
 20
101.5281326417507
 30
0.0
 10
390.7787713231708
 20
101.3707636519256
 30
0.0
 10
390.2725283863429
 20
101.1987395672305
 30
0.0
 10
389.6552539926595
 20
101.0338151596449
 30
0.0
 10
388.9427781785197
 20
100.8961025835664
 30
0.0
 10
388.1673129387471
 20
100.8044697710577
 30
0.0
 10
387.3568485051328
 20
100.7711371929622
 30
0.0
 10
386.5443440321704
 20
100.8003846385155
 30
0.0
 10
385.7648310420332
 20
100.8887135955031
 30
0.0
 10
385.0465027426977
 20
101.0242190951379
 30
0.0
 10
384.4231306352977
 20
101.1879956166292
 30
0.0
 10
383.9100320407022
 20
101.3600017607745
 30
0.0
 10
383.5248299308407
 20
101.5188137752457
 30
0.0
 10
383.2754053255996
 20
101.6460727404112
 30
0.0
 10
383.1848032856532
 20
101.7216796973661
 30
0.0
 10
383.2530148566124
 20
101.738449094046
 30
0.0
 10
383.4852307230152
 20
101.6956687518308
 30
0.0
 10
383.8624477601995
 20
101.6085420669209
 30
0.0
 10
384.3741526279671
 20
101.4938130116139
 30
0.0
 10
384.997623758714
 20
101.3743908665614
 30
0.0
 10
385.7141684618467
 20
101.2697654165121
 30
0.0
 10
386.4924995744577
 20
101.1991169235852
 30
0.0
 10
387.3043310613077
 20
101.1730380991552
 30
0.0
 10
388.1181055833048
 20
101.1960636708459
 30
0.0
 10
388.9004794274703
 20
101.2642961089836
 30
0.0
 10
389.6224924622042
 20
101.3675432886933
 30
0.0
 10
390.0432979820532
 20
101.4472262123898
 30
0.0
 10
390.2341666262269
 20
101.4862311902086
 30
0.0
  0
SPLINE
  5
D8
330
1F
100
AcDbEntity
  8
0
  6
Continuous
 62
     7
370
    25
100
AcDbSpline
210
0.0
220
0.0
230
1.0
 70
    11
 71
     3
 72
    39
 73
    35
 74
     0
 42
0.000000001
 43
0.00000001
 40
0.0
 40
0.0
 40
0.0
 40
0.0
 40
0.0312651429934057
 40
0.0629601069329321
 40
0.0948697276489808
 40
0.1264264963751833
 40
0.1579651393672472
 40
0.1898765439016956
 40
0.221552335268876
 40
0.2527844076550827
 40
0.2838418966734154
 40
0.3148645781100674
 40
0.3459127639308091
 40
0.3763475365526575
 40
0.4066751324671412
 40
0.4379141187435632
 40
0.4688932367345488
 40
0.5000738678969536
 40
0.5313369410958942
 40
0.5629183719104849
 40
0.5948445736343699
 40
0.6262809966135365
 40
0.6577486436587271
 40
0.6897584692806508
 40
0.7214430019610059
 40
0.7527623343195418
 40
0.7839279690572818
 40
0.8148885765585865
 40
0.8460375004982862
 40
0.8763409566916784
 40
0.906758919146387
 40
0.9378312724751761
 40
0.9689189660506093
 40
1.0
 40
1.0
 40
1.0
 40
1.0
 10
390.2340623764401
 20
124.3495236101512
 30
0.0
 10
390.0429884401584
 20
124.3885875680319
 30
0.0
 10
389.6220538777188
 20
124.468306562592
 30
0.0
 10
388.9006644725551
 20
124.5714219779424
 30
0.0
 10
388.1190084242648
 20
124.6396228503663
 30
0.0
 10
387.305920704554
 20
124.6626797430082
 30
0.0
 10
386.4936404877019
 20
124.636695469362
 30
0.0
 10
385.7150100626524
 20
124.5661053041238
 30
0.0
 10
384.998334272741
 20
124.4614897418846
 30
0.0
 10
384.3764590030794
 20
124.3423174168683
 30
0.0
 10
383.8669480695935
 20
124.228380249142
 30
0.0
 10
383.4918287233493
 20
124.1422659701955
 30
0.0
 10
383.2558681484984
 20
124.0982102488597
 30
0.0
 10
383.1844676053168
 20
124.1137400495708
 30
0.0
 10
383.2750640351146
 20
124.1892489317548
 30
0.0
 10
383.5240403154741
 20
124.316422459599
 30
0.0
 10
383.9089551353169
 20
124.4752731382113
 30
0.0
 10
384.421740442139
 20
124.6472973994212
 30
0.0
 10
385.0441995650639
 20
124.8109704789559
 30
0.0
 10
385.7606997098704
 20
124.9463720523362
 30
0.0
 10
386.5387987439805
 20
125.034889719819
 30
0.0
 10
387.3505214326274
 20
125.0645971283018
 30
0.0
 10
388.1619636203287
 20
125.0317106836517
 30
0.0
 10
388.9390895118108
 20
124.9402297756069
 30
0.0
 10
389.6535276009813
 20
124.8023455856455
 30
0.0
 10
390.2717505592167
 20
124.6372177607955
 30
0.0
 10
390.7781179199426
 20
124.4651672234429
 30
0.0
 10
391.1546704413562
 20
124.3078837017327
 30
0.0
 10
391.3943662527877
 20
124.1834799042487
 30
0.0
 10
391.475832960982
 20
124.1112917308124
 30
0.0
 10
391.3957737184901
 20
124.0990192224344
 30
0.0
 10
391.1514277125364
 20
124.1459146329405
 30
0.0
 10
390.7684542790875
 20
124.2340481810861
 30
0.0
 10
390.4240111478775
 20
124.310689685696
 30
0.0
 10
390.2340623764401
 20
124.3495236101512
 30
0.0
  0
SPLINE
  5
D9
330
1F
100
AcDbEntity
  8
0
  6
Continuous
 62
     7
370
    25
100
AcDbSpline
210
0.0
220
0.0
230
1.0
 70
     8
 71
     3
 72
    23
 73
    19
 74
     0
 42
0.000000001
 43
0.00000001
 40
0.0
 40
0.0
 40
0.0
 40
0.0
 40
0.0449790193621908
 40
0.0909412379558472
 40
0.1379251786426257
 40
0.1859669058344728
 40
0.2351001540455558
 40
0.2853564591248101
 40
0.3367652895422636
 40
0.3893541756738622
 40
0.4431488355279061
 40
0.4981732957798667
 40
0.5575109075944804
 40
0.6265493534951618
 40
0.7053074128388682
 40
0.793797094619363
 40
0.8920262478564954
 40
1.0
 40
1.0
 40
1.0
 40
1.0
 10
377.4390983498723
 20
117.947861373962
 30
0.0
 10
377.4369370322626
 20
117.9474325847133
 30
0.0
 10
377.4325671526645
 20
117.9465656332844
 30
0.0
 10
377.4222891768321
 20
117.9394736405503
 30
0.0
 10
377.4092310799964
 20
117.9278629556388
 30
0.0
 10
377.3931131937993
 20
117.9110758153504
 30
0.0
 10
377.3740131681079
 20
117.8890058075818
 30
0.0
 10
377.3519103345303
 20
117.8614096503603
 30
0.0
 10
377.3268084936198
 20
117.8281014537533
 30
0.0
 10
377.2987151243982
 20
117.7888998479252
 30
0.0
 10
377.2675960817311
 20
117.7436546244211
 30
0.0
 10
377.2329547860636
 20
117.6912555593075
 30
0.0
 10
377.1922319649486
 20
117.6284709493992
 30
0.0
 10
377.1435110212005
 20
117.5507139534777
 30
0.0
 10
377.0857366902893
 20
117.4534293947852
 30
0.0
 10
377.0188260382873
 20
117.3336845614182
 30
0.0
 10
376.9428820747352
 20
117.1897643564313
 30
0.0
 10
376.8885209099544
 20
117.0790301515839
 30
0.0
 10
376.8600558457912
 20
117.0210465476869
 30
0.0
  0
LINE
  5
DA
330
1F
100
AcDbEntity
  8
0
  6
Continuous
 62
     7
370
    25
100
AcDbLine
 10
376.8600558458
 20
117.0215728796
 30
0.0
 11
376.4907161078
 21
117.4076574065
 31
0.0
  0
LINE
  5
DB
330
1F
100
AcDbEntity
  8
0
  6
Continuous
 62
     7
370
    25
100
AcDbLine
 10
398.1693314434
 20
117.4075980017
 30
0.0
 11
397.8000647617
 21
117.0215898967
 31
0.0
  0
SPLINE
  5
DC
330
1F
100
AcDbEntity
  8
0
  6
Continuous
 62
     7
370
    25
100
AcDbSpline
210
0.0
220
0.0
230
1.0
 70
     8
 71
     3
 72
    26
 73
    22
 74
     0
 42
0.000000001
 43
0.00000001
 40
0.0
 40
0.0
 40
0.0
 40
0.0
 40
0.0509383700734436
 40
0.0998291219160221
 40
0.1466727642916705
 40
0.1914698825056879
 40
0.234221152744613
 40
0.2749273600065313
 40
0.3135894207545711
 40
0.3502084118650797
 40
0.3847856080857007
 40
0.4173225311811817
 40
0.4478210154148484
 40
0.4762832963119
 40
0.5027121333382826
 40
0.5939161417310218
 40
0.6816167871628488
 40
0.7659330352404057
 40
0.8469987710141617
 40
0.9249646451437497
 40
1.0
 40
1.0
 40
1.0
 40
1.0
 10
397.8000647617362
 20
117.0208558174372
 30
0.0
 10
397.7866068975345
 20
117.0484765986108
 30
0.0
 10
397.7602321477304
 20
117.1026078620813
 30
0.0
 10
397.7218599679424
 20
117.1789158991775
 30
0.0
 10
397.6853937854431
 20
117.2496680787847
 30
0.0
 10
397.6508575358136
 20
117.3148399054826
 30
0.0
 10
397.6182450839583
 20
117.3746981507394
 30
0.0
 10
397.5875578001596
 20
117.4294633102807
 30
0.0
 10
397.5587951838722
 20
117.4793877015913
 30
0.0
 10
397.5319570193543
 20
117.5247299321727
 30
0.0
 10
397.5070434390917
 20
117.5657558711275
 30
0.0
 10
397.4840527917564
 20
117.6027332559818
 30
0.0
 10
397.4629892881436
 20
117.6359293722241
 30
0.0
 10
397.443836911482
 20
117.6656051035564
 30
0.0
 10
397.4121637839261
 20
117.7142786450137
 30
0.0
 10
397.3706904516687
 20
117.7761779995095
 30
0.0
 10
397.3236970811132
 20
117.8415207661191
 30
0.0
 10
397.2850770883256
 20
117.8906375309861
 30
0.0
 10
397.2550297254787
 20
117.9241103742423
 30
0.0
 10
397.2327428813892
 20
117.944224280232
 30
0.0
 10
397.2248517614229
 20
117.9466645895949
 30
0.0
 10
397.2209817729868
 20
117.947861373962
 30
0.0
  0
SPLINE
  5
DD
330
1F
100
AcDbEntity
  8
0
  6
Continuous
 62
     7
370
    25
100
AcDbSpline
210
0.0
220
0.0
230
1.0
 70
     8
 71
     3
 72
     8
 73
     4
 74
     0
 42
0.000000001
 43
0.00000001
 40
0.0
 40
0.0
 40
0.0
 40
0.0
 40
1.0
 40
1.0
 40
1.0
 40
1.0
 10
395.0717205132299
 20
117.1408597004447
 30
0.0
 10
395.13531349357
 20
117.075190922598
 30
0.0
 10
395.1992699200053
 20
117.0108486249377
 30
0.0
 10
395.2634688397127
 20
116.949111373962
 30
0.0
  0
SPLINE
  5
DE
330
1F
100
AcDbEntity
  8
0
  6
Continuous
 62
     7
370
    25
100
AcDbSpline
210
0.0
220
0.0
230
1.0
 70
     8
 71
     3
 72
    25
 73
    21
 74
     0
 42
0.000000001
 43
0.00000001
 40
0.0
 40
0.0
 40
0.0
 40
0.0
 40
0.0367725003254103
 40
0.074208401060063
 40
0.1123590542807964
 40
0.1512729822568881
 40
0.190995910016845
 40
0.2315708273504481
 40
0.2730380740418892
 40
0.3154354426077851
 40
0.3587982934432034
 40
0.4031596779810961
 40
0.4485504661847858
 40
0.494999475376923
 40
0.5532504315673752
 40
0.621829488573267
 40
0.7007739996560722
 40
0.7901076726660372
 40
0.8898461547533933
 40
1.0
 40
1.0
 40
1.0
 40
1.0
 10
394.6297993259184
 20
117.9478613739617
 30
0.0
 10
394.6300230999832
 20
117.9475366863279
 30
0.0
 10
394.6304746851462
 20
117.9468814534792
 30
0.0
 10
394.6351917250185
 20
117.9415190816914
 30
0.0
 10
394.6428443341011
 20
117.9327634879909
 30
0.0
 10
394.653737313238
 20
117.920139269899
 30
0.0
 10
394.6677858996539
 20
117.9035829317686
 30
0.0
 10
394.6850127972631
 20
117.8829257543908
 30
0.0
 10
394.7054113500445
 20
117.858038018423
 30
0.0
 10
394.7289821633368
 20
117.8287904722296
 30
0.0
 10
394.7557275118965
 20
117.7950675370332
 30
0.0
 10
394.7856353653288
 20
117.7567617219077
 30
0.0
 10
394.8187514576733
 20
117.7137908265698
 30
0.0
 10
394.8576773792473
 20
117.6623695448991
 30
0.0
 10
394.9065054589639
 20
117.5981533132099
 30
0.0
 10
394.9684260635649
 20
117.5152587841154
 30
0.0
 10
395.0428106218859
 20
117.4113130339009
 30
0.0
 10
395.1297850498745
 20
117.2832268236436
 30
0.0
 10
395.229209899857
 20
117.1291370437373
 30
0.0
 10
395.3006290755865
 20
117.0110728078669
 30
0.0
 10
395.3381106592674
 20
116.949111373962
 30
0.0
  0
LINE
  5
DF
330
1F
100
AcDbEntity
  8
0
  6
Continuous
 62
     7
370
    25
100
AcDbLine
 10
395.3381106593
 20
116.949111374
 30
0.0
 11
395.2634688397
 21
116.949111374
 31
0.0
  0
SPLINE
  5
E0
330
1F
100
AcDbEntity
  8
0
  6
Continuous
 62
     7
370
    25
100
AcDbSpline
210
0.0
220
0.0
230
1.0
 70
     8
 71
     3
 72
    23
 73
    19
 74
     0
 42
0.000000001
 43
0.00000001
 40
0.0
 40
0.0
 40
0.0
 40
0.0
 40
0.0511129009857221
 40
0.1016896331838983
 40
0.1518293139104713
 40
0.201633670189439
 40
0.2512064936754081
 40
0.3006530343006331
 40
0.3500793489716449
 40
0.3995916247932065
 40
0.4492954981442684
 40
0.4992953912354716
 40
0.5872572780521574
 40
0.6724255494349275
 40
0.7555067762540824
 40
0.8372616735271673
 40
0.9184882400167564
 40
1.0
 40
1.0
 40
1.0
 40
1.0
 10
395.0717831893554
 20
117.1411024165399
 30
0.0
 10
395.0557676054548
 20
117.1702310187708
 30
0.0
 10
395.0239044393919
 20
117.2281826673546
 30
0.0
 10
394.9768606009731
 20
117.3109405025729
 30
0.0
 10
394.930882076798
 20
117.3900293610571
 30
0.0
 10
394.8861014099945
 20
117.4652463489912
 30
0.0
 10
394.8426176455586
 20
117.5367094040369
 30
0.0
 10
394.800531681974
 20
117.6044508082253
 30
0.0
 10
394.7599372175766
 20
117.6685243199702
 30
0.0
 10
394.7209223112263
 20
117.7289779190415
 30
0.0
 10
394.6835724887389
 20
117.7858554239697
 30
0.0
 10
394.6390442321468
 20
117.8525698970302
 30
0.0
 10
394.5904039716057
 20
117.9238901808947
 30
0.0
 10
394.5425648718498
 20
117.9924704333538
 30
0.0
 10
394.5049133597689
 20
118.0454867613959
 30
0.0
 10
394.4780906583815
 20
118.0827594175235
 30
0.0
 10
394.4613618275579
 20
118.1057968171035
 30
0.0
 10
394.459513417594
 20
118.1083315423687
 30
0.0
 10
394.4585875929736
 20
118.1096011260121
 30
0.0
  0
SPLINE
  5
E1
330
1F
100
AcDbEntity
  8
0
  6
Continuous
 62
     7
370
    25
100
AcDbSpline
210
0.0
220
0.0
230
1.0
 70
     8
 71
     3
 72
     8
 73
     4
 74
     0
 42
0.000000001
 43
0.00000001
 40
0.0
 40
0.0
 40
0.0
 40
0.0
 40
1.0
 40
1.0
 40
1.0
 40
1.0
 10
397.7339327085016
 20
116.9491113739619
 30
0.0
 10
397.7558180801448
 20
116.9734323901596
 30
0.0
 10
397.7777034517879
 20
116.997456988482
 30
0.0
 10
397.799588823431
 20
117.0211638405705
 30
0.0
  0
LINE
  5
E2
330
1F
100
AcDbEntity
  8
0
  6
Continuous
 62
     7
370
    25
100
AcDbLine
 10
397.7337725033
 20
116.949111374
 30
0.0
 11
395.3381106593
 21
116.949111374
 31
0.0
  0
SPLINE
  5
E3
330
1F
100
AcDbEntity
  8
0
  6
Continuous
 62
     7
370
    25
100
AcDbSpline
210
0.0
220
0.0
230
1.0
 70
     8
 71
     3
 72
     8
 73
     4
 74
     0
 42
0.000000001
 43
0.00000001
 40
0.0
 40
0.0
 40
0.0
 40
0.0
 40
1.0
 40
1.0
 40
1.0
 40
1.0
 10
376.8603970736033
 20
117.0212674080506
 30
0.0
 10
376.8823138460908
 20
116.9975269594915
 30
0.0
 10
376.9042306185784
 20
116.9734678077049
 30
0.0
 10
376.926147391066
 20
116.949111373962
 30
0.0
  0
SPLINE
  5
E4
330
1F
100
AcDbEntity
  8
0
  6
Continuous
 62
     7
370
    25
100
AcDbSpline
210
0.0
220
0.0
230
1.0
 70
     8
 71
     3
 72
    26
 73
    22
 74
     0
 42
0.000000001
 43
0.00000001
 40
0.0
 40
0.0
 40
0.0
 40
0.0
 40
0.0524616032245984
 40
0.1026497911584775
 40
0.1505654136713723
 40
0.1962094561589203
 40
0.2395830674744455
 40
0.2806875955357221
 40
0.3195246332747494
 40
0.3560960787422642
 40
0.3904042149164026
 40
0.4224518174656405
 40
0.4522423030205674
 40
0.4797799375650286
 40
0.5050701364955548
 40
0.5966477315635087
 40
0.6842052596254289
 40
0.768002620409792
 40
0.84833623390995
 40
0.9255424426774792
 40
1.0
 40
1.0
 40
1.0
 40
1.0
 10
379.3217919055134
 20
116.9491262659797
 30
0.0
 10
379.3396533898018
 20
116.9788997260208
 30
0.0
 10
379.3746023337775
 20
117.0371564179141
 30
0.0
 10
379.4253671672596
 20
117.1193553982788
 30
0.0
 10
379.4734371249013
 20
117.1954362671795
 30
0.0
 10
379.5187810976666
 20
117.2653876156457
 30
0.0
 10
379.5614070771703
 20
117.329494777598
 30
0.0
 10
379.6013133756849
 20
117.3880026170672
 30
0.0
 10
379.6385007047816
 20
117.4411911946927
 30
0.0
 10
379.6729695274357
 20
117.4893492349179
 30
0.0
 10
379.7047196158535
 20
117.5327739082349
 30
0.0
 10
379.7337540211773
 20
117.5717639991946
 30
0.0
 10
379.7600653079613
 20
117.60661809818
 30
0.0
 10
379.7836819455235
 20
117.6376230911083
 30
0.0
 10
379.8233299661833
 20
117.6898694710369
 30
0.0
 10
379.874872143913
 20
117.7574027900916
 30
0.0
 10
379.9317027214308
 20
117.829598386154
 30
0.0
 10
379.9758618335595
 20
117.8840807544778
 30
0.0
 10
380.0070382540051
 20
117.9213421484557
 30
0.0
 10
380.0264941999928
 20
117.9438030061382
 30
0.0
 10
380.0286307631611
 20
117.9465250287191
 30
0.0
 10
380.0296796839329
 20
117.947861373962
 30
0.0
  0
LINE
  5
E5
330
1F
100
AcDbEntity
  8
0
  6
Continuous
 62
     7
370
    25
100
AcDbLine
 10
379.3217919055
 20
116.949111374
 30
0.0
 11
376.9261473911
 21
116.949111374
 31
0.0
  0
LINE
  5
E6
330
1F
100
AcDbEntity
  8
0
  6
Continuous
 62
     7
370
    25
100
AcDbLine
 10
379.3966112831
 20
116.949111374
 30
0.0
 11
379.3214916848
 21
116.949111374
 31
0.0
  0
SPLINE
  5
E7
330
1F
100
AcDbEntity
  8
0
  6
Continuous
 62
     7
370
    25
100
AcDbSpline
210
0.0
220
0.0
230
1.0
 70
     8
 71
     3
 72
     8
 73
     4
 74
     0
 42
0.000000001
 43
0.00000001
 40
0.0
 40
0.0
 40
0.0
 40
0.0
 40
1.0
 40
1.0
 40
1.0
 40
1.0
 10
379.3966112831465
 20
116.949111373962
 30
0.0
 10
379.4605200858063
 20
117.0110802373931
 30
0.0
 10
379.5242950051583
 20
117.0750563025098
 30
0.0
 10
379.5876550710393
 20
117.1405909588555
 30
0.0
  0
SPLINE
  5
E8
330
1F
100
AcDbEntity
  8
0
  6
Continuous
 62
     7
370
    25
100
AcDbSpline
210
0.0
220
0.0
230
1.0
 70
     8
 71
     3
 72
    24
 73
    20
 74
     0
 42
0.000000001
 43
0.00000001
 40
0.0
 40
0.0
 40
0.0
 40
0.0
 40
0.0410168309160251
 40
0.0818356321224298
 40
0.1225576684073127
 40
0.1632849263043688
 40
0.2041193531422725
 40
0.2451620975485173
 40
0.2865127793361656
 40
0.3282688142230838
 40
0.370524814367772
 40
0.4133720798884311
 40
0.456898190125439
 40
0.5011866971564671
 40
0.6001870884229382
 40
0.6987399491827955
 40
0.7976807785240759
 40
0.8978353515390326
 40
1.0
 40
1.0
 40
1.0
 40
1.0
 10
380.2012378769141
 20
118.1092514552935
 30
0.0
 10
380.2010456891097
 20
118.1089876419034
 30
0.0
 10
380.2006622413858
 20
118.1084612888172
 30
0.0
 10
380.1966134244071
 20
118.1028977717077
 30
0.0
 10
380.1900241535595
 20
118.0938235396198
 30
0.0
 10
380.1806631555036
 20
118.0808906948191
 30
0.0
 10
380.1686169265131
 20
118.0641750247105
 30
0.0
 10
380.1538948633053
 20
118.043633924848
 30
0.0
 10
380.1365350190028
 20
118.019251597503
 30
0.0
 10
380.1165756619288
 20
117.9910000247552
 30
0.0
 10
380.0940631167878
 20
117.9588497515616
 30
0.0
 10
380.0690491260659
 20
117.9227662913351
 30
0.0
 10
380.0415937220425
 20
117.8827140696657
 30
0.0
 10
379.9996662203746
 20
117.8207872426507
 30
0.0
 10
379.9404578027838
 20
117.7314713631139
 30
0.0
 10
379.8606781239548
 20
117.6069266436958
 30
0.0
 10
379.774697362012
 20
117.4671418854559
 30
0.0
 10
379.6834125686205
 20
117.3127290573
 30
0.0
 10
379.620208215401
 20
117.1986830368955
 30
0.0
 10
379.5882920658589
 20
117.1410934935096
 30
0.0
  0
LINE
  5
E9
330
1F
100
AcDbEntity
  8
0
  6
Continuous
 62
     7
370
    25
100
AcDbLine
 10
376.5173991593
 20
108.4278063763
 30
0.0
 11
376.9416365743
 21
108.8765992748
 31
0.0
  0
SPLINE
  5
EA
330
1F
100
AcDbEntity
  8
0
  6
Continuous
 62
     7
370
    25
100
AcDbSpline
210
0.0
220
0.0
230
1.0
 70
     8
 71
     3
 72
    13
 73
     9
 74
     0
 42
0.000000001
 43
0.00000001
 40
0.0
 40
0.0
 40
0.0
 40
0.0
 40
0.1706413962692788
 40
0.3396133085346459
 40
0.5069741541868396
 40
0.6727840535390016
 40
0.8371048293578147
 40
1.0
 40
1.0
 40
1.0
 40
1.0
 10
376.9416365743072
 20
108.8765786324328
 30
0.0
 10
376.9466423299722
 20
108.8696268984215
 30
0.0
 10
376.9566048670836
 20
108.855791443255
 30
0.0
 10
376.9694792237598
 20
108.8396634227931
 30
0.0
 10
376.9807457237603
 20
108.8269948907511
 30
0.0
 10
376.9902229323134
 20
108.8181388892642
 30
0.0
 10
376.9981046960575
 20
108.8126273142069
 30
0.0
 10
377.0019190570231
 20
108.8119490356754
 30
0.0
 10
377.0038179283559
 20
108.811611373962
 30
0.0
  0
SPLINE
  5
EB
330
1F
100
AcDbEntity
  8
0
  6
Continuous
 62
     7
370
    25
100
AcDbSpline
210
0.0
220
0.0
230
1.0
 70
     8
 71
     3
 72
    13
 73
     9
 74
     0
 42
0.000000001
 43
0.00000001
 40
0.0
 40
0.0
 40
0.0
 40
0.0
 40
0.1620909845429404
 40
0.3259283017468241
 40
0.4915764691781117
 40
0.6590979119692602
 40
0.8285529847843899
 40
1.0
 40
1.0
 40
1.0
 40
1.0
 10
397.6562621945032
 20
108.811611373962
 30
0.0
 10
397.6581390020294
 20
108.8119458189977
 30
0.0
 10
397.6619128373939
 20
108.8126183123065
 30
0.0
 10
397.6697594377599
 20
108.8180911361763
 30
0.0
 10
397.6792253399307
 20
108.8269101567754
 30
0.0
 10
397.6905064458556
 20
108.8395627111654
 30
0.0
 10
397.7034216027388
 20
108.8557149780119
 30
0.0
 10
397.7134177862759
 20
108.8696013586403
 30
0.0
 10
397.7184450826497
 20
108.8765851190644
 30
0.0
  0
LINE
  5
EC
330
1F
100
AcDbEntity
  8
0
  6
Continuous
 62
     7
370
    25
100
AcDbLine
 10
397.7184580505
 20
108.8765854871
 30
0.0
 11
398.1426802152
 21
108.4278064018
 31
0.0
  0
LINE
  5
ED
330
1F
100
AcDbEntity
  8
0
  6
Continuous
 62
     7
370
    25
100
AcDbLine
 10
395.2634688397
 20
108.886611374
 30
0.0
 11
395.2721901493
 21
108.886611374
 31
0.0
  0
SPLINE
  5
EE
330
1F
100
AcDbEntity
  8
0
  6
Continuous
 62
     7
370
    25
100
AcDbSpline
210
0.0
220
0.0
230
1.0
 70
     8
 71
     3
 72
     8
 73
     4
 74
     0
 42
0.000000001
 43
0.00000001
 40
0.0
 40
0.0
 40
0.0
 40
0.0
 40
1.0
 40
1.0
 40
1.0
 40
1.0
 10
397.7184581236426
 20
108.8765857321316
 30
0.0
 10
397.7162746394015
 20
108.879434397648
 30
0.0
 10
397.7140911551604
 20
108.8823751890455
 30
0.0
 10
397.7119076709192
 20
108.885407686322
 30
0.0
  0
LINE
  5
EF
330
1F
100
AcDbEntity
  8
0
  6
Continuous
 62
     7
370
    25
100
AcDbLine
 10
397.7110049279
 20
108.886611374
 30
0.0
 11
395.2721945685
 21
108.886611374
 31
0.0
  0
SPLINE
  5
F0
330
1F
100
AcDbEntity
  8
0
  6
Continuous
 62
     7
370
    25
100
AcDbSpline
210
0.0
220
0.0
230
1.0
 70
     8
 71
     3
 72
     8
 73
     4
 74
     0
 42
0.000000001
 43
0.00000001
 40
0.0
 40
0.0
 40
0.0
 40
0.0
 40
1.0
 40
1.0
 40
1.0
 40
1.0
 10
376.9490752183493
 20
108.8866113739697
 30
0.0
 10
376.9465892996628
 20
108.8831496746576
 30
0.0
 10
376.9441033809763
 20
108.8798055227487
 30
0.0
 10
376.9416174622897
 20
108.8765795308084
 30
0.0
  0
LINE
  5
F1
330
1F
100
AcDbEntity
  8
0
  6
Continuous
 62
     7
370
    25
100
AcDbLine
 10
379.3863792749
 20
108.886611374
 30
0.0
 11
376.9492916587
 21
108.886611374
 31
0.0
  0
LINE
  5
F2
330
1F
100
AcDbEntity
  8
0
  6
Continuous
 62
     7
370
    25
100
AcDbLine
 10
379.3878891329
 20
108.886611374
 30
0.0
 11
379.3966112831
 21
108.886611374
 31
0.0
  0
SPLINE
  5
F3
330
1F
100
AcDbEntity
  8
0
  6
Continuous
 62
     7
370
    25
100
AcDbSpline
210
0.0
220
0.0
230
1.0
 70
     8
 71
     3
 72
    14
 73
    10
 74
     0
 42
0.000000001
 43
0.00000001
 40
0.0
 40
0.0
 40
0.0
 40
0.0
 40
0.0310276310570805
 40
0.0622853638080882
 40
0.1248003080239446
 40
0.249828963271062
 40
0.4998892480129931
 40
0.7606946230442756
 40
0.9999999999999999
 40
0.9999999999999999
 40
0.9999999999999999
 40
0.9999999999999999
 10
376.3699460669704
 20
108.4298731993466
 30
0.0
 10
376.3742752195773
 20
108.4346569655429
 30
0.0
 10
376.382965629896
 20
108.444259974466
 30
0.0
 10
376.400365846097
 20
108.4635536653131
 30
0.0
 10
376.4308410234381
 20
108.4973175211513
 30
0.0
 10
376.4916604631586
 20
108.5647341329002
 30
0.0
 10
376.5795499540272
 20
108.6621997072718
 30
0.0
 10
376.6823844591974
 20
108.7763413200603
 30
0.0
 10
376.7495884875962
 20
108.8511234595631
 30
0.0
 10
376.7817459352916
 20
108.8869070695178
 30
0.0
  0
LINE
  5
F4
330
1F
100
AcDbEntity
  8
0
  6
Continuous
 62
     7
370
    25
100
AcDbLine
 10
376.7814327056
 20
108.886611374
 30
0.0
 11
376.9490752183
 21
108.886611374
 31
0.0
  0
LINE
  5
F5
330
1F
100
AcDbEntity
  8
0
  6
Continuous
 62
     7
370
    25
100
AcDbLine
 10
397.7110049279
 20
108.886611374
 30
0.0
 11
397.8786547996
 21
108.886611374
 31
0.0
  0
SPLINE
  5
F6
330
1F
100
AcDbEntity
  8
0
  6
Continuous
 62
     7
370
    25
100
AcDbSpline
210
0.0
220
0.0
230
1.0
 70
     8
 71
     3
 72
    11
 73
     7
 74
     0
 42
0.000000001
 43
0.00000001
 40
0.0
 40
0.0
 40
0.0
 40
0.0
 40
0.2392771050480589
 40
0.5001130256950088
 40
0.7515027953458615
 40
1.0
 40
1.0
 40
1.0
 40
1.0
 10
397.878366270223
 20
108.8868837482534
 30
0.0
 10
397.9105199057854
 20
108.8511104449375
 30
0.0
 10
397.977724212545
 20
108.7763406713863
 30
0.0
 10
398.0807491085217
 20
108.6618848880424
 30
0.0
 10
398.1858383714218
 20
108.5457273884211
 30
0.0
 10
398.255510942708
 20
108.4683419399915
 30
0.0
 10
398.2901456503432
 20
108.4298731088274
 30
0.0
  0
LINE
  5
F7
330
1F
100
AcDbEntity
  8
0
  6
Continuous
 62
     7
370
    25
100
AcDbLine
 10
376.9261473911
 20
116.949111374
 30
0.0
 11
376.7815774195
 21
116.949111374
 31
0.0
  0
SPLINE
  5
F8
330
1F
100
AcDbEntity
  8
0
  6
Continuous
 62
     7
370
    25
100
AcDbSpline
210
0.0
220
0.0
230
1.0
 70
     8
 71
     3
 72
    11
 73
     7
 74
     0
 42
0.000000001
 43
0.00000001
 40
0.0
 40
0.0
 40
0.0
 40
0.0
 40
0.2392702283375446
 40
0.500112057563497
 40
0.7515010343499211
 40
1.0
 40
1.0
 40
1.0
 40
1.0
 10
376.7818647845249
 20
116.9488399963516
 30
0.0
 10
376.7497065709741
 20
116.9846344301036
 30
0.0
 10
376.6824908941294
 20
117.0594503737229
 30
0.0
 10
376.5794494335327
 20
117.1739757127394
 30
0.0
 10
376.4743425997503
 20
117.2902050265583
 30
0.0
 10
376.4046593278009
 20
117.3676370328565
 30
0.0
 10
376.3700191224018
 20
117.4061292064816
 30
0.0
  0
SPLINE
  5
F9
330
1F
100
AcDbEntity
  8
0
  6
Continuous
 62
     7
370
    25
100
AcDbSpline
210
0.0
220
0.0
230
1.0
 70
     8
 71
     3
 72
    14
 73
    10
 74
     0
 42
0.000000001
 43
0.00000001
 40
0.0
 40
0.0
 40
0.0
 40
0.0
 40
0.0310294070696369
 40
0.0622870827662268
 40
0.1248019131207446
 40
0.2498303412944546
 40
0.4998901702455053
 40
0.7607014801235668
 40
1.0
 40
1.0
 40
1.0
 40
1.0
 10
398.2900493851321
 20
117.4061290982054
 30
0.0
 10
398.2857193294187
 20
117.4013420675034
 30
0.0
 10
398.2770273638264
 20
117.3917327901855
 30
0.0
 10
398.2596242969185
 20
117.3724274187769
 30
0.0
 10
398.2291445421048
 20
117.3386432922508
 30
0.0
 10
398.1683158699404
 20
117.2711863054651
 30
0.0
 10
398.0804118126743
 20
117.1736608943459
 30
0.0
 10
397.9775607371899
 20
117.0594497820646
 30
0.0
 10
397.9103453584999
 20
116.984621492356
 30
0.0
 10
397.8781833419258
 20
116.9488167592618
 30
0.0
  0
LINE
  5
FA
330
1F
100
AcDbEntity
  8
0
  6
Continuous
 62
     7
370
    25
100
AcDbLine
 10
397.8784953089
 20
116.949111374
 30
0.0
 11
397.7339327085
 21
116.949111374
 31
0.0
  0
LINE
  5
FB
330
1F
100
AcDbEntity
  8
0
  6
Continuous
 62
     7
370
    25
100
AcDbLine
 10
375.4593721967
 20
110.7305236314
 30
0.0
 11
375.899434854
 21
110.811611374
 31
0.0
  0
SPLINE
  5
FC
330
1F
100
AcDbEntity
  8
0
  6
Continuous
 62
     7
370
    25
100
AcDbSpline
210
0.0
220
0.0
230
1.0
 70
     8
 71
     3
 72
    25
 73
    21
 74
     0
 42
0.000000001
 43
0.00000001
 40
0.0
 40
0.0
 40
0.0
 40
0.0
 40
0.0274788604633948
 40
0.056041580374397
 40
0.0856946775776488
 40
0.1164439744520652
 40
0.1482946901229791
 40
0.1812515183576172
 40
0.21531869363882
 40
0.2505000474389724
 40
0.3330513345460837
 40
0.5015080140592555
 40
0.5771733427895557
 40
0.6489103136089254
 40
0.7167630290816648
 40
0.7807837094914061
 40
0.8410346307229359
 40
0.89759061515514
 40
0.9505422438476955
 40
0.9999999999999999
 40
0.9999999999999999
 40
0.9999999999999999
 40
0.9999999999999999
 10
375.8994348540184
 20
110.811611373962
 30
0.0
 10
375.9061430213618
 20
110.7824291694445
 30
0.0
 10
375.9198239489186
 20
110.7229137152958
 30
0.0
 10
375.9425886775721
 20
110.6325232182371
 30
0.0
 10
375.967466314814
 20
110.5393916091161
 30
0.0
 10
375.9946055528254
 20
110.4438055648406
 30
0.0
 10
376.0239669598808
 20
110.3460520952295
 30
0.0
 10
376.0555521300742
 20
110.2464714191636
 30
0.0
 10
376.0893990003103
 20
110.1454622796181
 30
0.0
 10
376.1411002281517
 20
109.9986954721807
 30
0.0
 10
376.2454592683359
 20
109.7344290616876
 30
0.0
 10
376.3663350007758
 20
109.4644534283166
 30
0.0
 10
376.4798327847241
 20
109.2470365335675
 30
0.0
 10
376.5511115404312
 20
109.1173264597224
 30
0.0
 10
376.6131896243735
 20
109.0134507230412
 30
0.0
 10
376.6657748893185
 20
108.9335934423045
 30
0.0
 10
376.7090204700172
 20
108.8755803205116
 30
0.0
 10
376.7426239734126
 20
108.8374825710615
 30
0.0
 10
376.767565710031
 20
108.8154847589732
 30
0.0
 10
376.7765197195699
 20
108.8128727984552
 30
0.0
 10
376.7808439836112
 20
108.811611373962
 30
0.0
  0
LINE
  5
FD
330
1F
100
AcDbEntity
  8
0
  6
Continuous
 62
     7
370
    25
100
AcDbLine
 10
399.2007079262
 20
115.1051991165
 30
0.0
 11
398.7606452688
 21
115.024111374
 31
0.0
  0
SPLINE
  5
FE
330
1F
100
AcDbEntity
  8
0
  6
Continuous
 62
     7
370
    25
100
AcDbSpline
210
0.0
220
0.0
230
1.0
 70
     8
 71
     3
 72
    25
 73
    21
 74
     0
 42
0.000000001
 43
0.00000001
 40
0.0
 40
0.0
 40
0.0
 40
0.0
 40
0.0274788604633835
 40
0.0560415803743757
 40
0.0856946775776175
 40
0.1164439744520234
 40
0.1482946901229275
 40
0.1812515183575572
 40
0.2153186936387509
 40
0.2505000474388949
 40
0.3330513345813443
 40
0.5015080140593063
 40
0.5771733427880285
 40
0.6489103136062581
 40
0.7167630290783021
 40
0.7807837094877967
 40
0.8410346307195359
 40
0.8975906151524101
 40
0.9505422438460975
 40
1.0
 40
1.0
 40
1.0
 40
1.0
 10
398.7606452688408
 20
115.024111373962
 30
0.0
 10
398.7539371014973
 20
115.0532935784795
 30
0.0
 10
398.7402561739406
 20
115.1128090326282
 30
0.0
 10
398.717491445287
 20
115.2031995296869
 30
0.0
 10
398.6926138080451
 20
115.296331138808
 30
0.0
 10
398.6654745700337
 20
115.3919171830834
 30
0.0
 10
398.6361131629783
 20
115.4896706526945
 30
0.0
 10
398.6045279927849
 20
115.5892513287604
 30
0.0
 10
398.5706811225489
 20
115.6902604683059
 30
0.0
 10
398.518979894695
 20
115.8370272757774
 30
0.0
 10
398.4146208545135
 20
116.1012936862688
 30
0.0
 10
398.2937451220717
 20
116.3712693196303
 30
0.0
 10
398.1802473381352
 20
116.5886862143534
 30
0.0
 10
398.1089685824284
 20
116.718396288197
 30
0.0
 10
398.0468904984861
 20
116.822272024878
 30
0.0
 10
397.9943052335412
 20
116.9021293056155
 30
0.0
 10
397.9510596528426
 20
116.9601424274097
 30
0.0
 10
397.9174561494469
 20
116.9982401768612
 30
0.0
 10
397.8925144128285
 20
117.0202379889506
 30
0.0
 10
397.8835604032893
 20
117.0228499494687
 30
0.0
 10
397.879236139248
 20
117.024111373962
 30
0.0
  0
SPLINE
  5
FF
330
1F
100
AcDbEntity
  8
0
  6
Continuous
 62
     7
370
    25
100
AcDbSpline
210
0.0
220
0.0
230
1.0
 70
     8
 71
     3
 72
    25
 73
    21
 74
     0
 42
0.000000001
 43
0.00000001
 40
0.0
 40
0.0
 40
0.0
 40
0.0
 40
0.0288760384315855
 40
0.0583531183787362
 40
0.0884515256342754
 40
0.1191903155210541
 40
0.1505873770367557
 40
0.1826594973240215
 40
0.2154224255057506
 40
0.2488909351380474
 40
0.361059549884163
 40
0.4984670937677694
 40
0.5822694576839094
 40
0.6661128179770435
 40
0.7499973339301048
 40
0.8007710075466903
 40
0.8511237940268921
 40
0.9010896183608236
 40
0.9507031993409268
 40
1.0
 40
1.0
 40
1.0
 40
1.0
 10
376.7808439836112
 20
117.024111373962
 30
0.0
 10
376.7785554879946
 20
117.0236833090759
 30
0.0
 10
376.7739308627734
 20
117.0228182693292
 30
0.0
 10
376.7636240767187
 20
117.0157457011088
 30
0.0
 10
376.7507901496927
 20
117.004179990979
 30
0.0
 10
376.7351772366067
 20
116.9874770266219
 30
0.0
 10
376.7168549898375
 20
116.9655416560539
 30
0.0
 10
376.6958051512933
 20
116.9381436499454
 30
0.0
 10
376.6720298217137
 20
116.9051060469669
 30
0.0
 10
376.6249702930484
 20
116.8361121231872
 30
0.0
 10
376.5372743452434
 20
116.6960830379318
 30
0.0
 10
376.4197225391674
 20
116.476787749953
 30
0.0
 10
376.3082004012676
 20
116.2398576868742
 30
0.0
 10
376.2167410780505
 20
116.0240158134765
 30
0.0
 10
376.1358594283228
 20
115.8224541924682
 30
0.0
 10
376.0697145262218
 20
115.6435861120963
 30
0.0
 10
376.0203639654455
 20
115.492209910948
 30
0.0
 10
375.9753969485671
 20
115.3379657558262
 30
0.0
 10
375.9346392346513
 20
115.1818099007503
 30
0.0
 10
375.9111445654337
 20
115.0765651938023
 30
0.0
 10
375.8994348540184
 20
115.024111373962
 30
0.0
  0
LINE
  5
100
330
1F
100
AcDbEntity
  8
0
  6
Continuous
 62
     7
370
    25
100
AcDbLine
 10
375.4593721967
 20
115.1051991165
 30
0.0
 11
375.899434854
 21
115.024111374
 31
0.0
  0
SPLINE
  5
101
330
1F
100
AcDbEntity
  8
0
  6
Continuous
 62
     7
370
    25
100
AcDbSpline
210
0.0
220
0.0
230
1.0
 70
     8
 71
     3
 72
    25
 73
    21
 74
     0
 42
0.000000001
 43
0.00000001
 40
0.0
 40
0.0
 40
0.0
 40
0.0
 40
0.0288760384329379
 40
0.0583531183810567
 40
0.0884515256371788
 40
0.1191903155241519
 40
0.1505873770396599
 40
0.1826594973263453
 40
0.2154224255071077
 40
0.2488909351380524
 40
0.3610595498818108
 40
0.4984670937677609
 40
0.5822694576837939
 40
0.6661128179769302
 40
0.749997333930102
 40
0.8007710075450265
 40
0.851123794024394
 40
0.9010896183583234
 40
0.9507031993392587
 40
1.0
 40
1.0
 40
1.0
 40
1.0
 10
397.879236139248
 20
108.811611373962
 30
0.0
 10
397.8815246348648
 20
108.8120394388481
 30
0.0
 10
397.8861492600865
 20
108.8129044785949
 30
0.0
 10
397.8964560461417
 20
108.8199770468159
 30
0.0
 10
397.9092899731679
 20
108.8315427569463
 30
0.0
 10
397.924902886254
 20
108.8482457213039
 30
0.0
 10
397.9432251330231
 20
108.8701810918724
 30
0.0
 10
397.964274971567
 20
108.8975790979807
 30
0.0
 10
397.988050301146
 20
108.9306167009586
 30
0.0
 10
398.0351098298108
 20
108.9996106247366
 30
0.0
 10
398.1228057776165
 20
109.1396397099906
 30
0.0
 10
398.2403575836911
 20
109.358934997969
 30
0.0
 10
398.3518797215904
 20
109.59586506105
 30
0.0
 10
398.4433390448074
 20
109.8117069344477
 30
0.0
 10
398.5242206945355
 20
110.0132685554543
 30
0.0
 10
398.5903655966366
 20
110.1921366358235
 30
0.0
 10
398.6397161574123
 20
110.3435128369691
 30
0.0
 10
398.6846831742906
 20
110.4977569920908
 30
0.0
 10
398.7254408882068
 20
110.6539128471693
 30
0.0
 10
398.7489355574251
 20
110.7591575541199
 30
0.0
 10
398.7606452688408
 20
110.811611373962
 30
0.0
  0
LINE
  5
102
330
1F
100
AcDbEntity
  8
0
  6
Continuous
 62
     7
370
    25
100
AcDbLine
 10
399.2007079262
 20
110.7305236314
 30
0.0
 11
398.7606452688
 21
110.811611374
 31
0.0
  0
SPLINE
  5
103
330
1F
100
AcDbEntity
  8
0
  6
Continuous
 62
     7
370
    25
100
AcDbSpline
210
0.0
220
0.0
230
1.0
 70
     8
 71
     3
 72
    14
 73
    10
 74
     0
 42
0.000000001
 43
0.00000001
 40
0.0
 40
0.0
 40
0.0
 40
0.0
 40
0.1359123079837325
 40
0.2970792767116696
 40
0.4458157305808811
 40
0.5950239444351694
 40
0.7620273866636915
 40
0.9152804440662526
 40
1.0
 40
1.0
 40
1.0
 40
1.0
 10
378.432182173151
 20
115.024111373962
 30
0.0
 10
378.467426194423
 20
115.1445397423736
 30
0.0
 10
378.5444631346621
 20
115.4077739785808
 30
0.0
 10
378.6851709645352
 20
115.7813718413375
 30
0.0
 10
378.8341245744598
 20
116.1333328651084
 30
0.0
 10
378.9919394862013
 20
116.4460405081684
 30
0.0
 10
379.1385662704771
 20
116.7036230600024
 30
0.0
 10
379.24049260065
 20
116.8791791154078
 30
0.0
 10
379.2738604787943
 20
116.9319613382593
 30
0.0
 10
379.2857396264795
 20
116.9507520991729
 30
0.0
  0
SPLINE
  5
104
330
1F
100
AcDbEntity
  8
0
  6
Continuous
 62
     7
370
    25
100
AcDbSpline
210
0.0
220
0.0
230
1.0
 70
     8
 71
     3
 72
    14
 73
    10
 74
     0
 42
0.000000001
 43
0.00000001
 40
0.0
 40
0.0
 40
0.0
 40
0.0
 40
0.1359123079729695
 40
0.2970792767109405
 40
0.4458157305795022
 40
0.5950239444337541
 40
0.7620273866583082
 40
0.9152804440592888
 40
1.0
 40
1.0
 40
1.0
 40
1.0
 10
396.2278979497081
 20
110.811611373962
 30
0.0
 10
396.1926539284383
 20
110.6911830055599
 30
0.0
 10
396.1156169881982
 20
110.4279487693531
 30
0.0
 10
395.974909158327
 20
110.0543509065948
 30
0.0
 10
395.8259555484025
 20
109.7023898828149
 30
0.0
 10
395.6681406366592
 20
109.3896822397584
 30
0.0
 10
395.5215138523808
 20
109.1320996879266
 30
0.0
 10
395.4195875222071
 20
108.9565436325189
 30
0.0
 10
395.3862196440625
 20
108.9037614096651
 30
0.0
 10
395.3743404963766
 20
108.8849706487496
 30
0.0
  0
SPLINE
  5
105
330
1F
100
AcDbEntity
  8
0
  6
Continuous
 62
     7
370
    25
100
AcDbSpline
210
0.0
220
0.0
230
1.0
 70
     8
 71
     3
 72
    13
 73
     9
 74
     0
 42
0.000000001
 43
0.00000001
 40
0.0
 40
0.0
 40
0.0
 40
0.0
 40
0.0217227731865056
 40
0.1003881822775172
 40
0.237240940168383
 40
0.3994077498523987
 40
0.7008687133263626
 40
1.0
 40
1.0
 40
1.0
 40
1.0
 10
379.2835491456536
 20
108.886165849365
 30
0.0
 10
379.2806131138478
 20
108.8907862913765
 30
0.0
 10
379.2670447313225
 20
108.9121388954324
 30
0.0
 10
379.219588131374
 20
108.9894356303337
 30
0.0
 10
379.126029111371
 20
109.1453733935671
 30
0.0
 10
378.9464312718075
 20
109.4778414136549
 30
0.0
 10
378.6774020009294
 20
110.0258376698885
 30
0.0
 10
378.513710464453
 20
110.5503650138143
 30
0.0
 10
378.432182173151
 20
110.811611373962
 30
0.0
  0
LINE
  5
106
330
1F
100
AcDbEntity
  8
0
  6
Continuous
 62
     7
370
    25
100
AcDbLine
 10
378.7484423305
 20
114.9492480794
 30
0.0
 11
378.4321821732
 21
115.024111374
 31
0.0
  0
SPLINE
  5
107
330
1F
100
AcDbEntity
  8
0
  6
Continuous
 62
     7
370
    25
100
AcDbSpline
210
0.0
220
0.0
230
1.0
 70
     8
 71
     3
 72
    25
 73
    21
 74
     0
 42
0.000000001
 43
0.00000001
 40
0.0
 40
0.0
 40
0.0
 40
0.0
 40
0.0278040781436522
 40
0.055549721993219
 40
0.0833079149813089
 40
0.1111495445113076
 40
0.1391448641111913
 40
0.1673629793310927
 40
0.1958713754537566
 40
0.2247355016371065
 40
0.2540184217407993
 40
0.3796733112851029
 40
0.5056490307768108
 40
0.6297529978411118
 40
0.7535891429683279
 40
0.8038648317328723
 40
0.8533521433028843
 40
0.9023387809687056
 40
0.9511213072444032
 40
1.0
 40
1.0
 40
1.0
 40
1.0
 10
379.6160639721411
 20
117.1916096651445
 30
0.0
 10
379.6159191799602
 20
117.1913484634583
 30
0.0
 10
379.6156298999002
 20
117.1908266090389
 30
0.0
 10
379.6120112887252
 20
117.1842902012795
 30
0.0
 10
379.6060695027319
 20
117.1735285074946
 30
0.0
 10
379.5975966695225
 20
117.1581213856613
 30
0.0
 10
379.5866814528273
 20
117.1381648305049
 30
0.0
 10
379.5733430393606
 20
117.1136106980075
 30
0.0
 10
379.5576309028346
 20
117.0844462420856
 30
0.0
 10
379.5395928479005
 20
117.0506383731027
 30
0.0
 10
379.4971703037085
 20
116.9702223372358
 30
0.0
 10
379.4166470094731
 20
116.8132294500605
 30
0.0
 10
379.283220297721
 20
116.5314429990688
 30
0.0
 10
379.1391434799846
 20
116.193571262268
 30
0.0
 10
379.0234622106463
 20
115.8848809200788
 30
0.0
 10
378.9409465930479
 20
115.6388365115977
 30
0.0
 10
378.8880213437019
 20
115.4699966224258
 30
0.0
 10
378.8381650164143
 20
115.2986807011116
 30
0.0
 10
378.7911514901559
 20
115.1250118957281
 30
0.0
 10
378.7626880596429
 20
115.0078744663506
 30
0.0
 10
378.7484423304925
 20
114.9492480793619
 30
0.0
  0
LINE
  5
108
330
1F
100
AcDbEntity
  8
0
  6
Continuous
 62
     7
370
    25
100
AcDbLine
 10
378.7484423305
 20
110.8864746686
 30
0.0
 11
378.4321821732
 21
110.811611374
 31
0.0
  0
SPLINE
  5
109
330
1F
100
AcDbEntity
  8
0
  6
Continuous
 62
     7
370
    25
100
AcDbSpline
210
0.0
220
0.0
230
1.0
 70
     8
 71
     3
 72
    25
 73
    21
 74
     0
 42
0.000000001
 43
0.00000001
 40
0.0
 40
0.0
 40
0.0
 40
0.0
 40
0.0269822734731769
 40
0.0539275173136802
 40
0.0808923933113601
 40
0.107933439844806
 40
0.1351067198417023
 40
0.1624674833923036
 40
0.190069854784539
 40
0.2179665520622281
 40
0.2462086451089677
 40
0.3700054907647238
 40
0.4947546150766694
 40
0.621044168917856
 40
0.7446559260931477
 40
0.796706171775715
 40
0.847861451501886
 40
0.898521112282262
 40
0.9490962471824803
 40
1.0
 40
1.0
 40
1.0
 40
1.0
 10
378.7484423304925
 20
110.8864746685622
 30
0.0
 10
378.7562216325049
 20
110.8540841859012
 30
0.0
 10
378.7717695604576
 20
110.7893476722699
 30
0.0
 10
378.7964513221726
 20
110.6927142093039
 30
0.0
 10
378.8220685507904
 20
110.5966287692802
 30
0.0
 10
378.8487097325098
 20
110.5011207163663
 30
0.0
 10
378.8763344342113
 20
110.406195826457
 30
0.0
 10
378.9049370733494
 20
110.3118651696305
 30
0.0
 10
378.9345015159713
 20
110.218140019277
 30
0.0
 10
378.9650186374952
 20
110.1250229150957
 30
0.0
 10
379.0317560369571
 20
109.9287476131994
 30
0.0
 10
379.138941393699
 20
109.6426686450376
 30
0.0
 10
379.2827214397065
 20
109.3053788790854
 30
0.0
 10
379.4159699079944
 20
109.0238696668139
 30
0.0
 10
379.5036410813769
 20
108.8528787449447
 30
0.0
 10
379.5545161174742
 20
108.7569659256669
 30
0.0
 10
379.5821852720708
 20
108.7057487223734
 30
0.0
 10
379.6018841902028
 20
108.6697659282459
 30
0.0
 10
379.6141316989025
 20
108.647596039935
 30
0.0
 10
379.6154184920591
 20
108.6452765721999
 30
0.0
 10
379.6160639721411
 20
108.6441130827795
 30
0.0
  0
SPLINE
  5
10A
330
1F
100
AcDbEntity
  8
0
  6
Continuous
 62
     7
370
    25
100
AcDbSpline
210
0.0
220
0.0
230
1.0
 70
     8
 71
     3
 72
    13
 73
     9
 74
     0
 42
0.000000001
 43
0.00000001
 40
0.0
 40
0.0
 40
0.0
 40
0.0
 40
0.021722773191773
 40
0.1003881822797975
 40
0.2372409401764467
 40
0.3994077498539155
 40
0.700868713327119
 40
0.9999999999999999
 40
0.9999999999999999
 40
0.9999999999999999
 40
0.9999999999999999
 10
395.3765309772032
 20
116.9495568985605
 30
0.0
 10
395.3794670090098
 20
116.9449364565479
 30
0.0
 10
395.3930353915353
 20
116.9235838524912
 30
0.0
 10
395.4404919914878
 20
116.8462871175875
 30
0.0
 10
395.5340510114908
 20
116.6903493543539
 30
0.0
 10
395.7136488510533
 20
116.3578813342647
 30
0.0
 10
395.98267812193
 20
115.8098850780356
 30
0.0
 10
396.1463696584062
 20
115.2853577341098
 30
0.0
 10
396.2278979497081
 20
115.024111373962
 30
0.0
  0
LINE
  5
10B
330
1F
100
AcDbEntity
  8
0
  6
Continuous
 62
     7
370
    25
100
AcDbLine
 10
395.9116377924
 20
114.9492480794
 30
0.0
 11
396.2278979497
 21
115.024111374
 31
0.0
  0
SPLINE
  5
10C
330
1F
100
AcDbEntity
  8
0
  6
Continuous
 62
     7
370
    25
100
AcDbSpline
210
0.0
220
0.0
230
1.0
 70
     8
 71
     3
 72
    14
 73
    10
 74
     0
 42
0.000000001
 43
0.00000001
 40
0.0
 40
0.0
 40
0.0
 40
0.0
 40
0.1400355976495432
 40
0.2837945783099463
 40
0.426731892501939
 40
0.570768718984323
 40
0.7165841437719639
 40
0.859307752595139
 40
1.0
 40
1.0
 40
1.0
 40
1.0
 10
395.9116377923667
 20
114.9492480793619
 30
0.0
 10
395.8748748023762
 20
115.0947932725899
 30
0.0
 10
395.8003713374225
 20
115.3897535357693
 30
0.0
 10
395.6651837255849
 20
115.8078157762845
 30
0.0
 10
395.521293777054
 20
116.192883467332
 30
0.0
 10
395.3771571392077
 20
116.5306911601057
 30
0.0
 10
395.2447614388195
 20
116.8106320360977
 30
0.0
 10
395.1338406651197
 20
117.0267725017036
 30
0.0
 10
395.0925051837496
 20
117.1028356502719
 30
0.0
 10
395.0719855775112
 20
117.1405946361635
 30
0.0
  0
LINE
  5
10D
330
1F
100
AcDbEntity
  8
0
  6
Continuous
 62
     7
370
    25
100
AcDbLine
 10
395.9116377924
 20
110.8864746686
 30
0.0
 11
396.2278979497
 21
110.811611374
 31
0.0
  0
SPLINE
  5
10E
330
1F
100
AcDbEntity
  8
0
  6
Continuous
 62
     7
370
    25
100
AcDbSpline
210
0.0
220
0.0
230
1.0
 70
     8
 71
     3
 72
    25
 73
    21
 74
     0
 42
0.000000001
 43
0.00000001
 40
0.0
 40
0.0
 40
0.0
 40
0.0
 40
0.0278040781430709
 40
0.0555497219922032
 40
0.0833079149800047
 40
0.111149544509862
 40
0.1391448641097463
 40
0.16736297932979
 40
0.1958713754527314
 40
0.2247355016364904
 40
0.2540184217407176
 40
0.379673311282307
 40
0.5056490307767562
 40
0.629752997840675
 40
0.7535891429683552
 40
0.8038648317333889
 40
0.8533521433036539
 40
0.9023387809694757
 40
0.9511213072449197
 40
0.9999999999999999
 40
0.9999999999999999
 40
0.9999999999999999
 40
0.9999999999999999
 10
395.0440161507181
 20
108.6441130827795
 30
0.0
 10
395.0441609428989
 20
108.6443742844658
 30
0.0
 10
395.044450222959
 20
108.6448961388852
 30
0.0
 10
395.0480688341339
 20
108.6514325466446
 30
0.0
 10
395.0540106201273
 20
108.6621942404296
 30
0.0
 10
395.0624834533366
 20
108.6776013622628
 30
0.0
 10
395.0733986700318
 20
108.6975579174192
 30
0.0
 10
395.0867370834986
 20
108.7221120499166
 30
0.0
 10
395.1024492200246
 20
108.7512765058386
 30
0.0
 10
395.1204872749587
 20
108.7850843748215
 30
0.0
 10
395.1629098191494
 20
108.8655004106858
 30
0.0
 10
395.243433113385
 20
109.0224932978617
 30
0.0
 10
395.3768598251371
 20
109.3042797488529
 30
0.0
 10
395.5209366428738
 20
109.6421514856544
 30
0.0
 10
395.6366179122128
 20
109.9508418278452
 30
0.0
 10
395.7191335298118
 20
110.1968862363279
 30
0.0
 10
395.7720587791579
 20
110.3657261255007
 30
0.0
 10
395.8219151064455
 20
110.5370420468149
 30
0.0
 10
395.8689286327036
 20
110.7107108521975
 30
0.0
 10
395.8973920632164
 20
110.827848281574
 30
0.0
 10
395.9116377923667
 20
110.8864746685622
 30
0.0
  0
ARC
  5
10F
330
1F
100
AcDbEntity
  8
0
  6
Continuous
 62
     7
370
    25
100
AcDbCircle
 10
387.3300400614
 20
112.917861374
 30
0.0
 40
11.62303852141066
100
AcDbArc
 50
169.5595567507
 51
190.4404432494
  0
ARC
  5
110
330
1F
100
AcDbEntity
  8
0
  6
Continuous
 62
     7
370
    25
100
AcDbCircle
 10
387.3300400614
 20
112.917861374
 30
0.0
 40
9.143750000000006
100
AcDbArc
 50
166.6824039243
 51
193.3175960757
  0
ARC
  5
111
330
1F
100
AcDbEntity
  8
0
  6
Continuous
 62
     7
370
    25
100
AcDbCircle
 10
387.3300400614
 20
112.917861374
 30
0.0
 40
8.81874999999997
100
AcDbArc
 50
166.6824039243
 51
193.3175960757
  0
ARC
  5
112
330
1F
100
AcDbEntity
  8
0
  6
Continuous
 62
     7
370
    25
100
AcDbCircle
 10
387.3300400614
 20
112.917861374
 30
0.0
 40
9.143750000000061
100
AcDbArc
 50
346.6824039243
 51
13.3175960757
  0
ARC
  5
113
330
1F
100
AcDbEntity
  8
0
  6
Continuous
 62
     7
370
    25
100
AcDbCircle
 10
387.3300400614
 20
112.917861374
 30
0.0
 40
8.818750000000026
100
AcDbArc
 50
346.6824039243
 51
13.3175960757
  0
ARC
  5
114
330
1F
100
AcDbEntity
  8
0
  6
Continuous
 62
     7
370
    25
100
AcDbCircle
 10
387.3300400614
 20
112.917861374
 30
0.0
 40
11.6230385214107
100
AcDbArc
 50
349.5595567507
 51
10.4404432493
  0
CIRCLE
  5
115
330
1F
100
AcDbEntity
  8
0
  6
Continuous
 62
     7
370
    25
100
AcDbCircle
 10
387.3300400614
 20
112.917861374
 30
0.0
 40
7.77499999999992
  0
CIRCLE
  5
116
330
1F
100
AcDbEntity
  8
0
  6
Continuous
 62
     7
370
    25
100
AcDbCircle
 10
387.3300400614
 20
112.917861374
 30
0.0
 40
2.615470053837896
  0
CIRCLE
  5
117
330
1F
100
AcDbEntity
  8
0
  6
Continuous
 62
     7
370
    25
100
AcDbCircle
 10
387.3300400614
 20
112.917861374
 30
0.0
 40
2.5
  0
CIRCLE
  5
118
330
1F
100
AcDbEntity
  8
0
  6
Continuous
 62
     7
370
    25
100
AcDbCircle
 10
387.3300400614
 20
112.917861374
 30
0.0
 40
15.73750000000001
  0
CIRCLE
  5
119
330
1F
100
AcDbEntity
  8
0
  6
Continuous
 62
     7
370
    25
100
AcDbCircle
 10
387.3300400614
 20
112.917861374
 30
0.0
 40
13.42500000000001
  0
CIRCLE
  5
11A
330
1F
100
AcDbEntity
  8
0
  6
Continuous
 62
     7
370
    25
100
AcDbCircle
 10
387.3300400614
 20
112.917861374
 30
0.0
 40
1.25
  0
LINE
  5
11B
330
1F
100
AcDbEntity
  8
0
  6
CENTER
 62
     7
370
    18
100
AcDbLine
 10
387.3300400614
 20
112.917861374
 30
0.0
 11
387.3300400614
 21
132.4218620752
 31
0.0
  0
LINE
  5
11C
330
1F
100
AcDbEntity
  8
0
  6
CENTER
 62
     7
370
    18
100
AcDbLine
 10
387.3300400614
 20
112.917861374
 30
0.0
 11
406.8445400614
 21
112.917861374
 31
0.0
  0
LINE
  5
11D
330
1F
100
AcDbEntity
  8
0
  6
Continuous
 62
     7
370
    18
100
AcDbLine
 10
399.3300400614
 20
130.4218620752
 30
0.0
 11
387.3300400614
 21
130.4218620752
 31
0.0
  0
SOLID
  5
11E
330
1F
100
AcDbEntity
  8
0
  6
Continuous
 62
     7
370
    18
100
AcDbTrace
 10
387.3300400614
 20
130.4218620752
 30
0.0
 11
393.3300400614
 21
128.9218620752
 31
0.0
 12
393.3300400614
 22
131.9218620752
 32
0.0
 13
393.3300400614
 23
131.9218620752
 33
0.0
  0
LINE
  5
11F
330
1F
100
AcDbEntity
  8
0
  6
Continuous
 62
     7
370
    18
100
AcDbLine
 10
416.8445400614
 20
112.917861374
 30
0.0
 11
404.8445400614
 21
112.917861374
 31
0.0
  0
SOLID
  5
120
330
1F
100
AcDbEntity
  8
0
  6
Continuous
 62
     7
370
    18
100
AcDbTrace
 10
404.8445400614
 20
112.917861374
 30
0.0
 11
410.8445400614
 21
111.417861374
 31
0.0
 12
410.8445400614
 22
114.417861374
 32
0.0
 13
410.8445400614
 23
114.417861374
 33
0.0
  0
MTEXT
  5
121
330
1F
100
AcDbEntity
  8
0
  6
Continuous
 62
     7
100
AcDbMText
 10
396.1826593174
 20
137.0681552918
 30
0.0
 40
3.5
 41
0.0
 71
     1
 72
     1
  1
A
  7
SLDTEXTSTYLE0
 73
     1
 44
1.0
  0
MTEXT
  5
122
330
1F
100
AcDbEntity
  8
0
  6
Continuous
 62
     7
100
AcDbMText
 10
413.6971593174
 20
110.7046457328
 30
0.0
 40
3.5
 41
0.0
 71
     1
 72
     1
  1
A
  7
SLDTEXTSTYLE0
 73
     1
 44
1.0
  0
LINE
  5
123
330
1F
100
AcDbEntity
  8
VERMASSUNG
  6
CENTERX2
370
    18
100
AcDbLine
 10
398.9982188841
 20
115.947861374
 30
0.0
 11
392.65177188
 21
115.947861374
 31
0.0
  0
LINE
  5
124
330
1F
100
AcDbEntity
  8
VERMASSUNG
  6
CENTERX2
370
    18
100
AcDbLine
 10
399.9674566771
 20
115.024111374
 30
0.0
 11
393.1985069361
 21
115.024111374
 31
0.0
  0
LINE
  5
125
330
1F
100
AcDbEntity
  8
VERMASSUNG
  6
CENTERX2
370
    18
100
AcDbLine
 10
399.9668040578
 20
110.811611374
 30
0.0
 11
393.196949474
 21
110.811611374
 31
0.0
  0
LINE
  5
126
330
1F
100
AcDbEntity
  8
VERMASSUNG
  6
CENTERX2
370
    18
100
AcDbLine
 10
380.7243595432
 20
110.811611374
 30
0.0
 11
373.7696401988
 21
110.811611374
 31
0.0
  0
LINE
  5
127
330
1F
100
AcDbEntity
  8
VERMASSUNG
  6
CENTERX2
370
    18
100
AcDbLine
 10
380.5398457876
 20
115.024111374
 30
0.0
 11
373.7699912038
 21
115.024111374
 31
0.0
  0
LINE
  5
128
330
1F
100
AcDbEntity
  8
VERMASSUNG
  6
CENTERX2
370
    18
100
AcDbLine
 10
381.2263461839
 20
115.947861374
 30
0.0
 11
374.8820217763
 21
115.947861374
 31
0.0
  0
LINE
  5
129
330
1F
100
AcDbEntity
  8
0
  6
Continuous
 62
     7
370
    25
100
AcDbLine
 10
133.4547409554
 20
81.442861374
 30
0.0
 11
138.2205431509
 21
81.442861374
 31
0.0
  0
ARC
  5
12A
330
1F
100
AcDbEntity
  8
0
  6
Continuous
 62
     7
370
    25
100
AcDbCircle
 10
120.4205431509
 20
81.642861374
 30
0.0
 40
0.2000000000000028
100
AcDbArc
 50
180.0
 51
270.0
  0
LINE
  5
12B
330
1F
100
AcDbEntity
  8
0
  6
Continuous
 62
     7
370
    25
100
AcDbLine
 10
120.4205431509
 20
81.442861374
 30
0.0
 11
126.7863453463
 21
81.442861374
 31
0.0
  0
LINE
  5
12C
330
1F
100
AcDbEntity
  8
0
  6
Continuous
 62
     7
370
    25
100
AcDbLine
 10
126.7863453463
 20
81.442861374
 30
0.0
 11
128.2455431509
 21
83.9702661098
 31
0.0
  0
LINE
  5
12D
330
1F
100
AcDbEntity
  8
0
  6
Continuous
 62
     7
370
    25
100
AcDbLine
 10
131.9955431509
 20
83.9702661098
 30
0.0
 11
133.4547409554
 21
81.442861374
 31
0.0
  0
ARC
  5
12E
330
1F
100
AcDbEntity
  8
0
  6
Continuous
 62
     7
370
    25
100
AcDbCircle
 10
129.2455431509
 20
84.067861374
 30
0.0
 40
1.000000000000014
100
AcDbArc
 50
90.0
 51
180.0
  0
ARC
  5
12F
330
1F
100
AcDbEntity
  8
0
  6
Continuous
 62
     7
370
    25
100
AcDbCircle
 10
130.9955431509
 20
84.067861374
 30
0.0
 40
1.000000000000014
100
AcDbArc
 50
0.0
 51
90.0
  0
LINE
  5
130
330
1F
100
AcDbEntity
  8
0
  6
Continuous
 62
     7
370
    25
100
AcDbLine
 10
129.2455431509
 20
85.067861374
 30
0.0
 11
130.9955431509
 21
85.067861374
 31
0.0
  0
ARC
  5
131
330
1F
100
AcDbEntity
  8
0
  6
Continuous
 62
     7
370
    25
100
AcDbCircle
 10
119.7916082763
 20
87.367861374
 30
0.0
 40
0.8000000000000115
100
AcDbArc
 50
57.576802718
 51
107.5
  0
LINE
  5
132
330
1F
100
AcDbEntity
  8
0
  6
Continuous
 62
     7
370
    25
100
AcDbLine
 10
119.0603611108
 20
87.9761233284
 30
0.0
 11
119.5510436367
 21
88.1308349346
 31
0.0
  0
LINE
  5
133
330
1F
100
AcDbEntity
  8
0
  6
Continuous
 62
     7
370
    25
100
AcDbLine
 10
105.7340976828
 20
88.6453408532
 30
0.0
 11
119.0603611108
 21
87.9761233284
 31
0.0
  0
LINE
  5
134
330
1F
100
AcDbEntity
  8
0
  6
Continuous
 62
     7
370
    25
100
AcDbLine
 10
81.7705431509
 20
89.8487412464
 30
0.0
 11
89.8253800144
 21
89.4442439154
 31
0.0
  0
LINE
  5
135
330
1F
100
AcDbEntity
  8
0
  6
Continuous
 62
     7
370
    25
100
AcDbLine
 10
80.2705431509
 20
90.7147666502
 30
0.0
 11
81.7705431509
 21
89.8487412464
 31
0.0
  0
ARC
  5
136
330
1F
100
AcDbEntity
  8
0
  6
Continuous
 62
     7
370
    25
100
AcDbCircle
 10
141.2205431509
 20
95.917861374
 30
0.0
 40
3.0
100
AcDbArc
 50
90.0
 51
180.0
  0
LINE
  5
137
330
1F
100
AcDbEntity
  8
0
  6
Continuous
 62
     7
370
    25
100
AcDbLine
 10
141.2205431509
 20
98.917861374
 30
0.0
 11
211.6425154688
 21
98.917861374
 31
0.0
  0
LINE
  5
138
330
1F
100
AcDbEntity
  8
0
  6
Continuous
 62
     7
370
    25
100
AcDbLine
 10
211.6425154688
 20
98.917861374
 30
0.0
 11
219.0657796744
 21
102.3793863215
 31
0.0
  0
ARC
  5
139
330
1F
100
AcDbEntity
  8
0
  6
Continuous
 62
     7
370
    25
100
AcDbCircle
 10
218.2205431509
 20
104.1920018956
 30
0.0
 40
2.000000000000001
100
AcDbArc
 50
295.0
 51
0.0
  0
LINE
  5
13A
330
1F
100
AcDbEntity
  8
0
  6
Continuous
 62
     7
370
    25
100
AcDbLine
 10
199.9705431509
 20
116.417861374
 30
0.0
 11
198.7205431509
 21
117.667861374
 31
0.0
  0
LINE
  5
13B
330
1F
100
AcDbEntity
  8
0
  6
Continuous
 62
     7
370
    25
100
AcDbLine
 10
198.7205431509
 20
117.667861374
 30
0.0
 11
198.7205431509
 21
126.317861374
 31
0.0
  0
LINE
  5
13C
330
1F
100
AcDbEntity
  8
0
  6
Continuous
 62
     7
370
    25
100
AcDbLine
 10
198.7205431509
 20
126.317861374
 30
0.0
 11
199.3205431509
 21
126.917861374
 31
0.0
  0
LINE
  5
13D
330
1F
100
AcDbEntity
  8
0
  6
Continuous
 62
     7
370
    25
100
AcDbLine
 10
199.3205431509
 20
126.917861374
 30
0.0
 11
200.7205431509
 21
126.917861374
 31
0.0
  0
LINE
  5
13E
330
1F
100
AcDbEntity
  8
0
  6
Continuous
 62
     7
370
    25
100
AcDbLine
 10
200.7205431509
 20
121.917861374
 30
0.0
 11
200.7205431509
 21
126.917861374
 31
0.0
  0
LINE
  5
13F
330
1F
100
AcDbEntity
  8
0
  6
Continuous
 62
     7
370
    25
100
AcDbLine
 10
204.7205431509
 20
121.917861374
 30
0.0
 11
200.7205431509
 21
121.917861374
 31
0.0
  0
LINE
  5
140
330
1F
100
AcDbEntity
  8
0
  6
Continuous
 62
     7
370
    25
100
AcDbLine
 10
204.7205431509
 20
121.917861374
 30
0.0
 11
204.7205431509
 21
126.917861374
 31
0.0
  0
LINE
  5
141
330
1F
100
AcDbEntity
  8
0
  6
Continuous
 62
     7
370
    25
100
AcDbLine
 10
204.7205431509
 20
126.917861374
 30
0.0
 11
206.1205431509
 21
126.917861374
 31
0.0
  0
LINE
  5
142
330
1F
100
AcDbEntity
  8
0
  6
Continuous
 62
     7
370
    25
100
AcDbLine
 10
206.1205431509
 20
126.917861374
 30
0.0
 11
206.7205431509
 21
126.317861374
 31
0.0
  0
LINE
  5
143
330
1F
100
AcDbEntity
  8
0
  6
Continuous
 62
     7
370
    25
100
AcDbLine
 10
206.7205431509
 20
126.317861374
 30
0.0
 11
206.7205431509
 21
117.667861374
 31
0.0
  0
LINE
  5
144
330
1F
100
AcDbEntity
  8
0
  6
Continuous
 62
     7
370
    25
100
AcDbLine
 10
206.7205431509
 20
117.667861374
 30
0.0
 11
205.4705431509
 21
116.417861374
 31
0.0
  0
LINE
  5
145
330
1F
100
AcDbEntity
  8
0
  6
Continuous
 62
     7
370
    25
100
AcDbLine
 10
205.4705431509
 20
116.417861374
 30
0.0
 11
204.5705431509
 21
116.417861374
 31
0.0
  0
LINE
  5
146
330
1F
100
AcDbEntity
  8
0
  6
Continuous
 62
     7
370
    25
100
AcDbLine
 10
202.7205431509
 20
117.485959372
 30
0.0
 11
204.5705431509
 21
116.417861374
 31
0.0
  0
LINE
  5
147
330
1F
100
AcDbEntity
  8
0
  6
Continuous
 62
     7
370
    25
100
AcDbLine
 10
200.8705431509
 20
116.417861374
 30
0.0
 11
202.7205431509
 21
117.485959372
 31
0.0
  0
LINE
  5
148
330
1F
100
AcDbEntity
  8
0
  6
Continuous
 62
     7
370
    25
100
AcDbLine
 10
200.8705431509
 20
116.417861374
 30
0.0
 11
199.9705431509
 21
116.417861374
 31
0.0
  0
LINE
  5
149
330
1F
100
AcDbEntity
  8
0
  6
Continuous
 62
     7
370
    25
100
AcDbLine
 10
204.5705431509
 20
116.417861374
 30
0.0
 11
200.8705431509
 21
116.417861374
 31
0.0
  0
LINE
  5
14A
330
1F
100
AcDbEntity
  8
0
  6
Continuous
 62
     7
370
    25
100
AcDbLine
 10
202.7205431509
 20
121.917861374
 30
0.0
 11
202.7205431509
 21
126.917861374
 31
0.0
  0
LINE
  5
14B
330
1F
100
AcDbEntity
  8
0
  6
Continuous
 62
     7
370
    25
100
AcDbLine
 10
200.7205431509
 20
126.917861374
 30
0.0
 11
202.7205431509
 21
126.917861374
 31
0.0
  0
LINE
  5
14C
330
1F
100
AcDbEntity
  8
0
  6
Continuous
 62
     7
370
    25
100
AcDbLine
 10
204.7205431509
 20
126.917861374
 30
0.0
 11
202.7205431509
 21
126.917861374
 31
0.0
  0
LINE
  5
14D
330
1F
100
AcDbEntity
  8
0
  6
Continuous
 62
     7
370
    25
100
AcDbLine
 10
133.4547409554
 20
81.442861374
 30
0.0
 11
133.4547409554
 21
108.0281540943
 31
0.0
  0
SPLINE
  5
14E
330
1F
100
AcDbEntity
  8
0
  6
Continuous
 62
     7
370
    25
100
AcDbSpline
210
0.0
220
0.0
230
1.0
 70
     8
 71
     3
 72
    20
 73
    16
 74
     0
 42
0.000000001
 43
0.00000001
 40
0.0
 40
0.0
 40
0.0
 40
0.0
 40
0.1249999999999996
 40
0.1249999999999996
 40
0.2499999999999992
 40
0.2499999999999992
 40
0.3749999999999989
 40
0.3749999999999989
 40
0.4999999999999987
 40
0.4999999999999987
 40
0.7499999999999994
 40
0.7499999999999994
 40
0.8749999999999997
 40
0.8749999999999997
 40
1.0
 40
1.0
 40
1.0
 40
1.0
 10
137.0080431508754
 20
112.917861373962
 30
0.0
 10
137.0080431508754
 20
112.6511932864808
 30
0.0
 10
136.9859961218317
 20
112.3828811112068
 30
0.0
 10
136.8969900841268
 20
111.8500380759734
 30
0.0
 10
136.8311111159274
 20
111.5907478659875
 30
0.0
 10
136.6589362082202
 20
111.085620899966
 30
0.0
 10
136.5522296373132
 20
110.8390406840447
 30
0.0
 10
136.299552734437
 20
110.362624033305
 30
0.0
 10
136.1560954702423
 20
110.1372039715402
 30
0.0
 10
135.6777732779618
 20
109.4965962899264
 30
0.0
 10
135.2897462949962
 20
109.1138305748234
 30
0.0
 10
134.6479416465509
 20
108.6379283266517
 30
0.0
 10
134.4231370189037
 20
108.4943326905
 30
0.0
 10
133.9518279612815
 20
108.2370013051095
 30
0.0
 10
133.7061313613925
 20
108.1239489265875
 30
0.0
 10
133.4547409554455
 20
108.0281540942768
 30
0.0
  0
LINE
  5
14F
330
1F
100
AcDbEntity
  8
0
  6
Continuous
 62
     7
370
    25
100
AcDbLine
 10
138.2205431509
 20
81.442861374
 30
0.0
 11
138.2205431509
 21
112.917861374
 31
0.0
  0
LINE
  5
150
330
1F
100
AcDbEntity
  8
0
  6
Continuous
 62
     7
370
    25
100
AcDbLine
 10
138.2205431509
 20
144.392861374
 30
0.0
 11
133.4547409554
 21
144.392861374
 31
0.0
  0
LINE
  5
151
330
1F
100
AcDbEntity
  8
0
  6
Continuous
 62
     7
370
    25
100
AcDbLine
 10
120.2205431509
 20
81.642861374
 30
0.0
 11
120.2205431509
 21
112.917861374
 31
0.0
  0
LINE
  5
152
330
1F
100
AcDbEntity
  8
0
  6
Continuous
 62
     7
370
    25
100
AcDbLine
 10
120.2205431509
 20
112.917861374
 30
0.0
 11
120.4205431509
 21
112.917861374
 31
0.0
  0
ARC
  5
153
330
1F
100
AcDbEntity
  8
0
  6
Continuous
 62
     7
370
    25
100
AcDbCircle
 10
120.4205431509
 20
144.192861374
 30
0.0
 40
0.1999999999999886
100
AcDbArc
 50
90.0
 51
179.9999999999
  0
SPLINE
  5
154
330
1F
100
AcDbEntity
  8
0
  6
Continuous
 62
     7
370
    25
100
AcDbSpline
210
0.0
220
0.0
230
1.0
 70
     8
 71
     3
 72
    14
 73
    10
 74
     0
 42
0.000000001
 43
0.00000001
 40
0.0
 40
0.0
 40
0.0
 40
0.0
 40
0.25
 40
0.25
 40
0.5
 40
0.5
 40
0.75
 40
0.75
 40
1.0
 40
1.0
 40
1.0
 40
1.0
 10
126.7863453463053
 20
109.6229632884452
 30
0.0
 10
126.5894694607803
 20
109.8504598563743
 30
0.0
 10
126.4133611393908
 20
110.0920466314455
 30
0.0
 10
126.1036247456176
 20
110.6042038658196
 30
0.0
 10
125.9690667441241
 20
110.8777366689277
 30
0.0
 10
125.7538245914149
 20
111.4378418034652
 30
0.0
 10
125.6721813538959
 20
111.7248142988752
 30
0.0
 10
125.5616583316259
 20
112.3128532839195
 30
0.0
 10
125.5330431508754
 20
112.6172967396901
 30
0.0
 10
125.5330431508754
 20
112.9178613739619
 30
0.0
  0
LINE
  5
155
330
1F
100
AcDbEntity
  8
0
  6
Continuous
 62
     7
370
    25
100
AcDbLine
 10
126.7863453463
 20
81.442861374
 30
0.0
 11
126.7863453463
 21
109.6229632884
 31
0.0
  0
LINE
  5
156
330
1F
100
AcDbEntity
  8
0
  6
Continuous
 62
     7
370
    25
100
AcDbLine
 10
126.7863453463
 20
144.392861374
 30
0.0
 11
120.4205431509
 21
144.392861374
 31
0.0
  0
ARC
  5
157
330
1F
100
AcDbEntity
  8
0
  6
Continuous
 62
     7
370
    25
100
AcDbCircle
 10
131.2705431509
 20
112.917861374
 30
0.0
 40
3.737499999999995
100
AcDbArc
 50
180.0
 51
206.113804444
  0
SPLINE
  5
158
330
1F
100
AcDbEntity
  8
0
  6
Continuous
 62
     7
370
    25
100
AcDbSpline
210
0.0
220
0.0
230
1.0
 70
     8
 71
     3
 72
    10
 73
     6
 74
     0
 42
0.000000001
 43
0.00000001
 40
0.0
 40
0.0
 40
0.0
 40
0.0
 40
0.5
 40
0.5
 40
1.0
 40
1.0
 40
1.0
 40
1.0
 10
127.9145613434221
 20
111.2727801121263
 30
0.0
 10
127.7376761969987
 20
110.9743297967697
 30
0.0
 10
127.5521268221213
 20
110.6953370926423
 30
0.0
 10
127.1741778820737
 20
110.1500177985166
 30
0.0
 10
126.9813913398945
 20
109.8846824126952
 30
0.0
 10
126.7863453463053
 20
109.6229632884452
 30
0.0
  0
SPLINE
  5
159
330
1F
100
AcDbEntity
  8
0
  6
Continuous
 62
     7
370
    25
100
AcDbSpline
210
0.0
220
0.0
230
1.0
 70
     8
 71
     3
 72
     8
 73
     4
 74
     0
 42
0.000000001
 43
0.00000001
 40
0.0
 40
0.0
 40
0.0
 40
0.0
 40
1.0
 40
1.0
 40
1.0
 40
1.0
 10
133.454740955445
 20
108.0281540942757
 30
0.0
 10
133.1063395507647
 20
108.4661294206896
 30
0.0
 10
132.7617711655319
 20
108.9092125592744
 30
0.0
 10
132.423386866211
 20
109.362603631123
 30
0.0
  0
ARC
  5
15A
330
1F
100
AcDbEntity
  8
0
  6
Continuous
 62
     7
370
    25
100
AcDbCircle
 10
131.2705431509
 20
112.917861374
 30
0.0
 40
3.737500000000002
100
AcDbArc
 50
287.9660359156
 51
0.0
  0
SPLINE
  5
15B
330
1F
100
AcDbEntity
  8
0
  6
Continuous
 62
     7
370
    25
100
AcDbSpline
210
0.0
220
0.0
230
1.0
 70
     8
 71
     3
 72
     8
 73
     4
 74
     0
 42
0.000000001
 43
0.00000001
 40
0.0
 40
0.0
 40
0.0
 40
0.0
 40
1.0
 40
1.0
 40
1.0
 40
1.0
 10
128.2455431508754
 20
110.7228030034396
 30
0.0
 10
128.1272463914454
 20
110.885827231898
 30
0.0
 10
128.0158179092741
 20
111.0662157309205
 30
0.0
 10
127.9145613434221
 20
111.2727801121263
 30
0.0
  0
LINE
  5
15C
330
1F
100
AcDbEntity
  8
0
  6
Continuous
 62
     7
370
    25
100
AcDbLine
 10
128.2455431509
 20
83.9702661098
 30
0.0
 11
128.2455431509
 21
110.7228030034
 31
0.0
  0
SPLINE
  5
15D
330
1F
100
AcDbEntity
  8
0
  6
Continuous
 62
     7
370
    25
100
AcDbSpline
210
0.0
220
0.0
230
1.0
 70
     8
 71
     3
 72
     8
 73
     4
 74
     0
 42
0.000000001
 43
0.00000001
 40
0.0
 40
0.0
 40
0.0
 40
0.0
 40
1.0
 40
1.0
 40
1.0
 40
1.0
 10
132.4233868662114
 20
109.3626036311238
 30
0.0
 10
132.2818487779295
 20
109.3167078600267
 30
0.0
 10
132.1392383091926
 20
109.2797670090894
 30
0.0
 10
131.9955431508756
 20
109.2513533281488
 30
0.0
  0
LINE
  5
15E
330
1F
100
AcDbEntity
  8
0
  6
Continuous
 62
     7
370
    25
100
AcDbLine
 10
131.9955431509
 20
83.9702661098
 30
0.0
 11
131.9955431509
 21
109.2513533282
 31
0.0
  0
SPLINE
  5
15F
330
1F
100
AcDbEntity
  8
0
  6
Continuous
 62
     7
370
    25
100
AcDbSpline
210
0.0
220
0.0
230
1.0
 70
     8
 71
     3
 72
    14
 73
    10
 74
     0
 42
0.000000001
 43
0.00000001
 40
0.0
 40
0.0
 40
0.0
 40
0.0
 40
0.25
 40
0.25
 40
0.5
 40
0.5
 40
0.75
 40
0.75
 40
1.0
 40
1.0
 40
1.0
 40
1.0
 10
129.2455431508754
 20
109.7764793134669
 30
0.0
 10
129.1111950645189
 20
109.8630828750945
 30
0.0
 10
128.9880183906629
 20
109.9545512724179
 30
0.0
 10
128.7592717857449
 20
110.1457426590488
 30
0.0
 10
128.6573498217777
 20
110.2426045111897
 30
0.0
 10
128.477926419349
 20
110.430479125925
 30
0.0
 10
128.4014851311662
 20
110.5207144772763
 30
0.0
 10
128.2841951583161
 20
110.6685208412537
 30
0.0
 10
128.2455431508754
 20
110.7228030034396
 30
0.0
 10
128.2455431508754
 20
110.7228030034397
 30
0.0
  0
SPLINE
  5
160
330
1F
100
AcDbEntity
  8
0
  6
Continuous
 62
     7
370
    25
100
AcDbSpline
210
0.0
220
0.0
230
1.0
 70
     8
 71
     3
 72
    14
 73
    10
 74
     0
 42
0.000000001
 43
0.00000001
 40
0.0
 40
0.0
 40
0.0
 40
0.0
 40
0.25
 40
0.25
 40
0.5
 40
0.5
 40
0.75
 40
0.75
 40
1.0
 40
1.0
 40
1.0
 40
1.0
 10
131.9955431508755
 20
109.2513533281494
 30
0.0
 10
131.9955431508757
 20
109.2513533281494
 30
0.0
 10
131.9696266283045
 20
109.245976597161
 30
0.0
 10
131.870181781727
 20
109.2284320095606
 30
0.0
 10
131.7978833893147
 20
109.2165826059143
 30
0.0
 10
131.6131794947908
 20
109.194938787914
 30
0.0
 10
131.5036022329149
 20
109.1856495272296
 30
0.0
 10
131.2602720546968
 20
109.178393990872
 30
0.0
 10
131.1287357957766
 20
109.1806653970314
 30
0.0
 10
130.9955431508754
 20
109.1904921609646
 30
0.0
  0
SPLINE
  5
161
330
1F
100
AcDbEntity
  8
0
  6
Continuous
 62
     7
370
    25
100
AcDbSpline
210
0.0
220
0.0
230
1.0
 70
     8
 71
     3
 72
    10
 73
     6
 74
     0
 42
0.000000001
 43
0.00000001
 40
0.0
 40
0.0
 40
0.0
 40
0.0
 40
0.5
 40
0.5
 40
1.0
 40
1.0
 40
1.0
 40
1.0
 10
130.9955431508754
 20
109.1904921609646
 30
0.0
 10
130.6830792485872
 20
109.2135453033337
 30
0.0
 10
130.3801902665895
 20
109.2747800057401
 30
0.0
 10
129.7928470817854
 20
109.470951969664
 30
0.0
 10
129.5083794212134
 20
109.6070496047638
 30
0.0
 10
129.2455431508754
 20
109.7764793134669
 30
0.0
  0
LINE
  5
162
330
1F
100
AcDbEntity
  8
0
  6
Continuous
 62
     7
370
    25
100
AcDbLine
 10
120.2205431509
 20
139.767861374
 30
0.0
 11
120.5545818369
 21
138.7084260136
 31
0.0
  0
LINE
  5
163
330
1F
100
AcDbEntity
  8
0
  6
Continuous
 62
     7
370
    25
100
AcDbLine
 10
120.2205431509
 20
139.767861374
 30
0.0
 11
120.2205431509
 21
137.7925726406
 31
0.0
  0
ARC
  5
164
330
1F
100
AcDbEntity
  8
0
  6
Continuous
 62
     7
370
    25
100
AcDbCircle
 10
119.7916082763
 20
138.467861374
 30
0.0
 40
0.8000000000000181
100
AcDbArc
 50
252.5
 51
17.5
  0
LINE
  5
165
330
1F
100
AcDbEntity
  8
0
  6
Continuous
 62
     7
370
    25
100
AcDbLine
 10
119.0603611108
 20
87.9761233284
 30
0.0
 11
119.0603611108
 21
112.917861374
 31
0.0
  0
LINE
  5
166
330
1F
100
AcDbEntity
  8
0
  6
Continuous
 62
     7
370
    25
100
AcDbLine
 10
119.5510436367
 20
137.7048878134
 30
0.0
 11
119.0603611108
 21
137.8595994195
 31
0.0
  0
SPLINE
  5
167
330
1F
100
AcDbEntity
  8
0
  6
Continuous
 62
     7
370
    25
100
AcDbSpline
210
0.0
220
0.0
230
1.0
 70
     8
 71
     3
 72
    23
 73
    19
 74
     0
 42
0.000000001
 43
0.00000001
 40
0.0
 40
0.0
 40
0.0
 40
0.0
 40
0.0014752899205275
 40
0.0696288509416035
 40
0.1372792101573364
 40
0.2039819135400783
 40
0.2703117571759917
 40
0.3365672618513769
 40
0.4028772365390579
 40
0.4678771374618322
 40
0.5326481398333837
 40
0.5993656092925664
 40
0.6655280750059939
 40
0.7321209147635985
 40
0.7988898269457709
 40
0.866338659222382
 40
0.9345238227745254
 40
1.0
 40
1.0
 40
1.0
 40
1.0
 10
89.98029762703582
 20
136.3421410086416
 30
0.0
 10
89.98146427130143
 20
136.3417810804224
 30
0.0
 10
90.03652605850732
 20
136.3247936476638
 30
0.0
 10
90.43295707041804
 20
136.2075241329042
 30
0.0
 10
91.14901846625494
 20
136.0069130874785
 30
0.0
 10
92.15869720732329
 20
135.7662983224388
 30
0.0
 10
93.37467562735891
 20
135.5390259888758
 30
0.0
 10
94.77887551327521
 20
135.3666364999563
 30
0.0
 10
96.29593964908614
 20
135.2785681865774
 30
0.0
 10
97.87023748373086
 20
135.3096158498603
 30
0.0
 10
99.43605771379288
 20
135.460639088398
 30
0.0
 10
100.9259147822007
 20
135.7149758872925
 30
0.0
 10
102.29759497484
 20
136.0327126658621
 30
0.0
 10
103.4835180684785
 20
136.3766290860198
 30
0.0
 10
104.4611174125083
 20
136.7044716863222
 30
0.0
 10
105.1806285640929
 20
136.9733961158076
 30
0.0
 10
105.6532635657968
 20
137.1559854514288
 30
0.0
 10
105.7107346801498
 20
137.1792338440137
 30
0.0
 10
105.7388878383243
 20
137.190622446464
 30
0.0
  0
LINE
  5
168
330
1F
100
AcDbEntity
  8
0
  6
Continuous
 62
     7
370
    25
100
AcDbLine
 10
89.8209772656
 20
136.3912577355
 30
0.0
 11
81.7705431509
 21
135.9869815015
 31
0.0
  0
LINE
  5
169
330
1F
100
AcDbEntity
  8
0
  6
Continuous
 62
     7
370
    25
100
AcDbLine
 10
81.7705431509
 20
89.8487412464
 30
0.0
 11
81.7705431509
 21
103.7957383394
 31
0.0
  0
SPLINE
  5
16A
330
1F
100
AcDbEntity
  8
0
  6
Continuous
 62
     7
370
    25
100
AcDbSpline
210
0.0
220
0.0
230
1.0
 70
     8
 71
     3
 72
     8
 73
     4
 74
     0
 42
0.000000001
 43
0.00000001
 40
0.0
 40
0.0
 40
0.0
 40
0.0
 40
1.0
 40
1.0
 40
1.0
 40
1.0
 10
87.58871760382233
 20
103.8003243976586
 30
0.0
 10
85.64932611951093
 20
103.798178301809
 30
0.0
 10
83.70993463519952
 20
103.7965821152842
 30
0.0
 10
81.7705431508881
 20
103.7955346628085
 30
0.0
  0
SPLINE
  5
16B
330
1F
100
AcDbEntity
  8
0
  6
Continuous
 62
     7
370
    25
100
AcDbSpline
210
0.0
220
0.0
230
1.0
 70
     8
 71
     3
 72
    13
 73
     9
 74
     0
 42
0.000000001
 43
0.00000001
 40
0.0
 40
0.0
 40
0.0
 40
0.0
 40
0.1686717431976176
 40
0.3360976438050112
 40
0.5026076259545951
 40
0.6685363120001365
 40
0.8342210747535599
 40
1.0
 40
1.0
 40
1.0
 40
1.0
 10
88.67221265328936
 20
103.9377808434763
 30
0.0
 10
88.61270893662486
 20
103.9232619407548
 30
0.0
 10
88.49414100942232
 20
103.8943313747761
 30
0.0
 10
88.3142393640623
 20
103.8603616159136
 30
0.0
 10
88.13384069135284
 20
103.8334930286768
 30
0.0
 10
87.9527367267723
 20
103.8145365037201
 30
0.0
 10
87.77100062645754
 20
103.8026132850399
 30
0.0
 10
87.64949011763778
 20
103.8010875046007
 30
0.0
 10
87.58871760382233
 20
103.8003243976586
 30
0.0
  0
SPLINE
  5
16C
330
1F
100
AcDbEntity
  8
0
  6
Continuous
 62
     7
370
    25
100
AcDbSpline
210
0.0
220
0.0
230
1.0
 70
     8
 71
     3
 72
     8
 73
     4
 74
     0
 42
0.000000001
 43
0.00000001
 40
0.0
 40
0.0
 40
0.0
 40
0.0
 40
1.0
 40
1.0
 40
1.0
 40
1.0
 10
94.06440606978218
 20
103.9420188853617
 30
0.0
 10
92.26701139834437
 20
103.9401478248377
 30
0.0
 10
90.46961672690654
 20
103.9387256438136
 30
0.0
 10
88.67222205546872
 20
103.9377515208176
 30
0.0
  0
SPLINE
  5
16D
330
1F
100
AcDbEntity
  8
0
  6
Continuous
 62
     7
370
    25
100
AcDbSpline
210
0.0
220
0.0
230
1.0
 70
     8
 71
     3
 72
    18
 73
    14
 74
     0
 42
0.000000001
 43
0.00000001
 40
0.0
 40
0.0
 40
0.0
 40
0.0
 40
0.0923146492083614
 40
0.1843375917871727
 40
0.2763048505572403
 40
0.3684522564592561
 40
0.4610136522432117
 40
0.5542191634081761
 40
0.648293598500629
 40
0.743455030187018
 40
0.8399135943669072
 40
0.9201663187095083
 40
1.0
 40
1.0
 40
1.0
 40
1.0
 10
96.26072771838449
 20
103.407826649518
 30
0.0
 10
96.19041088589874
 20
103.4082373356843
 30
0.0
 10
96.04999941628176
 20
103.4090574102826
 30
0.0
 10
95.8396667812243
 20
103.4226540049347
 30
0.0
 10
95.63024308606622
 20
103.4453124123691
 30
0.0
 10
95.42170335414552
 20
103.4779092394528
 30
0.0
 10
95.21405967647343
 20
103.5202119746373
 30
0.0
 10
95.0073114242439
 20
103.5722878949471
 30
0.0
 10
94.80146924291783
 20
103.6341453973372
 30
0.0
 10
94.59650750718461
 20
103.7057564921268
 30
0.0
 10
94.40500339533148
 20
103.7823450868703
 30
0.0
 10
94.22726677825179
 20
103.8609619265831
 30
0.0
 10
94.11893280167628
 20
103.9148761198265
 30
0.0
 10
94.06490760119372
 20
103.9417626534044
 30
0.0
  0
LINE
  5
16E
330
1F
100
AcDbEntity
  8
0
  6
Continuous
 62
     7
370
    25
100
AcDbLine
 10
98.1756009977
 20
103.4093220844
 30
0.0
 11
96.2607277184
 21
103.4078266495
 31
0.0
  0
SPLINE
  5
16F
330
1F
100
AcDbEntity
  8
0
  6
Continuous
 62
     7
370
    25
100
AcDbSpline
210
0.0
220
0.0
230
1.0
 70
     8
 71
     3
 72
    25
 73
    21
 74
     0
 42
0.000000001
 43
0.00000001
 40
0.0
 40
0.0
 40
0.0
 40
0.0
 40
0.0280056024284644
 40
0.0559514328341146
 40
0.0838901607635225
 40
0.1118745076903239
 40
0.1399569498903393
 40
0.168189428271326
 40
0.1966230730098432
 40
0.2253079499151899
 40
0.2542928341276564
 40
0.3799484016843204
 40
0.505784488750134
 40
0.6313077644946906
 40
0.7532057173413932
 40
0.8039627394917982
 40
0.8536129947754353
 40
0.9025574087112554
 40
0.951212440738308
 40
1.0
 40
1.0
 40
1.0
 40
1.0
 10
103.1154853040768
 20
108.5431858888933
 30
0.0
 10
103.115527859203
 20
108.4685787306857
 30
0.0
 10
103.1156128786306
 20
108.3195236474371
 30
0.0
 10
103.1032078218943
 20
108.0969340673116
 30
0.0
 10
103.0816107673429
 20
107.8756285527194
 30
0.0
 10
103.0499288595086
 20
107.6556695637767
 30
0.0
 10
103.0084024913362
 20
107.437079009476
 30
0.0
 10
102.9569676621148
 20
107.2198873287681
 30
0.0
 10
102.8956459576996
 20
107.0041267394312
 30
0.0
 10
102.8244237815898
 20
106.7898084194393
 30
0.0
 10
102.6535779423137
 20
106.3414366695303
 30
0.0
 10
102.315841492881
 20
105.6880928627713
 30
0.0
 10
101.7042857854248
 20
104.9162005551029
 30
0.0
 10
100.9680523703806
 20
104.2720385439383
 30
0.0
 10
100.2815243493874
 20
103.8803823085996
 30
0.0
 10
99.73276154645654
 20
103.6616580661753
 30
0.0
 10
99.35066596101031
 20
103.5457714620814
 30
0.0
 10
98.96349926219416
 20
103.4648616544928
 30
0.0
 10
98.57133093375806
 20
103.415654933653
 30
0.0
 10
98.30763052534424
 20
103.4114349472733
 30
0.0
 10
98.17560099767394
 20
103.4093220843778
 30
0.0
  0
LINE
  5
170
330
1F
100
AcDbEntity
  8
0
  6
Continuous
 62
     7
370
    25
100
AcDbLine
 10
103.1154853041
 20
112.917861374
 30
0.0
 11
103.1154853041
 21
108.5431858889
 31
0.0
  0
LINE
  5
171
330
1F
100
AcDbEntity
  8
0
  6
Continuous
 62
     7
370
    25
100
AcDbLine
 10
119.0603611108
 20
137.8595994195
 30
0.0
 11
105.7388878383
 21
137.1906224465
 31
0.0
  0
SPLINE
  5
172
330
1F
100
AcDbEntity
  8
0
  6
Continuous
 62
     7
370
    25
100
AcDbSpline
210
0.0
220
0.0
230
1.0
 70
     8
 71
     3
 72
    20
 73
    16
 74
     0
 42
0.000000001
 43
0.00000001
 40
0.0
 40
0.0
 40
0.0
 40
0.0
 40
0.0829621378684853
 40
0.1658495135106165
 40
0.2487180070857357
 40
0.3299477216398524
 40
0.4108693994445735
 40
0.4941953814850562
 40
0.5768901676626227
 40
0.6601065810557777
 40
0.7435845489350854
 40
0.8279858465401888
 40
0.9132590745392885
 40
0.9972257035811806
 40
1.0
 40
1.0
 40
1.0
 40
1.0
 10
92.13295924560234
 20
90.0546010064551
 30
0.0
 10
92.51870508167363
 20
90.13151943305924
 30
0.0
 10
93.28984913479083
 20
90.28528697039684
 30
0.0
 10
94.69759728596065
 20
90.46120219178236
 30
0.0
 10
96.20544865383526
 20
90.5551984791114
 30
0.0
 10
97.77793762885311
 20
90.5313540972448
 30
0.0
 10
99.3452346600652
 20
90.38744905234422
 30
0.0
 10
100.8410106868467
 20
90.1383914495452
 30
0.0
 10
102.2212645625194
 20
89.82371075700654
 30
0.0
 10
103.418858745575
 20
89.47944940502602
 30
0.0
 10
104.4057207753972
 20
89.15040217920627
 30
0.0
 10
105.1529590215952
 20
88.8719412709985
 30
0.0
 10
105.6001604509608
 20
88.70008547596686
 30
0.0
 10
105.7869150631108
 20
88.6262348043685
 30
0.0
 10
105.7358168492126
 20
88.64638609544156
 30
0.0
 10
105.7341825388675
 20
88.6470306084481
 30
0.0
  0
SPLINE
  5
173
330
1F
100
AcDbEntity
  8
0
  6
Continuous
 62
     7
370
    25
100
AcDbSpline
210
0.0
220
0.0
230
1.0
 70
     8
 71
     3
 72
    11
 73
     7
 74
     0
 42
0.000000001
 43
0.00000001
 40
0.0
 40
0.0
 40
0.0
 40
0.0
 40
0.2435512231731368
 40
0.4981153923403522
 40
0.7509097881719443
 40
0.9999999999999999
 40
0.9999999999999999
 40
0.9999999999999999
 40
0.9999999999999999
 10
89.82546512785875
 20
89.44593879707197
 30
0.0
 10
89.85141604938403
 20
89.45417433361013
 30
0.0
 10
89.90449134618913
 20
89.4710178027596
 30
0.0
 10
90.38218632985163
 20
89.61191924489714
 30
0.0
 10
91.09352577811839
 20
89.81720979534532
 30
0.0
 10
91.78819042529305
 20
89.97586091354253
 30
0.0
 10
92.13295924560234
 20
90.0546010064551
 30
0.0
  0
LINE
  5
174
330
1F
100
AcDbEntity
  8
0
  6
Continuous
 62
     7
370
    25
100
AcDbLine
 10
103.1154853041
 20
108.5431858889
 30
0.0
 11
102.2205431509
 21
108.705361374
 31
0.0
  0
LINE
  5
175
330
1F
100
AcDbEntity
  8
0
  6
Continuous
 62
     7
370
    25
100
AcDbLine
 10
102.2205431509
 20
108.705361374
 30
0.0
 11
102.2205431509
 21
112.917861374
 31
0.0
  0
SPLINE
  5
176
330
1F
100
AcDbEntity
  8
0
  6
Continuous
 62
     7
370
    25
100
AcDbSpline
210
0.0
220
0.0
230
1.0
 70
     8
 71
     3
 72
    25
 73
    21
 74
     0
 42
0.000000001
 43
0.00000001
 40
0.0
 40
0.0
 40
0.0
 40
0.0
 40
0.0288760384329379
 40
0.0583531183810567
 40
0.0884515256371788
 40
0.1191903155241519
 40
0.1505873770396599
 40
0.1826594973263453
 40
0.2154224255071077
 40
0.2488909351380524
 40
0.3610595498818108
 40
0.4984670937677609
 40
0.5822694576837939
 40
0.6661128179769302
 40
0.749997333930102
 40
0.8007710075450265
 40
0.851123794024394
 40
0.9010896183583234
 40
0.9507031993392587
 40
1.0
 40
1.0
 40
1.0
 40
1.0
 10
98.22054315087537
 20
104.7053613739619
 30
0.0
 10
98.28333046023214
 20
104.7062175037342
 30
0.0
 10
98.41021196803423
 20
104.7079475832277
 30
0.0
 10
98.60153848218258
 20
104.7220927196697
 30
0.0
 10
98.79542696489781
 20
104.7452241399305
 30
0.0
 10
98.9913228609475
 20
104.7786300686458
 30
0.0
 10
99.18866698137205
 20
104.8225008097827
 30
0.0
 10
99.38683765455549
 20
104.8772968219993
 30
0.0
 10
99.58518098783634
 20
104.943372027955
 30
0.0
 10
99.93652364307151
 20
105.081359875511
 30
0.0
 10
100.4616471351387
 20
105.3614180460191
 30
0.0
 10
100.9986388999749
 20
105.8000086219759
 30
0.0
 10
101.4106986411191
 20
106.273868748138
 30
0.0
 10
101.6976172267065
 20
106.7055524949334
 30
0.0
 10
101.8960439145227
 20
107.1086757369466
 30
0.0
 10
102.0281297884731
 20
107.4664118976849
 30
0.0
 10
102.1137636682922
 20
107.7691642999761
 30
0.0
 10
102.1748458796396
 20
108.0776526102194
 30
0.0
 10
102.2133468230066
 20
108.3899643203764
 30
0.0
 10
102.2181495020999
 20
108.6004537342777
 30
0.0
 10
102.2205431508754
 20
108.7053613739619
 30
0.0
  0
SPLINE
  5
177
330
1F
100
AcDbEntity
  8
0
  6
Continuous
 62
     7
370
    25
100
AcDbSpline
210
0.0
220
0.0
230
1.0
 70
     8
 71
     3
 72
    13
 73
     9
 74
     0
 42
0.000000001
 43
0.00000001
 40
0.0
 40
0.0
 40
0.0
 40
0.0
 40
0.1722808990514524
 40
0.3421751864020586
 40
0.509785360909649
 40
0.6752181678258066
 40
0.8385846213654179
 40
1.0
 40
1.0
 40
1.0
 40
1.0
 10
95.22056151978563
 20
104.8553561967117
 30
0.0
 10
95.28143276654303
 20
104.8390904802776
 30
0.0
 10
95.40233200911968
 20
104.8067843767952
 30
0.0
 10
95.58540778336487
 20
104.7693952974776
 30
0.0
 10
95.76751558070747
 20
104.740263465249
 30
0.0
 10
95.94845242289954
 20
104.7200791470211
 30
0.0
 10
96.12777701137657
 20
104.70763482231
 30
0.0
 10
96.24661020865754
 20
104.7061161490157
 30
0.0
 10
96.3056698715859
 20
104.7053613739619
 30
0.0
  0
LINE
  5
178
330
1F
100
AcDbEntity
  8
0
  6
Continuous
 62
     7
370
    25
100
AcDbLine
 10
96.2607277184
 20
103.4078266495
 30
0.0
 11
96.3056698716
 21
104.705361374
 31
0.0
  0
SPLINE
  5
179
330
1F
100
AcDbEntity
  8
0
  6
Continuous
 62
     7
370
    25
100
AcDbSpline
210
0.0
220
0.0
230
1.0
 70
     8
 71
     3
 72
    11
 73
     7
 74
     0
 42
0.000000001
 43
0.00000001
 40
0.0
 40
0.0
 40
0.0
 40
0.0
 40
0.2392771050480589
 40
0.5001130256950088
 40
0.7515027953458615
 40
1.0
 40
1.0
 40
1.0
 40
1.0
 10
94.89304246315238
 20
104.8559061225448
 30
0.0
 10
94.82422367089352
 20
104.7843595159129
 30
0.0
 10
94.68038552802423
 20
104.6348199688105
 30
0.0
 10
94.47264543415334
 20
104.4059084021227
 30
0.0
 10
94.26466185524606
 20
104.17359340288
 30
0.0
 10
94.13166526332095
 20
104.0188225060209
 30
0.0
 10
94.06555175562683
 20
103.9418848436927
 30
0.0
  0
SPLINE
  5
17A
330
1F
100
AcDbEntity
  8
0
  6
Continuous
 62
     7
370
    25
100
AcDbSpline
210
0.0
220
0.0
230
1.0
 70
    24
 71
     3
 72
     9
 73
     5
 74
     0
 42
0.000000001
 43
0.00000001
 40
0.0
 40
0.0
 40
0.0
 40
0.0
 40
0.5090957280101628
 40
1.0
 40
1.0
 40
1.0
 40
1.0
 10
94.89521514796583
 20
104.8553613739619
 30
0.0
 10
94.9499638777118
 20
104.8553613739619
 30
0.0
 10
95.05750500747132
 20
104.8553613739619
 30
0.0
 10
95.16692715275798
 20
104.8553613739619
 30
0.0
 10
95.22064295132951
 20
104.8553613739619
 30
0.0
  0
LINE
  5
17B
330
1F
100
AcDbEntity
  8
0
  6
Continuous
 62
     7
370
    25
100
AcDbLine
 10
88.6466930625
 20
104.8353096002
 30
0.0
 11
88.6721075541
 21
103.9377514296
 31
0.0
  0
SPLINE
  5
17C
330
1F
100
AcDbEntity
  8
0
  6
Continuous
 62
     7
370
    25
100
AcDbSpline
210
0.0
220
0.0
230
1.0
 70
     8
 71
     3
 72
     8
 73
     4
 74
     0
 42
0.000000001
 43
0.00000001
 40
0.0
 40
0.0
 40
0.0
 40
0.0
 40
1.0
 40
1.0
 40
1.0
 40
1.0
 10
88.64670425360373
 20
104.8353100903012
 30
0.0
 10
88.66850711008573
 20
104.8410074213338
 30
0.0
 10
88.6902618194832
 20
104.8468890041288
 30
0.0
 10
88.71196527480123
 20
104.8529539986819
 30
0.0
  0
LINE
  5
17D
330
1F
100
AcDbEntity
  8
0
  6
Continuous
 62
     7
370
    25
100
AcDbLine
 10
88.7205431509
 20
104.855361374
 30
0.0
 11
94.8941303115
 21
104.855361374
 31
0.0
  0
LINE
  5
17E
330
1F
100
AcDbEntity
  8
0
  6
Continuous
 62
     7
370
    25
100
AcDbLine
 10
96.3056698716
 20
104.705361374
 30
0.0
 11
98.2205431509
 21
104.705361374
 31
0.0
  0
SPLINE
  5
17F
330
1F
100
AcDbEntity
  8
0
  6
Continuous
 62
     7
370
    25
100
AcDbSpline
210
0.0
220
0.0
230
1.0
 70
     8
 71
     3
 72
    13
 73
     9
 74
     0
 42
0.000000001
 43
0.00000001
 40
0.0
 40
0.0
 40
0.0
 40
0.0
 40
0.1620909845429404
 40
0.3259283017468241
 40
0.4915764691781117
 40
0.6590979119692602
 40
0.8285529847843899
 40
1.0
 40
1.0
 40
1.0
 40
1.0
 10
87.63541643016482
 20
104.7053613739619
 30
0.0
 10
87.69096817549185
 20
104.7060302640334
 30
0.0
 10
87.80267016844701
 20
104.7073752506509
 30
0.0
 10
87.97051211770632
 20
104.7183208983905
 30
0.0
 10
88.13929669173224
 20
104.7359589395887
 30
0.0
 10
88.30862305700035
 20
104.7612640483686
 30
0.0
 10
88.47837549360831
 20
104.7935685820618
 30
0.0
 10
88.59037339854609
 20
104.8213413433185
 30
0.0
 10
88.64669956135401
 20
104.8353088641667
 30
0.0
  0
LINE
  5
180
330
1F
100
AcDbEntity
  8
0
  6
Continuous
 62
     7
370
    25
100
AcDbLine
 10
80.8568833293
 20
104.17785963
 30
0.0
 11
81.7705431509
 21
104.705361374
 31
0.0
  0
LINE
  5
181
330
1F
100
AcDbEntity
  8
0
  6
Continuous
 62
     7
370
    25
100
AcDbLine
 10
81.7705431509
 20
104.705361374
 30
0.0
 11
87.6354164302
 21
104.705361374
 31
0.0
  0
SPLINE
  5
182
330
1F
100
AcDbEntity
  8
0
  6
Continuous
 62
     7
370
    25
100
AcDbSpline
210
0.0
220
0.0
230
1.0
 70
     8
 71
     3
 72
     8
 73
     4
 74
     0
 42
0.000000001
 43
0.00000001
 40
0.0
 40
0.0
 40
0.0
 40
0.0
 40
1.0
 40
1.0
 40
1.0
 40
1.0
 10
81.77054315042443
 20
103.7955346625859
 30
0.0
 10
81.46598987671888
 20
103.9242255271327
 30
0.0
 10
81.16143660301337
 20
104.0516702833944
 30
0.0
 10
80.85688332930782
 20
104.1778596300322
 30
0.0
  0
LINE
  5
183
330
1F
100
AcDbEntity
  8
0
  6
Continuous
 62
     7
370
    25
100
AcDbLine
 10
80.2705431509
 20
90.7147666502
 30
0.0
 11
80.2705431509
 21
103.8393359702
 31
0.0
  0
SPLINE
  5
184
330
1F
100
AcDbEntity
  8
0
  6
Continuous
 62
     7
370
    25
100
AcDbSpline
210
0.0
220
0.0
230
1.0
 70
    24
 71
     3
 72
     8
 73
     4
 74
     0
 42
0.000000001
 43
0.00000001
 40
0.0
 40
0.0
 40
0.0
 40
0.0
 40
1.0
 40
1.0
 40
1.0
 40
1.0
 10
80.85688332930782
 20
104.1778596300322
 30
0.0
 10
80.66055130364948
 20
104.0645072821678
 30
0.0
 10
80.46509028340925
 20
103.951657809516
 30
0.0
 10
80.27054315087537
 20
103.8393359701775
 30
0.0
  0
ARC
  5
185
330
1F
100
AcDbEntity
  8
0
  6
Continuous
 62
     7
370
    25
100
AcDbCircle
 10
113.4205431509
 20
130.367861374
 30
0.0
 40
0.8000000000000114
100
AcDbArc
 50
0.0
 51
90.0
  0
LINE
  5
186
330
1F
100
AcDbEntity
  8
0
  6
Continuous
 62
     7
370
    25
100
AcDbLine
 10
111.9957836245
 20
131.167861374
 30
0.0
 11
113.4205431509
 21
131.167861374
 31
0.0
  0
ARC
  5
187
330
1F
100
AcDbEntity
  8
0
  6
Continuous
 62
     7
370
    25
100
AcDbCircle
 10
111.9957836245
 20
130.367861374
 30
0.0
 40
0.800000000000017
100
AcDbArc
 50
90.0
 51
120.0
  0
LINE
  5
188
330
1F
100
AcDbEntity
  8
0
  6
Continuous
 62
     7
370
    25
100
AcDbLine
 10
110.7205431509
 20
130.555361374
 30
0.0
 11
110.7205431509
 21
112.917861374
 31
0.0
  0
LINE
  5
189
330
1F
100
AcDbEntity
  8
0
  6
Continuous
 62
     7
370
    25
100
AcDbLine
 10
110.7205431509
 20
130.555361374
 30
0.0
 11
111.5957836245
 21
131.060681697
 31
0.0
  0
LINE
  5
18A
330
1F
100
AcDbEntity
  8
0
  6
Continuous
 62
     7
370
    25
100
AcDbLine
 10
81.0222092007
 20
104.2733105664
 30
0.0
 11
80.8857404283
 21
104.1945202839
 31
0.0
  0
SPLINE
  5
18B
330
1F
100
AcDbEntity
  8
0
  6
Continuous
 62
     7
370
    25
100
AcDbSpline
210
0.0
220
0.0
230
1.0
 70
     8
 71
     3
 72
    32
 73
    28
 74
     0
 42
0.000000001
 43
0.00000001
 40
0.0
 40
0.0
 40
0.0
 40
0.0
 40
0.1249999999999995
 40
0.1249999999999995
 40
0.1874999999999996
 40
0.1874999999999996
 40
0.2499999999999998
 40
0.2499999999999998
 40
0.3124999999999999
 40
0.3124999999999999
 40
0.3750000000000001
 40
0.3750000000000001
 40
0.5000000000000001
 40
0.5000000000000001
 40
0.5625000000000003
 40
0.5625000000000003
 40
0.6250000000000004
 40
0.6250000000000004
 40
0.7500000000000009
 40
0.7500000000000009
 40
0.8125000000000007
 40
0.8125000000000007
 40
0.8750000000000003
 40
0.8750000000000003
 40
0.9375000000000001
 40
0.9375000000000001
 40
1.0
 40
1.0
 40
1.0
 40
1.0
 10
94.68817348221597
 20
129.0905301281715
 30
0.0
 10
94.20409923826197
 20
129.0908895207911
 30
0.0
 10
93.72070166769511
 20
129.1058487269724
 30
0.0
 10
92.9967963179591
 20
129.1528327734811
 30
0.0
 10
92.75613388442225
 20
129.1726093286056
 30
0.0
 10
92.28478777534663
 20
129.2195734121047
 30
0.0
 10
92.05295195905637
 20
129.2468272612892
 30
0.0
 10
91.59724887250006
 20
129.3084551899018
 30
0.0
 10
91.37338054955873
 20
129.3428302906972
 30
0.0
 10
90.93405295755095
 20
129.4181497343503
 30
0.0
 10
90.71733556488454
 20
129.4593676850986
 30
0.0
 10
90.0909935862117
 20
129.5896045042793
 30
0.0
 10
89.7066009518583
 20
129.6846444161785
 30
0.0
 10
89.1790592062385
 20
129.8309113781309
 30
0.0
 10
89.0114250547074
 20
129.8802800133216
 30
0.0
 10
88.69302030746684
 20
129.9786837208219
 30
0.0
 10
88.5434394329277
 20
130.0273669854544
 30
0.0
 10
88.13041936337926
 20
130.1669897886228
 30
0.0
 10
87.89886759222013
 20
130.2525764672033
 30
0.0
 10
87.61555807713043
 20
130.3615395151194
 30
0.0
 10
87.53199039535862
 20
130.3945881676938
 30
0.0
 10
87.39006556303444
 20
130.4515915639342
 30
0.0
 10
87.33107745159188
 20
130.4757882695446
 30
0.0
 10
87.23636154788205
 20
130.5149905499236
 30
0.0
 10
87.20063358073529
 20
130.5299977164207
 30
0.0
 10
87.15266930301784
 20
130.5502067141476
 30
0.0
 10
87.14054299558438
 20
130.5553613739619
 30
0.0
 10
87.14054299558435
 20
130.5553613739619
 30
0.0
  0
SPLINE
  5
18C
330
1F
100
AcDbEntity
  8
0
  6
Continuous
 62
     7
370
    25
100
AcDbSpline
210
0.0
220
0.0
230
1.0
 70
     8
 71
     3
 72
    31
 73
    27
 74
     0
 42
0.000000001
 43
0.00000001
 40
0.0
 40
0.0
 40
0.0
 40
0.0
 40
0.0161756688075965
 40
0.0323169068532631
 40
0.0484425516008505
 40
0.0645714951500191
 40
0.0807226180246394
 40
0.0969147231634267
 40
0.1131664712589163
 40
0.1294963185366987
 40
0.1459224579704985
 40
0.1624627647969
 40
0.1791347470353139
 40
0.195955501544
 40
0.294575451460032
 40
0.3932796468915295
 40
0.492817516515217
 40
0.5924284642439982
 40
0.6938854141933356
 40
0.7927106604376503
 40
0.8267659964728276
 40
0.8607894384978583
 40
0.8949681865136658
 40
0.9294869120721315
 40
0.9645249088045721
 40
1.0
 40
1.0
 40
1.0
 40
1.0
 10
105.6964925409594
 20
130.5553613739619
 30
0.0
 10
105.6957594405083
 20
130.555014982534
 30
0.0
 10
105.6942948000488
 20
130.5543229369905
 30
0.0
 10
105.6812384203837
 20
130.5487405749441
 30
0.0
 10
105.6602238598609
 20
130.5398738119499
 30
0.0
 10
105.6304766545203
 20
130.527432711235
 30
0.0
 10
105.5922043418644
 20
130.51154205268
 30
0.0
 10
105.545351660944
 20
130.4922163088519
 30
0.0
 10
105.4899339309045
 20
130.4695002193357
 30
0.0
 10
105.4259479670836
 20
130.4434312149488
 30
0.0
 10
105.3533944828968
 20
130.4140487676266
 30
0.0
 10
105.2722777855539
 20
130.3813945201184
 30
0.0
 10
105.1825841302874
 20
130.3455020737389
 30
0.0
 10
104.9255382887447
 20
130.2432641595883
 30
0.0
 10
104.3975021769664
 20
130.0367401061108
 30
0.0
 10
103.4188680861561
 20
129.699654087262
 30
0.0
 10
102.2329897148415
 20
129.3565118504299
 30
0.0
 10
100.8626065795305
 20
129.0594064225243
 30
0.0
 10
99.37673327537827
 20
128.8493935375716
 30
0.0
 10
98.1566453380385
 20
128.7911493442586
 30
0.0
 10
97.29020743876285
 20
128.8047930948352
 30
0.0
 10
96.76203954960509
 20
128.8301491587102
 30
0.0
 10
96.2372882577669
 20
128.8721685640793
 30
0.0
 10
95.7162656831804
 20
128.9304605336394
 30
0.0
 10
95.19894749763655
 20
129.0031006455957
 30
0.0
 10
94.86324328356301
 20
129.0619931251697
 30
0.0
 10
94.69435069980422
 20
129.091621895445
 30
0.0
  0
LINE
  5
18D
330
1F
100
AcDbEntity
  8
0
  6
Continuous
 62
     7
370
    25
100
AcDbLine
 10
105.696492541
 20
130.555361374
 30
0.0
 11
110.7205431509
 21
130.555361374
 31
0.0
  0
LINE
  5
18E
330
1F
100
AcDbEntity
  8
0
  6
Continuous
 62
     7
370
    25
100
AcDbLine
 10
102.8705431509
 20
116.9806347848
 30
0.0
 11
102.8705431509
 21
112.917861374
 31
0.0
  0
SPLINE
  5
18F
330
1F
100
AcDbEntity
  8
0
  6
Continuous
 62
     7
370
    25
100
AcDbSpline
210
0.0
220
0.0
230
1.0
 70
     8
 71
     3
 72
    25
 73
    21
 74
     0
 42
0.000000001
 43
0.00000001
 40
0.0
 40
0.0
 40
0.0
 40
0.0
 40
0.0278040781436522
 40
0.055549721993219
 40
0.0833079149813089
 40
0.1111495445113076
 40
0.1391448641111913
 40
0.1673629793310927
 40
0.1958713754537566
 40
0.2247355016371065
 40
0.2540184217407993
 40
0.3796733112851029
 40
0.5056490307768108
 40
0.6297529978411118
 40
0.7535891429683279
 40
0.8038648317328723
 40
0.8533521433028843
 40
0.9023387809687056
 40
0.9511213072444032
 40
1.0
 40
1.0
 40
1.0
 40
1.0
 10
98.22054315087536
 20
121.4653579563269
 30
0.0
 10
98.28917325181645
 20
121.4648355529544
 30
0.0
 10
98.42628921760917
 20
121.4637918441157
 30
0.0
 10
98.63147571143246
 20
121.4507190285969
 30
0.0
 10
98.83575926765712
 20
121.429195641027
 30
0.0
 10
99.03914166291288
 20
121.3983813973605
 30
0.0
 10
99.24161739390767
 20
121.3584682870478
 30
0.0
 10
99.44318511677497
 20
121.3093600220529
 30
0.0
 10
99.6438368246138
 20
121.251031110209
 30
0.0
 10
99.84359088253633
 20
121.1834153722432
 30
0.0
 10
100.2591993169059
 20
121.0225833005096
 30
0.0
 10
100.8620017941333
 20
120.7085975261588
 30
0.0
 10
101.5560573860699
 20
120.1450246241754
 30
0.0
 10
102.1228322440339
 20
119.4692811505739
 30
0.0
 10
102.460416510001
 20
118.8519004661955
 30
0.0
 10
102.6488919418913
 20
118.3598116492334
 30
0.0
 10
102.7481667219956
 20
118.0221318708895
 30
0.0
 10
102.8185121934893
 20
117.679500028261
 30
0.0
 10
102.8625012023379
 20
117.3321624174941
 30
0.0
 10
102.8678607421928
 20
117.0978875587391
 30
0.0
 10
102.8705431508754
 20
116.9806347847616
 30
0.0
  0
LINE
  5
190
330
1F
100
AcDbEntity
  8
0
  6
Continuous
 62
     7
370
    25
100
AcDbLine
 10
96.3056698716
 20
121.4653579563
 30
0.0
 11
98.2205431509
 21
121.4653579563
 31
0.0
  0
SPLINE
  5
191
330
1F
100
AcDbEntity
  8
0
  6
Continuous
 62
     7
370
    25
100
AcDbSpline
210
0.0
220
0.0
230
1.0
 70
     8
 71
     3
 72
    12
 73
     8
 74
     0
 42
0.000000001
 43
0.00000001
 40
0.0
 40
0.0
 40
0.0
 40
0.0
 40
0.1993047266737982
 40
0.3984909635100614
 40
0.5980263786408541
 40
0.7983761953881935
 40
1.0
 40
1.0
 40
1.0
 40
1.0
 10
95.30445930723971
 20
121.3631657831703
 30
0.0
 10
95.36993014980287
 20
121.3761955428453
 30
0.0
 10
95.50083291146944
 20
121.4022473157955
 30
0.0
 10
95.69972719304967
 20
121.4306877706715
 30
0.0
 10
95.90016944354706
 20
121.4511186420772
 30
0.0
 10
96.10236734751562
 20
121.4635476728414
 30
0.0
 10
96.23775932951509
 20
121.4647532548685
 30
0.0
 10
96.3056698715859
 20
121.4653579563269
 30
0.0
  0
LINE
  5
192
330
1F
100
AcDbEntity
  8
0
  6
Continuous
 62
     7
370
    25
100
AcDbLine
 10
89.8798730217
 20
121.3629997195
 30
0.0
 11
95.3036764854
 21
121.3629997195
 31
0.0
  0
SPLINE
  5
193
330
1F
100
AcDbEntity
  8
0
  6
Continuous
 62
     7
370
    25
100
AcDbSpline
210
0.0
220
0.0
230
1.0
 70
     8
 71
     3
 72
    24
 73
    20
 74
     0
 42
0.000000001
 43
0.00000001
 40
0.0
 40
0.0
 40
0.0
 40
0.0
 40
0.0410168309160251
 40
0.0818356321224298
 40
0.1225576684073127
 40
0.1632849263043688
 40
0.2041193531422725
 40
0.2451620975485173
 40
0.2865127793361656
 40
0.3282688142230838
 40
0.370524814367772
 40
0.4133720798884311
 40
0.456898190125439
 40
0.5011866971564671
 40
0.6001870884229382
 40
0.6987399491827955
 40
0.7976807785240759
 40
0.8978353515390326
 40
1.0
 40
1.0
 40
1.0
 40
1.0
 10
86.10788611472523
 20
123.3006415366249
 30
0.0
 10
86.17091188766123
 20
123.3001139098448
 30
0.0
 10
86.29665914441011
 20
123.2990612036724
 30
0.0
 10
86.48456510157797
 20
123.2879341694533
 30
0.0
 10
86.67113008441399
 20
123.2697857052775
 30
0.0
 10
86.85635396845356
 20
123.243920015676
 30
0.0
 10
87.0402324274346
 20
123.2104886754588
 30
0.0
 10
87.22276255099922
 20
123.1694064757339
 30
0.0
 10
87.40394159543033
 20
123.1206418210439
 30
0.0
 10
87.58376720331765
 20
123.0641386755482
 30
0.0
 10
87.76223840842945
 20
122.9998381291611
 30
0.0
 10
87.93935167643828
 20
122.927671208708
 30
0.0
 10
88.11511612718516
 20
122.8475667653692
 30
0.0
 10
88.36015472883514
 20
122.7237131113392
 30
0.0
 10
88.66435127426354
 20
122.5450813522656
 30
0.0
 10
89.01165855920675
 20
122.2959919134294
 30
0.0
 10
89.33083287551061
 20
122.0164223969496
 30
0.0
 10
89.62474476363072
 20
121.7075967406379
 30
0.0
 10
89.79426885224508
 20
121.4795046998289
 30
0.0
 10
89.8798730216987
 20
121.364325613057
 30
0.0
  0
LINE
  5
194
330
1F
100
AcDbEntity
  8
0
  6
Continuous
 62
     7
370
    25
100
AcDbLine
 10
83.3163443978
 20
123.3006415366
 30
0.0
 11
86.1078861147
 21
123.3006415366
 31
0.0
  0
SPLINE
  5
195
330
1F
100
AcDbEntity
  8
0
  6
Continuous
 62
     7
370
    25
100
AcDbSpline
210
0.0
220
0.0
230
1.0
 70
     8
 71
     3
 72
     8
 73
     4
 74
     0
 42
0.000000001
 43
0.00000001
 40
0.0
 40
0.0
 40
0.0
 40
0.0
 40
1.0
 40
1.0
 40
1.0
 40
1.0
 10
83.27054032611662
 20
123.3640945276346
 30
0.0
 10
83.2858083500143
 20
123.3429780572365
 30
0.0
 10
83.30107637391198
 20
123.3218269901838
 30
0.0
 10
83.31634439780967
 20
123.3006415366249
 30
0.0
  0
LINE
  5
196
330
1F
100
AcDbEntity
  8
0
  6
Continuous
 62
     7
370
    25
100
AcDbLine
 10
83.2705431509
 20
130.555361374
 30
0.0
 11
83.2705431509
 21
123.3640945276
 31
0.0
  0
LINE
  5
197
330
1F
100
AcDbEntity
  8
0
  6
Continuous
 62
     7
370
    25
100
AcDbLine
 10
83.2705431509
 20
130.555361374
 30
0.0
 11
87.1405429956
 21
130.555361374
 31
0.0
  0
ARC
  5
198
330
1F
100
AcDbEntity
  8
0
  6
Continuous
 62
     7
370
    25
100
AcDbCircle
 10
141.2205431509
 20
129.917861374
 30
0.0
 40
3.0
100
AcDbArc
 50
180.0
 51
270.0
  0
LINE
  5
199
330
1F
100
AcDbEntity
  8
0
  6
Continuous
 62
     7
370
    25
100
AcDbLine
 10
114.2205431509
 20
128.467861374
 30
0.0
 11
117.9205431509
 21
128.467861374
 31
0.0
  0
LINE
  5
19A
330
1F
100
AcDbEntity
  8
0
  6
Continuous
 62
     7
370
    25
100
AcDbLine
 10
114.2205431509
 20
128.467861374
 30
0.0
 11
114.2205431509
 21
112.917861374
 31
0.0
  0
ARC
  5
19B
330
1F
100
AcDbEntity
  8
0
  6
Continuous
 62
     7
370
    25
100
AcDbCircle
 10
117.9205431509
 20
127.267861374
 30
0.0
 40
1.200000000000017
100
AcDbArc
 50
0.0
 51
90.0
  0
SPLINE
  5
19C
330
1F
100
AcDbEntity
  8
0
  6
Continuous
 62
     7
370
    25
100
AcDbSpline
210
0.0
220
0.0
230
1.0
 70
     8
 71
     3
 72
     9
 73
     5
 74
     0
 42
0.000000001
 43
0.00000001
 40
0.0
 40
0.0
 40
0.0
 40
0.0
 40
0.985820928056317
 40
0.9999999999999999
 40
0.9999999999999999
 40
0.9999999999999999
 40
0.9999999999999999
 10
198.9279206423382
 20
126.9178613739619
 30
0.0
 10
198.9392077860751
 20
126.9101891040447
 30
0.0
 10
198.9506572729095
 20
126.9024064837951
 30
0.0
 10
199.2294365637478
 20
126.8370364731099
 30
0.0
 10
199.233389395369
 20
126.8361095870254
 30
0.0
  0
SPLINE
  5
19D
330
1F
100
AcDbEntity
  8
0
  6
Continuous
 62
     7
370
    25
100
AcDbSpline
210
0.0
220
0.0
230
1.0
 70
     8
 71
     3
 72
     9
 73
     5
 74
     0
 42
0.000000001
 43
0.00000001
 40
0.0
 40
0.0
 40
0.0
 40
0.0
 40
0.0147422274328654
 40
1.0
 40
1.0
 40
1.0
 40
1.0
 10
206.2077361496768
 20
126.836101314798
 30
0.0
 10
206.2118441909755
 20
126.8370647211163
 30
0.0
 10
206.4905023053846
 20
126.9024148402004
 30
0.0
 10
206.5019177968196
 20
126.9101954589064
 30
0.0
 10
206.5131649984837
 20
126.9178613739619
 30
0.0
  0
LINE
  5
19E
330
1F
100
AcDbEntity
  8
0
  6
Continuous
 62
     7
370
    25
100
AcDbLine
 10
198.9279206423
 20
126.917861374
 30
0.0
 11
141.2205431509
 21
126.917861374
 31
0.0
  0
LINE
  5
19F
330
1F
100
AcDbEntity
  8
0
  6
Continuous
 62
     7
370
    25
100
AcDbLine
 10
211.6425154688
 20
98.917861374
 30
0.0
 11
211.6425154688
 21
112.917861374
 31
0.0
  0
LINE
  5
1A0
330
1F
100
AcDbEntity
  8
0
  6
Continuous
 62
     7
370
    25
100
AcDbLine
 10
211.6425154688
 20
126.917861374
 30
0.0
 11
206.5131649985
 21
126.917861374
 31
0.0
  0
LINE
  5
1A1
330
1F
100
AcDbEntity
  8
0
  6
Continuous
 62
     7
370
    25
100
AcDbLine
 10
219.0657796744
 20
123.4563364264
 30
0.0
 11
211.6425154688
 21
126.917861374
 31
0.0
  0
LINE
  5
1A2
330
1F
100
AcDbEntity
  8
0
  6
Continuous
 62
     7
370
    25
100
AcDbLine
 10
220.2205431509
 20
104.192001936
 30
0.0
 11
220.2205431509
 21
112.917861374
 31
0.0
  0
ARC
  5
1A3
330
1F
100
AcDbEntity
  8
0
  6
Continuous
 62
     7
370
    25
100
AcDbCircle
 10
218.2205431509
 20
121.6437208523
 30
0.0
 40
2.000000000000001
100
AcDbArc
 50
0.0
 51
65.0
  0
LINE
  5
1A4
330
1F
100
AcDbEntity
  8
0
  6
Continuous
 62
     7
370
    25
100
AcDbLine
 10
122.9455431509
 20
118.667861374
 30
0.0
 11
123.7705431509
 21
118.667861374
 31
0.0
  0
LINE
  5
1A5
330
1F
100
AcDbEntity
  8
0
  6
Continuous
 62
     7
370
    25
100
AcDbLine
 10
119.5205431509
 20
117.917861374
 30
0.0
 11
119.5205431509
 21
112.917861374
 31
0.0
  0
LINE
  5
1A6
330
1F
100
AcDbEntity
  8
0
  6
Continuous
 62
     7
370
    25
100
AcDbLine
 10
119.1205431509
 20
118.1488014816
 30
0.0
 11
119.5205431509
 21
117.917861374
 31
0.0
  0
LINE
  5
1A7
330
1F
100
AcDbEntity
  8
0
  6
Continuous
 62
     7
370
    25
100
AcDbLine
 10
119.1205431509
 20
118.1488014816
 30
0.0
 11
119.1205431509
 21
112.917861374
 31
0.0
  0
LINE
  5
1A8
330
1F
100
AcDbEntity
  8
0
  6
Continuous
 62
     7
370
    25
100
AcDbLine
 10
119.5205431509
 20
117.917861374
 30
0.0
 11
122.9455431509
 21
117.917861374
 31
0.0
  0
LINE
  5
1A9
330
1F
100
AcDbEntity
  8
0
  6
Continuous
 62
     7
370
    25
100
AcDbLine
 10
122.9455431509
 20
117.917861374
 30
0.0
 11
122.9455431509
 21
112.917861374
 31
0.0
  0
LINE
  5
1AA
330
1F
100
AcDbEntity
  8
0
  6
Continuous
 62
     7
370
    25
100
AcDbLine
 10
187.2205431509
 20
116.917861374
 30
0.0
 11
187.2205431509
 21
112.917861374
 31
0.0
  0
LINE
  5
1AB
330
1F
100
AcDbEntity
  8
0
  6
Continuous
 62
     7
370
    25
100
AcDbLine
 10
186.396299925
 20
117.217861374
 30
0.0
 11
186.396299925
 21
112.917861374
 31
0.0
  0
LINE
  5
1AC
330
1F
100
AcDbEntity
  8
0
  6
Continuous
 62
     7
370
    25
100
AcDbLine
 10
186.396299925
 20
117.217861374
 30
0.0
 11
187.2205431509
 21
116.917861374
 31
0.0
  0
LINE
  5
1AD
330
1F
100
AcDbEntity
  8
0
  6
Continuous
 62
     7
370
    25
100
AcDbLine
 10
183.6205431509
 20
117.217861374
 30
0.0
 11
186.396299925
 21
117.217861374
 31
0.0
  0
ARC
  5
1AE
330
1F
100
AcDbEntity
  8
0
  6
Continuous
 62
     7
370
    25
100
AcDbCircle
 10
219.9205431509
 20
117.217861374
 30
0.0
 40
0.2999999999999972
100
AcDbArc
 50
270.0
 51
0.0
  0
LINE
  5
1AF
330
1F
100
AcDbEntity
  8
0
  6
Continuous
 62
     7
370
    25
100
AcDbLine
 10
220.2205431509
 20
117.217861374
 30
0.0
 11
220.2205431509
 21
112.917861374
 31
0.0
  0
ARC
  5
1B0
330
1F
100
AcDbEntity
  8
0
  6
Continuous
 62
     7
370
    25
100
AcDbCircle
 10
183.6205431509
 20
116.817861374
 30
0.0
 40
0.3999999999999915
100
AcDbArc
 50
90.0
 51
180.0
  0
SPLINE
  5
1B1
330
1F
100
AcDbEntity
  8
0
  6
Continuous
 62
     7
370
    25
100
AcDbSpline
210
0.0
220
0.0
230
1.0
 70
     8
 71
     3
 72
    42
 73
    38
 74
     0
 42
0.000000001
 43
0.00000001
 40
0.0
 40
0.0
 40
0.0
 40
0.0
 40
0.0625000000000004
 40
0.0625000000000004
 40
0.1250000000000008
 40
0.1250000000000008
 40
0.1875000000000013
 40
0.1875000000000013
 40
0.2500000000000017
 40
0.2500000000000017
 40
0.3125000000000022
 40
0.3125000000000022
 40
0.3750000000000026
 40
0.3750000000000026
 40
0.437500000000003
 40
0.437500000000003
 40
0.4687500000000014
 40
0.4687500000000014
 40
0.5
 40
0.5
 40
0.5312499999999986
 40
0.5312499999999986
 40
0.5624999999999971
 40
0.5624999999999971
 40
0.6249999999999974
 40
0.6249999999999974
 40
0.6874999999999979
 40
0.6874999999999979
 40
0.7499999999999983
 40
0.7499999999999983
 40
0.8124999999999988
 40
0.8124999999999988
 40
0.8749999999999991
 40
0.8749999999999991
 40
0.9374999999999996
 40
0.9374999999999996
 40
1.0
 40
1.0
 40
1.0
 40
1.0
 10
199.3205431508754
 20
116.9178613739619
 30
0.0
 10
199.3205431508754
 20
116.9178613739619
 30
0.0
 10
199.3461725669451
 20
116.8960125732561
 30
0.0
 10
199.4443147290637
 20
116.8131126878875
 30
0.0
 10
199.516476048949
 20
116.7523622036183
 30
0.0
 10
199.7000971081339
 20
116.6003123126848
 30
0.0
 10
199.8094250028915
 20
116.510760713388
 30
0.0
 10
200.0593796081285
 20
116.3114005579072
 30
0.0
 10
200.199138443055
 20
116.2023026780293
 30
0.0
 10
200.4991401425123
 20
115.9780418106044
 30
0.0
 10
200.6603846590023
 20
115.8619085072351
 30
0.0
 10
201.0086952867307
 20
115.6296105550762
 30
0.0
 10
201.1945352396369
 20
115.514204446469
 30
0.0
 10
201.5881168638692
 20
115.3042156017529
 30
0.0
 10
201.8000379840754
 20
115.2074237332158
 30
0.0
 10
202.1360388916583
 20
115.1019714301964
 30
0.0
 10
202.250634646752
 20
115.0736235998229
 30
0.0
 10
202.4862636290354
 20
115.0347892580797
 30
0.0
 10
202.6075032533387
 20
115.0246555714614
 30
0.0
 10
202.8458001028669
 20
115.0253463860568
 30
0.0
 10
202.9642075367539
 20
115.0358586011504
 30
0.0
 10
203.1996303568585
 20
115.0756529469293
 30
0.0
 10
203.3159057587083
 20
115.1049350671313
 30
0.0
 10
203.6502625983116
 20
115.2112686795082
 30
0.0
 10
203.860899205391
 20
115.3079768219887
 30
0.0
 10
204.2556056819217
 20
115.5195256294047
 30
0.0
 10
204.4385148606108
 20
115.6335385129797
 30
0.0
 10
204.7839330767613
 20
115.8642241340749
 30
0.0
 10
204.9476280018351
 20
115.9821662923339
 30
0.0
 10
205.2482859239216
 20
116.2071684782123
 30
0.0
 10
205.3852311935522
 20
116.3141872577038
 30
0.0
 10
205.6319651016884
 20
116.511027793635
 30
0.0
 10
205.7429297165027
 20
116.6019096261655
 30
0.0
 10
205.9251977654737
 20
116.7528583976043
 30
0.0
 10
205.9968484189956
 20
116.8131762049252
 30
0.0
 10
206.0956160407113
 20
116.8966072107949
 30
0.0
 10
206.1205431508754
 20
116.9178613739619
 30
0.0
 10
206.1205431508754
 20
116.9178613739619
 30
0.0
  0
LINE
  5
1B2
330
1F
100
AcDbEntity
  8
0
  6
Continuous
 62
     7
370
    25
100
AcDbLine
 10
206.1205431509
 20
116.917861374
 30
0.0
 11
219.9205431509
 21
116.917861374
 31
0.0
  0
LINE
  5
1B3
330
1F
100
AcDbEntity
  8
0
  6
Continuous
 62
     7
370
    25
100
AcDbLine
 10
187.2205431509
 20
116.917861374
 30
0.0
 11
199.3205431509
 21
116.917861374
 31
0.0
  0
LINE
  5
1B4
330
1F
100
AcDbEntity
  8
0
  6
Continuous
 62
     7
370
    25
100
AcDbLine
 10
123.7705431509
 20
115.417861374
 30
0.0
 11
183.2205431509
 21
115.417861374
 31
0.0
  0
LINE
  5
1B5
330
1F
100
AcDbEntity
  8
0
  6
Continuous
 62
     7
370
    25
100
AcDbLine
 10
183.2205431509
 20
115.417861374
 30
0.0
 11
183.2205431509
 21
112.917861374
 31
0.0
  0
LINE
  5
1B6
330
1F
100
AcDbEntity
  8
0
  6
Continuous
 62
     7
370
    25
100
AcDbLine
 10
123.7705431509
 20
115.417861374
 30
0.0
 11
123.7705431509
 21
112.917861374
 31
0.0
  0
SPLINE
  5
1B7
330
1F
100
AcDbEntity
  8
0
  6
Continuous
 62
     7
370
    25
100
AcDbSpline
210
0.0
220
0.0
230
1.0
 70
     8
 71
     3
 72
    37
 73
    33
 74
     0
 42
0.000000001
 43
0.00000001
 40
0.0
 40
0.0
 40
0.0
 40
0.0
 40
0.0114878548102799
 40
0.0231559765621647
 40
0.0350076484354353
 40
0.0470460033795304
 40
0.0592740307999908
 40
0.0716945830965779
 40
0.0843103820274647
 40
0.0971240248797991
 40
0.1101379904320507
 40
0.1233546446979382
 40
0.1811510010973226
 40
0.2483631736114421
 40
0.2888373415819253
 40
0.3232297457604625
 40
0.3515392131491945
 40
0.3737664266256189
 40
0.4399300285953852
 40
0.4987424063270027
 40
0.5023253005651628
 40
0.5613100074513717
 40
0.6252595444338138
 40
0.6818650083849792
 40
0.74838900169879
 40
0.7860781471964682
 40
0.8194856599799781
 40
0.848612771528172
 40
0.873462272774742
 40
0.9389926156604146
 40
0.9981523731393552
 40
1.0
 40
1.0
 40
1.0
 40
1.0
 10
105.0705431508754
 20
136.3815136773152
 30
0.0
 10
105.0696166995969
 20
136.3810701603067
 30
0.0
 10
105.0677492592048
 20
136.3801761666393
 30
0.0
 10
105.052476198865
 20
136.372984189181
 30
0.0
 10
105.0275744964011
 20
136.3615329455885
 30
0.0
 10
104.9917202244653
 20
136.345383186814
 30
0.0
 10
104.9447527136276
 20
136.3246555072603
 30
0.0
 10
104.8862098032067
 20
136.2993169882586
 30
0.0
 10
104.8157316636291
 20
136.2693765677041
 30
0.0
 10
104.7329570993516
 20
136.2348325936621
 30
0.0
 10
104.6375405542335
 20
136.1956828520475
 30
0.0
 10
104.407971720845
 20
136.1029841808863
 30
0.0
 10
103.9235535068724
 20
135.9142612903718
 30
0.0
 10
103.144553535327
 20
135.6361714904006
 30
0.0
 10
102.3533350839068
 20
135.3855846230712
 30
0.0
 10
101.722284590664
 20
135.2105678617414
 30
0.0
 10
101.1692466343276
 20
135.0707332211424
 30
0.0
 10
100.3762887054312
 20
134.8903223757963
 30
0.0
 10
99.30595436509806
 20
134.7012560541542
 30
0.0
 10
98.32496408566277
 20
134.5959692464445
 30
0.0
 10
97.39699685654323
 20
134.5389364744915
 30
0.0
 10
96.42454136278276
 20
134.5243418761218
 30
0.0
 10
95.0984111573494
 20
134.602535092613
 30
0.0
 10
93.8283756728557
 20
134.7630148142071
 30
0.0
 10
92.86859967218605
 20
134.9481263524207
 30
0.0
 10
92.16994802484125
 20
135.1156159561509
 30
0.0
 10
91.72613988668613
 20
135.2292391623591
 30
0.0
 10
91.39360282475614
 20
135.3224229972677
 30
0.0
 10
91.00644441451291
 20
135.4370878615263
 30
0.0
 10
90.66919645240115
 20
135.5444336705864
 30
0.0
 10
90.57147238607209
 20
135.581999243873
 30
0.0
 10
90.57057046580024
 20
135.5821306526895
 30
0.0
 10
90.57054315087537
 20
135.5821346324448
 30
0.0
  0
LINE
  5
1B8
330
1F
100
AcDbEntity
  8
0
  6
Continuous
 62
     7
370
    25
100
AcDbLine
 10
105.0705431509
 20
136.3815136773
 30
0.0
 11
105.0705431509
 21
131.0240873947
 31
0.0
  0
SPLINE
  5
1B9
330
1F
100
AcDbEntity
  8
0
  6
Continuous
 62
     7
370
    25
100
AcDbSpline
210
0.0
220
0.0
230
1.0
 70
     8
 71
     3
 72
    30
 73
    26
 74
     0
 42
0.000000001
 43
0.00000001
 40
0.0
 40
0.0
 40
0.0
 40
0.0
 40
0.0192411700742056
 40
0.0381353539376965
 40
0.0566868884861289
 40
0.0749003554931371
 40
0.0927805967284127
 40
0.1103327298326406
 40
0.1275621649289921
 40
0.1444746219341849
 40
0.2455865830532024
 40
0.3577720192516866
 40
0.4505017408956522
 40
0.5720127868619947
 40
0.616806984020002
 40
0.6590088499432829
 40
0.6986242498774753
 40
0.7356603299341617
 40
0.770125893191514
 40
0.8073679165907879
 40
0.8483950324891434
 40
0.8881367798820075
 40
0.9266264622110474
 40
0.9639007443615106
 40
1.0
 40
1.0
 40
1.0
 40
1.0
 10
95.89972456026327
 20
129.35999608437
 30
0.0
 10
95.9827570401429
 20
129.3488689790451
 30
0.0
 10
96.14732463121572
 20
129.326815429379
 30
0.0
 10
96.39520614689629
 20
129.2987635401163
 30
0.0
 10
96.64048282233864
 20
129.2748120095903
 30
0.0
 10
96.88304065594994
 20
129.255282057397
 30
0.0
 10
97.12247533305883
 20
129.2400897652203
 30
0.0
 10
97.3584885284659
 20
129.2292582039895
 30
0.0
 10
97.59080657377667
 20
129.2227776387364
 30
0.0
 10
98.19935734340068
 20
129.2171461471503
 30
0.0
 10
99.23766984062074
 20
129.2771195466349
 30
0.0
 10
100.553021368722
 20
129.4765420198097
 30
0.0
 10
101.8325665816136
 20
129.7820233804935
 30
0.0
 10
102.7240071257037
 20
130.0619661834125
 30
0.0
 10
103.3416719945647
 20
130.2894152799279
 30
0.0
 10
103.6849950798481
 20
130.4196939404279
 30
0.0
 10
103.9766861647436
 20
130.5357848783858
 30
0.0
 10
104.2212315205694
 20
130.6371531077891
 30
0.0
 10
104.4335862010088
 20
130.7284911603067
 30
0.0
 10
104.6246491756334
 20
130.8125662442539
 30
0.0
 10
104.7898965798059
 20
130.8875591982192
 30
0.0
 10
104.91943713005
 20
130.9485476977649
 30
0.0
 10
105.0078034992725
 20
130.9917853595303
 30
0.0
 10
105.0609493445362
 20
131.0190154454092
 30
0.0
 10
105.0673795404774
 20
131.0224148915391
 30
0.0
 10
105.0705431508754
 20
131.0240873947135
 30
0.0
  0
SPLINE
  5
1BA
330
1F
100
AcDbEntity
  8
0
  6
Continuous
 62
     7
370
    25
100
AcDbSpline
210
0.0
220
0.0
230
1.0
 70
     8
 71
     3
 72
    38
 73
    34
 74
     0
 42
0.000000001
 43
0.00000001
 40
0.0
 40
0.0
 40
0.0
 40
0.0
 40
0.1249999999999999
 40
0.1249999999999999
 40
0.2499999999999999
 40
0.2499999999999999
 40
0.3124999999999999
 40
0.3124999999999999
 40
0.3749999999999999
 40
0.3749999999999999
 40
0.4374999999999999
 40
0.4374999999999999
 40
0.5
 40
0.5
 40
0.5625
 40
0.5625
 40
0.6249999999999999
 40
0.6249999999999999
 40
0.6874999999999999
 40
0.6874999999999999
 40
0.7187499999999999
 40
0.7187499999999999
 40
0.7499999999999999
 40
0.7499999999999999
 40
0.7812499999999999
 40
0.7812499999999999
 40
0.8124999999999999
 40
0.8124999999999999
 40
0.8749999999999999
 40
0.8749999999999999
 40
0.9375
 40
0.9375
 40
1.0
 40
1.0
 40
1.0
 40
1.0
 10
90.57054315087535
 20
135.4539092588658
 30
0.0
 10
90.57054315087551
 20
135.4539092588658
 30
0.0
 10
90.63234890843901
 20
135.4312651762038
 30
0.0
 10
90.88197145387458
 20
135.3386807871478
 30
0.0
 10
91.06569908481275
 20
135.270293207195
 30
0.0
 10
91.42208792139783
 20
135.1344511079932
 30
0.0
 10
91.55524838290339
 20
135.0832581229367
 30
0.0
 10
91.84632739359976
 20
134.9695695178243
 30
0.0
 10
92.0028173451091
 20
134.9076429103179
 30
0.0
 10
92.33619878639699
 20
134.7727578016274
 30
0.0
 10
92.51310254476014
 20
134.6998195473407
 30
0.0
 10
92.88634419223345
 20
134.5408436125448
 30
0.0
 10
93.08408818311457
 20
134.4542038426683
 30
0.0
 10
93.4901116163677
 20
134.2672861701159
 30
0.0
 10
93.69816500975469
 20
134.1672512563068
 30
0.0
 10
94.12045928248882
 20
133.9479877061278
 30
0.0
 10
94.3348245855639
 20
133.8289845144632
 30
0.0
 10
94.76266689714329
 20
133.5587106641393
 30
0.0
 10
94.97906854824988
 20
133.4054618386276
 30
0.0
 10
95.27770099112999
 20
133.1393933150444
 30
0.0
 10
95.3728935805997
 20
133.0446210687717
 30
0.0
 10
95.55051883245646
 20
132.8388642115818
 30
0.0
 10
95.63313314308485
 20
132.7270056698111
 30
0.0
 10
95.7752134181064
 20
132.4934901655888
 30
0.0
 10
95.83559896735133
 20
132.370929099633
 30
0.0
 10
95.93504945950617
 20
132.1144583364078
 30
0.0
 10
95.97434089853098
 20
131.9792183228581
 30
0.0
 10
96.06103748468401
 20
131.5709363198936
 30
0.0
 10
96.07974581167869
 20
131.2946761421087
 30
0.0
 10
96.07624979104698
 20
130.737928363473
 30
0.0
 10
96.05377017083838
 20
130.4596981194823
 30
0.0
 10
95.9881425230563
 20
129.9083122992975
 30
0.0
 10
95.94464497936681
 20
129.6340586301951
 30
0.0
 10
95.89516543225676
 20
129.3606291582335
 30
0.0
  0
LINE
  5
1BB
330
1F
100
AcDbEntity
  8
0
  6
Continuous
 62
     7
370
    25
100
AcDbLine
 10
90.5705431509
 20
135.4539092589
 30
0.0
 11
90.5705431509
 21
135.5821346324
 31
0.0
  0
SPLINE
  5
1BC
330
1F
100
AcDbEntity
  8
0
  6
Continuous
 62
     7
370
    25
100
AcDbSpline
210
0.0
220
0.0
230
1.0
 70
     8
 71
     3
 72
    14
 73
    10
 74
     0
 42
0.000000001
 43
0.00000001
 40
0.0
 40
0.0
 40
0.0
 40
0.0
 40
0.0003951392850831
 40
0.0003951392850831
 40
0.0003951392850831
 40
0.0008159035679249
 40
0.0008159035679249
 40
0.0008159035679249
 40
0.0012369936130997
 40
0.0012369936130997
 40
0.0012369936130997
 40
0.0012369936130997
 10
94.69842710060689
 20
129.0928343709622
 30
0.0
 10
94.8269363387136
 20
129.1217083386757
 30
0.0
 10
94.9554998464426
 20
129.150396552152
 30
0.0
 10
95.08405022472598
 20
129.1788993961894
 30
0.0
 10
95.2209354723896
 20
129.2092502898802
 30
0.0
 10
95.35783111828941
 20
129.2393962549092
 30
0.0
 10
95.49465137963847
 20
129.2693480744776
 30
0.0
 10
95.63157736858338
 20
129.2993230392576
 30
0.0
 10
95.76845444054756
 20
129.3291090887028
 30
0.0
 10
95.9051912897347
 20
129.3587315618715
 30
0.0
  0
LINE
  5
1BD
330
1F
100
AcDbEntity
  8
0
  6
Continuous
 62
     7
370
    25
100
AcDbLine
 10
87.1405429956
 20
130.555361374
 30
0.0
 11
90.5705431509
 21
135.4539092589
 31
0.0
  0
LINE
  5
1BE
330
1F
100
AcDbEntity
  8
0
  6
Continuous
 62
     7
370
    25
100
AcDbLine
 10
199.3205431509
 20
126.6217684331
 30
0.0
 11
199.3205431509
 21
116.917861374
 31
0.0
  0
LINE
  5
1BF
330
1F
100
AcDbEntity
  8
0
  6
Continuous
 62
     7
370
    25
100
AcDbLine
 10
206.1205431509
 20
116.917861374
 30
0.0
 11
206.1205431509
 21
126.6217685009
 31
0.0
  0
LINE
  5
1C0
330
1F
100
AcDbEntity
  8
0
  6
Continuous
 62
     7
370
    25
100
AcDbLine
 10
89.8209813025
 20
136.3912470836
 30
0.0
 11
90.5705712815
 21
135.5821357458
 31
0.0
  0
LINE
  5
1C1
330
1F
100
AcDbEntity
  8
0
  6
Continuous
 62
     7
370
    25
100
AcDbLine
 10
105.070556099
 20
136.3815139331
 30
0.0
 11
105.7388862449
 21
137.1906257555
 31
0.0
  0
LINE
  5
1C2
330
1F
100
AcDbEntity
  8
0
  6
Continuous
 62
     7
370
    25
100
AcDbLine
 10
81.0222092007
 20
131.8534375853
 30
0.0
 11
83.2705431509
 21
130.555361374
 31
0.0
  0
LINE
  5
1C3
330
1F
100
AcDbEntity
  8
0
  6
Continuous
 62
     7
370
    25
100
AcDbLine
 10
80.2705431509
 20
133.155361374
 30
0.0
 11
81.0222092007
 21
131.8534375853
 31
0.0
  0
LINE
  5
1C4
330
1F
100
AcDbEntity
  8
0
  6
Continuous
 62
     7
370
    25
100
AcDbLine
 10
80.2705431509
 20
135.1209560978
 30
0.0
 11
80.2705431509
 21
133.155361374
 31
0.0
  0
LINE
  5
1C5
330
1F
100
AcDbEntity
  8
0
  6
Continuous
 62
     7
370
    25
100
AcDbLine
 10
81.7705431509
 20
135.9869815015
 30
0.0
 11
80.2705431509
 21
135.1209560978
 31
0.0
  0
ARC
  5
1C6
330
1F
100
AcDbEntity
  8
0
  6
Continuous
 62
     7
370
    25
100
AcDbCircle
 10
129.2455431509
 20
141.767861374
 30
0.0
 40
1.000000000000028
100
AcDbArc
 50
180.0
 51
270.0
  0
LINE
  5
1C7
330
1F
100
AcDbEntity
  8
0
  6
Continuous
 62
     7
370
    25
100
AcDbLine
 10
130.9955431509
 20
140.767861374
 30
0.0
 11
129.2455431509
 21
140.767861374
 31
0.0
  0
ARC
  5
1C8
330
1F
100
AcDbEntity
  8
0
  6
Continuous
 62
     7
370
    25
100
AcDbCircle
 10
130.9955431509
 20
141.767861374
 30
0.0
 40
1.0
100
AcDbArc
 50
270.0
 51
0.0
  0
LINE
  5
1C9
330
1F
100
AcDbEntity
  8
0
  6
Continuous
 62
     7
370
    25
100
AcDbLine
 10
131.9955431509
 20
141.8654566382
 30
0.0
 11
131.9955431509
 21
141.767861374
 31
0.0
  0
LINE
  5
1CA
330
1F
100
AcDbEntity
  8
0
  6
Continuous
 62
     7
370
    25
100
AcDbLine
 10
133.4547409554
 20
144.392861374
 30
0.0
 11
131.9955431509
 21
141.8654566382
 31
0.0
  0
LINE
  5
1CB
330
1F
100
AcDbEntity
  8
0
  6
Continuous
 62
     7
370
    25
100
AcDbLine
 10
198.9279208722
 20
126.9178610737
 30
0.0
 11
199.3205443068
 21
126.6217685353
 31
0.0
  0
LINE
  5
1CC
330
1F
100
AcDbEntity
  8
0
  6
Continuous
 62
     7
370
    25
100
AcDbLine
 10
105.6964922927
 20
130.5553626643
 30
0.0
 11
105.0705462791
 21
131.0240875196
 31
0.0
  0
LINE
  5
1CD
330
1F
100
AcDbEntity
  8
0
  6
Continuous
 62
     7
370
    25
100
AcDbLine
 10
128.2455431509
 20
141.8654566382
 30
0.0
 11
126.7863453463
 21
144.392861374
 31
0.0
  0
LINE
  5
1CE
330
1F
100
AcDbEntity
  8
0
  6
Continuous
 62
     7
370
    25
100
AcDbLine
 10
128.2455431509
 20
141.767861374
 30
0.0
 11
128.2455431509
 21
141.8654566382
 31
0.0
  0
LINE
  5
1CF
330
1F
100
AcDbEntity
  8
0
  6
Continuous
 62
     7
370
    25
100
AcDbLine
 10
183.2205431509
 20
115.417861374
 30
0.0
 11
183.2205431509
 21
116.817861374
 31
0.0
  0
LINE
  5
1D0
330
1F
100
AcDbEntity
  8
0
  6
Continuous
 62
     7
370
    25
100
AcDbLine
 10
123.7705431509
 20
118.667861374
 30
0.0
 11
123.7705431509
 21
115.417861374
 31
0.0
  0
LINE
  5
1D1
330
1F
100
AcDbEntity
  8
0
  6
Continuous
 62
     7
370
    25
100
AcDbLine
 10
122.9455431509
 20
117.917861374
 30
0.0
 11
122.9455431509
 21
118.667861374
 31
0.0
  0
LINE
  5
1D2
330
1F
100
AcDbEntity
  8
0
  6
Continuous
 62
     7
370
    25
100
AcDbLine
 10
119.1205431509
 20
127.267861374
 30
0.0
 11
119.1205431509
 21
118.1488014816
 31
0.0
  0
LINE
  5
1D3
330
1F
100
AcDbEntity
  8
0
  6
Continuous
 62
     7
370
    25
100
AcDbLine
 10
114.2205431509
 20
130.367861374
 30
0.0
 11
114.2205431509
 21
128.467861374
 31
0.0
  0
LINE
  5
1D4
330
1F
100
AcDbEntity
  8
0
  6
Continuous
 62
     7
370
    25
100
AcDbLine
 10
120.2205431509
 20
144.192861374
 30
0.0
 11
120.2205431509
 21
139.767861374
 31
0.0
  0
LINE
  5
1D5
330
1F
100
AcDbEntity
  8
0
  6
Continuous
 62
     7
370
    25
100
AcDbLine
 10
138.2205431509
 20
129.917861374
 30
0.0
 11
138.2205431509
 21
144.392861374
 31
0.0
  0
LINE
  5
1D6
330
1F
100
AcDbEntity
  8
0
  6
Continuous
 62
     7
370
    25
100
AcDbLine
 10
206.1205417753
 20
126.6217684594
 30
0.0
 11
206.5131651845
 21
126.9178609962
 31
0.0
  0
LINE
  5
1D7
330
1F
100
AcDbEntity
  8
0
  6
Continuous
 62
     7
370
    25
100
AcDbLine
 10
220.2205431509
 20
117.217861374
 30
0.0
 11
220.2205431509
 21
121.6437208523
 31
0.0
  0
SPLINE
  5
1D8
330
1F
100
AcDbEntity
  8
0
  6
Continuous
 62
     7
370
    25
100
AcDbSpline
210
0.0
220
0.0
230
1.0
 70
     8
 71
     3
 72
     9
 73
     5
 74
     0
 42
0.000000001
 43
0.00000001
 40
0.0
 40
0.0
 40
0.0
 40
0.0
 40
0.5102144635023922
 40
1.0
 40
1.0
 40
1.0
 40
1.0
 10
81.07490654754646
 20
123.3794878906137
 30
0.0
 10
81.44977059187674
 20
123.3769971235691
 30
0.0
 10
82.18448916836911
 20
123.3721153194989
 30
0.0
 10
82.91348921644939
 20
123.366732092777
 30
0.0
 10
83.27054289610517
 20
123.364095466189
 30
0.0
  0
LINE
  5
1D9
330
1F
100
AcDbEntity
  8
0
  6
Continuous
 62
     7
370
    25
100
AcDbLine
 10
81.0222092007
 20
123.4099121815
 30
0.0
 11
81.0749065494
 21
123.3794873531
 31
0.0
  0
LINE
  5
1DA
330
1F
100
AcDbEntity
  8
0
  6
Continuous
 62
     7
370
    25
100
AcDbLine
 10
81.0222092007
 20
131.8534375853
 30
0.0
 11
81.0222092007
 21
123.4099121815
 31
0.0
  0
SPLINE
  5
1DB
330
1F
100
AcDbEntity
  8
0
  6
Continuous
 62
     7
370
    25
100
AcDbSpline
210
0.0
220
0.0
230
1.0
 70
    24
 71
     3
 72
     8
 73
     4
 74
     0
 42
0.000000001
 43
0.00000001
 40
0.0000004089325119
 40
0.0000004089325119
 40
0.0000004089325119
 40
0.0000004089325119
 40
0.0015399868451459
 40
0.0015399868451459
 40
0.0015399868451459
 40
0.0015399868451459
 10
80.27054315087537
 20
123.8438867777463
 30
0.0
 10
80.52153422689982
 20
123.6989770124394
 30
0.0
 10
80.77212342340276
 20
123.5542992723825
 30
0.0
 10
81.0222092007149
 20
123.4099121815308
 30
0.0
  0
LINE
  5
1DC
330
1F
100
AcDbEntity
  8
0
  6
Continuous
 62
     7
370
    25
100
AcDbLine
 10
80.2705431509
 20
133.155361374
 30
0.0
 11
80.2705431509
 21
123.8438867777
 31
0.0
  0
SPLINE
  5
1DD
330
1F
100
AcDbEntity
  8
0
  6
Continuous
 62
     7
370
    25
100
AcDbSpline
210
0.0
220
0.0
230
1.0
 70
     8
 71
     3
 72
     8
 73
     4
 74
     0
 42
0.000000001
 43
0.00000001
 40
0.0
 40
0.0
 40
0.0
 40
0.0
 40
1.0
 40
1.0
 40
1.0
 40
1.0
 10
83.40022489363214
 20
122.9778620516985
 30
0.0
 10
83.3722766735126
 20
123.085678405674
 30
0.0
 10
83.34431658534389
 20
123.1932722558402
 30
0.0
 10
83.31634439780966
 20
123.3006415366249
 30
0.0
  0
LINE
  5
1DE
330
1F
100
AcDbEntity
  8
0
  6
Continuous
 62
     7
370
    25
100
AcDbLine
 10
83.4002280322
 20
122.977861374
 30
0.0
 11
81.7705423641
 21
122.977861374
 31
0.0
  0
LINE
  5
1DF
330
1F
100
AcDbEntity
  8
0
  6
Continuous
 62
     7
370
    25
100
AcDbLine
 10
81.770542564
 20
122.9778617128
 30
0.0
 11
81.074906086
 21
123.3794876206
 31
0.0
  0
LINE
  5
1E0
330
1F
100
AcDbEntity
  8
0
  6
Continuous
 62
     7
370
    25
100
AcDbLine
 10
89.8245040481
 20
120.980361374
 30
0.0
 11
89.5723324201
 21
120.980361374
 31
0.0
  0
SPLINE
  5
1E1
330
1F
100
AcDbEntity
  8
0
  6
Continuous
 62
     7
370
    25
100
AcDbSpline
210
0.0
220
0.0
230
1.0
 70
     8
 71
     3
 72
    26
 73
    22
 74
     0
 42
0.000000001
 43
0.00000001
 40
0.0
 40
0.0
 40
0.0
 40
0.0
 40
0.0524616032245984
 40
0.1026497911584775
 40
0.1505654136713723
 40
0.1962094561589203
 40
0.2395830674744455
 40
0.2806875955357221
 40
0.3195246332747494
 40
0.3560960787422642
 40
0.3904042149164026
 40
0.4224518174656405
 40
0.4522423030205674
 40
0.4797799375650286
 40
0.5050701364955548
 40
0.5966477315635087
 40
0.6842052596254289
 40
0.768002620409792
 40
0.84833623390995
 40
0.9255424426774792
 40
1.0
 40
1.0
 40
1.0
 40
1.0
 10
89.57052592620596
 20
120.9803911579973
 30
0.0
 10
89.53488952717467
 20
121.0399380780795
 30
0.0
 10
89.46516102683623
 20
121.1564514618662
 30
0.0
 10
89.35168286607642
 20
121.3208494225954
 30
0.0
 10
89.23615731635132
 20
121.473011160397
 30
0.0
 10
89.11903562034146
 20
121.6129138573293
 30
0.0
 10
89.00166391986109
 20
121.741128181234
 30
0.0
 10
88.88504295383095
 20
121.8581438601723
 30
0.0
 10
88.7701400333739
 20
121.9645210154234
 30
0.0
 10
88.65781580772548
 20
122.0608370958737
 30
0.0
 10
88.54884683355192
 20
122.1476864425076
 30
0.0
 10
88.44392779318258
 20
122.225666624427
 30
0.0
 10
88.3436704656706
 20
122.2953748223978
 30
0.0
 10
88.24863312827293
 20
122.3573848082545
 30
0.0
 10
88.07851592905192
 20
122.4618775681116
 30
0.0
 10
87.82557922618825
 20
122.596944206221
 30
0.0
 10
87.47957632709274
 20
122.7413353983459
 30
0.0
 10
87.13160916072502
 20
122.8503001349934
 30
0.0
 10
86.78547527399756
 20
122.9248229229493
 30
0.0
 10
86.44443127554024
 20
122.9697446383143
 30
0.0
 10
86.218704193378
 20
122.975188683476
 30
0.0
 10
86.10788611472525
 20
122.9778613739619
 30
0.0
  0
SPLINE
  5
1E2
330
1F
100
AcDbEntity
  8
0
  6
Continuous
 62
     7
370
    25
100
AcDbSpline
210
0.0
220
0.0
230
1.0
 70
     8
 71
     3
 72
     8
 73
     4
 74
     0
 42
0.000000001
 43
0.00000001
 40
0.0
 40
0.0
 40
0.0
 40
0.0
 40
1.0
 40
1.0
 40
1.0
 40
1.0
 10
89.82450404810785
 20
120.9803613739618
 30
0.0
 10
89.85350875453543
 20
121.1042991008241
 30
0.0
 10
89.87254127421689
 20
121.2322512310574
 30
0.0
 10
89.88079286640853
 20
121.3633205437489
 30
0.0
  0
LINE
  5
1E3
330
1F
100
AcDbEntity
  8
0
  6
Continuous
 62
     7
370
    25
100
AcDbLine
 10
86.1078861147
 20
122.977861374
 30
0.0
 11
83.4002280322
 21
122.977861374
 31
0.0
  0
LINE
  5
1E4
330
1F
100
AcDbEntity
  8
0
  6
Continuous
 62
     7
370
    25
100
AcDbLine
 10
102.8705431509
 20
116.9806347848
 30
0.0
 11
102.2205431509
 21
117.130361374
 31
0.0
  0
SPLINE
  5
1E5
330
1F
100
AcDbEntity
  8
0
  6
Continuous
 62
     7
370
    25
100
AcDbSpline
210
0.0
220
0.0
230
1.0
 70
     8
 71
     3
 72
    26
 73
    22
 74
     0
 42
0.000000001
 43
0.00000001
 40
0.0
 40
0.0
 40
0.0
 40
0.0
 40
0.0305951519997827
 40
0.0629165828273272
 40
0.0969719833781277
 40
0.1327679186099648
 40
0.1703100320978399
 40
0.2096032067394201
 40
0.2506516922691944
 40
0.3342139324394213
 40
0.4179514152268007
 40
0.5018666942829891
 40
0.565985799281231
 40
0.6277248002646303
 40
0.6871502460518468
 40
0.7443367736274911
 40
0.7993681411680792
 40
0.8523383421216271
 40
0.9033527751812551
 40
0.952529426871455
 40
1.0
 40
1.0
 40
1.0
 40
1.0
 10
102.2205431508754
 20
117.1303613739619
 30
0.0
 10
102.2196349390308
 20
117.1948965413491
 30
0.0
 10
102.2177672710503
 20
117.3276081619424
 30
0.0
 10
102.2021746819883
 20
117.5304222534665
 30
0.0
 10
102.1755308208028
 20
117.7421352943652
 30
0.0
 10
102.1353763917178
 20
117.9618472877448
 30
0.0
 10
102.080478275061
 20
118.1885941585892
 30
0.0
 10
102.009235306344
 20
118.4212251624795
 30
0.0
 10
101.8908229126195
 20
118.7366234763877
 30
0.0
 10
101.7026920118492
 20
119.1211053793665
 30
0.0
 10
101.4186752667374
 20
119.5511329754349
 30
0.0
 10
101.1092483851789
 20
119.9096300194617
 30
0.0
 10
100.7933198542789
 20
120.2014111812999
 30
0.0
 10
100.4865468765697
 20
120.4338844217001
 30
0.0
 10
100.1681064579226
 20
120.6306988967377
 30
0.0
 10
99.8421225684127
 20
120.7927962740923
 30
0.0
 10
99.51258046287545
 20
120.9212578081307
 30
0.0
 10
99.18302593945108
 20
121.0178308270402
 30
0.0
 10
98.85662613562215
 20
121.0836724656581
 30
0.0
 10
98.53613748863316
 20
121.123229032619
 30
0.0
 10
98.3244959193944
 20
121.1280120712657
 30
0.0
 10
98.22054315087536
 20
121.1303613739619
 30
0.0
  0
SPLINE
  5
1E6
330
1F
100
AcDbEntity
  8
0
  6
Continuous
 62
     7
370
    25
100
AcDbSpline
210
0.0
220
0.0
230
1.0
 70
     8
 71
     3
 72
    13
 73
     9
 74
     0
 42
0.000000001
 43
0.00000001
 40
0.0
 40
0.0
 40
0.0
 40
0.0
 40
0.1603925272810556
 40
0.3231077919143947
 40
0.488290765366105
 40
0.6560800220784435
 40
0.8266077820764197
 40
1.0
 40
1.0
 40
1.0
 40
1.0
 10
96.3056698715859
 20
121.1303613739619
 30
0.0
 10
96.24662492139944
 20
121.1296059300718
 30
0.0
 10
96.12767995680635
 20
121.1280841022699
 30
0.0
 10
95.94843521965387
 20
121.1156405709829
 30
0.0
 10
95.76750508145295
 20
121.095457867971
 30
0.0
 10
95.58537343777417
 20
121.0663231819934
 30
0.0
 10
95.40219742348576
 20
121.028906152962
 30
0.0
 10
95.28145035550314
 20
120.9966383441558
 30
0.0
 10
95.22057397940019
 20
120.9803700628822
 30
0.0
  0
SPLINE
  5
1E7
330
1F
100
AcDbEntity
  8
0
  6
Continuous
 62
     7
370
    25
100
AcDbSpline
210
0.0
220
0.0
230
1.0
 70
    24
 71
     3
 72
    10
 73
     6
 74
     0
 42
0.000000001
 43
0.00000001
 40
0.0
 40
0.0
 40
0.0
 40
0.0
 40
0.3215164130146003
 40
0.6546690893716903
 40
1.0
 40
1.0
 40
1.0
 40
1.0
 10
95.22072198578014
 20
120.9803613739619
 30
0.0
 10
95.15217922742374
 20
120.9803613739619
 30
0.0
 10
95.01261302370969
 20
120.9803613739619
 30
0.0
 10
94.80294133580325
 20
120.9803613739619
 30
0.0
 10
94.66320787857063
 20
120.9803613739619
 30
0.0
 10
94.59208709841178
 20
120.9803613739619
 30
0.0
  0
SPLINE
  5
1E8
330
1F
100
AcDbEntity
  8
0
  6
Continuous
 62
     7
370
    25
100
AcDbSpline
210
0.0
220
0.0
230
1.0
 70
     8
 71
     3
 72
     8
 73
     4
 74
     0
 42
0.000000001
 43
0.00000001
 40
0.0
 40
0.0
 40
0.0
 40
0.0
 40
1.0
 40
1.0
 40
1.0
 40
1.0
 10
95.3067253647536
 20
121.3587546150542
 30
0.0
 10
95.03742082322387
 20
121.2620459167544
 30
0.0
 10
94.80125808912511
 20
121.1340263251849
 30
0.0
 10
94.59206336009717
 20
120.980528571924
 30
0.0
  0
LINE
  5
1E9
330
1F
100
AcDbEntity
  8
0
  6
Continuous
 62
     7
370
    25
100
AcDbLine
 10
94.5925804197
 20
104.855361374
 30
0.0
 11
94.729349496
 21
104.855361374
 31
0.0
  0
LINE
  5
1EA
330
1F
100
AcDbEntity
  8
0
  6
Continuous
 62
     7
370
    25
100
AcDbLine
 10
98.2205431509
 20
121.130361374
 30
0.0
 11
96.3056698716
 21
121.130361374
 31
0.0
  0
LINE
  5
1EB
330
1F
100
AcDbEntity
  8
0
  6
Continuous
 62
     7
370
    25
100
AcDbLine
 10
94.5923087249
 20
120.980361374
 30
0.0
 11
89.8245040481
 21
120.980361374
 31
0.0
  0
LINE
  5
1EC
330
1F
100
AcDbEntity
  8
0
  6
Continuous
 62
     7
370
    25
100
AcDbLine
 10
102.2205431509
 20
112.917861374
 30
0.0
 11
102.2205431509
 21
117.130361374
 31
0.0
  0
LINE
  5
1ED
330
1F
100
AcDbEntity
  8
VERMASSUNG
  6
CENTERX2
100
AcDbLine
 10
234.2155431509
 20
112.917861374
 30
0.0
 11
66.2755431509
 21
112.917861374
 31
0.0
  0
HATCH
  5
1EE
330
1F
100
AcDbEntity
  8
0
  6
Continuous
 62
     7
370
    18
100
AcDbHatch
 10
0.0
 20
0.0
 30
0.0
210
0.0
220
0.0
230
1.0
  2
ANSI31
 70
     0
 71
     0
 91
        1
 92
        0
 93
       43
 72
     1
 10
128.2455431508754
 20
141.7678613739619
 11
128.2455431508754
 21
141.8654566381536
 72
     1
 10
128.2455431508754
 20
141.8654566381536
 11
126.7863453463053
 21
144.3928613739619
 72
     1
 10
126.7863453463053
 20
144.3928613739619
 11
120.4205431508754
 21
144.3928613739619
 72
     2
 10
120.4205431508754
 20
144.1928613739619
 40
0.2000000000000028
 50
90.0
 51
180.0
 73
     1
 72
     1
 10
120.2205431508754
 20
144.1928613739619
 11
120.2205431508754
 21
139.7678613739619
 72
     1
 10
120.2205431508754
 20
139.7678613739619
 11
120.554581836904
 21
138.7084260135654
 72
     2
 10
119.7916082763054
 20
138.4678613739619
 40
0.8000000000000049
 50
342.4999999999978
 51
467.5000000000012
 73
     0
 72
     1
 10
119.551043636702
 20
137.7048878133633
 11
119.0603611108446
 21
137.8595994194903
 72
     1
 10
119.0603611108446
 20
137.8595994194903
 11
105.7388878383251
 21
137.190622446464
 72
     1
 10
105.7388862449266
 20
137.1906257555325
 11
105.070556098997
 21
136.3815139331413
 72
     1
 10
105.070556098997
 20
136.3815139331413
 11
105.0705431508754
 21
131.0240873947135
 72
     1
 10
105.070546279109
 20
131.024087519594
 11
105.6964922926512
 21
130.555362664254
 72
     1
 10
105.6964925409601
 20
130.5553613739619
 11
110.7205431508754
 21
130.5553613739619
 72
     1
 10
110.7205431508754
 20
130.5553613739619
 11
111.5957836244562
 21
131.0606816969895
 72
     2
 10
111.9957836244562
 20
130.3678613739619
 40
0.7999999999999956
 50
240.0000000000013
 51
270.0000000000008
 73
     0
 72
     1
 10
111.9957836244562
 20
131.1678613739619
 11
113.4205431508754
 21
131.1678613739619
 72
     2
 10
113.4205431508754
 20
130.3678613739619
 40
0.7999999999999977
 50
270.0000000000008
 51
360.0000000000008
 73
     0
 72
     1
 10
114.2205431508754
 20
130.3678613739619
 11
114.2205431508754
 21
128.4678613739619
 72
     1
 10
114.2205431508754
 20
128.4678613739619
 11
117.9205431508754
 21
128.4678613739619
 72
     2
 10
117.9205431508754
 20
127.2678613739619
 40
1.2
 50
270.0000000000008
 51
360.0000000000008
 73
     0
 72
     1
 10
119.1205431508754
 20
127.2678613739619
 11
119.1205431508754
 21
118.1488014816378
 72
     1
 10
119.1205431508754
 20
118.1488014816378
 11
119.5205431508754
 21
117.9178613739619
 72
     1
 10
119.5205431508754
 20
117.9178613739619
 11
122.9455431508754
 21
117.9178613739619
 72
     1
 10
122.9455431508754
 20
117.9178613739619
 11
122.9455431508754
 21
118.6678613739619
 72
     1
 10
122.9455431508754
 20
118.6678613739619
 11
123.7705431508754
 21
118.6678613739619
 72
     1
 10
123.7705431508754
 20
118.6678613739619
 11
123.7705431508754
 21
115.4178613739619
 72
     1
 10
123.7705431508754
 20
115.4178613739619
 11
183.2205431508754
 21
115.4178613739619
 72
     1
 10
183.2205431508754
 20
115.4178613739619
 11
183.2205431508754
 21
116.817861373962
 72
     2
 10
183.6205431508754
 20
116.817861373962
 40
0.3999999999999989
 50
180.0
 51
269.9999999999968
 73
     0
 72
     1
 10
183.6205431508753
 20
117.217861373962
 11
186.396299925039
 21
117.217861373962
 72
     1
 10
186.396299925039
 20
117.217861373962
 11
187.2205431508754
 21
116.9178613739619
 72
     1
 10
187.2205431508754
 20
116.9178613739619
 11
199.3205431508754
 21
116.917861373962
 72
     1
 10
199.3205431508754
 20
116.917861373962
 11
199.3205431508754
 21
126.6217684331065
 72
     1
 10
199.3205443067647
 20
126.6217685353407
 11
198.9279208722344
 21
126.9178610737243
 72
     1
 10
198.9279206423382
 20
126.917861373962
 11
141.2205431508754
 21
126.9178613739619
 72
     2
 10
141.2205431508754
 20
129.9178613739619
 40
3.0
 50
90.0
 51
180.0
 73
     0
 72
     1
 10
138.2205431508753
 20
129.9178613739619
 11
138.2205431508754
 21
144.3928613739619
 72
     1
 10
138.2205431508754
 20
144.3928613739619
 11
133.4547409554454
 21
144.3928613739619
 72
     1
 10
133.4547409554454
 20
144.3928613739619
 11
131.9955431508754
 21
141.8654566381536
 72
     1
 10
131.9955431508754
 20
141.8654566381536
 11
131.9955431508754
 21
141.7678613739619
 72
     2
 10
130.9955431508754
 20
141.7678613739619
 40
1.000000000000003
 50
0.0
 51
90.0
 73
     0
 72
     1
 10
130.9955431508754
 20
140.7678613739619
 11
129.2455431508754
 21
140.7678613739619
 72
     2
 10
129.2455431508754
 20
141.7678613739619
 40
1.000000000000003
 50
90.0
 51
180.0
 73
     0
 97
        0
 75
     0
 76
     1
 52
0.0
 41
1.0
 77
     0
 78
     1
 53
45.0
 43
0.0
 44
0.0
 45
-2.245064030267288
 46
2.245064030267288
 79
     0
 98
        1
 10
0.0
 20
0.0
  0
HATCH
  5
1EF
330
1F
100
AcDbEntity
  8
0
  6
Continuous
 62
     7
370
    18
100
AcDbHatch
 10
0.0
 20
0.0
 30
0.0
210
0.0
220
0.0
230
1.0
  2
ANSI31
 70
     0
 71
     0
 91
        1
 92
        0
 93
        8
 72
     1
 10
206.1205431508754
 20
116.917861373962
 11
219.9205431508754
 21
116.917861373962
 72
     2
 10
219.9205431508754
 20
117.217861373962
 40
0.2999999999999978
 50
270.0000000000008
 51
360.0000000000008
 73
     1
 72
     1
 10
220.2205431508754
 20
117.217861373962
 11
220.2205431508754
 21
121.643720852347
 72
     2
 10
218.2205431508754
 20
121.643720852347
 40
2.000000000000003
 50
0.0
 51
65.00000000000013
 73
     1
 72
     1
 10
219.0657796743567
 20
123.4563364264203
 11
211.6425154688372
 21
126.917861373962
 72
     1
 10
211.6425154688372
 20
126.917861373962
 11
206.5131649984835
 21
126.917861373962
 72
     1
 10
206.5131651845136
 20
126.9178609961767
 11
206.1205417753493
 21
126.6217684594339
 72
     1
 10
206.1205431508754
 20
126.6217685009188
 11
206.1205431508754
 21
116.917861373962
 97
        0
 75
     0
 76
     1
 52
0.0
 41
1.0
 77
     0
 78
     1
 53
45.0
 43
0.0
 44
0.0
 45
-2.245064030267288
 46
2.245064030267288
 79
     0
 98
        1
 10
0.0
 20
0.0
  0
HATCH
  5
1F0
330
1F
100
AcDbEntity
  8
0
  6
Continuous
 62
     7
370
    18
100
AcDbHatch
 10
0.0
 20
0.0
 30
0.0
210
0.0
220
0.0
230
1.0
  2
ANSI31
 70
     0
 71
     0
 91
        1
 92
        0
 93
        9
 72
     1
 10
90.57057128146353
 20
135.5821357458448
 11
89.82098130252781
 21
136.3912470836124
 72
     1
 10
89.82098130252781
 20
136.3912470836124
 11
81.77054315087537
 21
135.9869815015443
 72
     1
 10
81.77054315087537
 20
135.9869815015443
 11
80.27054315087537
 21
135.1209560977599
 72
     1
 10
80.27054315087537
 20
135.1209560977599
 11
80.27054315087537
 21
133.1553613739619
 72
     1
 10
80.27054315087537
 20
133.1553613739619
 11
81.0222092007149
 21
131.8534375853152
 72
     1
 10
81.0222092007149
 20
131.8534375853152
 11
83.27054315087537
 21
130.5553613739619
 72
     1
 10
83.27054315087537
 20
130.5553613739619
 11
87.14054299558431
 21
130.5553613739619
 72
     1
 10
87.14054299558431
 20
130.5553613739619
 11
90.57054315087535
 21
135.4539092588658
 72
     1
 10
90.57054315087535
 20
135.4539092588658
 11
90.57054315087535
 21
135.5821346323515
 97
        0
 75
     0
 76
     1
 52
0.0
 41
1.0
 77
     0
 78
     1
 53
45.0
 43
0.0
 44
0.0
 45
-2.245064030267288
 46
2.245064030267288
 79
     0
 98
        1
 10
0.0
 20
0.0
  0
HATCH
  5
1F1
330
1F
100
AcDbEntity
  8
0
  6
Continuous
 62
     7
370
    18
100
AcDbHatch
 10
0.0
 20
0.0
 30
0.0
210
0.0
220
0.0
230
1.0
  2
ANSI31
 70
     0
 71
     0
 91
        1
 92
        0
 93
       15
 72
     1
 10
199.9705431508754
 20
116.417861373962
 11
200.8705431508754
 21
116.417861373962
 72
     1
 10
200.8705431508754
 20
116.417861373962
 11
202.7205431508754
 21
117.4859593719628
 72
     1
 10
202.7205431508754
 20
117.4859593719628
 11
204.5705431508754
 21
116.417861373962
 72
     1
 10
204.5705431508754
 20
116.417861373962
 11
205.4705431508754
 21
116.417861373962
 72
     1
 10
205.4705431508754
 20
116.417861373962
 11
206.7205431508754
 21
117.667861373962
 72
     1
 10
206.7205431508754
 20
117.667861373962
 11
206.7205431508754
 21
126.317861373962
 72
     1
 10
206.7205431508754
 20
126.317861373962
 11
206.1205431508754
 21
126.917861373962
 72
     1
 10
206.1205431508754
 20
126.917861373962
 11
204.7205431508754
 21
126.917861373962
 72
     1
 10
204.7205431508754
 20
126.917861373962
 11
204.7205431508754
 21
121.917861373962
 72
     1
 10
204.7205431508754
 20
121.917861373962
 11
200.7205431508754
 21
121.917861373962
 72
     1
 10
200.7205431508754
 20
121.917861373962
 11
200.7205431508754
 21
126.917861373962
 72
     1
 10
200.7205431508754
 20
126.917861373962
 11
199.3205431508754
 21
126.917861373962
 72
     1
 10
199.3205431508754
 20
126.917861373962
 11
198.7205431508754
 21
126.317861373962
 72
     1
 10
198.7205431508754
 20
126.317861373962
 11
198.7205431508754
 21
117.667861373962
 72
     1
 10
198.7205431508754
 20
117.667861373962
 11
199.9705431508754
 21
116.417861373962
 97
        0
 75
     0
 76
     1
 52
0.0
 41
1.0
 77
     0
 78
     1
 53
45.0
 43
0.0
 44
0.0
 45
-2.245064030267288
 46
2.245064030267288
 79
     0
 98
        1
 10
0.0
 20
0.0
  0
DIMENSION
  5
1F2
330
1F
100
AcDbEntity
  8
VERMASSUNG
100
AcDbDimension
  2
_D
 10
242.2205431509
 20
108.917861374
 30
0.0
 11
242.2205431509
 21
112.917861374
 31
0.0
 70
   160
  1
%%c<>
 71
     2
 42
-1.0
  3
SLDDIMSTYLE0
100
AcDbAlignedDimension
 13
199.3205431509
 23
116.917861374
 33
0.0
 14
219.9205431509
 24
108.917861374
 34
0.0
 50
90.0
100
AcDbRotatedDimension
  0
DIMENSION
  5
1FC
330
1F
100
AcDbEntity
  8
VERMASSUNG
100
AcDbDimension
  2
_D_1
 10
254.2205431509
 20
98.917861374
 30
0.0
 11
254.2205431509
 21
112.917861374
 31
0.0
 70
   160
  1
%%c<>
 71
     2
 42
-1.0
  3
SLDDIMSTYLE1
100
AcDbAlignedDimension
 13
211.6425154688
 23
126.917861374
 33
0.0
 14
211.6425154688
 24
98.917861374
 34
0.0
 50
90.0
100
AcDbRotatedDimension
  0
DIMENSION
  5
208
330
1F
100
AcDbEntity
  8
VERMASSUNG
100
AcDbDimension
  2
_D_2
 10
58.2705181509
 20
81.442861374
 30
0.0
 11
58.2705181509
 21
112.917861374
 31
0.0
 70
   160
  1
KM%%c<> XMZ
 71
     2
 42
-1.0
  3
SLDDIMSTYLE2
100
AcDbAlignedDimension
 13
120.4205431509
 23
144.392861374
 33
0.0
 14
120.4205431509
 24
81.442861374
 34
0.0
 50
90.0
100
AcDbRotatedDimension
  0
DIMENSION
  5
216
330
1F
100
AcDbEntity
  8
VERMASSUNG
100
AcDbDimension
  2
_D_3
 10
220.2205431509
 20
151.580306476
 30
0.0
 11
179.2205431509
 21
151.580306476
 31
0.0
 70
   160
  1
<>
 71
     2
 42
-1.0
  3
SLDDIMSTYLE1
100
AcDbAlignedDimension
 13
138.2205431509
 23
144.392861374
 33
0.0
 14
220.2205431509
 24
121.6437208523
 34
0.0
100
AcDbRotatedDimension
  0
DIMENSION
  5
220
330
1F
100
AcDbEntity
  8
VERMASSUNG
100
AcDbDimension
  2
_D_4
 10
220.2205431509
 20
160.392861374
 30
0.0
 11
170.2205431509
 21
160.392861374
 31
0.0
 70
   160
  1
<>
 71
     2
 42
-1.0
  3
SLDDIMSTYLE1
100
AcDbAlignedDimension
 13
120.2205431509
 23
144.192861374
 33
0.0
 14
220.2205431509
 24
121.6437208523
 34
0.0
100
AcDbRotatedDimension
  0
DIMENSION
  5
22A
330
1F
100
AcDbEntity
  8
VERMASSUNG
100
AcDbDimension
  2
_D_5
 10
220.2205431509
 20
168.1937945574
 30
0.0
 11
150.2455431509
 21
168.1937945574
 31
0.0
 70
   160
  1
<>
 71
     2
 42
-1.0
  3
SLDDIMSTYLE1
100
AcDbAlignedDimension
 13
80.2705431509
 23
135.1209560978
 33
0.0
 14
220.2205431509
 24
121.6437208523
 34
0.0
 50
0.0
100
AcDbRotatedDimension
  0
LINE
  5
234
330
1F
100
AcDbEntity
  8
VERMASSUNG
  6
CENTERX2
370
    18
100
AcDbLine
 10
202.7205431509
 20
114.417861374
 30
0.0
 11
202.7205431509
 21
128.917861374
 31
0.0
  0
LINE
  5
235
330
1F
100
AcDbEntity
  8
0
  6
Continuous
 62
     7
370
    25
100
AcDbLine
 10
264.1427284319
 20
29.8340936869
 30
0.0
 11
267.2987714766
 21
29.8988256015
 31
0.0
  0
LINE
  5
236
330
1F
100
AcDbEntity
  8
0
  6
Continuous
 62
     7
370
    25
100
AcDbLine
 10
272.2728760468
 20
38.5151610371
 30
0.0
 11
270.7506544967
 21
41.2805976162
 31
0.0
  0
SPLINE
  5
237
330
1F
100
AcDbEntity
  8
0
  6
Continuous
 62
     7
370
    25
100
AcDbSpline
210
0.0
220
0.0
230
1.0
 70
     8
 71
     3
 72
    23
 73
    19
 74
     0
 42
0.000000001
 43
0.00000001
 40
0.0
 40
0.0
 40
0.0
 40
0.0
 40
0.0557340956007401
 40
0.115871566840151
 40
0.1781597461399155
 40
0.2417883138928956
 40
0.3058096502708752
 40
0.3696667935715676
 40
0.4332836802237686
 40
0.4967422732259597
 40
0.5601882507782343
 40
0.6237665383582777
 40
0.6876263614569665
 40
0.7519482469658125
 40
0.816877065723238
 40
0.8824229915029824
 40
0.9480830617283004
 40
0.9999999999999999
 40
0.9999999999999999
 40
0.9999999999999999
 40
0.9999999999999999
 10
267.4103460135195
 20
29.90493169714472
 30
0.0
 10
267.5886253726559
 20
29.92364785194306
 30
0.0
 10
267.9592693824982
 20
29.96255886607778
 30
0.0
 10
268.5261271911407
 20
30.14794574342438
 30
0.0
 10
269.106561923034
 20
30.42860597274128
 30
0.0
 10
269.6814357425993
 20
30.80923662779227
 30
0.0
 10
270.2356015610865
 20
31.27707467614275
 30
0.0
 10
270.7557098480754
 20
31.8199555427157
 30
0.0
 10
271.2312282687452
 20
32.42426685441166
 30
0.0
 10
271.6536472507856
 20
33.07729847439549
 30
0.0
 10
272.0152917163644
 20
33.76631729579319
 30
0.0
 10
272.3090453931524
 20
34.4785598200405
 30
0.0
 10
272.5284072395887
 20
35.20150533911482
 30
0.0
 10
272.6669295367173
 20
35.92289118024222
 30
0.0
 10
272.7191216812803
 20
36.63136556705015
 30
0.0
 10
272.6751100030758
 20
37.31150433214402
 30
0.0
 10
272.5495334016143
 20
37.91223586277299
 30
0.0
 10
272.3931717391893
 20
38.2561364356346
 30
0.0
 10
272.3241291697283
 20
38.40798810324452
 30
0.0
  0
LINE
  5
238
330
1F
100
AcDbEntity
  8
0
  6
Continuous
 62
     7
370
    25
100
AcDbLine
 10
237.8948086736
 20
44.5345996279
 30
0.0
 11
262.7927357589
 21
30.1613322652
 31
0.0
  0
LINE
  5
239
330
1F
100
AcDbEntity
  8
0
  6
Continuous
 62
     7
370
    25
100
AcDbLine
 10
269.7921668873
 20
42.2860163385
 30
0.0
 11
244.894239802
 21
56.6592837013
 31
0.0
  0
SPLINE
  5
23A
330
1F
100
AcDbEntity
  8
0
  6
Continuous
 62
     7
370
    25
100
AcDbSpline
210
0.0
220
0.0
230
1.0
 70
     8
 71
     3
 72
    11
 73
     7
 74
     0
 42
0.000000001
 43
0.00000001
 40
0.0
 40
0.0
 40
0.0
 40
0.0
 40
0.2381386334305504
 40
0.5475760142687535
 40
0.8768406222460855
 40
1.0
 40
1.0
 40
1.0
 40
1.0
 10
268.1740594441628
 20
32.84509170333772
 30
0.0
 10
268.1279241734071
 20
32.87905692152
 30
0.0
 10
268.0218407239735
 20
32.95715654999314
 30
0.0
 10
267.9095717897579
 20
33.18515685226239
 30
0.0
 10
267.854029823995
 20
33.43664618972231
 30
0.0
 10
267.8499948918202
 20
33.60943623846568
 30
0.0
 10
267.8488964979427
 20
33.65647334427011
 30
0.0
  0
SPLINE
  5
23B
330
1F
100
AcDbEntity
  8
0
  6
Continuous
 62
     7
370
    25
100
AcDbSpline
210
0.0
220
0.0
230
1.0
 70
     8
 71
     3
 72
    14
 73
    10
 74
     0
 42
0.000000001
 43
0.00000001
 40
0.0
 40
0.0
 40
0.0
 40
0.0
 40
0.1212688096876768
 40
0.2755154814396104
 40
0.4290849173582724
 40
0.5817191793294563
 40
0.7336926849298528
 40
0.8862627059234733
 40
1.0
 40
1.0
 40
1.0
 40
1.0
 10
268.357560497888
 20
35.20730348673229
 30
0.0
 10
268.4256528125151
 20
35.31130212424177
 30
0.0
 10
268.5803544781384
 20
35.54758080757579
 30
0.0
 10
268.8705624155694
 20
35.85455631022081
 30
0.0
 10
269.1961795597453
 20
36.11417018758206
 30
0.0
 10
269.5215822261721
 20
36.28420528984491
 30
0.0
 10
269.8215131625008
 20
36.3562314036533
 30
0.0
 10
270.0614173805229
 20
36.34713949535433
 30
0.0
 10
270.1763793001256
 20
36.27966706638674
 30
0.0
 10
270.2254784307823
 20
36.25085024063217
 30
0.0
  0
SPLINE
  5
23C
330
1F
100
AcDbEntity
  8
0
  6
Continuous
 62
     7
370
    25
100
AcDbSpline
210
0.0
220
0.0
230
1.0
 70
     8
 71
     3
 72
    12
 73
     8
 74
     0
 42
0.000000001
 43
0.00000001
 40
0.0
 40
0.0
 40
0.0
 40
0.0
 40
0.1385496490585615
 40
0.4053703784378995
 40
0.6733838517497072
 40
0.9421146412360216
 40
1.0
 40
1.0
 40
1.0
 40
1.0
 10
267.8488964979427
 20
33.65647334427012
 30
0.0
 10
267.8509435871953
 20
33.72268334928263
 30
0.0
 10
267.8569329877505
 20
33.91640144940538
 30
0.0
 10
267.9235901258741
 20
34.27107821443742
 30
0.0
 10
268.076703899598
 20
34.70203294314977
 30
0.0
 10
268.2279243233472
 20
35.02393830598494
 30
0.0
 10
268.3380442246479
 20
35.17969849929075
 30
0.0
 10
268.357560497888
 20
35.20730348673229
 30
0.0
  0
LINE
  5
23D
330
1F
100
AcDbEntity
  8
0
  6
Continuous
 62
     7
370
    25
100
AcDbLine
 10
230.7807880135
 20
38.5525136697
 30
0.0
 11
232.4657535386
 21
37.5798037767
 31
0.0
  0
LINE
  5
23E
330
1F
100
AcDbEntity
  8
0
  6
Continuous
 62
     7
370
    25
100
AcDbLine
 10
248.2019745935
 20
64.8386917202
 30
0.0
 11
246.5170090684
 21
65.8114016131
 31
0.0
  0
LINE
  5
23F
330
1F
100
AcDbEntity
  8
0
  6
Continuous
 62
     7
370
    25
100
AcDbLine
 10
226.172503186
 20
41.2128198744
 30
0.0
 11
228.4231541361
 21
39.9135467367
 31
0.0
  0
LINE
  5
240
330
1F
100
AcDbEntity
  8
0
  6
Continuous
 62
     7
370
    25
100
AcDbLine
 10
244.1593751909
 20
67.1724346801
 30
0.0
 11
241.9087242409
 21
68.4717078178
 31
0.0
  0
LINE
  5
241
330
1F
100
AcDbEntity
  8
0
  6
Continuous
 62
     7
370
    25
100
AcDbLine
 10
235.131335368
 20
68.2515898532
 30
0.0
 11
225.9341228115
 21
72.8322425122
 31
0.0
  0
LINE
  5
242
330
1F
100
AcDbEntity
  8
0
  6
Continuous
 62
     7
370
    25
100
AcDbLine
 10
214.4077750998
 20
52.8658592508
 30
0.0
 11
222.973875412
 21
47.1919696648
 31
0.0
  0
LINE
  5
243
330
1F
100
AcDbEntity
  8
0
  6
Continuous
 62
     7
370
    25
100
AcDbLine
 10
219.3872126482
 20
53.8123492884
 30
0.0
 11
219.3872126482
 21
53.4470302717
 31
0.0
  0
LINE
  5
244
330
1F
100
AcDbEntity
  8
0
  6
Continuous
 62
     7
370
    25
100
AcDbLine
 10
223.2851791491
 20
73.209210986
 30
0.0
 11
222.6456286966
 21
73.1219999205
 31
0.0
  0
LINE
  5
245
330
1F
100
AcDbEntity
  8
0
  6
Continuous
 62
     7
370
    25
100
AcDbLine
 10
272.2728760468
 20
38.5151610371
 30
0.0
 11
272.3168970654
 21
38.4313025474
 31
0.0
  0
LINE
  5
246
330
1F
100
AcDbEntity
  8
0
  6
Continuous
 62
     7
370
    25
100
AcDbLine
 10
267.3882666942
 20
29.9023382239
 30
0.0
 11
267.2987714766
 21
29.8988256015
 31
0.0
  0
LWPOLYLINE
  5
247
330
1F
100
AcDbEntity
  8
0
  6
Continuous
 62
     7
370
    25
100
AcDbPolyline
 90
       22
 70
   128
 43
0.0
 10
261.3427038548
 20
33.3662459105
 10
261.3868680352
 20
34.1535810204
 10
261.5185724656
 20
34.977856994
 10
261.7354668773
 20
35.824364607
 10
262.0336807844
 20
36.6779979109
 10
262.4078925527
 20
37.5235237993
 10
262.8514243642
 20
38.3458538426
 10
263.3563613834
 20
39.1303135417
 10
263.913692997
 20
39.8629041947
 10
264.5134736094
 20
40.5305527041
 10
265.1450001212
 20
41.1213448663
 10
265.7970029269
 20
41.6247379813
 10
266.4578470209
 20
42.031748987
 10
267.1157396248
 20
42.3351147623
 10
267.7589406295
 20
42.5294217379
 10
268.3759720977
 20
42.611202501
 10
268.9558230884
 20
42.5789976721
 10
269.4881461468
 20
42.4333819471
 10
269.9634419554
 20
42.1769538421
 10
270.3732288492
 20
41.8142893226
 10
270.7101941713
 20
41.3518601457
 10
270.7506544967
 20
41.2805976162
  0
LWPOLYLINE
  5
248
330
1F
100
AcDbEntity
  8
0
  6
Continuous
 62
     7
370
    25
100
AcDbPolyline
 90
       10
 70
   128
 43
0.0
 10
264.1427284319
 20
29.8340936869
 10
263.913692997
 20
29.8379885057
 10
263.3563613834
 20
29.9270977744
 10
262.8514243642
 20
30.1285696005
 10
262.4078925527
 20
30.4388087143
 10
262.0336807844
 20
30.8522788916
 10
261.7354668773
 20
31.3616017473
 10
261.5185724656
 20
31.9576884029
 10
261.3868680352
 20
32.6299016779
 10
261.3427038548
 20
33.3662459105
  0
LWPOLYLINE
  5
249
330
1F
100
AcDbEntity
  8
0
  6
Continuous
 62
     7
370
    25
100
AcDbPolyline
 90
        3
 70
   128
 43
0.0
 10
268.2192573449
 20
32.8020143397
 10
268.188258758
 20
32.8210548645
 10
268.1600241075
 20
32.8405230819
  0
LWPOLYLINE
  5
24A
330
1F
100
AcDbEntity
  8
0
  6
Continuous
 62
     7
370
    25
100
AcDbPolyline
 90
       40
 70
   128
 43
0.0
 10
229.2057710971
 20
44.7851364186
 10
229.2505695278
 20
45.9628910018
 10
229.3846041292
 20
47.1828861647
 10
229.6067957336
 20
48.4352992236
 10
229.9153553848
 20
49.7100464851
 10
230.3077987419
 20
50.9968644335
 10
230.7809660818
 20
52.2853923676
 10
231.3310477392
 20
53.5652558179
 10
231.9536147801
 20
54.8261500765
 10
232.6436546607
 20
56.0579231644
 10
233.3956115858
 20
57.2506575687
 10
234.2034312401
 20
58.3947500935
 10
235.060609535
 20
59.4809891784
 10
235.9602449747
 20
60.500629065
 10
236.8950942236
 20
61.4454602125
 10
237.8576304254
 20
62.307875396
 10
238.8401038045
 20
63.0809309556
 10
239.8346040628
 20
63.7584027024
 10
240.8331240692
 20
64.3348360324
 10
241.8276243276
 20
64.8055898431
 10
242.8100977066
 20
65.1668739019
 10
243.7726339084
 20
65.4157793619
 10
244.7074831574
 20
65.5503021825
 10
245.6071185971
 20
65.5693592653
 10
246.4642968919
 20
65.4727971738
 10
247.2721165463
 20
65.2613933691
 10
248.0240734713
 20
64.9368499504
 10
248.714113352
 20
64.5017799505
 10
249.3366803929
 20
63.9596862972
 10
249.8867620503
 20
63.3149336098
 10
250.3599293901
 20
62.5727130579
 10
250.7523727473
 20
61.7390005649
 10
251.0609323984
 20
60.8205086936
 10
251.2831240028
 20
59.8246326006
 10
251.4171586043
 20
58.7593904945
 10
251.4619570349
 20
57.6333590784
 10
251.4171586043
 20
56.4556044951
 10
251.2831240028
 20
55.2356093322
 10
251.0609323984
 20
53.9831962733
 10
250.881650209
 20
53.2028252461
  0
LWPOLYLINE
  5
24B
330
1F
100
AcDbEntity
  8
0
  6
Continuous
 62
     7
370
    25
100
AcDbPolyline
 90
       23
 70
   128
 43
0.0
 10
243.8822190806
 20
41.0781411727
 10
243.7726339084
 20
40.9730352845
 10
242.8100977066
 20
40.1106201009
 10
241.8276243276
 20
39.3375645413
 10
240.8331240692
 20
38.6600927945
 10
239.8346040628
 20
38.0836594646
 10
238.8401038045
 20
37.6129056538
 10
237.8576304254
 20
37.251621595
 10
236.8950942236
 20
37.0027161351
 10
235.9602449747
 20
36.8681933144
 10
235.060609535
 20
36.8491362316
 10
234.2034312401
 20
36.9456983231
 10
233.3956115858
 20
37.1571021278
 10
232.6436546607
 20
37.4816455465
 10
231.9536147801
 20
37.9167155464
 10
231.3310477392
 20
38.4588091997
 10
230.7809660818
 20
39.1035618871
 10
230.3077987419
 20
39.845782439
 10
229.9153553848
 20
40.679494932
 10
229.6067957336
 20
41.5979868033
 10
229.3846041292
 20
42.5938628963
 10
229.2505695278
 20
43.6591050025
 10
229.2057710971
 20
44.7851364186
  0
SPLINE
  5
24C
330
1F
100
AcDbEntity
  8
0
  6
Continuous
 62
     7
370
    25
100
AcDbSpline
210
0.0
220
0.0
230
1.0
 70
     8
 71
     3
 72
    25
 73
    21
 74
     0
 42
0.000000001
 43
0.00000001
 40
0.0
 40
0.0
 40
0.0
 40
0.0
 40
0.1249999999999998
 40
0.1249999999999998
 40
0.2499999999999997
 40
0.2499999999999997
 40
0.3749999999999995
 40
0.3749999999999995
 40
0.4999999999999993
 40
0.4999999999999993
 40
0.5624999999999996
 40
0.5624999999999996
 40
0.6249999999999998
 40
0.6875000000000001
 40
0.6875000000000001
 40
0.7500000000000003
 40
0.7500000000000003
 40
0.8750000000000001
 40
0.8750000000000001
 40
1.0
 40
1.0
 40
1.0
 40
1.0
 10
234.0393599421671
 20
61.21695101412389
 30
0.0
 10
234.0684832404282
 20
61.1057654935947
 30
0.0
 10
234.0808722812874
 20
60.99052328116668
 30
0.0
 10
234.0738947961871
 20
60.75142771333088
 30
0.0
 10
234.0538772083351
 20
60.62665374345561
 30
0.0
 10
233.9836550506219
 20
60.38028483424319
 30
0.0
 10
233.9330043960282
 20
60.25607368688208
 30
0.0
 10
233.803089652373
 20
60.01244519157191
 30
0.0
 10
233.7253887043838
 20
59.89538809651374
 30
0.0
 10
233.5900151221576
 20
59.7267315786637
 30
0.0
 10
233.5413806248505
 20
59.67136455739155
 30
0.0
 10
233.4399412894685
 20
59.56564474599453
 30
0.0
 10
233.3340713067278
 20
59.46448378737408
 30
0.0
 10
233.2194795144003
 20
59.37230946569728
 30
0.0
 10
233.1003968451821
 20
59.28477262295717
 30
0.0
 10
233.0384388321246
 20
59.24327415344498
 30
0.0
 10
232.8505751286041
 20
59.12915383170688
 30
0.0
 10
232.7211976922501
 20
59.06554640059228
 30
0.0
 10
232.453514439188
 20
58.96427809961805
 30
0.0
 10
232.3176427527229
 20
58.92773719139326
 30
0.0
 10
232.1821254859954
 20
58.90656900704319
 30
0.0
  0
LWPOLYLINE
  5
24D
330
1F
100
AcDbEntity
  8
0
  6
Continuous
 62
     7
370
    25
100
AcDbPolyline
 90
       15
 70
   128
 43
0.0
 10
234.0393599422
 20
61.2169510141
 10
234.9903627557
 20
62.2059114213
 10
235.9723736107
 20
63.1099134755
 10
236.9770694416
 20
63.9212952775
 10
237.9959349154
 20
64.6331799337
 10
239.0203346042
 20
65.2395338422
 10
240.0415861742
 20
65.7352178303
 10
241.0510339741
 20
66.1160307119
 10
242.0401223953
 20
66.3787448948
 10
243.0004683862
 20
66.5211337363
 10
243.9239325025
 20
66.5419904149
 10
244.8026878934
 20
66.4411381591
 10
245.6292866385
 20
66.2194317458
 10
246.3967228725
 20
65.8787502548
 10
246.5170090684
 20
65.8114016131
  0
LWPOLYLINE
  5
24E
330
1F
100
AcDbEntity
  8
0
  6
Continuous
 62
     7
370
    25
100
AcDbPolyline
 90
       21
 70
   128
 43
0.0
 10
230.7807880135
 20
38.5525136697
 10
230.7771402763
 20
38.5546214166
 10
230.0924041566
 20
39.0264513537
 10
229.4790254366
 20
39.6079924271
 10
228.9421194251
 20
40.2943948398
 10
228.4861636821
 20
41.0799342978
 10
228.1149606778
 20
41.9580597474
 10
227.8316060822
 20
42.9214480086
 10
227.6384629479
 20
43.9620648471
 10
227.5371420036
 20
45.0712319762
 10
227.5284882216
 20
46.2396994297
 10
227.6125737705
 20
47.4577227031
 10
227.7886974138
 20
48.715144018
 10
228.0553903579
 20
50.0014770337
 10
228.4104285008
 20
51.3059942987
 10
228.8508509806
 20
52.6178167126
 10
229.3729848676
 20
53.9260042536
 10
229.9724757948
 20
55.219647213
 10
230.6443242715
 20
56.4879571774
 10
231.3829273769
 20
57.7203569995
 10
232.182125486
 20
58.906569007
  0
LWPOLYLINE
  5
24F
330
1F
100
AcDbEntity
  8
0
  6
Continuous
 62
     7
370
    25
100
AcDbPolyline
 90
       12
 70
   128
 43
0.0
 10
232.3767386974
 20
61.3412278536
 10
233.2923177912
 20
62.3157090975
 10
234.2410304895
 20
63.2046846438
 10
235.2139335199
 20
63.9997743469
 10
236.2018555742
 20
64.6934830995
 10
237.1954837634
 20
65.2792714864
 10
238.1854514085
 20
65.7516174299
 10
239.1624263374
 20
66.1060682456
 10
240.117198857
 20
66.3392826163
 10
241.0407685706
 20
66.4490620894
 10
241.9244292224
 20
66.4343718022
 10
242.1772892026
 20
66.4061142612
  0
SPLINE
  5
250
330
1F
100
AcDbEntity
  8
0
  6
Continuous
 62
     7
370
    25
100
AcDbSpline
210
0.0
220
0.0
230
1.0
 70
     8
 71
     3
 72
    26
 73
    22
 74
     0
 42
0.000000001
 43
0.00000001
 40
0.0
 40
0.0
 40
0.0
 40
0.0
 40
0.1250000000000009
 40
0.1250000000000009
 40
0.2500000000000019
 40
0.2500000000000019
 40
0.3125000000000011
 40
0.3125000000000011
 40
0.3750000000000004
 40
0.3750000000000004
 40
0.4375000000000002
 40
0.4375000000000002
 40
0.5000000000000001
 40
0.5000000000000001
 40
0.5625
 40
0.5625
 40
0.6249999999999999
 40
0.6249999999999999
 40
0.7500000000000001
 40
0.7500000000000001
 40
1.0
 40
1.0
 40
1.0
 40
1.0
 10
231.0325454565396
 20
59.66906424099871
 30
0.0
 10
231.0089078603075
 20
59.7786401005717
 30
0.0
 10
230.9913400814258
 20
59.88952935893623
 30
0.0
 10
230.9725274985564
 20
60.11485931879918
 30
0.0
 10
230.9713477237889
 20
60.23053623211755
 30
0.0
 10
230.9874457270243
 20
60.4018917419771
 30
0.0
 10
230.9957644441246
 20
60.45869025407127
 30
0.0
 10
231.0195215933815
 20
60.57151646646835
 30
0.0
 10
231.0351439724305
 20
60.6279693201345
 30
0.0
 10
231.0740011848276
 20
60.73655243654311
 30
0.0
 10
231.09722714153
 20
60.78893239676865
 30
0.0
 10
231.1522257910084
 20
60.88938917204077
 30
0.0
 10
231.184304058031
 20
60.93766803981221
 30
0.0
 10
231.2547188065661
 20
61.02536501539595
 30
0.0
 10
231.2932972286928
 20
61.06535414337191
 30
0.0
 10
231.377005492289
 20
61.1378328274875
 30
0.0
 10
231.4221342022308
 20
61.17016945186411
 30
0.0
 10
231.5614148444209
 20
61.25336921921776
 30
0.0
 10
231.6622039159826
 20
61.29219794185385
 30
0.0
 10
231.9652761872153
 20
61.36761422930903
 30
0.0
 10
232.1738002777003
 20
61.36748408293827
 30
0.0
 10
232.3767386973907
 20
61.34122785361205
 30
0.0
  0
LWPOLYLINE
  5
251
330
1F
100
AcDbEntity
  8
0
  6
Continuous
 62
     7
370
    25
100
AcDbPolyline
 90
       17
 70
   128
 43
0.0
 10
228.0955670618
 20
42.0132130336
 10
227.6618844558
 20
42.6601775633
 10
227.2643775266
 20
43.4650822777
 10
226.9543658612
 20
44.3596579193
 10
226.7346918725
 20
45.335702367
 10
226.6073696915
 20
46.3842665344
 10
226.5735667007
 20
47.4957364212
 10
226.6335928307
 20
48.6599212619
 10
226.7868977181
 20
49.8661469618
 10
227.0320757521
 20
51.1033539649
 10
227.3668789618
 20
52.3601986562
 10
227.7882376274
 20
53.6251573681
 10
228.2922884259
 20
54.8866320374
 10
228.8744098523
 20
56.1330565456
 10
229.5292645933
 20
57.3530027647
 10
230.2508484635
 20
58.5352853392
 10
231.0325454565
 20
59.669064241
  0
LINE
  5
252
330
1F
100
AcDbEntity
  8
0
  6
Continuous
 62
     7
370
    25
100
AcDbLine
 10
229.5571534869
 20
39.4251433853
 30
0.0
 11
229.6778304119
 21
39.4821750925
 31
0.0
  0
LWPOLYLINE
  5
253
330
1F
100
AcDbEntity
  8
0
  6
Continuous
 62
     7
370
    25
100
AcDbPolyline
 90
       40
 70
   128
 43
0.0
 10
229.5571534869
 20
39.4251433853
 10
228.7886069427
 20
39.7213192672
 10
228.080716324
 20
40.1292377214
 10
227.4392046374
 20
40.6456008937
 10
226.8692582432
 20
41.2662341986
 10
226.3754849253
 20
41.9861200691
 10
225.9618766395
 20
42.7994385218
 10
225.6317772399
 20
43.699614209
 10
225.3878554455
 20
44.6793695776
 10
225.2320832644
 20
45.7307837054
 10
225.1657200511
 20
46.8453563382
 10
225.1893023251
 20
48.0140766113
 10
225.3026394334
 20
49.2274958982
 10
225.5048150917
 20
50.4758041994
 10
225.7941947922
 20
51.7489094515
 10
226.1684390183
 20
53.0365191184
 10
226.6245221582
 20
54.3282234014
 10
227.1587569657
 20
55.6135793985
 10
227.7668243705
 20
56.8821955312
 10
228.4438083958
 20
58.1238155558
 10
229.1842359021
 20
59.3284014812
 10
229.9821208353
 20
60.4862147217
 10
230.8310126212
 20
61.58789483
 10
231.7240483163
 20
62.624535172
 10
232.6540080914
 20
63.5877549336
 10
233.6133736014
 20
64.4697668763
 10
234.5943887677
 20
65.2634402933
 10
235.589122483
 20
65.9623586592
 10
236.5895327312
 20
66.5608715042
 10
237.5875316038
 20
67.0541400961
 10
238.5750506873
 20
67.4381765598
 10
239.544106293
 20
67.7098761172
 10
240.4868640017
 20
67.8670421883
 10
241.3957020021
 20
67.9084041495
 10
242.2632727101
 20
67.8336276063
 10
243.0825621705
 20
67.6433170965
 10
243.8469467624
 20
67.3390112028
 10
244.5502467484
 20
66.9231701143
 10
245.1867762351
 20
66.3991557364
 10
245.2494135481
 20
66.3381324698
  0
LWPOLYLINE
  5
254
330
1F
100
AcDbEntity
  8
0
  6
Continuous
 62
     7
370
    25
100
AcDbPolyline
 90
       26
 70
   128
 43
0.0
 10
222.9125207445
 20
48.4997933273
 10
222.9570345148
 20
49.6700641642
 10
223.090217427
 20
50.8823071736
 10
223.3109971705
 20
52.1267620876
 10
223.6175961567
 20
53.393409287
 10
224.0075458308
 20
54.6720504733
 10
224.4777065474
 20
55.9523907795
 10
225.0242928488
 20
57.2241216582
 10
225.6429039434
 20
58.4770038803
 10
226.3285591386
 20
59.7009499747
 10
227.0757379418
 20
60.8861054472
 10
227.8784245086
 20
62.0229281227
 10
228.7301560787
 20
63.1022649735
 10
229.6240750105
 20
64.115425814
 10
230.5529839942
 20
65.0542532687
 10
231.5094040009
 20
65.9111884511
 10
232.4856344991
 20
66.6793318228
 10
233.4738154547
 20
67.3524987452
 10
234.4659906159
 20
67.925269274
 10
235.4541715716
 20
68.3930317977
 10
236.4304020698
 20
68.7520201675
 10
237.3868220765
 20
68.99934402
 10
238.3157310602
 20
69.1330120491
 10
239.2096499919
 20
69.1519480385
 10
240.0613815621
 20
69.0559995266
 10
240.8109704074
 20
68.8638771292
  0
ARC
  5
255
330
1F
100
AcDbEntity
  8
0
  6
Continuous
 62
     7
370
    25
100
AcDbCircle
 10
235.0706564001
 20
48.3919884754
 30
0.0
 40
12.15706644166738
100
AcDbArc
 50
180.4744415793
 51
191.6440230834
  0
SPLINE
  5
256
330
1F
100
AcDbEntity
  8
0
  6
Continuous
 62
     7
370
    25
100
AcDbSpline
210
0.0
220
0.0
230
1.0
 70
     8
 71
     3
 72
    10
 73
     6
 74
     0
 42
0.000000001
 43
0.00000001
 40
0.0
 40
0.0
 40
0.0
 40
0.0
 40
0.5
 40
0.5
 40
1.0
 40
1.0
 40
1.0
 40
1.0
 10
231.7592335241709
 20
58.20601096017899
 30
0.0
 10
231.6552690333866
 20
58.27934933324936
 30
0.0
 10
231.5654607569592
 20
58.36658509104277
 30
0.0
 10
231.4134183289606
 20
58.56751563223877
 30
0.0
 10
231.3515127405996
 20
58.68168639843574
 30
0.0
 10
231.3070630360091
 20
58.80470408159584
 30
0.0
  0
SPLINE
  5
257
330
1F
100
AcDbEntity
  8
0
  6
Continuous
 62
     7
370
    25
100
AcDbSpline
210
0.0
220
0.0
230
1.0
 70
     8
 71
     3
 72
    14
 73
    10
 74
     0
 42
0.000000001
 43
0.00000001
 40
0.0
 40
0.0
 40
0.0
 40
0.0
 40
0.25
 40
0.25
 40
0.5
 40
0.5
 40
0.75
 40
0.75
 40
1.0
 40
1.0
 40
1.0
 40
1.0
 10
231.3070630360091
 20
58.80470408159584
 30
0.0
 10
231.284342233144
 20
58.86758550125339
 30
0.0
 10
231.2624277227946
 20
58.9366319307268
 30
0.0
 10
231.2203166687318
 20
59.08428444734557
 30
0.0
 10
231.2007951148187
 20
59.16068423420388
 30
0.0
 10
231.162448872645
 20
59.31501652559948
 30
0.0
 10
231.1440892797611
 20
59.39196912193113
 30
0.0
 10
231.1020858351795
 20
59.5373592894471
 30
0.0
 10
231.0783095141665
 20
59.60395019564013
 30
0.0
 10
231.0498480100643
 20
59.64444581087149
 30
0.0
  0
LINE
  5
258
330
1F
100
AcDbEntity
  8
0
  6
Continuous
 62
     7
370
    25
100
AcDbLine
 10
231.0498480101
 20
59.6444458109
 30
0.0
 11
231.0325454565
 21
59.669064241
 31
0.0
  0
LINE
  5
259
330
1F
100
AcDbEntity
  8
0
  6
Continuous
 62
     7
370
    25
100
AcDbLine
 10
232.3767386974
 20
61.3412278536
 30
0.0
 11
232.3940412509
 21
61.3166094235
 31
0.0
  0
SPLINE
  5
25A
330
1F
100
AcDbEntity
  8
0
  6
Continuous
 62
     7
370
    25
100
AcDbSpline
210
0.0
220
0.0
230
1.0
 70
     8
 71
     3
 72
    16
 73
    12
 74
     0
 42
0.000000001
 43
0.00000001
 40
0.0
 40
0.0
 40
0.0
 40
0.0
 40
0.1250000000000001
 40
0.1250000000000001
 40
0.2500000000000003
 40
0.2500000000000003
 40
0.5000000000000002
 40
0.5000000000000002
 40
0.7500000000000001
 40
0.7500000000000001
 40
1.0
 40
1.0
 40
1.0
 40
1.0
 10
232.3940412509155
 20
61.31660942348476
 30
0.0
 10
232.4081936573196
 20
61.29647308767197
 30
0.0
 10
232.4298520617933
 20
61.27967566699455
 30
0.0
 10
232.4822699908286
 20
61.25283014566306
 30
0.0
 10
232.5128628699669
 20
61.24260466110208
 30
0.0
 10
232.6119437188244
 20
61.21810422066939
 30
0.0
 10
232.6858262564403
 20
61.20984429826789
 30
0.0
 10
232.8389258488317
 20
61.19865833156297
 30
0.0
 10
232.9170098234793
 20
61.19606165981178
 30
0.0
 10
233.0763534572214
 20
61.19403265897807
 30
0.0
 10
233.1550063520529
 20
61.1946702476403
 30
0.0
 10
233.2307588198456
 20
61.19776334845535
 30
0.0
  0
SPLINE
  5
25B
330
1F
100
AcDbEntity
  8
0
  6
Continuous
 62
     7
370
    25
100
AcDbSpline
210
0.0
220
0.0
230
1.0
 70
     8
 71
     3
 72
    10
 73
     6
 74
     0
 42
0.000000001
 43
0.00000001
 40
0.0
 40
0.0
 40
0.0
 40
0.0
 40
0.5
 40
0.5
 40
1.0
 40
1.0
 40
1.0
 40
1.0
 10
233.2307588198456
 20
61.19776334845535
 30
0.0
 10
233.3789531597463
 20
61.20381437288911
 30
0.0
 10
233.5211776254769
 20
61.19365214267597
 30
0.0
 10
233.7935690158177
 20
61.1426017067359
 30
0.0
 10
233.9236963456862
 20
61.10124060409134
 30
0.0
 10
234.0417716878715
 20
61.04546673613906
 30
0.0
  0
LINE
  5
25C
330
1F
100
AcDbEntity
  8
0
  6
Continuous
 62
     7
370
    25
100
AcDbLine
 10
234.196974906
 20
61.073885799
 30
0.0
 11
234.1795817805
 21
61.0986330967
 31
0.0
  0
ARC
  5
25D
330
1F
100
AcDbEntity
  8
0
  6
Continuous
 62
     7
370
    25
100
AcDbCircle
 10
216.7183008998
 20
56.3156588343
 30
0.0
 40
4.152065346120731
100
AcDbArc
 50
211.7707720659
 51
236.1875437047
  0
SPLINE
  5
25E
330
1F
100
AcDbEntity
  8
0
  6
Continuous
 62
     7
370
    25
100
AcDbSpline
210
0.0
220
0.0
230
1.0
 70
     8
 71
     3
 72
     8
 73
     4
 74
     0
 42
0.000000001
 43
0.00000001
 40
0.0
 40
0.0
 40
0.0
 40
0.0
 40
1.0
 40
1.0
 40
1.0
 40
1.0
 10
214.6188180187347
 20
53.2047623169004
 30
0.0
 10
214.1420447269106
 20
53.51285512483303
 30
0.0
 10
213.6652423500657
 20
53.82108457040579
 30
0.0
 10
213.1884099055401
 20
54.1294497266257
 30
0.0
  0
SPLINE
  5
25F
330
1F
100
AcDbEntity
  8
0
  6
Continuous
 62
     7
370
    25
100
AcDbSpline
210
0.0
220
0.0
230
1.0
 70
     8
 71
     3
 72
    23
 73
    19
 74
     0
 42
0.000000001
 43
0.00000001
 40
0.0
 40
0.0
 40
0.0
 40
0.0
 40
0.0521034701696204
 40
0.1035642834103258
 40
0.1544746865170929
 40
0.2049299526130454
 40
0.2550279491471202
 40
0.304868636019722
 40
0.354553504121484
 40
0.4041849683430035
 40
0.4538657321707252
 40
0.5036981429683899
 40
0.5902048055413047
 40
0.674300890334858
 40
0.7566325442054724
 40
0.8378852029912961
 40
0.9187688149236596
 40
1.0
 40
1.0
 40
1.0
 40
1.0
 10
215.4993828222764
 20
53.03003161878031
 30
0.0
 10
215.4941138833366
 20
53.02011015654435
 30
0.0
 10
215.483640993837
 20
53.00038960581129
 30
0.0
 10
215.4643946980678
 20
52.97582177686457
 30
0.0
 10
215.4425989577583
 20
52.95513319457827
 30
0.0
 10
215.4179476664674
 20
52.93860225937686
 30
0.0
 10
215.3904511522462
 20
52.92608475944548
 30
0.0
 10
215.3600400970619
 20
52.91755013693865
 30
0.0
 10
215.3266697296633
 20
52.91294025940398
 30
0.0
 10
215.2902938250894
 20
52.91220553448387
 30
0.0
 10
215.2508655144499
 20
52.9153005489344
 30
0.0
 10
215.1980112344907
 20
52.92383754715065
 30
0.0
 10
215.1294634410601
 20
52.941435522174
 30
0.0
 10
215.041732492803
 20
52.97307389414525
 30
0.0
 10
214.946998540377
 20
53.01525402727684
 30
0.0
 10
214.8449678448188
 20
53.06798957933776
 30
0.0
 10
214.7360641854492
 20
53.13030340679552
 30
0.0
 10
214.6579558955399
 20
53.17990723009974
 30
0.0
 10
214.6188180187348
 20
53.20476231690039
 30
0.0
  0
SPLINE
  5
260
330
1F
100
AcDbEntity
  8
0
  6
Continuous
 62
     7
370
    25
100
AcDbSpline
210
0.0
220
0.0
230
1.0
 70
     8
 71
     3
 72
     8
 73
     4
 74
     0
 42
0.000000001
 43
0.00000001
 40
0.0
 40
0.0
 40
0.0
 40
0.0
 40
1.0
 40
1.0
 40
1.0
 40
1.0
 10
216.9728858487302
 20
52.08271148222409
 30
0.0
 10
216.4815185366888
 20
52.39858610219158
 30
0.0
 10
215.9901323367626
 20
52.71457212348107
 30
0.0
 10
215.4987266266186
 20
53.03066900432376
 30
0.0
  0
SPLINE
  5
261
330
1F
100
AcDbEntity
  8
0
  6
Continuous
 62
     7
370
    25
100
AcDbSpline
210
0.0
220
0.0
230
1.0
 70
     8
 71
     3
 72
    18
 73
    14
 74
     0
 42
0.000000001
 43
0.00000001
 40
0.0
 40
0.0
 40
0.0
 40
0.0
 40
0.0923645816205075
 40
0.1844372988294163
 40
0.276454302110804
 40
0.3686515499648411
 40
0.4612630116255962
 40
0.554518937065566
 40
0.6486442564287672
 40
0.7438571603357742
 40
0.8403678983473314
 40
0.9203923541258042
 40
0.9999999999999999
 40
0.9999999999999999
 40
0.9999999999999999
 40
0.9999999999999999
 10
217.7864499679299
 20
51.43840375767974
 30
0.0
 10
217.7628878712735
 20
51.453672936036
 30
0.0
 10
217.7158381322305
 20
51.48416304341225
 30
0.0
 10
217.6434522184609
 20
51.53378526680311
 30
0.0
 10
217.5699779553604
 20
51.58610783652897
 30
0.0
 10
217.4952824152722
 20
51.64142210330228
 30
0.0
 10
217.4194215355221
 20
51.69966049587284
 30
0.0
 10
217.342406167419
 20
51.76085700245564
 30
0.0
 10
217.264265966091
 20
51.82502782534341
 30
0.0
 10
217.1850276956611
 20
51.89218744796696
 30
0.0
 10
217.1097218895742
 20
51.95804664007854
 30
0.0
 10
217.0388892580655
 20
52.02158293292337
 30
0.0
 10
216.9949848877102
 20
52.06224368610544
 30
0.0
 10
216.9730900211301
 20
52.08252097874761
 30
0.0
  0
LINE
  5
262
330
1F
100
AcDbEntity
  8
0
  6
Continuous
 62
     7
370
    25
100
AcDbLine
 10
218.4261562361
 20
51.0266498283
 30
0.0
 11
217.7864499679
 21
51.4384037577
 31
0.0
  0
SPLINE
  5
263
330
1F
100
AcDbEntity
  8
0
  6
Continuous
 62
     7
370
    25
100
AcDbSpline
210
0.0
220
0.0
230
1.0
 70
     8
 71
     3
 72
    25
 73
    21
 74
     0
 42
0.000000001
 43
0.00000001
 40
0.0
 40
0.0
 40
0.0
 40
0.0
 40
0.0280056024288432
 40
0.0559514328347808
 40
0.0838901607643795
 40
0.1118745076912761
 40
0.1399569498912944
 40
0.1681894282721918
 40
0.1966230730105298
 40
0.2253079499156092
 40
0.2542928341277229
 40
0.3799484016866114
 40
0.5057844887502296
 40
0.6313077644974885
 40
0.753205717341519
 40
0.803962739492204
 40
0.8536129947759985
 40
0.9025574087118227
 40
0.9512124407386962
 40
1.0
 40
1.0
 40
1.0
 40
1.0
 10
219.5285220929201
 20
51.74255594155682
 30
0.0
 10
219.5334711258201
 20
51.71493569149349
 30
0.0
 10
219.5433586289583
 20
51.65975414093678
 30
0.0
 10
219.5548957644989
 20
51.5806014437531
 30
0.0
 10
219.563969745446
 20
51.50430325443662
 30
0.0
 10
219.570338716102
 20
51.43110992050519
 30
0.0
 10
219.5740545681458
 20
51.36096221380563
 30
0.0
 10
219.5750903290627
 20
51.29388311610918
 30
0.0
 10
219.5734406447819
 20
51.2298738787083
 30
0.0
 10
219.56909293246
 20
51.16893735146483
 30
0.0
 10
219.5542354528878
 20
51.04704335925515
 30
0.0
 10
219.5091471346356
 20
50.89213887445061
 30
0.0
 10
219.3957871468915
 20
50.76119628088861
 30
0.0
 10
219.2339637437941
 20
50.70531879908069
 30
0.0
 10
219.0599366085175
 20
50.72519694479036
 30
0.0
 10
218.9085605111168
 20
50.7725179505047
 30
0.0
 10
218.7981451525587
 20
50.81743641761267
 30
0.0
 10
218.6809858969039
 20
50.87481175574762
 30
0.0
 10
218.5574364973298
 20
50.94348325991205
 30
0.0
 10
218.4699559826105
 20
50.99890251442416
 30
0.0
 10
218.4261562361171
 20
51.02664982828337
 30
0.0
  0
ARC
  5
264
330
1F
100
AcDbEntity
  8
0
  6
Continuous
 62
     7
370
    25
100
AcDbCircle
 10
230.721520425
 20
53.5286064777
 30
0.0
 40
11.33460136833849
100
AcDbArc
 50
170.9338278112
 51
189.0661721888
  0
SPLINE
  5
265
330
1F
100
AcDbEntity
  8
0
  6
Continuous
 62
     7
370
    25
100
AcDbSpline
210
0.0
220
0.0
230
1.0
 70
     8
 71
     3
 72
    26
 73
    22
 74
     0
 42
0.000000001
 43
0.00000001
 40
0.0
 40
0.0
 40
0.0
 40
0.0
 40
0.0241214275655765
 40
0.0482078233550631
 40
0.0723095879210365
 40
0.0964771461131097
 40
0.1207606318218786
 40
0.1452095829274057
 40
0.1698726554215267
 40
0.1947973643381856
 40
0.2200298573586289
 40
0.2456147249583995
 40
0.3690974744028633
 40
0.4940700204039666
 40
0.6192566393622437
 40
0.7454654421861411
 40
0.7971580294157585
 40
0.8481837569726721
 40
0.8988139831107741
 40
0.9493262809200852
 40
1.0
 40
1.0
 40
1.0
 40
1.0
 10
218.4261562361171
 20
58.79076021964794
 30
0.0
 10
218.4478712754176
 20
58.77643396734106
 30
0.0
 10
218.491269817063
 20
58.74780226887823
 30
0.0
 10
218.5545694447933
 20
58.69982177358592
 30
0.0
 10
218.6164256694715
 20
58.64823110462884
 30
0.0
 10
218.6767269504269
 20
58.59266135690611
 30
0.0
 10
218.7355156923482
 20
58.53320774147295
 30
0.0
 10
218.7927972292166
 20
58.46984162139939
 30
0.0
 10
218.8485915218695
 20
58.4025675952922
 30
0.0
 10
218.902918088432
 20
58.33138481597215
 30
0.0
 10
218.9558044959832
 20
58.25628350710568
 30
0.0
 10
219.0726049616831
 20
58.07701979099381
 30
0.0
 10
219.2344780567712
 20
57.76670942794993
 30
0.0
 10
219.3976626341037
 20
57.29679539105125
 30
0.0
 10
219.5091745151544
 20
56.79783238319211
 30
0.0
 10
219.5563084421203
 20
56.38893703007155
 30
0.0
 10
219.5714294556894
 20
56.08464764937676
 30
0.0
 10
219.5733852118234
 20
55.8833808298051
 30
0.0
 10
219.5669080480273
 20
55.68772076845133
 30
0.0
 10
219.5527805195121
 20
55.49710114907284
 30
0.0
 10
219.5366168303868
 20
55.3755363693897
 30
0.0
 10
219.5285220929201
 20
55.31465701387145
 30
0.0
  0
LINE
  5
266
330
1F
100
AcDbEntity
  8
0
  6
Continuous
 62
     7
370
    25
100
AcDbLine
 10
217.7864499679
 20
59.2037352326
 30
0.0
 11
218.4261562361
 21
58.7907602196
 31
0.0
  0
SPLINE
  5
267
330
1F
100
AcDbEntity
  8
0
  6
Continuous
 62
     7
370
    25
100
AcDbSpline
210
0.0
220
0.0
230
1.0
 70
     8
 71
     3
 72
    14
 73
    10
 74
     0
 42
0.000000001
 43
0.00000001
 40
0.0
 40
0.0
 40
0.0
 40
0.0
 40
0.0789259589571543
 40
0.158232396190405
 40
0.3308776440750645
 40
0.5000645817723345
 40
0.6670803235527131
 40
0.8332687177870088
 40
0.9999999999999999
 40
0.9999999999999999
 40
0.9999999999999999
 40
0.9999999999999999
 10
216.9724972521824
 20
59.41231750294177
 30
0.0
 10
216.9942141331834
 20
59.41392068084715
 30
0.0
 10
217.0377525857277
 20
59.41713476509571
 30
0.0
 10
217.1292863143511
 20
59.41795558698978
 30
0.0
 10
217.246207563871
 20
59.41002010824794
 30
0.0
 10
217.3870411124995
 20
59.38374526626463
 30
0.0
 10
217.5242537614025
 20
59.34078820732108
 30
0.0
 10
217.658172252681
 20
59.28243229117426
 30
0.0
 10
217.743644270128
 20
59.229996087839
 30
0.0
 10
217.7864499679299
 20
59.20373523263883
 30
0.0
  0
SPLINE
  5
268
330
1F
100
AcDbEntity
  8
0
  6
Continuous
 62
     7
370
    25
100
AcDbSpline
210
0.0
220
0.0
230
1.0
 70
     8
 71
     3
 72
     8
 73
     4
 74
     0
 42
0.000000001
 43
0.00000001
 40
0.0
 40
0.0
 40
0.0
 40
0.0
 40
1.0
 40
1.0
 40
1.0
 40
1.0
 10
215.1701936690741
 20
60.57470891434523
 30
0.0
 10
215.7709518927703
 20
60.18744143118633
 30
0.0
 10
216.3716807556306
 20
59.79997408126303
 30
0.0
 10
216.9723813999775
 20
59.41230718867341
 30
0.0
  0
SPLINE
  5
269
330
1F
100
AcDbEntity
  8
0
  6
Continuous
 62
     7
370
    25
100
AcDbSpline
210
0.0
220
0.0
230
1.0
 70
     8
 71
     3
 72
    13
 73
     9
 74
     0
 42
0.000000001
 43
0.00000001
 40
0.0
 40
0.0
 40
0.0
 40
0.0
 40
0.1666651380536976
 40
0.3328869540146011
 40
0.4989979369855639
 40
0.6653319948464096
 40
0.832222439950292
 40
1.0
 40
1.0
 40
1.0
 40
1.0
 10
214.8283651340398
 20
60.87577369343102
 30
0.0
 10
214.8486624766042
 20
60.86221379752764
 30
0.0
 10
214.8892031716755
 20
60.83513007446027
 30
0.0
 10
214.9483457908112
 20
60.78994421681852
 30
0.0
 10
215.0061149998039
 20
60.74153595960402
 30
0.0
 10
215.0623670201796
 20
60.68949760989624
 30
0.0
 10
215.1173011445663
 20
60.63419033753004
 30
0.0
 10
215.1525278901739
 20
60.59456470971191
 30
0.0
 10
215.1701879512957
 20
60.5746993773575
 30
0.0
  0
SPLINE
  5
26A
330
1F
100
AcDbEntity
  8
0
  6
Continuous
 62
     7
370
    25
100
AcDbSpline
210
0.0
220
0.0
230
1.0
 70
     8
 71
     3
 72
     8
 73
     4
 74
     0
 42
0.000000001
 43
0.00000001
 40
0.0
 40
0.0
 40
0.0
 40
0.0
 40
1.0
 40
1.0
 40
1.0
 40
1.0
 10
212.884384618249
 20
62.13049554581049
 30
0.0
 10
213.5324146906493
 20
61.71250022992574
 30
0.0
 10
214.1804076677512
 20
61.29425946750811
 30
0.0
 10
214.8283651340398
 20
60.87577369343101
 30
0.0
  0
LWPOLYLINE
  5
26B
330
1F
100
AcDbEntity
  8
0
  6
Continuous
 62
     7
370
    25
100
AcDbPolyline
 90
       20
 70
   128
 43
0.0
 10
212.8843846183
 20
62.130495546
 10
213.2670338235
 20
63.2444585843
 10
213.7292443532
 20
64.3526728157
 10
214.2658431282
 20
65.4427350608
 10
214.870824513
 20
66.5024452986
 10
215.5374175311
 20
67.5199432084
 10
216.2581616462
 20
68.483840912
 10
217.0249902606
 20
69.3833504268
 10
217.8293209969
 20
70.2084044055
 10
218.6621517527
 20
70.9497688101
 10
219.514161452
 20
71.5991462598
 10
220.3758143673
 20
72.1492688955
 10
221.2374668439
 20
72.5939797223
 10
222.0894752319
 20
72.9283015182
 10
222.9223038186
 20
73.1484925401
 10
223.7266315522
 20
73.2520884009
 10
224.4934563638
 20
73.2379296517
 10
225.2141959187
 20
73.1061747576
 10
225.8807836702
 20
72.8582983249
 10
225.9341228115
 20
72.8322425122
  0
SPLINE
  5
26C
330
1F
100
AcDbEntity
  8
0
  6
Continuous
 62
     7
370
    25
100
AcDbSpline
210
0.0
220
0.0
230
1.0
 70
    11
 71
     3
 72
    39
 73
    35
 74
     0
 42
0.000000001
 43
0.00000001
 40
0.0
 40
0.0
 40
0.0
 40
0.0
 40
0.0310664058348413
 40
0.0621048158426138
 40
0.0931361551796939
 40
0.1235538293503726
 40
0.1538561545809849
 40
0.1850588072749156
 40
0.2160250992946587
 40
0.2471867223797568
 40
0.2784462884304475
 40
0.3100516090231247
 40
0.3419834369138969
 40
0.3734259894013238
 40
0.4048604886787081
 40
0.436874065183343
 40
0.4685120685926471
 40
0.499805535863323
 40
0.5309508213226204
 40
0.5618649784438111
 40
0.5930416446590877
 40
0.623374245013332
 40
0.6540913579072549
 40
0.6849496782718453
 40
0.7158160645166705
 40
0.7471731804043553
 40
0.7784514311866318
 40
0.810129591156098
 40
0.8419598919688388
 40
0.8735175891922303
 40
0.9050808037886594
 40
0.9370235169792582
 40
0.9687441590030581
 40
1.0
 40
1.0
 40
1.0
 40
1.0
 10
226.0929700994544
 20
71.1356859211519
 30
0.0
 10
226.3558557196525
 20
71.1071514338618
 30
0.0
 10
226.8827443301361
 20
71.02120894554021
 30
0.0
 10
227.6467563992121
 20
70.82083382546774
 30
0.0
 10
228.353906587263
 20
70.57383171924823
 30
0.0
 10
228.9668176518584
 20
70.29584984109513
 30
0.0
 10
229.4639489775288
 20
70.0017161437664
 30
0.0
 10
229.8231406986023
 20
69.70020961557418
 30
0.0
 10
230.0448599673612
 20
69.39321211067175
 30
0.0
 10
230.1101118447433
 20
69.08270684927008
 30
0.0
 10
230.0232646336293
 20
68.76356236452125
 30
0.0
 10
229.780919045871
 20
68.43424239894905
 30
0.0
 10
229.4009811831446
 20
68.09530167739139
 30
0.0
 10
228.8871752299848
 20
67.75746321298077
 30
0.0
 10
228.2612844190748
 20
67.43156531166991
 30
0.0
 10
227.5478134325829
 20
67.13491841843043
 30
0.0
 10
226.7839109563186
 20
66.87881510999348
 30
0.0
 10
225.998117873417
 20
66.68978754200269
 30
0.0
 10
225.216580418377
 20
66.58161161994944
 30
0.0
 10
224.4604674336246
 20
66.57394773657974
 30
0.0
 10
223.758102847231
 20
66.67186977196587
 30
0.0
 10
223.1390825001884
 20
66.89351820546838
 30
0.0
 10
222.6300252351746
 20
67.22938629238011
 30
0.0
 10
222.2570816417407
 20
67.66919685856088
 30
0.0
 10
222.0284796904923
 20
68.18027149908353
 30
0.0
 10
221.959633383773
 20
68.73145658684696
 30
0.0
 10
222.0442497969982
 20
69.28912851515871
 30
0.0
 10
222.287358586933
 20
69.8192086560777
 30
0.0
 10
222.6694884297508
 20
70.29173300519042
 30
0.0
 10
223.1856240041611
 20
70.67785451608366
 30
0.0
 10
223.812601864663
 20
70.96147870341679
 30
0.0
 10
224.5285092970268
 20
71.13121592214323
 30
0.0
 10
225.2969526892124
 20
71.19275475685453
 30
0.0
 10
225.8284814685848
 20
71.16439440459895
 30
0.0
 10
226.0929700994544
 20
71.1356859211519
 30
0.0
  0
LINE
  5
26D
330
1F
100
AcDbEntity
  8
0
  6
Continuous
 62
     7
370
    25
100
AcDbLine
 10
216.8684331117
 20
54.6965588944
 30
0.0
 11
217.1824793596
 21
54.5284084031
 31
0.0
  0
LINE
  5
26E
330
1F
100
AcDbEntity
  8
0
  6
Continuous
 62
     7
370
    25
100
AcDbLine
 10
215.8814740727
 20
55.2663182199
 30
0.0
 11
216.8684331117
 21
54.6965588944
 31
0.0
  0
ARC
  5
26F
330
1F
100
AcDbEntity
  8
0
  6
Continuous
 62
     7
370
    25
100
AcDbCircle
 10
218.1024426922
 20
58.8598159931
 30
0.0
 40
4.484291989683817
100
AcDbArc
 50
267.6840937494
 51
286.9865889436
  0
SPLINE
  5
270
330
1F
100
AcDbEntity
  8
0
  6
Continuous
 62
     7
370
    25
100
AcDbSpline
210
0.0
220
0.0
230
1.0
 70
     8
 71
     3
 72
    16
 73
    12
 74
     0
 42
0.000000001
 43
0.00000001
 40
0.0
 40
0.0
 40
0.0
 40
0.0
 40
0.150516077399123
 40
0.2631372176921929
 40
0.3788385653419725
 40
0.4915726627001887
 40
0.608215717310718
 40
0.7115656327827979
 40
0.8179798858712685
 40
0.9203357686923436
 40
1.0
 40
1.0
 40
1.0
 40
1.0
 10
227.4314758942811
 20
68.1331902882891
 30
0.0
 10
227.2266428117657
 20
68.24557924096162
 30
0.0
 10
226.8685467973346
 20
68.44206134982741
 30
0.0
 10
226.2698116032225
 20
68.70622000161597
 30
0.0
 10
225.693596252983
 20
68.9184518450321
 30
0.0
 10
225.0810360483076
 20
69.09040670826184
 30
0.0
 10
224.4796611321837
 20
69.19834363441274
 30
0.0
 10
223.8969661042754
 20
69.23707762451834
 30
0.0
 10
223.3623393786173
 20
69.20262808255451
 30
0.0
 10
222.8940407444125
 20
69.11160795563093
 30
0.0
 10
222.6351924288363
 20
69.00073621678676
 30
0.0
 10
222.5219030147275
 20
68.9522112947415
 30
0.0
  0
SPLINE
  5
271
330
1F
100
AcDbEntity
  8
0
  6
Continuous
 62
     7
370
    25
100
AcDbSpline
210
0.0
220
0.0
230
1.0
 70
     8
 71
     3
 72
    10
 73
     6
 74
     0
 42
0.000000001
 43
0.00000001
 40
0.0
 40
0.0
 40
0.0
 40
0.0
 40
0.3798174487108013
 40
0.9603712743694113
 40
1.0
 40
1.0
 40
1.0
 40
1.0
 10
228.5713563433277
 20
67.60496326550785
 30
0.0
 10
228.441703684981
 20
67.67529197140692
 30
0.0
 10
228.1138759636784
 20
67.85311863297372
 30
0.0
 10
227.7059475600329
 20
68.02617093347196
 30
0.0
 10
227.449314761461
 20
68.12537658007203
 30
0.0
 10
227.4329163143566
 20
68.13171567062199
 30
0.0
  0
SPLINE
  5
272
330
1F
100
AcDbEntity
  8
0
  6
Continuous
 62
     7
370
    25
100
AcDbSpline
210
0.0
220
0.0
230
1.0
 70
     8
 71
     3
 72
    24
 73
    20
 74
     0
 42
0.000000001
 43
0.00000001
 40
0.0
 40
0.0
 40
0.0
 40
0.0
 40
0.0618839780492465
 40
0.1150097783681159
 40
0.1593831354905701
 40
0.2428114861594414
 40
0.3183318413419186
 40
0.3935543643966303
 40
0.4204843190868575
 40
0.4483397386394206
 40
0.4771286795463798
 40
0.5451537691906924
 40
0.6363475928469022
 40
0.6968782753792757
 40
0.7498596601957476
 40
0.7959701147193161
 40
0.8771179881470701
 40
0.9543004326831717
 40
1.0
 40
1.0
 40
1.0
 40
1.0
 10
226.0380911584093
 20
70.56182805862944
 30
0.0
 10
225.8541399489652
 20
70.58072223881278
 30
0.0
 10
225.5122713668925
 20
70.61583658575417
 30
0.0
 10
225.0480527832259
 20
70.60934830901522
 30
0.0
 10
224.5385856947274
 20
70.56162333046333
 30
0.0
 10
223.9994858464785
 20
70.43700611556098
 30
0.0
 10
223.4566487237098
 20
70.19451525587617
 30
0.0
 10
223.1162545374942
 20
69.93714398020714
 30
0.0
 10
222.9096281174965
 20
69.72233504166587
 30
0.0
 10
222.791644199846
 20
69.5758330044766
 30
0.0
 10
222.6394741046039
 20
69.34608090544842
 30
0.0
 10
222.4727925549856
 20
68.97313949837672
 30
0.0
 10
222.4044322346288
 20
68.51058044183661
 30
0.0
 10
222.4547864227635
 20
68.08224657017392
 30
0.0
 10
222.5602162976185
 20
67.76232065918555
 30
0.0
 10
222.7424150577129
 20
67.42185439782084
 30
0.0
 10
223.0432940727084
 20
67.08590652911532
 30
0.0
 10
223.4329787734913
 20
66.81284781728164
 30
0.0
 10
223.7258976191659
 20
66.71889214642488
 30
0.0
 10
223.8348335350451
 20
66.68395022579408
 30
0.0
  0
SPLINE
  5
273
330
1F
100
AcDbEntity
  8
0
  6
Continuous
 62
     7
370
    25
100
AcDbSpline
210
0.0
220
0.0
230
1.0
 70
     8
 71
     3
 72
    22
 73
    18
 74
     0
 42
0.000000001
 43
0.00000001
 40
0.0
 40
0.0
 40
0.0
 40
0.0
 40
0.0219614349640853
 40
0.0803652110959507
 40
0.1456638396894334
 40
0.2178969428724851
 40
0.2799150485687661
 40
0.3332793456770974
 40
0.3779895037864865
 40
0.4140481353217441
 40
0.5173281385680387
 40
0.6093980829788954
 40
0.7028413921674478
 40
0.7526499606972382
 40
0.8045592415194042
 40
0.8937481433886216
 40
1.0
 40
1.0
 40
1.0
 40
1.0
 10
229.34294017513
 20
68.08450145684571
 30
0.0
 10
229.3661080385281
 20
68.1063566850191
 30
0.0
 10
229.4508880283455
 20
68.1863332452291
 30
0.0
 10
229.5575194703935
 20
68.32849527609443
 30
0.0
 10
229.6547745611216
 20
68.51727399939847
 30
0.0
 10
229.6858009068053
 20
68.70323863804782
 30
0.0
 10
229.6564529106989
 20
68.87505332055584
 30
0.0
 10
229.5879460398922
 20
69.02186047573494
 30
0.0
 10
229.5001358075703
 20
69.14306976158558
 30
0.0
 10
229.3458435167947
 20
69.30865461190972
 30
0.0
 10
229.078017788562
 20
69.51881790124465
 30
0.0
 10
228.6264478377785
 20
69.77426240594453
 30
0.0
 10
228.1788849992503
 20
69.98089814630826
 30
0.0
 10
227.7699915004611
 20
70.13940296488558
 30
0.0
 10
227.347908254807
 20
70.28192029378636
 30
0.0
 10
226.7695952248661
 20
70.44517680226353
 30
0.0
 10
226.2957165071641
 20
70.52074514196227
 30
0.0
 10
226.0380911584093
 20
70.56182805862944
 30
0.0
  0
LINE
  5
274
330
1F
100
AcDbEntity
  8
0
  6
Continuous
 62
     7
370
    25
100
AcDbLine
 10
219.5285220929
 20
55.3146570139
 30
0.0
 11
219.5232835494
 21
55.6107404327
 31
0.0
  0
LINE
  5
275
330
1F
100
AcDbEntity
  8
0
  6
Continuous
 62
     7
370
    25
100
AcDbLine
 10
219.5232835494
 20
55.6107404327
 30
0.0
 11
219.5663826985
 21
56.2623837241
 31
0.0
  0
LINE
  5
276
330
1F
100
AcDbEntity
  8
0
  6
Continuous
 62
     7
370
    25
100
AcDbLine
 10
219.0437234299
 20
58.0914557652
 30
0.0
 11
218.7323203596
 21
58.4200249499
 31
0.0
  0
SPLINE
  5
277
330
1F
100
AcDbEntity
  8
0
  6
Continuous
 62
     7
370
    25
100
AcDbSpline
210
0.0
220
0.0
230
1.0
 70
     8
 71
     3
 72
    24
 73
    20
 74
     0
 42
0.000000001
 43
0.00000001
 40
0.0
 40
0.0
 40
0.0
 40
0.0
 40
0.0208485373664272
 40
0.0823376247214632
 40
0.1455705549099646
 40
0.2075413813861011
 40
0.2714247518574422
 40
0.3315017366460747
 40
0.3933547140842038
 40
0.4529343674600938
 40
0.514180240079699
 40
0.5749476280820675
 40
0.6373706675511337
 40
0.7000294854399094
 40
0.764869753768216
 40
0.8126336564434572
 40
0.8609398673429536
 40
0.9190455624033324
 40
1.0
 40
1.0
 40
1.0
 40
1.0
 10
222.4351031214968
 20
68.31267979063213
 30
0.0
 10
222.4323837822836
 20
68.36552945609925
 30
0.0
 10
222.4216442312211
 20
68.57424989750979
 30
0.0
 10
222.4936647610543
 20
68.91733234683922
 30
0.0
 10
222.6557532333007
 20
69.32898104778775
 30
0.0
 10
222.918089468676
 20
69.69831655044095
 30
0.0
 10
223.2596054237609
 20
70.00648773813994
 30
0.0
 10
223.6753780071326
 20
70.2501978665246
 30
0.0
 10
224.1411454934287
 20
70.41999929779422
 30
0.0
 10
224.6553768052146
 20
70.51743158457325
 30
0.0
 10
225.1967888320896
 20
70.53904573639522
 30
0.0
 10
225.7611894804537
 20
70.48264037155242
 30
0.0
 10
226.3280371777179
 20
70.34556674792051
 30
0.0
 10
226.8859945960866
 20
70.119730870064
 30
0.0
 10
227.3586762630912
 20
69.82212086682826
 30
0.0
 10
227.7156703600467
 20
69.45119920379342
 30
0.0
 10
227.9105127845052
 20
69.01888058073023
 30
0.0
 10
227.9395440294073
 20
68.5159384360304
 30
0.0
 10
227.8771699112609
 20
68.18219364234595
 30
0.0
 10
227.8408585576136
 20
67.98790271541169
 30
0.0
  0
SPLINE
  5
278
330
1F
100
AcDbEntity
  8
0
  6
Continuous
 62
     7
370
    25
100
AcDbSpline
210
0.0
220
0.0
230
1.0
 70
     8
 71
     3
 72
    10
 73
     6
 74
     0
 42
0.000000001
 43
0.00000001
 40
0.0
 40
0.0
 40
0.0
 40
0.0
 40
0.2951234317486784
 40
0.9803957662378208
 40
1.0
 40
1.0
 40
1.0
 40
1.0
 10
227.8435864325935
 20
67.98666415740715
 30
0.0
 10
227.9264104449009
 20
67.94789918308949
 30
0.0
 10
228.2015506143137
 20
67.81912249980768
 30
0.0
 10
228.4765515180886
 20
67.67788903625677
 30
0.0
 10
228.6250718336194
 20
67.5838691409982
 30
0.0
 10
228.629202524176
 20
67.58125423210782
 30
0.0
  0
ARC
  5
279
330
1F
100
AcDbEntity
  8
0
  6
Continuous
 62
     7
370
    25
100
AcDbCircle
 10
231.8535942789
 20
53.7734540875
 30
0.0
 40
12.4664423071753
100
AcDbArc
 50
171.5249591672
 51
179.8212373334
  0
SPLINE
  5
27A
330
1F
100
AcDbEntity
  8
0
  6
Continuous
 62
     7
370
    25
100
AcDbSpline
210
0.0
220
0.0
230
1.0
 70
     8
 71
     3
 72
    14
 73
    10
 74
     0
 42
0.000000001
 43
0.00000001
 40
0.0
 40
0.0
 40
0.0
 40
0.0
 40
0.0003951393068452
 40
0.0003951393068452
 40
0.0003951393068452
 40
0.0008163352168663
 40
0.0008163352168663
 40
0.0008163352168663
 40
0.0012378579337219
 40
0.0012378579337219
 40
0.0012378579337219
 40
0.0012378579337219
 10
227.4355086332935
 20
68.13191125243185
 30
0.0
 10
227.4809704475247
 20
68.11747438980682
 30
0.0
 10
227.5258580521458
 20
68.10260852924121
 30
0.0
 10
227.5701417448209
 20
68.08732474163573
 30
0.0
 10
227.6173450370602
 20
68.07103330229805
 30
0.0
 10
227.6638708501194
 20
68.05426382421413
 30
0.0
 10
227.709681759361
 20
68.03703501341884
 30
0.0
 10
227.7555281473501
 20
68.0197928595872
 30
0.0
 10
227.8006673829225
 20
68.0020871533827
 30
0.0
 10
227.8450609409649
 20
67.98394429669192
 30
0.0
  0
LINE
  5
27B
330
1F
100
AcDbEntity
  8
0
  6
Continuous
 62
     7
370
    25
100
AcDbLine
 10
218.7323203596
 20
58.4200249499
 30
0.0
 11
218.0923841643
 21
58.832256687
 31
0.0
  0
LINE
  5
27C
330
1F
100
AcDbEntity
  8
0
  6
Continuous
 62
     7
370
    25
100
AcDbLine
 10
217.7864499679
 20
59.2037352326
 30
0.0
 11
218.0923841643
 21
58.832256687
 31
0.0
  0
SPLINE
  5
27D
330
1F
100
AcDbEntity
  8
0
  6
Continuous
 62
     7
370
    25
100
AcDbSpline
210
0.0
220
0.0
230
1.0
 70
     8
 71
     3
 72
    13
 73
     9
 74
     0
 42
0.000000001
 43
0.00000001
 40
0.0
 40
0.0
 40
0.0
 40
0.0
 40
0.1618322161663184
 40
0.3254505981945091
 40
0.4909687654257712
 40
0.6584964712936039
 40
0.8281395683834565
 40
1.0
 40
1.0
 40
1.0
 40
1.0
 10
218.0923841642719
 20
58.83225668700194
 30
0.0
 10
218.0728098987624
 20
58.84481823941365
 30
0.0
 10
218.0334453237095
 20
58.87007998793003
 30
0.0
 10
217.9719148043946
 20
58.90277194149428
 30
0.0
 10
217.9083598780549
 20
58.9317181146744
 30
0.0
 10
217.8427397845574
 20
58.95623187111548
 30
0.0
 10
217.7753068818215
 20
58.97666906731303
 30
0.0
 10
217.7294174420424
 20
58.98626678184554
 30
0.0
 10
217.7063237453039
 20
58.99109679741913
 30
0.0
  0
SPLINE
  5
27E
330
1F
100
AcDbEntity
  8
0
  6
Continuous
 62
     7
370
    25
100
AcDbSpline
210
0.0
220
0.0
230
1.0
 70
     8
 71
     3
 72
     9
 73
     5
 74
     0
 42
0.000000001
 43
0.00000001
 40
0.0
 40
0.0
 40
0.0
 40
0.0
 40
0.4907162487368312
 40
0.9999999999999999
 40
0.9999999999999999
 40
0.9999999999999999
 40
0.9999999999999999
 10
217.706317918012
 20
58.99106880038812
 30
0.0
 10
217.6822208804711
 20
58.99916769745969
 30
0.0
 10
217.6331150324317
 20
59.01567193405757
 30
0.0
 10
217.5824035916487
 20
59.03047067555965
 30
0.0
 10
217.5565770788547
 20
59.0380074341458
 30
0.0
  0
SPLINE
  5
27F
330
1F
100
AcDbEntity
  8
0
  6
Continuous
 62
     7
370
    25
100
AcDbSpline
210
0.0
220
0.0
230
1.0
 70
     8
 71
     3
 72
    14
 73
    10
 74
     0
 42
0.000000001
 43
0.00000001
 40
0.0
 40
0.0
 40
0.0
 40
0.0
 40
0.0310276310570805
 40
0.0622853638080882
 40
0.1248003080239446
 40
0.249828963271062
 40
0.4998892480129931
 40
0.7606946230442756
 40
0.9999999999999999
 40
0.9999999999999999
 40
0.9999999999999999
 40
0.9999999999999999
 10
216.9726650935791
 20
59.41209671925422
 30
0.0
 10
216.9786571383397
 20
59.40826580041554
 30
0.0
 10
216.9906856650158
 20
59.40057555254752
 30
0.0
 10
217.0147446935267
 20
59.38513816268884
 30
0.0
 10
217.056977001918
 20
59.35806858573352
 30
0.0
 10
217.141536821086
 20
59.3038583102439
 30
0.0
 10
217.2648226821617
 20
59.22485597163189
 30
0.0
 10
217.4109490700403
 20
59.13125264251811
 30
0.0
 10
217.509312712442
 20
59.06827176547139
 30
0.0
 10
217.5563801838574
 20
59.0381351158137
 30
0.0
  0
LINE
  5
280
330
1F
100
AcDbEntity
  8
0
  6
Continuous
 62
     7
370
    25
100
AcDbLine
 10
215.1701648269
 20
60.5747275204
 30
0.0
 11
215.4611316614
 21
60.3866490913
 31
0.0
  0
SPLINE
  5
281
330
1F
100
AcDbEntity
  8
0
  6
Continuous
 62
     7
370
    25
100
AcDbSpline
210
0.0
220
0.0
230
1.0
 70
     8
 71
     3
 72
     8
 73
     4
 74
     0
 42
0.000000001
 43
0.00000001
 40
0.0
 40
0.0
 40
0.0
 40
0.0
 40
1.0
 40
1.0
 40
1.0
 40
1.0
 10
215.4925205958743
 20
60.36642632694303
 30
0.0
 10
215.4820780900225
 20
60.37325175184043
 30
0.0
 10
215.4716121571328
 20
60.37999471862693
 30
0.0
 10
215.4611243923162
 20
60.38665380627991
 30
0.0
  0
SPLINE
  5
282
330
1F
100
AcDbEntity
  8
0
  6
Continuous
 62
     7
370
    25
100
AcDbSpline
210
0.0
220
0.0
230
1.0
 70
     8
 71
     3
 72
     8
 73
     4
 74
     0
 42
0.000000001
 43
0.00000001
 40
0.0
 40
0.0
 40
0.0
 40
0.0
 40
1.0
 40
1.0
 40
1.0
 40
1.0
 10
212.7065162170506
 20
62.24468197875213
 30
0.0
 10
212.7655159812205
 20
62.20594131183316
 30
0.0
 10
212.8248035447311
 20
62.16787933453387
 30
0.0
 10
212.8843846182195
 20
62.13049554607358
 30
0.0
  0
SPLINE
  5
283
330
1F
100
AcDbEntity
  8
0
  6
Continuous
 62
     7
370
    25
100
AcDbSpline
210
0.0
220
0.0
230
1.0
 70
     8
 71
     3
 72
     8
 73
     4
 74
     0
 42
0.000000001
 43
0.00000001
 40
0.0
 40
0.0
 40
0.0
 40
0.0
 40
1.0
 40
1.0
 40
1.0
 40
1.0
 10
212.681666470951
 20
62.60789215669044
 30
0.0
 10
212.6891406830415
 20
62.4869343159786
 30
0.0
 10
212.6974367869317
 20
62.36586247356795
 30
0.0
 10
212.7065162170505
 20
62.24468197875213
 30
0.0
  0
LWPOLYLINE
  5
284
330
1F
100
AcDbEntity
  8
0
  6
Continuous
 62
     7
370
    25
100
AcDbPolyline
 90
       15
 70
   128
 43
0.0
 10
212.681666471
 20
62.6078921567
 10
213.0752658127
 20
63.7168008932
 10
213.5499339749
 20
64.8175689476
 10
214.0999870922
 20
65.8970152851
 10
214.7188386097
 20
66.9422141858
 10
215.399078153
 20
67.9406500222
 10
216.1325602631
 20
68.8803671261
 10
216.9105019334
 20
69.7501129513
 10
217.7235877809
 20
70.5394728149
 10
218.5620815919
 20
71.238994608
 10
219.4159429081
 20
71.8403019782
 10
220.2749472542
 20
72.3361946318
 10
221.1288085703
 20
72.7207345529
 10
221.9673023814
 20
72.9893171074
 10
222.6456286966
 20
73.1219999205
  0
SPLINE
  5
285
330
1F
100
AcDbEntity
  8
0
  6
Continuous
 62
     7
370
    25
100
AcDbSpline
210
0.0
220
0.0
230
1.0
 70
     8
 71
     3
 72
    10
 73
     6
 74
     0
 42
0.000000001
 43
0.00000001
 40
0.0
 40
0.0
 40
0.0
 40
0.0
 40
0.2409535266596745
 40
0.5031433103792522
 40
1.0
 40
1.0
 40
1.0
 40
1.0
 10
218.7323203596005
 20
51.71418353231
 30
0.0
 10
218.8145586025235
 20
51.6625134346101
 30
0.0
 10
218.9862830937879
 20
51.55461933418023
 30
0.0
 10
219.263999480181
 20
51.42488718811297
 30
0.0
 10
219.3849836013268
 20
51.44766674572295
 30
0.0
 10
219.4641773951727
 20
51.46257779001686
 30
0.0
  0
LINE
  5
286
330
1F
100
AcDbEntity
  8
0
  6
Continuous
 62
     7
370
    25
100
AcDbLine
 10
213.949146905
 20
61.4432558858
 30
0.0
 11
213.1872675235
 21
61.9338908045
 31
0.0
  0
LINE
  5
287
330
1F
100
AcDbEntity
  8
0
  6
Continuous
 62
     7
370
    25
100
AcDbLine
 10
213.1872675235
 20
61.9338908045
 30
0.0
 11
212.7065162171
 21
62.2446819788
 31
0.0
  0
LINE
  5
288
330
1F
100
AcDbEntity
  8
0
  6
Continuous
 62
     7
370
    25
100
AcDbLine
 10
217.7864499679
 20
51.4384037577
 30
0.0
 11
218.0923841643
 21
52.1264152694
 31
0.0
  0
LINE
  5
289
330
1F
100
AcDbEntity
  8
0
  6
Continuous
 62
     7
370
    25
100
AcDbLine
 10
218.0923841643
 20
52.1264152694
 30
0.0
 11
218.7323203596
 21
51.7141835323
 31
0.0
  0
SPLINE
  5
28A
330
1F
100
AcDbEntity
  8
0
  6
Continuous
 62
     7
370
    25
100
AcDbSpline
210
0.0
220
0.0
230
1.0
 70
     8
 71
     3
 72
    13
 73
     9
 74
     0
 42
0.000000001
 43
0.00000001
 40
0.0
 40
0.0
 40
0.0
 40
0.0
 40
0.1722808990528107
 40
0.3421751864042707
 40
0.5097853609121838
 40
0.6752181678280992
 40
0.8385846213668761
 40
1.0
 40
1.0
 40
1.0
 40
1.0
 10
217.7063122334986
 20
52.40772476525524
 30
0.0
 10
217.7294667732207
 20
52.38960289604931
 30
0.0
 10
217.775455092234
 20
52.3536102003551
 30
0.0
 10
217.843001737303
 20
52.3026069203688
 30
0.0
 10
217.9086633425871
 20
52.25428175179687
 30
0.0
 10
217.972185681474
 20
52.20885260483621
 30
0.0
 10
218.0336106425133
 20
52.16603080621758
 30
0.0
 10
218.0728716083431
 20
52.13956745688665
 30
0.0
 10
218.0923841642719
 20
52.12641526939022
 30
0.0
  0
SPLINE
  5
28B
330
1F
100
AcDbEntity
  8
0
  6
Continuous
 62
     7
370
    25
100
AcDbSpline
210
0.0
220
0.0
230
1.0
 70
     8
 71
     3
 72
    11
 73
     7
 74
     0
 42
0.000000001
 43
0.00000001
 40
0.0
 40
0.0
 40
0.0
 40
0.0
 40
0.2392702283375446
 40
0.500112057563497
 40
0.7515010343499211
 40
1.0
 40
1.0
 40
1.0
 40
1.0
 10
217.5569127301602
 20
52.45502745540988
 30
0.0
 10
217.5098477302925
 20
52.42671565910127
 30
0.0
 10
217.4114745474415
 20
52.36753959359745
 30
0.0
 10
217.2651826523897
 20
52.27435360940122
 30
0.0
 10
217.1173438182877
 20
52.17898310171891
 30
0.0
 10
217.0210604709595
 20
52.11444991324333
 30
0.0
 10
216.9731971196177
 20
52.08236986244611
 30
0.0
  0
SPLINE
  5
28C
330
1F
100
AcDbEntity
  8
0
  6
Continuous
 62
     7
370
    25
100
AcDbSpline
210
0.0
220
0.0
230
1.0
 70
     8
 71
     3
 72
     9
 73
     5
 74
     0
 42
0.000000001
 43
0.00000001
 40
0.0
 40
0.0
 40
0.0
 40
0.0
 40
0.5090786773556234
 40
1.0
 40
1.0
 40
1.0
 40
1.0
 10
217.5574741574916
 20
52.45435823423711
 30
0.0
 10
217.583128779497
 20
52.44686276671833
 30
0.0
 10
217.6335229978104
 20
52.43213917319105
 30
0.0
 10
217.682338877864
 20
52.4157395827068
 30
0.0
 10
217.706303634266
 20
52.40768867405544
 30
0.0
  0
LINE
  5
28D
330
1F
100
AcDbEntity
  8
0
  6
Continuous
 62
     7
370
    25
100
AcDbLine
 10
219.3874213999
 20
53.3782180417
 30
0.0
 11
217.7063057391
 21
52.4077306281
 31
0.0
  0
LINE
  5
28E
330
1F
100
AcDbEntity
  8
0
  6
Continuous
 62
     7
370
    25
100
AcDbLine
 10
215.6998179421
 20
53.5315519059
 30
0.0
 11
215.4995218897
 21
53.0303946245
 31
0.0
  0
SPLINE
  5
28F
330
1F
100
AcDbEntity
  8
0
  6
Continuous
 62
     7
370
    25
100
AcDbSpline
210
0.0
220
0.0
230
1.0
 70
     8
 71
     3
 72
     8
 73
     4
 74
     0
 42
0.000000001
 43
0.00000001
 40
0.0
 40
0.0
 40
0.0
 40
0.0
 40
1.0
 40
1.0
 40
1.0
 40
1.0
 10
215.6993746274665
 20
53.53233583711769
 30
0.0
 10
215.7255499620357
 20
53.55450321409596
 30
0.0
 10
215.7513710020012
 20
53.57713535518757
 30
0.0
 10
215.7768285557096
 20
53.60022007527885
 30
0.0
  0
LINE
  5
290
330
1F
100
AcDbEntity
  8
0
  6
Continuous
 62
     7
370
    25
100
AcDbLine
 10
215.7768285557
 20
53.6002200753
 30
0.0
 11
217.5570928918
 21
52.4544672523
 31
0.0
  0
LINE
  5
291
330
1F
100
AcDbEntity
  8
0
  6
Continuous
 62
     7
370
    25
100
AcDbLine
 10
219.3872126482
 20
53.4762377809
 30
0.0
 11
219.2991274403
 21
53.5837853333
 31
0.0
  0
LINE
  5
292
330
1F
100
AcDbEntity
  8
0
  6
Continuous
 62
     7
370
    25
100
AcDbLine
 10
217.4708050372
 20
54.5781318826
 30
0.0
 11
215.7768285557
 21
53.6002200753
 31
0.0
  0
LINE
  5
293
330
1F
100
AcDbEntity
  8
0
  6
Continuous
 62
     7
370
    25
100
AcDbLine
 10
217.6134990628
 20
54.5568395219
 30
0.0
 11
217.4712253513
 21
54.5776441378
 31
0.0
  0
LINE
  5
294
330
1F
100
AcDbEntity
  8
0
  6
Continuous
 62
     7
370
    25
100
AcDbLine
 10
219.2991725719
 20
53.5837209184
 30
0.0
 11
217.6134990628
 21
54.5568395219
 31
0.0
  0
LINE
  5
295
330
1F
100
AcDbEntity
  8
0
  6
Continuous
 62
     7
370
    25
100
AcDbLine
 10
219.3872126482
 20
53.5328907334
 30
0.0
 11
219.2991449358
 21
53.5837368613
 31
0.0
  0
SPLINE
  5
296
330
1F
100
AcDbEntity
  8
0
  6
Continuous
 62
     7
370
    25
100
AcDbSpline
210
0.0
220
0.0
230
1.0
 70
     8
 71
     3
 72
    19
 73
    15
 74
     0
 42
0.000000001
 43
0.00000001
 40
0.0
 40
0.0
 40
0.0
 40
0.0
 40
0.0637766618889256
 40
0.1289474218672228
 40
0.1955669022801027
 40
0.2636862395871756
 40
0.3333532666388361
 40
0.4046126987535469
 40
0.4775063198713764
 40
0.5520731658695683
 40
0.6283497028326013
 40
0.7063699986699048
 40
0.8377041195013734
 40
0.9999999999999999
 40
0.9999999999999999
 40
0.9999999999999999
 40
0.9999999999999999
 10
214.9153055215051
 20
53.70082392446957
 30
0.0
 10
214.9359929223268
 20
53.68746694879186
 30
0.0
 10
214.9778199311743
 20
53.66046102645961
 30
0.0
 10
215.0383062294967
 20
53.62294290960592
 30
0.0
 10
215.0977872193242
 20
53.58742512204838
 30
0.0
 10
215.1558665719477
 20
53.55444525662657
 30
0.0
 10
215.2123982826072
 20
53.52423776732563
 30
0.0
 10
215.2671442712277
 20
53.49712232076674
 30
0.0
 10
215.3198688368107
 20
53.47338813578909
 30
0.0
 10
215.3703137972338
 20
53.45334517069526
 30
0.0
 10
215.4182009983526
 20
53.43722286096188
 30
0.0
 10
215.4731682627998
 20
53.42294369248464
 30
0.0
 10
215.5360012160798
 20
53.41280495061527
 30
0.0
 10
215.5745087419299
 20
53.41927921930053
 30
0.0
 10
215.5957927142261
 20
53.4228576926585
 30
0.0
  0
LINE
  5
297
330
1F
100
AcDbEntity
  8
0
  6
Continuous
 62
     7
370
    25
100
AcDbLine
 10
215.6204286452
 20
53.4489278398
 30
0.0
 11
215.6992326659
 21
53.5323195502
 31
0.0
  0
SPLINE
  5
298
330
1F
100
AcDbEntity
  8
0
  6
Continuous
 62
     7
370
    25
100
AcDbSpline
210
0.0
220
0.0
230
1.0
 70
     8
 71
     3
 72
     9
 73
     5
 74
     0
 42
0.000000001
 43
0.00000001
 40
0.0
 40
0.0
 40
0.0
 40
0.0
 40
0.5232344373744339
 40
1.0
 40
1.0
 40
1.0
 40
1.0
 10
217.3046278644641
 20
54.48219984275561
 30
0.0
 10
217.2356010598128
 20
54.50724514441522
 30
0.0
 10
217.1036777770152
 20
54.55511145418122
 30
0.0
 10
216.8622348316999
 20
54.69270829633595
 30
0.0
 10
216.7471231500347
 20
54.75830973220135
 30
0.0
  0
LINE
  5
299
330
1F
100
AcDbEntity
  8
0
  6
Continuous
 62
     7
370
    25
100
AcDbLine
 10
213.0176220269
 20
54.524199199
 30
0.0
 11
213.4690921966
 21
54.6364637327
 31
0.0
  0
LINE
  5
29A
330
1F
100
AcDbEntity
  8
0
  6
Continuous
 62
     7
370
    25
100
AcDbLine
 10
213.4690921966
 20
54.6364637327
 30
0.0
 11
214.9153055215
 21
53.7008239245
 31
0.0
  0
SPLINE
  5
29B
330
1F
100
AcDbEntity
  8
0
  6
Continuous
 62
     7
370
    25
100
AcDbSpline
210
0.0
220
0.0
230
1.0
 70
     8
 71
     3
 72
     8
 73
     4
 74
     0
 42
0.000000001
 43
0.00000001
 40
0.0
 40
0.0
 40
0.0
 40
0.0
 40
1.0
 40
1.0
 40
1.0
 40
1.0
 10
213.1884099055219
 20
54.12944972668624
 30
0.0
 10
213.1312846365979
 20
54.26123591048188
 30
0.0
 10
213.0743561448803
 20
54.39282013214267
 30
0.0
 10
213.0176220269308
 20
54.52419919904403
 30
0.0
  0
LINE
  5
29C
330
1F
100
AcDbEntity
  8
0
  6
Continuous
 62
     7
370
    25
100
AcDbLine
 10
214.8067934071
 20
55.4087022039
 30
0.0
 11
213.4690921966
 21
54.6364637327
 31
0.0
  0
LINE
  5
29D
330
1F
100
AcDbEntity
  8
0
  6
Continuous
 62
     7
370
    25
100
AcDbLine
 10
215.7898222039
 20
55.3109486706
 30
0.0
 11
214.8067929332
 21
55.4087022516
 31
0.0
  0
LINE
  5
29E
330
1F
100
AcDbEntity
  8
0
  6
Continuous
 62
     7
370
    25
100
AcDbLine
 10
216.74712315
 20
54.7583097322
 30
0.0
 11
215.7898214544
 21
55.3109482379
 31
0.0
  0
SPLINE
  5
29F
330
1F
100
AcDbEntity
  8
0
  6
Continuous
 62
     7
370
    25
100
AcDbSpline
210
0.0
220
0.0
230
1.0
 70
     8
 71
     3
 72
     8
 73
     4
 74
     0
 42
0.000000001
 43
0.00000001
 40
0.0
 40
0.0
 40
0.0
 40
0.0
 40
1.0
 40
1.0
 40
1.0
 40
1.0
 10
213.017622026933
 20
54.52419919903892
 30
0.0
 10
213.014484689183
 20
54.55941550591144
 30
0.0
 10
213.012492285285
 20
54.59505976213913
 30
0.0
 10
213.0117108879129
 20
54.63115666413401
 30
0.0
  0
LINE
  5
2A0
330
1F
100
AcDbEntity
  8
0
  6
Continuous
 62
     7
370
    25
100
AcDbLine
 10
213.8227964204
 20
55.0993863755
 30
0.0
 11
213.0117108879
 21
54.6311566641
 31
0.0
  0
SPLINE
  5
2A1
330
1F
100
AcDbEntity
  8
0
  6
Continuous
 62
     7
370
    25
100
AcDbSpline
210
0.0
220
0.0
230
1.0
 70
     8
 71
     3
 72
     8
 73
     4
 74
     0
 42
0.000000001
 43
0.00000001
 40
0.0000004089325119
 40
0.0000004089325119
 40
0.0000004089325119
 40
0.0000004089325119
 40
0.0015399868451459
 40
0.0015399868451459
 40
0.0015399868451459
 40
0.0015399868451459
 10
213.8227964204017
 20
55.09938637549013
 30
0.0
 10
214.0612729884249
 20
55.19376276130648
 30
0.0
 10
214.2997199460936
 20
55.28819137323669
 30
0.0
 10
214.5381286849439
 20
55.38268475619915
 30
0.0
  0
LINE
  5
2A2
330
1F
100
AcDbEntity
  8
0
  6
Continuous
 62
     7
370
    25
100
AcDbLine
 10
214.5381286849
 20
55.3826847562
 30
0.0
 11
214.5625249156
 21
55.387678686
 31
0.0
  0
LINE
  5
2A3
330
1F
100
AcDbEntity
  8
0
  6
Continuous
 62
     7
370
    25
100
AcDbLine
 10
214.8067931996
 20
55.4087021854
 30
0.0
 11
214.5625254574
 21
55.3876790787
 31
0.0
  0
SPLINE
  5
2A4
330
1F
100
AcDbEntity
  8
0
  6
Continuous
 62
     7
370
    25
100
AcDbSpline
210
0.0
220
0.0
230
1.0
 70
     8
 71
     3
 72
     8
 73
     4
 74
     0
 42
0.000000001
 43
0.00000001
 40
0.0
 40
0.0
 40
0.0
 40
0.0
 40
1.0
 40
1.0
 40
1.0
 40
1.0
 10
215.789820599452
 20
55.31094874878612
 30
0.0
 10
215.8204286335752
 20
55.29600874097999
 30
0.0
 10
215.8509801345471
 20
55.28113178358662
 30
0.0
 10
215.8814740726617
 20
55.2663182199057
 30
0.0
  0
LWPOLYLINE
  5
2A5
330
1F
100
AcDbEntity
  8
0
  6
Continuous
 62
     7
370
    25
100
AcDbPolyline
 90
        3
 70
   128
 43
0.0
 10
219.4295941931
 20
54.7993982595
 10
218.9550645297
 20
54.6014364756
 10
218.2182097822
 20
54.3753939191
  0
LWPOLYLINE
  5
2A6
330
1F
100
AcDbEntity
  8
0
  6
Continuous
 62
     7
370
    18
100
AcDbPolyline
 90
       19
 70
   128
 43
0.0
 10
265.1910579657
 20
32.5576468937
 10
265.2369301448
 20
33.2571950535
 10
265.3734171566
 20
33.9924809066
 10
265.5971582381
 20
34.7453992749
 10
265.9026441412
 20
35.4974108094
 10
266.2823527891
 20
36.2299984904
 10
266.7269344948
 20
36.9251235778
 10
267.2254421811
 20
37.565669785
 10
267.7656009344
 20
38.1358647386
 10
268.3341102535
 20
38.6216683463
 10
268.9169715522
 20
39.0111185111
 10
269.4998328509
 20
39.2946256775
 10
270.06834217
 20
39.465208958
 10
270.6085009233
 20
39.5186680262
 10
271.1070086097
 20
39.4536865424
 10
271.5515903153
 20
39.2718645664
 10
271.9312989632
 20
38.9776791586
 10
272.2367848663
 20
38.5783741402
 10
272.2728760468
 20
38.5151610371
  0
LWPOLYLINE
  5
2A7
330
1F
100
AcDbEntity
  8
0
  6
Continuous
 62
     7
370
    18
100
AcDbPolyline
 90
        9
 70
   128
 43
0.0
 10
267.2987714766
 20
29.8988256015
 10
267.2254421811
 20
29.8984740207
 10
266.7269344948
 20
29.9634555045
 10
266.2823527891
 20
30.1452774806
 10
265.9026441412
 20
30.4394628883
 10
265.5971582381
 20
30.8387679067
 10
265.3734171566
 20
31.333360321
 10
265.2369301448
 20
31.9110616244
 10
265.1910579657
 20
32.5576468937
  0
LWPOLYLINE
  5
2A8
330
1F
100
AcDbEntity
  8
0
  6
Continuous
 62
     7
370
    18
100
AcDbPolyline
 90
       38
 70
   128
 43
0.0
 10
266.2401848902
 20
32.6919158409
 10
266.2845606297
 20
33.3196005547
 10
266.4164112387
 20
33.9804630603
 10
266.6319436153
 20
34.6554915466
 10
266.9249572855
 20
35.3252666731
 10
267.2870227795
 20
35.9705202288
 10
267.7077241322
 20
36.5726894438
 10
268.1749585317
 20
37.114451006
 10
268.6752844949
 20
37.5802194218
 10
269.194308555
 20
37.9565953819
 10
269.7170993346
 20
38.2327512351
 10
270.2286170948
 20
38.4007424803
 10
270.7141464011
 20
38.4557363153
 10
271.1597194592
 20
38.3961506676
 10
271.5525179436
 20
38.2236997077
 10
271.881241757
 20
37.9433445358
 10
272.1364341138
 20
37.5631504598
 10
272.3107535946
 20
37.094054971
 10
272.3991853452
 20
36.5495530925
 10
272.3991853452
 20
35.945309152
 10
272.3107535946
 20
35.2987061476
 10
272.1364341138
 20
34.6283456703
 10
271.881241757
 20
33.9535127707
 10
271.5525179436
 20
33.2936211625
 10
271.1597194592
 20
32.6676547259
 10
270.7141464011
 20
32.0936213756
 10
270.2286170948
 20
31.5880350059
 10
269.7170993346
 20
31.1654404161
 10
269.194308555
 20
30.8379948832
 10
268.6752844949
 20
30.6151184189
 10
268.1749585317
 20
30.5032227735
 10
267.7077241322
 20
30.5055269808
 10
267.2870227795
 20
30.621964753
 10
266.9249572855
 20
30.8491863874
 10
266.6319436153
 20
31.1806551313
 10
266.4164112387
 20
31.6068352324
 10
266.2845606297
 20
32.1154662652
 10
266.2401848902
 20
32.6919158409
  0
ARC
  5
2A9
330
1F
100
AcDbEntity
  8
0
  6
Continuous
 62
     7
370
    18
100
AcDbCircle
 10
239.9539654088
 20
47.3967282139
 30
0.0
 40
3.525890880749924
100
AcDbArc
 50
174.4209254684
 51
234.2668941382
  0
LWPOLYLINE
  5
2AA
330
1F
100
AcDbEntity
  8
0
  6
Continuous
 62
     7
370
    18
100
AcDbPolyline
 90
       19
 70
   128
 43
0.0
 10
244.894239802
 20
56.6592837013
 10
244.5902190615
 20
56.8066493099
 10
244.0578960031
 20
56.9522650349
 10
243.4780450125
 20
56.9844698638
 10
242.8610135442
 20
56.9026891006
 10
242.2178125396
 20
56.7083821251
 10
241.5599199357
 20
56.4050163498
 10
240.8990758416
 20
55.9980053441
 10
240.2470730359
 20
55.4946122291
 10
239.6155465241
 20
54.9038200668
 10
239.0157659118
 20
54.2361715575
 10
238.4584342981
 20
53.5035809045
 10
237.9534972789
 20
52.7191212053
 10
237.5099654674
 20
51.896791162
 10
237.1357536991
 20
51.0512652737
 10
236.837539792
 20
50.1976319697
 10
236.6206453803
 20
49.3511243568
 10
236.4889409499
 20
48.5268483832
 10
236.4447767695
 20
47.7395132732
  0
LWPOLYLINE
  5
2AB
330
1F
100
AcDbEntity
  8
0
  6
Continuous
 62
     7
370
    18
100
AcDbPolyline
 90
       27
 70
   128
 43
0.0
 10
267.8049625151
 20
33.5952427359
 10
267.8491390767
 20
34.0408789867
 10
267.9791013803
 20
34.5116216508
 10
268.1872964892
 20
34.9801128755
 10
268.4616248604
 20
35.4191256539
 10
268.7861435261
 20
35.803146159
 10
269.1419926411
 20
36.1098565148
 10
269.5084915483
 20
36.3214318304
 10
269.8643406633
 20
36.4255761175
 10
270.188859329
 20
36.4162368886
 10
270.4631877002
 20
36.2939569057
 10
270.6713828091
 20
36.0658426371
 10
270.8013451126
 20
35.7451512548
 10
270.8455216742
 20
35.3505201763
 10
270.8013451126
 20
34.9048839255
 10
270.6713828091
 20
34.4341412614
 10
270.4631877002
 20
33.9656500366
 10
270.188859329
 20
33.5266372583
 10
269.8643406633
 20
33.1426167532
 10
269.5084915483
 20
32.8359063973
 10
269.1419926411
 20
32.6243310817
 10
268.7861435261
 20
32.5201867947
 10
268.4616248604
 20
32.5295260236
 10
268.1872964892
 20
32.6518060065
 10
267.9791013803
 20
32.8799202751
 10
267.8491390767
 20
33.2006116574
 10
267.8049625151
 20
33.5952427359
  0
LWPOLYLINE
  5
2AC
330
1F
100
AcDbEntity
  8
0
  6
Continuous
 62
     7
370
    18
100
AcDbPolyline
 90
       14
 70
   128
 43
0.0
 10
270.2321917601
 20
36.2584484076
 10
270.3632988831
 20
36.1545013955
 10
270.5340785938
 20
35.894366572
 10
270.6222381435
 20
35.5487619551
 10
270.6222381435
 20
35.1394031539
 10
270.5340785938
 20
34.6920116875
 10
270.3632988831
 20
34.234698807
 10
270.1206297288
 20
33.7961991627
 10
269.8213189262
 20
33.4040652999
 10
269.4841732739
 20
33.0829364313
 10
269.1303768732
 20
32.8529902648
 10
268.782160053
 20
32.7286751637
 10
268.461402557
 20
32.717802303
 10
268.2192573449
 20
32.8020143397
  0
LWPOLYLINE
  5
2AD
330
1F
100
AcDbEntity
  8
0
  6
Continuous
 62
     7
370
    18
100
AcDbPolyline
 90
       26
 70
   128
 43
0.0
 10
234.3234564259
 20
47.7395132732
 10
234.3690122525
 20
48.6187301815
 10
234.5049891523
 20
49.5372166954
 10
234.7293258542
 20
50.4810494957
 10
235.0386216425
 20
51.4359210393
 10
235.4281879082
 20
52.3873564468
 10
235.8921192239
 20
53.3209329274
 10
236.4233828637
 20
54.2224984132
 10
237.0139254124
 20
55.0783860904
 10
237.654794847
 20
55.8756215744
 10
238.33627624
 20
56.6021195878
 10
239.0480390283
 20
57.2468671613
 10
239.7792936134
 20
57.8000905789
 10
240.5189549212
 20
58.2534035375
 10
241.2558104404
 20
58.5999342748
 10
241.9786901924
 20
58.834429738
 10
242.6766360569
 20
58.953335215
 10
243.3390678861
 20
58.9548482198
 10
243.9559438887
 20
58.8389458169
 10
244.5179128534
 20
58.6073849686
 10
245.0164559034
 20
58.2636759013
 10
245.4440156343
 20
57.813028894
 10
245.7941106765
 20
57.2622752961
 10
246.0614339459
 20
56.6197639707
 10
246.2419330944
 20
55.8952347346
 10
246.2446882331
 20
55.8796864162
  0
LWPOLYLINE
  5
2AE
330
1F
100
AcDbEntity
  8
0
  6
Continuous
 62
     7
370
    18
100
AcDbPolyline
 90
       13
 70
   128
 43
0.0
 10
239.2452571046
 20
43.7550023429
 10
239.0480390283
 20
43.6870463472
 10
238.33627624
 20
43.5100100976
 10
237.654794847
 20
43.4496864426
 10
237.0139254124
 20
43.5069898273
 10
236.4233828637
 20
43.6810515909
 10
235.8921192239
 20
43.9692331343
 10
235.4281879082
 20
44.3671659193
 10
235.0386216425
 20
44.8688176904
 10
234.7293258542
 20
45.466583918
 10
234.5049891523
 20
46.1514030756
 10
234.3690122525
 20
46.9128940027
 10
234.3234564259
 20
47.7395132732
  0
LWPOLYLINE
  5
2AF
330
1F
100
AcDbEntity
  8
0
  6
Continuous
 62
     7
370
    18
100
AcDbPolyline
 90
       28
 70
   128
 43
0.0
 10
222.9125207445
 20
48.4181525162
 10
222.9573191752
 20
49.5959070994
 10
223.0913537767
 20
50.8159022623
 10
223.3135453811
 20
52.0683153213
 10
223.6221050322
 20
53.3430625827
 10
224.0145483893
 20
54.6298805311
 10
224.4877157292
 20
55.9184084652
 10
225.0377973866
 20
57.1982719155
 10
225.6603644275
 20
58.4591661742
 10
226.3504043082
 20
59.690939262
 10
227.1023612332
 20
60.8836736663
 10
227.9101808876
 20
62.0277661911
 10
228.7673591824
 20
63.114005276
 10
229.6669946221
 20
64.1336451626
 10
230.6018438711
 20
65.0784763101
 10
231.5643800729
 20
65.9408914936
 10
232.5468534519
 20
66.7139470532
 10
233.5413537103
 20
67.3914188
 10
234.5398737166
 20
67.96785213
 10
235.534373975
 20
68.4386059408
 10
236.5168473541
 20
68.7998899995
 10
237.4793835558
 20
69.0487954595
 10
238.4142328048
 20
69.1833182802
 10
239.3138682445
 20
69.2023753629
 10
240.1710465394
 20
69.1058132714
 10
240.9788661937
 20
68.8944094667
 10
241.7308231187
 20
68.569866048
 10
241.9087242409
 20
68.4717078178
  0
LWPOLYLINE
  5
2B0
330
1F
100
AcDbEntity
  8
0
  6
Continuous
 62
     7
370
    18
100
AcDbPolyline
 90
       10
 70
   128
 43
0.0
 10
226.172503186
 20
41.2128198744
 10
225.6603644275
 20
41.549731644
 10
225.0377973866
 20
42.0918252973
 10
224.4877157292
 20
42.7365779847
 10
224.0145483893
 20
43.4787985366
 10
223.6221050322
 20
44.3125110296
 10
223.3135453811
 20
45.2310029009
 10
223.0913537767
 20
46.2268789939
 10
222.9573191752
 20
47.2921211001
 10
222.9125207445
 20
48.4181525162
  0
LWPOLYLINE
  5
2B1
330
1F
100
AcDbEntity
  8
0
  6
Continuous
 62
     7
370
    18
100
AcDbPolyline
 90
       13
 70
   128
 43
0.0
 10
227.5366018461
 20
45.0825157899
 10
227.4042868843
 20
45.8747483496
 10
227.3214072613
 20
46.9278109096
 10
227.3314650412
 20
48.0386162909
 10
227.4343652233
 20
49.1966723641
 10
227.6291358622
 20
50.3910406927
 10
227.9139372489
 20
51.6104398521
 10
228.2860792875
 20
52.8433519889
 10
228.7420469045
 20
54.0781316123
 10
229.2775332509
 20
55.3031155924
 10
229.887480382
 20
56.506733324
 10
230.5661270329
 20
57.6776160173
 10
231.307063036
 20
58.8047040816
  0
LWPOLYLINE
  5
2B2
330
1F
100
AcDbEntity
  8
0
  6
Continuous
 62
     7
370
    18
100
AcDbPolyline
 90
       17
 70
   128
 43
0.0
 10
228.0483979205
 20
42.1525882411
 10
227.6918147124
 20
42.6974183704
 10
227.2959355877
 20
43.499532881
 10
226.9872072716
 20
44.3909459846
 10
226.7684586215
 20
45.3634897214
 10
226.6416940169
 20
46.4082527368
 10
226.6080749937
 20
47.5156619358
 10
226.6679096006
 20
48.6755702004
 10
226.8206495772
 20
49.8773493673
 10
227.0648953769
 20
51.1099876125
 10
227.3984089917
 20
52.3621903526
 10
227.818134458
 20
53.6224837359
 10
228.3202258589
 20
54.8793197768
 10
228.9000825639
 20
56.1211821688
 10
229.5523913838
 20
57.3366918083
 10
230.2711752557
 20
58.5147110601
 10
231.0498480101
 20
59.6444458109
  0
LINE
  5
2B3
330
1F
100
AcDbEntity
  8
0
  6
Continuous
 62
     7
370
    18
100
AcDbLine
 10
234.0417716879
 20
61.0454667361
 30
0.0
 11
234.0833207274
 21
61.0890110492
 31
0.0
  0
ARC
  5
2B4
330
1F
100
AcDbEntity
  8
0
  6
Continuous
 62
     7
370
    18
100
AcDbCircle
 10
244.1329733998
 20
51.8615774577
 30
0.0
 40
14.35348911364159
100
AcDbArc
 50
109.9319623821
 51
139.4246774734
  0
LWPOLYLINE
  5
2B5
330
1F
100
AcDbEntity
  8
0
  6
Continuous
 62
     7
370
    18
100
AcDbPolyline
 90
       12
 70
   128
 43
0.0
 10
232.3940412509
 20
61.3166094235
 10
233.3063860307
 20
62.2873450241
 10
234.2517143319
 20
63.1728874193
 10
235.2211195021
 20
63.9648932454
 10
236.205468043
 20
64.6559004168
 10
237.1954856631
 20
65.2393984331
 10
238.1818446586
 20
65.7098897185
 10
239.1552517959
 20
66.0629414192
 10
240.1065358712
 20
66.2952271683
 10
241.0267341182
 20
66.4045584262
 10
241.9071766542
 20
66.3899051007
 10
242.0330048683
 20
66.3772627926
  0
LINE
  5
2B6
330
1F
100
AcDbEntity
  8
0
  6
Continuous
 62
     7
370
    18
100
AcDbLine
 10
218.4261562361
 20
58.7907602196
 30
0.0
 11
218.7323203596
 21
58.4200249499
 31
0.0
  0
LINE
  5
2B7
330
1F
100
AcDbEntity
  8
0
  6
Continuous
 62
     7
370
    18
100
AcDbLine
 10
218.4261562361
 20
51.0266498283
 30
0.0
 11
218.7323203596
 21
51.7141835323
 31
0.0
  0
LINE
  5
2B8
330
1F
100
AcDbEntity
  8
0
  6
Continuous
 62
     7
370
    18
100
AcDbLine
 10
219.4682305134
 20
52.1390154213
 30
0.0
 11
218.7323276857
 21
51.7141877616
 31
0.0
  0
LINE
  5
2B9
330
1F
100
AcDbEntity
  8
0
  6
Continuous
 62
     7
370
    18
100
AcDbLine
 10
219.4016551382
 20
52.8822413144
 30
0.0
 11
218.0923841643
 21
52.1264152694
 31
0.0
  0
LINE
  5
2BA
330
1F
100
AcDbEntity
  8
0
  6
Continuous
 62
     7
370
    18
100
AcDbLine
 10
214.9153055215
 20
53.7008239245
 30
0.0
 11
214.6188180187
 21
53.2047623169
 31
0.0
  0
LINE
  5
2BB
330
1F
100
AcDbEntity
  8
0
  6
Continuous
 62
     7
370
    18
100
AcDbLine
 10
216.74712315
 20
54.7583097322
 30
0.0
 11
214.9153657709
 21
53.7008587057
 31
0.0
  0
LINE
  5
2BC
330
1F
100
AcDbEntity
  8
0
  6
Continuous
 62
     7
370
    18
100
AcDbLine
 10
216.74712315
 20
54.7583097322
 30
0.0
 11
216.8684331117
 21
54.6965588944
 31
0.0
  0
OLE2FRAME
  5
2BD
330
1F
100
AcDbEntity
  8
0
100
AcDbOle2Frame
 70
     2
  3
Paintbrush-Bild
 10
13.8511154363
 20
38.264191557
 30
0.0
 11
51.6290888628
 21
31.9806341108
 31
0.0
 71
     2
 72
     0
 73
     1
 90
    12928
310
80552BED0767C5B32B40DDAF6807D121434000000000000000006FFBDDFB85D0
310
4940DDAF6807D121434000000000000000006FFBDDFB85D04940416F4BD60AFB
310
3F4000000000000000002BED0767C5B32B40416F4BD60AFB3F40000000000000
310
0000000000000100000000010000010000000100000000000100000000320000
310
D0CF11E0A1B11AE1000000000000000000000000000000003E000300FEFF0900
310
0600000000000000000000000100000001000000000000000010000002000000
310
01000000FEFFFFFF0000000000000000FFFFFFFFFFFFFFFFFFFFFFFFFFFFFFFF
310
FFFFFFFFFFFFFFFFFFFFFFFFFFFFFFFFFFFFFFFFFFFFFFFFFFFFFFFFFFFFFFFF
310
FFFFFFFFFFFFFFFFFFFFFFFFFFFFFFFFFFFFFFFFFFFFFFFFFFFFFFFFFFFFFFFF
310
FFFFFFFFFFFFFFFFFFFFFFFFFFFFFFFFFFFFFFFFFFFFFFFFFFFFFFFFFFFFFFFF
310
FFFFFFFFFFFFFFFFFFFFFFFFFFFFFFFFFFFFFFFFFFFFFFFFFFFFFFFFFFFFFFFF
310
FFFFFFFFFFFFFFFFFFFFFFFFFFFFFFFFFFFFFFFFFFFFFFFFFFFFFFFFFFFFFFFF
310
FFFFFFFFFFFFFFFFFFFFFFFFFFFFFFFFFFFFFFFFFFFFFFFFFFFFFFFFFFFFFFFF
310
FFFFFFFFFFFFFFFFFFFFFFFFFFFFFFFFFFFFFFFFFFFFFFFFFFFFFFFFFFFFFFFF
310
FFFFFFFFFFFFFFFFFFFFFFFFFFFFFFFFFFFFFFFFFFFFFFFFFFFFFFFFFFFFFFFF
310
FFFFFFFFFFFFFFFFFFFFFFFFFFFFFFFFFFFFFFFFFFFFFFFFFFFFFFFFFFFFFFFF
310
FFFFFFFFFFFFFFFFFFFFFFFFFFFFFFFFFFFFFFFFFFFFFFFFFFFFFFFFFFFFFFFF
310
FFFFFFFFFFFFFFFFFFFFFFFFFFFFFFFFFFFFFFFFFFFFFFFFFFFFFFFFFFFFFFFF
310
FFFFFFFFFFFFFFFFFFFFFFFFFFFFFFFFFFFFFFFFFFFFFFFFFFFFFFFFFFFFFFFF
310
FFFFFFFFFFFFFFFFFFFFFFFFFFFFFFFFFFFFFFFFFFFFFFFFFFFFFFFFFFFFFFFF
310
FDFFFFFFFEFFFFFFFEFFFFFFFEFFFFFF05000000060000000700000008000000
310
090000000A0000000B0000000C0000000D0000000E0000000F00000010000000
310
11000000120000001300000014000000150000001600000017000000FEFFFFFF
310
FFFFFFFFFFFFFFFFFFFFFFFFFFFFFFFFFFFFFFFFFFFFFFFFFFFFFFFFFFFFFFFF
310
FFFFFFFFFFFFFFFFFFFFFFFFFFFFFFFFFFFFFFFFFFFFFFFFFFFFFFFFFFFFFFFF
310
FFFFFFFFFFFFFFFFFFFFFFFFFFFFFFFFFFFFFFFFFFFFFFFFFFFFFFFFFFFFFFFF
310
FFFFFFFFFFFFFFFFFFFFFFFFFFFFFFFFFFFFFFFFFFFFFFFFFFFFFFFFFFFFFFFF
310
FFFFFFFFFFFFFFFFFFFFFFFFFFFFFFFFFFFFFFFFFFFFFFFFFFFFFFFFFFFFFFFF
310
FFFFFFFFFFFFFFFFFFFFFFFFFFFFFFFFFFFFFFFFFFFFFFFFFFFFFFFFFFFFFFFF
310
FFFFFFFFFFFFFFFFFFFFFFFFFFFFFFFFFFFFFFFFFFFFFFFFFFFFFFFFFFFFFFFF
310
FFFFFFFFFFFFFFFFFFFFFFFFFFFFFFFFFFFFFFFFFFFFFFFFFFFFFFFFFFFFFFFF
310
FFFFFFFFFFFFFFFFFFFFFFFFFFFFFFFFFFFFFFFFFFFFFFFFFFFFFFFFFFFFFFFF
310
FFFFFFFFFFFFFFFFFFFFFFFFFFFFFFFFFFFFFFFFFFFFFFFFFFFFFFFFFFFFFFFF
310
FFFFFFFFFFFFFFFFFFFFFFFFFFFFFFFFFFFFFFFFFFFFFFFFFFFFFFFFFFFFFFFF
310
FFFFFFFFFFFFFFFFFFFFFFFFFFFFFFFFFFFFFFFFFFFFFFFFFFFFFFFFFFFFFFFF
310
FFFFFFFFFFFFFFFFFFFFFFFFFFFFFFFFFFFFFFFFFFFFFFFFFFFFFFFFFFFFFFFF
310
52006F006F007400200045006E00740072007900000000000000000000000000
310
0000000000000000000000000000000000000000000000000000000000000000
310
16000500FFFFFFFFFFFFFFFF020000000A00030000000000C000000000000046
310
0000000000000000000000009015E46002A7D30103000000C000000000000000
310
01004F006C006500000000000000000000000000000000000000000000000000
310
0000000000000000000000000000000000000000000000000000000000000000
310
0A000200FFFFFFFFFFFFFFFFFFFFFFFF00000000000000000000000000000000
310
0000000000000000000000000000000000000000000000001400000000000000
310
010043006F006D0070004F0062006A0000000000000000000000000000000000
310
0000000000000000000000000000000000000000000000000000000000000000
310
120002010100000003000000FFFFFFFF00000000000000000000000000000000
310
0000000000000000000000000000000000000000010000004D00000000000000
310
01004F006C006500310030004E00610074006900760065000000000000000000
310
0000000000000000000000000000000000000000000000000000000000000000
310
1A000200FFFFFFFFFFFFFFFFFFFFFFFF00000000000000000000000000000000
310
0000000000000000000000000000000000000000040000002426000000000000
310
FEFFFFFF02000000FEFFFFFFFFFFFFFFFFFFFFFFFFFFFFFFFFFFFFFFFFFFFFFF
310
FFFFFFFFFFFFFFFFFFFFFFFFFFFFFFFFFFFFFFFFFFFFFFFFFFFFFFFFFFFFFFFF
310
FFFFFFFFFFFFFFFFFFFFFFFFFFFFFFFFFFFFFFFFFFFFFFFFFFFFFFFFFFFFFFFF
310
FFFFFFFFFFFFFFFFFFFFFFFFFFFFFFFFFFFFFFFFFFFFFFFFFFFFFFFFFFFFFFFF
310
FFFFFFFFFFFFFFFFFFFFFFFFFFFFFFFFFFFFFFFFFFFFFFFFFFFFFFFFFFFFFFFF
310
FFFFFFFFFFFFFFFFFFFFFFFFFFFFFFFFFFFFFFFFFFFFFFFFFFFFFFFFFFFFFFFF
310
FFFFFFFFFFFFFFFFFFFFFFFFFFFFFFFFFFFFFFFFFFFFFFFFFFFFFFFFFFFFFFFF
310
FFFFFFFFFFFFFFFFFFFFFFFFFFFFFFFFFFFFFFFFFFFFFFFFFFFFFFFFFFFFFFFF
310
FFFFFFFFFFFFFFFFFFFFFFFFFFFFFFFFFFFFFFFFFFFFFFFFFFFFFFFFFFFFFFFF
310
FFFFFFFFFFFFFFFFFFFFFFFFFFFFFFFFFFFFFFFFFFFFFFFFFFFFFFFFFFFFFFFF
310
FFFFFFFFFFFFFFFFFFFFFFFFFFFFFFFFFFFFFFFFFFFFFFFFFFFFFFFFFFFFFFFF
310
FFFFFFFFFFFFFFFFFFFFFFFFFFFFFFFFFFFFFFFFFFFFFFFFFFFFFFFFFFFFFFFF
310
FFFFFFFFFFFFFFFFFFFFFFFFFFFFFFFFFFFFFFFFFFFFFFFFFFFFFFFFFFFFFFFF
310
FFFFFFFFFFFFFFFFFFFFFFFFFFFFFFFFFFFFFFFFFFFFFFFFFFFFFFFFFFFFFFFF
310
FFFFFFFFFFFFFFFFFFFFFFFFFFFFFFFFFFFFFFFFFFFFFFFFFFFFFFFFFFFFFFFF
310
FFFFFFFFFFFFFFFFFFFFFFFFFFFFFFFFFFFFFFFFFFFFFFFFFFFFFFFFFFFFFFFF
310
0100000200000000000000000000000000000000000000000000000000000000
310
0000000000000000000000000000000000000000000000000000000000000000
310
0100FEFF030A0000FFFFFFFF0A00030000000000C00000000000004607000000
310
5042727573680007000000504272757368000700000050427275736800F439B2
310
7100000000000000000000000000000000000000000000000000000000000000
310
0000000000000000000000000000000000000000000000000000000000000000
310
0000000000000000000000000000000000000000000000000000000000000000
310
0000000000000000000000000000000000000000000000000000000000000000
310
0000000000000000000000000000000000000000000000000000000000000000
310
0000000000000000000000000000000000000000000000000000000000000000
310
0000000000000000000000000000000000000000000000000000000000000000
310
0000000000000000000000000000000000000000000000000000000000000000
310
0000000000000000000000000000000000000000000000000000000000000000
310
0000000000000000000000000000000000000000000000000000000000000000
310
0000000000000000000000000000000000000000000000000000000000000000
310
0000000000000000000000000000000000000000000000000000000000000000
310
20260000424D0E260000000000003E00000028000000B40200006E0000000100
310
01000000000000000000130B0000130B00000200000002000000000000FFFFFF
310
FFFFFFFFFFFFFFFFFFFFFFFFFFFFFFFFFFFFFFFFFFFFFFFFFFFFFFFFFFFFFFFF
310
FFFFFFFFFFFFFFFFFFFFFFFFFFFFFFFFFFFFFFFFFFFFFFFFFFFFFFFFFFFFFFFF
310
FFFFFFFFFFFFFFFFFFFFFFFFFFFFFFFFFFFFFFFFFFFFFFFFF000FFFFFFFFFFFF
310
FFFFFFFFFFFFFFFFFFFFFFFFFFFFFFFFFFFFFFFFFFFFFFFFFFFFFFFFFFFFFFFF
310
FFFFFFFFFFFFFFFFFFFFFFFFFFFFFFFFFFFFFFFFFFFFFFFFFFFFFFFFFFFFFFFF
310
FFFFFFFFFFFFFFFFFFFFFFFFFFFFFFFFF000FFFFFFFFFFFFFFFFFFFFFFFFFFFF
310
FFFFFFFFFFFFFFFFFFFFFFFFFFFFFFFFFFFFFFFFFFFFFFFFFFFFFFFFFFFFFFFF
310
FFFFFFFFFFFFFFFFFFFFFFFFFFFFFFFFFFFFFFFFFFFFFFFFFFFFFFFFFFFFFFFF
310
FFFFFFFFFFFFFFFFF000FFFFFFFFFFFFFFFFFFFFFFFFFFFFFFFFFFFFFFFFFFFF
310
FFFFFFFFFFFFFFFFFFFFFFFFFFFFFFFFFFFFFFFFFFFFFFFFFFFFFFFFFFFFFFFF
310
FFFFFFFFFFFFFFFFFFFFFFFFFFFFFFFFFFFFFFFFFFFFFFFFFFFFFFFFFFFFFFFF
310
F000FFFFFFFFFFFFFFFFFFFFFFFFFFFFFFFFFFFFFFFFFFFFFFFFFFFFFFFFFFFF
310
FFFFFFFFFFFFFFFFFFFFFFFFFFFFFFFFFFFFFFFFFFFFFFFFFFFFFFFFFFFFFFFF
310
FFFFFFFFFFFFFFFFFFFFFFFFFFFFFFFFFFFFFFFFFFFFFFFFF000FFFFFFFFFFFF
310
FFFFFFFFFFFFFFFFFFFFFFFFFFFFFFFFFFFFFFFFFFFFFFFFFFFFFFFFFFFFFFFF
310
FFFFFFFFFFFFFFFFFFFFFFFFFFFFFFFFFFFFFFFFFFFFFFFFFFFFFFFFFFFFFFFF
310
FFFFFFFFFFFFFFFFFFFFFFFFFFFFFFFFF000FFFFFFFFFFFFFFFFFFFFFFFFFFFF
310
FFFFFFFFFFFFFFFFFFFFFFFFFFFFFFFFFFFFFFFFFFFFFFFFFFFFFFFFFFFFFFFF
310
FFFFFFFFFFFFFFFFFFFFFFFFFFFFFFFFFFFFFFFFFFFFFFFFFFFFFFFFFFFFFFFF
310
FFFFFFFFFFFFFFFFF000FFFFFFFFFFFFFFFFFFFFFFFFFFFFFFFFFFFFFFFFFFFF
310
FFFFFFFFFFFFFFFFFFFFFFFFFFFFFFFFFFFFFFFFFFFFFFFFFFFFFFFFFFFFFFFF
310
FFFFFFFFFFFFFFFFFFFFFFFFFFFFFFFFFFFFFFFFFFFFFFFFFFFFFFFFFFFFFFFF
310
F000FFFFFFFFFFFFFFFFFFFFFFFFFFFFFFFFFFFFFFFFFFFFFFFFFFFFFFFFFFFF
310
FFFFFFFFFFFFFFFFFFFFFFFFFFFFFFFFFFFFFFFFFFFFFFFFFFFFFFFFFFFFFFFF
310
FFFFFFFFFFFFFFFFFFFFFFFFFFFFFFFFFFFFFFFFFFFFFFFFF000FFFFFFFFFFFF
310
FFFFFFFFFFFFFFFFFFFFFFFFFFFFFFFFFFFFFFFFFFFFFFFFFFFFFFFFFFFFFFFF
310
FFFFFFFFFFFFFFFFFFFFFFFFFFFFFFFFFFFFFFFFFFFFFFFFFFFFFFFFFFFFFFFF
310
FFFFFFFFFFFFFFFFFFFFFFFFFFFFFFFFF000FFFFFFFFFFFFFFFFFFFFFFFFFFFF
310
FFFFFFFFFFFFFFFFFFFFFFFFFFFFFFFFFFFFFFFFFFFFFFFFFFFFFFFFFFFFFFFF
310
FFFFFFFFFFFFFFFFFFFFFFFFFFFFFFFFFFFFFFFFFFFFFFFFFFFFFFFFFFFFFFFF
310
FFFFFFFFFFFFFFFFF000FFFFFFFFFFFFFFFFFFFFFFFFFFFFFFFFFFFFFFFFFFFF
310
FFFFFFFFFFFFFFFFFFFFFFFFFFFFFFFFFFFFFFFFFFFFFFFFFFFFFFFFFFFFFFFF
310
FFFFFFFFFFFFFFFFFFFFFFFFFFFFFFFFFFFFFFFFFFFFFFFFFFFFFFFFFFFFFFFF
310
F000FFFFFFFFFFFFFFFFFFFFFFFFFFFFFFFFFFFFFFFFFFFFFFFFFFFFFFFFFFFF
310
FFFFFFFFFFFFFFFFFFFFFFFFFFFFFFFFFFFFFFFFFFFFFFFFFFFFFFFFFFFFFFFF
310
FFFFFFFFFFFFFFFFFFFFFFFFFFFFFFFFFFFFFFFFFFFFFFFFF000FFFFFFFFFFFF
310
FFFFFFFFFFFFFFFFFFFFFFFFFFFFFFFFFFFFFFFFFFFFFFFFFFFFFFFFFFFFFFFF
310
FFFFFFFFFFFFFFFFFFFFFFFFFFFFFFFFFFFFFFFFFFFFFFFFFFFFFFFFFFFFFFFF
310
FFFFFFFFFFFFFFFFFFFFFFFFFFFFFFFFF000FFFFFFFFFFFFFFFFFFFFFFFFFFFF
310
FFFFFFFFFFFFFFFFFFFFFFFFFFFFFFFFFFFFFFFFFFFFFFFFFFFFFFFFFFFFFFFF
310
FFFFFFFFFFFFFFFFFFFFFFFFFFFFFFFFFFFFFFFFFFFFFFFFFFFFFFFFFFFFFFFF
310
FFFFFFFFFFFFFFFFF000FFFFFFFFFFFFFFFFFFFFFFFFFFFFFFFFFFFFFFFFFFFF
310
FFFFFFFFFFFFFFFFFFFFFFFFFFFFFFFFFFFFFFFFFFFFFFFFFFFFFFFFFFFFFFFF
310
FFFFFFFFFFFFFFFFFFFFFFFFFFFFFFFFFFFFFFFFFFFFFFFFFFFFFFFFFFFFFFFF
310
F000FFFFFFFFFFFFFFFFFFFFFFFFFFFFFFFFFFFFFFFFFFFFFFFFFFFFFFFFFFFF
310
FFFFFFFFFFFFFFFFFFFFFFFFFFFFFFFFFFFFFFFFFFFFFFFFFFFFFFFFFFFFFFFF
310
FFFFFFFFFFFFFFFFFFFFFFFFFFFFFFFFFFFFFFFFFFFFFFFFF000FFFFFFFFFFFF
310
FFFFFFFFFFFFFFFFFFFFFFFFFFFFFFFFFFFFFFFFFFFFFFFFFFFFFFFFFFFFFFFF
310
FFFFFFFFFFFFFFFFFFFFFFFFFFFFFFFFFFFFFFFFFFFFFFFFFFFFFFFFFFFFFFFF
310
FFFFFFFFFFFFFFFFFFFFFFFFFFFFFFFFF000FFFFFFFFFFFFFFFFFFFFFFFFFFFF
310
FFFFFFFFFFFFFFFFFFFFFFFFFFFFFFFFFFFFFFFFFFFFFFFFFFFFFFFFFFFFFFFF
310
FFFFFFFFFFFFFFFFFFFFFFFFFFFFFFFFFFFFFFFFFFFFFFFFFFFFFFFFFFFFFFFF
310
FFFFFFFFFFFFFFFFF000FFFFF80003FFFFFFFFFFFFFFFFFFFFFFFFFFFFFFFFFF
310
FFFFF00007FFFFFFFFFF00007FFFFFF800000000000000007FFFFFFFFFFFFFFF
310
FFFFFFFC001FFFFFFFFFFFFFFC001FFFFFFFFFFFFFFFFFFFFFFFFFFE0007FFFF
310
F000FFFF8000007FFFFFFFF8000FFFFFC0007FFFFF80007FFFFF0000007FFFFF
310
FFF8000007FFFFF800000000000000007FFFFFF0001FFFFFFFFFFFC00001FFFF
310
FFFFFFFFC00001FFFFFFFF000000000003FFFFE000007FFFF000FFFE0000000F
310
FFFFFFF0000FFFFF80007FFFFF80007FFFFC0000001FFFFFFFC0000001FFFFF8
310
00000000000000007FFFFFF0001FFFFFFFFFFE0000003FFFFFFFFFFE0000003F
310
FFFFFF000000000003FFFF0000000FFFF000FFF800000003FFFFFFF00007FFFF
310
80007FFFFF80007FFFF000000007FFFFFF000000003FFFF80000000000000000
310
7FFFFFF0001FFFFFFFFFF80000000FFFFFFFFFF80000000FFFFFFF0000000000
310
03FFFC00000003FFF000FFE000000000FFFFFFF00007FFFF80003FFFFF80007F
310
FFC000000001FFFFFC000000001FFFF800000000000000007FFFFFF0001FFFFF
310
FFFFE000000003FFFFFFFFE000000003FFFFFF000000000003FFF000000000FF
310
F000FF80000000007FFFFFF00007FFFF80003FFFFF80007FFF8000000000FFFF
310
F80000000007FFF800000000000000007FFFFFF0001FFFFFFFFFC000000001FF
310
FFFFFFC000000001FFFFFF000000000003FFC0000000007FF000FF0000000000
310
3FFFFFE00007FFFF00003FFFFF80007FFE00000000003FFFF00000000003FFF8
310
00000000000000007FFFFFF0001FFFFFFFFF8000000000FFFFFFFF8000000000
310
FFFFFF000000000003FF80000000003FF000FE00000000001FFFFFE00003FFFF
310
00003FFFFF80007FFC00000000001FFFE00000000001FFF8000001FFFE000000
310
7FFFFFF0001FFFFFFFFE00000000003FFFFFFE00000000003FFFFF0000000000
310
03FF00000000001FF000FC00000000000FFFFFE00003FFFF00001FFFFF80007F
310
F800000000001FFFC00000000000FFF8000001FFFE0000007FFFFFF0001FFFFF
310
FFFC00000000001FFFFFFC00000000001FFFFF000000000003FE00000000000F
310
F000F8000000000007FFFFE00003FFFF00001FFFFF80007FF800000000000FFF
310
800000000000FFF8000001FFFE0000007FFFFFF0001FFFFFFFF800000000000F
310
FFFFF800000000000FFFFF000000000003FC000000000007F000F80000000000
310
03FFFFC00003FFFE00001FFFFF80007FF0000000000007FF0000000000007FF8
310
000001FFFE0000007FFFFFF0001FFFFFFFF0000000000007FFFFF00000000000
310
07FFFF000000000003F8000000000003F000F0000000000003FFFFC00001FFFE
310
00001FFFFF80007FE0000000000007FE0000000000003FF8000001FFFE000000
310
7FFFFFF0001FFFFFFFF0000000000007FFFFF0000000000007FFFF0000000000
310
03F800001F800003F000E00001FFF00001FFFFC00001FFFE00000FFFFF80007F
310
E00001FFE00003FE00001FFF00003FF8000001FFFE0000007FFFFFF0001FFFFF
310
FFE000003E000003FFFFE000003E000003FFFF000000000003F00001FFF80001
310
F000E00007FFFC0001FFFFC00001FFFE00000FFFFF80007FC0000FFFFC0003FC
310
0000FFFFC0001FF8000001FFFE0000007FFFFFF0001FFFFFFFC00003FFE00001
310
FFFFC00003FFE00001FFFF0001FFFFFFFFF00007FFFE0001F000E0000FFFFF00
310
00FFFF800001FFFC00000FFFFF80007FC0001FFFFE0001FC0001FFFFE0001FF8
310
000001FFFE0000007FFFFFF0001FFFFFFF80000FFFF80000FFFF80000FFFF800
310
00FFFF0003FFFFFFFFE0000FFFFF8000F000C0003FFFFF8000FFFF800000FFFC
310
000007FFFF80007F80003FFFFF0001FC0003FFFFF0001FF8000001FFFE000000
310
7FFFFFF0001FFFFFFF80003FFFFE0000FFFF80003FFFFE0000FFFF0003FFFFFF
310
FFE0003FFFFF8000F000C0003FFFFF8000FFFF800000FFFC000007FFFF80007F
310
80007FFFFF8001F80007FFFFF8000FF8000001FFFE0000007FFFFFF0001FFFFF
310
FF00007FFFFF00007FFF00007FFFFF00007FFF0003FFFFFFFFE0003FFFFFC000
310
F000C0007FFFFFC000FFFF000000FFFC000007FFFF80007F8000FFFFFF8000F8
310
000FFFFFF8000FF8000001FFFE0000007FFFFFF0001FFFFFFF0000FFFFFF8000
310
7FFF0000FFFFFF80007FFF0003FFFFFFFFC0007FFFFFC00070008000FFFFFFC0
310
00FFFF000000FFF8000007FFFF80007F8000FFFFFF8000F8000FFFFFF8000FF8
310
000001FFFE0000007FFFFFF0001FFFFFFE0001FFFFFFC0003FFE0001FFFFFFC0
310
003FFF0003FFFFFFFFC0007FFFFFE00070008000FFFFFFC0007FFF0000007FF8
310
000003FFFF80007F0001FFFFFF8000F8000FFFFFF8000FF8000001FFFE000000
310
7FFFFFF0001FFFFFFE0001FFFFFFC0003FFE0001FFFFFFC0003FFF0003FFFFFF
310
FFC000FFFFFFE00070008000FFFFFFC0007FFF0000007FF8000003FFFF80007F
310
0001FFFFFF8000F8001FFFFFF8000FF8000001FFFE0000007FFFFFF0001FFFFF
310
FE0003FFFFFFE0003FFE0003FFFFFFE0003FFF0003FFFFFFFFC000FFFFFFE000
310
70008000FFFFFFC0007FFE0000007FF8000003FFFF80007F0001FFFFFF8000F0
310
001FFFFFF8000FF8000001FFFE0000007FFFFFF0001FFFFFFC0003FFFFFFE000
310
1FFC0003FFFFFFE0001FFF0003FFFFFFFFC000FFFFFFC00070008000FFFFFF80
310
007FFE0000007FF0000003FFFF80007F0001FFFFFF0000F0001FFFFFF8000FF8
310
000001FFFE0000007FFFFFF0001FFFFFFC0007FFFFFFF0001FFC0007FFFFFFF0
310
001FFF0003FFFFFFFFC000FFFFFFC00070008001FFFFFF0000FFFE0000003FF0
310
000001FFFF80007F0001FFFFFF0000F8001FFFFFF0000FF8000001FFFE000000
310
7FFFFFF0001FFFFFFC0007FFFFFFF0001FFC0007FFFFFFF0001FFF0003FFFFFF
310
FFC001FFFFFF80007000FFFFFFFFFE0000FFFE0008003FF0008001FFFF80007F
310
FFFFFFFFFC0000FFFFFFFFFFE0000FF8000001FFFE0000007FFFFFF0001FFFFF
310
F8000FFFFFFFF8000FF8000FFFFFFFF8000FFF0003FFFFFFFFFFFFFFFFFF0000
310
7000FFFFFFFFFC0000FFFC0008003FF0008001FFFF80007FFFFFFFFFF80001FF
310
FFFFFFFF80000FF8000001FFFE0000007FFFFFF0001FFFFFF8000FFFFFFFF800
310
0FF8000FFFFFFFF8000FFF0003FFFFFFFFFFFFFFFFFE0000F000FFFFFFFFE000
310
00FFFC000C003FE000C001FFFF80007FFFFFFFFFC00001FFFFFFFFFE00001FF8
310
000001FFFE0000007FFFFFF0001FFFFFF8000FFFFFFFF8000FF8000FFFFFFFF8
310
000FFF0003FFFFFFFFFFFFFFFFF00000F000FFFFFFFE000001FFFC000C001FE0
310
00C000FFFF80007FFFFFFFFE000001FFFFFFFFE000001FF80FFFFFFFFFFFFFC0
310
7FFFFFF0001FFFFFF8000FFFFFFFF8000FF8000FFFFFFFF8000FFF0003FFFFFF
310
FFFFFFFFFF800000F000FFFFFFC0000001FFFC001C001FE001C000FFFF80007F
310
FFFFFF80000003FFFFFFF80000001FF80FFFFFFFFFFFFFC07FFFFFF0001FFFFF
310
F8001FFFFFFFFC000FF8001FFFFFFFFC000FFF0003FFFFFFFFFFFFFFF0000001
310
F000FFFFF800000001FFF8001C001FE001C000FFFF80007FFFFFF800000003FF
310
FFFF800000003FF80FFFFFFFFFFFFFC07FFFFFF0001FFFFFF8001FFFFFFFFC00
310
0FF8001FFFFFFFFC000FFF0003FFFFFFFFFFFFFE00000001F000FFFFC0000000
310
03FFF8001E001FC001E000FFFF80007FFFFF8000000007FFFFFC000000003FF8
310
0FFFFFFFFFFFFFC07FFFFFF0001FFFFFF8001FFFFFFFFC000FF8001FFFFFFFFC
310
000FFF0003FFFFFFFFFFFFE000000003F000FFFE0000000007FFF8001E000FC0
310
01E0007FFF80007FFFFE0000000007FFFFE0000000007FF80FFFFFFFFFFFFFC0
310
7FFFFFF0001FFFFFF0001FFFFFFFFC0007F0001FFFFFFFFC0007FF0003FFFFFF
310
FFFFFF0000000003F000FFF80000000007FFF8001E000FC003E0007FFF80007F
310
FFF0000000000FFFFF8000000000FFF80FFFFFFFFFFFFFC07FFFFFF0001FFFFF
310
F0001FFFFFFFFC0007F0001FFFFFFFFC0007FF0003FFFFFFFFFFFC0000000007
310
F000FFE0000000000FFFF0003E000FC003E0007FFF80007FFFC0000000001FFF
310
FE0000000001FFF80FFFFFFFFFFFFFC07FFFFFF0001FFFFFF0001FFFFFFFFC00
310
07F0001FFFFFFFFC0007FF0003FFFFFFFFFFF0000000000FF000FFC000000000
310
1FFFF0003F000F8003F0003FFF80007FFF80000000003FFFF80000000003FFF8
310
0FFFFFFFFFFFFFC07FFFFFF0001FFFFFF0001FFFFFFFFC0007F0001FFFFFFFFC
310
0007FF0003FFFFFFFFFFE0000000001FF000FF00000000007FFFF0003F000780
310
03F0003FFF80007FFF00000000007FFFF00000000007FFF80FFFFFFFFFFFFFC0
310
7FFFFFF0001FFFFFF0001FFFFFFFFC0007F0001FFFFFFFFC0007FF0003FFFFFF
310
FFFF80000000007FF000FE0000000000FFFFE0003F00078007F0003FFF80007F
310
FE0000000001FFFFE0000000001FFFF80FFFFFFFFFFFFFC07FFFFFF0001FFFFF
310
F0001FFFFFFFFC0007F0001FFFFFFFFC0007FF0003FFFFFFFFFF0000000000FF
310
F000FC0000000003FFFFE0007F00078007F0003FFF80007FFC0000000007FFFF
310
C0000000007FFFF80FFFFFFFFFFFFFC07FFFFFF0001FFFFFF8001FFFFFFFFC00
310
0FF8001FFFFFFFFC000FFF0003FFFFFFFFFE0000000003FFF000FC000000000F
310
FFFFE0007F80070007F8001FFF80007FF8000000001FFFFF8000000001FFFFF8
310
0FFFFFFFFFFFFFC07FFFFFF0001FFFFFF8001FFFFFFFFC000FF8001FFFFFFFFC
310
000FFF0003FFFFFFFFFC000000000FFFF000F8000000007FFFFFE0007F800700
310
07F8001FFF80007FF000000000FFFFFF800000000FFFFFF80FFFFFFFFFFFFFC0
310
7FFFFFF0001FFFFFF8000FFFFFFFF8000FF8000FFFFFFFF8000FFF0003FFFFFF
310
FFFC000000007FFFF000F800000007FFFFFFC0007F8003000FF8001FFF80007F
310
F000000007FFFFFF000000007FFFFFF80FFFFFFFFFFFFFC07FFFFFF0001FFFFF
310
F8000FFFFFFFF8000FF8000FFFFFFFF8000FFF0003FFFFFFFFF80000000FFFFF
310
F000F0000000FFFFFFFFC000FF8003000FF8001FFF80007FE0000000FFFFFFFF
310
0000000FFFFFFFF8000001FFFE0000007FFFFFF0001FFFFFF8000FFFFFFFF800
310
0FF8000FFFFFFFF8000FFF0003FFFFFFFFF8000000FFFFFFF000F000000FFFFF
310
FFFFC000FFC002000FF8000FFF80007FE000001FFFFFFFFE000001FFFFFFFFF8
310
000001FFFE0000007FFFFFF0001FFFFFF8000FFFFFFFF8000FF8000FFFFFFFF8
310
000FFF0003FFFFFFFFF000001FFFFFFFF000E00000FFFFFFFFFFC000FFC00200
310
0FFC000FFF80007FE00001FFFFFFFFFE00001FFFFFFFFFF8000001FFFE000000
310
7FFFFFF0001FFFFFFC000FFFFFFFF8001FFC000FFFFFFFF8001FFF0003FFFFFF
310
FFF00001FFFFFFFFF000E00007FFFFFFFFFF8000FFC000001FFC000FFF80007F
310
C0000FFFFFFFFFFE0000FFFFFFFFFFF8000001FFFE0000007FFFFFF0001FFFFF
310
FC0007FFFFFFF0001FFC0007FFFFFFF0001FFF0003FFFFFFFFF00007FFFFFFFF
310
F000E0001FFFFFFFFFFF8000FFC000001FFC000FFF80007FC0003FFFFFFFFFFE
310
0001FFFFFFFFFFF8000001FFFE0000007FFFFFF0001FFFFFFC0007FFFFFFF000
310
1FFC0007FFFFFFF0001FFF0003FFFFFFFFF0001FFFFFFFFFF000E0003FFFFF00
310
03FF8001FFE000001FFC0007FF80007FC0007FFFFF0007FC0003FFFFF0003FF8
310
000001FFFE0000007FFFFFF0001FFFFFFC0003FFFFFFE0001FFC0003FFFFFFE0
310
001FFF0003FFFFFFFFF0003FFFFFFFFFF000E0003FFFFF0001FF8001FFE00000
310
1FFE0007FF80007FC0007FFFFE0003FC0007FFFFE0003FF8000001FFFE000000
310
7FFFFFF0001FFFFFFE0003FFFFFFE0003FFE0003FFFFFFE0003FFF0003FFFFFF
310
FFF0003FFFFF8001F000E0003FFFFF0001FF0001FFE000001FFE0007FF80007F
310
C0007FFFFE0003FC0007FFFFE0003FF8000001FFFE0000007FFFFFF0001FFFFF
310
FE0001FFFFFFC0003FFE0001FFFFFFC0003FFF0003FFFFFFFFF0003FFFFF0001
310
F000E0003FFFFF0003FF0001FFE000003FFE0007FF80007FC0007FFFFE0003FC
310
0007FFFFE0003FF8000001FFFE0000007FFFFFF0001FFFFFFF0001FFFFFFC000
310
7FFF0001FFFFFFC0007FFF0003FFFFFFFFF0003FFFFF0001F000E0003FFFFE00
310
03FF0003FFF000003FFE0003FF80007FC0007FFFFC0003FE0007FFFFE0003FF8
310
000001FFFE0000007FFFFFF0001FFFFFFF0000FFFFFF80007FFF0000FFFFFF80
310
007FFF0003FFFFFFFFF0003FFFFF0001F000E0003FFFFE0003FF0003FFF00000
310
3FFF0003FF80007FC0007FFFFC0007FE0007FFFFC0003FF8000001FFFE000000
310
7FFFFFF0001FFFFFFF80007FFFFF0000FFFF80007FFFFF0000FFFF0003FFFFFF
310
FFF0003FFFFF0003F000E0003FFFFC0003FE0003FFF000003FFF0003FF80007F
310
E0003FFFF80007FE0003FFFFC0007FF8000001FFFE0000007FFFFFF0001FFFFF
310
FF80003FFFFE0000FFFF80003FFFFE0000FFFF0003FFFFFFFFF0001FFFFE0003
310
F000F0001FFFF80003FE0003FFF000007FFF0001FF80007FE0003FFFF00007FE
310
0001FFFF80007FF8000001FFFE0000007FFFFFF0001FFFFFFFC0000FFFF80001
310
FFFFC0000FFFF80001FFFF0003FFFFFFFFF0001FFFFC0003F000F0000FFFF000
310
07FE0007FFF800007FFF0001FF80007FE0001FFFE00007FF0000FFFE00007FF8
310
000001FFFE0000007FFFFFF0001FFFFFFFC00003FFE00001FFFFC00003FFE000
310
01FFFF0003FFFFFFFFF8000FFFF80003F000F00003FFC00007FC0007FFF80000
310
7FFF8001FF80007FF00007FF80000FFF00007FF80000FFF8000001FFFE000000
310
7F80000000000001FFE000003E000003FFFFE000003E000003FFFF0003FFFFFF
310
FFF80003FFE00007F000F800000000000FFC0007FFF800007FFF8001FF80007F
310
F000000000000FFF000000000000FFF8000001FFFE0000007F80000000000001
310
FFF0000000000007FFFFF0000000000007FFFF0003FFFFFFFFFC00007E000007
310
F000F800000000000FFC0007FFF80000FFFF8000FF80007FF800000000001FFF
310
800000000001FFF8000001FFFE0000007F80000000000001FFF800000000000F
310
FFFFF800000000000FFFFF0003FFFFFFFFFC00000000000FF000FC0000000000
310
1FFC0007FFFC0000FFFF8000FF80007FF800000000003FFFC00000000001FFF8
310
000001FFFE0000007F80000000000001FFF800000000000FFFFFF80000000000
310
0FFFFF0003FFFFFFFFFE00000000001FF000FE00000000003FF8000FFFFC0000
310
FFFF8000FF80007FFC00000000003FFFC00000000003FFF8000001FFFE000000
310
7F80000000000001FFFC00000000001FFFFFFC00000000001FFFFF0003FFFFFF
310
FFFF00000000001FF000FF00000000003FF8000FFFFC0000FFFFC000FF80007F
310
FE00000000007FFFE00000000007FFF8000001FFFE0000007F80000000000001
310
FFFE00000000003FFFFFFE00000000003FFFFF0003FFFFFFFFFF80000000003F
310
F000FF80000000007FF8000FFFFC0001FFFFC0007F80007FFF0000000000FFFF
310
F0000000000FFFF800000000000000007F80000000000001FFFF8000000000FF
310
FFFFFF8000000000FFFFFF0003FFFFFFFFFFC0000000007FF000FFC000000000
310
FFF8000FFFFE0001FFFFC0007F80007FFF8000000001FFFFF8000000001FFFF8
310
00000000000000007F80000000000001FFFFC000000001FFFFFFFFC000000001
310
FFFFFF0003FFFFFFFFFFE000000000FFF000FFE000000003FFF0001FFFFE0001
310
FFFFC0007F80007FFFC000000007FFFFFE000000003FFFF80000000000000000
310
7F80000000000001FFFFE000000003FFFFFFFFE000000003FFFFFF0003FFFFFF
310
FFFFF000000003FFF000FFF80000000FFFF0001FFFFE0001FFFFE0007F80007F
310
FFF00000000FFFFFFF00000000FFFFF800000000000000007F80000000000001
310
FFFFF80000000FFFFFFFFFF80000000FFFFFFF0003FFFFFFFFFFFC0000000FFF
310
F000FFFE0000003FFFF0001FFFFE0003FFFFE0003F80007FFFFC0000003FFFFF
310
FFC0000003FFFFF800000000000000007F80000000000001FFFFFE0000003FFF
310
FFFFFFFE0000003FFFFFFF0003FFFFFFFFFFFF0000003FFFF000FFFF800000FF
310
FFF0001FFFFF0003FFFFE0003F80007FFFFF000001FFFFFFFFF800001FFFFFF8
310
00000000000000007F80000000000001FFFFFFC00001FFFFFFFFFFFFC00001FF
310
FFFFFF0003FFFFFFFFFFFFC00000FFFFF000FFFFF8000FFFFFFFFFFFFFFFFFFF
310
FFFFFFFFFFFFFFFFFFFFF0001FFFFFFFFFFF0000FFFFFFF80000000000000000
310
7FFFFFFFFFFFFFFFFFFFFFFC001FFFFFFFFFFFFFFC001FFFFFFFFFFFFFFFFFFF
310
FFFFFFFC001FFFFFF000FFFFFFFFFFFFFFFFFFFFFFFFFFFFFFFFFFFFFFFFFFFF
310
FFFFFFFFFFFFFFFFFFFFFFFFFFFFFFFFFFFFFFFFFFFFFFFFFFFFFFFFFFFFFFFF
310
FFFFFFFFFFFFFFFFFFFFFFFFFFFFFFFFFFFFFFFFFFFFFFFFFFFFFFFFFFFFFFFF
310
F000FFFFFFFFFFFFFFFFFFFFFFFFFFFFFFFFFFFFFFFFFFFFFFFFFFFFFFFFFFFF
310
FFFFFFFFFFFFFFFFFFFFFFFFFFFFFFFFFFFFFFFFFFFFFFFFFFFFFFFFFFFFFFFF
310
FFFFFFFFFFFFFFFFFFFFFFFFFFFFFFFFFFFFFFFFFFFFFFFFF000FFFFFFFFFFFF
310
FFFFFFFFFFFFFFFFFFFFFFFFFFFFFFFFFFFFFFFFFFFFFFFFFFFFFFFFFFFFFFFF
310
FFFFFFFFFFFFFFFFFFFFFFFFFFFFFFFFFFFFFFFFFFFFFFFFFFFFFFFFFFFFFFFF
310
FFFFFFFFFFFFFFFFFFFFFFFFFFFFFFFFF000FFFFFFFFFFFFFFFFFFFFFFFFFFFF
310
FFFFFFFFFFFFFFFFFFFFFFFFFFFFFFFFFFFFFFFFFFFFFFFFFFFFFFFFFFFFFFFF
310
FFFFFFFFFFFFFFFFFFFFFFFFFFFFFFFFFFFFFFFFFFFFFFFFFFFFFFFFFFFFFFFF
310
FFFFFFFFFFFFFFFFF000FFFFFFFFFFFFFFFFFFFFFFFFFFFFFFFFFFFFFFFFFFFF
310
FFFFFFFFFFFFFFFFFFFFFFFFFFFFFFFFFFFFFFFFFFFFFFFFFFFFFFFFFFFFFFFF
310
FFFFFFFFFFFFFFFFFFFFFFFFFFFFFFFFFFFFFFFFFFFFFFFFFFFFFFFFFFFFFFFF
310
F000FFFFFFFFFFFFFFFFFFFFFFFFFFFFFFFFFFFFFFFFFFFFFFFFFFFFFFFFFFFF
310
FFFFFFFFFFFFFFFFFFFFFFFFFFFFFFFFFFFFFFFFFFFFFFFFFFFFFFFFFFFFFFFF
310
FFFFFFFFFFFFFFFFFFFFFFFFFFFFFFFFFFFFFFFFFFFFFFFFF000FFFFFFFFFFFF
310
FFFFFFFFFFFFFFFFFFFFFFFFFFFFFFFFFFFFFFFFFFFFFFFFFFFFFFFFFFFFFFFF
310
FFFFFFFFFFFFFFFFFFFFFFFFFFFFFFFFFFFFFFFFFFFFFFFFFFFFFFFFFFFFFFFF
310
FFFFFFFFFFFFFFFFFFFFFFFFFFFFFFFFF000FFFFFFFFFFFFFFFFFFFFFFFFFFFF
310
FFFFFFFFFFFFFFFFFFFFFFFFFFFFFFFFFFFFFFFFFFFFFFFFFFFFFFFFFFFFFFFF
310
FFFFFFFFFFFFFFFFFFFFFFFFFFFFFFFFFFFFFFFFFFFFFFFFFFFFFFFFFFFFFFFF
310
FFFFFFFFFFFFFFFFF000FFFFFFFFFFFFFFFFFFFFFFFFFFFFFFFFFFFFFFFFFFFF
310
FFFFFFFFFFFFFFFFFFFFFFFFFFFFFFFFFFFFFFFFFFFFFFFFFFFFFFFFFFFFFFFF
310
FFFFFFFFFFFFFFFFFFFFFFFFFFFFFFFFFFFFFFFFFFFFFFFFFFFFFFFFFFFFFFFF
310
F000FFFFFFFFFFFFFFFFFFFFFFFFFFFFFFFFFFFFFFFFFFFFFFFFFFFFFFFFFFFF
310
FFFFFFFFFFFFFFFFFFFFFFFFFFFFFFFFFFFFFFFFFFFFFFFFFFFFFFFFFFFFFFFF
310
FFFFFFFFFFFFFFFFFFFFFFFFFFFFFFFFFFFFFFFFFFFFFFFFF000FFFFFFFFFFFF
310
FFFFFFFFFFFFFFFFFFFFFFFFFFFFFFFFFFFFFFFFFFFFFFFFFFFFFFFFFFFFFFFF
310
FFFFFFFFFFFFFFFFFFFFFFFFFFFFFFFFFFFFFFFFFFFFFFFFFFFFFFFFFFFFFFFF
310
FFFFFFFFFFFFFFFFFFFFFFFFFFFFFFFFF000FFFFFFFFFFFFFFFFFFFFFFFFFFFF
310
FFFFFFFFFFFFFFFFFFFFFFFFFFFFFFFFFFFFFFFFFFFFFFFFFFFFFFFFFFFFFFFF
310
FFFFFFFFFFFFFFFFFFFFFFFFFFFFFFFFFFFFFFFFFFFFFFFFFFFFFFFFFFFFFFFF
310
FFFFFFFFFFFFFFFFF000FFFFFFFFFFFFFFFFFFFFFFFFFFFFFFFFFFFFFFFFFFFF
310
FFFFFFFFFFFFFFFFFFFFFFFFFFFFFFFFFFFFFFFFFFFFFFFFFFFFFFFFFFFFFFFF
310
FFFFFFFFFFFFFFFFFFFFFFFFFFFFFFFFFFFFFFFFFFFFFFFFFFFFFFFFFFFFFFFF
310
F000FFFFFFFFFFFFFFFFFFFFFFFFFFFFFFFFFFFFFFFFFFFFFFFFFFFFFFFFFFFF
310
FFFFFFFFFFFFFFFFFFFFFFFFFFFFFFFFFFFFFFFFFFFFFFFFFFFFFFFFFFFFFFFF
310
FFFFFFFFFFFFFFFFFFFFFFFFFFFFFFFFFFFFFFFFFFFFFFFFF000FFFFFFFFFFFF
310
FFFFFFFFFFFFFFFFFFFFFFFFFFFFFFFFFFFFFFFFFFFFFFFFFFFFFFFFFFFFFFFF
310
FFFFFFFFFFFFFFFFFFFFFFFFFFFFFFFFFFFFFFFFFFFFFFFFFFFFFFFFFFFFFFFF
310
FFFFFFFFFFFFFFFFFFFFFFFFFFFFFFFFF000FFFFFFFFFFFFFFFFFFFFFFFFFFFF
310
FFFFFFFFFFFFFFFFFFFFFFFFFFFFFFFFFFFFFFFFFFFFFFFFFFFFFFFFFFFFFFFF
310
FFFFFFFFFFFFFFFFFFFFFFFFFFFFFFFFFFFFFFFFFFFFFFFFFFFFFFFFFFFFFFFF
310
FFFFFFFFFFFFFFFFF000FFFFFFFFFFFFFFFFFFFFFFFFFFFFFFFFFFFFFFFFFFFF
310
FFFFFFFFFFFFFFFFFFFFFFFFFFFFFFFFFFFFFFFFFFFFFFFFFFFFFFFFFFFFFFFF
310
FFFFFFFFFFFFFFFFFFFFFFFFFFFFFFFFFFFFFFFFFFFFFFFFFFFFFFFFFFFFFFFF
310
F000FFFFFFFFFFFFFFFFFFFFFFFFFFFFFFFFFFFFFFFFFFFFFFFFFFFFFFFFFFFF
310
FFFFFFFFFFFFFFFFFFFFFFFFFFFFFFFFFFFFFFFFFFFFFFFFFFFFFFFFFFFFFFFF
310
FFFFFFFFFFFFFFFFFFFFFFFFFFFFFFFFFFFFFFFFFFFFFFFFF000FFFFFFFFFFFF
310
FFFFFFFFFFFFFFFFFFFFFFFFFFFFFFFFFFFFFFFFFFFFFFFFFFFFFFFFFFFFFFFF
310
FFFFFFFFFFFFFFFFFFFFFFFFFFFFFFFFFFFFFFFFFFFFFFFFFFFFFFFFFFFFFFFF
310
FFFFFFFFFFFFFFFFFFFFFFFFFFFFFFFFF000FFFFFFFFFFFFFFFFFFFFFFFFFFFF
310
FFFFFFFFFFFFFFFFFFFFFFFFFFFFFFFFFFFFFFFFFFFFFFFFFFFFFFFFFFFFFFFF
310
FFFFFFFFFFFFFFFFFFFFFFFFFFFFFFFFFFFFFFFFFFFFFFFFFFFFFFFFFFFFFFFF
310
FFFFFFFFFFFFFFFFF000FFFFFFFFFFFFFFFFFFFFFFFFFFFFFFFFFFFFFFFFFFFF
310
FFFFFFFFFFFFFFFFFFFFFFFFFFFFFFFFFFFFFFFFFFFFFFFFFFFFFFFFFFFFFFFF
310
FFFFFFFFFFFFFFFFFFFFFFFFFFFFFFFFFFFFFFFFFFFFFFFFFFFFFFFFFFFFFFFF
310
F000FFFFFFFFFFFFFFFFFFFFFFFFFFFFFFFFFFFFFFFFFFFFFFFFFFFFFFFFFFFF
310
FFFFFFFFFFFFFFFFFFFFFFFFFFFFFFFFFFFFFFFFFFFFFFFFFFFFFFFFFFFFFFFF
310
FFFFFFFFFFFFFFFFFFFFFFFFFFFFFFFFFFFFFFFFFFFFFFFFF000FFFFFFFFFFFF
310
FFFFFFFFFFFFFFFFFFFFFFFFFFFFFFFFFFFFFFFFFFFFFFFFFFFFFFFFFFFFFFFF
310
FFFFFFFFFFFFFFFFFFFFFFFFFFFFFFFFFFFFFFFFFFFFFFFFFFFFFFFFFFFFFFFF
310
FFFFFFFFFFFFFFFFFFFFFFFFFFFFFFFFF0000000000000000000000000000000
310
0000000000000000000000000000000000000000000000000000000000000000
310
0000000000000000000000000000000000000000000000000000000000000000
310
0000000000000000000000000000000000000000000000000000000000000000
310
0000000000000000000000000000000000000000000000000000000000000000
310
0000000000000000000000000000000000000000000000000000000000000000
310
0000000000000000000000000000000000000000000000000000000000000000
310
0000000000000000000000000000000000000000000000000000000000000000
310
0000000000000000000000000000000000000000000000000000000000000000
310
0000000000000000000000000000000000000000000000000000000000000000
310
0000000000000000000000000000000000000000000000000000000000000000
310
0000000000000000000000000000000000000000000000000000000000000000
310
0000000000000000000000000000000000000000000000000000000000000000
310
0000000000000000000000000000000000000000000000000000000000000000
310
0000000000000000000000000000000000000000000000000000000000000000
310
0000000000000000000000000000000000000000000000000000000000000000
  1
OLE
  0
ENDSEC
  0
SECTION
  2
OBJECTS
  0
DICTIONARY
  5
C
330
0
100
AcDbDictionary
281
     1
  3
ACAD_GROUP
350
D
  3
ACAD_LAYOUT
350
1A
  3
ACAD_MLINESTYLE
350
17
  3
ACAD_PLOTSETTINGS
350
19
  3
ACAD_PLOTSTYLENAME
350
E
  3
ACAD_SCALELIST
350
47
  0
DICTIONARY
  5
D
102
{ACAD_REACTORS
330
C
102
}
330
C
100
AcDbDictionary
281
     1
  0
DICTIONARY
  5
1A
102
{ACAD_REACTORS
330
C
102
}
330
C
100
AcDbDictionary
281
     1
  3
Layout1
350
1E
  3
Layout2
350
26
  3
Model
350
22
  0
DICTIONARY
  5
17
102
{ACAD_REACTORS
330
C
102
}
330
C
100
AcDbDictionary
281
     1
  3
Standard
350
18
  0
DICTIONARY
  5
19
102
{ACAD_REACTORS
330
C
102
}
330
C
100
AcDbDictionary
281
     1
  0
ACDBDICTIONARYWDFLT
  5
E
102
{ACAD_REACTORS
330
C
102
}
330
C
100
AcDbDictionary
281
     1
  3
Normal
350
F
100
AcDbDictionaryWithDefault
340
F
  0
DICTIONARY
  5
47
102
{ACAD_REACTORS
330
C
102
}
330
C
100
AcDbDictionary
281
     1
  3
A0
350
48
  3
A1
350
49
  3
A2
350
4A
  3
A3
350
4B
  3
A4
350
4C
  3
A5
350
4D
  3
A6
350
4E
  3
A7
350
4F
  3
A8
350
50
  3
A9
350
51
  3
B0
350
52
  3
B1
350
53
  3
B2
350
54
  3
B3
350
55
  3
B4
350
56
  3
B5
350
57
  3
B6
350
58
  3
B7
350
59
  3
B8
350
5A
  3
B9
350
5B
  3
C0
350
5C
  3
C1
350
5D
  3
C2
350
5E
  3
C3
350
5F
  3
C4
350
60
  3
C5
350
61
  3
C6
350
62
  3
C7
350
63
  3
C8
350
64
  3
C9
350
65
  3
D0
350
66
  3
D1
350
67
  3
D2
350
68
  0
LAYOUT
  5
1E
102
{ACAD_REACTORS
330
1A
102
}
330
1A
100
AcDbPlotSettings
  1

  2
none_device
  4

  6

 40
0.0
 41
0.0
 42
0.0
 43
0.0
 44
0.0
 45
0.0
 46
0.0
 47
0.0
 48
0.0
 49
0.0
140
0.0
141
0.0
142
1.0
143
1.0
 70
   688
 72
     1
 73
     0
 74
     5
  7

 75
    16
147
1.0
148
0.0
149
0.0
100
AcDbLayout
  1
Layout1
 70
     1
 71
     1
 10
0.0
 20
0.0
 11
420.0
 21
297.0
 12
0.0
 22
0.0
 32
0.0
 14
1.0000000000E+20
 24
1.0000000000E+20
 34
1.0000000000E+20
 15
-1.0000000000E+20
 25
-1.0000000000E+20
 35
-1.0000000000E+20
146
0.0
 13
0.0
 23
0.0
 33
0.0
 16
1.0
 26
0.0
 36
0.0
 17
0.0
 27
1.0
 37
0.0
 76
     0
330
1B
  0
LAYOUT
  5
26
102
{ACAD_REACTORS
330
1A
102
}
330
1A
100
AcDbPlotSettings
  1

  2
none_device
  4

  6

 40
0.0
 41
0.0
 42
0.0
 43
0.0
 44
0.0
 45
0.0
 46
0.0
 47
0.0
 48
0.0
 49
0.0
140
0.0
141
0.0
142
1.0
143
1.0
 70
   688
 72
     1
 73
     0
 74
     5
  7

 75
    16
147
1.0
148
0.0
149
0.0
100
AcDbLayout
  1
Layout2
 70
     1
 71
     2
 10
0.0
 20
0.0
 11
0.0
 21
0.0
 12
0.0
 22
0.0
 32
0.0
 14
0.0
 24
0.0
 34
0.0
 15
0.0
 25
0.0
 35
0.0
146
0.0
 13
0.0
 23
0.0
 33
0.0
 16
1.0
 26
0.0
 36
0.0
 17
0.0
 27
1.0
 37
0.0
 76
     0
330
23
  0
LAYOUT
  5
22
102
{ACAD_REACTORS
330
1A
102
}
330
1A
100
AcDbPlotSettings
  1

  2
none_device
  4
Letter_(8.50_x_11.00_Inches)
  6

 40
6.35
 41
6.35
 42
6.35000508
 43
6.35000508
 44
215.9
 45
279.4
 46
0.0
 47
0.0
 48
0.0
 49
0.0
140
0.0
141
0.0
142
1.0
143
1.0
 70
  1712
 72
     1
 73
     0
 74
     0
  7

 75
     0
147
1.0
148
0.0
149
0.0
100
AcDbLayout
  1
Model
 70
     1
 71
     0
 10
0.0
 20
0.0
 11
297.0
 21
210.0
 12
0.0
 22
0.0
 32
0.0
 14
0.0
 24
0.0
 34
0.0
 15
297.0
 25
210.0
 35
0.0
146
0.0
 13
0.0
 23
0.0
 33
0.0
 16
1.0
 26
0.0
 36
0.0
 17
0.0
 27
1.0
 37
0.0
 76
     0
330
1F
331
29
  0
MLINESTYLE
  5
18
102
{ACAD_REACTORS
330
17
102
}
330
17
100
AcDbMlineStyle
  2
Standard
 70
     0
  3

 62
   256
 51
90.0
 52
90.0
 71
     2
 49
0.5
 62
   256
  6
BYLAYER
 49
-0.5
 62
   256
  6
BYLAYER
  0
ACDBPLACEHOLDER
  5
F
102
{ACAD_REACTORS
330
E
102
}
330
E
  0
SCALE
  5
48
102
{ACAD_REACTORS
330
47
102
}
330
47
100
AcDbScale
 70
     0
300
1:1
140
1.0
141
1.0
290
     1
  0
SCALE
  5
49
102
{ACAD_REACTORS
330
47
102
}
330
47
100
AcDbScale
 70
     0
300
1:2
140
1.0
141
2.0
290
     0
  0
SCALE
  5
4A
102
{ACAD_REACTORS
330
47
102
}
330
47
100
AcDbScale
 70
     0
300
1:4
140
1.0
141
4.0
290
     0
  0
SCALE
  5
4B
102
{ACAD_REACTORS
330
47
102
}
330
47
100
AcDbScale
 70
     0
300
1:5
140
1.0
141
5.0
290
     0
  0
SCALE
  5
4C
102
{ACAD_REACTORS
330
47
102
}
330
47
100
AcDbScale
 70
     0
300
1:8
140
1.0
141
8.0
290
     0
  0
SCALE
  5
4D
102
{ACAD_REACTORS
330
47
102
}
330
47
100
AcDbScale
 70
     0
300
1:10
140
1.0
141
10.0
290
     0
  0
SCALE
  5
4E
102
{ACAD_REACTORS
330
47
102
}
330
47
100
AcDbScale
 70
     0
300
1:16
140
1.0
141
16.0
290
     0
  0
SCALE
  5
4F
102
{ACAD_REACTORS
330
47
102
}
330
47
100
AcDbScale
 70
     0
300
1:20
140
1.0
141
20.0
290
     0
  0
SCALE
  5
50
102
{ACAD_REACTORS
330
47
102
}
330
47
100
AcDbScale
 70
     0
300
1:30
140
1.0
141
30.0
290
     0
  0
SCALE
  5
51
102
{ACAD_REACTORS
330
47
102
}
330
47
100
AcDbScale
 70
     0
300
1:40
140
1.0
141
40.0
290
     0
  0
SCALE
  5
52
102
{ACAD_REACTORS
330
47
102
}
330
47
100
AcDbScale
 70
     0
300
1:50
140
1.0
141
50.0
290
     0
  0
SCALE
  5
53
102
{ACAD_REACTORS
330
47
102
}
330
47
100
AcDbScale
 70
     0
300
1:100
140
1.0
141
100.0
290
     0
  0
SCALE
  5
54
102
{ACAD_REACTORS
330
47
102
}
330
47
100
AcDbScale
 70
     0
300
2:1
140
2.0
141
1.0
290
     0
  0
SCALE
  5
55
102
{ACAD_REACTORS
330
47
102
}
330
47
100
AcDbScale
 70
     0
300
4:1
140
4.0
141
1.0
290
     0
  0
SCALE
  5
56
102
{ACAD_REACTORS
330
47
102
}
330
47
100
AcDbScale
 70
     0
300
8:1
140
8.0
141
1.0
290
     0
  0
SCALE
  5
57
102
{ACAD_REACTORS
330
47
102
}
330
47
100
AcDbScale
 70
     0
300
10:1
140
10.0
141
1.0
290
     0
  0
SCALE
  5
58
102
{ACAD_REACTORS
330
47
102
}
330
47
100
AcDbScale
 70
     0
300
100:1
140
100.0
141
1.0
290
     0
  0
SCALE
  5
59
102
{ACAD_REACTORS
330
47
102
}
330
47
100
AcDbScale
 70
     0
300
1/128" = 1'-0"
140
0.0078125
141
12.0
290
     0
  0
SCALE
  5
5A
102
{ACAD_REACTORS
330
47
102
}
330
47
100
AcDbScale
 70
     0
300
1/64" = 1'-0"
140
0.015625
141
12.0
290
     0
  0
SCALE
  5
5B
102
{ACAD_REACTORS
330
47
102
}
330
47
100
AcDbScale
 70
     0
300
1/32" = 1'-0"
140
0.03125
141
12.0
290
     0
  0
SCALE
  5
5C
102
{ACAD_REACTORS
330
47
102
}
330
47
100
AcDbScale
 70
     0
300
1/16" = 1'-0"
140
0.0625
141
12.0
290
     0
  0
SCALE
  5
5D
102
{ACAD_REACTORS
330
47
102
}
330
47
100
AcDbScale
 70
     0
300
3/32" = 1'-0"
140
0.09375
141
12.0
290
     0
  0
SCALE
  5
5E
102
{ACAD_REACTORS
330
47
102
}
330
47
100
AcDbScale
 70
     0
300
1/8" = 1'-0"
140
0.125
141
12.0
290
     0
  0
SCALE
  5
5F
102
{ACAD_REACTORS
330
47
102
}
330
47
100
AcDbScale
 70
     0
300
3/16" = 1'-0"
140
0.1875
141
12.0
290
     0
  0
SCALE
  5
60
102
{ACAD_REACTORS
330
47
102
}
330
47
100
AcDbScale
 70
     0
300
1/4" = 1'-0"
140
0.25
141
12.0
290
     0
  0
SCALE
  5
61
102
{ACAD_REACTORS
330
47
102
}
330
47
100
AcDbScale
 70
     0
300
3/8" = 1'-0"
140
0.375
141
12.0
290
     0
  0
SCALE
  5
62
102
{ACAD_REACTORS
330
47
102
}
330
47
100
AcDbScale
 70
     0
300
1/2" = 1'-0"
140
0.5
141
12.0
290
     0
  0
SCALE
  5
63
102
{ACAD_REACTORS
330
47
102
}
330
47
100
AcDbScale
 70
     0
300
3/4" = 1'-0"
140
0.75
141
12.0
290
     0
  0
SCALE
  5
64
102
{ACAD_REACTORS
330
47
102
}
330
47
100
AcDbScale
 70
     0
300
1" = 1'-0"
140
1.0
141
12.0
290
     0
  0
SCALE
  5
65
102
{ACAD_REACTORS
330
47
102
}
330
47
100
AcDbScale
 70
     0
300
1-1/2" = 1'-0"
140
1.5
141
12.0
290
     0
  0
SCALE
  5
66
102
{ACAD_REACTORS
330
47
102
}
330
47
100
AcDbScale
 70
     0
300
3" = 1'-0"
140
3.0
141
12.0
290
     0
  0
SCALE
  5
67
102
{ACAD_REACTORS
330
47
102
}
330
47
100
AcDbScale
 70
     0
300
6" = 1'-0"
140
6.0
141
12.0
290
     0
  0
SCALE
  5
68
102
{ACAD_REACTORS
330
47
102
}
330
47
100
AcDbScale
 70
     0
300
1'-0" = 1'-0"
140
12.0
141
12.0
290
     0
  0
ENDSEC
  0
EOF
