  0
SECTION
  2
HEADER
  9
$ACADVER
  1
AC1015
  9
$ACADMAINTVER
 70
     6
  9
$DWGCODEPAGE
  3
ANSI_1252
  9
$INSBASE
 10
0.0
 20
0.0
 30
0.0
  9
$EXTMIN
 10
0.0
 20
0.0
 30
0.0
  9
$EXTMAX
 10
297.0
 20
210.0
 30
0.0
  9
$LIMMIN
 10
0.0
 20
0.0
  9
$LIMMAX
 10
297.0
 20
210.0
  9
$ORTHOMODE
 70
     0
  9
$REGENMODE
 70
     1
  9
$FILLMODE
 70
     1
  9
$QTEXTMODE
 70
     0
  9
$MIRRTEXT
 70
     1
  9
$LTSCALE
 40
1.0
  9
$ATTMODE
 70
     1
  9
$TEXTSIZE
 40
2.0
  9
$TRACEWID
 40
1.0
  9
$TEXTSTYLE
  7
Standard
  9
$CLAYER
  8
0
  9
$CELTYPE
  6
ByLayer
  9
$CECOLOR
 62
   256
  9
$CELTSCALE
 40
1.0
  9
$DISPSILH
 70
     0
  9
$DIMSCALE
 40
1.0
  9
$DIMASZ
 40
3.0
  9
$DIMEXO
 40
0.0
  9
$DIMDLI
 40
3.75
  9
$DIMRND
 40
0.0
  9
$DIMDLE
 40
0.0
  9
$DIMEXE
 40
1.0
  9
$DIMTP
 40
0.0
  9
$DIMTM
 40
0.0
  9
$DIMTXT
 40
2.0
  9
$DIMCEN
 40
2.5
  9
$DIMTSZ
 40
0.0
  9
$DIMTOL
 70
     0
  9
$DIMLIM
 70
     0
  9
$DIMTIH
 70
     1
  9
$DIMTOH
 70
     1
  9
$DIMSE1
 70
     0
  9
$DIMSE2
 70
     0
  9
$DIMTAD
 70
     1
  9
$DIMZIN
 70
     0
  9
$DIMBLK
  1

  9
$DIMASO
 70
     1
  9
$DIMSHO
 70
     1
  9
$DIMPOST
  1

  9
$DIMAPOST
  1

  9
$DIMALT
 70
     0
  9
$DIMALTD
 70
     3
  9
$DIMALTF
 40
0.0393700787
  9
$DIMLFAC
 40
2.0
  9
$DIMTOFL
 70
     1
  9
$DIMTVP
 40
0.0
  9
$DIMTIX
 70
     0
  9
$DIMSOXD
 70
     0
  9
$DIMSAH
 70
     0
  9
$DIMBLK1
  1

  9
$DIMBLK2
  1

  9
$DIMSTYLE
  2
ISO-25
  9
$DIMCLRD
 70
     0
  9
$DIMCLRE
 70
     0
  9
$DIMCLRT
 70
     0
  9
$DIMTFAC
 40
1.0
  9
$DIMGAP
 40
1.524
  9
$DIMJUST
 70
     0
  9
$DIMSD1
 70
     0
  9
$DIMSD2
 70
     0
  9
$DIMTOLJ
 70
     0
  9
$DIMTZIN
 70
     0
  9
$DIMALTZ
 70
     0
  9
$DIMALTTZ
 70
     0
  9
$DIMUPT
 70
     0
  9
$DIMDEC
 70
     2
  9
$DIMTDEC
 70
     3
  9
$DIMALTU
 70
     2
  9
$DIMALTTD
 70
     3
  9
$DIMTXSTY
  7
Standard
  9
$DIMAUNIT
 70
     0
  9
$DIMADEC
 70
     2
  9
$DIMALTRND
 40
0.0
  9
$DIMAZIN
 70
     0
  9
$DIMDSEP
 70
    44
  9
$DIMATFIT
 70
     3
  9
$DIMFRAC
 70
     0
  9
$DIMLDRBLK
  1

  9
$DIMLUNIT
 70
     2
  9
$DIMLWD
 70
    -2
  9
$DIMLWE
 70
    -2
  9
$DIMTMOVE
 70
     0
  9
$LUNITS
 70
     2
  9
$LUPREC
 70
     2
  9
$SKETCHINC
 40
1.0
  9
$FILLETRAD
 40
10.0
  9
$AUNITS
 70
     0
  9
$AUPREC
 70
     2
  9
$MENU
  1
.
  9
$ELEVATION
 40
0.0
  9
$PELEVATION
 40
0.0
  9
$THICKNESS
 40
0.0
  9
$LIMCHECK
 70
     0
  9
$CHAMFERA
 40
0.0
  9
$CHAMFERB
 40
0.0
  9
$CHAMFERC
 40
0.0
  9
$CHAMFERD
 40
0.0
  9
$SKPOLY
 70
     0
  9
$TDCREATE
 40
2458166.402715081
  9
$TDUCREATE
 40
2458166.361048414
  9
$TDUPDATE
 40
2458166.402717535
  9
$TDUUPDATE
 40
2458166.361050868
  9
$TDINDWG
 40
0.0000000116
  9
$TDUSRTIMER
 40
0.0000000116
  9
$USRTIMER
 70
     1
  9
$ANGBASE
 50
0.0
  9
$ANGDIR
 70
     0
  9
$PDMODE
 70
     0
  9
$PDSIZE
 40
-1.0
  9
$PLINEWID
 40
0.0
  9
$SPLFRAME
 70
     0
  9
$SPLINETYPE
 70
     6
  9
$SPLINESEGS
 70
     8
  9
$HANDSEED
  5
238
  9
$SURFTAB1
 70
     6
  9
$SURFTAB2
 70
     6
  9
$SURFTYPE
 70
     6
  9
$SURFU
 70
     6
  9
$SURFV
 70
     6
  9
$UCSBASE
  2

  9
$UCSNAME
  2

  9
$UCSORG
 10
0.0
 20
0.0
 30
0.0
  9
$UCSXDIR
 10
1.0
 20
0.0
 30
0.0
  9
$UCSYDIR
 10
0.0
 20
1.0
 30
0.0
  9
$UCSORTHOREF
  2

  9
$UCSORTHOVIEW
 70
     0
  9
$UCSORGTOP
 10
0.0
 20
0.0
 30
0.0
  9
$UCSORGBOTTOM
 10
0.0
 20
0.0
 30
0.0
  9
$UCSORGLEFT
 10
0.0
 20
0.0
 30
0.0
  9
$UCSORGRIGHT
 10
0.0
 20
0.0
 30
0.0
  9
$UCSORGFRONT
 10
0.0
 20
0.0
 30
0.0
  9
$UCSORGBACK
 10
0.0
 20
0.0
 30
0.0
  9
$PUCSBASE
  2

  9
$PUCSNAME
  2

  9
$PUCSORG
 10
0.0
 20
0.0
 30
0.0
  9
$PUCSXDIR
 10
1.0
 20
0.0
 30
0.0
  9
$PUCSYDIR
 10
0.0
 20
1.0
 30
0.0
  9
$PUCSORTHOREF
  2

  9
$PUCSORTHOVIEW
 70
     0
  9
$PUCSORGTOP
 10
0.0
 20
0.0
 30
0.0
  9
$PUCSORGBOTTOM
 10
0.0
 20
0.0
 30
0.0
  9
$PUCSORGLEFT
 10
0.0
 20
0.0
 30
0.0
  9
$PUCSORGRIGHT
 10
0.0
 20
0.0
 30
0.0
  9
$PUCSORGFRONT
 10
0.0
 20
0.0
 30
0.0
  9
$PUCSORGBACK
 10
0.0
 20
0.0
 30
0.0
  9
$USERI1
 70
     0
  9
$USERI2
 70
     0
  9
$USERI3
 70
     0
  9
$USERI4
 70
     0
  9
$USERI5
 70
     0
  9
$USERR1
 40
0.0
  9
$USERR2
 40
0.0
  9
$USERR3
 40
0.0
  9
$USERR4
 40
0.0
  9
$USERR5
 40
0.0
  9
$WORLDVIEW
 70
     1
  9
$SHADEDGE
 70
     3
  9
$SHADEDIF
 70
    70
  9
$TILEMODE
 70
     1
  9
$MAXACTVP
 70
    64
  9
$PINSBASE
 10
0.0
 20
0.0
 30
0.0
  9
$PLIMCHECK
 70
     0
  9
$PEXTMIN
 10
1.0000000000E+20
 20
1.0000000000E+20
 30
1.0000000000E+20
  9
$PEXTMAX
 10
-1.0000000000E+20
 20
-1.0000000000E+20
 30
-1.0000000000E+20
  9
$PLIMMIN
 10
0.0
 20
0.0
  9
$PLIMMAX
 10
420.0
 20
297.0
  9
$UNITMODE
 70
     0
  9
$VISRETAIN
 70
     1
  9
$PLINEGEN
 70
     0
  9
$PSLTSCALE
 70
     1
  9
$TREEDEPTH
 70
  3020
  9
$CMLSTYLE
  2
Standard
  9
$CMLJUST
 70
     0
  9
$CMLSCALE
 40
20.0
  9
$PROXYGRAPHICS
 70
     1
  9
$MEASUREMENT
 70
     1
  9
$CELWEIGHT
370
    -1
  9
$ENDCAPS
280
     0
  9
$JOINSTYLE
280
     0
  9
$LWDISPLAY
290
     1
  9
$INSUNITS
 70
     4
  9
$HYPERLINKBASE
  1

  9
$STYLESHEET
  1

  9
$XEDIT
290
     1
  9
$CEPSNTYPE
380
     0
  9
$PSTYLEMODE
290
     1
  9
$FINGERPRINTGUID
  2
{8017F347-7594-4BA4-A476-C6741BA7E383}
  9
$VERSIONGUID
  2
{FAEB1C32-E019-11D5-929B-00C0DF256EC4}
  9
$EXTNAMES
290
     1
  9
$PSVPSCALE
 40
0.0
  9
$OLESTARTUP
290
     0
  0
ENDSEC
  0
SECTION
  2
CLASSES
  0
CLASS
  1
ACDBDICTIONARYWDFLT
  2
AcDbDictionaryWithDefault
  3
ObjectDBX Classes
 90
        0
280
     0
281
     0
  0
CLASS
  1
VISUALSTYLE
  2
AcDbVisualStyle
  3
ObjectDBX Classes
 90
     4095
280
     0
281
     0
  0
CLASS
  1
MATERIAL
  2
AcDbMaterial
  3
ObjectDBX Classes
 90
     1153
280
     0
281
     0
  0
CLASS
  1
SCALE
  2
AcDbScale
  3
ObjectDBX Classes
 90
     1153
280
     0
281
     0
  0
CLASS
  1
TABLESTYLE
  2
AcDbTableStyle
  3
ObjectDBX Classes
 90
     4095
280
     0
281
     0
  0
CLASS
  1
MLEADERSTYLE
  2
AcDbMLeaderStyle
  3
ACDB_MLEADERSTYLE_CLASS
 90
     4095
280
     0
281
     0
  0
CLASS
  1
SUN
  2
AcDbSun
  3
SCENEOE
 90
     1153
280
     0
281
     0
  0
CLASS
  1
ACDBPLACEHOLDER
  2
AcDbPlaceHolder
  3
ObjectDBX Classes
 90
        0
280
     0
281
     0
  0
CLASS
  1
LAYOUT
  2
AcDbLayout
  3
ObjectDBX Classes
 90
        0
280
     0
281
     0
  0
ENDSEC
  0
SECTION
  2
TABLES
  0
TABLE
  2
VPORT
  5
8
330
0
100
AcDbSymbolTable
 70
     1
  0
VPORT
  5
29
330
8
100
AcDbSymbolTableRecord
100
AcDbViewportTableRecord
  2
*Active
 70
     0
 10
0.0
 20
0.0
 11
1.0
 21
1.0
 12
148.5
 22
105.0
 13
0.0
 23
0.0
 14
10.0
 24
10.0
 15
10.0
 25
10.0
 16
0.0
 26
0.0
 36
1.0
 17
0.0
 27
0.0
 37
0.0
 40
210.0
 41
1.4142857143
 42
50.0
 43
0.0
 44
0.0
 50
0.0
 51
0.0
 71
     0
 72
  2000
 73
     1
 74
     3
 75
     0
 76
     0
 77
     0
 78
     0
281
     0
 65
     1
110
0.0
120
0.0
130
0.0
111
1.0
121
0.0
131
0.0
112
0.0
122
1.0
132
0.0
 79
     0
146
0.0
  0
ENDTAB
  0
TABLE
  2
LTYPE
  5
5
330
0
100
AcDbSymbolTable
 70
     6
  0
LTYPE
  5
14
330
5
100
AcDbSymbolTableRecord
100
AcDbLinetypeTableRecord
  2
ByBlock
 70
     0
  3

 72
    65
 73
     0
 40
0.0
  0
LTYPE
  5
15
330
5
100
AcDbSymbolTableRecord
100
AcDbLinetypeTableRecord
  2
ByLayer
 70
     0
  3

 72
    65
 73
     0
 40
0.0
  0
LTYPE
  5
16
330
5
100
AcDbSymbolTableRecord
100
AcDbLinetypeTableRecord
  2
Continuous
 70
     0
  3
Solid line
 72
    65
 73
     0
 40
0.0
  0
LTYPE
  5
6E
330
5
100
AcDbSymbolTableRecord
100
AcDbLinetypeTableRecord
  2
HIDDEN
 70
     0
  3
Hidden __ __ __ __ __ __ __ __ __ __ __ __ __ __
 72
    65
 73
     2
 40
1.905
 49
1.27
 74
     0
 49
-0.635
 74
     0
  0
LTYPE
  5
6F
330
5
100
AcDbSymbolTableRecord
100
AcDbLinetypeTableRecord
  2
PHANTOM
 70
     0
  3
Phantom ______  __  __  ______  __  __  ______
 72
    65
 73
     6
 40
12.7
 49
6.35
 74
     0
 49
-1.27
 74
     0
 49
1.27
 74
     0
 49
-1.27
 74
     0
 49
1.27
 74
     0
 49
-1.27
 74
     0
  0
LTYPE
  5
70
330
5
100
AcDbSymbolTableRecord
100
AcDbLinetypeTableRecord
  2
CENTER
 70
     0
  3
Center ____ _ ____ _ ____ _ ____ _ ____ _ ____
 72
    65
 73
     4
 40
10.16
 49
6.35
 74
     0
 49
-1.27
 74
     0
 49
1.27
 74
     0
 49
-1.27
 74
     0
  0
LTYPE
  5
71
330
5
100
AcDbSymbolTableRecord
100
AcDbLinetypeTableRecord
  2
CENTERX2
 70
     0
  3
Center (2x) ________  __  ________  __  _____
 72
    65
 73
     4
 40
20.32
 49
12.7
 74
     0
 49
-2.54
 74
     0
 49
2.54
 74
     0
 49
-2.54
 74
     0
  0
LTYPE
  5
72
330
5
100
AcDbSymbolTableRecord
100
AcDbLinetypeTableRecord
  2
DOT2
 70
     0
  3
Dot (.5x) ........................................
 72
    65
 73
     2
 40
0.635
 49
0.0
 74
     0
 49
-0.635
 74
     0
  0
ENDTAB
  0
TABLE
  2
LAYER
  5
2
330
0
100
AcDbSymbolTable
 70
     5
  0
LAYER
  5
10
330
2
100
AcDbSymbolTableRecord
100
AcDbLayerTableRecord
  2
0
 70
     0
 62
     7
  6
Continuous
370
    -3
390
F
  0
LAYER
  5
73
330
2
100
AcDbSymbolTableRecord
100
AcDbLayerTableRecord
  2
FORMAT
 70
     0
 62
     7
  6
Continuous
370
    -3
390
F
  0
LAYER
  5
74
330
2
100
AcDbSymbolTableRecord
100
AcDbLayerTableRecord
  2
VERMASSUNG
 70
     0
 62
     7
  6
Continuous
370
    -3
390
F
  0
LAYER
  5
75
330
2
100
AcDbSymbolTableRecord
100
AcDbLayerTableRecord
  2
KOPF_DÜNN
 70
     0
 62
     7
  6
Continuous
370
    -3
390
F
  0
LAYER
  5
76
330
2
100
AcDbSymbolTableRecord
100
AcDbLayerTableRecord
  2
KOPF_DICK
 70
     0
 62
     7
  6
Continuous
370
    25
390
F
  0
ENDTAB
  0
TABLE
  2
STYLE
  5
3
330
0
100
AcDbSymbolTable
 70
     3
  0
STYLE
  5
11
330
3
100
AcDbSymbolTableRecord
100
AcDbTextStyleTableRecord
  2
Standard
 70
     0
 40
0.0
 41
1.0
 50
0.0
 71
     0
 42
2.0
  3
txt
  4

  0
STYLE
  5
77
330
3
100
AcDbSymbolTableRecord
100
AcDbTextStyleTableRecord
  2
SLDTEXTSTYLE0
 70
     0
 40
0.0
 41
0.7
 50
0.0
 71
     0
 42
2.0
  3
TXT
  4

  0
STYLE
  5
7B
330
3
100
AcDbSymbolTableRecord
100
AcDbTextStyleTableRecord
  2
SLDTEXTSTYLE1
 70
     0
 40
0.0
 41
0.6538461538
 50
0.0
 71
     0
 42
2.0
  3
TXT
  4

  0
ENDTAB
  0
TABLE
  2
VIEW
  5
6
330
0
100
AcDbSymbolTable
 70
     0
  0
ENDTAB
  0
TABLE
  2
UCS
  5
7
330
0
100
AcDbSymbolTable
 70
     0
  0
ENDTAB
  0
TABLE
  2
APPID
  5
9
330
0
100
AcDbSymbolTable
 70
     1
  0
APPID
  5
12
330
9
100
AcDbSymbolTableRecord
100
AcDbRegAppTableRecord
  2
ACAD
 70
     0
  0
ENDTAB
  0
TABLE
  2
DIMSTYLE
  5
A
330
0
100
AcDbSymbolTable
 70
     4
100
AcDbDimStyleTable
  0
DIMSTYLE
105
27
330
A
100
AcDbSymbolTableRecord
100
AcDbDimStyleTableRecord
  2
ISO-25
 70
     0
 41
2.5
 42
0.625
 43
3.75
 44
1.25
 73
     0
 74
     0
 77
     1
 78
     8
140
2.5
141
2.5
143
0.0393700787
147
0.625
171
     3
172
     1
178
     0
271
     2
272
     2
274
     3
278
    44
283
     0
284
     8
340
11
  0
DIMSTYLE
105
1F5
102
{ACAD_REACTORS
330
1F4
102
}
330
A
100
AcDbSymbolTableRecord
100
AcDbDimStyleTableRecord
  2
SLDDIMSTYLE0
 70
     0
 41
3.0
 44
0.0
 45
0.000000001
 73
     0
 74
     0
 76
     1
 77
     1
 78
    12
 79
     3
140
2.0
147
0.5
173
     1
178
     0
271
     2
272
     3
276
     2
282
     1
284
    12
340
77
  0
DIMSTYLE
105
1FF
102
{ACAD_REACTORS
330
1FE
330
20A
330
214
330
21E
102
}
330
A
100
AcDbSymbolTableRecord
100
AcDbDimStyleTableRecord
  2
SLDDIMSTYLE1
 70
     0
 41
3.0
 44
0.0
 45
0.000000001
 73
     0
 74
     0
 77
     1
 78
    12
 79
     3
140
2.0
147
0.5
173
     1
178
     0
271
     2
272
     3
276
     2
284
    12
340
77
  0
DIMSTYLE
105
229
102
{ACAD_REACTORS
330
228
102
}
330
A
100
AcDbSymbolTableRecord
100
AcDbDimStyleTableRecord
  2
SLDDIMSTYLE2
 70
     0
 41
3.0
 44
0.0
 45
0.000000001
 73
     0
 74
     0
 77
     1
 78
    12
 79
     3
140
2.0
147
0.5
173
     1
178
     0
271
     1
272
     3
276
     2
284
    12
340
77
  0
ENDTAB
  0
TABLE
  2
BLOCK_RECORD
  5
1
330
0
100
AcDbSymbolTable
 70
     7
  0
BLOCK_RECORD
  5
1F
330
1
100
AcDbSymbolTableRecord
100
AcDbBlockTableRecord
  2
*Model_Space
340
22
  0
BLOCK_RECORD
  5
1B
330
1
100
AcDbSymbolTableRecord
100
AcDbBlockTableRecord
  2
*Paper_Space
340
1E
  0
BLOCK_RECORD
  5
23
330
1
100
AcDbSymbolTableRecord
100
AcDbBlockTableRecord
  2
*Paper_Space0
340
26
  0
BLOCK_RECORD
  5
1F6
330
1
100
AcDbSymbolTableRecord
100
AcDbBlockTableRecord
  2
_D
340
0
  0
BLOCK_RECORD
  5
200
330
1
100
AcDbSymbolTableRecord
100
AcDbBlockTableRecord
  2
_D_1
340
0
  0
BLOCK_RECORD
  5
20B
330
1
100
AcDbSymbolTableRecord
100
AcDbBlockTableRecord
  2
_D_2
340
0
  0
BLOCK_RECORD
  5
215
330
1
100
AcDbSymbolTableRecord
100
AcDbBlockTableRecord
  2
_D_3
340
0
  0
BLOCK_RECORD
  5
21F
330
1
100
AcDbSymbolTableRecord
100
AcDbBlockTableRecord
  2
_D_4
340
0
  0
BLOCK_RECORD
  5
22A
330
1
100
AcDbSymbolTableRecord
100
AcDbBlockTableRecord
  2
_D_5
340
0
  0
ENDTAB
  0
ENDSEC
  0
SECTION
  2
BLOCKS
  0
BLOCK
  5
20
330
1F
100
AcDbEntity
  8
0
100
AcDbBlockBegin
  2
*Model_Space
 70
     0
 10
0.0
 20
0.0
 30
0.0
  3
*Model_Space
  1

  0
ENDBLK
  5
21
330
1F
100
AcDbEntity
  8
0
100
AcDbBlockEnd
  0
BLOCK
  5
1C
330
1B
100
AcDbEntity
 67
     1
  8
0
100
AcDbBlockBegin
  2
*Paper_Space
 70
     0
 10
0.0
 20
0.0
 30
0.0
  3
*Paper_Space
  1

  0
ENDBLK
  5
1D
330
1B
100
AcDbEntity
 67
     1
  8
0
100
AcDbBlockEnd
  0
BLOCK
  5
24
330
23
100
AcDbEntity
  8
0
100
AcDbBlockBegin
  2
*Paper_Space0
 70
     0
 10
0.0
 20
0.0
 30
0.0
  3
*Paper_Space0
  1

  0
ENDBLK
  5
25
330
23
100
AcDbEntity
  8
0
100
AcDbBlockEnd
  0
BLOCK
  5
1F7
330
1F6
100
AcDbEntity
  8
0
100
AcDbBlockBegin
  2
_D
 70
     0
 10
0.0
 20
0.0
 30
0.0
  3
_D
  1

  0
SOLID
  5
1F9
330
1F6
100
AcDbEntity
  8
VERMASSUNG
100
AcDbTrace
 10
214.9143143835
 20
113.3384713287
 30
0.0
 11
214.4643143835
 21
110.3384713287
 31
0.0
 12
215.3643143835
 22
110.3384713287
 32
0.0
 13
215.3643143835
 23
110.3384713287
 33
0.0
  0
LINE
  5
1FA
330
1F6
100
AcDbEntity
  8
VERMASSUNG
100
AcDbLine
 10
174.2579766381
 20
113.3384713287
 30
0.0
 11
215.9143143835
 21
113.3384713287
 31
0.0
  0
LINE
  5
1FB
330
1F6
100
AcDbEntity
  8
VERMASSUNG
100
AcDbLine
 10
214.9143143835
 20
113.3384713287
 30
0.0
 11
214.9143143835
 21
106.8334713465
 31
0.0
  0
MTEXT
  5
1FC
330
1F6
100
AcDbEntity
  8
VERMASSUNG
100
AcDbMText
 10
212.3361790786
 20
106.8334713465
 30
0.0
 40
2.0
 41
0.0
 71
     1
 72
     1
  1
%%c
  7
SLDTEXTSTYLE0
 11
-7.932373437343760E-15
 21
1.0
 31
0.0
 73
     1
 44
1.0
  0
MTEXT
  5
1FD
330
1F6
100
AcDbEntity
  8
VERMASSUNG
100
AcDbMText
 10
212.1361791273
 20
110.4434713608
 30
0.0
 40
2.0
 41
0.0
 71
     1
 72
     1
  1
8
  7
SLDTEXTSTYLE0
 11
-7.932373437343760E-15
 21
1.0
 31
0.0
 73
     1
 44
1.0
  0
ENDBLK
  5
1F8
330
1F6
100
AcDbEntity
  8
0
100
AcDbBlockEnd
  0
BLOCK
  5
201
330
200
100
AcDbEntity
  8
0
100
AcDbBlockBegin
  2
_D_1
 70
     0
 10
0.0
 20
0.0
 30
0.0
  3
_D_1
  1

  0
SOLID
  5
203
330
200
100
AcDbEntity
  8
VERMASSUNG
100
AcDbTrace
 10
224.2056715341
 20
123.3384713287
 30
0.0
 11
223.7556715341
 21
120.3384713287
 31
0.0
 12
224.6556715341
 22
120.3384713287
 32
0.0
 13
224.6556715341
 23
120.3384713287
 33
0.0
  0
SOLID
  5
204
330
200
100
AcDbEntity
  8
VERMASSUNG
100
AcDbTrace
 10
224.2056715341
 20
95.3384713287
 30
0.0
 11
224.6556715341
 21
98.3384713287
 31
0.0
 12
223.7556715341
 22
98.3384713287
 32
0.0
 13
223.7556715341
 23
98.3384713287
 33
0.0
  0
LINE
  5
205
330
200
100
AcDbEntity
  8
VERMASSUNG
100
AcDbLine
 10
186.5799489561
 20
123.3384713287
 30
0.0
 11
225.2056715341
 21
123.3384713287
 31
0.0
  0
LINE
  5
206
330
200
100
AcDbEntity
  8
VERMASSUNG
100
AcDbLine
 10
186.5799489561
 20
95.3384713287
 30
0.0
 11
225.2056715341
 21
95.3384713287
 31
0.0
  0
LINE
  5
207
330
200
100
AcDbEntity
  8
VERMASSUNG
100
AcDbLine
 10
224.2056715341
 20
123.3384713287
 30
0.0
 11
224.2056715341
 21
95.3384713287
 31
0.0
  0
MTEXT
  5
208
330
200
100
AcDbEntity
  8
VERMASSUNG
100
AcDbMText
 10
221.6275362292
 20
106.1334713714
 30
0.0
 40
2.0
 41
0.0
 71
     1
 72
     1
  1
%%c
  7
SLDTEXTSTYLE0
 11
-7.932373437343760E-15
 21
1.0
 31
0.0
 73
     1
 44
1.0
  0
MTEXT
  5
209
330
200
100
AcDbEntity
  8
VERMASSUNG
100
AcDbMText
 10
221.4275362779
 20
109.7434713857
 30
0.0
 40
2.0
 41
0.0
 71
     1
 72
     1
  1
28
  7
SLDTEXTSTYLE0
 11
-7.932373437343760E-15
 21
1.0
 31
0.0
 73
     1
 44
1.0
  0
ENDBLK
  5
202
330
200
100
AcDbEntity
  8
0
100
AcDbBlockEnd
  0
BLOCK
  5
20C
330
20B
100
AcDbEntity
  8
0
100
AcDbBlockBegin
  2
_D_2
 70
     0
 10
0.0
 20
0.0
 30
0.0
  3
_D_2
  1

  0
SOLID
  5
20E
330
20B
100
AcDbEntity
  8
VERMASSUNG
100
AcDbTrace
 10
195.1579766381
 20
146.1573390617
 30
0.0
 11
192.1579766381
 21
146.6073390617
 31
0.0
 12
192.1579766381
 22
145.7073390617
 32
0.0
 13
192.1579766381
 23
145.7073390617
 33
0.0
  0
SOLID
  5
20F
330
20B
100
AcDbEntity
  8
VERMASSUNG
100
AcDbTrace
 10
153.1579766381
 20
146.1573390617
 30
0.0
 11
156.1579766381
 21
145.7073390617
 31
0.0
 12
156.1579766381
 22
146.6073390617
 32
0.0
 13
156.1579766381
 23
146.6073390617
 33
0.0
  0
LINE
  5
210
330
20B
100
AcDbEntity
  8
VERMASSUNG
100
AcDbLine
 10
195.1579766381
 20
118.064330807
 30
0.0
 11
195.1579766381
 21
147.1573390617
 31
0.0
  0
LINE
  5
211
330
20B
100
AcDbEntity
  8
VERMASSUNG
100
AcDbLine
 10
153.1579766381
 20
140.8134713287
 30
0.0
 11
153.1579766381
 21
147.1573390617
 31
0.0
  0
LINE
  5
212
330
20B
100
AcDbEntity
  8
VERMASSUNG
100
AcDbLine
 10
195.1579766381
 20
146.1573390617
 30
0.0
 11
153.1579766381
 21
146.1573390617
 31
0.0
  0
MTEXT
  5
213
330
20B
100
AcDbEntity
  8
VERMASSUNG
100
AcDbMText
 10
172.6579766251
 20
148.7354746577
 30
0.0
 40
2.0
 41
0.0
 71
     1
 72
     1
  1
42
  7
SLDTEXTSTYLE0
 73
     1
 44
1.0
  0
ENDBLK
  5
20D
330
20B
100
AcDbEntity
  8
0
100
AcDbBlockEnd
  0
BLOCK
  5
216
330
215
100
AcDbEntity
  8
0
100
AcDbBlockBegin
  2
_D_3
 70
     0
 10
0.0
 20
0.0
 30
0.0
  3
_D_3
  1

  0
SOLID
  5
218
330
215
100
AcDbEntity
  8
VERMASSUNG
100
AcDbTrace
 10
135.1579766381
 20
153.4360926737
 30
0.0
 11
138.1579766381
 21
152.9860926737
 31
0.0
 12
138.1579766381
 22
153.8860926737
 32
0.0
 13
138.1579766381
 23
153.8860926737
 33
0.0
  0
SOLID
  5
219
330
215
100
AcDbEntity
  8
VERMASSUNG
100
AcDbTrace
 10
195.1579766381
 20
153.4360926737
 30
0.0
 11
192.1579766381
 21
153.8860926737
 31
0.0
 12
192.1579766381
 22
152.9860926737
 32
0.0
 13
192.1579766381
 23
152.9860926737
 33
0.0
  0
LINE
  5
21A
330
215
100
AcDbEntity
  8
VERMASSUNG
100
AcDbLine
 10
135.1579766381
 20
140.6134713287
 30
0.0
 11
135.1579766381
 21
154.4360926737
 31
0.0
  0
LINE
  5
21B
330
215
100
AcDbEntity
  8
VERMASSUNG
100
AcDbLine
 10
195.1579766381
 20
118.064330807
 30
0.0
 11
195.1579766381
 21
154.4360926737
 31
0.0
  0
LINE
  5
21C
330
215
100
AcDbEntity
  8
VERMASSUNG
100
AcDbLine
 10
135.1579766381
 20
153.4360926737
 30
0.0
 11
195.1579766381
 21
153.4360926737
 31
0.0
  0
MTEXT
  5
21D
330
215
100
AcDbEntity
  8
VERMASSUNG
100
AcDbMText
 10
163.757976688
 20
156.0142282696
 30
0.0
 40
2.0
 41
0.0
 71
     1
 72
     1
  1
60
  7
SLDTEXTSTYLE0
 73
     1
 44
1.0
  0
ENDBLK
  5
217
330
215
100
AcDbEntity
  8
0
100
AcDbBlockEnd
  0
BLOCK
  5
220
330
21F
100
AcDbEntity
  8
0
100
AcDbBlockBegin
  2
_D_4
 70
     0
 10
0.0
 20
0.0
 30
0.0
  3
_D_4
  1

  0
SOLID
  5
222
330
21F
100
AcDbEntity
  8
VERMASSUNG
100
AcDbTrace
 10
95.2079766381
 20
160.6718897069
 30
0.0
 11
98.2079766381
 21
160.2218897069
 31
0.0
 12
98.2079766381
 22
161.1218897069
 32
0.0
 13
98.2079766381
 23
161.1218897069
 33
0.0
  0
SOLID
  5
223
330
21F
100
AcDbEntity
  8
VERMASSUNG
100
AcDbTrace
 10
195.1579766381
 20
160.6718897069
 30
0.0
 11
192.1579766381
 21
161.1218897069
 31
0.0
 12
192.1579766381
 22
160.2218897069
 32
0.0
 13
192.1579766381
 23
160.2218897069
 33
0.0
  0
LINE
  5
224
330
21F
100
AcDbEntity
  8
VERMASSUNG
100
AcDbLine
 10
95.2079766381
 20
131.5415660525
 30
0.0
 11
95.2079766381
 21
161.6718897069
 31
0.0
  0
LINE
  5
225
330
21F
100
AcDbEntity
  8
VERMASSUNG
100
AcDbLine
 10
195.1579766381
 20
118.064330807
 30
0.0
 11
195.1579766381
 21
161.6718897069
 31
0.0
  0
LINE
  5
226
330
21F
100
AcDbEntity
  8
VERMASSUNG
100
AcDbLine
 10
95.2079766381
 20
160.6718897069
 30
0.0
 11
195.1579766381
 21
160.6718897069
 31
0.0
  0
MTEXT
  5
227
330
21F
100
AcDbEntity
  8
VERMASSUNG
100
AcDbMText
 10
142.0829767819
 20
163.2500253029
 30
0.0
 40
2.0
 41
0.0
 71
     1
 72
     1
  1
99.95
  7
SLDTEXTSTYLE0
 73
     1
 44
1.0
  0
ENDBLK
  5
221
330
21F
100
AcDbEntity
  8
0
100
AcDbBlockEnd
  0
BLOCK
  5
22B
330
22A
100
AcDbEntity
  8
0
100
AcDbBlockBegin
  2
_D_5
 70
     0
 10
0.0
 20
0.0
 30
0.0
  3
_D_5
  1

  0
SOLID
  5
22D
330
22A
100
AcDbEntity
  8
VERMASSUNG
100
AcDbTrace
 10
76.5628438943
 20
140.8134713287
 30
0.0
 11
76.1128438943
 21
137.8134713287
 31
0.0
 12
77.0128438943
 22
137.8134713287
 32
0.0
 13
77.0128438943
 23
137.8134713287
 33
0.0
  0
SOLID
  5
22E
330
22A
100
AcDbEntity
  8
VERMASSUNG
100
AcDbTrace
 10
76.5628438943
 20
77.8634713287
 30
0.0
 11
77.0128438943
 21
80.8634713287
 31
0.0
 12
76.1128438943
 22
80.8634713287
 32
0.0
 13
76.1128438943
 23
80.8634713287
 33
0.0
  0
LINE
  5
22F
330
22A
100
AcDbEntity
  8
VERMASSUNG
100
AcDbLine
 10
135.3579766381
 20
140.8134713287
 30
0.0
 11
75.5628438943
 21
140.8134713287
 31
0.0
  0
LINE
  5
230
330
22A
100
AcDbEntity
  8
VERMASSUNG
100
AcDbLine
 10
135.3579766381
 20
77.8634713287
 30
0.0
 11
75.5628438943
 21
77.8634713287
 31
0.0
  0
LINE
  5
231
330
22A
100
AcDbEntity
  8
VERMASSUNG
100
AcDbLine
 10
76.5628438943
 20
140.8134713287
 30
0.0
 11
76.5628438943
 21
77.8634713287
 31
0.0
  0
MTEXT
  5
232
330
22A
100
AcDbEntity
  8
VERMASSUNG
100
AcDbMText
 10
73.7847086381
 20
101.2334727103
 30
0.0
 40
2.0
 41
0.0
 71
     1
 72
     1
  1
KM
  7
SLDTEXTSTYLE0
 11
-7.932373437343760E-15
 21
1.0
 31
0.0
 73
     1
 44
1.0
  0
MTEXT
  5
233
330
22A
100
AcDbEntity
  8
VERMASSUNG
100
AcDbMText
 10
73.9847085893
 20
104.6334725225
 30
0.0
 40
2.0
 41
0.0
 71
     1
 72
     1
  1
%%c
  7
SLDTEXTSTYLE0
 11
-7.932373437343760E-15
 21
1.0
 31
0.0
 73
     1
 44
1.0
  0
MTEXT
  5
234
330
22A
100
AcDbEntity
  8
VERMASSUNG
100
AcDbMText
 10
73.784708638
 20
108.2434725368
 30
0.0
 40
2.0
 41
0.0
 71
     1
 72
     1
  1
63
  7
SLDTEXTSTYLE0
 11
-7.932373437343760E-15
 21
1.0
 31
0.0
 73
     1
 44
1.0
  0
MTEXT
  5
235
330
22A
100
AcDbEntity
  8
VERMASSUNG
100
AcDbMText
 10
73.784708638
 20
112.230972437
 30
0.0
 40
2.0
 41
0.0
 71
     1
 72
     1
  1
XMZ
  7
SLDTEXTSTYLE0
 11
-7.932373437343760E-15
 21
1.0
 31
0.0
 73
     1
 44
1.0
  0
ENDBLK
  5
22C
330
22A
100
AcDbEntity
  8
0
100
AcDbBlockEnd
  0
ENDSEC
  0
SECTION
  2
ENTITIES
  0
MTEXT
  5
78
330
1F
100
AcDbEntity
  8
KOPF_DÜNN
100
AcDbMText
 10
13.8892156294
 20
23.8442973028
 30
0.0
 40
3.0
 41
0.0
 71
     1
 72
     1
  1
KY6.W08.K01.060
  7
SLDTEXTSTYLE0
 73
     1
 44
1.0
  0
MTEXT
  5
79
330
1F
100
AcDbEntity
  8
VERMASSUNG
100
AcDbMText
 10
13.9329988022
 20
28.8834360957
 30
0.0
 40
3.0
 41
0.0
 71
     1
 72
     1
  1
Flächenspannfutter Weldon_ Endmill adapter Weldon
  7
SLDTEXTSTYLE0
 73
     1
 44
1.0
  0
MTEXT
  5
7A
330
1F
100
AcDbEntity
  8
VERMASSUNG
100
AcDbMText
 10
98.8601118557
 20
13.8365368761
 30
0.0
 40
2.0
 41
0.0
 71
     1
 72
     1
  1
Datum: 16.02.2018
  7
SLDTEXTSTYLE0
 73
     1
 44
1.0
  0
MTEXT
  5
7C
330
1F
100
AcDbEntity
  8
VERMASSUNG
100
AcDbMText
 10
13.933048693
 20
18.0482802738
 30
0.0
 40
2.0
 41
0.0
 71
     1
 72
     1
  1
KM63 XMZ / Ø8
  7
SLDTEXTSTYLE1
 73
     1
 44
1.0
  0
MTEXT
  5
7D
330
1F
100
AcDbEntity
  8
VERMASSUNG
100
AcDbMText
 10
13.9808475933
 20
13.9090974274
 30
0.0
 40
2.0
 41
0.0
 71
     1
 72
     1
  1
Gewicht: 796g
  7
SLDTEXTSTYLE0
 73
     1
 44
1.0
  0
SPLINE
  5
7E
330
1F
100
AcDbEntity
  8
0
  6
Continuous
 62
     7
370
    25
100
AcDbSpline
210
0.0
220
0.0
230
1.0
 70
     8
 71
     3
 72
     8
 73
     4
 74
     0
 42
0.000000001
 43
0.00000001
 40
0.0
 40
0.0
 40
0.0
 40
0.0
 40
1.0
 40
1.0
 40
1.0
 40
1.0
 10
377.3411921778174
 20
104.9684704566945
 30
0.0
 10
377.2723538076306
 20
104.9053757833757
 30
0.0
 10
377.2039224471745
 20
104.8416534052448
 30
0.0
 10
377.1359061725098
 20
104.7773079729714
 30
0.0
  0
SPLINE
  5
7F
330
1F
100
AcDbEntity
  8
0
  6
Continuous
 62
     7
370
    25
100
AcDbSpline
210
0.0
220
0.0
230
1.0
 70
     8
 71
     3
 72
     8
 73
     4
 74
     0
 42
0.000000001
 43
0.00000001
 40
0.0
 40
0.0
 40
0.0
 40
0.0
 40
1.0
 40
1.0
 40
1.0
 40
1.0
 10
377.5992194190781
 20
104.7992086267672
 30
0.0
 10
377.5125159849176
 20
104.8553695464364
 30
0.0
 10
377.4265179374338
 20
104.9117942827623
 30
0.0
 10
377.3411921778174
 20
104.9684704566945
 30
0.0
  0
ARC
  5
80
330
1F
100
AcDbEntity
  8
0
  6
Continuous
 62
     7
370
    25
100
AcDbCircle
 10
387.7303322875
 20
109.3384713287
 30
0.0
 40
11.10154736189896
100
AcDbArc
 50
204.1348482805
 51
335.8651517195
  0
SPLINE
  5
81
330
1F
100
AcDbEntity
  8
0
  6
Continuous
 62
     7
370
    25
100
AcDbSpline
210
0.0
220
0.0
230
1.0
 70
     8
 71
     3
 72
     8
 73
     4
 74
     0
 42
0.000000001
 43
0.00000001
 40
0.0
 40
0.0
 40
0.0
 40
0.0
 40
1.0
 40
1.0
 40
1.0
 40
1.0
 10
398.1194723970831
 20
104.9684704566945
 30
0.0
 10
398.0341466374667
 20
104.9117942827623
 30
0.0
 10
397.9481485899828
 20
104.8553695464364
 30
0.0
 10
397.8614451558224
 20
104.7992086267672
 30
0.0
  0
SPLINE
  5
82
330
1F
100
AcDbEntity
  8
0
  6
Continuous
 62
     7
370
    25
100
AcDbSpline
210
0.0
220
0.0
230
1.0
 70
     8
 71
     3
 72
     8
 73
     4
 74
     0
 42
0.000000001
 43
0.00000001
 40
0.0
 40
0.0
 40
0.0
 40
0.0
 40
1.0
 40
1.0
 40
1.0
 40
1.0
 10
398.3247584023907
 20
104.7773079729714
 30
0.0
 10
398.256742127726
 20
104.8416534052448
 30
0.0
 10
398.1883107672699
 20
104.9053757833757
 30
0.0
 10
398.1194723970831
 20
104.9684704566945
 30
0.0
  0
ARC
  5
83
330
1F
100
AcDbEntity
  8
0
  6
Continuous
 62
     7
370
    25
100
AcDbCircle
 10
387.7303322875
 20
109.3384713287
 30
0.0
 40
11.53456006379121
100
AcDbArc
 50
203.2930774359
 51
336.7074733161
  0
ARC
  5
84
330
1F
100
AcDbEntity
  8
0
  6
Continuous
 62
     7
370
    25
100
AcDbCircle
 10
387.7303322875
 20
109.3384713287
 30
0.0
 40
11.10154736189899
100
AcDbArc
 50
29.4783538465
 51
150.5216461535
  0
SPLINE
  5
85
330
1F
100
AcDbEntity
  8
0
  6
Continuous
 62
     7
370
    25
100
AcDbSpline
210
0.0
220
0.0
230
1.0
 70
     8
 71
     3
 72
     8
 73
     4
 74
     0
 42
0.000000001
 43
0.00000001
 40
0.0
 40
0.0
 40
0.0
 40
0.0
 40
1.0
 40
1.0
 40
1.0
 40
1.0
 10
377.7543992381258
 20
114.6167705780486
 30
0.0
 10
377.8572951519498
 20
114.6787391871395
 30
0.0
 10
377.9611348215046
 20
114.7403178392801
 30
0.0
 10
378.0659727097312
 20
114.8014840305516
 30
0.0
  0
SPLINE
  5
86
330
1F
100
AcDbEntity
  8
0
  6
Continuous
 62
     7
370
    25
100
AcDbSpline
210
0.0
220
0.0
230
1.0
 70
     8
 71
     3
 72
     8
 73
     4
 74
     0
 42
0.000000001
 43
0.00000001
 40
0.0
 40
0.0
 40
0.0
 40
0.0
 40
1.0
 40
1.0
 40
1.0
 40
1.0
 10
377.565862857012
 20
114.7909603989182
 30
0.0
 10
377.6284311653816
 20
114.7325099298106
 30
0.0
 10
377.6912777587454
 20
114.6744459192775
 30
0.0
 10
377.7543992381283
 20
114.6167705780464
 30
0.0
  0
ARC
  5
87
330
1F
100
AcDbEntity
  8
0
  6
Continuous
 62
     7
370
    25
100
AcDbCircle
 10
387.7303322875
 20
109.3384713287
 30
0.0
 40
11.53456006379123
100
AcDbArc
 50
28.2102805322
 51
151.7902347364
  0
SPLINE
  5
88
330
1F
100
AcDbEntity
  8
0
  6
Continuous
 62
     7
370
    25
100
AcDbSpline
210
0.0
220
0.0
230
1.0
 70
     8
 71
     3
 72
     8
 73
     4
 74
     0
 42
0.000000001
 43
0.00000001
 40
0.0
 40
0.0
 40
0.0
 40
0.0
 40
1.0
 40
1.0
 40
1.0
 40
1.0
 10
397.7062653367726
 20
114.6167705780467
 30
0.0
 10
397.7693868161554
 20
114.6744459192778
 30
0.0
 10
397.8322334095191
 20
114.7325099298107
 30
0.0
 10
397.8948017178885
 20
114.7909603989182
 30
0.0
  0
SPLINE
  5
89
330
1F
100
AcDbEntity
  8
0
  6
Continuous
 62
     7
370
    25
100
AcDbSpline
210
0.0
220
0.0
230
1.0
 70
     8
 71
     3
 72
     8
 73
     4
 74
     0
 42
0.000000001
 43
0.00000001
 40
0.0
 40
0.0
 40
0.0
 40
0.0
 40
1.0
 40
1.0
 40
1.0
 40
1.0
 10
397.3946918651694
 20
114.8014840305516
 30
0.0
 10
397.4995297533955
 20
114.7403178392804
 30
0.0
 10
397.60336942295
 20
114.67873918714
 30
0.0
 10
397.7062653367736
 20
114.6167705780493
 30
0.0
  0
LINE
  5
8A
330
1F
100
AcDbEntity
  8
0
  6
Continuous
 62
     7
370
    25
100
AcDbLine
 10
377.7543992381
 20
114.6167705781
 30
0.0
 11
377.9628075596
 21
114.3684713287
 31
0.0
  0
LINE
  5
8B
330
1F
100
AcDbEntity
  8
0
  6
Continuous
 62
     7
370
    25
100
AcDbLine
 10
379.21302087
 20
114.8014840306
 30
0.0
 11
378.0659727097
 21
114.8014840306
 31
0.0
  0
SPLINE
  5
8C
330
1F
100
AcDbEntity
  8
0
  6
Continuous
 62
     7
370
    25
100
AcDbSpline
210
0.0
220
0.0
230
1.0
 70
     8
 71
     3
 72
     8
 73
     4
 74
     0
 42
0.000000001
 43
0.00000001
 40
0.0000004089325119
 40
0.0000004089325119
 40
0.0000004089325119
 40
0.0000004089325119
 40
0.0015399868451459
 40
0.0015399868451459
 40
0.0015399868451459
 40
0.0015399868451459
 10
379.2130208700214
 20
114.8014840305516
 30
0.0
 10
379.4247821288158
 20
114.7290291478982
 30
0.0
 10
379.636702452006
 20
114.6566902778697
 30
0.0
 10
379.8488204352203
 20
114.5844967324439
 30
0.0
  0
LINE
  5
8D
330
1F
100
AcDbEntity
  8
0
  6
Continuous
 62
     7
370
    25
100
AcDbLine
 10
379.8488204352
 20
114.5844967324
 30
0.0
 11
379.8569732412
 21
114.5692843182
 31
0.0
  0
LINE
  5
8E
330
1F
100
AcDbEntity
  8
0
  6
Continuous
 62
     7
370
    25
100
AcDbLine
 10
379.8546027539
 20
114.3684714981
 30
0.0
 11
379.856974239
 21
114.569284452
 31
0.0
  0
LINE
  5
8F
330
1F
100
AcDbEntity
  8
0
  6
Continuous
 62
     7
370
    25
100
AcDbLine
 10
379.8546027539
 20
114.3684713287
 30
0.0
 11
377.9628075596
 21
114.3684713287
 31
0.0
  0
SPLINE
  5
90
330
1F
100
AcDbEntity
  8
0
  6
Continuous
 62
     7
370
    25
100
AcDbSpline
210
0.0
220
0.0
230
1.0
 70
     8
 71
     3
 72
     8
 73
     4
 74
     0
 42
0.000000001
 43
0.00000001
 40
0.0000004028655191
 40
0.0000004028655191
 40
0.0000004028655191
 40
0.0000004028655191
 40
0.0015137684369673
 40
0.0015137684369673
 40
0.0015137684369673
 40
0.0015137684369673
 10
379.3067376303082
 20
105.016195924875
 30
0.0
 10
379.1000661427569
 20
104.9439019831603
 30
0.0
 10
378.8934471742162
 20
104.8715704972035
 30
0.0
 10
378.6868707994076
 20
104.7992086267672
 30
0.0
  0
LINE
  5
91
330
1F
100
AcDbEntity
  8
0
  6
Continuous
 62
     7
370
    25
100
AcDbLine
 10
378.6868707994
 20
104.7992086268
 30
0.0
 11
377.5992194191
 21
104.7992086268
 31
0.0
  0
LINE
  5
92
330
1F
100
AcDbEntity
  8
0
  6
Continuous
 62
     7
370
    25
100
AcDbLine
 10
377.5642472847
 20
105.2322213287
 30
0.0
 11
377.3411921778
 21
104.9684704567
 31
0.0
  0
LINE
  5
93
330
1F
100
AcDbEntity
  8
0
  6
Continuous
 62
     7
370
    25
100
AcDbLine
 10
379.331857112
 20
105.2322213287
 30
0.0
 11
377.5644617421
 21
105.2322213287
 31
0.0
  0
LINE
  5
94
330
1F
100
AcDbEntity
  8
0
  6
Continuous
 62
     7
370
    25
100
AcDbLine
 10
379.3425144621
 20
105.0746402936
 30
0.0
 11
379.3318571154
 21
105.232221253
 31
0.0
  0
SPLINE
  5
95
330
1F
100
AcDbEntity
  8
0
  6
Continuous
 62
     7
370
    25
100
AcDbSpline
210
0.0
220
0.0
230
1.0
 70
     8
 71
     3
 72
     8
 73
     4
 74
     0
 42
0.000000001
 43
0.00000001
 40
0.0006523765358269
 40
0.0006523765358269
 40
0.0006523765358269
 40
0.0006523765358269
 40
0.0009043636494504
 40
0.0009043636494504
 40
0.0009043636494504
 40
0.0009043636494504
 10
379.3436145053431
 20
105.0764340223236
 30
0.0
 10
379.3312975108256
 20
105.0563584413414
 30
0.0
 10
379.3190053134215
 20
105.036279052819
 30
0.0
 10
379.3067376303082
 20
105.016195924875
 30
0.0
  0
LINE
  5
96
330
1F
100
AcDbEntity
  8
0
  6
Continuous
 62
     7
370
    25
100
AcDbLine
 10
398.1194723971
 20
104.9684704567
 30
0.0
 11
397.8964172902
 21
105.2322213287
 31
0.0
  0
LINE
  5
97
330
1F
100
AcDbEntity
  8
0
  6
Continuous
 62
     7
370
    25
100
AcDbLine
 10
397.8614451558
 20
104.7992086268
 30
0.0
 11
396.7737937755
 21
104.7992086268
 31
0.0
  0
SPLINE
  5
98
330
1F
100
AcDbEntity
  8
0
  6
Continuous
 62
     7
370
    25
100
AcDbSpline
210
0.0
220
0.0
230
1.0
 70
     8
 71
     3
 72
     8
 73
     4
 74
     0
 42
0.000000001
 43
0.00000001
 40
0.0000004024872366
 40
0.0000004024872366
 40
0.0000004024872366
 40
0.0000004024872366
 40
0.0015137680586847
 40
0.0015137680586847
 40
0.0015137680586847
 40
0.0015137680586847
 10
396.7737937754929
 20
104.7992086267672
 30
0.0
 10
396.5672174006842
 20
104.8715704972035
 30
0.0
 10
396.3605984321436
 20
104.9439019831603
 30
0.0
 10
396.1539269445923
 20
105.016195924875
 30
0.0
  0
SPLINE
  5
99
330
1F
100
AcDbEntity
  8
0
  6
Continuous
 62
     7
370
    25
100
AcDbSpline
210
0.0
220
0.0
230
1.0
 70
     8
 71
     3
 72
     8
 73
     4
 74
     0
 42
0.000000001
 43
0.00000001
 40
0.0000002414707367
 40
0.0000002414707367
 40
0.0000002414707367
 40
0.0000002414707367
 40
0.0002447240690309
 40
0.0002447240690309
 40
0.0002447240690309
 40
0.0002447240690309
 10
396.1539269445923
 20
105.016195924875
 30
0.0
 10
396.1420246092372
 20
105.0356809508216
 30
0.0
 10
396.1300991980255
 20
105.0551624566459
 30
0.0
 10
396.1181504527306
 20
105.0746403801578
 30
0.0
  0
LINE
  5
9A
330
1F
100
AcDbEntity
  8
0
  6
Continuous
 62
     7
370
    25
100
AcDbLine
 10
396.1288074451
 20
105.232221253
 30
0.0
 11
396.1181500934
 21
105.0746403251
 31
0.0
  0
LINE
  5
9B
330
1F
100
AcDbEntity
  8
0
  6
Continuous
 62
     7
370
    25
100
AcDbLine
 10
397.8964172902
 20
105.2322213287
 30
0.0
 11
396.1236988538
 21
105.2322213287
 31
0.0
  0
SPLINE
  5
9C
330
1F
100
AcDbEntity
  8
0
  6
Continuous
 62
     7
370
    25
100
AcDbSpline
210
0.0
220
0.0
230
1.0
 70
     8
 71
     3
 72
     8
 73
     4
 74
     0
 42
0.000000001
 43
0.00000001
 40
0.000000410413179
 40
0.000000410413179
 40
0.000000410413179
 40
0.000000410413179
 40
0.0015399883258131
 40
0.0015399883258131
 40
0.0015399883258131
 40
0.0015399883258131
 10
395.6118441396802
 20
114.5844967324439
 30
0.0
 10
395.8239621228945
 20
114.6566902778697
 30
0.0
 10
396.0358824460847
 20
114.7290291478982
 30
0.0
 10
396.2476437048791
 20
114.8014840305516
 30
0.0
  0
LINE
  5
9D
330
1F
100
AcDbEntity
  8
0
  6
Continuous
 62
     7
370
    25
100
AcDbLine
 10
397.3946918652
 20
114.8014840306
 30
0.0
 11
396.2476437049
 21
114.8014840306
 31
0.0
  0
LINE
  5
9E
330
1F
100
AcDbEntity
  8
0
  6
Continuous
 62
     7
370
    25
100
AcDbLine
 10
397.4978570153
 20
114.3684713287
 30
0.0
 11
397.7062653368
 21
114.6167705781
 31
0.0
  0
LINE
  5
9F
330
1F
100
AcDbEntity
  8
0
  6
Continuous
 62
     7
370
    25
100
AcDbLine
 10
397.4976669596
 20
114.3684713287
 30
0.0
 11
395.6060620217
 21
114.3684713287
 31
0.0
  0
LINE
  5
A0
330
1F
100
AcDbEntity
  8
0
  6
Continuous
 62
     7
370
    25
100
AcDbLine
 10
395.6036902347
 20
114.5692842634
 30
0.0
 11
395.606061745
 21
114.3684714981
 31
0.0
  0
LINE
  5
A1
330
1F
100
AcDbEntity
  8
0
  6
Continuous
 62
     7
370
    25
100
AcDbLine
 10
395.6036912326
 20
114.5692841296
 30
0.0
 11
395.6118441397
 21
114.5844967324
 31
0.0
  0
ARC
  5
A2
330
1F
100
AcDbEntity
  8
0
  6
Continuous
 62
     7
370
    25
100
AcDbCircle
 10
387.7303322875
 20
109.3384713287
 30
0.0
 40
10.11875000000005
100
AcDbArc
 50
206.6538426687
 51
333.3461573313
  0
ARC
  5
A3
330
1F
100
AcDbEntity
  8
0
  6
Continuous
 62
     7
370
    25
100
AcDbCircle
 10
387.7303322875
 20
109.3384713287
 30
0.0
 40
10.11874999999998
100
AcDbArc
 50
32.6761561262
 51
147.3238438738
  0
ARC
  5
A4
330
1F
100
AcDbEntity
  8
0
  6
Continuous
 62
     7
370
    25
100
AcDbCircle
 10
387.7303322875
 20
109.3384713287
 30
0.0
 40
9.467788105676684
100
AcDbArc
 50
33.6481949792
 51
146.3518050208
  0
ARC
  5
A5
330
1F
100
AcDbEntity
  8
0
  6
Continuous
 62
     7
370
    25
100
AcDbCircle
 10
387.7303322875
 20
109.3384713287
 30
0.0
 40
9.467788105676657
100
AcDbArc
 50
207.1630537883
 51
332.8369462117
  0
SPLINE
  5
A6
330
1F
100
AcDbEntity
  8
0
  6
Continuous
 62
     7
370
    25
100
AcDbSpline
210
0.0
220
0.0
230
1.0
 70
     8
 71
     3
 72
     8
 73
     4
 74
     0
 42
0.000000001
 43
0.00000001
 40
0.0
 40
0.0
 40
0.0
 40
0.0
 40
1.0
 40
1.0
 40
1.0
 40
1.0
 10
377.1359061723198
 20
104.7773079730827
 30
0.0
 10
377.0826633473781
 20
104.7778316993206
 30
0.0
 10
377.0293680617625
 20
104.7786297925829
 30
0.0
 10
376.976022556273
 20
104.7797028405078
 30
0.0
  0
LINE
  5
A7
330
1F
100
AcDbEntity
  8
0
  6
Continuous
 62
     7
370
    25
100
AcDbLine
 10
377.4041101544
 20
105.2322213287
 30
0.0
 11
377.5642472847
 21
105.2322213287
 31
0.0
  0
LINE
  5
A8
330
1F
100
AcDbEntity
  8
0
  6
Continuous
 62
     7
370
    25
100
AcDbLine
 10
397.8964172902
 20
105.2322213287
 30
0.0
 11
398.0565544205
 21
105.2322213287
 31
0.0
  0
SPLINE
  5
A9
330
1F
100
AcDbEntity
  8
0
  6
Continuous
 62
     7
370
    25
100
AcDbSpline
210
0.0
220
0.0
230
1.0
 70
     8
 71
     3
 72
     8
 73
     4
 74
     0
 42
0.000000001
 43
0.00000001
 40
0.0
 40
0.0
 40
0.0
 40
0.0
 40
1.0
 40
1.0
 40
1.0
 40
1.0
 10
398.4846420186275
 20
104.7797028405078
 30
0.0
 10
398.4312965131381
 20
104.7786297925829
 30
0.0
 10
398.3780012275224
 20
104.7778316993206
 30
0.0
 10
398.3247584025807
 20
104.7773079730827
 30
0.0
  0
LINE
  5
AA
330
1F
100
AcDbEntity
  8
0
  6
Continuous
 62
     7
370
    25
100
AcDbLine
 10
377.9628075596
 20
114.3684713287
 30
0.0
 11
377.8393905759
 21
114.3684713287
 31
0.0
  0
SPLINE
  5
AB
330
1F
100
AcDbEntity
  8
0
  6
Continuous
 62
     7
370
    25
100
AcDbSpline
210
0.0
220
0.0
230
1.0
 70
     8
 71
     3
 72
     8
 73
     4
 74
     0
 42
0.000000001
 43
0.00000001
 40
0.0
 40
0.0
 40
0.0
 40
0.0
 40
1.0
 40
1.0
 40
1.0
 40
1.0
 10
377.4426413627705
 20
114.7889168455958
 30
0.0
 10
377.4837567898123
 20
114.7897857832357
 30
0.0
 10
377.5248310844234
 20
114.7904668208186
 30
0.0
 10
377.5658628569125
 20
114.7909603988801
 30
0.0
  0
SPLINE
  5
AC
330
1F
100
AcDbEntity
  8
0
  6
Continuous
 62
     7
370
    25
100
AcDbSpline
210
0.0
220
0.0
230
1.0
 70
     8
 71
     3
 72
     8
 73
     4
 74
     0
 42
0.000000001
 43
0.00000001
 40
0.0
 40
0.0
 40
0.0
 40
0.0
 40
1.0
 40
1.0
 40
1.0
 40
1.0
 10
397.894801717988
 20
114.7909603988801
 30
0.0
 10
397.9358334904771
 20
114.7904668208186
 30
0.0
 10
397.9769077850881
 20
114.7897857832358
 30
0.0
 10
398.0180232121301
 20
114.7889168455958
 30
0.0
  0
LINE
  5
AD
330
1F
100
AcDbEntity
  8
0
  6
Continuous
 62
     7
370
    25
100
AcDbLine
 10
397.621273999
 20
114.3684713287
 30
0.0
 11
397.4978570153
 21
114.3684713287
 31
0.0
  0
SPLINE
  5
AE
330
1F
100
AcDbEntity
  8
0
  6
Continuous
 62
     7
370
    25
100
AcDbSpline
210
0.0
220
0.0
230
1.0
 70
     8
 71
     3
 72
     9
 73
     5
 74
     0
 42
0.000000001
 43
0.00000001
 40
0.0
 40
0.0
 40
0.0
 40
0.0
 40
0.4897855392460848
 40
1.0
 40
1.0
 40
1.0
 40
1.0
 10
394.8359218521017
 20
114.5615881948972
 30
0.0
 10
394.9622765246499
 20
114.5629065066882
 30
0.0
 10
395.2202561145388
 20
114.5655981169653
 30
0.0
 10
395.4741504785949
 20
114.5680390162624
 30
0.0
 10
395.6036910546402
 20
114.569284398381
 30
0.0
  0
ARC
  5
AF
330
1F
100
AcDbEntity
  8
0
  6
Continuous
 62
     7
370
    25
100
AcDbCircle
 10
387.7303322875
 20
109.3384713287
 30
0.0
 40
8.818750000000028
100
AcDbArc
 50
36.3185452201
 51
143.6814533294
  0
SPLINE
  5
B0
330
1F
100
AcDbEntity
  8
0
  6
Continuous
 62
     7
370
    25
100
AcDbSpline
210
0.0
220
0.0
230
1.0
 70
     8
 71
     3
 72
     9
 73
     5
 74
     0
 42
0.000000001
 43
0.00000001
 40
0.0
 40
0.0
 40
0.0
 40
0.0
 40
0.5102144635023922
 40
1.0
 40
1.0
 40
1.0
 40
1.0
 10
379.8569734191355
 20
114.5692845869853
 30
0.0
 10
379.9865140349355
 20
114.568039203463
 30
0.0
 10
380.2404084755412
 20
114.5655983014279
 30
0.0
 10
380.4983881444689
 20
114.562906688067
 30
0.0
 10
380.6247428550201
 20
114.5615883747729
 30
0.0
  0
SPLINE
  5
B1
330
1F
100
AcDbEntity
  8
0
  6
Continuous
 62
     7
370
    25
100
AcDbSpline
210
0.0
220
0.0
230
1.0
 70
     8
 71
     3
 72
     8
 73
     4
 74
     0
 42
0.000000001
 43
0.00000001
 40
0.0
 40
0.0
 40
0.0
 40
0.0
 40
1.0
 40
1.0
 40
1.0
 40
1.0
 10
380.6247426013455
 20
114.5615879054957
 30
0.0
 10
380.6169815434001
 20
114.5510296702967
 30
0.0
 10
380.6092440183042
 20
114.5404541367703
 30
0.0
 10
380.6015301029348
 20
114.5298614099909
 30
0.0
  0
SPLINE
  5
B2
330
1F
100
AcDbEntity
  8
0
  6
Continuous
 62
     7
370
    25
100
AcDbSpline
210
0.0
220
0.0
230
1.0
 70
     8
 71
     3
 72
     8
 73
     4
 74
     0
 42
0.000000001
 43
0.00000001
 40
0.0
 40
0.0
 40
0.0
 40
0.0
 40
1.0
 40
1.0
 40
1.0
 40
1.0
 10
380.4299722701717
 20
114.3684716675277
 30
0.0
 10
380.4872326772061
 20
114.4223798445154
 30
0.0
 10
380.5444190683158
 20
114.4761767695986
 30
0.0
 10
380.6015301029348
 20
114.5298614099909
 30
0.0
  0
LINE
  5
B3
330
1F
100
AcDbEntity
  8
0
  6
Continuous
 62
     7
370
    25
100
AcDbLine
 10
380.4299729699
 20
114.3684713287
 30
0.0
 11
379.8546024772
 21
114.3684713287
 31
0.0
  0
SPLINE
  5
B4
330
1F
100
AcDbEntity
  8
0
  6
Continuous
 62
     7
370
    25
100
AcDbSpline
210
0.0
220
0.0
230
1.0
 70
     8
 71
     3
 72
     8
 73
     4
 74
     0
 42
0.000000001
 43
0.00000001
 40
0.0
 40
0.0
 40
0.0
 40
0.0
 40
1.0
 40
1.0
 40
1.0
 40
1.0
 10
394.8592499037469
 20
114.529702895692
 30
0.0
 10
394.8514977910462
 20
114.5403485723646
 30
0.0
 10
394.843721832379
 20
114.5509768845588
 30
0.0
 10
394.8359221057756
 20
114.5615877256213
 30
0.0
  0
LINE
  5
B5
330
1F
100
AcDbEntity
  8
0
  6
Continuous
 62
     7
370
    25
100
AcDbLine
 10
395.6060620217
 20
114.3684713287
 30
0.0
 11
395.0306630052
 21
114.3684713287
 31
0.0
  0
SPLINE
  5
B6
330
1F
100
AcDbEntity
  8
0
  6
Continuous
 62
     7
370
    25
100
AcDbSpline
210
0.0
220
0.0
230
1.0
 70
     8
 71
     3
 72
     8
 73
     4
 74
     0
 42
0.000000001
 43
0.00000001
 40
0.0
 40
0.0
 40
0.0
 40
0.0
 40
1.0
 40
1.0
 40
1.0
 40
1.0
 10
394.8592499037469
 20
114.529702895692
 30
0.0
 10
394.916313031433
 20
114.4760709452762
 30
0.0
 10
394.9734514111632
 20
114.4223268589113
 30
0.0
 10
395.030663704637
 20
114.3684716676611
 30
0.0
  0
ARC
  5
B7
330
1F
100
AcDbEntity
  8
0
  6
Continuous
 62
     7
370
    25
100
AcDbCircle
 10
387.7303322875
 20
109.3384713287
 30
0.0
 40
8.818749999999996
100
AcDbArc
 50
209.2047569376
 51
330.7952430624
  0
SPLINE
  5
B8
330
1F
100
AcDbEntity
  8
0
  6
Continuous
 62
     7
370
    25
100
AcDbSpline
210
0.0
220
0.0
230
1.0
 70
    24
 71
     3
 72
     8
 73
     4
 74
     0
 42
0.000000001
 43
0.00000001
 40
0.0
 40
0.0
 40
0.0
 40
0.0
 40
0.000136040218399
 40
0.000136040218399
 40
0.000136040218399
 40
0.000136040218399
 10
395.4714676842945
 20
105.0789308978082
 30
0.0
 10
395.4570286846105
 20
105.0644918981242
 30
0.0
 10
395.4425582322482
 20
105.0500214457619
 30
0.0
 10
395.4280566336968
 20
105.0355198472105
 30
0.0
  0
SPLINE
  5
B9
330
1F
100
AcDbEntity
  8
0
  6
Continuous
 62
     7
370
    25
100
AcDbSpline
210
0.0
220
0.0
230
1.0
 70
     8
 71
     3
 72
     9
 73
     5
 74
     0
 42
0.000000001
 43
0.00000001
 40
0.0
 40
0.0
 40
0.0
 40
0.0
 40
0.5086468812161952
 40
0.9999999999999999
 40
0.9999999999999999
 40
0.9999999999999999
 40
0.9999999999999999
 10
396.1181504130508
 20
105.0746402920231
 30
0.0
 10
396.0089840322683
 20
105.0753344105567
 30
0.0
 10
395.7943628779588
 20
105.0766990479096
 30
0.0
 10
395.5778513658749
 20
105.0781953371151
 30
0.0
 10
395.4714677591599
 20
105.0789305434829
 30
0.0
  0
SPLINE
  5
BA
330
1F
100
AcDbEntity
  8
0
  6
Continuous
 62
     7
370
    25
100
AcDbSpline
210
0.0
220
0.0
230
1.0
 70
     8
 71
     3
 72
     9
 73
     5
 74
     0
 42
0.000000001
 43
0.00000001
 40
0.0
 40
0.0
 40
0.0
 40
0.0
 40
0.4913531182532287
 40
1.0
 40
1.0
 40
1.0
 40
1.0
 10
379.9891968462051
 20
105.0789305130183
 30
0.0
 10
379.8828132313742
 20
105.0781953064718
 30
0.0
 10
379.666301702539
 20
105.076699016901
 30
0.0
 10
379.4516805317796
 20
105.0753343792191
 30
0.0
 10
379.3425141425159
 20
105.0746402605175
 30
0.0
  0
SPLINE
  5
BB
330
1F
100
AcDbEntity
  8
0
  6
Continuous
 62
     7
370
    25
100
AcDbSpline
210
0.0
220
0.0
230
1.0
 70
    24
 71
     3
 72
     8
 73
     4
 74
     0
 42
0.000000001
 43
0.00000001
 40
0.0
 40
0.0
 40
0.0
 40
0.0
 40
0.0001360401227241
 40
0.0001360401227241
 40
0.0001360401227241
 40
0.0001360401227241
 10
380.0326079412038
 20
105.0355198472105
 30
0.0
 10
380.018106352851
 20
105.0500214355632
 30
0.0
 10
380.0036359106438
 20
105.0644918777704
 30
0.0
 10
379.9891969210705
 20
105.0789308673438
 30
0.0
  0
LINE
  5
BC
330
1F
100
AcDbEntity
  8
0
  6
Continuous
 62
     7
370
    25
100
AcDbLine
 10
379.3318569934
 20
105.2322213287
 30
0.0
 11
379.8359068655
 21
105.2322213287
 31
0.0
  0
SPLINE
  5
BD
330
1F
100
AcDbEntity
  8
0
  6
Continuous
 62
     7
370
    25
100
AcDbSpline
210
0.0
220
0.0
230
1.0
 70
     8
 71
     3
 72
     8
 73
     4
 74
     0
 42
0.000000001
 43
0.00000001
 40
0.0
 40
0.0
 40
0.0
 40
0.0
 40
1.0
 40
1.0
 40
1.0
 40
1.0
 10
379.9891971209024
 20
105.0789306677566
 30
0.0
 10
379.938128358298
 20
105.1299731595007
 30
0.0
 10
379.887031398662
 20
105.1810701315266
 30
0.0
 10
379.8359065571464
 20
105.2322212312678
 30
0.0
  0
SPLINE
  5
BE
330
1F
100
AcDbEntity
  8
0
  6
Continuous
 62
     7
370
    25
100
AcDbSpline
210
0.0
220
0.0
230
1.0
 70
     8
 71
     3
 72
     8
 73
     4
 74
     0
 42
0.000000001
 43
0.00000001
 40
0.0
 40
0.0
 40
0.0
 40
0.0
 40
1.0
 40
1.0
 40
1.0
 40
1.0
 10
395.6247580177542
 20
105.2322212312679
 30
0.0
 10
395.573633186409
 20
105.1810701417126
 30
0.0
 10
395.522536236928
 20
105.1299731798416
 30
0.0
 10
395.4714674844627
 20
105.0789306982212
 30
0.0
  0
LINE
  5
BF
330
1F
100
AcDbEntity
  8
0
  6
Continuous
 62
     7
370
    25
100
AcDbLine
 10
395.6247577094
 20
105.2322213287
 30
0.0
 11
396.1288075671
 21
105.2322213287
 31
0.0
  0
CIRCLE
  5
C0
330
1F
100
AcDbEntity
  8
0
  6
Continuous
 62
     7
370
    25
100
AcDbCircle
 10
387.7303322875
 20
109.3384713287
 30
0.0
 40
12.47086902276413
  0
SPLINE
  5
C1
330
1F
100
AcDbEntity
  8
0
  6
Continuous
 62
     7
370
    25
100
AcDbSpline
210
0.0
220
0.0
230
1.0
 70
     8
 71
     3
 72
    23
 73
    19
 74
     0
 42
0.000000001
 43
0.00000001
 40
0.0
 40
0.0
 40
0.0
 40
0.0
 40
0.0521034701696204
 40
0.1035642834103258
 40
0.1544746865170929
 40
0.2049299526130454
 40
0.2550279491471202
 40
0.304868636019722
 40
0.354553504121484
 40
0.4041849683430035
 40
0.4538657321707252
 40
0.5036981429683899
 40
0.5902048055413047
 40
0.674300890334858
 40
0.7566325442054724
 40
0.8378852029912961
 40
0.9187688149236596
 40
1.0
 40
1.0
 40
1.0
 40
1.0
 10
376.8910801407928
 20
113.8288820414093
 30
0.0
 10
376.9043744957434
 20
113.8580499345729
 30
0.0
 10
376.9307992298233
 20
113.9160259569808
 30
0.0
 10
376.9700102360455
 20
113.9989252579888
 30
0.0
 10
377.0084521908655
 20
114.0781072390374
 30
0.0
 10
377.046039772285
 20
114.1533620557361
 30
0.0
 10
377.0826956587699
 20
114.2247817103815
 30
0.0
 10
377.1183455221728
 20
114.2923783177285
 30
0.0
 10
377.1529192713691
 20
114.3561846445198
 30
0.0
 10
377.1863509562453
 20
114.416228166727
 30
0.0
 10
377.2185778674104
 20
114.4725349376989
 30
0.0
 10
377.2570832288132
 20
114.5379465089954
 30
0.0
 10
377.2997513986782
 20
114.6075186148623
 30
0.0
 10
377.343252305554
 20
114.6742906841558
 30
0.0
 10
377.3796678578271
 20
114.7260193487597
 30
0.0
 10
377.4085666447757
 20
114.7624642127444
 30
0.0
 10
377.4304773941299
 20
114.7850509960844
 30
0.0
 10
377.4385809152569
 20
114.78762638855
 30
0.0
 10
377.4426413627705
 20
114.7889168455958
 30
0.0
  0
SPLINE
  5
C2
330
1F
100
AcDbEntity
  8
0
  6
Continuous
 62
     7
370
    25
100
AcDbSpline
210
0.0
220
0.0
230
1.0
 70
     8
 71
     3
 72
     8
 73
     4
 74
     0
 42
0.000000001
 43
0.00000001
 40
0.0
 40
0.0
 40
0.0
 40
0.0
 40
1.0
 40
1.0
 40
1.0
 40
1.0
 10
376.77044220093
 20
113.8266716839995
 30
0.0
 10
376.810631214523
 20
113.827401994217
 30
0.0
 10
376.850793516613
 20
113.8279825200465
 30
0.0
 10
376.8909282270885
 20
113.8284134849963
 30
0.0
  0
SPLINE
  5
C3
330
1F
100
AcDbEntity
  8
0
  6
Continuous
 62
     7
370
    25
100
AcDbSpline
210
0.0
220
0.0
230
1.0
 70
     8
 71
     3
 72
    18
 73
    14
 74
     0
 42
0.000000001
 43
0.00000001
 40
0.0
 40
0.0
 40
0.0
 40
0.0
 40
0.0923645816205075
 40
0.1844372988294163
 40
0.276454302110804
 40
0.3686515499648411
 40
0.4612630116255962
 40
0.554518937065566
 40
0.6486442564287672
 40
0.7438571603357742
 40
0.8403678983473314
 40
0.9203923541258042
 40
0.9999999999999999
 40
0.9999999999999999
 40
0.9999999999999999
 40
0.9999999999999999
 10
376.8233811897294
 20
114.0934886908813
 30
0.0
 10
376.8252177693232
 20
114.0932833477989
 30
0.0
 10
376.8288851250715
 20
114.0928733105011
 30
0.0
 10
376.8316823016127
 20
114.0860750131664
 30
0.0
 10
376.8324858498628
 20
114.0747458094829
 30
0.0
 10
376.831120269855
 20
114.0584473958154
 30
0.0
 10
376.82765862417
 20
114.0372960286958
 30
0.0
 10
376.8221165704102
 20
114.0112580667577
 30
0.0
 10
376.8145307353741
 20
113.9803293223128
 30
0.0
 10
376.804951740771
 20
113.9445237492796
 30
0.0
 10
376.7941097651716
 20
113.9062677895264
 30
0.0
 10
376.7826203282117
 20
113.8670467804495
 30
0.0
 10
376.774520335024
 20
113.8401917849686
 30
0.0
 10
376.7704809132373
 20
113.8267993473068
 30
0.0
  0
LINE
  5
C4
330
1F
100
AcDbEntity
  8
0
  6
Continuous
 62
     7
370
    25
100
AcDbLine
 10
376.7706258305
 20
114.0927409735
 30
0.0
 11
376.8233811897
 21
114.0934886909
 31
0.0
  0
SPLINE
  5
C5
330
1F
100
AcDbEntity
  8
0
  6
Continuous
 62
     7
370
    25
100
AcDbSpline
210
0.0
220
0.0
230
1.0
 70
     8
 71
     3
 72
    25
 73
    21
 74
     0
 42
0.000000001
 43
0.00000001
 40
0.0
 40
0.0
 40
0.0
 40
0.0
 40
0.0280056024288432
 40
0.0559514328347808
 40
0.0838901607643795
 40
0.1118745076912761
 40
0.1399569498912944
 40
0.1681894282721918
 40
0.1966230730105298
 40
0.2253079499156092
 40
0.2542928341277229
 40
0.3799484016866114
 40
0.5057844887502296
 40
0.6313077644974885
 40
0.753205717341519
 40
0.803962739492204
 40
0.8536129947759985
 40
0.9025574087118227
 40
0.9512124407386962
 40
1.0
 40
1.0
 40
1.0
 40
1.0
 10
375.8596644226766
 20
111.5258090711938
 30
0.0
 10
375.8666421345613
 20
111.5631126502981
 30
0.0
 10
375.8805826658837
 20
111.6376401919233
 30
0.0
 10
375.903101167804
 20
111.7489349819871
 30
0.0
 10
375.9267322419999
 20
111.859587739284
 30
0.0
 10
375.9515802805971
 20
111.9695672337557
 30
0.0
 10
375.9775984730393
 20
112.078862510906
 30
0.0
 10
376.0047806747862
 20
112.1874583512597
 30
0.0
 10
376.0331085211103
 20
112.2953386459273
 30
0.0
 10
376.0625710154342
 20
112.4024978059222
 30
0.0
 10
376.1269822859606
 20
112.6266836808781
 30
0.0
 10
376.2320859994991
 20
112.9533555842576
 30
0.0
 10
376.3775486211326
 20
113.3393017380935
 30
0.0
 10
376.5168124772834
 20
113.6613827436733
 30
0.0
 10
376.6139649528512
 20
113.8572108613431
 30
0.0
 10
376.6742682243518
 20
113.9665729825516
 30
0.0
 10
376.7091651195085
 20
114.0245162845982
 30
0.0
 10
376.7370602606119
 20
114.0649711883925
 30
0.0
 10
376.7584191883284
 20
114.0895745488129
 30
0.0
 10
376.766553262175
 20
114.0916845420034
 30
0.0
 10
376.7706258304902
 20
114.0927409734515
 30
0.0
  0
ARC
  5
C6
330
1F
100
AcDbEntity
  8
0
  6
Continuous
 62
     7
370
    25
100
AcDbCircle
 10
387.7303322875
 20
109.3384713287
 30
0.0
 40
12.07050959801142
100
AcDbArc
 50
169.5595567507
 51
190.4404432494
  0
SPLINE
  5
C7
330
1F
100
AcDbEntity
  8
0
  6
Continuous
 62
     7
370
    25
100
AcDbSpline
210
0.0
220
0.0
230
1.0
 70
     8
 71
     3
 72
    26
 73
    22
 74
     0
 42
0.000000001
 43
0.00000001
 40
0.0
 40
0.0
 40
0.0
 40
0.0
 40
0.0241214275655765
 40
0.0482078233550631
 40
0.0723095879210365
 40
0.0964771461131097
 40
0.1207606318218786
 40
0.1452095829274057
 40
0.1698726554215267
 40
0.1947973643381856
 40
0.2200298573586289
 40
0.2456147249583995
 40
0.3690974744028633
 40
0.4940700204039666
 40
0.6192566393622437
 40
0.7454654421861411
 40
0.7971580294157585
 40
0.8481837569726721
 40
0.8988139831107741
 40
0.9493262809200852
 40
1.0
 40
1.0
 40
1.0
 40
1.0
 10
376.7706258304902
 20
104.5842016838673
 30
0.0
 10
376.7687170158151
 20
104.5844858768472
 30
0.0
 10
376.7649021586543
 20
104.5850538500707
 30
0.0
 10
376.7569453250047
 20
104.5911066699862
 30
0.0
 10
376.7473686003359
 20
104.6009816385275
 30
0.0
 10
376.736022767093
 20
104.6150602108928
 30
0.0
 10
376.7229669866257
 20
104.633254956112
 30
0.0
 10
376.7082105175112
 20
104.6556064312097
 30
0.0
 10
376.6917818148851
 20
104.6821233427324
 30
0.0
 10
376.6737112084098
 20
104.7128232537801
 30
0.0
 10
376.6540306587253
 20
104.7477306029639
 30
0.0
 10
376.6058286921351
 20
104.8364999148124
 30
0.0
 10
376.5175094176593
 20
105.0137824708253
 30
0.0
 10
376.3784496623925
 20
105.3348687773007
 30
0.0
 10
376.232777045383
 20
105.7214511236883
 30
0.0
 10
376.119035077846
 20
106.0751696973405
 30
0.0
 10
376.0393253485361
 20
106.3574391594571
 30
0.0
 10
375.9886721517898
 20
106.5518986433713
 30
0.0
 10
375.9417062320849
 20
106.7491403344807
 30
0.0
 10
375.8981507391483
 20
106.9490277226783
 30
0.0
 10
375.8725068313431
 20
107.0836933546289
 30
0.0
 10
375.8596644226766
 20
107.1511335861251
 30
0.0
  0
LINE
  5
C8
330
1F
100
AcDbEntity
  8
0
  6
Continuous
 62
     7
370
    25
100
AcDbLine
 10
376.8233811897
 20
104.5834539664
 30
0.0
 11
376.7706258305
 21
104.5842016839
 31
0.0
  0
SPLINE
  5
C9
330
1F
100
AcDbEntity
  8
0
  6
Continuous
 62
     7
370
    25
100
AcDbSpline
210
0.0
220
0.0
230
1.0
 70
     8
 71
     3
 72
    14
 73
    10
 74
     0
 42
0.000000001
 43
0.00000001
 40
0.0
 40
0.0
 40
0.0
 40
0.0
 40
0.0789259589571543
 40
0.158232396190405
 40
0.3308776440750645
 40
0.5000645817723345
 40
0.6670803235527131
 40
0.8332687177870088
 40
0.9999999999999999
 40
0.9999999999999999
 40
0.9999999999999999
 40
0.9999999999999999
 10
376.7703843328973
 20
104.8504774436772
 30
0.0
 10
376.7743988847315
 20
104.8371743073107
 30
0.0
 10
376.782447341345
 20
104.8105039041641
 30
0.0
 10
376.7973493386174
 20
104.7596846351083
 30
0.0
 10
376.813248626955
 20
104.7026373776551
 30
0.0
 10
376.8263296742824
 20
104.648326360625
 30
0.0
 10
376.8325626042043
 20
104.6101586386832
 30
0.0
 10
376.8323714855898
 20
104.5867555046349
 30
0.0
 10
376.8263812111049
 20
104.584555674915
 30
0.0
 10
376.8233811897294
 20
104.5834539664375
 30
0.0
  0
SPLINE
  5
CA
330
1F
100
AcDbEntity
  8
0
  6
Continuous
 62
     7
370
    25
100
AcDbSpline
210
0.0
220
0.0
230
1.0
 70
     8
 71
     3
 72
     8
 73
     4
 74
     0
 42
0.000000001
 43
0.00000001
 40
0.0
 40
0.0
 40
0.0
 40
0.0
 40
1.0
 40
1.0
 40
1.0
 40
1.0
 10
376.9176890241021
 20
104.8484163652917
 30
0.0
 10
376.8686211090733
 20
104.8489034185037
 30
0.0
 10
376.8195116715525
 20
104.8496144863785
 30
0.0
 10
376.7703623270272
 20
104.8505499796128
 30
0.0
  0
SPLINE
  5
CB
330
1F
100
AcDbEntity
  8
0
  6
Continuous
 62
     7
370
    25
100
AcDbSpline
210
0.0
220
0.0
230
1.0
 70
     8
 71
     3
 72
    13
 73
     9
 74
     0
 42
0.000000001
 43
0.00000001
 40
0.0
 40
0.0
 40
0.0
 40
0.0
 40
0.1666651380536976
 40
0.3328869540146011
 40
0.4989979369855639
 40
0.6653319948464096
 40
0.832222439950292
 40
1.0
 40
1.0
 40
1.0
 40
1.0
 10
376.976022556273
 20
104.7797028405078
 30
0.0
 10
376.9741805936201
 20
104.7801176344735
 30
0.0
 10
376.9705015678559
 20
104.7809461190708
 30
0.0
 10
376.9629864696083
 20
104.7869570411365
 30
0.0
 10
376.9540363691441
 20
104.7964505875614
 30
0.0
 10
376.9434852140097
 20
104.8098616758557
 30
0.0
 10
376.9315096249405
 20
104.8267836828424
 30
0.0
 10
376.9223010444842
 20
104.8412002318842
 30
0.0
 10
376.9176845495199
 20
104.8484276136037
 30
0.0
  0
SPLINE
  5
CC
330
1F
100
AcDbEntity
  8
0
  6
Continuous
 62
     7
370
    25
100
AcDbSpline
210
0.0
220
0.0
230
1.0
 70
     8
 71
     3
 72
    13
 73
     9
 74
     0
 42
0.000000001
 43
0.00000001
 40
0.0
 40
0.0
 40
0.0
 40
0.0
 40
0.1686717431976176
 40
0.3360976438050112
 40
0.5026076259545951
 40
0.6685363120001365
 40
0.8342210747535599
 40
1.0
 40
1.0
 40
1.0
 40
1.0
 10
398.5429814064986
 20
104.8484310634166
 30
0.0
 10
398.5383428303764
 20
104.8411716120558
 30
0.0
 10
398.5290999395654
 20
104.8267063290665
 30
0.0
 10
398.5170821130107
 20
104.8097214496352
 30
0.0
 10
398.5065156736343
 20
104.7962871560169
 30
0.0
 10
398.497577041539
 20
104.7868088935385
 30
0.0
 10
398.4900983574017
 20
104.7808472841984
 30
0.0
 10
398.48646114264
 20
104.7800843939788
 30
0.0
 10
398.4846420186275
 20
104.7797028405078
 30
0.0
  0
SPLINE
  5
CD
330
1F
100
AcDbEntity
  8
0
  6
Continuous
 62
     7
370
    25
100
AcDbSpline
210
0.0
220
0.0
230
1.0
 70
     8
 71
     3
 72
     8
 73
     4
 74
     0
 42
0.000000001
 43
0.00000001
 40
0.0
 40
0.0
 40
0.0
 40
0.0
 40
1.0
 40
1.0
 40
1.0
 40
1.0
 10
398.690307018471
 20
104.8505500843593
 30
0.0
 10
398.6411560888628
 20
104.8496145540973
 30
0.0
 10
398.5920450687834
 20
104.8489034635852
 30
0.0
 10
398.5429755738757
 20
104.8484164020873
 30
0.0
  0
SPLINE
  5
CE
330
1F
100
AcDbEntity
  8
0
  6
Continuous
 62
     7
370
    25
100
AcDbSpline
210
0.0
220
0.0
230
1.0
 70
     8
 71
     3
 72
    18
 73
    14
 74
     0
 42
0.000000001
 43
0.00000001
 40
0.0
 40
0.0
 40
0.0
 40
0.0
 40
0.0923146492083614
 40
0.1843375917871727
 40
0.2763048505572403
 40
0.3684522564592561
 40
0.4610136522432117
 40
0.5542191634081761
 40
0.648293598500629
 40
0.743455030187018
 40
0.8399135943669072
 40
0.9201663187095083
 40
1.0
 40
1.0
 40
1.0
 40
1.0
 10
398.6372833851711
 20
104.5834539664375
 30
0.0
 10
398.6354468055776
 20
104.5836593095206
 30
0.0
 10
398.6317794498298
 20
104.5840693468197
 30
0.0
 10
398.6289822732855
 20
104.5908676441458
 30
0.0
 10
398.628178725047
 20
104.602196847863
 30
0.0
 10
398.6295443050111
 20
104.6184952614048
 30
0.0
 10
398.6330059508605
 20
104.6396466289971
 30
0.0
 10
398.6385480039999
 20
104.665684589152
 30
0.0
 10
398.6461338413848
 20
104.6966133403471
 30
0.0
 10
398.655712827067
 20
104.7324188877418
 30
0.0
 10
398.6665656737036
 20
104.7707131851136
 30
0.0
 10
398.6780812312335
 20
104.81002160497
 30
0.0
 10
398.6862129484074
 20
104.8369787015917
 30
0.0
 10
398.6902681641806
 20
104.8504219683807
 30
0.0
  0
LINE
  5
CF
330
1F
100
AcDbEntity
  8
0
  6
Continuous
 62
     7
370
    25
100
AcDbLine
 10
398.6900387444
 20
104.5842016839
 30
0.0
 11
398.6372833852
 21
104.5834539664
 31
0.0
  0
SPLINE
  5
D0
330
1F
100
AcDbEntity
  8
0
  6
Continuous
 62
     7
370
    25
100
AcDbSpline
210
0.0
220
0.0
230
1.0
 70
     8
 71
     3
 72
    25
 73
    21
 74
     0
 42
0.000000001
 43
0.00000001
 40
0.0
 40
0.0
 40
0.0
 40
0.0
 40
0.0280056024284644
 40
0.0559514328341146
 40
0.0838901607635225
 40
0.1118745076903239
 40
0.1399569498903393
 40
0.168189428271326
 40
0.1966230730098432
 40
0.2253079499151899
 40
0.2542928341276564
 40
0.3799484016843204
 40
0.505784488750134
 40
0.6313077644946906
 40
0.7532057173413932
 40
0.8039627394917982
 40
0.8536129947754353
 40
0.9025574087112554
 40
0.951212440738308
 40
1.0
 40
1.0
 40
1.0
 40
1.0
 10
399.6010001522239
 20
107.1511335861251
 30
0.0
 10
399.5940224403393
 20
107.1138300070213
 30
0.0
 10
399.5800819090172
 20
107.039302465397
 30
0.0
 10
399.5575634070969
 20
106.9280076753342
 30
0.0
 10
399.5339323329014
 20
106.8173549180381
 30
0.0
 10
399.5090842943042
 20
106.7073754235668
 30
0.0
 10
399.483066101862
 20
106.5980801464165
 30
0.0
 10
399.4558839001151
 20
106.4894843060625
 30
0.0
 10
399.4275560537909
 20
106.381604011394
 30
0.0
 10
399.3980935594667
 20
106.2744448513981
 30
0.0
 10
399.3336822889408
 20
106.0502589764436
 30
0.0
 10
399.2285785754023
 20
105.7235870730641
 30
0.0
 10
399.0831159537697
 20
105.3376409192299
 30
0.0
 10
398.943852097618
 20
105.0155599136476
 30
0.0
 10
398.8466996220506
 20
104.8197317959783
 30
0.0
 10
398.7863963505483
 20
104.7103696747661
 30
0.0
 10
398.7514994553916
 20
104.6524263727192
 30
0.0
 10
398.723604314288
 20
104.6119714689248
 30
0.0
 10
398.7022453865718
 20
104.587368108505
 30
0.0
 10
398.6941113127253
 20
104.5852581153151
 30
0.0
 10
398.6900387444103
 20
104.5842016838673
 30
0.0
  0
ARC
  5
D1
330
1F
100
AcDbEntity
  8
0
  6
Continuous
 62
     7
370
    25
100
AcDbCircle
 10
387.7303322875
 20
109.3384713287
 30
0.0
 40
12.07050959801141
100
AcDbArc
 50
349.5595567507
 51
10.4404432493
  0
SPLINE
  5
D2
330
1F
100
AcDbEntity
  8
0
  6
Continuous
 62
     7
370
    25
100
AcDbSpline
210
0.0
220
0.0
230
1.0
 70
     8
 71
     3
 72
    26
 73
    22
 74
     0
 42
0.000000001
 43
0.00000001
 40
0.0
 40
0.0
 40
0.0
 40
0.0
 40
0.0241214275654721
 40
0.0482078233548781
 40
0.0723095879207937
 40
0.0964771461128324
 40
0.1207606318215892
 40
0.1452095829271266
 40
0.1698726554212825
 40
0.1947973643379968
 40
0.2200298573585139
 40
0.24561472495838
 40
0.3690974744025406
 40
0.4940700204039573
 40
0.6192566393613755
 40
0.7454654421861023
 40
0.7971580294152084
 40
0.8481837569718568
 40
0.8988139831099585
 40
0.9493262809195422
 40
1.0
 40
1.0
 40
1.0
 40
1.0
 10
398.6900387444103
 20
114.0927409734515
 30
0.0
 10
398.6919475590855
 20
114.0924567804717
 30
0.0
 10
398.6957624162462
 20
114.0918888072481
 30
0.0
 10
398.7037192498958
 20
114.0858359873326
 30
0.0
 10
398.7132959745646
 20
114.0759610187913
 30
0.0
 10
398.7246418078074
 20
114.0618824464261
 30
0.0
 10
398.7376975882747
 20
114.0436877012068
 30
0.0
 10
398.7524540573892
 20
114.0213362261091
 30
0.0
 10
398.7688827600154
 20
113.9948193145864
 30
0.0
 10
398.7869533664906
 20
113.9641194035387
 30
0.0
 10
398.8066339161751
 20
113.9292120543549
 30
0.0
 10
398.8548358827652
 20
113.8404427425068
 30
0.0
 10
398.943155157241
 20
113.6631601864939
 30
0.0
 10
399.0822149125076
 20
113.3420738800193
 30
0.0
 10
399.2278875295173
 20
112.955491533631
 30
0.0
 10
399.341629497054
 20
112.6017729599798
 30
0.0
 10
399.4213392263639
 20
112.3195034978636
 30
0.0
 10
399.4719924231101
 20
112.1250440139505
 30
0.0
 10
399.5189583428149
 20
111.927802322841
 30
0.0
 10
399.5625138357519
 20
111.7279149346423
 30
0.0
 10
399.5881577435572
 20
111.5932493026906
 30
0.0
 10
399.6010001522239
 20
111.5258090711937
 30
0.0
  0
LINE
  5
D3
330
1F
100
AcDbEntity
  8
0
  6
Continuous
 62
     7
370
    25
100
AcDbLine
 10
398.6372833852
 20
114.0934886909
 30
0.0
 11
398.6900387444
 21
114.0927409735
 31
0.0
  0
SPLINE
  5
D4
330
1F
100
AcDbEntity
  8
0
  6
Continuous
 62
     7
370
    25
100
AcDbSpline
210
0.0
220
0.0
230
1.0
 70
     8
 71
     3
 72
    14
 73
    10
 74
     0
 42
0.000000001
 43
0.00000001
 40
0.0
 40
0.0
 40
0.0
 40
0.0
 40
0.0786886761523965
 40
0.157755707032
 40
0.3304987231372113
 40
0.4997814706279777
 40
0.6668917926617962
 40
0.8331742986247858
 40
1.0
 40
1.0
 40
1.0
 40
1.0
 10
398.6901916719319
 20
113.8267571817166
 30
0.0
 10
398.6861936577698
 20
113.8400070978934
 30
0.0
 10
398.678178405999
 20
113.8665706391399
 30
0.0
 10
398.6633044420304
 20
113.9172966970731
 30
0.0
 10
398.647415970561
 20
113.9743052173438
 30
0.0
 10
398.6343348946963
 20
114.0286163130123
 30
0.0
 10
398.6281019722568
 20
114.0667840143354
 30
0.0
 10
398.628293088919
 20
114.0901871537634
 30
0.0
 10
398.6342833636648
 20
114.0923869827641
 30
0.0
 10
398.6372833851711
 20
114.0934886908814
 30
0.0
  0
SPLINE
  5
D5
330
1F
100
AcDbEntity
  8
0
  6
Continuous
 62
     7
370
    25
100
AcDbSpline
210
0.0
220
0.0
230
1.0
 70
     8
 71
     3
 72
     8
 73
     4
 74
     0
 42
0.000000001
 43
0.00000001
 40
0.0
 40
0.0
 40
0.0
 40
0.0
 40
1.0
 40
1.0
 40
1.0
 40
1.0
 10
398.5697363312651
 20
113.8284135216291
 30
0.0
 10
398.6098694497718
 20
113.8279825676818
 30
0.0
 10
398.6500301577003
 20
113.8274020646694
 30
0.0
 10
398.6902175750433
 20
113.8266717891098
 30
0.0
  0
SPLINE
  5
D6
330
1F
100
AcDbEntity
  8
0
  6
Continuous
 62
     7
370
    25
100
AcDbSpline
210
0.0
220
0.0
230
1.0
 70
     8
 71
     3
 72
    23
 73
    19
 74
     0
 42
0.000000001
 43
0.00000001
 40
0.0
 40
0.0
 40
0.0
 40
0.0
 40
0.0441204301561719
 40
0.0880778634030389
 40
0.1319898680064339
 40
0.1759746562181633
 40
0.2201501304179636
 40
0.264632945241185
 40
0.3095376220685568
 40
0.3549757475145112
 40
0.4010552803449985
 40
0.4478799826475656
 40
0.4955489822102321
 40
0.595368431235531
 40
0.6949131540650083
 40
0.7950014615104555
 40
0.8964389774310515
 40
1.0
 40
1.0
 40
1.0
 40
1.0
 10
398.0180232121301
 20
114.7889168455958
 30
0.0
 10
398.0200050362322
 20
114.7886380464338
 30
0.0
 10
398.0239613628581
 20
114.7880814780952
 30
0.0
 10
398.0328158486389
 20
114.781671296878
 30
0.0
 10
398.0437839226269
 20
114.7711570698662
 30
0.0
 10
398.0570604680446
 20
114.7561301550842
 30
0.0
 10
398.0725698422773
 20
114.7366802047281
 30
0.0
 10
398.0903014566711
 20
114.7127601671532
 30
0.0
 10
398.1102197344439
 20
114.6843566622873
 30
0.0
 10
398.1322883577661
 20
114.6514441309659
 30
0.0
 10
398.15646378505
 20
114.613996991448
 30
0.0
 10
398.1826967282005
 20
114.5719872634274
 30
0.0
 10
398.2210376858066
 20
114.5087029380119
 30
0.0
 10
398.27337275731
 20
114.4186402302974
 30
0.0
 10
398.3417734366282
 20
114.2942939614052
 30
0.0
 10
398.4144584930693
 20
114.154580923665
 30
0.0
 10
398.4908187338923
 20
114.0002448976432
 30
0.0
 10
398.5431075478727
 20
113.8865222448837
 30
0.0
 10
398.5695227754379
 20
113.829071912331
 30
0.0
  0
SPLINE
  5
D7
330
1F
100
AcDbEntity
  8
0
  6
Continuous
 62
     7
370
    25
100
AcDbSpline
210
0.0
220
0.0
230
1.0
 70
    11
 71
     3
 72
    39
 73
    35
 74
     0
 42
0.000000001
 43
0.00000001
 40
0.0
 40
0.0
 40
0.0
 40
0.0
 40
0.0310664058348413
 40
0.0621048158426138
 40
0.0931361551796939
 40
0.1235538293503726
 40
0.1538561545809849
 40
0.1850588072749156
 40
0.2160250992946587
 40
0.2471867223797568
 40
0.2784462884304475
 40
0.3100516090231247
 40
0.3419834369138969
 40
0.3734259894013238
 40
0.4048604886787081
 40
0.436874065183343
 40
0.4685120685926471
 40
0.499805535863323
 40
0.5309508213226204
 40
0.5618649784438111
 40
0.5930416446590877
 40
0.623374245013332
 40
0.6540913579072549
 40
0.6849496782718453
 40
0.7158160645166705
 40
0.7471731804043553
 40
0.7784514311866318
 40
0.810129591156098
 40
0.8419598919688388
 40
0.8735175891922303
 40
0.9050808037886594
 40
0.9370235169792582
 40
0.9687441590030581
 40
1.0
 40
1.0
 40
1.0
 40
1.0
 10
390.6344588522476
 20
97.90684114490601
 30
0.0
 10
390.8241706812023
 20
97.94560972165348
 30
0.0
 10
391.1679115316511
 20
98.02204066743651
 30
0.0
 10
391.5508685188587
 20
98.11018020742975
 30
0.0
 10
391.7953089855738
 20
98.15712969407471
 30
0.0
 10
391.8762979223901
 20
98.14522076936096
 30
0.0
 10
391.7955754769084
 20
98.07326286264549
 30
0.0
 10
391.5557132832887
 20
97.94874259644813
 30
0.0
 10
391.1790635491915
 20
97.79137360662294
 30
0.0
 10
390.6728206123636
 20
97.61934952192794
 30
0.0
 10
390.0555462186802
 20
97.4544251143423
 30
0.0
 10
389.3430704045404
 20
97.3167125382638
 30
0.0
 10
388.5676051647678
 20
97.22507972575511
 30
0.0
 10
387.7571407311535
 20
97.19174714765963
 30
0.0
 10
386.9446362581911
 20
97.22099459321291
 30
0.0
 10
386.1651232680539
 20
97.3093235502005
 30
0.0
 10
385.4467949687185
 20
97.44482904983532
 30
0.0
 10
384.8234228613184
 20
97.60860557132659
 30
0.0
 10
384.3103242667228
 20
97.78061171547192
 30
0.0
 10
383.9251221568614
 20
97.93942372994309
 30
0.0
 10
383.6756975516204
 20
98.06668269510855
 30
0.0
 10
383.585095511674
 20
98.14228965206354
 30
0.0
 10
383.6533070826332
 20
98.15905904874343
 30
0.0
 10
383.8855229490359
 20
98.11627870652816
 30
0.0
 10
384.2627399862202
 20
98.0291520216183
 30
0.0
 10
384.7744448539878
 20
97.9144229663113
 30
0.0
 10
385.3979159847347
 20
97.79500082125878
 30
0.0
 10
386.1144606878674
 20
97.69037537120947
 30
0.0
 10
386.8927918004784
 20
97.6197268782826
 30
0.0
 10
387.7046232873284
 20
97.59364805385258
 30
0.0
 10
388.5183978093254
 20
97.61667362554331
 30
0.0
 10
389.300771653491
 20
97.68490606368098
 30
0.0
 10
390.0227846882249
 20
97.78815324339071
 30
0.0
 10
390.4435902080739
 20
97.86783616708723
 30
0.0
 10
390.6344588522476
 20
97.906841144906
 30
0.0
  0
SPLINE
  5
D8
330
1F
100
AcDbEntity
  8
0
  6
Continuous
 62
     7
370
    25
100
AcDbSpline
210
0.0
220
0.0
230
1.0
 70
    11
 71
     3
 72
    39
 73
    35
 74
     0
 42
0.000000001
 43
0.00000001
 40
0.0
 40
0.0
 40
0.0
 40
0.0
 40
0.0312651429934057
 40
0.0629601069329321
 40
0.0948697276489808
 40
0.1264264963751833
 40
0.1579651393672472
 40
0.1898765439016956
 40
0.221552335268876
 40
0.2527844076550827
 40
0.2838418966734154
 40
0.3148645781100674
 40
0.3459127639308091
 40
0.3763475365526575
 40
0.4066751324671412
 40
0.4379141187435632
 40
0.4688932367345488
 40
0.5000738678969536
 40
0.5313369410958942
 40
0.5629183719104849
 40
0.5948445736343699
 40
0.6262809966135365
 40
0.6577486436587271
 40
0.6897584692806508
 40
0.7214430019610059
 40
0.7527623343195418
 40
0.7839279690572818
 40
0.8148885765585865
 40
0.8460375004982862
 40
0.8763409566916784
 40
0.906758919146387
 40
0.9378312724751761
 40
0.9689189660506093
 40
1.0
 40
1.0
 40
1.0
 40
1.0
 10
390.6343546024608
 20
120.7701335648486
 30
0.0
 10
390.4432806661791
 20
120.8091975227293
 30
0.0
 10
390.0223461037396
 20
120.8889165172894
 30
0.0
 10
389.3009566985759
 20
120.9920319326398
 30
0.0
 10
388.5193006502855
 20
121.0602328050637
 30
0.0
 10
387.7062129305747
 20
121.0832896977056
 30
0.0
 10
386.8939327137226
 20
121.0573054240594
 30
0.0
 10
386.1153022886731
 20
120.9867152588212
 30
0.0
 10
385.3986264987616
 20
120.882099696582
 30
0.0
 10
384.7767512291001
 20
120.7629273715657
 30
0.0
 10
384.2672402956142
 20
120.6489902038394
 30
0.0
 10
383.89212094937
 20
120.5628759248929
 30
0.0
 10
383.6561603745191
 20
120.5188202035571
 30
0.0
 10
383.5847598313375
 20
120.5343500042682
 30
0.0
 10
383.6753562611353
 20
120.6098588864521
 30
0.0
 10
383.9243325414947
 20
120.7370324142964
 30
0.0
 10
384.3092473613376
 20
120.8958830929086
 30
0.0
 10
384.8220326681597
 20
121.0679073541186
 30
0.0
 10
385.4444917910845
 20
121.2315804336533
 30
0.0
 10
386.1609919358911
 20
121.3669820070336
 30
0.0
 10
386.9390909700011
 20
121.4554996745164
 30
0.0
 10
387.7508136586481
 20
121.4852070829992
 30
0.0
 10
388.5622558463494
 20
121.4523206383491
 30
0.0
 10
389.3393817378315
 20
121.3608397303043
 30
0.0
 10
390.053819827002
 20
121.2229555403429
 30
0.0
 10
390.6720427852374
 20
121.0578277154929
 30
0.0
 10
391.1784101459633
 20
120.8857771781403
 30
0.0
 10
391.554962667377
 20
120.7284936564301
 30
0.0
 10
391.7946584788084
 20
120.6040898589461
 30
0.0
 10
391.8761251870026
 20
120.5319016855098
 30
0.0
 10
391.7960659445109
 20
120.5196291771318
 30
0.0
 10
391.5517199385571
 20
120.5665245876379
 30
0.0
 10
391.1687465051081
 20
120.6546581357834
 30
0.0
 10
390.8243033738983
 20
120.7312996403934
 30
0.0
 10
390.6343546024607
 20
120.7701335648485
 30
0.0
  0
SPLINE
  5
D9
330
1F
100
AcDbEntity
  8
0
  6
Continuous
 62
     7
370
    25
100
AcDbSpline
210
0.0
220
0.0
230
1.0
 70
     8
 71
     3
 72
    23
 73
    19
 74
     0
 42
0.000000001
 43
0.00000001
 40
0.0
 40
0.0
 40
0.0
 40
0.0
 40
0.0449790193621908
 40
0.0909412379558472
 40
0.1379251786426257
 40
0.1859669058344728
 40
0.2351001540455558
 40
0.2853564591248101
 40
0.3367652895422636
 40
0.3893541756738622
 40
0.4431488355279061
 40
0.4981732957798667
 40
0.5575109075944804
 40
0.6265493534951618
 40
0.7053074128388682
 40
0.793797094619363
 40
0.8920262478564954
 40
1.0
 40
1.0
 40
1.0
 40
1.0
 10
377.839390575893
 20
114.3684713286594
 30
0.0
 10
377.8372292582832
 20
114.3680425394107
 30
0.0
 10
377.8328593786852
 20
114.3671755879818
 30
0.0
 10
377.8225814028528
 20
114.3600835952477
 30
0.0
 10
377.8095233060171
 20
114.3484729103361
 30
0.0
 10
377.79340541982
 20
114.3316857700478
 30
0.0
 10
377.7743053941286
 20
114.3096157622792
 30
0.0
 10
377.752202560551
 20
114.2820196050577
 30
0.0
 10
377.7271007196404
 20
114.2487114084506
 30
0.0
 10
377.6990073504189
 20
114.2095098026226
 30
0.0
 10
377.6678883077518
 20
114.1642645791185
 30
0.0
 10
377.6332470120843
 20
114.1118655140049
 30
0.0
 10
377.5925241909693
 20
114.0490809040965
 30
0.0
 10
377.5438032472212
 20
113.9713239081751
 30
0.0
 10
377.48602891631
 20
113.8740393494826
 30
0.0
 10
377.4191182643081
 20
113.7542945161156
 30
0.0
 10
377.3431743007559
 20
113.6103743111287
 30
0.0
 10
377.2888131359751
 20
113.4996401062813
 30
0.0
 10
377.260348071812
 20
113.4416565023843
 30
0.0
  0
LINE
  5
DA
330
1F
100
AcDbEntity
  8
0
  6
Continuous
 62
     7
370
    25
100
AcDbLine
 10
377.2603480718
 20
113.4421828343
 30
0.0
 11
376.8910083338
 21
113.8282673612
 31
0.0
  0
LINE
  5
DB
330
1F
100
AcDbEntity
  8
0
  6
Continuous
 62
     7
370
    25
100
AcDbLine
 10
398.5696236694
 20
113.8282079564
 30
0.0
 11
398.2003569878
 21
113.4421998514
 31
0.0
  0
SPLINE
  5
DC
330
1F
100
AcDbEntity
  8
0
  6
Continuous
 62
     7
370
    25
100
AcDbSpline
210
0.0
220
0.0
230
1.0
 70
     8
 71
     3
 72
    26
 73
    22
 74
     0
 42
0.000000001
 43
0.00000001
 40
0.0
 40
0.0
 40
0.0
 40
0.0
 40
0.0509383700734436
 40
0.0998291219160221
 40
0.1466727642916705
 40
0.1914698825056879
 40
0.234221152744613
 40
0.2749273600065313
 40
0.3135894207545711
 40
0.3502084118650797
 40
0.3847856080857007
 40
0.4173225311811817
 40
0.4478210154148484
 40
0.4762832963119
 40
0.5027121333382826
 40
0.5939161417310218
 40
0.6816167871628488
 40
0.7659330352404057
 40
0.8469987710141617
 40
0.9249646451437497
 40
1.0
 40
1.0
 40
1.0
 40
1.0
 10
398.2003569877568
 20
113.4414657721346
 30
0.0
 10
398.1868991235552
 20
113.4690865533082
 30
0.0
 10
398.1605243737511
 20
113.5232178167786
 30
0.0
 10
398.1221521939631
 20
113.5995258538749
 30
0.0
 10
398.0856860114638
 20
113.670278033482
 30
0.0
 10
398.0511497618343
 20
113.73544986018
 30
0.0
 10
398.018537309979
 20
113.7953081054368
 30
0.0
 10
397.9878500261803
 20
113.8500732649781
 30
0.0
 10
397.9590874098929
 20
113.8999976562887
 30
0.0
 10
397.932249245375
 20
113.9453398868701
 30
0.0
 10
397.9073356651124
 20
113.9863658258249
 30
0.0
 10
397.884345017777
 20
114.0233432106792
 30
0.0
 10
397.8632815141643
 20
114.0565393269215
 30
0.0
 10
397.8441291375027
 20
114.0862150582538
 30
0.0
 10
397.8124560099468
 20
114.1348885997111
 30
0.0
 10
397.7709826776894
 20
114.1967879542069
 30
0.0
 10
397.7239893071338
 20
114.2621307208165
 30
0.0
 10
397.6853693143463
 20
114.3112474856835
 30
0.0
 10
397.6553219514994
 20
114.3447203289397
 30
0.0
 10
397.63303510741
 20
114.3648342349294
 30
0.0
 10
397.6251439874437
 20
114.3672745442923
 30
0.0
 10
397.6212739990075
 20
114.3684713286594
 30
0.0
  0
SPLINE
  5
DD
330
1F
100
AcDbEntity
  8
0
  6
Continuous
 62
     7
370
    25
100
AcDbSpline
210
0.0
220
0.0
230
1.0
 70
     8
 71
     3
 72
     8
 73
     4
 74
     0
 42
0.000000001
 43
0.00000001
 40
0.0
 40
0.0
 40
0.0
 40
0.0
 40
1.0
 40
1.0
 40
1.0
 40
1.0
 10
395.4720127392507
 20
113.5614696551421
 30
0.0
 10
395.5356057195906
 20
113.4958008772954
 30
0.0
 10
395.599562146026
 20
113.4314585796351
 30
0.0
 10
395.6637610657334
 20
113.3697213286594
 30
0.0
  0
SPLINE
  5
DE
330
1F
100
AcDbEntity
  8
0
  6
Continuous
 62
     7
370
    25
100
AcDbSpline
210
0.0
220
0.0
230
1.0
 70
     8
 71
     3
 72
    25
 73
    21
 74
     0
 42
0.000000001
 43
0.00000001
 40
0.0
 40
0.0
 40
0.0
 40
0.0
 40
0.0367725003254103
 40
0.074208401060063
 40
0.1123590542807964
 40
0.1512729822568881
 40
0.190995910016845
 40
0.2315708273504481
 40
0.2730380740418892
 40
0.3154354426077851
 40
0.3587982934432034
 40
0.4031596779810961
 40
0.4485504661847858
 40
0.494999475376923
 40
0.5532504315673752
 40
0.621829488573267
 40
0.7007739996560722
 40
0.7901076726660372
 40
0.8898461547533933
 40
1.0
 40
1.0
 40
1.0
 40
1.0
 10
395.0300915519391
 20
114.3684713286591
 30
0.0
 10
395.030315326004
 20
114.3681466410253
 30
0.0
 10
395.0307669111669
 20
114.3674914081765
 30
0.0
 10
395.0354839510392
 20
114.3621290363888
 30
0.0
 10
395.0431365601218
 20
114.3533734426883
 30
0.0
 10
395.0540295392587
 20
114.3407492245964
 30
0.0
 10
395.0680781256746
 20
114.324192886466
 30
0.0
 10
395.0853050232838
 20
114.3035357090882
 30
0.0
 10
395.1057035760653
 20
114.2786479731204
 30
0.0
 10
395.1292743893574
 20
114.249400426927
 30
0.0
 10
395.1560197379171
 20
114.2156774917305
 30
0.0
 10
395.1859275913495
 20
114.1773716766051
 30
0.0
 10
395.219043683694
 20
114.1344007812672
 30
0.0
 10
395.257969605268
 20
114.0829794995964
 30
0.0
 10
395.3067976849846
 20
114.0187632679073
 30
0.0
 10
395.3687182895856
 20
113.9358687388127
 30
0.0
 10
395.4431028479066
 20
113.8319229885983
 30
0.0
 10
395.5300772758952
 20
113.703836778341
 30
0.0
 10
395.6295021258778
 20
113.5497469984347
 30
0.0
 10
395.7009213016073
 20
113.4316827625643
 30
0.0
 10
395.7384028852882
 20
113.3697213286594
 30
0.0
  0
LINE
  5
DF
330
1F
100
AcDbEntity
  8
0
  6
Continuous
 62
     7
370
    25
100
AcDbLine
 10
395.7384028853
 20
113.3697213287
 30
0.0
 11
395.6637610657
 21
113.3697213287
 31
0.0
  0
SPLINE
  5
E0
330
1F
100
AcDbEntity
  8
0
  6
Continuous
 62
     7
370
    25
100
AcDbSpline
210
0.0
220
0.0
230
1.0
 70
     8
 71
     3
 72
    23
 73
    19
 74
     0
 42
0.000000001
 43
0.00000001
 40
0.0
 40
0.0
 40
0.0
 40
0.0
 40
0.0511129009857221
 40
0.1016896331838983
 40
0.1518293139104713
 40
0.201633670189439
 40
0.2512064936754081
 40
0.3006530343006331
 40
0.3500793489716449
 40
0.3995916247932065
 40
0.4492954981442684
 40
0.4992953912354716
 40
0.5872572780521574
 40
0.6724255494349275
 40
0.7555067762540824
 40
0.8372616735271673
 40
0.9184882400167564
 40
1.0
 40
1.0
 40
1.0
 40
1.0
 10
395.472075415376
 20
113.5617123712372
 30
0.0
 10
395.4560598314755
 20
113.5908409734682
 30
0.0
 10
395.4241966654126
 20
113.648792622052
 30
0.0
 10
395.3771528269937
 20
113.7315504572702
 30
0.0
 10
395.3311743028187
 20
113.8106393157545
 30
0.0
 10
395.2863936360151
 20
113.8858563036886
 30
0.0
 10
395.2429098715793
 20
113.9573193587343
 30
0.0
 10
395.2008239079946
 20
114.0250607629226
 30
0.0
 10
395.1602294435973
 20
114.0891342746676
 30
0.0
 10
395.121214537247
 20
114.1495878737388
 30
0.0
 10
395.0838647147596
 20
114.2064653786671
 30
0.0
 10
395.0393364581675
 20
114.2731798517276
 30
0.0
 10
394.9906961976263
 20
114.3445001355921
 30
0.0
 10
394.9428570978705
 20
114.4130803880512
 30
0.0
 10
394.9052055857896
 20
114.4660967160933
 30
0.0
 10
394.8783828844021
 20
114.5033693722209
 30
0.0
 10
394.8616540535785
 20
114.5264067718009
 30
0.0
 10
394.8598056436147
 20
114.5289414970661
 30
0.0
 10
394.8588798189943
 20
114.5302110807095
 30
0.0
  0
SPLINE
  5
E1
330
1F
100
AcDbEntity
  8
0
  6
Continuous
 62
     7
370
    25
100
AcDbSpline
210
0.0
220
0.0
230
1.0
 70
     8
 71
     3
 72
     8
 73
     4
 74
     0
 42
0.000000001
 43
0.00000001
 40
0.0
 40
0.0
 40
0.0
 40
0.0
 40
1.0
 40
1.0
 40
1.0
 40
1.0
 10
398.1342249345223
 20
113.3697213286593
 30
0.0
 10
398.1561103061655
 20
113.394042344857
 30
0.0
 10
398.1779956778086
 20
113.4180669431794
 30
0.0
 10
398.1998810494517
 20
113.4417737952679
 30
0.0
  0
LINE
  5
E2
330
1F
100
AcDbEntity
  8
0
  6
Continuous
 62
     7
370
    25
100
AcDbLine
 10
398.1340647293
 20
113.3697213287
 30
0.0
 11
395.7384028853
 21
113.3697213287
 31
0.0
  0
SPLINE
  5
E3
330
1F
100
AcDbEntity
  8
0
  6
Continuous
 62
     7
370
    25
100
AcDbSpline
210
0.0
220
0.0
230
1.0
 70
     8
 71
     3
 72
     8
 73
     4
 74
     0
 42
0.000000001
 43
0.00000001
 40
0.0
 40
0.0
 40
0.0
 40
0.0
 40
1.0
 40
1.0
 40
1.0
 40
1.0
 10
377.2606892996239
 20
113.441877362748
 30
0.0
 10
377.2826060721115
 20
113.4181369141889
 30
0.0
 10
377.3045228445991
 20
113.3940777624023
 30
0.0
 10
377.3264396170866
 20
113.3697213286594
 30
0.0
  0
SPLINE
  5
E4
330
1F
100
AcDbEntity
  8
0
  6
Continuous
 62
     7
370
    25
100
AcDbSpline
210
0.0
220
0.0
230
1.0
 70
     8
 71
     3
 72
    26
 73
    22
 74
     0
 42
0.000000001
 43
0.00000001
 40
0.0
 40
0.0
 40
0.0
 40
0.0
 40
0.0524616032245984
 40
0.1026497911584775
 40
0.1505654136713723
 40
0.1962094561589203
 40
0.2395830674744455
 40
0.2806875955357221
 40
0.3195246332747494
 40
0.3560960787422642
 40
0.3904042149164026
 40
0.4224518174656405
 40
0.4522423030205674
 40
0.4797799375650286
 40
0.5050701364955548
 40
0.5966477315635087
 40
0.6842052596254289
 40
0.768002620409792
 40
0.84833623390995
 40
0.9255424426774792
 40
1.0
 40
1.0
 40
1.0
 40
1.0
 10
379.7220841315341
 20
113.3697362206771
 30
0.0
 10
379.7399456158224
 20
113.3995096807182
 30
0.0
 10
379.7748945597982
 20
113.4577663726115
 30
0.0
 10
379.8256593932803
 20
113.5399653529761
 30
0.0
 10
379.873729350922
 20
113.6160462218769
 30
0.0
 10
379.9190733236873
 20
113.6859975703431
 30
0.0
 10
379.961699303191
 20
113.7501047322954
 30
0.0
 10
380.0016056017055
 20
113.8086125717646
 30
0.0
 10
380.0387929308023
 20
113.8618011493901
 30
0.0
 10
380.0732617534564
 20
113.9099591896153
 30
0.0
 10
380.1050118418742
 20
113.9533838629322
 30
0.0
 10
380.134046247198
 20
113.992373953892
 30
0.0
 10
380.1603575339819
 20
114.0272280528774
 30
0.0
 10
380.1839741715442
 20
114.0582330458057
 30
0.0
 10
380.2236221922041
 20
114.1104794257342
 30
0.0
 10
380.2751643699337
 20
114.178012744789
 30
0.0
 10
380.3319949474515
 20
114.2502083408514
 30
0.0
 10
380.3761540595801
 20
114.3046907091751
 30
0.0
 10
380.4073304800258
 20
114.3419521031531
 30
0.0
 10
380.4267864260135
 20
114.3644129608356
 30
0.0
 10
380.4289229891818
 20
114.3671349834164
 30
0.0
 10
380.4299719099536
 20
114.3684713286594
 30
0.0
  0
LINE
  5
E5
330
1F
100
AcDbEntity
  8
0
  6
Continuous
 62
     7
370
    25
100
AcDbLine
 10
379.7220841315
 20
113.3697213287
 30
0.0
 11
377.3264396171
 21
113.3697213287
 31
0.0
  0
LINE
  5
E6
330
1F
100
AcDbEntity
  8
0
  6
Continuous
 62
     7
370
    25
100
AcDbLine
 10
379.7969035092
 20
113.3697213287
 30
0.0
 11
379.7217839108
 21
113.3697213287
 31
0.0
  0
SPLINE
  5
E7
330
1F
100
AcDbEntity
  8
0
  6
Continuous
 62
     7
370
    25
100
AcDbSpline
210
0.0
220
0.0
230
1.0
 70
     8
 71
     3
 72
     8
 73
     4
 74
     0
 42
0.000000001
 43
0.00000001
 40
0.0
 40
0.0
 40
0.0
 40
0.0
 40
1.0
 40
1.0
 40
1.0
 40
1.0
 10
379.7969035091671
 20
113.3697213286593
 30
0.0
 10
379.860812311827
 20
113.4316901920905
 30
0.0
 10
379.924587231179
 20
113.4956662572071
 30
0.0
 10
379.9879472970599
 20
113.5612009135529
 30
0.0
  0
SPLINE
  5
E8
330
1F
100
AcDbEntity
  8
0
  6
Continuous
 62
     7
370
    25
100
AcDbSpline
210
0.0
220
0.0
230
1.0
 70
     8
 71
     3
 72
    24
 73
    20
 74
     0
 42
0.000000001
 43
0.00000001
 40
0.0
 40
0.0
 40
0.0
 40
0.0
 40
0.0410168309160251
 40
0.0818356321224298
 40
0.1225576684073127
 40
0.1632849263043688
 40
0.2041193531422725
 40
0.2451620975485173
 40
0.2865127793361656
 40
0.3282688142230838
 40
0.370524814367772
 40
0.4133720798884311
 40
0.456898190125439
 40
0.5011866971564671
 40
0.6001870884229382
 40
0.6987399491827955
 40
0.7976807785240759
 40
0.8978353515390326
 40
1.0
 40
1.0
 40
1.0
 40
1.0
 10
380.6015301029348
 20
114.5298614099909
 30
0.0
 10
380.6013379151303
 20
114.5295975966008
 30
0.0
 10
380.6009544674064
 20
114.5290712435146
 30
0.0
 10
380.5969056504278
 20
114.5235077264051
 30
0.0
 10
380.5903163795802
 20
114.5144334943172
 30
0.0
 10
380.5809553815242
 20
114.5015006495164
 30
0.0
 10
380.5689091525338
 20
114.4847849794078
 30
0.0
 10
380.554187089326
 20
114.4642438795454
 30
0.0
 10
380.5368272450235
 20
114.4398615522004
 30
0.0
 10
380.5168678879494
 20
114.4116099794526
 30
0.0
 10
380.4943553428084
 20
114.379459706259
 30
0.0
 10
380.4693413520865
 20
114.3433762460324
 30
0.0
 10
380.4418859480633
 20
114.303324024363
 30
0.0
 10
380.3999584463953
 20
114.241397197348
 30
0.0
 10
380.3407500288045
 20
114.1520813178112
 30
0.0
 10
380.2609703499754
 20
114.0275365983932
 30
0.0
 10
380.1749895880326
 20
113.8877518401533
 30
0.0
 10
380.0837047946412
 20
113.7333390119974
 30
0.0
 10
380.0205004414217
 20
113.6192929915929
 30
0.0
 10
379.9885842918796
 20
113.5617034482069
 30
0.0
  0
LINE
  5
E9
330
1F
100
AcDbEntity
  8
0
  6
Continuous
 62
     7
370
    25
100
AcDbLine
 10
376.9176913853
 20
104.848416331
 30
0.0
 11
377.3419288003
 21
105.2972092295
 31
0.0
  0
SPLINE
  5
EA
330
1F
100
AcDbEntity
  8
0
  6
Continuous
 62
     7
370
    25
100
AcDbSpline
210
0.0
220
0.0
230
1.0
 70
     8
 71
     3
 72
    13
 73
     9
 74
     0
 42
0.000000001
 43
0.00000001
 40
0.0
 40
0.0
 40
0.0
 40
0.0
 40
0.1706413962692788
 40
0.3396133085346459
 40
0.5069741541868396
 40
0.6727840535390016
 40
0.8371048293578147
 40
1.0
 40
1.0
 40
1.0
 40
1.0
 10
377.341928800328
 20
105.2971885871302
 30
0.0
 10
377.3469345559928
 20
105.2902368531189
 30
0.0
 10
377.3568970931042
 20
105.2764013979524
 30
0.0
 10
377.3697714497805
 20
105.2602733774905
 30
0.0
 10
377.381037949781
 20
105.2476048454485
 30
0.0
 10
377.3905151583341
 20
105.2387488439616
 30
0.0
 10
377.3983969220782
 20
105.2332372689043
 30
0.0
 10
377.4022112830438
 20
105.2325589903728
 30
0.0
 10
377.4041101543766
 20
105.2322213286594
 30
0.0
  0
SPLINE
  5
EB
330
1F
100
AcDbEntity
  8
0
  6
Continuous
 62
     7
370
    25
100
AcDbSpline
210
0.0
220
0.0
230
1.0
 70
     8
 71
     3
 72
    13
 73
     9
 74
     0
 42
0.000000001
 43
0.00000001
 40
0.0
 40
0.0
 40
0.0
 40
0.0
 40
0.1620909845429404
 40
0.3259283017468241
 40
0.4915764691781117
 40
0.6590979119692602
 40
0.8285529847843899
 40
1.0
 40
1.0
 40
1.0
 40
1.0
 10
398.0565544205239
 20
105.2322213286594
 30
0.0
 10
398.0584312280501
 20
105.2325557736951
 30
0.0
 10
398.0622050634146
 20
105.2332282670039
 30
0.0
 10
398.0700516637806
 20
105.2387010908737
 30
0.0
 10
398.0795175659514
 20
105.2475201114728
 30
0.0
 10
398.0907986718764
 20
105.2601726658628
 30
0.0
 10
398.1037138287595
 20
105.2763249327093
 30
0.0
 10
398.1137100122966
 20
105.2902113133377
 30
0.0
 10
398.1187373086703
 20
105.2971950737618
 30
0.0
  0
LINE
  5
EC
330
1F
100
AcDbEntity
  8
0
  6
Continuous
 62
     7
370
    25
100
AcDbLine
 10
398.1187502765
 20
105.2971954418
 30
0.0
 11
398.5429724413
 21
104.8484163565
 31
0.0
  0
LINE
  5
ED
330
1F
100
AcDbEntity
  8
0
  6
Continuous
 62
     7
370
    25
100
AcDbLine
 10
395.6637610657
 20
105.3072213287
 30
0.0
 11
395.6724823753
 21
105.3072213287
 31
0.0
  0
SPLINE
  5
EE
330
1F
100
AcDbEntity
  8
0
  6
Continuous
 62
     7
370
    25
100
AcDbSpline
210
0.0
220
0.0
230
1.0
 70
     8
 71
     3
 72
    13
 73
     9
 74
     0
 42
0.000000001
 43
0.00000001
 40
0.0
 40
0.0
 40
0.0
 40
0.0
 40
0.1705348597552374
 40
0.3393503086955696
 40
0.5065727670783337
 40
0.6723323000811858
 40
0.8367624445548165
 40
1.0
 40
1.0
 40
1.0
 40
1.0
 10
395.6724952551612
 20
105.307221194344
 30
0.0
 10
395.6674596136717
 20
105.2992147348035
 30
0.0
 10
395.6574391023441
 20
105.2832825405264
 30
0.0
 10
395.6456356116529
 20
105.2646652698027
 30
0.0
 10
395.6362933442169
 20
105.2500264610362
 30
0.0
 10
395.6296978415497
 20
105.2397797988811
 30
0.0
 10
395.6255451912166
 20
105.2333972326436
 30
0.0
 10
395.6250198364705
 20
105.23261234442
 30
0.0
 10
395.6247581151458
 20
105.2322213286594
 30
0.0
  0
SPLINE
  5
EF
330
1F
100
AcDbEntity
  8
0
  6
Continuous
 62
     7
370
    25
100
AcDbSpline
210
0.0
220
0.0
230
1.0
 70
     8
 71
     3
 72
     8
 73
     4
 74
     0
 42
0.000000001
 43
0.00000001
 40
0.0
 40
0.0
 40
0.0
 40
0.0
 40
1.0
 40
1.0
 40
1.0
 40
1.0
 10
398.1187503496633
 20
105.297195686829
 30
0.0
 10
398.1165668654222
 20
105.3000443523454
 30
0.0
 10
398.114383381181
 20
105.3029851437429
 30
0.0
 10
398.1121998969399
 20
105.3060176410194
 30
0.0
  0
LINE
  5
F0
330
1F
100
AcDbEntity
  8
0
  6
Continuous
 62
     7
370
    25
100
AcDbLine
 10
398.1112971539
 20
105.3072213287
 30
0.0
 11
395.6724867945
 21
105.3072213287
 31
0.0
  0
SPLINE
  5
F1
330
1F
100
AcDbEntity
  8
0
  6
Continuous
 62
     7
370
    25
100
AcDbSpline
210
0.0
220
0.0
230
1.0
 70
     8
 71
     3
 72
     8
 73
     4
 74
     0
 42
0.000000001
 43
0.00000001
 40
0.0
 40
0.0
 40
0.0
 40
0.0
 40
1.0
 40
1.0
 40
1.0
 40
1.0
 10
377.34936744437
 20
105.307221328667
 30
0.0
 10
377.3468815256834
 20
105.303759629355
 30
0.0
 10
377.344395606997
 20
105.3004154774461
 30
0.0
 10
377.3419096883105
 20
105.2971894855057
 30
0.0
  0
LINE
  5
F2
330
1F
100
AcDbEntity
  8
0
  6
Continuous
 62
     7
370
    25
100
AcDbLine
 10
379.786671501
 20
105.3072213287
 30
0.0
 11
377.3495838847
 21
105.3072213287
 31
0.0
  0
SPLINE
  5
F3
330
1F
100
AcDbEntity
  8
0
  6
Continuous
 62
     7
370
    25
100
AcDbSpline
210
0.0
220
0.0
230
1.0
 70
     8
 71
     3
 72
    13
 73
     9
 74
     0
 42
0.000000001
 43
0.00000001
 40
0.0
 40
0.0
 40
0.0
 40
0.0
 40
0.1631520625553472
 40
0.3275304253162191
 40
0.4932723215013645
 40
0.6605116276025231
 40
0.8293786586476746
 40
1.0
 40
1.0
 40
1.0
 40
1.0
 10
379.8359064597548
 20
105.2322213286594
 30
0.0
 10
379.8356488630959
 20
105.2326119438278
 30
0.0
 10
379.8351317336036
 20
105.2333961101463
 30
0.0
 10
379.8309855103726
 20
105.2397738547214
 30
0.0
 10
379.8243923538809
 20
105.2500158928177
 30
0.0
 10
379.8150477949034
 20
105.264652624239
 30
0.0
 10
379.803237532924
 20
105.2832727290032
 30
0.0
 10
379.7932104283502
 20
105.2992109693827
 30
0.0
 10
379.7881709684708
 20
105.3072212700983
 30
0.0
  0
LINE
  5
F4
330
1F
100
AcDbEntity
  8
0
  6
Continuous
 62
     7
370
    25
100
AcDbLine
 10
379.788181359
 20
105.3072213287
 30
0.0
 11
379.7969035092
 21
105.3072213287
 31
0.0
  0
SPLINE
  5
F5
330
1F
100
AcDbEntity
  8
0
  6
Continuous
 62
     7
370
    25
100
AcDbSpline
210
0.0
220
0.0
230
1.0
 70
     8
 71
     3
 72
    14
 73
    10
 74
     0
 42
0.000000001
 43
0.00000001
 40
0.0
 40
0.0
 40
0.0
 40
0.0
 40
0.0310276310570805
 40
0.0622853638080882
 40
0.1248003080239446
 40
0.249828963271062
 40
0.4998892480129931
 40
0.7606946230442756
 40
0.9999999999999999
 40
0.9999999999999999
 40
0.9999999999999999
 40
0.9999999999999999
 10
376.7702382929911
 20
104.850483154044
 30
0.0
 10
376.774567445598
 20
104.8552669202403
 30
0.0
 10
376.7832578559168
 20
104.8648699291634
 30
0.0
 10
376.8006580721177
 20
104.8841636200105
 30
0.0
 10
376.8311332494587
 20
104.9179274758487
 30
0.0
 10
376.8919526891792
 20
104.9853440875976
 30
0.0
 10
376.9798421800479
 20
105.0828096619692
 30
0.0
 10
377.0826766852181
 20
105.1969512747576
 30
0.0
 10
377.1498807136169
 20
105.2717334142605
 30
0.0
 10
377.1820381613122
 20
105.3075170242152
 30
0.0
  0
LINE
  5
F6
330
1F
100
AcDbEntity
  8
0
  6
Continuous
 62
     7
370
    25
100
AcDbLine
 10
377.1817249316
 20
105.3072213287
 30
0.0
 11
377.3493674444
 21
105.3072213287
 31
0.0
  0
LINE
  5
F7
330
1F
100
AcDbEntity
  8
0
  6
Continuous
 62
     7
370
    25
100
AcDbLine
 10
398.1112971539
 20
105.3072213287
 30
0.0
 11
398.2789470256
 21
105.3072213287
 31
0.0
  0
SPLINE
  5
F8
330
1F
100
AcDbEntity
  8
0
  6
Continuous
 62
     7
370
    25
100
AcDbSpline
210
0.0
220
0.0
230
1.0
 70
     8
 71
     3
 72
    11
 73
     7
 74
     0
 42
0.000000001
 43
0.00000001
 40
0.0
 40
0.0
 40
0.0
 40
0.0
 40
0.2392771050480589
 40
0.5001130256950088
 40
0.7515027953458615
 40
1.0
 40
1.0
 40
1.0
 40
1.0
 10
398.2786584962437
 20
105.3074937029508
 30
0.0
 10
398.3108121318061
 20
105.2717203996349
 30
0.0
 10
398.3780164385657
 20
105.1969506260837
 30
0.0
 10
398.4810413345423
 20
105.0824948427398
 30
0.0
 10
398.5861305974425
 20
104.9663373431185
 30
0.0
 10
398.6558031687287
 20
104.8889518946889
 30
0.0
 10
398.6904378763638
 20
104.8504830635248
 30
0.0
  0
LINE
  5
F9
330
1F
100
AcDbEntity
  8
0
  6
Continuous
 62
     7
370
    25
100
AcDbLine
 10
377.3264396171
 20
113.3697213287
 30
0.0
 11
377.1818696455
 21
113.3697213287
 31
0.0
  0
SPLINE
  5
FA
330
1F
100
AcDbEntity
  8
0
  6
Continuous
 62
     7
370
    25
100
AcDbSpline
210
0.0
220
0.0
230
1.0
 70
     8
 71
     3
 72
    11
 73
     7
 74
     0
 42
0.000000001
 43
0.00000001
 40
0.0
 40
0.0
 40
0.0
 40
0.0
 40
0.2392702283375446
 40
0.500112057563497
 40
0.7515010343499211
 40
1.0
 40
1.0
 40
1.0
 40
1.0
 10
377.1821570105457
 20
113.369449951049
 30
0.0
 10
377.1499987969948
 20
113.405244384801
 30
0.0
 10
377.0827831201501
 20
113.4800603284202
 30
0.0
 10
376.9797416595533
 20
113.5945856674368
 30
0.0
 10
376.8746348257711
 20
113.7108149812557
 30
0.0
 10
376.8049515538216
 20
113.7882469875539
 30
0.0
 10
376.7703113484225
 20
113.826739161179
 30
0.0
  0
SPLINE
  5
FB
330
1F
100
AcDbEntity
  8
0
  6
Continuous
 62
     7
370
    25
100
AcDbSpline
210
0.0
220
0.0
230
1.0
 70
     8
 71
     3
 72
    14
 73
    10
 74
     0
 42
0.000000001
 43
0.00000001
 40
0.0
 40
0.0
 40
0.0
 40
0.0
 40
0.0310294070696369
 40
0.0622870827662268
 40
0.1248019131207446
 40
0.2498303412944546
 40
0.4998901702455053
 40
0.7607014801235668
 40
1.0
 40
1.0
 40
1.0
 40
1.0
 10
398.6903416111528
 20
113.8267390529028
 30
0.0
 10
398.6860115554394
 20
113.8219520222008
 30
0.0
 10
398.6773195898471
 20
113.8123427448829
 30
0.0
 10
398.6599165229392
 20
113.7930373734743
 30
0.0
 10
398.6294367681255
 20
113.7592532469482
 30
0.0
 10
398.5686080959611
 20
113.6917962601625
 30
0.0
 10
398.480704038695
 20
113.5942708490433
 30
0.0
 10
398.3778529632106
 20
113.480059736762
 30
0.0
 10
398.3106375845206
 20
113.4052314470534
 30
0.0
 10
398.2784755679465
 20
113.3694267139592
 30
0.0
  0
LINE
  5
FC
330
1F
100
AcDbEntity
  8
0
  6
Continuous
 62
     7
370
    25
100
AcDbLine
 10
398.2787875349
 20
113.3697213287
 30
0.0
 11
398.1342249345
 21
113.3697213287
 31
0.0
  0
LINE
  5
FD
330
1F
100
AcDbEntity
  8
0
  6
Continuous
 62
     7
370
    25
100
AcDbLine
 10
375.8596644227
 20
107.1511335861
 30
0.0
 11
376.29972708
 21
107.2322213287
 31
0.0
  0
SPLINE
  5
FE
330
1F
100
AcDbEntity
  8
0
  6
Continuous
 62
     7
370
    25
100
AcDbSpline
210
0.0
220
0.0
230
1.0
 70
     8
 71
     3
 72
    25
 73
    21
 74
     0
 42
0.000000001
 43
0.00000001
 40
0.0
 40
0.0
 40
0.0
 40
0.0
 40
0.0274788604633948
 40
0.056041580374397
 40
0.0856946775776488
 40
0.1164439744520652
 40
0.1482946901229791
 40
0.1812515183576172
 40
0.21531869363882
 40
0.2505000474389724
 40
0.3330513345460837
 40
0.5015080140592555
 40
0.5771733427895557
 40
0.6489103136089254
 40
0.7167630290816648
 40
0.7807837094914061
 40
0.8410346307229359
 40
0.89759061515514
 40
0.9505422438476955
 40
0.9999999999999999
 40
0.9999999999999999
 40
0.9999999999999999
 40
0.9999999999999999
 10
376.299727080039
 20
107.2322213286594
 30
0.0
 10
376.3064352473825
 20
107.2030391241419
 30
0.0
 10
376.3201161749392
 20
107.1435236699932
 30
0.0
 10
376.3428809035928
 20
107.0531331729345
 30
0.0
 10
376.3677585408347
 20
106.9600015638135
 30
0.0
 10
376.3948977788461
 20
106.864415519538
 30
0.0
 10
376.4242591859015
 20
106.7666620499269
 30
0.0
 10
376.4558443560949
 20
106.667081373861
 30
0.0
 10
376.489691226331
 20
106.5660722343155
 30
0.0
 10
376.5413924541724
 20
106.4193054268781
 30
0.0
 10
376.6457514943567
 20
106.155039016385
 30
0.0
 10
376.7666272267965
 20
105.885063383014
 30
0.0
 10
376.8801250107448
 20
105.6676464882649
 30
0.0
 10
376.9514037664519
 20
105.5379364144198
 30
0.0
 10
377.0134818503942
 20
105.4340606777386
 30
0.0
 10
377.0660671153392
 20
105.3542033970019
 30
0.0
 10
377.1093126960379
 20
105.296190275209
 30
0.0
 10
377.1429161994333
 20
105.2580925257589
 30
0.0
 10
377.1678579360516
 20
105.2360947136706
 30
0.0
 10
377.1768119455907
 20
105.2334827531526
 30
0.0
 10
377.1811362096319
 20
105.2322213286594
 30
0.0
  0
LINE
  5
FF
330
1F
100
AcDbEntity
  8
0
  6
Continuous
 62
     7
370
    25
100
AcDbLine
 10
399.6010001522
 20
111.5258090712
 30
0.0
 11
399.1609374949
 21
111.4447213287
 31
0.0
  0
SPLINE
  5
100
330
1F
100
AcDbEntity
  8
0
  6
Continuous
 62
     7
370
    25
100
AcDbSpline
210
0.0
220
0.0
230
1.0
 70
     8
 71
     3
 72
    25
 73
    21
 74
     0
 42
0.000000001
 43
0.00000001
 40
0.0
 40
0.0
 40
0.0
 40
0.0
 40
0.0274788604633835
 40
0.0560415803743757
 40
0.0856946775776175
 40
0.1164439744520234
 40
0.1482946901229275
 40
0.1812515183575572
 40
0.2153186936387509
 40
0.2505000474388949
 40
0.3330513345813443
 40
0.5015080140593063
 40
0.5771733427880285
 40
0.6489103136062581
 40
0.7167630290783021
 40
0.7807837094877967
 40
0.8410346307195359
 40
0.8975906151524101
 40
0.9505422438460975
 40
1.0
 40
1.0
 40
1.0
 40
1.0
 10
399.1609374948615
 20
111.4447213286594
 30
0.0
 10
399.1542293275181
 20
111.4739035331769
 30
0.0
 10
399.1405483999612
 20
111.5334189873256
 30
0.0
 10
399.1177836713077
 20
111.6238094843843
 30
0.0
 10
399.0929060340658
 20
111.7169410935053
 30
0.0
 10
399.0657667960544
 20
111.8125271377808
 30
0.0
 10
399.036405388999
 20
111.9102806073919
 30
0.0
 10
399.0048202188057
 20
112.0098612834578
 30
0.0
 10
398.9709733485695
 20
112.1108704230033
 30
0.0
 10
398.9192721207158
 20
112.2576372304748
 30
0.0
 10
398.8149130805342
 20
112.5219036409661
 30
0.0
 10
398.6940373480924
 20
112.7918792743277
 30
0.0
 10
398.5805395641559
 20
113.0092961690508
 30
0.0
 10
398.509260808449
 20
113.1390062428943
 30
0.0
 10
398.4471827245068
 20
113.2428819795754
 30
0.0
 10
398.394597459562
 20
113.3227392603129
 30
0.0
 10
398.3513518788632
 20
113.3807523821071
 30
0.0
 10
398.3177483754677
 20
113.4188501315586
 30
0.0
 10
398.2928066388491
 20
113.440847943648
 30
0.0
 10
398.28385262931
 20
113.4434599041661
 30
0.0
 10
398.2795283652687
 20
113.4447213286594
 30
0.0
  0
SPLINE
  5
101
330
1F
100
AcDbEntity
  8
0
  6
Continuous
 62
     7
370
    25
100
AcDbSpline
210
0.0
220
0.0
230
1.0
 70
     8
 71
     3
 72
    25
 73
    21
 74
     0
 42
0.000000001
 43
0.00000001
 40
0.0
 40
0.0
 40
0.0
 40
0.0
 40
0.0288760384315855
 40
0.0583531183787362
 40
0.0884515256342754
 40
0.1191903155210541
 40
0.1505873770367557
 40
0.1826594973240215
 40
0.2154224255057506
 40
0.2488909351380474
 40
0.361059549884163
 40
0.4984670937677694
 40
0.5822694576839094
 40
0.6661128179770435
 40
0.7499973339301048
 40
0.8007710075466903
 40
0.8511237940268921
 40
0.9010896183608236
 40
0.9507031993409268
 40
1.0
 40
1.0
 40
1.0
 40
1.0
 10
377.1811362096319
 20
113.4447213286594
 30
0.0
 10
377.1788477140153
 20
113.4442932637733
 30
0.0
 10
377.1742230887941
 20
113.4434282240266
 30
0.0
 10
377.1639163027394
 20
113.4363556558062
 30
0.0
 10
377.1510823757134
 20
113.4247899456764
 30
0.0
 10
377.1354694626274
 20
113.4080869813193
 30
0.0
 10
377.1171472158582
 20
113.3861516107512
 30
0.0
 10
377.096097377314
 20
113.3587536046428
 30
0.0
 10
377.0723220477344
 20
113.3257160016643
 30
0.0
 10
377.025262519069
 20
113.2567220778846
 30
0.0
 10
376.9375665712641
 20
113.1166929926292
 30
0.0
 10
376.8200147651881
 20
112.8973977046504
 30
0.0
 10
376.7084926272883
 20
112.6604676415716
 30
0.0
 10
376.6170333040712
 20
112.4446257681739
 30
0.0
 10
376.5361516543435
 20
112.2430641471655
 30
0.0
 10
376.4700067522425
 20
112.0641960667937
 30
0.0
 10
376.4206561914662
 20
111.9128198656454
 30
0.0
 10
376.3756891745878
 20
111.7585757105236
 30
0.0
 10
376.3349314606721
 20
111.6024198554477
 30
0.0
 10
376.3114367914544
 20
111.4971751484997
 30
0.0
 10
376.2997270800391
 20
111.4447213286594
 30
0.0
  0
LINE
  5
102
330
1F
100
AcDbEntity
  8
0
  6
Continuous
 62
     7
370
    25
100
AcDbLine
 10
375.8596644227
 20
111.5258090712
 30
0.0
 11
376.29972708
 21
111.4447213287
 31
0.0
  0
SPLINE
  5
103
330
1F
100
AcDbEntity
  8
0
  6
Continuous
 62
     7
370
    25
100
AcDbSpline
210
0.0
220
0.0
230
1.0
 70
     8
 71
     3
 72
    25
 73
    21
 74
     0
 42
0.000000001
 43
0.00000001
 40
0.0
 40
0.0
 40
0.0
 40
0.0
 40
0.0288760384329379
 40
0.0583531183810567
 40
0.0884515256371788
 40
0.1191903155241519
 40
0.1505873770396599
 40
0.1826594973263453
 40
0.2154224255071077
 40
0.2488909351380524
 40
0.3610595498818108
 40
0.4984670937677609
 40
0.5822694576837939
 40
0.6661128179769302
 40
0.749997333930102
 40
0.8007710075450265
 40
0.851123794024394
 40
0.9010896183583234
 40
0.9507031993392587
 40
1.0
 40
1.0
 40
1.0
 40
1.0
 10
398.2795283652687
 20
105.2322213286594
 30
0.0
 10
398.2818168608854
 20
105.2326493935455
 30
0.0
 10
398.2864414861072
 20
105.2335144332923
 30
0.0
 10
398.2967482721623
 20
105.2405870015133
 30
0.0
 10
398.3095821991886
 20
105.2521527116437
 30
0.0
 10
398.3251951122747
 20
105.2688556760013
 30
0.0
 10
398.3435173590438
 20
105.2907910465698
 30
0.0
 10
398.3645671975877
 20
105.3181890526781
 30
0.0
 10
398.3883425271666
 20
105.3512266556559
 30
0.0
 10
398.4354020558315
 20
105.420220579434
 30
0.0
 10
398.5230980036372
 20
105.560249664688
 30
0.0
 10
398.6406498097118
 20
105.7795449526664
 30
0.0
 10
398.752171947611
 20
106.0164750157474
 30
0.0
 10
398.8436312708281
 20
106.2323168891451
 30
0.0
 10
398.9245129205563
 20
106.4338785101517
 30
0.0
 10
398.9906578226572
 20
106.6127465905209
 30
0.0
 10
399.040008383433
 20
106.7641227916665
 30
0.0
 10
399.0849754003113
 20
106.9183669467882
 30
0.0
 10
399.1257331142276
 20
107.0745228018667
 30
0.0
 10
399.1492277834458
 20
107.1797675088173
 30
0.0
 10
399.1609374948615
 20
107.2322213286594
 30
0.0
  0
LINE
  5
104
330
1F
100
AcDbEntity
  8
0
  6
Continuous
 62
     7
370
    25
100
AcDbLine
 10
399.6010001522
 20
107.1511335861
 30
0.0
 11
399.1609374949
 21
107.2322213287
 31
0.0
  0
SPLINE
  5
105
330
1F
100
AcDbEntity
  8
0
  6
Continuous
 62
     7
370
    25
100
AcDbSpline
210
0.0
220
0.0
230
1.0
 70
     8
 71
     3
 72
    16
 73
    12
 74
     0
 42
0.000000001
 43
0.00000001
 40
0.0
 40
0.0
 40
0.0
 40
0.0
 40
0.0870060742639604
 40
0.1851053914850239
 40
0.2943800223067333
 40
0.3925755183133773
 40
0.4909769450810653
 40
0.5895873034519303
 40
0.7549318943424994
 40
0.9066626834856446
 40
1.0
 40
1.0
 40
1.0
 40
1.0
 10
378.8324743991717
 20
111.4447213286594
 30
0.0
 10
378.8547621056612
 20
111.5226779162112
 30
0.0
 10
378.9021791931453
 20
111.6885305279937
 30
0.0
 10
378.9891414176972
 20
111.9450255413033
 30
0.0
 10
379.08590244746
 20
112.200032312634
 30
0.0
 10
379.1865589584087
 20
112.4400726163759
 30
0.0
 10
379.2840797051061
 20
112.6550880908004
 30
0.0
 10
379.4081715921914
 20
112.8937090483744
 30
0.0
 10
379.5388577103618
 20
113.1245313222973
 30
0.0
 10
379.6428211498867
 20
113.3031904307873
 30
0.0
 10
379.6772987455157
 20
113.3576846383545
 30
0.0
 10
379.6904299779429
 20
113.3784394529652
 30
0.0
  0
SPLINE
  5
106
330
1F
100
AcDbEntity
  8
0
  6
Continuous
 62
     7
370
    25
100
AcDbSpline
210
0.0
220
0.0
230
1.0
 70
     8
 71
     3
 72
    16
 73
    12
 74
     0
 42
0.000000001
 43
0.00000001
 40
0.0
 40
0.0
 40
0.0
 40
0.0
 40
0.0880318380383635
 40
0.1872877035540698
 40
0.2978506347678304
 40
0.3972038129749101
 40
0.4967653497774333
 40
0.5965382813961664
 40
0.7638322131148714
 40
0.9173518422854423
 40
1.0
 40
1.0
 40
1.0
 40
1.0
 10
396.6281901757288
 20
107.2322213286594
 30
0.0
 10
396.6059024766943
 20
107.1542647552072
 30
0.0
 10
396.5584854050678
 20
106.9884121734124
 30
0.0
 10
396.4715230447903
 20
106.7319169034805
 30
0.0
 10
396.374762580439
 20
106.4769112011922
 30
0.0
 10
396.2741041191045
 20
106.2368672097575
 30
0.0
 10
396.1765904948305
 20
106.0218652020341
 30
0.0
 10
396.0524659158605
 20
105.7831824323804
 30
0.0
 10
395.9219797710455
 20
105.5527382575024
 30
0.0
 10
395.8203298803301
 20
105.3779450099919
 30
0.0
 10
395.7872342959141
 20
105.3255553614075
 30
0.0
 10
395.775652322282
 20
105.3072213286594
 30
0.0
  0
SPLINE
  5
107
330
1F
100
AcDbEntity
  8
0
  6
Continuous
 62
     7
370
    25
100
AcDbSpline
210
0.0
220
0.0
230
1.0
 70
     8
 71
     3
 72
    15
 73
    11
 74
     0
 42
0.000000001
 43
0.00000001
 40
0.0
 40
0.0
 40
0.0
 40
0.0
 40
0.021008364988088
 40
0.0995168300519284
 40
0.236096555320183
 40
0.3979398287450039
 40
0.548616077756246
 40
0.7000319392580724
 40
0.851781261027411
 40
1.0
 40
1.0
 40
1.0
 40
1.0
 10
379.6835592845648
 20
105.3072213286594
 30
0.0
 10
379.6807121238757
 20
105.3117028748741
 30
0.0
 10
379.6672250958945
 20
105.3329320030463
 30
0.0
 10
379.6198174629371
 20
105.410066848114
 30
0.0
 10
379.526672423357
 20
105.5660012666407
 30
0.0
 10
379.3902529047664
 20
105.8150167632084
 30
0.0
 10
379.2409298561653
 20
106.1246555439375
 30
0.0
 10
379.0877661250677
 20
106.4666199523261
 30
0.0
 10
378.9421321414835
 20
106.8377282732617
 30
0.0
 10
378.8687390376983
 20
107.1017595139836
 30
0.0
 10
378.8324743991717
 20
107.2322213286594
 30
0.0
  0
LINE
  5
108
330
1F
100
AcDbEntity
  8
0
  6
Continuous
 62
     7
370
    25
100
AcDbLine
 10
379.1487345565
 20
111.3698580341
 30
0.0
 11
378.8324743992
 21
111.4447213287
 31
0.0
  0
SPLINE
  5
109
330
1F
100
AcDbEntity
  8
0
  6
Continuous
 62
     7
370
    25
100
AcDbSpline
210
0.0
220
0.0
230
1.0
 70
     8
 71
     3
 72
    25
 73
    21
 74
     0
 42
0.000000001
 43
0.00000001
 40
0.0
 40
0.0
 40
0.0
 40
0.0
 40
0.0278040781436522
 40
0.055549721993219
 40
0.0833079149813089
 40
0.1111495445113076
 40
0.1391448641111913
 40
0.1673629793310927
 40
0.1958713754537566
 40
0.2247355016371065
 40
0.2540184217407993
 40
0.3796733112851029
 40
0.5056490307768108
 40
0.6297529978411118
 40
0.7535891429683279
 40
0.8038648317328723
 40
0.8533521433028843
 40
0.9023387809687056
 40
0.9511213072444032
 40
1.0
 40
1.0
 40
1.0
 40
1.0
 10
380.0163561981618
 20
113.6122196198419
 30
0.0
 10
380.0162114059809
 20
113.6119584181557
 30
0.0
 10
380.0159221259208
 20
113.6114365637363
 30
0.0
 10
380.0123035147459
 20
113.6049001559769
 30
0.0
 10
380.0063617287526
 20
113.5941384621919
 30
0.0
 10
379.9978888955433
 20
113.5787313403587
 30
0.0
 10
379.986973678848
 20
113.5587747852023
 30
0.0
 10
379.9736352653812
 20
113.5342206527049
 30
0.0
 10
379.9579231288553
 20
113.505056196783
 30
0.0
 10
379.9398850739212
 20
113.4712483278001
 30
0.0
 10
379.8974625297292
 20
113.3908322919332
 30
0.0
 10
379.8169392354939
 20
113.2338394047579
 30
0.0
 10
379.6835125237417
 20
112.9520529537662
 30
0.0
 10
379.5394357060053
 20
112.6141812169654
 30
0.0
 10
379.423754436667
 20
112.3054908747762
 30
0.0
 10
379.3412388190686
 20
112.0594464662951
 30
0.0
 10
379.2883135697226
 20
111.8906065771232
 30
0.0
 10
379.238457242435
 20
111.719290655809
 30
0.0
 10
379.1914437161767
 20
111.5456218504255
 30
0.0
 10
379.1629802856636
 20
111.428484421048
 30
0.0
 10
379.1487345565131
 20
111.3698580340593
 30
0.0
  0
LINE
  5
10A
330
1F
100
AcDbEntity
  8
0
  6
Continuous
 62
     7
370
    25
100
AcDbLine
 10
379.1487345565
 20
107.3070846233
 30
0.0
 11
378.8324743992
 21
107.2322213287
 31
0.0
  0
SPLINE
  5
10B
330
1F
100
AcDbEntity
  8
0
  6
Continuous
 62
     7
370
    25
100
AcDbSpline
210
0.0
220
0.0
230
1.0
 70
     8
 71
     3
 72
    25
 73
    21
 74
     0
 42
0.000000001
 43
0.00000001
 40
0.0
 40
0.0
 40
0.0
 40
0.0
 40
0.0269822734731769
 40
0.0539275173136802
 40
0.0808923933113601
 40
0.107933439844806
 40
0.1351067198417023
 40
0.1624674833923036
 40
0.190069854784539
 40
0.2179665520622281
 40
0.2462086451089677
 40
0.3700054907647238
 40
0.4947546150766694
 40
0.621044168917856
 40
0.7446559260931477
 40
0.796706171775715
 40
0.847861451501886
 40
0.898521112282262
 40
0.9490962471824803
 40
1.0
 40
1.0
 40
1.0
 40
1.0
 10
379.1487345565131
 20
107.3070846232596
 30
0.0
 10
379.1565138585256
 20
107.2746941405986
 30
0.0
 10
379.1720617864783
 20
107.2099576269673
 30
0.0
 10
379.1967435481932
 20
107.1133241640013
 30
0.0
 10
379.2223607768112
 20
107.0172387239776
 30
0.0
 10
379.2490019585305
 20
106.9217306710636
 30
0.0
 10
379.2766266602321
 20
106.8268057811544
 30
0.0
 10
379.3052292993701
 20
106.7324751243279
 30
0.0
 10
379.334793741992
 20
106.6387499739744
 30
0.0
 10
379.3653108635158
 20
106.5456328697931
 30
0.0
 10
379.4320482629778
 20
106.3493575678968
 30
0.0
 10
379.5392336197197
 20
106.063278599735
 30
0.0
 10
379.6830136657272
 20
105.7259888337828
 30
0.0
 10
379.8162621340152
 20
105.4444796215113
 30
0.0
 10
379.9039333073977
 20
105.2734886996421
 30
0.0
 10
379.954808343495
 20
105.1775758803643
 30
0.0
 10
379.9824774980915
 20
105.1263586770708
 30
0.0
 10
380.0021764162234
 20
105.0903758829433
 30
0.0
 10
380.0144239249232
 20
105.0682059946324
 30
0.0
 10
380.0157107180797
 20
105.0658865268973
 30
0.0
 10
380.0163561981618
 20
105.0647230374769
 30
0.0
  0
SPLINE
  5
10C
330
1F
100
AcDbEntity
  8
0
  6
Continuous
 62
     7
370
    25
100
AcDbSpline
210
0.0
220
0.0
230
1.0
 70
     8
 71
     3
 72
    15
 73
    11
 74
     0
 42
0.000000001
 43
0.00000001
 40
0.0
 40
0.0
 40
0.0
 40
0.0
 40
0.0210083649911719
 40
0.0995168300522061
 40
0.2360965553265369
 40
0.3979398287451847
 40
0.5486160777563958
 40
0.700031939258164
 40
0.8517812610277311
 40
1.0
 40
1.0
 40
1.0
 40
1.0
 10
395.7771052903342
 20
113.3697213286594
 30
0.0
 10
395.7799524510239
 20
113.365239782444
 30
0.0
 10
395.7934394790051
 20
113.3440106542715
 30
0.0
 10
395.8408471119661
 20
113.2668758092019
 30
0.0
 10
395.9339921515462
 20
113.1109413906751
 30
0.0
 10
396.0704116701359
 20
112.8619258941063
 30
0.0
 10
396.2197347187354
 20
112.5522871133814
 30
0.0
 10
396.3728984498329
 20
112.2103227049925
 30
0.0
 10
396.518532433417
 20
111.8392143840568
 30
0.0
 10
396.5919255372023
 20
111.575183143335
 30
0.0
 10
396.6281901757288
 20
111.4447213286594
 30
0.0
  0
LINE
  5
10D
330
1F
100
AcDbEntity
  8
0
  6
Continuous
 62
     7
370
    25
100
AcDbLine
 10
396.3119300184
 20
111.3698580341
 30
0.0
 11
396.6281901757
 21
111.4447213287
 31
0.0
  0
SPLINE
  5
10E
330
1F
100
AcDbEntity
  8
0
  6
Continuous
 62
     7
370
    25
100
AcDbSpline
210
0.0
220
0.0
230
1.0
 70
     8
 71
     3
 72
    14
 73
    10
 74
     0
 42
0.000000001
 43
0.00000001
 40
0.0
 40
0.0
 40
0.0
 40
0.0
 40
0.1400355976495432
 40
0.2837945783099463
 40
0.426731892501939
 40
0.570768718984323
 40
0.7165841437719639
 40
0.859307752595139
 40
1.0
 40
1.0
 40
1.0
 40
1.0
 10
396.3119300183874
 20
111.3698580340593
 30
0.0
 10
396.2751670283969
 20
111.5154032272873
 30
0.0
 10
396.2006635634432
 20
111.8103634904667
 30
0.0
 10
396.0654759516056
 20
112.2284257309819
 30
0.0
 10
395.9215860030748
 20
112.6134934220294
 30
0.0
 10
395.7774493652283
 20
112.9513011148031
 30
0.0
 10
395.6450536648402
 20
113.2312419907951
 30
0.0
 10
395.5341328911404
 20
113.4473824564009
 30
0.0
 10
395.4927974097703
 20
113.5234456049693
 30
0.0
 10
395.4722778035319
 20
113.5612045908609
 30
0.0
  0
LINE
  5
10F
330
1F
100
AcDbEntity
  8
0
  6
Continuous
 62
     7
370
    25
100
AcDbLine
 10
396.3119300184
 20
107.3070846233
 30
0.0
 11
396.6281901757
 21
107.2322213287
 31
0.0
  0
SPLINE
  5
110
330
1F
100
AcDbEntity
  8
0
  6
Continuous
 62
     7
370
    25
100
AcDbSpline
210
0.0
220
0.0
230
1.0
 70
     8
 71
     3
 72
    25
 73
    21
 74
     0
 42
0.000000001
 43
0.00000001
 40
0.0
 40
0.0
 40
0.0
 40
0.0
 40
0.0278040781430709
 40
0.0555497219922032
 40
0.0833079149800047
 40
0.111149544509862
 40
0.1391448641097463
 40
0.16736297932979
 40
0.1958713754527314
 40
0.2247355016364904
 40
0.2540184217407176
 40
0.379673311282307
 40
0.5056490307767562
 40
0.629752997840675
 40
0.7535891429683552
 40
0.8038648317333889
 40
0.8533521433036539
 40
0.9023387809694757
 40
0.9511213072449197
 40
0.9999999999999999
 40
0.9999999999999999
 40
0.9999999999999999
 40
0.9999999999999999
 10
395.4443083767388
 20
105.0647230374769
 30
0.0
 10
395.4444531689196
 20
105.0649842391632
 30
0.0
 10
395.4447424489797
 20
105.0655060935826
 30
0.0
 10
395.4483610601546
 20
105.072042501342
 30
0.0
 10
395.454302846148
 20
105.082804195127
 30
0.0
 10
395.4627756793573
 20
105.0982113169602
 30
0.0
 10
395.4736908960525
 20
105.1181678721166
 30
0.0
 10
395.4870293095194
 20
105.142722004614
 30
0.0
 10
395.5027414460453
 20
105.171886460536
 30
0.0
 10
395.5207795009794
 20
105.2056943295189
 30
0.0
 10
395.5632020451701
 20
105.2861103653831
 30
0.0
 10
395.6437253394057
 20
105.4431032525591
 30
0.0
 10
395.7771520511578
 20
105.7248897035502
 30
0.0
 10
395.9212288688946
 20
106.0627614403518
 30
0.0
 10
396.0369101382336
 20
106.3714517825426
 30
0.0
 10
396.1194257558325
 20
106.6174961910253
 30
0.0
 10
396.1723510051787
 20
106.7863360801981
 30
0.0
 10
396.2222073324662
 20
106.9576520015123
 30
0.0
 10
396.2692208587243
 20
107.1313208068949
 30
0.0
 10
396.2976842892371
 20
107.2484582362714
 30
0.0
 10
396.3119300183874
 20
107.3070846232596
 30
0.0
  0
ARC
  5
111
330
1F
100
AcDbEntity
  8
0
  6
Continuous
 62
     7
370
    25
100
AcDbCircle
 10
387.7303322875
 20
109.3384713287
 30
0.0
 40
11.6230385214107
100
AcDbArc
 50
169.5595567507
 51
190.4404432494
  0
ARC
  5
112
330
1F
100
AcDbEntity
  8
0
  6
Continuous
 62
     7
370
    25
100
AcDbCircle
 10
387.7303322875
 20
109.3384713287
 30
0.0
 40
9.143750000000061
100
AcDbArc
 50
166.6824039243
 51
193.3175960757
  0
ARC
  5
113
330
1F
100
AcDbEntity
  8
0
  6
Continuous
 62
     7
370
    25
100
AcDbCircle
 10
387.7303322875
 20
109.3384713287
 30
0.0
 40
8.818750000000026
100
AcDbArc
 50
166.6824039243
 51
193.3175960757
  0
ARC
  5
114
330
1F
100
AcDbEntity
  8
0
  6
Continuous
 62
     7
370
    25
100
AcDbCircle
 10
387.7303322875
 20
109.3384713287
 30
0.0
 40
9.143750000000006
100
AcDbArc
 50
346.6824039243
 51
13.3175960757
  0
ARC
  5
115
330
1F
100
AcDbEntity
  8
0
  6
Continuous
 62
     7
370
    25
100
AcDbCircle
 10
387.7303322875
 20
109.3384713287
 30
0.0
 40
8.818750000000026
100
AcDbArc
 50
346.6824039243
 51
13.3175960757
  0
ARC
  5
116
330
1F
100
AcDbEntity
  8
0
  6
Continuous
 62
     7
370
    25
100
AcDbCircle
 10
387.7303322875
 20
109.3384713287
 30
0.0
 40
11.62303852141065
100
AcDbArc
 50
349.5595567507
 51
10.4404432493
  0
CIRCLE
  5
117
330
1F
100
AcDbEntity
  8
0
  6
Continuous
 62
     7
370
    25
100
AcDbCircle
 10
387.7303322875
 20
109.3384713287
 30
0.0
 40
7.774999999999977
  0
CIRCLE
  5
118
330
1F
100
AcDbEntity
  8
0
  6
Continuous
 62
     7
370
    25
100
AcDbCircle
 10
387.7303322875
 20
109.3384713287
 30
0.0
 40
2.615470053837896
  0
CIRCLE
  5
119
330
1F
100
AcDbEntity
  8
0
  6
Continuous
 62
     7
370
    25
100
AcDbCircle
 10
387.7303322875
 20
109.3384713287
 30
0.0
 40
2.5
  0
CIRCLE
  5
11A
330
1F
100
AcDbEntity
  8
0
  6
Continuous
 62
     7
370
    25
100
AcDbCircle
 10
387.7303322875
 20
109.3384713287
 30
0.0
 40
15.73750000000001
  0
CIRCLE
  5
11B
330
1F
100
AcDbEntity
  8
0
  6
Continuous
 62
     7
370
    25
100
AcDbCircle
 10
387.7303322875
 20
109.3384713287
 30
0.0
 40
13.42500000000001
  0
CIRCLE
  5
11C
330
1F
100
AcDbEntity
  8
0
  6
Continuous
 62
     7
370
    25
100
AcDbCircle
 10
387.7303322875
 20
109.3384713287
 30
0.0
 40
1.25
  0
LINE
  5
11D
330
1F
100
AcDbEntity
  8
0
  6
CENTER
 62
     7
370
    18
100
AcDbLine
 10
387.7303322875
 20
109.3384713287
 30
0.0
 11
387.7303322875
 21
128.8529713287
 31
0.0
  0
LINE
  5
11E
330
1F
100
AcDbEntity
  8
0
  6
CENTER
 62
     7
370
    18
100
AcDbLine
 10
387.7303322875
 20
109.3384713287
 30
0.0
 11
407.2448322875
 21
109.3384713287
 31
0.0
  0
LINE
  5
11F
330
1F
100
AcDbEntity
  8
0
  6
Continuous
 62
     7
370
    18
100
AcDbLine
 10
399.7303322875
 20
126.8529713287
 30
0.0
 11
387.7303322875
 21
126.8529713287
 31
0.0
  0
SOLID
  5
120
330
1F
100
AcDbEntity
  8
0
  6
Continuous
 62
     7
370
    18
100
AcDbTrace
 10
387.7303322875
 20
126.8529713287
 30
0.0
 11
393.7303322875
 21
125.3529713287
 31
0.0
 12
393.7303322875
 22
128.3529713287
 32
0.0
 13
393.7303322875
 23
128.3529713287
 33
0.0
  0
LINE
  5
121
330
1F
100
AcDbEntity
  8
0
  6
Continuous
 62
     7
370
    18
100
AcDbLine
 10
417.2448322875
 20
109.3384713287
 30
0.0
 11
405.2448322875
 21
109.3384713287
 31
0.0
  0
SOLID
  5
122
330
1F
100
AcDbEntity
  8
0
  6
Continuous
 62
     7
370
    18
100
AcDbTrace
 10
405.2448322875
 20
109.3384713287
 30
0.0
 11
411.2448322875
 21
107.8384713287
 31
0.0
 12
411.2448322875
 22
110.8384713287
 32
0.0
 13
411.2448322875
 23
110.8384713287
 33
0.0
  0
MTEXT
  5
123
330
1F
100
AcDbEntity
  8
0
  6
Continuous
 62
     7
100
AcDbMText
 10
396.5829515435
 20
133.4992645453
 30
0.0
 40
3.5
 41
0.0
 71
     1
 72
     1
  1
A
  7
SLDTEXTSTYLE0
 73
     1
 44
1.0
  0
MTEXT
  5
124
330
1F
100
AcDbEntity
  8
0
  6
Continuous
 62
     7
100
AcDbMText
 10
414.0974515435
 20
107.1252556875
 30
0.0
 40
3.5
 41
0.0
 71
     1
 72
     1
  1
A
  7
SLDTEXTSTYLE0
 73
     1
 44
1.0
  0
LINE
  5
125
330
1F
100
AcDbEntity
  8
VERMASSUNG
  6
CENTERX2
370
    18
100
AcDbLine
 10
399.3985111101
 20
112.3684713287
 30
0.0
 11
393.052064106
 21
112.3684713287
 31
0.0
  0
LINE
  5
126
330
1F
100
AcDbEntity
  8
VERMASSUNG
  6
CENTERX2
370
    18
100
AcDbLine
 10
400.3677489031
 20
111.4447213287
 30
0.0
 11
393.5987991621
 21
111.4447213287
 31
0.0
  0
LINE
  5
127
330
1F
100
AcDbEntity
  8
VERMASSUNG
  6
CENTERX2
370
    18
100
AcDbLine
 10
400.3670962839
 20
107.2322213287
 30
0.0
 11
393.5972417
 21
107.2322213287
 31
0.0
  0
LINE
  5
128
330
1F
100
AcDbEntity
  8
VERMASSUNG
  6
CENTERX2
370
    18
100
AcDbLine
 10
381.1246517692
 20
107.2322213287
 30
0.0
 11
374.1699324248
 21
107.2322213287
 31
0.0
  0
LINE
  5
129
330
1F
100
AcDbEntity
  8
VERMASSUNG
  6
CENTERX2
370
    18
100
AcDbLine
 10
380.9401380136
 20
111.4447213287
 30
0.0
 11
374.1702834298
 21
111.4447213287
 31
0.0
  0
LINE
  5
12A
330
1F
100
AcDbEntity
  8
VERMASSUNG
  6
CENTERX2
370
    18
100
AcDbLine
 10
381.6266384099
 20
112.3684713287
 30
0.0
 11
375.2823140024
 21
112.3684713287
 31
0.0
  0
LINE
  5
12B
330
1F
100
AcDbEntity
  8
0
  6
Continuous
 62
     7
370
    25
100
AcDbLine
 10
148.3921744427
 20
77.8634713287
 30
0.0
 11
153.1579766381
 21
77.8634713287
 31
0.0
  0
ARC
  5
12C
330
1F
100
AcDbEntity
  8
0
  6
Continuous
 62
     7
370
    25
100
AcDbCircle
 10
135.3579766381
 20
78.0634713287
 30
0.0
 40
0.2000000000000171
100
AcDbArc
 50
180.0
 51
270.0
  0
LINE
  5
12D
330
1F
100
AcDbEntity
  8
0
  6
Continuous
 62
     7
370
    25
100
AcDbLine
 10
135.3579766381
 20
77.8634713287
 30
0.0
 11
141.7237788336
 21
77.8634713287
 31
0.0
  0
LINE
  5
12E
330
1F
100
AcDbEntity
  8
0
  6
Continuous
 62
     7
370
    25
100
AcDbLine
 10
141.7237788336
 20
77.8634713287
 30
0.0
 11
143.1829766381
 21
80.3908760645
 31
0.0
  0
LINE
  5
12F
330
1F
100
AcDbEntity
  8
0
  6
Continuous
 62
     7
370
    25
100
AcDbLine
 10
146.9329766381
 20
80.3908760645
 30
0.0
 11
148.3921744427
 21
77.8634713287
 31
0.0
  0
ARC
  5
130
330
1F
100
AcDbEntity
  8
0
  6
Continuous
 62
     7
370
    25
100
AcDbCircle
 10
144.1829766381
 20
80.4884713287
 30
0.0
 40
1.0
100
AcDbArc
 50
90.0
 51
180.0
  0
ARC
  5
131
330
1F
100
AcDbEntity
  8
0
  6
Continuous
 62
     7
370
    25
100
AcDbCircle
 10
145.9329766381
 20
80.4884713287
 30
0.0
 40
1.0
100
AcDbArc
 50
0.0
 51
90.0
  0
LINE
  5
132
330
1F
100
AcDbEntity
  8
0
  6
Continuous
 62
     7
370
    25
100
AcDbLine
 10
144.1829766381
 20
81.4884713287
 30
0.0
 11
145.9329766381
 21
81.4884713287
 31
0.0
  0
ARC
  5
133
330
1F
100
AcDbEntity
  8
0
  6
Continuous
 62
     7
370
    25
100
AcDbCircle
 10
134.7290417636
 20
83.7884713287
 30
0.0
 40
0.8000000000000047
100
AcDbArc
 50
57.576802718
 51
107.5
  0
LINE
  5
134
330
1F
100
AcDbEntity
  8
0
  6
Continuous
 62
     7
370
    25
100
AcDbLine
 10
133.9977945981
 20
84.3967332831
 30
0.0
 11
134.488477124
 21
84.5514448893
 31
0.0
  0
LINE
  5
135
330
1F
100
AcDbEntity
  8
0
  6
Continuous
 62
     7
370
    25
100
AcDbLine
 10
120.6715311701
 20
85.0659508079
 30
0.0
 11
133.9977945981
 21
84.3967332831
 31
0.0
  0
LINE
  5
136
330
1F
100
AcDbEntity
  8
0
  6
Continuous
 62
     7
370
    25
100
AcDbLine
 10
96.7079766381
 20
86.2693512011
 30
0.0
 11
104.7628135016
 21
85.8648538701
 31
0.0
  0
LINE
  5
137
330
1F
100
AcDbEntity
  8
0
  6
Continuous
 62
     7
370
    25
100
AcDbLine
 10
95.2079766381
 20
87.1353766049
 30
0.0
 11
96.7079766381
 21
86.2693512011
 31
0.0
  0
ARC
  5
138
330
1F
100
AcDbEntity
  8
0
  6
Continuous
 62
     7
370
    25
100
AcDbCircle
 10
156.1579766381
 20
92.3384713287
 30
0.0
 40
3.0
100
AcDbArc
 50
90.0
 51
180.0
  0
LINE
  5
139
330
1F
100
AcDbEntity
  8
0
  6
Continuous
 62
     7
370
    25
100
AcDbLine
 10
156.1579766381
 20
95.3384713287
 30
0.0
 11
186.5799489561
 21
95.3384713287
 31
0.0
  0
LINE
  5
13A
330
1F
100
AcDbEntity
  8
0
  6
Continuous
 62
     7
370
    25
100
AcDbLine
 10
186.5799489561
 20
95.3384713287
 30
0.0
 11
194.0032131616
 21
98.7999962762
 31
0.0
  0
ARC
  5
13B
330
1F
100
AcDbEntity
  8
0
  6
Continuous
 62
     7
370
    25
100
AcDbCircle
 10
193.1579766381
 20
100.6126118503
 30
0.0
 40
2.0
100
AcDbArc
 50
295.0
 51
0.0
  0
LINE
  5
13C
330
1F
100
AcDbEntity
  8
0
  6
Continuous
 62
     7
370
    25
100
AcDbLine
 10
174.9079766381
 20
112.8384713287
 30
0.0
 11
173.6579766381
 21
114.0884713287
 31
0.0
  0
LINE
  5
13D
330
1F
100
AcDbEntity
  8
0
  6
Continuous
 62
     7
370
    25
100
AcDbLine
 10
173.6579766381
 20
114.0884713287
 30
0.0
 11
173.6579766381
 21
122.7384713287
 31
0.0
  0
LINE
  5
13E
330
1F
100
AcDbEntity
  8
0
  6
Continuous
 62
     7
370
    25
100
AcDbLine
 10
173.6579766381
 20
122.7384713287
 30
0.0
 11
174.2579766381
 21
123.3384713287
 31
0.0
  0
LINE
  5
13F
330
1F
100
AcDbEntity
  8
0
  6
Continuous
 62
     7
370
    25
100
AcDbLine
 10
174.2579766381
 20
123.3384713287
 30
0.0
 11
175.6579766381
 21
123.3384713287
 31
0.0
  0
LINE
  5
140
330
1F
100
AcDbEntity
  8
0
  6
Continuous
 62
     7
370
    25
100
AcDbLine
 10
175.6579766381
 20
118.3384713287
 30
0.0
 11
175.6579766381
 21
123.3384713287
 31
0.0
  0
LINE
  5
141
330
1F
100
AcDbEntity
  8
0
  6
Continuous
 62
     7
370
    25
100
AcDbLine
 10
179.6579766381
 20
118.3384713287
 30
0.0
 11
175.6579766381
 21
118.3384713287
 31
0.0
  0
LINE
  5
142
330
1F
100
AcDbEntity
  8
0
  6
Continuous
 62
     7
370
    25
100
AcDbLine
 10
179.6579766381
 20
118.3384713287
 30
0.0
 11
179.6579766381
 21
123.3384713287
 31
0.0
  0
LINE
  5
143
330
1F
100
AcDbEntity
  8
0
  6
Continuous
 62
     7
370
    25
100
AcDbLine
 10
179.6579766381
 20
123.3384713287
 30
0.0
 11
181.0579766381
 21
123.3384713287
 31
0.0
  0
LINE
  5
144
330
1F
100
AcDbEntity
  8
0
  6
Continuous
 62
     7
370
    25
100
AcDbLine
 10
181.0579766381
 20
123.3384713287
 30
0.0
 11
181.6579766381
 21
122.7384713287
 31
0.0
  0
LINE
  5
145
330
1F
100
AcDbEntity
  8
0
  6
Continuous
 62
     7
370
    25
100
AcDbLine
 10
181.6579766381
 20
122.7384713287
 30
0.0
 11
181.6579766381
 21
114.0884713287
 31
0.0
  0
LINE
  5
146
330
1F
100
AcDbEntity
  8
0
  6
Continuous
 62
     7
370
    25
100
AcDbLine
 10
181.6579766381
 20
114.0884713287
 30
0.0
 11
180.4079766381
 21
112.8384713287
 31
0.0
  0
LINE
  5
147
330
1F
100
AcDbEntity
  8
0
  6
Continuous
 62
     7
370
    25
100
AcDbLine
 10
180.4079766381
 20
112.8384713287
 30
0.0
 11
179.5079766381
 21
112.8384713287
 31
0.0
  0
LINE
  5
148
330
1F
100
AcDbEntity
  8
0
  6
Continuous
 62
     7
370
    25
100
AcDbLine
 10
177.6579766381
 20
113.9065693267
 30
0.0
 11
179.5079766381
 21
112.8384713287
 31
0.0
  0
LINE
  5
149
330
1F
100
AcDbEntity
  8
0
  6
Continuous
 62
     7
370
    25
100
AcDbLine
 10
175.8079766381
 20
112.8384713287
 30
0.0
 11
177.6579766381
 21
113.9065693267
 31
0.0
  0
LINE
  5
14A
330
1F
100
AcDbEntity
  8
0
  6
Continuous
 62
     7
370
    25
100
AcDbLine
 10
175.8079766381
 20
112.8384713287
 30
0.0
 11
174.9079766381
 21
112.8384713287
 31
0.0
  0
LINE
  5
14B
330
1F
100
AcDbEntity
  8
0
  6
Continuous
 62
     7
370
    25
100
AcDbLine
 10
179.5079766381
 20
112.8384713287
 30
0.0
 11
175.8079766381
 21
112.8384713287
 31
0.0
  0
LINE
  5
14C
330
1F
100
AcDbEntity
  8
0
  6
Continuous
 62
     7
370
    25
100
AcDbLine
 10
177.6579766381
 20
118.3384713287
 30
0.0
 11
177.6579766381
 21
123.3384713287
 31
0.0
  0
LINE
  5
14D
330
1F
100
AcDbEntity
  8
0
  6
Continuous
 62
     7
370
    25
100
AcDbLine
 10
175.6579766381
 20
123.3384713287
 30
0.0
 11
177.6579766381
 21
123.3384713287
 31
0.0
  0
LINE
  5
14E
330
1F
100
AcDbEntity
  8
0
  6
Continuous
 62
     7
370
    25
100
AcDbLine
 10
179.6579766381
 20
123.3384713287
 30
0.0
 11
177.6579766381
 21
123.3384713287
 31
0.0
  0
LINE
  5
14F
330
1F
100
AcDbEntity
  8
0
  6
Continuous
 62
     7
370
    25
100
AcDbLine
 10
148.3921744427
 20
77.8634713287
 30
0.0
 11
148.3921744427
 21
104.448764049
 31
0.0
  0
SPLINE
  5
150
330
1F
100
AcDbEntity
  8
0
  6
Continuous
 62
     7
370
    25
100
AcDbSpline
210
0.0
220
0.0
230
1.0
 70
     8
 71
     3
 72
    20
 73
    16
 74
     0
 42
0.000000001
 43
0.00000001
 40
0.0
 40
0.0
 40
0.0
 40
0.0
 40
0.1249999999999996
 40
0.1249999999999996
 40
0.2499999999999992
 40
0.2499999999999992
 40
0.3749999999999989
 40
0.3749999999999989
 40
0.4999999999999987
 40
0.4999999999999987
 40
0.7499999999999994
 40
0.7499999999999994
 40
0.8749999999999997
 40
0.8749999999999997
 40
1.0
 40
1.0
 40
1.0
 40
1.0
 10
151.9454766381251
 20
109.3384713286593
 30
0.0
 10
151.9454766381251
 20
109.071803241178
 30
0.0
 10
151.9234296090814
 20
108.803491065904
 30
0.0
 10
151.8344235713766
 20
108.2706480306706
 30
0.0
 10
151.7685446031771
 20
108.0113578206847
 30
0.0
 10
151.5963696954699
 20
107.5062308546632
 30
0.0
 10
151.489663124563
 20
107.259650638742
 30
0.0
 10
151.2369862216867
 20
106.7832339880022
 30
0.0
 10
151.093528957492
 20
106.5578139262374
 30
0.0
 10
150.6152067652115
 20
105.9172062446237
 30
0.0
 10
150.227179782246
 20
105.5344405295206
 30
0.0
 10
149.5853751338006
 20
105.0585382813489
 30
0.0
 10
149.3605705061534
 20
104.9149426451972
 30
0.0
 10
148.8892614485312
 20
104.6576112598067
 30
0.0
 10
148.6435648486423
 20
104.5445588812848
 30
0.0
 10
148.3921744426952
 20
104.4487640489741
 30
0.0
  0
LINE
  5
151
330
1F
100
AcDbEntity
  8
0
  6
Continuous
 62
     7
370
    25
100
AcDbLine
 10
153.1579766381
 20
77.8634713287
 30
0.0
 11
153.1579766381
 21
109.3384713287
 31
0.0
  0
LINE
  5
152
330
1F
100
AcDbEntity
  8
0
  6
Continuous
 62
     7
370
    25
100
AcDbLine
 10
153.1579766381
 20
140.8134713287
 30
0.0
 11
148.3921744427
 21
140.8134713287
 31
0.0
  0
LINE
  5
153
330
1F
100
AcDbEntity
  8
0
  6
Continuous
 62
     7
370
    25
100
AcDbLine
 10
135.1579766381
 20
78.0634713287
 30
0.0
 11
135.1579766381
 21
109.3384713287
 31
0.0
  0
LINE
  5
154
330
1F
100
AcDbEntity
  8
0
  6
Continuous
 62
     7
370
    25
100
AcDbLine
 10
135.1579766381
 20
109.3384713287
 30
0.0
 11
135.3579766381
 21
109.3384713287
 31
0.0
  0
ARC
  5
155
330
1F
100
AcDbEntity
  8
0
  6
Continuous
 62
     7
370
    25
100
AcDbCircle
 10
135.3579766381
 20
140.6134713287
 30
0.0
 40
0.2000000000000171
100
AcDbArc
 50
90.0
 51
179.9999999999
  0
SPLINE
  5
156
330
1F
100
AcDbEntity
  8
0
  6
Continuous
 62
     7
370
    25
100
AcDbSpline
210
0.0
220
0.0
230
1.0
 70
     8
 71
     3
 72
    14
 73
    10
 74
     0
 42
0.000000001
 43
0.00000001
 40
0.0
 40
0.0
 40
0.0
 40
0.0
 40
0.25
 40
0.25
 40
0.5
 40
0.5
 40
0.75
 40
0.75
 40
1.0
 40
1.0
 40
1.0
 40
1.0
 10
141.723778833555
 20
106.0435732431424
 30
0.0
 10
141.52690294803
 20
106.2710698110716
 30
0.0
 10
141.3507946266405
 20
106.5126565861427
 30
0.0
 10
141.0410582328673
 20
107.0248138205168
 30
0.0
 10
140.9065002313738
 20
107.298346623625
 30
0.0
 10
140.6912580786646
 20
107.8584517581624
 30
0.0
 10
140.6096148411457
 20
108.1454242535724
 30
0.0
 10
140.4990918188756
 20
108.7334632386167
 30
0.0
 10
140.4704766381251
 20
109.0379066943874
 30
0.0
 10
140.4704766381251
 20
109.3384713286591
 30
0.0
  0
LINE
  5
157
330
1F
100
AcDbEntity
  8
0
  6
Continuous
 62
     7
370
    25
100
AcDbLine
 10
141.7237788336
 20
77.8634713287
 30
0.0
 11
141.7237788336
 21
106.0435732431
 31
0.0
  0
LINE
  5
158
330
1F
100
AcDbEntity
  8
0
  6
Continuous
 62
     7
370
    25
100
AcDbLine
 10
141.7237788336
 20
140.8134713287
 30
0.0
 11
135.3579766381
 21
140.8134713287
 31
0.0
  0
ARC
  5
159
330
1F
100
AcDbEntity
  8
0
  6
Continuous
 62
     7
370
    25
100
AcDbCircle
 10
146.2079766381
 20
109.3384713287
 30
0.0
 40
3.737500000000011
100
AcDbArc
 50
180.0
 51
206.113804444
  0
SPLINE
  5
15A
330
1F
100
AcDbEntity
  8
0
  6
Continuous
 62
     7
370
    25
100
AcDbSpline
210
0.0
220
0.0
230
1.0
 70
     8
 71
     3
 72
    10
 73
     6
 74
     0
 42
0.000000001
 43
0.00000001
 40
0.0
 40
0.0
 40
0.0
 40
0.0
 40
0.5
 40
0.5
 40
1.0
 40
1.0
 40
1.0
 40
1.0
 10
142.8519948306718
 20
107.6933900668235
 30
0.0
 10
142.6751096842484
 20
107.3949397514669
 30
0.0
 10
142.4895603093711
 20
107.1159470473395
 30
0.0
 10
142.1116113693234
 20
106.5706277532138
 30
0.0
 10
141.9188248271442
 20
106.3052923673924
 30
0.0
 10
141.723778833555
 20
106.0435732431424
 30
0.0
  0
SPLINE
  5
15B
330
1F
100
AcDbEntity
  8
0
  6
Continuous
 62
     7
370
    25
100
AcDbSpline
210
0.0
220
0.0
230
1.0
 70
     8
 71
     3
 72
     8
 73
     4
 74
     0
 42
0.000000001
 43
0.00000001
 40
0.0
 40
0.0
 40
0.0
 40
0.0
 40
1.0
 40
1.0
 40
1.0
 40
1.0
 10
148.3921744426948
 20
104.4487640489729
 30
0.0
 10
148.0437730380145
 20
104.8867393753869
 30
0.0
 10
147.6992046527816
 20
105.3298225139716
 30
0.0
 10
147.3608203534608
 20
105.7832135858202
 30
0.0
  0
ARC
  5
15C
330
1F
100
AcDbEntity
  8
0
  6
Continuous
 62
     7
370
    25
100
AcDbCircle
 10
146.2079766381
 20
109.3384713287
 30
0.0
 40
3.737500000000011
100
AcDbArc
 50
287.9660359156
 51
0.0
  0
SPLINE
  5
15D
330
1F
100
AcDbEntity
  8
0
  6
Continuous
 62
     7
370
    25
100
AcDbSpline
210
0.0
220
0.0
230
1.0
 70
     8
 71
     3
 72
     8
 73
     4
 74
     0
 42
0.000000001
 43
0.00000001
 40
0.0
 40
0.0
 40
0.0
 40
0.0
 40
1.0
 40
1.0
 40
1.0
 40
1.0
 10
143.1829766381252
 20
107.1434129581368
 30
0.0
 10
143.0646798786952
 20
107.3064371865952
 30
0.0
 10
142.9532513965238
 20
107.4868256856177
 30
0.0
 10
142.8519948306718
 20
107.6933900668235
 30
0.0
  0
LINE
  5
15E
330
1F
100
AcDbEntity
  8
0
  6
Continuous
 62
     7
370
    25
100
AcDbLine
 10
143.1829766381
 20
80.3908760645
 30
0.0
 11
143.1829766381
 21
107.1434129581
 31
0.0
  0
SPLINE
  5
15F
330
1F
100
AcDbEntity
  8
0
  6
Continuous
 62
     7
370
    25
100
AcDbSpline
210
0.0
220
0.0
230
1.0
 70
     8
 71
     3
 72
     8
 73
     4
 74
     0
 42
0.000000001
 43
0.00000001
 40
0.0
 40
0.0
 40
0.0
 40
0.0
 40
1.0
 40
1.0
 40
1.0
 40
1.0
 10
147.3608203534611
 20
105.783213585821
 30
0.0
 10
147.2192822651792
 20
105.737317814724
 30
0.0
 10
147.0766717964423
 20
105.7003769637867
 30
0.0
 10
146.9329766381253
 20
105.6719632828461
 30
0.0
  0
LINE
  5
160
330
1F
100
AcDbEntity
  8
0
  6
Continuous
 62
     7
370
    25
100
AcDbLine
 10
146.9329766381
 20
80.3908760645
 30
0.0
 11
146.9329766381
 21
105.6719632828
 31
0.0
  0
SPLINE
  5
161
330
1F
100
AcDbEntity
  8
0
  6
Continuous
 62
     7
370
    25
100
AcDbSpline
210
0.0
220
0.0
230
1.0
 70
     8
 71
     3
 72
    14
 73
    10
 74
     0
 42
0.000000001
 43
0.00000001
 40
0.0
 40
0.0
 40
0.0
 40
0.0
 40
0.25
 40
0.25
 40
0.5
 40
0.5
 40
0.75
 40
0.75
 40
1.0
 40
1.0
 40
1.0
 40
1.0
 10
144.1829766381251
 20
106.1970892681641
 30
0.0
 10
144.0486285517686
 20
106.2836928297917
 30
0.0
 10
143.9254518779126
 20
106.3751612271151
 30
0.0
 10
143.6967052729946
 20
106.566352613746
 30
0.0
 10
143.5947833090274
 20
106.663214465887
 30
0.0
 10
143.4153599065987
 20
106.8510890806222
 30
0.0
 10
143.3389186184159
 20
106.9413244319735
 30
0.0
 10
143.2216286455658
 20
107.0891307959509
 30
0.0
 10
143.1829766381251
 20
107.1434129581368
 30
0.0
 10
143.1829766381251
 20
107.1434129581369
 30
0.0
  0
SPLINE
  5
162
330
1F
100
AcDbEntity
  8
0
  6
Continuous
 62
     7
370
    25
100
AcDbSpline
210
0.0
220
0.0
230
1.0
 70
     8
 71
     3
 72
    14
 73
    10
 74
     0
 42
0.000000001
 43
0.00000001
 40
0.0
 40
0.0
 40
0.0
 40
0.0
 40
0.25
 40
0.25
 40
0.5
 40
0.5
 40
0.75
 40
0.75
 40
1.0
 40
1.0
 40
1.0
 40
1.0
 10
146.9329766381252
 20
105.6719632828466
 30
0.0
 10
146.9329766381254
 20
105.6719632828467
 30
0.0
 10
146.9070601155543
 20
105.6665865518583
 30
0.0
 10
146.8076152689767
 20
105.6490419642578
 30
0.0
 10
146.7353168765645
 20
105.6371925606115
 30
0.0
 10
146.5506129820406
 20
105.6155487426112
 30
0.0
 10
146.4410357201646
 20
105.6062594819269
 30
0.0
 10
146.1977055419465
 20
105.5990039455693
 30
0.0
 10
146.0661692830264
 20
105.6012753517286
 30
0.0
 10
145.9329766381251
 20
105.6111021156618
 30
0.0
  0
SPLINE
  5
163
330
1F
100
AcDbEntity
  8
0
  6
Continuous
 62
     7
370
    25
100
AcDbSpline
210
0.0
220
0.0
230
1.0
 70
     8
 71
     3
 72
    10
 73
     6
 74
     0
 42
0.000000001
 43
0.00000001
 40
0.0
 40
0.0
 40
0.0
 40
0.0
 40
0.5
 40
0.5
 40
1.0
 40
1.0
 40
1.0
 40
1.0
 10
145.9329766381251
 20
105.6111021156619
 30
0.0
 10
145.620512735837
 20
105.6341552580309
 30
0.0
 10
145.3176237538392
 20
105.6953899604373
 30
0.0
 10
144.7302805690351
 20
105.8915619243612
 30
0.0
 10
144.4458129084632
 20
106.0276595594611
 30
0.0
 10
144.1829766381251
 20
106.1970892681641
 30
0.0
  0
LINE
  5
164
330
1F
100
AcDbEntity
  8
0
  6
Continuous
 62
     7
370
    25
100
AcDbLine
 10
135.1579766381
 20
136.1884713287
 30
0.0
 11
135.4920153242
 21
135.1290359683
 31
0.0
  0
LINE
  5
165
330
1F
100
AcDbEntity
  8
0
  6
Continuous
 62
     7
370
    25
100
AcDbLine
 10
135.1579766381
 20
136.1884713287
 30
0.0
 11
135.1579766381
 21
134.2131825953
 31
0.0
  0
ARC
  5
166
330
1F
100
AcDbEntity
  8
0
  6
Continuous
 62
     7
370
    25
100
AcDbCircle
 10
134.7290417636
 20
134.8884713287
 30
0.0
 40
0.8000000000000181
100
AcDbArc
 50
252.5
 51
17.5
  0
LINE
  5
167
330
1F
100
AcDbEntity
  8
0
  6
Continuous
 62
     7
370
    25
100
AcDbLine
 10
133.9977945981
 20
84.3967332831
 30
0.0
 11
133.9977945981
 21
109.3384713287
 31
0.0
  0
LINE
  5
168
330
1F
100
AcDbEntity
  8
0
  6
Continuous
 62
     7
370
    25
100
AcDbLine
 10
134.488477124
 20
134.1254977681
 30
0.0
 11
133.9977945981
 21
134.2802093742
 31
0.0
  0
SPLINE
  5
169
330
1F
100
AcDbEntity
  8
0
  6
Continuous
 62
     7
370
    25
100
AcDbSpline
210
0.0
220
0.0
230
1.0
 70
     8
 71
     3
 72
    23
 73
    19
 74
     0
 42
0.000000001
 43
0.00000001
 40
0.0
 40
0.0
 40
0.0
 40
0.0
 40
0.0014465357521816
 40
0.0696020593676202
 40
0.1372543666871886
 40
0.203958990884451
 40
0.2702907445977726
 40
0.3365481572098529
 40
0.4028600414027829
 40
0.4678618141050683
 40
0.5326346816646189
 40
0.5993540723635358
 40
0.6655184433344475
 40
0.7321132007428681
 40
0.7988840356461528
 40
0.8663348102232983
 40
0.9345219372798514
 40
1.0
 40
1.0
 40
1.0
 40
1.0
 10
104.9178007080339
 20
132.7627295149468
 30
0.0
 10
104.9189449889957
 20
132.7623764933004
 30
0.0
 10
104.9740036429655
 20
132.7453903707245
 30
0.0
 10
105.3704082797835
 20
132.6281289300601
 30
0.0
 10
106.0864472926524
 20
132.4275243985905
 30
0.0
 10
107.0961319283115
 20
132.1869079180899
 30
0.0
 10
108.3121087852177
 20
131.9596360394333
 30
0.0
 10
109.7163090888828
 20
131.7872464289393
 30
0.0
 10
111.2333731131714
 20
131.699178148016
 30
0.0
 10
112.807670977105
 20
131.7302258027752
 30
0.0
 10
114.3734911993487
 20
131.8812490435882
 30
0.0
 10
115.8633482699057
 20
132.1355858418572
 30
0.0
 10
117.2350284619674
 20
132.453322620595
 30
0.0
 10
118.4209515557611
 20
132.7972390407074
 30
0.0
 10
119.3985508997491
 20
133.125081641022
 30
0.0
 10
120.118062051345
 20
133.3940060705041
 30
0.0
 10
120.590697053046
 20
133.5765954061262
 30
0.0
 10
120.6481681673994
 20
133.599843798711
 30
0.0
 10
120.676321325574
 20
133.6112324011612
 30
0.0
  0
LINE
  5
16A
330
1F
100
AcDbEntity
  8
0
  6
Continuous
 62
     7
370
    25
100
AcDbLine
 10
104.7584107529
 20
132.8118676902
 30
0.0
 11
96.7079766381
 21
132.4075914562
 31
0.0
  0
LINE
  5
16B
330
1F
100
AcDbEntity
  8
0
  6
Continuous
 62
     7
370
    25
100
AcDbLine
 10
96.7079766381
 20
86.2693512011
 30
0.0
 11
96.7079766381
 21
100.2163482941
 31
0.0
  0
SPLINE
  5
16C
330
1F
100
AcDbEntity
  8
0
  6
Continuous
 62
     7
370
    25
100
AcDbSpline
210
0.0
220
0.0
230
1.0
 70
     8
 71
     3
 72
     8
 73
     4
 74
     0
 42
0.000000001
 43
0.00000001
 40
0.0
 40
0.0
 40
0.0
 40
0.0
 40
1.0
 40
1.0
 40
1.0
 40
1.0
 10
102.5261510910721
 20
100.2209343523558
 30
0.0
 10
100.5867596067607
 20
100.2187882565062
 30
0.0
 10
98.64736812244925
 20
100.2171920699815
 30
0.0
 10
96.70797663813784
 20
100.2161446175058
 30
0.0
  0
SPLINE
  5
16D
330
1F
100
AcDbEntity
  8
0
  6
Continuous
 62
     7
370
    25
100
AcDbSpline
210
0.0
220
0.0
230
1.0
 70
     8
 71
     3
 72
    13
 73
     9
 74
     0
 42
0.000000001
 43
0.00000001
 40
0.0
 40
0.0
 40
0.0
 40
0.0
 40
0.1686717431976176
 40
0.3360976438050112
 40
0.5026076259545951
 40
0.6685363120001365
 40
0.8342210747535599
 40
1.0
 40
1.0
 40
1.0
 40
1.0
 10
103.6096461405391
 20
100.3583907981735
 30
0.0
 10
103.5501424238746
 20
100.343871895452
 30
0.0
 10
103.4315744966721
 20
100.3149413294733
 30
0.0
 10
103.251672851312
 20
100.2809715706108
 30
0.0
 10
103.0712741786026
 20
100.254102983374
 30
0.0
 10
102.890170214022
 20
100.2351464584173
 30
0.0
 10
102.7084341137073
 20
100.2232232397372
 30
0.0
 10
102.5869236048875
 20
100.2216974592979
 30
0.0
 10
102.5261510910721
 20
100.2209343523558
 30
0.0
  0
SPLINE
  5
16E
330
1F
100
AcDbEntity
  8
0
  6
Continuous
 62
     7
370
    25
100
AcDbSpline
210
0.0
220
0.0
230
1.0
 70
     8
 71
     3
 72
     8
 73
     4
 74
     0
 42
0.000000001
 43
0.00000001
 40
0.0
 40
0.0
 40
0.0
 40
0.0
 40
1.0
 40
1.0
 40
1.0
 40
1.0
 10
109.0018395570319
 20
100.3626288400589
 30
0.0
 10
107.2044448855941
 20
100.3607577795349
 30
0.0
 10
105.4070502141563
 20
100.3593355985108
 30
0.0
 10
103.6096555427184
 20
100.3583614755148
 30
0.0
  0
SPLINE
  5
16F
330
1F
100
AcDbEntity
  8
0
  6
Continuous
 62
     7
370
    25
100
AcDbSpline
210
0.0
220
0.0
230
1.0
 70
     8
 71
     3
 72
    18
 73
    14
 74
     0
 42
0.000000001
 43
0.00000001
 40
0.0
 40
0.0
 40
0.0
 40
0.0
 40
0.0923146492083614
 40
0.1843375917871727
 40
0.2763048505572403
 40
0.3684522564592561
 40
0.4610136522432117
 40
0.5542191634081761
 40
0.648293598500629
 40
0.743455030187018
 40
0.8399135943669072
 40
0.9201663187095083
 40
1.0
 40
1.0
 40
1.0
 40
1.0
 10
111.1981612056342
 20
99.82843660421526
 30
0.0
 10
111.1278443731485
 20
99.8288472903815
 30
0.0
 10
110.9874329035315
 20
99.82966736497983
 30
0.0
 10
110.777100268474
 20
99.84326395963195
 30
0.0
 10
110.5676765733159
 20
99.86592236706629
 30
0.0
 10
110.3591368413952
 20
99.89851919415003
 30
0.0
 10
110.1514931637231
 20
99.9408219293345
 30
0.0
 10
109.9447449114936
 20
99.9928978496443
 30
0.0
 10
109.7389027301676
 20
100.0547553520345
 30
0.0
 10
109.5339409944343
 20
100.126366446824
 30
0.0
 10
109.3424368825812
 20
100.2029550415676
 30
0.0
 10
109.1647002655015
 20
100.2815718812804
 30
0.0
 10
109.056366288926
 20
100.3354860745237
 30
0.0
 10
109.0023410884434
 20
100.3623726081017
 30
0.0
  0
LINE
  5
170
330
1F
100
AcDbEntity
  8
0
  6
Continuous
 62
     7
370
    25
100
AcDbLine
 10
113.1130344849
 20
99.8299320391
 30
0.0
 11
111.1981612056
 21
99.8284366042
 31
0.0
  0
SPLINE
  5
171
330
1F
100
AcDbEntity
  8
0
  6
Continuous
 62
     7
370
    25
100
AcDbSpline
210
0.0
220
0.0
230
1.0
 70
     8
 71
     3
 72
    25
 73
    21
 74
     0
 42
0.000000001
 43
0.00000001
 40
0.0
 40
0.0
 40
0.0
 40
0.0
 40
0.0280056024284644
 40
0.0559514328341146
 40
0.0838901607635225
 40
0.1118745076903239
 40
0.1399569498903393
 40
0.168189428271326
 40
0.1966230730098432
 40
0.2253079499151899
 40
0.2542928341276564
 40
0.3799484016843204
 40
0.505784488750134
 40
0.6313077644946906
 40
0.7532057173413932
 40
0.8039627394917982
 40
0.8536129947754353
 40
0.9025574087112554
 40
0.951212440738308
 40
1.0
 40
1.0
 40
1.0
 40
1.0
 10
118.0529187913265
 20
104.9637958435906
 30
0.0
 10
118.0529613464528
 20
104.8891886853829
 30
0.0
 10
118.0530463658803
 20
104.7401336021343
 30
0.0
 10
118.0406413091441
 20
104.5175440220088
 30
0.0
 10
118.0190442545927
 20
104.2962385074166
 30
0.0
 10
117.9873623467584
 20
104.0762795184739
 30
0.0
 10
117.9458359785859
 20
103.8576889641732
 30
0.0
 10
117.8944011493646
 20
103.6404972834653
 30
0.0
 10
117.8330794449493
 20
103.4247366941284
 30
0.0
 10
117.7618572688396
 20
103.2104183741365
 30
0.0
 10
117.5910114295635
 20
102.7620466242275
 30
0.0
 10
117.2532749801308
 20
102.1087028174685
 30
0.0
 10
116.6417192726745
 20
101.3368105098001
 30
0.0
 10
115.9054858576303
 20
100.6926484986355
 30
0.0
 10
115.2189578366371
 20
100.3009922632968
 30
0.0
 10
114.6701950337063
 20
100.0822680208726
 30
0.0
 10
114.28809944826
 20
99.96638141677867
 30
0.0
 10
113.9009327494439
 20
99.88547160919003
 30
0.0
 10
113.5087644210078
 20
99.83626488835023
 30
0.0
 10
113.245064012594
 20
99.83204490197058
 30
0.0
 10
113.1130344849237
 20
99.82993203907502
 30
0.0
  0
LINE
  5
172
330
1F
100
AcDbEntity
  8
0
  6
Continuous
 62
     7
370
    25
100
AcDbLine
 10
118.0529187913
 20
109.3384713287
 30
0.0
 11
118.0529187913
 21
104.9637958436
 31
0.0
  0
LINE
  5
173
330
1F
100
AcDbEntity
  8
0
  6
Continuous
 62
     7
370
    25
100
AcDbLine
 10
133.9977945981
 20
134.2802093742
 30
0.0
 11
120.6763213256
 21
133.6112324012
 31
0.0
  0
SPLINE
  5
174
330
1F
100
AcDbEntity
  8
0
  6
Continuous
 62
     7
370
    25
100
AcDbSpline
210
0.0
220
0.0
230
1.0
 70
     8
 71
     3
 72
    20
 73
    16
 74
     0
 42
0.000000001
 43
0.00000001
 40
0.0
 40
0.0
 40
0.0
 40
0.0
 40
0.0829621378684854
 40
0.1658495135106166
 40
0.2487180070857359
 40
0.3299477216398528
 40
0.4108693994445739
 40
0.4941953814850567
 40
0.5768901676626232
 40
0.6601065810557784
 40
0.7435845489350862
 40
0.8279858465401896
 40
0.9132590745392893
 40
0.9972257035811815
 40
1.0
 40
1.0
 40
1.0
 40
1.0
 10
107.0703927328521
 20
86.47521096115233
 30
0.0
 10
107.4561385689234
 20
86.55212938775647
 30
0.0
 10
108.2272826220405
 20
86.70589692509407
 30
0.0
 10
109.6350307732104
 20
86.88181214647958
 30
0.0
 10
111.142882141085
 20
86.97580843380864
 30
0.0
 10
112.7153711161028
 20
86.95196405194201
 30
0.0
 10
114.2826681473149
 20
86.80805900704145
 30
0.0
 10
115.7784441740964
 20
86.5590014042424
 30
0.0
 10
117.1586980497691
 20
86.24432071170376
 30
0.0
 10
118.3562922328247
 20
85.90005935972324
 30
0.0
 10
119.343154262647
 20
85.57101213390351
 30
0.0
 10
120.090392508845
 20
85.29255122569573
 30
0.0
 10
120.5375939382106
 20
85.12069543066413
 30
0.0
 10
120.7243485503605
 20
85.04684475906565
 30
0.0
 10
120.6732503364623
 20
85.06699605013878
 30
0.0
 10
120.6716160261172
 20
85.06764056314532
 30
0.0
  0
SPLINE
  5
175
330
1F
100
AcDbEntity
  8
0
  6
Continuous
 62
     7
370
    25
100
AcDbSpline
210
0.0
220
0.0
230
1.0
 70
     8
 71
     3
 72
    11
 73
     7
 74
     0
 42
0.000000001
 43
0.00000001
 40
0.0
 40
0.0
 40
0.0
 40
0.0
 40
0.2435512231731347
 40
0.4981153923403508
 40
0.7509097881719436
 40
0.9999999999999999
 40
0.9999999999999999
 40
0.9999999999999999
 40
0.9999999999999999
 10
104.7628986151085
 20
85.8665487517692
 30
0.0
 10
104.7888495366337
 20
85.87478428830735
 30
0.0
 10
104.8419248334389
 20
85.89162775745682
 30
0.0
 10
105.3196198171014
 20
86.03252919959435
 30
0.0
 10
106.0309592653681
 20
86.23781975004255
 30
0.0
 10
106.7256239125428
 20
86.39647086823977
 30
0.0
 10
107.0703927328521
 20
86.47521096115233
 30
0.0
  0
LINE
  5
176
330
1F
100
AcDbEntity
  8
0
  6
Continuous
 62
     7
370
    25
100
AcDbLine
 10
118.0529187913
 20
104.9637958436
 30
0.0
 11
117.1579766381
 21
105.1259713287
 31
0.0
  0
LINE
  5
177
330
1F
100
AcDbEntity
  8
0
  6
Continuous
 62
     7
370
    25
100
AcDbLine
 10
117.1579766381
 20
105.1259713287
 30
0.0
 11
117.1579766381
 21
109.3384713287
 31
0.0
  0
SPLINE
  5
178
330
1F
100
AcDbEntity
  8
0
  6
Continuous
 62
     7
370
    25
100
AcDbSpline
210
0.0
220
0.0
230
1.0
 70
     8
 71
     3
 72
    25
 73
    21
 74
     0
 42
0.000000001
 43
0.00000001
 40
0.0
 40
0.0
 40
0.0
 40
0.0
 40
0.0288760384329379
 40
0.0583531183810567
 40
0.0884515256371788
 40
0.1191903155241519
 40
0.1505873770396599
 40
0.1826594973263453
 40
0.2154224255071077
 40
0.2488909351380524
 40
0.3610595498818108
 40
0.4984670937677609
 40
0.5822694576837939
 40
0.6661128179769302
 40
0.749997333930102
 40
0.8007710075450265
 40
0.851123794024394
 40
0.9010896183583234
 40
0.9507031993392587
 40
1.0
 40
1.0
 40
1.0
 40
1.0
 10
113.1579766381251
 20
101.1259713286591
 30
0.0
 10
113.2207639474819
 20
101.1268274584314
 30
0.0
 10
113.347645455284
 20
101.1285575379249
 30
0.0
 10
113.5389719694323
 20
101.1427026743669
 30
0.0
 10
113.7328604521476
 20
101.1658340946277
 30
0.0
 10
113.9287563481972
 20
101.199240023343
 30
0.0
 10
114.1261004686218
 20
101.2431107644799
 30
0.0
 10
114.3242711418052
 20
101.2979067766965
 30
0.0
 10
114.5226144750861
 20
101.3639819826522
 30
0.0
 10
114.8739571303212
 20
101.5019698302083
 30
0.0
 10
115.3990806223884
 20
101.7820280007163
 30
0.0
 10
115.9360723872247
 20
102.2206185766732
 30
0.0
 10
116.3481321283688
 20
102.6944787028352
 30
0.0
 10
116.6350507139562
 20
103.1261624496306
 30
0.0
 10
116.8334774017724
 20
103.5292856916438
 30
0.0
 10
116.9655632757228
 20
103.8870218523821
 30
0.0
 10
117.051197155542
 20
104.1897742546733
 30
0.0
 10
117.1122793668894
 20
104.4982625649166
 30
0.0
 10
117.1507803102563
 20
104.8105742750736
 30
0.0
 10
117.1555829893496
 20
105.021063688975
 30
0.0
 10
117.1579766381251
 20
105.1259713286591
 30
0.0
  0
SPLINE
  5
179
330
1F
100
AcDbEntity
  8
0
  6
Continuous
 62
     7
370
    25
100
AcDbSpline
210
0.0
220
0.0
230
1.0
 70
     8
 71
     3
 72
    13
 73
     9
 74
     0
 42
0.000000001
 43
0.00000001
 40
0.0
 40
0.0
 40
0.0
 40
0.0
 40
0.1722808990514524
 40
0.3421751864020586
 40
0.509785360909649
 40
0.6752181678258066
 40
0.8385846213654179
 40
1.0
 40
1.0
 40
1.0
 40
1.0
 10
110.1579950070354
 20
101.275966151409
 30
0.0
 10
110.2188662537928
 20
101.2597004349749
 30
0.0
 10
110.3397654963694
 20
101.2273943314924
 30
0.0
 10
110.5228412706146
 20
101.1900052521748
 30
0.0
 10
110.7049490679572
 20
101.1608734199463
 30
0.0
 10
110.8858859101493
 20
101.1406891017183
 30
0.0
 10
111.0652104986263
 20
101.1282447770073
 30
0.0
 10
111.1840436959073
 20
101.1267261037129
 30
0.0
 10
111.2431033588356
 20
101.1259713286591
 30
0.0
  0
LINE
  5
17A
330
1F
100
AcDbEntity
  8
0
  6
Continuous
 62
     7
370
    25
100
AcDbLine
 10
111.1981612056
 20
99.8284366042
 30
0.0
 11
111.2431033588
 21
101.1259713287
 31
0.0
  0
SPLINE
  5
17B
330
1F
100
AcDbEntity
  8
0
  6
Continuous
 62
     7
370
    25
100
AcDbSpline
210
0.0
220
0.0
230
1.0
 70
     8
 71
     3
 72
    11
 73
     7
 74
     0
 42
0.000000001
 43
0.00000001
 40
0.0
 40
0.0
 40
0.0
 40
0.0
 40
0.2392771050480589
 40
0.5001130256950088
 40
0.7515027953458615
 40
1.0
 40
1.0
 40
1.0
 40
1.0
 10
109.8304759504021
 20
101.276516077242
 30
0.0
 10
109.7616571581433
 20
101.2049694706101
 30
0.0
 10
109.617819015274
 20
101.0554299235077
 30
0.0
 10
109.4100789214031
 20
100.8265183568199
 30
0.0
 10
109.2020953424958
 20
100.5942033575772
 30
0.0
 10
109.0690987505707
 20
100.4394324607181
 30
0.0
 10
109.0029852428765
 20
100.3624947983899
 30
0.0
  0
SPLINE
  5
17C
330
1F
100
AcDbEntity
  8
0
  6
Continuous
 62
     7
370
    25
100
AcDbSpline
210
0.0
220
0.0
230
1.0
 70
    24
 71
     3
 72
     9
 73
     5
 74
     0
 42
0.000000001
 43
0.00000001
 40
0.0
 40
0.0
 40
0.0
 40
0.0
 40
0.5090957280101628
 40
1.0
 40
1.0
 40
1.0
 40
1.0
 10
109.8326486352155
 20
101.2759713286592
 30
0.0
 10
109.8873973649615
 20
101.2759713286592
 30
0.0
 10
109.994938494721
 20
101.2759713286592
 30
0.0
 10
110.1043606400077
 20
101.2759713286592
 30
0.0
 10
110.1580764385792
 20
101.2759713286592
 30
0.0
  0
LINE
  5
17D
330
1F
100
AcDbEntity
  8
0
  6
Continuous
 62
     7
370
    25
100
AcDbLine
 10
103.5841265497
 20
101.2559195549
 30
0.0
 11
103.6095410413
 21
100.3583613842
 31
0.0
  0
SPLINE
  5
17E
330
1F
100
AcDbEntity
  8
0
  6
Continuous
 62
     7
370
    25
100
AcDbSpline
210
0.0
220
0.0
230
1.0
 70
     8
 71
     3
 72
     8
 73
     4
 74
     0
 42
0.000000001
 43
0.00000001
 40
0.0
 40
0.0
 40
0.0
 40
0.0
 40
1.0
 40
1.0
 40
1.0
 40
1.0
 10
103.5841377408534
 20
101.2559200449984
 30
0.0
 10
103.6059405973354
 20
101.2616173760311
 30
0.0
 10
103.6276953067329
 20
101.2674989588261
 30
0.0
 10
103.649398762051
 20
101.2735639533791
 30
0.0
  0
LINE
  5
17F
330
1F
100
AcDbEntity
  8
0
  6
Continuous
 62
     7
370
    25
100
AcDbLine
 10
103.6579766382
 20
101.2759713287
 30
0.0
 11
109.8315637987
 21
101.2759713287
 31
0.0
  0
LINE
  5
180
330
1F
100
AcDbEntity
  8
0
  6
Continuous
 62
     7
370
    25
100
AcDbLine
 10
111.2431033588
 20
101.1259713287
 30
0.0
 11
113.1579766381
 21
101.1259713287
 31
0.0
  0
SPLINE
  5
181
330
1F
100
AcDbEntity
  8
0
  6
Continuous
 62
     7
370
    25
100
AcDbSpline
210
0.0
220
0.0
230
1.0
 70
     8
 71
     3
 72
    13
 73
     9
 74
     0
 42
0.000000001
 43
0.00000001
 40
0.0
 40
0.0
 40
0.0
 40
0.0
 40
0.1620909845429404
 40
0.3259283017468241
 40
0.4915764691781117
 40
0.6590979119692602
 40
0.8285529847843899
 40
1.0
 40
1.0
 40
1.0
 40
1.0
 10
102.5728499174146
 20
101.1259713286591
 30
0.0
 10
102.6284016627416
 20
101.1266402187306
 30
0.0
 10
102.7401036556967
 20
101.1279852053481
 30
0.0
 10
102.907945604956
 20
101.1389308530877
 30
0.0
 10
103.076730178982
 20
101.1565688942859
 30
0.0
 10
103.2460565442501
 20
101.1818740030659
 30
0.0
 10
103.415808980858
 20
101.214178536759
 30
0.0
 10
103.5278068857958
 20
101.2419512980157
 30
0.0
 10
103.5841330486037
 20
101.2559188188639
 30
0.0
  0
LINE
  5
182
330
1F
100
AcDbEntity
  8
0
  6
Continuous
 62
     7
370
    25
100
AcDbLine
 10
95.7943168166
 20
100.5984695847
 30
0.0
 11
96.7079766382
 21
101.1259713287
 31
0.0
  0
LINE
  5
183
330
1F
100
AcDbEntity
  8
0
  6
Continuous
 62
     7
370
    25
100
AcDbLine
 10
96.7079766382
 20
101.1259713287
 30
0.0
 11
102.5728499174
 21
101.1259713287
 31
0.0
  0
SPLINE
  5
184
330
1F
100
AcDbEntity
  8
0
  6
Continuous
 62
     7
370
    25
100
AcDbSpline
210
0.0
220
0.0
230
1.0
 70
     8
 71
     3
 72
     8
 73
     4
 74
     0
 42
0.000000001
 43
0.00000001
 40
0.0
 40
0.0
 40
0.0
 40
0.0
 40
1.0
 40
1.0
 40
1.0
 40
1.0
 10
96.70797663767414
 20
100.2161446172831
 30
0.0
 10
96.40342336396863
 20
100.3448354818299
 30
0.0
 10
96.09887009026308
 20
100.4722802380917
 30
0.0
 10
95.79431681655757
 20
100.5984695847294
 30
0.0
  0
LINE
  5
185
330
1F
100
AcDbEntity
  8
0
  6
Continuous
 62
     7
370
    25
100
AcDbLine
 10
95.2079766381
 20
87.1353766049
 30
0.0
 11
95.2079766381
 21
100.2599459249
 31
0.0
  0
SPLINE
  5
186
330
1F
100
AcDbEntity
  8
0
  6
Continuous
 62
     7
370
    25
100
AcDbSpline
210
0.0
220
0.0
230
1.0
 70
    24
 71
     3
 72
     8
 73
     4
 74
     0
 42
0.000000001
 43
0.00000001
 40
0.0
 40
0.0
 40
0.0
 40
0.0
 40
1.0
 40
1.0
 40
1.0
 40
1.0
 10
95.79431681655755
 20
100.5984695847294
 30
0.0
 10
95.5979847908992
 20
100.485117236865
 30
0.0
 10
95.40252377065899
 20
100.3722677642132
 30
0.0
 10
95.20797663812507
 20
100.2599459248747
 30
0.0
  0
ARC
  5
187
330
1F
100
AcDbEntity
  8
0
  6
Continuous
 62
     7
370
    25
100
AcDbCircle
 10
128.3579766381
 20
126.7884713287
 30
0.0
 40
0.8000000000000114
100
AcDbArc
 50
0.0
 51
90.0
  0
LINE
  5
188
330
1F
100
AcDbEntity
  8
0
  6
Continuous
 62
     7
370
    25
100
AcDbLine
 10
126.9332171117
 20
127.5884713287
 30
0.0
 11
128.3579766381
 21
127.5884713287
 31
0.0
  0
ARC
  5
189
330
1F
100
AcDbEntity
  8
0
  6
Continuous
 62
     7
370
    25
100
AcDbCircle
 10
126.9332171117
 20
126.7884713287
 30
0.0
 40
0.8000000000000189
100
AcDbArc
 50
90.0
 51
120.0
  0
LINE
  5
18A
330
1F
100
AcDbEntity
  8
0
  6
Continuous
 62
     7
370
    25
100
AcDbLine
 10
125.6579766381
 20
126.9759713287
 30
0.0
 11
125.6579766381
 21
109.3384713287
 31
0.0
  0
LINE
  5
18B
330
1F
100
AcDbEntity
  8
0
  6
Continuous
 62
     7
370
    25
100
AcDbLine
 10
125.6579766381
 20
126.9759713287
 30
0.0
 11
126.5332171117
 21
127.4812916517
 31
0.0
  0
LINE
  5
18C
330
1F
100
AcDbEntity
  8
0
  6
Continuous
 62
     7
370
    25
100
AcDbLine
 10
95.959642688
 20
100.6939205211
 30
0.0
 11
95.8231739156
 21
100.6151302386
 31
0.0
  0
SPLINE
  5
18D
330
1F
100
AcDbEntity
  8
0
  6
Continuous
 62
     7
370
    25
100
AcDbSpline
210
0.0
220
0.0
230
1.0
 70
     8
 71
     3
 72
    32
 73
    28
 74
     0
 42
0.000000001
 43
0.00000001
 40
0.0
 40
0.0
 40
0.0
 40
0.0
 40
0.1250000000000011
 40
0.1250000000000011
 40
0.1875000000000012
 40
0.1875000000000012
 40
0.2500000000000013
 40
0.2500000000000013
 40
0.3125000000000014
 40
0.3125000000000014
 40
0.3750000000000016
 40
0.3750000000000016
 40
0.5000000000000011
 40
0.5000000000000011
 40
0.562500000000001
 40
0.562500000000001
 40
0.6250000000000008
 40
0.6250000000000008
 40
0.7500000000000004
 40
0.7500000000000004
 40
0.8125000000000003
 40
0.8125000000000003
 40
0.8750000000000002
 40
0.8750000000000002
 40
0.9375000000000001
 40
0.9375000000000001
 40
1.0
 40
1.0
 40
1.0
 40
1.0
 10
109.6256069694657
 20
125.5111400828687
 30
0.0
 10
109.1415327255117
 20
125.5114994754883
 30
0.0
 10
108.6581351549448
 20
125.5264586816696
 30
0.0
 10
107.9342298052088
 20
125.5734427281783
 30
0.0
 10
107.693567371672
 20
125.5932192833029
 30
0.0
 10
107.2222212625963
 20
125.6401833668019
 30
0.0
 10
106.9903854463061
 20
125.6674372159864
 30
0.0
 10
106.5346823597498
 20
125.729065144599
 30
0.0
 10
106.3108140368085
 20
125.7634402453945
 30
0.0
 10
105.8714864448007
 20
125.8387596890475
 30
0.0
 10
105.6547690521343
 20
125.8799776397958
 30
0.0
 10
105.0284270734614
 20
126.0102144589765
 30
0.0
 10
104.644034439108
 20
126.1052543708758
 30
0.0
 10
104.1164926934882
 20
126.2515213328282
 30
0.0
 10
103.9488585419571
 20
126.3008899680188
 30
0.0
 10
103.6304537947165
 20
126.3992936755191
 30
0.0
 10
103.4808729201774
 20
126.4479769401516
 30
0.0
 10
103.067852850629
 20
126.58759974332
 30
0.0
 10
102.8363010794698
 20
126.6731864219005
 30
0.0
 10
102.5529915643802
 20
126.7821494698166
 30
0.0
 10
102.4694238826084
 20
126.8151981223911
 30
0.0
 10
102.3274990502842
 20
126.8722015186314
 30
0.0
 10
102.2685109388416
 20
126.8963982242418
 30
0.0
 10
102.1737950351318
 20
126.9356005046209
 30
0.0
 10
102.138067067985
 20
126.9506076711179
 30
0.0
 10
102.0901027902676
 20
126.9708166688448
 30
0.0
 10
102.0779764828341
 20
126.9759713286591
 30
0.0
 10
102.0779764828341
 20
126.9759713286591
 30
0.0
  0
SPLINE
  5
18E
330
1F
100
AcDbEntity
  8
0
  6
Continuous
 62
     7
370
    25
100
AcDbSpline
210
0.0
220
0.0
230
1.0
 70
     8
 71
     3
 72
    31
 73
    27
 74
     0
 42
0.000000001
 43
0.00000001
 40
0.0
 40
0.0
 40
0.0
 40
0.0
 40
0.0161756688075965
 40
0.0323169068532621
 40
0.0484425516008495
 40
0.0645714951500181
 40
0.0807226180246393
 40
0.0969147231634267
 40
0.1131664712589144
 40
0.1294963185366976
 40
0.1459224579704985
 40
0.162462764796899
 40
0.1791347470353138
 40
0.195955501544
 40
0.2945754514600319
 40
0.3932796468915294
 40
0.492817516515217
 40
0.5924284642439981
 40
0.6938854141933355
 40
0.7927106604376501
 40
0.8267659964728274
 40
0.8607894384978582
 40
0.8949681865136657
 40
0.9294869120721314
 40
0.964524908804572
 40
0.9999999999999999
 40
0.9999999999999999
 40
0.9999999999999999
 40
0.9999999999999999
 10
120.6339260282092
 20
126.9759713286591
 30
0.0
 10
120.633192927758
 20
126.9756249372312
 30
0.0
 10
120.6317282872985
 20
126.9749328916877
 30
0.0
 10
120.6186719076334
 20
126.9693505296413
 30
0.0
 10
120.5976573471106
 20
126.9604837666472
 30
0.0
 10
120.56791014177
 20
126.9480426659322
 30
0.0
 10
120.5296378291142
 20
126.9321520073772
 30
0.0
 10
120.4827851481937
 20
126.9128262635491
 30
0.0
 10
120.4273674181542
 20
126.8901101740329
 30
0.0
 10
120.3633814543333
 20
126.864041169646
 30
0.0
 10
120.2908279701465
 20
126.8346587223238
 30
0.0
 10
120.2097112728036
 20
126.8020044748157
 30
0.0
 10
120.1200176175371
 20
126.7661120284361
 30
0.0
 10
119.8629717759944
 20
126.6638741142856
 30
0.0
 10
119.3349356642161
 20
126.457350060808
 30
0.0
 10
118.3563015734058
 20
126.1202640419593
 30
0.0
 10
117.1704232020912
 20
125.7771218051271
 30
0.0
 10
115.8000400667803
 20
125.4800163772215
 30
0.0
 10
114.314166762628
 20
125.2700034922688
 30
0.0
 10
113.0940788252882
 20
125.2117592989558
 30
0.0
 10
112.2276409260126
 20
125.2254030495325
 30
0.0
 10
111.6994730368548
 20
125.2507591134075
 30
0.0
 10
111.1747217450166
 20
125.2927785187765
 30
0.0
 10
110.6536991704301
 20
125.3510704883366
 30
0.0
 10
110.1363809848863
 20
125.4237106002929
 30
0.0
 10
109.8006767708127
 20
125.482603079867
 30
0.0
 10
109.6317841870539
 20
125.5122318501422
 30
0.0
  0
LINE
  5
18F
330
1F
100
AcDbEntity
  8
0
  6
Continuous
 62
     7
370
    25
100
AcDbLine
 10
120.6339260282
 20
126.9759713287
 30
0.0
 11
125.6579766381
 21
126.9759713287
 31
0.0
  0
LINE
  5
190
330
1F
100
AcDbEntity
  8
0
  6
Continuous
 62
     7
370
    25
100
AcDbLine
 10
117.8079766381
 20
113.4012447395
 30
0.0
 11
117.8079766381
 21
109.3384713287
 31
0.0
  0
SPLINE
  5
191
330
1F
100
AcDbEntity
  8
0
  6
Continuous
 62
     7
370
    25
100
AcDbSpline
210
0.0
220
0.0
230
1.0
 70
     8
 71
     3
 72
    25
 73
    21
 74
     0
 42
0.000000001
 43
0.00000001
 40
0.0
 40
0.0
 40
0.0
 40
0.0
 40
0.0278040781436522
 40
0.055549721993219
 40
0.0833079149813089
 40
0.1111495445113076
 40
0.1391448641111913
 40
0.1673629793310927
 40
0.1958713754537566
 40
0.2247355016371065
 40
0.2540184217407993
 40
0.3796733112851029
 40
0.5056490307768108
 40
0.6297529978411118
 40
0.7535891429683279
 40
0.8038648317328723
 40
0.8533521433028843
 40
0.9023387809687056
 40
0.9511213072444032
 40
1.0
 40
1.0
 40
1.0
 40
1.0
 10
113.1579766381251
 20
117.8859679110242
 30
0.0
 10
113.2266067390662
 20
117.8854455076516
 30
0.0
 10
113.3637227048589
 20
117.8844017988129
 30
0.0
 10
113.5689091986822
 20
117.8713289832941
 30
0.0
 10
113.7731927549069
 20
117.8498055957242
 30
0.0
 10
113.9765751501626
 20
117.8189913520577
 30
0.0
 10
114.1790508811574
 20
117.779078241745
 30
0.0
 10
114.3806186040247
 20
117.7299699767501
 30
0.0
 10
114.5812703118635
 20
117.6716410649062
 30
0.0
 10
114.7810243697861
 20
117.6040253269404
 30
0.0
 10
115.1966328041557
 20
117.4431932552068
 30
0.0
 10
115.7994352813831
 20
117.129207480856
 30
0.0
 10
116.4934908733196
 20
116.5656345788726
 30
0.0
 10
117.0602657312836
 20
115.8898911052711
 30
0.0
 10
117.3978499972507
 20
115.2725104208927
 30
0.0
 10
117.586325429141
 20
114.7804216039306
 30
0.0
 10
117.6856002092454
 20
114.4427418255867
 30
0.0
 10
117.755945680739
 20
114.1001099829583
 30
0.0
 10
117.7999346895876
 20
113.7527723721913
 30
0.0
 10
117.8052942294425
 20
113.5184975134364
 30
0.0
 10
117.8079766381251
 20
113.4012447394589
 30
0.0
  0
LINE
  5
192
330
1F
100
AcDbEntity
  8
0
  6
Continuous
 62
     7
370
    25
100
AcDbLine
 10
111.2431033588
 20
117.885967911
 30
0.0
 11
113.1579766381
 21
117.885967911
 31
0.0
  0
SPLINE
  5
193
330
1F
100
AcDbEntity
  8
0
  6
Continuous
 62
     7
370
    25
100
AcDbSpline
210
0.0
220
0.0
230
1.0
 70
     8
 71
     3
 72
    12
 73
     8
 74
     0
 42
0.000000001
 43
0.00000001
 40
0.0
 40
0.0
 40
0.0
 40
0.0
 40
0.1993047266737982
 40
0.3984909635100614
 40
0.5980263786408541
 40
0.7983761953881935
 40
1.0
 40
1.0
 40
1.0
 40
1.0
 10
110.2418927944895
 20
117.7837757378675
 30
0.0
 10
110.3073636370526
 20
117.7968054975426
 30
0.0
 10
110.4382663987192
 20
117.8228572704927
 30
0.0
 10
110.6371606802994
 20
117.8512977253687
 30
0.0
 10
110.8376029307968
 20
117.8717285967745
 30
0.0
 10
111.0398008347653
 20
117.8841576275386
 30
0.0
 10
111.1751928167648
 20
117.8853632095658
 30
0.0
 10
111.2431033588356
 20
117.8859679110242
 30
0.0
  0
LINE
  5
194
330
1F
100
AcDbEntity
  8
0
  6
Continuous
 62
     7
370
    25
100
AcDbLine
 10
104.817306509
 20
117.7836096742
 30
0.0
 11
110.2411099727
 21
117.7836096742
 31
0.0
  0
SPLINE
  5
195
330
1F
100
AcDbEntity
  8
0
  6
Continuous
 62
     7
370
    25
100
AcDbSpline
210
0.0
220
0.0
230
1.0
 70
     8
 71
     3
 72
    24
 73
    20
 74
     0
 42
0.000000001
 43
0.00000001
 40
0.0
 40
0.0
 40
0.0
 40
0.0
 40
0.0410168309160251
 40
0.0818356321224298
 40
0.1225576684073127
 40
0.1632849263043688
 40
0.2041193531422725
 40
0.2451620975485173
 40
0.2865127793361656
 40
0.3282688142230838
 40
0.370524814367772
 40
0.4133720798884311
 40
0.456898190125439
 40
0.5011866971564671
 40
0.6001870884229382
 40
0.6987399491827955
 40
0.7976807785240759
 40
0.8978353515390326
 40
1.0
 40
1.0
 40
1.0
 40
1.0
 10
101.045319601975
 20
119.7212514913221
 30
0.0
 10
101.108345374911
 20
119.720723864542
 30
0.0
 10
101.2340926316599
 20
119.7196711583696
 30
0.0
 10
101.4219985888277
 20
119.7085441241505
 30
0.0
 10
101.6085635716637
 20
119.6903956599748
 30
0.0
 10
101.7937874557033
 20
119.6645299703732
 30
0.0
 10
101.9776659146843
 20
119.631098630156
 30
0.0
 10
102.160196038249
 20
119.5900164304312
 30
0.0
 10
102.3413750826801
 20
119.5412517757412
 30
0.0
 10
102.5212006905674
 20
119.4847486302454
 30
0.0
 10
102.6996718956792
 20
119.4204480838583
 30
0.0
 10
102.876785163688
 20
119.3482811634052
 30
0.0
 10
103.0525496144349
 20
119.2681767200664
 30
0.0
 10
103.2975882160849
 20
119.1443230660364
 30
0.0
 10
103.6017847615133
 20
118.9656913069628
 30
0.0
 10
103.9490920464565
 20
118.7166018681266
 30
0.0
 10
104.2682663627603
 20
118.4370323516469
 30
0.0
 10
104.5621782508804
 20
118.1282066953351
 30
0.0
 10
104.7317023394948
 20
117.9001146545261
 30
0.0
 10
104.8173065089484
 20
117.7849355677542
 30
0.0
  0
LINE
  5
196
330
1F
100
AcDbEntity
  8
0
  6
Continuous
 62
     7
370
    25
100
AcDbLine
 10
98.2537778851
 20
119.7212514913
 30
0.0
 11
101.045319602
 21
119.7212514913
 31
0.0
  0
SPLINE
  5
197
330
1F
100
AcDbEntity
  8
0
  6
Continuous
 62
     7
370
    25
100
AcDbSpline
210
0.0
220
0.0
230
1.0
 70
     8
 71
     3
 72
     8
 73
     4
 74
     0
 42
0.000000001
 43
0.00000001
 40
0.0
 40
0.0
 40
0.0
 40
0.0
 40
1.0
 40
1.0
 40
1.0
 40
1.0
 10
98.20797381336635
 20
119.7847044823318
 30
0.0
 10
98.22324183726403
 20
119.7635880119337
 30
0.0
 10
98.23850986116173
 20
119.742436944881
 30
0.0
 10
98.2537778850594
 20
119.7212514913221
 30
0.0
  0
LINE
  5
198
330
1F
100
AcDbEntity
  8
0
  6
Continuous
 62
     7
370
    25
100
AcDbLine
 10
98.2079766381
 20
126.9759713287
 30
0.0
 11
98.2079766381
 21
119.7847044823
 31
0.0
  0
LINE
  5
199
330
1F
100
AcDbEntity
  8
0
  6
Continuous
 62
     7
370
    25
100
AcDbLine
 10
98.2079766381
 20
126.9759713287
 30
0.0
 11
102.0779764828
 21
126.9759713287
 31
0.0
  0
ARC
  5
19A
330
1F
100
AcDbEntity
  8
0
  6
Continuous
 62
     7
370
    25
100
AcDbCircle
 10
156.1579766381
 20
126.3384713287
 30
0.0
 40
3.000000000000014
100
AcDbArc
 50
180.0
 51
270.0
  0
LINE
  5
19B
330
1F
100
AcDbEntity
  8
0
  6
Continuous
 62
     7
370
    25
100
AcDbLine
 10
129.1579766381
 20
124.8884713287
 30
0.0
 11
132.8579766381
 21
124.8884713287
 31
0.0
  0
LINE
  5
19C
330
1F
100
AcDbEntity
  8
0
  6
Continuous
 62
     7
370
    25
100
AcDbLine
 10
129.1579766381
 20
124.8884713287
 30
0.0
 11
129.1579766381
 21
109.3384713287
 31
0.0
  0
ARC
  5
19D
330
1F
100
AcDbEntity
  8
0
  6
Continuous
 62
     7
370
    25
100
AcDbCircle
 10
132.8579766381
 20
123.6884713287
 30
0.0
 40
1.200000000000003
100
AcDbArc
 50
0.0
 51
90.0
  0
SPLINE
  5
19E
330
1F
100
AcDbEntity
  8
0
  6
Continuous
 62
     7
370
    25
100
AcDbSpline
210
0.0
220
0.0
230
1.0
 70
     8
 71
     3
 72
    10
 73
     6
 74
     0
 42
0.000000001
 43
0.00000001
 40
0.0
 40
0.0
 40
0.0
 40
0.0
 40
0.4854888258373133
 40
0.9776820357971179
 40
1.0
 40
1.0
 40
1.0
 40
1.0
 10
173.865354129588
 20
123.3384713286592
 30
0.0
 10
173.8822660011618
 20
123.3339394374966
 30
0.0
 10
173.9163232897121
 20
123.3248130717762
 30
0.0
 10
174.0461985090407
 20
123.2878931352505
 30
0.0
 10
174.1696188552482
 20
123.2568152207414
 30
0.0
 10
174.1749724627244
 20
123.2554671532584
 30
0.0
  0
SPLINE
  5
19F
330
1F
100
AcDbEntity
  8
0
  6
Continuous
 62
     7
370
    25
100
AcDbSpline
210
0.0
220
0.0
230
1.0
 70
     8
 71
     3
 72
    10
 73
     6
 74
     0
 42
0.000000001
 43
0.00000001
 40
0.0
 40
0.0
 40
0.0
 40
0.0
 40
0.0229989440055297
 40
0.5143503030990925
 40
0.9999999999999999
 40
0.9999999999999999
 40
0.9999999999999999
 40
0.9999999999999999
 10
181.141001301947
 20
123.2554466648372
 30
0.0
 10
181.1465171651243
 20
123.2568354781485
 30
0.0
 10
181.2698743895427
 20
123.2878950149448
 30
0.0
 10
181.3996192449051
 20
123.3248189154836
 30
0.0
 10
181.4336716473836
 20
123.3339382640793
 30
0.0
 10
181.4505984857335
 20
123.3384713286592
 30
0.0
  0
LINE
  5
1A0
330
1F
100
AcDbEntity
  8
0
  6
Continuous
 62
     7
370
    25
100
AcDbLine
 10
173.8653541296
 20
123.3384713287
 30
0.0
 11
156.1579766381
 21
123.3384713287
 31
0.0
  0
LINE
  5
1A1
330
1F
100
AcDbEntity
  8
0
  6
Continuous
 62
     7
370
    25
100
AcDbLine
 10
186.5799489561
 20
95.3384713287
 30
0.0
 11
186.5799489561
 21
109.3384713287
 31
0.0
  0
LINE
  5
1A2
330
1F
100
AcDbEntity
  8
0
  6
Continuous
 62
     7
370
    25
100
AcDbLine
 10
186.5799489561
 20
123.3384713287
 30
0.0
 11
181.4505984857
 21
123.3384713287
 31
0.0
  0
LINE
  5
1A3
330
1F
100
AcDbEntity
  8
0
  6
Continuous
 62
     7
370
    25
100
AcDbLine
 10
194.0032131616
 20
119.8769463811
 30
0.0
 11
186.5799489561
 21
123.3384713287
 31
0.0
  0
LINE
  5
1A4
330
1F
100
AcDbEntity
  8
0
  6
Continuous
 62
     7
370
    25
100
AcDbLine
 10
195.1579766381
 20
100.6126118917
 30
0.0
 11
195.1579766381
 21
109.3384713287
 31
0.0
  0
ARC
  5
1A5
330
1F
100
AcDbEntity
  8
0
  6
Continuous
 62
     7
370
    25
100
AcDbCircle
 10
193.1579766381
 20
118.064330807
 30
0.0
 40
2.000000000000001
100
AcDbArc
 50
0.0
 51
65.0
  0
LINE
  5
1A6
330
1F
100
AcDbEntity
  8
0
  6
Continuous
 62
     7
370
    25
100
AcDbLine
 10
137.8829766381
 20
115.0884713287
 30
0.0
 11
138.7079766381
 21
115.0884713287
 31
0.0
  0
LINE
  5
1A7
330
1F
100
AcDbEntity
  8
0
  6
Continuous
 62
     7
370
    25
100
AcDbLine
 10
134.4579766381
 20
114.3384713287
 30
0.0
 11
134.4579766381
 21
109.3384713287
 31
0.0
  0
LINE
  5
1A8
330
1F
100
AcDbEntity
  8
0
  6
Continuous
 62
     7
370
    25
100
AcDbLine
 10
134.0579766381
 20
114.5694114363
 30
0.0
 11
134.4579766381
 21
114.3384713287
 31
0.0
  0
LINE
  5
1A9
330
1F
100
AcDbEntity
  8
0
  6
Continuous
 62
     7
370
    25
100
AcDbLine
 10
134.0579766381
 20
114.5694114363
 30
0.0
 11
134.0579766381
 21
109.3384713287
 31
0.0
  0
LINE
  5
1AA
330
1F
100
AcDbEntity
  8
0
  6
Continuous
 62
     7
370
    25
100
AcDbLine
 10
134.4579766381
 20
114.3384713287
 30
0.0
 11
137.8829766381
 21
114.3384713287
 31
0.0
  0
LINE
  5
1AB
330
1F
100
AcDbEntity
  8
0
  6
Continuous
 62
     7
370
    25
100
AcDbLine
 10
137.8829766381
 20
114.3384713287
 30
0.0
 11
137.8829766381
 21
109.3384713287
 31
0.0
  0
LINE
  5
1AC
330
1F
100
AcDbEntity
  8
0
  6
Continuous
 62
     7
370
    25
100
AcDbLine
 10
161.3337334123
 20
113.6384713287
 30
0.0
 11
161.3337334123
 21
109.3384713287
 31
0.0
  0
LINE
  5
1AD
330
1F
100
AcDbEntity
  8
0
  6
Continuous
 62
     7
370
    25
100
AcDbLine
 10
158.5579766381
 20
113.6384713287
 30
0.0
 11
161.3337334123
 21
113.6384713287
 31
0.0
  0
ARC
  5
1AE
330
1F
100
AcDbEntity
  8
0
  6
Continuous
 62
     7
370
    25
100
AcDbCircle
 10
158.5579766381
 20
113.2384713287
 30
0.0
 40
0.4000000000000057
100
AcDbArc
 50
90.0
 51
180.0
  0
LINE
  5
1AF
330
1F
100
AcDbEntity
  8
0
  6
Continuous
 62
     7
370
    25
100
AcDbLine
 10
162.1579766381
 20
113.3384713287
 30
0.0
 11
162.1579766381
 21
109.3384713287
 31
0.0
  0
LINE
  5
1B0
330
1F
100
AcDbEntity
  8
0
  6
Continuous
 62
     7
370
    25
100
AcDbLine
 10
161.3337334123
 20
113.6384713287
 30
0.0
 11
162.1579766381
 21
113.3384713287
 31
0.0
  0
ARC
  5
1B1
330
1F
100
AcDbEntity
  8
0
  6
Continuous
 62
     7
370
    25
100
AcDbCircle
 10
194.8579766381
 20
113.6384713287
 30
0.0
 40
0.2999999999999972
100
AcDbArc
 50
270.0
 51
0.0
  0
LINE
  5
1B2
330
1F
100
AcDbEntity
  8
0
  6
Continuous
 62
     7
370
    25
100
AcDbLine
 10
195.1579766381
 20
113.6384713287
 30
0.0
 11
195.1579766381
 21
109.3384713287
 31
0.0
  0
SPLINE
  5
1B3
330
1F
100
AcDbEntity
  8
0
  6
Continuous
 62
     7
370
    25
100
AcDbSpline
210
0.0
220
0.0
230
1.0
 70
     8
 71
     3
 72
    42
 73
    38
 74
     0
 42
0.000000001
 43
0.00000001
 40
0.0
 40
0.0
 40
0.0
 40
0.0
 40
0.0624999999999998
 40
0.0624999999999998
 40
0.1249999999999997
 40
0.1249999999999997
 40
0.1874999999999996
 40
0.1874999999999996
 40
0.2499999999999993
 40
0.2499999999999993
 40
0.3124999999999991
 40
0.3124999999999991
 40
0.3749999999999989
 40
0.3749999999999989
 40
0.4374999999999987
 40
0.4374999999999987
 40
0.4687499999999994
 40
0.4687499999999994
 40
0.5000000000000001
 40
0.5000000000000001
 40
0.5312500000000008
 40
0.5312500000000008
 40
0.5625000000000016
 40
0.5625000000000016
 40
0.6250000000000012
 40
0.6250000000000012
 40
0.687500000000001
 40
0.687500000000001
 40
0.7500000000000007
 40
0.7500000000000007
 40
0.8125000000000004
 40
0.8125000000000004
 40
0.8750000000000003
 40
0.8750000000000003
 40
0.9375000000000001
 40
0.9375000000000001
 40
1.0
 40
1.0
 40
1.0
 40
1.0
 10
174.2579766381251
 20
113.3384713286592
 30
0.0
 10
174.2579766381251
 20
113.3384713286591
 30
0.0
 10
174.2836060541948
 20
113.3166225279534
 30
0.0
 10
174.3817482163134
 20
113.2337226425847
 30
0.0
 10
174.4539095361988
 20
113.1729721583155
 30
0.0
 10
174.6375305953837
 20
113.020922267382
 30
0.0
 10
174.7468584901412
 20
112.9313706680852
 30
0.0
 10
174.9968130953783
 20
112.7320105126044
 30
0.0
 10
175.1365719303048
 20
112.6229126327265
 30
0.0
 10
175.4365736297621
 20
112.3986517653016
 30
0.0
 10
175.5978181462521
 20
112.2825184619323
 30
0.0
 10
175.9461287739805
 20
112.0502205097734
 30
0.0
 10
176.1319687268866
 20
111.9348144011662
 30
0.0
 10
176.5255503511189
 20
111.7248255564501
 30
0.0
 10
176.7374714713252
 20
111.628033687913
 30
0.0
 10
177.073472378908
 20
111.5225813848936
 30
0.0
 10
177.1880681340018
 20
111.4942335545201
 30
0.0
 10
177.4236971162851
 20
111.4553992127769
 30
0.0
 10
177.5449367405884
 20
111.4452655261587
 30
0.0
 10
177.7832335901165
 20
111.4459563407541
 30
0.0
 10
177.9016410240037
 20
111.4564685558476
 30
0.0
 10
178.1370638441082
 20
111.4962629016266
 30
0.0
 10
178.2533392459579
 20
111.5255450218285
 30
0.0
 10
178.5876960855613
 20
111.6318786342054
 30
0.0
 10
178.7983326926407
 20
111.7285867766859
 30
0.0
 10
179.1930391691714
 20
111.9401355841019
 30
0.0
 10
179.3759483478604
 20
112.0541484676769
 30
0.0
 10
179.721366564011
 20
112.2848340887721
 30
0.0
 10
179.8850614890848
 20
112.4027762470311
 30
0.0
 10
180.1857194111713
 20
112.6277784329095
 30
0.0
 10
180.3226646808019
 20
112.734797212401
 30
0.0
 10
180.569398588938
 20
112.9316377483322
 30
0.0
 10
180.6803632037523
 20
113.0225195808627
 30
0.0
 10
180.8626312527233
 20
113.1734683523015
 30
0.0
 10
180.9342819062452
 20
113.2337861596224
 30
0.0
 10
181.033049527961
 20
113.3172171654921
 30
0.0
 10
181.0579766381251
 20
113.3384713286591
 30
0.0
 10
181.0579766381251
 20
113.3384713286592
 30
0.0
  0
LINE
  5
1B4
330
1F
100
AcDbEntity
  8
0
  6
Continuous
 62
     7
370
    25
100
AcDbLine
 10
181.0579766381
 20
113.3384713287
 30
0.0
 11
194.8579766381
 21
113.3384713287
 31
0.0
  0
LINE
  5
1B5
330
1F
100
AcDbEntity
  8
0
  6
Continuous
 62
     7
370
    25
100
AcDbLine
 10
162.1579766381
 20
113.3384713287
 30
0.0
 11
174.2579766381
 21
113.3384713287
 31
0.0
  0
LINE
  5
1B6
330
1F
100
AcDbEntity
  8
0
  6
Continuous
 62
     7
370
    25
100
AcDbLine
 10
138.7079766381
 20
111.8384713287
 30
0.0
 11
158.1579766381
 21
111.8384713287
 31
0.0
  0
LINE
  5
1B7
330
1F
100
AcDbEntity
  8
0
  6
Continuous
 62
     7
370
    25
100
AcDbLine
 10
158.1579766381
 20
111.8384713287
 30
0.0
 11
158.1579766381
 21
109.3384713287
 31
0.0
  0
LINE
  5
1B8
330
1F
100
AcDbEntity
  8
0
  6
Continuous
 62
     7
370
    25
100
AcDbLine
 10
138.7079766381
 20
111.8384713287
 30
0.0
 11
138.7079766381
 21
109.3384713287
 31
0.0
  0
SPLINE
  5
1B9
330
1F
100
AcDbEntity
  8
0
  6
Continuous
 62
     7
370
    25
100
AcDbSpline
210
0.0
220
0.0
230
1.0
 70
     8
 71
     3
 72
    37
 73
    33
 74
     0
 42
0.000000001
 43
0.00000001
 40
0.0
 40
0.0
 40
0.0
 40
0.0
 40
0.0114878548102799
 40
0.0231559765621647
 40
0.0350076484354353
 40
0.0470460033795304
 40
0.0592740307999908
 40
0.0716945830965779
 40
0.0843103820274646
 40
0.097124024879799
 40
0.1101379904320506
 40
0.1233546446979382
 40
0.1811510010973225
 40
0.2483631736114419
 40
0.2888373415819251
 40
0.3232297457604623
 40
0.3515392131491943
 40
0.3737664266256187
 40
0.439930028595385
 40
0.4987424063270025
 40
0.5023253005651626
 40
0.5613100074513715
 40
0.6252595444338135
 40
0.6818650083849789
 40
0.7483890016987896
 40
0.7860781471964678
 40
0.8194856599799777
 40
0.8486127715281717
 40
0.8734622727747415
 40
0.938992615660414
 40
0.9981523731393548
 40
1.0
 40
1.0
 40
1.0
 40
1.0
 10
120.0079766381251
 20
132.8021236320124
 30
0.0
 10
120.0070501868466
 20
132.801680115004
 30
0.0
 10
120.0051827464545
 20
132.8007861213365
 30
0.0
 10
119.9899096861147
 20
132.7935941438782
 30
0.0
 10
119.9650079836508
 20
132.7821429002857
 30
0.0
 10
119.929153711715
 20
132.7659931415112
 30
0.0
 10
119.8821862008773
 20
132.7452654619576
 30
0.0
 10
119.8236432904565
 20
132.7199269429558
 30
0.0
 10
119.7531651508789
 20
132.6899865224013
 30
0.0
 10
119.6703905866013
 20
132.6554425483593
 30
0.0
 10
119.5749740414832
 20
132.6162928067448
 30
0.0
 10
119.3454052080947
 20
132.5235941355835
 30
0.0
 10
118.8609869941221
 20
132.334871245069
 30
0.0
 10
118.0819870225767
 20
132.0567814450978
 30
0.0
 10
117.2907685711565
 20
131.8061945777685
 30
0.0
 10
116.6597180779137
 20
131.6311778164386
 30
0.0
 10
116.1066801215774
 20
131.4913431758396
 30
0.0
 10
115.3137221926809
 20
131.3109323304935
 30
0.0
 10
114.2433878523478
 20
131.1218660088514
 30
0.0
 10
113.2623975729125
 20
131.0165792011417
 30
0.0
 10
112.3344303437929
 20
130.9595464291887
 30
0.0
 10
111.3619748500325
 20
130.944951830819
 30
0.0
 10
110.0358446445992
 20
131.0231450473101
 30
0.0
 10
108.7658091601054
 20
131.1836247689044
 30
0.0
 10
107.8060331594358
 20
131.368736307118
 30
0.0
 10
107.107381512091
 20
131.5362259108481
 30
0.0
 10
106.6635733739358
 20
131.6498491170563
 30
0.0
 10
106.3310363120059
 20
131.7430329519649
 30
0.0
 10
105.9438779017626
 20
131.8576978162235
 30
0.0
 10
105.6066299396508
 20
131.9650436252836
 30
0.0
 10
105.508905873322
 20
132.0026091985702
 30
0.0
 10
105.50800395305
 20
132.0027406073867
 30
0.0
 10
105.5079766381251
 20
132.002744587142
 30
0.0
  0
LINE
  5
1BA
330
1F
100
AcDbEntity
  8
0
  6
Continuous
 62
     7
370
    25
100
AcDbLine
 10
120.0079766381
 20
132.802123632
 30
0.0
 11
120.0079766381
 21
127.4446973494
 31
0.0
  0
SPLINE
  5
1BB
330
1F
100
AcDbEntity
  8
0
  6
Continuous
 62
     7
370
    25
100
AcDbSpline
210
0.0
220
0.0
230
1.0
 70
     8
 71
     3
 72
    30
 73
    26
 74
     0
 42
0.000000001
 43
0.00000001
 40
0.0
 40
0.0
 40
0.0
 40
0.0
 40
0.0192411700742056
 40
0.0381353539376964
 40
0.0566868884861289
 40
0.0749003554931371
 40
0.0927805967284126
 40
0.1103327298326406
 40
0.127562164928992
 40
0.1444746219341848
 40
0.2455865830532022
 40
0.3577720192516864
 40
0.4505017408956519
 40
0.5720127868619944
 40
0.6168069840200017
 40
0.6590088499432826
 40
0.6986242498774748
 40
0.7356603299341613
 40
0.7701258931915136
 40
0.8073679165907882
 40
0.8483950324891437
 40
0.8881367798820078
 40
0.9266264622110474
 40
0.9639007443615107
 40
1.0
 40
1.0
 40
1.0
 40
1.0
 10
110.837158047513
 20
125.7806060390672
 30
0.0
 10
110.9201905273926
 20
125.7694789337423
 30
0.0
 10
111.0847581184654
 20
125.7474253840762
 30
0.0
 10
111.332639634146
 20
125.7193734948135
 30
0.0
 10
111.5779163095884
 20
125.6954219642876
 30
0.0
 10
111.8204741431997
 20
125.6758920120942
 30
0.0
 10
112.0599088203086
 20
125.6606997199176
 30
0.0
 10
112.2959220157156
 20
125.6498681586867
 30
0.0
 10
112.5282400610264
 20
125.6433875934336
 30
0.0
 10
113.1367908306504
 20
125.6377561018475
 30
0.0
 10
114.1751033278705
 20
125.6977295013321
 30
0.0
 10
115.4904548559717
 20
125.897151974507
 30
0.0
 10
116.7700000688633
 20
126.2026333351908
 30
0.0
 10
117.6614406129535
 20
126.4825761381097
 30
0.0
 10
118.2791054818145
 20
126.7100252346251
 30
0.0
 10
118.6224285670978
 20
126.8403038951251
 30
0.0
 10
118.9141196519933
 20
126.9563948330831
 30
0.0
 10
119.1586650078191
 20
127.0577630624864
 30
0.0
 10
119.3710196882585
 20
127.1491011150039
 30
0.0
 10
119.5620826628831
 20
127.2331761989511
 30
0.0
 10
119.7273300670556
 20
127.3081691529164
 30
0.0
 10
119.8568706172997
 20
127.3691576524621
 30
0.0
 10
119.9452369865223
 20
127.4123953142275
 30
0.0
 10
119.9983828317859
 20
127.4396254001064
 30
0.0
 10
120.0048130277271
 20
127.4430248462363
 30
0.0
 10
120.0079766381251
 20
127.4446973494108
 30
0.0
  0
SPLINE
  5
1BC
330
1F
100
AcDbEntity
  8
0
  6
Continuous
 62
     7
370
    25
100
AcDbSpline
210
0.0
220
0.0
230
1.0
 70
     8
 71
     3
 72
    38
 73
    34
 74
     0
 42
0.000000001
 43
0.00000001
 40
0.0
 40
0.0
 40
0.0
 40
0.0
 40
0.1250000000000009
 40
0.1250000000000009
 40
0.2500000000000019
 40
0.2500000000000019
 40
0.3125000000000021
 40
0.3125000000000021
 40
0.3750000000000024
 40
0.3750000000000024
 40
0.4375000000000027
 40
0.4375000000000027
 40
0.500000000000003
 40
0.500000000000003
 40
0.5625000000000033
 40
0.5625000000000033
 40
0.6250000000000037
 40
0.6250000000000037
 40
0.6875000000000041
 40
0.6875000000000041
 40
0.7187500000000037
 40
0.7187500000000037
 40
0.7500000000000032
 40
0.7500000000000032
 40
0.7812500000000028
 40
0.7812500000000028
 40
0.8125000000000023
 40
0.8125000000000023
 40
0.8750000000000016
 40
0.8750000000000016
 40
0.9375000000000009
 40
0.9375000000000009
 40
1.0
 40
1.0
 40
1.0
 40
1.0
 10
105.5079766381251
 20
131.8745192135631
 30
0.0
 10
105.5079766381252
 20
131.874519213563
 30
0.0
 10
105.5697823956887
 20
131.851875130901
 30
0.0
 10
105.8194049411243
 20
131.759290741845
 30
0.0
 10
106.0031325720625
 20
131.6909031618922
 30
0.0
 10
106.3595214086476
 20
131.5550610626904
 30
0.0
 10
106.4926818701531
 20
131.5038680776339
 30
0.0
 10
106.7837608808495
 20
131.3901794725215
 30
0.0
 10
106.9402508323588
 20
131.3282528650151
 30
0.0
 10
107.2736322736467
 20
131.1933677563246
 30
0.0
 10
107.4505360320099
 20
131.120429502038
 30
0.0
 10
107.8237776794832
 20
130.9614535672421
 30
0.0
 10
108.0215216703643
 20
130.8748137973655
 30
0.0
 10
108.4275451036174
 20
130.6878961248131
 30
0.0
 10
108.6355984970044
 20
130.5878612110041
 30
0.0
 10
109.0578927697385
 20
130.368597660825
 30
0.0
 10
109.2722580728136
 20
130.2495944691604
 30
0.0
 10
109.700100384393
 20
129.9793206188365
 30
0.0
 10
109.9165020354996
 20
129.8260717933248
 30
0.0
 10
110.2151344783797
 20
129.5600032697417
 30
0.0
 10
110.3103270678494
 20
129.4652310234689
 30
0.0
 10
110.4879523197062
 20
129.259474166279
 30
0.0
 10
110.5705666303346
 20
129.1476156245083
 30
0.0
 10
110.7126469053561
 20
128.914100120286
 30
0.0
 10
110.7730324546011
 20
128.7915390543302
 30
0.0
 10
110.8724829467559
 20
128.5350682911051
 30
0.0
 10
110.9117743857807
 20
128.3998282775553
 30
0.0
 10
110.9984709719337
 20
127.9915462745908
 30
0.0
 10
111.0171792989284
 20
127.7152860968059
 30
0.0
 10
111.0136832782967
 20
127.1585383181703
 30
0.0
 10
110.9912036580881
 20
126.8803080741795
 30
0.0
 10
110.925576010306
 20
126.3289222539947
 30
0.0
 10
110.8820784666165
 20
126.0546685848923
 30
0.0
 10
110.8325989195065
 20
125.7812391129307
 30
0.0
  0
LINE
  5
1BD
330
1F
100
AcDbEntity
  8
0
  6
Continuous
 62
     7
370
    25
100
AcDbLine
 10
105.5079766381
 20
131.8745192136
 30
0.0
 11
105.5079766381
 21
132.002744587
 31
0.0
  0
SPLINE
  5
1BE
330
1F
100
AcDbEntity
  8
0
  6
Continuous
 62
     7
370
    25
100
AcDbSpline
210
0.0
220
0.0
230
1.0
 70
     8
 71
     3
 72
    14
 73
    10
 74
     0
 42
0.000000001
 43
0.00000001
 40
0.0
 40
0.0
 40
0.0
 40
0.0
 40
0.0003951392850831
 40
0.0003951392850831
 40
0.0003951392850831
 40
0.0008159035679249
 40
0.0008159035679249
 40
0.0008159035679249
 40
0.0012369936130997
 40
0.0012369936130997
 40
0.0012369936130997
 40
0.0012369936130997
 10
109.6358605878566
 20
125.5134443256594
 30
0.0
 10
109.7643698259633
 20
125.5423182933729
 30
0.0
 10
109.8929333336923
 20
125.5710065068492
 30
0.0
 10
110.0214837119757
 20
125.5995093508866
 30
0.0
 10
110.1583689596393
 20
125.6298602445774
 30
0.0
 10
110.2952646055391
 20
125.6600062096064
 30
0.0
 10
110.4320848668882
 20
125.6899580291749
 30
0.0
 10
110.5690108558331
 20
125.7199329939548
 30
0.0
 10
110.7058879277973
 20
125.7497190434
 30
0.0
 10
110.8426247769844
 20
125.7793415165687
 30
0.0
  0
LINE
  5
1BF
330
1F
100
AcDbEntity
  8
0
  6
Continuous
 62
     7
370
    25
100
AcDbLine
 10
102.0779764828
 20
126.9759713287
 30
0.0
 11
105.5079766381
 21
131.8745192136
 31
0.0
  0
LINE
  5
1C0
330
1F
100
AcDbEntity
  8
0
  6
Continuous
 62
     7
370
    25
100
AcDbLine
 10
174.2579766381
 20
123.0423783878
 30
0.0
 11
174.2579766381
 21
113.3384713287
 31
0.0
  0
LINE
  5
1C1
330
1F
100
AcDbEntity
  8
0
  6
Continuous
 62
     7
370
    25
100
AcDbLine
 10
181.0579766381
 20
113.3384713287
 30
0.0
 11
181.0579766381
 21
123.0423784556
 31
0.0
  0
LINE
  5
1C2
330
1F
100
AcDbEntity
  8
0
  6
Continuous
 62
     7
370
    25
100
AcDbLine
 10
104.7584147898
 20
132.8118570383
 30
0.0
 11
105.5080047687
 21
132.0027457005
 31
0.0
  0
LINE
  5
1C3
330
1F
100
AcDbEntity
  8
0
  6
Continuous
 62
     7
370
    25
100
AcDbLine
 10
120.0079895862
 20
132.8021238878
 30
0.0
 11
120.6763197322
 21
133.6112357102
 31
0.0
  0
LINE
  5
1C4
330
1F
100
AcDbEntity
  8
0
  6
Continuous
 62
     7
370
    25
100
AcDbLine
 10
95.959642688
 20
128.27404754
 30
0.0
 11
98.2079766381
 21
126.9759713287
 31
0.0
  0
LINE
  5
1C5
330
1F
100
AcDbEntity
  8
0
  6
Continuous
 62
     7
370
    25
100
AcDbLine
 10
95.2079766381
 20
129.5759713287
 30
0.0
 11
95.959642688
 21
128.27404754
 31
0.0
  0
LINE
  5
1C6
330
1F
100
AcDbEntity
  8
0
  6
Continuous
 62
     7
370
    25
100
AcDbLine
 10
95.2079766381
 20
131.5415660525
 30
0.0
 11
95.2079766381
 21
129.5759713287
 31
0.0
  0
LINE
  5
1C7
330
1F
100
AcDbEntity
  8
0
  6
Continuous
 62
     7
370
    25
100
AcDbLine
 10
96.7079766381
 20
132.4075914562
 30
0.0
 11
95.2079766381
 21
131.5415660525
 31
0.0
  0
ARC
  5
1C8
330
1F
100
AcDbEntity
  8
0
  6
Continuous
 62
     7
370
    25
100
AcDbCircle
 10
144.1829766381
 20
138.1884713287
 30
0.0
 40
1.000000000000028
100
AcDbArc
 50
180.0
 51
270.0
  0
LINE
  5
1C9
330
1F
100
AcDbEntity
  8
0
  6
Continuous
 62
     7
370
    25
100
AcDbLine
 10
145.9329766381
 20
137.1884713287
 30
0.0
 11
144.1829766381
 21
137.1884713287
 31
0.0
  0
ARC
  5
1CA
330
1F
100
AcDbEntity
  8
0
  6
Continuous
 62
     7
370
    25
100
AcDbCircle
 10
145.9329766381
 20
138.1884713287
 30
0.0
 40
1.000000000000028
100
AcDbArc
 50
270.0
 51
0.0
  0
LINE
  5
1CB
330
1F
100
AcDbEntity
  8
0
  6
Continuous
 62
     7
370
    25
100
AcDbLine
 10
146.9329766381
 20
138.2860665929
 30
0.0
 11
146.9329766381
 21
138.1884713287
 31
0.0
  0
LINE
  5
1CC
330
1F
100
AcDbEntity
  8
0
  6
Continuous
 62
     7
370
    25
100
AcDbLine
 10
148.3921744427
 20
140.8134713287
 30
0.0
 11
146.9329766381
 21
138.2860665929
 31
0.0
  0
LINE
  5
1CD
330
1F
100
AcDbEntity
  8
0
  6
Continuous
 62
     7
370
    25
100
AcDbLine
 10
173.8653543595
 20
123.3384710284
 30
0.0
 11
174.257977794
 21
123.04237849
 31
0.0
  0
LINE
  5
1CE
330
1F
100
AcDbEntity
  8
0
  6
Continuous
 62
     7
370
    25
100
AcDbLine
 10
120.6339257799
 20
126.975972619
 30
0.0
 11
120.0079797664
 21
127.4446974743
 31
0.0
  0
LINE
  5
1CF
330
1F
100
AcDbEntity
  8
0
  6
Continuous
 62
     7
370
    25
100
AcDbLine
 10
143.1829766381
 20
138.2860665929
 30
0.0
 11
141.7237788336
 21
140.8134713287
 31
0.0
  0
LINE
  5
1D0
330
1F
100
AcDbEntity
  8
0
  6
Continuous
 62
     7
370
    25
100
AcDbLine
 10
143.1829766381
 20
138.1884713287
 30
0.0
 11
143.1829766381
 21
138.2860665929
 31
0.0
  0
LINE
  5
1D1
330
1F
100
AcDbEntity
  8
0
  6
Continuous
 62
     7
370
    25
100
AcDbLine
 10
158.1579766381
 20
111.8384713287
 30
0.0
 11
158.1579766381
 21
113.2384713287
 31
0.0
  0
LINE
  5
1D2
330
1F
100
AcDbEntity
  8
0
  6
Continuous
 62
     7
370
    25
100
AcDbLine
 10
138.7079766381
 20
115.0884713287
 30
0.0
 11
138.7079766381
 21
111.8384713287
 31
0.0
  0
LINE
  5
1D3
330
1F
100
AcDbEntity
  8
0
  6
Continuous
 62
     7
370
    25
100
AcDbLine
 10
137.8829766381
 20
114.3384713287
 30
0.0
 11
137.8829766381
 21
115.0884713287
 31
0.0
  0
LINE
  5
1D4
330
1F
100
AcDbEntity
  8
0
  6
Continuous
 62
     7
370
    25
100
AcDbLine
 10
134.0579766381
 20
123.6884713287
 30
0.0
 11
134.0579766381
 21
114.5694114363
 31
0.0
  0
LINE
  5
1D5
330
1F
100
AcDbEntity
  8
0
  6
Continuous
 62
     7
370
    25
100
AcDbLine
 10
129.1579766381
 20
126.7884713287
 30
0.0
 11
129.1579766381
 21
124.8884713287
 31
0.0
  0
LINE
  5
1D6
330
1F
100
AcDbEntity
  8
0
  6
Continuous
 62
     7
370
    25
100
AcDbLine
 10
135.1579766381
 20
140.6134713287
 30
0.0
 11
135.1579766381
 21
136.1884713287
 31
0.0
  0
LINE
  5
1D7
330
1F
100
AcDbEntity
  8
0
  6
Continuous
 62
     7
370
    25
100
AcDbLine
 10
153.1579766381
 20
126.3384713287
 30
0.0
 11
153.1579766381
 21
140.8134713287
 31
0.0
  0
LINE
  5
1D8
330
1F
100
AcDbEntity
  8
0
  6
Continuous
 62
     7
370
    25
100
AcDbLine
 10
181.0579752626
 20
123.0423784141
 30
0.0
 11
181.4505986718
 21
123.3384709509
 31
0.0
  0
LINE
  5
1D9
330
1F
100
AcDbEntity
  8
0
  6
Continuous
 62
     7
370
    25
100
AcDbLine
 10
195.1579766381
 20
113.6384713287
 30
0.0
 11
195.1579766381
 21
118.064330807
 31
0.0
  0
SPLINE
  5
1DA
330
1F
100
AcDbEntity
  8
0
  6
Continuous
 62
     7
370
    25
100
AcDbSpline
210
0.0
220
0.0
230
1.0
 70
     8
 71
     3
 72
     9
 73
     5
 74
     0
 42
0.000000001
 43
0.00000001
 40
0.0
 40
0.0
 40
0.0
 40
0.0
 40
0.5102144635023922
 40
1.0
 40
1.0
 40
1.0
 40
1.0
 10
96.0123400347962
 20
119.800097845311
 30
0.0
 10
96.38720407912649
 20
119.7976070782664
 30
0.0
 10
97.12192265561883
 20
119.7927252741961
 30
0.0
 10
97.85092270369913
 20
119.7873420474743
 30
0.0
 10
98.20797638335489
 20
119.7847054208862
 30
0.0
  0
LINE
  5
1DB
330
1F
100
AcDbEntity
  8
0
  6
Continuous
 62
     7
370
    25
100
AcDbLine
 10
95.959642688
 20
119.8305221362
 30
0.0
 11
96.0123400366
 21
119.8000973078
 31
0.0
  0
LINE
  5
1DC
330
1F
100
AcDbEntity
  8
0
  6
Continuous
 62
     7
370
    25
100
AcDbLine
 10
95.959642688
 20
128.27404754
 30
0.0
 11
95.959642688
 21
119.8305221362
 31
0.0
  0
SPLINE
  5
1DD
330
1F
100
AcDbEntity
  8
0
  6
Continuous
 62
     7
370
    25
100
AcDbSpline
210
0.0
220
0.0
230
1.0
 70
    24
 71
     3
 72
     8
 73
     4
 74
     0
 42
0.000000001
 43
0.00000001
 40
0.0000004089325119
 40
0.0000004089325119
 40
0.0000004089325119
 40
0.0000004089325119
 40
0.0015399868451459
 40
0.0015399868451459
 40
0.0015399868451459
 40
0.0015399868451459
 10
95.20797663812509
 20
120.2644967324436
 30
0.0
 10
95.45896771414955
 20
120.1195869671367
 30
0.0
 10
95.7095569106525
 20
119.9749092270797
 30
0.0
 10
95.95964268796465
 20
119.830522136228
 30
0.0
  0
LINE
  5
1DE
330
1F
100
AcDbEntity
  8
0
  6
Continuous
 62
     7
370
    25
100
AcDbLine
 10
95.2079766381
 20
129.5759713287
 30
0.0
 11
95.2079766381
 21
120.2644967324
 31
0.0
  0
SPLINE
  5
1DF
330
1F
100
AcDbEntity
  8
0
  6
Continuous
 62
     7
370
    25
100
AcDbSpline
210
0.0
220
0.0
230
1.0
 70
     8
 71
     3
 72
     8
 73
     4
 74
     0
 42
0.000000001
 43
0.00000001
 40
0.0
 40
0.0
 40
0.0
 40
0.0
 40
1.0
 40
1.0
 40
1.0
 40
1.0
 10
98.33765838088186
 20
119.3984720063957
 30
0.0
 10
98.30971016076232
 20
119.5062883603712
 30
0.0
 10
98.28175007259362
 20
119.6138822105375
 30
0.0
 10
98.2537778850594
 20
119.7212514913221
 30
0.0
  0
LINE
  5
1E0
330
1F
100
AcDbEntity
  8
0
  6
Continuous
 62
     7
370
    25
100
AcDbLine
 10
98.3376615194
 20
119.3984713287
 30
0.0
 11
96.7079758513
 21
119.3984713287
 31
0.0
  0
LINE
  5
1E1
330
1F
100
AcDbEntity
  8
0
  6
Continuous
 62
     7
370
    25
100
AcDbLine
 10
96.7079760513
 20
119.3984716675
 30
0.0
 11
96.0123395733
 21
119.8000975753
 31
0.0
  0
LINE
  5
1E2
330
1F
100
AcDbEntity
  8
0
  6
Continuous
 62
     7
370
    25
100
AcDbLine
 10
104.7619375354
 20
117.4009713287
 30
0.0
 11
104.5097659074
 21
117.4009713287
 31
0.0
  0
SPLINE
  5
1E3
330
1F
100
AcDbEntity
  8
0
  6
Continuous
 62
     7
370
    25
100
AcDbSpline
210
0.0
220
0.0
230
1.0
 70
     8
 71
     3
 72
    26
 73
    22
 74
     0
 42
0.000000001
 43
0.00000001
 40
0.0
 40
0.0
 40
0.0
 40
0.0
 40
0.0524616032245984
 40
0.1026497911584775
 40
0.1505654136713723
 40
0.1962094561589203
 40
0.2395830674744455
 40
0.2806875955357221
 40
0.3195246332747494
 40
0.3560960787422642
 40
0.3904042149164026
 40
0.4224518174656405
 40
0.4522423030205674
 40
0.4797799375650286
 40
0.5050701364955548
 40
0.5966477315635087
 40
0.6842052596254289
 40
0.768002620409792
 40
0.84833623390995
 40
0.9255424426774792
 40
1.0
 40
1.0
 40
1.0
 40
1.0
 10
104.5079594134557
 20
117.4010011126945
 30
0.0
 10
104.4723230144244
 20
117.4605480327768
 30
0.0
 10
104.402594514086
 20
117.5770614165634
 30
0.0
 10
104.2891163533262
 20
117.7414593772926
 30
0.0
 10
104.1735908036011
 20
117.8936211150942
 30
0.0
 10
104.0564691075912
 20
118.0335238120266
 30
0.0
 10
103.9390974071108
 20
118.1617381359312
 30
0.0
 10
103.8224764410807
 20
118.2787538148695
 30
0.0
 10
103.7075735206236
 20
118.3851309701206
 30
0.0
 10
103.5952492949752
 20
118.4814470505709
 30
0.0
 10
103.4862803208017
 20
118.5682963972048
 30
0.0
 10
103.3813612804323
 20
118.6462765791243
 30
0.0
 10
103.2811039529203
 20
118.715984777095
 30
0.0
 10
103.1860666155226
 20
118.7779947629517
 30
0.0
 10
103.0159494163016
 20
118.8824875228088
 30
0.0
 10
102.763012713438
 20
119.0175541609183
 30
0.0
 10
102.4170098143425
 20
119.1619453530431
 30
0.0
 10
102.0690426479747
 20
119.2709100896906
 30
0.0
 10
101.7229087612473
 20
119.3454328776465
 30
0.0
 10
101.38186476279
 20
119.3903545930116
 30
0.0
 10
101.1561376806277
 20
119.3957986381732
 30
0.0
 10
101.045319601975
 20
119.3984713286591
 30
0.0
  0
SPLINE
  5
1E4
330
1F
100
AcDbEntity
  8
0
  6
Continuous
 62
     7
370
    25
100
AcDbSpline
210
0.0
220
0.0
230
1.0
 70
     8
 71
     3
 72
     8
 73
     4
 74
     0
 42
0.000000001
 43
0.00000001
 40
0.0
 40
0.0
 40
0.0
 40
0.0
 40
1.0
 40
1.0
 40
1.0
 40
1.0
 10
104.7619375353576
 20
117.400971328659
 30
0.0
 10
104.7909422417852
 20
117.5249090555213
 30
0.0
 10
104.8099747614666
 20
117.6528611857546
 30
0.0
 10
104.8182263536583
 20
117.7839304984461
 30
0.0
  0
LINE
  5
1E5
330
1F
100
AcDbEntity
  8
0
  6
Continuous
 62
     7
370
    25
100
AcDbLine
 10
101.045319602
 20
119.3984713287
 30
0.0
 11
98.3376615194
 21
119.3984713287
 31
0.0
  0
LINE
  5
1E6
330
1F
100
AcDbEntity
  8
0
  6
Continuous
 62
     7
370
    25
100
AcDbLine
 10
117.8079766381
 20
113.4012447395
 30
0.0
 11
117.1579766381
 21
113.5509713287
 31
0.0
  0
SPLINE
  5
1E7
330
1F
100
AcDbEntity
  8
0
  6
Continuous
 62
     7
370
    25
100
AcDbSpline
210
0.0
220
0.0
230
1.0
 70
     8
 71
     3
 72
    26
 73
    22
 74
     0
 42
0.000000001
 43
0.00000001
 40
0.0
 40
0.0
 40
0.0
 40
0.0
 40
0.0305951519997827
 40
0.0629165828273272
 40
0.0969719833781277
 40
0.1327679186099648
 40
0.1703100320978399
 40
0.2096032067394201
 40
0.2506516922691944
 40
0.3342139324394213
 40
0.4179514152268007
 40
0.5018666942829891
 40
0.565985799281231
 40
0.6277248002646303
 40
0.6871502460518468
 40
0.7443367736274911
 40
0.7993681411680792
 40
0.8523383421216271
 40
0.9033527751812551
 40
0.952529426871455
 40
1.0
 40
1.0
 40
1.0
 40
1.0
 10
117.1579766381251
 20
113.5509713286592
 30
0.0
 10
117.1570684262805
 20
113.6155064960463
 30
0.0
 10
117.1552007583001
 20
113.7482181166396
 30
0.0
 10
117.1396081692381
 20
113.9510322081637
 30
0.0
 10
117.1129643080526
 20
114.1627452490624
 30
0.0
 10
117.0728098789676
 20
114.382457242442
 30
0.0
 10
117.0179117623107
 20
114.6092041132865
 30
0.0
 10
116.9466687935937
 20
114.8418351171767
 30
0.0
 10
116.8282563998693
 20
115.1572334310849
 30
0.0
 10
116.6401254990989
 20
115.5417153340638
 30
0.0
 10
116.3561087539871
 20
115.9717429301321
 30
0.0
 10
116.0466818724286
 20
116.330239974159
 30
0.0
 10
115.7307533415286
 20
116.6220211359971
 30
0.0
 10
115.4239803638195
 20
116.8544943763973
 30
0.0
 10
115.1055399451723
 20
117.0513088514349
 30
0.0
 10
114.7795560556624
 20
117.2134062287895
 30
0.0
 10
114.4500139501252
 20
117.341867762828
 30
0.0
 10
114.1204594267008
 20
117.4384407817374
 30
0.0
 10
113.7940596228719
 20
117.5042824203553
 30
0.0
 10
113.4735709758829
 20
117.5438389873162
 30
0.0
 10
113.2619294066441
 20
117.5486220259629
 30
0.0
 10
113.1579766381251
 20
117.5509713286592
 30
0.0
  0
SPLINE
  5
1E8
330
1F
100
AcDbEntity
  8
0
  6
Continuous
 62
     7
370
    25
100
AcDbSpline
210
0.0
220
0.0
230
1.0
 70
     8
 71
     3
 72
    13
 73
     9
 74
     0
 42
0.000000001
 43
0.00000001
 40
0.0
 40
0.0
 40
0.0
 40
0.0
 40
0.1603925272810556
 40
0.3231077919143947
 40
0.488290765366105
 40
0.6560800220784435
 40
0.8266077820764197
 40
1.0
 40
1.0
 40
1.0
 40
1.0
 10
111.2431033588356
 20
117.5509713286592
 30
0.0
 10
111.1840584086492
 20
117.5502158847691
 30
0.0
 10
111.0651134440561
 20
117.5486940569671
 30
0.0
 10
110.8858687069036
 20
117.5362505256802
 30
0.0
 10
110.7049385687027
 20
117.5160678226682
 30
0.0
 10
110.5228069250239
 20
117.4869331366906
 30
0.0
 10
110.3396309107355
 20
117.4495161076592
 30
0.0
 10
110.2188838427529
 20
117.417248298853
 30
0.0
 10
110.1580074666499
 20
117.4009800175794
 30
0.0
  0
SPLINE
  5
1E9
330
1F
100
AcDbEntity
  8
0
  6
Continuous
 62
     7
370
    25
100
AcDbSpline
210
0.0
220
0.0
230
1.0
 70
    24
 71
     3
 72
    10
 73
     6
 74
     0
 42
0.000000001
 43
0.00000001
 40
0.0
 40
0.0
 40
0.0
 40
0.0
 40
0.3215164130146003
 40
0.6546690893716903
 40
1.0
 40
1.0
 40
1.0
 40
1.0
 10
110.1581554730299
 20
117.4009713286592
 30
0.0
 10
110.0896127146735
 20
117.4009713286592
 30
0.0
 10
109.9500465109594
 20
117.4009713286592
 30
0.0
 10
109.740374823053
 20
117.4009713286592
 30
0.0
 10
109.6006413658204
 20
117.4009713286592
 30
0.0
 10
109.5295205856615
 20
117.4009713286592
 30
0.0
  0
SPLINE
  5
1EA
330
1F
100
AcDbEntity
  8
0
  6
Continuous
 62
     7
370
    25
100
AcDbSpline
210
0.0
220
0.0
230
1.0
 70
     8
 71
     3
 72
     8
 73
     4
 74
     0
 42
0.000000001
 43
0.00000001
 40
0.0
 40
0.0
 40
0.0
 40
0.0
 40
1.0
 40
1.0
 40
1.0
 40
1.0
 10
110.2441588520033
 20
117.7793645697514
 30
0.0
 10
109.9748543104736
 20
117.6826558714516
 30
0.0
 10
109.7386915763748
 20
117.5546362798821
 30
0.0
 10
109.5294968473469
 20
117.4011385266212
 30
0.0
  0
LINE
  5
1EB
330
1F
100
AcDbEntity
  8
0
  6
Continuous
 62
     7
370
    25
100
AcDbLine
 10
109.530013907
 20
101.2759713287
 30
0.0
 11
109.6988001668
 21
101.2759713287
 31
0.0
  0
LINE
  5
1EC
330
1F
100
AcDbEntity
  8
0
  6
Continuous
 62
     7
370
    25
100
AcDbLine
 10
113.1579766381
 20
117.5509713287
 30
0.0
 11
111.2431033588
 21
117.5509713287
 31
0.0
  0
LINE
  5
1ED
330
1F
100
AcDbEntity
  8
0
  6
Continuous
 62
     7
370
    25
100
AcDbLine
 10
109.5297422121
 20
117.4009713287
 30
0.0
 11
104.7619375354
 21
117.4009713287
 31
0.0
  0
LINE
  5
1EE
330
1F
100
AcDbEntity
  8
0
  6
Continuous
 62
     7
370
    25
100
AcDbLine
 10
117.1579766381
 20
109.3384713287
 30
0.0
 11
117.1579766381
 21
113.5509713287
 31
0.0
  0
LINE
  5
1EF
330
1F
100
AcDbEntity
  8
VERMASSUNG
  6
CENTERX2
100
AcDbLine
 10
205.1529766381
 20
109.3384713287
 30
0.0
 11
85.2129766381
 21
109.3384713287
 31
0.0
  0
HATCH
  5
1F0
330
1F
100
AcDbEntity
  8
0
  6
Continuous
 62
     7
370
    18
100
AcDbHatch
 10
0.0
 20
0.0
 30
0.0
210
0.0
220
0.0
230
1.0
  2
ANSI31
 70
     0
 71
     0
 91
        1
 92
        0
 93
       43
 72
     1
 10
143.182976638125
 20
138.1884713286592
 11
143.1829766381251
 21
138.2860665928508
 72
     1
 10
143.1829766381251
 20
138.2860665928508
 11
141.723778833555
 21
140.8134713286591
 72
     1
 10
141.723778833555
 20
140.8134713286591
 11
135.3579766381251
 21
140.8134713286591
 72
     2
 10
135.3579766381251
 20
140.6134713286592
 40
0.2000000000000028
 50
90.0
 51
180.0
 73
     1
 72
     1
 10
135.1579766381251
 20
140.6134713286592
 11
135.1579766381251
 21
136.1884713286591
 72
     1
 10
135.1579766381251
 20
136.1884713286591
 11
135.4920153241537
 21
135.1290359682626
 72
     2
 10
134.7290417635551
 20
134.8884713286591
 40
0.8000000000000049
 50
342.4999999999974
 51
467.5000000000022
 73
     0
 72
     1
 10
134.4884771239517
 20
134.1254977680606
 11
133.9977945980943
 21
134.2802093741875
 72
     1
 10
133.9977945980943
 20
134.2802093741875
 11
120.6763213255748
 21
133.6112324011613
 72
     1
 10
120.6763197321763
 20
133.6112357102297
 11
120.0079895862467
 21
132.8021238878385
 72
     1
 10
120.0079895862467
 20
132.8021238878385
 11
120.0079766381251
 21
127.4446973494107
 72
     1
 10
120.0079797663588
 20
127.4446974742912
 11
120.6339257799009
 21
126.9759726189512
 72
     1
 10
120.6339260282099
 20
126.9759713286591
 11
125.6579766381251
 21
126.9759713286591
 72
     1
 10
125.6579766381251
 20
126.9759713286591
 11
126.5332171117059
 21
127.4812916516867
 72
     2
 10
126.9332171117059
 20
126.7884713286591
 40
0.7999999999999956
 50
239.9999999999989
 51
270.0000000000008
 73
     0
 72
     1
 10
126.9332171117059
 20
127.5884713286591
 11
128.3579766381251
 21
127.5884713286591
 72
     2
 10
128.3579766381251
 20
126.7884713286591
 40
0.7999999999999977
 50
270.0000000000008
 51
360.0000000000008
 73
     0
 72
     1
 10
129.1579766381251
 20
126.7884713286591
 11
129.1579766381251
 21
124.8884713286591
 72
     1
 10
129.1579766381251
 20
124.8884713286591
 11
132.8579766381251
 21
124.8884713286591
 72
     2
 10
132.8579766381251
 20
123.6884713286591
 40
1.2
 50
270.0000000000008
 51
360.0000000000008
 73
     0
 72
     1
 10
134.0579766381251
 20
123.6884713286591
 11
134.0579766381251
 21
114.569411436335
 72
     1
 10
134.0579766381251
 20
114.569411436335
 11
134.4579766381251
 21
114.3384713286592
 72
     1
 10
134.4579766381251
 20
114.3384713286592
 11
137.8829766381251
 21
114.3384713286592
 72
     1
 10
137.8829766381251
 20
114.3384713286592
 11
137.8829766381251
 21
115.0884713286592
 72
     1
 10
137.8829766381251
 20
115.0884713286592
 11
138.7079766381251
 21
115.0884713286592
 72
     1
 10
138.7079766381251
 20
115.0884713286592
 11
138.7079766381251
 21
111.8384713286592
 72
     1
 10
138.7079766381251
 20
111.8384713286592
 11
158.1579766381251
 21
111.8384713286592
 72
     1
 10
158.1579766381251
 20
111.8384713286592
 11
158.1579766381251
 21
113.2384713286592
 72
     2
 10
158.5579766381251
 20
113.2384713286592
 40
0.4000000000000024
 50
180.0
 51
270.0000000000008
 73
     0
 72
     1
 10
158.5579766381251
 20
113.6384713286592
 11
161.3337334122887
 21
113.6384713286592
 72
     1
 10
161.3337334122887
 20
113.6384713286592
 11
162.1579766381251
 21
113.3384713286592
 72
     1
 10
162.1579766381251
 20
113.3384713286592
 11
174.2579766381251
 21
113.3384713286592
 72
     1
 10
174.2579766381251
 20
113.3384713286592
 11
174.2579766381251
 21
123.0423783878037
 72
     1
 10
174.2579777940144
 20
123.0423784900379
 11
173.865354359484
 21
123.3384710284215
 72
     1
 10
173.8653541295878
 20
123.3384713286592
 11
156.1579766381251
 21
123.3384713286592
 72
     2
 10
156.1579766381251
 20
126.3384713286592
 40
3.0
 50
89.99999999999947
 51
180.0
 73
     0
 72
     1
 10
153.1579766381251
 20
126.3384713286592
 11
153.1579766381251
 21
140.8134713286592
 72
     1
 10
153.1579766381251
 20
140.8134713286592
 11
148.3921744426951
 21
140.8134713286591
 72
     1
 10
148.3921744426951
 20
140.8134713286591
 11
146.9329766381251
 21
138.2860665928508
 72
     1
 10
146.9329766381251
 20
138.2860665928508
 11
146.932976638125
 21
138.1884713286592
 72
     2
 10
145.932976638125
 20
138.1884713286592
 40
1.000000000000003
 50
0.0
 51
90.0
 73
     0
 72
     1
 10
145.932976638125
 20
137.1884713286591
 11
144.1829766381251
 21
137.1884713286591
 72
     2
 10
144.1829766381251
 20
138.1884713286592
 40
1.000000000000003
 50
90.0
 51
180.0
 73
     0
 97
        0
 75
     0
 76
     1
 52
0.0
 41
1.0
 77
     0
 78
     1
 53
45.0
 43
0.0
 44
0.0
 45
-2.245064030267288
 46
2.245064030267288
 79
     0
 98
        1
 10
0.0
 20
0.0
  0
HATCH
  5
1F1
330
1F
100
AcDbEntity
  8
0
  6
Continuous
 62
     7
370
    18
100
AcDbHatch
 10
0.0
 20
0.0
 30
0.0
210
0.0
220
0.0
230
1.0
  2
ANSI31
 70
     0
 71
     0
 91
        1
 92
        0
 93
        8
 72
     1
 10
181.0579766381251
 20
113.3384713286592
 11
194.8579766381251
 21
113.3384713286592
 72
     2
 10
194.8579766381251
 20
113.6384713286592
 40
0.2999999999999969
 50
270.0000000000008
 51
360.0000000000008
 73
     1
 72
     1
 10
195.1579766381251
 20
113.6384713286592
 11
195.1579766381251
 21
118.0643308070442
 72
     2
 10
193.1579766381251
 20
118.0643308070442
 40
2.000000000000002
 50
0.0
 51
65.00000000000088
 73
     1
 72
     1
 10
194.0032131616065
 20
119.8769463811175
 11
186.5799489560869
 21
123.3384713286592
 72
     1
 10
186.5799489560869
 20
123.3384713286592
 11
181.4505984857333
 21
123.3384713286592
 72
     1
 10
181.4505986717632
 20
123.3384709508739
 11
181.057975262599
 21
123.0423784141312
 72
     1
 10
181.0579766381251
 20
123.0423784556161
 11
181.0579766381251
 21
113.3384713286592
 97
        0
 75
     0
 76
     1
 52
0.0
 41
1.0
 77
     0
 78
     1
 53
45.0
 43
0.0
 44
0.0
 45
-2.245064030267288
 46
2.245064030267288
 79
     0
 98
        1
 10
0.0
 20
0.0
  0
HATCH
  5
1F2
330
1F
100
AcDbEntity
  8
0
  6
Continuous
 62
     7
370
    18
100
AcDbHatch
 10
0.0
 20
0.0
 30
0.0
210
0.0
220
0.0
230
1.0
  2
ANSI31
 70
     0
 71
     0
 91
        1
 92
        0
 93
        9
 72
     1
 10
105.5080047687132
 20
132.002745700542
 11
104.7584147897775
 21
132.8118570383096
 72
     1
 10
104.7584147897775
 20
132.8118570383096
 11
96.70797663812507
 21
132.4075914562415
 72
     1
 10
96.70797663812507
 20
132.4075914562415
 11
95.20797663812507
 21
131.541566052457
 72
     1
 10
95.20797663812507
 20
131.541566052457
 11
95.20797663812507
 21
129.5759713286591
 72
     1
 10
95.20797663812507
 20
129.5759713286591
 11
95.95964268796462
 21
128.2740475400124
 72
     1
 10
95.95964268796462
 20
128.2740475400124
 11
98.20797663812509
 21
126.9759713286591
 72
     1
 10
98.20797663812509
 20
126.9759713286591
 11
102.077976482834
 21
126.9759713286591
 72
     1
 10
102.077976482834
 20
126.9759713286591
 11
105.5079766381251
 21
131.874519213563
 72
     1
 10
105.5079766381251
 20
131.874519213563
 11
105.5079766381251
 21
132.0027445870488
 97
        0
 75
     0
 76
     1
 52
0.0
 41
1.0
 77
     0
 78
     1
 53
45.0
 43
0.0
 44
0.0
 45
-2.245064030267288
 46
2.245064030267288
 79
     0
 98
        1
 10
0.0
 20
0.0
  0
HATCH
  5
1F3
330
1F
100
AcDbEntity
  8
0
  6
Continuous
 62
     7
370
    18
100
AcDbHatch
 10
0.0
 20
0.0
 30
0.0
210
0.0
220
0.0
230
1.0
  2
ANSI31
 70
     0
 71
     0
 91
        1
 92
        0
 93
       15
 72
     1
 10
174.9079766381251
 20
112.8384713286592
 11
175.8079766381251
 21
112.8384713286592
 72
     1
 10
175.8079766381251
 20
112.8384713286592
 11
177.6579766381251
 21
113.90656932666
 72
     1
 10
177.6579766381251
 20
113.90656932666
 11
179.5079766381251
 21
112.8384713286592
 72
     1
 10
179.5079766381251
 20
112.8384713286592
 11
180.4079766381251
 21
112.8384713286592
 72
     1
 10
180.4079766381251
 20
112.8384713286592
 11
181.6579766381251
 21
114.0884713286592
 72
     1
 10
181.6579766381251
 20
114.0884713286592
 11
181.6579766381251
 21
122.7384713286592
 72
     1
 10
181.6579766381251
 20
122.7384713286592
 11
181.0579766381251
 21
123.3384713286592
 72
     1
 10
181.0579766381251
 20
123.3384713286592
 11
179.6579766381251
 21
123.3384713286592
 72
     1
 10
179.6579766381251
 20
123.3384713286592
 11
179.6579766381251
 21
118.3384713286592
 72
     1
 10
179.6579766381251
 20
118.3384713286592
 11
175.6579766381251
 21
118.3384713286592
 72
     1
 10
175.6579766381251
 20
118.3384713286592
 11
175.657976638125
 21
123.3384713286592
 72
     1
 10
175.657976638125
 20
123.3384713286592
 11
174.2579766381251
 21
123.3384713286592
 72
     1
 10
174.2579766381251
 20
123.3384713286592
 11
173.657976638125
 21
122.7384713286592
 72
     1
 10
173.657976638125
 20
122.7384713286592
 11
173.6579766381251
 21
114.0884713286592
 72
     1
 10
173.6579766381251
 20
114.0884713286592
 11
174.9079766381251
 21
112.8384713286592
 97
        0
 75
     0
 76
     1
 52
0.0
 41
1.0
 77
     0
 78
     1
 53
45.0
 43
0.0
 44
0.0
 45
-2.245064030267288
 46
2.245064030267288
 79
     0
 98
        1
 10
0.0
 20
0.0
  0
DIMENSION
  5
1F4
330
1F
100
AcDbEntity
  8
VERMASSUNG
100
AcDbDimension
  2
_D
 10
214.9143143835
 20
105.3384713287
 30
0.0
 11
214.9143143835
 21
109.3384713287
 31
0.0
 70
   160
  1
%%c<>
 71
     2
 42
-1.0
  3
SLDDIMSTYLE0
100
AcDbAlignedDimension
 13
174.2579766381
 23
113.3384713287
 33
0.0
 14
194.8579766381
 24
105.3384713287
 34
0.0
 50
90.0
100
AcDbRotatedDimension
  0
DIMENSION
  5
1FE
330
1F
100
AcDbEntity
  8
VERMASSUNG
100
AcDbDimension
  2
_D_1
 10
224.2056715341
 20
95.3384713287
 30
0.0
 11
224.2056715341
 21
109.3384713287
 31
0.0
 70
   160
  1
%%c<>
 71
     2
 42
-1.0
  3
SLDDIMSTYLE1
100
AcDbAlignedDimension
 13
186.5799489561
 23
123.3384713287
 33
0.0
 14
186.5799489561
 24
95.3384713287
 34
0.0
 50
90.0
100
AcDbRotatedDimension
  0
DIMENSION
  5
20A
330
1F
100
AcDbEntity
  8
VERMASSUNG
100
AcDbDimension
  2
_D_2
 10
153.1579766381
 20
146.1573390617
 30
0.0
 11
174.1579766381
 21
146.1573390617
 31
0.0
 70
   160
  1
<>
 71
     2
 42
-1.0
  3
SLDDIMSTYLE1
100
AcDbAlignedDimension
 13
195.1579766381
 23
118.064330807
 33
0.0
 14
153.1579766381
 24
140.8134713287
 34
0.0
100
AcDbRotatedDimension
  0
DIMENSION
  5
214
330
1F
100
AcDbEntity
  8
VERMASSUNG
100
AcDbDimension
  2
_D_3
 10
195.1579766381
 20
153.4360926737
 30
0.0
 11
165.1579766381
 21
153.4360926737
 31
0.0
 70
   160
  1
<>
 71
     2
 42
-1.0
  3
SLDDIMSTYLE1
100
AcDbAlignedDimension
 13
135.1579766381
 23
140.6134713287
 33
0.0
 14
195.1579766381
 24
118.064330807
 34
0.0
 50
0.0
100
AcDbRotatedDimension
  0
DIMENSION
  5
21E
330
1F
100
AcDbEntity
  8
VERMASSUNG
100
AcDbDimension
  2
_D_4
 10
195.1579766381
 20
160.6718897069
 30
0.0
 11
145.1829766381
 21
160.6718897069
 31
0.0
 70
   160
  1
<>
 71
     2
 42
-1.0
  3
SLDDIMSTYLE1
100
AcDbAlignedDimension
 13
95.2079766381
 23
131.5415660525
 33
0.0
 14
195.1579766381
 24
118.064330807
 34
0.0
 50
0.0
100
AcDbRotatedDimension
  0
DIMENSION
  5
228
330
1F
100
AcDbEntity
  8
VERMASSUNG
100
AcDbDimension
  2
_D_5
 10
76.5628438943
 20
77.8634713287
 30
0.0
 11
76.5628438943
 21
109.3384713287
 31
0.0
 70
   160
  1
KM%%c<> XMZ
 71
     2
 42
-1.0
  3
SLDDIMSTYLE2
100
AcDbAlignedDimension
 13
135.3579766381
 23
140.8134713287
 33
0.0
 14
135.3579766381
 24
77.8634713287
 34
0.0
 50
90.0
100
AcDbRotatedDimension
  0
LINE
  5
236
330
1F
100
AcDbEntity
  8
VERMASSUNG
  6
CENTERX2
370
    18
100
AcDbLine
 10
177.6579766381
 20
110.8384713287
 30
0.0
 11
177.6579766381
 21
125.3384713287
 31
0.0
  0
OLE2FRAME
  5
237
330
1F
100
AcDbEntity
  8
0
100
AcDbOle2Frame
 70
     2
  3
Paintbrush-Bild
 10
13.8511154363
 20
38.264191557
 30
0.0
 11
51.6290888628
 21
31.9806341108
 31
0.0
 71
     2
 72
     0
 73
     1
 90
    12928
310
80552BED0767C5B32B40DDAF6807D121434000000000000000006FFBDDFB85D0
310
4940DDAF6807D121434000000000000000006FFBDDFB85D04940416F4BD60AFB
310
3F4000000000000000002BED0767C5B32B40416F4BD60AFB3F40000000000000
310
0000000000000100000000010000010000000100000000000100000000320000
310
D0CF11E0A1B11AE1000000000000000000000000000000003E000300FEFF0900
310
0600000000000000000000000100000001000000000000000010000002000000
310
01000000FEFFFFFF0000000000000000FFFFFFFFFFFFFFFFFFFFFFFFFFFFFFFF
310
FFFFFFFFFFFFFFFFFFFFFFFFFFFFFFFFFFFFFFFFFFFFFFFFFFFFFFFFFFFFFFFF
310
FFFFFFFFFFFFFFFFFFFFFFFFFFFFFFFFFFFFFFFFFFFFFFFFFFFFFFFFFFFFFFFF
310
FFFFFFFFFFFFFFFFFFFFFFFFFFFFFFFFFFFFFFFFFFFFFFFFFFFFFFFFFFFFFFFF
310
FFFFFFFFFFFFFFFFFFFFFFFFFFFFFFFFFFFFFFFFFFFFFFFFFFFFFFFFFFFFFFFF
310
FFFFFFFFFFFFFFFFFFFFFFFFFFFFFFFFFFFFFFFFFFFFFFFFFFFFFFFFFFFFFFFF
310
FFFFFFFFFFFFFFFFFFFFFFFFFFFFFFFFFFFFFFFFFFFFFFFFFFFFFFFFFFFFFFFF
310
FFFFFFFFFFFFFFFFFFFFFFFFFFFFFFFFFFFFFFFFFFFFFFFFFFFFFFFFFFFFFFFF
310
FFFFFFFFFFFFFFFFFFFFFFFFFFFFFFFFFFFFFFFFFFFFFFFFFFFFFFFFFFFFFFFF
310
FFFFFFFFFFFFFFFFFFFFFFFFFFFFFFFFFFFFFFFFFFFFFFFFFFFFFFFFFFFFFFFF
310
FFFFFFFFFFFFFFFFFFFFFFFFFFFFFFFFFFFFFFFFFFFFFFFFFFFFFFFFFFFFFFFF
310
FFFFFFFFFFFFFFFFFFFFFFFFFFFFFFFFFFFFFFFFFFFFFFFFFFFFFFFFFFFFFFFF
310
FFFFFFFFFFFFFFFFFFFFFFFFFFFFFFFFFFFFFFFFFFFFFFFFFFFFFFFFFFFFFFFF
310
FFFFFFFFFFFFFFFFFFFFFFFFFFFFFFFFFFFFFFFFFFFFFFFFFFFFFFFFFFFFFFFF
310
FDFFFFFFFEFFFFFFFEFFFFFFFEFFFFFF05000000060000000700000008000000
310
090000000A0000000B0000000C0000000D0000000E0000000F00000010000000
310
11000000120000001300000014000000150000001600000017000000FEFFFFFF
310
FFFFFFFFFFFFFFFFFFFFFFFFFFFFFFFFFFFFFFFFFFFFFFFFFFFFFFFFFFFFFFFF
310
FFFFFFFFFFFFFFFFFFFFFFFFFFFFFFFFFFFFFFFFFFFFFFFFFFFFFFFFFFFFFFFF
310
FFFFFFFFFFFFFFFFFFFFFFFFFFFFFFFFFFFFFFFFFFFFFFFFFFFFFFFFFFFFFFFF
310
FFFFFFFFFFFFFFFFFFFFFFFFFFFFFFFFFFFFFFFFFFFFFFFFFFFFFFFFFFFFFFFF
310
FFFFFFFFFFFFFFFFFFFFFFFFFFFFFFFFFFFFFFFFFFFFFFFFFFFFFFFFFFFFFFFF
310
FFFFFFFFFFFFFFFFFFFFFFFFFFFFFFFFFFFFFFFFFFFFFFFFFFFFFFFFFFFFFFFF
310
FFFFFFFFFFFFFFFFFFFFFFFFFFFFFFFFFFFFFFFFFFFFFFFFFFFFFFFFFFFFFFFF
310
FFFFFFFFFFFFFFFFFFFFFFFFFFFFFFFFFFFFFFFFFFFFFFFFFFFFFFFFFFFFFFFF
310
FFFFFFFFFFFFFFFFFFFFFFFFFFFFFFFFFFFFFFFFFFFFFFFFFFFFFFFFFFFFFFFF
310
FFFFFFFFFFFFFFFFFFFFFFFFFFFFFFFFFFFFFFFFFFFFFFFFFFFFFFFFFFFFFFFF
310
FFFFFFFFFFFFFFFFFFFFFFFFFFFFFFFFFFFFFFFFFFFFFFFFFFFFFFFFFFFFFFFF
310
FFFFFFFFFFFFFFFFFFFFFFFFFFFFFFFFFFFFFFFFFFFFFFFFFFFFFFFFFFFFFFFF
310
FFFFFFFFFFFFFFFFFFFFFFFFFFFFFFFFFFFFFFFFFFFFFFFFFFFFFFFFFFFFFFFF
310
52006F006F007400200045006E00740072007900000000000000000000000000
310
0000000000000000000000000000000000000000000000000000000000000000
310
16000500FFFFFFFFFFFFFFFF020000000A00030000000000C000000000000046
310
00000000000000000000000090A903B801A7D30103000000C000000000000000
310
01004F006C006500000000000000000000000000000000000000000000000000
310
0000000000000000000000000000000000000000000000000000000000000000
310
0A000200FFFFFFFFFFFFFFFFFFFFFFFF00000000000000000000000000000000
310
0000000000000000000000000000000000000000000000001400000000000000
310
010043006F006D0070004F0062006A0000000000000000000000000000000000
310
0000000000000000000000000000000000000000000000000000000000000000
310
120002010100000003000000FFFFFFFF00000000000000000000000000000000
310
0000000000000000000000000000000000000000010000004D00000000000000
310
01004F006C006500310030004E00610074006900760065000000000000000000
310
0000000000000000000000000000000000000000000000000000000000000000
310
1A000200FFFFFFFFFFFFFFFFFFFFFFFF00000000000000000000000000000000
310
0000000000000000000000000000000000000000040000002426000000000000
310
FEFFFFFF02000000FEFFFFFFFFFFFFFFFFFFFFFFFFFFFFFFFFFFFFFFFFFFFFFF
310
FFFFFFFFFFFFFFFFFFFFFFFFFFFFFFFFFFFFFFFFFFFFFFFFFFFFFFFFFFFFFFFF
310
FFFFFFFFFFFFFFFFFFFFFFFFFFFFFFFFFFFFFFFFFFFFFFFFFFFFFFFFFFFFFFFF
310
FFFFFFFFFFFFFFFFFFFFFFFFFFFFFFFFFFFFFFFFFFFFFFFFFFFFFFFFFFFFFFFF
310
FFFFFFFFFFFFFFFFFFFFFFFFFFFFFFFFFFFFFFFFFFFFFFFFFFFFFFFFFFFFFFFF
310
FFFFFFFFFFFFFFFFFFFFFFFFFFFFFFFFFFFFFFFFFFFFFFFFFFFFFFFFFFFFFFFF
310
FFFFFFFFFFFFFFFFFFFFFFFFFFFFFFFFFFFFFFFFFFFFFFFFFFFFFFFFFFFFFFFF
310
FFFFFFFFFFFFFFFFFFFFFFFFFFFFFFFFFFFFFFFFFFFFFFFFFFFFFFFFFFFFFFFF
310
FFFFFFFFFFFFFFFFFFFFFFFFFFFFFFFFFFFFFFFFFFFFFFFFFFFFFFFFFFFFFFFF
310
FFFFFFFFFFFFFFFFFFFFFFFFFFFFFFFFFFFFFFFFFFFFFFFFFFFFFFFFFFFFFFFF
310
FFFFFFFFFFFFFFFFFFFFFFFFFFFFFFFFFFFFFFFFFFFFFFFFFFFFFFFFFFFFFFFF
310
FFFFFFFFFFFFFFFFFFFFFFFFFFFFFFFFFFFFFFFFFFFFFFFFFFFFFFFFFFFFFFFF
310
FFFFFFFFFFFFFFFFFFFFFFFFFFFFFFFFFFFFFFFFFFFFFFFFFFFFFFFFFFFFFFFF
310
FFFFFFFFFFFFFFFFFFFFFFFFFFFFFFFFFFFFFFFFFFFFFFFFFFFFFFFFFFFFFFFF
310
FFFFFFFFFFFFFFFFFFFFFFFFFFFFFFFFFFFFFFFFFFFFFFFFFFFFFFFFFFFFFFFF
310
FFFFFFFFFFFFFFFFFFFFFFFFFFFFFFFFFFFFFFFFFFFFFFFFFFFFFFFFFFFFFFFF
310
0100000200000000000000000000000000000000000000000000000000000000
310
0000000000000000000000000000000000000000000000000000000000000000
310
0100FEFF030A0000FFFFFFFF0A00030000000000C00000000000004607000000
310
5042727573680007000000504272757368000700000050427275736800F439B2
310
7100000000000000000000000000000000000000000000000000000000000000
310
0000000000000000000000000000000000000000000000000000000000000000
310
0000000000000000000000000000000000000000000000000000000000000000
310
0000000000000000000000000000000000000000000000000000000000000000
310
0000000000000000000000000000000000000000000000000000000000000000
310
0000000000000000000000000000000000000000000000000000000000000000
310
0000000000000000000000000000000000000000000000000000000000000000
310
0000000000000000000000000000000000000000000000000000000000000000
310
0000000000000000000000000000000000000000000000000000000000000000
310
0000000000000000000000000000000000000000000000000000000000000000
310
0000000000000000000000000000000000000000000000000000000000000000
310
0000000000000000000000000000000000000000000000000000000000000000
310
20260000424D0E260000000000003E00000028000000B40200006E0000000100
310
01000000000000000000130B0000130B00000200000002000000000000FFFFFF
310
FFFFFFFFFFFFFFFFFFFFFFFFFFFFFFFFFFFFFFFFFFFFFFFFFFFFFFFFFFFFFFFF
310
FFFFFFFFFFFFFFFFFFFFFFFFFFFFFFFFFFFFFFFFFFFFFFFFFFFFFFFFFFFFFFFF
310
FFFFFFFFFFFFFFFFFFFFFFFFFFFFFFFFFFFFFFFFFFFFFFFFF000FFFFFFFFFFFF
310
FFFFFFFFFFFFFFFFFFFFFFFFFFFFFFFFFFFFFFFFFFFFFFFFFFFFFFFFFFFFFFFF
310
FFFFFFFFFFFFFFFFFFFFFFFFFFFFFFFFFFFFFFFFFFFFFFFFFFFFFFFFFFFFFFFF
310
FFFFFFFFFFFFFFFFFFFFFFFFFFFFFFFFF000FFFFFFFFFFFFFFFFFFFFFFFFFFFF
310
FFFFFFFFFFFFFFFFFFFFFFFFFFFFFFFFFFFFFFFFFFFFFFFFFFFFFFFFFFFFFFFF
310
FFFFFFFFFFFFFFFFFFFFFFFFFFFFFFFFFFFFFFFFFFFFFFFFFFFFFFFFFFFFFFFF
310
FFFFFFFFFFFFFFFFF000FFFFFFFFFFFFFFFFFFFFFFFFFFFFFFFFFFFFFFFFFFFF
310
FFFFFFFFFFFFFFFFFFFFFFFFFFFFFFFFFFFFFFFFFFFFFFFFFFFFFFFFFFFFFFFF
310
FFFFFFFFFFFFFFFFFFFFFFFFFFFFFFFFFFFFFFFFFFFFFFFFFFFFFFFFFFFFFFFF
310
F000FFFFFFFFFFFFFFFFFFFFFFFFFFFFFFFFFFFFFFFFFFFFFFFFFFFFFFFFFFFF
310
FFFFFFFFFFFFFFFFFFFFFFFFFFFFFFFFFFFFFFFFFFFFFFFFFFFFFFFFFFFFFFFF
310
FFFFFFFFFFFFFFFFFFFFFFFFFFFFFFFFFFFFFFFFFFFFFFFFF000FFFFFFFFFFFF
310
FFFFFFFFFFFFFFFFFFFFFFFFFFFFFFFFFFFFFFFFFFFFFFFFFFFFFFFFFFFFFFFF
310
FFFFFFFFFFFFFFFFFFFFFFFFFFFFFFFFFFFFFFFFFFFFFFFFFFFFFFFFFFFFFFFF
310
FFFFFFFFFFFFFFFFFFFFFFFFFFFFFFFFF000FFFFFFFFFFFFFFFFFFFFFFFFFFFF
310
FFFFFFFFFFFFFFFFFFFFFFFFFFFFFFFFFFFFFFFFFFFFFFFFFFFFFFFFFFFFFFFF
310
FFFFFFFFFFFFFFFFFFFFFFFFFFFFFFFFFFFFFFFFFFFFFFFFFFFFFFFFFFFFFFFF
310
FFFFFFFFFFFFFFFFF000FFFFFFFFFFFFFFFFFFFFFFFFFFFFFFFFFFFFFFFFFFFF
310
FFFFFFFFFFFFFFFFFFFFFFFFFFFFFFFFFFFFFFFFFFFFFFFFFFFFFFFFFFFFFFFF
310
FFFFFFFFFFFFFFFFFFFFFFFFFFFFFFFFFFFFFFFFFFFFFFFFFFFFFFFFFFFFFFFF
310
F000FFFFFFFFFFFFFFFFFFFFFFFFFFFFFFFFFFFFFFFFFFFFFFFFFFFFFFFFFFFF
310
FFFFFFFFFFFFFFFFFFFFFFFFFFFFFFFFFFFFFFFFFFFFFFFFFFFFFFFFFFFFFFFF
310
FFFFFFFFFFFFFFFFFFFFFFFFFFFFFFFFFFFFFFFFFFFFFFFFF000FFFFFFFFFFFF
310
FFFFFFFFFFFFFFFFFFFFFFFFFFFFFFFFFFFFFFFFFFFFFFFFFFFFFFFFFFFFFFFF
310
FFFFFFFFFFFFFFFFFFFFFFFFFFFFFFFFFFFFFFFFFFFFFFFFFFFFFFFFFFFFFFFF
310
FFFFFFFFFFFFFFFFFFFFFFFFFFFFFFFFF000FFFFFFFFFFFFFFFFFFFFFFFFFFFF
310
FFFFFFFFFFFFFFFFFFFFFFFFFFFFFFFFFFFFFFFFFFFFFFFFFFFFFFFFFFFFFFFF
310
FFFFFFFFFFFFFFFFFFFFFFFFFFFFFFFFFFFFFFFFFFFFFFFFFFFFFFFFFFFFFFFF
310
FFFFFFFFFFFFFFFFF000FFFFFFFFFFFFFFFFFFFFFFFFFFFFFFFFFFFFFFFFFFFF
310
FFFFFFFFFFFFFFFFFFFFFFFFFFFFFFFFFFFFFFFFFFFFFFFFFFFFFFFFFFFFFFFF
310
FFFFFFFFFFFFFFFFFFFFFFFFFFFFFFFFFFFFFFFFFFFFFFFFFFFFFFFFFFFFFFFF
310
F000FFFFFFFFFFFFFFFFFFFFFFFFFFFFFFFFFFFFFFFFFFFFFFFFFFFFFFFFFFFF
310
FFFFFFFFFFFFFFFFFFFFFFFFFFFFFFFFFFFFFFFFFFFFFFFFFFFFFFFFFFFFFFFF
310
FFFFFFFFFFFFFFFFFFFFFFFFFFFFFFFFFFFFFFFFFFFFFFFFF000FFFFFFFFFFFF
310
FFFFFFFFFFFFFFFFFFFFFFFFFFFFFFFFFFFFFFFFFFFFFFFFFFFFFFFFFFFFFFFF
310
FFFFFFFFFFFFFFFFFFFFFFFFFFFFFFFFFFFFFFFFFFFFFFFFFFFFFFFFFFFFFFFF
310
FFFFFFFFFFFFFFFFFFFFFFFFFFFFFFFFF000FFFFFFFFFFFFFFFFFFFFFFFFFFFF
310
FFFFFFFFFFFFFFFFFFFFFFFFFFFFFFFFFFFFFFFFFFFFFFFFFFFFFFFFFFFFFFFF
310
FFFFFFFFFFFFFFFFFFFFFFFFFFFFFFFFFFFFFFFFFFFFFFFFFFFFFFFFFFFFFFFF
310
FFFFFFFFFFFFFFFFF000FFFFFFFFFFFFFFFFFFFFFFFFFFFFFFFFFFFFFFFFFFFF
310
FFFFFFFFFFFFFFFFFFFFFFFFFFFFFFFFFFFFFFFFFFFFFFFFFFFFFFFFFFFFFFFF
310
FFFFFFFFFFFFFFFFFFFFFFFFFFFFFFFFFFFFFFFFFFFFFFFFFFFFFFFFFFFFFFFF
310
F000FFFFFFFFFFFFFFFFFFFFFFFFFFFFFFFFFFFFFFFFFFFFFFFFFFFFFFFFFFFF
310
FFFFFFFFFFFFFFFFFFFFFFFFFFFFFFFFFFFFFFFFFFFFFFFFFFFFFFFFFFFFFFFF
310
FFFFFFFFFFFFFFFFFFFFFFFFFFFFFFFFFFFFFFFFFFFFFFFFF000FFFFFFFFFFFF
310
FFFFFFFFFFFFFFFFFFFFFFFFFFFFFFFFFFFFFFFFFFFFFFFFFFFFFFFFFFFFFFFF
310
FFFFFFFFFFFFFFFFFFFFFFFFFFFFFFFFFFFFFFFFFFFFFFFFFFFFFFFFFFFFFFFF
310
FFFFFFFFFFFFFFFFFFFFFFFFFFFFFFFFF000FFFFFFFFFFFFFFFFFFFFFFFFFFFF
310
FFFFFFFFFFFFFFFFFFFFFFFFFFFFFFFFFFFFFFFFFFFFFFFFFFFFFFFFFFFFFFFF
310
FFFFFFFFFFFFFFFFFFFFFFFFFFFFFFFFFFFFFFFFFFFFFFFFFFFFFFFFFFFFFFFF
310
FFFFFFFFFFFFFFFFF000FFFFF80003FFFFFFFFFFFFFFFFFFFFFFFFFFFFFFFFFF
310
FFFFF00007FFFFFFFFFF00007FFFFFF800000000000000007FFFFFFFFFFFFFFF
310
FFFFFFFC001FFFFFFFFFFFFFFC001FFFFFFFFFFFFFFFFFFFFFFFFFFE0007FFFF
310
F000FFFF8000007FFFFFFFF8000FFFFFC0007FFFFF80007FFFFF0000007FFFFF
310
FFF8000007FFFFF800000000000000007FFFFFF0001FFFFFFFFFFFC00001FFFF
310
FFFFFFFFC00001FFFFFFFF000000000003FFFFE000007FFFF000FFFE0000000F
310
FFFFFFF0000FFFFF80007FFFFF80007FFFFC0000001FFFFFFFC0000001FFFFF8
310
00000000000000007FFFFFF0001FFFFFFFFFFE0000003FFFFFFFFFFE0000003F
310
FFFFFF000000000003FFFF0000000FFFF000FFF800000003FFFFFFF00007FFFF
310
80007FFFFF80007FFFF000000007FFFFFF000000003FFFF80000000000000000
310
7FFFFFF0001FFFFFFFFFF80000000FFFFFFFFFF80000000FFFFFFF0000000000
310
03FFFC00000003FFF000FFE000000000FFFFFFF00007FFFF80003FFFFF80007F
310
FFC000000001FFFFFC000000001FFFF800000000000000007FFFFFF0001FFFFF
310
FFFFE000000003FFFFFFFFE000000003FFFFFF000000000003FFF000000000FF
310
F000FF80000000007FFFFFF00007FFFF80003FFFFF80007FFF8000000000FFFF
310
F80000000007FFF800000000000000007FFFFFF0001FFFFFFFFFC000000001FF
310
FFFFFFC000000001FFFFFF000000000003FFC0000000007FF000FF0000000000
310
3FFFFFE00007FFFF00003FFFFF80007FFE00000000003FFFF00000000003FFF8
310
00000000000000007FFFFFF0001FFFFFFFFF8000000000FFFFFFFF8000000000
310
FFFFFF000000000003FF80000000003FF000FE00000000001FFFFFE00003FFFF
310
00003FFFFF80007FFC00000000001FFFE00000000001FFF8000001FFFE000000
310
7FFFFFF0001FFFFFFFFE00000000003FFFFFFE00000000003FFFFF0000000000
310
03FF00000000001FF000FC00000000000FFFFFE00003FFFF00001FFFFF80007F
310
F800000000001FFFC00000000000FFF8000001FFFE0000007FFFFFF0001FFFFF
310
FFFC00000000001FFFFFFC00000000001FFFFF000000000003FE00000000000F
310
F000F8000000000007FFFFE00003FFFF00001FFFFF80007FF800000000000FFF
310
800000000000FFF8000001FFFE0000007FFFFFF0001FFFFFFFF800000000000F
310
FFFFF800000000000FFFFF000000000003FC000000000007F000F80000000000
310
03FFFFC00003FFFE00001FFFFF80007FF0000000000007FF0000000000007FF8
310
000001FFFE0000007FFFFFF0001FFFFFFFF0000000000007FFFFF00000000000
310
07FFFF000000000003F8000000000003F000F0000000000003FFFFC00001FFFE
310
00001FFFFF80007FE0000000000007FE0000000000003FF8000001FFFE000000
310
7FFFFFF0001FFFFFFFF0000000000007FFFFF0000000000007FFFF0000000000
310
03F800001F800003F000E00001FFF00001FFFFC00001FFFE00000FFFFF80007F
310
E00001FFE00003FE00001FFF00003FF8000001FFFE0000007FFFFFF0001FFFFF
310
FFE000003E000003FFFFE000003E000003FFFF000000000003F00001FFF80001
310
F000E00007FFFC0001FFFFC00001FFFE00000FFFFF80007FC0000FFFFC0003FC
310
0000FFFFC0001FF8000001FFFE0000007FFFFFF0001FFFFFFFC00003FFE00001
310
FFFFC00003FFE00001FFFF0001FFFFFFFFF00007FFFE0001F000E0000FFFFF00
310
00FFFF800001FFFC00000FFFFF80007FC0001FFFFE0001FC0001FFFFE0001FF8
310
000001FFFE0000007FFFFFF0001FFFFFFF80000FFFF80000FFFF80000FFFF800
310
00FFFF0003FFFFFFFFE0000FFFFF8000F000C0003FFFFF8000FFFF800000FFFC
310
000007FFFF80007F80003FFFFF0001FC0003FFFFF0001FF8000001FFFE000000
310
7FFFFFF0001FFFFFFF80003FFFFE0000FFFF80003FFFFE0000FFFF0003FFFFFF
310
FFE0003FFFFF8000F000C0003FFFFF8000FFFF800000FFFC000007FFFF80007F
310
80007FFFFF8001F80007FFFFF8000FF8000001FFFE0000007FFFFFF0001FFFFF
310
FF00007FFFFF00007FFF00007FFFFF00007FFF0003FFFFFFFFE0003FFFFFC000
310
F000C0007FFFFFC000FFFF000000FFFC000007FFFF80007F8000FFFFFF8000F8
310
000FFFFFF8000FF8000001FFFE0000007FFFFFF0001FFFFFFF0000FFFFFF8000
310
7FFF0000FFFFFF80007FFF0003FFFFFFFFC0007FFFFFC00070008000FFFFFFC0
310
00FFFF000000FFF8000007FFFF80007F8000FFFFFF8000F8000FFFFFF8000FF8
310
000001FFFE0000007FFFFFF0001FFFFFFE0001FFFFFFC0003FFE0001FFFFFFC0
310
003FFF0003FFFFFFFFC0007FFFFFE00070008000FFFFFFC0007FFF0000007FF8
310
000003FFFF80007F0001FFFFFF8000F8000FFFFFF8000FF8000001FFFE000000
310
7FFFFFF0001FFFFFFE0001FFFFFFC0003FFE0001FFFFFFC0003FFF0003FFFFFF
310
FFC000FFFFFFE00070008000FFFFFFC0007FFF0000007FF8000003FFFF80007F
310
0001FFFFFF8000F8001FFFFFF8000FF8000001FFFE0000007FFFFFF0001FFFFF
310
FE0003FFFFFFE0003FFE0003FFFFFFE0003FFF0003FFFFFFFFC000FFFFFFE000
310
70008000FFFFFFC0007FFE0000007FF8000003FFFF80007F0001FFFFFF8000F0
310
001FFFFFF8000FF8000001FFFE0000007FFFFFF0001FFFFFFC0003FFFFFFE000
310
1FFC0003FFFFFFE0001FFF0003FFFFFFFFC000FFFFFFC00070008000FFFFFF80
310
007FFE0000007FF0000003FFFF80007F0001FFFFFF0000F0001FFFFFF8000FF8
310
000001FFFE0000007FFFFFF0001FFFFFFC0007FFFFFFF0001FFC0007FFFFFFF0
310
001FFF0003FFFFFFFFC000FFFFFFC00070008001FFFFFF0000FFFE0000003FF0
310
000001FFFF80007F0001FFFFFF0000F8001FFFFFF0000FF8000001FFFE000000
310
7FFFFFF0001FFFFFFC0007FFFFFFF0001FFC0007FFFFFFF0001FFF0003FFFFFF
310
FFC001FFFFFF80007000FFFFFFFFFE0000FFFE0008003FF0008001FFFF80007F
310
FFFFFFFFFC0000FFFFFFFFFFE0000FF8000001FFFE0000007FFFFFF0001FFFFF
310
F8000FFFFFFFF8000FF8000FFFFFFFF8000FFF0003FFFFFFFFFFFFFFFFFF0000
310
7000FFFFFFFFFC0000FFFC0008003FF0008001FFFF80007FFFFFFFFFF80001FF
310
FFFFFFFF80000FF8000001FFFE0000007FFFFFF0001FFFFFF8000FFFFFFFF800
310
0FF8000FFFFFFFF8000FFF0003FFFFFFFFFFFFFFFFFE0000F000FFFFFFFFE000
310
00FFFC000C003FE000C001FFFF80007FFFFFFFFFC00001FFFFFFFFFE00001FF8
310
000001FFFE0000007FFFFFF0001FFFFFF8000FFFFFFFF8000FF8000FFFFFFFF8
310
000FFF0003FFFFFFFFFFFFFFFFF00000F000FFFFFFFE000001FFFC000C001FE0
310
00C000FFFF80007FFFFFFFFE000001FFFFFFFFE000001FF80FFFFFFFFFFFFFC0
310
7FFFFFF0001FFFFFF8000FFFFFFFF8000FF8000FFFFFFFF8000FFF0003FFFFFF
310
FFFFFFFFFF800000F000FFFFFFC0000001FFFC001C001FE001C000FFFF80007F
310
FFFFFF80000003FFFFFFF80000001FF80FFFFFFFFFFFFFC07FFFFFF0001FFFFF
310
F8001FFFFFFFFC000FF8001FFFFFFFFC000FFF0003FFFFFFFFFFFFFFF0000001
310
F000FFFFF800000001FFF8001C001FE001C000FFFF80007FFFFFF800000003FF
310
FFFF800000003FF80FFFFFFFFFFFFFC07FFFFFF0001FFFFFF8001FFFFFFFFC00
310
0FF8001FFFFFFFFC000FFF0003FFFFFFFFFFFFFE00000001F000FFFFC0000000
310
03FFF8001E001FC001E000FFFF80007FFFFF8000000007FFFFFC000000003FF8
310
0FFFFFFFFFFFFFC07FFFFFF0001FFFFFF8001FFFFFFFFC000FF8001FFFFFFFFC
310
000FFF0003FFFFFFFFFFFFE000000003F000FFFE0000000007FFF8001E000FC0
310
01E0007FFF80007FFFFE0000000007FFFFE0000000007FF80FFFFFFFFFFFFFC0
310
7FFFFFF0001FFFFFF0001FFFFFFFFC0007F0001FFFFFFFFC0007FF0003FFFFFF
310
FFFFFF0000000003F000FFF80000000007FFF8001E000FC003E0007FFF80007F
310
FFF0000000000FFFFF8000000000FFF80FFFFFFFFFFFFFC07FFFFFF0001FFFFF
310
F0001FFFFFFFFC0007F0001FFFFFFFFC0007FF0003FFFFFFFFFFFC0000000007
310
F000FFE0000000000FFFF0003E000FC003E0007FFF80007FFFC0000000001FFF
310
FE0000000001FFF80FFFFFFFFFFFFFC07FFFFFF0001FFFFFF0001FFFFFFFFC00
310
07F0001FFFFFFFFC0007FF0003FFFFFFFFFFF0000000000FF000FFC000000000
310
1FFFF0003F000F8003F0003FFF80007FFF80000000003FFFF80000000003FFF8
310
0FFFFFFFFFFFFFC07FFFFFF0001FFFFFF0001FFFFFFFFC0007F0001FFFFFFFFC
310
0007FF0003FFFFFFFFFFE0000000001FF000FF00000000007FFFF0003F000780
310
03F0003FFF80007FFF00000000007FFFF00000000007FFF80FFFFFFFFFFFFFC0
310
7FFFFFF0001FFFFFF0001FFFFFFFFC0007F0001FFFFFFFFC0007FF0003FFFFFF
310
FFFF80000000007FF000FE0000000000FFFFE0003F00078007F0003FFF80007F
310
FE0000000001FFFFE0000000001FFFF80FFFFFFFFFFFFFC07FFFFFF0001FFFFF
310
F0001FFFFFFFFC0007F0001FFFFFFFFC0007FF0003FFFFFFFFFF0000000000FF
310
F000FC0000000003FFFFE0007F00078007F0003FFF80007FFC0000000007FFFF
310
C0000000007FFFF80FFFFFFFFFFFFFC07FFFFFF0001FFFFFF8001FFFFFFFFC00
310
0FF8001FFFFFFFFC000FFF0003FFFFFFFFFE0000000003FFF000FC000000000F
310
FFFFE0007F80070007F8001FFF80007FF8000000001FFFFF8000000001FFFFF8
310
0FFFFFFFFFFFFFC07FFFFFF0001FFFFFF8001FFFFFFFFC000FF8001FFFFFFFFC
310
000FFF0003FFFFFFFFFC000000000FFFF000F8000000007FFFFFE0007F800700
310
07F8001FFF80007FF000000000FFFFFF800000000FFFFFF80FFFFFFFFFFFFFC0
310
7FFFFFF0001FFFFFF8000FFFFFFFF8000FF8000FFFFFFFF8000FFF0003FFFFFF
310
FFFC000000007FFFF000F800000007FFFFFFC0007F8003000FF8001FFF80007F
310
F000000007FFFFFF000000007FFFFFF80FFFFFFFFFFFFFC07FFFFFF0001FFFFF
310
F8000FFFFFFFF8000FF8000FFFFFFFF8000FFF0003FFFFFFFFF80000000FFFFF
310
F000F0000000FFFFFFFFC000FF8003000FF8001FFF80007FE0000000FFFFFFFF
310
0000000FFFFFFFF8000001FFFE0000007FFFFFF0001FFFFFF8000FFFFFFFF800
310
0FF8000FFFFFFFF8000FFF0003FFFFFFFFF8000000FFFFFFF000F000000FFFFF
310
FFFFC000FFC002000FF8000FFF80007FE000001FFFFFFFFE000001FFFFFFFFF8
310
000001FFFE0000007FFFFFF0001FFFFFF8000FFFFFFFF8000FF8000FFFFFFFF8
310
000FFF0003FFFFFFFFF000001FFFFFFFF000E00000FFFFFFFFFFC000FFC00200
310
0FFC000FFF80007FE00001FFFFFFFFFE00001FFFFFFFFFF8000001FFFE000000
310
7FFFFFF0001FFFFFFC000FFFFFFFF8001FFC000FFFFFFFF8001FFF0003FFFFFF
310
FFF00001FFFFFFFFF000E00007FFFFFFFFFF8000FFC000001FFC000FFF80007F
310
C0000FFFFFFFFFFE0000FFFFFFFFFFF8000001FFFE0000007FFFFFF0001FFFFF
310
FC0007FFFFFFF0001FFC0007FFFFFFF0001FFF0003FFFFFFFFF00007FFFFFFFF
310
F000E0001FFFFFFFFFFF8000FFC000001FFC000FFF80007FC0003FFFFFFFFFFE
310
0001FFFFFFFFFFF8000001FFFE0000007FFFFFF0001FFFFFFC0007FFFFFFF000
310
1FFC0007FFFFFFF0001FFF0003FFFFFFFFF0001FFFFFFFFFF000E0003FFFFF00
310
03FF8001FFE000001FFC0007FF80007FC0007FFFFF0007FC0003FFFFF0003FF8
310
000001FFFE0000007FFFFFF0001FFFFFFC0003FFFFFFE0001FFC0003FFFFFFE0
310
001FFF0003FFFFFFFFF0003FFFFFFFFFF000E0003FFFFF0001FF8001FFE00000
310
1FFE0007FF80007FC0007FFFFE0003FC0007FFFFE0003FF8000001FFFE000000
310
7FFFFFF0001FFFFFFE0003FFFFFFE0003FFE0003FFFFFFE0003FFF0003FFFFFF
310
FFF0003FFFFF8001F000E0003FFFFF0001FF0001FFE000001FFE0007FF80007F
310
C0007FFFFE0003FC0007FFFFE0003FF8000001FFFE0000007FFFFFF0001FFFFF
310
FE0001FFFFFFC0003FFE0001FFFFFFC0003FFF0003FFFFFFFFF0003FFFFF0001
310
F000E0003FFFFF0003FF0001FFE000003FFE0007FF80007FC0007FFFFE0003FC
310
0007FFFFE0003FF8000001FFFE0000007FFFFFF0001FFFFFFF0001FFFFFFC000
310
7FFF0001FFFFFFC0007FFF0003FFFFFFFFF0003FFFFF0001F000E0003FFFFE00
310
03FF0003FFF000003FFE0003FF80007FC0007FFFFC0003FE0007FFFFE0003FF8
310
000001FFFE0000007FFFFFF0001FFFFFFF0000FFFFFF80007FFF0000FFFFFF80
310
007FFF0003FFFFFFFFF0003FFFFF0001F000E0003FFFFE0003FF0003FFF00000
310
3FFF0003FF80007FC0007FFFFC0007FE0007FFFFC0003FF8000001FFFE000000
310
7FFFFFF0001FFFFFFF80007FFFFF0000FFFF80007FFFFF0000FFFF0003FFFFFF
310
FFF0003FFFFF0003F000E0003FFFFC0003FE0003FFF000003FFF0003FF80007F
310
E0003FFFF80007FE0003FFFFC0007FF8000001FFFE0000007FFFFFF0001FFFFF
310
FF80003FFFFE0000FFFF80003FFFFE0000FFFF0003FFFFFFFFF0001FFFFE0003
310
F000F0001FFFF80003FE0003FFF000007FFF0001FF80007FE0003FFFF00007FE
310
0001FFFF80007FF8000001FFFE0000007FFFFFF0001FFFFFFFC0000FFFF80001
310
FFFFC0000FFFF80001FFFF0003FFFFFFFFF0001FFFFC0003F000F0000FFFF000
310
07FE0007FFF800007FFF0001FF80007FE0001FFFE00007FF0000FFFE00007FF8
310
000001FFFE0000007FFFFFF0001FFFFFFFC00003FFE00001FFFFC00003FFE000
310
01FFFF0003FFFFFFFFF8000FFFF80003F000F00003FFC00007FC0007FFF80000
310
7FFF8001FF80007FF00007FF80000FFF00007FF80000FFF8000001FFFE000000
310
7F80000000000001FFE000003E000003FFFFE000003E000003FFFF0003FFFFFF
310
FFF80003FFE00007F000F800000000000FFC0007FFF800007FFF8001FF80007F
310
F000000000000FFF000000000000FFF8000001FFFE0000007F80000000000001
310
FFF0000000000007FFFFF0000000000007FFFF0003FFFFFFFFFC00007E000007
310
F000F800000000000FFC0007FFF80000FFFF8000FF80007FF800000000001FFF
310
800000000001FFF8000001FFFE0000007F80000000000001FFF800000000000F
310
FFFFF800000000000FFFFF0003FFFFFFFFFC00000000000FF000FC0000000000
310
1FFC0007FFFC0000FFFF8000FF80007FF800000000003FFFC00000000001FFF8
310
000001FFFE0000007F80000000000001FFF800000000000FFFFFF80000000000
310
0FFFFF0003FFFFFFFFFE00000000001FF000FE00000000003FF8000FFFFC0000
310
FFFF8000FF80007FFC00000000003FFFC00000000003FFF8000001FFFE000000
310
7F80000000000001FFFC00000000001FFFFFFC00000000001FFFFF0003FFFFFF
310
FFFF00000000001FF000FF00000000003FF8000FFFFC0000FFFFC000FF80007F
310
FE00000000007FFFE00000000007FFF8000001FFFE0000007F80000000000001
310
FFFE00000000003FFFFFFE00000000003FFFFF0003FFFFFFFFFF80000000003F
310
F000FF80000000007FF8000FFFFC0001FFFFC0007F80007FFF0000000000FFFF
310
F0000000000FFFF800000000000000007F80000000000001FFFF8000000000FF
310
FFFFFF8000000000FFFFFF0003FFFFFFFFFFC0000000007FF000FFC000000000
310
FFF8000FFFFE0001FFFFC0007F80007FFF8000000001FFFFF8000000001FFFF8
310
00000000000000007F80000000000001FFFFC000000001FFFFFFFFC000000001
310
FFFFFF0003FFFFFFFFFFE000000000FFF000FFE000000003FFF0001FFFFE0001
310
FFFFC0007F80007FFFC000000007FFFFFE000000003FFFF80000000000000000
310
7F80000000000001FFFFE000000003FFFFFFFFE000000003FFFFFF0003FFFFFF
310
FFFFF000000003FFF000FFF80000000FFFF0001FFFFE0001FFFFE0007F80007F
310
FFF00000000FFFFFFF00000000FFFFF800000000000000007F80000000000001
310
FFFFF80000000FFFFFFFFFF80000000FFFFFFF0003FFFFFFFFFFFC0000000FFF
310
F000FFFE0000003FFFF0001FFFFE0003FFFFE0003F80007FFFFC0000003FFFFF
310
FFC0000003FFFFF800000000000000007F80000000000001FFFFFE0000003FFF
310
FFFFFFFE0000003FFFFFFF0003FFFFFFFFFFFF0000003FFFF000FFFF800000FF
310
FFF0001FFFFF0003FFFFE0003F80007FFFFF000001FFFFFFFFF800001FFFFFF8
310
00000000000000007F80000000000001FFFFFFC00001FFFFFFFFFFFFC00001FF
310
FFFFFF0003FFFFFFFFFFFFC00000FFFFF000FFFFF8000FFFFFFFFFFFFFFFFFFF
310
FFFFFFFFFFFFFFFFFFFFF0001FFFFFFFFFFF0000FFFFFFF80000000000000000
310
7FFFFFFFFFFFFFFFFFFFFFFC001FFFFFFFFFFFFFFC001FFFFFFFFFFFFFFFFFFF
310
FFFFFFFC001FFFFFF000FFFFFFFFFFFFFFFFFFFFFFFFFFFFFFFFFFFFFFFFFFFF
310
FFFFFFFFFFFFFFFFFFFFFFFFFFFFFFFFFFFFFFFFFFFFFFFFFFFFFFFFFFFFFFFF
310
FFFFFFFFFFFFFFFFFFFFFFFFFFFFFFFFFFFFFFFFFFFFFFFFFFFFFFFFFFFFFFFF
310
F000FFFFFFFFFFFFFFFFFFFFFFFFFFFFFFFFFFFFFFFFFFFFFFFFFFFFFFFFFFFF
310
FFFFFFFFFFFFFFFFFFFFFFFFFFFFFFFFFFFFFFFFFFFFFFFFFFFFFFFFFFFFFFFF
310
FFFFFFFFFFFFFFFFFFFFFFFFFFFFFFFFFFFFFFFFFFFFFFFFF000FFFFFFFFFFFF
310
FFFFFFFFFFFFFFFFFFFFFFFFFFFFFFFFFFFFFFFFFFFFFFFFFFFFFFFFFFFFFFFF
310
FFFFFFFFFFFFFFFFFFFFFFFFFFFFFFFFFFFFFFFFFFFFFFFFFFFFFFFFFFFFFFFF
310
FFFFFFFFFFFFFFFFFFFFFFFFFFFFFFFFF000FFFFFFFFFFFFFFFFFFFFFFFFFFFF
310
FFFFFFFFFFFFFFFFFFFFFFFFFFFFFFFFFFFFFFFFFFFFFFFFFFFFFFFFFFFFFFFF
310
FFFFFFFFFFFFFFFFFFFFFFFFFFFFFFFFFFFFFFFFFFFFFFFFFFFFFFFFFFFFFFFF
310
FFFFFFFFFFFFFFFFF000FFFFFFFFFFFFFFFFFFFFFFFFFFFFFFFFFFFFFFFFFFFF
310
FFFFFFFFFFFFFFFFFFFFFFFFFFFFFFFFFFFFFFFFFFFFFFFFFFFFFFFFFFFFFFFF
310
FFFFFFFFFFFFFFFFFFFFFFFFFFFFFFFFFFFFFFFFFFFFFFFFFFFFFFFFFFFFFFFF
310
F000FFFFFFFFFFFFFFFFFFFFFFFFFFFFFFFFFFFFFFFFFFFFFFFFFFFFFFFFFFFF
310
FFFFFFFFFFFFFFFFFFFFFFFFFFFFFFFFFFFFFFFFFFFFFFFFFFFFFFFFFFFFFFFF
310
FFFFFFFFFFFFFFFFFFFFFFFFFFFFFFFFFFFFFFFFFFFFFFFFF000FFFFFFFFFFFF
310
FFFFFFFFFFFFFFFFFFFFFFFFFFFFFFFFFFFFFFFFFFFFFFFFFFFFFFFFFFFFFFFF
310
FFFFFFFFFFFFFFFFFFFFFFFFFFFFFFFFFFFFFFFFFFFFFFFFFFFFFFFFFFFFFFFF
310
FFFFFFFFFFFFFFFFFFFFFFFFFFFFFFFFF000FFFFFFFFFFFFFFFFFFFFFFFFFFFF
310
FFFFFFFFFFFFFFFFFFFFFFFFFFFFFFFFFFFFFFFFFFFFFFFFFFFFFFFFFFFFFFFF
310
FFFFFFFFFFFFFFFFFFFFFFFFFFFFFFFFFFFFFFFFFFFFFFFFFFFFFFFFFFFFFFFF
310
FFFFFFFFFFFFFFFFF000FFFFFFFFFFFFFFFFFFFFFFFFFFFFFFFFFFFFFFFFFFFF
310
FFFFFFFFFFFFFFFFFFFFFFFFFFFFFFFFFFFFFFFFFFFFFFFFFFFFFFFFFFFFFFFF
310
FFFFFFFFFFFFFFFFFFFFFFFFFFFFFFFFFFFFFFFFFFFFFFFFFFFFFFFFFFFFFFFF
310
F000FFFFFFFFFFFFFFFFFFFFFFFFFFFFFFFFFFFFFFFFFFFFFFFFFFFFFFFFFFFF
310
FFFFFFFFFFFFFFFFFFFFFFFFFFFFFFFFFFFFFFFFFFFFFFFFFFFFFFFFFFFFFFFF
310
FFFFFFFFFFFFFFFFFFFFFFFFFFFFFFFFFFFFFFFFFFFFFFFFF000FFFFFFFFFFFF
310
FFFFFFFFFFFFFFFFFFFFFFFFFFFFFFFFFFFFFFFFFFFFFFFFFFFFFFFFFFFFFFFF
310
FFFFFFFFFFFFFFFFFFFFFFFFFFFFFFFFFFFFFFFFFFFFFFFFFFFFFFFFFFFFFFFF
310
FFFFFFFFFFFFFFFFFFFFFFFFFFFFFFFFF000FFFFFFFFFFFFFFFFFFFFFFFFFFFF
310
FFFFFFFFFFFFFFFFFFFFFFFFFFFFFFFFFFFFFFFFFFFFFFFFFFFFFFFFFFFFFFFF
310
FFFFFFFFFFFFFFFFFFFFFFFFFFFFFFFFFFFFFFFFFFFFFFFFFFFFFFFFFFFFFFFF
310
FFFFFFFFFFFFFFFFF000FFFFFFFFFFFFFFFFFFFFFFFFFFFFFFFFFFFFFFFFFFFF
310
FFFFFFFFFFFFFFFFFFFFFFFFFFFFFFFFFFFFFFFFFFFFFFFFFFFFFFFFFFFFFFFF
310
FFFFFFFFFFFFFFFFFFFFFFFFFFFFFFFFFFFFFFFFFFFFFFFFFFFFFFFFFFFFFFFF
310
F000FFFFFFFFFFFFFFFFFFFFFFFFFFFFFFFFFFFFFFFFFFFFFFFFFFFFFFFFFFFF
310
FFFFFFFFFFFFFFFFFFFFFFFFFFFFFFFFFFFFFFFFFFFFFFFFFFFFFFFFFFFFFFFF
310
FFFFFFFFFFFFFFFFFFFFFFFFFFFFFFFFFFFFFFFFFFFFFFFFF000FFFFFFFFFFFF
310
FFFFFFFFFFFFFFFFFFFFFFFFFFFFFFFFFFFFFFFFFFFFFFFFFFFFFFFFFFFFFFFF
310
FFFFFFFFFFFFFFFFFFFFFFFFFFFFFFFFFFFFFFFFFFFFFFFFFFFFFFFFFFFFFFFF
310
FFFFFFFFFFFFFFFFFFFFFFFFFFFFFFFFF000FFFFFFFFFFFFFFFFFFFFFFFFFFFF
310
FFFFFFFFFFFFFFFFFFFFFFFFFFFFFFFFFFFFFFFFFFFFFFFFFFFFFFFFFFFFFFFF
310
FFFFFFFFFFFFFFFFFFFFFFFFFFFFFFFFFFFFFFFFFFFFFFFFFFFFFFFFFFFFFFFF
310
FFFFFFFFFFFFFFFFF000FFFFFFFFFFFFFFFFFFFFFFFFFFFFFFFFFFFFFFFFFFFF
310
FFFFFFFFFFFFFFFFFFFFFFFFFFFFFFFFFFFFFFFFFFFFFFFFFFFFFFFFFFFFFFFF
310
FFFFFFFFFFFFFFFFFFFFFFFFFFFFFFFFFFFFFFFFFFFFFFFFFFFFFFFFFFFFFFFF
310
F000FFFFFFFFFFFFFFFFFFFFFFFFFFFFFFFFFFFFFFFFFFFFFFFFFFFFFFFFFFFF
310
FFFFFFFFFFFFFFFFFFFFFFFFFFFFFFFFFFFFFFFFFFFFFFFFFFFFFFFFFFFFFFFF
310
FFFFFFFFFFFFFFFFFFFFFFFFFFFFFFFFFFFFFFFFFFFFFFFFF000FFFFFFFFFFFF
310
FFFFFFFFFFFFFFFFFFFFFFFFFFFFFFFFFFFFFFFFFFFFFFFFFFFFFFFFFFFFFFFF
310
FFFFFFFFFFFFFFFFFFFFFFFFFFFFFFFFFFFFFFFFFFFFFFFFFFFFFFFFFFFFFFFF
310
FFFFFFFFFFFFFFFFFFFFFFFFFFFFFFFFF000FFFFFFFFFFFFFFFFFFFFFFFFFFFF
310
FFFFFFFFFFFFFFFFFFFFFFFFFFFFFFFFFFFFFFFFFFFFFFFFFFFFFFFFFFFFFFFF
310
FFFFFFFFFFFFFFFFFFFFFFFFFFFFFFFFFFFFFFFFFFFFFFFFFFFFFFFFFFFFFFFF
310
FFFFFFFFFFFFFFFFF000FFFFFFFFFFFFFFFFFFFFFFFFFFFFFFFFFFFFFFFFFFFF
310
FFFFFFFFFFFFFFFFFFFFFFFFFFFFFFFFFFFFFFFFFFFFFFFFFFFFFFFFFFFFFFFF
310
FFFFFFFFFFFFFFFFFFFFFFFFFFFFFFFFFFFFFFFFFFFFFFFFFFFFFFFFFFFFFFFF
310
F000FFFFFFFFFFFFFFFFFFFFFFFFFFFFFFFFFFFFFFFFFFFFFFFFFFFFFFFFFFFF
310
FFFFFFFFFFFFFFFFFFFFFFFFFFFFFFFFFFFFFFFFFFFFFFFFFFFFFFFFFFFFFFFF
310
FFFFFFFFFFFFFFFFFFFFFFFFFFFFFFFFFFFFFFFFFFFFFFFFF000FFFFFFFFFFFF
310
FFFFFFFFFFFFFFFFFFFFFFFFFFFFFFFFFFFFFFFFFFFFFFFFFFFFFFFFFFFFFFFF
310
FFFFFFFFFFFFFFFFFFFFFFFFFFFFFFFFFFFFFFFFFFFFFFFFFFFFFFFFFFFFFFFF
310
FFFFFFFFFFFFFFFFFFFFFFFFFFFFFFFFF0000000000000000000000000000000
310
0000000000000000000000000000000000000000000000000000000000000000
310
0000000000000000000000000000000000000000000000000000000000000000
310
0000000000000000000000000000000000000000000000000000000000000000
310
0000000000000000000000000000000000000000000000000000000000000000
310
0000000000000000000000000000000000000000000000000000000000000000
310
0000000000000000000000000000000000000000000000000000000000000000
310
0000000000000000000000000000000000000000000000000000000000000000
310
0000000000000000000000000000000000000000000000000000000000000000
310
0000000000000000000000000000000000000000000000000000000000000000
310
0000000000000000000000000000000000000000000000000000000000000000
310
0000000000000000000000000000000000000000000000000000000000000000
310
0000000000000000000000000000000000000000000000000000000000000000
310
0000000000000000000000000000000000000000000000000000000000000000
310
0000000000000000000000000000000000000000000000000000000000000000
310
0000000000000000000000000000000000000000000000000000000000000000
  1
OLE
  0
ENDSEC
  0
SECTION
  2
OBJECTS
  0
DICTIONARY
  5
C
330
0
100
AcDbDictionary
281
     1
  3
ACAD_GROUP
350
D
  3
ACAD_LAYOUT
350
1A
  3
ACAD_MLINESTYLE
350
17
  3
ACAD_PLOTSETTINGS
350
19
  3
ACAD_PLOTSTYLENAME
350
E
  3
ACAD_SCALELIST
350
47
  0
DICTIONARY
  5
D
102
{ACAD_REACTORS
330
C
102
}
330
C
100
AcDbDictionary
281
     1
  0
DICTIONARY
  5
1A
102
{ACAD_REACTORS
330
C
102
}
330
C
100
AcDbDictionary
281
     1
  3
Layout1
350
1E
  3
Layout2
350
26
  3
Model
350
22
  0
DICTIONARY
  5
17
102
{ACAD_REACTORS
330
C
102
}
330
C
100
AcDbDictionary
281
     1
  3
Standard
350
18
  0
DICTIONARY
  5
19
102
{ACAD_REACTORS
330
C
102
}
330
C
100
AcDbDictionary
281
     1
  0
ACDBDICTIONARYWDFLT
  5
E
102
{ACAD_REACTORS
330
C
102
}
330
C
100
AcDbDictionary
281
     1
  3
Normal
350
F
100
AcDbDictionaryWithDefault
340
F
  0
DICTIONARY
  5
47
102
{ACAD_REACTORS
330
C
102
}
330
C
100
AcDbDictionary
281
     1
  3
A0
350
48
  3
A1
350
49
  3
A2
350
4A
  3
A3
350
4B
  3
A4
350
4C
  3
A5
350
4D
  3
A6
350
4E
  3
A7
350
4F
  3
A8
350
50
  3
A9
350
51
  3
B0
350
52
  3
B1
350
53
  3
B2
350
54
  3
B3
350
55
  3
B4
350
56
  3
B5
350
57
  3
B6
350
58
  3
B7
350
59
  3
B8
350
5A
  3
B9
350
5B
  3
C0
350
5C
  3
C1
350
5D
  3
C2
350
5E
  3
C3
350
5F
  3
C4
350
60
  3
C5
350
61
  3
C6
350
62
  3
C7
350
63
  3
C8
350
64
  3
C9
350
65
  3
D0
350
66
  3
D1
350
67
  3
D2
350
68
  0
LAYOUT
  5
1E
102
{ACAD_REACTORS
330
1A
102
}
330
1A
100
AcDbPlotSettings
  1

  2
none_device
  4

  6

 40
0.0
 41
0.0
 42
0.0
 43
0.0
 44
0.0
 45
0.0
 46
0.0
 47
0.0
 48
0.0
 49
0.0
140
0.0
141
0.0
142
1.0
143
1.0
 70
   688
 72
     1
 73
     0
 74
     5
  7

 75
    16
147
1.0
148
0.0
149
0.0
100
AcDbLayout
  1
Layout1
 70
     1
 71
     1
 10
0.0
 20
0.0
 11
420.0
 21
297.0
 12
0.0
 22
0.0
 32
0.0
 14
1.0000000000E+20
 24
1.0000000000E+20
 34
1.0000000000E+20
 15
-1.0000000000E+20
 25
-1.0000000000E+20
 35
-1.0000000000E+20
146
0.0
 13
0.0
 23
0.0
 33
0.0
 16
1.0
 26
0.0
 36
0.0
 17
0.0
 27
1.0
 37
0.0
 76
     0
330
1B
  0
LAYOUT
  5
26
102
{ACAD_REACTORS
330
1A
102
}
330
1A
100
AcDbPlotSettings
  1

  2
none_device
  4

  6

 40
0.0
 41
0.0
 42
0.0
 43
0.0
 44
0.0
 45
0.0
 46
0.0
 47
0.0
 48
0.0
 49
0.0
140
0.0
141
0.0
142
1.0
143
1.0
 70
   688
 72
     1
 73
     0
 74
     5
  7

 75
    16
147
1.0
148
0.0
149
0.0
100
AcDbLayout
  1
Layout2
 70
     1
 71
     2
 10
0.0
 20
0.0
 11
0.0
 21
0.0
 12
0.0
 22
0.0
 32
0.0
 14
0.0
 24
0.0
 34
0.0
 15
0.0
 25
0.0
 35
0.0
146
0.0
 13
0.0
 23
0.0
 33
0.0
 16
1.0
 26
0.0
 36
0.0
 17
0.0
 27
1.0
 37
0.0
 76
     0
330
23
  0
LAYOUT
  5
22
102
{ACAD_REACTORS
330
1A
102
}
330
1A
100
AcDbPlotSettings
  1

  2
none_device
  4
Letter_(8.50_x_11.00_Inches)
  6

 40
6.35
 41
6.35
 42
6.35000508
 43
6.35000508
 44
215.9
 45
279.4
 46
0.0
 47
0.0
 48
0.0
 49
0.0
140
0.0
141
0.0
142
1.0
143
1.0
 70
  1712
 72
     1
 73
     0
 74
     0
  7

 75
     0
147
1.0
148
0.0
149
0.0
100
AcDbLayout
  1
Model
 70
     1
 71
     0
 10
0.0
 20
0.0
 11
297.0
 21
210.0
 12
0.0
 22
0.0
 32
0.0
 14
0.0
 24
0.0
 34
0.0
 15
297.0
 25
210.0
 35
0.0
146
0.0
 13
0.0
 23
0.0
 33
0.0
 16
1.0
 26
0.0
 36
0.0
 17
0.0
 27
1.0
 37
0.0
 76
     0
330
1F
331
29
  0
MLINESTYLE
  5
18
102
{ACAD_REACTORS
330
17
102
}
330
17
100
AcDbMlineStyle
  2
Standard
 70
     0
  3

 62
   256
 51
90.0
 52
90.0
 71
     2
 49
0.5
 62
   256
  6
BYLAYER
 49
-0.5
 62
   256
  6
BYLAYER
  0
ACDBPLACEHOLDER
  5
F
102
{ACAD_REACTORS
330
E
102
}
330
E
  0
SCALE
  5
48
102
{ACAD_REACTORS
330
47
102
}
330
47
100
AcDbScale
 70
     0
300
1:1
140
1.0
141
1.0
290
     1
  0
SCALE
  5
49
102
{ACAD_REACTORS
330
47
102
}
330
47
100
AcDbScale
 70
     0
300
1:2
140
1.0
141
2.0
290
     0
  0
SCALE
  5
4A
102
{ACAD_REACTORS
330
47
102
}
330
47
100
AcDbScale
 70
     0
300
1:4
140
1.0
141
4.0
290
     0
  0
SCALE
  5
4B
102
{ACAD_REACTORS
330
47
102
}
330
47
100
AcDbScale
 70
     0
300
1:5
140
1.0
141
5.0
290
     0
  0
SCALE
  5
4C
102
{ACAD_REACTORS
330
47
102
}
330
47
100
AcDbScale
 70
     0
300
1:8
140
1.0
141
8.0
290
     0
  0
SCALE
  5
4D
102
{ACAD_REACTORS
330
47
102
}
330
47
100
AcDbScale
 70
     0
300
1:10
140
1.0
141
10.0
290
     0
  0
SCALE
  5
4E
102
{ACAD_REACTORS
330
47
102
}
330
47
100
AcDbScale
 70
     0
300
1:16
140
1.0
141
16.0
290
     0
  0
SCALE
  5
4F
102
{ACAD_REACTORS
330
47
102
}
330
47
100
AcDbScale
 70
     0
300
1:20
140
1.0
141
20.0
290
     0
  0
SCALE
  5
50
102
{ACAD_REACTORS
330
47
102
}
330
47
100
AcDbScale
 70
     0
300
1:30
140
1.0
141
30.0
290
     0
  0
SCALE
  5
51
102
{ACAD_REACTORS
330
47
102
}
330
47
100
AcDbScale
 70
     0
300
1:40
140
1.0
141
40.0
290
     0
  0
SCALE
  5
52
102
{ACAD_REACTORS
330
47
102
}
330
47
100
AcDbScale
 70
     0
300
1:50
140
1.0
141
50.0
290
     0
  0
SCALE
  5
53
102
{ACAD_REACTORS
330
47
102
}
330
47
100
AcDbScale
 70
     0
300
1:100
140
1.0
141
100.0
290
     0
  0
SCALE
  5
54
102
{ACAD_REACTORS
330
47
102
}
330
47
100
AcDbScale
 70
     0
300
2:1
140
2.0
141
1.0
290
     0
  0
SCALE
  5
55
102
{ACAD_REACTORS
330
47
102
}
330
47
100
AcDbScale
 70
     0
300
4:1
140
4.0
141
1.0
290
     0
  0
SCALE
  5
56
102
{ACAD_REACTORS
330
47
102
}
330
47
100
AcDbScale
 70
     0
300
8:1
140
8.0
141
1.0
290
     0
  0
SCALE
  5
57
102
{ACAD_REACTORS
330
47
102
}
330
47
100
AcDbScale
 70
     0
300
10:1
140
10.0
141
1.0
290
     0
  0
SCALE
  5
58
102
{ACAD_REACTORS
330
47
102
}
330
47
100
AcDbScale
 70
     0
300
100:1
140
100.0
141
1.0
290
     0
  0
SCALE
  5
59
102
{ACAD_REACTORS
330
47
102
}
330
47
100
AcDbScale
 70
     0
300
1/128" = 1'-0"
140
0.0078125
141
12.0
290
     0
  0
SCALE
  5
5A
102
{ACAD_REACTORS
330
47
102
}
330
47
100
AcDbScale
 70
     0
300
1/64" = 1'-0"
140
0.015625
141
12.0
290
     0
  0
SCALE
  5
5B
102
{ACAD_REACTORS
330
47
102
}
330
47
100
AcDbScale
 70
     0
300
1/32" = 1'-0"
140
0.03125
141
12.0
290
     0
  0
SCALE
  5
5C
102
{ACAD_REACTORS
330
47
102
}
330
47
100
AcDbScale
 70
     0
300
1/16" = 1'-0"
140
0.0625
141
12.0
290
     0
  0
SCALE
  5
5D
102
{ACAD_REACTORS
330
47
102
}
330
47
100
AcDbScale
 70
     0
300
3/32" = 1'-0"
140
0.09375
141
12.0
290
     0
  0
SCALE
  5
5E
102
{ACAD_REACTORS
330
47
102
}
330
47
100
AcDbScale
 70
     0
300
1/8" = 1'-0"
140
0.125
141
12.0
290
     0
  0
SCALE
  5
5F
102
{ACAD_REACTORS
330
47
102
}
330
47
100
AcDbScale
 70
     0
300
3/16" = 1'-0"
140
0.1875
141
12.0
290
     0
  0
SCALE
  5
60
102
{ACAD_REACTORS
330
47
102
}
330
47
100
AcDbScale
 70
     0
300
1/4" = 1'-0"
140
0.25
141
12.0
290
     0
  0
SCALE
  5
61
102
{ACAD_REACTORS
330
47
102
}
330
47
100
AcDbScale
 70
     0
300
3/8" = 1'-0"
140
0.375
141
12.0
290
     0
  0
SCALE
  5
62
102
{ACAD_REACTORS
330
47
102
}
330
47
100
AcDbScale
 70
     0
300
1/2" = 1'-0"
140
0.5
141
12.0
290
     0
  0
SCALE
  5
63
102
{ACAD_REACTORS
330
47
102
}
330
47
100
AcDbScale
 70
     0
300
3/4" = 1'-0"
140
0.75
141
12.0
290
     0
  0
SCALE
  5
64
102
{ACAD_REACTORS
330
47
102
}
330
47
100
AcDbScale
 70
     0
300
1" = 1'-0"
140
1.0
141
12.0
290
     0
  0
SCALE
  5
65
102
{ACAD_REACTORS
330
47
102
}
330
47
100
AcDbScale
 70
     0
300
1-1/2" = 1'-0"
140
1.5
141
12.0
290
     0
  0
SCALE
  5
66
102
{ACAD_REACTORS
330
47
102
}
330
47
100
AcDbScale
 70
     0
300
3" = 1'-0"
140
3.0
141
12.0
290
     0
  0
SCALE
  5
67
102
{ACAD_REACTORS
330
47
102
}
330
47
100
AcDbScale
 70
     0
300
6" = 1'-0"
140
6.0
141
12.0
290
     0
  0
SCALE
  5
68
102
{ACAD_REACTORS
330
47
102
}
330
47
100
AcDbScale
 70
     0
300
1'-0" = 1'-0"
140
12.0
141
12.0
290
     0
  0
ENDSEC
  0
EOF
