  0
SECTION
  2
HEADER
  9
$ACADVER
  1
AC1015
  9
$ACADMAINTVER
 70
     6
  9
$DWGCODEPAGE
  3
ANSI_1252
  9
$INSBASE
 10
0.0
 20
0.0
 30
0.0
  9
$EXTMIN
 10
0.0
 20
0.0
 30
0.0
  9
$EXTMAX
 10
297.0
 20
210.0
 30
0.0
  9
$LIMMIN
 10
0.0
 20
0.0
  9
$LIMMAX
 10
297.0
 20
210.0
  9
$ORTHOMODE
 70
     0
  9
$REGENMODE
 70
     1
  9
$FILLMODE
 70
     1
  9
$QTEXTMODE
 70
     0
  9
$MIRRTEXT
 70
     1
  9
$LTSCALE
 40
1.0
  9
$ATTMODE
 70
     1
  9
$TEXTSIZE
 40
2.0
  9
$TRACEWID
 40
1.0
  9
$TEXTSTYLE
  7
Standard
  9
$CLAYER
  8
0
  9
$CELTYPE
  6
ByLayer
  9
$CECOLOR
 62
   256
  9
$CELTSCALE
 40
1.0
  9
$DISPSILH
 70
     0
  9
$DIMSCALE
 40
1.0
  9
$DIMASZ
 40
3.0
  9
$DIMEXO
 40
0.0
  9
$DIMDLI
 40
3.75
  9
$DIMRND
 40
0.0
  9
$DIMDLE
 40
0.0
  9
$DIMEXE
 40
1.0
  9
$DIMTP
 40
0.0
  9
$DIMTM
 40
0.0
  9
$DIMTXT
 40
2.0
  9
$DIMCEN
 40
2.5
  9
$DIMTSZ
 40
0.0
  9
$DIMTOL
 70
     0
  9
$DIMLIM
 70
     0
  9
$DIMTIH
 70
     1
  9
$DIMTOH
 70
     1
  9
$DIMSE1
 70
     0
  9
$DIMSE2
 70
     0
  9
$DIMTAD
 70
     1
  9
$DIMZIN
 70
     0
  9
$DIMBLK
  1

  9
$DIMASO
 70
     1
  9
$DIMSHO
 70
     1
  9
$DIMPOST
  1

  9
$DIMAPOST
  1

  9
$DIMALT
 70
     0
  9
$DIMALTD
 70
     3
  9
$DIMALTF
 40
0.0393700787
  9
$DIMLFAC
 40
2.0
  9
$DIMTOFL
 70
     1
  9
$DIMTVP
 40
0.0
  9
$DIMTIX
 70
     0
  9
$DIMSOXD
 70
     0
  9
$DIMSAH
 70
     0
  9
$DIMBLK1
  1

  9
$DIMBLK2
  1

  9
$DIMSTYLE
  2
ISO-25
  9
$DIMCLRD
 70
     0
  9
$DIMCLRE
 70
     0
  9
$DIMCLRT
 70
     0
  9
$DIMTFAC
 40
1.0
  9
$DIMGAP
 40
1.524
  9
$DIMJUST
 70
     0
  9
$DIMSD1
 70
     0
  9
$DIMSD2
 70
     0
  9
$DIMTOLJ
 70
     0
  9
$DIMTZIN
 70
     0
  9
$DIMALTZ
 70
     0
  9
$DIMALTTZ
 70
     0
  9
$DIMUPT
 70
     0
  9
$DIMDEC
 70
     2
  9
$DIMTDEC
 70
     3
  9
$DIMALTU
 70
     2
  9
$DIMALTTD
 70
     3
  9
$DIMTXSTY
  7
Standard
  9
$DIMAUNIT
 70
     0
  9
$DIMADEC
 70
     2
  9
$DIMALTRND
 40
0.0
  9
$DIMAZIN
 70
     0
  9
$DIMDSEP
 70
    44
  9
$DIMATFIT
 70
     3
  9
$DIMFRAC
 70
     0
  9
$DIMLDRBLK
  1

  9
$DIMLUNIT
 70
     2
  9
$DIMLWD
 70
    -2
  9
$DIMLWE
 70
    -2
  9
$DIMTMOVE
 70
     0
  9
$LUNITS
 70
     2
  9
$LUPREC
 70
     2
  9
$SKETCHINC
 40
1.0
  9
$FILLETRAD
 40
10.0
  9
$AUNITS
 70
     0
  9
$AUPREC
 70
     2
  9
$MENU
  1
.
  9
$ELEVATION
 40
0.0
  9
$PELEVATION
 40
0.0
  9
$THICKNESS
 40
0.0
  9
$LIMCHECK
 70
     0
  9
$CHAMFERA
 40
0.0
  9
$CHAMFERB
 40
0.0
  9
$CHAMFERC
 40
0.0
  9
$CHAMFERD
 40
0.0
  9
$SKPOLY
 70
     0
  9
$TDCREATE
 40
2458166.396947072
  9
$TDUCREATE
 40
2458166.355280405
  9
$TDUPDATE
 40
2458166.396950243
  9
$TDUUPDATE
 40
2458166.355283577
  9
$TDINDWG
 40
0.0000000116
  9
$TDUSRTIMER
 40
0.0000000116
  9
$USRTIMER
 70
     1
  9
$ANGBASE
 50
0.0
  9
$ANGDIR
 70
     0
  9
$PDMODE
 70
     0
  9
$PDSIZE
 40
-1.0
  9
$PLINEWID
 40
0.0
  9
$SPLFRAME
 70
     0
  9
$SPLINETYPE
 70
     6
  9
$SPLINESEGS
 70
     8
  9
$HANDSEED
  5
2C0
  9
$SURFTAB1
 70
     6
  9
$SURFTAB2
 70
     6
  9
$SURFTYPE
 70
     6
  9
$SURFU
 70
     6
  9
$SURFV
 70
     6
  9
$UCSBASE
  2

  9
$UCSNAME
  2

  9
$UCSORG
 10
0.0
 20
0.0
 30
0.0
  9
$UCSXDIR
 10
1.0
 20
0.0
 30
0.0
  9
$UCSYDIR
 10
0.0
 20
1.0
 30
0.0
  9
$UCSORTHOREF
  2

  9
$UCSORTHOVIEW
 70
     0
  9
$UCSORGTOP
 10
0.0
 20
0.0
 30
0.0
  9
$UCSORGBOTTOM
 10
0.0
 20
0.0
 30
0.0
  9
$UCSORGLEFT
 10
0.0
 20
0.0
 30
0.0
  9
$UCSORGRIGHT
 10
0.0
 20
0.0
 30
0.0
  9
$UCSORGFRONT
 10
0.0
 20
0.0
 30
0.0
  9
$UCSORGBACK
 10
0.0
 20
0.0
 30
0.0
  9
$PUCSBASE
  2

  9
$PUCSNAME
  2

  9
$PUCSORG
 10
0.0
 20
0.0
 30
0.0
  9
$PUCSXDIR
 10
1.0
 20
0.0
 30
0.0
  9
$PUCSYDIR
 10
0.0
 20
1.0
 30
0.0
  9
$PUCSORTHOREF
  2

  9
$PUCSORTHOVIEW
 70
     0
  9
$PUCSORGTOP
 10
0.0
 20
0.0
 30
0.0
  9
$PUCSORGBOTTOM
 10
0.0
 20
0.0
 30
0.0
  9
$PUCSORGLEFT
 10
0.0
 20
0.0
 30
0.0
  9
$PUCSORGRIGHT
 10
0.0
 20
0.0
 30
0.0
  9
$PUCSORGFRONT
 10
0.0
 20
0.0
 30
0.0
  9
$PUCSORGBACK
 10
0.0
 20
0.0
 30
0.0
  9
$USERI1
 70
     0
  9
$USERI2
 70
     0
  9
$USERI3
 70
     0
  9
$USERI4
 70
     0
  9
$USERI5
 70
     0
  9
$USERR1
 40
0.0
  9
$USERR2
 40
0.0
  9
$USERR3
 40
0.0
  9
$USERR4
 40
0.0
  9
$USERR5
 40
0.0
  9
$WORLDVIEW
 70
     1
  9
$SHADEDGE
 70
     3
  9
$SHADEDIF
 70
    70
  9
$TILEMODE
 70
     1
  9
$MAXACTVP
 70
    64
  9
$PINSBASE
 10
0.0
 20
0.0
 30
0.0
  9
$PLIMCHECK
 70
     0
  9
$PEXTMIN
 10
1.0000000000E+20
 20
1.0000000000E+20
 30
1.0000000000E+20
  9
$PEXTMAX
 10
-1.0000000000E+20
 20
-1.0000000000E+20
 30
-1.0000000000E+20
  9
$PLIMMIN
 10
0.0
 20
0.0
  9
$PLIMMAX
 10
420.0
 20
297.0
  9
$UNITMODE
 70
     0
  9
$VISRETAIN
 70
     1
  9
$PLINEGEN
 70
     0
  9
$PSLTSCALE
 70
     1
  9
$TREEDEPTH
 70
  3020
  9
$CMLSTYLE
  2
Standard
  9
$CMLJUST
 70
     0
  9
$CMLSCALE
 40
20.0
  9
$PROXYGRAPHICS
 70
     1
  9
$MEASUREMENT
 70
     1
  9
$CELWEIGHT
370
    -1
  9
$ENDCAPS
280
     0
  9
$JOINSTYLE
280
     0
  9
$LWDISPLAY
290
     1
  9
$INSUNITS
 70
     4
  9
$HYPERLINKBASE
  1

  9
$STYLESHEET
  1

  9
$XEDIT
290
     1
  9
$CEPSNTYPE
380
     0
  9
$PSTYLEMODE
290
     1
  9
$FINGERPRINTGUID
  2
{2F46B41F-6778-41F4-845F-0EAE71880149}
  9
$VERSIONGUID
  2
{FAEB1C32-E019-11D5-929B-00C0DF256EC4}
  9
$EXTNAMES
290
     1
  9
$PSVPSCALE
 40
0.0
  9
$OLESTARTUP
290
     0
  0
ENDSEC
  0
SECTION
  2
CLASSES
  0
CLASS
  1
ACDBDICTIONARYWDFLT
  2
AcDbDictionaryWithDefault
  3
ObjectDBX Classes
 90
        0
280
     0
281
     0
  0
CLASS
  1
VISUALSTYLE
  2
AcDbVisualStyle
  3
ObjectDBX Classes
 90
     4095
280
     0
281
     0
  0
CLASS
  1
MATERIAL
  2
AcDbMaterial
  3
ObjectDBX Classes
 90
     1153
280
     0
281
     0
  0
CLASS
  1
SCALE
  2
AcDbScale
  3
ObjectDBX Classes
 90
     1153
280
     0
281
     0
  0
CLASS
  1
TABLESTYLE
  2
AcDbTableStyle
  3
ObjectDBX Classes
 90
     4095
280
     0
281
     0
  0
CLASS
  1
MLEADERSTYLE
  2
AcDbMLeaderStyle
  3
ACDB_MLEADERSTYLE_CLASS
 90
     4095
280
     0
281
     0
  0
CLASS
  1
SUN
  2
AcDbSun
  3
SCENEOE
 90
     1153
280
     0
281
     0
  0
CLASS
  1
ACDBPLACEHOLDER
  2
AcDbPlaceHolder
  3
ObjectDBX Classes
 90
        0
280
     0
281
     0
  0
CLASS
  1
LAYOUT
  2
AcDbLayout
  3
ObjectDBX Classes
 90
        0
280
     0
281
     0
  0
ENDSEC
  0
SECTION
  2
TABLES
  0
TABLE
  2
VPORT
  5
8
330
0
100
AcDbSymbolTable
 70
     1
  0
VPORT
  5
29
330
8
100
AcDbSymbolTableRecord
100
AcDbViewportTableRecord
  2
*Active
 70
     0
 10
0.0
 20
0.0
 11
1.0
 21
1.0
 12
148.5
 22
105.0
 13
0.0
 23
0.0
 14
10.0
 24
10.0
 15
10.0
 25
10.0
 16
0.0
 26
0.0
 36
1.0
 17
0.0
 27
0.0
 37
0.0
 40
210.0
 41
1.4142857143
 42
50.0
 43
0.0
 44
0.0
 50
0.0
 51
0.0
 71
     0
 72
  2000
 73
     1
 74
     3
 75
     0
 76
     0
 77
     0
 78
     0
281
     0
 65
     1
110
0.0
120
0.0
130
0.0
111
1.0
121
0.0
131
0.0
112
0.0
122
1.0
132
0.0
 79
     0
146
0.0
  0
ENDTAB
  0
TABLE
  2
LTYPE
  5
5
330
0
100
AcDbSymbolTable
 70
     6
  0
LTYPE
  5
14
330
5
100
AcDbSymbolTableRecord
100
AcDbLinetypeTableRecord
  2
ByBlock
 70
     0
  3

 72
    65
 73
     0
 40
0.0
  0
LTYPE
  5
15
330
5
100
AcDbSymbolTableRecord
100
AcDbLinetypeTableRecord
  2
ByLayer
 70
     0
  3

 72
    65
 73
     0
 40
0.0
  0
LTYPE
  5
16
330
5
100
AcDbSymbolTableRecord
100
AcDbLinetypeTableRecord
  2
Continuous
 70
     0
  3
Solid line
 72
    65
 73
     0
 40
0.0
  0
LTYPE
  5
6E
330
5
100
AcDbSymbolTableRecord
100
AcDbLinetypeTableRecord
  2
HIDDEN
 70
     0
  3
Hidden __ __ __ __ __ __ __ __ __ __ __ __ __ __
 72
    65
 73
     2
 40
1.905
 49
1.27
 74
     0
 49
-0.635
 74
     0
  0
LTYPE
  5
6F
330
5
100
AcDbSymbolTableRecord
100
AcDbLinetypeTableRecord
  2
PHANTOM
 70
     0
  3
Phantom ______  __  __  ______  __  __  ______
 72
    65
 73
     6
 40
12.7
 49
6.35
 74
     0
 49
-1.27
 74
     0
 49
1.27
 74
     0
 49
-1.27
 74
     0
 49
1.27
 74
     0
 49
-1.27
 74
     0
  0
LTYPE
  5
70
330
5
100
AcDbSymbolTableRecord
100
AcDbLinetypeTableRecord
  2
CENTER
 70
     0
  3
Center ____ _ ____ _ ____ _ ____ _ ____ _ ____
 72
    65
 73
     4
 40
10.16
 49
6.35
 74
     0
 49
-1.27
 74
     0
 49
1.27
 74
     0
 49
-1.27
 74
     0
  0
LTYPE
  5
71
330
5
100
AcDbSymbolTableRecord
100
AcDbLinetypeTableRecord
  2
CENTERX2
 70
     0
  3
Center (2x) ________  __  ________  __  _____
 72
    65
 73
     4
 40
20.32
 49
12.7
 74
     0
 49
-2.54
 74
     0
 49
2.54
 74
     0
 49
-2.54
 74
     0
  0
LTYPE
  5
72
330
5
100
AcDbSymbolTableRecord
100
AcDbLinetypeTableRecord
  2
DOT2
 70
     0
  3
Dot (.5x) ........................................
 72
    65
 73
     2
 40
0.635
 49
0.0
 74
     0
 49
-0.635
 74
     0
  0
ENDTAB
  0
TABLE
  2
LAYER
  5
2
330
0
100
AcDbSymbolTable
 70
     5
  0
LAYER
  5
10
330
2
100
AcDbSymbolTableRecord
100
AcDbLayerTableRecord
  2
0
 70
     0
 62
     7
  6
Continuous
370
    -3
390
F
  0
LAYER
  5
73
330
2
100
AcDbSymbolTableRecord
100
AcDbLayerTableRecord
  2
FORMAT
 70
     0
 62
     7
  6
Continuous
370
    -3
390
F
  0
LAYER
  5
74
330
2
100
AcDbSymbolTableRecord
100
AcDbLayerTableRecord
  2
VERMASSUNG
 70
     0
 62
     7
  6
Continuous
370
    -3
390
F
  0
LAYER
  5
75
330
2
100
AcDbSymbolTableRecord
100
AcDbLayerTableRecord
  2
KOPF_DÜNN
 70
     0
 62
     7
  6
Continuous
370
    -3
390
F
  0
LAYER
  5
76
330
2
100
AcDbSymbolTableRecord
100
AcDbLayerTableRecord
  2
KOPF_DICK
 70
     0
 62
     7
  6
Continuous
370
    25
390
F
  0
ENDTAB
  0
TABLE
  2
STYLE
  5
3
330
0
100
AcDbSymbolTable
 70
     3
  0
STYLE
  5
11
330
3
100
AcDbSymbolTableRecord
100
AcDbTextStyleTableRecord
  2
Standard
 70
     0
 40
0.0
 41
1.0
 50
0.0
 71
     0
 42
2.0
  3
txt
  4

  0
STYLE
  5
77
330
3
100
AcDbSymbolTableRecord
100
AcDbTextStyleTableRecord
  2
SLDTEXTSTYLE0
 70
     0
 40
0.0
 41
0.7
 50
0.0
 71
     0
 42
2.0
  3
TXT
  4

  0
STYLE
  5
7B
330
3
100
AcDbSymbolTableRecord
100
AcDbTextStyleTableRecord
  2
SLDTEXTSTYLE1
 70
     0
 40
0.0
 41
0.6538461538
 50
0.0
 71
     0
 42
2.0
  3
TXT
  4

  0
ENDTAB
  0
TABLE
  2
VIEW
  5
6
330
0
100
AcDbSymbolTable
 70
     0
  0
ENDTAB
  0
TABLE
  2
UCS
  5
7
330
0
100
AcDbSymbolTable
 70
     0
  0
ENDTAB
  0
TABLE
  2
APPID
  5
9
330
0
100
AcDbSymbolTable
 70
     1
  0
APPID
  5
12
330
9
100
AcDbSymbolTableRecord
100
AcDbRegAppTableRecord
  2
ACAD
 70
     0
  0
ENDTAB
  0
TABLE
  2
DIMSTYLE
  5
A
330
0
100
AcDbSymbolTable
 70
     4
100
AcDbDimStyleTable
  0
DIMSTYLE
105
27
330
A
100
AcDbSymbolTableRecord
100
AcDbDimStyleTableRecord
  2
ISO-25
 70
     0
 41
2.5
 42
0.625
 43
3.75
 44
1.25
 73
     0
 74
     0
 77
     1
 78
     8
140
2.5
141
2.5
143
0.0393700787
147
0.625
171
     3
172
     1
178
     0
271
     2
272
     2
274
     3
278
    44
283
     0
284
     8
340
11
  0
DIMSTYLE
105
1F6
102
{ACAD_REACTORS
330
1F5
330
20B
330
215
330
21F
102
}
330
A
100
AcDbSymbolTableRecord
100
AcDbDimStyleTableRecord
  2
SLDDIMSTYLE0
 70
     0
 41
3.0
 44
0.0
 45
0.000000001
 73
     0
 74
     0
 77
     1
 78
    12
 79
     3
140
2.0
147
0.5
173
     1
178
     0
271
     2
272
     3
276
     2
284
    12
340
77
  0
DIMSTYLE
105
202
102
{ACAD_REACTORS
330
201
102
}
330
A
100
AcDbSymbolTableRecord
100
AcDbDimStyleTableRecord
  2
SLDDIMSTYLE1
 70
     0
 41
3.0
 44
0.0
 45
0.000000001
 73
     0
 74
     0
 76
     1
 77
     1
 78
    12
 79
     3
140
2.0
147
0.5
173
     1
178
     0
271
     2
272
     3
276
     2
282
     1
284
    12
340
77
  0
DIMSTYLE
105
22A
102
{ACAD_REACTORS
330
229
102
}
330
A
100
AcDbSymbolTableRecord
100
AcDbDimStyleTableRecord
  2
SLDDIMSTYLE2
 70
     0
 41
3.0
 44
0.0
 45
0.000000001
 73
     0
 74
     0
 77
     1
 78
    12
 79
     3
140
2.0
147
0.5
173
     1
178
     0
271
     1
272
     3
276
     2
284
    12
340
77
  0
ENDTAB
  0
TABLE
  2
BLOCK_RECORD
  5
1
330
0
100
AcDbSymbolTable
 70
     7
  0
BLOCK_RECORD
  5
1F
330
1
100
AcDbSymbolTableRecord
100
AcDbBlockTableRecord
  2
*Model_Space
340
22
  0
BLOCK_RECORD
  5
1B
330
1
100
AcDbSymbolTableRecord
100
AcDbBlockTableRecord
  2
*Paper_Space
340
1E
  0
BLOCK_RECORD
  5
23
330
1
100
AcDbSymbolTableRecord
100
AcDbBlockTableRecord
  2
*Paper_Space0
340
26
  0
BLOCK_RECORD
  5
1F7
330
1
100
AcDbSymbolTableRecord
100
AcDbBlockTableRecord
  2
_D
340
0
  0
BLOCK_RECORD
  5
203
330
1
100
AcDbSymbolTableRecord
100
AcDbBlockTableRecord
  2
_D_1
340
0
  0
BLOCK_RECORD
  5
20C
330
1
100
AcDbSymbolTableRecord
100
AcDbBlockTableRecord
  2
_D_2
340
0
  0
BLOCK_RECORD
  5
216
330
1
100
AcDbSymbolTableRecord
100
AcDbBlockTableRecord
  2
_D_3
340
0
  0
BLOCK_RECORD
  5
220
330
1
100
AcDbSymbolTableRecord
100
AcDbBlockTableRecord
  2
_D_4
340
0
  0
BLOCK_RECORD
  5
22B
330
1
100
AcDbSymbolTableRecord
100
AcDbBlockTableRecord
  2
_D_5
340
0
  0
ENDTAB
  0
ENDSEC
  0
SECTION
  2
BLOCKS
  0
BLOCK
  5
20
330
1F
100
AcDbEntity
  8
0
100
AcDbBlockBegin
  2
*Model_Space
 70
     0
 10
0.0
 20
0.0
 30
0.0
  3
*Model_Space
  1

  0
ENDBLK
  5
21
330
1F
100
AcDbEntity
  8
0
100
AcDbBlockEnd
  0
BLOCK
  5
1C
330
1B
100
AcDbEntity
 67
     1
  8
0
100
AcDbBlockBegin
  2
*Paper_Space
 70
     0
 10
0.0
 20
0.0
 30
0.0
  3
*Paper_Space
  1

  0
ENDBLK
  5
1D
330
1B
100
AcDbEntity
 67
     1
  8
0
100
AcDbBlockEnd
  0
BLOCK
  5
24
330
23
100
AcDbEntity
  8
0
100
AcDbBlockBegin
  2
*Paper_Space0
 70
     0
 10
0.0
 20
0.0
 30
0.0
  3
*Paper_Space0
  1

  0
ENDBLK
  5
25
330
23
100
AcDbEntity
  8
0
100
AcDbBlockEnd
  0
BLOCK
  5
1F8
330
1F7
100
AcDbEntity
  8
0
100
AcDbBlockBegin
  2
_D
 70
     0
 10
0.0
 20
0.0
 30
0.0
  3
_D
  1

  0
SOLID
  5
1FA
330
1F7
100
AcDbEntity
  8
VERMASSUNG
100
AcDbTrace
 10
259.7841945927
 20
120.6882406639
 30
0.0
 11
259.3341945927
 21
117.6882406639
 31
0.0
 12
260.2341945927
 22
117.6882406639
 32
0.0
 13
260.2341945927
 23
117.6882406639
 33
0.0
  0
SOLID
  5
1FB
330
1F7
100
AcDbEntity
  8
VERMASSUNG
100
AcDbTrace
 10
259.7841945927
 20
95.6882406639
 30
0.0
 11
260.2341945927
 21
98.6882406639
 31
0.0
 12
259.3341945927
 22
98.6882406639
 32
0.0
 13
259.3341945927
 23
98.6882406639
 33
0.0
  0
LINE
  5
1FC
330
1F7
100
AcDbEntity
  8
VERMASSUNG
100
AcDbLine
 10
215.9078288367
 20
120.6882406639
 30
0.0
 11
260.7841945927
 21
120.6882406639
 31
0.0
  0
LINE
  5
1FD
330
1F7
100
AcDbEntity
  8
VERMASSUNG
100
AcDbLine
 10
215.9078288367
 20
95.6882406639
 30
0.0
 11
260.7841945927
 21
95.6882406639
 31
0.0
  0
LINE
  5
1FE
330
1F7
100
AcDbEntity
  8
VERMASSUNG
100
AcDbLine
 10
259.7841945927
 20
120.6882406639
 30
0.0
 11
259.7841945927
 21
95.6882406639
 31
0.0
  0
MTEXT
  5
1FF
330
1F7
100
AcDbEntity
  8
VERMASSUNG
100
AcDbMText
 10
257.2060592878
 20
104.9832407067
 30
0.0
 40
2.0
 41
0.0
 71
     1
 72
     1
  1
%%c
  7
SLDTEXTSTYLE0
 11
-7.044195017643634E-15
 21
1.0
 31
0.0
 73
     1
 44
1.0
  0
MTEXT
  5
200
330
1F7
100
AcDbEntity
  8
VERMASSUNG
100
AcDbMText
 10
257.0060593365
 20
108.593240721
 30
0.0
 40
2.0
 41
0.0
 71
     1
 72
     1
  1
25
  7
SLDTEXTSTYLE0
 11
-7.044195017643634E-15
 21
1.0
 31
0.0
 73
     1
 44
1.0
  0
ENDBLK
  5
1F9
330
1F7
100
AcDbEntity
  8
0
100
AcDbBlockEnd
  0
BLOCK
  5
204
330
203
100
AcDbEntity
  8
0
100
AcDbBlockBegin
  2
_D_1
 70
     0
 10
0.0
 20
0.0
 30
0.0
  3
_D_1
  1

  0
SOLID
  5
206
330
203
100
AcDbEntity
  8
VERMASSUNG
100
AcDbTrace
 10
250.1024262902
 20
111.1882406639
 30
0.0
 11
249.6524262902
 21
108.1882406639
 31
0.0
 12
250.5524262902
 22
108.1882406639
 32
0.0
 13
250.5524262902
 23
108.1882406639
 33
0.0
  0
LINE
  5
207
330
203
100
AcDbEntity
  8
VERMASSUNG
100
AcDbLine
 10
204.4858565188
 20
111.1882406639
 30
0.0
 11
251.1024262902
 21
111.1882406639
 31
0.0
  0
LINE
  5
208
330
203
100
AcDbEntity
  8
VERMASSUNG
100
AcDbLine
 10
250.1024262902
 20
111.1882406639
 30
0.0
 11
250.1024262902
 21
105.6832406817
 31
0.0
  0
MTEXT
  5
209
330
203
100
AcDbEntity
  8
VERMASSUNG
100
AcDbMText
 10
247.5242909853
 20
105.6832406817
 30
0.0
 40
2.0
 41
0.0
 71
     1
 72
     1
  1
%%c
  7
SLDTEXTSTYLE0
 11
-7.044195017643634E-15
 21
1.0
 31
0.0
 73
     1
 44
1.0
  0
MTEXT
  5
20A
330
203
100
AcDbEntity
  8
VERMASSUNG
100
AcDbMText
 10
247.324291034
 20
109.293240696
 30
0.0
 40
2.0
 41
0.0
 71
     1
 72
     1
  1
6
  7
SLDTEXTSTYLE0
 11
-7.044195017643634E-15
 21
1.0
 31
0.0
 73
     1
 44
1.0
  0
ENDBLK
  5
205
330
203
100
AcDbEntity
  8
0
100
AcDbBlockEnd
  0
BLOCK
  5
20D
330
20C
100
AcDbEntity
  8
0
100
AcDbBlockBegin
  2
_D_2
 70
     0
 10
0.0
 20
0.0
 30
0.0
  3
_D_2
  1

  0
SOLID
  5
20F
330
20C
100
AcDbEntity
  8
VERMASSUNG
100
AcDbTrace
 10
142.4858565188
 20
149.6632406639
 30
0.0
 11
145.4858565188
 21
149.2132406639
 31
0.0
 12
145.4858565188
 22
150.1132406639
 32
0.0
 13
145.4858565188
 23
150.1132406639
 33
0.0
  0
SOLID
  5
210
330
20C
100
AcDbEntity
  8
VERMASSUNG
100
AcDbTrace
 10
224.4858565188
 20
149.6632406639
 30
0.0
 11
221.4858565188
 21
150.1132406639
 31
0.0
 12
221.4858565188
 22
149.2132406639
 32
0.0
 13
221.4858565188
 23
149.2132406639
 33
0.0
  0
LINE
  5
211
330
20C
100
AcDbEntity
  8
VERMASSUNG
100
AcDbLine
 10
142.4858565188
 20
139.6632406639
 30
0.0
 11
142.4858565188
 21
150.6632406639
 31
0.0
  0
LINE
  5
212
330
20C
100
AcDbEntity
  8
VERMASSUNG
100
AcDbLine
 10
224.4858565188
 20
111.4882406639
 30
0.0
 11
224.4858565188
 21
150.6632406639
 31
0.0
  0
LINE
  5
213
330
20C
100
AcDbEntity
  8
VERMASSUNG
100
AcDbLine
 10
142.4858565188
 20
149.6632406639
 30
0.0
 11
224.4858565188
 21
149.6632406639
 31
0.0
  0
MTEXT
  5
214
330
20C
100
AcDbEntity
  8
VERMASSUNG
100
AcDbMText
 10
182.0858565687
 20
152.2413762599
 30
0.0
 40
2.0
 41
0.0
 71
     1
 72
     1
  1
82
  7
SLDTEXTSTYLE0
 73
     1
 44
1.0
  0
ENDBLK
  5
20E
330
20C
100
AcDbEntity
  8
0
100
AcDbBlockEnd
  0
BLOCK
  5
217
330
216
100
AcDbEntity
  8
0
100
AcDbBlockBegin
  2
_D_3
 70
     0
 10
0.0
 20
0.0
 30
0.0
  3
_D_3
  1

  0
SOLID
  5
219
330
216
100
AcDbEntity
  8
VERMASSUNG
100
AcDbTrace
 10
124.4858565188
 20
158.2413406304
 30
0.0
 11
127.4858565188
 21
157.7913406304
 31
0.0
 12
127.4858565188
 22
158.6913406304
 32
0.0
 13
127.4858565188
 23
158.6913406304
 33
0.0
  0
SOLID
  5
21A
330
216
100
AcDbEntity
  8
VERMASSUNG
100
AcDbTrace
 10
224.4858565188
 20
158.2413406304
 30
0.0
 11
221.4858565188
 21
158.6913406304
 31
0.0
 12
221.4858565188
 22
157.7913406304
 32
0.0
 13
221.4858565188
 23
157.7913406304
 33
0.0
  0
LINE
  5
21B
330
216
100
AcDbEntity
  8
VERMASSUNG
100
AcDbLine
 10
124.4858565188
 20
139.4632406639
 30
0.0
 11
124.4858565188
 21
159.2413406304
 31
0.0
  0
LINE
  5
21C
330
216
100
AcDbEntity
  8
VERMASSUNG
100
AcDbLine
 10
224.4858565188
 20
115.4141001423
 30
0.0
 11
224.4858565188
 21
159.2413406304
 31
0.0
  0
LINE
  5
21D
330
216
100
AcDbEntity
  8
VERMASSUNG
100
AcDbLine
 10
124.4858565188
 20
158.2413406304
 30
0.0
 11
224.4858565188
 21
158.2413406304
 31
0.0
  0
MTEXT
  5
21E
330
216
100
AcDbEntity
  8
VERMASSUNG
100
AcDbMText
 10
172.5858564867
 20
160.8194762263
 30
0.0
 40
2.0
 41
0.0
 71
     1
 72
     1
  1
100
  7
SLDTEXTSTYLE0
 73
     1
 44
1.0
  0
ENDBLK
  5
218
330
216
100
AcDbEntity
  8
0
100
AcDbBlockEnd
  0
BLOCK
  5
221
330
220
100
AcDbEntity
  8
0
100
AcDbBlockBegin
  2
_D_4
 70
     0
 10
0.0
 20
0.0
 30
0.0
  3
_D_4
  1

  0
SOLID
  5
223
330
220
100
AcDbEntity
  8
VERMASSUNG
100
AcDbTrace
 10
84.5358565188
 20
165.5777548279
 30
0.0
 11
87.5358565188
 21
165.1277548279
 31
0.0
 12
87.5358565188
 22
166.0277548279
 32
0.0
 13
87.5358565188
 23
166.0277548279
 33
0.0
  0
SOLID
  5
224
330
220
100
AcDbEntity
  8
VERMASSUNG
100
AcDbTrace
 10
224.4858565188
 20
165.5777548279
 30
0.0
 11
221.4858565188
 21
166.0277548279
 31
0.0
 12
221.4858565188
 22
165.1277548279
 32
0.0
 13
221.4858565188
 23
165.1277548279
 33
0.0
  0
LINE
  5
225
330
220
100
AcDbEntity
  8
VERMASSUNG
100
AcDbLine
 10
84.5358565188
 20
130.3913353877
 30
0.0
 11
84.5358565188
 21
166.5777548279
 31
0.0
  0
LINE
  5
226
330
220
100
AcDbEntity
  8
VERMASSUNG
100
AcDbLine
 10
224.4858565188
 20
115.4141001423
 30
0.0
 11
224.4858565188
 21
166.5777548279
 31
0.0
  0
LINE
  5
227
330
220
100
AcDbEntity
  8
VERMASSUNG
100
AcDbLine
 10
84.5358565188
 20
165.5777548279
 30
0.0
 11
224.4858565188
 21
165.5777548279
 31
0.0
  0
MTEXT
  5
228
330
220
100
AcDbEntity
  8
VERMASSUNG
100
AcDbMText
 10
150.9108565806
 20
168.1558904238
 30
0.0
 40
2.0
 41
0.0
 71
     1
 72
     1
  1
139.95
  7
SLDTEXTSTYLE0
 73
     1
 44
1.0
  0
ENDBLK
  5
222
330
220
100
AcDbEntity
  8
0
100
AcDbBlockEnd
  0
BLOCK
  5
22C
330
22B
100
AcDbEntity
  8
0
100
AcDbBlockBegin
  2
_D_5
 70
     0
 10
0.0
 20
0.0
 30
0.0
  3
_D_5
  1

  0
SOLID
  5
22E
330
22B
100
AcDbEntity
  8
VERMASSUNG
100
AcDbTrace
 10
62.5358315188
 20
139.6632406639
 30
0.0
 11
62.0858315188
 21
136.6632406639
 31
0.0
 12
62.9858315188
 22
136.6632406639
 32
0.0
 13
62.9858315188
 23
136.6632406639
 33
0.0
  0
SOLID
  5
22F
330
22B
100
AcDbEntity
  8
VERMASSUNG
100
AcDbTrace
 10
62.5358315188
 20
76.7132406639
 30
0.0
 11
62.9858315188
 21
79.7132406639
 31
0.0
 12
62.0858315188
 22
79.7132406639
 32
0.0
 13
62.0858315188
 23
79.7132406639
 33
0.0
  0
LINE
  5
230
330
22B
100
AcDbEntity
  8
VERMASSUNG
100
AcDbLine
 10
124.6858565188
 20
139.6632406639
 30
0.0
 11
61.5358315188
 21
139.6632406639
 31
0.0
  0
LINE
  5
231
330
22B
100
AcDbEntity
  8
VERMASSUNG
100
AcDbLine
 10
124.6858565188
 20
76.7132406639
 30
0.0
 11
61.5358315188
 21
76.7132406639
 31
0.0
  0
LINE
  5
232
330
22B
100
AcDbEntity
  8
VERMASSUNG
100
AcDbLine
 10
62.5358315188
 20
139.6632406639
 30
0.0
 11
62.5358315188
 21
76.7132406639
 31
0.0
  0
MTEXT
  5
233
330
22B
100
AcDbEntity
  8
VERMASSUNG
100
AcDbMText
 10
59.7576962626
 20
100.0832420455
 30
0.0
 40
2.0
 41
0.0
 71
     1
 72
     1
  1
KM
  7
SLDTEXTSTYLE0
 11
-7.044195017643634E-15
 21
1.0
 31
0.0
 73
     1
 44
1.0
  0
MTEXT
  5
234
330
22B
100
AcDbEntity
  8
VERMASSUNG
100
AcDbMText
 10
59.9576962139
 20
103.4832418578
 30
0.0
 40
2.0
 41
0.0
 71
     1
 72
     1
  1
%%c
  7
SLDTEXTSTYLE0
 11
-7.044195017643634E-15
 21
1.0
 31
0.0
 73
     1
 44
1.0
  0
MTEXT
  5
235
330
22B
100
AcDbEntity
  8
VERMASSUNG
100
AcDbMText
 10
59.7576962626
 20
107.0932418721
 30
0.0
 40
2.0
 41
0.0
 71
     1
 72
     1
  1
63
  7
SLDTEXTSTYLE0
 11
-7.044195017643634E-15
 21
1.0
 31
0.0
 73
     1
 44
1.0
  0
MTEXT
  5
236
330
22B
100
AcDbEntity
  8
VERMASSUNG
100
AcDbMText
 10
59.7576962626
 20
111.0807417722
 30
0.0
 40
2.0
 41
0.0
 71
     1
 72
     1
  1
XMZ
  7
SLDTEXTSTYLE0
 11
-7.044195017643634E-15
 21
1.0
 31
0.0
 73
     1
 44
1.0
  0
ENDBLK
  5
22D
330
22B
100
AcDbEntity
  8
0
100
AcDbBlockEnd
  0
ENDSEC
  0
SECTION
  2
ENTITIES
  0
MTEXT
  5
78
330
1F
100
AcDbEntity
  8
KOPF_DÜNN
100
AcDbMText
 10
13.8892156294
 20
23.8442973028
 30
0.0
 40
3.0
 41
0.0
 71
     1
 72
     1
  1
KY6.W06.K01.100
  7
SLDTEXTSTYLE0
 73
     1
 44
1.0
  0
MTEXT
  5
79
330
1F
100
AcDbEntity
  8
VERMASSUNG
100
AcDbMText
 10
13.9329988022
 20
28.8834360957
 30
0.0
 40
3.0
 41
0.0
 71
     1
 72
     1
  1
Flächenspannfutter Weldon_End mill adapter Weldon
  7
SLDTEXTSTYLE0
 73
     1
 44
1.0
  0
MTEXT
  5
7A
330
1F
100
AcDbEntity
  8
VERMASSUNG
100
AcDbMText
 10
98.8601118557
 20
13.8365368761
 30
0.0
 40
2.0
 41
0.0
 71
     1
 72
     1
  1
Datum: 16.02.2018
  7
SLDTEXTSTYLE0
 73
     1
 44
1.0
  0
MTEXT
  5
7C
330
1F
100
AcDbEntity
  8
VERMASSUNG
100
AcDbMText
 10
13.933048693
 20
18.0482802738
 30
0.0
 40
2.0
 41
0.0
 71
     1
 72
     1
  1
KM63 XMZ / Ø6
  7
SLDTEXTSTYLE1
 73
     1
 44
1.0
  0
MTEXT
  5
7D
330
1F
100
AcDbEntity
  8
VERMASSUNG
100
AcDbMText
 10
13.9808475933
 20
13.9090974274
 30
0.0
 40
2.0
 41
0.0
 71
     1
 72
     1
  1
Gewicht: 895g
  7
SLDTEXTSTYLE0
 73
     1
 44
1.0
  0
LINE
  5
7E
330
1F
100
AcDbEntity
  8
0
  6
Continuous
 62
     7
370
    25
100
AcDbLine
 10
373.6197382314
 20
109.2236061669
 30
0.0
 11
373.6551037344
 21
109.1882406639
 31
0.0
  0
LINE
  5
7F
330
1F
100
AcDbEntity
  8
0
  6
Continuous
 62
     7
370
    25
100
AcDbLine
 10
375.7551037344
 20
109.1882406639
 30
0.0
 11
375.7904692375
 21
109.2236061669
 31
0.0
  0
LINE
  5
80
330
1F
100
AcDbEntity
  8
0
  6
Continuous
 62
     7
370
    25
100
AcDbLine
 10
374.321046447
 20
109.6382406639
 30
0.0
 11
375.0891610218
 21
109.6382406639
 31
0.0
  0
LINE
  5
81
330
1F
100
AcDbEntity
  8
0
  6
Continuous
 62
     7
370
    25
100
AcDbLine
 10
373.6551037344
 20
109.1882406639
 30
0.0
 11
375.7551037344
 21
109.1882406639
 31
0.0
  0
SPLINE
  5
82
330
1F
100
AcDbEntity
  8
0
  6
Continuous
 62
     7
370
    25
100
AcDbSpline
210
0.0
220
0.0
230
1.0
 70
     8
 71
     3
 72
     8
 73
     4
 74
     0
 42
0.000000001
 43
0.00000001
 40
0.0
 40
0.0
 40
0.0
 40
0.0
 40
1.0
 40
1.0
 40
1.0
 40
1.0
 10
364.3159636248068
 20
103.8182397919355
 30
0.0
 10
364.2471252546201
 20
103.7551451186166
 30
0.0
 10
364.178693894164
 20
103.6914227404857
 30
0.0
 10
364.1106776194992
 20
103.6270773082123
 30
0.0
  0
SPLINE
  5
83
330
1F
100
AcDbEntity
  8
0
  6
Continuous
 62
     7
370
    25
100
AcDbSpline
210
0.0
220
0.0
230
1.0
 70
     8
 71
     3
 72
     8
 73
     4
 74
     0
 42
0.000000001
 43
0.00000001
 40
0.0
 40
0.0
 40
0.0
 40
0.0
 40
1.0
 40
1.0
 40
1.0
 40
1.0
 10
364.5739908660675
 20
103.6489779620081
 30
0.0
 10
364.4872874319071
 20
103.7051388816774
 30
0.0
 10
364.4012893844233
 20
103.7615636180033
 30
0.0
 10
364.3159636248068
 20
103.8182397919355
 30
0.0
  0
ARC
  5
84
330
1F
100
AcDbEntity
  8
0
  6
Continuous
 62
     7
370
    25
100
AcDbCircle
 10
374.7051037344
 20
108.1882406639
 30
0.0
 40
11.10154736189901
100
AcDbArc
 50
204.1348482805
 51
335.8651517195
  0
SPLINE
  5
85
330
1F
100
AcDbEntity
  8
0
  6
Continuous
 62
     7
370
    25
100
AcDbSpline
210
0.0
220
0.0
230
1.0
 70
     8
 71
     3
 72
     8
 73
     4
 74
     0
 42
0.000000001
 43
0.00000001
 40
0.0
 40
0.0
 40
0.0
 40
0.0
 40
1.0
 40
1.0
 40
1.0
 40
1.0
 10
385.0942438440726
 20
103.8182397919355
 30
0.0
 10
385.0089180844561
 20
103.7615636180033
 30
0.0
 10
384.9229200369723
 20
103.7051388816774
 30
0.0
 10
384.8362166028119
 20
103.6489779620081
 30
0.0
  0
SPLINE
  5
86
330
1F
100
AcDbEntity
  8
0
  6
Continuous
 62
     7
370
    25
100
AcDbSpline
210
0.0
220
0.0
230
1.0
 70
     8
 71
     3
 72
     8
 73
     4
 74
     0
 42
0.000000001
 43
0.00000001
 40
0.0
 40
0.0
 40
0.0
 40
0.0
 40
1.0
 40
1.0
 40
1.0
 40
1.0
 10
385.2995298493802
 20
103.6270773082123
 30
0.0
 10
385.2315135747154
 20
103.6914227404857
 30
0.0
 10
385.1630822142594
 20
103.7551451186166
 30
0.0
 10
385.0942438440726
 20
103.8182397919355
 30
0.0
  0
ARC
  5
87
330
1F
100
AcDbEntity
  8
0
  6
Continuous
 62
     7
370
    25
100
AcDbCircle
 10
374.7051037344
 20
108.1882406639
 30
0.0
 40
11.53456006379122
100
AcDbArc
 50
203.2930774359
 51
336.7074733161
  0
ARC
  5
88
330
1F
100
AcDbEntity
  8
0
  6
Continuous
 62
     7
370
    25
100
AcDbCircle
 10
374.7051037344
 20
108.1882406639
 30
0.0
 40
11.10154736189894
100
AcDbArc
 50
29.4783538465
 51
150.5216461535
  0
SPLINE
  5
89
330
1F
100
AcDbEntity
  8
0
  6
Continuous
 62
     7
370
    25
100
AcDbSpline
210
0.0
220
0.0
230
1.0
 70
     8
 71
     3
 72
     8
 73
     4
 74
     0
 42
0.000000001
 43
0.00000001
 40
0.0
 40
0.0
 40
0.0
 40
0.0
 40
1.0
 40
1.0
 40
1.0
 40
1.0
 10
364.7291706851153
 20
113.4665399132896
 30
0.0
 10
364.8320665989392
 20
113.5285085223805
 30
0.0
 10
364.9359062684941
 20
113.5900871745211
 30
0.0
 10
365.0407441567207
 20
113.6512533657926
 30
0.0
  0
SPLINE
  5
8A
330
1F
100
AcDbEntity
  8
0
  6
Continuous
 62
     7
370
    25
100
AcDbSpline
210
0.0
220
0.0
230
1.0
 70
     8
 71
     3
 72
     8
 73
     4
 74
     0
 42
0.000000001
 43
0.00000001
 40
0.0
 40
0.0
 40
0.0
 40
0.0
 40
1.0
 40
1.0
 40
1.0
 40
1.0
 10
364.5406343040014
 20
113.6407297341592
 30
0.0
 10
364.603202612371
 20
113.5822792650516
 30
0.0
 10
364.6660492057349
 20
113.5242152545185
 30
0.0
 10
364.7291706851177
 20
113.4665399132873
 30
0.0
  0
ARC
  5
8B
330
1F
100
AcDbEntity
  8
0
  6
Continuous
 62
     7
370
    25
100
AcDbCircle
 10
374.7051037344
 20
108.1882406639
 30
0.0
 40
11.53456006379119
100
AcDbArc
 50
28.2102805322
 51
151.7902347364
  0
SPLINE
  5
8C
330
1F
100
AcDbEntity
  8
0
  6
Continuous
 62
     7
370
    25
100
AcDbSpline
210
0.0
220
0.0
230
1.0
 70
     8
 71
     3
 72
     8
 73
     4
 74
     0
 42
0.000000001
 43
0.00000001
 40
0.0
 40
0.0
 40
0.0
 40
0.0
 40
1.0
 40
1.0
 40
1.0
 40
1.0
 10
384.681036783762
 20
113.4665399132876
 30
0.0
 10
384.7441582631448
 20
113.5242152545187
 30
0.0
 10
384.8070048565085
 20
113.5822792650517
 30
0.0
 10
384.869573164878
 20
113.6407297341592
 30
0.0
  0
SPLINE
  5
8D
330
1F
100
AcDbEntity
  8
0
  6
Continuous
 62
     7
370
    25
100
AcDbSpline
210
0.0
220
0.0
230
1.0
 70
     8
 71
     3
 72
     8
 73
     4
 74
     0
 42
0.000000001
 43
0.00000001
 40
0.0
 40
0.0
 40
0.0
 40
0.0
 40
1.0
 40
1.0
 40
1.0
 40
1.0
 10
384.3694633121588
 20
113.6512533657926
 30
0.0
 10
384.474301200385
 20
113.5900871745213
 30
0.0
 10
384.5781408699395
 20
113.5285085223809
 30
0.0
 10
384.681036783763
 20
113.4665399132902
 30
0.0
  0
SPLINE
  5
8E
330
1F
100
AcDbEntity
  8
0
  6
Continuous
 62
     7
370
    25
100
AcDbSpline
210
0.0
220
0.0
230
1.0
 70
     8
 71
     3
 72
     8
 73
     4
 74
     0
 42
0.000000001
 43
0.00000001
 40
0.0000004028655191
 40
0.0000004028655191
 40
0.0000004028655191
 40
0.0000004028655191
 40
0.0015137684369673
 40
0.0015137684369673
 40
0.0015137684369673
 40
0.0015137684369673
 10
366.2815090772976
 20
103.8659652601159
 30
0.0
 10
366.0748375897463
 20
103.7936713184012
 30
0.0
 10
365.8682186212057
 20
103.7213398324444
 30
0.0
 10
365.6616422463971
 20
103.6489779620081
 30
0.0
  0
LINE
  5
8F
330
1F
100
AcDbEntity
  8
0
  6
Continuous
 62
     7
370
    25
100
AcDbLine
 10
365.6616422464
 20
103.648977962
 30
0.0
 11
364.5739908661
 21
103.648977962
 31
0.0
  0
LINE
  5
90
330
1F
100
AcDbEntity
  8
0
  6
Continuous
 62
     7
370
    25
100
AcDbLine
 10
364.5390187317
 20
104.0819906639
 30
0.0
 11
364.3159636248
 21
103.8182397919
 31
0.0
  0
LINE
  5
91
330
1F
100
AcDbEntity
  8
0
  6
Continuous
 62
     7
370
    25
100
AcDbLine
 10
366.306628559
 20
104.0819906639
 30
0.0
 11
364.5392331891
 21
104.0819906639
 31
0.0
  0
LINE
  5
92
330
1F
100
AcDbEntity
  8
0
  6
Continuous
 62
     7
370
    25
100
AcDbLine
 10
366.3172859091
 20
103.9244096288
 30
0.0
 11
366.3066285624
 21
104.0819905882
 31
0.0
  0
SPLINE
  5
93
330
1F
100
AcDbEntity
  8
0
  6
Continuous
 62
     7
370
    25
100
AcDbSpline
210
0.0
220
0.0
230
1.0
 70
     8
 71
     3
 72
     8
 73
     4
 74
     0
 42
0.000000001
 43
0.00000001
 40
0.0006523765358269
 40
0.0006523765358269
 40
0.0006523765358269
 40
0.0006523765358269
 40
0.0009043636494504
 40
0.0009043636494504
 40
0.0009043636494504
 40
0.0009043636494504
 10
366.3183859523325
 20
103.9262033575646
 30
0.0
 10
366.3060689578151
 20
103.9061277765824
 30
0.0
 10
366.293776760411
 20
103.8860483880599
 30
0.0
 10
366.2815090772976
 20
103.8659652601159
 30
0.0
  0
LINE
  5
94
330
1F
100
AcDbEntity
  8
0
  6
Continuous
 62
     7
370
    25
100
AcDbLine
 10
364.7291706851
 20
113.4665399133
 30
0.0
 11
364.9375790066
 21
113.2182406639
 31
0.0
  0
LINE
  5
95
330
1F
100
AcDbEntity
  8
0
  6
Continuous
 62
     7
370
    25
100
AcDbLine
 10
366.187792317
 20
113.6512533658
 30
0.0
 11
365.0407441567
 21
113.6512533658
 31
0.0
  0
SPLINE
  5
96
330
1F
100
AcDbEntity
  8
0
  6
Continuous
 62
     7
370
    25
100
AcDbSpline
210
0.0
220
0.0
230
1.0
 70
     8
 71
     3
 72
     8
 73
     4
 74
     0
 42
0.000000001
 43
0.00000001
 40
0.0000004089325119
 40
0.0000004089325119
 40
0.0000004089325119
 40
0.0000004089325119
 40
0.0015399868451459
 40
0.0015399868451459
 40
0.0015399868451459
 40
0.0015399868451459
 10
366.1877923170108
 20
113.6512533657926
 30
0.0
 10
366.3995535758053
 20
113.5787984831391
 30
0.0
 10
366.6114738989954
 20
113.5064596131106
 30
0.0
 10
366.8235918822098
 20
113.4342660676848
 30
0.0
  0
LINE
  5
97
330
1F
100
AcDbEntity
  8
0
  6
Continuous
 62
     7
370
    25
100
AcDbLine
 10
366.8235918822
 20
113.4342660677
 30
0.0
 11
366.8317446882
 21
113.4190536535
 31
0.0
  0
LINE
  5
98
330
1F
100
AcDbEntity
  8
0
  6
Continuous
 62
     7
370
    25
100
AcDbLine
 10
366.8293742009
 20
113.2182408333
 30
0.0
 11
366.831745686
 21
113.4190537872
 31
0.0
  0
LINE
  5
99
330
1F
100
AcDbEntity
  8
0
  6
Continuous
 62
     7
370
    25
100
AcDbLine
 10
366.8293742009
 20
113.2182406639
 30
0.0
 11
364.9375790066
 21
113.2182406639
 31
0.0
  0
LINE
  5
9A
330
1F
100
AcDbEntity
  8
0
  6
Continuous
 62
     7
370
    25
100
AcDbLine
 10
385.0942438441
 20
103.8182397919
 30
0.0
 11
384.8711887372
 21
104.0819906639
 31
0.0
  0
LINE
  5
9B
330
1F
100
AcDbEntity
  8
0
  6
Continuous
 62
     7
370
    25
100
AcDbLine
 10
384.8362166028
 20
103.648977962
 30
0.0
 11
383.7485652225
 21
103.648977962
 31
0.0
  0
SPLINE
  5
9C
330
1F
100
AcDbEntity
  8
0
  6
Continuous
 62
     7
370
    25
100
AcDbSpline
210
0.0
220
0.0
230
1.0
 70
     8
 71
     3
 72
     8
 73
     4
 74
     0
 42
0.000000001
 43
0.00000001
 40
0.0000004024872366
 40
0.0000004024872366
 40
0.0000004024872366
 40
0.0000004024872366
 40
0.0015137680586847
 40
0.0015137680586847
 40
0.0015137680586847
 40
0.0015137680586847
 10
383.7485652224823
 20
103.6489779620081
 30
0.0
 10
383.5419888476737
 20
103.7213398324444
 30
0.0
 10
383.3353698791331
 20
103.7936713184012
 30
0.0
 10
383.1286983915818
 20
103.8659652601159
 30
0.0
  0
SPLINE
  5
9D
330
1F
100
AcDbEntity
  8
0
  6
Continuous
 62
     7
370
    25
100
AcDbSpline
210
0.0
220
0.0
230
1.0
 70
     8
 71
     3
 72
     8
 73
     4
 74
     0
 42
0.000000001
 43
0.00000001
 40
0.0000002414707367
 40
0.0000002414707367
 40
0.0000002414707367
 40
0.0000002414707367
 40
0.0002447240690309
 40
0.0002447240690309
 40
0.0002447240690309
 40
0.0002447240690309
 10
383.1286983915818
 20
103.8659652601159
 30
0.0
 10
383.1167960562267
 20
103.8854502860625
 30
0.0
 10
383.104870645015
 20
103.9049317918868
 30
0.0
 10
383.0929218997201
 20
103.9244097153987
 30
0.0
  0
LINE
  5
9E
330
1F
100
AcDbEntity
  8
0
  6
Continuous
 62
     7
370
    25
100
AcDbLine
 10
383.1035788921
 20
104.0819905882
 30
0.0
 11
383.0929215404
 21
103.9244096603
 31
0.0
  0
LINE
  5
9F
330
1F
100
AcDbEntity
  8
0
  6
Continuous
 62
     7
370
    25
100
AcDbLine
 10
384.8711887372
 20
104.0819906639
 30
0.0
 11
383.0984703008
 21
104.0819906639
 31
0.0
  0
SPLINE
  5
A0
330
1F
100
AcDbEntity
  8
0
  6
Continuous
 62
     7
370
    25
100
AcDbSpline
210
0.0
220
0.0
230
1.0
 70
     8
 71
     3
 72
     8
 73
     4
 74
     0
 42
0.000000001
 43
0.00000001
 40
0.000000410413179
 40
0.000000410413179
 40
0.000000410413179
 40
0.000000410413179
 40
0.0015399883258131
 40
0.0015399883258131
 40
0.0015399883258131
 40
0.0015399883258131
 10
382.5866155866696
 20
113.4342660676848
 30
0.0
 10
382.798733569884
 20
113.5064596131106
 30
0.0
 10
383.0106538930742
 20
113.5787984831391
 30
0.0
 10
383.2224151518686
 20
113.6512533657926
 30
0.0
  0
LINE
  5
A1
330
1F
100
AcDbEntity
  8
0
  6
Continuous
 62
     7
370
    25
100
AcDbLine
 10
384.3694633122
 20
113.6512533658
 30
0.0
 11
383.2224151519
 21
113.6512533658
 31
0.0
  0
LINE
  5
A2
330
1F
100
AcDbEntity
  8
0
  6
Continuous
 62
     7
370
    25
100
AcDbLine
 10
384.4726284622
 20
113.2182406639
 30
0.0
 11
384.6810367838
 21
113.4665399133
 31
0.0
  0
LINE
  5
A3
330
1F
100
AcDbEntity
  8
0
  6
Continuous
 62
     7
370
    25
100
AcDbLine
 10
384.4724384066
 20
113.2182406639
 30
0.0
 11
382.5808334687
 21
113.2182406639
 31
0.0
  0
LINE
  5
A4
330
1F
100
AcDbEntity
  8
0
  6
Continuous
 62
     7
370
    25
100
AcDbLine
 10
382.5784616817
 20
113.4190535986
 30
0.0
 11
382.580833192
 21
113.2182408333
 31
0.0
  0
LINE
  5
A5
330
1F
100
AcDbEntity
  8
0
  6
Continuous
 62
     7
370
    25
100
AcDbLine
 10
382.5784626795
 20
113.4190534649
 30
0.0
 11
382.5866155867
 21
113.4342660677
 31
0.0
  0
ARC
  5
A6
330
1F
100
AcDbEntity
  8
0
  6
Continuous
 62
     7
370
    25
100
AcDbCircle
 10
374.7051037344
 20
108.1882406639
 30
0.0
 40
10.11875
100
AcDbArc
 50
206.6538426687
 51
333.3461573313
  0
ARC
  5
A7
330
1F
100
AcDbEntity
  8
0
  6
Continuous
 62
     7
370
    25
100
AcDbCircle
 10
374.7051037344
 20
108.1882406639
 30
0.0
 40
10.11875000000003
100
AcDbArc
 50
32.6761561262
 51
147.3238438738
  0
ARC
  5
A8
330
1F
100
AcDbEntity
  8
0
  6
Continuous
 62
     7
370
    25
100
AcDbCircle
 10
374.7051037344
 20
108.1882406639
 30
0.0
 40
9.467788105676629
100
AcDbArc
 50
33.6481949792
 51
146.3518050208
  0
ARC
  5
A9
330
1F
100
AcDbEntity
  8
0
  6
Continuous
 62
     7
370
    25
100
AcDbCircle
 10
374.7051037344
 20
108.1882406639
 30
0.0
 40
9.467788105676664
100
AcDbArc
 50
207.1630537883
 51
332.8369462117
  0
SPLINE
  5
AA
330
1F
100
AcDbEntity
  8
0
  6
Continuous
 62
     7
370
    25
100
AcDbSpline
210
0.0
220
0.0
230
1.0
 70
     8
 71
     3
 72
     8
 73
     4
 74
     0
 42
0.000000001
 43
0.00000001
 40
0.0
 40
0.0
 40
0.0
 40
0.0
 40
1.0
 40
1.0
 40
1.0
 40
1.0
 10
364.1106776193093
 20
103.6270773083237
 30
0.0
 10
364.0574347943676
 20
103.6276010345615
 30
0.0
 10
364.0041395087519
 20
103.6283991278239
 30
0.0
 10
363.9507940032624
 20
103.6294721757487
 30
0.0
  0
LINE
  5
AB
330
1F
100
AcDbEntity
  8
0
  6
Continuous
 62
     7
370
    25
100
AcDbLine
 10
364.3788816014
 20
104.0819906639
 30
0.0
 11
364.5390187317
 21
104.0819906639
 31
0.0
  0
LINE
  5
AC
330
1F
100
AcDbEntity
  8
0
  6
Continuous
 62
     7
370
    25
100
AcDbLine
 10
384.8711887372
 20
104.0819906639
 30
0.0
 11
385.0313258675
 21
104.0819906639
 31
0.0
  0
SPLINE
  5
AD
330
1F
100
AcDbEntity
  8
0
  6
Continuous
 62
     7
370
    25
100
AcDbSpline
210
0.0
220
0.0
230
1.0
 70
     8
 71
     3
 72
     8
 73
     4
 74
     0
 42
0.000000001
 43
0.00000001
 40
0.0
 40
0.0
 40
0.0
 40
0.0
 40
1.0
 40
1.0
 40
1.0
 40
1.0
 10
385.459413465617
 20
103.6294721757487
 30
0.0
 10
385.4060679601275
 20
103.6283991278239
 30
0.0
 10
385.3527726745119
 20
103.6276010345615
 30
0.0
 10
385.2995298495701
 20
103.6270773083237
 30
0.0
  0
LINE
  5
AE
330
1F
100
AcDbEntity
  8
0
  6
Continuous
 62
     7
370
    25
100
AcDbLine
 10
364.9375790066
 20
113.2182406639
 30
0.0
 11
364.8141620229
 21
113.2182406639
 31
0.0
  0
SPLINE
  5
AF
330
1F
100
AcDbEntity
  8
0
  6
Continuous
 62
     7
370
    25
100
AcDbSpline
210
0.0
220
0.0
230
1.0
 70
     8
 71
     3
 72
     8
 73
     4
 74
     0
 42
0.000000001
 43
0.00000001
 40
0.0
 40
0.0
 40
0.0
 40
0.0
 40
1.0
 40
1.0
 40
1.0
 40
1.0
 10
364.4174128097599
 20
113.6386861808367
 30
0.0
 10
364.4585282368018
 20
113.6395551184767
 30
0.0
 10
364.4996025314128
 20
113.6402361560596
 30
0.0
 10
364.5406343039019
 20
113.640729734121
 30
0.0
  0
SPLINE
  5
B0
330
1F
100
AcDbEntity
  8
0
  6
Continuous
 62
     7
370
    25
100
AcDbSpline
210
0.0
220
0.0
230
1.0
 70
     8
 71
     3
 72
     8
 73
     4
 74
     0
 42
0.000000001
 43
0.00000001
 40
0.0
 40
0.0
 40
0.0
 40
0.0
 40
1.0
 40
1.0
 40
1.0
 40
1.0
 10
384.8695731649775
 20
113.640729734121
 30
0.0
 10
384.9106049374665
 20
113.6402361560596
 30
0.0
 10
384.9516792320777
 20
113.6395551184767
 30
0.0
 10
384.9927946591195
 20
113.6386861808367
 30
0.0
  0
LINE
  5
B1
330
1F
100
AcDbEntity
  8
0
  6
Continuous
 62
     7
370
    25
100
AcDbLine
 10
384.596045446
 20
113.2182406639
 30
0.0
 11
384.4726284623
 21
113.2182406639
 31
0.0
  0
SPLINE
  5
B2
330
1F
100
AcDbEntity
  8
0
  6
Continuous
 62
     7
370
    25
100
AcDbSpline
210
0.0
220
0.0
230
1.0
 70
     8
 71
     3
 72
     9
 73
     5
 74
     0
 42
0.000000001
 43
0.00000001
 40
0.0
 40
0.0
 40
0.0
 40
0.0
 40
0.5102121239851395
 40
0.9999999999999999
 40
0.9999999999999999
 40
0.9999999999999999
 40
0.9999999999999999
 10
366.831744866125
 20
113.4190539222263
 30
0.0
 10
366.9612850839758
 20
113.4178089635354
 30
0.0
 10
367.2151799088166
 20
113.4153688829644
 30
0.0
 10
367.4731591818262
 20
113.4126764372712
 30
0.0
 10
367.5995143020096
 20
113.4113577100139
 30
0.0
  0
SPLINE
  5
B3
330
1F
100
AcDbEntity
  8
0
  6
Continuous
 62
     7
370
    25
100
AcDbSpline
210
0.0
220
0.0
230
1.0
 70
     8
 71
     3
 72
     8
 73
     4
 74
     0
 42
0.000000001
 43
0.00000001
 40
0.0
 40
0.0
 40
0.0
 40
0.0
 40
1.0
 40
1.0
 40
1.0
 40
1.0
 10
367.599514048335
 20
113.4113572407367
 30
0.0
 10
367.5917529903895
 20
113.4007990055376
 30
0.0
 10
367.5840154652937
 20
113.3902234720113
 30
0.0
 10
367.5763015499242
 20
113.3796307452318
 30
0.0
  0
SPLINE
  5
B4
330
1F
100
AcDbEntity
  8
0
  6
Continuous
 62
     7
370
    25
100
AcDbSpline
210
0.0
220
0.0
230
1.0
 70
     8
 71
     3
 72
     8
 73
     4
 74
     0
 42
0.000000001
 43
0.00000001
 40
0.0
 40
0.0
 40
0.0
 40
0.0
 40
1.0
 40
1.0
 40
1.0
 40
1.0
 10
367.4047437171611
 20
113.2182410027686
 30
0.0
 10
367.4620041241956
 20
113.2721491797564
 30
0.0
 10
367.5191905153053
 20
113.3259461048395
 30
0.0
 10
367.5763015499242
 20
113.3796307452318
 30
0.0
  0
LINE
  5
B5
330
1F
100
AcDbEntity
  8
0
  6
Continuous
 62
     7
370
    25
100
AcDbLine
 10
367.4047444169
 20
113.2182406639
 30
0.0
 11
366.8293739242
 21
113.2182406639
 31
0.0
  0
SPLINE
  5
B6
330
1F
100
AcDbEntity
  8
0
  6
Continuous
 62
     7
370
    25
100
AcDbSpline
210
0.0
220
0.0
230
1.0
 70
     8
 71
     3
 72
     9
 73
     5
 74
     0
 42
0.000000001
 43
0.00000001
 40
0.0
 40
0.0
 40
0.0
 40
0.0
 40
0.4897878789203994
 40
0.9999999999999999
 40
0.9999999999999999
 40
0.9999999999999999
 40
0.9999999999999999
 10
381.8106932990911
 20
113.4113575301381
 30
0.0
 10
381.9370483813124
 20
113.4126762558914
 30
0.0
 10
382.1950275752845
 20
113.4153686984977
 30
0.0
 10
382.448922323574
 20
113.4178087763337
 30
0.0
 10
382.5784625016297
 20
113.419053733622
 30
0.0
  0
ARC
  5
B7
330
1F
100
AcDbEntity
  8
0
  6
Continuous
 62
     7
370
    25
100
AcDbCircle
 10
374.7051037344
 20
108.1882406639
 30
0.0
 40
8.818750000000001
100
AcDbArc
 50
36.3185452201
 51
143.6814533294
  0
SPLINE
  5
B8
330
1F
100
AcDbEntity
  8
0
  6
Continuous
 62
     7
370
    25
100
AcDbSpline
210
0.0
220
0.0
230
1.0
 70
     8
 71
     3
 72
     8
 73
     4
 74
     0
 42
0.000000001
 43
0.00000001
 40
0.0
 40
0.0
 40
0.0
 40
0.0
 40
1.0
 40
1.0
 40
1.0
 40
1.0
 10
381.8340213507363
 20
113.379472230933
 30
0.0
 10
381.8262692380357
 20
113.3901179076055
 30
0.0
 10
381.8184932793684
 20
113.4007462197998
 30
0.0
 10
381.810693552765
 20
113.4113570608622
 30
0.0
  0
LINE
  5
B9
330
1F
100
AcDbEntity
  8
0
  6
Continuous
 62
     7
370
    25
100
AcDbLine
 10
382.5808334687
 20
113.2182406639
 30
0.0
 11
382.0054344522
 21
113.2182406639
 31
0.0
  0
SPLINE
  5
BA
330
1F
100
AcDbEntity
  8
0
  6
Continuous
 62
     7
370
    25
100
AcDbSpline
210
0.0
220
0.0
230
1.0
 70
     8
 71
     3
 72
     8
 73
     4
 74
     0
 42
0.000000001
 43
0.00000001
 40
0.0
 40
0.0
 40
0.0
 40
0.0
 40
1.0
 40
1.0
 40
1.0
 40
1.0
 10
381.8340213507363
 20
113.379472230933
 30
0.0
 10
381.8910844784224
 20
113.3258402805172
 30
0.0
 10
381.9482228581527
 20
113.2720961941522
 30
0.0
 10
382.0054351516265
 20
113.218241002902
 30
0.0
  0
ARC
  5
BB
330
1F
100
AcDbEntity
  8
0
  6
Continuous
 62
     7
370
    25
100
AcDbCircle
 10
374.7051037344
 20
108.1882406639
 30
0.0
 40
8.818750000000003
100
AcDbArc
 50
209.2047569376
 51
330.7952430624
  0
SPLINE
  5
BC
330
1F
100
AcDbEntity
  8
0
  6
Continuous
 62
     7
370
    25
100
AcDbSpline
210
0.0
220
0.0
230
1.0
 70
    24
 71
     3
 72
     8
 73
     4
 74
     0
 42
0.000000001
 43
0.00000001
 40
0.0
 40
0.0
 40
0.0
 40
0.0
 40
0.000136040218399
 40
0.000136040218399
 40
0.000136040218399
 40
0.000136040218399
 10
382.446239131284
 20
103.9287002330492
 30
0.0
 10
382.4318001315999
 20
103.9142612333651
 30
0.0
 10
382.4173296792376
 20
103.8997907810028
 30
0.0
 10
382.4028280806862
 20
103.8852891824514
 30
0.0
  0
SPLINE
  5
BD
330
1F
100
AcDbEntity
  8
0
  6
Continuous
 62
     7
370
    25
100
AcDbSpline
210
0.0
220
0.0
230
1.0
 70
     8
 71
     3
 72
     9
 73
     5
 74
     0
 42
0.000000001
 43
0.00000001
 40
0.0
 40
0.0
 40
0.0
 40
0.0
 40
0.5086448740973026
 40
1.0
 40
1.0
 40
1.0
 40
1.0
 10
383.0929218600403
 20
103.9244096272641
 30
0.0
 10
382.9837558110424
 20
103.9251034761091
 30
0.0
 10
382.7691344621267
 20
103.9264675886369
 30
0.0
 10
382.5526231494493
 20
103.9279644085748
 30
0.0
 10
382.4462392061494
 20
103.9286998787238
 30
0.0
  0
SPLINE
  5
BE
330
1F
100
AcDbEntity
  8
0
  6
Continuous
 62
     7
370
    25
100
AcDbSpline
210
0.0
220
0.0
230
1.0
 70
     8
 71
     3
 72
     9
 73
     5
 74
     0
 42
0.000000001
 43
0.00000001
 40
0.0
 40
0.0
 40
0.0
 40
0.0
 40
0.4913551252639757
 40
1.0
 40
1.0
 40
1.0
 40
1.0
 10
366.9639682931946
 20
103.9286998482592
 30
0.0
 10
366.8575843418025
 20
103.9279643779304
 30
0.0
 10
366.6410730123748
 20
103.9264675576247
 30
0.0
 10
366.426451647008
 20
103.9251034447704
 30
0.0
 10
366.3172855895054
 20
103.9244095957585
 30
0.0
  0
SPLINE
  5
BF
330
1F
100
AcDbEntity
  8
0
  6
Continuous
 62
     7
370
    25
100
AcDbSpline
210
0.0
220
0.0
230
1.0
 70
    24
 71
     3
 72
     8
 73
     4
 74
     0
 42
0.000000001
 43
0.00000001
 40
0.0
 40
0.0
 40
0.0
 40
0.0
 40
0.0001360401227241
 40
0.0001360401227241
 40
0.0001360401227241
 40
0.0001360401227241
 10
367.0073793881932
 20
103.8852891824514
 30
0.0
 10
366.9928777998405
 20
103.8997907708041
 30
0.0
 10
366.9784073576333
 20
103.9142612130113
 30
0.0
 10
366.9639683680599
 20
103.9287002025847
 30
0.0
  0
LINE
  5
C0
330
1F
100
AcDbEntity
  8
0
  6
Continuous
 62
     7
370
    25
100
AcDbLine
 10
366.3066284404
 20
104.0819906639
 30
0.0
 11
366.8106783125
 21
104.0819906639
 31
0.0
  0
SPLINE
  5
C1
330
1F
100
AcDbEntity
  8
0
  6
Continuous
 62
     7
370
    25
100
AcDbSpline
210
0.0
220
0.0
230
1.0
 70
     8
 71
     3
 72
     8
 73
     4
 74
     0
 42
0.000000001
 43
0.00000001
 40
0.0
 40
0.0
 40
0.0
 40
0.0
 40
1.0
 40
1.0
 40
1.0
 40
1.0
 10
366.9639685678919
 20
103.9287000029976
 30
0.0
 10
366.9128998052875
 20
103.9797424947416
 30
0.0
 10
366.8618028456514
 20
104.0308394667676
 30
0.0
 10
366.8106780041358
 20
104.0819905665088
 30
0.0
  0
SPLINE
  5
C2
330
1F
100
AcDbEntity
  8
0
  6
Continuous
 62
     7
370
    25
100
AcDbSpline
210
0.0
220
0.0
230
1.0
 70
     8
 71
     3
 72
     8
 73
     4
 74
     0
 42
0.000000001
 43
0.00000001
 40
0.0
 40
0.0
 40
0.0
 40
0.0
 40
1.0
 40
1.0
 40
1.0
 40
1.0
 10
382.5995294647437
 20
104.0819905665088
 30
0.0
 10
382.5484046333984
 20
104.0308394769536
 30
0.0
 10
382.4973076839174
 20
103.9797425150825
 30
0.0
 10
382.4462389314521
 20
103.9287000334621
 30
0.0
  0
LINE
  5
C3
330
1F
100
AcDbEntity
  8
0
  6
Continuous
 62
     7
370
    25
100
AcDbLine
 10
382.5995291564
 20
104.0819906639
 30
0.0
 11
383.1035790141
 21
104.0819906639
 31
0.0
  0
CIRCLE
  5
C4
330
1F
100
AcDbEntity
  8
0
  6
Continuous
 62
     7
370
    25
100
AcDbCircle
 10
374.7051037344
 20
108.1882406639
 30
0.0
 40
12.47086902276419
  0
SPLINE
  5
C5
330
1F
100
AcDbEntity
  8
0
  6
Continuous
 62
     7
370
    25
100
AcDbSpline
210
0.0
220
0.0
230
1.0
 70
     8
 71
     3
 72
    23
 73
    19
 74
     0
 42
0.000000001
 43
0.00000001
 40
0.0
 40
0.0
 40
0.0
 40
0.0
 40
0.0521036415675031
 40
0.1035646240925967
 40
0.1544751946736949
 40
0.2049306267473421
 40
0.2550287880844035
 40
0.3048696389141012
 40
0.3545546704609132
 40
0.4041862979523234
 40
0.4538672252126086
 40
0.5036997999421611
 40
0.5901870230746071
 40
0.674271637822954
 40
0.7565997087222995
 40
0.8378563983721267
 40
0.9187511781367398
 40
1.0
 40
1.0
 40
1.0
 40
1.0
 10
363.8658515877822
 20
112.6786513766503
 30
0.0
 10
363.879145942732
 20
112.7078192698118
 30
0.0
 10
363.9055706768101
 20
112.7657952922158
 30
0.0
 10
363.944781683034
 20
112.8486945932278
 30
0.0
 10
363.9832236378396
 20
112.9278765742453
 30
0.0
 10
364.0208112193063
 20
113.0031313910473
 30
0.0
 10
364.0574671056139
 20
113.074551045305
 30
0.0
 10
364.0931169696725
 20
113.1421476540866
 30
0.0
 10
364.1276907164337
 20
113.2059539755511
 30
0.0
 10
364.1611224103897
 20
113.2659975176203
 30
0.0
 10
364.1933492876146
 20
113.322304214347
 30
0.0
 10
364.2318507245043
 20
113.3877091961707
 30
0.0
 10
364.2745122052177
 20
113.4572702740068
 30
0.0
 10
364.3180052473407
 20
113.5240297706712
 30
0.0
 10
364.3544177441687
 20
113.575753818769
 30
0.0
 10
364.3833185506459
 20
113.6122021308209
 30
0.0
 10
364.4052360067442
 20
113.6347995277041
 30
0.0
 10
364.4133479712375
 20
113.6373887452654
 30
0.0
 10
364.41741280976
 20
113.6386861808367
 30
0.0
  0
SPLINE
  5
C6
330
1F
100
AcDbEntity
  8
0
  6
Continuous
 62
     7
370
    25
100
AcDbSpline
210
0.0
220
0.0
230
1.0
 70
     8
 71
     3
 72
     8
 73
     4
 74
     0
 42
0.000000001
 43
0.00000001
 40
0.0
 40
0.0
 40
0.0
 40
0.0
 40
1.0
 40
1.0
 40
1.0
 40
1.0
 10
363.7452136479195
 20
112.6764410192404
 30
0.0
 10
363.7854026615124
 20
112.677171329458
 30
0.0
 10
363.8255649636025
 20
112.6777518552875
 30
0.0
 10
363.865699674078
 20
112.6781828202372
 30
0.0
  0
SPLINE
  5
C7
330
1F
100
AcDbEntity
  8
0
  6
Continuous
 62
     7
370
    25
100
AcDbSpline
210
0.0
220
0.0
230
1.0
 70
     8
 71
     3
 72
    18
 73
    14
 74
     0
 42
0.000000001
 43
0.00000001
 40
0.0
 40
0.0
 40
0.0
 40
0.0
 40
0.0923824559411628
 40
0.1844689291573508
 40
0.2764953615950219
 40
0.3686975365494161
 40
0.4613092840003458
 40
0.5545607518442569
 40
0.6486768051537182
 40
0.7438756050146744
 40
0.8403674044302629
 40
0.9203921078121001
 40
1.0
 40
1.0
 40
1.0
 40
1.0
 10
363.7981526367189
 20
112.9432580261223
 30
0.0
 10
363.7999882903716
 20
112.9430497139071
 30
0.0
 10
363.8036537164545
 20
112.9426337568849
 30
0.0
 10
363.8064490460737
 20
112.9358293334188
 30
0.0
 10
363.8072513411522
 20
112.9244959547666
 30
0.0
 10
363.805885204109
 20
112.9081955597401
 30
0.0
 10
363.8024236554801
 20
112.8870443209042
 30
0.0
 10
363.7968823497107
 20
112.8610086197877
 30
0.0
 10
363.7892978816417
 20
112.8300842401365
 30
0.0
 10
363.7797208797049
 20
112.7942852086918
 30
0.0
 10
363.7688804036862
 20
112.7560343011606
 30
0.0
 10
363.7573917627473
 20
112.7168160877663
 30
0.0
 10
363.7492917778691
 20
112.6899611109168
 30
0.0
 10
363.7452523602264
 20
112.6765686825465
 30
0.0
  0
LINE
  5
C8
330
1F
100
AcDbEntity
  8
0
  6
Continuous
 62
     7
370
    25
100
AcDbLine
 10
363.7453972775
 20
112.9425103087
 30
0.0
 11
363.7981526367
 21
112.9432580261
 31
0.0
  0
SPLINE
  5
C9
330
1F
100
AcDbEntity
  8
0
  6
Continuous
 62
     7
370
    25
100
AcDbSpline
210
0.0
220
0.0
230
1.0
 70
     8
 71
     3
 72
    25
 73
    21
 74
     0
 42
0.000000001
 43
0.00000001
 40
0.0
 40
0.0
 40
0.0
 40
0.0
 40
0.0280105225426465
 40
0.0559601148860768
 40
0.0839014045043132
 40
0.1118870776786367
 40
0.1399695827588937
 40
0.1682008401739883
 40
0.196631967042422
 40
0.2253130233141467
 40
0.2542927850735845
 40
0.3799486436587335
 40
0.5057850221667067
 40
0.6313085886338298
 40
0.7532068238012468
 40
0.8039473267955921
 40
0.8535894438554446
 40
0.9025339722394071
 40
0.9511970353791085
 40
1.0
 40
1.0
 40
1.0
 40
1.0
 10
362.834435869666
 20
110.3755784064347
 30
0.0
 10
362.841414939577
 20
110.4128884199414
 30
0.0
 10
362.8553578980998
 20
110.487427287935
 30
0.0
 10
362.8778797955426
 20
110.5987363334182
 30
0.0
 10
362.9015134076402
 20
110.7093985424327
 30
0.0
 10
362.9263629981282
 20
110.819382675377
 30
0.0
 10
362.9523816226145
 20
110.9286778189915
 30
0.0
 10
362.9795630039324
 20
111.0372687881937
 30
0.0
 10
363.0078886452649
 20
111.1451394981361
 30
0.0
 10
363.0373474260975
 20
111.2522844438611
 30
0.0
 10
363.1017557140096
 20
111.476459330373
 30
0.0
 10
363.2068574060814
 20
111.803124744409
 30
0.0
 10
363.3523201668776
 20
112.1890713497289
 30
0.0
 10
363.4915835749873
 20
112.511151162419
 30
0.0
 10
363.5887319278549
 20
112.7069717464507
 30
0.0
 10
363.6490273340812
 20
112.816319196934
 30
0.0
 10
363.6839159169625
 20
112.8742472213494
 30
0.0
 10
363.7118104188903
 20
112.9147011741143
 30
0.0
 10
363.7331755112619
 20
112.9393153895133
 30
0.0
 10
363.7413194588346
 20
112.941444317021
 30
0.0
 10
363.7453972774797
 20
112.9425103086924
 30
0.0
  0
ARC
  5
CA
330
1F
100
AcDbEntity
  8
0
  6
Continuous
 62
     7
370
    25
100
AcDbCircle
 10
374.7051037344
 20
108.1882406639
 30
0.0
 40
12.07050959801142
100
AcDbArc
 50
169.5595567507
 51
190.4404432494
  0
SPLINE
  5
CB
330
1F
100
AcDbEntity
  8
0
  6
Continuous
 62
     7
370
    25
100
AcDbSpline
210
0.0
220
0.0
230
1.0
 70
     8
 71
     3
 72
    26
 73
    22
 74
     0
 42
0.000000001
 43
0.00000001
 40
0.0
 40
0.0
 40
0.0
 40
0.0
 40
0.0241259796963635
 40
0.0482159912272988
 40
0.0723203915124065
 40
0.0964895678710797
 40
0.1207736231963513
 40
0.1452220711242836
 40
0.1698835501657706
 40
0.1948055644472379
 40
0.2200342569517627
 40
0.2456142191611387
 40
0.3690971486901655
 40
0.4940698769485187
 40
0.6192566784762451
 40
0.7454656653603225
 40
0.7971495824713707
 40
0.8481710308405392
 40
0.8988013269235234
 40
0.9493179290492194
 40
1.0
 40
1.0
 40
1.0
 40
1.0
 10
363.7453972774797
 20
103.4339710191083
 30
0.0
 10
363.7434869627392
 20
103.4342579122977
 30
0.0
 10
363.7396691812471
 20
103.4348312709625
 30
0.0
 10
363.7317090560662
 20
103.4408899592089
 30
0.0
 10
363.7221299554907
 20
103.4507692199397
 30
0.0
 10
363.710782748622
 20
103.4648503110501
 30
0.0
 10
363.6977265653281
 20
103.4830458590743
 30
0.0
 10
363.6829706621008
 20
103.505396401813
 30
0.0
 10
363.6665434818034
 20
103.531910637505
 30
0.0
 10
363.6484753270832
 20
103.5626061482183
 30
0.0
 10
363.6287981806602
 20
103.5975072514583
 30
0.0
 10
363.580598799232
 20
103.686271786566
 30
0.0
 10
363.4922807597966
 20
103.8635520880148
 30
0.0
 10
363.3532211430298
 20
104.1846379948599
 30
0.0
 10
363.2075484631676
 20
104.5712206467504
 30
0.0
 10
363.0938098681581
 20
104.9249283508803
 30
0.0
 10
363.0141042496116
 20
105.2071820504931
 30
0.0
 10
362.9634546772573
 20
105.4016254812674
 30
0.0
 10
362.9164880073919
 20
105.5988668582015
 30
0.0
 10
362.8729281853876
 20
105.7987699032966
 30
0.0
 10
362.8472806202561
 20
105.9334518430289
 30
0.0
 10
362.834435869666
 20
106.0009029213661
 30
0.0
  0
LINE
  5
CC
330
1F
100
AcDbEntity
  8
0
  6
Continuous
 62
     7
370
    25
100
AcDbLine
 10
363.7981526367
 20
103.4332233017
 30
0.0
 11
363.7453972775
 21
103.4339710191
 31
0.0
  0
SPLINE
  5
CD
330
1F
100
AcDbEntity
  8
0
  6
Continuous
 62
     7
370
    25
100
AcDbSpline
210
0.0
220
0.0
230
1.0
 70
     8
 71
     3
 72
    14
 73
    10
 74
     0
 42
0.000000001
 43
0.00000001
 40
0.0
 40
0.0
 40
0.0
 40
0.0
 40
0.0789261963172865
 40
0.158232872055133
 40
0.330847539457262
 40
0.5000195457610529
 40
0.6670357883572423
 40
0.8332395193657144
 40
1.0
 40
1.0
 40
1.0
 40
1.0
 10
363.745155779867
 20
103.7002467789831
 30
0.0
 10
363.7491703264631
 20
103.6869436543454
 30
0.0
 10
363.7572187725752
 20
103.660273274713
 30
0.0
 10
363.7721194793847
 20
103.6094585353932
 30
0.0
 10
363.7880164609812
 20
103.5524187192063
 30
0.0
 10
363.801094955979
 20
103.4981155024783
 30
0.0
 10
363.8073275630962
 20
103.4599483597555
 30
0.0
 10
363.8071379832593
 20
103.4365396310786
 30
0.0
 10
363.8011510891286
 20
103.4343299764001
 30
0.0
 10
363.7981526367189
 20
103.4332233016784
 30
0.0
  0
SPLINE
  5
CE
330
1F
100
AcDbEntity
  8
0
  6
Continuous
 62
     7
370
    25
100
AcDbSpline
210
0.0
220
0.0
230
1.0
 70
     8
 71
     3
 72
     8
 73
     4
 74
     0
 42
0.000000001
 43
0.00000001
 40
0.0
 40
0.0
 40
0.0
 40
0.0
 40
1.0
 40
1.0
 40
1.0
 40
1.0
 10
363.8924604710915
 20
103.6981857005326
 30
0.0
 10
363.8433925560628
 20
103.6986727537446
 30
0.0
 10
363.794283118542
 20
103.6993838216194
 30
0.0
 10
363.7451337740166
 20
103.7003193148538
 30
0.0
  0
SPLINE
  5
CF
330
1F
100
AcDbEntity
  8
0
  6
Continuous
 62
     7
370
    25
100
AcDbSpline
210
0.0
220
0.0
230
1.0
 70
     8
 71
     3
 72
    13
 73
     9
 74
     0
 42
0.000000001
 43
0.00000001
 40
0.0
 40
0.0
 40
0.0
 40
0.0
 40
0.1667030582307992
 40
0.3329480818053035
 40
0.4990671507274896
 40
0.6653938523718403
 40
0.832261271055009
 40
1.0
 40
1.0
 40
1.0
 40
1.0
 10
363.9507940032624
 20
103.6294721757487
 30
0.0
 10
363.9489506894255
 20
103.6298892855145
 30
0.0
 10
363.9452691264557
 20
103.6307223589919
 30
0.0
 10
363.9377518726612
 20
103.6367368378183
 30
0.0
 10
363.9288010685447
 20
103.6462315701104
 30
0.0
 10
363.9182507801218
 20
103.6596411772201
 30
0.0
 10
363.9062775946046
 20
103.6765590808437
 30
0.0
 10
363.8970711869983
 20
103.6909718159831
 30
0.0
 10
363.8924559965095
 20
103.6981969488447
 30
0.0
  0
SPLINE
  5
D0
330
1F
100
AcDbEntity
  8
0
  6
Continuous
 62
     7
370
    25
100
AcDbSpline
210
0.0
220
0.0
230
1.0
 70
     8
 71
     3
 72
    13
 73
     9
 74
     0
 42
0.000000001
 43
0.00000001
 40
0.0
 40
0.0
 40
0.0
 40
0.0
 40
0.1686319999748085
 40
0.3360343310905433
 40
0.502536782590866
 40
0.6684737453788339
 40
0.834182263691515
 40
1.0
 40
1.0
 40
1.0
 40
1.0
 10
385.517752853488
 20
103.6982003986575
 30
0.0
 10
385.5131156083898
 20
103.6909432386381
 30
0.0
 10
385.5038749331034
 20
103.6764818379958
 30
0.0
 10
385.4918595597363
 20
103.6595011412917
 30
0.0
 10
385.4812940059817
 20
103.6460683601122
 30
0.0
 10
385.4723546566888
 20
103.6365888915582
 30
0.0
 10
385.4648737761002
 20
103.6306236658604
 30
0.0
 10
385.4612339688107
 20
103.629856090076
 30
0.0
 10
385.459413465617
 20
103.6294721757487
 30
0.0
  0
SPLINE
  5
D1
330
1F
100
AcDbEntity
  8
0
  6
Continuous
 62
     7
370
    25
100
AcDbSpline
210
0.0
220
0.0
230
1.0
 70
     8
 71
     3
 72
     8
 73
     4
 74
     0
 42
0.000000001
 43
0.00000001
 40
0.0
 40
0.0
 40
0.0
 40
0.0
 40
1.0
 40
1.0
 40
1.0
 40
1.0
 10
385.6650784654605
 20
103.7003194196002
 30
0.0
 10
385.6159275358522
 20
103.6993838893382
 30
0.0
 10
385.5668165157729
 20
103.6986727988262
 30
0.0
 10
385.5177470208651
 20
103.6981857373282
 30
0.0
  0
SPLINE
  5
D2
330
1F
100
AcDbEntity
  8
0
  6
Continuous
 62
     7
370
    25
100
AcDbSpline
210
0.0
220
0.0
230
1.0
 70
     8
 71
     3
 72
    18
 73
    14
 74
     0
 42
0.000000001
 43
0.00000001
 40
0.0
 40
0.0
 40
0.0
 40
0.0
 40
0.0923325137111192
 40
0.1843692047063016
 40
0.2763458873810836
 40
0.3684982175655623
 40
0.4610598988303626
 40
0.554260954653301
 40
0.6483261285442131
 40
0.74347346365053
 40
0.8399130993119804
 40
0.9201660718299768
 40
1.0
 40
1.0
 40
1.0
 40
1.0
 10
385.6120548321605
 20
103.4332233016784
 30
0.0
 10
385.6102191785081
 20
103.4334316138942
 30
0.0
 10
385.6065537524256
 20
103.4338475709175
 30
0.0
 10
385.6037584228032
 20
103.4406519943748
 30
0.0
 10
385.6029561277364
 20
103.4519853730607
 30
0.0
 10
385.6043222647356
 20
103.468285767961
 30
0.0
 10
385.6077838135297
 20
103.4894370072711
 30
0.0
 10
385.6133251186761
 20
103.5154727065987
 30
0.0
 10
385.6209095891033
 20
103.5463970930214
 30
0.0
 10
385.6304865820838
 20
103.5821960987495
 30
0.0
 10
385.6413379291096
 20
103.6204853438632
 30
0.0
 10
385.6528526907415
 20
103.6597909682798
 30
0.0
 10
385.6609843995627
 20
103.6867480461734
 30
0.0
 10
385.6650396111704
 20
103.7001913036229
 30
0.0
  0
LINE
  5
D3
330
1F
100
AcDbEntity
  8
0
  6
Continuous
 62
     7
370
    25
100
AcDbLine
 10
385.6648101914
 20
103.4339710191
 30
0.0
 11
385.6120548322
 21
103.4332233017
 31
0.0
  0
SPLINE
  5
D4
330
1F
100
AcDbEntity
  8
0
  6
Continuous
 62
     7
370
    25
100
AcDbSpline
210
0.0
220
0.0
230
1.0
 70
     8
 71
     3
 72
    25
 73
    21
 74
     0
 42
0.000000001
 43
0.00000001
 40
0.0
 40
0.0
 40
0.0
 40
0.0
 40
0.0280105225422753
 40
0.0559601148854256
 40
0.0839014045034749
 40
0.1118870776777086
 40
0.1399695827579646
 40
0.1682008401731476
 40
0.1966319670417595
 40
0.2253130233137476
 40
0.2542927850735311
 40
0.3799486436564626
 40
0.5057850221666382
 40
0.631308588631066
 40
0.7532068238011618
 40
0.8039473267946936
 40
0.8535894438541253
 40
0.9025339722380873
 40
0.9511970353782256
 40
1.0
 40
1.0
 40
1.0
 40
1.0
 10
386.5757715992134
 20
106.0009029213661
 30
0.0
 10
386.5687925293025
 20
105.9635929078598
 30
0.0
 10
386.5548495707799
 20
105.8890540398671
 30
0.0
 10
386.5323276733373
 20
105.777744994385
 30
0.0
 10
386.5086940612399
 20
105.6670827853713
 30
0.0
 10
386.483844470752
 20
105.5570986524273
 30
0.0
 10
386.4578258462657
 20
105.4478035088128
 30
0.0
 10
386.4306444649478
 20
105.3392125396103
 30
0.0
 10
386.4023188236151
 20
105.2313418296671
 30
0.0
 10
386.3728600427822
 20
105.1241968839411
 30
0.0
 10
386.3084517548707
 20
104.9000219974306
 30
0.0
 10
386.2033500627989
 20
104.5733565833945
 30
0.0
 10
386.0578873020037
 20
104.1874099780765
 30
0.0
 10
385.918623893893
 20
103.8653301653838
 30
0.0
 10
385.8214755410258
 20
103.6695095813528
 30
0.0
 10
385.7611801347983
 20
103.5601621308663
 30
0.0
 10
385.7262915519171
 20
103.5022341064511
 30
0.0
 10
385.6983970499892
 20
103.4617801536861
 30
0.0
 10
385.6770319576176
 20
103.4371659382873
 30
0.0
 10
385.6688880100448
 20
103.4350370107797
 30
0.0
 10
385.6648101913997
 20
103.4339710191083
 30
0.0
  0
ARC
  5
D5
330
1F
100
AcDbEntity
  8
0
  6
Continuous
 62
     7
370
    25
100
AcDbCircle
 10
374.7051037344
 20
108.1882406639
 30
0.0
 40
12.07050959801141
100
AcDbArc
 50
349.5595567507
 51
10.4404432493
  0
SPLINE
  5
D6
330
1F
100
AcDbEntity
  8
0
  6
Continuous
 62
     7
370
    25
100
AcDbSpline
210
0.0
220
0.0
230
1.0
 70
     8
 71
     3
 72
    26
 73
    22
 74
     0
 42
0.000000001
 43
0.00000001
 40
0.0
 40
0.0
 40
0.0
 40
0.0
 40
0.0241259796962591
 40
0.0482159912271133
 40
0.0723203915121637
 40
0.0964895678708023
 40
0.1207736231960627
 40
0.1452220711240065
 40
0.1698835501655268
 40
0.1948055644470484
 40
0.220034256951649
 40
0.2456142191611191
 40
0.3690971486898426
 40
0.4940698769485092
 40
0.6192566784753767
 40
0.7454656653602836
 40
0.7971495824708205
 40
0.848171030839725
 40
0.8988013269227118
 40
0.9493179290486752
 40
1.0
 40
1.0
 40
1.0
 40
1.0
 10
385.6648101913997
 20
112.9425103086924
 30
0.0
 10
385.6667205061402
 20
112.942223415503
 30
0.0
 10
385.6705382876324
 20
112.9416500568382
 30
0.0
 10
385.6784984128132
 20
112.9355913685918
 30
0.0
 10
385.6880775133887
 20
112.925712107861
 30
0.0
 10
385.6994247202574
 20
112.9116310167506
 30
0.0
 10
385.7124809035512
 20
112.8934354687264
 30
0.0
 10
385.7272368067785
 20
112.8710849259877
 30
0.0
 10
385.7436639870759
 20
112.8445706902956
 30
0.0
 10
385.7617321417962
 20
112.8138751795824
 30
0.0
 10
385.7814092882192
 20
112.7789740763424
 30
0.0
 10
385.8296086696473
 20
112.6902095412352
 30
0.0
 10
385.9179267090827
 20
112.5129292397864
 30
0.0
 10
386.0569863258492
 20
112.191843332942
 30
0.0
 10
386.2026590057116
 20
111.8052606810508
 30
0.0
 10
386.3163976007208
 20
111.4515529769219
 30
0.0
 10
386.3961032192674
 20
111.1692992773095
 30
0.0
 10
386.4467527916215
 20
110.9748558465362
 30
0.0
 10
386.4937194614869
 20
110.7776144696021
 30
0.0
 10
386.5372792834915
 20
110.5777114245059
 30
0.0
 10
386.5629268486232
 20
110.4430294847725
 30
0.0
 10
386.5757715992134
 20
110.3755784064347
 30
0.0
  0
LINE
  5
D7
330
1F
100
AcDbEntity
  8
0
  6
Continuous
 62
     7
370
    25
100
AcDbLine
 10
385.6120548322
 20
112.9432580261
 30
0.0
 11
385.6648101914
 21
112.9425103087
 31
0.0
  0
SPLINE
  5
D8
330
1F
100
AcDbEntity
  8
0
  6
Continuous
 62
     7
370
    25
100
AcDbSpline
210
0.0
220
0.0
230
1.0
 70
     8
 71
     3
 72
    14
 73
    10
 74
     0
 42
0.000000001
 43
0.00000001
 40
0.0
 40
0.0
 40
0.0
 40
0.0
 40
0.0786889129232242
 40
0.1577561817122941
 40
0.3304686003115578
 40
0.4997364082435315
 40
0.6668472316653192
 40
0.8331450833767118
 40
1.0
 40
1.0
 40
1.0
 40
1.0
 10
385.6649631189373
 20
112.6765265169048
 30
0.0
 10
385.6609651099827
 20
112.6897764214206
 30
0.0
 10
385.6529498686519
 20
112.7163399392889
 30
0.0
 10
385.6380771953625
 20
112.7670614670576
 30
0.0
 10
385.6221910306003
 20
112.8240625460815
 30
0.0
 10
385.609112506956
 20
112.8783658416906
 30
0.0
 10
385.6028799073509
 20
112.9165329637279
 30
0.0
 10
385.6030694852273
 20
112.9399416978034
 30
0.0
 10
385.6090563796197
 20
112.9421513517615
 30
0.0
 10
385.6120548321605
 20
112.9432580261223
 30
0.0
  0
SPLINE
  5
D9
330
1F
100
AcDbEntity
  8
0
  6
Continuous
 62
     7
370
    25
100
AcDbSpline
210
0.0
220
0.0
230
1.0
 70
     8
 71
     3
 72
     8
 73
     4
 74
     0
 42
0.000000001
 43
0.00000001
 40
0.0
 40
0.0
 40
0.0
 40
0.0
 40
1.0
 40
1.0
 40
1.0
 40
1.0
 10
385.5445077782546
 20
112.6781828568701
 30
0.0
 10
385.5846408967612
 20
112.6777519029228
 30
0.0
 10
385.6248016046898
 20
112.6771713999103
 30
0.0
 10
385.6649890220327
 20
112.6764411243507
 30
0.0
  0
SPLINE
  5
DA
330
1F
100
AcDbEntity
  8
0
  6
Continuous
 62
     7
370
    25
100
AcDbSpline
210
0.0
220
0.0
230
1.0
 70
     8
 71
     3
 72
    23
 73
    19
 74
     0
 42
0.000000001
 43
0.00000001
 40
0.0
 40
0.0
 40
0.0
 40
0.0
 40
0.0441308420121292
 40
0.0880968635211716
 40
0.1320155028408941
 40
0.1760048571434164
 40
0.2201827305793597
 40
0.2646656976937351
 40
0.3095682184569769
 40
0.355001836559425
 40
0.401074485474427
 40
0.4478899182339682
 40
0.4955472680213688
 40
0.5953670562452651
 40
0.6949121173401501
 40
0.7950007648984784
 40
0.8964386255170008
 40
1.0
 40
1.0
 40
1.0
 40
1.0
 10
384.9927946591195
 20
113.6386861808367
 30
0.0
 10
384.9947790492262
 20
113.6384033236068
 30
0.0
 10
384.9987404181111
 20
113.6378386655663
 30
0.0
 10
385.0076007223417
 20
113.6314193123875
 30
0.0
 10
385.018573200464
 20
113.6208980628809
 30
0.0
 10
385.0318525984844
 20
113.6058665265712
 30
0.0
 10
385.0473633221507
 20
113.5864142815088
 30
0.0
 10
385.0650947839038
 20
113.5624943035566
 30
0.0
 10
385.085011430607
 20
113.5340932128428
 30
0.0
 10
385.1070769646192
 20
113.5011854730422
 30
0.0
 10
385.1312478883132
 20
113.463745490386
 30
0.0
 10
385.1574748983605
 20
113.4217454187561
 30
0.0
 10
385.1958114785916
 20
113.358468310233
 30
0.0
 10
385.2481442579701
 20
113.2684094478698
 30
0.0
 10
385.3165448691782
 20
113.144063328303
 30
0.0
 10
385.3892299439737
 20
113.0043502503225
 30
0.0
 10
385.4655901798736
 20
112.8500142350942
 30
0.0
 10
385.5178789945238
 20
112.7362915808664
 30
0.0
 10
385.5442942224273
 20
112.678841247572
 30
0.0
  0
SPLINE
  5
DB
330
1F
100
AcDbEntity
  8
0
  6
Continuous
 62
     7
370
    25
100
AcDbSpline
210
0.0
220
0.0
230
1.0
 70
    11
 71
     3
 72
    39
 73
    35
 74
     0
 42
0.000000001
 43
0.00000001
 40
0.0
 40
0.0
 40
0.0
 40
0.0
 40
0.0310664058348413
 40
0.0621048158426138
 40
0.0931361551796939
 40
0.1235538293503726
 40
0.1538561545809849
 40
0.1850588072749156
 40
0.2160250992946587
 40
0.2471867223797568
 40
0.2784462884304475
 40
0.3100516090231247
 40
0.3419834369138969
 40
0.3734259894013238
 40
0.4048604886787081
 40
0.436874065183343
 40
0.4685120685926471
 40
0.499805535863323
 40
0.5309508213226204
 40
0.5618649784438111
 40
0.5930416446590877
 40
0.623374245013332
 40
0.6540913579072549
 40
0.6849496782718453
 40
0.7158160645166705
 40
0.7471731804043553
 40
0.7784514311866318
 40
0.810129591156098
 40
0.8419598919688388
 40
0.8735175891922303
 40
0.9050808037886594
 40
0.9370235169792582
 40
0.9687441590030581
 40
1.0
 40
1.0
 40
1.0
 40
1.0
 10
377.6092302992371
 20
96.75661048014693
 30
0.0
 10
377.7989421281918
 20
96.79537905689443
 30
0.0
 10
378.1426829786405
 20
96.87181000267746
 30
0.0
 10
378.5256399658481
 20
96.95994954267069
 30
0.0
 10
378.7700804325632
 20
97.00689902931566
 30
0.0
 10
378.8510693693795
 20
96.9949901046019
 30
0.0
 10
378.7703469238978
 20
96.92303219788644
 30
0.0
 10
378.5304847302781
 20
96.79851193168908
 30
0.0
 10
378.1538349961809
 20
96.64114294186389
 30
0.0
 10
377.647592059353
 20
96.46911885716888
 30
0.0
 10
377.0303176656697
 20
96.30419444958324
 30
0.0
 10
376.3178418515298
 20
96.16648187350474
 30
0.0
 10
375.5423766117573
 20
96.07484906099606
 30
0.0
 10
374.7319121781429
 20
96.04151648290058
 30
0.0
 10
373.9194077051805
 20
96.07076392845386
 30
0.0
 10
373.1398947150433
 20
96.15909288544144
 30
0.0
 10
372.4215664157079
 20
96.29459838507627
 30
0.0
 10
371.7981943083079
 20
96.45837490656754
 30
0.0
 10
371.2850957137123
 20
96.63038105071287
 30
0.0
 10
370.8998936038508
 20
96.78919306518404
 30
0.0
 10
370.6504689986098
 20
96.9164520303495
 30
0.0
 10
370.5598669586634
 20
96.99205898730447
 30
0.0
 10
370.6280785296226
 20
97.00882838398438
 30
0.0
 10
370.8602943960254
 20
96.96604804176911
 30
0.0
 10
371.2375114332096
 20
96.87892135685924
 30
0.0
 10
371.7492163009773
 20
96.76419230155226
 30
0.0
 10
372.3726874317242
 20
96.64477015649972
 30
0.0
 10
373.0892321348569
 20
96.54014470645042
 30
0.0
 10
373.8675632474679
 20
96.46949621352354
 30
0.0
 10
374.6793947343178
 20
96.44341738909353
 30
0.0
 10
375.493169256315
 20
96.46644296078426
 30
0.0
 10
376.2755431004804
 20
96.53467539892192
 30
0.0
 10
376.9975561352143
 20
96.63792257863166
 30
0.0
 10
377.4183616550634
 20
96.71760550232817
 30
0.0
 10
377.609230299237
 20
96.75661048014692
 30
0.0
  0
SPLINE
  5
DC
330
1F
100
AcDbEntity
  8
0
  6
Continuous
 62
     7
370
    25
100
AcDbSpline
210
0.0
220
0.0
230
1.0
 70
    11
 71
     3
 72
    39
 73
    35
 74
     0
 42
0.000000001
 43
0.00000001
 40
0.0
 40
0.0
 40
0.0
 40
0.0
 40
0.0312651429934057
 40
0.0629601069329321
 40
0.0948697276489808
 40
0.1264264963751833
 40
0.1579651393672472
 40
0.1898765439016956
 40
0.221552335268876
 40
0.2527844076550827
 40
0.2838418966734154
 40
0.3148645781100674
 40
0.3459127639308091
 40
0.3763475365526575
 40
0.4066751324671412
 40
0.4379141187435632
 40
0.4688932367345488
 40
0.5000738678969536
 40
0.5313369410958942
 40
0.5629183719104849
 40
0.5948445736343699
 40
0.6262809966135365
 40
0.6577486436587271
 40
0.6897584692806508
 40
0.7214430019610059
 40
0.7527623343195418
 40
0.7839279690572818
 40
0.8148885765585865
 40
0.8460375004982862
 40
0.8763409566916784
 40
0.906758919146387
 40
0.9378312724751761
 40
0.9689189660506093
 40
1.0
 40
1.0
 40
1.0
 40
1.0
 10
377.6091260494503
 20
119.6199029000895
 30
0.0
 10
377.4180521131685
 20
119.6589668579702
 30
0.0
 10
376.9971175507289
 20
119.7386858525303
 30
0.0
 10
376.2757281455653
 20
119.8418012678807
 30
0.0
 10
375.4940720972749
 20
119.9100021403046
 30
0.0
 10
374.6809843775641
 20
119.9330590329465
 30
0.0
 10
373.8687041607121
 20
119.9070747593003
 30
0.0
 10
373.0900737356625
 20
119.8364845940622
 30
0.0
 10
372.3733979457512
 20
119.731869031823
 30
0.0
 10
371.7515226760895
 20
119.6126967068066
 30
0.0
 10
371.2420117426036
 20
119.4987595390803
 30
0.0
 10
370.8668923963594
 20
119.4126452601338
 30
0.0
 10
370.6309318215085
 20
119.368589538798
 30
0.0
 10
370.559531278327
 20
119.3841193395092
 30
0.0
 10
370.6501277081247
 20
119.4596282216931
 30
0.0
 10
370.8991039884842
 20
119.5868017495373
 30
0.0
 10
371.284018808327
 20
119.7456524281496
 30
0.0
 10
371.7968041151491
 20
119.9176766893596
 30
0.0
 10
372.419263238074
 20
120.0813497688943
 30
0.0
 10
373.1357633828805
 20
120.2167513422745
 30
0.0
 10
373.9138624169906
 20
120.3052690097573
 30
0.0
 10
374.7255851056376
 20
120.3349764182401
 30
0.0
 10
375.5370272933389
 20
120.30208997359
 30
0.0
 10
376.314153184821
 20
120.2106090655452
 30
0.0
 10
377.0285912739915
 20
120.0727248755838
 30
0.0
 10
377.6468142322269
 20
119.9075970507339
 30
0.0
 10
378.1531815929528
 20
119.7355465133813
 30
0.0
 10
378.5297341143664
 20
119.5782629916711
 30
0.0
 10
378.7694299257978
 20
119.453859194187
 30
0.0
 10
378.8508966339921
 20
119.3816710207508
 30
0.0
 10
378.7708373915003
 20
119.3693985123727
 30
0.0
 10
378.5264913855465
 20
119.4162939228788
 30
0.0
 10
378.1435179520976
 20
119.5044274710244
 30
0.0
 10
377.7990748208878
 20
119.5810689756343
 30
0.0
 10
377.6091260494502
 20
119.6199029000895
 30
0.0
  0
SPLINE
  5
DD
330
1F
100
AcDbEntity
  8
0
  6
Continuous
 62
     7
370
    25
100
AcDbSpline
210
0.0
220
0.0
230
1.0
 70
     8
 71
     3
 72
    23
 73
    19
 74
     0
 42
0.000000001
 43
0.00000001
 40
0.0
 40
0.0
 40
0.0
 40
0.0
 40
0.0449850911516383
 40
0.0909520670767777
 40
0.1379394291255006
 40
0.1859832248910951
 40
0.2351171761689533
 40
0.2853728096402591
 40
0.3367795876576951
 40
0.3893650370792399
 40
0.4431548745925064
 40
0.498173127394291
 40
0.5575107590849617
 40
0.6265492281305397
 40
0.7053073138942775
 40
0.7937970253739629
 40
0.8920262115920568
 40
1.0
 40
1.0
 40
1.0
 40
1.0
 10
364.8141620228825
 20
113.2182406639003
 30
0.0
 10
364.811999333517
 20
113.2178117622408
 30
0.0
 10
364.8076267499963
 20
113.216944597331
 30
0.0
 10
364.7973457908049
 20
113.20985102973
 30
0.0
 10
364.784285512775
 20
113.1982382881509
 30
0.0
 10
364.7681663512208
 20
113.1814489179784
 30
0.0
 10
364.7490659235648
 20
113.1593769313636
 30
0.0
 10
364.7269635708089
 20
113.1317794576003
 30
0.0
 10
364.7018630922731
 20
113.098471026391
 30
0.0
 10
364.6737719608953
 20
113.0592706879843
 30
0.0
 10
364.6426560600431
 20
113.014028642511
 30
0.0
 10
364.608017129161
 20
112.9616327101218
 30
0.0
 10
364.5672956208823
 20
112.8988502419026
 30
0.0
 10
364.5185746998575
 20
112.8210932426439
 30
0.0
 10
364.4608003615396
 20
112.7238086850654
 30
0.0
 10
364.3938897118945
 20
112.6040638513463
 30
0.0
 10
364.3179457476011
 20
112.4601436464421
 30
0.0
 10
364.2635845829159
 20
112.3494094415491
 30
0.0
 10
364.2351195188015
 20
112.2914258376252
 30
0.0
  0
LINE
  5
DE
330
1F
100
AcDbEntity
  8
0
  6
Continuous
 62
     7
370
    25
100
AcDbLine
 10
364.2351195188
 20
112.2919521695
 30
0.0
 11
363.8657797808
 21
112.6780366965
 31
0.0
  0
LINE
  5
DF
330
1F
100
AcDbEntity
  8
0
  6
Continuous
 62
     7
370
    25
100
AcDbLine
 10
385.5443951164
 20
112.6779772916
 30
0.0
 11
385.1751284347
 21
112.2919691866
 31
0.0
  0
SPLINE
  5
E0
330
1F
100
AcDbEntity
  8
0
  6
Continuous
 62
     7
370
    25
100
AcDbSpline
210
0.0
220
0.0
230
1.0
 70
     8
 71
     3
 72
    26
 73
    22
 74
     0
 42
0.000000001
 43
0.00000001
 40
0.0
 40
0.0
 40
0.0
 40
0.0
 40
0.0509383868653979
 40
0.0998291548270505
 40
0.1466728126490638
 40
0.1914699456369332
 40
0.2342212299774179
 40
0.274927450668867
 40
0.3135895241747119
 40
0.3502085273716571
 40
0.3847857350077695
 40
0.4173226688482998
 40
0.4478211631571791
 40
0.4762834534603437
 40
0.5027122992246547
 40
0.593906700502561
 40
0.6816015993191188
 40
0.7659159552051488
 40
0.846983628966416
 40
0.9249552229440475
 40
1.0
 40
1.0
 40
1.0
 40
1.0
 10
385.1751284347463
 20
112.2912351073755
 30
0.0
 10
385.1616705705482
 20
112.3188558885398
 30
0.0
 10
385.1352958207506
 20
112.3729871519931
 30
0.0
 10
385.0969236409716
 20
112.4492951890683
 30
0.0
 10
385.0604574584794
 20
112.52004736866
 30
0.0
 10
385.0259212088556
 20
112.5852191953482
 30
0.0
 10
384.9933087570028
 20
112.6450774405999
 30
0.0
 10
384.9626214732098
 20
112.6998426001413
 30
0.0
 10
384.9338588569087
 20
112.7497669914532
 30
0.0
 10
384.9070206924363
 20
112.7951092220483
 30
0.0
 10
384.8821071120081
 20
112.8361351609892
 30
0.0
 10
384.8591164652194
 20
112.8731125459363
 30
0.0
 10
384.8380529597297
 20
112.9063086619196
 30
0.0
 10
384.8189005893504
 20
112.9359843941868
 30
0.0
 10
384.7872295124056
 20
112.9846547192366
 30
0.0
 10
384.7457595669691
 20
113.0465500371554
 30
0.0
 10
384.6987700508253
 20
113.1118906445791
 30
0.0
 10
384.6601514811104
 20
113.1610090358709
 30
0.0
 10
384.6301030213891
 20
113.1944853243831
 30
0.0
 10
384.6078129104199
 20
113.2146027566211
 30
0.0
 10
384.5999175949865
 20
113.2170435904707
 30
0.0
 10
384.5960454459969
 20
113.2182406639003
 30
0.0
  0
SPLINE
  5
E1
330
1F
100
AcDbEntity
  8
0
  6
Continuous
 62
     7
370
    25
100
AcDbSpline
210
0.0
220
0.0
230
1.0
 70
     8
 71
     3
 72
     8
 73
     4
 74
     0
 42
0.000000001
 43
0.00000001
 40
0.0
 40
0.0
 40
0.0
 40
0.0
 40
1.0
 40
1.0
 40
1.0
 40
1.0
 10
382.4467841862401
 20
112.4112389903831
 30
0.0
 10
382.5103771665802
 20
112.3455702125363
 30
0.0
 10
382.5743335930155
 20
112.281227914876
 30
0.0
 10
382.6385325127229
 20
112.2194906639004
 30
0.0
  0
SPLINE
  5
E2
330
1F
100
AcDbEntity
  8
0
  6
Continuous
 62
     7
370
    25
100
AcDbSpline
210
0.0
220
0.0
230
1.0
 70
     8
 71
     3
 72
    25
 73
    21
 74
     0
 42
0.000000001
 43
0.00000001
 40
0.0
 40
0.0
 40
0.0
 40
0.0
 40
0.0367725003254103
 40
0.074208401060063
 40
0.1123590542807964
 40
0.1512729822568881
 40
0.190995910016845
 40
0.2315708273504481
 40
0.2730380740418892
 40
0.3154354426077851
 40
0.3587982934432034
 40
0.4031596779810961
 40
0.4485504661847858
 40
0.494999475376923
 40
0.5532504315673752
 40
0.621829488573267
 40
0.7007739996560722
 40
0.7901076726660372
 40
0.8898461547533933
 40
1.0
 40
1.0
 40
1.0
 40
1.0
 10
382.0048629989286
 20
113.2182406639
 30
0.0
 10
382.0050867729934
 20
113.2179159762663
 30
0.0
 10
382.0055383581563
 20
113.2172607434175
 30
0.0
 10
382.0102553980286
 20
113.2118983716297
 30
0.0
 10
382.0179080071112
 20
113.2031427779292
 30
0.0
 10
382.0288009862482
 20
113.1905185598374
 30
0.0
 10
382.0428495726641
 20
113.1739622217069
 30
0.0
 10
382.0600764702733
 20
113.1533050443292
 30
0.0
 10
382.0804750230547
 20
113.1284173083613
 30
0.0
 10
382.1040458363469
 20
113.099169762168
 30
0.0
 10
382.1307911849066
 20
113.0654468269715
 30
0.0
 10
382.1606990383389
 20
113.0271410118461
 30
0.0
 10
382.1938151306834
 20
112.9841701165081
 30
0.0
 10
382.2327410522574
 20
112.9327488348374
 30
0.0
 10
382.2815691319741
 20
112.8685326031483
 30
0.0
 10
382.3434897365751
 20
112.7856380740537
 30
0.0
 10
382.417874294896
 20
112.6816923238392
 30
0.0
 10
382.5048487228847
 20
112.553606113582
 30
0.0
 10
382.6042735728672
 20
112.3995163336757
 30
0.0
 10
382.6756927485967
 20
112.2814520978052
 30
0.0
 10
382.7131743322776
 20
112.2194906639004
 30
0.0
  0
LINE
  5
E3
330
1F
100
AcDbEntity
  8
0
  6
Continuous
 62
     7
370
    25
100
AcDbLine
 10
382.7131743323
 20
112.2194906639
 30
0.0
 11
382.6385325127
 21
112.2194906639
 31
0.0
  0
SPLINE
  5
E4
330
1F
100
AcDbEntity
  8
0
  6
Continuous
 62
     7
370
    25
100
AcDbSpline
210
0.0
220
0.0
230
1.0
 70
     8
 71
     3
 72
    23
 73
    19
 74
     0
 42
0.000000001
 43
0.00000001
 40
0.0
 40
0.0
 40
0.0
 40
0.0
 40
0.0511129009857221
 40
0.1016896331838983
 40
0.1518293139104713
 40
0.201633670189439
 40
0.2512064936754081
 40
0.3006530343006331
 40
0.3500793489716449
 40
0.3995916247932065
 40
0.4492954981442684
 40
0.4992953912354716
 40
0.5872572780521574
 40
0.6724255494349275
 40
0.7555067762540824
 40
0.8372616735271673
 40
0.9184882400167564
 40
1.0
 40
1.0
 40
1.0
 40
1.0
 10
382.4468468623655
 20
112.4114817064782
 30
0.0
 10
382.430831278465
 20
112.4406103087091
 30
0.0
 10
382.398968112402
 20
112.4985619572929
 30
0.0
 10
382.3519242739832
 20
112.5813197925112
 30
0.0
 10
382.3059457498081
 20
112.6604086509954
 30
0.0
 10
382.2611650830046
 20
112.7356256389296
 30
0.0
 10
382.2176813185687
 20
112.8070886939753
 30
0.0
 10
382.175595354984
 20
112.8748300981636
 30
0.0
 10
382.1350008905867
 20
112.9389036099086
 30
0.0
 10
382.0959859842365
 20
112.9993572089798
 30
0.0
 10
382.058636161749
 20
113.0562347139081
 30
0.0
 10
382.0141079051569
 20
113.1229491869686
 30
0.0
 10
381.9654676446158
 20
113.194269470833
 30
0.0
 10
381.91762854486
 20
113.2628497232921
 30
0.0
 10
381.879977032779
 20
113.3158660513342
 30
0.0
 10
381.8531543313916
 20
113.3531387074618
 30
0.0
 10
381.836425500568
 20
113.3761761070418
 30
0.0
 10
381.8345770906042
 20
113.378710832307
 30
0.0
 10
381.8336512659838
 20
113.3799804159504
 30
0.0
  0
SPLINE
  5
E5
330
1F
100
AcDbEntity
  8
0
  6
Continuous
 62
     7
370
    25
100
AcDbSpline
210
0.0
220
0.0
230
1.0
 70
     8
 71
     3
 72
     8
 73
     4
 74
     0
 42
0.000000001
 43
0.00000001
 40
0.0
 40
0.0
 40
0.0
 40
0.0
 40
1.0
 40
1.0
 40
1.0
 40
1.0
 10
385.1089963815118
 20
112.2194906639002
 30
0.0
 10
385.1308817531549
 20
112.2438116800979
 30
0.0
 10
385.1527671247981
 20
112.2678362784203
 30
0.0
 10
385.1746524964412
 20
112.2915431305089
 30
0.0
  0
LINE
  5
E6
330
1F
100
AcDbEntity
  8
0
  6
Continuous
 62
     7
370
    25
100
AcDbLine
 10
385.1088361711
 20
112.2194906639
 30
0.0
 11
382.7131743323
 21
112.2194906639
 31
0.0
  0
SPLINE
  5
E7
330
1F
100
AcDbEntity
  8
0
  6
Continuous
 62
     7
370
    25
100
AcDbSpline
210
0.0
220
0.0
230
1.0
 70
     8
 71
     3
 72
     8
 73
     4
 74
     0
 42
0.000000001
 43
0.00000001
 40
0.0
 40
0.0
 40
0.0
 40
0.0
 40
1.0
 40
1.0
 40
1.0
 40
1.0
 10
364.2354607466135
 20
112.291646697989
 30
0.0
 10
364.257377519101
 20
112.2679062494299
 30
0.0
 10
364.2792942915885
 20
112.2438470976432
 30
0.0
 10
364.3012110640761
 20
112.2194906639003
 30
0.0
  0
SPLINE
  5
E8
330
1F
100
AcDbEntity
  8
0
  6
Continuous
 62
     7
370
    25
100
AcDbSpline
210
0.0
220
0.0
230
1.0
 70
     8
 71
     3
 72
    26
 73
    22
 74
     0
 42
0.000000001
 43
0.00000001
 40
0.0
 40
0.0
 40
0.0
 40
0.0
 40
0.0524616379932503
 40
0.1026498591890872
 40
0.150565513457809
 40
0.1962095861957063
 40
0.2395832262568645
 40
0.2806877815599511
 40
0.3195248450380211
 40
0.3560963147430692
 40
0.3904044736547445
 40
0.4224520974433627
 40
0.4522426027417772
 40
0.4797802555366611
 40
0.5050704712281336
 40
0.5966394156799991
 40
0.6841917884819224
 40
0.7679874773571101
 40
0.8483228539139507
 40
0.925534163520116
 40
1.0
 40
1.0
 40
1.0
 40
1.0
 10
366.6968555785235
 20
112.219505555918
 30
0.0
 10
366.7147170628119
 20
112.2492790159592
 30
0.0
 10
366.7496660067877
 20
112.3075357078525
 30
0.0
 10
366.8004308402698
 20
112.3897346882171
 30
0.0
 10
366.8485007979115
 20
112.4658155571179
 30
0.0
 10
366.8938447706764
 20
112.5357669055841
 30
0.0
 10
366.9364707501816
 20
112.5998740675362
 30
0.0
 10
366.9763770486908
 20
112.6583819070063
 30
0.0
 10
367.0135643778061
 20
112.7115704846284
 30
0.0
 10
367.048033200397
 20
112.7597285248655
 30
0.0
 10
367.0797832890293
 20
112.8031531981418
 30
0.0
 10
367.1088176936304
 20
112.8421432892387
 30
0.0
 10
367.1351289828315
 20
112.8769973877652
 30
0.0
 10
367.1587456123756
 20
112.9080023822157
 30
0.0
 10
367.1983912913815
 20
112.9602456008486
 30
0.0
 10
367.2499295881806
 20
113.0277749341058
 30
0.0
 10
367.3067557251617
 20
113.0999683803144
 30
0.0
 10
367.3509131531248
 20
113.1544523364369
 30
0.0
 10
367.3820907760668
 20
113.1917171276052
 30
0.0
 10
367.4015503427059
 20
113.2141814798799
 30
0.0
 10
367.4036919403863
 20
113.2169040293072
 30
0.0
 10
367.4047433569431
 20
113.2182406639003
 30
0.0
  0
LINE
  5
E9
330
1F
100
AcDbEntity
  8
0
  6
Continuous
 62
     7
370
    25
100
AcDbLine
 10
366.6968555785
 20
112.2194906639
 30
0.0
 11
364.3012110641
 21
112.2194906639
 31
0.0
  0
LINE
  5
EA
330
1F
100
AcDbEntity
  8
0
  6
Continuous
 62
     7
370
    25
100
AcDbLine
 10
366.7716749562
 20
112.2194906639
 30
0.0
 11
366.6965553578
 21
112.2194906639
 31
0.0
  0
SPLINE
  5
EB
330
1F
100
AcDbEntity
  8
0
  6
Continuous
 62
     7
370
    25
100
AcDbSpline
210
0.0
220
0.0
230
1.0
 70
     8
 71
     3
 72
     8
 73
     4
 74
     0
 42
0.000000001
 43
0.00000001
 40
0.0
 40
0.0
 40
0.0
 40
0.0
 40
1.0
 40
1.0
 40
1.0
 40
1.0
 10
366.7716749561566
 20
112.2194906639003
 30
0.0
 10
366.8355837588165
 20
112.2814595273314
 30
0.0
 10
366.8993586781685
 20
112.3454355924481
 30
0.0
 10
366.9627187440494
 20
112.4109702487938
 30
0.0
  0
SPLINE
  5
EC
330
1F
100
AcDbEntity
  8
0
  6
Continuous
 62
     7
370
    25
100
AcDbSpline
210
0.0
220
0.0
230
1.0
 70
     8
 71
     3
 72
    24
 73
    20
 74
     0
 42
0.000000001
 43
0.00000001
 40
0.0
 40
0.0
 40
0.0
 40
0.0
 40
0.0410257106287842
 40
0.0818520099077639
 40
0.1225800578354648
 40
0.1633117464058233
 40
0.2041489402806705
 40
0.2451927184749161
 40
0.2865426449235763
 40
0.3282960933646444
 40
0.370547647549383
 40
0.4133885920102291
 40
0.4569065022351533
 40
0.5011849368587563
 40
0.6001856774947433
 40
0.6987388860447942
 40
0.7976800645453981
 40
0.8978349910029445
 40
1.0
 40
1.0
 40
1.0
 40
1.0
 10
367.5763015499242
 20
113.3796307452318
 30
0.0
 10
367.5761067864832
 20
113.3793633950743
 30
0.0
 10
367.5757182062767
 20
113.3788299942529
 30
0.0
 10
367.5716634186024
 20
113.3732582482539
 30
0.0
 10
367.5650694596225
 20
113.3641774991001
 30
0.0
 10
367.5557051987125
 20
113.3512400387393
 30
0.0
 10
367.5436570849425
 20
113.3345215958335
 30
0.0
 10
367.5289345154821
 20
113.3139795850617
 30
0.0
 10
367.5115755226349
 20
113.2895982110149
 30
0.0
 10
367.4916183514815
 20
113.2613494669431
 30
0.0
 10
367.469109301786
 20
113.229203919542
 30
0.0
 10
367.4441000660246
 20
113.1931270795758
 30
0.0
 10
367.4166506964997
 20
113.1530834870564
 30
0.0
 10
367.3747275834325
 20
113.0911630437152
 30
0.0
 10
367.3155214082213
 20
113.0018505526186
 30
0.0
 10
367.2357418151011
 20
112.87730596059
 30
0.0
 10
367.1497610301146
 20
112.7375211681002
 30
0.0
 10
367.0584762428926
 20
112.5831083491141
 30
0.0
 10
366.9952718888346
 20
112.4690623274632
 30
0.0
 10
366.963355738869
 20
112.4114727834479
 30
0.0
  0
LINE
  5
ED
330
1F
100
AcDbEntity
  8
0
  6
Continuous
 62
     7
370
    25
100
AcDbLine
 10
363.8924628323
 20
103.6981856662
 30
0.0
 11
364.3167002473
 21
104.1469785648
 31
0.0
  0
SPLINE
  5
EE
330
1F
100
AcDbEntity
  8
0
  6
Continuous
 62
     7
370
    25
100
AcDbSpline
210
0.0
220
0.0
230
1.0
 70
     8
 71
     3
 72
    13
 73
     9
 74
     0
 42
0.000000001
 43
0.00000001
 40
0.0
 40
0.0
 40
0.0
 40
0.0
 40
0.170632084649598
 40
0.3395984165075754
 40
0.5069574111411415
 40
0.6727691830249297
 40
0.8370955447763889
 40
1.0
 40
1.0
 40
1.0
 40
1.0
 10
364.3167002473174
 20
104.1469579223711
 30
0.0
 10
364.3217057177263
 20
104.1400065492897
 30
0.0
 10
364.3316677938985
 20
104.1261716641576
 30
0.0
 10
364.3445416217905
 20
104.1100439057007
 30
0.0
 10
364.3558079342864
 20
104.0973751755417
 30
0.0
 10
364.3652852977216
 20
104.0885187377027
 30
0.0
 10
364.3731675304164
 20
104.0830067092229
 30
0.0
 10
364.3769824366498
 20
104.0823283631421
 30
0.0
 10
364.3788816013661
 20
104.0819906639004
 30
0.0
  0
SPLINE
  5
EF
330
1F
100
AcDbEntity
  8
0
  6
Continuous
 62
     7
370
    25
100
AcDbSpline
210
0.0
220
0.0
230
1.0
 70
     8
 71
     3
 72
    13
 73
     9
 74
     0
 42
0.000000001
 43
0.00000001
 40
0.0
 40
0.0
 40
0.0
 40
0.0
 40
0.1621004456571512
 40
0.325943455157606
 40
0.4915935308260523
 40
0.6591130873964648
 40
0.8285624736043361
 40
1.0
 40
1.0
 40
1.0
 40
1.0
 10
385.0313258675133
 20
104.0819906639004
 30
0.0
 10
385.0332029738555
 20
104.082325147001
 30
0.0
 10
385.0369773652484
 20
104.0829977088626
 30
0.0
 10
385.0448244424273
 20
104.0884709932583
 30
0.0
 10
385.0542905022024
 20
104.0972904579187
 30
0.0
 10
385.0655714170048
 20
104.1099432149126
 30
0.0
 10
385.0784860355025
 20
104.1260952163091
 30
0.0
 10
385.0884817497483
 20
104.1399810162521
 30
0.0
 10
385.0935087556598
 20
104.1469644090027
 30
0.0
  0
LINE
  5
F0
330
1F
100
AcDbEntity
  8
0
  6
Continuous
 62
     7
370
    25
100
AcDbLine
 10
385.0935217235
 20
104.146964777
 30
0.0
 11
385.5177438882
 21
103.6981856917
 31
0.0
  0
SPLINE
  5
F1
330
1F
100
AcDbEntity
  8
0
  6
Continuous
 62
     7
370
    25
100
AcDbSpline
210
0.0
220
0.0
230
1.0
 70
     8
 71
     3
 72
     8
 73
     4
 74
     0
 42
0.000000001
 43
0.00000001
 40
0.0
 40
0.0
 40
0.0
 40
0.0
 40
1.0
 40
1.0
 40
1.0
 40
1.0
 10
385.0935217966527
 20
104.14696502207
 30
0.0
 10
385.0913383124116
 20
104.1498136875863
 30
0.0
 10
385.0891548281705
 20
104.1527544789838
 30
0.0
 10
385.0869713439294
 20
104.1557869762603
 30
0.0
  0
LINE
  5
F2
330
1F
100
AcDbEntity
  8
0
  6
Continuous
 62
     7
370
    25
100
AcDbLine
 10
385.0860686009
 20
104.1569906639
 30
0.0
 11
382.6472582415
 21
104.1569906639
 31
0.0
  0
LINE
  5
F3
330
1F
100
AcDbEntity
  8
0
  6
Continuous
 62
     7
370
    25
100
AcDbLine
 10
382.6385325127
 20
104.1569906639
 30
0.0
 11
382.6472538223
 21
104.1569906639
 31
0.0
  0
SPLINE
  5
F4
330
1F
100
AcDbEntity
  8
0
  6
Continuous
 62
     7
370
    25
100
AcDbSpline
210
0.0
220
0.0
230
1.0
 70
     8
 71
     3
 72
     8
 73
     4
 74
     0
 42
0.000000001
 43
0.00000001
 40
0.0
 40
0.0
 40
0.0
 40
0.0
 40
1.0
 40
1.0
 40
1.0
 40
1.0
 10
364.3241388913595
 20
104.156990663908
 30
0.0
 10
364.321652972673
 20
104.1535289645959
 30
0.0
 10
364.3191670539864
 20
104.1501848126871
 30
0.0
 10
364.3166811352999
 20
104.1469588207467
 30
0.0
  0
LINE
  5
F5
330
1F
100
AcDbEntity
  8
0
  6
Continuous
 62
     7
370
    25
100
AcDbLine
 10
366.761442948
 20
104.1569906639
 30
0.0
 11
364.3243553377
 21
104.1569906639
 31
0.0
  0
LINE
  5
F6
330
1F
100
AcDbEntity
  8
0
  6
Continuous
 62
     7
370
    25
100
AcDbLine
 10
366.762952806
 20
104.1569906639
 30
0.0
 11
366.7716749562
 21
104.1569906639
 31
0.0
  0
SPLINE
  5
F7
330
1F
100
AcDbEntity
  8
0
  6
Continuous
 62
     7
370
    25
100
AcDbSpline
210
0.0
220
0.0
230
1.0
 70
     8
 71
     3
 72
    14
 73
    10
 74
     0
 42
0.000000001
 43
0.00000001
 40
0.0
 40
0.0
 40
0.0
 40
0.0
 40
0.0310276388071746
 40
0.0622853718672815
 40
0.1248003166904892
 40
0.2498289731753984
 40
0.499889260361071
 40
0.7606803621682141
 40
1.0
 40
1.0
 40
1.0
 40
1.0
 10
363.7450097399805
 20
103.7002524892849
 30
0.0
 10
363.7493390334457
 20
103.7050364115631
 30
0.0
 10
363.7580297254792
 20
103.7146397326513
 30
0.0
 10
363.7754305041413
 20
103.7339340466492
 30
0.0
 10
363.8059066639863
 20
103.7676989931028
 30
0.0
 10
363.8667280568057
 20
103.8351177519645
 30
0.0
 10
363.9546183992189
 20
103.9325844268315
 30
0.0
 10
364.0574560793024
 20
104.0467289387284
 30
0.0
 10
364.1246621907441
 20
104.121513751735
 30
0.0
 10
364.156822552391
 20
104.1573007743792
 30
0.0
  0
LINE
  5
F8
330
1F
100
AcDbEntity
  8
0
  6
Continuous
 62
     7
370
    25
100
AcDbLine
 10
364.1564940532
 20
104.1569906639
 30
0.0
 11
364.3241388914
 21
104.1569906639
 31
0.0
  0
LINE
  5
F9
330
1F
100
AcDbEntity
  8
0
  6
Continuous
 62
     7
370
    25
100
AcDbLine
 10
385.0860686009
 20
104.1569906639
 30
0.0
 11
385.2537208002
 21
104.1569906639
 31
0.0
  0
SPLINE
  5
FA
330
1F
100
AcDbEntity
  8
0
  6
Continuous
 62
     7
370
    25
100
AcDbSpline
210
0.0
220
0.0
230
1.0
 70
     8
 71
     3
 72
    11
 73
     7
 74
     0
 42
0.000000001
 43
0.00000001
 40
0.0
 40
0.0
 40
0.0
 40
0.0
 40
0.2392913844325938
 40
0.5001130135003002
 40
0.7515028526498353
 40
0.9999999999999999
 40
0.9999999999999999
 40
0.9999999999999999
 40
0.9999999999999999
 10
385.2534169871101
 20
104.1572774664119
 30
0.0
 10
385.2855735400897
 20
104.1215007478346
 30
0.0
 10
385.3527799322154
 20
104.046728300079
 30
0.0
 10
385.4558080219628
 20
103.9322695867562
 30
0.0
 10
385.5608986865799
 20
103.8161104006363
 30
0.0
 10
385.6305735066596
 20
103.7387224593407
 30
0.0
 10
385.6652093233533
 20
103.7002523987657
 30
0.0
  0
LINE
  5
FB
330
1F
100
AcDbEntity
  8
0
  6
Continuous
 62
     7
370
    25
100
AcDbLine
 10
364.3012110641
 20
112.2194906639
 30
0.0
 11
364.156638768
 21
112.2194906639
 31
0.0
  0
SPLINE
  5
FC
330
1F
100
AcDbEntity
  8
0
  6
Continuous
 62
     7
370
    25
100
AcDbSpline
210
0.0
220
0.0
230
1.0
 70
     8
 71
     3
 72
    11
 73
     7
 74
     0
 42
0.000000001
 43
0.00000001
 40
0.0
 40
0.0
 40
0.0
 40
0.0
 40
0.2392845094479873
 40
0.5001120454076898
 40
0.7515010915036774
 40
1.0
 40
1.0
 40
1.0
 40
1.0
 10
364.15694139023
 20
112.2192048777037
 30
0.0
 10
364.1247802604601
 20
112.2550027267656
 30
0.0
 10
364.0575625018639
 20
112.3298213414633
 30
0.0
 10
363.9545178533659
 20
112.4443496057185
 30
0.0
 10
363.8494096244791
 20
112.5605805993928
 30
0.0
 10
363.7797241078517
 20
112.6380150950838
 30
0.0
 10
363.745082795412
 20
112.6765084964199
 30
0.0
  0
SPLINE
  5
FD
330
1F
100
AcDbEntity
  8
0
  6
Continuous
 62
     7
370
    25
100
AcDbSpline
210
0.0
220
0.0
230
1.0
 70
     8
 71
     3
 72
    14
 73
    10
 74
     0
 42
0.000000001
 43
0.00000001
 40
0.0
 40
0.0
 40
0.0
 40
0.0
 40
0.031029414748255
 40
0.0622870907562092
 40
0.1248019217225762
 40
0.249830351143087
 40
0.4998901825554788
 40
0.7606872170552411
 40
1.0
 40
1.0
 40
1.0
 40
1.0
 10
385.6651130581423
 20
112.6765083881438
 30
0.0
 10
385.6607828618267
 20
112.6717212015738
 30
0.0
 10
385.6520906150316
 20
112.6621116125186
 30
0.0
 10
385.6346869866842
 20
112.6428056188126
 30
0.0
 10
385.604206251149
 20
112.6090204031607
 30
0.0
 10
385.5433756294268
 20
112.5415612722132
 30
0.0
 10
385.4554707262602
 20
112.4440347665028
 30
0.0
 10
385.3526164816433
 20
112.3298207597284
 30
0.0
 10
385.2853990234968
 20
112.2549897996233
 30
0.0
 10
385.2532340940945
 20
112.2191816537152
 30
0.0
  0
LINE
  5
FE
330
1F
100
AcDbEntity
  8
0
  6
Continuous
 62
     7
370
    25
100
AcDbLine
 10
385.2535613041
 20
112.2194906639
 30
0.0
 11
385.1089963815
 21
112.2194906639
 31
0.0
  0
LINE
  5
FF
330
1F
100
AcDbEntity
  8
0
  6
Continuous
 62
     7
370
    25
100
AcDbLine
 10
362.8344358697
 20
106.0009029214
 30
0.0
 11
363.274498527
 21
106.0819906639
 31
0.0
  0
SPLINE
  5
100
330
1F
100
AcDbEntity
  8
0
  6
Continuous
 62
     7
370
    25
100
AcDbSpline
210
0.0
220
0.0
230
1.0
 70
     8
 71
     3
 72
    25
 73
    21
 74
     0
 42
0.000000001
 43
0.00000001
 40
0.0
 40
0.0
 40
0.0
 40
0.0
 40
0.0274788704223154
 40
0.0560416006850518
 40
0.0856947086352136
 40
0.116444016653826
 40
0.1482947438681133
 40
0.1812515840470034
 40
0.2153187716748716
 40
0.2505001382254911
 40
0.333051455250936
 40
0.5015081958163736
 40
0.5771663066143947
 40
0.648898130302521
 40
0.716747770006283
 40
0.7807674423488066
 40
0.84101941313403
 40
0.8975784849924567
 40
0.9505352047788314
 40
1.0
 40
1.0
 40
1.0
 40
1.0
 10
363.2744985270285
 20
106.0819906639004
 30
0.0
 10
363.2812066943719
 20
106.0528084593829
 30
0.0
 10
363.2948876219287
 20
105.9932930052341
 30
0.0
 10
363.3176523505826
 20
105.9029025081755
 30
0.0
 10
363.342529987823
 20
105.8097708990543
 30
0.0
 10
363.3696692258405
 20
105.7141848547794
 30
0.0
 10
363.3990306328717
 20
105.6164313851661
 30
0.0
 10
363.4306158031598
 20
105.5168507091087
 30
0.0
 10
363.4644626730246
 20
105.4158415695301
 30
0.0
 10
363.5161639029574
 20
105.269074762279
 30
0.0
 10
363.6205229159711
 20
105.0048083493647
 30
0.0
 10
363.7413961436549
 20
104.7348387195362
 30
0.0
 10
363.8548891901119
 20
104.5174290448199
 30
0.0
 10
363.9261621577278
 20
104.3877254740894
 30
0.0
 10
363.9882367298537
 20
104.2838503967646
 30
0.0
 10
364.040820742021
 20
104.2039897629461
 30
0.0
 10
364.0840672879485
 20
104.1459711367955
 30
0.0
 10
364.1176741001686
 20
104.1078675781431
 30
0.0
 10
364.1426210830413
 20
104.0858650471484
 30
0.0
 10
364.1515806199033
 20
104.0832524337971
 30
0.0
 10
364.1559076566213
 20
104.0819906639004
 30
0.0
  0
LINE
  5
101
330
1F
100
AcDbEntity
  8
0
  6
Continuous
 62
     7
370
    25
100
AcDbLine
 10
386.5757715992
 20
110.3755784064
 30
0.0
 11
386.1357089419
 21
110.2944906639
 31
0.0
  0
SPLINE
  5
102
330
1F
100
AcDbEntity
  8
0
  6
Continuous
 62
     7
370
    25
100
AcDbSpline
210
0.0
220
0.0
230
1.0
 70
     8
 71
     3
 72
    25
 73
    21
 74
     0
 42
0.000000001
 43
0.00000001
 40
0.0
 40
0.0
 40
0.0
 40
0.0
 40
0.0274788704223041
 40
0.0560416006850305
 40
0.0856947086351823
 40
0.1164440166537841
 40
0.1482947438680617
 40
0.1812515840469434
 40
0.2153187716748025
 40
0.2505001382254136
 40
0.3330514552861967
 40
0.5015081958164245
 40
0.5771663066128696
 40
0.6488981302998588
 40
0.7167477700029257
 40
0.7807674423452041
 40
0.8410194131306359
 40
0.8975784849897311
 40
0.950535204777236
 40
1.0
 40
1.0
 40
1.0
 40
1.0
 10
386.135708941851
 20
110.2944906639004
 30
0.0
 10
386.1290007745075
 20
110.3236728684178
 30
0.0
 10
386.1153198469507
 20
110.3831883225666
 30
0.0
 10
386.0925551182968
 20
110.4735788196252
 30
0.0
 10
386.0676774810565
 20
110.5667104287464
 30
0.0
 10
386.040538243039
 20
110.6622964730213
 30
0.0
 10
386.0111768360077
 20
110.7600499426346
 30
0.0
 10
385.9795916657197
 20
110.859630618692
 30
0.0
 10
385.9457447958549
 20
110.9606397582706
 30
0.0
 10
385.8940435659096
 20
111.1074065655558
 30
0.0
 10
385.7896845528986
 20
111.3716729784683
 30
0.0
 10
385.6688113252129
 20
111.6416426082874
 30
0.0
 10
385.5553182787676
 20
111.8590522829776
 30
0.0
 10
385.484045311152
 20
111.9887558537066
 30
0.0
 10
385.4219707390262
 20
112.0926309310313
 30
0.0
 10
385.369386726859
 20
112.1724915648506
 30
0.0
 10
385.3261401809315
 20
112.2305101910025
 30
0.0
 10
385.2925333687113
 20
112.2686137496563
 30
0.0
 10
385.2675863858384
 20
112.2906162806521
 30
0.0
 10
385.2586268489763
 20
112.2932288940035
 30
0.0
 10
385.2542998122581
 20
112.2944906639004
 30
0.0
  0
SPLINE
  5
103
330
1F
100
AcDbEntity
  8
0
  6
Continuous
 62
     7
370
    25
100
AcDbSpline
210
0.0
220
0.0
230
1.0
 70
     8
 71
     3
 72
    25
 73
    21
 74
     0
 42
0.000000001
 43
0.00000001
 40
0.0
 40
0.0
 40
0.0
 40
0.0
 40
0.0288821753110086
 40
0.0583636594013118
 40
0.0884647204314734
 40
0.1192044006626603
 40
0.150600580009491
 40
0.1826700399677263
 40
0.2154285269580574
 40
0.248890814337993
 40
0.361059447124065
 40
0.4984670131067773
 40
0.5822693905007604
 40
0.666112764278331
 40
0.7499972937224478
 40
0.8007709755049082
 40
0.8511237700832938
 40
0.9010896024531745
 40
0.9507031914125761
 40
1.0
 40
1.0
 40
1.0
 40
1.0
 10
364.1559076566213
 20
112.2944906639004
 30
0.0
 10
364.1536173882436
 20
112.2940624219245
 30
0.0
 10
364.1489893281306
 20
112.2931970518976
 30
0.0
 10
364.1386790650433
 20
112.286122119196
 30
0.0
 10
364.1258429958124
 20
112.2745535780356
 30
0.0
 10
364.1102294370697
 20
112.2578480019232
 30
0.0
 10
364.0919079936572
 20
112.235911090907
 30
0.0
 10
364.070860407826
 20
112.2085134554223
 30
0.0
 10
364.0470888358339
 20
112.1754789747402
 30
0.0
 10
364.0000323063974
 20
112.1064883086123
 30
0.0
 10
363.9123378885405
 20
111.9664623391907
 30
0.0
 10
363.7947862340071
 20
111.7471670379862
 30
0.0
 10
363.6832640696657
 20
111.510236977215
 30
0.0
 10
363.5918047523177
 20
111.2943951033051
 30
0.0
 10
363.5109231011401
 20
111.0928334824233
 30
0.0
 10
363.4447781992721
 20
110.9139654020312
 30
0.0
 10
363.395427638445
 20
110.7625892008873
 30
0.0
 10
363.3504606215801
 20
110.6083450457643
 30
0.0
 10
363.3097029076608
 20
110.4521891906887
 30
0.0
 10
363.2862082384436
 20
110.3469444837407
 30
0.0
 10
363.2744985270285
 20
110.2944906639004
 30
0.0
  0
LINE
  5
104
330
1F
100
AcDbEntity
  8
0
  6
Continuous
 62
     7
370
    25
100
AcDbLine
 10
362.8344358697
 20
110.3755784064
 30
0.0
 11
363.274498527
 21
110.2944906639
 31
0.0
  0
SPLINE
  5
105
330
1F
100
AcDbEntity
  8
0
  6
Continuous
 62
     7
370
    25
100
AcDbSpline
210
0.0
220
0.0
230
1.0
 70
     8
 71
     3
 72
    25
 73
    21
 74
     0
 42
0.000000001
 43
0.00000001
 40
0.0
 40
0.0
 40
0.0
 40
0.0
 40
0.0288821753116583
 40
0.0583636594024247
 40
0.088464720432864
 40
0.1192044006641432
 40
0.1506005800108822
 40
0.1826700399688414
 40
0.2154285269587146
 40
0.2488908143380118
 40
0.3610594471217245
 40
0.498467013106778
 40
0.5822693905006526
 40
0.6661127642782239
 40
0.7499972937224496
 40
0.8007709755032478
 40
0.8511237700807983
 40
0.901089602450676
 40
0.9507031914109089
 40
1.0
 40
1.0
 40
1.0
 40
1.0
 10
385.2542998122581
 20
104.0819906639004
 30
0.0
 10
385.2565900806359
 20
104.0824189058763
 30
0.0
 10
385.261218140749
 20
104.0832842759031
 30
0.0
 10
385.2715284038364
 20
104.090359208605
 30
0.0
 10
385.2843644730673
 20
104.1019277497657
 30
0.0
 10
385.29997803181
 20
104.1186333258784
 30
0.0
 10
385.3182994752225
 20
104.1405702368948
 30
0.0
 10
385.3393470610536
 20
104.1679678723795
 30
0.0
 10
385.3631186330456
 20
104.2010023530612
 30
0.0
 10
385.4101751624819
 20
104.2699930191878
 30
0.0
 10
385.4978695803396
 20
104.4100189886083
 30
0.0
 10
385.6154212348717
 20
104.6293142898125
 30
0.0
 10
385.7269433992125
 20
104.8662443505859
 30
0.0
 10
385.8184027165606
 20
105.0820862244958
 30
0.0
 10
385.8992843677385
 20
105.2836478453759
 30
0.0
 10
385.9654292696066
 20
105.4625159257653
 30
0.0
 10
386.014779830433
 20
105.6138921269065
 30
0.0
 10
386.059746847298
 20
105.7681362820294
 30
0.0
 10
386.1005045612177
 20
105.9242921371076
 30
0.0
 10
386.1239992304355
 20
106.0295368440582
 30
0.0
 10
386.135708941851
 20
106.0819906639004
 30
0.0
  0
LINE
  5
106
330
1F
100
AcDbEntity
  8
0
  6
Continuous
 62
     7
370
    25
100
AcDbLine
 10
386.5757715992
 20
106.0009029214
 30
0.0
 11
386.1357089419
 21
106.0819906639
 31
0.0
  0
SPLINE
  5
107
330
1F
100
AcDbEntity
  8
0
  6
Continuous
 62
     7
370
    25
100
AcDbSpline
210
0.0
220
0.0
230
1.0
 70
     8
 71
     3
 72
    14
 73
    10
 74
     0
 42
0.000000001
 43
0.00000001
 40
0.0
 40
0.0
 40
0.0
 40
0.0
 40
0.1359145300112974
 40
0.2970841336547354
 40
0.4458230192132127
 40
0.5950336724695611
 40
0.7620249554136269
 40
0.9152755812521424
 40
1.0
 40
1.0
 40
1.0
 40
1.0
 10
365.8072458461612
 20
110.2944906639004
 30
0.0
 10
365.8424898658148
 20
110.4149190326756
 30
0.0
 10
365.9195268025164
 20
110.6781532696779
 30
0.0
 10
366.0602346618913
 20
111.0517511258041
 30
0.0
 10
366.2091881643339
 20
111.4037121737317
 30
0.0
 10
366.366998433288
 20
111.7164097103426
 30
0.0
 10
366.5136179577974
 20
111.9739844970835
 30
0.0
 10
366.6155365812788
 20
112.149540943355
 30
0.0
 10
366.6489061551487
 20
112.2023271670632
 30
0.0
 10
366.6607864670314
 20
112.2211202389558
 30
0.0
  0
SPLINE
  5
108
330
1F
100
AcDbEntity
  8
0
  6
Continuous
 62
     7
370
    25
100
AcDbSpline
210
0.0
220
0.0
230
1.0
 70
     8
 71
     3
 72
    14
 73
    10
 74
     0
 42
0.000000001
 43
0.00000001
 40
0.0
 40
0.0
 40
0.0
 40
0.0
 40
0.1359145300005337
 40
0.2970841336540051
 40
0.445823019211832
 40
0.5950336724681434
 40
0.7620249554082487
 40
0.9152755812451852
 40
1.0
 40
1.0
 40
1.0
 40
1.0
 10
383.6029616227182
 20
106.0819906639004
 30
0.0
 10
383.5677176030668
 20
105.9615622951346
 30
0.0
 10
383.4906806663641
 20
105.6983280581327
 30
0.0
 10
383.3499728069912
 20
105.3247302020049
 30
0.0
 10
383.2010193045489
 20
104.9727691540682
 30
0.0
 10
383.0432090355927
 20
104.6600716174608
 30
0.0
 10
382.8965895110808
 20
104.4024968307222
 30
0.0
 10
382.7946708875986
 20
104.2269403844484
 30
0.0
 10
382.7613013137285
 20
104.1741541607379
 30
0.0
 10
382.749421001845
 20
104.1553610888433
 30
0.0
  0
SPLINE
  5
109
330
1F
100
AcDbEntity
  8
0
  6
Continuous
 62
     7
370
    25
100
AcDbSpline
210
0.0
220
0.0
230
1.0
 70
     8
 71
     3
 72
    13
 73
     9
 74
     0
 42
0.000000001
 43
0.00000001
 40
0.0
 40
0.0
 40
0.0
 40
0.0
 40
0.0217286921435962
 40
0.1003820497560808
 40
0.2372357405520672
 40
0.3994036557033713
 40
0.7008666741923809
 40
1.0
 40
1.0
 40
1.0
 40
1.0
 10
366.6586069648229
 20
104.1565500692073
 30
0.0
 10
366.6556702738429
 20
104.1611720731436
 30
0.0
 10
366.6421033707761
 20
104.1825247724246
 30
0.0
 10
366.5946495268644
 20
104.2598198572781
 30
0.0
 10
366.5010924601407
 20
104.4157527838465
 30
0.0
 10
366.3214951284506
 20
104.7482206467652
 30
0.0
 10
366.0524656175872
 20
105.2962169772659
 30
0.0
 10
365.8887741187277
 20
105.8207443095506
 30
0.0
 10
365.8072458461612
 20
106.0819906639004
 30
0.0
  0
LINE
  5
10A
330
1F
100
AcDbEntity
  8
0
  6
Continuous
 62
     7
370
    25
100
AcDbLine
 10
366.1235060035
 20
106.1568539585
 30
0.0
 11
365.8072458462
 21
106.0819906639
 31
0.0
  0
SPLINE
  5
10B
330
1F
100
AcDbEntity
  8
0
  6
Continuous
 62
     7
370
    25
100
AcDbSpline
210
0.0
220
0.0
230
1.0
 70
     8
 71
     3
 72
    25
 73
    21
 74
     0
 42
0.000000001
 43
0.00000001
 40
0.0
 40
0.0
 40
0.0
 40
0.0
 40
0.0269872354797669
 40
0.0539362690259618
 40
0.0809037148829035
 40
0.1079460716545392
 40
0.1351193706855853
 40
0.162478838835575
 40
0.190078585418252
 40
0.2179713214290535
 40
0.2462081170984584
 40
0.3700050494705653
 40
0.4947542611659071
 40
0.6210439034695193
 40
0.7446557472315123
 40
0.7967060293738726
 40
0.8478613449329371
 40
0.8985210411990388
 40
0.9490962115257747
 40
1.0
 40
1.0
 40
1.0
 40
1.0
 10
366.1235060035027
 20
106.1568539585005
 30
0.0
 10
366.1312867482267
 20
106.1244575534728
 30
0.0
 10
366.1468372235977
 20
106.0597106023315
 30
0.0
 10
366.1715226295709
 20
105.9630640659028
 30
0.0
 10
366.19714258657
 20
105.8669699774115
 30
0.0
 10
366.2237854501973
 20
105.7714577066948
 30
0.0
 10
366.2514106354818
 20
105.6765329793021
 30
0.0
 10
366.2800124145411
 20
105.5822068231664
 30
0.0
 10
366.3095745041826
 20
105.4884904787172
 30
0.0
 10
366.3400876512298
 20
105.3953863948269
 30
0.0
 10
366.4068218558191
 20
105.1991211527138
 30
0.0
 10
366.5140050319148
 20
104.9130480371105
 30
0.0
 10
366.6577851222236
 20
104.5757581411172
 30
0.0
 10
366.7910335784354
 20
104.2942489642937
 30
0.0
 10
366.8787047546487
 20
104.1232580341153
 30
0.0
 10
366.9295797904409
 20
104.0273452157328
 30
0.0
 10
366.9572489450924
 20
103.9761280122782
 30
0.0
 10
366.9769478632099
 20
103.9401452181931
 30
0.0
 10
366.9891953719134
 20
103.9179753298711
 30
0.0
 10
366.9904821650695
 20
103.9156558621375
 30
0.0
 10
366.9911276451513
 20
103.9144923727179
 30
0.0
  0
LINE
  5
10C
330
1F
100
AcDbEntity
  8
0
  6
Continuous
 62
     7
370
    25
100
AcDbLine
 10
366.1235060035
 20
110.2196273693
 30
0.0
 11
365.8072458462
 21
110.2944906639
 31
0.0
  0
SPLINE
  5
10D
330
1F
100
AcDbEntity
  8
0
  6
Continuous
 62
     7
370
    25
100
AcDbSpline
210
0.0
220
0.0
230
1.0
 70
     8
 71
     3
 72
    25
 73
    21
 74
     0
 42
0.000000001
 43
0.00000001
 40
0.0
 40
0.0
 40
0.0
 40
0.0
 40
0.0278144320063462
 40
0.0555680196245754
 40
0.083331625367772
 40
0.111176035216759
 40
0.1391714221532265
 40
0.1673868326284763
 40
0.1958897140434718
 40
0.2247454979318961
 40
0.254017249222145
 40
0.3796724410016501
 40
0.5056484635002454
 40
0.629752729069345
 40
0.7535891720571729
 40
0.8038564806093713
 40
0.853339684343451
 40
0.9023264398358534
 40
0.9511131859219439
 40
1.0
 40
1.0
 40
1.0
 40
1.0
 10
366.9911276451513
 20
112.4619889550829
 30
0.0
 10
366.9909798938365
 20
112.4617224125293
 30
0.0
 10
366.9906847144148
 20
112.4611899104871
 30
0.0
 10
366.9870600153989
 20
112.454642461791
 30
0.0
 10
366.9811141197286
 20
112.4438732185047
 30
0.0
 10
366.9726393968136
 20
112.4284624825804
 30
0.0
 10
366.9617244099744
 20
112.4085061063267
 30
0.0
 10
366.9483883417361
 20
112.3839560098562
 30
0.0
 10
366.9326805770491
 20
112.3547993861003
 30
0.0
 10
366.9146489888913
 20
112.3210034146669
 30
0.0
 10
366.8722314441428
 20
112.2405966566091
 30
0.0
 10
366.7917104043893
 20
112.0836082069384
 30
0.0
 10
366.6582840575148
 20
111.8018224691911
 30
0.0
 10
366.5142070808317
 20
111.4639503595641
 30
0.0
 10
366.3985293293803
 20
111.1552694458258
 30
0.0
 10
366.3160178541631
 20
110.9092387260708
 30
0.0
 10
366.2630962296379
 20
110.7404128347976
 30
0.0
 10
366.2132390952605
 20
110.5690972637858
 30
0.0
 10
366.16622110203
 20
110.395414913565
 30
0.0
 10
366.1377540913015
 20
110.2782632252616
 30
0.0
 10
366.1235060035027
 20
110.2196273693002
 30
0.0
  0
SPLINE
  5
10E
330
1F
100
AcDbEntity
  8
0
  6
Continuous
 62
     7
370
    25
100
AcDbSpline
210
0.0
220
0.0
230
1.0
 70
     8
 71
     3
 72
    13
 73
     9
 74
     0
 42
0.000000001
 43
0.00000001
 40
0.0
 40
0.0
 40
0.0
 40
0.0
 40
0.0217286921488609
 40
0.1003820497583595
 40
0.2372357405601296
 40
0.399403655704887
 40
0.7008666741931369
 40
1.0
 40
1.0
 40
1.0
 40
1.0
 10
382.7516005040542
 20
112.2199312585949
 30
0.0
 10
382.7545371950349
 20
112.2153092546574
 30
0.0
 10
382.7681040981021
 20
112.1939565553756
 30
0.0
 10
382.8155579420177
 20
112.1166614705198
 30
0.0
 10
382.9091150087414
 20
111.9607285439512
 30
0.0
 10
383.0887123404304
 20
111.628260681031
 30
0.0
 10
383.3577418512924
 20
111.0802643505348
 30
0.0
 10
383.5214333501518
 20
110.5557370182502
 30
0.0
 10
383.6029616227182
 20
110.2944906639004
 30
0.0
  0
LINE
  5
10F
330
1F
100
AcDbEntity
  8
0
  6
Continuous
 62
     7
370
    25
100
AcDbLine
 10
383.2867014654
 20
110.2196273693
 30
0.0
 11
383.6029616227
 21
110.2944906639
 31
0.0
  0
SPLINE
  5
110
330
1F
100
AcDbEntity
  8
0
  6
Continuous
 62
     7
370
    25
100
AcDbSpline
210
0.0
220
0.0
230
1.0
 70
     8
 71
     3
 72
    14
 73
    10
 74
     0
 42
0.000000001
 43
0.00000001
 40
0.0
 40
0.0
 40
0.0
 40
0.0
 40
0.1400505389350903
 40
0.2837941391411564
 40
0.4267315409806389
 40
0.5707684557847207
 40
0.7165839699846748
 40
0.8593076663242981
 40
1.0
 40
1.0
 40
1.0
 40
1.0
 10
383.2867014653768
 20
110.2196273693002
 30
0.0
 10
383.2499345361745
 20
110.3651874005438
 30
0.0
 10
383.175431152602
 20
110.6601458068037
 30
0.0
 10
383.0402419334165
 20
111.0782098156776
 30
0.0
 10
382.8963575303125
 20
111.4632625091122
 30
0.0
 10
382.7522207903403
 20
111.8010705176976
 30
0.0
 10
382.619825117558
 20
112.0810113083217
 30
0.0
 10
382.5089043367341
 20
112.297151795958
 30
0.0
 10
382.4675688562967
 20
112.3732149416421
 30
0.0
 10
382.4470492505213
 20
112.4109739261019
 30
0.0
  0
LINE
  5
111
330
1F
100
AcDbEntity
  8
0
  6
Continuous
 62
     7
370
    25
100
AcDbLine
 10
383.2867014654
 20
106.1568539585
 30
0.0
 11
383.6029616227
 21
106.0819906639
 31
0.0
  0
SPLINE
  5
112
330
1F
100
AcDbEntity
  8
0
  6
Continuous
 62
     7
370
    25
100
AcDbSpline
210
0.0
220
0.0
230
1.0
 70
     8
 71
     3
 72
    25
 73
    21
 74
     0
 42
0.000000001
 43
0.00000001
 40
0.0
 40
0.0
 40
0.0
 40
0.0
 40
0.0278144320057649
 40
0.0555680196235595
 40
0.083331625366468
 40
0.1111760352153128
 40
0.1391714221517827
 40
0.1673868326271739
 40
0.195889714042447
 40
0.2247454979312803
 40
0.2540172492220635
 40
0.3796724409988544
 40
0.505648463500191
 40
0.6297527290689083
 40
0.7535891720572004
 40
0.803856480609888
 40
0.85333968434422
 40
0.902326439836625
 40
0.9511131859224594
 40
1.0
 40
1.0
 40
1.0
 40
1.0
 10
382.4190798237282
 20
103.9144923727179
 30
0.0
 10
382.419227575043
 20
103.9147589152714
 30
0.0
 10
382.4195227544647
 20
103.9152914173137
 30
0.0
 10
382.4231474534805
 20
103.9218388660098
 30
0.0
 10
382.4290933491508
 20
103.932608109296
 30
0.0
 10
382.4375680720659
 20
103.9480188452204
 30
0.0
 10
382.448483058905
 20
103.9679752214741
 30
0.0
 10
382.4618191271434
 20
103.9925253179446
 30
0.0
 10
382.4775268918303
 20
104.0216819417005
 30
0.0
 10
382.4955584799882
 20
104.0554779131339
 30
0.0
 10
382.5379760247353
 20
104.1358846711892
 30
0.0
 10
382.6184970644891
 20
104.2928731208604
 30
0.0
 10
382.7519234113635
 20
104.5746588586072
 30
0.0
 10
382.8960003880471
 20
104.912530968235
 30
0.0
 10
383.0116781394991
 20
105.2212118819749
 30
0.0
 10
383.0941896147169
 20
105.4672426017315
 30
0.0
 10
383.1471112392423
 20
105.6360684930056
 30
0.0
 10
383.1969683736196
 20
105.8073840640174
 30
0.0
 10
383.2439863668499
 20
105.9810664142372
 30
0.0
 10
383.2724533775781
 20
106.0982181025397
 30
0.0
 10
383.2867014653768
 20
106.1568539585005
 30
0.0
  0
ARC
  5
113
330
1F
100
AcDbEntity
  8
0
  6
Continuous
 62
     7
370
    25
100
AcDbCircle
 10
374.7051037344
 20
108.1882406639
 30
0.0
 40
11.62303852141071
100
AcDbArc
 50
169.5595567507
 51
190.4404432494
  0
ARC
  5
114
330
1F
100
AcDbEntity
  8
0
  6
Continuous
 62
     7
370
    25
100
AcDbCircle
 10
374.7051037344
 20
108.1882406639
 30
0.0
 40
9.143750000000006
100
AcDbArc
 50
166.6824039243
 51
193.3175960757
  0
ARC
  5
115
330
1F
100
AcDbEntity
  8
0
  6
Continuous
 62
     7
370
    25
100
AcDbCircle
 10
374.7051037344
 20
108.1882406639
 30
0.0
 40
8.81874999999997
100
AcDbArc
 50
166.6824039243
 51
193.3175960757
  0
ARC
  5
116
330
1F
100
AcDbEntity
  8
0
  6
Continuous
 62
     7
370
    25
100
AcDbCircle
 10
374.7051037344
 20
108.1882406639
 30
0.0
 40
9.143750000000006
100
AcDbArc
 50
346.6824039243
 51
13.3175960757
  0
ARC
  5
117
330
1F
100
AcDbEntity
  8
0
  6
Continuous
 62
     7
370
    25
100
AcDbCircle
 10
374.7051037344
 20
108.1882406639
 30
0.0
 40
8.81874999999997
100
AcDbArc
 50
346.6824039243
 51
13.3175960757
  0
ARC
  5
118
330
1F
100
AcDbEntity
  8
0
  6
Continuous
 62
     7
370
    25
100
AcDbCircle
 10
374.7051037344
 20
108.1882406639
 30
0.0
 40
11.6230385214107
100
AcDbArc
 50
349.5595567507
 51
10.4404432493
  0
CIRCLE
  5
119
330
1F
100
AcDbEntity
  8
0
  6
Continuous
 62
     7
370
    25
100
AcDbCircle
 10
374.7051037344
 20
108.1882406639
 30
0.0
 40
7.775000000000034
  0
CIRCLE
  5
11A
330
1F
100
AcDbEntity
  8
0
  6
Continuous
 62
     7
370
    25
100
AcDbCircle
 10
374.7051037344
 20
108.1882406639
 30
0.0
 40
2.615470053837953
  0
CIRCLE
  5
11B
330
1F
100
AcDbEntity
  8
0
  6
Continuous
 62
     7
370
    25
100
AcDbCircle
 10
374.7051037344
 20
108.1882406639
 30
0.0
 40
2.5
  0
CIRCLE
  5
11C
330
1F
100
AcDbEntity
  8
0
  6
Continuous
 62
     7
370
    25
100
AcDbCircle
 10
374.7051037344
 20
108.1882406639
 30
0.0
 40
15.73750000000001
  0
CIRCLE
  5
11D
330
1F
100
AcDbEntity
  8
0
  6
Continuous
 62
     7
370
    25
100
AcDbCircle
 10
374.7051037344
 20
108.1882406639
 30
0.0
 40
13.42500000000001
  0
CIRCLE
  5
11E
330
1F
100
AcDbEntity
  8
0
  6
Continuous
 62
     7
370
    25
100
AcDbCircle
 10
374.7051037344
 20
108.1882406639
 30
0.0
 40
2.0
  0
CIRCLE
  5
11F
330
1F
100
AcDbEntity
  8
0
  6
Continuous
 62
     7
370
    25
100
AcDbCircle
 10
374.7051037344
 20
108.1882406639
 30
0.0
 40
1.5
  0
LINE
  5
120
330
1F
100
AcDbEntity
  8
0
  6
CENTER
 62
     7
370
    18
100
AcDbLine
 10
374.7051037344
 20
108.1882406639
 30
0.0
 11
374.7051037344
 21
127.6922413651
 31
0.0
  0
LINE
  5
121
330
1F
100
AcDbEntity
  8
0
  6
CENTER
 62
     7
370
    18
100
AcDbLine
 10
374.7051037344
 20
108.1882406639
 30
0.0
 11
394.2196037344
 21
108.1882406639
 31
0.0
  0
LINE
  5
122
330
1F
100
AcDbEntity
  8
0
  6
Continuous
 62
     7
370
    18
100
AcDbLine
 10
386.7051037344
 20
125.6922413651
 30
0.0
 11
374.7051037344
 21
125.6922413651
 31
0.0
  0
SOLID
  5
123
330
1F
100
AcDbEntity
  8
0
  6
Continuous
 62
     7
370
    18
100
AcDbTrace
 10
374.7051037344
 20
125.6922413651
 30
0.0
 11
380.7051037344
 21
124.1922413651
 31
0.0
 12
380.7051037344
 22
127.1922413651
 32
0.0
 13
380.7051037344
 23
127.1922413651
 33
0.0
  0
LINE
  5
124
330
1F
100
AcDbEntity
  8
0
  6
Continuous
 62
     7
370
    18
100
AcDbLine
 10
404.2196037344
 20
108.1882406639
 30
0.0
 11
392.2196037344
 21
108.1882406639
 31
0.0
  0
SOLID
  5
125
330
1F
100
AcDbEntity
  8
0
  6
Continuous
 62
     7
370
    18
100
AcDbTrace
 10
392.2196037344
 20
108.1882406639
 30
0.0
 11
398.2196037344
 21
106.6882406639
 31
0.0
 12
398.2196037344
 22
109.6882406639
 32
0.0
 13
398.2196037344
 23
109.6882406639
 33
0.0
  0
MTEXT
  5
126
330
1F
100
AcDbEntity
  8
0
  6
Continuous
 62
     7
100
AcDbMText
 10
383.5577229905
 20
132.3385345818
 30
0.0
 40
3.5
 41
0.0
 71
     1
 72
     1
  1
A
  7
SLDTEXTSTYLE0
 73
     1
 44
1.0
  0
MTEXT
  5
127
330
1F
100
AcDbEntity
  8
0
  6
Continuous
 62
     7
100
AcDbMText
 10
401.0722229905
 20
105.9750250228
 30
0.0
 40
3.5
 41
0.0
 71
     1
 72
     1
  1
A
  7
SLDTEXTSTYLE0
 73
     1
 44
1.0
  0
LINE
  5
128
330
1F
100
AcDbEntity
  8
VERMASSUNG
  6
CENTERX2
370
    18
100
AcDbLine
 10
386.3732825571
 20
111.2182406639
 30
0.0
 11
380.026835553
 21
111.2182406639
 31
0.0
  0
LINE
  5
129
330
1F
100
AcDbEntity
  8
VERMASSUNG
  6
CENTERX2
370
    18
100
AcDbLine
 10
387.3425203501
 20
110.2944906639
 30
0.0
 11
380.5735706091
 21
110.2944906639
 31
0.0
  0
LINE
  5
12A
330
1F
100
AcDbEntity
  8
VERMASSUNG
  6
CENTERX2
370
    18
100
AcDbLine
 10
387.3418747078
 20
106.0819906639
 30
0.0
 11
380.572029363
 21
106.0819906639
 31
0.0
  0
LINE
  5
12B
330
1F
100
AcDbEntity
  8
VERMASSUNG
  6
CENTERX2
370
    18
100
AcDbLine
 10
368.0994232162
 20
106.0819906639
 30
0.0
 11
361.1447038718
 21
106.0819906639
 31
0.0
  0
LINE
  5
12C
330
1F
100
AcDbEntity
  8
VERMASSUNG
  6
CENTERX2
370
    18
100
AcDbLine
 10
367.9148963243
 20
110.2944906639
 30
0.0
 11
361.1450509795
 21
110.2944906639
 31
0.0
  0
LINE
  5
12D
330
1F
100
AcDbEntity
  8
VERMASSUNG
  6
CENTERX2
370
    18
100
AcDbLine
 10
368.6014014085
 20
111.2182406639
 30
0.0
 11
362.2570833599
 21
111.2182406639
 31
0.0
  0
LINE
  5
12E
330
1F
100
AcDbEntity
  8
VERMASSUNG
  6
CENTERX2
370
    18
100
AcDbLine
 10
374.7051037344
 20
109.6382406639
 30
0.0
 11
374.7051037344
 21
107.1882406639
 31
0.0
  0
LINE
  5
12F
330
1F
100
AcDbEntity
  8
VERMASSUNG
  6
CENTERX2
370
    18
100
AcDbLine
 10
374.7051037344
 20
109.6382406639
 30
0.0
 11
374.7051037344
 21
116.1882406639
 31
0.0
  0
ARC
  5
130
330
1F
100
AcDbEntity
  8
0
  6
Continuous
 62
     7
370
    25
100
AcDbCircle
 10
124.6858565188
 20
76.9132406639
 30
0.0
 40
0.2000000000000171
100
AcDbArc
 50
180.0
 51
270.0
  0
LINE
  5
131
330
1F
100
AcDbEntity
  8
0
  6
Continuous
 62
     7
370
    25
100
AcDbLine
 10
137.7200543233
 20
76.7132406639
 30
0.0
 11
142.4858565188
 21
76.7132406639
 31
0.0
  0
LINE
  5
132
330
1F
100
AcDbEntity
  8
0
  6
Continuous
 62
     7
370
    25
100
AcDbLine
 10
124.6858565188
 20
76.7132406639
 30
0.0
 11
131.0516587142
 21
76.7132406639
 31
0.0
  0
LINE
  5
133
330
1F
100
AcDbEntity
  8
0
  6
Continuous
 62
     7
370
    25
100
AcDbLine
 10
131.0516587142
 20
76.7132406639
 30
0.0
 11
132.5108565188
 21
79.2406453997
 31
0.0
  0
LINE
  5
134
330
1F
100
AcDbEntity
  8
0
  6
Continuous
 62
     7
370
    25
100
AcDbLine
 10
136.2608565188
 20
79.2406453997
 30
0.0
 11
137.7200543233
 21
76.7132406639
 31
0.0
  0
ARC
  5
135
330
1F
100
AcDbEntity
  8
0
  6
Continuous
 62
     7
370
    25
100
AcDbCircle
 10
133.5108565188
 20
79.3382406639
 30
0.0
 40
1.0
100
AcDbArc
 50
90.0
 51
180.0
  0
ARC
  5
136
330
1F
100
AcDbEntity
  8
0
  6
Continuous
 62
     7
370
    25
100
AcDbCircle
 10
135.2608565188
 20
79.3382406639
 30
0.0
 40
1.0
100
AcDbArc
 50
0.0
 51
90.0
  0
LINE
  5
137
330
1F
100
AcDbEntity
  8
0
  6
Continuous
 62
     7
370
    25
100
AcDbLine
 10
133.5108565188
 20
80.3382406639
 30
0.0
 11
135.2608565188
 21
80.3382406639
 31
0.0
  0
ARC
  5
138
330
1F
100
AcDbEntity
  8
0
  6
Continuous
 62
     7
370
    25
100
AcDbCircle
 10
124.0569216442
 20
82.6382406639
 30
0.0
 40
0.8000000000000004
100
AcDbArc
 50
57.576802718
 51
107.5
  0
LINE
  5
139
330
1F
100
AcDbEntity
  8
0
  6
Continuous
 62
     7
370
    25
100
AcDbLine
 10
123.3256744787
 20
83.2465026184
 30
0.0
 11
123.8163570046
 21
83.4012142245
 31
0.0
  0
LINE
  5
13A
330
1F
100
AcDbEntity
  8
0
  6
Continuous
 62
     7
370
    25
100
AcDbLine
 10
109.9994110507
 20
83.9157201431
 30
0.0
 11
123.3256744787
 21
83.2465026184
 31
0.0
  0
LINE
  5
13B
330
1F
100
AcDbEntity
  8
0
  6
Continuous
 62
     7
370
    25
100
AcDbLine
 10
86.0358565188
 20
85.1191205363
 30
0.0
 11
94.0906933823
 21
84.7146232054
 31
0.0
  0
LINE
  5
13C
330
1F
100
AcDbEntity
  8
0
  6
Continuous
 62
     7
370
    25
100
AcDbLine
 10
84.5358565188
 20
85.9851459401
 30
0.0
 11
86.0358565188
 21
85.1191205363
 31
0.0
  0
ARC
  5
13D
330
1F
100
AcDbEntity
  8
0
  6
Continuous
 62
     7
370
    25
100
AcDbCircle
 10
145.4858565188
 20
92.6882406639
 30
0.0
 40
3.0
100
AcDbArc
 50
90.0
 51
180.0
  0
LINE
  5
13E
330
1F
100
AcDbEntity
  8
0
  6
Continuous
 62
     7
370
    25
100
AcDbLine
 10
145.4858565188
 20
95.6882406639
 30
0.0
 11
215.9078288367
 21
95.6882406639
 31
0.0
  0
LINE
  5
13F
330
1F
100
AcDbEntity
  8
0
  6
Continuous
 62
     7
370
    25
100
AcDbLine
 10
215.9078288367
 20
95.6882406639
 30
0.0
 11
223.3310930423
 21
99.1497656114
 31
0.0
  0
ARC
  5
140
330
1F
100
AcDbEntity
  8
0
  6
Continuous
 62
     7
370
    25
100
AcDbCircle
 10
222.4858565188
 20
100.9623811855
 30
0.0
 40
2.000000000000013
100
AcDbArc
 50
295.0
 51
0.0
  0
LINE
  5
141
330
1F
100
AcDbEntity
  8
0
  6
Continuous
 62
     7
370
    25
100
AcDbLine
 10
204.8858565188
 20
110.1882406639
 30
0.0
 11
203.9858565188
 21
111.0882406639
 31
0.0
  0
LINE
  5
142
330
1F
100
AcDbEntity
  8
0
  6
Continuous
 62
     7
370
    25
100
AcDbLine
 10
203.9858565188
 20
111.0882406639
 30
0.0
 11
203.9858565188
 21
120.1882406639
 31
0.0
  0
LINE
  5
143
330
1F
100
AcDbEntity
  8
0
  6
Continuous
 62
     7
370
    25
100
AcDbLine
 10
203.9858565188
 20
120.1882406639
 30
0.0
 11
204.4858565188
 21
120.6882406639
 31
0.0
  0
LINE
  5
144
330
1F
100
AcDbEntity
  8
0
  6
Continuous
 62
     7
370
    25
100
AcDbLine
 10
204.4858565188
 20
120.6882406639
 30
0.0
 11
205.4858565188
 21
120.6882406639
 31
0.0
  0
LINE
  5
145
330
1F
100
AcDbEntity
  8
0
  6
Continuous
 62
     7
370
    25
100
AcDbLine
 10
205.4858565188
 20
117.1882406639
 30
0.0
 11
205.4858565188
 21
120.6882406639
 31
0.0
  0
LINE
  5
146
330
1F
100
AcDbEntity
  8
0
  6
Continuous
 62
     7
370
    25
100
AcDbLine
 10
208.4858565188
 20
117.1882406639
 30
0.0
 11
205.4858565188
 21
117.1882406639
 31
0.0
  0
LINE
  5
147
330
1F
100
AcDbEntity
  8
0
  6
Continuous
 62
     7
370
    25
100
AcDbLine
 10
208.4858565188
 20
117.1882406639
 30
0.0
 11
208.4858565188
 21
120.6882406639
 31
0.0
  0
LINE
  5
148
330
1F
100
AcDbEntity
  8
0
  6
Continuous
 62
     7
370
    25
100
AcDbLine
 10
208.4858565188
 20
120.6882406639
 30
0.0
 11
209.4858565188
 21
120.6882406639
 31
0.0
  0
LINE
  5
149
330
1F
100
AcDbEntity
  8
0
  6
Continuous
 62
     7
370
    25
100
AcDbLine
 10
209.4858565188
 20
120.6882406639
 30
0.0
 11
209.9858565188
 21
120.1882406639
 31
0.0
  0
LINE
  5
14A
330
1F
100
AcDbEntity
  8
0
  6
Continuous
 62
     7
370
    25
100
AcDbLine
 10
209.9858565188
 20
120.1882406639
 30
0.0
 11
209.9858565188
 21
111.0882406639
 31
0.0
  0
LINE
  5
14B
330
1F
100
AcDbEntity
  8
0
  6
Continuous
 62
     7
370
    25
100
AcDbLine
 10
209.9858565188
 20
111.0882406639
 30
0.0
 11
209.0858565188
 21
110.1882406639
 31
0.0
  0
LINE
  5
14C
330
1F
100
AcDbEntity
  8
0
  6
Continuous
 62
     7
370
    25
100
AcDbLine
 10
209.0858565188
 20
110.1882406639
 30
0.0
 11
208.2358565188
 21
110.1882406639
 31
0.0
  0
LINE
  5
14D
330
1F
100
AcDbEntity
  8
0
  6
Continuous
 62
     7
370
    25
100
AcDbLine
 10
206.9858565188
 20
110.9099285004
 30
0.0
 11
208.2358565188
 21
110.1882406639
 31
0.0
  0
LINE
  5
14E
330
1F
100
AcDbEntity
  8
0
  6
Continuous
 62
     7
370
    25
100
AcDbLine
 10
205.7358565188
 20
110.1882406639
 30
0.0
 11
206.9858565188
 21
110.9099285004
 31
0.0
  0
LINE
  5
14F
330
1F
100
AcDbEntity
  8
0
  6
Continuous
 62
     7
370
    25
100
AcDbLine
 10
205.7358565188
 20
110.1882406639
 30
0.0
 11
204.8858565188
 21
110.1882406639
 31
0.0
  0
LINE
  5
150
330
1F
100
AcDbEntity
  8
0
  6
Continuous
 62
     7
370
    25
100
AcDbLine
 10
208.2358565188
 20
110.1882406639
 30
0.0
 11
205.7358565188
 21
110.1882406639
 31
0.0
  0
LINE
  5
151
330
1F
100
AcDbEntity
  8
0
  6
Continuous
 62
     7
370
    25
100
AcDbLine
 10
206.9858565188
 20
117.1882406639
 30
0.0
 11
206.9858565188
 21
120.6882406639
 31
0.0
  0
LINE
  5
152
330
1F
100
AcDbEntity
  8
0
  6
Continuous
 62
     7
370
    25
100
AcDbLine
 10
208.4858565188
 20
120.6882406639
 30
0.0
 11
206.9858565188
 21
120.6882406639
 31
0.0
  0
LINE
  5
153
330
1F
100
AcDbEntity
  8
0
  6
Continuous
 62
     7
370
    25
100
AcDbLine
 10
205.4858565188
 20
120.6882406639
 30
0.0
 11
206.9858565188
 21
120.6882406639
 31
0.0
  0
LINE
  5
154
330
1F
100
AcDbEntity
  8
0
  6
Continuous
 62
     7
370
    25
100
AcDbLine
 10
124.4858565188
 20
76.9132406639
 30
0.0
 11
124.4858565188
 21
108.1882406639
 31
0.0
  0
LINE
  5
155
330
1F
100
AcDbEntity
  8
0
  6
Continuous
 62
     7
370
    25
100
AcDbLine
 10
124.4858565188
 20
108.1882406639
 30
0.0
 11
124.6858565188
 21
108.1882406639
 31
0.0
  0
ARC
  5
156
330
1F
100
AcDbEntity
  8
0
  6
Continuous
 62
     7
370
    25
100
AcDbCircle
 10
124.6858565188
 20
139.4632406639
 30
0.0
 40
0.2000000000000171
100
AcDbArc
 50
90.0
 51
179.9999999999
  0
LINE
  5
157
330
1F
100
AcDbEntity
  8
0
  6
Continuous
 62
     7
370
    25
100
AcDbLine
 10
137.7200543233
 20
76.7132406639
 30
0.0
 11
137.7200543233
 21
103.2985333842
 31
0.0
  0
SPLINE
  5
158
330
1F
100
AcDbEntity
  8
0
  6
Continuous
 62
     7
370
    25
100
AcDbSpline
210
0.0
220
0.0
230
1.0
 70
     8
 71
     3
 72
    20
 73
    16
 74
     0
 42
0.000000001
 43
0.00000001
 40
0.0
 40
0.0
 40
0.0
 40
0.0
 40
0.1249999999999996
 40
0.1249999999999996
 40
0.2499999999999992
 40
0.2499999999999992
 40
0.3749999999999989
 40
0.3749999999999989
 40
0.4999999999999987
 40
0.4999999999999987
 40
0.7499999999999994
 40
0.7499999999999994
 40
0.8749999999999997
 40
0.8749999999999997
 40
1.0
 40
1.0
 40
1.0
 40
1.0
 10
141.2733565187775
 20
108.1882406639004
 30
0.0
 10
141.2733565187775
 20
107.9215725764191
 30
0.0
 10
141.2513094897338
 20
107.6532604011451
 30
0.0
 10
141.1623034520289
 20
107.1204173659117
 30
0.0
 10
141.0964244838295
 20
106.8611271559258
 30
0.0
 10
140.9242495761223
 20
106.3560001899043
 30
0.0
 10
140.8175430052154
 20
106.1094199739831
 30
0.0
 10
140.5648661023391
 20
105.6330033232433
 30
0.0
 10
140.4214088381444
 20
105.4075832614785
 30
0.0
 10
139.9430866458639
 20
104.7669755798648
 30
0.0
 10
139.5550596628983
 20
104.3842098647617
 30
0.0
 10
138.9132550144529
 20
103.9083076165901
 30
0.0
 10
138.6884503868058
 20
103.7647119804383
 30
0.0
 10
138.2171413291836
 20
103.5073805950478
 30
0.0
 10
137.9714447292946
 20
103.3943282165259
 30
0.0
 10
137.7200543233475
 20
103.2985333842152
 30
0.0
  0
LINE
  5
159
330
1F
100
AcDbEntity
  8
0
  6
Continuous
 62
     7
370
    25
100
AcDbLine
 10
142.4858565188
 20
139.6632406639
 30
0.0
 11
137.7200543233
 21
139.6632406639
 31
0.0
  0
LINE
  5
15A
330
1F
100
AcDbEntity
  8
0
  6
Continuous
 62
     7
370
    25
100
AcDbLine
 10
142.4858565188
 20
76.7132406639
 30
0.0
 11
142.4858565188
 21
108.1882406639
 31
0.0
  0
SPLINE
  5
15B
330
1F
100
AcDbEntity
  8
0
  6
Continuous
 62
     7
370
    25
100
AcDbSpline
210
0.0
220
0.0
230
1.0
 70
     8
 71
     3
 72
    14
 73
    10
 74
     0
 42
0.000000001
 43
0.00000001
 40
0.0
 40
0.0
 40
0.0
 40
0.0
 40
0.25
 40
0.25
 40
0.5
 40
0.5
 40
0.75
 40
0.75
 40
1.0
 40
1.0
 40
1.0
 40
1.0
 10
131.0516587142074
 20
104.8933425783835
 30
0.0
 10
130.8547828286824
 20
105.1208391463127
 30
0.0
 10
130.6786745072929
 20
105.3624259213838
 30
0.0
 10
130.3689381135197
 20
105.8745831557579
 30
0.0
 10
130.2343801120261
 20
106.1481159588661
 30
0.0
 10
130.019137959317
 20
106.7082210934035
 30
0.0
 10
129.937494721798
 20
106.9951935888135
 30
0.0
 10
129.826971699528
 20
107.5832325738578
 30
0.0
 10
129.7983565187775
 20
107.8876760296285
 30
0.0
 10
129.7983565187774
 20
108.1882406639002
 30
0.0
  0
LINE
  5
15C
330
1F
100
AcDbEntity
  8
0
  6
Continuous
 62
     7
370
    25
100
AcDbLine
 10
131.0516587142
 20
76.7132406639
 30
0.0
 11
131.0516587142
 21
104.8933425784
 31
0.0
  0
LINE
  5
15D
330
1F
100
AcDbEntity
  8
0
  6
Continuous
 62
     7
370
    25
100
AcDbLine
 10
131.0516587142
 20
139.6632406639
 30
0.0
 11
124.6858565188
 21
139.6632406639
 31
0.0
  0
SPLINE
  5
15E
330
1F
100
AcDbEntity
  8
0
  6
Continuous
 62
     7
370
    25
100
AcDbSpline
210
0.0
220
0.0
230
1.0
 70
     8
 71
     3
 72
     8
 73
     4
 74
     0
 42
0.000000001
 43
0.00000001
 40
0.0
 40
0.0
 40
0.0
 40
0.0
 40
1.0
 40
1.0
 40
1.0
 40
1.0
 10
137.7200543233471
 20
103.2985333842141
 30
0.0
 10
137.3716529186668
 20
103.736508710628
 30
0.0
 10
137.027084533434
 20
104.1795918492128
 30
0.0
 10
136.6887002341131
 20
104.6329829210614
 30
0.0
  0
ARC
  5
15F
330
1F
100
AcDbEntity
  8
0
  6
Continuous
 62
     7
370
    25
100
AcDbCircle
 10
135.5358565188
 20
108.1882406639
 30
0.0
 40
3.737500000000011
100
AcDbArc
 50
287.9660359156
 51
0.0
  0
ARC
  5
160
330
1F
100
AcDbEntity
  8
0
  6
Continuous
 62
     7
370
    25
100
AcDbCircle
 10
135.5358565188
 20
108.1882406639
 30
0.0
 40
3.737499999999983
100
AcDbArc
 50
180.0
 51
206.113804444
  0
SPLINE
  5
161
330
1F
100
AcDbEntity
  8
0
  6
Continuous
 62
     7
370
    25
100
AcDbSpline
210
0.0
220
0.0
230
1.0
 70
     8
 71
     3
 72
    10
 73
     6
 74
     0
 42
0.000000001
 43
0.00000001
 40
0.0
 40
0.0
 40
0.0
 40
0.0
 40
0.5
 40
0.5
 40
1.0
 40
1.0
 40
1.0
 40
1.0
 10
132.1798747113242
 20
106.5431594020646
 30
0.0
 10
132.0029895649008
 20
106.2447090867081
 30
0.0
 10
131.8174401900234
 20
105.9657163825807
 30
0.0
 10
131.4394912499758
 20
105.4203970884549
 30
0.0
 10
131.2467047077966
 20
105.1550617026335
 30
0.0
 10
131.0516587142073
 20
104.8933425783835
 30
0.0
  0
SPLINE
  5
162
330
1F
100
AcDbEntity
  8
0
  6
Continuous
 62
     7
370
    25
100
AcDbSpline
210
0.0
220
0.0
230
1.0
 70
     8
 71
     3
 72
     8
 73
     4
 74
     0
 42
0.000000001
 43
0.00000001
 40
0.0
 40
0.0
 40
0.0
 40
0.0
 40
1.0
 40
1.0
 40
1.0
 40
1.0
 10
132.5108565187775
 20
105.9931822933779
 30
0.0
 10
132.3925597593475
 20
106.1562065218363
 30
0.0
 10
132.2811312771762
 20
106.3365950208588
 30
0.0
 10
132.1798747113242
 20
106.5431594020646
 30
0.0
  0
LINE
  5
163
330
1F
100
AcDbEntity
  8
0
  6
Continuous
 62
     7
370
    25
100
AcDbLine
 10
132.5108565188
 20
79.2406453997
 30
0.0
 11
132.5108565188
 21
105.9931822934
 31
0.0
  0
SPLINE
  5
164
330
1F
100
AcDbEntity
  8
0
  6
Continuous
 62
     7
370
    25
100
AcDbSpline
210
0.0
220
0.0
230
1.0
 70
     8
 71
     3
 72
     8
 73
     4
 74
     0
 42
0.000000001
 43
0.00000001
 40
0.0
 40
0.0
 40
0.0
 40
0.0
 40
1.0
 40
1.0
 40
1.0
 40
1.0
 10
136.6887002341134
 20
104.6329829210622
 30
0.0
 10
136.5471621458316
 20
104.5870871499651
 30
0.0
 10
136.4045516770947
 20
104.5501462990278
 30
0.0
 10
136.2608565187777
 20
104.5217326180872
 30
0.0
  0
LINE
  5
165
330
1F
100
AcDbEntity
  8
0
  6
Continuous
 62
     7
370
    25
100
AcDbLine
 10
136.2608565188
 20
79.2406453997
 30
0.0
 11
136.2608565188
 21
104.5217326181
 31
0.0
  0
SPLINE
  5
166
330
1F
100
AcDbEntity
  8
0
  6
Continuous
 62
     7
370
    25
100
AcDbSpline
210
0.0
220
0.0
230
1.0
 70
     8
 71
     3
 72
    14
 73
    10
 74
     0
 42
0.000000001
 43
0.00000001
 40
0.0
 40
0.0
 40
0.0
 40
0.0
 40
0.25
 40
0.25
 40
0.5
 40
0.5
 40
0.75
 40
0.75
 40
1.0
 40
1.0
 40
1.0
 40
1.0
 10
133.5108565187774
 20
105.0468586034052
 30
0.0
 10
133.376508432421
 20
105.1334621650328
 30
0.0
 10
133.253331758565
 20
105.2249305623562
 30
0.0
 10
133.024585153647
 20
105.4161219489871
 30
0.0
 10
132.9226631896798
 20
105.5129838011281
 30
0.0
 10
132.743239787251
 20
105.7008584158634
 30
0.0
 10
132.6667984990683
 20
105.7910937672146
 30
0.0
 10
132.5495085262182
 20
105.938900131192
 30
0.0
 10
132.5108565187774
 20
105.993182293378
 30
0.0
 10
132.5108565187774
 20
105.993182293378
 30
0.0
  0
SPLINE
  5
167
330
1F
100
AcDbEntity
  8
0
  6
Continuous
 62
     7
370
    25
100
AcDbSpline
210
0.0
220
0.0
230
1.0
 70
     8
 71
     3
 72
    14
 73
    10
 74
     0
 42
0.000000001
 43
0.00000001
 40
0.0
 40
0.0
 40
0.0
 40
0.0
 40
0.25
 40
0.25
 40
0.5
 40
0.5
 40
0.75
 40
0.75
 40
1.0
 40
1.0
 40
1.0
 40
1.0
 10
136.2608565187776
 20
104.5217326180877
 30
0.0
 10
136.2608565187778
 20
104.5217326180878
 30
0.0
 10
136.2349399962066
 20
104.5163558870994
 30
0.0
 10
136.1354951496291
 20
104.4988112994989
 30
0.0
 10
136.0631967572168
 20
104.4869618958526
 30
0.0
 10
135.8784928626929
 20
104.4653180778523
 30
0.0
 10
135.768915600817
 20
104.456028817168
 30
0.0
 10
135.5255854225989
 20
104.4487732808104
 30
0.0
 10
135.3940491636787
 20
104.4510446869697
 30
0.0
 10
135.2608565187774
 20
104.4608714509029
 30
0.0
  0
SPLINE
  5
168
330
1F
100
AcDbEntity
  8
0
  6
Continuous
 62
     7
370
    25
100
AcDbSpline
210
0.0
220
0.0
230
1.0
 70
     8
 71
     3
 72
    10
 73
     6
 74
     0
 42
0.000000001
 43
0.00000001
 40
0.0
 40
0.0
 40
0.0
 40
0.0
 40
0.5
 40
0.5
 40
1.0
 40
1.0
 40
1.0
 40
1.0
 10
135.2608565187774
 20
104.460871450903
 30
0.0
 10
134.9483926164893
 20
104.483924593272
 30
0.0
 10
134.6455036344916
 20
104.5451592956784
 30
0.0
 10
134.0581604496875
 20
104.7413312596023
 30
0.0
 10
133.7736927891156
 20
104.8774288947022
 30
0.0
 10
133.5108565187774
 20
105.0468586034052
 30
0.0
  0
LINE
  5
169
330
1F
100
AcDbEntity
  8
0
  6
Continuous
 62
     7
370
    25
100
AcDbLine
 10
124.4858565188
 20
135.0382406639
 30
0.0
 11
124.8198952048
 21
133.9788053035
 31
0.0
  0
LINE
  5
16A
330
1F
100
AcDbEntity
  8
0
  6
Continuous
 62
     7
370
    25
100
AcDbLine
 10
124.4858565188
 20
135.0382406639
 30
0.0
 11
124.4858565188
 21
133.0629519306
 31
0.0
  0
ARC
  5
16B
330
1F
100
AcDbEntity
  8
0
  6
Continuous
 62
     7
370
    25
100
AcDbCircle
 10
124.0569216442
 20
133.7382406639
 30
0.0
 40
0.8000000000000139
100
AcDbArc
 50
252.5
 51
17.5
  0
LINE
  5
16C
330
1F
100
AcDbEntity
  8
0
  6
Continuous
 62
     7
370
    25
100
AcDbLine
 10
123.3256744787
 20
83.2465026184
 30
0.0
 11
123.3256744787
 21
108.1882406639
 31
0.0
  0
LINE
  5
16D
330
1F
100
AcDbEntity
  8
0
  6
Continuous
 62
     7
370
    25
100
AcDbLine
 10
123.8163570046
 20
132.9752671033
 30
0.0
 11
123.3256744787
 21
133.1299787094
 31
0.0
  0
SPLINE
  5
16E
330
1F
100
AcDbEntity
  8
0
  6
Continuous
 62
     7
370
    25
100
AcDbSpline
210
0.0
220
0.0
230
1.0
 70
     8
 71
     3
 72
    23
 73
    19
 74
     0
 42
0.000000001
 43
0.00000001
 40
0.0
 40
0.0
 40
0.0
 40
0.0
 40
0.0014752899205275
 40
0.0696288509416035
 40
0.1372792101573364
 40
0.2039819135400783
 40
0.2703117571759917
 40
0.3365672618513769
 40
0.4028772365390579
 40
0.4678771374618322
 40
0.5326481398333837
 40
0.5993656092925664
 40
0.6655280750059939
 40
0.7321209147635985
 40
0.7988898269457709
 40
0.866338659222382
 40
0.9345238227745254
 40
1.0
 40
1.0
 40
1.0
 40
1.0
 10
94.24561099493792
 20
131.6125202985799
 30
0.0
 10
94.24677763920353
 20
131.6121603703607
 30
0.0
 10
94.3018394264094
 20
131.5951729376021
 30
0.0
 10
94.69827043832014
 20
131.4779034228426
 30
0.0
 10
95.41433183415704
 20
131.2772923774169
 30
0.0
 10
96.42401057522537
 20
131.0366776123771
 30
0.0
 10
97.63998899526099
 20
130.8094052788141
 30
0.0
 10
99.0441888811773
 20
130.6370157898946
 30
0.0
 10
100.5612530169882
 20
130.5489474765157
 30
0.0
 10
102.135550851633
 20
130.5799951397987
 30
0.0
 10
103.701371081695
 20
130.7310183783363
 30
0.0
 10
105.1912281501028
 20
130.9853551772308
 30
0.0
 10
106.5629083427421
 20
131.3030919558005
 30
0.0
 10
107.7488314363805
 20
131.6470083759582
 30
0.0
 10
108.7264307804104
 20
131.9748509762605
 30
0.0
 10
109.445941931995
 20
132.2437754057459
 30
0.0
 10
109.9185769336989
 20
132.4263647413672
 30
0.0
 10
109.9760480480519
 20
132.449613133952
 30
0.0
 10
110.0042012062264
 20
132.4610017364024
 30
0.0
  0
LINE
  5
16F
330
1F
100
AcDbEntity
  8
0
  6
Continuous
 62
     7
370
    25
100
AcDbLine
 10
94.0862906335
 20
131.6616370255
 30
0.0
 11
86.0358565188
 21
131.2573607915
 31
0.0
  0
LINE
  5
170
330
1F
100
AcDbEntity
  8
0
  6
Continuous
 62
     7
370
    25
100
AcDbLine
 10
86.0358565188
 20
85.1191205363
 30
0.0
 11
86.0358565188
 21
99.0661176293
 31
0.0
  0
SPLINE
  5
171
330
1F
100
AcDbEntity
  8
0
  6
Continuous
 62
     7
370
    25
100
AcDbSpline
210
0.0
220
0.0
230
1.0
 70
     8
 71
     3
 72
     8
 73
     4
 74
     0
 42
0.000000001
 43
0.00000001
 40
0.0
 40
0.0
 40
0.0
 40
0.0
 40
1.0
 40
1.0
 40
1.0
 40
1.0
 10
91.85403097172443
 20
99.07070368759693
 30
0.0
 10
89.91463948741301
 20
99.06855759174732
 30
0.0
 10
87.97524800310161
 20
99.06696140522257
 30
0.0
 10
86.0358565187902
 20
99.06591395274687
 30
0.0
  0
SPLINE
  5
172
330
1F
100
AcDbEntity
  8
0
  6
Continuous
 62
     7
370
    25
100
AcDbSpline
210
0.0
220
0.0
230
1.0
 70
     8
 71
     3
 72
    13
 73
     9
 74
     0
 42
0.000000001
 43
0.00000001
 40
0.0
 40
0.0
 40
0.0
 40
0.0
 40
0.1686319999748085
 40
0.3360343310905433
 40
0.502536782590866
 40
0.6684737453788339
 40
0.834182263691515
 40
1.0
 40
1.0
 40
1.0
 40
1.0
 10
92.93752602119143
 20
99.20816013341458
 30
0.0
 10
92.87803612513169
 20
99.19364581337572
 30
0.0
 10
92.75949013485662
 20
99.16472301209116
 30
0.0
 10
92.57961343927073
 20
99.13076161868291
 30
0.0
 10
92.39922315164273
 20
99.10389605632393
 30
0.0
 10
92.21811097960888
 20
99.08493711921598
 30
0.0
 10
92.03635014244144
 20
99.07300666782031
 30
0.0
 10
91.91481737454679
 20
99.07147151625148
 30
0.0
 10
91.85403097172443
 20
99.07070368759693
 30
0.0
  0
SPLINE
  5
173
330
1F
100
AcDbEntity
  8
0
  6
Continuous
 62
     7
370
    25
100
AcDbSpline
210
0.0
220
0.0
230
1.0
 70
     8
 71
     3
 72
     8
 73
     4
 74
     0
 42
0.000000001
 43
0.00000001
 40
0.0
 40
0.0
 40
0.0
 40
0.0
 40
1.0
 40
1.0
 40
1.0
 40
1.0
 10
98.32971943768428
 20
99.21239817530002
 30
0.0
 10
96.53232476624645
 20
99.21052711477601
 30
0.0
 10
94.7349300948086
 20
99.2091049337519
 30
0.0
 10
92.93753542337078
 20
99.20813081075592
 30
0.0
  0
SPLINE
  5
174
330
1F
100
AcDbEntity
  8
0
  6
Continuous
 62
     7
370
    25
100
AcDbSpline
210
0.0
220
0.0
230
1.0
 70
     8
 71
     3
 72
    18
 73
    14
 74
     0
 42
0.000000001
 43
0.00000001
 40
0.0
 40
0.0
 40
0.0
 40
0.0
 40
0.0923325137111192
 40
0.1843692047063016
 40
0.2763458873810836
 40
0.3684982175655623
 40
0.4610598988303626
 40
0.554260954653301
 40
0.6483261285442131
 40
0.74347346365053
 40
0.8399130993119804
 40
0.9201660718299768
 40
1.0
 40
1.0
 40
1.0
 40
1.0
 10
100.5260410862866
 20
98.67820593945636
 30
0.0
 10
100.4557107827735
 20
98.67862256388798
 30
0.0
 10
100.3152755059216
 20
98.67945447793464
 30
0.0
 10
100.104912979419
 20
98.6930633248492
 30
0.0
 10
99.89546931650258
 20
98.71573008222086
 30
0.0
 10
99.6869196461301
 20
98.74833087202158
 30
0.0
 10
99.47927602885481
 20
98.79063335064185
 30
0.0
 10
99.27253784131523
 20
98.84270474929701
 30
0.0
 10
99.0667157493504
 20
98.9045535221424
 30
0.0
 10
98.86178407055823
 20
98.9761515335986
 30
0.0
 10
98.67030332516252
 20
99.052730023826
 30
0.0
 10
98.49258017310791
 20
99.13134127265906
 30
0.0
 10
98.38424617854389
 20
99.18525542844645
 30
0.0
 10
98.33022096909062
 20
99.21214194334542
 30
0.0
  0
LINE
  5
175
330
1F
100
AcDbEntity
  8
0
  6
Continuous
 62
     7
370
    25
100
AcDbLine
 10
102.4409143656
 20
98.6797013743
 30
0.0
 11
100.5260410863
 21
98.6782059395
 31
0.0
  0
SPLINE
  5
176
330
1F
100
AcDbEntity
  8
0
  6
Continuous
 62
     7
370
    25
100
AcDbSpline
210
0.0
220
0.0
230
1.0
 70
     8
 71
     3
 72
    25
 73
    21
 74
     0
 42
0.000000001
 43
0.00000001
 40
0.0
 40
0.0
 40
0.0
 40
0.0
 40
0.0280105225422753
 40
0.0559601148854256
 40
0.0839014045034749
 40
0.1118870776777086
 40
0.1399695827579646
 40
0.1682008401731476
 40
0.1966319670417595
 40
0.2253130233137476
 40
0.2542927850735311
 40
0.3799486436564626
 40
0.5057850221666382
 40
0.631308588631066
 40
0.7532068238011618
 40
0.8039473267946936
 40
0.8535894438541253
 40
0.9025339722380873
 40
0.9511970353782256
 40
1.0
 40
1.0
 40
1.0
 40
1.0
 10
107.3807986719789
 20
103.8135651788317
 30
0.0
 10
107.3808358937127
 20
103.7389451518192
 30
0.0
 10
107.3809102562134
 20
103.5898674158337
 30
0.0
 10
107.3684942055668
 20
103.3672493248695
 30
0.0
 10
107.346889645213
 20
103.1459249068421
 30
0.0
 10
107.315204175553
 20
102.9259566409542
 30
0.0
 10
107.2736780372331
 20
102.7073663537251
 30
0.0
 10
107.2222472815031
 20
102.4901844153201
 30
0.0
 10
107.1609334067919
 20
102.2744429954339
 30
0.0
 10
107.0897230712925
 20
102.0601531039817
 30
0.0
 10
106.9188864640913
 20
101.6118033309607
 30
0.0
 10
106.5811542306553
 20
100.9584725028886
 30
0.0
 10
105.9695995664606
 20
100.1865792922525
 30
0.0
 10
105.233364731308
 20
99.5424196668672
 30
0.0
 10
104.5468786596638
 20
99.1507784988052
 30
0.0
 10
103.998174513515
 20
98.93208359783215
 30
0.0
 10
103.6161383350134
 20
98.81622754900172
 30
0.0
 10
103.2289722363088
 20
98.73531964347185
 30
0.0
 10
102.8367455675187
 20
98.68609121267411
 30
0.0
 10
102.5729842993999
 20
98.68183335765889
 30
0.0
 10
102.440914365576
 20
98.67970137431612
 30
0.0
  0
LINE
  5
177
330
1F
100
AcDbEntity
  8
0
  6
Continuous
 62
     7
370
    25
100
AcDbLine
 10
107.380798672
 20
108.1882406639
 30
0.0
 11
107.380798672
 21
103.8135651788
 31
0.0
  0
LINE
  5
178
330
1F
100
AcDbEntity
  8
0
  6
Continuous
 62
     7
370
    25
100
AcDbLine
 10
123.3256744787
 20
133.1299787094
 30
0.0
 11
110.0042012062
 21
132.4610017364
 31
0.0
  0
SPLINE
  5
179
330
1F
100
AcDbEntity
  8
0
  6
Continuous
 62
     7
370
    25
100
AcDbSpline
210
0.0
220
0.0
230
1.0
 70
     8
 71
     3
 72
    20
 73
    16
 74
     0
 42
0.000000001
 43
0.00000001
 40
0.0
 40
0.0
 40
0.0
 40
0.0
 40
0.0829621378684853
 40
0.1658495135106165
 40
0.2487180070857357
 40
0.3299477216398524
 40
0.4108693994445735
 40
0.4941953814850562
 40
0.5768901676626227
 40
0.6601065810557777
 40
0.7435845489350854
 40
0.8279858465401888
 40
0.9132590745392885
 40
0.9972257035811806
 40
1.0
 40
1.0
 40
1.0
 40
1.0
 10
96.39827261350442
 20
85.32498029639343
 30
0.0
 10
96.78401844957573
 20
85.40189872299757
 30
0.0
 10
97.55516250269292
 20
85.55566626033517
 30
0.0
 10
98.96291065386275
 20
85.7315814817207
 30
0.0
 10
100.4707620217374
 20
85.82557776904973
 30
0.0
 10
102.0432509967552
 20
85.80173338718313
 30
0.0
 10
103.6105480279673
 20
85.65782834228256
 30
0.0
 10
105.1063240547488
 20
85.40877073948353
 30
0.0
 10
106.4865779304215
 20
85.09409004694487
 30
0.0
 10
107.6841721134771
 20
84.74982869496435
 30
0.0
 10
108.6710341432993
 20
84.4207814691446
 30
0.0
 10
109.4182723894973
 20
84.14232056093684
 30
0.0
 10
109.8654738188629
 20
83.97046476590519
 30
0.0
 10
110.0522284310129
 20
83.89661409430683
 30
0.0
 10
110.0011302171147
 20
83.91676538537989
 30
0.0
 10
109.9994959067696
 20
83.91740989838644
 30
0.0
  0
SPLINE
  5
17A
330
1F
100
AcDbEntity
  8
0
  6
Continuous
 62
     7
370
    25
100
AcDbSpline
210
0.0
220
0.0
230
1.0
 70
     8
 71
     3
 72
    11
 73
     7
 74
     0
 42
0.000000001
 43
0.00000001
 40
0.0
 40
0.0
 40
0.0
 40
0.0
 40
0.2435512231731368
 40
0.4981153923403522
 40
0.7509097881719443
 40
0.9999999999999999
 40
0.9999999999999999
 40
0.9999999999999999
 40
0.9999999999999999
 10
94.09077849576083
 20
84.71631808701031
 30
0.0
 10
94.11672941728612
 20
84.72455362354846
 30
0.0
 10
94.16980471409123
 20
84.74139709269794
 30
0.0
 10
94.64749969775373
 20
84.88229853483547
 30
0.0
 10
95.35883914602047
 20
85.08758908528365
 30
0.0
 10
96.05350379319515
 20
85.24624020348087
 30
0.0
 10
96.39827261350442
 20
85.32498029639343
 30
0.0
  0
LINE
  5
17B
330
1F
100
AcDbEntity
  8
0
  6
Continuous
 62
     7
370
    25
100
AcDbLine
 10
107.380798672
 20
103.8135651788
 30
0.0
 11
106.4858565188
 21
103.9757406639
 31
0.0
  0
LINE
  5
17C
330
1F
100
AcDbEntity
  8
0
  6
Continuous
 62
     7
370
    25
100
AcDbLine
 10
106.4858565188
 20
103.9757406639
 30
0.0
 11
106.4858565188
 21
108.1882406639
 31
0.0
  0
SPLINE
  5
17D
330
1F
100
AcDbEntity
  8
0
  6
Continuous
 62
     7
370
    25
100
AcDbSpline
210
0.0
220
0.0
230
1.0
 70
     8
 71
     3
 72
    25
 73
    21
 74
     0
 42
0.000000001
 43
0.00000001
 40
0.0
 40
0.0
 40
0.0
 40
0.0
 40
0.0288821753116583
 40
0.0583636594024247
 40
0.088464720432864
 40
0.1192044006641432
 40
0.1506005800108822
 40
0.1826700399688414
 40
0.2154285269587146
 40
0.2488908143380118
 40
0.3610594471217245
 40
0.498467013106778
 40
0.5822693905006526
 40
0.6661127642782239
 40
0.7499972937224496
 40
0.8007709755032478
 40
0.8511237700807983
 40
0.901089602450676
 40
0.9507031914109089
 40
1.0
 40
1.0
 40
1.0
 40
1.0
 10
102.4858565187775
 20
99.97574066390027
 30
0.0
 10
102.5486569720162
 20
99.9765971478521
 30
0.0
 10
102.6755609958161
 20
99.97832788790578
 30
0.0
 10
102.8669154035306
 20
99.99247775330957
 30
0.0
 10
103.0608202162092
 20
100.015614835631
 30
0.0
 10
103.2567209369376
 20
100.0490259878564
 30
0.0
 10
103.4540586049417
 20
100.0928998098892
 30
0.0
 10
103.6522119467269
 20
100.1476950808585
 30
0.0
 10
103.8505276907351
 20
100.2137640422221
 30
0.0
 10
104.2018486782377
 20
100.3517453744751
 30
0.0
 10
104.7269604485601
 20
100.6317973133162
 30
0.0
 10
105.2639522770456
 20
101.0703879157246
 30
0.0
 10
105.6760120070841
 20
101.5442480372713
 30
0.0
 10
105.9629305951365
 20
101.9759317850911
 30
0.0
 10
106.1613572823437
 20
102.3790550268512
 30
0.0
 10
106.2934431563921
 20
102.7367911876302
 30
0.0
 10
106.3790770361899
 20
103.0395435899126
 30
0.0
 10
106.4401592475429
 20
103.3480319001583
 30
0.0
 10
106.4786601909084
 20
103.6603436103146
 30
0.0
 10
106.4834628700019
 20
103.870833024216
 30
0.0
 10
106.4858565187775
 20
103.9757406639003
 30
0.0
  0
SPLINE
  5
17E
330
1F
100
AcDbEntity
  8
0
  6
Continuous
 62
     7
370
    25
100
AcDbSpline
210
0.0
220
0.0
230
1.0
 70
     8
 71
     3
 72
    13
 73
     9
 74
     0
 42
0.000000001
 43
0.00000001
 40
0.0
 40
0.0
 40
0.0
 40
0.0
 40
0.1722587823678385
 40
0.3421398271425444
 40
0.5097456258111679
 40
0.6751828993453325
 40
0.8385626190248169
 40
1.0
 40
1.0
 40
1.0
 40
1.0
 10
99.48587488768771
 20
100.1257354866501
 30
0.0
 10
99.54673827736028
 20
100.1094717589506
 30
0.0
 10
99.66762494180567
 20
100.0771687964698
 30
0.0
 10
99.85068609977812
 20
100.0397811417762
 30
0.0
 10
100.0327887827188
 20
100.0106482068661
 30
0.0
 10
100.2137302310354
 20
99.9904614912607
 30
0.0
 10
100.3930692347317
 20
99.97801468696005
 30
0.0
 10
100.5119154631451
 20
99.97649564373268
 30
0.0
 10
100.570983239488
 20
99.97574066390027
 30
0.0
  0
LINE
  5
17F
330
1F
100
AcDbEntity
  8
0
  6
Continuous
 62
     7
370
    25
100
AcDbLine
 10
100.5260410863
 20
98.6782059395
 30
0.0
 11
100.5709832395
 21
99.9757406639
 31
0.0
  0
SPLINE
  5
180
330
1F
100
AcDbEntity
  8
0
  6
Continuous
 62
     7
370
    25
100
AcDbSpline
210
0.0
220
0.0
230
1.0
 70
     8
 71
     3
 72
    11
 73
     7
 74
     0
 42
0.000000001
 43
0.00000001
 40
0.0
 40
0.0
 40
0.0
 40
0.0
 40
0.2392913844325938
 40
0.5001130135003002
 40
0.7515028526498353
 40
0.9999999999999999
 40
0.9999999999999999
 40
0.9999999999999999
 40
0.9999999999999999
 10
99.15838402663151
 20
100.1263142689234
 30
0.0
 10
99.08955909068457
 20
100.0547608317687
 30
0.0
 10
98.94571669451138
 20
99.90521593625746
 30
0.0
 10
98.7379678961448
 20
99.67629850961194
 30
0.0
 10
98.52998169152369
 20
99.44398013737214
 30
0.0
 10
98.39698076775343
 20
99.28920425478087
 30
0.0
 10
98.33086512352898
 20
99.212264133631
 30
0.0
  0
SPLINE
  5
181
330
1F
100
AcDbEntity
  8
0
  6
Continuous
 62
     7
370
    25
100
AcDbSpline
210
0.0
220
0.0
230
1.0
 70
    24
 71
     3
 72
     9
 73
     5
 74
     0
 42
0.000000001
 43
0.00000001
 40
0.0
 40
0.0
 40
0.0
 40
0.0
 40
0.509083966986604
 40
1.0
 40
1.0
 40
1.0
 40
1.0
 10
99.16061429495099
 20
100.1257406639003
 30
0.0
 10
99.21534769506334
 20
100.1257406639003
 30
0.0
 10
99.32286119708216
 20
100.1257406639003
 30
0.0
 10
99.43225375745311
 20
100.1257406639003
 30
0.0
 10
99.4859563192316
 20
100.1257406639003
 30
0.0
  0
LINE
  5
182
330
1F
100
AcDbEntity
  8
0
  6
Continuous
 62
     7
370
    25
100
AcDbLine
 10
92.9120064304
 20
100.1056888901
 30
0.0
 11
92.937420922
 21
99.2081307195
 31
0.0
  0
SPLINE
  5
183
330
1F
100
AcDbEntity
  8
0
  6
Continuous
 62
     7
370
    25
100
AcDbSpline
210
0.0
220
0.0
230
1.0
 70
     8
 71
     3
 72
     8
 73
     4
 74
     0
 42
0.000000001
 43
0.00000001
 40
0.0
 40
0.0
 40
0.0
 40
0.0
 40
1.0
 40
1.0
 40
1.0
 40
1.0
 10
92.91201762150567
 20
100.1056893802395
 30
0.0
 10
92.93382047798771
 20
100.1113867112721
 30
0.0
 10
92.95557518738524
 20
100.1172682940671
 30
0.0
 10
92.9772786427033
 20
100.1233332886202
 30
0.0
  0
LINE
  5
184
330
1F
100
AcDbEntity
  8
0
  6
Continuous
 62
     7
370
    25
100
AcDbLine
 10
92.9858565188
 20
100.1257406639
 30
0.0
 11
99.1595294911
 21
100.1257406639
 31
0.0
  0
LINE
  5
185
330
1F
100
AcDbEntity
  8
0
  6
Continuous
 62
     7
370
    25
100
AcDbLine
 10
100.5709832395
 20
99.9757406639
 30
0.0
 11
102.4858565188
 21
99.9757406639
 31
0.0
  0
SPLINE
  5
186
330
1F
100
AcDbEntity
  8
0
  6
Continuous
 62
     7
370
    25
100
AcDbSpline
210
0.0
220
0.0
230
1.0
 70
     8
 71
     3
 72
    13
 73
     9
 74
     0
 42
0.000000001
 43
0.00000001
 40
0.0
 40
0.0
 40
0.0
 40
0.0
 40
0.1621004456571512
 40
0.325943455157606
 40
0.4915935308260523
 40
0.6591130873964648
 40
0.8285624736043361
 40
1.0
 40
1.0
 40
1.0
 40
1.0
 10
91.90072979806692
 20
99.97574066390027
 30
0.0
 10
91.95628475613246
 20
99.97640963010151
 30
0.0
 10
92.06799188259721
 20
99.97775475382485
 30
0.0
 10
92.23583957199097
 20
99.9887013226162
 30
0.0
 10
92.40462599085936
 20
100.0063402519369
 30
0.0
 10
92.57395034739119
 20
100.0316457659248
 30
0.0
 10
92.74369699556857
 20
100.0639497687178
 30
0.0
 10
92.85568989422622
 20
100.0917213686038
 30
0.0
 10
92.91201292925595
 20
100.105688154105
 30
0.0
  0
LINE
  5
187
330
1F
100
AcDbEntity
  8
0
  6
Continuous
 62
     7
370
    25
100
AcDbLine
 10
85.1221966972
 20
99.44823892
 30
0.0
 11
86.0358565188
 21
99.9757406639
 31
0.0
  0
LINE
  5
188
330
1F
100
AcDbEntity
  8
0
  6
Continuous
 62
     7
370
    25
100
AcDbLine
 10
86.0358565188
 20
99.9757406639
 30
0.0
 11
91.9007297981
 21
99.9757406639
 31
0.0
  0
SPLINE
  5
189
330
1F
100
AcDbEntity
  8
0
  6
Continuous
 62
     7
370
    25
100
AcDbSpline
210
0.0
220
0.0
230
1.0
 70
     8
 71
     3
 72
     8
 73
     4
 74
     0
 42
0.000000001
 43
0.00000001
 40
0.0
 40
0.0
 40
0.0
 40
0.0
 40
1.0
 40
1.0
 40
1.0
 40
1.0
 10
86.03585651832651
 20
99.06591395252426
 30
0.0
 10
85.73130324462097
 20
99.19460481707105
 30
0.0
 10
85.42674997091545
 20
99.32204957333278
 30
0.0
 10
85.12219669720992
 20
99.44823891997049
 30
0.0
  0
LINE
  5
18A
330
1F
100
AcDbEntity
  8
0
  6
Continuous
 62
     7
370
    25
100
AcDbLine
 10
84.5358565188
 20
85.9851459401
 30
0.0
 11
84.5358565188
 21
99.1097152601
 31
0.0
  0
SPLINE
  5
18B
330
1F
100
AcDbEntity
  8
0
  6
Continuous
 62
     7
370
    25
100
AcDbSpline
210
0.0
220
0.0
230
1.0
 70
    24
 71
     3
 72
     8
 73
     4
 74
     0
 42
0.000000001
 43
0.00000001
 40
0.0
 40
0.0
 40
0.0
 40
0.0
 40
1.0
 40
1.0
 40
1.0
 40
1.0
 10
85.12219669720992
 20
99.44823891997049
 30
0.0
 10
84.92586467155157
 20
99.33488657210611
 30
0.0
 10
84.73040365131135
 20
99.22203709945434
 30
0.0
 10
84.53585651877746
 20
99.10971526011583
 30
0.0
  0
ARC
  5
18C
330
1F
100
AcDbEntity
  8
0
  6
Continuous
 62
     7
370
    25
100
AcDbCircle
 10
117.6858565188
 20
125.6382406639
 30
0.0
 40
0.8000000000000114
100
AcDbArc
 50
0.0
 51
90.0
  0
ARC
  5
18D
330
1F
100
AcDbEntity
  8
0
  6
Continuous
 62
     7
370
    25
100
AcDbCircle
 10
116.2610969924
 20
125.6382406639
 30
0.0
 40
0.8000000000000119
100
AcDbArc
 50
90.0
 51
120.0
  0
LINE
  5
18E
330
1F
100
AcDbEntity
  8
0
  6
Continuous
 62
     7
370
    25
100
AcDbLine
 10
116.2610969924
 20
126.4382406639
 30
0.0
 11
117.6858565188
 21
126.4382406639
 31
0.0
  0
LINE
  5
18F
330
1F
100
AcDbEntity
  8
0
  6
Continuous
 62
     7
370
    25
100
AcDbLine
 10
114.9858565188
 20
125.8257406639
 30
0.0
 11
114.9858565188
 21
108.1882406639
 31
0.0
  0
LINE
  5
190
330
1F
100
AcDbEntity
  8
0
  6
Continuous
 62
     7
370
    25
100
AcDbLine
 10
114.9858565188
 20
125.8257406639
 30
0.0
 11
115.8610969924
 21
126.3310609869
 31
0.0
  0
LINE
  5
191
330
1F
100
AcDbEntity
  8
0
  6
Continuous
 62
     7
370
    25
100
AcDbLine
 10
85.2875225686
 20
99.5436898563
 30
0.0
 11
85.1510537962
 21
99.4648995739
 31
0.0
  0
SPLINE
  5
192
330
1F
100
AcDbEntity
  8
0
  6
Continuous
 62
     7
370
    25
100
AcDbSpline
210
0.0
220
0.0
230
1.0
 70
     8
 71
     3
 72
    32
 73
    28
 74
     0
 42
0.000000001
 43
0.00000001
 40
0.0
 40
0.0
 40
0.0
 40
0.0
 40
0.1249999999999989
 40
0.1249999999999989
 40
0.1874999999999988
 40
0.1874999999999988
 40
0.2499999999999986
 40
0.2499999999999986
 40
0.3124999999999984
 40
0.3124999999999984
 40
0.3749999999999983
 40
0.3749999999999983
 40
0.4999999999999986
 40
0.4999999999999986
 40
0.562499999999999
 40
0.562499999999999
 40
0.6249999999999994
 40
0.6249999999999994
 40
0.7500000000000002
 40
0.7500000000000002
 40
0.8125000000000003
 40
0.8125000000000003
 40
0.8750000000000002
 40
0.8750000000000002
 40
0.9375000000000001
 40
0.9375000000000001
 40
1.0
 40
1.0
 40
1.0
 40
1.0
 10
98.95348685011808
 20
124.3609094181098
 30
0.0
 10
98.46941260616407
 20
124.3612688107295
 30
0.0
 10
97.9860150355972
 20
124.3762280169108
 30
0.0
 10
97.26210968586119
 20
124.4232120634194
 30
0.0
 10
97.02144725232434
 20
124.4429886185439
 30
0.0
 10
96.55010114324872
 20
124.4899527020431
 30
0.0
 10
96.31826532695847
 20
124.5172065512275
 30
0.0
 10
95.86256224040216
 20
124.5788344798401
 30
0.0
 10
95.63869391746083
 20
124.6132095806356
 30
0.0
 10
95.19936632545303
 20
124.6885290242886
 30
0.0
 10
94.98264893278663
 20
124.7297469750369
 30
0.0
 10
94.35630695411382
 20
124.8599837942176
 30
0.0
 10
93.97191431976042
 20
124.9550237061169
 30
0.0
 10
93.44437257414059
 20
125.1012906680693
 30
0.0
 10
93.27673842260948
 20
125.1506593032599
 30
0.0
 10
92.95833367536892
 20
125.2490630107602
 30
0.0
 10
92.80875280082978
 20
125.2977462753927
 30
0.0
 10
92.39573273128136
 20
125.4373690785611
 30
0.0
 10
92.16418096012221
 20
125.5229557571416
 30
0.0
 10
91.88087144503254
 20
125.6319188050577
 30
0.0
 10
91.79730376326071
 20
125.6649674576322
 30
0.0
 10
91.65537893093654
 20
125.7219708538725
 30
0.0
 10
91.59639081949398
 20
125.7461675594829
 30
0.0
 10
91.50167491578415
 20
125.7853698398619
 30
0.0
 10
91.46594694863738
 20
125.800377006359
 30
0.0
 10
91.41798267091994
 20
125.8205860040859
 30
0.0
 10
91.40585636348646
 20
125.8257406639003
 30
0.0
 10
91.40585636348645
 20
125.8257406639003
 30
0.0
  0
SPLINE
  5
193
330
1F
100
AcDbEntity
  8
0
  6
Continuous
 62
     7
370
    25
100
AcDbSpline
210
0.0
220
0.0
230
1.0
 70
     8
 71
     3
 72
    31
 73
    27
 74
     0
 42
0.000000001
 43
0.00000001
 40
0.0
 40
0.0
 40
0.0
 40
0.0
 40
0.0161756722762516
 40
0.0323169137831901
 40
0.0484425619887058
 40
0.0645715089965098
 40
0.0807226353345217
 40
0.0969147439454887
 40
0.1131664955259477
 40
0.1294963463054467
 40
0.1459224892616117
 40
0.16246279963486
 40
0.1791347854483568
 40
0.1959555435640281
 40
0.2945755146277851
 40
0.3932797312250729
 40
0.492817622193321
 40
0.5924285912823333
 40
0.693902091744813
 40
0.7927115381487325
 40
0.8267756331435501
 40
0.860804332496487
 40
0.89498463140099
 40
0.9295010594357854
 40
0.964532832246829
 40
1.0
 40
1.0
 40
1.0
 40
1.0
 10
109.9618059088615
 20
125.8257406639003
 30
0.0
 10
109.9610728084104
 20
125.8253942724723
 30
0.0
 10
109.9596081679509
 20
125.8247022269288
 30
0.0
 10
109.9465517882858
 20
125.8191198648825
 30
0.0
 10
109.925537227763
 20
125.8102531018883
 30
0.0
 10
109.8957900224223
 20
125.7978120011734
 30
0.0
 10
109.8575177097667
 20
125.7819213426181
 30
0.0
 10
109.8106650288455
 20
125.7625955987909
 30
0.0
 10
109.7552472988086
 20
125.7398795092715
 30
0.0
 10
109.6912613349781
 20
125.7138105048967
 30
0.0
 10
109.6187078508275
 20
125.6844280575286
 30
0.0
 10
109.5375911533479
 20
125.6517738101938
 30
0.0
 10
109.4478974985979
 20
125.6158813631594
 30
0.0
 10
109.1908516519414
 20
125.5136434554926
 30
0.0
 10
108.6628156663485
 20
125.3071192420259
 30
0.0
 10
107.6841810191023
 20
124.970033928676
 30
0.0
 10
106.4983047161836
 20
124.6268890693482
 30
0.0
 10
105.1278384511103
 20
124.3297771686876
 30
0.0
 10
103.6419811791457
 20
124.1197337409546
 30
0.0
 10
102.4218285453807
 20
124.061508338086
 30
0.0
 10
101.5554045124358
 20
124.0752006793461
 30
0.0
 10
101.027159583959
 20
124.1005687649572
 30
0.0
 10
100.5023863527528
 20
124.1425913806747
 30
0.0
 10
99.98139711316037
 20
124.2008753439027
 30
0.0
 10
99.4641561681019
 20
124.2734988891482
 30
0.0
 10
99.12851905576802
 20
124.332379206838
 30
0.0
 10
98.9596640677063
 20
124.3620011853833
 30
0.0
  0
LINE
  5
194
330
1F
100
AcDbEntity
  8
0
  6
Continuous
 62
     7
370
    25
100
AcDbLine
 10
109.9618059089
 20
125.8257406639
 30
0.0
 11
114.9858565188
 21
125.8257406639
 31
0.0
  0
LINE
  5
195
330
1F
100
AcDbEntity
  8
0
  6
Continuous
 62
     7
370
    25
100
AcDbLine
 10
107.1358565188
 20
112.2510140747
 30
0.0
 11
107.1358565188
 21
108.1882406639
 31
0.0
  0
SPLINE
  5
196
330
1F
100
AcDbEntity
  8
0
  6
Continuous
 62
     7
370
    25
100
AcDbSpline
210
0.0
220
0.0
230
1.0
 70
     8
 71
     3
 72
    25
 73
    21
 74
     0
 42
0.000000001
 43
0.00000001
 40
0.0
 40
0.0
 40
0.0
 40
0.0
 40
0.0278144320063462
 40
0.0555680196245754
 40
0.083331625367772
 40
0.111176035216759
 40
0.1391714221532265
 40
0.1673868326284763
 40
0.1958897140434718
 40
0.2247454979318961
 40
0.254017249222145
 40
0.3796724410016501
 40
0.5056484635002454
 40
0.629752729069345
 40
0.7535891720571729
 40
0.8038564806093713
 40
0.853339684343451
 40
0.9023264398358534
 40
0.9511131859219439
 40
1.0
 40
1.0
 40
1.0
 40
1.0
 10
102.4858565187775
 20
116.7357372462653
 30
0.0
 10
102.5545118727398
 20
116.7352041611582
 30
0.0
 10
102.6916723962924
 20
116.7341391570737
 30
0.0
 10
102.8969149788782
 20
116.7210442596815
 30
0.0
 10
103.1012359953753
 20
116.699505773109
 30
0.0
 10
103.3046370474643
 20
116.6686843012604
 30
0.0
 10
103.5071126783102
 20
116.6287715487529
 30
0.0
 10
103.7086615425578
 20
116.579671355812
 30
0.0
 10
103.9092755633605
 20
116.5213581083001
 30
0.0
 10
104.1089733276928
 20
116.4537661654334
 30
0.0
 10
104.5245381483721
 20
116.2929526493177
 30
0.0
 10
105.1273145649146
 20
115.9789757499764
 30
0.0
 10
105.8213711204195
 20
115.4154042744817
 30
0.0
 10
106.3881447498167
 20
114.7396600552277
 30
0.0
 10
106.7257225554879
 20
114.1222982277511
 30
0.0
 10
106.9141849647768
 20
113.6302367882411
 30
0.0
 10
107.0134461823013
 20
113.2925850056947
 30
0.0
 10
107.0837907710081
 20
112.9499538636712
 30
0.0
 10
107.1277893695267
 20
112.6025891632296
 30
0.0
 10
107.133165633007
 20
112.3682857866227
 30
0.0
 10
107.1358565187775
 20
112.2510140747
 30
0.0
  0
LINE
  5
197
330
1F
100
AcDbEntity
  8
0
  6
Continuous
 62
     7
370
    25
100
AcDbLine
 10
100.5709832395
 20
116.7357372463
 30
0.0
 11
102.4858565188
 21
116.7357372463
 31
0.0
  0
SPLINE
  5
198
330
1F
100
AcDbEntity
  8
0
  6
Continuous
 62
     7
370
    25
100
AcDbSpline
210
0.0
220
0.0
230
1.0
 70
     8
 71
     3
 72
    12
 73
     8
 74
     0
 42
0.000000001
 43
0.00000001
 40
0.0
 40
0.0
 40
0.0
 40
0.0
 40
0.1992838848975294
 40
0.3984605265796777
 40
0.5979968004971673
 40
0.7983570684833388
 40
1.0
 40
1.0
 40
1.0
 40
1.0
 10
99.569949397149
 20
116.6335429335418
 30
0.0
 10
99.63540267444947
 20
116.6465652863065
 30
0.0
 10
99.76627400583143
 20
116.6726029839487
 30
0.0
 10
99.96512345745519
 20
116.7010335429227
 30
0.0
 10
100.1655299733263
 20
116.7214647039042
 30
0.0
 10
100.3677008907435
 20
116.7339037809748
 30
0.0
 10
100.5030784743946
 20
116.7351247925494
 30
0.0
 10
100.570983239488
 20
116.7357372462653
 30
0.0
  0
LINE
  5
199
330
1F
100
AcDbEntity
  8
0
  6
Continuous
 62
     7
370
    25
100
AcDbLine
 10
94.1451863896
 20
116.6333790095
 30
0.0
 11
99.5691764081
 21
116.6333790095
 31
0.0
  0
SPLINE
  5
19A
330
1F
100
AcDbEntity
  8
0
  6
Continuous
 62
     7
370
    25
100
AcDbSpline
210
0.0
220
0.0
230
1.0
 70
     8
 71
     3
 72
    24
 73
    20
 74
     0
 42
0.000000001
 43
0.00000001
 40
0.0
 40
0.0
 40
0.0
 40
0.0
 40
0.0410257106287842
 40
0.0818520099077639
 40
0.1225800578354648
 40
0.1633117464058233
 40
0.2041489402806705
 40
0.2451927184749161
 40
0.2865426449235763
 40
0.3282960933646444
 40
0.370547647549383
 40
0.4133885920102291
 40
0.4569065022351533
 40
0.5011849368587563
 40
0.6001856774947433
 40
0.6987388860447942
 40
0.7976800645453981
 40
0.8978349910029445
 40
1.0
 40
1.0
 40
1.0
 40
1.0
 10
90.37319948262733
 20
118.5710208265632
 30
0.0
 10
90.43623857058185
 20
118.5704861262481
 30
0.0
 10
90.56201033596375
 20
118.5694193246054
 30
0.0
 10
90.74994849747456
 20
118.5582758326073
 30
0.0
 10
90.93653859029915
 20
118.5401143342996
 30
0.0
 10
91.12178037283428
 20
118.5142394135782
 30
0.0
 10
91.3056695560622
 20
118.4808025277665
 30
0.0
 10
91.48820322203497
 20
118.4397185062229
 30
0.0
 10
91.66937862897429
 20
118.3909557581294
 30
0.0
 10
91.84919341295043
 20
118.3344582699857
 30
0.0
 10
92.02764661203
 20
118.2701671751835
 30
0.0
 10
92.20473465017967
 20
118.1980134952511
 30
0.0
 10
92.3804667744654
 20
118.1179263102124
 30
0.0
 10
92.62548140806173
 20
117.99408542353
 30
0.0
 10
92.92966448724394
 20
117.8154604413368
 30
0.0
 10
93.27697196868903
 20
117.5663712572795
 30
0.0
 10
93.59614623216144
 20
117.2868016722999
 30
0.0
 10
93.89005813442616
 20
116.9779760343277
 30
0.0
 10
94.05958222111799
 20
116.7498839910259
 30
0.0
 10
94.1451863896008
 20
116.6347049029953
 30
0.0
  0
LINE
  5
19B
330
1F
100
AcDbEntity
  8
0
  6
Continuous
 62
     7
370
    25
100
AcDbLine
 10
87.5816577657
 20
118.5710208266
 30
0.0
 11
90.3731994826
 21
118.5710208266
 31
0.0
  0
SPLINE
  5
19C
330
1F
100
AcDbEntity
  8
0
  6
Continuous
 62
     7
370
    25
100
AcDbSpline
210
0.0
220
0.0
230
1.0
 70
     8
 71
     3
 72
     8
 73
     4
 74
     0
 42
0.000000001
 43
0.00000001
 40
0.0
 40
0.0
 40
0.0
 40
0.0
 40
1.0
 40
1.0
 40
1.0
 40
1.0
 10
87.53585369401871
 20
118.6344738175729
 30
0.0
 10
87.5511217179164
 20
118.6133573471748
 30
0.0
 10
87.56638974181408
 20
118.5922062801221
 30
0.0
 10
87.58165776571177
 20
118.5710208265632
 30
0.0
  0
LINE
  5
19D
330
1F
100
AcDbEntity
  8
0
  6
Continuous
 62
     7
370
    25
100
AcDbLine
 10
87.5358565188
 20
125.8257406639
 30
0.0
 11
87.5358565188
 21
118.6344738176
 31
0.0
  0
LINE
  5
19E
330
1F
100
AcDbEntity
  8
0
  6
Continuous
 62
     7
370
    25
100
AcDbLine
 10
87.5358565188
 20
125.8257406639
 30
0.0
 11
91.4058563635
 21
125.8257406639
 31
0.0
  0
LINE
  5
19F
330
1F
100
AcDbEntity
  8
0
  6
Continuous
 62
     7
370
    25
100
AcDbLine
 10
118.4858565188
 20
123.7382406639
 30
0.0
 11
122.1858565188
 21
123.7382406639
 31
0.0
  0
LINE
  5
1A0
330
1F
100
AcDbEntity
  8
0
  6
Continuous
 62
     7
370
    25
100
AcDbLine
 10
118.4858565188
 20
123.7382406639
 30
0.0
 11
118.4858565188
 21
108.1882406639
 31
0.0
  0
ARC
  5
1A1
330
1F
100
AcDbEntity
  8
0
  6
Continuous
 62
     7
370
    25
100
AcDbCircle
 10
122.1858565188
 20
122.5382406639
 30
0.0
 40
1.200000000000017
100
AcDbArc
 50
0.0
 51
90.0
  0
ARC
  5
1A2
330
1F
100
AcDbEntity
  8
0
  6
Continuous
 62
     7
370
    25
100
AcDbCircle
 10
145.4858565188
 20
123.6882406639
 30
0.0
 40
2.999999999999986
100
AcDbArc
 50
180.0
 51
270.0
  0
SPLINE
  5
1A3
330
1F
100
AcDbEntity
  8
0
  6
Continuous
 62
     7
370
    25
100
AcDbSpline
210
0.0
220
0.0
230
1.0
 70
     8
 71
     3
 72
     9
 73
     5
 74
     0
 42
0.000000001
 43
0.00000001
 40
0.0
 40
0.0
 40
0.0
 40
0.0
 40
0.8401513378580656
 40
1.0
 40
1.0
 40
1.0
 40
1.0
 10
204.0849160855601
 20
120.6882406639003
 30
0.0
 10
204.1029544460362
 20
120.6813788606209
 30
0.0
 10
204.1244248165079
 20
120.673211518655
 30
0.0
 10
204.386709071005
 20
120.6203559752824
 30
0.0
 10
204.4286348581872
 20
120.6119070873875
 30
0.0
  0
SPLINE
  5
1A4
330
1F
100
AcDbEntity
  8
0
  6
Continuous
 62
     7
370
    25
100
AcDbSpline
210
0.0
220
0.0
230
1.0
 70
     8
 71
     3
 72
     9
 73
     5
 74
     0
 42
0.000000001
 43
0.00000001
 40
0.0
 40
0.0
 40
0.0
 40
0.0
 40
0.1603278004780276
 40
1.0
 40
1.0
 40
1.0
 40
1.0
 10
209.5431203803934
 20
120.6118995632973
 30
0.0
 10
209.5851608906845
 20
120.6203721422578
 30
0.0
 10
209.8473768642449
 20
120.6732174936894
 30
0.0
 10
209.8688043298332
 20
120.6813837149405
 30
0.0
 10
209.8867963769939
 20
120.6882406639003
 30
0.0
  0
LINE
  5
1A5
330
1F
100
AcDbEntity
  8
0
  6
Continuous
 62
     7
370
    25
100
AcDbLine
 10
204.0849160856
 20
120.6882406639
 30
0.0
 11
145.4858565188
 21
120.6882406639
 31
0.0
  0
LINE
  5
1A6
330
1F
100
AcDbEntity
  8
0
  6
Continuous
 62
     7
370
    25
100
AcDbLine
 10
215.9078288367
 20
95.6882406639
 30
0.0
 11
215.9078288367
 21
108.1882406639
 31
0.0
  0
LINE
  5
1A7
330
1F
100
AcDbEntity
  8
0
  6
Continuous
 62
     7
370
    25
100
AcDbLine
 10
215.9078288367
 20
120.6882406639
 30
0.0
 11
209.886796377
 21
120.6882406639
 31
0.0
  0
LINE
  5
1A8
330
1F
100
AcDbEntity
  8
0
  6
Continuous
 62
     7
370
    25
100
AcDbLine
 10
223.3310930423
 20
117.2267157164
 30
0.0
 11
215.9078288367
 21
120.6882406639
 31
0.0
  0
LINE
  5
1A9
330
1F
100
AcDbEntity
  8
0
  6
Continuous
 62
     7
370
    25
100
AcDbLine
 10
224.4858565188
 20
100.9623812693
 30
0.0
 11
224.4858565188
 21
108.1882406639
 31
0.0
  0
ARC
  5
1AA
330
1F
100
AcDbEntity
  8
0
  6
Continuous
 62
     7
370
    25
100
AcDbCircle
 10
222.4858565188
 20
115.4141001423
 30
0.0
 40
2.0
100
AcDbArc
 50
0.0
 51
65.0
  0
LINE
  5
1AB
330
1F
100
AcDbEntity
  8
0
  6
Continuous
 62
     7
370
    25
100
AcDbLine
 10
127.2108565188
 20
113.9382406639
 30
0.0
 11
128.0358565188
 21
113.9382406639
 31
0.0
  0
LINE
  5
1AC
330
1F
100
AcDbEntity
  8
0
  6
Continuous
 62
     7
370
    25
100
AcDbLine
 10
123.7858565188
 20
113.1882406639
 30
0.0
 11
123.7858565188
 21
108.1882406639
 31
0.0
  0
LINE
  5
1AD
330
1F
100
AcDbEntity
  8
0
  6
Continuous
 62
     7
370
    25
100
AcDbLine
 10
123.3858565188
 20
113.4191807716
 30
0.0
 11
123.7858565188
 21
113.1882406639
 31
0.0
  0
LINE
  5
1AE
330
1F
100
AcDbEntity
  8
0
  6
Continuous
 62
     7
370
    25
100
AcDbLine
 10
123.3858565188
 20
113.4191807716
 30
0.0
 11
123.3858565188
 21
108.1882406639
 31
0.0
  0
LINE
  5
1AF
330
1F
100
AcDbEntity
  8
0
  6
Continuous
 62
     7
370
    25
100
AcDbLine
 10
123.7858565188
 20
113.1882406639
 30
0.0
 11
127.2108565188
 21
113.1882406639
 31
0.0
  0
LINE
  5
1B0
330
1F
100
AcDbEntity
  8
0
  6
Continuous
 62
     7
370
    25
100
AcDbLine
 10
127.2108565188
 20
113.1882406639
 30
0.0
 11
127.2108565188
 21
108.1882406639
 31
0.0
  0
LINE
  5
1B1
330
1F
100
AcDbEntity
  8
0
  6
Continuous
 62
     7
370
    25
100
AcDbLine
 10
191.5867171378
 20
111.1882406639
 30
0.0
 11
191.5867171378
 21
108.1882406639
 31
0.0
  0
LINE
  5
1B2
330
1F
100
AcDbEntity
  8
0
  6
Continuous
 62
     7
370
    25
100
AcDbLine
 10
190.9858565188
 20
112.1882406639
 30
0.0
 11
190.9858565188
 21
108.1882406639
 31
0.0
  0
LINE
  5
1B3
330
1F
100
AcDbEntity
  8
0
  6
Continuous
 62
     7
370
    25
100
AcDbLine
 10
190.9858565188
 20
112.1882406639
 30
0.0
 11
191.5867171378
 21
111.1882406639
 31
0.0
  0
LINE
  5
1B4
330
1F
100
AcDbEntity
  8
0
  6
Continuous
 62
     7
370
    25
100
AcDbLine
 10
128.0358565188
 20
112.1882406639
 30
0.0
 11
190.9858565188
 21
112.1882406639
 31
0.0
  0
LINE
  5
1B5
330
1F
100
AcDbEntity
  8
0
  6
Continuous
 62
     7
370
    25
100
AcDbLine
 10
128.0358565188
 20
112.1882406639
 30
0.0
 11
128.0358565188
 21
108.1882406639
 31
0.0
  0
ARC
  5
1B6
330
1F
100
AcDbEntity
  8
0
  6
Continuous
 62
     7
370
    25
100
AcDbCircle
 10
224.1858565188
 20
111.4882406639
 30
0.0
 40
0.2999999999999972
100
AcDbArc
 50
270.0
 51
0.0
  0
LINE
  5
1B7
330
1F
100
AcDbEntity
  8
0
  6
Continuous
 62
     7
370
    25
100
AcDbLine
 10
224.4858565188
 20
111.4882406639
 30
0.0
 11
224.4858565188
 21
108.1882406639
 31
0.0
  0
SPLINE
  5
1B8
330
1F
100
AcDbEntity
  8
0
  6
Continuous
 62
     7
370
    25
100
AcDbSpline
210
0.0
220
0.0
230
1.0
 70
     8
 71
     3
 72
    16
 73
    12
 74
     0
 42
0.000000001
 43
0.00000001
 40
0.0
 40
0.0
 40
0.0
 40
0.0
 40
0.0761769176785009
 40
0.2357361056635383
 40
0.3406536179495875
 40
0.4481506302707417
 40
0.5532558532906198
 40
0.6619845048709432
 40
0.7943784060164161
 40
0.930417232468863
 40
1.0
 40
1.0
 40
1.0
 40
1.0
 10
205.8749560550422
 20
110.1882406639002
 30
0.0
 10
205.9236146442539
 20
110.1602979958546
 30
0.0
 10
206.0741928860286
 20
110.0738269761852
 30
0.0
 10
206.3194880729923
 20
109.9687444129433
 30
0.0
 10
206.6025683519598
 20
109.8843595922231
 30
0.0
 10
206.856496119387
 20
109.8449086805682
 30
0.0
 10
207.1177459576248
 20
109.8450463631756
 30
0.0
 10
207.3946305928717
 20
109.8884922051307
 30
0.0
 10
207.6791084544071
 20
109.9798974072936
 30
0.0
 10
207.9211364913443
 20
110.0856084386157
 30
0.0
 10
208.0498040091571
 20
110.1622910959724
 30
0.0
 10
208.0933453600791
 20
110.1882406639002
 30
0.0
  0
LINE
  5
1B9
330
1F
100
AcDbEntity
  8
0
  6
Continuous
 62
     7
370
    25
100
AcDbLine
 10
209.4858565188
 20
111.1882406639
 30
0.0
 11
224.1858565188
 21
111.1882406639
 31
0.0
  0
LINE
  5
1BA
330
1F
100
AcDbEntity
  8
0
  6
Continuous
 62
     7
370
    25
100
AcDbLine
 10
191.5867171378
 20
111.1882406639
 30
0.0
 11
204.4858565188
 21
111.1882406639
 31
0.0
  0
SPLINE
  5
1BB
330
1F
100
AcDbEntity
  8
0
  6
Continuous
 62
     7
370
    25
100
AcDbSpline
210
0.0
220
0.0
230
1.0
 70
     8
 71
     3
 72
    37
 73
    33
 74
     0
 42
0.000000001
 43
0.00000001
 40
0.0
 40
0.0
 40
0.0
 40
0.0
 40
0.0114878548102799
 40
0.0231559765621647
 40
0.0350076484354353
 40
0.0470460033795304
 40
0.0592740307999908
 40
0.0716945830965779
 40
0.0843103820274647
 40
0.0971240248797991
 40
0.1101379904320507
 40
0.1233546446979382
 40
0.1811510010973226
 40
0.2483631736114421
 40
0.2888373415819253
 40
0.3232297457604625
 40
0.3515392131491945
 40
0.3737664266256189
 40
0.4399300285953852
 40
0.4987424063270027
 40
0.5023253005651628
 40
0.5613100074513717
 40
0.6252595444338138
 40
0.6818650083849792
 40
0.74838900169879
 40
0.7860781471964682
 40
0.8194856599799781
 40
0.848612771528172
 40
0.873462272774742
 40
0.9389926156604146
 40
0.9981523731393552
 40
1.0
 40
1.0
 40
1.0
 40
1.0
 10
109.3358565187774
 20
131.6518929672535
 30
0.0
 10
109.3349300674989
 20
131.6514494502451
 30
0.0
 10
109.3330626271068
 20
131.6505554565776
 30
0.0
 10
109.3177895667671
 20
131.6433634791193
 30
0.0
 10
109.2928878643032
 20
131.6319122355269
 30
0.0
 10
109.2570335923673
 20
131.6157624767524
 30
0.0
 10
109.2100660815297
 20
131.5950347971987
 30
0.0
 10
109.1515231711088
 20
131.5696962781969
 30
0.0
 10
109.0810450315312
 20
131.5397558576424
 30
0.0
 10
108.9982704672537
 20
131.5052118836004
 30
0.0
 10
108.9028539221356
 20
131.4660621419859
 30
0.0
 10
108.6732850887471
 20
131.3733634708246
 30
0.0
 10
108.1888668747744
 20
131.1846405803101
 30
0.0
 10
107.4098669032291
 20
130.9065507803389
 30
0.0
 10
106.6186484518089
 20
130.6559639130095
 30
0.0
 10
105.9875979585661
 20
130.4809471516797
 30
0.0
 10
105.4345600022297
 20
130.3411125110807
 30
0.0
 10
104.6416020733333
 20
130.1607016657346
 30
0.0
 10
103.5712677330002
 20
129.9716353440925
 30
0.0
 10
102.5902774535649
 20
129.8663485363828
 30
0.0
 10
101.6623102244453
 20
129.8093157644298
 30
0.0
 10
100.6898547306849
 20
129.7947211660601
 30
0.0
 10
99.3637245252515
 20
129.8729143825513
 30
0.0
 10
98.09368904075778
 20
130.0333941041455
 30
0.0
 10
97.13391304008815
 20
130.2185056423591
 30
0.0
 10
96.43526139274333
 20
130.3859952460892
 30
0.0
 10
95.99145325458822
 20
130.4996184522974
 30
0.0
 10
95.65891619265824
 20
130.592802287206
 30
0.0
 10
95.27175778241501
 20
130.7074671514646
 30
0.0
 10
94.93450982030325
 20
130.8148129605247
 30
0.0
 10
94.83678575397418
 20
130.8523785338113
 30
0.0
 10
94.83588383370234
 20
130.8525099426278
 30
0.0
 10
94.83585651877746
 20
130.8525139223831
 30
0.0
  0
LINE
  5
1BC
330
1F
100
AcDbEntity
  8
0
  6
Continuous
 62
     7
370
    25
100
AcDbLine
 10
109.3358565188
 20
131.6518929673
 30
0.0
 11
109.3358565188
 21
126.2944666847
 31
0.0
  0
SPLINE
  5
1BD
330
1F
100
AcDbEntity
  8
0
  6
Continuous
 62
     7
370
    25
100
AcDbSpline
210
0.0
220
0.0
230
1.0
 70
     8
 71
     3
 72
    30
 73
    26
 74
     0
 42
0.000000001
 43
0.00000001
 40
0.0
 40
0.0
 40
0.0
 40
0.0
 40
0.0192411700742056
 40
0.0381353539376965
 40
0.0566868884861289
 40
0.0749003554931371
 40
0.0927805967284127
 40
0.1103327298326406
 40
0.1275621649289921
 40
0.1444746219341849
 40
0.2455865830532024
 40
0.3577720192516866
 40
0.4505017408956522
 40
0.5720127868619947
 40
0.616806984020002
 40
0.6590088499432829
 40
0.6986242498774753
 40
0.7356603299341617
 40
0.770125893191514
 40
0.8073679165907879
 40
0.8483950324891434
 40
0.8881367798820075
 40
0.9266264622110474
 40
0.9639007443615106
 40
1.0
 40
1.0
 40
1.0
 40
1.0
 10
100.1650379281654
 20
124.6303753743083
 30
0.0
 10
100.248070408045
 20
124.6192482689834
 30
0.0
 10
100.4126379991178
 20
124.5971947193173
 30
0.0
 10
100.6605195147984
 20
124.5691428300546
 30
0.0
 10
100.9057961902407
 20
124.5451912995287
 30
0.0
 10
101.148354023852
 20
124.5256613473353
 30
0.0
 10
101.3877887009609
 20
124.5104690551587
 30
0.0
 10
101.623801896368
 20
124.4996374939278
 30
0.0
 10
101.8561199416788
 20
124.4931569286747
 30
0.0
 10
102.4646707113028
 20
124.4875254370886
 30
0.0
 10
103.5029832085228
 20
124.5474988365733
 30
0.0
 10
104.8183347366241
 20
124.7469213097481
 30
0.0
 10
106.0978799495157
 20
125.0524026704319
 30
0.0
 10
106.9893204936058
 20
125.3323454733508
 30
0.0
 10
107.6069853624668
 20
125.5597945698662
 30
0.0
 10
107.9503084477502
 20
125.6900732303662
 30
0.0
 10
108.2419995326457
 20
125.8061641683242
 30
0.0
 10
108.4865448884715
 20
125.9075323977275
 30
0.0
 10
108.6988995689109
 20
125.9988704502451
 30
0.0
 10
108.8899625435355
 20
126.0829455341922
 30
0.0
 10
109.055209947708
 20
126.1579384881575
 30
0.0
 10
109.1847504979521
 20
126.2189269877032
 30
0.0
 10
109.2731168671746
 20
126.2621646494687
 30
0.0
 10
109.3262627124383
 20
126.2893947353475
 30
0.0
 10
109.3326929083795
 20
126.2927941814774
 30
0.0
 10
109.3358565187774
 20
126.2944666846519
 30
0.0
  0
SPLINE
  5
1BE
330
1F
100
AcDbEntity
  8
0
  6
Continuous
 62
     7
370
    25
100
AcDbSpline
210
0.0
220
0.0
230
1.0
 70
     8
 71
     3
 72
    38
 73
    34
 74
     0
 42
0.000000001
 43
0.00000001
 40
0.0
 40
0.0
 40
0.0
 40
0.0
 40
0.1249999999999999
 40
0.1249999999999999
 40
0.2499999999999999
 40
0.2499999999999999
 40
0.3124999999999999
 40
0.3124999999999999
 40
0.3749999999999999
 40
0.3749999999999999
 40
0.4374999999999999
 40
0.4374999999999999
 40
0.5
 40
0.5
 40
0.5625
 40
0.5625
 40
0.6249999999999999
 40
0.6249999999999999
 40
0.6874999999999999
 40
0.6874999999999999
 40
0.7187499999999999
 40
0.7187499999999999
 40
0.7499999999999999
 40
0.7499999999999999
 40
0.7812499999999999
 40
0.7812499999999999
 40
0.8124999999999999
 40
0.8124999999999999
 40
0.8749999999999999
 40
0.8749999999999999
 40
0.9375
 40
0.9375
 40
1.0
 40
1.0
 40
1.0
 40
1.0
 10
94.83585651877745
 20
130.7242885488042
 30
0.0
 10
94.8358565187776
 20
130.7242885488041
 30
0.0
 10
94.89766227634111
 20
130.7016444661422
 30
0.0
 10
95.14728482177668
 20
130.6090600770861
 30
0.0
 10
95.33101245271484
 20
130.5406724971334
 30
0.0
 10
95.68740128929993
 20
130.4048303979315
 30
0.0
 10
95.82056175080547
 20
130.353637412875
 30
0.0
 10
96.11164076150186
 20
130.2399488077626
 30
0.0
 10
96.26813071301119
 20
130.1780222002562
 30
0.0
 10
96.60151215429909
 20
130.0431370915657
 30
0.0
 10
96.77841591266223
 20
129.9701988372791
 30
0.0
 10
97.15165756013553
 20
129.8112229024832
 30
0.0
 10
97.34940155101667
 20
129.7245831326066
 30
0.0
 10
97.75542498426978
 20
129.5376654600542
 30
0.0
 10
97.96347837765677
 20
129.4376305462451
 30
0.0
 10
98.38577265039092
 20
129.2183669960662
 30
0.0
 10
98.60013795346599
 20
129.0993638044015
 30
0.0
 10
99.02798026504537
 20
128.8290899540777
 30
0.0
 10
99.24438191615198
 20
128.6758411285659
 30
0.0
 10
99.54301435903209
 20
128.4097726049828
 30
0.0
 10
99.63820694850179
 20
128.31500035871
 30
0.0
 10
99.81583220035856
 20
128.1092435015201
 30
0.0
 10
99.89844651098693
 20
127.9973849597495
 30
0.0
 10
100.0405267860085
 20
127.7638694555271
 30
0.0
 10
100.1009123352534
 20
127.6413083895713
 30
0.0
 10
100.2003628274083
 20
127.3848376263462
 30
0.0
 10
100.2396542664331
 20
127.2495976127964
 30
0.0
 10
100.3263508525861
 20
126.841315609832
 30
0.0
 10
100.3450591795808
 20
126.565055432047
 30
0.0
 10
100.3415631589491
 20
126.0083076534114
 30
0.0
 10
100.3190835387405
 20
125.7300774094206
 30
0.0
 10
100.2534558909584
 20
125.1786915892359
 30
0.0
 10
100.2099583472689
 20
124.9044379201334
 30
0.0
 10
100.1604788001589
 20
124.6310084481719
 30
0.0
  0
LINE
  5
1BF
330
1F
100
AcDbEntity
  8
0
  6
Continuous
 62
     7
370
    25
100
AcDbLine
 10
94.8358565188
 20
130.7242885488
 30
0.0
 11
94.8358565188
 21
130.8525139223
 31
0.0
  0
SPLINE
  5
1C0
330
1F
100
AcDbEntity
  8
0
  6
Continuous
 62
     7
370
    25
100
AcDbSpline
210
0.0
220
0.0
230
1.0
 70
     8
 71
     3
 72
    14
 73
    10
 74
     0
 42
0.000000001
 43
0.00000001
 40
0.0
 40
0.0
 40
0.0
 40
0.0
 40
0.0003951392850831
 40
0.0003951392850831
 40
0.0003951392850831
 40
0.0008159035679249
 40
0.0008159035679249
 40
0.0008159035679249
 40
0.0012369936130997
 40
0.0012369936130997
 40
0.0012369936130997
 40
0.0012369936130997
 10
98.96374046850897
 20
124.3632136609005
 30
0.0
 10
99.09224970661569
 20
124.392087628614
 30
0.0
 10
99.2208132143447
 20
124.4207758420903
 30
0.0
 10
99.34936359262808
 20
124.4492786861278
 30
0.0
 10
99.48624884029168
 20
124.4796295798185
 30
0.0
 10
99.6231444861915
 20
124.5097755448475
 30
0.0
 10
99.75996474754056
 20
124.539727364416
 30
0.0
 10
99.89689073648547
 20
124.5697023291959
 30
0.0
 10
100.0337678084497
 20
124.5994883786411
 30
0.0
 10
100.1705046576368
 20
124.6291108518098
 30
0.0
  0
LINE
  5
1C1
330
1F
100
AcDbEntity
  8
0
  6
Continuous
 62
     7
370
    25
100
AcDbLine
 10
91.4058563635
 20
125.8257406639
 30
0.0
 11
94.8358565188
 21
130.7242885488
 31
0.0
  0
LINE
  5
1C2
330
1F
100
AcDbEntity
  8
0
  6
Continuous
 62
     7
370
    25
100
AcDbLine
 10
204.4858565188
 20
120.3625608044
 30
0.0
 11
204.4858565188
 21
111.1882406639
 31
0.0
  0
LINE
  5
1C3
330
1F
100
AcDbEntity
  8
0
  6
Continuous
 62
     7
370
    25
100
AcDbLine
 10
209.4858565188
 20
111.1882406639
 30
0.0
 11
209.4858565188
 21
120.3625609095
 31
0.0
  0
LINE
  5
1C4
330
1F
100
AcDbEntity
  8
0
  6
Continuous
 62
     7
370
    25
100
AcDbLine
 10
94.0862946704
 20
131.6616263736
 30
0.0
 11
94.8358846494
 21
130.8525150358
 31
0.0
  0
LINE
  5
1C5
330
1F
100
AcDbEntity
  8
0
  6
Continuous
 62
     7
370
    25
100
AcDbLine
 10
109.3358694669
 20
131.6518932231
 30
0.0
 11
110.0041996128
 21
132.4610050455
 31
0.0
  0
LINE
  5
1C6
330
1F
100
AcDbEntity
  8
0
  6
Continuous
 62
     7
370
    25
100
AcDbLine
 10
85.2875225686
 20
127.1238168753
 30
0.0
 11
87.5358565188
 21
125.8257406639
 31
0.0
  0
LINE
  5
1C7
330
1F
100
AcDbEntity
  8
0
  6
Continuous
 62
     7
370
    25
100
AcDbLine
 10
84.5358565188
 20
128.4257406639
 30
0.0
 11
85.2875225686
 21
127.1238168753
 31
0.0
  0
LINE
  5
1C8
330
1F
100
AcDbEntity
  8
0
  6
Continuous
 62
     7
370
    25
100
AcDbLine
 10
84.5358565188
 20
130.3913353877
 30
0.0
 11
84.5358565188
 21
128.4257406639
 31
0.0
  0
LINE
  5
1C9
330
1F
100
AcDbEntity
  8
0
  6
Continuous
 62
     7
370
    25
100
AcDbLine
 10
86.0358565188
 20
131.2573607915
 30
0.0
 11
84.5358565188
 21
130.3913353877
 31
0.0
  0
ARC
  5
1CA
330
1F
100
AcDbEntity
  8
0
  6
Continuous
 62
     7
370
    25
100
AcDbCircle
 10
133.5108565188
 20
137.0382406639
 30
0.0
 40
1.000000000000028
100
AcDbArc
 50
180.0
 51
270.0
  0
LINE
  5
1CB
330
1F
100
AcDbEntity
  8
0
  6
Continuous
 62
     7
370
    25
100
AcDbLine
 10
135.2608565188
 20
136.0382406639
 30
0.0
 11
133.5108565188
 21
136.0382406639
 31
0.0
  0
ARC
  5
1CC
330
1F
100
AcDbEntity
  8
0
  6
Continuous
 62
     7
370
    25
100
AcDbCircle
 10
135.2608565188
 20
137.0382406639
 30
0.0
 40
1.0
100
AcDbArc
 50
270.0
 51
0.0
  0
LINE
  5
1CD
330
1F
100
AcDbEntity
  8
0
  6
Continuous
 62
     7
370
    25
100
AcDbLine
 10
136.2608565188
 20
137.1358359281
 30
0.0
 11
136.2608565188
 21
137.0382406639
 31
0.0
  0
LINE
  5
1CE
330
1F
100
AcDbEntity
  8
0
  6
Continuous
 62
     7
370
    25
100
AcDbLine
 10
137.7200543233
 20
139.6632406639
 30
0.0
 11
136.2608565188
 21
137.1358359281
 31
0.0
  0
LINE
  5
1CF
330
1F
100
AcDbEntity
  8
0
  6
Continuous
 62
     7
370
    25
100
AcDbLine
 10
204.0849163325
 20
120.6882404449
 30
0.0
 11
204.4858574505
 21
120.3625608989
 31
0.0
  0
LINE
  5
1D0
330
1F
100
AcDbEntity
  8
0
  6
Continuous
 62
     7
370
    25
100
AcDbLine
 10
109.9618056606
 20
125.8257419542
 30
0.0
 11
109.335859647
 21
126.2944668095
 31
0.0
  0
LINE
  5
1D1
330
1F
100
AcDbEntity
  8
0
  6
Continuous
 62
     7
370
    25
100
AcDbLine
 10
132.5108565188
 20
137.1358359281
 30
0.0
 11
131.0516587142
 21
139.6632406639
 31
0.0
  0
LINE
  5
1D2
330
1F
100
AcDbEntity
  8
0
  6
Continuous
 62
     7
370
    25
100
AcDbLine
 10
132.5108565188
 20
137.0382406639
 30
0.0
 11
132.5108565188
 21
137.1358359281
 31
0.0
  0
LINE
  5
1D3
330
1F
100
AcDbEntity
  8
0
  6
Continuous
 62
     7
370
    25
100
AcDbLine
 10
127.2108565188
 20
113.1882406639
 30
0.0
 11
127.2108565188
 21
113.9382406639
 31
0.0
  0
LINE
  5
1D4
330
1F
100
AcDbEntity
  8
0
  6
Continuous
 62
     7
370
    25
100
AcDbLine
 10
128.0358565188
 20
113.9382406639
 30
0.0
 11
128.0358565188
 21
112.1882406639
 31
0.0
  0
LINE
  5
1D5
330
1F
100
AcDbEntity
  8
0
  6
Continuous
 62
     7
370
    25
100
AcDbLine
 10
123.3858565188
 20
122.5382406639
 30
0.0
 11
123.3858565188
 21
113.4191807716
 31
0.0
  0
LINE
  5
1D6
330
1F
100
AcDbEntity
  8
0
  6
Continuous
 62
     7
370
    25
100
AcDbLine
 10
118.4858565188
 20
125.6382406639
 30
0.0
 11
118.4858565188
 21
123.7382406639
 31
0.0
  0
LINE
  5
1D7
330
1F
100
AcDbEntity
  8
0
  6
Continuous
 62
     7
370
    25
100
AcDbLine
 10
124.4858565188
 20
139.4632406639
 30
0.0
 11
124.4858565188
 21
135.0382406639
 31
0.0
  0
LINE
  5
1D8
330
1F
100
AcDbEntity
  8
0
  6
Continuous
 62
     7
370
    25
100
AcDbLine
 10
142.4858565188
 20
123.6882406639
 30
0.0
 11
142.4858565188
 21
139.6632406639
 31
0.0
  0
LINE
  5
1D9
330
1F
100
AcDbEntity
  8
0
  6
Continuous
 62
     7
370
    25
100
AcDbLine
 10
209.485855485
 20
120.3625608634
 30
0.0
 11
209.8867965867
 21
120.6882404085
 31
0.0
  0
LINE
  5
1DA
330
1F
100
AcDbEntity
  8
0
  6
Continuous
 62
     7
370
    25
100
AcDbLine
 10
224.4858565188
 20
111.4882406639
 30
0.0
 11
224.4858565188
 21
115.4141001423
 31
0.0
  0
SPLINE
  5
1DB
330
1F
100
AcDbEntity
  8
0
  6
Continuous
 62
     7
370
    25
100
AcDbSpline
210
0.0
220
0.0
230
1.0
 70
     8
 71
     3
 72
     9
 73
     5
 74
     0
 42
0.000000001
 43
0.00000001
 40
0.0
 40
0.0
 40
0.0
 40
0.0
 40
0.5102121239851395
 40
0.9999999999999999
 40
0.9999999999999999
 40
0.9999999999999999
 40
0.9999999999999999
 10
85.34021991544856
 20
118.6498671805521
 30
0.0
 10
85.71508197242734
 20
118.6473772631704
 30
0.0
 10
86.44980002273714
 20
118.6424971020283
 30
0.0
 10
87.17880061319387
 20
118.637112210642
 30
0.0
 10
87.53585626400725
 20
118.6344747561273
 30
0.0
  0
LINE
  5
1DC
330
1F
100
AcDbEntity
  8
0
  6
Continuous
 62
     7
370
    25
100
AcDbLine
 10
85.2875225686
 20
118.6802914715
 30
0.0
 11
85.3402199173
 21
118.649866643
 31
0.0
  0
LINE
  5
1DD
330
1F
100
AcDbEntity
  8
0
  6
Continuous
 62
     7
370
    25
100
AcDbLine
 10
85.2875225686
 20
127.1238168753
 30
0.0
 11
85.2875225686
 21
118.6802914715
 31
0.0
  0
SPLINE
  5
1DE
330
1F
100
AcDbEntity
  8
0
  6
Continuous
 62
     7
370
    25
100
AcDbSpline
210
0.0
220
0.0
230
1.0
 70
    24
 71
     3
 72
     8
 73
     4
 74
     0
 42
0.000000001
 43
0.00000001
 40
0.0000004089325119
 40
0.0000004089325119
 40
0.0000004089325119
 40
0.0000004089325119
 40
0.0015399868451459
 40
0.0015399868451459
 40
0.0015399868451459
 40
0.0015399868451459
 10
84.53585651877746
 20
119.1142660676847
 30
0.0
 10
84.78684759480191
 20
118.9693563023778
 30
0.0
 10
85.03743679130486
 20
118.8246785623208
 30
0.0
 10
85.28752256861699
 20
118.6802914714691
 30
0.0
  0
LINE
  5
1DF
330
1F
100
AcDbEntity
  8
0
  6
Continuous
 62
     7
370
    25
100
AcDbLine
 10
84.5358565188
 20
128.4257406639
 30
0.0
 11
84.5358565188
 21
119.1142660677
 31
0.0
  0
SPLINE
  5
1E0
330
1F
100
AcDbEntity
  8
0
  6
Continuous
 62
     7
370
    25
100
AcDbSpline
210
0.0
220
0.0
230
1.0
 70
     8
 71
     3
 72
     8
 73
     4
 74
     0
 42
0.000000001
 43
0.00000001
 40
0.0
 40
0.0
 40
0.0
 40
0.0
 40
1.0
 40
1.0
 40
1.0
 40
1.0
 10
87.66553826153422
 20
118.2482413416368
 30
0.0
 10
87.6375900414147
 20
118.3560576956123
 30
0.0
 10
87.60962995324597
 20
118.4636515457786
 30
0.0
 10
87.58165776571175
 20
118.5710208265632
 30
0.0
  0
LINE
  5
1E1
330
1F
100
AcDbEntity
  8
0
  6
Continuous
 62
     7
370
    25
100
AcDbLine
 10
87.6655414001
 20
118.2482406639
 30
0.0
 11
86.035855732
 21
118.2482406639
 31
0.0
  0
LINE
  5
1E2
330
1F
100
AcDbEntity
  8
0
  6
Continuous
 62
     7
370
    25
100
AcDbLine
 10
86.0358559319
 20
118.2482410027
 30
0.0
 11
85.3402194539
 21
118.6498669105
 31
0.0
  0
LINE
  5
1E3
330
1F
100
AcDbEntity
  8
0
  6
Continuous
 62
     7
370
    25
100
AcDbLine
 10
94.089817416
 20
116.2507406639
 30
0.0
 11
93.837645788
 21
116.2507406639
 31
0.0
  0
SPLINE
  5
1E4
330
1F
100
AcDbEntity
  8
0
  6
Continuous
 62
     7
370
    25
100
AcDbSpline
210
0.0
220
0.0
230
1.0
 70
     8
 71
     3
 72
    26
 73
    22
 74
     0
 42
0.000000001
 43
0.00000001
 40
0.0
 40
0.0
 40
0.0
 40
0.0
 40
0.0524616379932503
 40
0.1026498591890872
 40
0.150565513457809
 40
0.1962095861957063
 40
0.2395832262568645
 40
0.2806877815599511
 40
0.3195248450380211
 40
0.3560963147430692
 40
0.3904044736547445
 40
0.4224520974433627
 40
0.4522426027417772
 40
0.4797802555366611
 40
0.5050704712281336
 40
0.5966394156799991
 40
0.6841917884819224
 40
0.7679874773571101
 40
0.8483228539139507
 40
0.925534163520116
 40
1.0
 40
1.0
 40
1.0
 40
1.0
 10
93.83583929410804
 20
116.2507704479356
 30
0.0
 10
93.80020289507677
 20
116.3103173680179
 30
0.0
 10
93.73047439473834
 20
116.4268307518045
 30
0.0
 10
93.61699623397848
 20
116.5912287125337
 30
0.0
 10
93.50147068425346
 20
116.7433904503353
 30
0.0
 10
93.38434898824333
 20
116.8832931472678
 30
0.0
 10
93.26697728776395
 20
117.0115074711719
 30
0.0
 10
93.15035632173033
 20
117.1285231501122
 30
0.0
 10
93.0354534012853
 20
117.2349003053563
 30
0.0
 10
92.92312917559595
 20
117.3312163858305
 30
0.0
 10
92.81416020156111
 20
117.4180657323831
 30
0.0
 10
92.70924116072442
 20
117.4960459145769
 30
0.0
 10
92.60898383477569
 20
117.5657541116299
 30
0.0
 10
92.51394649219255
 20
117.627764100531
 30
0.0
 10
92.34383958776179
 20
117.7322505377968
 30
0.0
 10
92.0909205563567
 20
117.8673092043112
 30
0.0
 10
91.74493939929556
 20
118.0116960967283
 30
0.0
 10
91.39698084997121
 20
118.1206640089733
 30
0.0
 10
91.05084108959515
 20
118.19519359131
 30
0.0
 10
90.70977630616106
 20
118.2401222958594
 30
0.0
 10
90.4840296946454
 20
118.2455673947139
 30
0.0
 10
90.37319948262734
 20
118.2482406639003
 30
0.0
  0
SPLINE
  5
1E5
330
1F
100
AcDbEntity
  8
0
  6
Continuous
 62
     7
370
    25
100
AcDbSpline
210
0.0
220
0.0
230
1.0
 70
     8
 71
     3
 72
     8
 73
     4
 74
     0
 42
0.000000001
 43
0.00000001
 40
0.0
 40
0.0
 40
0.0
 40
0.0
 40
1.0
 40
1.0
 40
1.0
 40
1.0
 10
94.08981741600994
 20
116.2507406639001
 30
0.0
 10
94.11882212243752
 20
116.3746783907624
 30
0.0
 10
94.13785464211898
 20
116.5026305209957
 30
0.0
 10
94.14610623431062
 20
116.6336998336872
 30
0.0
  0
LINE
  5
1E6
330
1F
100
AcDbEntity
  8
0
  6
Continuous
 62
     7
370
    25
100
AcDbLine
 10
90.3731994826
 20
118.2482406639
 30
0.0
 11
87.6655414001
 21
118.2482406639
 31
0.0
  0
LINE
  5
1E7
330
1F
100
AcDbEntity
  8
0
  6
Continuous
 62
     7
370
    25
100
AcDbLine
 10
107.1358565188
 20
112.2510140747
 30
0.0
 11
106.4858565188
 21
112.4007406639
 31
0.0
  0
SPLINE
  5
1E8
330
1F
100
AcDbEntity
  8
0
  6
Continuous
 62
     7
370
    25
100
AcDbSpline
210
0.0
220
0.0
230
1.0
 70
     8
 71
     3
 72
    26
 73
    22
 74
     0
 42
0.000000001
 43
0.00000001
 40
0.0
 40
0.0
 40
0.0
 40
0.0
 40
0.0305951740572542
 40
0.0629166281868252
 40
0.0969720532897518
 40
0.1327680143285475
 40
0.1703101548822826
 40
0.2096033578521445
 40
0.2506518729756858
 40
0.3342141733898277
 40
0.4179517165474626
 40
0.5018670561020881
 40
0.5659795686746639
 40
0.6277136397870199
 40
0.687135819210908
 40
0.7443207393864881
 40
0.7993521466017559
 40
0.8523240127975756
 40
0.903341702807647
 40
0.9525231537633125
 40
1.0
 40
1.0
 40
1.0
 40
1.0
 10
106.4858565187775
 20
112.4007406639003
 30
0.0
 10
106.4849483069328
 20
112.4652758312875
 30
0.0
 10
106.4830806389523
 20
112.5979874518808
 30
0.0
 10
106.4674880498907
 20
112.8008015434045
 30
0.0
 10
106.4408441887036
 20
113.0125145843048
 30
0.0
 10
106.4006897596252
 20
113.2322265776778
 30
0.0
 10
106.345791642942
 20
113.458973448549
 30
0.0
 10
106.2745486743303
 20
113.6916044523321
 30
0.0
 10
106.1561362800477
 20
114.0070027668088
 30
0.0
 10
105.9680053836398
 20
114.3914846653437
 30
0.0
 10
105.6839886204052
 20
114.8215122798732
 30
0.0
 10
105.3745706638555
 20
115.1799989922141
 30
0.0
 10
105.0586610530539
 20
115.4717656485035
 30
0.0
 10
104.7519156449306
 20
115.7042247353407
 30
0.0
 10
104.4334965311085
 20
115.9010349699047
 30
0.0
 10
104.1075256549514
 20
116.0631356721629
 30
0.0
 10
103.7779868198262
 20
116.1916055556427
 30
0.0
 10
103.4484249049796
 20
116.2881893750156
 30
0.0
 10
103.1220065816804
 20
116.3540416043018
 30
0.0
 10
102.8014883893765
 20
116.3936065521272
 30
0.0
 10
102.5898228758457
 20
116.3983907503426
 30
0.0
 10
102.4858565187775
 20
116.4007406639003
 30
0.0
  0
SPLINE
  5
1E9
330
1F
100
AcDbEntity
  8
0
  6
Continuous
 62
     7
370
    25
100
AcDbSpline
210
0.0
220
0.0
230
1.0
 70
     8
 71
     3
 72
    13
 73
     9
 74
     0
 42
0.000000001
 43
0.00000001
 40
0.0
 40
0.0
 40
0.0
 40
0.0
 40
0.1604061687300809
 40
0.3231296684563272
 40
0.4883154213007764
 40
0.6561019685773533
 40
0.8266215117792448
 40
1.0
 40
1.0
 40
1.0
 40
1.0
 10
100.570983239488
 20
116.4007406639003
 30
0.0
 10
100.5119332879728
 20
116.3999850938623
 30
0.0
 10
100.3929803112481
 20
116.398463038334
 30
0.0
 10
100.2137266776423
 20
116.3860179792066
 30
0.0
 10
100.0327936959546
 20
116.3658337980759
 30
0.0
 10
99.85066520155584
 20
116.3366984319352
 30
0.0
 10
99.6674981937615
 20
116.2992822801161
 30
0.0
 10
99.54675887888716
 20
116.267016407759
 30
0.0
 10
99.48588734730228
 20
116.2507493528205
 30
0.0
  0
SPLINE
  5
1EA
330
1F
100
AcDbEntity
  8
0
  6
Continuous
 62
     7
370
    25
100
AcDbSpline
210
0.0
220
0.0
230
1.0
 70
    24
 71
     3
 72
    10
 73
     6
 74
     0
 42
0.000000001
 43
0.00000001
 40
0.0
 40
0.0
 40
0.0
 40
0.0
 40
0.3216623556917455
 40
0.6548175346390357
 40
1.0
 40
1.0
 40
1.0
 40
1.0
 10
99.48603535368224
 20
116.2507406639003
 30
0.0
 10
99.41748944582496
 20
116.2507406639003
 30
0.0
 10
99.27794852162768
 20
116.2507406639003
 30
0.0
 10
99.06834010627713
 20
116.2507406639003
 30
0.0
 10
98.9286631111233
 20
116.2507406639003
 30
0.0
 10
98.85758633992248
 20
116.2507406639003
 30
0.0
  0
SPLINE
  5
1EB
330
1F
100
AcDbEntity
  8
0
  6
Continuous
 62
     7
370
    25
100
AcDbSpline
210
0.0
220
0.0
230
1.0
 70
     8
 71
     3
 72
     8
 73
     4
 74
     0
 42
0.000000001
 43
0.00000001
 40
0.0
 40
0.0
 40
0.0
 40
0.0
 40
1.0
 40
1.0
 40
1.0
 40
1.0
 10
99.57218663517608
 20
116.6291870130832
 30
0.0
 10
99.30289030511963
 20
116.5324976278899
 30
0.0
 10
99.06672961970587
 20
116.4044984585131
 30
0.0
 10
98.85753210352193
 20
116.2510218608685
 30
0.0
  0
LINE
  5
1EC
330
1F
100
AcDbEntity
  8
0
  6
Continuous
 62
     7
370
    25
100
AcDbLine
 10
98.8580778151
 20
100.1257406639
 30
0.0
 11
98.994748643
 21
100.1257406639
 31
0.0
  0
LINE
  5
1ED
330
1F
100
AcDbEntity
  8
0
  6
Continuous
 62
     7
370
    25
100
AcDbLine
 10
102.4858565188
 20
116.4007406639
 30
0.0
 11
100.5709832395
 21
116.4007406639
 31
0.0
  0
LINE
  5
1EE
330
1F
100
AcDbEntity
  8
0
  6
Continuous
 62
     7
370
    25
100
AcDbLine
 10
98.8579447007
 20
116.2507406639
 30
0.0
 11
94.089817416
 21
116.2507406639
 31
0.0
  0
LINE
  5
1EF
330
1F
100
AcDbEntity
  8
0
  6
Continuous
 62
     7
370
    25
100
AcDbLine
 10
106.4858565188
 20
108.1882406639
 30
0.0
 11
106.4858565188
 21
112.4007406639
 31
0.0
  0
LINE
  5
1F0
330
1F
100
AcDbEntity
  8
VERMASSUNG
  6
CENTERX2
100
AcDbLine
 10
238.4808565188
 20
108.1882406639
 30
0.0
 11
70.5408565188
 21
108.1882406639
 31
0.0
  0
HATCH
  5
1F1
330
1F
100
AcDbEntity
  8
0
  6
Continuous
 62
     7
370
    18
100
AcDbHatch
 10
0.0
 20
0.0
 30
0.0
210
0.0
220
0.0
230
1.0
  2
ANSI31
 70
     0
 71
     0
 91
        1
 92
        0
 93
       40
 72
     1
 10
132.5108565187774
 20
137.0382406639003
 11
132.5108565187774
 21
137.1358359280919
 72
     1
 10
132.5108565187774
 20
137.1358359280919
 11
131.0516587142073
 21
139.6632406639003
 72
     1
 10
131.0516587142073
 20
139.6632406639003
 11
124.6858565187775
 21
139.6632406639003
 72
     2
 10
124.6858565187775
 20
139.4632406639003
 40
0.2000000000000028
 50
90.0
 51
180.0
 73
     1
 72
     1
 10
124.4858565187774
 20
139.4632406639003
 11
124.4858565187774
 21
135.0382406639003
 72
     1
 10
124.4858565187774
 20
135.0382406639003
 11
124.8198952048061
 21
133.9788053035037
 72
     2
 10
124.0569216442075
 20
133.7382406639003
 40
0.8000000000000049
 50
342.4999999999998
 51
467.5000000000012
 73
     0
 72
     1
 10
123.8163570046041
 20
132.9752671033017
 11
123.3256744787467
 21
133.1299787094286
 72
     1
 10
123.3256744787467
 20
133.1299787094286
 11
110.0042012062272
 21
132.4610017364024
 72
     1
 10
110.0041996128286
 20
132.4610050454708
 11
109.3358694668991
 21
131.6518932230796
 72
     1
 10
109.3358694668991
 20
131.6518932230796
 11
109.3358565187774
 21
126.2944666846518
 72
     1
 10
109.3358596470111
 20
126.2944668095323
 11
109.9618056605533
 21
125.8257419541923
 72
     1
 10
109.9618059088622
 20
125.8257406639003
 11
114.9858565187775
 21
125.8257406639003
 72
     1
 10
114.9858565187775
 20
125.8257406639003
 11
115.8610969923583
 21
126.3310609869278
 72
     2
 10
116.2610969923583
 20
125.6382406639002
 40
0.7999999999999962
 50
239.9999999999999
 51
270.0000000000008
 73
     0
 72
     1
 10
116.2610969923583
 20
126.4382406639002
 11
117.6858565187775
 21
126.4382406639002
 72
     2
 10
117.6858565187775
 20
125.6382406639002
 40
0.7999999999999977
 50
270.0000000000008
 51
360.0000000000008
 73
     0
 72
     1
 10
118.4858565187775
 20
125.6382406639002
 11
118.4858565187775
 21
123.7382406639003
 72
     1
 10
118.4858565187775
 20
123.7382406639003
 11
122.1858565187774
 21
123.7382406639003
 72
     2
 10
122.1858565187774
 20
122.5382406639003
 40
1.2
 50
270.0000000000008
 51
360.0000000000008
 73
     0
 72
     1
 10
123.3858565187775
 20
122.5382406639003
 11
123.3858565187775
 21
113.4191807715761
 72
     1
 10
123.3858565187775
 20
113.4191807715761
 11
123.7858565187775
 21
113.1882406639003
 72
     1
 10
123.7858565187775
 20
113.1882406639003
 11
127.2108565187774
 21
113.1882406639003
 72
     1
 10
127.2108565187774
 20
113.1882406639003
 11
127.2108565187774
 21
113.9382406639003
 72
     1
 10
127.2108565187774
 20
113.9382406639003
 11
128.0358565187775
 21
113.9382406639003
 72
     1
 10
128.0358565187775
 20
113.9382406639003
 11
128.0358565187775
 21
112.1882406639003
 72
     1
 10
128.0358565187775
 20
112.1882406639003
 11
190.9858565187775
 21
112.1882406639003
 72
     1
 10
190.9858565187775
 20
112.1882406639003
 11
191.586717137805
 21
111.1882406639003
 72
     1
 10
191.586717137805
 20
111.1882406639003
 11
204.4858565187775
 21
111.1882406639003
 72
     1
 10
204.4858565187775
 20
111.1882406639003
 11
204.4858565187775
 21
120.3625608043865
 72
     1
 10
204.4858574505326
 20
120.3625608988666
 11
204.0849163325029
 21
120.6882404448922
 72
     1
 10
204.0849160855599
 20
120.6882406639003
 11
145.4858565187774
 21
120.6882406639003
 72
     2
 10
145.4858565187774
 20
123.6882406639003
 40
3.0
 50
90.0
 51
180.0
 73
     0
 72
     1
 10
142.4858565187774
 20
123.6882406639003
 11
142.4858565187775
 21
139.6632406639003
 72
     1
 10
142.4858565187775
 20
139.6632406639003
 11
137.7200543233475
 21
139.6632406639003
 72
     1
 10
137.7200543233475
 20
139.6632406639003
 11
136.2608565187774
 21
137.1358359280919
 72
     1
 10
136.2608565187774
 20
137.1358359280919
 11
136.2608565187774
 21
137.0382406639003
 72
     2
 10
135.2608565187774
 20
137.0382406639003
 40
1.000000000000003
 50
0.0
 51
90.0
 73
     0
 72
     1
 10
135.2608565187774
 20
136.0382406639003
 11
133.5108565187774
 21
136.0382406639002
 72
     2
 10
133.5108565187774
 20
137.0382406639003
 40
1.000000000000003
 50
90.0
 51
180.0
 73
     0
 97
        0
 75
     0
 76
     1
 52
0.0
 41
1.0
 77
     0
 78
     1
 53
45.0
 43
0.0
 44
0.0
 45
-2.245064030267288
 46
2.245064030267288
 79
     0
 98
        1
 10
0.0
 20
0.0
  0
HATCH
  5
1F2
330
1F
100
AcDbEntity
  8
0
  6
Continuous
 62
     7
370
    18
100
AcDbHatch
 10
0.0
 20
0.0
 30
0.0
210
0.0
220
0.0
230
1.0
  2
ANSI31
 70
     0
 71
     0
 91
        1
 92
        0
 93
        8
 72
     1
 10
209.4858565187775
 20
111.1882406639003
 11
224.1858565187775
 21
111.1882406639003
 72
     2
 10
224.1858565187775
 20
111.4882406639003
 40
0.2999999999999973
 50
270.0000000000008
 51
360.0000000000008
 73
     1
 72
     1
 10
224.4858565187774
 20
111.4882406639003
 11
224.4858565187774
 21
115.4141001422853
 72
     2
 10
222.4858565187774
 20
115.4141001422853
 40
1.999999999999999
 50
0.0
 51
64.99999999999957
 73
     1
 72
     1
 10
223.3310930422589
 20
117.2267157163586
 11
215.9078288367393
 21
120.6882406639003
 72
     1
 10
215.9078288367393
 20
120.6882406639003
 11
209.8867963769937
 21
120.6882406639003
 72
     1
 10
209.8867965867269
 20
120.6882404085114
 11
209.4858554850482
 21
120.3625608634376
 72
     1
 10
209.4858565187775
 20
120.3625609095227
 11
209.4858565187775
 21
111.1882406639003
 97
        0
 75
     0
 76
     1
 52
0.0
 41
1.0
 77
     0
 78
     1
 53
45.0
 43
0.0
 44
0.0
 45
-2.245064030267288
 46
2.245064030267288
 79
     0
 98
        1
 10
0.0
 20
0.0
  0
HATCH
  5
1F3
330
1F
100
AcDbEntity
  8
0
  6
Continuous
 62
     7
370
    18
100
AcDbHatch
 10
0.0
 20
0.0
 30
0.0
210
0.0
220
0.0
230
1.0
  2
ANSI31
 70
     0
 71
     0
 91
        1
 92
        0
 93
        9
 72
     1
 10
94.83588464936562
 20
130.8525150357832
 11
94.08629467042991
 21
131.6616263735507
 72
     1
 10
94.08629467042991
 20
131.6616263735507
 11
86.03585651877746
 21
131.2573607914826
 72
     1
 10
86.03585651877746
 20
131.2573607914826
 11
84.53585651877746
 21
130.3913353876982
 72
     1
 10
84.53585651877746
 20
130.3913353876982
 11
84.53585651877746
 21
128.4257406639003
 72
     1
 10
84.53585651877746
 20
128.4257406639003
 11
85.28752256861699
 21
127.1238168752536
 72
     1
 10
85.28752256861699
 20
127.1238168752536
 11
87.53585651877746
 21
125.8257406639002
 72
     1
 10
87.53585651877746
 20
125.8257406639002
 11
91.40585636348641
 21
125.8257406639003
 72
     1
 10
91.40585636348641
 20
125.8257406639003
 11
94.83585651877745
 21
130.7242885488042
 72
     1
 10
94.83585651877745
 20
130.7242885488042
 11
94.83585651877745
 21
130.8525139222899
 97
        0
 75
     0
 76
     1
 52
0.0
 41
1.0
 77
     0
 78
     1
 53
45.0
 43
0.0
 44
0.0
 45
-2.245064030267288
 46
2.245064030267288
 79
     0
 98
        1
 10
0.0
 20
0.0
  0
HATCH
  5
1F4
330
1F
100
AcDbEntity
  8
0
  6
Continuous
 62
     7
370
    18
100
AcDbHatch
 10
0.0
 20
0.0
 30
0.0
210
0.0
220
0.0
230
1.0
  2
ANSI31
 70
     0
 71
     0
 91
        1
 92
        0
 93
       15
 72
     1
 10
204.8858565187774
 20
110.1882406639003
 11
205.7358565187775
 21
110.1882406639003
 72
     1
 10
205.7358565187775
 20
110.1882406639003
 11
206.9858565187775
 21
110.9099285003873
 72
     1
 10
206.9858565187775
 20
110.9099285003873
 11
208.2358565187775
 21
110.1882406639003
 72
     1
 10
208.2358565187775
 20
110.1882406639003
 11
209.0858565187775
 21
110.1882406639003
 72
     1
 10
209.0858565187775
 20
110.1882406639003
 11
209.9858565187775
 21
111.0882406639003
 72
     1
 10
209.9858565187775
 20
111.0882406639003
 11
209.9858565187775
 21
120.1882406639003
 72
     1
 10
209.9858565187775
 20
120.1882406639003
 11
209.4858565187775
 21
120.6882406639003
 72
     1
 10
209.4858565187775
 20
120.6882406639003
 11
208.4858565187774
 21
120.6882406639003
 72
     1
 10
208.4858565187774
 20
120.6882406639003
 11
208.4858565187775
 21
117.1882406639003
 72
     1
 10
208.4858565187775
 20
117.1882406639003
 11
205.4858565187774
 21
117.1882406639003
 72
     1
 10
205.4858565187774
 20
117.1882406639003
 11
205.4858565187774
 21
120.6882406639003
 72
     1
 10
205.4858565187774
 20
120.6882406639003
 11
204.4858565187775
 21
120.6882406639003
 72
     1
 10
204.4858565187775
 20
120.6882406639003
 11
203.9858565187774
 21
120.1882406639003
 72
     1
 10
203.9858565187774
 20
120.1882406639003
 11
203.9858565187775
 21
111.0882406639003
 72
     1
 10
203.9858565187775
 20
111.0882406639003
 11
204.8858565187774
 21
110.1882406639003
 97
        0
 75
     0
 76
     1
 52
0.0
 41
1.0
 77
     0
 78
     1
 53
45.0
 43
0.0
 44
0.0
 45
-2.245064030267288
 46
2.245064030267288
 79
     0
 98
        1
 10
0.0
 20
0.0
  0
DIMENSION
  5
1F5
330
1F
100
AcDbEntity
  8
VERMASSUNG
100
AcDbDimension
  2
_D
 10
259.7841945927
 20
95.6882406639
 30
0.0
 11
259.7841945927
 21
108.1882406639
 31
0.0
 70
   160
  1
%%c<>
 71
     2
 42
-1.0
  3
SLDDIMSTYLE0
100
AcDbAlignedDimension
 13
215.9078288367
 23
120.6882406639
 33
0.0
 14
215.9078288367
 24
95.6882406639
 34
0.0
 50
90.0
100
AcDbRotatedDimension
  0
DIMENSION
  5
201
330
1F
100
AcDbEntity
  8
VERMASSUNG
100
AcDbDimension
  2
_D_1
 10
250.1024262902
 20
105.1882406639
 30
0.0
 11
250.1024262902
 21
108.1882406639
 31
0.0
 70
   160
  1
%%c<>
 71
     2
 42
-1.0
  3
SLDDIMSTYLE1
100
AcDbAlignedDimension
 13
204.4858565188
 23
111.1882406639
 33
0.0
 14
224.1858565188
 24
105.1882406639
 34
0.0
 50
90.0
100
AcDbRotatedDimension
  0
DIMENSION
  5
20B
330
1F
100
AcDbEntity
  8
VERMASSUNG
100
AcDbDimension
  2
_D_2
 10
224.4858565188
 20
149.6632406639
 30
0.0
 11
183.4858565188
 21
149.6632406639
 31
0.0
 70
   160
  1
<>
 71
     2
 42
-1.0
  3
SLDDIMSTYLE0
100
AcDbAlignedDimension
 13
142.4858565188
 23
139.6632406639
 33
0.0
 14
224.4858565188
 24
111.4882406639
 34
0.0
100
AcDbRotatedDimension
  0
DIMENSION
  5
215
330
1F
100
AcDbEntity
  8
VERMASSUNG
100
AcDbDimension
  2
_D_3
 10
224.4858565188
 20
158.2413406304
 30
0.0
 11
174.4858565188
 21
158.2413406304
 31
0.0
 70
   160
  1
<>
 71
     2
 42
-1.0
  3
SLDDIMSTYLE0
100
AcDbAlignedDimension
 13
124.4858565188
 23
139.4632406639
 33
0.0
 14
224.4858565188
 24
115.4141001423
 34
0.0
 50
0.0
100
AcDbRotatedDimension
  0
DIMENSION
  5
21F
330
1F
100
AcDbEntity
  8
VERMASSUNG
100
AcDbDimension
  2
_D_4
 10
224.4858565188
 20
165.5777548279
 30
0.0
 11
154.5108565188
 21
165.5777548279
 31
0.0
 70
   160
  1
<>
 71
     2
 42
-1.0
  3
SLDDIMSTYLE0
100
AcDbAlignedDimension
 13
84.5358565188
 23
130.3913353877
 33
0.0
 14
224.4858565188
 24
115.4141001423
 34
0.0
 50
0.0
100
AcDbRotatedDimension
  0
DIMENSION
  5
229
330
1F
100
AcDbEntity
  8
VERMASSUNG
100
AcDbDimension
  2
_D_5
 10
62.5358315188
 20
76.7132406639
 30
0.0
 11
62.5358315188
 21
108.1882406639
 31
0.0
 70
   160
  1
KM%%c<> XMZ
 71
     2
 42
-1.0
  3
SLDDIMSTYLE2
100
AcDbAlignedDimension
 13
124.6858565188
 23
139.6632406639
 33
0.0
 14
124.6858565188
 24
76.7132406639
 34
0.0
 50
90.0
100
AcDbRotatedDimension
  0
LINE
  5
237
330
1F
100
AcDbEntity
  8
VERMASSUNG
  6
CENTERX2
370
    18
100
AcDbLine
 10
206.9858565188
 20
108.1882406639
 30
0.0
 11
206.9858565188
 21
122.6882406639
 31
0.0
  0
LINE
  5
238
330
1F
100
AcDbEntity
  8
0
  6
Continuous
 62
     7
370
    25
100
AcDbLine
 10
269.2945000858
 20
27.7064377806
 30
0.0
 11
272.4505431306
 21
27.7711696953
 31
0.0
  0
LINE
  5
239
330
1F
100
AcDbEntity
  8
0
  6
Continuous
 62
     7
370
    25
100
AcDbLine
 10
276.7166556223
 20
35.1610939955
 30
0.0
 11
275.1944340722
 21
37.9265305747
 31
0.0
  0
SPLINE
  5
23A
330
1F
100
AcDbEntity
  8
0
  6
Continuous
 62
     7
370
    25
100
AcDbSpline
210
0.0
220
0.0
230
1.0
 70
     8
 71
     3
 72
    23
 73
    19
 74
     0
 42
0.000000001
 43
0.00000001
 40
0.0
 40
0.0
 40
0.0
 40
0.0
 40
0.0240059631359933
 40
0.0861954335904109
 40
0.151245055719352
 40
0.2186719038377861
 40
0.2872950310472717
 40
0.3559472738141404
 40
0.424324061664409
 40
0.4924922405271604
 40
0.5606547053878135
 40
0.6290255773860883
 40
0.6978328318121365
 40
0.7673461070332148
 40
0.8377473188113209
 40
0.908860804454129
 40
0.9713957286963432
 40
0.9999999999999999
 40
0.9999999999999999
 40
0.9999999999999999
 40
0.9999999999999999
 10
272.5396131890879
 20
27.78616639386891
 30
0.0
 10
272.6073026947512
 20
27.78693192407474
 30
0.0
 10
272.85034756894
 20
27.789680624789
 30
0.0
 10
273.2770842030573
 20
27.90037104879721
 30
0.0
 10
273.8144316050423
 20
28.11369259373117
 30
0.0
 10
274.3521808681332
 20
28.43349615429043
 30
0.0
 10
274.874651506209
 20
28.84397998569827
 30
0.0
 10
275.3661141510748
 20
29.33455008873979
 30
0.0
 10
275.8136398922204
 20
29.889307172332
 30
0.0
 10
276.2076508909072
 20
30.4942310324415
 30
0.0
 10
276.5399190312467
 20
31.13561619286802
 30
0.0
 10
276.8028242364633
 20
31.80002096282156
 30
0.0
 10
276.9893526686
 20
32.47453299043728
 30
0.0
 10
277.0918508678577
 20
33.1464325550057
 30
0.0
 10
277.1043978738116
 20
33.80427885704827
 30
0.0
 10
277.0148233546401
 20
34.40361998188159
 30
0.0
 10
276.8813485447572
 20
34.85587245207559
 30
0.0
 10
276.7513742335991
 20
35.07728815865543
 30
0.0
 10
276.7105814612183
 20
35.14678004854943
 30
0.0
  0
LINE
  5
23B
330
1F
100
AcDbEntity
  8
0
  6
Continuous
 62
     7
370
    25
100
AcDbLine
 10
243.1912223996
 20
42.3718824454
 30
0.0
 11
268.0891494849
 21
27.9986150827
 31
0.0
  0
LINE
  5
23C
330
1F
100
AcDbEntity
  8
0
  6
Continuous
 62
     7
370
    25
100
AcDbLine
 10
274.3386415639
 20
38.8242258624
 30
0.0
 11
249.4407144786
 21
53.1974932251
 31
0.0
  0
SPLINE
  5
23D
330
1F
100
AcDbEntity
  8
0
  6
Continuous
 62
     7
370
    25
100
AcDbSpline
210
0.0
220
0.0
230
1.0
 70
     8
 71
     3
 72
    11
 73
     7
 74
     0
 42
0.000000001
 43
0.00000001
 40
0.0
 40
0.0
 40
0.0
 40
0.0
 40
0.2578181287743629
 40
0.6028486034645218
 40
0.9420542646151114
 40
1.0
 40
1.0
 40
1.0
 40
1.0
 10
273.3714063482961
 20
30.44795858177948
 30
0.0
 10
273.334179563937
 20
30.47291241182193
 30
0.0
 10
273.2471332609132
 20
30.53126122407847
 30
0.0
 10
273.1593996511959
 20
30.71974450360534
 30
0.0
 10
273.1254405520136
 20
30.91398554171884
 30
0.0
 10
273.1240909948195
 20
31.03121706601038
 30
0.0
 10
273.1238940898489
 20
31.04832154290414
 30
0.0
  0
SPLINE
  5
23E
330
1F
100
AcDbEntity
  8
0
  6
Continuous
 62
     7
370
    25
100
AcDbSpline
210
0.0
220
0.0
230
1.0
 70
     8
 71
     3
 72
    14
 73
    10
 74
     0
 42
0.000000001
 43
0.00000001
 40
0.0
 40
0.0
 40
0.0
 40
0.0
 40
0.1076687110690453
 40
0.2742679611022865
 40
0.4399857346521521
 40
0.6042419434845866
 40
0.7672319630317878
 40
0.9310938738230045
 40
0.9999999999999999
 40
0.9999999999999999
 40
0.9999999999999999
 40
0.9999999999999999
 10
273.428621061704
 20
32.07884357369483
 30
0.0
 10
273.4714955965274
 20
32.15677600311011
 30
0.0
 10
273.5807112742528
 20
32.35529578018603
 30
0.0
 10
273.8117671864796
 20
32.62863565045043
 30
0.0
 10
274.0899055605594
 20
32.87291105786883
 30
0.0
 10
274.3712171175022
 20
33.03022849680305
 30
0.0
 10
274.6238077712925
 20
33.08805702806179
 30
0.0
 10
274.795296392209
 20
33.07828159404365
 30
0.0
 10
274.8661728528154
 20
33.02526708471412
 30
0.0
 10
274.8871543518268
 20
33.00957324411361
 30
0.0
  0
SPLINE
  5
23F
330
1F
100
AcDbEntity
  8
0
  6
Continuous
 62
     7
370
    25
100
AcDbSpline
210
0.0
220
0.0
230
1.0
 70
     8
 71
     3
 72
    11
 73
     7
 74
     0
 42
0.000000001
 43
0.00000001
 40
0.0
 40
0.0
 40
0.0
 40
0.0
 40
0.1795540233967449
 40
0.5266767289691474
 40
0.876000108292151
 40
1.0
 40
1.0
 40
1.0
 40
1.0
 10
273.1238940898489
 20
31.04832154290414
 30
0.0
 10
273.1257968762807
 20
31.10511662955632
 30
0.0
 10
273.1313782234146
 20
31.27171078263413
 30
0.0
 10
273.2003284774278
 20
31.57934798983196
 30
0.0
 10
273.3070026019254
 20
31.87869311086384
 30
0.0
 10
273.4033739646835
 20
32.03729381091227
 30
0.0
 10
273.428621061704
 20
32.07884357369483
 30
0.0
  0
LINE
  5
240
330
1F
100
AcDbEntity
  8
0
  6
Continuous
 62
     7
370
    25
100
AcDbLine
 10
235.7022322148
 20
35.7402598403
 30
0.0
 11
237.3871977399
 21
34.7675499474
 31
0.0
  0
LINE
  5
241
330
1F
100
AcDbEntity
  8
0
  6
Continuous
 62
     7
370
    25
100
AcDbLine
 10
253.1234187948
 20
62.0264378909
 30
0.0
 11
251.4384532697
 21
62.9991477838
 31
0.0
  0
LINE
  5
242
330
1F
100
AcDbEntity
  8
0
  6
Continuous
 62
     7
370
    25
100
AcDbLine
 10
231.0939473873
 20
38.400566045
 30
0.0
 11
233.3445983374
 21
37.1012929074
 31
0.0
  0
LINE
  5
243
330
1F
100
AcDbEntity
  8
0
  6
Continuous
 62
     7
370
    25
100
AcDbLine
 10
249.0808193922
 20
64.3601808508
 30
0.0
 11
246.8301684422
 21
65.6594539885
 31
0.0
  0
LINE
  5
244
330
1F
100
AcDbEntity
  8
0
  6
Continuous
 62
     7
370
    25
100
AcDbLine
 10
240.0527795693
 20
65.4393360239
 30
0.0
 11
230.8555670128
 21
70.0199886829
 31
0.0
  0
LINE
  5
245
330
1F
100
AcDbEntity
  8
0
  6
Continuous
 62
     7
370
    25
100
AcDbLine
 10
219.3292193012
 20
50.0536054215
 30
0.0
 11
227.8953196134
 21
44.3797158355
 31
0.0
  0
LINE
  5
246
330
1F
100
AcDbEntity
  8
0
  6
Continuous
 62
     7
370
    25
100
AcDbLine
 10
224.3086568495
 20
51.0000954591
 30
0.0
 11
224.3086568495
 21
50.6347764423
 31
0.0
  0
LINE
  5
247
330
1F
100
AcDbEntity
  8
0
  6
Continuous
 62
     7
370
    25
100
AcDbLine
 10
228.2066233504
 20
70.3969571566
 30
0.0
 11
227.5670728979
 21
70.3097460912
 31
0.0
  0
LINE
  5
248
330
1F
100
AcDbEntity
  8
0
  6
Continuous
 62
     7
370
    25
100
AcDbLine
 10
272.5193843938
 20
27.7737401011
 30
0.0
 11
272.4505431306
 21
27.7711696953
 31
0.0
  0
LWPOLYLINE
  5
249
330
1F
100
AcDbEntity
  8
0
  6
Continuous
 62
     7
370
    25
100
AcDbPolyline
 90
       20
 70
   128
 43
0.0
 10
266.794478142
 20
30.8601451231
 10
266.8394614387
 20
31.6124001374
 10
266.9734955985
 20
32.4012780178
 10
267.1938520725
 20
33.2107194856
 10
267.4960450384
 20
34.0242466467
 10
267.8739227187
 20
34.8252984342
 10
268.3197926137
 20
35.5975677436
 10
268.8245780981
 20
36.3253333989
 10
269.378003195
 20
36.9937801901
 10
269.9688017655
 20
37.5893004681
 10
270.5849468544
 20
38.0997711574
 10
271.2138955244
 20
38.5148005468
 10
271.8428441944
 20
38.8259398349
 10
272.4589892833
 20
39.0268551229
 10
273.0497878538
 20
39.113456355
 10
273.6032129507
 20
39.0839805799
 10
274.1079984351
 20
38.9390278393
 10
274.5538683301
 20
38.681548953
 10
274.9317460104
 20
38.3167854486
 10
275.1944340722
 20
37.9265305747
  0
LWPOLYLINE
  5
24A
330
1F
100
AcDbEntity
  8
0
  6
Continuous
 62
     7
370
    25
100
AcDbPolyline
 90
        9
 70
   128
 43
0.0
 10
269.2945000858
 20
27.7064377806
 10
268.8245780981
 20
27.7388603652
 10
268.3197926137
 20
27.8838131058
 10
267.8739227187
 20
28.1412919921
 10
267.4960450384
 20
28.5060554964
 10
267.1938520725
 20
28.9706780858
 10
266.9734955985
 20
29.5257013841
 10
266.8394614387
 20
30.1598267176
 10
266.794478142
 20
30.8601451231
  0
LINE
  5
24B
330
1F
100
AcDbEntity
  8
0
  6
Continuous
 62
     7
370
    25
100
AcDbLine
 10
273.3906812293
 20
30.4227849416
 30
0.0
 11
273.360491579
 21
30.4416761187
 31
0.0
  0
LWPOLYLINE
  5
24C
330
1F
100
AcDbEntity
  8
0
  6
Continuous
 62
     7
370
    25
100
AcDbPolyline
 90
       41
 70
   128
 43
0.0
 10
234.1272152984
 20
41.9728825892
 10
234.1720137291
 20
43.1506371724
 10
234.3060483305
 20
44.3706323354
 10
234.5282399349
 20
45.6230453943
 10
234.8367995861
 20
46.8977926557
 10
235.2292429432
 20
48.1846106042
 10
235.7024102831
 20
49.4731385382
 10
236.2524919405
 20
50.7530019886
 10
236.8750589814
 20
52.0138962472
 10
237.5650988621
 20
53.245669335
 10
238.3170557871
 20
54.4384037394
 10
239.1248754414
 20
55.5824962642
 10
239.9820537363
 20
56.668735349
 10
240.881689176
 20
57.6883752357
 10
241.816538425
 20
58.6332063831
 10
242.7790746267
 20
59.4956215667
 10
243.7615480058
 20
60.2686771262
 10
244.7560482642
 20
60.9461488731
 10
245.7545682705
 20
61.522582203
 10
246.7490685289
 20
61.9933360138
 10
247.7315419079
 20
62.3546200726
 10
248.6940781097
 20
62.6035255325
 10
249.6289273587
 20
62.7380483532
 10
250.5285627984
 20
62.757105436
 10
251.3857410932
 20
62.6605433445
 10
252.1935607476
 20
62.4491395398
 10
252.9455176726
 20
62.1245961211
 10
253.6355575533
 20
61.6895261212
 10
254.2581245942
 20
61.1474324679
 10
254.8082062516
 20
60.5026797805
 10
255.2813735915
 20
59.7604592286
 10
255.6738169486
 20
58.9267467356
 10
255.9823765997
 20
58.0082548643
 10
256.2045682041
 20
57.0123787713
 10
256.3386028056
 20
55.9471366651
 10
256.3834012363
 20
54.821105249
 10
256.3386028056
 20
53.6433506658
 10
256.2045682041
 20
52.4233555029
 10
255.9823765997
 20
51.170942444
 10
255.6738169486
 20
49.8961951825
 10
255.6022477177
 20
49.6405157986
  0
LWPOLYLINE
  5
24D
330
1F
100
AcDbEntity
  8
0
  6
Continuous
 62
     7
370
    25
100
AcDbPolyline
 90
       23
 70
   128
 43
0.0
 10
249.3527556387
 20
38.8149050188
 10
248.6940781097
 20
38.1607814551
 10
247.7315419079
 20
37.2983662716
 10
246.7490685289
 20
36.525310712
 10
245.7545682705
 20
35.8478389652
 10
244.7560482642
 20
35.2714056352
 10
243.7615480058
 20
34.8006518244
 10
242.7790746267
 20
34.4393677657
 10
241.816538425
 20
34.1904623057
 10
240.881689176
 20
34.0559394851
 10
239.9820537363
 20
34.0368824023
 10
239.1248754414
 20
34.1334444938
 10
238.3170557871
 20
34.3448482985
 10
237.5650988621
 20
34.6693917172
 10
236.8750589814
 20
35.1044617171
 10
236.2524919405
 20
35.6465553704
 10
235.7024102831
 20
36.2913080578
 10
235.2292429432
 20
37.0335286097
 10
234.8367995861
 20
37.8672411027
 10
234.5282399349
 20
38.7857329739
 10
234.3060483305
 20
39.781609067
 10
234.1720137291
 20
40.8468511731
 10
234.1272152984
 20
41.9728825892
  0
SPLINE
  5
24E
330
1F
100
AcDbEntity
  8
0
  6
Continuous
 62
     7
370
    25
100
AcDbSpline
210
0.0
220
0.0
230
1.0
 70
     8
 71
     3
 72
    25
 73
    21
 74
     0
 42
0.000000001
 43
0.00000001
 40
0.0
 40
0.0
 40
0.0
 40
0.0
 40
0.1249999999999998
 40
0.1249999999999998
 40
0.2499999999999997
 40
0.2499999999999997
 40
0.3749999999999995
 40
0.3749999999999995
 40
0.4999999999999993
 40
0.4999999999999993
 40
0.5624999999999996
 40
0.5624999999999996
 40
0.6249999999999998
 40
0.6875000000000001
 40
0.6875000000000001
 40
0.7500000000000003
 40
0.7500000000000003
 40
0.8750000000000001
 40
0.8750000000000001
 40
1.0
 40
1.0
 40
1.0
 40
1.0
 10
238.96080414348
 20
58.40469718480223
 30
0.0
 10
238.9899274417411
 20
58.29351166427305
 30
0.0
 10
239.0023164826003
 20
58.17826945184503
 30
0.0
 10
238.9953389975
 20
57.93917388400922
 30
0.0
 10
238.9753214096479
 20
57.81439991413396
 30
0.0
 10
238.9050992519347
 20
57.56803100492154
 30
0.0
 10
238.8544485973411
 20
57.44381985756042
 30
0.0
 10
238.7245338536859
 20
57.20019136225026
 30
0.0
 10
238.6468329056966
 20
57.08313426719209
 30
0.0
 10
238.5114593234705
 20
56.91447774934205
 30
0.0
 10
238.4628248261633
 20
56.85911072806989
 30
0.0
 10
238.3613854907813
 20
56.75339091667288
 30
0.0
 10
238.2555155080406
 20
56.65222995805243
 30
0.0
 10
238.1409237157131
 20
56.56005563637563
 30
0.0
 10
238.0218410464949
 20
56.47251879363552
 30
0.0
 10
237.9598830334375
 20
56.43102032412332
 30
0.0
 10
237.7720193299169
 20
56.31690000238522
 30
0.0
 10
237.6426418935629
 20
56.25329257127063
 30
0.0
 10
237.3749586405009
 20
56.1520242702964
 30
0.0
 10
237.2390869540358
 20
56.1154833620716
 30
0.0
 10
237.1035696873082
 20
56.09431517772154
 30
0.0
  0
LWPOLYLINE
  5
24F
330
1F
100
AcDbEntity
  8
0
  6
Continuous
 62
     7
370
    25
100
AcDbPolyline
 90
       15
 70
   128
 43
0.0
 10
238.9608041435
 20
58.4046971848
 10
239.911806957
 20
59.393657592
 10
240.893817812
 20
60.2976596462
 10
241.8985136429
 20
61.1090414481
 10
242.9173791167
 20
61.8209261044
 10
243.9417788055
 20
62.4272800129
 10
244.9630303756
 20
62.922964001
 10
245.9724781754
 20
63.3037768826
 10
246.9615665966
 20
63.5664910655
 10
247.9219125875
 20
63.7088799069
 10
248.8453767038
 20
63.7297365855
 10
249.7241320947
 20
63.6288843298
 10
250.5507308398
 20
63.4071779164
 10
251.3181670738
 20
63.0664964255
 10
251.4384532697
 20
62.9991477838
  0
LWPOLYLINE
  5
250
330
1F
100
AcDbEntity
  8
0
  6
Continuous
 62
     7
370
    25
100
AcDbPolyline
 90
       21
 70
   128
 43
0.0
 10
235.7022322148
 20
35.7402598403
 10
235.6985844776
 20
35.7423675873
 10
235.0138483579
 20
36.2141975244
 10
234.4004696379
 20
36.7957385977
 10
233.8635636264
 20
37.4821410105
 10
233.4076078834
 20
38.2676804685
 10
233.0364048792
 20
39.1458059181
 10
232.7530502835
 20
40.1091941793
 10
232.5599071492
 20
41.1498110178
 10
232.4585862049
 20
42.2589781468
 10
232.4499324229
 20
43.4274456004
 10
232.5340179718
 20
44.6454688738
 10
232.7101416151
 20
45.9028901887
 10
232.9768345592
 20
47.1892232044
 10
233.3318727021
 20
48.4937404694
 10
233.7722951819
 20
49.8055628833
 10
234.2944290689
 20
51.1137504243
 10
234.8939199961
 20
52.4073933836
 10
235.5657684728
 20
53.675703348
 10
236.3043715782
 20
54.9081031702
 10
237.1035696873
 20
56.0943151777
  0
LWPOLYLINE
  5
251
330
1F
100
AcDbEntity
  8
0
  6
Continuous
 62
     7
370
    25
100
AcDbPolyline
 90
       12
 70
   128
 43
0.0
 10
237.2981828987
 20
58.5289740243
 10
238.2137619925
 20
59.5034552682
 10
239.1624746908
 20
60.3924308144
 10
240.1353777212
 20
61.1875205176
 10
241.1232997755
 20
61.8812292702
 10
242.1169279647
 20
62.467017657
 10
243.1068956099
 20
62.9393636006
 10
244.0838705387
 20
63.2938144163
 10
245.0386430583
 20
63.5270287869
 10
245.9622127719
 20
63.6368082601
 10
246.8458734238
 20
63.6221179728
 10
247.0987334039
 20
63.5938604319
  0
SPLINE
  5
252
330
1F
100
AcDbEntity
  8
0
  6
Continuous
 62
     7
370
    25
100
AcDbSpline
210
0.0
220
0.0
230
1.0
 70
     8
 71
     3
 72
    26
 73
    22
 74
     0
 42
0.000000001
 43
0.00000001
 40
0.0
 40
0.0
 40
0.0
 40
0.0
 40
0.1250000000000009
 40
0.1250000000000009
 40
0.2500000000000019
 40
0.2500000000000019
 40
0.3125000000000011
 40
0.3125000000000011
 40
0.3750000000000004
 40
0.3750000000000004
 40
0.4375000000000002
 40
0.4375000000000002
 40
0.5000000000000001
 40
0.5000000000000001
 40
0.5625
 40
0.5625
 40
0.6249999999999999
 40
0.6249999999999999
 40
0.7500000000000001
 40
0.7500000000000001
 40
1.0
 40
1.0
 40
1.0
 40
1.0
 10
235.9539896578524
 20
56.85681041167706
 30
0.0
 10
235.9303520616204
 20
56.96638627125004
 30
0.0
 10
235.9127842827386
 20
57.07727552961457
 30
0.0
 10
235.8939716998692
 20
57.30260548947752
 30
0.0
 10
235.8927919251018
 20
57.4182824027959
 30
0.0
 10
235.9088899283372
 20
57.58963791265545
 30
0.0
 10
235.9172086454374
 20
57.64643642474962
 30
0.0
 10
235.9409657946944
 20
57.7592626371467
 30
0.0
 10
235.9565881737434
 20
57.81571549081285
 30
0.0
 10
235.9954453861404
 20
57.92429860722145
 30
0.0
 10
236.0186713428429
 20
57.976678567447
 30
0.0
 10
236.0736699923212
 20
58.07713534271911
 30
0.0
 10
236.1057482593439
 20
58.12541421049055
 30
0.0
 10
236.176163007879
 20
58.21311118607429
 30
0.0
 10
236.2147414300056
 20
58.25310031405025
 30
0.0
 10
236.2984496936018
 20
58.32557899816585
 30
0.0
 10
236.3435784035437
 20
58.35791562254246
 30
0.0
 10
236.4828590457338
 20
58.4411153898961
 30
0.0
 10
236.5836481172955
 20
58.47994411253219
 30
0.0
 10
236.8867203885281
 20
58.55536039998738
 30
0.0
 10
237.0952444790132
 20
58.55523025361661
 30
0.0
 10
237.2981828987036
 20
58.52897402429039
 30
0.0
  0
LWPOLYLINE
  5
253
330
1F
100
AcDbEntity
  8
0
  6
Continuous
 62
     7
370
    25
100
AcDbPolyline
 90
       17
 70
   128
 43
0.0
 10
233.0170112631
 20
39.2009592043
 10
232.5833286571
 20
39.847923734
 10
232.1858217279
 20
40.6528284484
 10
231.8758100626
 20
41.54740409
 10
231.6561360738
 20
42.5234485377
 10
231.5288138928
 20
43.572012705
 10
231.4950109021
 20
44.6834825919
 10
231.555037032
 20
45.8476674326
 10
231.7083419194
 20
47.0538931324
 10
231.9535199534
 20
48.2911001356
 10
232.2883231631
 20
49.5479448269
 10
232.7096818287
 20
50.8129035388
 10
233.2137326272
 20
52.0743782081
 10
233.7958540536
 20
53.3208027163
 10
234.4507087946
 20
54.5407489354
 10
235.1722926649
 20
55.7230315098
 10
235.9539896579
 20
56.8568104117
  0
LINE
  5
254
330
1F
100
AcDbEntity
  8
0
  6
Continuous
 62
     7
370
    25
100
AcDbLine
 10
234.4785976883
 20
36.612889556
 30
0.0
 11
234.5992746132
 21
36.6699212632
 31
0.0
  0
LWPOLYLINE
  5
255
330
1F
100
AcDbEntity
  8
0
  6
Continuous
 62
     7
370
    25
100
AcDbPolyline
 90
       40
 70
   128
 43
0.0
 10
234.4785976883
 20
36.612889556
 10
233.710051144
 20
36.9090654379
 10
233.0021605253
 20
37.3169838921
 10
232.3606488387
 20
37.8333470644
 10
231.7907024445
 20
38.4539803693
 10
231.2969291266
 20
39.1738662398
 10
230.8833208408
 20
39.9871846925
 10
230.5532214412
 20
40.8873603797
 10
230.3092996468
 20
41.8671157483
 10
230.1535274657
 20
42.918529876
 10
230.0871642524
 20
44.0331025089
 10
230.1107465265
 20
45.201822782
 10
230.2240836347
 20
46.4152420689
 10
230.426259293
 20
47.66355037
 10
230.7156389935
 20
48.9366556222
 10
231.0898832196
 20
50.2242652891
 10
231.5459663595
 20
51.5159695721
 10
232.080201167
 20
52.8013255692
 10
232.6882685718
 20
54.0699417019
 10
233.3652525971
 20
55.3115617265
 10
234.1056801035
 20
56.5161476518
 10
234.9035650366
 20
57.6739608924
 10
235.7524568225
 20
58.7756410007
 10
236.6454925176
 20
59.8122813427
 10
237.5754522928
 20
60.7755011043
 10
238.5348178027
 20
61.657513047
 10
239.515832969
 20
62.451186464
 10
240.5105666843
 20
63.1501048299
 10
241.5109769325
 20
63.7486176748
 10
242.5089758052
 20
64.2418862668
 10
243.4964948887
 20
64.6259227305
 10
244.4655504943
 20
64.8976222879
 10
245.408308203
 20
65.054788359
 10
246.3171462035
 20
65.0961503202
 10
247.1847169114
 20
65.021373777
 10
248.0040063718
 20
64.8310632671
 10
248.7683909637
 20
64.5267573735
 10
249.4716909497
 20
64.110916285
 10
250.1082204364
 20
63.5869019071
 10
250.1708577494
 20
63.5258786405
  0
LWPOLYLINE
  5
256
330
1F
100
AcDbEntity
  8
0
  6
Continuous
 62
     7
370
    25
100
AcDbPolyline
 90
       26
 70
   128
 43
0.0
 10
227.8339649459
 20
45.687539498
 10
227.8784787161
 20
46.8578103349
 10
228.0116616283
 20
48.0700533443
 10
228.2324413718
 20
49.3145082583
 10
228.539040358
 20
50.5811554577
 10
228.9289900321
 20
51.8597966439
 10
229.3991507487
 20
53.1401369501
 10
229.9457370501
 20
54.4118678289
 10
230.5643481448
 20
55.664750051
 10
231.2500033399
 20
56.8886961454
 10
231.9971821431
 20
58.0738516178
 10
232.7998687099
 20
59.2106742934
 10
233.6516002801
 20
60.2900111442
 10
234.5455192118
 20
61.3031719847
 10
235.4744281955
 20
62.2419994394
 10
236.4308482022
 20
63.0989346217
 10
237.4070787004
 20
63.8670779935
 10
238.3952596561
 20
64.5402449159
 10
239.3874348173
 20
65.1130154447
 10
240.3756157729
 20
65.5807779684
 10
241.3518462711
 20
65.9397663381
 10
242.3082662778
 20
66.1870901907
 10
243.2371752615
 20
66.3207582198
 10
244.1310941933
 20
66.3396942092
 10
244.9828257634
 20
66.2437456972
 10
245.7324146087
 20
66.0516232998
  0
ARC
  5
257
330
1F
100
AcDbEntity
  8
0
  6
Continuous
 62
     7
370
    25
100
AcDbCircle
 10
239.9921006014
 20
45.5797346461
 30
0.0
 40
12.15706644166744
100
AcDbArc
 50
180.4744415793
 51
191.6440230834
  0
SPLINE
  5
258
330
1F
100
AcDbEntity
  8
0
  6
Continuous
 62
     7
370
    25
100
AcDbSpline
210
0.0
220
0.0
230
1.0
 70
     8
 71
     3
 72
    10
 73
     6
 74
     0
 42
0.000000001
 43
0.00000001
 40
0.0
 40
0.0
 40
0.0
 40
0.0
 40
0.5
 40
0.5
 40
1.0
 40
1.0
 40
1.0
 40
1.0
 10
236.6806777254837
 20
55.39375713085733
 30
0.0
 10
236.5767132346994
 20
55.46709550392772
 30
0.0
 10
236.4869049582721
 20
55.55433126172112
 30
0.0
 10
236.3348625302735
 20
55.75526180291712
 30
0.0
 10
236.2729569419125
 20
55.86943256911409
 30
0.0
 10
236.228507237322
 20
55.99245025227419
 30
0.0
  0
SPLINE
  5
259
330
1F
100
AcDbEntity
  8
0
  6
Continuous
 62
     7
370
    25
100
AcDbSpline
210
0.0
220
0.0
230
1.0
 70
     8
 71
     3
 72
    14
 73
    10
 74
     0
 42
0.000000001
 43
0.00000001
 40
0.0
 40
0.0
 40
0.0
 40
0.0
 40
0.25
 40
0.25
 40
0.5
 40
0.5
 40
0.75
 40
0.75
 40
1.0
 40
1.0
 40
1.0
 40
1.0
 10
236.228507237322
 20
55.99245025227419
 30
0.0
 10
236.2057864344569
 20
56.05533167193173
 30
0.0
 10
236.1838719241075
 20
56.12437810140514
 30
0.0
 10
236.1417608700447
 20
56.27203061802391
 30
0.0
 10
236.1222393161316
 20
56.34843040488222
 30
0.0
 10
236.0838930739578
 20
56.50276269627783
 30
0.0
 10
236.065533481074
 20
56.57971529260947
 30
0.0
 10
236.0235300364923
 20
56.72510546012545
 30
0.0
 10
235.9997537154793
 20
56.79169636631848
 30
0.0
 10
235.9712922113771
 20
56.83219198154983
 30
0.0
  0
LINE
  5
25A
330
1F
100
AcDbEntity
  8
0
  6
Continuous
 62
     7
370
    25
100
AcDbLine
 10
235.9712922114
 20
56.8321919815
 30
0.0
 11
235.9539896579
 21
56.8568104117
 31
0.0
  0
LINE
  5
25B
330
1F
100
AcDbEntity
  8
0
  6
Continuous
 62
     7
370
    25
100
AcDbLine
 10
237.2981828987
 20
58.5289740243
 30
0.0
 11
237.3154854522
 21
58.5043555942
 31
0.0
  0
SPLINE
  5
25C
330
1F
100
AcDbEntity
  8
0
  6
Continuous
 62
     7
370
    25
100
AcDbSpline
210
0.0
220
0.0
230
1.0
 70
     8
 71
     3
 72
    16
 73
    12
 74
     0
 42
0.000000001
 43
0.00000001
 40
0.0
 40
0.0
 40
0.0
 40
0.0
 40
0.1250000000000001
 40
0.1250000000000001
 40
0.2500000000000003
 40
0.2500000000000003
 40
0.5000000000000002
 40
0.5000000000000002
 40
0.7500000000000001
 40
0.7500000000000001
 40
1.0
 40
1.0
 40
1.0
 40
1.0
 10
237.3154854522283
 20
58.50435559416311
 30
0.0
 10
237.3296378586324
 20
58.48421925835031
 30
0.0
 10
237.3512962631061
 20
58.46742183767289
 30
0.0
 10
237.4037141921414
 20
58.44057631634141
 30
0.0
 10
237.4343070712798
 20
58.43035083178042
 30
0.0
 10
237.5333879201373
 20
58.40585039134773
 30
0.0
 10
237.6072704577532
 20
58.39759046894623
 30
0.0
 10
237.7603700501445
 20
58.38640450224132
 30
0.0
 10
237.8384540247921
 20
58.38380783049013
 30
0.0
 10
237.9977976585342
 20
58.38177882965642
 30
0.0
 10
238.0764505533658
 20
58.38241641831865
 30
0.0
 10
238.1522030211584
 20
58.38550951913369
 30
0.0
  0
SPLINE
  5
25D
330
1F
100
AcDbEntity
  8
0
  6
Continuous
 62
     7
370
    25
100
AcDbSpline
210
0.0
220
0.0
230
1.0
 70
     8
 71
     3
 72
    10
 73
     6
 74
     0
 42
0.000000001
 43
0.00000001
 40
0.0
 40
0.0
 40
0.0
 40
0.0
 40
0.5
 40
0.5
 40
1.0
 40
1.0
 40
1.0
 40
1.0
 10
238.1522030211584
 20
58.38550951913369
 30
0.0
 10
238.3003973610592
 20
58.39156054356745
 30
0.0
 10
238.4426218267898
 20
58.38139831335432
 30
0.0
 10
238.7150132171305
 20
58.33034787741424
 30
0.0
 10
238.8451405469991
 20
58.28898677476969
 30
0.0
 10
238.9632158891844
 20
58.23321290681741
 30
0.0
  0
LINE
  5
25E
330
1F
100
AcDbEntity
  8
0
  6
Continuous
 62
     7
370
    25
100
AcDbLine
 10
239.1184191073
 20
58.2616319696
 30
0.0
 11
239.1010259818
 21
58.2863792674
 31
0.0
  0
ARC
  5
25F
330
1F
100
AcDbEntity
  8
0
  6
Continuous
 62
     7
370
    25
100
AcDbCircle
 10
221.6397451011
 20
53.5034050049
 30
0.0
 40
4.152065346120766
100
AcDbArc
 50
211.7707720659
 51
236.1875437047
  0
SPLINE
  5
260
330
1F
100
AcDbEntity
  8
0
  6
Continuous
 62
     7
370
    25
100
AcDbSpline
210
0.0
220
0.0
230
1.0
 70
     8
 71
     3
 72
     8
 73
     4
 74
     0
 42
0.000000001
 43
0.00000001
 40
0.0
 40
0.0
 40
0.0
 40
0.0
 40
1.0
 40
1.0
 40
1.0
 40
1.0
 10
219.5402622200476
 20
50.39250848757874
 30
0.0
 10
219.0634889282235
 20
50.70060129551138
 30
0.0
 10
218.5866865513786
 20
51.00883074108414
 30
0.0
 10
218.1098541068529
 20
51.31719589730405
 30
0.0
  0
SPLINE
  5
261
330
1F
100
AcDbEntity
  8
0
  6
Continuous
 62
     7
370
    25
100
AcDbSpline
210
0.0
220
0.0
230
1.0
 70
     8
 71
     3
 72
    23
 73
    19
 74
     0
 42
0.000000001
 43
0.00000001
 40
0.0
 40
0.0
 40
0.0
 40
0.0
 40
0.0521036415675031
 40
0.1035646240925967
 40
0.1544751946736949
 40
0.2049306267473421
 40
0.2550287880844035
 40
0.3048696389141012
 40
0.3545546704609132
 40
0.4041862979523234
 40
0.4538672252126086
 40
0.5036997999421611
 40
0.5901870230746071
 40
0.674271637822954
 40
0.7565997087222995
 40
0.8378563983721267
 40
0.9187511781367398
 40
1.0
 40
1.0
 40
1.0
 40
1.0
 10
220.4208270235892
 20
50.21777778945864
 30
0.0
 10
220.4155580846491
 20
50.20785632722382
 30
0.0
 10
220.4050851951488
 20
50.18813577649287
 30
0.0
 10
220.3858388993861
 20
50.16356794754063
 30
0.0
 10
220.3640431590534
 20
50.14287936528141
 30
0.0
 10
220.3393918678485
 20
50.12634842998444
 30
0.0
 10
220.3118953533095
 20
50.11383093040827
 30
0.0
 10
220.2814842993022
 20
50.10529630658588
 30
0.0
 10
220.2481139275296
 20
50.10068643393781
 30
0.0
 10
220.2117380392578
 20
50.09995169080133
 30
0.0
 10
220.1723096676687
 20
50.10304677335262
 30
0.0
 10
220.1194612761187
 20
50.11158254883176
 30
0.0
 10
220.0509222823486
 20
50.12917898767881
 30
0.0
 10
219.9632010503942
 20
50.16081559576469
 30
0.0
 10
219.8684701309002
 20
50.2029952530974
 30
0.0
 10
219.7664358835703
 20
50.25573168882438
 30
0.0
 10
219.6575219703813
 20
50.31804824473522
 30
0.0
 10
219.5794056593952
 20
50.36765230298633
 30
0.0
 10
219.5402622200476
 20
50.39250848757873
 30
0.0
  0
SPLINE
  5
262
330
1F
100
AcDbEntity
  8
0
  6
Continuous
 62
     7
370
    25
100
AcDbSpline
210
0.0
220
0.0
230
1.0
 70
     8
 71
     3
 72
     8
 73
     4
 74
     0
 42
0.000000001
 43
0.00000001
 40
0.0
 40
0.0
 40
0.0
 40
0.0
 40
1.0
 40
1.0
 40
1.0
 40
1.0
 10
221.8943300500431
 20
49.27045765290244
 30
0.0
 10
221.4029627380017
 20
49.58633227286992
 30
0.0
 10
220.9115765380755
 20
49.9023182941594
 30
0.0
 10
220.4201708279315
 20
50.21841517500209
 30
0.0
  0
SPLINE
  5
263
330
1F
100
AcDbEntity
  8
0
  6
Continuous
 62
     7
370
    25
100
AcDbSpline
210
0.0
220
0.0
230
1.0
 70
     8
 71
     3
 72
    18
 73
    14
 74
     0
 42
0.000000001
 43
0.00000001
 40
0.0
 40
0.0
 40
0.0
 40
0.0
 40
0.0923824559411628
 40
0.1844689291573508
 40
0.2764953615950219
 40
0.3686975365494161
 40
0.4613092840003458
 40
0.5545607518442569
 40
0.6486768051537182
 40
0.7438756050146744
 40
0.8403674044302629
 40
0.9203921078121001
 40
1.0
 40
1.0
 40
1.0
 40
1.0
 10
222.7078941692427
 20
48.62614992835809
 30
0.0
 10
222.6843266551196
 20
48.64142390262363
 30
0.0
 10
222.6372671344682
 20
48.67192291510427
 30
0.0
 10
222.5648693465054
 20
48.72155548771519
 30
0.0
 10
222.4913871376098
 20
48.7738850303837
 30
0.0
 10
222.4166876898649
 20
48.82920271609159
 30
0.0
 10
222.3408269000968
 20
48.88744103120516
 30
0.0
 10
222.26381561931
 20
48.94863394284274
 30
0.0
 10
222.185683487229
 20
49.01279765942429
 30
0.0
 10
222.1064572525852
 20
49.07994661929141
 30
0.0
 10
222.0311607681753
 20
49.14579752903757
 30
0.0
 10
221.9603334600532
 20
49.20932911584589
 30
0.0
 10
221.9164290892462
 20
49.24998986085939
 30
0.0
 10
221.8945342224408
 20
49.27026714942794
 30
0.0
  0
LINE
  5
264
330
1F
100
AcDbEntity
  8
0
  6
Continuous
 62
     7
370
    25
100
AcDbLine
 10
223.3476004374
 20
48.214395999
 30
0.0
 11
222.7078941692
 21
48.6261499284
 31
0.0
  0
SPLINE
  5
265
330
1F
100
AcDbEntity
  8
0
  6
Continuous
 62
     7
370
    25
100
AcDbSpline
210
0.0
220
0.0
230
1.0
 70
     8
 71
     3
 72
    25
 73
    21
 74
     0
 42
0.000000001
 43
0.00000001
 40
0.0
 40
0.0
 40
0.0
 40
0.0
 40
0.0280105225426465
 40
0.0559601148860768
 40
0.0839014045043132
 40
0.1118870776786367
 40
0.1399695827588937
 40
0.1682008401739883
 40
0.196631967042422
 40
0.2253130233141467
 40
0.2542927850735845
 40
0.3799486436587335
 40
0.5057850221667067
 40
0.6313085886338298
 40
0.7532068238012468
 40
0.8039473267955921
 40
0.8535894438554446
 40
0.9025339722394071
 40
0.9511970353791085
 40
1.0
 40
1.0
 40
1.0
 40
1.0
 10
224.449966294233
 20
48.93030211223517
 30
0.0
 10
224.4549144017635
 20
48.90267825112769
 30
0.0
 10
224.4647998533991
 20
48.84749061802236
 30
0.0
 10
224.4763355030022
 20
48.76832991065245
 30
0.0
 10
224.485408624815
 20
48.69202657155406
 30
0.0
 10
224.491777433528
 20
48.61883081058445
 30
0.0
 10
224.4954936723381
 20
48.54868334237106
 30
0.0
 10
224.4965302933209
 20
48.48160705585828
 30
0.0
 10
224.494881818094
 20
48.41760314663184
 30
0.0
 10
224.4905356662251
 20
48.35667429336501
 30
0.0
 10
224.4756793416575
 20
48.23478617186784
 30
0.0
 10
224.4305910845924
 20
48.07988530021269
 30
0.0
 10
224.3172315640998
 20
47.94894218187063
 30
0.0
 10
224.1554073421055
 20
47.89306578106063
 30
0.0
 10
223.9813921229737
 20
47.9129398334434
 30
0.0
 10
223.8300312022876
 20
47.96025763579888
 30
0.0
 10
223.7196309695893
 20
48.00517305953424
 30
0.0
 10
223.6024714741406
 20
48.06254879082542
 30
0.0
 10
223.4789058072067
 20
48.13122585527823
 30
0.0
 10
223.3914107571116
 20
48.18664610123142
 30
0.0
 10
223.3476004374299
 20
48.21439599896171
 30
0.0
  0
ARC
  5
266
330
1F
100
AcDbEntity
  8
0
  6
Continuous
 62
     7
370
    25
100
AcDbCircle
 10
235.6429646263
 20
50.7163526484
 30
0.0
 40
11.33460136833855
100
AcDbArc
 50
170.9338278112
 51
189.0661721888
  0
SPLINE
  5
267
330
1F
100
AcDbEntity
  8
0
  6
Continuous
 62
     7
370
    25
100
AcDbSpline
210
0.0
220
0.0
230
1.0
 70
     8
 71
     3
 72
    26
 73
    22
 74
     0
 42
0.000000001
 43
0.00000001
 40
0.0
 40
0.0
 40
0.0
 40
0.0
 40
0.0241259796963635
 40
0.0482159912272988
 40
0.0723203915124065
 40
0.0964895678710797
 40
0.1207736231963513
 40
0.1452220711242836
 40
0.1698835501657706
 40
0.1948055644472379
 40
0.2200342569517627
 40
0.2456142191611387
 40
0.3690971486901655
 40
0.4940698769485187
 40
0.6192566784762451
 40
0.7454656653603225
 40
0.7971495824713707
 40
0.8481710308405392
 40
0.8988013269235234
 40
0.9493179290492194
 40
1.0
 40
1.0
 40
1.0
 40
1.0
 10
223.3476004374299
 20
55.97850639032629
 30
0.0
 10
223.369318666806
 20
55.96417486693121
 30
0.0
 10
223.4127227469821
 20
55.93553318626217
 30
0.0
 10
223.4760298643435
 20
55.88754088833335
 30
0.0
 10
223.5378914320615
 20
55.83594169044767
 30
0.0
 10
223.598195947198
 20
55.78036689757444
 30
0.0
 10
223.6569857991378
 20
55.72091165694729
 30
0.0
 10
223.7142663175676
 20
55.65754734810989
 30
0.0
 10
223.7700574568938
 20
55.59027857014596
 30
0.0
 10
223.8243787043156
 20
55.51910445618584
 30
0.0
 10
223.8772576795246
 20
55.44401531643755
 30
0.0
 10
223.9940525042609
 20
55.2647608677357
 30
0.0
 10
224.1559220621874
 20
54.95445539589232
 30
0.0
 10
224.3191069697193
 20
54.48454160776063
 30
0.0
 10
224.4306183748927
 20
53.98557857385058
 30
0.0
 10
224.4777522130012
 20
53.57669490079358
 30
0.0
 10
224.4928711525337
 20
53.27242294420287
 30
0.0
 10
224.4948242915163
 20
53.07117370250756
 30
0.0
 10
224.4883462658771
 20
52.87551378278497
 30
0.0
 10
224.47421934319
 20
52.68487749488749
 30
0.0
 10
224.4580594515051
 20
52.56329422114869
 30
0.0
 10
224.449966294233
 20
52.50240318454979
 30
0.0
  0
LINE
  5
268
330
1F
100
AcDbEntity
  8
0
  6
Continuous
 62
     7
370
    25
100
AcDbLine
 10
222.7078941692
 20
56.3914814033
 30
0.0
 11
223.3476004374
 21
55.9785063903
 31
0.0
  0
SPLINE
  5
269
330
1F
100
AcDbEntity
  8
0
  6
Continuous
 62
     7
370
    25
100
AcDbSpline
210
0.0
220
0.0
230
1.0
 70
     8
 71
     3
 72
    14
 73
    10
 74
     0
 42
0.000000001
 43
0.00000001
 40
0.0
 40
0.0
 40
0.0
 40
0.0
 40
0.0789261963172865
 40
0.158232872055133
 40
0.330847539457262
 40
0.5000195457610529
 40
0.6670357883572423
 40
0.8332395193657144
 40
1.0
 40
1.0
 40
1.0
 40
1.0
 10
221.8939414533914
 20
56.60006367361088
 30
0.0
 10
221.9156583347273
 20
56.60166683746946
 30
0.0
 10
221.9591967879429
 20
56.60488089355671
 30
0.0
 10
222.0507219065919
 20
56.6057019336246
 30
0.0
 10
222.1676302400249
 20
56.5977659518413
 30
0.0
 10
222.3084505784067
 20
56.57149028296348
 30
0.0
 10
222.4456628862187
 20
56.52853268443123
 30
0.0
 10
222.5795935606352
 20
56.4701755596216
 30
0.0
 10
222.6650796525944
 20
56.41774201347162
 30
0.0
 10
222.7078941692427
 20
56.39148140331718
 30
0.0
  0
SPLINE
  5
26A
330
1F
100
AcDbEntity
  8
0
  6
Continuous
 62
     7
370
    25
100
AcDbSpline
210
0.0
220
0.0
230
1.0
 70
     8
 71
     3
 72
     8
 73
     4
 74
     0
 42
0.000000001
 43
0.00000001
 40
0.0
 40
0.0
 40
0.0
 40
0.0
 40
1.0
 40
1.0
 40
1.0
 40
1.0
 10
220.091637870387
 20
57.76245508502359
 30
0.0
 10
220.6923960940831
 20
57.37518760186469
 30
0.0
 10
221.2931249569435
 20
56.98772025194138
 30
0.0
 10
221.8938256012904
 20
56.60005335935175
 30
0.0
  0
SPLINE
  5
26B
330
1F
100
AcDbEntity
  8
0
  6
Continuous
 62
     7
370
    25
100
AcDbSpline
210
0.0
220
0.0
230
1.0
 70
     8
 71
     3
 72
    13
 73
     9
 74
     0
 42
0.000000001
 43
0.00000001
 40
0.0
 40
0.0
 40
0.0
 40
0.0
 40
0.1667030582307992
 40
0.3329480818053035
 40
0.4990671507274896
 40
0.6653938523718403
 40
0.832261271055009
 40
1.0
 40
1.0
 40
1.0
 40
1.0
 10
219.7498093353526
 20
58.06351986410937
 30
0.0
 10
219.7701105177926
 20
58.04995475743014
 30
0.0
 10
219.8106571029812
 20
58.02286181566729
 30
0.0
 10
219.8698067399689
 20
57.97766724265958
 30
0.0
 10
219.9275782848714
 20
57.92925609417663
 30
0.0
 10
219.983828022331
 20
57.87722097940618
 30
0.0
 10
220.0387552310771
 20
57.82192301219716
 30
0.0
 10
220.0739759406677
 20
57.78230575703679
 30
0.0
 10
220.0916321526086
 20
57.76244554803586
 30
0.0
  0
SPLINE
  5
26C
330
1F
100
AcDbEntity
  8
0
  6
Continuous
 62
     7
370
    25
100
AcDbSpline
210
0.0
220
0.0
230
1.0
 70
     8
 71
     3
 72
     8
 73
     4
 74
     0
 42
0.000000001
 43
0.00000001
 40
0.0
 40
0.0
 40
0.0
 40
0.0
 40
1.0
 40
1.0
 40
1.0
 40
1.0
 10
217.8058288195619
 20
59.31824171648883
 30
0.0
 10
218.4538588919621
 20
58.90024640060408
 30
0.0
 10
219.101851869064
 20
58.48200563818645
 30
0.0
 10
219.7498093353526
 20
58.06351986410936
 30
0.0
  0
LWPOLYLINE
  5
26D
330
1F
100
AcDbEntity
  8
0
  6
Continuous
 62
     7
370
    25
100
AcDbPolyline
 90
       20
 70
   128
 43
0.0
 10
217.8058288196
 20
59.3182417167
 10
218.1884780248
 20
60.432204755
 10
218.6506885545
 20
61.5404189863
 10
219.1872873295
 20
62.6304812315
 10
219.7922687143
 20
63.6901914692
 10
220.4588617324
 20
64.7076893791
 10
221.1796058475
 20
65.6715870827
 10
221.9464344619
 20
66.5710965975
 10
222.7507651982
 20
67.3961505762
 10
223.583595954
 20
68.1375149808
 10
224.4356056533
 20
68.7868924305
 10
225.2972585687
 20
69.3370150662
 10
226.1589110452
 20
69.781725893
 10
227.0109194332
 20
70.1160476889
 10
227.8437480199
 20
70.3362387107
 10
228.6480757535
 20
70.4398345716
 10
229.4149005651
 20
70.4256758223
 10
230.13564012
 20
70.2939209283
 10
230.8022278716
 20
70.0460444955
 10
230.8555670128
 20
70.0199886829
  0
SPLINE
  5
26E
330
1F
100
AcDbEntity
  8
0
  6
Continuous
 62
     7
370
    25
100
AcDbSpline
210
0.0
220
0.0
230
1.0
 70
    11
 71
     3
 72
    39
 73
    35
 74
     0
 42
0.000000001
 43
0.00000001
 40
0.0
 40
0.0
 40
0.0
 40
0.0
 40
0.0310664058348413
 40
0.0621048158426138
 40
0.0931361551796939
 40
0.1235538293503726
 40
0.1538561545809849
 40
0.1850588072749156
 40
0.2160250992946587
 40
0.2471867223797568
 40
0.2784462884304475
 40
0.3100516090231247
 40
0.3419834369138969
 40
0.3734259894013238
 40
0.4048604886787081
 40
0.436874065183343
 40
0.4685120685926471
 40
0.499805535863323
 40
0.5309508213226204
 40
0.5618649784438111
 40
0.5930416446590877
 40
0.623374245013332
 40
0.6540913579072549
 40
0.6849496782718453
 40
0.7158160645166705
 40
0.7471731804043553
 40
0.7784514311866318
 40
0.810129591156098
 40
0.8419598919688388
 40
0.8735175891922303
 40
0.9050808037886594
 40
0.9370235169792582
 40
0.9687441590030581
 40
1.0
 40
1.0
 40
1.0
 40
1.0
 10
231.0144143007673
 20
68.32343209183026
 30
0.0
 10
231.2772999209654
 20
68.29489760454015
 30
0.0
 10
231.8041885314489
 20
68.20895511621855
 30
0.0
 10
232.5682006005249
 20
68.0085799961461
 30
0.0
 10
233.2753507885758
 20
67.76157788992658
 30
0.0
 10
233.8882618531713
 20
67.48359601177347
 30
0.0
 10
234.3853931788417
 20
67.18946231444475
 30
0.0
 10
234.7445848999152
 20
66.88795578625253
 30
0.0
 10
234.966304168674
 20
66.5809582813501
 30
0.0
 10
235.0315560460561
 20
66.27045301994842
 30
0.0
 10
234.9447088349422
 20
65.95130853519959
 30
0.0
 10
234.7023632471839
 20
65.62198856962739
 30
0.0
 10
234.3224253844575
 20
65.28304784806974
 30
0.0
 10
233.8086194312977
 20
64.9452093836591
 30
0.0
 10
233.1827286203876
 20
64.61931148234825
 30
0.0
 10
232.4692576338958
 20
64.32266458910878
 30
0.0
 10
231.7053551576314
 20
64.06656128067182
 30
0.0
 10
230.9195620747298
 20
63.87753371268104
 30
0.0
 10
230.1380246196899
 20
63.76935779062779
 30
0.0
 10
229.3819116349374
 20
63.76169390725808
 30
0.0
 10
228.6795470485439
 20
63.85961594264422
 30
0.0
 10
228.0605267015012
 20
64.08126437614672
 30
0.0
 10
227.5514694364875
 20
64.41713246305845
 30
0.0
 10
227.1785258430536
 20
64.85694302923922
 30
0.0
 10
226.9499238918052
 20
65.36801766976187
 30
0.0
 10
226.8810775850859
 20
65.9192027575253
 30
0.0
 10
226.965693998311
 20
66.47687468583706
 30
0.0
 10
227.2088027882458
 20
67.00695482675604
 30
0.0
 10
227.5909326310636
 20
67.47947917586878
 30
0.0
 10
228.1070682054739
 20
67.86560068676201
 30
0.0
 10
228.7340460659759
 20
68.14922487409514
 30
0.0
 10
229.4499534983396
 20
68.31896209282156
 30
0.0
 10
230.2183968905253
 20
68.38050092753286
 30
0.0
 10
230.7499256698977
 20
68.3521405752773
 30
0.0
 10
231.0144143007672
 20
68.32343209183026
 30
0.0
  0
LINE
  5
26F
330
1F
100
AcDbEntity
  8
0
  6
Continuous
 62
     7
370
    25
100
AcDbLine
 10
221.789877313
 20
51.884305065
 30
0.0
 11
222.1039219201
 21
51.7161612807
 31
0.0
  0
LINE
  5
270
330
1F
100
AcDbEntity
  8
0
  6
Continuous
 62
     7
370
    25
100
AcDbLine
 10
220.802918274
 20
52.4540643906
 30
0.0
 11
221.789877313
 21
51.884305065
 31
0.0
  0
ARC
  5
271
330
1F
100
AcDbEntity
  8
0
  6
Continuous
 62
     7
370
    25
100
AcDbCircle
 10
223.0238868935
 20
56.0475621637
 30
0.0
 40
4.484291989683514
100
AcDbArc
 50
267.6840937494
 51
286.9865889436
  0
SPLINE
  5
272
330
1F
100
AcDbEntity
  8
0
  6
Continuous
 62
     7
370
    25
100
AcDbSpline
210
0.0
220
0.0
230
1.0
 70
     8
 71
     3
 72
    16
 73
    12
 74
     0
 42
0.000000001
 43
0.00000001
 40
0.0
 40
0.0
 40
0.0
 40
0.0
 40
0.150516077399123
 40
0.2631372176921929
 40
0.3788385653419725
 40
0.4915726627001887
 40
0.608215717310718
 40
0.7115656327827979
 40
0.8179798858712685
 40
0.9203357686923436
 40
1.0
 40
1.0
 40
1.0
 40
1.0
 10
232.3529200955939
 20
65.32093645896744
 30
0.0
 10
232.1480870130785
 20
65.43332541163996
 30
0.0
 10
231.7899909986475
 20
65.62980752050576
 30
0.0
 10
231.1912558045354
 20
65.89396617229431
 30
0.0
 10
230.6150404542958
 20
66.10619801571043
 30
0.0
 10
230.0024802496205
 20
66.27815287894018
 30
0.0
 10
229.4011053334966
 20
66.38608980509109
 30
0.0
 10
228.8184103055882
 20
66.42482379519669
 30
0.0
 10
228.2837835799302
 20
66.39037425323285
 30
0.0
 10
227.8154849457254
 20
66.29935412630927
 30
0.0
 10
227.5566366301491
 20
66.18848238746511
 30
0.0
 10
227.4433472160403
 20
66.13995746541985
 30
0.0
  0
SPLINE
  5
273
330
1F
100
AcDbEntity
  8
0
  6
Continuous
 62
     7
370
    25
100
AcDbSpline
210
0.0
220
0.0
230
1.0
 70
     8
 71
     3
 72
    10
 73
     6
 74
     0
 42
0.000000001
 43
0.00000001
 40
0.0
 40
0.0
 40
0.0
 40
0.0
 40
0.3798174487108013
 40
0.9603712743694113
 40
1.0
 40
1.0
 40
1.0
 40
1.0
 10
233.4928005446405
 20
64.79270943618619
 30
0.0
 10
233.3631478862939
 20
64.86303814208527
 30
0.0
 10
233.0353201649912
 20
65.04086480365207
 30
0.0
 10
232.6273917613458
 20
65.21391710415031
 30
0.0
 10
232.3707589627739
 20
65.31312275075038
 30
0.0
 10
232.3543605156695
 20
65.31946184130032
 30
0.0
  0
SPLINE
  5
274
330
1F
100
AcDbEntity
  8
0
  6
Continuous
 62
     7
370
    25
100
AcDbSpline
210
0.0
220
0.0
230
1.0
 70
     8
 71
     3
 72
    24
 73
    20
 74
     0
 42
0.000000001
 43
0.00000001
 40
0.0
 40
0.0
 40
0.0
 40
0.0
 40
0.0618857619093494
 40
0.1150115624342297
 40
0.1593831322308222
 40
0.2428114832232123
 40
0.3183318386985426
 40
0.3935543620449526
 40
0.420484316839609
 40
0.4483397365001899
 40
0.477128677518787
 40
0.5451537674268876
 40
0.6363475914367293
 40
0.6968782742038289
 40
0.7498596592257523
 40
0.7959701139281281
 40
0.8771179876705577
 40
0.9543004325059576
 40
1.0
 40
1.0
 40
1.0
 40
1.0
 10
230.9595353597222
 20
67.7495742293078
 30
0.0
 10
230.7755787938935
 20
67.7684686042477
 30
0.0
 10
230.4337048086142
 20
67.80358284565014
 30
0.0
 10
229.9694867249194
 20
67.79709346781256
 30
0.0
 10
229.4600251920416
 20
67.74936857015092
 30
0.0
 10
228.9209300371303
 20
67.62475223678273
 30
0.0
 10
228.378092927831
 20
67.38226143958236
 30
0.0
 10
228.0376987385666
 20
67.1248901497699
 30
0.0
 10
227.8310723188474
 20
66.91008121252055
 30
0.0
 10
227.7130884011484
 20
66.76357917510659
 30
0.0
 10
227.5609183059241
 20
66.53382707616055
 30
0.0
 10
227.3942367562949
 20
66.16088566903844
 30
0.0
 10
227.3258764359424
 20
65.69832661251816
 30
0.0
 10
227.3762306240762
 20
65.26999274085166
 30
0.0
 10
227.4816604989313
 20
64.95006682986404
 30
0.0
 10
227.6638592590258
 20
64.60960056849913
 30
0.0
 10
227.9647382740212
 20
64.27365269979369
 30
0.0
 10
228.3544229748041
 20
64.00059398795997
 30
0.0
 10
228.6473418204788
 20
63.90663831710322
 30
0.0
 10
228.756277736358
 20
63.87169639647243
 30
0.0
  0
SPLINE
  5
275
330
1F
100
AcDbEntity
  8
0
  6
Continuous
 62
     7
370
    25
100
AcDbSpline
210
0.0
220
0.0
230
1.0
 70
     8
 71
     3
 72
    22
 73
    18
 74
     0
 42
0.000000001
 43
0.00000001
 40
0.0
 40
0.0
 40
0.0
 40
0.0
 40
0.0219614350649738
 40
0.0803652114651397
 40
0.1456638403585972
 40
0.21789694387348
 40
0.2799150498546654
 40
0.3332793472081466
 40
0.3779895055229293
 40
0.4140481372238363
 40
0.517328140944588
 40
0.609398085778404
 40
0.7028413953962249
 40
0.7526499641548304
 40
0.804559245215462
 40
0.8937466539091778
 40
1.0
 40
1.0
 40
1.0
 40
1.0
 10
234.2643843764428
 20
65.27224762752407
 30
0.0
 10
234.2875522398409
 20
65.29410285569743
 30
0.0
 10
234.3723322296583
 20
65.37407941590743
 30
0.0
 10
234.4789636717063
 20
65.51624144677281
 30
0.0
 10
234.5762187624345
 20
65.70502017007666
 30
0.0
 10
234.6072451081183
 20
65.8909848087268
 30
0.0
 10
234.5778971120114
 20
66.06279949123237
 30
0.0
 10
234.5093902412062
 20
66.20960664641865
 30
0.0
 10
234.42158000888
 20
66.33081593224877
 30
0.0
 10
234.2672877181238
 20
66.49640078266728
 30
0.0
 10
233.9994619896872
 20
66.70656407101107
 30
0.0
 10
233.5478920396936
 20
66.96200857955105
 30
0.0
 10
233.1003291987266
 20
67.16864430805799
 30
0.0
 10
232.691435705243
 20
67.32714915242924
 30
0.0
 10
232.2693557402989
 20
67.46966526172238
 30
0.0
 10
231.6910432053265
 20
67.63292272997005
 30
0.0
 10
231.2171643821712
 20
67.70849085348047
 30
0.0
 10
230.9595353597222
 20
67.74957422930778
 30
0.0
  0
LINE
  5
276
330
1F
100
AcDbEntity
  8
0
  6
Continuous
 62
     7
370
    25
100
AcDbLine
 10
224.4499662942
 20
52.5024031845
 30
0.0
 11
224.4447277508
 21
52.7984866034
 31
0.0
  0
LINE
  5
277
330
1F
100
AcDbEntity
  8
0
  6
Continuous
 62
     7
370
    25
100
AcDbLine
 10
224.4447277508
 20
52.7984866034
 30
0.0
 11
224.4878268998
 21
53.4501298948
 31
0.0
  0
LINE
  5
278
330
1F
100
AcDbEntity
  8
0
  6
Continuous
 62
     7
370
    25
100
AcDbLine
 10
223.9651793309
 20
55.2791748582
 30
0.0
 11
223.6537645609
 21
55.6077711206
 31
0.0
  0
SPLINE
  5
279
330
1F
100
AcDbEntity
  8
0
  6
Continuous
 62
     7
370
    25
100
AcDbSpline
210
0.0
220
0.0
230
1.0
 70
     8
 71
     3
 72
    24
 73
    20
 74
     0
 42
0.000000001
 43
0.00000001
 40
0.0
 40
0.0
 40
0.0
 40
0.0
 40
0.0208485373664272
 40
0.0823376247214632
 40
0.1455705549099646
 40
0.2075413813861011
 40
0.2714247518574422
 40
0.3315017366460747
 40
0.3933547140842038
 40
0.4529343674600938
 40
0.514180240079699
 40
0.5749476280820675
 40
0.6373706675511337
 40
0.7000294854399094
 40
0.764869753768216
 40
0.8126336564434572
 40
0.8609398673429536
 40
0.9190455624033324
 40
1.0
 40
1.0
 40
1.0
 40
1.0
 10
227.3565473228097
 20
65.50042596131048
 30
0.0
 10
227.3538279835965
 20
65.55327562677759
 30
0.0
 10
227.3430884325339
 20
65.76199606818814
 30
0.0
 10
227.4151089623672
 20
66.10507851751757
 30
0.0
 10
227.5771974346135
 20
66.51672721846609
 30
0.0
 10
227.8395336699888
 20
66.8860627211193
 30
0.0
 10
228.1810496250738
 20
67.19423390881829
 30
0.0
 10
228.5968222084454
 20
67.43794403720295
 30
0.0
 10
229.0625896947415
 20
67.60774546847256
 30
0.0
 10
229.5768210065275
 20
67.70517775525158
 30
0.0
 10
230.1182330334025
 20
67.72679190707356
 30
0.0
 10
230.6826336817665
 20
67.67038654223077
 30
0.0
 10
231.2494813790308
 20
67.53331291859887
 30
0.0
 10
231.8074387973995
 20
67.30747704074234
 30
0.0
 10
232.280120464404
 20
67.00986703750661
 30
0.0
 10
232.6371145613595
 20
66.63894537447176
 30
0.0
 10
232.8319569858181
 20
66.20662675140858
 30
0.0
 10
232.8609882307202
 20
65.70368460670873
 30
0.0
 10
232.7986141125737
 20
65.3699398130243
 30
0.0
 10
232.7623027589265
 20
65.17564888609003
 30
0.0
  0
SPLINE
  5
27A
330
1F
100
AcDbEntity
  8
0
  6
Continuous
 62
     7
370
    25
100
AcDbSpline
210
0.0
220
0.0
230
1.0
 70
     8
 71
     3
 72
    10
 73
     6
 74
     0
 42
0.000000001
 43
0.00000001
 40
0.0
 40
0.0
 40
0.0
 40
0.0
 40
0.2951234317486784
 40
0.9803957662378208
 40
1.0
 40
1.0
 40
1.0
 40
1.0
 10
232.7650306339063
 20
65.17441032808549
 30
0.0
 10
232.8478546462137
 20
65.13564535376784
 30
0.0
 10
233.1229948156266
 20
65.00686867048603
 30
0.0
 10
233.3979957194014
 20
64.86563520693511
 30
0.0
 10
233.5465160349322
 20
64.77161531167656
 30
0.0
 10
233.5506467254889
 20
64.76900040278618
 30
0.0
  0
ARC
  5
27B
330
1F
100
AcDbEntity
  8
0
  6
Continuous
 62
     7
370
    25
100
AcDbCircle
 10
236.7750384802
 20
50.9612002582
 30
0.0
 40
12.4664423071753
100
AcDbArc
 50
171.5249591672
 51
179.8212373334
  0
SPLINE
  5
27C
330
1F
100
AcDbEntity
  8
0
  6
Continuous
 62
     7
370
    25
100
AcDbSpline
210
0.0
220
0.0
230
1.0
 70
     8
 71
     3
 72
    14
 73
    10
 74
     0
 42
0.000000001
 43
0.00000001
 40
0.0
 40
0.0
 40
0.0
 40
0.0
 40
0.0003951393068452
 40
0.0003951393068452
 40
0.0003951393068452
 40
0.0008163352168663
 40
0.0008163352168663
 40
0.0008163352168663
 40
0.0012378579337219
 40
0.0012378579337219
 40
0.0012378579337219
 40
0.0012378579337219
 10
232.3569528346063
 20
65.31965742311019
 30
0.0
 10
232.4024146488376
 20
65.30522056048515
 30
0.0
 10
232.4473022534586
 20
65.29035469991956
 30
0.0
 10
232.4915859461337
 20
65.27507091231408
 30
0.0
 10
232.5387892383731
 20
65.2587794729764
 30
0.0
 10
232.5853150514323
 20
65.24200999489248
 30
0.0
 10
232.6311259606739
 20
65.2247811840972
 30
0.0
 10
232.676972348663
 20
65.20753903026555
 30
0.0
 10
232.7221115842354
 20
65.18983332406104
 30
0.0
 10
232.7665051422778
 20
65.17169046737025
 30
0.0
  0
LINE
  5
27D
330
1F
100
AcDbEntity
  8
0
  6
Continuous
 62
     7
370
    25
100
AcDbLine
 10
223.6537645609
 20
55.6077711206
 30
0.0
 11
223.0138283656
 21
56.0200028577
 31
0.0
  0
LINE
  5
27E
330
1F
100
AcDbEntity
  8
0
  6
Continuous
 62
     7
370
    25
100
AcDbLine
 10
222.7078941692
 20
56.3914814033
 30
0.0
 11
223.0138283656
 21
56.0200028577
 31
0.0
  0
SPLINE
  5
27F
330
1F
100
AcDbEntity
  8
0
  6
Continuous
 62
     7
370
    25
100
AcDbSpline
210
0.0
220
0.0
230
1.0
 70
     8
 71
     3
 72
    13
 73
     9
 74
     0
 42
0.000000001
 43
0.00000001
 40
0.0
 40
0.0
 40
0.0
 40
0.0
 40
0.161854229885178
 40
0.3254858841554281
 40
0.4910085196607404
 40
0.6585318472791263
 40
0.8281616954204583
 40
0.9999999999999999
 40
0.9999999999999999
 40
0.9999999999999999
 40
0.9999999999999999
 10
223.0138283655847
 20
56.02000285768029
 30
0.0
 10
222.9942509735673
 20
56.03256583471345
 30
0.0
 10
222.9548811977216
 20
56.05782975083207
 30
0.0
 10
222.8933452579512
 20
56.09052344774692
 30
0.0
 10
222.8297885987018
 20
56.11946952145381
 30
0.0
 10
222.7641704960451
 20
56.14398188891941
 30
0.0
 10
222.6967432269903
 20
56.16441695227292
 30
0.0
 10
222.6508586267918
 20
56.17401360726269
 30
0.0
 10
222.6277679466168
 20
56.17884296809748
 30
0.0
  0
SPLINE
  5
280
330
1F
100
AcDbEntity
  8
0
  6
Continuous
 62
     7
370
    25
100
AcDbSpline
210
0.0
220
0.0
230
1.0
 70
     8
 71
     3
 72
     9
 73
     5
 74
     0
 42
0.000000001
 43
0.00000001
 40
0.0
 40
0.0
 40
0.0
 40
0.0
 40
0.4907282259506175
 40
1.0
 40
1.0
 40
1.0
 40
1.0
 10
222.6277621193248
 20
56.17881497106647
 30
0.0
 10
222.603668596847
 20
56.18691050328459
 30
0.0
 10
222.5545711102878
 20
56.20340748020588
 30
0.0
 10
222.5038704164676
 20
56.2182011492221
 30
0.0
 10
222.4780499841803
 20
56.22573514728671
 30
0.0
  0
SPLINE
  5
281
330
1F
100
AcDbEntity
  8
0
  6
Continuous
 62
     7
370
    25
100
AcDbSpline
210
0.0
220
0.0
230
1.0
 70
     8
 71
     3
 72
    14
 73
    10
 74
     0
 42
0.000000001
 43
0.00000001
 40
0.0
 40
0.0
 40
0.0
 40
0.0
 40
0.0310276388071746
 40
0.0622853718672815
 40
0.1248003166904892
 40
0.2498289731753984
 40
0.499889260361071
 40
0.7606803621682141
 40
1.0
 40
1.0
 40
1.0
 40
1.0
 10
221.894109294892
 20
56.59984288993257
 30
0.0
 10
221.9001015342965
 20
56.59601184627893
 30
0.0
 10
221.9121304502557
 20
56.58832134878122
 30
0.0
 10
221.9361902583049
 20
56.57288345927454
 30
0.0
 10
221.9784239309511
 20
56.54581300634371
 30
0.0
 10
222.0629865054633
 20
56.49160098154833
 30
0.0
 10
222.1862734749335
 20
56.4125977996823
 30
0.0
 10
222.3324051813875
 20
56.31899162500487
 30
0.0
 10
222.4307717979282
 20
56.25600854861239
 30
0.0
 10
222.4778434986124
 20
56.22586904982327
 30
0.0
  0
LINE
  5
282
330
1F
100
AcDbEntity
  8
0
  6
Continuous
 62
     7
370
    25
100
AcDbLine
 10
220.0916090282
 20
57.762473691
 30
0.0
 11
220.3825758628
 21
57.574395262
 31
0.0
  0
SPLINE
  5
283
330
1F
100
AcDbEntity
  8
0
  6
Continuous
 62
     7
370
    25
100
AcDbSpline
210
0.0
220
0.0
230
1.0
 70
     8
 71
     3
 72
     8
 73
     4
 74
     0
 42
0.000000001
 43
0.00000001
 40
0.0
 40
0.0
 40
0.0
 40
0.0
 40
1.0
 40
1.0
 40
1.0
 40
1.0
 10
220.4139647971872
 20
57.55417249762139
 30
0.0
 10
220.4035222913354
 20
57.5609979225188
 30
0.0
 10
220.3930563584456
 20
57.56774088930532
 30
0.0
 10
220.3825685936291
 20
57.5743999769583
 30
0.0
  0
SPLINE
  5
284
330
1F
100
AcDbEntity
  8
0
  6
Continuous
 62
     7
370
    25
100
AcDbSpline
210
0.0
220
0.0
230
1.0
 70
     8
 71
     3
 72
     8
 73
     4
 74
     0
 42
0.000000001
 43
0.00000001
 40
0.0
 40
0.0
 40
0.0
 40
0.0
 40
1.0
 40
1.0
 40
1.0
 40
1.0
 10
217.6279604183634
 20
59.43242814943047
 30
0.0
 10
217.6869601825334
 20
59.39368748251151
 30
0.0
 10
217.7462477460439
 20
59.35562550521222
 30
0.0
 10
217.8058288195323
 20
59.31824171675193
 30
0.0
  0
SPLINE
  5
285
330
1F
100
AcDbEntity
  8
0
  6
Continuous
 62
     7
370
    25
100
AcDbSpline
210
0.0
220
0.0
230
1.0
 70
     8
 71
     3
 72
     8
 73
     4
 74
     0
 42
0.000000001
 43
0.00000001
 40
0.0
 40
0.0
 40
0.0
 40
0.0
 40
1.0
 40
1.0
 40
1.0
 40
1.0
 10
217.6031106722639
 20
59.79563832736879
 30
0.0
 10
217.6105848843544
 20
59.67468048665695
 30
0.0
 10
217.6188809882445
 20
59.5536086442463
 30
0.0
 10
217.6279604183634
 20
59.43242814943047
 30
0.0
  0
LWPOLYLINE
  5
286
330
1F
100
AcDbEntity
  8
0
  6
Continuous
 62
     7
370
    25
100
AcDbPolyline
 90
       15
 70
   128
 43
0.0
 10
217.6031106723
 20
59.7956383274
 10
217.996710014
 20
60.9045470639
 10
218.4713781763
 20
62.0053151183
 10
219.0214312936
 20
63.0847614558
 10
219.640282811
 20
64.1299603565
 10
220.3205223543
 20
65.1283961928
 10
221.0540044644
 20
66.0681132968
 10
221.8319461347
 20
66.9378591219
 10
222.6450319822
 20
67.7272189856
 10
223.4835257933
 20
68.4267407787
 10
224.3373871094
 20
69.0280481489
 10
225.1963914555
 20
69.5239408025
 10
226.0502527717
 20
69.9084807236
 10
226.8887465827
 20
70.1770632781
 10
227.5670728979
 20
70.3097460912
  0
SPLINE
  5
287
330
1F
100
AcDbEntity
  8
0
  6
Continuous
 62
     7
370
    25
100
AcDbSpline
210
0.0
220
0.0
230
1.0
 70
     8
 71
     3
 72
    10
 73
     6
 74
     0
 42
0.000000001
 43
0.00000001
 40
0.0
 40
0.0
 40
0.0
 40
0.0
 40
0.2409820260343464
 40
0.5031431986319208
 40
1.0
 40
1.0
 40
1.0
 40
1.0
 10
223.6537645609134
 20
48.90192970298835
 30
0.0
 10
223.736010589112
 20
48.85025319101935
 30
0.0
 10
223.9077309882788
 20
48.74235848221429
 30
0.0
 10
224.1854511700167
 20
48.6126352015404
 30
0.0
 10
224.3064289573967
 20
48.6354133050399
 30
0.0
 10
224.3856215964855
 20
48.6503239606952
 30
0.0
  0
LINE
  5
288
330
1F
100
AcDbEntity
  8
0
  6
Continuous
 62
     7
370
    25
100
AcDbLine
 10
218.8705911063
 20
58.6310020564
 30
0.0
 11
218.1087117248
 21
59.1216369752
 31
0.0
  0
LINE
  5
289
330
1F
100
AcDbEntity
  8
0
  6
Continuous
 62
     7
370
    25
100
AcDbLine
 10
218.1087117248
 20
59.1216369752
 30
0.0
 11
217.6279604184
 21
59.4324281494
 31
0.0
  0
LINE
  5
28A
330
1F
100
AcDbEntity
  8
0
  6
Continuous
 62
     7
370
    25
100
AcDbLine
 10
222.7078941692
 20
48.6261499284
 30
0.0
 11
223.0138283656
 21
49.3141614401
 31
0.0
  0
LINE
  5
28B
330
1F
100
AcDbEntity
  8
0
  6
Continuous
 62
     7
370
    25
100
AcDbLine
 10
223.0138283656
 20
49.3141614401
 30
0.0
 11
223.6537645609
 21
48.901929703
 31
0.0
  0
SPLINE
  5
28C
330
1F
100
AcDbEntity
  8
0
  6
Continuous
 62
     7
370
    25
100
AcDbSpline
210
0.0
220
0.0
230
1.0
 70
     8
 71
     3
 72
    13
 73
     9
 74
     0
 42
0.000000001
 43
0.00000001
 40
0.0
 40
0.0
 40
0.0
 40
0.0
 40
0.172258782378417
 40
0.342139827159501
 40
0.5097456258302661
 40
0.6751828993623331
 40
0.8385626190354498
 40
1.0
 40
1.0
 40
1.0
 40
1.0
 10
222.6277564348115
 20
49.59547093593358
 30
0.0
 10
222.6509079587666
 20
49.57735134499613
 30
0.0
 10
222.6968914395223
 20
49.54136227305482
 30
0.0
 10
222.7644324522416
 20
49.49036228963315
 30
0.0
 10
222.8300920669298
 20
49.44203760944138
 30
0.0
 10
222.8936161381776
 20
49.39660660353556
 30
0.0
 10
222.9550465168913
 20
49.35378103578267
 30
0.0
 10
222.9943126838577
 20
49.32731521861244
 30
0.0
 10
223.0138283655847
 20
49.31416144006857
 30
0.0
  0
SPLINE
  5
28D
330
1F
100
AcDbEntity
  8
0
  6
Continuous
 62
     7
370
    25
100
AcDbSpline
210
0.0
220
0.0
230
1.0
 70
     8
 71
     3
 72
    11
 73
     7
 74
     0
 42
0.000000001
 43
0.00000001
 40
0.0
 40
0.0
 40
0.0
 40
0.0
 40
0.2392845094479873
 40
0.5001120454076898
 40
0.7515010915036774
 40
1.0
 40
1.0
 40
1.0
 40
1.0
 10
222.4783760233353
 20
49.64278492814646
 30
0.0
 10
222.4313067913308
 20
49.61447040543366
 30
0.0
 10
222.3329306367362
 20
49.55529217487748
 30
0.0
 10
222.1866334151524
 20
49.46210427441756
 30
0.0
 10
222.0387926715086
 20
49.36673235844511
 30
0.0
 10
221.9425062087896
 20
49.30219710318229
 30
0.0
 10
221.8946413209306
 20
49.27011603312447
 30
0.0
  0
SPLINE
  5
28E
330
1F
100
AcDbEntity
  8
0
  6
Continuous
 62
     7
370
    25
100
AcDbSpline
210
0.0
220
0.0
230
1.0
 70
     8
 71
     3
 72
     9
 73
     5
 74
     0
 42
0.000000001
 43
0.00000001
 40
0.0
 40
0.0
 40
0.0
 40
0.0
 40
0.5090669353869915
 40
1.0
 40
1.0
 40
1.0
 40
1.0
 10
222.4789470269195
 20
49.64208597393469
 30
0.0
 10
222.5045956015435
 20
49.63459326577481
 30
0.0
 10
222.554979102889
 20
49.61987475306255
 30
0.0
 10
222.6037866143843
 20
49.60348239521038
 30
0.0
 10
222.6277478355788
 20
49.59543484473378
 30
0.0
  0
LINE
  5
28F
330
1F
100
AcDbEntity
  8
0
  6
Continuous
 62
     7
370
    25
100
AcDbLine
 10
224.3088656012
 20
50.5659642123
 30
0.0
 11
222.6277499404
 21
49.5954767988
 31
0.0
  0
LINE
  5
290
330
1F
100
AcDbEntity
  8
0
  6
Continuous
 62
     7
370
    25
100
AcDbLine
 10
220.6212621434
 20
50.7192980766
 30
0.0
 11
220.420966091
 21
50.2181407952
 31
0.0
  0
SPLINE
  5
291
330
1F
100
AcDbEntity
  8
0
  6
Continuous
 62
     7
370
    25
100
AcDbSpline
210
0.0
220
0.0
230
1.0
 70
     8
 71
     3
 72
     8
 73
     4
 74
     0
 42
0.000000001
 43
0.00000001
 40
0.0
 40
0.0
 40
0.0
 40
0.0
 40
1.0
 40
1.0
 40
1.0
 40
1.0
 10
220.6208188287793
 20
50.72008200779604
 30
0.0
 10
220.6469941633486
 20
50.7422493847743
 30
0.0
 10
220.672815203314
 20
50.76488152586592
 30
0.0
 10
220.6982727570224
 20
50.7879662459572
 30
0.0
  0
LINE
  5
292
330
1F
100
AcDbEntity
  8
0
  6
Continuous
 62
     7
370
    25
100
AcDbLine
 10
220.698272757
 20
50.7879662459
 30
0.0
 11
222.4785657474
 21
49.6421949835
 31
0.0
  0
LINE
  5
293
330
1F
100
AcDbEntity
  8
0
  6
Continuous
 62
     7
370
    25
100
AcDbLine
 10
224.3086568495
 20
50.6640142468
 30
0.0
 11
224.220657827
 21
50.7715053834
 31
0.0
  0
LINE
  5
294
330
1F
100
AcDbEntity
  8
0
  6
Continuous
 62
     7
370
    25
100
AcDbLine
 10
222.3922492385
 20
51.7658780533
 30
0.0
 11
220.698272757
 21
50.787966246
 31
0.0
  0
LINE
  5
295
330
1F
100
AcDbEntity
  8
0
  6
Continuous
 62
     7
370
    25
100
AcDbLine
 10
222.5349432641
 20
51.7445856925
 30
0.0
 11
222.3926695526
 21
51.7653903085
 31
0.0
  0
LINE
  5
296
330
1F
100
AcDbEntity
  8
0
  6
Continuous
 62
     7
370
    25
100
AcDbLine
 10
224.2207308324
 20
50.7714012442
 30
0.0
 11
222.5349432641
 21
51.7445856925
 31
0.0
  0
LINE
  5
297
330
1F
100
AcDbEntity
  8
0
  6
Continuous
 62
     7
370
    25
100
AcDbLine
 10
224.3086568495
 20
50.7206369032
 30
0.0
 11
224.2206843754
 21
50.7714280446
 31
0.0
  0
SPLINE
  5
298
330
1F
100
AcDbEntity
  8
0
  6
Continuous
 62
     7
370
    25
100
AcDbSpline
210
0.0
220
0.0
230
1.0
 70
     8
 71
     3
 72
    19
 73
    15
 74
     0
 42
0.000000001
 43
0.00000001
 40
0.0
 40
0.0
 40
0.0
 40
0.0
 40
0.0637852801523487
 40
0.1289627947928742
 40
0.1955871357727518
 40
0.2637094157112479
 40
0.3333774494312574
 40
0.4046359392583752
 40
0.477526660464624
 40
0.5520886439445272
 40
0.6283583539150506
 40
0.7063698590296017
 40
0.8377040422924708
 40
1.0
 40
1.0
 40
1.0
 40
1.0
 10
219.836749722818
 20
50.88857009514791
 30
0.0
 10
219.8574390918231
 20
50.87521095513759
 30
0.0
 10
219.8992694144779
 20
50.84820108659668
 30
0.0
 10
219.9597603880726
 20
50.81067912107017
 30
0.0
 10
220.0192445862519
 20
50.77515937997949
 30
0.0
 10
220.0773257457236
 20
50.74217925106299
 30
0.0
 10
220.1338578628108
 20
50.71197281479261
 30
0.0
 10
220.1886029175645
 20
50.68485937483128
 30
0.0
 10
220.2413252951575
 20
50.66112775708054
 30
0.0
 10
220.2917669280859
 20
50.64108750363876
 30
0.0
 10
220.3396498465611
 20
50.62496764208927
 30
0.0
 10
220.394614026744
 20
50.61068966574287
 30
0.0
 10
220.4574453904746
 20
50.6005511046614
 30
0.0
 10
220.4959529336354
 20
50.60702538405089
 30
0.0
 10
220.5172369155031
 20
50.61060386332592
 30
0.0
  0
LINE
  5
299
330
1F
100
AcDbEntity
  8
0
  6
Continuous
 62
     7
370
    25
100
AcDbLine
 10
220.5418728465
 20
50.6366740105
 30
0.0
 11
220.6206768672
 21
50.7200657208
 31
0.0
  0
SPLINE
  5
29A
330
1F
100
AcDbEntity
  8
0
  6
Continuous
 62
     7
370
    25
100
AcDbSpline
210
0.0
220
0.0
230
1.0
 70
     8
 71
     3
 72
     9
 73
     5
 74
     0
 42
0.000000001
 43
0.00000001
 40
0.0
 40
0.0
 40
0.0
 40
0.0
 40
0.523202776288562
 40
0.9999999999999999
 40
0.9999999999999999
 40
0.9999999999999999
 40
0.9999999999999999
 10
222.2260718843234
 20
51.66994590868305
 30
0.0
 10
222.1570475713297
 20
51.69498806775729
 30
0.0
 10
222.0251210676454
 20
51.74285126766591
 30
0.0
 10
221.7836839152909
 20
51.88044946459581
 30
0.0
 10
221.6685673513475
 20
51.94605590287969
 30
0.0
  0
LINE
  5
29B
330
1F
100
AcDbEntity
  8
0
  6
Continuous
 62
     7
370
    25
100
AcDbLine
 10
217.9390662282
 20
51.7119453697
 30
0.0
 11
218.3905363979
 21
51.8242099033
 31
0.0
  0
LINE
  5
29C
330
1F
100
AcDbEntity
  8
0
  6
Continuous
 62
     7
370
    25
100
AcDbLine
 10
218.3905363979
 20
51.8242099033
 30
0.0
 11
219.8367497228
 21
50.8885700951
 31
0.0
  0
SPLINE
  5
29D
330
1F
100
AcDbEntity
  8
0
  6
Continuous
 62
     7
370
    25
100
AcDbSpline
210
0.0
220
0.0
230
1.0
 70
     8
 71
     3
 72
     8
 73
     4
 74
     0
 42
0.000000001
 43
0.00000001
 40
0.0
 40
0.0
 40
0.0
 40
0.0
 40
1.0
 40
1.0
 40
1.0
 40
1.0
 10
218.1098541068347
 20
51.31719589736459
 30
0.0
 10
218.0527288379107
 20
51.44898208116023
 30
0.0
 10
217.9958003461931
 20
51.58056630282102
 30
0.0
 10
217.9390662282437
 20
51.71194536972238
 30
0.0
  0
LINE
  5
29E
330
1F
100
AcDbEntity
  8
0
  6
Continuous
 62
     7
370
    25
100
AcDbLine
 10
219.7282376084
 20
52.5964483746
 30
0.0
 11
218.3905363979
 21
51.8242099033
 31
0.0
  0
LINE
  5
29F
330
1F
100
AcDbEntity
  8
0
  6
Continuous
 62
     7
370
    25
100
AcDbLine
 10
220.7112664052
 20
52.4986948412
 30
0.0
 11
219.7282371346
 21
52.5964484222
 31
0.0
  0
LINE
  5
2A0
330
1F
100
AcDbEntity
  8
0
  6
Continuous
 62
     7
370
    25
100
AcDbLine
 10
221.6685673513
 20
51.9460559029
 30
0.0
 11
220.7112656557
 21
52.4986944085
 31
0.0
  0
SPLINE
  5
2A1
330
1F
100
AcDbEntity
  8
0
  6
Continuous
 62
     7
370
    25
100
AcDbSpline
210
0.0
220
0.0
230
1.0
 70
     8
 71
     3
 72
     8
 73
     4
 74
     0
 42
0.000000001
 43
0.00000001
 40
0.0
 40
0.0
 40
0.0
 40
0.0
 40
1.0
 40
1.0
 40
1.0
 40
1.0
 10
217.9390662282459
 20
51.71194536971726
 30
0.0
 10
217.9359288904958
 20
51.74716167658978
 30
0.0
 10
217.9339364865978
 20
51.78280593281747
 30
0.0
 10
217.9331550892258
 20
51.81890283481236
 30
0.0
  0
LINE
  5
2A2
330
1F
100
AcDbEntity
  8
0
  6
Continuous
 62
     7
370
    25
100
AcDbLine
 10
218.7442406217
 20
52.2871325462
 30
0.0
 11
217.9331550892
 21
51.8189028348
 31
0.0
  0
SPLINE
  5
2A3
330
1F
100
AcDbEntity
  8
0
  6
Continuous
 62
     7
370
    25
100
AcDbSpline
210
0.0
220
0.0
230
1.0
 70
     8
 71
     3
 72
     8
 73
     4
 74
     0
 42
0.000000001
 43
0.00000001
 40
0.0000004089325119
 40
0.0000004089325119
 40
0.0000004089325119
 40
0.0000004089325119
 40
0.0015399868451459
 40
0.0015399868451459
 40
0.0015399868451459
 40
0.0015399868451459
 10
218.7442406217145
 20
52.28713254616847
 30
0.0
 10
218.9827171897378
 20
52.38150893198483
 30
0.0
 10
219.2211641474065
 20
52.47593754391503
 30
0.0
 10
219.4595728862568
 20
52.57043092687749
 30
0.0
  0
LINE
  5
2A4
330
1F
100
AcDbEntity
  8
0
  6
Continuous
 62
     7
370
    25
100
AcDbLine
 10
219.4595728863
 20
52.5704309269
 30
0.0
 11
219.483969117
 21
52.5754248567
 31
0.0
  0
LINE
  5
2A5
330
1F
100
AcDbEntity
  8
0
  6
Continuous
 62
     7
370
    25
100
AcDbLine
 10
219.7282374009
 20
52.596448356
 30
0.0
 11
219.4839696587
 21
52.5754252493
 31
0.0
  0
SPLINE
  5
2A6
330
1F
100
AcDbEntity
  8
0
  6
Continuous
 62
     7
370
    25
100
AcDbSpline
210
0.0
220
0.0
230
1.0
 70
     8
 71
     3
 72
     8
 73
     4
 74
     0
 42
0.000000001
 43
0.00000001
 40
0.0
 40
0.0
 40
0.0
 40
0.0
 40
1.0
 40
1.0
 40
1.0
 40
1.0
 10
220.7112648007648
 20
52.49869491946446
 30
0.0
 10
220.7418728348881
 20
52.48375491165834
 30
0.0
 10
220.77242433586
 20
52.46887795426496
 30
0.0
 10
220.8029182739745
 20
52.45406439058404
 30
0.0
  0
LWPOLYLINE
  5
2A7
330
1F
100
AcDbEntity
  8
0
  6
Continuous
 62
     7
370
    25
100
AcDbPolyline
 90
        3
 70
   128
 43
0.0
 10
224.3510383944
 20
51.9871444302
 10
223.876508731
 20
51.7891826463
 10
223.1396539835
 20
51.5631400898
  0
LWPOLYLINE
  5
2A8
330
1F
100
AcDbEntity
  8
0
  6
Continuous
 62
     7
370
    18
100
AcDbPolyline
 90
       17
 70
   128
 43
0.0
 10
270.6428322529
 20
30.0515461063
 10
270.6887978125
 20
30.7017184636
 10
270.8253721457
 20
31.3862572514
 10
271.0486262577
 20
32.0854695351
 10
271.3521375342
 20
32.7792402504
 10
271.7271745082
 20
33.4476108768
 10
272.162948049
 20
34.0713536084
 10
272.646921745
 20
34.6325245025
 10
273.1651725544
 20
35.1149796941
 10
273.7027913448
 20
35.5048398258
 10
274.2443118026
 20
35.7908893314
 10
274.77415537
 20
35.9648990874
 10
275.2770794124
 20
36.02186315
 10
275.7386157206
 20
35.9601427668
 10
276.1454867355
 20
35.7815135209
 10
276.4859875187
 20
35.4911142504
 10
276.7166556223
 20
35.1610939955
  0
LWPOLYLINE
  5
2A9
330
1F
100
AcDbEntity
  8
0
  6
Continuous
 62
     7
370
    18
100
AcDbPolyline
 90
        8
 70
   128
 43
0.0
 10
272.4505431306
 20
27.7711696953
 10
272.162948049
 20
27.7868269441
 10
271.7271745082
 20
27.9074362551
 10
271.3521375342
 20
28.1427984082
 10
271.0486262577
 20
28.4861424627
 10
270.8253721457
 20
28.9275910353
 10
270.6887978125
 20
29.4544444544
 10
270.6428322529
 20
30.0515461063
  0
LWPOLYLINE
  5
2AA
330
1F
100
AcDbEntity
  8
0
  6
Continuous
 62
     7
370
    18
100
AcDbPolyline
 90
       34
 70
   128
 43
0.0
 10
271.6919591775
 20
30.1858150535
 10
271.7381264246
 20
30.7707778012
 10
271.8749595615
 20
31.3879020401
 10
272.0975130821
 20
32.0148832923
 10
272.3977433222
 20
32.6290608218
 10
272.7647991788
 20
33.2082366523
 10
273.1854142968
 20
33.7314778604
 10
273.64438655
 20
34.1798731455
 10
274.1251274853
 20
34.5372163337
 10
274.6102618727
 20
34.7905921112
 10
275.0822556915
 20
34.9308428172
 10
275.5240498553
 20
34.9528994257
 10
275.9196767719
 20
34.8559647535
 10
276.2548374537
 20
34.6435422721
 10
276.5174183206
 20
34.3233094836
 10
276.6979290157
 20
33.9068404352
 10
276.7898454123
 20
33.4091874035
 10
276.7898454123
 20
32.8483368656
 10
276.6979290157
 20
32.2445594212
 10
276.5174183206
 20
31.6196771604
 10
276.2548374537
 20
30.9962749562
 10
275.9196767719
 20
30.3968841884
 10
275.5240498553
 20
29.8431684011
 10
275.0822556915
 20
29.3551403256
 10
274.6102618727
 20
28.950438568
 10
274.1251274853
 20
28.6436901044
 10
273.64438655
 20
28.4459816234
 10
273.1854142968
 20
28.3644588246
 10
272.7647991788
 20
28.4020681544
 10
272.3977433222
 20
28.5574503136
 10
272.0975130821
 20
28.8249893862
 10
271.8749595615
 20
29.195015813
 10
271.7381264246
 20
29.6541558748
 10
271.6919591775
 20
30.1858150535
  0
ARC
  5
2AB
330
1F
100
AcDbEntity
  8
0
  6
Continuous
 62
     7
370
    18
100
AcDbCircle
 10
244.9951577238
 20
44.9117011072
 30
0.0
 40
3.115262667626213
100
AcDbArc
 50
174.0725302334
 51
234.6152893732
  0
LWPOLYLINE
  5
2AC
330
1F
100
AcDbEntity
  8
0
  6
Continuous
 62
     7
370
    18
100
AcDbPolyline
 90
       18
 70
   128
 43
0.0
 10
249.4407144786
 20
53.1974932251
 10
249.2100713498
 20
53.312295202
 10
248.7052858654
 20
53.4572479426
 10
248.1518607685
 20
53.4867237178
 10
247.561062198
 20
53.4001224856
 10
246.9449171092
 20
53.1992071976
 10
246.3159684391
 20
52.8880679096
 10
245.6870197691
 20
52.4730385201
 10
245.0708746802
 20
51.9625678308
 10
244.4800761097
 20
51.3670475528
 10
243.9266510128
 20
50.6986007617
 10
243.4218655285
 20
49.9708351063
 10
242.9759956335
 20
49.1985657969
 10
242.5981179531
 20
48.3975140095
 10
242.2959249872
 20
47.5839868484
 10
242.0755685132
 20
46.7745453806
 10
241.9415343534
 20
45.9856675002
 10
241.8965510567
 20
45.2334124858
  0
LWPOLYLINE
  5
2AD
330
1F
100
AcDbEntity
  8
0
  6
Continuous
 62
     7
370
    18
100
AcDbPolyline
 90
       23
 70
   128
 43
0.0
 10
273.079960107
 20
30.9870909345
 10
273.1272207155
 20
31.3939500187
 10
273.2651737677
 20
31.8224137368
 10
273.4826431276
 20
32.2377705063
 10
273.762010721
 20
32.6063705922
 10
274.0806438471
 20
32.8983522076
 10
274.4127287449
 20
33.0900607384
 10
274.7313618709
 20
33.1659650997
 10
275.0107294644
 20
33.1199159716
 10
275.2281988243
 20
32.9556439805
 10
275.3661518764
 20
32.6864574661
 10
275.4134124849
 20
32.334164319
 10
275.3661518764
 20
31.9273052348
 10
275.2281988243
 20
31.4988415168
 10
275.0107294644
 20
31.0834847472
 10
274.7313618709
 20
30.7148846613
 10
274.4127287449
 20
30.422903046
 10
274.0806438471
 20
30.2311945151
 10
273.762010721
 20
30.1552901538
 10
273.4826431276
 20
30.201339282
 10
273.2651737677
 20
30.3656112731
 10
273.1272207155
 20
30.6347977874
 10
273.079960107
 20
30.9870909345
  0
LWPOLYLINE
  5
2AE
330
1F
100
AcDbEntity
  8
0
  6
Continuous
 62
     7
370
    18
100
AcDbPolyline
 90
       13
 70
   128
 43
0.0
 10
274.8926935303
 20
33.0196924488
 10
274.9181392031
 20
33.0037935554
 10
275.096242073
 20
32.8049526253
 10
275.1894337528
 20
32.5098740055
 10
275.1894337528
 20
32.1447767264
 10
275.096242073
 20
31.7421012834
 10
274.9181392031
 20
31.3376271568
 10
274.6709503647
 20
30.9672936476
 10
274.3766393708
 20
30.6640065134
 10
274.0613570449
 20
30.454714147
 10
273.7531176051
 20
30.3580130935
 10
273.4793094785
 20
30.3824956661
 10
273.3906812293
 20
30.4227849416
  0
LWPOLYLINE
  5
2AF
330
1F
100
AcDbEntity
  8
0
  6
Continuous
 62
     7
370
    18
100
AcDbPolyline
 90
       25
 70
   128
 43
0.0
 10
239.7752307131
 20
45.2334124858
 10
239.8202220741
 20
46.0686165867
 10
239.9544574001
 20
46.942052579
 10
240.1757325508
 20
47.8393786679
 10
240.4804141943
 20
48.7458607838
 10
240.8634994665
 20
49.6466145154
 10
241.3186981178
 20
50.5268495113
 10
241.8385357989
 20
51.3721123374
 10
242.4144767895
 20
52.1685238012
 10
243.0370641544
 20
52.9030068487
 10
243.6960750263
 20
53.5635012884
 10
244.3806884649
 20
54.13916182
 10
245.0796631365
 20
54.6205361134
 10
245.7815218963
 20
54.999720016
 10
246.4747402428
 20
55.2704873386
 10
247.1479355501
 20
55.4283920894
 10
247.7900539696
 20
55.4708414765
 10
248.3905519349
 20
55.3971384824
 10
248.9395692857
 20
55.208493308
 10
249.4280911725
 20
54.908003502
 10
249.8480960794
 20
54.5006030986
 10
250.1926875374
 20
53.9929816013
 10
250.4562073642
 20
53.3934741409
 10
250.6343285717
 20
52.7119246135
 10
250.6715283461
 20
52.4869595036
  0
LWPOLYLINE
  5
2B0
330
1F
100
AcDbEntity
  8
0
  6
Continuous
 62
     7
370
    18
100
AcDbPolyline
 90
       13
 70
   128
 43
0.0
 10
244.4220362671
 20
41.6613487238
 10
244.3806884649
 20
41.6450114889
 10
243.6960750263
 20
41.4302341692
 10
243.0370641544
 20
41.329850852
 10
242.4144767895
 20
41.3455098285
 10
241.8385357989
 20
41.4769539789
 10
241.3186981178
 20
41.7220249937
 10
240.8634994665
 20
42.0766988138
 10
240.4804141943
 20
42.5351517048
 10
240.1757325508
 20
43.0898558829
 10
239.9544574001
 20
43.7317031208
 10
239.8202220741
 20
44.4501543046
 10
239.7752307131
 20
45.2334124858
  0
LWPOLYLINE
  5
2B1
330
1F
100
AcDbEntity
  8
0
  6
Continuous
 62
     7
370
    18
100
AcDbPolyline
 90
       28
 70
   128
 43
0.0
 10
227.8339649459
 20
45.6058986868
 10
227.8787633765
 20
46.7836532701
 10
228.012797978
 20
48.003648433
 10
228.2349895824
 20
49.2560614919
 10
228.5435492335
 20
50.5308087533
 10
228.9359925907
 20
51.8176267018
 10
229.4091599305
 20
53.1061546358
 10
229.9592415879
 20
54.3860180862
 10
230.5818086288
 20
55.6469123448
 10
231.2718485095
 20
56.8786854327
 10
232.0238054345
 20
58.071419837
 10
232.8316250889
 20
59.2155123618
 10
233.6888033837
 20
60.3017514467
 10
234.5884388234
 20
61.3213913333
 10
235.5232880724
 20
62.2662224807
 10
236.4858242742
 20
63.1286376643
 10
237.4682976532
 20
63.9016932239
 10
238.4627979116
 20
64.5791649707
 10
239.461317918
 20
65.1555983006
 10
240.4558181763
 20
65.6263521114
 10
241.4382915554
 20
65.9876361702
 10
242.4008277572
 20
66.2365416301
 10
243.3356770061
 20
66.3710644508
 10
244.2353124458
 20
66.3901215336
 10
245.0924907407
 20
66.2935594421
 10
245.900310395
 20
66.0821556374
 10
246.6522673201
 20
65.7576122187
 10
246.8301684422
 20
65.6594539885
  0
LWPOLYLINE
  5
2B2
330
1F
100
AcDbEntity
  8
0
  6
Continuous
 62
     7
370
    18
100
AcDbPolyline
 90
       10
 70
   128
 43
0.0
 10
231.0939473873
 20
38.400566045
 10
230.5818086288
 20
38.7374778147
 10
229.9592415879
 20
39.279571468
 10
229.4091599305
 20
39.9243241554
 10
228.9359925907
 20
40.6665447073
 10
228.5435492335
 20
41.5002572003
 10
228.2349895824
 20
42.4187490716
 10
228.012797978
 20
43.4146251646
 10
227.8787633765
 20
44.4798672707
 10
227.8339649459
 20
45.6058986868
  0
LWPOLYLINE
  5
2B3
330
1F
100
AcDbEntity
  8
0
  6
Continuous
 62
     7
370
    18
100
AcDbPolyline
 90
       13
 70
   128
 43
0.0
 10
232.4580460474
 20
42.2702619606
 10
232.3257310857
 20
43.0624945203
 10
232.2428514626
 20
44.1155570803
 10
232.2529092426
 20
45.2263624616
 10
232.3558094246
 20
46.3844185347
 10
232.5505800635
 20
47.5787868633
 10
232.8353814502
 20
48.7981860228
 10
233.2075234888
 20
50.0310981596
 10
233.6634911058
 20
51.265877783
 10
234.1989774522
 20
52.4908617631
 10
234.8089245833
 20
53.6944794947
 10
235.4875712342
 20
54.8653621879
 10
236.2285072373
 20
55.9924502523
  0
LWPOLYLINE
  5
2B4
330
1F
100
AcDbEntity
  8
0
  6
Continuous
 62
     7
370
    18
100
AcDbPolyline
 90
       17
 70
   128
 43
0.0
 10
232.9698421218
 20
39.3403344118
 10
232.6132589138
 20
39.8851645411
 10
232.217379789
 20
40.6872790516
 10
231.9086514729
 20
41.5786921553
 10
231.6899028228
 20
42.5512358921
 10
231.5631382182
 20
43.5959989075
 10
231.529519195
 20
44.7034081065
 10
231.5893538019
 20
45.8633163711
 10
231.7420937785
 20
47.0650955379
 10
231.9863395783
 20
48.2977337831
 10
232.319853193
 20
49.5499365232
 10
232.7395786593
 20
50.8102299066
 10
233.2416700603
 20
52.0670659474
 10
233.8215267652
 20
53.3089283395
 10
234.4738355851
 20
54.524437979
 10
235.192619457
 20
55.7024572308
 10
235.9712922114
 20
56.8321919815
  0
LINE
  5
2B5
330
1F
100
AcDbEntity
  8
0
  6
Continuous
 62
     7
370
    18
100
AcDbLine
 10
238.9632158892
 20
58.2332129068
 30
0.0
 11
239.0047649287
 21
58.2767572199
 31
0.0
  0
ARC
  5
2B6
330
1F
100
AcDbEntity
  8
0
  6
Continuous
 62
     7
370
    18
100
AcDbCircle
 10
249.0544176012
 20
49.0493236284
 30
0.0
 40
14.35348911364188
100
AcDbArc
 50
109.9319623821
 51
139.4246774734
  0
LWPOLYLINE
  5
2B7
330
1F
100
AcDbEntity
  8
0
  6
Continuous
 62
     7
370
    18
100
AcDbPolyline
 90
       12
 70
   128
 43
0.0
 10
237.3154854522
 20
58.5043555942
 10
238.227830232
 20
59.4750911947
 10
239.1731585332
 20
60.36063359
 10
240.1425637034
 20
61.152639416
 10
241.1269122443
 20
61.8436465875
 10
242.1169298645
 20
62.4271446038
 10
243.1032888599
 20
62.8976358892
 10
244.0766959973
 20
63.2506875898
 10
245.0279800725
 20
63.4829733389
 10
245.9481783195
 20
63.5923045969
 10
246.8286208555
 20
63.5776512714
 10
246.9544490696
 20
63.5650089633
  0
LINE
  5
2B8
330
1F
100
AcDbEntity
  8
0
  6
Continuous
 62
     7
370
    18
100
AcDbLine
 10
223.3476004374
 20
55.9785063903
 30
0.0
 11
223.6537645609
 21
55.6077711206
 31
0.0
  0
LINE
  5
2B9
330
1F
100
AcDbEntity
  8
0
  6
Continuous
 62
     7
370
    18
100
AcDbLine
 10
223.3476004374
 20
48.214395999
 30
0.0
 11
223.6537645609
 21
48.901929703
 31
0.0
  0
LINE
  5
2BA
330
1F
100
AcDbEntity
  8
0
  6
Continuous
 62
     7
370
    18
100
AcDbLine
 10
224.3896747147
 20
49.326761592
 30
0.0
 11
223.653771887
 21
48.9019339323
 31
0.0
  0
LINE
  5
2BB
330
1F
100
AcDbEntity
  8
0
  6
Continuous
 62
     7
370
    18
100
AcDbLine
 10
224.3230993395
 20
50.0699874851
 30
0.0
 11
223.0138283656
 21
49.3141614401
 31
0.0
  0
LINE
  5
2BC
330
1F
100
AcDbEntity
  8
0
  6
Continuous
 62
     7
370
    18
100
AcDbLine
 10
219.8367497228
 20
50.8885700951
 30
0.0
 11
219.54026222
 21
50.3925084876
 31
0.0
  0
LINE
  5
2BD
330
1F
100
AcDbEntity
  8
0
  6
Continuous
 62
     7
370
    18
100
AcDbLine
 10
221.6685673513
 20
51.9460559029
 30
0.0
 11
219.8368099723
 21
50.8886048764
 31
0.0
  0
LINE
  5
2BE
330
1F
100
AcDbEntity
  8
0
  6
Continuous
 62
     7
370
    18
100
AcDbLine
 10
221.6685673513
 20
51.9460559029
 30
0.0
 11
221.789877313
 21
51.884305065
 31
0.0
  0
OLE2FRAME
  5
2BF
330
1F
100
AcDbEntity
  8
0
100
AcDbOle2Frame
 70
     2
  3
Paintbrush-Bild
 10
13.8511154363
 20
38.264191557
 30
0.0
 11
51.6290888628
 21
31.9806341108
 31
0.0
 71
     2
 72
     0
 73
     1
 90
    12928
310
80552BED0767C5B32B40DDAF6807D121434000000000000000006FFBDDFB85D0
310
4940DDAF6807D121434000000000000000006FFBDDFB85D04940416F4BD60AFB
310
3F4000000000000000002BED0767C5B32B40416F4BD60AFB3F40000000000000
310
0000000000000100000000010000010000000100000000000100000000320000
310
D0CF11E0A1B11AE1000000000000000000000000000000003E000300FEFF0900
310
0600000000000000000000000100000001000000000000000010000002000000
310
01000000FEFFFFFF0000000000000000FFFFFFFFFFFFFFFFFFFFFFFFFFFFFFFF
310
FFFFFFFFFFFFFFFFFFFFFFFFFFFFFFFFFFFFFFFFFFFFFFFFFFFFFFFFFFFFFFFF
310
FFFFFFFFFFFFFFFFFFFFFFFFFFFFFFFFFFFFFFFFFFFFFFFFFFFFFFFFFFFFFFFF
310
FFFFFFFFFFFFFFFFFFFFFFFFFFFFFFFFFFFFFFFFFFFFFFFFFFFFFFFFFFFFFFFF
310
FFFFFFFFFFFFFFFFFFFFFFFFFFFFFFFFFFFFFFFFFFFFFFFFFFFFFFFFFFFFFFFF
310
FFFFFFFFFFFFFFFFFFFFFFFFFFFFFFFFFFFFFFFFFFFFFFFFFFFFFFFFFFFFFFFF
310
FFFFFFFFFFFFFFFFFFFFFFFFFFFFFFFFFFFFFFFFFFFFFFFFFFFFFFFFFFFFFFFF
310
FFFFFFFFFFFFFFFFFFFFFFFFFFFFFFFFFFFFFFFFFFFFFFFFFFFFFFFFFFFFFFFF
310
FFFFFFFFFFFFFFFFFFFFFFFFFFFFFFFFFFFFFFFFFFFFFFFFFFFFFFFFFFFFFFFF
310
FFFFFFFFFFFFFFFFFFFFFFFFFFFFFFFFFFFFFFFFFFFFFFFFFFFFFFFFFFFFFFFF
310
FFFFFFFFFFFFFFFFFFFFFFFFFFFFFFFFFFFFFFFFFFFFFFFFFFFFFFFFFFFFFFFF
310
FFFFFFFFFFFFFFFFFFFFFFFFFFFFFFFFFFFFFFFFFFFFFFFFFFFFFFFFFFFFFFFF
310
FFFFFFFFFFFFFFFFFFFFFFFFFFFFFFFFFFFFFFFFFFFFFFFFFFFFFFFFFFFFFFFF
310
FFFFFFFFFFFFFFFFFFFFFFFFFFFFFFFFFFFFFFFFFFFFFFFFFFFFFFFFFFFFFFFF
310
FDFFFFFFFEFFFFFFFEFFFFFFFEFFFFFF05000000060000000700000008000000
310
090000000A0000000B0000000C0000000D0000000E0000000F00000010000000
310
11000000120000001300000014000000150000001600000017000000FEFFFFFF
310
FFFFFFFFFFFFFFFFFFFFFFFFFFFFFFFFFFFFFFFFFFFFFFFFFFFFFFFFFFFFFFFF
310
FFFFFFFFFFFFFFFFFFFFFFFFFFFFFFFFFFFFFFFFFFFFFFFFFFFFFFFFFFFFFFFF
310
FFFFFFFFFFFFFFFFFFFFFFFFFFFFFFFFFFFFFFFFFFFFFFFFFFFFFFFFFFFFFFFF
310
FFFFFFFFFFFFFFFFFFFFFFFFFFFFFFFFFFFFFFFFFFFFFFFFFFFFFFFFFFFFFFFF
310
FFFFFFFFFFFFFFFFFFFFFFFFFFFFFFFFFFFFFFFFFFFFFFFFFFFFFFFFFFFFFFFF
310
FFFFFFFFFFFFFFFFFFFFFFFFFFFFFFFFFFFFFFFFFFFFFFFFFFFFFFFFFFFFFFFF
310
FFFFFFFFFFFFFFFFFFFFFFFFFFFFFFFFFFFFFFFFFFFFFFFFFFFFFFFFFFFFFFFF
310
FFFFFFFFFFFFFFFFFFFFFFFFFFFFFFFFFFFFFFFFFFFFFFFFFFFFFFFFFFFFFFFF
310
FFFFFFFFFFFFFFFFFFFFFFFFFFFFFFFFFFFFFFFFFFFFFFFFFFFFFFFFFFFFFFFF
310
FFFFFFFFFFFFFFFFFFFFFFFFFFFFFFFFFFFFFFFFFFFFFFFFFFFFFFFFFFFFFFFF
310
FFFFFFFFFFFFFFFFFFFFFFFFFFFFFFFFFFFFFFFFFFFFFFFFFFFFFFFFFFFFFFFF
310
FFFFFFFFFFFFFFFFFFFFFFFFFFFFFFFFFFFFFFFFFFFFFFFFFFFFFFFFFFFFFFFF
310
FFFFFFFFFFFFFFFFFFFFFFFFFFFFFFFFFFFFFFFFFFFFFFFFFFFFFFFFFFFFFFFF
310
52006F006F007400200045006E00740072007900000000000000000000000000
310
0000000000000000000000000000000000000000000000000000000000000000
310
16000500FFFFFFFFFFFFFFFF020000000A00030000000000C000000000000046
310
0000000000000000000000003008028F00A7D30103000000C000000000000000
310
01004F006C006500000000000000000000000000000000000000000000000000
310
0000000000000000000000000000000000000000000000000000000000000000
310
0A000200FFFFFFFFFFFFFFFFFFFFFFFF00000000000000000000000000000000
310
0000000000000000000000000000000000000000000000001400000000000000
310
010043006F006D0070004F0062006A0000000000000000000000000000000000
310
0000000000000000000000000000000000000000000000000000000000000000
310
120002010100000003000000FFFFFFFF00000000000000000000000000000000
310
0000000000000000000000000000000000000000010000004D00000000000000
310
01004F006C006500310030004E00610074006900760065000000000000000000
310
0000000000000000000000000000000000000000000000000000000000000000
310
1A000200FFFFFFFFFFFFFFFFFFFFFFFF00000000000000000000000000000000
310
0000000000000000000000000000000000000000040000002426000000000000
310
FEFFFFFF02000000FEFFFFFFFFFFFFFFFFFFFFFFFFFFFFFFFFFFFFFFFFFFFFFF
310
FFFFFFFFFFFFFFFFFFFFFFFFFFFFFFFFFFFFFFFFFFFFFFFFFFFFFFFFFFFFFFFF
310
FFFFFFFFFFFFFFFFFFFFFFFFFFFFFFFFFFFFFFFFFFFFFFFFFFFFFFFFFFFFFFFF
310
FFFFFFFFFFFFFFFFFFFFFFFFFFFFFFFFFFFFFFFFFFFFFFFFFFFFFFFFFFFFFFFF
310
FFFFFFFFFFFFFFFFFFFFFFFFFFFFFFFFFFFFFFFFFFFFFFFFFFFFFFFFFFFFFFFF
310
FFFFFFFFFFFFFFFFFFFFFFFFFFFFFFFFFFFFFFFFFFFFFFFFFFFFFFFFFFFFFFFF
310
FFFFFFFFFFFFFFFFFFFFFFFFFFFFFFFFFFFFFFFFFFFFFFFFFFFFFFFFFFFFFFFF
310
FFFFFFFFFFFFFFFFFFFFFFFFFFFFFFFFFFFFFFFFFFFFFFFFFFFFFFFFFFFFFFFF
310
FFFFFFFFFFFFFFFFFFFFFFFFFFFFFFFFFFFFFFFFFFFFFFFFFFFFFFFFFFFFFFFF
310
FFFFFFFFFFFFFFFFFFFFFFFFFFFFFFFFFFFFFFFFFFFFFFFFFFFFFFFFFFFFFFFF
310
FFFFFFFFFFFFFFFFFFFFFFFFFFFFFFFFFFFFFFFFFFFFFFFFFFFFFFFFFFFFFFFF
310
FFFFFFFFFFFFFFFFFFFFFFFFFFFFFFFFFFFFFFFFFFFFFFFFFFFFFFFFFFFFFFFF
310
FFFFFFFFFFFFFFFFFFFFFFFFFFFFFFFFFFFFFFFFFFFFFFFFFFFFFFFFFFFFFFFF
310
FFFFFFFFFFFFFFFFFFFFFFFFFFFFFFFFFFFFFFFFFFFFFFFFFFFFFFFFFFFFFFFF
310
FFFFFFFFFFFFFFFFFFFFFFFFFFFFFFFFFFFFFFFFFFFFFFFFFFFFFFFFFFFFFFFF
310
FFFFFFFFFFFFFFFFFFFFFFFFFFFFFFFFFFFFFFFFFFFFFFFFFFFFFFFFFFFFFFFF
310
0100000200000000000000000000000000000000000000000000000000000000
310
0000000000000000000000000000000000000000000000000000000000000000
310
0100FEFF030A0000FFFFFFFF0A00030000000000C00000000000004607000000
310
5042727573680007000000504272757368000700000050427275736800F439B2
310
7100000000000000000000000000000000000000000000000000000000000000
310
0000000000000000000000000000000000000000000000000000000000000000
310
0000000000000000000000000000000000000000000000000000000000000000
310
0000000000000000000000000000000000000000000000000000000000000000
310
0000000000000000000000000000000000000000000000000000000000000000
310
0000000000000000000000000000000000000000000000000000000000000000
310
0000000000000000000000000000000000000000000000000000000000000000
310
0000000000000000000000000000000000000000000000000000000000000000
310
0000000000000000000000000000000000000000000000000000000000000000
310
0000000000000000000000000000000000000000000000000000000000000000
310
0000000000000000000000000000000000000000000000000000000000000000
310
0000000000000000000000000000000000000000000000000000000000000000
310
20260000424D0E260000000000003E00000028000000B40200006E0000000100
310
01000000000000000000130B0000130B00000200000002000000000000FFFFFF
310
FFFFFFFFFFFFFFFFFFFFFFFFFFFFFFFFFFFFFFFFFFFFFFFFFFFFFFFFFFFFFFFF
310
FFFFFFFFFFFFFFFFFFFFFFFFFFFFFFFFFFFFFFFFFFFFFFFFFFFFFFFFFFFFFFFF
310
FFFFFFFFFFFFFFFFFFFFFFFFFFFFFFFFFFFFFFFFFFFFFFFFF000FFFFFFFFFFFF
310
FFFFFFFFFFFFFFFFFFFFFFFFFFFFFFFFFFFFFFFFFFFFFFFFFFFFFFFFFFFFFFFF
310
FFFFFFFFFFFFFFFFFFFFFFFFFFFFFFFFFFFFFFFFFFFFFFFFFFFFFFFFFFFFFFFF
310
FFFFFFFFFFFFFFFFFFFFFFFFFFFFFFFFF000FFFFFFFFFFFFFFFFFFFFFFFFFFFF
310
FFFFFFFFFFFFFFFFFFFFFFFFFFFFFFFFFFFFFFFFFFFFFFFFFFFFFFFFFFFFFFFF
310
FFFFFFFFFFFFFFFFFFFFFFFFFFFFFFFFFFFFFFFFFFFFFFFFFFFFFFFFFFFFFFFF
310
FFFFFFFFFFFFFFFFF000FFFFFFFFFFFFFFFFFFFFFFFFFFFFFFFFFFFFFFFFFFFF
310
FFFFFFFFFFFFFFFFFFFFFFFFFFFFFFFFFFFFFFFFFFFFFFFFFFFFFFFFFFFFFFFF
310
FFFFFFFFFFFFFFFFFFFFFFFFFFFFFFFFFFFFFFFFFFFFFFFFFFFFFFFFFFFFFFFF
310
F000FFFFFFFFFFFFFFFFFFFFFFFFFFFFFFFFFFFFFFFFFFFFFFFFFFFFFFFFFFFF
310
FFFFFFFFFFFFFFFFFFFFFFFFFFFFFFFFFFFFFFFFFFFFFFFFFFFFFFFFFFFFFFFF
310
FFFFFFFFFFFFFFFFFFFFFFFFFFFFFFFFFFFFFFFFFFFFFFFFF000FFFFFFFFFFFF
310
FFFFFFFFFFFFFFFFFFFFFFFFFFFFFFFFFFFFFFFFFFFFFFFFFFFFFFFFFFFFFFFF
310
FFFFFFFFFFFFFFFFFFFFFFFFFFFFFFFFFFFFFFFFFFFFFFFFFFFFFFFFFFFFFFFF
310
FFFFFFFFFFFFFFFFFFFFFFFFFFFFFFFFF000FFFFFFFFFFFFFFFFFFFFFFFFFFFF
310
FFFFFFFFFFFFFFFFFFFFFFFFFFFFFFFFFFFFFFFFFFFFFFFFFFFFFFFFFFFFFFFF
310
FFFFFFFFFFFFFFFFFFFFFFFFFFFFFFFFFFFFFFFFFFFFFFFFFFFFFFFFFFFFFFFF
310
FFFFFFFFFFFFFFFFF000FFFFFFFFFFFFFFFFFFFFFFFFFFFFFFFFFFFFFFFFFFFF
310
FFFFFFFFFFFFFFFFFFFFFFFFFFFFFFFFFFFFFFFFFFFFFFFFFFFFFFFFFFFFFFFF
310
FFFFFFFFFFFFFFFFFFFFFFFFFFFFFFFFFFFFFFFFFFFFFFFFFFFFFFFFFFFFFFFF
310
F000FFFFFFFFFFFFFFFFFFFFFFFFFFFFFFFFFFFFFFFFFFFFFFFFFFFFFFFFFFFF
310
FFFFFFFFFFFFFFFFFFFFFFFFFFFFFFFFFFFFFFFFFFFFFFFFFFFFFFFFFFFFFFFF
310
FFFFFFFFFFFFFFFFFFFFFFFFFFFFFFFFFFFFFFFFFFFFFFFFF000FFFFFFFFFFFF
310
FFFFFFFFFFFFFFFFFFFFFFFFFFFFFFFFFFFFFFFFFFFFFFFFFFFFFFFFFFFFFFFF
310
FFFFFFFFFFFFFFFFFFFFFFFFFFFFFFFFFFFFFFFFFFFFFFFFFFFFFFFFFFFFFFFF
310
FFFFFFFFFFFFFFFFFFFFFFFFFFFFFFFFF000FFFFFFFFFFFFFFFFFFFFFFFFFFFF
310
FFFFFFFFFFFFFFFFFFFFFFFFFFFFFFFFFFFFFFFFFFFFFFFFFFFFFFFFFFFFFFFF
310
FFFFFFFFFFFFFFFFFFFFFFFFFFFFFFFFFFFFFFFFFFFFFFFFFFFFFFFFFFFFFFFF
310
FFFFFFFFFFFFFFFFF000FFFFFFFFFFFFFFFFFFFFFFFFFFFFFFFFFFFFFFFFFFFF
310
FFFFFFFFFFFFFFFFFFFFFFFFFFFFFFFFFFFFFFFFFFFFFFFFFFFFFFFFFFFFFFFF
310
FFFFFFFFFFFFFFFFFFFFFFFFFFFFFFFFFFFFFFFFFFFFFFFFFFFFFFFFFFFFFFFF
310
F000FFFFFFFFFFFFFFFFFFFFFFFFFFFFFFFFFFFFFFFFFFFFFFFFFFFFFFFFFFFF
310
FFFFFFFFFFFFFFFFFFFFFFFFFFFFFFFFFFFFFFFFFFFFFFFFFFFFFFFFFFFFFFFF
310
FFFFFFFFFFFFFFFFFFFFFFFFFFFFFFFFFFFFFFFFFFFFFFFFF000FFFFFFFFFFFF
310
FFFFFFFFFFFFFFFFFFFFFFFFFFFFFFFFFFFFFFFFFFFFFFFFFFFFFFFFFFFFFFFF
310
FFFFFFFFFFFFFFFFFFFFFFFFFFFFFFFFFFFFFFFFFFFFFFFFFFFFFFFFFFFFFFFF
310
FFFFFFFFFFFFFFFFFFFFFFFFFFFFFFFFF000FFFFFFFFFFFFFFFFFFFFFFFFFFFF
310
FFFFFFFFFFFFFFFFFFFFFFFFFFFFFFFFFFFFFFFFFFFFFFFFFFFFFFFFFFFFFFFF
310
FFFFFFFFFFFFFFFFFFFFFFFFFFFFFFFFFFFFFFFFFFFFFFFFFFFFFFFFFFFFFFFF
310
FFFFFFFFFFFFFFFFF000FFFFFFFFFFFFFFFFFFFFFFFFFFFFFFFFFFFFFFFFFFFF
310
FFFFFFFFFFFFFFFFFFFFFFFFFFFFFFFFFFFFFFFFFFFFFFFFFFFFFFFFFFFFFFFF
310
FFFFFFFFFFFFFFFFFFFFFFFFFFFFFFFFFFFFFFFFFFFFFFFFFFFFFFFFFFFFFFFF
310
F000FFFFFFFFFFFFFFFFFFFFFFFFFFFFFFFFFFFFFFFFFFFFFFFFFFFFFFFFFFFF
310
FFFFFFFFFFFFFFFFFFFFFFFFFFFFFFFFFFFFFFFFFFFFFFFFFFFFFFFFFFFFFFFF
310
FFFFFFFFFFFFFFFFFFFFFFFFFFFFFFFFFFFFFFFFFFFFFFFFF000FFFFFFFFFFFF
310
FFFFFFFFFFFFFFFFFFFFFFFFFFFFFFFFFFFFFFFFFFFFFFFFFFFFFFFFFFFFFFFF
310
FFFFFFFFFFFFFFFFFFFFFFFFFFFFFFFFFFFFFFFFFFFFFFFFFFFFFFFFFFFFFFFF
310
FFFFFFFFFFFFFFFFFFFFFFFFFFFFFFFFF000FFFFFFFFFFFFFFFFFFFFFFFFFFFF
310
FFFFFFFFFFFFFFFFFFFFFFFFFFFFFFFFFFFFFFFFFFFFFFFFFFFFFFFFFFFFFFFF
310
FFFFFFFFFFFFFFFFFFFFFFFFFFFFFFFFFFFFFFFFFFFFFFFFFFFFFFFFFFFFFFFF
310
FFFFFFFFFFFFFFFFF000FFFFF80003FFFFFFFFFFFFFFFFFFFFFFFFFFFFFFFFFF
310
FFFFF00007FFFFFFFFFF00007FFFFFF800000000000000007FFFFFFFFFFFFFFF
310
FFFFFFFC001FFFFFFFFFFFFFFC001FFFFFFFFFFFFFFFFFFFFFFFFFFE0007FFFF
310
F000FFFF8000007FFFFFFFF8000FFFFFC0007FFFFF80007FFFFF0000007FFFFF
310
FFF8000007FFFFF800000000000000007FFFFFF0001FFFFFFFFFFFC00001FFFF
310
FFFFFFFFC00001FFFFFFFF000000000003FFFFE000007FFFF000FFFE0000000F
310
FFFFFFF0000FFFFF80007FFFFF80007FFFFC0000001FFFFFFFC0000001FFFFF8
310
00000000000000007FFFFFF0001FFFFFFFFFFE0000003FFFFFFFFFFE0000003F
310
FFFFFF000000000003FFFF0000000FFFF000FFF800000003FFFFFFF00007FFFF
310
80007FFFFF80007FFFF000000007FFFFFF000000003FFFF80000000000000000
310
7FFFFFF0001FFFFFFFFFF80000000FFFFFFFFFF80000000FFFFFFF0000000000
310
03FFFC00000003FFF000FFE000000000FFFFFFF00007FFFF80003FFFFF80007F
310
FFC000000001FFFFFC000000001FFFF800000000000000007FFFFFF0001FFFFF
310
FFFFE000000003FFFFFFFFE000000003FFFFFF000000000003FFF000000000FF
310
F000FF80000000007FFFFFF00007FFFF80003FFFFF80007FFF8000000000FFFF
310
F80000000007FFF800000000000000007FFFFFF0001FFFFFFFFFC000000001FF
310
FFFFFFC000000001FFFFFF000000000003FFC0000000007FF000FF0000000000
310
3FFFFFE00007FFFF00003FFFFF80007FFE00000000003FFFF00000000003FFF8
310
00000000000000007FFFFFF0001FFFFFFFFF8000000000FFFFFFFF8000000000
310
FFFFFF000000000003FF80000000003FF000FE00000000001FFFFFE00003FFFF
310
00003FFFFF80007FFC00000000001FFFE00000000001FFF8000001FFFE000000
310
7FFFFFF0001FFFFFFFFE00000000003FFFFFFE00000000003FFFFF0000000000
310
03FF00000000001FF000FC00000000000FFFFFE00003FFFF00001FFFFF80007F
310
F800000000001FFFC00000000000FFF8000001FFFE0000007FFFFFF0001FFFFF
310
FFFC00000000001FFFFFFC00000000001FFFFF000000000003FE00000000000F
310
F000F8000000000007FFFFE00003FFFF00001FFFFF80007FF800000000000FFF
310
800000000000FFF8000001FFFE0000007FFFFFF0001FFFFFFFF800000000000F
310
FFFFF800000000000FFFFF000000000003FC000000000007F000F80000000000
310
03FFFFC00003FFFE00001FFFFF80007FF0000000000007FF0000000000007FF8
310
000001FFFE0000007FFFFFF0001FFFFFFFF0000000000007FFFFF00000000000
310
07FFFF000000000003F8000000000003F000F0000000000003FFFFC00001FFFE
310
00001FFFFF80007FE0000000000007FE0000000000003FF8000001FFFE000000
310
7FFFFFF0001FFFFFFFF0000000000007FFFFF0000000000007FFFF0000000000
310
03F800001F800003F000E00001FFF00001FFFFC00001FFFE00000FFFFF80007F
310
E00001FFE00003FE00001FFF00003FF8000001FFFE0000007FFFFFF0001FFFFF
310
FFE000003E000003FFFFE000003E000003FFFF000000000003F00001FFF80001
310
F000E00007FFFC0001FFFFC00001FFFE00000FFFFF80007FC0000FFFFC0003FC
310
0000FFFFC0001FF8000001FFFE0000007FFFFFF0001FFFFFFFC00003FFE00001
310
FFFFC00003FFE00001FFFF0001FFFFFFFFF00007FFFE0001F000E0000FFFFF00
310
00FFFF800001FFFC00000FFFFF80007FC0001FFFFE0001FC0001FFFFE0001FF8
310
000001FFFE0000007FFFFFF0001FFFFFFF80000FFFF80000FFFF80000FFFF800
310
00FFFF0003FFFFFFFFE0000FFFFF8000F000C0003FFFFF8000FFFF800000FFFC
310
000007FFFF80007F80003FFFFF0001FC0003FFFFF0001FF8000001FFFE000000
310
7FFFFFF0001FFFFFFF80003FFFFE0000FFFF80003FFFFE0000FFFF0003FFFFFF
310
FFE0003FFFFF8000F000C0003FFFFF8000FFFF800000FFFC000007FFFF80007F
310
80007FFFFF8001F80007FFFFF8000FF8000001FFFE0000007FFFFFF0001FFFFF
310
FF00007FFFFF00007FFF00007FFFFF00007FFF0003FFFFFFFFE0003FFFFFC000
310
F000C0007FFFFFC000FFFF000000FFFC000007FFFF80007F8000FFFFFF8000F8
310
000FFFFFF8000FF8000001FFFE0000007FFFFFF0001FFFFFFF0000FFFFFF8000
310
7FFF0000FFFFFF80007FFF0003FFFFFFFFC0007FFFFFC00070008000FFFFFFC0
310
00FFFF000000FFF8000007FFFF80007F8000FFFFFF8000F8000FFFFFF8000FF8
310
000001FFFE0000007FFFFFF0001FFFFFFE0001FFFFFFC0003FFE0001FFFFFFC0
310
003FFF0003FFFFFFFFC0007FFFFFE00070008000FFFFFFC0007FFF0000007FF8
310
000003FFFF80007F0001FFFFFF8000F8000FFFFFF8000FF8000001FFFE000000
310
7FFFFFF0001FFFFFFE0001FFFFFFC0003FFE0001FFFFFFC0003FFF0003FFFFFF
310
FFC000FFFFFFE00070008000FFFFFFC0007FFF0000007FF8000003FFFF80007F
310
0001FFFFFF8000F8001FFFFFF8000FF8000001FFFE0000007FFFFFF0001FFFFF
310
FE0003FFFFFFE0003FFE0003FFFFFFE0003FFF0003FFFFFFFFC000FFFFFFE000
310
70008000FFFFFFC0007FFE0000007FF8000003FFFF80007F0001FFFFFF8000F0
310
001FFFFFF8000FF8000001FFFE0000007FFFFFF0001FFFFFFC0003FFFFFFE000
310
1FFC0003FFFFFFE0001FFF0003FFFFFFFFC000FFFFFFC00070008000FFFFFF80
310
007FFE0000007FF0000003FFFF80007F0001FFFFFF0000F0001FFFFFF8000FF8
310
000001FFFE0000007FFFFFF0001FFFFFFC0007FFFFFFF0001FFC0007FFFFFFF0
310
001FFF0003FFFFFFFFC000FFFFFFC00070008001FFFFFF0000FFFE0000003FF0
310
000001FFFF80007F0001FFFFFF0000F8001FFFFFF0000FF8000001FFFE000000
310
7FFFFFF0001FFFFFFC0007FFFFFFF0001FFC0007FFFFFFF0001FFF0003FFFFFF
310
FFC001FFFFFF80007000FFFFFFFFFE0000FFFE0008003FF0008001FFFF80007F
310
FFFFFFFFFC0000FFFFFFFFFFE0000FF8000001FFFE0000007FFFFFF0001FFFFF
310
F8000FFFFFFFF8000FF8000FFFFFFFF8000FFF0003FFFFFFFFFFFFFFFFFF0000
310
7000FFFFFFFFFC0000FFFC0008003FF0008001FFFF80007FFFFFFFFFF80001FF
310
FFFFFFFF80000FF8000001FFFE0000007FFFFFF0001FFFFFF8000FFFFFFFF800
310
0FF8000FFFFFFFF8000FFF0003FFFFFFFFFFFFFFFFFE0000F000FFFFFFFFE000
310
00FFFC000C003FE000C001FFFF80007FFFFFFFFFC00001FFFFFFFFFE00001FF8
310
000001FFFE0000007FFFFFF0001FFFFFF8000FFFFFFFF8000FF8000FFFFFFFF8
310
000FFF0003FFFFFFFFFFFFFFFFF00000F000FFFFFFFE000001FFFC000C001FE0
310
00C000FFFF80007FFFFFFFFE000001FFFFFFFFE000001FF80FFFFFFFFFFFFFC0
310
7FFFFFF0001FFFFFF8000FFFFFFFF8000FF8000FFFFFFFF8000FFF0003FFFFFF
310
FFFFFFFFFF800000F000FFFFFFC0000001FFFC001C001FE001C000FFFF80007F
310
FFFFFF80000003FFFFFFF80000001FF80FFFFFFFFFFFFFC07FFFFFF0001FFFFF
310
F8001FFFFFFFFC000FF8001FFFFFFFFC000FFF0003FFFFFFFFFFFFFFF0000001
310
F000FFFFF800000001FFF8001C001FE001C000FFFF80007FFFFFF800000003FF
310
FFFF800000003FF80FFFFFFFFFFFFFC07FFFFFF0001FFFFFF8001FFFFFFFFC00
310
0FF8001FFFFFFFFC000FFF0003FFFFFFFFFFFFFE00000001F000FFFFC0000000
310
03FFF8001E001FC001E000FFFF80007FFFFF8000000007FFFFFC000000003FF8
310
0FFFFFFFFFFFFFC07FFFFFF0001FFFFFF8001FFFFFFFFC000FF8001FFFFFFFFC
310
000FFF0003FFFFFFFFFFFFE000000003F000FFFE0000000007FFF8001E000FC0
310
01E0007FFF80007FFFFE0000000007FFFFE0000000007FF80FFFFFFFFFFFFFC0
310
7FFFFFF0001FFFFFF0001FFFFFFFFC0007F0001FFFFFFFFC0007FF0003FFFFFF
310
FFFFFF0000000003F000FFF80000000007FFF8001E000FC003E0007FFF80007F
310
FFF0000000000FFFFF8000000000FFF80FFFFFFFFFFFFFC07FFFFFF0001FFFFF
310
F0001FFFFFFFFC0007F0001FFFFFFFFC0007FF0003FFFFFFFFFFFC0000000007
310
F000FFE0000000000FFFF0003E000FC003E0007FFF80007FFFC0000000001FFF
310
FE0000000001FFF80FFFFFFFFFFFFFC07FFFFFF0001FFFFFF0001FFFFFFFFC00
310
07F0001FFFFFFFFC0007FF0003FFFFFFFFFFF0000000000FF000FFC000000000
310
1FFFF0003F000F8003F0003FFF80007FFF80000000003FFFF80000000003FFF8
310
0FFFFFFFFFFFFFC07FFFFFF0001FFFFFF0001FFFFFFFFC0007F0001FFFFFFFFC
310
0007FF0003FFFFFFFFFFE0000000001FF000FF00000000007FFFF0003F000780
310
03F0003FFF80007FFF00000000007FFFF00000000007FFF80FFFFFFFFFFFFFC0
310
7FFFFFF0001FFFFFF0001FFFFFFFFC0007F0001FFFFFFFFC0007FF0003FFFFFF
310
FFFF80000000007FF000FE0000000000FFFFE0003F00078007F0003FFF80007F
310
FE0000000001FFFFE0000000001FFFF80FFFFFFFFFFFFFC07FFFFFF0001FFFFF
310
F0001FFFFFFFFC0007F0001FFFFFFFFC0007FF0003FFFFFFFFFF0000000000FF
310
F000FC0000000003FFFFE0007F00078007F0003FFF80007FFC0000000007FFFF
310
C0000000007FFFF80FFFFFFFFFFFFFC07FFFFFF0001FFFFFF8001FFFFFFFFC00
310
0FF8001FFFFFFFFC000FFF0003FFFFFFFFFE0000000003FFF000FC000000000F
310
FFFFE0007F80070007F8001FFF80007FF8000000001FFFFF8000000001FFFFF8
310
0FFFFFFFFFFFFFC07FFFFFF0001FFFFFF8001FFFFFFFFC000FF8001FFFFFFFFC
310
000FFF0003FFFFFFFFFC000000000FFFF000F8000000007FFFFFE0007F800700
310
07F8001FFF80007FF000000000FFFFFF800000000FFFFFF80FFFFFFFFFFFFFC0
310
7FFFFFF0001FFFFFF8000FFFFFFFF8000FF8000FFFFFFFF8000FFF0003FFFFFF
310
FFFC000000007FFFF000F800000007FFFFFFC0007F8003000FF8001FFF80007F
310
F000000007FFFFFF000000007FFFFFF80FFFFFFFFFFFFFC07FFFFFF0001FFFFF
310
F8000FFFFFFFF8000FF8000FFFFFFFF8000FFF0003FFFFFFFFF80000000FFFFF
310
F000F0000000FFFFFFFFC000FF8003000FF8001FFF80007FE0000000FFFFFFFF
310
0000000FFFFFFFF8000001FFFE0000007FFFFFF0001FFFFFF8000FFFFFFFF800
310
0FF8000FFFFFFFF8000FFF0003FFFFFFFFF8000000FFFFFFF000F000000FFFFF
310
FFFFC000FFC002000FF8000FFF80007FE000001FFFFFFFFE000001FFFFFFFFF8
310
000001FFFE0000007FFFFFF0001FFFFFF8000FFFFFFFF8000FF8000FFFFFFFF8
310
000FFF0003FFFFFFFFF000001FFFFFFFF000E00000FFFFFFFFFFC000FFC00200
310
0FFC000FFF80007FE00001FFFFFFFFFE00001FFFFFFFFFF8000001FFFE000000
310
7FFFFFF0001FFFFFFC000FFFFFFFF8001FFC000FFFFFFFF8001FFF0003FFFFFF
310
FFF00001FFFFFFFFF000E00007FFFFFFFFFF8000FFC000001FFC000FFF80007F
310
C0000FFFFFFFFFFE0000FFFFFFFFFFF8000001FFFE0000007FFFFFF0001FFFFF
310
FC0007FFFFFFF0001FFC0007FFFFFFF0001FFF0003FFFFFFFFF00007FFFFFFFF
310
F000E0001FFFFFFFFFFF8000FFC000001FFC000FFF80007FC0003FFFFFFFFFFE
310
0001FFFFFFFFFFF8000001FFFE0000007FFFFFF0001FFFFFFC0007FFFFFFF000
310
1FFC0007FFFFFFF0001FFF0003FFFFFFFFF0001FFFFFFFFFF000E0003FFFFF00
310
03FF8001FFE000001FFC0007FF80007FC0007FFFFF0007FC0003FFFFF0003FF8
310
000001FFFE0000007FFFFFF0001FFFFFFC0003FFFFFFE0001FFC0003FFFFFFE0
310
001FFF0003FFFFFFFFF0003FFFFFFFFFF000E0003FFFFF0001FF8001FFE00000
310
1FFE0007FF80007FC0007FFFFE0003FC0007FFFFE0003FF8000001FFFE000000
310
7FFFFFF0001FFFFFFE0003FFFFFFE0003FFE0003FFFFFFE0003FFF0003FFFFFF
310
FFF0003FFFFF8001F000E0003FFFFF0001FF0001FFE000001FFE0007FF80007F
310
C0007FFFFE0003FC0007FFFFE0003FF8000001FFFE0000007FFFFFF0001FFFFF
310
FE0001FFFFFFC0003FFE0001FFFFFFC0003FFF0003FFFFFFFFF0003FFFFF0001
310
F000E0003FFFFF0003FF0001FFE000003FFE0007FF80007FC0007FFFFE0003FC
310
0007FFFFE0003FF8000001FFFE0000007FFFFFF0001FFFFFFF0001FFFFFFC000
310
7FFF0001FFFFFFC0007FFF0003FFFFFFFFF0003FFFFF0001F000E0003FFFFE00
310
03FF0003FFF000003FFE0003FF80007FC0007FFFFC0003FE0007FFFFE0003FF8
310
000001FFFE0000007FFFFFF0001FFFFFFF0000FFFFFF80007FFF0000FFFFFF80
310
007FFF0003FFFFFFFFF0003FFFFF0001F000E0003FFFFE0003FF0003FFF00000
310
3FFF0003FF80007FC0007FFFFC0007FE0007FFFFC0003FF8000001FFFE000000
310
7FFFFFF0001FFFFFFF80007FFFFF0000FFFF80007FFFFF0000FFFF0003FFFFFF
310
FFF0003FFFFF0003F000E0003FFFFC0003FE0003FFF000003FFF0003FF80007F
310
E0003FFFF80007FE0003FFFFC0007FF8000001FFFE0000007FFFFFF0001FFFFF
310
FF80003FFFFE0000FFFF80003FFFFE0000FFFF0003FFFFFFFFF0001FFFFE0003
310
F000F0001FFFF80003FE0003FFF000007FFF0001FF80007FE0003FFFF00007FE
310
0001FFFF80007FF8000001FFFE0000007FFFFFF0001FFFFFFFC0000FFFF80001
310
FFFFC0000FFFF80001FFFF0003FFFFFFFFF0001FFFFC0003F000F0000FFFF000
310
07FE0007FFF800007FFF0001FF80007FE0001FFFE00007FF0000FFFE00007FF8
310
000001FFFE0000007FFFFFF0001FFFFFFFC00003FFE00001FFFFC00003FFE000
310
01FFFF0003FFFFFFFFF8000FFFF80003F000F00003FFC00007FC0007FFF80000
310
7FFF8001FF80007FF00007FF80000FFF00007FF80000FFF8000001FFFE000000
310
7F80000000000001FFE000003E000003FFFFE000003E000003FFFF0003FFFFFF
310
FFF80003FFE00007F000F800000000000FFC0007FFF800007FFF8001FF80007F
310
F000000000000FFF000000000000FFF8000001FFFE0000007F80000000000001
310
FFF0000000000007FFFFF0000000000007FFFF0003FFFFFFFFFC00007E000007
310
F000F800000000000FFC0007FFF80000FFFF8000FF80007FF800000000001FFF
310
800000000001FFF8000001FFFE0000007F80000000000001FFF800000000000F
310
FFFFF800000000000FFFFF0003FFFFFFFFFC00000000000FF000FC0000000000
310
1FFC0007FFFC0000FFFF8000FF80007FF800000000003FFFC00000000001FFF8
310
000001FFFE0000007F80000000000001FFF800000000000FFFFFF80000000000
310
0FFFFF0003FFFFFFFFFE00000000001FF000FE00000000003FF8000FFFFC0000
310
FFFF8000FF80007FFC00000000003FFFC00000000003FFF8000001FFFE000000
310
7F80000000000001FFFC00000000001FFFFFFC00000000001FFFFF0003FFFFFF
310
FFFF00000000001FF000FF00000000003FF8000FFFFC0000FFFFC000FF80007F
310
FE00000000007FFFE00000000007FFF8000001FFFE0000007F80000000000001
310
FFFE00000000003FFFFFFE00000000003FFFFF0003FFFFFFFFFF80000000003F
310
F000FF80000000007FF8000FFFFC0001FFFFC0007F80007FFF0000000000FFFF
310
F0000000000FFFF800000000000000007F80000000000001FFFF8000000000FF
310
FFFFFF8000000000FFFFFF0003FFFFFFFFFFC0000000007FF000FFC000000000
310
FFF8000FFFFE0001FFFFC0007F80007FFF8000000001FFFFF8000000001FFFF8
310
00000000000000007F80000000000001FFFFC000000001FFFFFFFFC000000001
310
FFFFFF0003FFFFFFFFFFE000000000FFF000FFE000000003FFF0001FFFFE0001
310
FFFFC0007F80007FFFC000000007FFFFFE000000003FFFF80000000000000000
310
7F80000000000001FFFFE000000003FFFFFFFFE000000003FFFFFF0003FFFFFF
310
FFFFF000000003FFF000FFF80000000FFFF0001FFFFE0001FFFFE0007F80007F
310
FFF00000000FFFFFFF00000000FFFFF800000000000000007F80000000000001
310
FFFFF80000000FFFFFFFFFF80000000FFFFFFF0003FFFFFFFFFFFC0000000FFF
310
F000FFFE0000003FFFF0001FFFFE0003FFFFE0003F80007FFFFC0000003FFFFF
310
FFC0000003FFFFF800000000000000007F80000000000001FFFFFE0000003FFF
310
FFFFFFFE0000003FFFFFFF0003FFFFFFFFFFFF0000003FFFF000FFFF800000FF
310
FFF0001FFFFF0003FFFFE0003F80007FFFFF000001FFFFFFFFF800001FFFFFF8
310
00000000000000007F80000000000001FFFFFFC00001FFFFFFFFFFFFC00001FF
310
FFFFFF0003FFFFFFFFFFFFC00000FFFFF000FFFFF8000FFFFFFFFFFFFFFFFFFF
310
FFFFFFFFFFFFFFFFFFFFF0001FFFFFFFFFFF0000FFFFFFF80000000000000000
310
7FFFFFFFFFFFFFFFFFFFFFFC001FFFFFFFFFFFFFFC001FFFFFFFFFFFFFFFFFFF
310
FFFFFFFC001FFFFFF000FFFFFFFFFFFFFFFFFFFFFFFFFFFFFFFFFFFFFFFFFFFF
310
FFFFFFFFFFFFFFFFFFFFFFFFFFFFFFFFFFFFFFFFFFFFFFFFFFFFFFFFFFFFFFFF
310
FFFFFFFFFFFFFFFFFFFFFFFFFFFFFFFFFFFFFFFFFFFFFFFFFFFFFFFFFFFFFFFF
310
F000FFFFFFFFFFFFFFFFFFFFFFFFFFFFFFFFFFFFFFFFFFFFFFFFFFFFFFFFFFFF
310
FFFFFFFFFFFFFFFFFFFFFFFFFFFFFFFFFFFFFFFFFFFFFFFFFFFFFFFFFFFFFFFF
310
FFFFFFFFFFFFFFFFFFFFFFFFFFFFFFFFFFFFFFFFFFFFFFFFF000FFFFFFFFFFFF
310
FFFFFFFFFFFFFFFFFFFFFFFFFFFFFFFFFFFFFFFFFFFFFFFFFFFFFFFFFFFFFFFF
310
FFFFFFFFFFFFFFFFFFFFFFFFFFFFFFFFFFFFFFFFFFFFFFFFFFFFFFFFFFFFFFFF
310
FFFFFFFFFFFFFFFFFFFFFFFFFFFFFFFFF000FFFFFFFFFFFFFFFFFFFFFFFFFFFF
310
FFFFFFFFFFFFFFFFFFFFFFFFFFFFFFFFFFFFFFFFFFFFFFFFFFFFFFFFFFFFFFFF
310
FFFFFFFFFFFFFFFFFFFFFFFFFFFFFFFFFFFFFFFFFFFFFFFFFFFFFFFFFFFFFFFF
310
FFFFFFFFFFFFFFFFF000FFFFFFFFFFFFFFFFFFFFFFFFFFFFFFFFFFFFFFFFFFFF
310
FFFFFFFFFFFFFFFFFFFFFFFFFFFFFFFFFFFFFFFFFFFFFFFFFFFFFFFFFFFFFFFF
310
FFFFFFFFFFFFFFFFFFFFFFFFFFFFFFFFFFFFFFFFFFFFFFFFFFFFFFFFFFFFFFFF
310
F000FFFFFFFFFFFFFFFFFFFFFFFFFFFFFFFFFFFFFFFFFFFFFFFFFFFFFFFFFFFF
310
FFFFFFFFFFFFFFFFFFFFFFFFFFFFFFFFFFFFFFFFFFFFFFFFFFFFFFFFFFFFFFFF
310
FFFFFFFFFFFFFFFFFFFFFFFFFFFFFFFFFFFFFFFFFFFFFFFFF000FFFFFFFFFFFF
310
FFFFFFFFFFFFFFFFFFFFFFFFFFFFFFFFFFFFFFFFFFFFFFFFFFFFFFFFFFFFFFFF
310
FFFFFFFFFFFFFFFFFFFFFFFFFFFFFFFFFFFFFFFFFFFFFFFFFFFFFFFFFFFFFFFF
310
FFFFFFFFFFFFFFFFFFFFFFFFFFFFFFFFF000FFFFFFFFFFFFFFFFFFFFFFFFFFFF
310
FFFFFFFFFFFFFFFFFFFFFFFFFFFFFFFFFFFFFFFFFFFFFFFFFFFFFFFFFFFFFFFF
310
FFFFFFFFFFFFFFFFFFFFFFFFFFFFFFFFFFFFFFFFFFFFFFFFFFFFFFFFFFFFFFFF
310
FFFFFFFFFFFFFFFFF000FFFFFFFFFFFFFFFFFFFFFFFFFFFFFFFFFFFFFFFFFFFF
310
FFFFFFFFFFFFFFFFFFFFFFFFFFFFFFFFFFFFFFFFFFFFFFFFFFFFFFFFFFFFFFFF
310
FFFFFFFFFFFFFFFFFFFFFFFFFFFFFFFFFFFFFFFFFFFFFFFFFFFFFFFFFFFFFFFF
310
F000FFFFFFFFFFFFFFFFFFFFFFFFFFFFFFFFFFFFFFFFFFFFFFFFFFFFFFFFFFFF
310
FFFFFFFFFFFFFFFFFFFFFFFFFFFFFFFFFFFFFFFFFFFFFFFFFFFFFFFFFFFFFFFF
310
FFFFFFFFFFFFFFFFFFFFFFFFFFFFFFFFFFFFFFFFFFFFFFFFF000FFFFFFFFFFFF
310
FFFFFFFFFFFFFFFFFFFFFFFFFFFFFFFFFFFFFFFFFFFFFFFFFFFFFFFFFFFFFFFF
310
FFFFFFFFFFFFFFFFFFFFFFFFFFFFFFFFFFFFFFFFFFFFFFFFFFFFFFFFFFFFFFFF
310
FFFFFFFFFFFFFFFFFFFFFFFFFFFFFFFFF000FFFFFFFFFFFFFFFFFFFFFFFFFFFF
310
FFFFFFFFFFFFFFFFFFFFFFFFFFFFFFFFFFFFFFFFFFFFFFFFFFFFFFFFFFFFFFFF
310
FFFFFFFFFFFFFFFFFFFFFFFFFFFFFFFFFFFFFFFFFFFFFFFFFFFFFFFFFFFFFFFF
310
FFFFFFFFFFFFFFFFF000FFFFFFFFFFFFFFFFFFFFFFFFFFFFFFFFFFFFFFFFFFFF
310
FFFFFFFFFFFFFFFFFFFFFFFFFFFFFFFFFFFFFFFFFFFFFFFFFFFFFFFFFFFFFFFF
310
FFFFFFFFFFFFFFFFFFFFFFFFFFFFFFFFFFFFFFFFFFFFFFFFFFFFFFFFFFFFFFFF
310
F000FFFFFFFFFFFFFFFFFFFFFFFFFFFFFFFFFFFFFFFFFFFFFFFFFFFFFFFFFFFF
310
FFFFFFFFFFFFFFFFFFFFFFFFFFFFFFFFFFFFFFFFFFFFFFFFFFFFFFFFFFFFFFFF
310
FFFFFFFFFFFFFFFFFFFFFFFFFFFFFFFFFFFFFFFFFFFFFFFFF000FFFFFFFFFFFF
310
FFFFFFFFFFFFFFFFFFFFFFFFFFFFFFFFFFFFFFFFFFFFFFFFFFFFFFFFFFFFFFFF
310
FFFFFFFFFFFFFFFFFFFFFFFFFFFFFFFFFFFFFFFFFFFFFFFFFFFFFFFFFFFFFFFF
310
FFFFFFFFFFFFFFFFFFFFFFFFFFFFFFFFF000FFFFFFFFFFFFFFFFFFFFFFFFFFFF
310
FFFFFFFFFFFFFFFFFFFFFFFFFFFFFFFFFFFFFFFFFFFFFFFFFFFFFFFFFFFFFFFF
310
FFFFFFFFFFFFFFFFFFFFFFFFFFFFFFFFFFFFFFFFFFFFFFFFFFFFFFFFFFFFFFFF
310
FFFFFFFFFFFFFFFFF000FFFFFFFFFFFFFFFFFFFFFFFFFFFFFFFFFFFFFFFFFFFF
310
FFFFFFFFFFFFFFFFFFFFFFFFFFFFFFFFFFFFFFFFFFFFFFFFFFFFFFFFFFFFFFFF
310
FFFFFFFFFFFFFFFFFFFFFFFFFFFFFFFFFFFFFFFFFFFFFFFFFFFFFFFFFFFFFFFF
310
F000FFFFFFFFFFFFFFFFFFFFFFFFFFFFFFFFFFFFFFFFFFFFFFFFFFFFFFFFFFFF
310
FFFFFFFFFFFFFFFFFFFFFFFFFFFFFFFFFFFFFFFFFFFFFFFFFFFFFFFFFFFFFFFF
310
FFFFFFFFFFFFFFFFFFFFFFFFFFFFFFFFFFFFFFFFFFFFFFFFF000FFFFFFFFFFFF
310
FFFFFFFFFFFFFFFFFFFFFFFFFFFFFFFFFFFFFFFFFFFFFFFFFFFFFFFFFFFFFFFF
310
FFFFFFFFFFFFFFFFFFFFFFFFFFFFFFFFFFFFFFFFFFFFFFFFFFFFFFFFFFFFFFFF
310
FFFFFFFFFFFFFFFFFFFFFFFFFFFFFFFFF000FFFFFFFFFFFFFFFFFFFFFFFFFFFF
310
FFFFFFFFFFFFFFFFFFFFFFFFFFFFFFFFFFFFFFFFFFFFFFFFFFFFFFFFFFFFFFFF
310
FFFFFFFFFFFFFFFFFFFFFFFFFFFFFFFFFFFFFFFFFFFFFFFFFFFFFFFFFFFFFFFF
310
FFFFFFFFFFFFFFFFF000FFFFFFFFFFFFFFFFFFFFFFFFFFFFFFFFFFFFFFFFFFFF
310
FFFFFFFFFFFFFFFFFFFFFFFFFFFFFFFFFFFFFFFFFFFFFFFFFFFFFFFFFFFFFFFF
310
FFFFFFFFFFFFFFFFFFFFFFFFFFFFFFFFFFFFFFFFFFFFFFFFFFFFFFFFFFFFFFFF
310
F000FFFFFFFFFFFFFFFFFFFFFFFFFFFFFFFFFFFFFFFFFFFFFFFFFFFFFFFFFFFF
310
FFFFFFFFFFFFFFFFFFFFFFFFFFFFFFFFFFFFFFFFFFFFFFFFFFFFFFFFFFFFFFFF
310
FFFFFFFFFFFFFFFFFFFFFFFFFFFFFFFFFFFFFFFFFFFFFFFFF000FFFFFFFFFFFF
310
FFFFFFFFFFFFFFFFFFFFFFFFFFFFFFFFFFFFFFFFFFFFFFFFFFFFFFFFFFFFFFFF
310
FFFFFFFFFFFFFFFFFFFFFFFFFFFFFFFFFFFFFFFFFFFFFFFFFFFFFFFFFFFFFFFF
310
FFFFFFFFFFFFFFFFFFFFFFFFFFFFFFFFF0000000000000000000000000000000
310
0000000000000000000000000000000000000000000000000000000000000000
310
0000000000000000000000000000000000000000000000000000000000000000
310
0000000000000000000000000000000000000000000000000000000000000000
310
0000000000000000000000000000000000000000000000000000000000000000
310
0000000000000000000000000000000000000000000000000000000000000000
310
0000000000000000000000000000000000000000000000000000000000000000
310
0000000000000000000000000000000000000000000000000000000000000000
310
0000000000000000000000000000000000000000000000000000000000000000
310
0000000000000000000000000000000000000000000000000000000000000000
310
0000000000000000000000000000000000000000000000000000000000000000
310
0000000000000000000000000000000000000000000000000000000000000000
310
0000000000000000000000000000000000000000000000000000000000000000
310
0000000000000000000000000000000000000000000000000000000000000000
310
0000000000000000000000000000000000000000000000000000000000000000
310
0000000000000000000000000000000000000000000000000000000000000000
  1
OLE
  0
ENDSEC
  0
SECTION
  2
OBJECTS
  0
DICTIONARY
  5
C
330
0
100
AcDbDictionary
281
     1
  3
ACAD_GROUP
350
D
  3
ACAD_LAYOUT
350
1A
  3
ACAD_MLINESTYLE
350
17
  3
ACAD_PLOTSETTINGS
350
19
  3
ACAD_PLOTSTYLENAME
350
E
  3
ACAD_SCALELIST
350
47
  0
DICTIONARY
  5
D
102
{ACAD_REACTORS
330
C
102
}
330
C
100
AcDbDictionary
281
     1
  0
DICTIONARY
  5
1A
102
{ACAD_REACTORS
330
C
102
}
330
C
100
AcDbDictionary
281
     1
  3
Layout1
350
1E
  3
Layout2
350
26
  3
Model
350
22
  0
DICTIONARY
  5
17
102
{ACAD_REACTORS
330
C
102
}
330
C
100
AcDbDictionary
281
     1
  3
Standard
350
18
  0
DICTIONARY
  5
19
102
{ACAD_REACTORS
330
C
102
}
330
C
100
AcDbDictionary
281
     1
  0
ACDBDICTIONARYWDFLT
  5
E
102
{ACAD_REACTORS
330
C
102
}
330
C
100
AcDbDictionary
281
     1
  3
Normal
350
F
100
AcDbDictionaryWithDefault
340
F
  0
DICTIONARY
  5
47
102
{ACAD_REACTORS
330
C
102
}
330
C
100
AcDbDictionary
281
     1
  3
A0
350
48
  3
A1
350
49
  3
A2
350
4A
  3
A3
350
4B
  3
A4
350
4C
  3
A5
350
4D
  3
A6
350
4E
  3
A7
350
4F
  3
A8
350
50
  3
A9
350
51
  3
B0
350
52
  3
B1
350
53
  3
B2
350
54
  3
B3
350
55
  3
B4
350
56
  3
B5
350
57
  3
B6
350
58
  3
B7
350
59
  3
B8
350
5A
  3
B9
350
5B
  3
C0
350
5C
  3
C1
350
5D
  3
C2
350
5E
  3
C3
350
5F
  3
C4
350
60
  3
C5
350
61
  3
C6
350
62
  3
C7
350
63
  3
C8
350
64
  3
C9
350
65
  3
D0
350
66
  3
D1
350
67
  3
D2
350
68
  0
LAYOUT
  5
1E
102
{ACAD_REACTORS
330
1A
102
}
330
1A
100
AcDbPlotSettings
  1

  2
none_device
  4

  6

 40
0.0
 41
0.0
 42
0.0
 43
0.0
 44
0.0
 45
0.0
 46
0.0
 47
0.0
 48
0.0
 49
0.0
140
0.0
141
0.0
142
1.0
143
1.0
 70
   688
 72
     1
 73
     0
 74
     5
  7

 75
    16
147
1.0
148
0.0
149
0.0
100
AcDbLayout
  1
Layout1
 70
     1
 71
     1
 10
0.0
 20
0.0
 11
420.0
 21
297.0
 12
0.0
 22
0.0
 32
0.0
 14
1.0000000000E+20
 24
1.0000000000E+20
 34
1.0000000000E+20
 15
-1.0000000000E+20
 25
-1.0000000000E+20
 35
-1.0000000000E+20
146
0.0
 13
0.0
 23
0.0
 33
0.0
 16
1.0
 26
0.0
 36
0.0
 17
0.0
 27
1.0
 37
0.0
 76
     0
330
1B
  0
LAYOUT
  5
26
102
{ACAD_REACTORS
330
1A
102
}
330
1A
100
AcDbPlotSettings
  1

  2
none_device
  4

  6

 40
0.0
 41
0.0
 42
0.0
 43
0.0
 44
0.0
 45
0.0
 46
0.0
 47
0.0
 48
0.0
 49
0.0
140
0.0
141
0.0
142
1.0
143
1.0
 70
   688
 72
     1
 73
     0
 74
     5
  7

 75
    16
147
1.0
148
0.0
149
0.0
100
AcDbLayout
  1
Layout2
 70
     1
 71
     2
 10
0.0
 20
0.0
 11
0.0
 21
0.0
 12
0.0
 22
0.0
 32
0.0
 14
0.0
 24
0.0
 34
0.0
 15
0.0
 25
0.0
 35
0.0
146
0.0
 13
0.0
 23
0.0
 33
0.0
 16
1.0
 26
0.0
 36
0.0
 17
0.0
 27
1.0
 37
0.0
 76
     0
330
23
  0
LAYOUT
  5
22
102
{ACAD_REACTORS
330
1A
102
}
330
1A
100
AcDbPlotSettings
  1

  2
none_device
  4
Letter_(8.50_x_11.00_Inches)
  6

 40
6.35
 41
6.35
 42
6.35000508
 43
6.35000508
 44
215.9
 45
279.4
 46
0.0
 47
0.0
 48
0.0
 49
0.0
140
0.0
141
0.0
142
1.0
143
1.0
 70
  1712
 72
     1
 73
     0
 74
     0
  7

 75
     0
147
1.0
148
0.0
149
0.0
100
AcDbLayout
  1
Model
 70
     1
 71
     0
 10
0.0
 20
0.0
 11
297.0
 21
210.0
 12
0.0
 22
0.0
 32
0.0
 14
0.0
 24
0.0
 34
0.0
 15
297.0
 25
210.0
 35
0.0
146
0.0
 13
0.0
 23
0.0
 33
0.0
 16
1.0
 26
0.0
 36
0.0
 17
0.0
 27
1.0
 37
0.0
 76
     0
330
1F
331
29
  0
MLINESTYLE
  5
18
102
{ACAD_REACTORS
330
17
102
}
330
17
100
AcDbMlineStyle
  2
Standard
 70
     0
  3

 62
   256
 51
90.0
 52
90.0
 71
     2
 49
0.5
 62
   256
  6
BYLAYER
 49
-0.5
 62
   256
  6
BYLAYER
  0
ACDBPLACEHOLDER
  5
F
102
{ACAD_REACTORS
330
E
102
}
330
E
  0
SCALE
  5
48
102
{ACAD_REACTORS
330
47
102
}
330
47
100
AcDbScale
 70
     0
300
1:1
140
1.0
141
1.0
290
     1
  0
SCALE
  5
49
102
{ACAD_REACTORS
330
47
102
}
330
47
100
AcDbScale
 70
     0
300
1:2
140
1.0
141
2.0
290
     0
  0
SCALE
  5
4A
102
{ACAD_REACTORS
330
47
102
}
330
47
100
AcDbScale
 70
     0
300
1:4
140
1.0
141
4.0
290
     0
  0
SCALE
  5
4B
102
{ACAD_REACTORS
330
47
102
}
330
47
100
AcDbScale
 70
     0
300
1:5
140
1.0
141
5.0
290
     0
  0
SCALE
  5
4C
102
{ACAD_REACTORS
330
47
102
}
330
47
100
AcDbScale
 70
     0
300
1:8
140
1.0
141
8.0
290
     0
  0
SCALE
  5
4D
102
{ACAD_REACTORS
330
47
102
}
330
47
100
AcDbScale
 70
     0
300
1:10
140
1.0
141
10.0
290
     0
  0
SCALE
  5
4E
102
{ACAD_REACTORS
330
47
102
}
330
47
100
AcDbScale
 70
     0
300
1:16
140
1.0
141
16.0
290
     0
  0
SCALE
  5
4F
102
{ACAD_REACTORS
330
47
102
}
330
47
100
AcDbScale
 70
     0
300
1:20
140
1.0
141
20.0
290
     0
  0
SCALE
  5
50
102
{ACAD_REACTORS
330
47
102
}
330
47
100
AcDbScale
 70
     0
300
1:30
140
1.0
141
30.0
290
     0
  0
SCALE
  5
51
102
{ACAD_REACTORS
330
47
102
}
330
47
100
AcDbScale
 70
     0
300
1:40
140
1.0
141
40.0
290
     0
  0
SCALE
  5
52
102
{ACAD_REACTORS
330
47
102
}
330
47
100
AcDbScale
 70
     0
300
1:50
140
1.0
141
50.0
290
     0
  0
SCALE
  5
53
102
{ACAD_REACTORS
330
47
102
}
330
47
100
AcDbScale
 70
     0
300
1:100
140
1.0
141
100.0
290
     0
  0
SCALE
  5
54
102
{ACAD_REACTORS
330
47
102
}
330
47
100
AcDbScale
 70
     0
300
2:1
140
2.0
141
1.0
290
     0
  0
SCALE
  5
55
102
{ACAD_REACTORS
330
47
102
}
330
47
100
AcDbScale
 70
     0
300
4:1
140
4.0
141
1.0
290
     0
  0
SCALE
  5
56
102
{ACAD_REACTORS
330
47
102
}
330
47
100
AcDbScale
 70
     0
300
8:1
140
8.0
141
1.0
290
     0
  0
SCALE
  5
57
102
{ACAD_REACTORS
330
47
102
}
330
47
100
AcDbScale
 70
     0
300
10:1
140
10.0
141
1.0
290
     0
  0
SCALE
  5
58
102
{ACAD_REACTORS
330
47
102
}
330
47
100
AcDbScale
 70
     0
300
100:1
140
100.0
141
1.0
290
     0
  0
SCALE
  5
59
102
{ACAD_REACTORS
330
47
102
}
330
47
100
AcDbScale
 70
     0
300
1/128" = 1'-0"
140
0.0078125
141
12.0
290
     0
  0
SCALE
  5
5A
102
{ACAD_REACTORS
330
47
102
}
330
47
100
AcDbScale
 70
     0
300
1/64" = 1'-0"
140
0.015625
141
12.0
290
     0
  0
SCALE
  5
5B
102
{ACAD_REACTORS
330
47
102
}
330
47
100
AcDbScale
 70
     0
300
1/32" = 1'-0"
140
0.03125
141
12.0
290
     0
  0
SCALE
  5
5C
102
{ACAD_REACTORS
330
47
102
}
330
47
100
AcDbScale
 70
     0
300
1/16" = 1'-0"
140
0.0625
141
12.0
290
     0
  0
SCALE
  5
5D
102
{ACAD_REACTORS
330
47
102
}
330
47
100
AcDbScale
 70
     0
300
3/32" = 1'-0"
140
0.09375
141
12.0
290
     0
  0
SCALE
  5
5E
102
{ACAD_REACTORS
330
47
102
}
330
47
100
AcDbScale
 70
     0
300
1/8" = 1'-0"
140
0.125
141
12.0
290
     0
  0
SCALE
  5
5F
102
{ACAD_REACTORS
330
47
102
}
330
47
100
AcDbScale
 70
     0
300
3/16" = 1'-0"
140
0.1875
141
12.0
290
     0
  0
SCALE
  5
60
102
{ACAD_REACTORS
330
47
102
}
330
47
100
AcDbScale
 70
     0
300
1/4" = 1'-0"
140
0.25
141
12.0
290
     0
  0
SCALE
  5
61
102
{ACAD_REACTORS
330
47
102
}
330
47
100
AcDbScale
 70
     0
300
3/8" = 1'-0"
140
0.375
141
12.0
290
     0
  0
SCALE
  5
62
102
{ACAD_REACTORS
330
47
102
}
330
47
100
AcDbScale
 70
     0
300
1/2" = 1'-0"
140
0.5
141
12.0
290
     0
  0
SCALE
  5
63
102
{ACAD_REACTORS
330
47
102
}
330
47
100
AcDbScale
 70
     0
300
3/4" = 1'-0"
140
0.75
141
12.0
290
     0
  0
SCALE
  5
64
102
{ACAD_REACTORS
330
47
102
}
330
47
100
AcDbScale
 70
     0
300
1" = 1'-0"
140
1.0
141
12.0
290
     0
  0
SCALE
  5
65
102
{ACAD_REACTORS
330
47
102
}
330
47
100
AcDbScale
 70
     0
300
1-1/2" = 1'-0"
140
1.5
141
12.0
290
     0
  0
SCALE
  5
66
102
{ACAD_REACTORS
330
47
102
}
330
47
100
AcDbScale
 70
     0
300
3" = 1'-0"
140
3.0
141
12.0
290
     0
  0
SCALE
  5
67
102
{ACAD_REACTORS
330
47
102
}
330
47
100
AcDbScale
 70
     0
300
6" = 1'-0"
140
6.0
141
12.0
290
     0
  0
SCALE
  5
68
102
{ACAD_REACTORS
330
47
102
}
330
47
100
AcDbScale
 70
     0
300
1'-0" = 1'-0"
140
12.0
141
12.0
290
     0
  0
ENDSEC
  0
EOF
