  0
SECTION
  2
HEADER
  9
$ACADVER
  1
AC1015
  9
$ACADMAINTVER
 70
     6
  9
$DWGCODEPAGE
  3
ANSI_1252
  9
$INSBASE
 10
0.0
 20
0.0
 30
0.0
  9
$EXTMIN
 10
0.0
 20
0.0
 30
0.0
  9
$EXTMAX
 10
297.0
 20
210.0
 30
0.0
  9
$LIMMIN
 10
0.0
 20
0.0
  9
$LIMMAX
 10
297.0
 20
210.0
  9
$ORTHOMODE
 70
     0
  9
$REGENMODE
 70
     1
  9
$FILLMODE
 70
     1
  9
$QTEXTMODE
 70
     0
  9
$MIRRTEXT
 70
     1
  9
$LTSCALE
 40
1.0
  9
$ATTMODE
 70
     1
  9
$TEXTSIZE
 40
2.0
  9
$TRACEWID
 40
1.0
  9
$TEXTSTYLE
  7
Standard
  9
$CLAYER
  8
0
  9
$CELTYPE
  6
ByLayer
  9
$CECOLOR
 62
   256
  9
$CELTSCALE
 40
1.0
  9
$DISPSILH
 70
     0
  9
$DIMSCALE
 40
1.0
  9
$DIMASZ
 40
3.0
  9
$DIMEXO
 40
0.0
  9
$DIMDLI
 40
3.75
  9
$DIMRND
 40
0.0
  9
$DIMDLE
 40
0.0
  9
$DIMEXE
 40
1.0
  9
$DIMTP
 40
0.0
  9
$DIMTM
 40
0.0
  9
$DIMTXT
 40
2.0
  9
$DIMCEN
 40
2.5
  9
$DIMTSZ
 40
0.0
  9
$DIMTOL
 70
     0
  9
$DIMLIM
 70
     0
  9
$DIMTIH
 70
     1
  9
$DIMTOH
 70
     1
  9
$DIMSE1
 70
     0
  9
$DIMSE2
 70
     0
  9
$DIMTAD
 70
     1
  9
$DIMZIN
 70
     0
  9
$DIMBLK
  1

  9
$DIMASO
 70
     1
  9
$DIMSHO
 70
     1
  9
$DIMPOST
  1

  9
$DIMAPOST
  1

  9
$DIMALT
 70
     0
  9
$DIMALTD
 70
     3
  9
$DIMALTF
 40
0.0393700787
  9
$DIMLFAC
 40
2.0
  9
$DIMTOFL
 70
     1
  9
$DIMTVP
 40
0.0
  9
$DIMTIX
 70
     0
  9
$DIMSOXD
 70
     0
  9
$DIMSAH
 70
     0
  9
$DIMBLK1
  1

  9
$DIMBLK2
  1

  9
$DIMSTYLE
  2
ISO-25
  9
$DIMCLRD
 70
     0
  9
$DIMCLRE
 70
     0
  9
$DIMCLRT
 70
     0
  9
$DIMTFAC
 40
1.0
  9
$DIMGAP
 40
1.524
  9
$DIMJUST
 70
     0
  9
$DIMSD1
 70
     0
  9
$DIMSD2
 70
     0
  9
$DIMTOLJ
 70
     0
  9
$DIMTZIN
 70
     0
  9
$DIMALTZ
 70
     0
  9
$DIMALTTZ
 70
     0
  9
$DIMUPT
 70
     0
  9
$DIMDEC
 70
     2
  9
$DIMTDEC
 70
     3
  9
$DIMALTU
 70
     2
  9
$DIMALTTD
 70
     3
  9
$DIMTXSTY
  7
Standard
  9
$DIMAUNIT
 70
     0
  9
$DIMADEC
 70
     2
  9
$DIMALTRND
 40
0.0
  9
$DIMAZIN
 70
     0
  9
$DIMDSEP
 70
    44
  9
$DIMATFIT
 70
     3
  9
$DIMFRAC
 70
     0
  9
$DIMLDRBLK
  1

  9
$DIMLUNIT
 70
     2
  9
$DIMLWD
 70
    -2
  9
$DIMLWE
 70
    -2
  9
$DIMTMOVE
 70
     0
  9
$LUNITS
 70
     2
  9
$LUPREC
 70
     2
  9
$SKETCHINC
 40
1.0
  9
$FILLETRAD
 40
10.0
  9
$AUNITS
 70
     0
  9
$AUPREC
 70
     2
  9
$MENU
  1
.
  9
$ELEVATION
 40
0.0
  9
$PELEVATION
 40
0.0
  9
$THICKNESS
 40
0.0
  9
$LIMCHECK
 70
     0
  9
$CHAMFERA
 40
0.0
  9
$CHAMFERB
 40
0.0
  9
$CHAMFERC
 40
0.0
  9
$CHAMFERD
 40
0.0
  9
$SKPOLY
 70
     0
  9
$TDCREATE
 40
2458166.393429792
  9
$TDUCREATE
 40
2458166.351763125
  9
$TDUPDATE
 40
2458166.393432812
  9
$TDUUPDATE
 40
2458166.351766146
  9
$TDINDWG
 40
0.0000000116
  9
$TDUSRTIMER
 40
0.0000000116
  9
$USRTIMER
 70
     1
  9
$ANGBASE
 50
0.0
  9
$ANGDIR
 70
     0
  9
$PDMODE
 70
     0
  9
$PDSIZE
 40
-1.0
  9
$PLINEWID
 40
0.0
  9
$SPLFRAME
 70
     0
  9
$SPLINETYPE
 70
     6
  9
$SPLINESEGS
 70
     8
  9
$HANDSEED
  5
2B5
  9
$SURFTAB1
 70
     6
  9
$SURFTAB2
 70
     6
  9
$SURFTYPE
 70
     6
  9
$SURFU
 70
     6
  9
$SURFV
 70
     6
  9
$UCSBASE
  2

  9
$UCSNAME
  2

  9
$UCSORG
 10
0.0
 20
0.0
 30
0.0
  9
$UCSXDIR
 10
1.0
 20
0.0
 30
0.0
  9
$UCSYDIR
 10
0.0
 20
1.0
 30
0.0
  9
$UCSORTHOREF
  2

  9
$UCSORTHOVIEW
 70
     0
  9
$UCSORGTOP
 10
0.0
 20
0.0
 30
0.0
  9
$UCSORGBOTTOM
 10
0.0
 20
0.0
 30
0.0
  9
$UCSORGLEFT
 10
0.0
 20
0.0
 30
0.0
  9
$UCSORGRIGHT
 10
0.0
 20
0.0
 30
0.0
  9
$UCSORGFRONT
 10
0.0
 20
0.0
 30
0.0
  9
$UCSORGBACK
 10
0.0
 20
0.0
 30
0.0
  9
$PUCSBASE
  2

  9
$PUCSNAME
  2

  9
$PUCSORG
 10
0.0
 20
0.0
 30
0.0
  9
$PUCSXDIR
 10
1.0
 20
0.0
 30
0.0
  9
$PUCSYDIR
 10
0.0
 20
1.0
 30
0.0
  9
$PUCSORTHOREF
  2

  9
$PUCSORTHOVIEW
 70
     0
  9
$PUCSORGTOP
 10
0.0
 20
0.0
 30
0.0
  9
$PUCSORGBOTTOM
 10
0.0
 20
0.0
 30
0.0
  9
$PUCSORGLEFT
 10
0.0
 20
0.0
 30
0.0
  9
$PUCSORGRIGHT
 10
0.0
 20
0.0
 30
0.0
  9
$PUCSORGFRONT
 10
0.0
 20
0.0
 30
0.0
  9
$PUCSORGBACK
 10
0.0
 20
0.0
 30
0.0
  9
$USERI1
 70
     0
  9
$USERI2
 70
     0
  9
$USERI3
 70
     0
  9
$USERI4
 70
     0
  9
$USERI5
 70
     0
  9
$USERR1
 40
0.0
  9
$USERR2
 40
0.0
  9
$USERR3
 40
0.0
  9
$USERR4
 40
0.0
  9
$USERR5
 40
0.0
  9
$WORLDVIEW
 70
     1
  9
$SHADEDGE
 70
     3
  9
$SHADEDIF
 70
    70
  9
$TILEMODE
 70
     1
  9
$MAXACTVP
 70
    64
  9
$PINSBASE
 10
0.0
 20
0.0
 30
0.0
  9
$PLIMCHECK
 70
     0
  9
$PEXTMIN
 10
1.0000000000E+20
 20
1.0000000000E+20
 30
1.0000000000E+20
  9
$PEXTMAX
 10
-1.0000000000E+20
 20
-1.0000000000E+20
 30
-1.0000000000E+20
  9
$PLIMMIN
 10
0.0
 20
0.0
  9
$PLIMMAX
 10
420.0
 20
297.0
  9
$UNITMODE
 70
     0
  9
$VISRETAIN
 70
     1
  9
$PLINEGEN
 70
     0
  9
$PSLTSCALE
 70
     1
  9
$TREEDEPTH
 70
  3020
  9
$CMLSTYLE
  2
Standard
  9
$CMLJUST
 70
     0
  9
$CMLSCALE
 40
20.0
  9
$PROXYGRAPHICS
 70
     1
  9
$MEASUREMENT
 70
     1
  9
$CELWEIGHT
370
    -1
  9
$ENDCAPS
280
     0
  9
$JOINSTYLE
280
     0
  9
$LWDISPLAY
290
     1
  9
$INSUNITS
 70
     4
  9
$HYPERLINKBASE
  1

  9
$STYLESHEET
  1

  9
$XEDIT
290
     1
  9
$CEPSNTYPE
380
     0
  9
$PSTYLEMODE
290
     1
  9
$FINGERPRINTGUID
  2
{7247233D-086D-49F8-88A4-F742431715A7}
  9
$VERSIONGUID
  2
{FAEB1C32-E019-11D5-929B-00C0DF256EC4}
  9
$EXTNAMES
290
     1
  9
$PSVPSCALE
 40
0.0
  9
$OLESTARTUP
290
     0
  0
ENDSEC
  0
SECTION
  2
CLASSES
  0
CLASS
  1
ACDBDICTIONARYWDFLT
  2
AcDbDictionaryWithDefault
  3
ObjectDBX Classes
 90
        0
280
     0
281
     0
  0
CLASS
  1
VISUALSTYLE
  2
AcDbVisualStyle
  3
ObjectDBX Classes
 90
     4095
280
     0
281
     0
  0
CLASS
  1
MATERIAL
  2
AcDbMaterial
  3
ObjectDBX Classes
 90
     1153
280
     0
281
     0
  0
CLASS
  1
SCALE
  2
AcDbScale
  3
ObjectDBX Classes
 90
     1153
280
     0
281
     0
  0
CLASS
  1
TABLESTYLE
  2
AcDbTableStyle
  3
ObjectDBX Classes
 90
     4095
280
     0
281
     0
  0
CLASS
  1
MLEADERSTYLE
  2
AcDbMLeaderStyle
  3
ACDB_MLEADERSTYLE_CLASS
 90
     4095
280
     0
281
     0
  0
CLASS
  1
SUN
  2
AcDbSun
  3
SCENEOE
 90
     1153
280
     0
281
     0
  0
CLASS
  1
ACDBPLACEHOLDER
  2
AcDbPlaceHolder
  3
ObjectDBX Classes
 90
        0
280
     0
281
     0
  0
CLASS
  1
LAYOUT
  2
AcDbLayout
  3
ObjectDBX Classes
 90
        0
280
     0
281
     0
  0
ENDSEC
  0
SECTION
  2
TABLES
  0
TABLE
  2
VPORT
  5
8
330
0
100
AcDbSymbolTable
 70
     1
  0
VPORT
  5
29
330
8
100
AcDbSymbolTableRecord
100
AcDbViewportTableRecord
  2
*Active
 70
     0
 10
0.0
 20
0.0
 11
1.0
 21
1.0
 12
148.5
 22
105.0
 13
0.0
 23
0.0
 14
10.0
 24
10.0
 15
10.0
 25
10.0
 16
0.0
 26
0.0
 36
1.0
 17
0.0
 27
0.0
 37
0.0
 40
210.0
 41
1.4142857143
 42
50.0
 43
0.0
 44
0.0
 50
0.0
 51
0.0
 71
     0
 72
  2000
 73
     1
 74
     3
 75
     0
 76
     0
 77
     0
 78
     0
281
     0
 65
     1
110
0.0
120
0.0
130
0.0
111
1.0
121
0.0
131
0.0
112
0.0
122
1.0
132
0.0
 79
     0
146
0.0
  0
ENDTAB
  0
TABLE
  2
LTYPE
  5
5
330
0
100
AcDbSymbolTable
 70
     6
  0
LTYPE
  5
14
330
5
100
AcDbSymbolTableRecord
100
AcDbLinetypeTableRecord
  2
ByBlock
 70
     0
  3

 72
    65
 73
     0
 40
0.0
  0
LTYPE
  5
15
330
5
100
AcDbSymbolTableRecord
100
AcDbLinetypeTableRecord
  2
ByLayer
 70
     0
  3

 72
    65
 73
     0
 40
0.0
  0
LTYPE
  5
16
330
5
100
AcDbSymbolTableRecord
100
AcDbLinetypeTableRecord
  2
Continuous
 70
     0
  3
Solid line
 72
    65
 73
     0
 40
0.0
  0
LTYPE
  5
6E
330
5
100
AcDbSymbolTableRecord
100
AcDbLinetypeTableRecord
  2
HIDDEN
 70
     0
  3
Hidden __ __ __ __ __ __ __ __ __ __ __ __ __ __
 72
    65
 73
     2
 40
1.905
 49
1.27
 74
     0
 49
-0.635
 74
     0
  0
LTYPE
  5
6F
330
5
100
AcDbSymbolTableRecord
100
AcDbLinetypeTableRecord
  2
PHANTOM
 70
     0
  3
Phantom ______  __  __  ______  __  __  ______
 72
    65
 73
     6
 40
12.7
 49
6.35
 74
     0
 49
-1.27
 74
     0
 49
1.27
 74
     0
 49
-1.27
 74
     0
 49
1.27
 74
     0
 49
-1.27
 74
     0
  0
LTYPE
  5
70
330
5
100
AcDbSymbolTableRecord
100
AcDbLinetypeTableRecord
  2
CENTER
 70
     0
  3
Center ____ _ ____ _ ____ _ ____ _ ____ _ ____
 72
    65
 73
     4
 40
10.16
 49
6.35
 74
     0
 49
-1.27
 74
     0
 49
1.27
 74
     0
 49
-1.27
 74
     0
  0
LTYPE
  5
71
330
5
100
AcDbSymbolTableRecord
100
AcDbLinetypeTableRecord
  2
CENTERX2
 70
     0
  3
Center (2x) ________  __  ________  __  _____
 72
    65
 73
     4
 40
20.32
 49
12.7
 74
     0
 49
-2.54
 74
     0
 49
2.54
 74
     0
 49
-2.54
 74
     0
  0
LTYPE
  5
72
330
5
100
AcDbSymbolTableRecord
100
AcDbLinetypeTableRecord
  2
DOT2
 70
     0
  3
Dot (.5x) ........................................
 72
    65
 73
     2
 40
0.635
 49
0.0
 74
     0
 49
-0.635
 74
     0
  0
ENDTAB
  0
TABLE
  2
LAYER
  5
2
330
0
100
AcDbSymbolTable
 70
     5
  0
LAYER
  5
10
330
2
100
AcDbSymbolTableRecord
100
AcDbLayerTableRecord
  2
0
 70
     0
 62
     7
  6
Continuous
370
    -3
390
F
  0
LAYER
  5
73
330
2
100
AcDbSymbolTableRecord
100
AcDbLayerTableRecord
  2
FORMAT
 70
     0
 62
     7
  6
Continuous
370
    -3
390
F
  0
LAYER
  5
74
330
2
100
AcDbSymbolTableRecord
100
AcDbLayerTableRecord
  2
VERMASSUNG
 70
     0
 62
     7
  6
Continuous
370
    -3
390
F
  0
LAYER
  5
75
330
2
100
AcDbSymbolTableRecord
100
AcDbLayerTableRecord
  2
KOPF_DÜNN
 70
     0
 62
     7
  6
Continuous
370
    -3
390
F
  0
LAYER
  5
76
330
2
100
AcDbSymbolTableRecord
100
AcDbLayerTableRecord
  2
KOPF_DICK
 70
     0
 62
     7
  6
Continuous
370
    25
390
F
  0
ENDTAB
  0
TABLE
  2
STYLE
  5
3
330
0
100
AcDbSymbolTable
 70
     3
  0
STYLE
  5
11
330
3
100
AcDbSymbolTableRecord
100
AcDbTextStyleTableRecord
  2
Standard
 70
     0
 40
0.0
 41
1.0
 50
0.0
 71
     0
 42
2.0
  3
txt
  4

  0
STYLE
  5
77
330
3
100
AcDbSymbolTableRecord
100
AcDbTextStyleTableRecord
  2
SLDTEXTSTYLE0
 70
     0
 40
0.0
 41
0.7
 50
0.0
 71
     0
 42
2.0
  3
TXT
  4

  0
STYLE
  5
7B
330
3
100
AcDbSymbolTableRecord
100
AcDbTextStyleTableRecord
  2
SLDTEXTSTYLE1
 70
     0
 40
0.0
 41
0.6538461538
 50
0.0
 71
     0
 42
2.0
  3
TXT
  4

  0
ENDTAB
  0
TABLE
  2
VIEW
  5
6
330
0
100
AcDbSymbolTable
 70
     0
  0
ENDTAB
  0
TABLE
  2
UCS
  5
7
330
0
100
AcDbSymbolTable
 70
     0
  0
ENDTAB
  0
TABLE
  2
APPID
  5
9
330
0
100
AcDbSymbolTable
 70
     1
  0
APPID
  5
12
330
9
100
AcDbSymbolTableRecord
100
AcDbRegAppTableRecord
  2
ACAD
 70
     0
  0
ENDTAB
  0
TABLE
  2
DIMSTYLE
  5
A
330
0
100
AcDbSymbolTable
 70
     4
100
AcDbDimStyleTable
  0
DIMSTYLE
105
27
330
A
100
AcDbSymbolTableRecord
100
AcDbDimStyleTableRecord
  2
ISO-25
 70
     0
 41
2.5
 42
0.625
 43
3.75
 44
1.25
 73
     0
 74
     0
 77
     1
 78
     8
140
2.5
141
2.5
143
0.0393700787
147
0.625
171
     3
172
     1
178
     0
271
     2
272
     2
274
     3
278
    44
283
     0
284
     8
340
11
  0
DIMSTYLE
105
1F8
102
{ACAD_REACTORS
330
1F7
330
20D
330
217
102
}
330
A
100
AcDbSymbolTableRecord
100
AcDbDimStyleTableRecord
  2
SLDDIMSTYLE0
 70
     0
 41
3.0
 44
0.0
 45
0.000000001
 73
     0
 74
     0
 77
     1
 78
    12
 79
     3
140
2.0
147
0.5
173
     1
178
     0
271
     2
272
     3
276
     2
284
    12
340
77
  0
DIMSTYLE
105
204
102
{ACAD_REACTORS
330
203
102
}
330
A
100
AcDbSymbolTableRecord
100
AcDbDimStyleTableRecord
  2
SLDDIMSTYLE1
 70
     0
 41
3.0
 44
0.0
 45
0.000000001
 73
     0
 74
     0
 76
     1
 77
     1
 78
    12
 79
     3
140
2.0
147
0.5
173
     1
178
     0
271
     2
272
     3
276
     2
282
     1
284
    12
340
77
  0
DIMSTYLE
105
222
102
{ACAD_REACTORS
330
221
102
}
330
A
100
AcDbSymbolTableRecord
100
AcDbDimStyleTableRecord
  2
SLDDIMSTYLE2
 70
     0
 41
3.0
 44
0.0
 45
0.000000001
 73
     0
 74
     0
 77
     1
 78
    12
 79
     3
140
2.0
147
0.5
173
     1
178
     0
271
     1
272
     3
276
     2
284
    12
340
77
  0
ENDTAB
  0
TABLE
  2
BLOCK_RECORD
  5
1
330
0
100
AcDbSymbolTable
 70
     6
  0
BLOCK_RECORD
  5
1F
330
1
100
AcDbSymbolTableRecord
100
AcDbBlockTableRecord
  2
*Model_Space
340
22
  0
BLOCK_RECORD
  5
1B
330
1
100
AcDbSymbolTableRecord
100
AcDbBlockTableRecord
  2
*Paper_Space
340
1E
  0
BLOCK_RECORD
  5
23
330
1
100
AcDbSymbolTableRecord
100
AcDbBlockTableRecord
  2
*Paper_Space0
340
26
  0
BLOCK_RECORD
  5
1F9
330
1
100
AcDbSymbolTableRecord
100
AcDbBlockTableRecord
  2
_D
340
0
  0
BLOCK_RECORD
  5
205
330
1
100
AcDbSymbolTableRecord
100
AcDbBlockTableRecord
  2
_D_1
340
0
  0
BLOCK_RECORD
  5
20E
330
1
100
AcDbSymbolTableRecord
100
AcDbBlockTableRecord
  2
_D_2
340
0
  0
BLOCK_RECORD
  5
218
330
1
100
AcDbSymbolTableRecord
100
AcDbBlockTableRecord
  2
_D_3
340
0
  0
BLOCK_RECORD
  5
223
330
1
100
AcDbSymbolTableRecord
100
AcDbBlockTableRecord
  2
_D_4
340
0
  0
ENDTAB
  0
ENDSEC
  0
SECTION
  2
BLOCKS
  0
BLOCK
  5
20
330
1F
100
AcDbEntity
  8
0
100
AcDbBlockBegin
  2
*Model_Space
 70
     0
 10
0.0
 20
0.0
 30
0.0
  3
*Model_Space
  1

  0
ENDBLK
  5
21
330
1F
100
AcDbEntity
  8
0
100
AcDbBlockEnd
  0
BLOCK
  5
1C
330
1B
100
AcDbEntity
 67
     1
  8
0
100
AcDbBlockBegin
  2
*Paper_Space
 70
     0
 10
0.0
 20
0.0
 30
0.0
  3
*Paper_Space
  1

  0
ENDBLK
  5
1D
330
1B
100
AcDbEntity
 67
     1
  8
0
100
AcDbBlockEnd
  0
BLOCK
  5
24
330
23
100
AcDbEntity
  8
0
100
AcDbBlockBegin
  2
*Paper_Space0
 70
     0
 10
0.0
 20
0.0
 30
0.0
  3
*Paper_Space0
  1

  0
ENDBLK
  5
25
330
23
100
AcDbEntity
  8
0
100
AcDbBlockEnd
  0
BLOCK
  5
1FA
330
1F9
100
AcDbEntity
  8
0
100
AcDbBlockBegin
  2
_D
 70
     0
 10
0.0
 20
0.0
 30
0.0
  3
_D
  1

  0
SOLID
  5
1FC
330
1F9
100
AcDbEntity
  8
VERMASSUNG
100
AcDbTrace
 10
226.507997191
 20
122.4825941909
 30
0.0
 11
226.057997191
 21
119.4825941909
 31
0.0
 12
226.957997191
 22
119.4825941909
 32
0.0
 13
226.957997191
 23
119.4825941909
 33
0.0
  0
SOLID
  5
1FD
330
1F9
100
AcDbEntity
  8
VERMASSUNG
100
AcDbTrace
 10
226.507997191
 20
97.4825941909
 30
0.0
 11
226.957997191
 21
100.4825941909
 31
0.0
 12
226.057997191
 22
100.4825941909
 32
0.0
 13
226.057997191
 23
100.4825941909
 33
0.0
  0
LINE
  5
1FE
330
1F9
100
AcDbEntity
  8
VERMASSUNG
100
AcDbLine
 10
189.9299695089
 20
122.4825941909
 30
0.0
 11
227.507997191
 21
122.4825941909
 31
0.0
  0
LINE
  5
1FF
330
1F9
100
AcDbEntity
  8
VERMASSUNG
100
AcDbLine
 10
189.9299695089
 20
97.4825941909
 30
0.0
 11
227.507997191
 21
97.4825941909
 31
0.0
  0
LINE
  5
200
330
1F9
100
AcDbEntity
  8
VERMASSUNG
100
AcDbLine
 10
226.507997191
 20
122.4825941909
 30
0.0
 11
226.507997191
 21
97.4825941909
 31
0.0
  0
MTEXT
  5
201
330
1F9
100
AcDbEntity
  8
VERMASSUNG
100
AcDbMText
 10
223.929861886
 20
106.7775942336
 30
0.0
 40
2.0
 41
0.0
 71
     1
 72
     1
  1
%%c
  7
SLDTEXTSTYLE0
 11
-7.932373437343760E-15
 21
1.0
 31
0.0
 73
     1
 44
1.0
  0
MTEXT
  5
202
330
1F9
100
AcDbEntity
  8
VERMASSUNG
100
AcDbMText
 10
223.7298619347
 20
110.3875942479
 30
0.0
 40
2.0
 41
0.0
 71
     1
 72
     1
  1
25
  7
SLDTEXTSTYLE0
 11
-7.932373437343760E-15
 21
1.0
 31
0.0
 73
     1
 44
1.0
  0
ENDBLK
  5
1FB
330
1F9
100
AcDbEntity
  8
0
100
AcDbBlockEnd
  0
BLOCK
  5
206
330
205
100
AcDbEntity
  8
0
100
AcDbBlockBegin
  2
_D_1
 70
     0
 10
0.0
 20
0.0
 30
0.0
  3
_D_1
  1

  0
SOLID
  5
208
330
205
100
AcDbEntity
  8
VERMASSUNG
100
AcDbTrace
 10
216.9152978988
 20
112.9825941909
 30
0.0
 11
216.4652978988
 21
109.9825941909
 31
0.0
 12
217.3652978988
 22
109.9825941909
 32
0.0
 13
217.3652978988
 23
109.9825941909
 33
0.0
  0
LINE
  5
209
330
205
100
AcDbEntity
  8
VERMASSUNG
100
AcDbLine
 10
178.507997191
 20
112.9825941909
 30
0.0
 11
217.9152978988
 21
112.9825941909
 31
0.0
  0
LINE
  5
20A
330
205
100
AcDbEntity
  8
VERMASSUNG
100
AcDbLine
 10
216.9152978988
 20
112.9825941909
 30
0.0
 11
216.9152978988
 21
107.4775942087
 31
0.0
  0
MTEXT
  5
20B
330
205
100
AcDbEntity
  8
VERMASSUNG
100
AcDbMText
 10
214.3371625939
 20
107.4775942087
 30
0.0
 40
2.0
 41
0.0
 71
     1
 72
     1
  1
%%c
  7
SLDTEXTSTYLE0
 11
-7.932373437343760E-15
 21
1.0
 31
0.0
 73
     1
 44
1.0
  0
MTEXT
  5
20C
330
205
100
AcDbEntity
  8
VERMASSUNG
100
AcDbMText
 10
214.1371626426
 20
111.087594223
 30
0.0
 40
2.0
 41
0.0
 71
     1
 72
     1
  1
6
  7
SLDTEXTSTYLE0
 11
-7.932373437343760E-15
 21
1.0
 31
0.0
 73
     1
 44
1.0
  0
ENDBLK
  5
207
330
205
100
AcDbEntity
  8
0
100
AcDbBlockEnd
  0
BLOCK
  5
20F
330
20E
100
AcDbEntity
  8
0
100
AcDbBlockBegin
  2
_D_2
 70
     0
 10
0.0
 20
0.0
 30
0.0
  3
_D_2
  1

  0
SOLID
  5
211
330
20E
100
AcDbEntity
  8
VERMASSUNG
100
AcDbTrace
 10
198.507997191
 20
147.4993812505
 30
0.0
 11
195.507997191
 21
147.9493812505
 31
0.0
 12
195.507997191
 22
147.0493812505
 32
0.0
 13
195.507997191
 23
147.0493812505
 33
0.0
  0
SOLID
  5
212
330
20E
100
AcDbEntity
  8
VERMASSUNG
100
AcDbTrace
 10
156.507997191
 20
147.4993812505
 30
0.0
 11
159.507997191
 21
147.0493812505
 31
0.0
 12
159.507997191
 22
147.9493812505
 32
0.0
 13
159.507997191
 23
147.9493812505
 33
0.0
  0
LINE
  5
213
330
20E
100
AcDbEntity
  8
VERMASSUNG
100
AcDbLine
 10
198.507997191
 20
117.2084536693
 30
0.0
 11
198.507997191
 21
148.4993812505
 31
0.0
  0
LINE
  5
214
330
20E
100
AcDbEntity
  8
VERMASSUNG
100
AcDbLine
 10
156.507997191
 20
141.4575941909
 30
0.0
 11
156.507997191
 21
148.4993812505
 31
0.0
  0
LINE
  5
215
330
20E
100
AcDbEntity
  8
VERMASSUNG
100
AcDbLine
 10
198.507997191
 20
147.4993812505
 30
0.0
 11
156.507997191
 21
147.4993812505
 31
0.0
  0
MTEXT
  5
216
330
20E
100
AcDbEntity
  8
VERMASSUNG
100
AcDbMText
 10
176.0079971779
 20
150.0775168465
 30
0.0
 40
2.0
 41
0.0
 71
     1
 72
     1
  1
42
  7
SLDTEXTSTYLE0
 73
     1
 44
1.0
  0
ENDBLK
  5
210
330
20E
100
AcDbEntity
  8
0
100
AcDbBlockEnd
  0
BLOCK
  5
219
330
218
100
AcDbEntity
  8
0
100
AcDbBlockBegin
  2
_D_3
 70
     0
 10
0.0
 20
0.0
 30
0.0
  3
_D_3
  1

  0
SOLID
  5
21B
330
218
100
AcDbEntity
  8
VERMASSUNG
100
AcDbTrace
 10
138.507997191
 20
154.9336310864
 30
0.0
 11
141.507997191
 21
154.4836310864
 31
0.0
 12
141.507997191
 22
155.3836310864
 32
0.0
 13
141.507997191
 23
155.3836310864
 33
0.0
  0
SOLID
  5
21C
330
218
100
AcDbEntity
  8
VERMASSUNG
100
AcDbTrace
 10
198.507997191
 20
154.9336310864
 30
0.0
 11
195.507997191
 21
155.3836310864
 31
0.0
 12
195.507997191
 22
154.4836310864
 32
0.0
 13
195.507997191
 23
154.4836310864
 33
0.0
  0
LINE
  5
21D
330
218
100
AcDbEntity
  8
VERMASSUNG
100
AcDbLine
 10
138.507997191
 20
141.2575941909
 30
0.0
 11
138.507997191
 21
155.9336310864
 31
0.0
  0
LINE
  5
21E
330
218
100
AcDbEntity
  8
VERMASSUNG
100
AcDbLine
 10
198.507997191
 20
117.2084536693
 30
0.0
 11
198.507997191
 21
155.9336310864
 31
0.0
  0
LINE
  5
21F
330
218
100
AcDbEntity
  8
VERMASSUNG
100
AcDbLine
 10
138.507997191
 20
154.9336310864
 30
0.0
 11
198.507997191
 21
154.9336310864
 31
0.0
  0
MTEXT
  5
220
330
218
100
AcDbEntity
  8
VERMASSUNG
100
AcDbMText
 10
167.1079972409
 20
157.5117666824
 30
0.0
 40
2.0
 41
0.0
 71
     1
 72
     1
  1
60
  7
SLDTEXTSTYLE0
 73
     1
 44
1.0
  0
ENDBLK
  5
21A
330
218
100
AcDbEntity
  8
0
100
AcDbBlockEnd
  0
BLOCK
  5
224
330
223
100
AcDbEntity
  8
0
100
AcDbBlockBegin
  2
_D_4
 70
     0
 10
0.0
 20
0.0
 30
0.0
  3
_D_4
  1

  0
SOLID
  5
226
330
223
100
AcDbEntity
  8
VERMASSUNG
100
AcDbTrace
 10
79.35208688
 20
141.4575941909
 30
0.0
 11
78.90208688
 21
138.4575941909
 31
0.0
 12
79.80208688
 22
138.4575941909
 32
0.0
 13
79.80208688
 23
138.4575941909
 33
0.0
  0
SOLID
  5
227
330
223
100
AcDbEntity
  8
VERMASSUNG
100
AcDbTrace
 10
79.35208688
 20
78.5075941909
 30
0.0
 11
79.80208688
 21
81.5075941909
 31
0.0
 12
78.90208688
 22
81.5075941909
 32
0.0
 13
78.90208688
 23
81.5075941909
 33
0.0
  0
LINE
  5
228
330
223
100
AcDbEntity
  8
VERMASSUNG
100
AcDbLine
 10
138.707997191
 20
141.4575941909
 30
0.0
 11
78.35208688
 21
141.4575941909
 31
0.0
  0
LINE
  5
229
330
223
100
AcDbEntity
  8
VERMASSUNG
100
AcDbLine
 10
138.707997191
 20
78.5075941909
 30
0.0
 11
78.35208688
 21
78.5075941909
 31
0.0
  0
LINE
  5
22A
330
223
100
AcDbEntity
  8
VERMASSUNG
100
AcDbLine
 10
79.35208688
 20
141.4575941909
 30
0.0
 11
79.35208688
 21
78.5075941909
 31
0.0
  0
MTEXT
  5
22B
330
223
100
AcDbEntity
  8
VERMASSUNG
100
AcDbMText
 10
76.773951284
 20
103.6825946483
 30
0.0
 40
2.0
 41
0.0
 71
     1
 72
     1
  1
KM
  7
SLDTEXTSTYLE0
 11
-7.932373437343760E-15
 21
1.0
 31
0.0
 73
     1
 44
1.0
  0
MTEXT
  5
22C
330
223
100
AcDbEntity
  8
VERMASSUNG
100
AcDbMText
 10
76.773951284
 20
107.0825944606
 30
0.0
 40
2.0
 41
0.0
 71
     1
 72
     1
  1
63
  7
SLDTEXTSTYLE0
 11
-7.932373437343760E-15
 21
1.0
 31
0.0
 73
     1
 44
1.0
  0
MTEXT
  5
22D
330
223
100
AcDbEntity
  8
VERMASSUNG
100
AcDbMText
 10
76.773951284
 20
111.0700943607
 30
0.0
 40
2.0
 41
0.0
 71
     1
 72
     1
  1
XMZ
  7
SLDTEXTSTYLE0
 11
-7.932373437343760E-15
 21
1.0
 31
0.0
 73
     1
 44
1.0
  0
ENDBLK
  5
225
330
223
100
AcDbEntity
  8
0
100
AcDbBlockEnd
  0
ENDSEC
  0
SECTION
  2
ENTITIES
  0
MTEXT
  5
78
330
1F
100
AcDbEntity
  8
KOPF_DÜNN
100
AcDbMText
 10
13.8892156294
 20
23.8442973028
 30
0.0
 40
3.0
 41
0.0
 71
     1
 72
     1
  1
KY6.W06.K01.060
  7
SLDTEXTSTYLE0
 73
     1
 44
1.0
  0
MTEXT
  5
79
330
1F
100
AcDbEntity
  8
VERMASSUNG
100
AcDbMText
 10
13.9329988022
 20
28.8834360957
 30
0.0
 40
3.0
 41
0.0
 71
     1
 72
     1
  1
Flächenspannfutter Wedlon_End mill adapter Weldon
  7
SLDTEXTSTYLE0
 73
     1
 44
1.0
  0
MTEXT
  5
7A
330
1F
100
AcDbEntity
  8
VERMASSUNG
100
AcDbMText
 10
98.8601118557
 20
13.8365368761
 30
0.0
 40
2.0
 41
0.0
 71
     1
 72
     1
  1
Datum: 16.02.2018
  7
SLDTEXTSTYLE0
 73
     1
 44
1.0
  0
MTEXT
  5
7C
330
1F
100
AcDbEntity
  8
VERMASSUNG
100
AcDbMText
 10
13.933048693
 20
18.0482802738
 30
0.0
 40
2.0
 41
0.0
 71
     1
 72
     1
  1
KM63 XMZ / Ø6
  7
SLDTEXTSTYLE1
 73
     1
 44
1.0
  0
MTEXT
  5
7D
330
1F
100
AcDbEntity
  8
VERMASSUNG
100
AcDbMText
 10
13.9808475933
 20
13.9090974274
 30
0.0
 40
2.0
 41
0.0
 71
     1
 72
     1
  1
Gewicht: 757g
  7
SLDTEXTSTYLE0
 73
     1
 44
1.0
  0
LINE
  5
7E
330
1F
100
AcDbEntity
  8
0
  6
Continuous
 62
     7
370
    25
100
AcDbLine
 10
382.8124353269
 20
111.0179596939
 30
0.0
 11
382.8478008299
 21
110.9825941909
 31
0.0
  0
LINE
  5
7F
330
1F
100
AcDbEntity
  8
0
  6
Continuous
 62
     7
370
    25
100
AcDbLine
 10
384.9478008299
 20
110.9825941909
 30
0.0
 11
384.9831663329
 21
111.0179596939
 31
0.0
  0
LINE
  5
80
330
1F
100
AcDbEntity
  8
0
  6
Continuous
 62
     7
370
    25
100
AcDbLine
 10
383.5137435425
 20
111.4325941909
 30
0.0
 11
384.2818581173
 21
111.4325941909
 31
0.0
  0
LINE
  5
81
330
1F
100
AcDbEntity
  8
0
  6
Continuous
 62
     7
370
    25
100
AcDbLine
 10
382.8478008299
 20
110.9825941909
 30
0.0
 11
384.9478008299
 21
110.9825941909
 31
0.0
  0
SPLINE
  5
82
330
1F
100
AcDbEntity
  8
0
  6
Continuous
 62
     7
370
    25
100
AcDbSpline
210
0.0
220
0.0
230
1.0
 70
     8
 71
     3
 72
     8
 73
     4
 74
     0
 42
0.000000001
 43
0.00000001
 40
0.0
 40
0.0
 40
0.0
 40
0.0
 40
1.0
 40
1.0
 40
1.0
 40
1.0
 10
373.5086607202421
 20
105.6125933189064
 30
0.0
 10
373.4398223500554
 20
105.5494986455876
 30
0.0
 10
373.3713909895992
 20
105.4857762674567
 30
0.0
 10
373.3033747149345
 20
105.4214308351833
 30
0.0
  0
SPLINE
  5
83
330
1F
100
AcDbEntity
  8
0
  6
Continuous
 62
     7
370
    25
100
AcDbSpline
210
0.0
220
0.0
230
1.0
 70
     8
 71
     3
 72
     8
 73
     4
 74
     0
 42
0.000000001
 43
0.00000001
 40
0.0
 40
0.0
 40
0.0
 40
0.0
 40
1.0
 40
1.0
 40
1.0
 40
1.0
 10
373.7666879615028
 20
105.4433314889791
 30
0.0
 10
373.6799845273424
 20
105.4994924086484
 30
0.0
 10
373.5939864798585
 20
105.5559171449743
 30
0.0
 10
373.5086607202421
 20
105.6125933189064
 30
0.0
  0
ARC
  5
84
330
1F
100
AcDbEntity
  8
0
  6
Continuous
 62
     7
370
    25
100
AcDbCircle
 10
383.8978008299
 20
109.9825941909
 30
0.0
 40
11.10154736189901
100
AcDbArc
 50
204.1348482805
 51
335.8651517195
  0
SPLINE
  5
85
330
1F
100
AcDbEntity
  8
0
  6
Continuous
 62
     7
370
    25
100
AcDbSpline
210
0.0
220
0.0
230
1.0
 70
     8
 71
     3
 72
     8
 73
     4
 74
     0
 42
0.000000001
 43
0.00000001
 40
0.0
 40
0.0
 40
0.0
 40
0.0
 40
1.0
 40
1.0
 40
1.0
 40
1.0
 10
394.2869409395078
 20
105.6125933189064
 30
0.0
 10
394.2016151798915
 20
105.5559171449743
 30
0.0
 10
394.1156171324076
 20
105.4994924086484
 30
0.0
 10
394.0289136982472
 20
105.4433314889791
 30
0.0
  0
SPLINE
  5
86
330
1F
100
AcDbEntity
  8
0
  6
Continuous
 62
     7
370
    25
100
AcDbSpline
210
0.0
220
0.0
230
1.0
 70
     8
 71
     3
 72
     8
 73
     4
 74
     0
 42
0.000000001
 43
0.00000001
 40
0.0
 40
0.0
 40
0.0
 40
0.0
 40
1.0
 40
1.0
 40
1.0
 40
1.0
 10
394.4922269448155
 20
105.4214308351833
 30
0.0
 10
394.4242106701507
 20
105.4857762674567
 30
0.0
 10
394.3557793096946
 20
105.5494986455876
 30
0.0
 10
394.2869409395078
 20
105.6125933189064
 30
0.0
  0
ARC
  5
87
330
1F
100
AcDbEntity
  8
0
  6
Continuous
 62
     7
370
    25
100
AcDbCircle
 10
383.8978008299
 20
109.9825941909
 30
0.0
 40
11.53456006379122
100
AcDbArc
 50
203.2930774359
 51
336.7074733161
  0
ARC
  5
88
330
1F
100
AcDbEntity
  8
0
  6
Continuous
 62
     7
370
    25
100
AcDbCircle
 10
383.8978008299
 20
109.9825941909
 30
0.0
 40
11.10154736189904
100
AcDbArc
 50
29.4783538465
 51
150.5216461535
  0
SPLINE
  5
89
330
1F
100
AcDbEntity
  8
0
  6
Continuous
 62
     7
370
    25
100
AcDbSpline
210
0.0
220
0.0
230
1.0
 70
     8
 71
     3
 72
     8
 73
     4
 74
     0
 42
0.000000001
 43
0.00000001
 40
0.0
 40
0.0
 40
0.0
 40
0.0
 40
1.0
 40
1.0
 40
1.0
 40
1.0
 10
373.9218677805505
 20
115.2608934402605
 30
0.0
 10
374.0247636943745
 20
115.3228620493515
 30
0.0
 10
374.1286033639294
 20
115.3844407014921
 30
0.0
 10
374.2334412521559
 20
115.4456068927635
 30
0.0
  0
SPLINE
  5
8A
330
1F
100
AcDbEntity
  8
0
  6
Continuous
 62
     7
370
    25
100
AcDbSpline
210
0.0
220
0.0
230
1.0
 70
     8
 71
     3
 72
     8
 73
     4
 74
     0
 42
0.000000001
 43
0.00000001
 40
0.0
 40
0.0
 40
0.0
 40
0.0
 40
1.0
 40
1.0
 40
1.0
 40
1.0
 10
373.7333313994367
 20
115.4350832611301
 30
0.0
 10
373.7958997078063
 20
115.3766327920225
 30
0.0
 10
373.8587463011701
 20
115.3185687814895
 30
0.0
 10
373.921867780553
 20
115.2608934402583
 30
0.0
  0
ARC
  5
8B
330
1F
100
AcDbEntity
  8
0
  6
Continuous
 62
     7
370
    25
100
AcDbCircle
 10
383.8978008299
 20
109.9825941909
 30
0.0
 40
11.53456006379119
100
AcDbArc
 50
28.2102805322
 51
151.7902347364
  0
SPLINE
  5
8C
330
1F
100
AcDbEntity
  8
0
  6
Continuous
 62
     7
370
    25
100
AcDbSpline
210
0.0
220
0.0
230
1.0
 70
     8
 71
     3
 72
     8
 73
     4
 74
     0
 42
0.000000001
 43
0.00000001
 40
0.0
 40
0.0
 40
0.0
 40
0.0
 40
1.0
 40
1.0
 40
1.0
 40
1.0
 10
393.8737338791973
 20
115.2608934402586
 30
0.0
 10
393.9368553585801
 20
115.3185687814897
 30
0.0
 10
393.9997019519438
 20
115.3766327920227
 30
0.0
 10
394.0622702603133
 20
115.4350832611301
 30
0.0
  0
SPLINE
  5
8D
330
1F
100
AcDbEntity
  8
0
  6
Continuous
 62
     7
370
    25
100
AcDbSpline
210
0.0
220
0.0
230
1.0
 70
     8
 71
     3
 72
     8
 73
     4
 74
     0
 42
0.000000001
 43
0.00000001
 40
0.0
 40
0.0
 40
0.0
 40
0.0
 40
1.0
 40
1.0
 40
1.0
 40
1.0
 10
393.5621604075941
 20
115.4456068927635
 30
0.0
 10
393.6669982958202
 20
115.3844407014923
 30
0.0
 10
393.7708379653748
 20
115.3228620493519
 30
0.0
 10
393.8737338791983
 20
115.2608934402612
 30
0.0
  0
SPLINE
  5
8E
330
1F
100
AcDbEntity
  8
0
  6
Continuous
 62
     7
370
    25
100
AcDbSpline
210
0.0
220
0.0
230
1.0
 70
     8
 71
     3
 72
     8
 73
     4
 74
     0
 42
0.000000001
 43
0.00000001
 40
0.0000004028655191
 40
0.0000004028655191
 40
0.0000004028655191
 40
0.0000004028655191
 40
0.0015137684369673
 40
0.0015137684369673
 40
0.0015137684369673
 40
0.0015137684369673
 10
375.4742061727329
 20
105.6603187870869
 30
0.0
 10
375.2675346851817
 20
105.5880248453722
 30
0.0
 10
375.060915716641
 20
105.5156933594154
 30
0.0
 10
374.8543393418323
 20
105.4433314889791
 30
0.0
  0
LINE
  5
8F
330
1F
100
AcDbEntity
  8
0
  6
Continuous
 62
     7
370
    25
100
AcDbLine
 10
374.8543393418
 20
105.443331489
 30
0.0
 11
373.7666879615
 21
105.443331489
 31
0.0
  0
LINE
  5
90
330
1F
100
AcDbEntity
  8
0
  6
Continuous
 62
     7
370
    25
100
AcDbLine
 10
373.7317158271
 20
105.8763441909
 30
0.0
 11
373.5086607202
 21
105.6125933189
 31
0.0
  0
LINE
  5
91
330
1F
100
AcDbEntity
  8
0
  6
Continuous
 62
     7
370
    25
100
AcDbLine
 10
375.4993256544
 20
105.8763441909
 30
0.0
 11
373.7319302845
 21
105.8763441909
 31
0.0
  0
LINE
  5
92
330
1F
100
AcDbEntity
  8
0
  6
Continuous
 62
     7
370
    25
100
AcDbLine
 10
375.5099830046
 20
105.7187631558
 30
0.0
 11
375.4993256578
 21
105.8763441152
 31
0.0
  0
SPLINE
  5
93
330
1F
100
AcDbEntity
  8
0
  6
Continuous
 62
     7
370
    25
100
AcDbSpline
210
0.0
220
0.0
230
1.0
 70
     8
 71
     3
 72
     8
 73
     4
 74
     0
 42
0.000000001
 43
0.00000001
 40
0.0006523765358269
 40
0.0006523765358269
 40
0.0006523765358269
 40
0.0006523765358269
 40
0.0009043636494504
 40
0.0009043636494504
 40
0.0009043636494504
 40
0.0009043636494504
 10
375.5110830477678
 20
105.7205568845355
 30
0.0
 10
375.4987660532503
 20
105.7004813035534
 30
0.0
 10
375.4864738558463
 20
105.6804019150309
 30
0.0
 10
375.4742061727329
 20
105.6603187870869
 30
0.0
  0
LINE
  5
94
330
1F
100
AcDbEntity
  8
0
  6
Continuous
 62
     7
370
    25
100
AcDbLine
 10
373.9218677805
 20
115.2608934403
 30
0.0
 11
374.1302761021
 21
115.0125941909
 31
0.0
  0
LINE
  5
95
330
1F
100
AcDbEntity
  8
0
  6
Continuous
 62
     7
370
    25
100
AcDbLine
 10
375.3804894124
 20
115.4456068928
 30
0.0
 11
374.2334412522
 21
115.4456068928
 31
0.0
  0
SPLINE
  5
96
330
1F
100
AcDbEntity
  8
0
  6
Continuous
 62
     7
370
    25
100
AcDbSpline
210
0.0
220
0.0
230
1.0
 70
     8
 71
     3
 72
     8
 73
     4
 74
     0
 42
0.000000001
 43
0.00000001
 40
0.0000004089325119
 40
0.0000004089325119
 40
0.0000004089325119
 40
0.0000004089325119
 40
0.0015399868451459
 40
0.0015399868451459
 40
0.0015399868451459
 40
0.0015399868451459
 10
375.3804894124461
 20
115.4456068927635
 30
0.0
 10
375.5922506712405
 20
115.3731520101101
 30
0.0
 10
375.8041709944308
 20
115.3008131400816
 30
0.0
 10
376.016288977645
 20
115.2286195946558
 30
0.0
  0
LINE
  5
97
330
1F
100
AcDbEntity
  8
0
  6
Continuous
 62
     7
370
    25
100
AcDbLine
 10
376.0162889776
 20
115.2286195947
 30
0.0
 11
376.0244417836
 21
115.2134071804
 31
0.0
  0
LINE
  5
98
330
1F
100
AcDbEntity
  8
0
  6
Continuous
 62
     7
370
    25
100
AcDbLine
 10
376.0220712963
 20
115.0125943603
 30
0.0
 11
376.0244427814
 21
115.2134073142
 31
0.0
  0
LINE
  5
99
330
1F
100
AcDbEntity
  8
0
  6
Continuous
 62
     7
370
    25
100
AcDbLine
 10
376.0220712963
 20
115.0125941909
 30
0.0
 11
374.1302761021
 21
115.0125941909
 31
0.0
  0
LINE
  5
9A
330
1F
100
AcDbEntity
  8
0
  6
Continuous
 62
     7
370
    25
100
AcDbLine
 10
394.2869409395
 20
105.6125933189
 30
0.0
 11
394.0638858326
 21
105.8763441909
 31
0.0
  0
LINE
  5
9B
330
1F
100
AcDbEntity
  8
0
  6
Continuous
 62
     7
370
    25
100
AcDbLine
 10
394.0289136982
 20
105.443331489
 30
0.0
 11
392.9412623179
 21
105.443331489
 31
0.0
  0
SPLINE
  5
9C
330
1F
100
AcDbEntity
  8
0
  6
Continuous
 62
     7
370
    25
100
AcDbSpline
210
0.0
220
0.0
230
1.0
 70
     8
 71
     3
 72
     8
 73
     4
 74
     0
 42
0.000000001
 43
0.00000001
 40
0.0000004024872366
 40
0.0000004024872366
 40
0.0000004024872366
 40
0.0000004024872366
 40
0.0015137680586847
 40
0.0015137680586847
 40
0.0015137680586847
 40
0.0015137680586847
 10
392.9412623179176
 20
105.4433314889791
 30
0.0
 10
392.734685943109
 20
105.5156933594154
 30
0.0
 10
392.5280669745683
 20
105.5880248453722
 30
0.0
 10
392.3213954870171
 20
105.6603187870869
 30
0.0
  0
SPLINE
  5
9D
330
1F
100
AcDbEntity
  8
0
  6
Continuous
 62
     7
370
    25
100
AcDbSpline
210
0.0
220
0.0
230
1.0
 70
     8
 71
     3
 72
     8
 73
     4
 74
     0
 42
0.000000001
 43
0.00000001
 40
0.0000002414707367
 40
0.0000002414707367
 40
0.0000002414707367
 40
0.0000002414707367
 40
0.0002447240690309
 40
0.0002447240690309
 40
0.0002447240690309
 40
0.0002447240690309
 10
392.3213954870171
 20
105.6603187870869
 30
0.0
 10
392.309493151662
 20
105.6798038130335
 30
0.0
 10
392.2975677404502
 20
105.6992853188578
 30
0.0
 10
392.2856189951553
 20
105.7187632423697
 30
0.0
  0
LINE
  5
9E
330
1F
100
AcDbEntity
  8
0
  6
Continuous
 62
     7
370
    25
100
AcDbLine
 10
392.2962759875
 20
105.8763441152
 30
0.0
 11
392.2856186359
 21
105.7187631873
 31
0.0
  0
LINE
  5
9F
330
1F
100
AcDbEntity
  8
0
  6
Continuous
 62
     7
370
    25
100
AcDbLine
 10
394.0638858326
 20
105.8763441909
 30
0.0
 11
392.2911673962
 21
105.8763441909
 31
0.0
  0
SPLINE
  5
A0
330
1F
100
AcDbEntity
  8
0
  6
Continuous
 62
     7
370
    25
100
AcDbSpline
210
0.0
220
0.0
230
1.0
 70
     8
 71
     3
 72
     8
 73
     4
 74
     0
 42
0.000000001
 43
0.00000001
 40
0.000000410413179
 40
0.000000410413179
 40
0.000000410413179
 40
0.000000410413179
 40
0.0015399883258131
 40
0.0015399883258131
 40
0.0015399883258131
 40
0.0015399883258131
 10
391.7793126821049
 20
115.2286195946558
 30
0.0
 10
391.9914306653192
 20
115.3008131400816
 30
0.0
 10
392.2033509885094
 20
115.3731520101101
 30
0.0
 10
392.4151122473039
 20
115.4456068927635
 30
0.0
  0
LINE
  5
A1
330
1F
100
AcDbEntity
  8
0
  6
Continuous
 62
     7
370
    25
100
AcDbLine
 10
393.5621604076
 20
115.4456068928
 30
0.0
 11
392.4151122473
 21
115.4456068928
 31
0.0
  0
LINE
  5
A2
330
1F
100
AcDbEntity
  8
0
  6
Continuous
 62
     7
370
    25
100
AcDbLine
 10
393.6653255577
 20
115.0125941909
 30
0.0
 11
393.8737338792
 21
115.2608934403
 31
0.0
  0
LINE
  5
A3
330
1F
100
AcDbEntity
  8
0
  6
Continuous
 62
     7
370
    25
100
AcDbLine
 10
393.665135502
 20
115.0125941909
 30
0.0
 11
391.7735305641
 21
115.0125941909
 31
0.0
  0
LINE
  5
A4
330
1F
100
AcDbEntity
  8
0
  6
Continuous
 62
     7
370
    25
100
AcDbLine
 10
391.7711587772
 20
115.2134071256
 30
0.0
 11
391.7735302874
 21
115.0125943603
 31
0.0
  0
LINE
  5
A5
330
1F
100
AcDbEntity
  8
0
  6
Continuous
 62
     7
370
    25
100
AcDbLine
 10
391.771159775
 20
115.2134069918
 30
0.0
 11
391.7793126821
 21
115.2286195947
 31
0.0
  0
ARC
  5
A6
330
1F
100
AcDbEntity
  8
0
  6
Continuous
 62
     7
370
    25
100
AcDbCircle
 10
383.8978008299
 20
109.9825941909
 30
0.0
 40
10.11875000000005
100
AcDbArc
 50
206.6538426687
 51
333.3461573313
  0
ARC
  5
A7
330
1F
100
AcDbEntity
  8
0
  6
Continuous
 62
     7
370
    25
100
AcDbCircle
 10
383.8978008299
 20
109.9825941909
 30
0.0
 40
10.11875000000003
100
AcDbArc
 50
32.6761561262
 51
147.3238438738
  0
ARC
  5
A8
330
1F
100
AcDbEntity
  8
0
  6
Continuous
 62
     7
370
    25
100
AcDbCircle
 10
383.8978008299
 20
109.9825941909
 30
0.0
 40
9.467788105676723
100
AcDbArc
 50
33.6481949792
 51
146.3518050208
  0
ARC
  5
A9
330
1F
100
AcDbEntity
  8
0
  6
Continuous
 62
     7
370
    25
100
AcDbCircle
 10
383.8978008299
 20
109.9825941909
 30
0.0
 40
9.467788105676714
100
AcDbArc
 50
207.1630537883
 51
332.8369462117
  0
SPLINE
  5
AA
330
1F
100
AcDbEntity
  8
0
  6
Continuous
 62
     7
370
    25
100
AcDbSpline
210
0.0
220
0.0
230
1.0
 70
     8
 71
     3
 72
     8
 73
     4
 74
     0
 42
0.000000001
 43
0.00000001
 40
0.0
 40
0.0
 40
0.0
 40
0.0
 40
1.0
 40
1.0
 40
1.0
 40
1.0
 10
373.3033747147445
 20
105.4214308352946
 30
0.0
 10
373.2501318898028
 20
105.4219545615325
 30
0.0
 10
373.1968366041872
 20
105.4227526547949
 30
0.0
 10
373.1434910986977
 20
105.4238257027197
 30
0.0
  0
LINE
  5
AB
330
1F
100
AcDbEntity
  8
0
  6
Continuous
 62
     7
370
    25
100
AcDbLine
 10
373.5715786968
 20
105.8763441909
 30
0.0
 11
373.7317158271
 21
105.8763441909
 31
0.0
  0
LINE
  5
AC
330
1F
100
AcDbEntity
  8
0
  6
Continuous
 62
     7
370
    25
100
AcDbLine
 10
394.0638858326
 20
105.8763441909
 30
0.0
 11
394.2240229629
 21
105.8763441909
 31
0.0
  0
SPLINE
  5
AD
330
1F
100
AcDbEntity
  8
0
  6
Continuous
 62
     7
370
    25
100
AcDbSpline
210
0.0
220
0.0
230
1.0
 70
     8
 71
     3
 72
     8
 73
     4
 74
     0
 42
0.000000001
 43
0.00000001
 40
0.0
 40
0.0
 40
0.0
 40
0.0
 40
1.0
 40
1.0
 40
1.0
 40
1.0
 10
394.6521105610523
 20
105.4238257027197
 30
0.0
 10
394.5987650555628
 20
105.4227526547949
 30
0.0
 10
394.5454697699471
 20
105.4219545615325
 30
0.0
 10
394.4922269450054
 20
105.4214308352946
 30
0.0
  0
LINE
  5
AE
330
1F
100
AcDbEntity
  8
0
  6
Continuous
 62
     7
370
    25
100
AcDbLine
 10
374.1302761021
 20
115.0125941909
 30
0.0
 11
374.0068591183
 21
115.0125941909
 31
0.0
  0
SPLINE
  5
AF
330
1F
100
AcDbEntity
  8
0
  6
Continuous
 62
     7
370
    25
100
AcDbSpline
210
0.0
220
0.0
230
1.0
 70
     8
 71
     3
 72
     8
 73
     4
 74
     0
 42
0.000000001
 43
0.00000001
 40
0.0
 40
0.0
 40
0.0
 40
0.0
 40
1.0
 40
1.0
 40
1.0
 40
1.0
 10
373.6101099051952
 20
115.4330397078077
 30
0.0
 10
373.6512253322371
 20
115.4339086454477
 30
0.0
 10
373.6922996268481
 20
115.4345896830305
 30
0.0
 10
373.7333313993373
 20
115.435083261092
 30
0.0
  0
SPLINE
  5
B0
330
1F
100
AcDbEntity
  8
0
  6
Continuous
 62
     7
370
    25
100
AcDbSpline
210
0.0
220
0.0
230
1.0
 70
     8
 71
     3
 72
     8
 73
     4
 74
     0
 42
0.000000001
 43
0.00000001
 40
0.0
 40
0.0
 40
0.0
 40
0.0
 40
1.0
 40
1.0
 40
1.0
 40
1.0
 10
394.0622702604127
 20
115.435083261092
 30
0.0
 10
394.1033020329018
 20
115.4345896830306
 30
0.0
 10
394.1443763275129
 20
115.4339086454477
 30
0.0
 10
394.1854917545547
 20
115.4330397078077
 30
0.0
  0
LINE
  5
B1
330
1F
100
AcDbEntity
  8
0
  6
Continuous
 62
     7
370
    25
100
AcDbLine
 10
393.7887425414
 20
115.0125941909
 30
0.0
 11
393.6653255577
 21
115.0125941909
 31
0.0
  0
SPLINE
  5
B2
330
1F
100
AcDbEntity
  8
0
  6
Continuous
 62
     7
370
    25
100
AcDbSpline
210
0.0
220
0.0
230
1.0
 70
     8
 71
     3
 72
     9
 73
     5
 74
     0
 42
0.000000001
 43
0.00000001
 40
0.0
 40
0.0
 40
0.0
 40
0.0
 40
0.5102121239851395
 40
0.9999999999999999
 40
0.9999999999999999
 40
0.9999999999999999
 40
0.9999999999999999
 10
376.0244419615602
 20
115.2134074491972
 30
0.0
 10
376.1539821794111
 20
115.2121624905064
 30
0.0
 10
376.4078770042518
 20
115.2097224099354
 30
0.0
 10
376.6658562772616
 20
115.2070299642422
 30
0.0
 10
376.7922113974448
 20
115.2057112369849
 30
0.0
  0
SPLINE
  5
B3
330
1F
100
AcDbEntity
  8
0
  6
Continuous
 62
     7
370
    25
100
AcDbSpline
210
0.0
220
0.0
230
1.0
 70
     8
 71
     3
 72
     8
 73
     4
 74
     0
 42
0.000000001
 43
0.00000001
 40
0.0
 40
0.0
 40
0.0
 40
0.0
 40
1.0
 40
1.0
 40
1.0
 40
1.0
 10
376.7922111437703
 20
115.2057107677077
 30
0.0
 10
376.7844500858249
 20
115.1951525325086
 30
0.0
 10
376.7767125607289
 20
115.1845769989823
 30
0.0
 10
376.7689986453594
 20
115.1739842722028
 30
0.0
  0
SPLINE
  5
B4
330
1F
100
AcDbEntity
  8
0
  6
Continuous
 62
     7
370
    25
100
AcDbSpline
210
0.0
220
0.0
230
1.0
 70
     8
 71
     3
 72
     8
 73
     4
 74
     0
 42
0.000000001
 43
0.00000001
 40
0.0
 40
0.0
 40
0.0
 40
0.0
 40
1.0
 40
1.0
 40
1.0
 40
1.0
 10
376.5974408125965
 20
115.0125945297396
 30
0.0
 10
376.6547012196309
 20
115.0665027067274
 30
0.0
 10
376.7118876107405
 20
115.1202996318105
 30
0.0
 10
376.7689986453594
 20
115.1739842722028
 30
0.0
  0
LINE
  5
B5
330
1F
100
AcDbEntity
  8
0
  6
Continuous
 62
     7
370
    25
100
AcDbLine
 10
376.5974415124
 20
115.0125941909
 30
0.0
 11
376.0220710196
 21
115.0125941909
 31
0.0
  0
SPLINE
  5
B6
330
1F
100
AcDbEntity
  8
0
  6
Continuous
 62
     7
370
    25
100
AcDbSpline
210
0.0
220
0.0
230
1.0
 70
     8
 71
     3
 72
     9
 73
     5
 74
     0
 42
0.000000001
 43
0.00000001
 40
0.0
 40
0.0
 40
0.0
 40
0.0
 40
0.4897878789203994
 40
0.9999999999999999
 40
0.9999999999999999
 40
0.9999999999999999
 40
0.9999999999999999
 10
391.0033903945264
 20
115.2057110571091
 30
0.0
 10
391.1297454767476
 20
115.2070297828623
 30
0.0
 10
391.3877246707198
 20
115.2097222254687
 30
0.0
 10
391.6416194190092
 20
115.2121623033047
 30
0.0
 10
391.7711595970649
 20
115.213407260593
 30
0.0
  0
ARC
  5
B7
330
1F
100
AcDbEntity
  8
0
  6
Continuous
 62
     7
370
    25
100
AcDbCircle
 10
383.8978008299
 20
109.9825941909
 30
0.0
 40
8.818749999999993
100
AcDbArc
 50
36.3185452201
 51
143.6814533294
  0
SPLINE
  5
B8
330
1F
100
AcDbEntity
  8
0
  6
Continuous
 62
     7
370
    25
100
AcDbSpline
210
0.0
220
0.0
230
1.0
 70
     8
 71
     3
 72
     8
 73
     4
 74
     0
 42
0.000000001
 43
0.00000001
 40
0.0
 40
0.0
 40
0.0
 40
0.0
 40
1.0
 40
1.0
 40
1.0
 40
1.0
 10
391.0267184461716
 20
115.173825757904
 30
0.0
 10
391.0189663334709
 20
115.1844714345765
 30
0.0
 10
391.0111903748037
 20
115.1950997467707
 30
0.0
 10
391.0033906482003
 20
115.2057105878332
 30
0.0
  0
LINE
  5
B9
330
1F
100
AcDbEntity
  8
0
  6
Continuous
 62
     7
370
    25
100
AcDbLine
 10
391.7735305641
 20
115.0125941909
 30
0.0
 11
391.1981315476
 21
115.0125941909
 31
0.0
  0
SPLINE
  5
BA
330
1F
100
AcDbEntity
  8
0
  6
Continuous
 62
     7
370
    25
100
AcDbSpline
210
0.0
220
0.0
230
1.0
 70
     8
 71
     3
 72
     8
 73
     4
 74
     0
 42
0.000000001
 43
0.00000001
 40
0.0
 40
0.0
 40
0.0
 40
0.0
 40
1.0
 40
1.0
 40
1.0
 40
1.0
 10
391.0267184461716
 20
115.173825757904
 30
0.0
 10
391.0837815738577
 20
115.1201938074882
 30
0.0
 10
391.140919953588
 20
115.0664497211232
 30
0.0
 10
391.1981322470618
 20
115.012594529873
 30
0.0
  0
ARC
  5
BB
330
1F
100
AcDbEntity
  8
0
  6
Continuous
 62
     7
370
    25
100
AcDbCircle
 10
383.8978008299
 20
109.9825941909
 30
0.0
 40
8.818750000000053
100
AcDbArc
 50
209.2047569376
 51
330.7952430624
  0
SPLINE
  5
BC
330
1F
100
AcDbEntity
  8
0
  6
Continuous
 62
     7
370
    25
100
AcDbSpline
210
0.0
220
0.0
230
1.0
 70
    24
 71
     3
 72
     8
 73
     4
 74
     0
 42
0.000000001
 43
0.00000001
 40
0.0
 40
0.0
 40
0.0
 40
0.0
 40
0.000136040218399
 40
0.000136040218399
 40
0.000136040218399
 40
0.000136040218399
 10
391.6389362267192
 20
105.7230537600202
 30
0.0
 10
391.6244972270352
 20
105.7086147603361
 30
0.0
 10
391.6100267746729
 20
105.6941443079738
 30
0.0
 10
391.5955251761215
 20
105.6796427094224
 30
0.0
  0
SPLINE
  5
BD
330
1F
100
AcDbEntity
  8
0
  6
Continuous
 62
     7
370
    25
100
AcDbSpline
210
0.0
220
0.0
230
1.0
 70
     8
 71
     3
 72
     9
 73
     5
 74
     0
 42
0.000000001
 43
0.00000001
 40
0.0
 40
0.0
 40
0.0
 40
0.0
 40
0.5086448740973026
 40
1.0
 40
1.0
 40
1.0
 40
1.0
 10
392.2856189554755
 20
105.718763154235
 30
0.0
 10
392.1764529064777
 20
105.71945700308
 30
0.0
 10
391.9618315575619
 20
105.7208211156079
 30
0.0
 10
391.7453202448846
 20
105.7223179355458
 30
0.0
 10
391.6389363015846
 20
105.7230534056948
 30
0.0
  0
SPLINE
  5
BE
330
1F
100
AcDbEntity
  8
0
  6
Continuous
 62
     7
370
    25
100
AcDbSpline
210
0.0
220
0.0
230
1.0
 70
     8
 71
     3
 72
     9
 73
     5
 74
     0
 42
0.000000001
 43
0.00000001
 40
0.0
 40
0.0
 40
0.0
 40
0.0
 40
0.4913551252639757
 40
1.0
 40
1.0
 40
1.0
 40
1.0
 10
376.1566653886298
 20
105.7230533752302
 30
0.0
 10
376.0502814372378
 20
105.7223179049014
 30
0.0
 10
375.8337701078101
 20
105.7208210845957
 30
0.0
 10
375.6191487424433
 20
105.7194569717414
 30
0.0
 10
375.5099826849407
 20
105.7187631227294
 30
0.0
  0
SPLINE
  5
BF
330
1F
100
AcDbEntity
  8
0
  6
Continuous
 62
     7
370
    25
100
AcDbSpline
210
0.0
220
0.0
230
1.0
 70
    24
 71
     3
 72
     8
 73
     4
 74
     0
 42
0.000000001
 43
0.00000001
 40
0.0
 40
0.0
 40
0.0
 40
0.0
 40
0.0001360401227241
 40
0.0001360401227241
 40
0.0001360401227241
 40
0.0001360401227241
 10
376.2000764836285
 20
105.6796427094224
 30
0.0
 10
376.1855748952757
 20
105.6941442977751
 30
0.0
 10
376.1711044530686
 20
105.7086147399823
 30
0.0
 10
376.1566654634952
 20
105.7230537295557
 30
0.0
  0
LINE
  5
C0
330
1F
100
AcDbEntity
  8
0
  6
Continuous
 62
     7
370
    25
100
AcDbLine
 10
375.4993255358
 20
105.8763441909
 30
0.0
 11
376.0033754079
 21
105.8763441909
 31
0.0
  0
SPLINE
  5
C1
330
1F
100
AcDbEntity
  8
0
  6
Continuous
 62
     7
370
    25
100
AcDbSpline
210
0.0
220
0.0
230
1.0
 70
     8
 71
     3
 72
     8
 73
     4
 74
     0
 42
0.000000001
 43
0.00000001
 40
0.0
 40
0.0
 40
0.0
 40
0.0
 40
1.0
 40
1.0
 40
1.0
 40
1.0
 10
376.1566656633271
 20
105.7230535299686
 30
0.0
 10
376.1055969007227
 20
105.7740960217126
 30
0.0
 10
376.0544999410868
 20
105.8251929937386
 30
0.0
 10
376.0033750995711
 20
105.8763440934798
 30
0.0
  0
SPLINE
  5
C2
330
1F
100
AcDbEntity
  8
0
  6
Continuous
 62
     7
370
    25
100
AcDbSpline
210
0.0
220
0.0
230
1.0
 70
     8
 71
     3
 72
     8
 73
     4
 74
     0
 42
0.000000001
 43
0.00000001
 40
0.0
 40
0.0
 40
0.0
 40
0.0
 40
1.0
 40
1.0
 40
1.0
 40
1.0
 10
391.7922265601789
 20
105.8763440934798
 30
0.0
 10
391.7411017288337
 20
105.8251930039245
 30
0.0
 10
391.6900047793526
 20
105.7740960420535
 30
0.0
 10
391.6389360268874
 20
105.7230535604331
 30
0.0
  0
LINE
  5
C3
330
1F
100
AcDbEntity
  8
0
  6
Continuous
 62
     7
370
    25
100
AcDbLine
 10
391.7922262518
 20
105.8763441909
 30
0.0
 11
392.2962761095
 21
105.8763441909
 31
0.0
  0
CIRCLE
  5
C4
330
1F
100
AcDbEntity
  8
0
  6
Continuous
 62
     7
370
    25
100
AcDbCircle
 10
383.8978008299
 20
109.9825941909
 30
0.0
 40
12.47086902276408
  0
SPLINE
  5
C5
330
1F
100
AcDbEntity
  8
0
  6
Continuous
 62
     7
370
    25
100
AcDbSpline
210
0.0
220
0.0
230
1.0
 70
     8
 71
     3
 72
    23
 73
    19
 74
     0
 42
0.000000001
 43
0.00000001
 40
0.0
 40
0.0
 40
0.0
 40
0.0
 40
0.0521036415675031
 40
0.1035646240925967
 40
0.1544751946736949
 40
0.2049306267473421
 40
0.2550287880844035
 40
0.3048696389141012
 40
0.3545546704609132
 40
0.4041862979523234
 40
0.4538672252126086
 40
0.5036997999421611
 40
0.5901870230746071
 40
0.674271637822954
 40
0.7565997087222995
 40
0.8378563983721267
 40
0.9187511781367398
 40
1.0
 40
1.0
 40
1.0
 40
1.0
 10
373.0585486832175
 20
114.4730049036212
 30
0.0
 10
373.0718430381672
 20
114.5021727967828
 30
0.0
 10
373.0982677722454
 20
114.5601488191868
 30
0.0
 10
373.1374787784692
 20
114.6430481201988
 30
0.0
 10
373.1759207332749
 20
114.7222301012163
 30
0.0
 10
373.2135083147416
 20
114.7974849180183
 30
0.0
 10
373.2501642010491
 20
114.868904572276
 30
0.0
 10
373.2858140651077
 20
114.9365011810576
 30
0.0
 10
373.320387811869
 20
115.0003075025221
 30
0.0
 10
373.353819505825
 20
115.0603510445913
 30
0.0
 10
373.3860463830499
 20
115.116657741318
 30
0.0
 10
373.4245478199396
 20
115.1820627231416
 30
0.0
 10
373.467209300653
 20
115.2516238009778
 30
0.0
 10
373.510702342776
 20
115.3183832976422
 30
0.0
 10
373.547114839604
 20
115.37010734574
 30
0.0
 10
373.5760156460812
 20
115.4065556577919
 30
0.0
 10
373.5979331021795
 20
115.4291530546751
 30
0.0
 10
373.6060450666727
 20
115.4317422722364
 30
0.0
 10
373.6101099051952
 20
115.4330397078077
 30
0.0
  0
SPLINE
  5
C6
330
1F
100
AcDbEntity
  8
0
  6
Continuous
 62
     7
370
    25
100
AcDbSpline
210
0.0
220
0.0
230
1.0
 70
     8
 71
     3
 72
     8
 73
     4
 74
     0
 42
0.000000001
 43
0.00000001
 40
0.0
 40
0.0
 40
0.0
 40
0.0
 40
1.0
 40
1.0
 40
1.0
 40
1.0
 10
372.9379107433547
 20
114.4707945462114
 30
0.0
 10
372.9780997569477
 20
114.4715248564289
 30
0.0
 10
373.0182620590377
 20
114.4721053822584
 30
0.0
 10
373.0583967695133
 20
114.4725363472082
 30
0.0
  0
SPLINE
  5
C7
330
1F
100
AcDbEntity
  8
0
  6
Continuous
 62
     7
370
    25
100
AcDbSpline
210
0.0
220
0.0
230
1.0
 70
     8
 71
     3
 72
    18
 73
    14
 74
     0
 42
0.000000001
 43
0.00000001
 40
0.0
 40
0.0
 40
0.0
 40
0.0
 40
0.0923824559411628
 40
0.1844689291573508
 40
0.2764953615950219
 40
0.3686975365494161
 40
0.4613092840003458
 40
0.5545607518442569
 40
0.6486768051537182
 40
0.7438756050146744
 40
0.8403674044302629
 40
0.9203921078121001
 40
1.0
 40
1.0
 40
1.0
 40
1.0
 10
372.9908497321541
 20
114.7376115530933
 30
0.0
 10
372.9926853858068
 20
114.7374032408781
 30
0.0
 10
372.9963508118897
 20
114.7369872838559
 30
0.0
 10
372.9991461415089
 20
114.7301828603898
 30
0.0
 10
372.9999484365874
 20
114.7188494817376
 30
0.0
 10
372.9985822995443
 20
114.702549086711
 30
0.0
 10
372.9951207509154
 20
114.6813978478752
 30
0.0
 10
372.989579445146
 20
114.6553621467587
 30
0.0
 10
372.9819949770771
 20
114.6244377671075
 30
0.0
 10
372.9724179751403
 20
114.5886387356628
 30
0.0
 10
372.9615774991215
 20
114.5503878281316
 30
0.0
 10
372.9500888581825
 20
114.5111696147373
 30
0.0
 10
372.9419888733044
 20
114.4843146378878
 30
0.0
 10
372.9379494556617
 20
114.4709222095174
 30
0.0
  0
LINE
  5
C8
330
1F
100
AcDbEntity
  8
0
  6
Continuous
 62
     7
370
    25
100
AcDbLine
 10
372.9380943729
 20
114.7368638357
 30
0.0
 11
372.9908497322
 21
114.7376115531
 31
0.0
  0
SPLINE
  5
C9
330
1F
100
AcDbEntity
  8
0
  6
Continuous
 62
     7
370
    25
100
AcDbSpline
210
0.0
220
0.0
230
1.0
 70
     8
 71
     3
 72
    25
 73
    21
 74
     0
 42
0.000000001
 43
0.00000001
 40
0.0
 40
0.0
 40
0.0
 40
0.0
 40
0.0280105225426465
 40
0.0559601148860768
 40
0.0839014045043132
 40
0.1118870776786367
 40
0.1399695827588937
 40
0.1682008401739883
 40
0.196631967042422
 40
0.2253130233141467
 40
0.2542927850735845
 40
0.3799486436587335
 40
0.5057850221667067
 40
0.6313085886338298
 40
0.7532068238012468
 40
0.8039473267955921
 40
0.8535894438554446
 40
0.9025339722394071
 40
0.9511970353791085
 40
1.0
 40
1.0
 40
1.0
 40
1.0
 10
372.0271329651013
 20
112.1699319334057
 30
0.0
 10
372.0341120350122
 20
112.2072419469124
 30
0.0
 10
372.0480549935351
 20
112.281780814906
 30
0.0
 10
372.0705768909779
 20
112.3930898603892
 30
0.0
 10
372.0942105030755
 20
112.5037520694037
 30
0.0
 10
372.1190600935635
 20
112.613736202348
 30
0.0
 10
372.1450787180498
 20
112.7230313459625
 30
0.0
 10
372.1722600993676
 20
112.8316223151647
 30
0.0
 10
372.2005857407001
 20
112.939493025107
 30
0.0
 10
372.2300445215328
 20
113.0466379708321
 30
0.0
 10
372.2944528094449
 20
113.270812857344
 30
0.0
 10
372.3995545015167
 20
113.59747827138
 30
0.0
 10
372.5450172623129
 20
113.9834248766998
 30
0.0
 10
372.6842806704227
 20
114.30550468939
 30
0.0
 10
372.7814290232902
 20
114.5013252734216
 30
0.0
 10
372.8417244295165
 20
114.610672723905
 30
0.0
 10
372.8766130123977
 20
114.6686007483204
 30
0.0
 10
372.9045075143256
 20
114.7090547010853
 30
0.0
 10
372.9258726066972
 20
114.7336689164843
 30
0.0
 10
372.9340165542699
 20
114.735797843992
 30
0.0
 10
372.9380943729149
 20
114.7368638356634
 30
0.0
  0
ARC
  5
CA
330
1F
100
AcDbEntity
  8
0
  6
Continuous
 62
     7
370
    25
100
AcDbCircle
 10
383.8978008299
 20
109.9825941909
 30
0.0
 40
12.07050959801136
100
AcDbArc
 50
169.5595567507
 51
190.4404432494
  0
SPLINE
  5
CB
330
1F
100
AcDbEntity
  8
0
  6
Continuous
 62
     7
370
    25
100
AcDbSpline
210
0.0
220
0.0
230
1.0
 70
     8
 71
     3
 72
    26
 73
    22
 74
     0
 42
0.000000001
 43
0.00000001
 40
0.0
 40
0.0
 40
0.0
 40
0.0
 40
0.0241259796963635
 40
0.0482159912272988
 40
0.0723203915124065
 40
0.0964895678710797
 40
0.1207736231963513
 40
0.1452220711242836
 40
0.1698835501657706
 40
0.1948055644472379
 40
0.2200342569517627
 40
0.2456142191611387
 40
0.3690971486901655
 40
0.4940698769485187
 40
0.6192566784762451
 40
0.7454656653603225
 40
0.7971495824713707
 40
0.8481710308405392
 40
0.8988013269235234
 40
0.9493179290492194
 40
1.0
 40
1.0
 40
1.0
 40
1.0
 10
372.9380943729149
 20
105.2283245460793
 30
0.0
 10
372.9361840581745
 20
105.2286114392687
 30
0.0
 10
372.9323662766823
 20
105.2291847979334
 30
0.0
 10
372.9244061515014
 20
105.2352434861799
 30
0.0
 10
372.914827050926
 20
105.2451227469107
 30
0.0
 10
372.9034798440573
 20
105.2592038380211
 30
0.0
 10
372.8904236607634
 20
105.2773993860453
 30
0.0
 10
372.8756677575361
 20
105.299749928784
 30
0.0
 10
372.8592405772387
 20
105.326264164476
 30
0.0
 10
372.8411724225185
 20
105.3569596751893
 30
0.0
 10
372.8214952760955
 20
105.3918607784292
 30
0.0
 10
372.7732958946672
 20
105.4806253135369
 30
0.0
 10
372.6849778552318
 20
105.6579056149858
 30
0.0
 10
372.545918238465
 20
105.9789915218309
 30
0.0
 10
372.4002455586029
 20
106.3655741737214
 30
0.0
 10
372.2865069635935
 20
106.7192818778513
 30
0.0
 10
372.2068013450469
 20
107.0015355774641
 30
0.0
 10
372.1561517726926
 20
107.1959790082384
 30
0.0
 10
372.1091851028272
 20
107.3932203851725
 30
0.0
 10
372.0656252808228
 20
107.5931234302676
 30
0.0
 10
372.0399777156913
 20
107.7278053699999
 30
0.0
 10
372.0271329651013
 20
107.795256448337
 30
0.0
  0
LINE
  5
CC
330
1F
100
AcDbEntity
  8
0
  6
Continuous
 62
     7
370
    25
100
AcDbLine
 10
372.9908497322
 20
105.2275768286
 30
0.0
 11
372.9380943729
 21
105.2283245461
 31
0.0
  0
SPLINE
  5
CD
330
1F
100
AcDbEntity
  8
0
  6
Continuous
 62
     7
370
    25
100
AcDbSpline
210
0.0
220
0.0
230
1.0
 70
     8
 71
     3
 72
    14
 73
    10
 74
     0
 42
0.000000001
 43
0.00000001
 40
0.0
 40
0.0
 40
0.0
 40
0.0
 40
0.0789261963172865
 40
0.158232872055133
 40
0.330847539457262
 40
0.5000195457610529
 40
0.6670357883572423
 40
0.8332395193657144
 40
1.0
 40
1.0
 40
1.0
 40
1.0
 10
372.9378528753023
 20
105.4946003059541
 30
0.0
 10
372.9418674218983
 20
105.4812971813164
 30
0.0
 10
372.9499158680105
 20
105.454626801684
 30
0.0
 10
372.96481657482
 20
105.4038120623642
 30
0.0
 10
372.9807135564165
 20
105.3467722461773
 30
0.0
 10
372.9937920514143
 20
105.2924690294493
 30
0.0
 10
373.0000246585316
 20
105.2543018867265
 30
0.0
 10
372.9998350786946
 20
105.2308931580496
 30
0.0
 10
372.9938481845639
 20
105.228683503371
 30
0.0
 10
372.9908497321542
 20
105.2275768286494
 30
0.0
  0
SPLINE
  5
CE
330
1F
100
AcDbEntity
  8
0
  6
Continuous
 62
     7
370
    25
100
AcDbSpline
210
0.0
220
0.0
230
1.0
 70
     8
 71
     3
 72
     8
 73
     4
 74
     0
 42
0.000000001
 43
0.00000001
 40
0.0
 40
0.0
 40
0.0
 40
0.0
 40
1.0
 40
1.0
 40
1.0
 40
1.0
 10
373.0851575665268
 20
105.4925392275036
 30
0.0
 10
373.0360896514981
 20
105.4930262807156
 30
0.0
 10
372.9869802139772
 20
105.4937373485904
 30
0.0
 10
372.9378308694519
 20
105.4946728418247
 30
0.0
  0
SPLINE
  5
CF
330
1F
100
AcDbEntity
  8
0
  6
Continuous
 62
     7
370
    25
100
AcDbSpline
210
0.0
220
0.0
230
1.0
 70
     8
 71
     3
 72
    13
 73
     9
 74
     0
 42
0.000000001
 43
0.00000001
 40
0.0
 40
0.0
 40
0.0
 40
0.0
 40
0.1667030582307992
 40
0.3329480818053035
 40
0.4990671507274896
 40
0.6653938523718403
 40
0.832261271055009
 40
1.0
 40
1.0
 40
1.0
 40
1.0
 10
373.1434910986977
 20
105.4238257027197
 30
0.0
 10
373.1416477848608
 20
105.4242428124854
 30
0.0
 10
373.137966221891
 20
105.4250758859628
 30
0.0
 10
373.1304489680965
 20
105.4310903647892
 30
0.0
 10
373.1214981639799
 20
105.4405850970814
 30
0.0
 10
373.110947875557
 20
105.4539947041911
 30
0.0
 10
373.0989746900399
 20
105.4709126078147
 30
0.0
 10
373.0897682824335
 20
105.4853253429541
 30
0.0
 10
373.0851530919447
 20
105.4925504758157
 30
0.0
  0
SPLINE
  5
D0
330
1F
100
AcDbEntity
  8
0
  6
Continuous
 62
     7
370
    25
100
AcDbSpline
210
0.0
220
0.0
230
1.0
 70
     8
 71
     3
 72
    13
 73
     9
 74
     0
 42
0.000000001
 43
0.00000001
 40
0.0
 40
0.0
 40
0.0
 40
0.0
 40
0.1686319999748085
 40
0.3360343310905433
 40
0.502536782590866
 40
0.6684737453788339
 40
0.834182263691515
 40
1.0
 40
1.0
 40
1.0
 40
1.0
 10
394.7104499489232
 20
105.4925539256285
 30
0.0
 10
394.7058127038251
 20
105.4852967656091
 30
0.0
 10
394.6965720285386
 20
105.4708353649668
 30
0.0
 10
394.6845566551716
 20
105.4538546682627
 30
0.0
 10
394.673991101417
 20
105.4404218870832
 30
0.0
 10
394.665051752124
 20
105.4309424185292
 30
0.0
 10
394.6575708715355
 20
105.4249771928313
 30
0.0
 10
394.653931064246
 20
105.4242096170469
 30
0.0
 10
394.6521105610523
 20
105.4238257027197
 30
0.0
  0
SPLINE
  5
D1
330
1F
100
AcDbEntity
  8
0
  6
Continuous
 62
     7
370
    25
100
AcDbSpline
210
0.0
220
0.0
230
1.0
 70
     8
 71
     3
 72
     8
 73
     4
 74
     0
 42
0.000000001
 43
0.00000001
 40
0.0
 40
0.0
 40
0.0
 40
0.0
 40
1.0
 40
1.0
 40
1.0
 40
1.0
 10
394.8577755608957
 20
105.4946729465712
 30
0.0
 10
394.8086246312874
 20
105.4937374163092
 30
0.0
 10
394.7595136112081
 20
105.4930263257972
 30
0.0
 10
394.7104441163004
 20
105.4925392642992
 30
0.0
  0
SPLINE
  5
D2
330
1F
100
AcDbEntity
  8
0
  6
Continuous
 62
     7
370
    25
100
AcDbSpline
210
0.0
220
0.0
230
1.0
 70
     8
 71
     3
 72
    18
 73
    14
 74
     0
 42
0.000000001
 43
0.00000001
 40
0.0
 40
0.0
 40
0.0
 40
0.0
 40
0.0923325137111192
 40
0.1843692047063016
 40
0.2763458873810836
 40
0.3684982175655623
 40
0.4610598988303626
 40
0.554260954653301
 40
0.6483261285442131
 40
0.74347346365053
 40
0.8399130993119804
 40
0.9201660718299768
 40
1.0
 40
1.0
 40
1.0
 40
1.0
 10
394.8047519275958
 20
105.2275768286494
 30
0.0
 10
394.8029162739433
 20
105.2277851408652
 30
0.0
 10
394.7992508478608
 20
105.2282010978885
 30
0.0
 10
394.7964555182385
 20
105.2350055213458
 30
0.0
 10
394.7956532231717
 20
105.2463389000316
 30
0.0
 10
394.7970193601709
 20
105.262639294932
 30
0.0
 10
394.800480908965
 20
105.2837905342421
 30
0.0
 10
394.8060222141114
 20
105.3098262335697
 30
0.0
 10
394.8136066845386
 20
105.3407506199924
 30
0.0
 10
394.8231836775191
 20
105.3765496257205
 30
0.0
 10
394.8340350245448
 20
105.4148388708342
 30
0.0
 10
394.8455497861768
 20
105.4541444952507
 30
0.0
 10
394.8536814949979
 20
105.4811015731444
 30
0.0
 10
394.8577367066057
 20
105.4945448305939
 30
0.0
  0
LINE
  5
D3
330
1F
100
AcDbEntity
  8
0
  6
Continuous
 62
     7
370
    25
100
AcDbLine
 10
394.8575072868
 20
105.2283245461
 30
0.0
 11
394.8047519276
 21
105.2275768286
 31
0.0
  0
SPLINE
  5
D4
330
1F
100
AcDbEntity
  8
0
  6
Continuous
 62
     7
370
    25
100
AcDbSpline
210
0.0
220
0.0
230
1.0
 70
     8
 71
     3
 72
    25
 73
    21
 74
     0
 42
0.000000001
 43
0.00000001
 40
0.0
 40
0.0
 40
0.0
 40
0.0
 40
0.0280105225422753
 40
0.0559601148854256
 40
0.0839014045034749
 40
0.1118870776777086
 40
0.1399695827579646
 40
0.1682008401731476
 40
0.1966319670417595
 40
0.2253130233137476
 40
0.2542927850735311
 40
0.3799486436564626
 40
0.5057850221666382
 40
0.631308588631066
 40
0.7532068238011618
 40
0.8039473267946936
 40
0.8535894438541253
 40
0.9025339722380873
 40
0.9511970353782256
 40
1.0
 40
1.0
 40
1.0
 40
1.0
 10
395.7684686946487
 20
107.795256448337
 30
0.0
 10
395.7614896247379
 20
107.7579464348308
 30
0.0
 10
395.7475466662152
 20
107.6834075668381
 30
0.0
 10
395.7250247687725
 20
107.572098521356
 30
0.0
 10
395.7013911566751
 20
107.4614363123423
 30
0.0
 10
395.6765415661873
 20
107.3514521793983
 30
0.0
 10
395.6505229417011
 20
107.2421570357838
 30
0.0
 10
395.6233415603831
 20
107.1335660665813
 30
0.0
 10
395.5950159190505
 20
107.0256953566381
 30
0.0
 10
395.5655571382176
 20
106.918550410912
 30
0.0
 10
395.501148850306
 20
106.6943755244016
 30
0.0
 10
395.3960471582342
 20
106.3677101103655
 30
0.0
 10
395.250584397439
 20
105.9817635050474
 30
0.0
 10
395.1113209893283
 20
105.6596836923548
 30
0.0
 10
395.0141726364611
 20
105.4638631083238
 30
0.0
 10
394.9538772302335
 20
105.3545156578373
 30
0.0
 10
394.9189886473524
 20
105.2965876334221
 30
0.0
 10
394.8910941454246
 20
105.2561336806571
 30
0.0
 10
394.8697290530528
 20
105.2315194652583
 30
0.0
 10
394.8615851054801
 20
105.2293905377506
 30
0.0
 10
394.857507286835
 20
105.2283245460793
 30
0.0
  0
ARC
  5
D5
330
1F
100
AcDbEntity
  8
0
  6
Continuous
 62
     7
370
    25
100
AcDbCircle
 10
383.8978008299
 20
109.9825941909
 30
0.0
 40
12.07050959801147
100
AcDbArc
 50
349.5595567507
 51
10.4404432493
  0
SPLINE
  5
D6
330
1F
100
AcDbEntity
  8
0
  6
Continuous
 62
     7
370
    25
100
AcDbSpline
210
0.0
220
0.0
230
1.0
 70
     8
 71
     3
 72
    26
 73
    22
 74
     0
 42
0.000000001
 43
0.00000001
 40
0.0
 40
0.0
 40
0.0
 40
0.0
 40
0.0241259796962591
 40
0.0482159912271133
 40
0.0723203915121637
 40
0.0964895678708023
 40
0.1207736231960627
 40
0.1452220711240065
 40
0.1698835501655268
 40
0.1948055644470484
 40
0.220034256951649
 40
0.2456142191611191
 40
0.3690971486898426
 40
0.4940698769485092
 40
0.6192566784753767
 40
0.7454656653602836
 40
0.7971495824708205
 40
0.848171030839725
 40
0.8988013269227118
 40
0.9493179290486752
 40
1.0
 40
1.0
 40
1.0
 40
1.0
 10
394.857507286835
 20
114.7368638356634
 30
0.0
 10
394.8594176015754
 20
114.736576942474
 30
0.0
 10
394.8632353830676
 20
114.7360035838092
 30
0.0
 10
394.8711955082485
 20
114.7299448955628
 30
0.0
 10
394.8807746088239
 20
114.7200656348319
 30
0.0
 10
394.8921218156926
 20
114.7059845437216
 30
0.0
 10
394.9051779989865
 20
114.6877889956974
 30
0.0
 10
394.9199339022139
 20
114.6654384529587
 30
0.0
 10
394.9363610825112
 20
114.6389242172666
 30
0.0
 10
394.9544292372315
 20
114.6082287065533
 30
0.0
 10
394.9741063836545
 20
114.5733276033134
 30
0.0
 10
395.0223057650826
 20
114.4845630682062
 30
0.0
 10
395.110623804518
 20
114.3072827667573
 30
0.0
 10
395.2496834212845
 20
113.986196859913
 30
0.0
 10
395.3953561011468
 20
113.5996142080218
 30
0.0
 10
395.5090946961561
 20
113.2459065038928
 30
0.0
 10
395.5888003147026
 20
112.9636528042805
 30
0.0
 10
395.6394498870567
 20
112.7692093735072
 30
0.0
 10
395.6864165569221
 20
112.5719679965731
 30
0.0
 10
395.7299763789268
 20
112.3720649514768
 30
0.0
 10
395.7556239440585
 20
112.2373830117435
 30
0.0
 10
395.7684686946487
 20
112.1699319334056
 30
0.0
  0
LINE
  5
D7
330
1F
100
AcDbEntity
  8
0
  6
Continuous
 62
     7
370
    25
100
AcDbLine
 10
394.8047519276
 20
114.7376115531
 30
0.0
 11
394.8575072868
 21
114.7368638357
 31
0.0
  0
SPLINE
  5
D8
330
1F
100
AcDbEntity
  8
0
  6
Continuous
 62
     7
370
    25
100
AcDbSpline
210
0.0
220
0.0
230
1.0
 70
     8
 71
     3
 72
    14
 73
    10
 74
     0
 42
0.000000001
 43
0.00000001
 40
0.0
 40
0.0
 40
0.0
 40
0.0
 40
0.0786889129232242
 40
0.1577561817122941
 40
0.3304686003115578
 40
0.4997364082435315
 40
0.6668472316653192
 40
0.8331450833767118
 40
1.0
 40
1.0
 40
1.0
 40
1.0
 10
394.8576602143726
 20
114.4708800438758
 30
0.0
 10
394.8536622054179
 20
114.4841299483916
 30
0.0
 10
394.8456469640872
 20
114.5106934662599
 30
0.0
 10
394.8307742907978
 20
114.5614149940286
 30
0.0
 10
394.8148881260356
 20
114.6184160730525
 30
0.0
 10
394.8018096023912
 20
114.6727193686616
 30
0.0
 10
394.7955770027862
 20
114.7108864906988
 30
0.0
 10
394.7957665806626
 20
114.7342952247744
 30
0.0
 10
394.801753475055
 20
114.7365048787325
 30
0.0
 10
394.8047519275958
 20
114.7376115530933
 30
0.0
  0
SPLINE
  5
D9
330
1F
100
AcDbEntity
  8
0
  6
Continuous
 62
     7
370
    25
100
AcDbSpline
210
0.0
220
0.0
230
1.0
 70
     8
 71
     3
 72
     8
 73
     4
 74
     0
 42
0.000000001
 43
0.00000001
 40
0.0
 40
0.0
 40
0.0
 40
0.0
 40
1.0
 40
1.0
 40
1.0
 40
1.0
 10
394.7372048736898
 20
114.4725363838411
 30
0.0
 10
394.7773379921965
 20
114.4721054298938
 30
0.0
 10
394.817498700125
 20
114.4715249268813
 30
0.0
 10
394.857686117468
 20
114.4707946513217
 30
0.0
  0
SPLINE
  5
DA
330
1F
100
AcDbEntity
  8
0
  6
Continuous
 62
     7
370
    25
100
AcDbSpline
210
0.0
220
0.0
230
1.0
 70
     8
 71
     3
 72
    23
 73
    19
 74
     0
 42
0.000000001
 43
0.00000001
 40
0.0
 40
0.0
 40
0.0
 40
0.0
 40
0.0441308420121292
 40
0.0880968635211716
 40
0.1320155028408941
 40
0.1760048571434164
 40
0.2201827305793597
 40
0.2646656976937351
 40
0.3095682184569769
 40
0.355001836559425
 40
0.401074485474427
 40
0.4478899182339682
 40
0.4955472680213688
 40
0.5953670562452651
 40
0.6949121173401501
 40
0.7950007648984784
 40
0.8964386255170008
 40
1.0
 40
1.0
 40
1.0
 40
1.0
 10
394.1854917545547
 20
115.4330397078077
 30
0.0
 10
394.1874761446616
 20
115.4327568505778
 30
0.0
 10
394.1914375135465
 20
115.4321921925372
 30
0.0
 10
394.200297817777
 20
115.4257728393585
 30
0.0
 10
394.2112702958992
 20
115.4152515898519
 30
0.0
 10
394.2245496939198
 20
115.4002200535422
 30
0.0
 10
394.2400604175861
 20
115.3807678084797
 30
0.0
 10
394.2577918793391
 20
115.3568478305276
 30
0.0
 10
394.2777085260422
 20
115.3284467398138
 30
0.0
 10
394.2997740600544
 20
115.2955390000132
 30
0.0
 10
394.3239449837485
 20
115.258099017357
 30
0.0
 10
394.3501719937958
 20
115.2160989457271
 30
0.0
 10
394.3885085740268
 20
115.152821837204
 30
0.0
 10
394.4408413534053
 20
115.0627629748408
 30
0.0
 10
394.5092419646135
 20
114.938416855274
 30
0.0
 10
394.5819270394089
 20
114.7987037772935
 30
0.0
 10
394.6582872753089
 20
114.6443677620652
 30
0.0
 10
394.710576089959
 20
114.5306451078374
 30
0.0
 10
394.7369913178625
 20
114.4731947745429
 30
0.0
  0
SPLINE
  5
DB
330
1F
100
AcDbEntity
  8
0
  6
Continuous
 62
     7
370
    25
100
AcDbSpline
210
0.0
220
0.0
230
1.0
 70
    11
 71
     3
 72
    39
 73
    35
 74
     0
 42
0.000000001
 43
0.00000001
 40
0.0
 40
0.0
 40
0.0
 40
0.0
 40
0.0310664058348413
 40
0.0621048158426138
 40
0.0931361551796939
 40
0.1235538293503726
 40
0.1538561545809849
 40
0.1850588072749156
 40
0.2160250992946587
 40
0.2471867223797568
 40
0.2784462884304475
 40
0.3100516090231247
 40
0.3419834369138969
 40
0.3734259894013238
 40
0.4048604886787081
 40
0.436874065183343
 40
0.4685120685926471
 40
0.499805535863323
 40
0.5309508213226204
 40
0.5618649784438111
 40
0.5930416446590877
 40
0.623374245013332
 40
0.6540913579072549
 40
0.6849496782718453
 40
0.7158160645166705
 40
0.7471731804043553
 40
0.7784514311866318
 40
0.810129591156098
 40
0.8419598919688388
 40
0.8735175891922303
 40
0.9050808037886594
 40
0.9370235169792582
 40
0.9687441590030581
 40
1.0
 40
1.0
 40
1.0
 40
1.0
 10
386.8019273946724
 20
98.55096400711793
 30
0.0
 10
386.991639223627
 20
98.58973258386541
 30
0.0
 10
387.3353800740758
 20
98.66616352964844
 30
0.0
 10
387.7183370612834
 20
98.75430306964167
 30
0.0
 10
387.9627775279985
 20
98.80125255628663
 30
0.0
 10
388.0437664648148
 20
98.78934363157288
 30
0.0
 10
387.9630440193331
 20
98.71738572485741
 30
0.0
 10
387.7231818257134
 20
98.59286545866006
 30
0.0
 10
387.3465320916162
 20
98.43549646883487
 30
0.0
 10
386.8402891547883
 20
98.26347238413986
 30
0.0
 10
386.2230147611049
 20
98.09854797655423
 30
0.0
 10
385.5105389469651
 20
97.96083540047572
 30
0.0
 10
384.7350737071925
 20
97.86920258796704
 30
0.0
 10
383.9246092735783
 20
97.83587000987156
 30
0.0
 10
383.1121048006157
 20
97.86511745542484
 30
0.0
 10
382.3325918104786
 20
97.95344641241242
 30
0.0
 10
381.6142635111432
 20
98.08895191204725
 30
0.0
 10
380.9908914037431
 20
98.25272843353852
 30
0.0
 10
380.4777928091476
 20
98.42473457768385
 30
0.0
 10
380.0925906992861
 20
98.58354659215502
 30
0.0
 10
379.8431660940451
 20
98.71080555732048
 30
0.0
 10
379.7525640540987
 20
98.78641251427545
 30
0.0
 10
379.8207756250579
 20
98.80318191095536
 30
0.0
 10
380.0529914914607
 20
98.76040156874008
 30
0.0
 10
380.4302085286449
 20
98.67327488383022
 30
0.0
 10
380.9419133964125
 20
98.55854582852324
 30
0.0
 10
381.5653845271594
 20
98.4391236834707
 30
0.0
 10
382.2819292302922
 20
98.3344982334214
 30
0.0
 10
383.0602603429031
 20
98.26384974049454
 30
0.0
 10
383.8720918297531
 20
98.2377709160645
 30
0.0
 10
384.6858663517502
 20
98.26079648775524
 30
0.0
 10
385.4682401959157
 20
98.3290289258929
 30
0.0
 10
386.1902532306496
 20
98.43227610560264
 30
0.0
 10
386.6110587504986
 20
98.51195902929915
 30
0.0
 10
386.8019273946723
 20
98.55096400711793
 30
0.0
  0
SPLINE
  5
DC
330
1F
100
AcDbEntity
  8
0
  6
Continuous
 62
     7
370
    25
100
AcDbSpline
210
0.0
220
0.0
230
1.0
 70
    11
 71
     3
 72
    39
 73
    35
 74
     0
 42
0.000000001
 43
0.00000001
 40
0.0
 40
0.0
 40
0.0
 40
0.0
 40
0.0312651429934057
 40
0.0629601069329321
 40
0.0948697276489808
 40
0.1264264963751833
 40
0.1579651393672472
 40
0.1898765439016956
 40
0.221552335268876
 40
0.2527844076550827
 40
0.2838418966734154
 40
0.3148645781100674
 40
0.3459127639308091
 40
0.3763475365526575
 40
0.4066751324671412
 40
0.4379141187435632
 40
0.4688932367345488
 40
0.5000738678969536
 40
0.5313369410958942
 40
0.5629183719104849
 40
0.5948445736343699
 40
0.6262809966135365
 40
0.6577486436587271
 40
0.6897584692806508
 40
0.7214430019610059
 40
0.7527623343195418
 40
0.7839279690572818
 40
0.8148885765585865
 40
0.8460375004982862
 40
0.8763409566916784
 40
0.906758919146387
 40
0.9378312724751761
 40
0.9689189660506093
 40
1.0
 40
1.0
 40
1.0
 40
1.0
 10
386.8018231448855
 20
121.4142564270605
 30
0.0
 10
386.6107492086038
 20
121.4533203849412
 30
0.0
 10
386.1898146461643
 20
121.5330393795013
 30
0.0
 10
385.4684252410006
 20
121.6361547948517
 30
0.0
 10
384.6867691927102
 20
121.7043556672756
 30
0.0
 10
383.8736814729994
 20
121.7274125599175
 30
0.0
 10
383.0614012561473
 20
121.7014282862713
 30
0.0
 10
382.2827708310979
 20
121.6308381210331
 30
0.0
 10
381.5660950411864
 20
121.5262225587939
 30
0.0
 10
380.9442197715248
 20
121.4070502337776
 30
0.0
 10
380.4347088380389
 20
121.2931130660513
 30
0.0
 10
380.0595894917947
 20
121.2069987871048
 30
0.0
 10
379.8236289169438
 20
121.162943065769
 30
0.0
 10
379.7522283737622
 20
121.1784728664801
 30
0.0
 10
379.84282480356
 20
121.2539817486641
 30
0.0
 10
380.0918010839195
 20
121.3811552765083
 30
0.0
 10
380.4767159037622
 20
121.5400059551206
 30
0.0
 10
380.9895012105844
 20
121.7120302163305
 30
0.0
 10
381.6119603335093
 20
121.8757032958653
 30
0.0
 10
382.3284604783158
 20
122.0111048692455
 30
0.0
 10
383.1065595124259
 20
122.0996225367283
 30
0.0
 10
383.9182822010728
 20
122.1293299452111
 30
0.0
 10
384.7297243887741
 20
122.096443500561
 30
0.0
 10
385.5068502802562
 20
122.0049625925162
 30
0.0
 10
386.2212883694267
 20
121.8670784025548
 30
0.0
 10
386.8395113276621
 20
121.7019505777048
 30
0.0
 10
387.345878688388
 20
121.5299000403523
 30
0.0
 10
387.7224312098017
 20
121.372616518642
 30
0.0
 10
387.9621270212331
 20
121.248212721158
 30
0.0
 10
388.0435937294274
 20
121.1760245477217
 30
0.0
 10
387.9635344869356
 20
121.1637520393437
 30
0.0
 10
387.7191884809818
 20
121.2106474498498
 30
0.0
 10
387.3362150475328
 20
121.2987809979954
 30
0.0
 10
386.991771916323
 20
121.3754225026053
 30
0.0
 10
386.8018231448855
 20
121.4142564270605
 30
0.0
  0
SPLINE
  5
DD
330
1F
100
AcDbEntity
  8
0
  6
Continuous
 62
     7
370
    25
100
AcDbSpline
210
0.0
220
0.0
230
1.0
 70
     8
 71
     3
 72
    23
 73
    19
 74
     0
 42
0.000000001
 43
0.00000001
 40
0.0
 40
0.0
 40
0.0
 40
0.0
 40
0.0449850911516383
 40
0.0909520670767777
 40
0.1379394291255006
 40
0.1859832248910951
 40
0.2351171761689533
 40
0.2853728096402591
 40
0.3367795876576951
 40
0.3893650370792399
 40
0.4431548745925064
 40
0.498173127394291
 40
0.5575107590849617
 40
0.6265492281305397
 40
0.7053073138942775
 40
0.7937970253739629
 40
0.8920262115920568
 40
1.0
 40
1.0
 40
1.0
 40
1.0
 10
374.0068591183177
 20
115.0125941908713
 30
0.0
 10
374.0046964289522
 20
115.0121652892118
 30
0.0
 10
374.0003238454316
 20
115.011298124302
 30
0.0
 10
373.9900428862401
 20
115.004204556701
 30
0.0
 10
373.9769826082102
 20
114.9925918151219
 30
0.0
 10
373.960863446656
 20
114.9758024449493
 30
0.0
 10
373.9417630190001
 20
114.9537304583346
 30
0.0
 10
373.9196606662442
 20
114.9261329845713
 30
0.0
 10
373.8945601877085
 20
114.892824553362
 30
0.0
 10
373.8664690563305
 20
114.8536242149553
 30
0.0
 10
373.8353531554785
 20
114.808382169482
 30
0.0
 10
373.8007142245963
 20
114.7559862370927
 30
0.0
 10
373.7599927163175
 20
114.6932037688735
 30
0.0
 10
373.7112717952928
 20
114.6154467696149
 30
0.0
 10
373.6534974569748
 20
114.5181622120364
 30
0.0
 10
373.5865868073298
 20
114.3984173783173
 30
0.0
 10
373.5106428430364
 20
114.2544971734131
 30
0.0
 10
373.4562816783512
 20
114.1437629685201
 30
0.0
 10
373.4278166142367
 20
114.0857793645962
 30
0.0
  0
LINE
  5
DE
330
1F
100
AcDbEntity
  8
0
  6
Continuous
 62
     7
370
    25
100
AcDbLine
 10
373.4278166142
 20
114.0863056965
 30
0.0
 11
373.0584768763
 21
114.4723902234
 31
0.0
  0
LINE
  5
DF
330
1F
100
AcDbEntity
  8
0
  6
Continuous
 62
     7
370
    25
100
AcDbLine
 10
394.7370922118
 20
114.4723308186
 30
0.0
 11
394.3678255302
 21
114.0863227136
 31
0.0
  0
SPLINE
  5
E0
330
1F
100
AcDbEntity
  8
0
  6
Continuous
 62
     7
370
    25
100
AcDbSpline
210
0.0
220
0.0
230
1.0
 70
     8
 71
     3
 72
    26
 73
    22
 74
     0
 42
0.000000001
 43
0.00000001
 40
0.0
 40
0.0
 40
0.0
 40
0.0
 40
0.0509383868653979
 40
0.0998291548270505
 40
0.1466728126490638
 40
0.1914699456369332
 40
0.2342212299774179
 40
0.274927450668867
 40
0.3135895241747119
 40
0.3502085273716571
 40
0.3847857350077695
 40
0.4173226688482998
 40
0.4478211631571791
 40
0.4762834534603437
 40
0.5027122992246547
 40
0.593906700502561
 40
0.6816015993191188
 40
0.7659159552051488
 40
0.846983628966416
 40
0.9249552229440475
 40
1.0
 40
1.0
 40
1.0
 40
1.0
 10
394.3678255301816
 20
114.0855886343465
 30
0.0
 10
394.3543676659835
 20
114.1132094155108
 30
0.0
 10
394.3279929161858
 20
114.1673406789641
 30
0.0
 10
394.2896207364068
 20
114.2436487160393
 30
0.0
 10
394.2531545539146
 20
114.314400895631
 30
0.0
 10
394.2186183042908
 20
114.3795727223192
 30
0.0
 10
394.186005852438
 20
114.4394309675709
 30
0.0
 10
394.1553185686451
 20
114.4941961271122
 30
0.0
 10
394.1265559523439
 20
114.5441205184242
 30
0.0
 10
394.0997177878716
 20
114.5894627490193
 30
0.0
 10
394.0748042074433
 20
114.6304886879601
 30
0.0
 10
394.0518135606546
 20
114.6674660729072
 30
0.0
 10
394.030750055165
 20
114.7006621888906
 30
0.0
 10
394.0115976847858
 20
114.7303379211578
 30
0.0
 10
393.9799266078409
 20
114.7790082462076
 30
0.0
 10
393.9384566624043
 20
114.8409035641263
 30
0.0
 10
393.8914671462606
 20
114.9062441715501
 30
0.0
 10
393.8528485765456
 20
114.9553625628419
 30
0.0
 10
393.8228001168243
 20
114.9888388513541
 30
0.0
 10
393.8005100058551
 20
115.0089562835921
 30
0.0
 10
393.7926146904218
 20
115.0113971174416
 30
0.0
 10
393.7887425414322
 20
115.0125941908713
 30
0.0
  0
SPLINE
  5
E1
330
1F
100
AcDbEntity
  8
0
  6
Continuous
 62
     7
370
    25
100
AcDbSpline
210
0.0
220
0.0
230
1.0
 70
     8
 71
     3
 72
     8
 73
     4
 74
     0
 42
0.000000001
 43
0.00000001
 40
0.0
 40
0.0
 40
0.0
 40
0.0
 40
1.0
 40
1.0
 40
1.0
 40
1.0
 10
391.6394812816754
 20
114.205592517354
 30
0.0
 10
391.7030742620154
 20
114.1399237395073
 30
0.0
 10
391.7670306884507
 20
114.075581441847
 30
0.0
 10
391.8312296081581
 20
114.0138441908713
 30
0.0
  0
SPLINE
  5
E2
330
1F
100
AcDbEntity
  8
0
  6
Continuous
 62
     7
370
    25
100
AcDbSpline
210
0.0
220
0.0
230
1.0
 70
     8
 71
     3
 72
    25
 73
    21
 74
     0
 42
0.000000001
 43
0.00000001
 40
0.0
 40
0.0
 40
0.0
 40
0.0
 40
0.0367725003254103
 40
0.074208401060063
 40
0.1123590542807964
 40
0.1512729822568881
 40
0.190995910016845
 40
0.2315708273504481
 40
0.2730380740418892
 40
0.3154354426077851
 40
0.3587982934432034
 40
0.4031596779810961
 40
0.4485504661847858
 40
0.494999475376923
 40
0.5532504315673752
 40
0.621829488573267
 40
0.7007739996560722
 40
0.7901076726660372
 40
0.8898461547533933
 40
1.0
 40
1.0
 40
1.0
 40
1.0
 10
391.1975600943638
 20
115.012594190871
 30
0.0
 10
391.1977838684287
 20
115.0122695032372
 30
0.0
 10
391.1982354535916
 20
115.0116142703885
 30
0.0
 10
391.2029524934639
 20
115.0062518986007
 30
0.0
 10
391.2106051025465
 20
114.9974963049002
 30
0.0
 10
391.2214980816835
 20
114.9848720868083
 30
0.0
 10
391.2355466680993
 20
114.9683157486779
 30
0.0
 10
391.2527735657085
 20
114.9476585713002
 30
0.0
 10
391.27317211849
 20
114.9227708353323
 30
0.0
 10
391.2967429317821
 20
114.893523289139
 30
0.0
 10
391.3234882803418
 20
114.8598003539425
 30
0.0
 10
391.3533961337742
 20
114.821494538817
 30
0.0
 10
391.3865122261187
 20
114.7785236434791
 30
0.0
 10
391.4254381476927
 20
114.7271023618084
 30
0.0
 10
391.4742662274093
 20
114.6628861301192
 30
0.0
 10
391.5361868320103
 20
114.5799916010247
 30
0.0
 10
391.6105713903314
 20
114.4760458508102
 30
0.0
 10
391.6975458183199
 20
114.3479596405529
 30
0.0
 10
391.7969706683024
 20
114.1938698606467
 30
0.0
 10
391.8683898440319
 20
114.0758056247762
 30
0.0
 10
391.9058714277129
 20
114.0138441908713
 30
0.0
  0
LINE
  5
E3
330
1F
100
AcDbEntity
  8
0
  6
Continuous
 62
     7
370
    25
100
AcDbLine
 10
391.9058714277
 20
114.0138441909
 30
0.0
 11
391.8312296082
 21
114.0138441909
 31
0.0
  0
SPLINE
  5
E4
330
1F
100
AcDbEntity
  8
0
  6
Continuous
 62
     7
370
    25
100
AcDbSpline
210
0.0
220
0.0
230
1.0
 70
     8
 71
     3
 72
    23
 73
    19
 74
     0
 42
0.000000001
 43
0.00000001
 40
0.0
 40
0.0
 40
0.0
 40
0.0
 40
0.0511129009857221
 40
0.1016896331838983
 40
0.1518293139104713
 40
0.201633670189439
 40
0.2512064936754081
 40
0.3006530343006331
 40
0.3500793489716449
 40
0.3995916247932065
 40
0.4492954981442684
 40
0.4992953912354716
 40
0.5872572780521574
 40
0.6724255494349275
 40
0.7555067762540824
 40
0.8372616735271673
 40
0.9184882400167564
 40
1.0
 40
1.0
 40
1.0
 40
1.0
 10
391.6395439578008
 20
114.2058352334492
 30
0.0
 10
391.6235283739002
 20
114.2349638356801
 30
0.0
 10
391.5916652078373
 20
114.2929154842639
 30
0.0
 10
391.5446213694184
 20
114.3756733194822
 30
0.0
 10
391.4986428452435
 20
114.4547621779664
 30
0.0
 10
391.4538621784399
 20
114.5299791659006
 30
0.0
 10
391.410378414004
 20
114.6014422209462
 30
0.0
 10
391.3682924504193
 20
114.6691836251346
 30
0.0
 10
391.327697986022
 20
114.7332571368796
 30
0.0
 10
391.2886830796717
 20
114.7937107359508
 30
0.0
 10
391.2513332571843
 20
114.8505882408791
 30
0.0
 10
391.2068050005922
 20
114.9173027139395
 30
0.0
 10
391.1581647400511
 20
114.988622997804
 30
0.0
 10
391.1103256402952
 20
115.0572032502631
 30
0.0
 10
391.0726741282143
 20
115.1102195783052
 30
0.0
 10
391.0458514268269
 20
115.1474922344328
 30
0.0
 10
391.0291225960033
 20
115.1705296340128
 30
0.0
 10
391.0272741860394
 20
115.173064359278
 30
0.0
 10
391.026348361419
 20
115.1743339429214
 30
0.0
  0
SPLINE
  5
E5
330
1F
100
AcDbEntity
  8
0
  6
Continuous
 62
     7
370
    25
100
AcDbSpline
210
0.0
220
0.0
230
1.0
 70
     8
 71
     3
 72
     8
 73
     4
 74
     0
 42
0.000000001
 43
0.00000001
 40
0.0
 40
0.0
 40
0.0
 40
0.0
 40
1.0
 40
1.0
 40
1.0
 40
1.0
 10
394.301693476947
 20
114.0138441908712
 30
0.0
 10
394.3235788485902
 20
114.0381652070689
 30
0.0
 10
394.3454642202333
 20
114.0621898053913
 30
0.0
 10
394.3673495918765
 20
114.0858966574798
 30
0.0
  0
LINE
  5
E6
330
1F
100
AcDbEntity
  8
0
  6
Continuous
 62
     7
370
    25
100
AcDbLine
 10
394.3015332666
 20
114.0138441909
 30
0.0
 11
391.9058714277
 21
114.0138441909
 31
0.0
  0
SPLINE
  5
E7
330
1F
100
AcDbEntity
  8
0
  6
Continuous
 62
     7
370
    25
100
AcDbSpline
210
0.0
220
0.0
230
1.0
 70
     8
 71
     3
 72
     8
 73
     4
 74
     0
 42
0.000000001
 43
0.00000001
 40
0.0
 40
0.0
 40
0.0
 40
0.0
 40
1.0
 40
1.0
 40
1.0
 40
1.0
 10
373.4281578420487
 20
114.08600022496
 30
0.0
 10
373.4500746145363
 20
114.0622597764009
 30
0.0
 10
373.4719913870238
 20
114.0382006246142
 30
0.0
 10
373.4939081595114
 20
114.0138441908713
 30
0.0
  0
SPLINE
  5
E8
330
1F
100
AcDbEntity
  8
0
  6
Continuous
 62
     7
370
    25
100
AcDbSpline
210
0.0
220
0.0
230
1.0
 70
     8
 71
     3
 72
    26
 73
    22
 74
     0
 42
0.000000001
 43
0.00000001
 40
0.0
 40
0.0
 40
0.0
 40
0.0
 40
0.0524616379932503
 40
0.1026498591890872
 40
0.150565513457809
 40
0.1962095861957063
 40
0.2395832262568645
 40
0.2806877815599511
 40
0.3195248450380211
 40
0.3560963147430692
 40
0.3904044736547445
 40
0.4224520974433627
 40
0.4522426027417772
 40
0.4797802555366611
 40
0.5050704712281336
 40
0.5966394156799991
 40
0.6841917884819224
 40
0.7679874773571101
 40
0.8483228539139507
 40
0.925534163520116
 40
1.0
 40
1.0
 40
1.0
 40
1.0
 10
375.8895526739589
 20
114.013859082889
 30
0.0
 10
375.9074141582471
 20
114.0436325429301
 30
0.0
 10
375.9423631022229
 20
114.1018892348235
 30
0.0
 10
375.993127935705
 20
114.1840882151881
 30
0.0
 10
376.0411978933468
 20
114.2601690840888
 30
0.0
 10
376.0865418661116
 20
114.3301204325551
 30
0.0
 10
376.129167845617
 20
114.3942275945071
 30
0.0
 10
376.1690741441261
 20
114.4527354339773
 30
0.0
 10
376.2062614732414
 20
114.5059240115993
 30
0.0
 10
376.2407302958322
 20
114.5540820518365
 30
0.0
 10
376.2724803844645
 20
114.5975067251127
 30
0.0
 10
376.3015147890657
 20
114.6364968162097
 30
0.0
 10
376.3278260782668
 20
114.6713509147361
 30
0.0
 10
376.3514427078109
 20
114.7023559091867
 30
0.0
 10
376.3910883868167
 20
114.7545991278196
 30
0.0
 10
376.4426266836159
 20
114.8221284610768
 30
0.0
 10
376.4994528205971
 20
114.8943219072853
 30
0.0
 10
376.54361024856
 20
114.9488058634079
 30
0.0
 10
376.574787871502
 20
114.9860706545762
 30
0.0
 10
376.5942474381412
 20
115.0085350068509
 30
0.0
 10
376.5963890358216
 20
115.0112575562781
 30
0.0
 10
376.5974404523783
 20
115.0125941908713
 30
0.0
  0
LINE
  5
E9
330
1F
100
AcDbEntity
  8
0
  6
Continuous
 62
     7
370
    25
100
AcDbLine
 10
375.889552674
 20
114.0138441909
 30
0.0
 11
373.4939081595
 21
114.0138441909
 31
0.0
  0
LINE
  5
EA
330
1F
100
AcDbEntity
  8
0
  6
Continuous
 62
     7
370
    25
100
AcDbLine
 10
375.9643720516
 20
114.0138441909
 30
0.0
 11
375.8892524533
 21
114.0138441909
 31
0.0
  0
SPLINE
  5
EB
330
1F
100
AcDbEntity
  8
0
  6
Continuous
 62
     7
370
    25
100
AcDbSpline
210
0.0
220
0.0
230
1.0
 70
     8
 71
     3
 72
     8
 73
     4
 74
     0
 42
0.000000001
 43
0.00000001
 40
0.0
 40
0.0
 40
0.0
 40
0.0
 40
1.0
 40
1.0
 40
1.0
 40
1.0
 10
375.9643720515919
 20
114.0138441908713
 30
0.0
 10
376.0282808542518
 20
114.0758130543024
 30
0.0
 10
376.0920557736037
 20
114.1397891194191
 30
0.0
 10
376.1554158394846
 20
114.2053237757648
 30
0.0
  0
SPLINE
  5
EC
330
1F
100
AcDbEntity
  8
0
  6
Continuous
 62
     7
370
    25
100
AcDbSpline
210
0.0
220
0.0
230
1.0
 70
     8
 71
     3
 72
    24
 73
    20
 74
     0
 42
0.000000001
 43
0.00000001
 40
0.0
 40
0.0
 40
0.0
 40
0.0
 40
0.0410257106287842
 40
0.0818520099077639
 40
0.1225800578354648
 40
0.1633117464058233
 40
0.2041489402806705
 40
0.2451927184749161
 40
0.2865426449235763
 40
0.3282960933646444
 40
0.370547647549383
 40
0.4133885920102291
 40
0.4569065022351533
 40
0.5011849368587563
 40
0.6001856774947433
 40
0.6987388860447942
 40
0.7976800645453981
 40
0.8978349910029445
 40
1.0
 40
1.0
 40
1.0
 40
1.0
 10
376.7689986453594
 20
115.1739842722028
 30
0.0
 10
376.7688038819184
 20
115.1737169220453
 30
0.0
 10
376.768415301712
 20
115.1731835212239
 30
0.0
 10
376.7643605140376
 20
115.1676117752249
 30
0.0
 10
376.7577665550578
 20
115.158531026071
 30
0.0
 10
376.7484022941479
 20
115.1455935657103
 30
0.0
 10
376.7363541803778
 20
115.1288751228045
 30
0.0
 10
376.7216316109174
 20
115.1083331120327
 30
0.0
 10
376.7042726180701
 20
115.0839517379859
 30
0.0
 10
376.6843154469168
 20
115.0557029939141
 30
0.0
 10
376.6618063972213
 20
115.0235574465129
 30
0.0
 10
376.6367971614598
 20
114.9874806065467
 30
0.0
 10
376.609347791935
 20
114.9474370140274
 30
0.0
 10
376.5674246788678
 20
114.8855165706862
 30
0.0
 10
376.5082185036566
 20
114.7962040795896
 30
0.0
 10
376.4284389105363
 20
114.6716594875609
 30
0.0
 10
376.3424581255499
 20
114.5318746950711
 30
0.0
 10
376.2511733383279
 20
114.377461876085
 30
0.0
 10
376.1879689842698
 20
114.2634158544342
 30
0.0
 10
376.1560528343043
 20
114.2058263104189
 30
0.0
  0
LINE
  5
ED
330
1F
100
AcDbEntity
  8
0
  6
Continuous
 62
     7
370
    25
100
AcDbLine
 10
373.0851599277
 20
105.4925391932
 30
0.0
 11
373.5093973428
 21
105.9413320917
 31
0.0
  0
SPLINE
  5
EE
330
1F
100
AcDbEntity
  8
0
  6
Continuous
 62
     7
370
    25
100
AcDbSpline
210
0.0
220
0.0
230
1.0
 70
     8
 71
     3
 72
    13
 73
     9
 74
     0
 42
0.000000001
 43
0.00000001
 40
0.0
 40
0.0
 40
0.0
 40
0.0
 40
0.170632084649598
 40
0.3395984165075754
 40
0.5069574111411415
 40
0.6727691830249297
 40
0.8370955447763889
 40
1.0
 40
1.0
 40
1.0
 40
1.0
 10
373.5093973427527
 20
105.9413114493421
 30
0.0
 10
373.5144028131615
 20
105.9343600762607
 30
0.0
 10
373.5243648893338
 20
105.9205251911286
 30
0.0
 10
373.5372387172257
 20
105.9043974326716
 30
0.0
 10
373.5485050297216
 20
105.8917287025127
 30
0.0
 10
373.5579823931569
 20
105.8828722646737
 30
0.0
 10
373.5658646258516
 20
105.8773602361939
 30
0.0
 10
373.5696795320851
 20
105.876681890113
 30
0.0
 10
373.5715786968013
 20
105.8763441908713
 30
0.0
  0
SPLINE
  5
EF
330
1F
100
AcDbEntity
  8
0
  6
Continuous
 62
     7
370
    25
100
AcDbSpline
210
0.0
220
0.0
230
1.0
 70
     8
 71
     3
 72
    13
 73
     9
 74
     0
 42
0.000000001
 43
0.00000001
 40
0.0
 40
0.0
 40
0.0
 40
0.0
 40
0.1621004456571512
 40
0.325943455157606
 40
0.4915935308260523
 40
0.6591130873964648
 40
0.8285624736043361
 40
1.0
 40
1.0
 40
1.0
 40
1.0
 10
394.2240229629485
 20
105.8763441908713
 30
0.0
 10
394.2259000692907
 20
105.876678673972
 30
0.0
 10
394.2296744606837
 20
105.8773512358336
 30
0.0
 10
394.2375215378626
 20
105.8828245202293
 30
0.0
 10
394.2469875976377
 20
105.8916439848897
 30
0.0
 10
394.2582685124401
 20
105.9042967418836
 30
0.0
 10
394.2711831309378
 20
105.9204487432801
 30
0.0
 10
394.2811788451835
 20
105.9343345432231
 30
0.0
 10
394.2862058510951
 20
105.9413179359737
 30
0.0
  0
LINE
  5
F0
330
1F
100
AcDbEntity
  8
0
  6
Continuous
 62
     7
370
    25
100
AcDbLine
 10
394.2862188189
 20
105.941318304
 30
0.0
 11
394.7104409837
 21
105.4925392187
 31
0.0
  0
SPLINE
  5
F1
330
1F
100
AcDbEntity
  8
0
  6
Continuous
 62
     7
370
    25
100
AcDbSpline
210
0.0
220
0.0
230
1.0
 70
     8
 71
     3
 72
     8
 73
     4
 74
     0
 42
0.000000001
 43
0.00000001
 40
0.0
 40
0.0
 40
0.0
 40
0.0
 40
1.0
 40
1.0
 40
1.0
 40
1.0
 10
394.286218892088
 20
105.9413185490409
 30
0.0
 10
394.2840354078469
 20
105.9441672145573
 30
0.0
 10
394.2818519236058
 20
105.9471080059548
 30
0.0
 10
394.2796684393646
 20
105.9501405032313
 30
0.0
  0
SPLINE
  5
F2
330
1F
100
AcDbEntity
  8
0
  6
Continuous
 62
     7
370
    25
100
AcDbSpline
210
0.0
220
0.0
230
1.0
 70
     8
 71
     3
 72
    13
 73
     9
 74
     0
 42
0.000000001
 43
0.00000001
 40
0.0
 40
0.0
 40
0.0
 40
0.0
 40
0.170527330366418
 40
0.3393382731715298
 40
0.5065592454659379
 40
0.672320302183991
 40
0.8367549624218703
 40
1.0
 40
1.0
 40
1.0
 40
1.0
 10
391.8399637975859
 20
105.9513440565559
 30
0.0
 10
391.8349283940435
 20
105.943337933789
 30
0.0
 10
391.8249082691805
 20
105.9274062712884
 30
0.0
 10
391.813105226525
 20
105.908789246179
 30
0.0
 10
391.8037631228137
 20
105.8941502531924
 30
0.0
 10
391.797167498191
 20
105.8839031836746
 30
0.0
 10
391.7930144755026
 20
105.8775201934059
 30
0.0
 10
391.7924886271936
 20
105.8767352418087
 30
0.0
 10
391.7922266575704
 20
105.8763441908713
 30
0.0
  0
LINE
  5
F3
330
1F
100
AcDbEntity
  8
0
  6
Continuous
 62
     7
370
    25
100
AcDbLine
 10
394.2787656963
 20
105.9513441909
 30
0.0
 11
391.8399553369
 21
105.9513441909
 31
0.0
  0
LINE
  5
F4
330
1F
100
AcDbEntity
  8
0
  6
Continuous
 62
     7
370
    25
100
AcDbLine
 10
391.8312296082
 20
105.9513441909
 30
0.0
 11
391.8399509178
 21
105.9513441909
 31
0.0
  0
SPLINE
  5
F5
330
1F
100
AcDbEntity
  8
0
  6
Continuous
 62
     7
370
    25
100
AcDbSpline
210
0.0
220
0.0
230
1.0
 70
     8
 71
     3
 72
     8
 73
     4
 74
     0
 42
0.000000001
 43
0.00000001
 40
0.0
 40
0.0
 40
0.0
 40
0.0
 40
1.0
 40
1.0
 40
1.0
 40
1.0
 10
373.5168359867948
 20
105.951344190879
 30
0.0
 10
373.5143500681082
 20
105.9478824915669
 30
0.0
 10
373.5118641494217
 20
105.944538339658
 30
0.0
 10
373.5093782307352
 20
105.9413123477176
 30
0.0
  0
LINE
  5
F6
330
1F
100
AcDbEntity
  8
0
  6
Continuous
 62
     7
370
    25
100
AcDbLine
 10
375.9541400434
 20
105.9513441909
 30
0.0
 11
373.5170524331
 21
105.9513441909
 31
0.0
  0
SPLINE
  5
F7
330
1F
100
AcDbEntity
  8
0
  6
Continuous
 62
     7
370
    25
100
AcDbSpline
210
0.0
220
0.0
230
1.0
 70
     8
 71
     3
 72
    13
 73
     9
 74
     0
 42
0.000000001
 43
0.00000001
 40
0.0
 40
0.0
 40
0.0
 40
0.0
 40
0.1631595583870535
 40
0.3275424452489252
 40
0.4932858679997912
 40
0.6605236853065742
 40
0.8293862019229544
 40
1.0
 40
1.0
 40
1.0
 40
1.0
 10
376.0033750021795
 20
105.8763441908713
 30
0.0
 10
376.0031171566929
 20
105.8767348412639
 30
0.0
 10
376.0025995324604
 20
105.8775190710453
 30
0.0
 10
375.9984529362164
 20
105.88389724028
 30
0.0
 10
375.9918596575408
 20
105.8941396864275
 30
0.0
 10
375.9825152626633
 20
105.9087766024764
 30
0.0
 10
375.9707054496496
 20
105.9273964613261
 30
0.0
 10
375.9606787323351
 20
105.9433341689735
 30
0.0
 10
375.9556395108954
 20
105.9513441323102
 30
0.0
  0
LINE
  5
F8
330
1F
100
AcDbEntity
  8
0
  6
Continuous
 62
     7
370
    25
100
AcDbLine
 10
375.9556499014
 20
105.9513441909
 30
0.0
 11
375.9643720516
 21
105.9513441909
 31
0.0
  0
SPLINE
  5
F9
330
1F
100
AcDbEntity
  8
0
  6
Continuous
 62
     7
370
    25
100
AcDbSpline
210
0.0
220
0.0
230
1.0
 70
     8
 71
     3
 72
    14
 73
    10
 74
     0
 42
0.000000001
 43
0.00000001
 40
0.0
 40
0.0
 40
0.0
 40
0.0
 40
0.0310276388071746
 40
0.0622853718672815
 40
0.1248003166904892
 40
0.2498289731753984
 40
0.499889260361071
 40
0.7606803621682141
 40
1.0
 40
1.0
 40
1.0
 40
1.0
 10
372.9377068354158
 20
105.4946060162559
 30
0.0
 10
372.9420361288809
 20
105.499389938534
 30
0.0
 10
372.9507268209144
 20
105.5089932596223
 30
0.0
 10
372.9681275995766
 20
105.5282875736201
 30
0.0
 10
372.9986037594215
 20
105.5620525200738
 30
0.0
 10
373.0594251522409
 20
105.6294712789355
 30
0.0
 10
373.1473154946542
 20
105.7269379538025
 30
0.0
 10
373.2501531747377
 20
105.8410824656994
 30
0.0
 10
373.3173592861793
 20
105.915867278706
 30
0.0
 10
373.3495196478262
 20
105.9516543013502
 30
0.0
  0
LINE
  5
FA
330
1F
100
AcDbEntity
  8
0
  6
Continuous
 62
     7
370
    25
100
AcDbLine
 10
373.3491911487
 20
105.9513441909
 30
0.0
 11
373.5168359868
 21
105.9513441909
 31
0.0
  0
LINE
  5
FB
330
1F
100
AcDbEntity
  8
0
  6
Continuous
 62
     7
370
    25
100
AcDbLine
 10
394.2787656963
 20
105.9513441909
 30
0.0
 11
394.4464178956
 21
105.9513441909
 31
0.0
  0
SPLINE
  5
FC
330
1F
100
AcDbEntity
  8
0
  6
Continuous
 62
     7
370
    25
100
AcDbSpline
210
0.0
220
0.0
230
1.0
 70
     8
 71
     3
 72
    11
 73
     7
 74
     0
 42
0.000000001
 43
0.00000001
 40
0.0
 40
0.0
 40
0.0
 40
0.0
 40
0.2392913844325938
 40
0.5001130135003002
 40
0.7515028526498353
 40
0.9999999999999999
 40
0.9999999999999999
 40
0.9999999999999999
 40
0.9999999999999999
 10
394.4461140825453
 20
105.9516309933829
 30
0.0
 10
394.4782706355251
 20
105.9158542748056
 30
0.0
 10
394.5454770276506
 20
105.8410818270499
 30
0.0
 10
394.6485051173981
 20
105.7266231137272
 30
0.0
 10
394.7535957820151
 20
105.6104639276073
 30
0.0
 10
394.8232706020949
 20
105.5330759863116
 30
0.0
 10
394.8579064187886
 20
105.4946059257367
 30
0.0
  0
LINE
  5
FD
330
1F
100
AcDbEntity
  8
0
  6
Continuous
 62
     7
370
    25
100
AcDbLine
 10
373.4939081595
 20
114.0138441909
 30
0.0
 11
373.3493358634
 21
114.0138441909
 31
0.0
  0
SPLINE
  5
FE
330
1F
100
AcDbEntity
  8
0
  6
Continuous
 62
     7
370
    25
100
AcDbSpline
210
0.0
220
0.0
230
1.0
 70
     8
 71
     3
 72
    11
 73
     7
 74
     0
 42
0.000000001
 43
0.00000001
 40
0.0
 40
0.0
 40
0.0
 40
0.0
 40
0.2392845094479873
 40
0.5001120454076898
 40
0.7515010915036774
 40
1.0
 40
1.0
 40
1.0
 40
1.0
 10
373.3496384856653
 20
114.0135584046747
 30
0.0
 10
373.3174773558953
 20
114.0493562537366
 30
0.0
 10
373.2502595972992
 20
114.1241748684343
 30
0.0
 10
373.1472149488011
 20
114.2387031326894
 30
0.0
 10
373.0421067199143
 20
114.3549341263638
 30
0.0
 10
372.972421203287
 20
114.4323686220548
 30
0.0
 10
372.9377798908472
 20
114.4708620233909
 30
0.0
  0
SPLINE
  5
FF
330
1F
100
AcDbEntity
  8
0
  6
Continuous
 62
     7
370
    25
100
AcDbSpline
210
0.0
220
0.0
230
1.0
 70
     8
 71
     3
 72
    14
 73
    10
 74
     0
 42
0.000000001
 43
0.00000001
 40
0.0
 40
0.0
 40
0.0
 40
0.0
 40
0.031029414748255
 40
0.0622870907562092
 40
0.1248019217225762
 40
0.249830351143087
 40
0.4998901825554788
 40
0.7606872170552411
 40
1.0
 40
1.0
 40
1.0
 40
1.0
 10
394.8578101535775
 20
114.4708619151147
 30
0.0
 10
394.8534799572619
 20
114.4660747285448
 30
0.0
 10
394.8447877104669
 20
114.4564651394896
 30
0.0
 10
394.8273840821194
 20
114.4371591457836
 30
0.0
 10
394.7969033465843
 20
114.4033739301317
 30
0.0
 10
394.736072724862
 20
114.3359147991842
 30
0.0
 10
394.6481678216954
 20
114.2383882934738
 30
0.0
 10
394.5453135770785
 20
114.1241742866994
 30
0.0
 10
394.4780961189321
 20
114.0493433265943
 30
0.0
 10
394.4459311895297
 20
114.0135351806861
 30
0.0
  0
LINE
  5
100
330
1F
100
AcDbEntity
  8
0
  6
Continuous
 62
     7
370
    25
100
AcDbLine
 10
394.4462583996
 20
114.0138441909
 30
0.0
 11
394.3016934769
 21
114.0138441909
 31
0.0
  0
LINE
  5
101
330
1F
100
AcDbEntity
  8
0
  6
Continuous
 62
     7
370
    25
100
AcDbLine
 10
372.0271329651
 20
107.7952564483
 30
0.0
 11
372.4671956225
 21
107.8763441909
 31
0.0
  0
SPLINE
  5
102
330
1F
100
AcDbEntity
  8
0
  6
Continuous
 62
     7
370
    25
100
AcDbSpline
210
0.0
220
0.0
230
1.0
 70
     8
 71
     3
 72
    25
 73
    21
 74
     0
 42
0.000000001
 43
0.00000001
 40
0.0
 40
0.0
 40
0.0
 40
0.0
 40
0.0274788704223154
 40
0.0560416006850518
 40
0.0856947086352136
 40
0.116444016653826
 40
0.1482947438681133
 40
0.1812515840470034
 40
0.2153187716748716
 40
0.2505001382254911
 40
0.333051455250936
 40
0.5015081958163736
 40
0.5771663066143947
 40
0.648898130302521
 40
0.716747770006283
 40
0.7807674423488066
 40
0.84101941313403
 40
0.8975784849924567
 40
0.9505352047788314
 40
1.0
 40
1.0
 40
1.0
 40
1.0
 10
372.4671956224637
 20
107.8763441908713
 30
0.0
 10
372.4739037898071
 20
107.8471619863539
 30
0.0
 10
372.4875847173639
 20
107.7876465322051
 30
0.0
 10
372.5103494460179
 20
107.6972560351465
 30
0.0
 10
372.5352270832582
 20
107.6041244260253
 30
0.0
 10
372.5623663212757
 20
107.5085383817504
 30
0.0
 10
372.591727728307
 20
107.4107849121371
 30
0.0
 10
372.623312898595
 20
107.3112042360796
 30
0.0
 10
372.6571597684598
 20
107.2101950965011
 30
0.0
 10
372.7088609983927
 20
107.06342828925
 30
0.0
 10
372.8132200114063
 20
106.7991618763357
 30
0.0
 10
372.9340932390901
 20
106.5291922465072
 30
0.0
 10
373.0475862855473
 20
106.3117825717909
 30
0.0
 10
373.1188592531631
 20
106.1820790010604
 30
0.0
 10
373.180933825289
 20
106.0782039237356
 30
0.0
 10
373.2335178374562
 20
105.9983432899171
 30
0.0
 10
373.2767643833837
 20
105.9403246637665
 30
0.0
 10
373.3103711956039
 20
105.9022211051141
 30
0.0
 10
373.3353181784765
 20
105.8802185741194
 30
0.0
 10
373.3442777153385
 20
105.8776059607681
 30
0.0
 10
373.3486047520565
 20
105.8763441908713
 30
0.0
  0
LINE
  5
103
330
1F
100
AcDbEntity
  8
0
  6
Continuous
 62
     7
370
    25
100
AcDbLine
 10
395.7684686946
 20
112.1699319334
 30
0.0
 11
395.3284060373
 21
112.0888441909
 31
0.0
  0
SPLINE
  5
104
330
1F
100
AcDbEntity
  8
0
  6
Continuous
 62
     7
370
    25
100
AcDbSpline
210
0.0
220
0.0
230
1.0
 70
     8
 71
     3
 72
    25
 73
    21
 74
     0
 42
0.000000001
 43
0.00000001
 40
0.0
 40
0.0
 40
0.0
 40
0.0
 40
0.0274788704223041
 40
0.0560416006850305
 40
0.0856947086351823
 40
0.1164440166537841
 40
0.1482947438680617
 40
0.1812515840469434
 40
0.2153187716748025
 40
0.2505001382254136
 40
0.3330514552861967
 40
0.5015081958164245
 40
0.5771663066128696
 40
0.6488981302998588
 40
0.7167477700029257
 40
0.7807674423452041
 40
0.8410194131306359
 40
0.8975784849897311
 40
0.950535204777236
 40
1.0
 40
1.0
 40
1.0
 40
1.0
 10
395.3284060372862
 20
112.0888441908713
 30
0.0
 10
395.3216978699427
 20
112.1180263953888
 30
0.0
 10
395.308016942386
 20
112.1775418495376
 30
0.0
 10
395.2852522137321
 20
112.2679323465962
 30
0.0
 10
395.2603745764918
 20
112.3610639557174
 30
0.0
 10
395.2332353384742
 20
112.4566499999923
 30
0.0
 10
395.203873931443
 20
112.5544034696055
 30
0.0
 10
395.1722887611549
 20
112.653984145663
 30
0.0
 10
395.1384418912901
 20
112.7549932852416
 30
0.0
 10
395.0867406613448
 20
112.9017600925267
 30
0.0
 10
394.982381648334
 20
113.1660265054393
 30
0.0
 10
394.8615084206481
 20
113.4359961352584
 30
0.0
 10
394.7480153742029
 20
113.6534058099486
 30
0.0
 10
394.6767424065873
 20
113.7831093806776
 30
0.0
 10
394.6146678344616
 20
113.8869844580023
 30
0.0
 10
394.5620838222943
 20
113.9668450918216
 30
0.0
 10
394.5188372763668
 20
114.0248637179735
 30
0.0
 10
394.4852304641465
 20
114.0629672766272
 30
0.0
 10
394.4602834812737
 20
114.0849698076231
 30
0.0
 10
394.4513239444115
 20
114.0875824209745
 30
0.0
 10
394.4469969076934
 20
114.0888441908713
 30
0.0
  0
SPLINE
  5
105
330
1F
100
AcDbEntity
  8
0
  6
Continuous
 62
     7
370
    25
100
AcDbSpline
210
0.0
220
0.0
230
1.0
 70
     8
 71
     3
 72
    25
 73
    21
 74
     0
 42
0.000000001
 43
0.00000001
 40
0.0
 40
0.0
 40
0.0
 40
0.0
 40
0.0288821753110086
 40
0.0583636594013118
 40
0.0884647204314734
 40
0.1192044006626603
 40
0.150600580009491
 40
0.1826700399677263
 40
0.2154285269580574
 40
0.248890814337993
 40
0.361059447124065
 40
0.4984670131067773
 40
0.5822693905007604
 40
0.666112764278331
 40
0.7499972937224478
 40
0.8007709755049082
 40
0.8511237700832938
 40
0.9010896024531745
 40
0.9507031914125761
 40
1.0
 40
1.0
 40
1.0
 40
1.0
 10
373.3486047520565
 20
114.0888441908713
 30
0.0
 10
373.3463144836789
 20
114.0884159488954
 30
0.0
 10
373.3416864235659
 20
114.0875505788686
 30
0.0
 10
373.3313761604785
 20
114.080475646167
 30
0.0
 10
373.3185400912477
 20
114.0689071050066
 30
0.0
 10
373.302926532505
 20
114.0522015288942
 30
0.0
 10
373.2846050890924
 20
114.0302646178779
 30
0.0
 10
373.2635575032612
 20
114.0028669823932
 30
0.0
 10
373.2397859312692
 20
113.9698325017111
 30
0.0
 10
373.1927294018327
 20
113.9008418355833
 30
0.0
 10
373.1050349839758
 20
113.7608158661617
 30
0.0
 10
372.9874833294424
 20
113.5415205649572
 30
0.0
 10
372.875961165101
 20
113.304590504186
 30
0.0
 10
372.7845018477529
 20
113.0887486302761
 30
0.0
 10
372.7036201965754
 20
112.8871870093943
 30
0.0
 10
372.6374752947074
 20
112.7083189290021
 30
0.0
 10
372.5881247338802
 20
112.5569427278582
 30
0.0
 10
372.5431577170153
 20
112.4026985727353
 30
0.0
 10
372.5024000030961
 20
112.2465427176597
 30
0.0
 10
372.4789053338789
 20
112.1412980107117
 30
0.0
 10
372.4671956224637
 20
112.0888441908713
 30
0.0
  0
LINE
  5
106
330
1F
100
AcDbEntity
  8
0
  6
Continuous
 62
     7
370
    25
100
AcDbLine
 10
372.0271329651
 20
112.1699319334
 30
0.0
 11
372.4671956225
 21
112.0888441909
 31
0.0
  0
SPLINE
  5
107
330
1F
100
AcDbEntity
  8
0
  6
Continuous
 62
     7
370
    25
100
AcDbSpline
210
0.0
220
0.0
230
1.0
 70
     8
 71
     3
 72
    25
 73
    21
 74
     0
 42
0.000000001
 43
0.00000001
 40
0.0
 40
0.0
 40
0.0
 40
0.0
 40
0.0288821753116583
 40
0.0583636594024247
 40
0.088464720432864
 40
0.1192044006641432
 40
0.1506005800108822
 40
0.1826700399688414
 40
0.2154285269587146
 40
0.2488908143380118
 40
0.3610594471217245
 40
0.498467013106778
 40
0.5822693905006526
 40
0.6661127642782239
 40
0.7499972937224496
 40
0.8007709755032478
 40
0.8511237700807983
 40
0.901089602450676
 40
0.9507031914109089
 40
1.0
 40
1.0
 40
1.0
 40
1.0
 10
394.4469969076934
 20
105.8763441908713
 30
0.0
 10
394.4492871760712
 20
105.8767724328472
 30
0.0
 10
394.4539152361842
 20
105.8776378028741
 30
0.0
 10
394.4642254992716
 20
105.884712735576
 30
0.0
 10
394.4770615685026
 20
105.8962812767367
 30
0.0
 10
394.4926751272452
 20
105.9129868528494
 30
0.0
 10
394.5109965706578
 20
105.9349237638658
 30
0.0
 10
394.5320441564889
 20
105.9623213993505
 30
0.0
 10
394.5558157284809
 20
105.9953558800322
 30
0.0
 10
394.6028722579171
 20
106.0643465461587
 30
0.0
 10
394.6905666757749
 20
106.2043725155793
 30
0.0
 10
394.8081183303069
 20
106.4236678167835
 30
0.0
 10
394.9196404946478
 20
106.6605978775568
 30
0.0
 10
395.0110998119958
 20
106.8764397514667
 30
0.0
 10
395.0919814631737
 20
107.0780013723468
 30
0.0
 10
395.1581263650418
 20
107.2568694527363
 30
0.0
 10
395.2074769258683
 20
107.4082456538775
 30
0.0
 10
395.2524439427332
 20
107.5624898090003
 30
0.0
 10
395.2932016566529
 20
107.7186456640785
 30
0.0
 10
395.3166963258707
 20
107.8238903710292
 30
0.0
 10
395.3284060372862
 20
107.8763441908713
 30
0.0
  0
LINE
  5
108
330
1F
100
AcDbEntity
  8
0
  6
Continuous
 62
     7
370
    25
100
AcDbLine
 10
395.7684686946
 20
107.7952564483
 30
0.0
 11
395.3284060373
 21
107.8763441909
 31
0.0
  0
SPLINE
  5
109
330
1F
100
AcDbEntity
  8
0
  6
Continuous
 62
     7
370
    25
100
AcDbSpline
210
0.0
220
0.0
230
1.0
 70
     8
 71
     3
 72
    16
 73
    12
 74
     0
 42
0.000000001
 43
0.00000001
 40
0.0
 40
0.0
 40
0.0
 40
0.0
 40
0.0870061775074587
 40
0.1851056111355291
 40
0.2943803716251409
 40
0.3925759841529199
 40
0.4909775276861052
 40
0.5895880030703908
 40
0.7549180486651427
 40
0.9066441298749784
 40
0.9999999999999999
 40
0.9999999999999999
 40
0.9999999999999999
 40
0.9999999999999999
 10
374.9999429415964
 20
112.0888441908713
 30
0.0
 10
375.0222306480318
 20
112.1668007784545
 30
0.0
 10
375.0696477354011
 20
112.3326533903037
 30
0.0
 10
375.1566099609366
 20
112.5891484030418
 30
0.0
 10
375.2533709866016
 20
112.8441551767535
 30
0.0
 10
375.3540275116862
 20
113.0841954722823
 30
0.0
 10
375.4515482067621
 20
113.2992109766994
 30
0.0
 10
375.5756352824402
 20
113.5378220889711
 30
0.0
 10
375.7063144318346
 20
113.7686367017877
 30
0.0
 10
375.8102731984757
 20
113.947301442551
 30
0.0
 10
375.8447543837743
 20
114.0018025490442
 30
0.0
 10
375.8578888518123
 20
114.0225629444619
 30
0.0
  0
SPLINE
  5
10A
330
1F
100
AcDbEntity
  8
0
  6
Continuous
 62
     7
370
    25
100
AcDbSpline
210
0.0
220
0.0
230
1.0
 70
     8
 71
     3
 72
    16
 73
    12
 74
     0
 42
0.000000001
 43
0.00000001
 40
0.0
 40
0.0
 40
0.0
 40
0.0
 40
0.0880319371339328
 40
0.1872879143798576
 40
0.2978509700519604
 40
0.3972042600988014
 40
0.4967659089756308
 40
0.5965389529066326
 40
0.7638181576519493
 40
0.917333014028731
 40
1.0
 40
1.0
 40
1.0
 40
1.0
 10
392.7956587181534
 20
107.8763441908713
 30
0.0
 10
392.7733710191709
 20
107.7983876173858
 30
0.0
 10
392.7259539476547
 20
107.6325350355202
 30
0.0
 10
392.6389915864326
 20
107.3760397661948
 30
0.0
 10
392.5422311260165
 20
107.1210340613797
 30
0.0
 10
392.4415726511075
 20
106.880990078661
 30
0.0
 10
392.344059076405
 20
106.6659880391086
 30
0.0
 10
392.2199393195814
 20
106.4273151257014
 30
0.0
 10
392.0894600632855
 20
106.1968785174403
 30
0.0
 10
391.9878149014607
 20
106.0220799733431
 30
0.0
 10
391.9547158636541
 20
105.9696836464939
 30
0.0
 10
391.9431307321859
 20
105.9513441908713
 30
0.0
  0
SPLINE
  5
10B
330
1F
100
AcDbEntity
  8
0
  6
Continuous
 62
     7
370
    25
100
AcDbSpline
210
0.0
220
0.0
230
1.0
 70
     8
 71
     3
 72
    15
 73
    11
 74
     0
 42
0.000000001
 43
0.00000001
 40
0.0
 40
0.0
 40
0.0
 40
0.0
 40
0.0210215873997391
 40
0.0995174370234918
 40
0.2360970702300488
 40
0.3979402345642526
 40
0.5486163820120215
 40
0.700032141451838
 40
0.8517813609343974
 40
1.0
 40
1.0
 40
1.0
 40
1.0
 10
375.8510251242694
 20
105.9513441908713
 30
0.0
 10
375.8481763134451
 20
105.9558288383725
 30
0.0
 10
375.8346898746521
 20
105.9770594246637
 30
0.0
 10
375.7872839007092
 20
106.0541943618891
 30
0.0
 10
375.6941405719078
 20
106.210124343764
 30
0.0
 10
375.557721551569
 20
106.4591395684682
 30
0.0
 10
375.4083983713326
 20
106.768778421022
 30
0.0
 10
375.2552346747997
 20
107.1107428105509
 30
0.0
 10
375.1096006821293
 20
107.4818511364443
 30
0.0
 10
375.0362075795347
 20
107.7458823765166
 30
0.0
 10
374.9999429415964
 20
107.8763441908713
 30
0.0
  0
LINE
  5
10C
330
1F
100
AcDbEntity
  8
0
  6
Continuous
 62
     7
370
    25
100
AcDbLine
 10
375.3162030989
 20
107.9512074855
 30
0.0
 11
374.9999429416
 21
107.8763441909
 31
0.0
  0
SPLINE
  5
10D
330
1F
100
AcDbEntity
  8
0
  6
Continuous
 62
     7
370
    25
100
AcDbSpline
210
0.0
220
0.0
230
1.0
 70
     8
 71
     3
 72
    25
 73
    21
 74
     0
 42
0.000000001
 43
0.00000001
 40
0.0
 40
0.0
 40
0.0
 40
0.0
 40
0.0269872354797669
 40
0.0539362690259618
 40
0.0809037148829035
 40
0.1079460716545392
 40
0.1351193706855853
 40
0.162478838835575
 40
0.190078585418252
 40
0.2179713214290535
 40
0.2462081170984584
 40
0.3700050494705653
 40
0.4947542611659071
 40
0.6210439034695193
 40
0.7446557472315123
 40
0.7967060293738726
 40
0.8478613449329371
 40
0.8985210411990388
 40
0.9490962115257747
 40
1.0
 40
1.0
 40
1.0
 40
1.0
 10
375.3162030989379
 20
107.9512074854715
 30
0.0
 10
375.3239838436619
 20
107.9188110804438
 30
0.0
 10
375.339534319033
 20
107.8540641293025
 30
0.0
 10
375.3642197250061
 20
107.7574175928738
 30
0.0
 10
375.3898396820052
 20
107.6613235043825
 30
0.0
 10
375.4164825456326
 20
107.5658112336658
 30
0.0
 10
375.4441077309172
 20
107.4708865062731
 30
0.0
 10
375.4727095099764
 20
107.3765603501374
 30
0.0
 10
375.5022715996179
 20
107.2828440056881
 30
0.0
 10
375.5327847466651
 20
107.1897399217979
 30
0.0
 10
375.5995189512543
 20
106.9934746796848
 30
0.0
 10
375.7067021273501
 20
106.7074015640815
 30
0.0
 10
375.8504822176589
 20
106.3701116680882
 30
0.0
 10
375.9837306738707
 20
106.0886024912647
 30
0.0
 10
376.0714018500839
 20
105.9176115610863
 30
0.0
 10
376.1222768858763
 20
105.8216987427038
 30
0.0
 10
376.1499460405277
 20
105.7704815392491
 30
0.0
 10
376.1696449586452
 20
105.7344987451641
 30
0.0
 10
376.1818924673487
 20
105.7123288568421
 30
0.0
 10
376.1831792605047
 20
105.7100093891085
 30
0.0
 10
376.1838247405865
 20
105.7088458996888
 30
0.0
  0
LINE
  5
10E
330
1F
100
AcDbEntity
  8
0
  6
Continuous
 62
     7
370
    25
100
AcDbLine
 10
375.3162030989
 20
112.0139808963
 30
0.0
 11
374.9999429416
 21
112.0888441909
 31
0.0
  0
SPLINE
  5
10F
330
1F
100
AcDbEntity
  8
0
  6
Continuous
 62
     7
370
    25
100
AcDbSpline
210
0.0
220
0.0
230
1.0
 70
     8
 71
     3
 72
    25
 73
    21
 74
     0
 42
0.000000001
 43
0.00000001
 40
0.0
 40
0.0
 40
0.0
 40
0.0
 40
0.0278144320063462
 40
0.0555680196245754
 40
0.083331625367772
 40
0.111176035216759
 40
0.1391714221532265
 40
0.1673868326284763
 40
0.1958897140434718
 40
0.2247454979318961
 40
0.254017249222145
 40
0.3796724410016501
 40
0.5056484635002454
 40
0.629752729069345
 40
0.7535891720571729
 40
0.8038564806093713
 40
0.853339684343451
 40
0.9023264398358534
 40
0.9511131859219439
 40
1.0
 40
1.0
 40
1.0
 40
1.0
 10
376.1838247405865
 20
114.2563424820538
 30
0.0
 10
376.1836769892718
 20
114.2560759395003
 30
0.0
 10
376.18338180985
 20
114.2555434374581
 30
0.0
 10
376.1797571108343
 20
114.248995988762
 30
0.0
 10
376.1738112151639
 20
114.2382267454757
 30
0.0
 10
376.1653364922488
 20
114.2228160095514
 30
0.0
 10
376.1544215054097
 20
114.2028596332977
 30
0.0
 10
376.1410854371713
 20
114.1783095368272
 30
0.0
 10
376.1253776724844
 20
114.1491529130713
 30
0.0
 10
376.1073460843265
 20
114.1153569416379
 30
0.0
 10
376.0649285395781
 20
114.0349501835801
 30
0.0
 10
375.9844074998246
 20
113.8779617339094
 30
0.0
 10
375.8509811529501
 20
113.596175996162
 30
0.0
 10
375.706904176267
 20
113.258303886535
 30
0.0
 10
375.5912264248155
 20
112.9496229727968
 30
0.0
 10
375.5087149495983
 20
112.7035922530418
 30
0.0
 10
375.4557933250732
 20
112.5347663617685
 30
0.0
 10
375.4059361906958
 20
112.3634507907568
 30
0.0
 10
375.3589181974652
 20
112.189768440536
 30
0.0
 10
375.3304511867367
 20
112.0726167522326
 30
0.0
 10
375.3162030989379
 20
112.0139808962712
 30
0.0
  0
SPLINE
  5
110
330
1F
100
AcDbEntity
  8
0
  6
Continuous
 62
     7
370
    25
100
AcDbSpline
210
0.0
220
0.0
230
1.0
 70
     8
 71
     3
 72
    15
 73
    11
 74
     0
 42
0.000000001
 43
0.00000001
 40
0.0
 40
0.0
 40
0.0
 40
0.0
 40
0.0210215874028217
 40
0.0995174370237692
 40
0.2360970702364024
 40
0.3979402345644331
 40
0.5486163820121709
 40
0.7000321414519293
 40
0.8517813609347173
 40
1.0
 40
1.0
 40
1.0
 40
1.0
 10
391.9445765354791
 20
114.0138441908713
 30
0.0
 10
391.9474253463039
 20
114.0093595433695
 30
0.0
 10
391.960911785097
 20
113.9881289570779
 30
0.0
 10
392.0083177590435
 20
113.9109940198506
 30
0.0
 10
392.1014610878448
 20
113.7550640379756
 30
0.0
 10
392.2378801081827
 20
113.5060488132704
 30
0.0
 10
392.3872032884176
 20
113.1964099607207
 30
0.0
 10
392.5403669849503
 20
112.8544455711916
 30
0.0
 10
392.6860009776207
 20
112.4833372452981
 30
0.0
 10
392.7593940802153
 20
112.2193060052259
 30
0.0
 10
392.7956587181534
 20
112.0888441908713
 30
0.0
  0
LINE
  5
111
330
1F
100
AcDbEntity
  8
0
  6
Continuous
 62
     7
370
    25
100
AcDbLine
 10
392.4793985608
 20
112.0139808963
 30
0.0
 11
392.7956587182
 21
112.0888441909
 31
0.0
  0
SPLINE
  5
112
330
1F
100
AcDbEntity
  8
0
  6
Continuous
 62
     7
370
    25
100
AcDbSpline
210
0.0
220
0.0
230
1.0
 70
     8
 71
     3
 72
    14
 73
    10
 74
     0
 42
0.000000001
 43
0.00000001
 40
0.0
 40
0.0
 40
0.0
 40
0.0
 40
0.1400505389350903
 40
0.2837941391411564
 40
0.4267315409806389
 40
0.5707684557847207
 40
0.7165839699846748
 40
0.8593076663242981
 40
1.0
 40
1.0
 40
1.0
 40
1.0
 10
392.4793985608121
 20
112.0139808962712
 30
0.0
 10
392.4426316316097
 20
112.1595409275148
 30
0.0
 10
392.3681282480372
 20
112.4544993337747
 30
0.0
 10
392.2329390288518
 20
112.8725633426486
 30
0.0
 10
392.0890546257477
 20
113.2576160360832
 30
0.0
 10
391.9449178857756
 20
113.5954240446686
 30
0.0
 10
391.8125222129933
 20
113.8753648352927
 30
0.0
 10
391.7016014321694
 20
114.091505322929
 30
0.0
 10
391.660265951732
 20
114.1675684686131
 30
0.0
 10
391.6397463459566
 20
114.2053274530729
 30
0.0
  0
LINE
  5
113
330
1F
100
AcDbEntity
  8
0
  6
Continuous
 62
     7
370
    25
100
AcDbLine
 10
392.4793985608
 20
107.9512074855
 30
0.0
 11
392.7956587182
 21
107.8763441909
 31
0.0
  0
SPLINE
  5
114
330
1F
100
AcDbEntity
  8
0
  6
Continuous
 62
     7
370
    25
100
AcDbSpline
210
0.0
220
0.0
230
1.0
 70
     8
 71
     3
 72
    25
 73
    21
 74
     0
 42
0.000000001
 43
0.00000001
 40
0.0
 40
0.0
 40
0.0
 40
0.0
 40
0.0278144320057649
 40
0.0555680196235595
 40
0.083331625366468
 40
0.1111760352153128
 40
0.1391714221517827
 40
0.1673868326271739
 40
0.195889714042447
 40
0.2247454979312803
 40
0.2540172492220635
 40
0.3796724409988544
 40
0.505648463500191
 40
0.6297527290689083
 40
0.7535891720572004
 40
0.803856480609888
 40
0.85333968434422
 40
0.902326439836625
 40
0.9511131859224594
 40
1.0
 40
1.0
 40
1.0
 40
1.0
 10
391.6117769191635
 20
105.7088458996888
 30
0.0
 10
391.6119246704782
 20
105.7091124422424
 30
0.0
 10
391.6122198499
 20
105.7096449442846
 30
0.0
 10
391.6158445489157
 20
105.7161923929807
 30
0.0
 10
391.6217904445861
 20
105.726961636267
 30
0.0
 10
391.6302651675011
 20
105.7423723721913
 30
0.0
 10
391.6411801543403
 20
105.7623287484451
 30
0.0
 10
391.6545162225787
 20
105.7868788449156
 30
0.0
 10
391.6702239872656
 20
105.8160354686715
 30
0.0
 10
391.6882555754235
 20
105.8498314401049
 30
0.0
 10
391.7306731201706
 20
105.9302381981602
 30
0.0
 10
391.8111941599244
 20
106.0872266478314
 30
0.0
 10
391.9446205067988
 20
106.3690123855782
 30
0.0
 10
392.0886974834823
 20
106.706884495206
 30
0.0
 10
392.2043752349343
 20
107.0155654089458
 30
0.0
 10
392.2868867101521
 20
107.2615961287025
 30
0.0
 10
392.3398083346775
 20
107.4304220199766
 30
0.0
 10
392.3896654690549
 20
107.6017375909883
 30
0.0
 10
392.4366834622851
 20
107.7754199412082
 30
0.0
 10
392.4651504730134
 20
107.8925716295107
 30
0.0
 10
392.4793985608121
 20
107.9512074854715
 30
0.0
  0
ARC
  5
115
330
1F
100
AcDbEntity
  8
0
  6
Continuous
 62
     7
370
    25
100
AcDbCircle
 10
383.8978008299
 20
109.9825941909
 30
0.0
 40
11.62303852141066
100
AcDbArc
 50
169.5595567507
 51
190.4404432494
  0
ARC
  5
116
330
1F
100
AcDbEntity
  8
0
  6
Continuous
 62
     7
370
    25
100
AcDbCircle
 10
383.8978008299
 20
109.9825941909
 30
0.0
 40
9.143750000000006
100
AcDbArc
 50
166.6824039243
 51
193.3175960757
  0
ARC
  5
117
330
1F
100
AcDbEntity
  8
0
  6
Continuous
 62
     7
370
    25
100
AcDbCircle
 10
383.8978008299
 20
109.9825941909
 30
0.0
 40
8.81874999999997
100
AcDbArc
 50
166.6824039243
 51
193.3175960757
  0
ARC
  5
118
330
1F
100
AcDbEntity
  8
0
  6
Continuous
 62
     7
370
    25
100
AcDbCircle
 10
383.8978008299
 20
109.9825941909
 30
0.0
 40
9.143750000000006
100
AcDbArc
 50
346.6824039243
 51
13.3175960757
  0
ARC
  5
119
330
1F
100
AcDbEntity
  8
0
  6
Continuous
 62
     7
370
    25
100
AcDbCircle
 10
383.8978008299
 20
109.9825941909
 30
0.0
 40
8.818750000000026
100
AcDbArc
 50
346.6824039243
 51
13.3175960757
  0
ARC
  5
11A
330
1F
100
AcDbEntity
  8
0
  6
Continuous
 62
     7
370
    25
100
AcDbCircle
 10
383.8978008299
 20
109.9825941909
 30
0.0
 40
11.6230385214107
100
AcDbArc
 50
349.5595567507
 51
10.4404432493
  0
CIRCLE
  5
11B
330
1F
100
AcDbEntity
  8
0
  6
Continuous
 62
     7
370
    25
100
AcDbCircle
 10
383.8978008299
 20
109.9825941909
 30
0.0
 40
7.774999999999977
  0
CIRCLE
  5
11C
330
1F
100
AcDbEntity
  8
0
  6
Continuous
 62
     7
370
    25
100
AcDbCircle
 10
383.8978008299
 20
109.9825941909
 30
0.0
 40
2.615470053837896
  0
CIRCLE
  5
11D
330
1F
100
AcDbEntity
  8
0
  6
Continuous
 62
     7
370
    25
100
AcDbCircle
 10
383.8978008299
 20
109.9825941909
 30
0.0
 40
2.5
  0
CIRCLE
  5
11E
330
1F
100
AcDbEntity
  8
0
  6
Continuous
 62
     7
370
    25
100
AcDbCircle
 10
383.8978008299
 20
109.9825941909
 30
0.0
 40
15.73749999999995
  0
CIRCLE
  5
11F
330
1F
100
AcDbEntity
  8
0
  6
Continuous
 62
     7
370
    25
100
AcDbCircle
 10
383.8978008299
 20
109.9825941909
 30
0.0
 40
13.42499999999995
  0
CIRCLE
  5
120
330
1F
100
AcDbEntity
  8
0
  6
Continuous
 62
     7
370
    25
100
AcDbCircle
 10
383.8978008299
 20
109.9825941909
 30
0.0
 40
2.0
  0
CIRCLE
  5
121
330
1F
100
AcDbEntity
  8
0
  6
Continuous
 62
     7
370
    25
100
AcDbCircle
 10
383.8978008299
 20
109.9825941909
 30
0.0
 40
1.5
  0
LINE
  5
122
330
1F
100
AcDbEntity
  8
0
  6
CENTER
 62
     7
370
    18
100
AcDbLine
 10
383.8978008299
 20
109.9825941909
 30
0.0
 11
383.8978008299
 21
129.4970941909
 31
0.0
  0
LINE
  5
123
330
1F
100
AcDbEntity
  8
0
  6
CENTER
 62
     7
370
    18
100
AcDbLine
 10
383.8978008299
 20
109.9825941909
 30
0.0
 11
403.4123008299
 21
109.9825941909
 31
0.0
  0
LINE
  5
124
330
1F
100
AcDbEntity
  8
0
  6
Continuous
 62
     7
370
    18
100
AcDbLine
 10
395.8978008299
 20
127.4970941909
 30
0.0
 11
383.8978008299
 21
127.4970941909
 31
0.0
  0
SOLID
  5
125
330
1F
100
AcDbEntity
  8
0
  6
Continuous
 62
     7
370
    18
100
AcDbTrace
 10
383.8978008299
 20
127.4970941909
 30
0.0
 11
389.8978008299
 21
125.9970941909
 31
0.0
 12
389.8978008299
 22
128.9970941909
 32
0.0
 13
389.8978008299
 23
128.9970941909
 33
0.0
  0
LINE
  5
126
330
1F
100
AcDbEntity
  8
0
  6
Continuous
 62
     7
370
    18
100
AcDbLine
 10
413.4123008299
 20
109.9825941909
 30
0.0
 11
401.4123008299
 21
109.9825941909
 31
0.0
  0
SOLID
  5
127
330
1F
100
AcDbEntity
  8
0
  6
Continuous
 62
     7
370
    18
100
AcDbTrace
 10
401.4123008299
 20
109.9825941909
 30
0.0
 11
407.4123008299
 21
108.4825941909
 31
0.0
 12
407.4123008299
 22
111.4825941909
 32
0.0
 13
407.4123008299
 23
111.4825941909
 33
0.0
  0
MTEXT
  5
128
330
1F
100
AcDbEntity
  8
0
  6
Continuous
 62
     7
100
AcDbMText
 10
392.7504200859
 20
134.1433874075
 30
0.0
 40
3.5
 41
0.0
 71
     1
 72
     1
  1
A
  7
SLDTEXTSTYLE0
 73
     1
 44
1.0
  0
MTEXT
  5
129
330
1F
100
AcDbEntity
  8
0
  6
Continuous
 62
     7
100
AcDbMText
 10
410.2649200859
 20
107.7693785497
 30
0.0
 40
3.5
 41
0.0
 71
     1
 72
     1
  1
A
  7
SLDTEXTSTYLE0
 73
     1
 44
1.0
  0
LINE
  5
12A
330
1F
100
AcDbEntity
  8
VERMASSUNG
  6
CENTERX2
370
    18
100
AcDbLine
 10
395.5659796525
 20
113.0125941909
 30
0.0
 11
389.2195326484
 21
113.0125941909
 31
0.0
  0
LINE
  5
12B
330
1F
100
AcDbEntity
  8
VERMASSUNG
  6
CENTERX2
370
    18
100
AcDbLine
 10
396.5352174455
 20
112.0888441909
 30
0.0
 11
389.7662677045
 21
112.0888441909
 31
0.0
  0
LINE
  5
12C
330
1F
100
AcDbEntity
  8
VERMASSUNG
  6
CENTERX2
370
    18
100
AcDbLine
 10
396.5345718032
 20
107.8763441909
 30
0.0
 11
389.7647264584
 21
107.8763441909
 31
0.0
  0
LINE
  5
12D
330
1F
100
AcDbEntity
  8
VERMASSUNG
  6
CENTERX2
370
    18
100
AcDbLine
 10
377.2921203116
 20
107.8763441909
 30
0.0
 11
370.3374009672
 21
107.8763441909
 31
0.0
  0
LINE
  5
12E
330
1F
100
AcDbEntity
  8
VERMASSUNG
  6
CENTERX2
370
    18
100
AcDbLine
 10
377.1075934197
 20
112.0888441909
 30
0.0
 11
370.3377480749
 21
112.0888441909
 31
0.0
  0
LINE
  5
12F
330
1F
100
AcDbEntity
  8
VERMASSUNG
  6
CENTERX2
370
    18
100
AcDbLine
 10
377.794098504
 20
113.0125941909
 30
0.0
 11
371.4497804553
 21
113.0125941909
 31
0.0
  0
LINE
  5
130
330
1F
100
AcDbEntity
  8
VERMASSUNG
  6
CENTERX2
370
    18
100
AcDbLine
 10
383.8978008299
 20
111.4325941909
 30
0.0
 11
383.8978008299
 21
108.9825941909
 31
0.0
  0
LINE
  5
131
330
1F
100
AcDbEntity
  8
VERMASSUNG
  6
CENTERX2
370
    18
100
AcDbLine
 10
383.8978008299
 20
111.4325941909
 30
0.0
 11
383.8978008299
 21
117.9825941909
 31
0.0
  0
ARC
  5
132
330
1F
100
AcDbEntity
  8
0
  6
Continuous
 62
     7
370
    25
100
AcDbCircle
 10
138.707997191
 20
78.7075941909
 30
0.0
 40
0.2000000000000171
100
AcDbArc
 50
180.0
 51
270.0
  0
LINE
  5
133
330
1F
100
AcDbEntity
  8
0
  6
Continuous
 62
     7
370
    25
100
AcDbLine
 10
151.7421949955
 20
78.5075941909
 30
0.0
 11
156.507997191
 21
78.5075941909
 31
0.0
  0
LINE
  5
134
330
1F
100
AcDbEntity
  8
0
  6
Continuous
 62
     7
370
    25
100
AcDbLine
 10
138.707997191
 20
78.5075941909
 30
0.0
 11
145.0737993864
 21
78.5075941909
 31
0.0
  0
LINE
  5
135
330
1F
100
AcDbEntity
  8
0
  6
Continuous
 62
     7
370
    25
100
AcDbLine
 10
145.0737993864
 20
78.5075941909
 30
0.0
 11
146.532997191
 21
81.0349989267
 31
0.0
  0
LINE
  5
136
330
1F
100
AcDbEntity
  8
0
  6
Continuous
 62
     7
370
    25
100
AcDbLine
 10
150.282997191
 20
81.0349989267
 30
0.0
 11
151.7421949955
 21
78.5075941909
 31
0.0
  0
ARC
  5
137
330
1F
100
AcDbEntity
  8
0
  6
Continuous
 62
     7
370
    25
100
AcDbCircle
 10
147.532997191
 20
81.1325941909
 30
0.0
 40
1.0
100
AcDbArc
 50
90.0
 51
180.0
  0
ARC
  5
138
330
1F
100
AcDbEntity
  8
0
  6
Continuous
 62
     7
370
    25
100
AcDbCircle
 10
149.282997191
 20
81.1325941909
 30
0.0
 40
1.000000000000028
100
AcDbArc
 50
0.0
 51
90.0
  0
LINE
  5
139
330
1F
100
AcDbEntity
  8
0
  6
Continuous
 62
     7
370
    25
100
AcDbLine
 10
147.532997191
 20
82.1325941909
 30
0.0
 11
149.282997191
 21
82.1325941909
 31
0.0
  0
ARC
  5
13A
330
1F
100
AcDbEntity
  8
0
  6
Continuous
 62
     7
370
    25
100
AcDbCircle
 10
138.0790623164
 20
84.4325941909
 30
0.0
 40
0.8000000000000181
100
AcDbArc
 50
57.576802718
 51
107.5
  0
LINE
  5
13B
330
1F
100
AcDbEntity
  8
0
  6
Continuous
 62
     7
370
    25
100
AcDbLine
 10
137.3478151509
 20
85.0408561453
 30
0.0
 11
137.8384976768
 21
85.1955677515
 31
0.0
  0
LINE
  5
13C
330
1F
100
AcDbEntity
  8
0
  6
Continuous
 62
     7
370
    25
100
AcDbLine
 10
124.0215517229
 20
85.7100736701
 30
0.0
 11
137.3478151509
 21
85.0408561453
 31
0.0
  0
LINE
  5
13D
330
1F
100
AcDbEntity
  8
0
  6
Continuous
 62
     7
370
    25
100
AcDbLine
 10
100.057997191
 20
86.9134740633
 30
0.0
 11
108.1128340545
 21
86.5089767323
 31
0.0
  0
LINE
  5
13E
330
1F
100
AcDbEntity
  8
0
  6
Continuous
 62
     7
370
    25
100
AcDbLine
 10
98.557997191
 20
87.7794994671
 30
0.0
 11
100.057997191
 21
86.9134740633
 31
0.0
  0
ARC
  5
13F
330
1F
100
AcDbEntity
  8
0
  6
Continuous
 62
     7
370
    25
100
AcDbCircle
 10
159.507997191
 20
94.4825941909
 30
0.0
 40
3.0
100
AcDbArc
 50
90.0
 51
180.0
  0
LINE
  5
140
330
1F
100
AcDbEntity
  8
0
  6
Continuous
 62
     7
370
    25
100
AcDbLine
 10
189.9299695089
 20
97.4825941909
 30
0.0
 11
197.3532337144
 21
100.9441191384
 31
0.0
  0
LINE
  5
141
330
1F
100
AcDbEntity
  8
0
  6
Continuous
 62
     7
370
    25
100
AcDbLine
 10
159.507997191
 20
97.4825941909
 30
0.0
 11
189.9299695089
 21
97.4825941909
 31
0.0
  0
ARC
  5
142
330
1F
100
AcDbEntity
  8
0
  6
Continuous
 62
     7
370
    25
100
AcDbCircle
 10
196.507997191
 20
102.7567347125
 30
0.0
 40
2.000000000000001
100
AcDbArc
 50
295.0
 51
0.0
  0
LINE
  5
143
330
1F
100
AcDbEntity
  8
0
  6
Continuous
 62
     7
370
    25
100
AcDbLine
 10
178.907997191
 20
111.9825941909
 30
0.0
 11
178.007997191
 21
112.8825941909
 31
0.0
  0
LINE
  5
144
330
1F
100
AcDbEntity
  8
0
  6
Continuous
 62
     7
370
    25
100
AcDbLine
 10
178.007997191
 20
112.8825941909
 30
0.0
 11
178.007997191
 21
121.9825941909
 31
0.0
  0
LINE
  5
145
330
1F
100
AcDbEntity
  8
0
  6
Continuous
 62
     7
370
    25
100
AcDbLine
 10
178.007997191
 20
121.9825941909
 30
0.0
 11
178.507997191
 21
122.4825941909
 31
0.0
  0
LINE
  5
146
330
1F
100
AcDbEntity
  8
0
  6
Continuous
 62
     7
370
    25
100
AcDbLine
 10
178.507997191
 20
122.4825941909
 30
0.0
 11
179.507997191
 21
122.4825941909
 31
0.0
  0
LINE
  5
147
330
1F
100
AcDbEntity
  8
0
  6
Continuous
 62
     7
370
    25
100
AcDbLine
 10
179.507997191
 20
118.9825941909
 30
0.0
 11
179.507997191
 21
122.4825941909
 31
0.0
  0
LINE
  5
148
330
1F
100
AcDbEntity
  8
0
  6
Continuous
 62
     7
370
    25
100
AcDbLine
 10
182.507997191
 20
118.9825941909
 30
0.0
 11
179.507997191
 21
118.9825941909
 31
0.0
  0
LINE
  5
149
330
1F
100
AcDbEntity
  8
0
  6
Continuous
 62
     7
370
    25
100
AcDbLine
 10
182.507997191
 20
118.9825941909
 30
0.0
 11
182.507997191
 21
122.4825941909
 31
0.0
  0
LINE
  5
14A
330
1F
100
AcDbEntity
  8
0
  6
Continuous
 62
     7
370
    25
100
AcDbLine
 10
182.507997191
 20
122.4825941909
 30
0.0
 11
183.507997191
 21
122.4825941909
 31
0.0
  0
LINE
  5
14B
330
1F
100
AcDbEntity
  8
0
  6
Continuous
 62
     7
370
    25
100
AcDbLine
 10
183.507997191
 20
122.4825941909
 30
0.0
 11
184.007997191
 21
121.9825941909
 31
0.0
  0
LINE
  5
14C
330
1F
100
AcDbEntity
  8
0
  6
Continuous
 62
     7
370
    25
100
AcDbLine
 10
184.007997191
 20
121.9825941909
 30
0.0
 11
184.007997191
 21
112.8825941909
 31
0.0
  0
LINE
  5
14D
330
1F
100
AcDbEntity
  8
0
  6
Continuous
 62
     7
370
    25
100
AcDbLine
 10
184.007997191
 20
112.8825941909
 30
0.0
 11
183.107997191
 21
111.9825941909
 31
0.0
  0
LINE
  5
14E
330
1F
100
AcDbEntity
  8
0
  6
Continuous
 62
     7
370
    25
100
AcDbLine
 10
183.107997191
 20
111.9825941909
 30
0.0
 11
182.257997191
 21
111.9825941909
 31
0.0
  0
LINE
  5
14F
330
1F
100
AcDbEntity
  8
0
  6
Continuous
 62
     7
370
    25
100
AcDbLine
 10
181.007997191
 20
112.7042820274
 30
0.0
 11
182.257997191
 21
111.9825941909
 31
0.0
  0
LINE
  5
150
330
1F
100
AcDbEntity
  8
0
  6
Continuous
 62
     7
370
    25
100
AcDbLine
 10
179.757997191
 20
111.9825941909
 30
0.0
 11
181.007997191
 21
112.7042820274
 31
0.0
  0
LINE
  5
151
330
1F
100
AcDbEntity
  8
0
  6
Continuous
 62
     7
370
    25
100
AcDbLine
 10
179.757997191
 20
111.9825941909
 30
0.0
 11
178.907997191
 21
111.9825941909
 31
0.0
  0
LINE
  5
152
330
1F
100
AcDbEntity
  8
0
  6
Continuous
 62
     7
370
    25
100
AcDbLine
 10
182.257997191
 20
111.9825941909
 30
0.0
 11
179.757997191
 21
111.9825941909
 31
0.0
  0
LINE
  5
153
330
1F
100
AcDbEntity
  8
0
  6
Continuous
 62
     7
370
    25
100
AcDbLine
 10
181.007997191
 20
118.9825941909
 30
0.0
 11
181.007997191
 21
122.4825941909
 31
0.0
  0
LINE
  5
154
330
1F
100
AcDbEntity
  8
0
  6
Continuous
 62
     7
370
    25
100
AcDbLine
 10
182.507997191
 20
122.4825941909
 30
0.0
 11
181.007997191
 21
122.4825941909
 31
0.0
  0
LINE
  5
155
330
1F
100
AcDbEntity
  8
0
  6
Continuous
 62
     7
370
    25
100
AcDbLine
 10
179.507997191
 20
122.4825941909
 30
0.0
 11
181.007997191
 21
122.4825941909
 31
0.0
  0
LINE
  5
156
330
1F
100
AcDbEntity
  8
0
  6
Continuous
 62
     7
370
    25
100
AcDbLine
 10
138.507997191
 20
78.7075941909
 30
0.0
 11
138.507997191
 21
109.9825941909
 31
0.0
  0
LINE
  5
157
330
1F
100
AcDbEntity
  8
0
  6
Continuous
 62
     7
370
    25
100
AcDbLine
 10
138.507997191
 20
109.9825941909
 30
0.0
 11
138.707997191
 21
109.9825941909
 31
0.0
  0
ARC
  5
158
330
1F
100
AcDbEntity
  8
0
  6
Continuous
 62
     7
370
    25
100
AcDbCircle
 10
138.707997191
 20
141.2575941909
 30
0.0
 40
0.2000000000000171
100
AcDbArc
 50
90.0
 51
179.9999999999
  0
LINE
  5
159
330
1F
100
AcDbEntity
  8
0
  6
Continuous
 62
     7
370
    25
100
AcDbLine
 10
151.7421949955
 20
78.5075941909
 30
0.0
 11
151.7421949955
 21
105.0928869112
 31
0.0
  0
SPLINE
  5
15A
330
1F
100
AcDbEntity
  8
0
  6
Continuous
 62
     7
370
    25
100
AcDbSpline
210
0.0
220
0.0
230
1.0
 70
     8
 71
     3
 72
    20
 73
    16
 74
     0
 42
0.000000001
 43
0.00000001
 40
0.0
 40
0.0
 40
0.0
 40
0.0
 40
0.1249999999999996
 40
0.1249999999999996
 40
0.2499999999999992
 40
0.2499999999999992
 40
0.3749999999999989
 40
0.3749999999999989
 40
0.4999999999999987
 40
0.4999999999999987
 40
0.7499999999999994
 40
0.7499999999999994
 40
0.8749999999999997
 40
0.8749999999999997
 40
1.0
 40
1.0
 40
1.0
 40
1.0
 10
155.2954971909514
 20
109.9825941908712
 30
0.0
 10
155.2954971909514
 20
109.7159261033899
 30
0.0
 10
155.2734501619077
 20
109.4476139281159
 30
0.0
 10
155.1844441242029
 20
108.9147708928826
 30
0.0
 10
155.1185651560035
 20
108.6554806828966
 30
0.0
 10
154.9463902482962
 20
108.1503537168751
 30
0.0
 10
154.8396836773893
 20
107.9037735009539
 30
0.0
 10
154.5870067745131
 20
107.4273568502142
 30
0.0
 10
154.4435495103183
 20
107.2019367884493
 30
0.0
 10
153.9652273180378
 20
106.5613291068356
 30
0.0
 10
153.5772003350723
 20
106.1785633917325
 30
0.0
 10
152.9353956866269
 20
105.7026611435609
 30
0.0
 10
152.7105910589798
 20
105.5590655074091
 30
0.0
 10
152.2392820013575
 20
105.3017341220186
 30
0.0
 10
151.9935854014686
 20
105.1886817434967
 30
0.0
 10
151.7421949955215
 20
105.092886911186
 30
0.0
  0
LINE
  5
15B
330
1F
100
AcDbEntity
  8
0
  6
Continuous
 62
     7
370
    25
100
AcDbLine
 10
156.507997191
 20
141.4575941909
 30
0.0
 11
151.7421949955
 21
141.4575941909
 31
0.0
  0
LINE
  5
15C
330
1F
100
AcDbEntity
  8
0
  6
Continuous
 62
     7
370
    25
100
AcDbLine
 10
156.507997191
 20
78.5075941909
 30
0.0
 11
156.507997191
 21
109.9825941909
 31
0.0
  0
SPLINE
  5
15D
330
1F
100
AcDbEntity
  8
0
  6
Continuous
 62
     7
370
    25
100
AcDbSpline
210
0.0
220
0.0
230
1.0
 70
     8
 71
     3
 72
    14
 73
    10
 74
     0
 42
0.000000001
 43
0.00000001
 40
0.0
 40
0.0
 40
0.0
 40
0.0
 40
0.25
 40
0.25
 40
0.5
 40
0.5
 40
0.75
 40
0.75
 40
1.0
 40
1.0
 40
1.0
 40
1.0
 10
145.0737993863813
 20
106.6876961053543
 30
0.0
 10
144.8769235008563
 20
106.9151926732835
 30
0.0
 10
144.7008151794669
 20
107.1567794483546
 30
0.0
 10
144.3910787856937
 20
107.6689366827288
 30
0.0
 10
144.2565207842001
 20
107.9424694858369
 30
0.0
 10
144.041278631491
 20
108.5025746203743
 30
0.0
 10
143.959635393972
 20
108.7895471157843
 30
0.0
 10
143.8491123717019
 20
109.3775861008286
 30
0.0
 10
143.8204971909514
 20
109.6820295565993
 30
0.0
 10
143.8204971909514
 20
109.982594190871
 30
0.0
  0
LINE
  5
15E
330
1F
100
AcDbEntity
  8
0
  6
Continuous
 62
     7
370
    25
100
AcDbLine
 10
145.0737993864
 20
78.5075941909
 30
0.0
 11
145.0737993864
 21
106.6876961054
 31
0.0
  0
LINE
  5
15F
330
1F
100
AcDbEntity
  8
0
  6
Continuous
 62
     7
370
    25
100
AcDbLine
 10
145.0737993864
 20
141.4575941909
 30
0.0
 11
138.707997191
 21
141.4575941909
 31
0.0
  0
SPLINE
  5
160
330
1F
100
AcDbEntity
  8
0
  6
Continuous
 62
     7
370
    25
100
AcDbSpline
210
0.0
220
0.0
230
1.0
 70
     8
 71
     3
 72
     8
 73
     4
 74
     0
 42
0.000000001
 43
0.00000001
 40
0.0
 40
0.0
 40
0.0
 40
0.0
 40
1.0
 40
1.0
 40
1.0
 40
1.0
 10
151.7421949955211
 20
105.0928869111849
 30
0.0
 10
151.3937935908408
 20
105.5308622375988
 30
0.0
 10
151.0492252056079
 20
105.9739453761836
 30
0.0
 10
150.7108409062871
 20
106.4273364480322
 30
0.0
  0
ARC
  5
161
330
1F
100
AcDbEntity
  8
0
  6
Continuous
 62
     7
370
    25
100
AcDbCircle
 10
149.557997191
 20
109.9825941909
 30
0.0
 40
3.737500000000011
100
AcDbArc
 50
287.9660359156
 51
0.0
  0
ARC
  5
162
330
1F
100
AcDbEntity
  8
0
  6
Continuous
 62
     7
370
    25
100
AcDbCircle
 10
149.557997191
 20
109.9825941909
 30
0.0
 40
3.737500000000011
100
AcDbArc
 50
180.0
 51
206.113804444
  0
SPLINE
  5
163
330
1F
100
AcDbEntity
  8
0
  6
Continuous
 62
     7
370
    25
100
AcDbSpline
210
0.0
220
0.0
230
1.0
 70
     8
 71
     3
 72
    10
 73
     6
 74
     0
 42
0.000000001
 43
0.00000001
 40
0.0
 40
0.0
 40
0.0
 40
0.0
 40
0.5
 40
0.5
 40
1.0
 40
1.0
 40
1.0
 40
1.0
 10
146.2020153834981
 20
108.3375129290354
 30
0.0
 10
146.0251302370748
 20
108.0390626136789
 30
0.0
 10
145.8395808621974
 20
107.7600699095515
 30
0.0
 10
145.4616319221498
 20
107.2147506154257
 30
0.0
 10
145.2688453799706
 20
106.9494152296043
 30
0.0
 10
145.0737993863813
 20
106.6876961053543
 30
0.0
  0
SPLINE
  5
164
330
1F
100
AcDbEntity
  8
0
  6
Continuous
 62
     7
370
    25
100
AcDbSpline
210
0.0
220
0.0
230
1.0
 70
     8
 71
     3
 72
     8
 73
     4
 74
     0
 42
0.000000001
 43
0.00000001
 40
0.0
 40
0.0
 40
0.0
 40
0.0
 40
1.0
 40
1.0
 40
1.0
 40
1.0
 10
146.5329971909515
 20
107.7875358203487
 30
0.0
 10
146.4147004315215
 20
107.9505600488071
 30
0.0
 10
146.3032719493501
 20
108.1309485478296
 30
0.0
 10
146.2020153834981
 20
108.3375129290354
 30
0.0
  0
LINE
  5
165
330
1F
100
AcDbEntity
  8
0
  6
Continuous
 62
     7
370
    25
100
AcDbLine
 10
146.532997191
 20
81.0349989267
 30
0.0
 11
146.532997191
 21
107.7875358203
 31
0.0
  0
SPLINE
  5
166
330
1F
100
AcDbEntity
  8
0
  6
Continuous
 62
     7
370
    25
100
AcDbSpline
210
0.0
220
0.0
230
1.0
 70
     8
 71
     3
 72
     8
 73
     4
 74
     0
 42
0.000000001
 43
0.00000001
 40
0.0
 40
0.0
 40
0.0
 40
0.0
 40
1.0
 40
1.0
 40
1.0
 40
1.0
 10
150.7108409062874
 20
106.427336448033
 30
0.0
 10
150.5693028180056
 20
106.3814406769359
 30
0.0
 10
150.4266923492686
 20
106.3444998259986
 30
0.0
 10
150.2829971909516
 20
106.316086145058
 30
0.0
  0
LINE
  5
167
330
1F
100
AcDbEntity
  8
0
  6
Continuous
 62
     7
370
    25
100
AcDbLine
 10
150.282997191
 20
81.0349989267
 30
0.0
 11
150.282997191
 21
106.3160861451
 31
0.0
  0
SPLINE
  5
168
330
1F
100
AcDbEntity
  8
0
  6
Continuous
 62
     7
370
    25
100
AcDbSpline
210
0.0
220
0.0
230
1.0
 70
     8
 71
     3
 72
    14
 73
    10
 74
     0
 42
0.000000001
 43
0.00000001
 40
0.0
 40
0.0
 40
0.0
 40
0.0
 40
0.25
 40
0.25
 40
0.5
 40
0.5
 40
0.75
 40
0.75
 40
1.0
 40
1.0
 40
1.0
 40
1.0
 10
147.5329971909514
 20
106.8412121303761
 30
0.0
 10
147.3986491045949
 20
106.9278156920036
 30
0.0
 10
147.275472430739
 20
107.019284089327
 30
0.0
 10
147.0467258258209
 20
107.2104754759579
 30
0.0
 10
146.9448038618538
 20
107.3073373280989
 30
0.0
 10
146.765380459425
 20
107.4952119428342
 30
0.0
 10
146.6889391712422
 20
107.5854472941854
 30
0.0
 10
146.5716491983921
 20
107.7332536581628
 30
0.0
 10
146.5329971909514
 20
107.7875358203488
 30
0.0
 10
146.5329971909514
 20
107.7875358203488
 30
0.0
  0
SPLINE
  5
169
330
1F
100
AcDbEntity
  8
0
  6
Continuous
 62
     7
370
    25
100
AcDbSpline
210
0.0
220
0.0
230
1.0
 70
     8
 71
     3
 72
    14
 73
    10
 74
     0
 42
0.000000001
 43
0.00000001
 40
0.0
 40
0.0
 40
0.0
 40
0.0
 40
0.25
 40
0.25
 40
0.5
 40
0.5
 40
0.75
 40
0.75
 40
1.0
 40
1.0
 40
1.0
 40
1.0
 10
150.2829971909516
 20
106.3160861450585
 30
0.0
 10
150.2829971909517
 20
106.3160861450586
 30
0.0
 10
150.2570806683806
 20
106.3107094140702
 30
0.0
 10
150.157635821803
 20
106.2931648264697
 30
0.0
 10
150.0853374293908
 20
106.2813154228234
 30
0.0
 10
149.9006335348669
 20
106.2596716048232
 30
0.0
 10
149.791056272991
 20
106.2503823441388
 30
0.0
 10
149.5477260947728
 20
106.2431268077812
 30
0.0
 10
149.4161898358527
 20
106.2453982139405
 30
0.0
 10
149.2829971909514
 20
106.2552249778737
 30
0.0
  0
SPLINE
  5
16A
330
1F
100
AcDbEntity
  8
0
  6
Continuous
 62
     7
370
    25
100
AcDbSpline
210
0.0
220
0.0
230
1.0
 70
     8
 71
     3
 72
    10
 73
     6
 74
     0
 42
0.000000001
 43
0.00000001
 40
0.0
 40
0.0
 40
0.0
 40
0.0
 40
0.5
 40
0.5
 40
1.0
 40
1.0
 40
1.0
 40
1.0
 10
149.2829971909514
 20
106.2552249778738
 30
0.0
 10
148.9705332886633
 20
106.2782781202428
 30
0.0
 10
148.6676443066655
 20
106.3395128226492
 30
0.0
 10
148.0803011218615
 20
106.5356847865731
 30
0.0
 10
147.7958334612895
 20
106.671782421673
 30
0.0
 10
147.5329971909514
 20
106.8412121303761
 30
0.0
  0
LINE
  5
16B
330
1F
100
AcDbEntity
  8
0
  6
Continuous
 62
     7
370
    25
100
AcDbLine
 10
138.507997191
 20
136.8325941909
 30
0.0
 11
138.842035877
 21
135.7731588305
 31
0.0
  0
LINE
  5
16C
330
1F
100
AcDbEntity
  8
0
  6
Continuous
 62
     7
370
    25
100
AcDbLine
 10
138.507997191
 20
136.8325941909
 30
0.0
 11
138.507997191
 21
134.8573054575
 31
0.0
  0
ARC
  5
16D
330
1F
100
AcDbEntity
  8
0
  6
Continuous
 62
     7
370
    25
100
AcDbCircle
 10
138.0790623164
 20
135.5325941909
 30
0.0
 40
0.8000000000000181
100
AcDbArc
 50
252.5
 51
17.5
  0
LINE
  5
16E
330
1F
100
AcDbEntity
  8
0
  6
Continuous
 62
     7
370
    25
100
AcDbLine
 10
137.3478151509
 20
85.0408561453
 30
0.0
 11
137.3478151509
 21
109.9825941909
 31
0.0
  0
LINE
  5
16F
330
1F
100
AcDbEntity
  8
0
  6
Continuous
 62
     7
370
    25
100
AcDbLine
 10
137.8384976768
 20
134.7696206303
 30
0.0
 11
137.3478151509
 21
134.9243322364
 31
0.0
  0
SPLINE
  5
170
330
1F
100
AcDbEntity
  8
0
  6
Continuous
 62
     7
370
    25
100
AcDbSpline
210
0.0
220
0.0
230
1.0
 70
     8
 71
     3
 72
    23
 73
    19
 74
     0
 42
0.000000001
 43
0.00000001
 40
0.0
 40
0.0
 40
0.0
 40
0.0
 40
0.0014465380676841
 40
0.0696020615250797
 40
0.1372543686877721
 40
0.2039589927303561
 40
0.2702907462898639
 40
0.3365481587483027
 40
0.402860042787465
 40
0.4678618153390205
 40
0.5326346827483722
 40
0.5993540732925763
 40
0.6655184441100624
 40
0.7321132013640593
 40
0.798884036112512
 40
0.8663348105332488
 40
0.9345219374316858
 40
1.0
 40
1.0
 40
1.0
 40
1.0
 10
108.2678212552562
 20
133.4068523788859
 30
0.0
 10
108.2689655380194
 20
133.4064993566831
 30
0.0
 10
108.3240241922412
 20
133.3895132340019
 30
0.0
 10
108.7204288311821
 20
133.2722517926875
 30
0.0
 10
109.4364678458541
 20
133.0716472606931
 30
0.0
 10
110.4461524810384
 20
132.8310307803307
 30
0.0
 10
111.6621293380705
 20
132.6037589016375
 30
0.0
 10
113.0663296417021
 20
132.4313692911533
 30
0.0
 10
114.5833936659996
 20
132.3433010102274
 30
0.0
 10
116.1576915299308
 20
132.3743486649873
 30
0.0
 10
117.7235117521751
 20
132.5253719058001
 30
0.0
 10
119.213368822732
 20
132.7797087040692
 30
0.0
 10
120.5850490147937
 20
133.0974454828069
 30
0.0
 10
121.7709721085875
 20
133.4413619029194
 30
0.0
 10
122.7485714525754
 20
133.7692045032339
 30
0.0
 10
123.4680826041713
 20
134.038128932716
 30
0.0
 10
123.9407176058723
 20
134.2207182683382
 30
0.0
 10
123.9981887202257
 20
134.2439666609229
 30
0.0
 10
124.0263418784003
 20
134.2553552633732
 30
0.0
  0
LINE
  5
171
330
1F
100
AcDbEntity
  8
0
  6
Continuous
 62
     7
370
    25
100
AcDbLine
 10
108.1084313057
 20
133.4559905524
 30
0.0
 11
100.057997191
 21
133.0517143185
 31
0.0
  0
LINE
  5
172
330
1F
100
AcDbEntity
  8
0
  6
Continuous
 62
     7
370
    25
100
AcDbLine
 10
100.057997191
 20
86.9134740633
 30
0.0
 11
100.057997191
 21
100.8604711563
 31
0.0
  0
SPLINE
  5
173
330
1F
100
AcDbEntity
  8
0
  6
Continuous
 62
     7
370
    25
100
AcDbSpline
210
0.0
220
0.0
230
1.0
 70
     8
 71
     3
 72
     8
 73
     4
 74
     0
 42
0.000000001
 43
0.00000001
 40
0.0
 40
0.0
 40
0.0
 40
0.0
 40
1.0
 40
1.0
 40
1.0
 40
1.0
 10
105.8761716438984
 20
100.8650572145677
 30
0.0
 10
103.936780159587
 20
100.8629111187181
 30
0.0
 10
101.9973886752756
 20
100.8613149321934
 30
0.0
 10
100.0579971909642
 20
100.8602674797177
 30
0.0
  0
SPLINE
  5
174
330
1F
100
AcDbEntity
  8
0
  6
Continuous
 62
     7
370
    25
100
AcDbSpline
210
0.0
220
0.0
230
1.0
 70
     8
 71
     3
 72
    13
 73
     9
 74
     0
 42
0.000000001
 43
0.00000001
 40
0.0
 40
0.0
 40
0.0
 40
0.0
 40
0.1686319999748085
 40
0.3360343310905433
 40
0.502536782590866
 40
0.6684737453788339
 40
0.834182263691515
 40
1.0
 40
1.0
 40
1.0
 40
1.0
 10
106.9596666933654
 20
101.0025136603854
 30
0.0
 10
106.9001767973056
 20
100.9879993403465
 30
0.0
 10
106.7816308070306
 20
100.959076539062
 30
0.0
 10
106.6017541114447
 20
100.9251151456537
 30
0.0
 10
106.4213638238167
 20
100.8982495832947
 30
0.0
 10
106.2402516517829
 20
100.8792906461868
 30
0.0
 10
106.0584908146154
 20
100.8673601947911
 30
0.0
 10
105.9369580467208
 20
100.8658250432223
 30
0.0
 10
105.8761716438984
 20
100.8650572145677
 30
0.0
  0
SPLINE
  5
175
330
1F
100
AcDbEntity
  8
0
  6
Continuous
 62
     7
370
    25
100
AcDbSpline
210
0.0
220
0.0
230
1.0
 70
     8
 71
     3
 72
     8
 73
     4
 74
     0
 42
0.000000001
 43
0.00000001
 40
0.0
 40
0.0
 40
0.0
 40
0.0
 40
1.0
 40
1.0
 40
1.0
 40
1.0
 10
112.3518601098582
 20
101.0067517022708
 30
0.0
 10
110.5544654384204
 20
101.0048806417468
 30
0.0
 10
108.7570707669826
 20
101.0034584607227
 30
0.0
 10
106.9596760955447
 20
101.0024843377267
 30
0.0
  0
SPLINE
  5
176
330
1F
100
AcDbEntity
  8
0
  6
Continuous
 62
     7
370
    25
100
AcDbSpline
210
0.0
220
0.0
230
1.0
 70
     8
 71
     3
 72
    18
 73
    14
 74
     0
 42
0.000000001
 43
0.00000001
 40
0.0
 40
0.0
 40
0.0
 40
0.0
 40
0.0923325137111192
 40
0.1843692047063016
 40
0.2763458873810836
 40
0.3684982175655623
 40
0.4610598988303626
 40
0.554260954653301
 40
0.6483261285442131
 40
0.74347346365053
 40
0.8399130993119804
 40
0.9201660718299768
 40
1.0
 40
1.0
 40
1.0
 40
1.0
 10
114.5481817584605
 20
100.4725594664272
 30
0.0
 10
114.4778514549475
 20
100.4729760908588
 30
0.0
 10
114.3374161780955
 20
100.4738080049055
 30
0.0
 10
114.1270536515929
 20
100.48741685182
 30
0.0
 10
113.9176099886766
 20
100.5100836091917
 30
0.0
 10
113.7090603183041
 20
100.5426843989924
 30
0.0
 10
113.5014167010288
 20
100.5849868776127
 30
0.0
 10
113.2946785134892
 20
100.6370582762678
 30
0.0
 10
113.0888564215243
 20
100.6989070491132
 30
0.0
 10
112.8839247427322
 20
100.7705050605694
 30
0.0
 10
112.6924439973365
 20
100.8470835507968
 30
0.0
 10
112.5147208452819
 20
100.9256947996299
 30
0.0
 10
112.4063868507179
 20
100.9796089554173
 30
0.0
 10
112.3523616412646
 20
101.0064954703162
 30
0.0
  0
LINE
  5
177
330
1F
100
AcDbEntity
  8
0
  6
Continuous
 62
     7
370
    25
100
AcDbLine
 10
116.4630550377
 20
100.4740549013
 30
0.0
 11
114.5481817585
 21
100.4725594664
 31
0.0
  0
SPLINE
  5
178
330
1F
100
AcDbEntity
  8
0
  6
Continuous
 62
     7
370
    25
100
AcDbSpline
210
0.0
220
0.0
230
1.0
 70
     8
 71
     3
 72
    25
 73
    21
 74
     0
 42
0.000000001
 43
0.00000001
 40
0.0
 40
0.0
 40
0.0
 40
0.0
 40
0.0280105225422753
 40
0.0559601148854256
 40
0.0839014045034749
 40
0.1118870776777086
 40
0.1399695827579646
 40
0.1682008401731476
 40
0.1966319670417595
 40
0.2253130233137476
 40
0.2542927850735311
 40
0.3799486436564626
 40
0.5057850221666382
 40
0.631308588631066
 40
0.7532068238011618
 40
0.8039473267946936
 40
0.8535894438541253
 40
0.9025339722380873
 40
0.9511970353782256
 40
1.0
 40
1.0
 40
1.0
 40
1.0
 10
121.4029393441529
 20
105.6079187058025
 30
0.0
 10
121.4029765658867
 20
105.53329867879
 30
0.0
 10
121.4030509283873
 20
105.3842209428045
 30
0.0
 10
121.3906348777408
 20
105.1616028518403
 30
0.0
 10
121.369030317387
 20
104.9402784338129
 30
0.0
 10
121.337344847727
 20
104.720310167925
 30
0.0
 10
121.295818709407
 20
104.501719880696
 30
0.0
 10
121.2443879536771
 20
104.2845379422909
 30
0.0
 10
121.1830740789659
 20
104.0687965224047
 30
0.0
 10
121.1118637434664
 20
103.8545066309525
 30
0.0
 10
120.9410271362653
 20
103.4061568579315
 30
0.0
 10
120.6032949028292
 20
102.7528260298594
 30
0.0
 10
119.9917402386345
 20
101.9809328192233
 30
0.0
 10
119.255505403482
 20
101.336773193838
 30
0.0
 10
118.5690193318377
 20
100.945132025776
 30
0.0
 10
118.0203151856889
 20
100.726437124803
 30
0.0
 10
117.6382790071873
 20
100.6105810759725
 30
0.0
 10
117.2511129084828
 20
100.5296731704427
 30
0.0
 10
116.8588862396927
 20
100.4804447396449
 30
0.0
 10
116.5951249715739
 20
100.4761868846297
 30
0.0
 10
116.46305503775
 20
100.4740549012869
 30
0.0
  0
LINE
  5
179
330
1F
100
AcDbEntity
  8
0
  6
Continuous
 62
     7
370
    25
100
AcDbLine
 10
121.4029393442
 20
109.9825941909
 30
0.0
 11
121.4029393442
 21
105.6079187058
 31
0.0
  0
LINE
  5
17A
330
1F
100
AcDbEntity
  8
0
  6
Continuous
 62
     7
370
    25
100
AcDbLine
 10
137.3478151509
 20
134.9243322364
 30
0.0
 11
124.0263418784
 21
134.2553552634
 31
0.0
  0
SPLINE
  5
17B
330
1F
100
AcDbEntity
  8
0
  6
Continuous
 62
     7
370
    25
100
AcDbSpline
210
0.0
220
0.0
230
1.0
 70
     8
 71
     3
 72
    20
 73
    16
 74
     0
 42
0.000000001
 43
0.00000001
 40
0.0
 40
0.0
 40
0.0
 40
0.0
 40
0.0829621378684854
 40
0.1658495135106166
 40
0.2487180070857359
 40
0.3299477216398528
 40
0.4108693994445739
 40
0.4941953814850567
 40
0.5768901676626232
 40
0.6601065810557784
 40
0.7435845489350862
 40
0.8279858465401896
 40
0.9132590745392893
 40
0.9972257035811815
 40
1.0
 40
1.0
 40
1.0
 40
1.0
 10
110.4204132856784
 20
87.11933382336424
 30
0.0
 10
110.8061591217497
 20
87.1962522499684
 30
0.0
 10
111.5773031748669
 20
87.35001978730597
 30
0.0
 10
112.9850513260367
 20
87.5259350086915
 30
0.0
 10
114.4929026939113
 20
87.61993129602055
 30
0.0
 10
116.0653916689292
 20
87.59608691415394
 30
0.0
 10
117.6326887001412
 20
87.45218186925337
 30
0.0
 10
119.1284647269227
 20
87.20312426645432
 30
0.0
 10
120.5087186025954
 20
86.8884435739157
 30
0.0
 10
121.7063127856511
 20
86.54418222193516
 30
0.0
 10
122.6931748154733
 20
86.21513499611542
 30
0.0
 10
123.4404130616713
 20
85.93667408790766
 30
0.0
 10
123.8876144910369
 20
85.76481829287604
 30
0.0
 10
124.0743691031868
 20
85.69096762127758
 30
0.0
 10
124.0232708892887
 20
85.71111891235071
 30
0.0
 10
124.0216365789435
 20
85.71176342535725
 30
0.0
  0
SPLINE
  5
17C
330
1F
100
AcDbEntity
  8
0
  6
Continuous
 62
     7
370
    25
100
AcDbSpline
210
0.0
220
0.0
230
1.0
 70
     8
 71
     3
 72
    11
 73
     7
 74
     0
 42
0.000000001
 43
0.00000001
 40
0.0
 40
0.0
 40
0.0
 40
0.0
 40
0.2435512231731347
 40
0.4981153923403508
 40
0.7509097881719436
 40
0.9999999999999999
 40
0.9999999999999999
 40
0.9999999999999999
 40
0.9999999999999999
 10
108.1129191679348
 20
86.51067161398113
 30
0.0
 10
108.1388700894601
 20
86.51890715051927
 30
0.0
 10
108.1919453862652
 20
86.53575061966876
 30
0.0
 10
108.6696403699277
 20
86.67665206180628
 30
0.0
 10
109.3809798181944
 20
86.88194261225448
 30
0.0
 10
110.0756444653691
 20
87.0405937304517
 30
0.0
 10
110.4204132856784
 20
87.11933382336424
 30
0.0
  0
LINE
  5
17D
330
1F
100
AcDbEntity
  8
0
  6
Continuous
 62
     7
370
    25
100
AcDbLine
 10
121.4029393442
 20
105.6079187058
 30
0.0
 11
120.507997191
 21
105.7700941909
 31
0.0
  0
LINE
  5
17E
330
1F
100
AcDbEntity
  8
0
  6
Continuous
 62
     7
370
    25
100
AcDbLine
 10
120.507997191
 20
105.7700941909
 30
0.0
 11
120.507997191
 21
109.9825941909
 31
0.0
  0
SPLINE
  5
17F
330
1F
100
AcDbEntity
  8
0
  6
Continuous
 62
     7
370
    25
100
AcDbSpline
210
0.0
220
0.0
230
1.0
 70
     8
 71
     3
 72
    25
 73
    21
 74
     0
 42
0.000000001
 43
0.00000001
 40
0.0
 40
0.0
 40
0.0
 40
0.0
 40
0.0288821753116583
 40
0.0583636594024247
 40
0.088464720432864
 40
0.1192044006641432
 40
0.1506005800108822
 40
0.1826700399688414
 40
0.2154285269587146
 40
0.2488908143380118
 40
0.3610594471217245
 40
0.498467013106778
 40
0.5822693905006526
 40
0.6661127642782239
 40
0.7499972937224496
 40
0.8007709755032478
 40
0.8511237700807983
 40
0.901089602450676
 40
0.9507031914109089
 40
1.0
 40
1.0
 40
1.0
 40
1.0
 10
116.5079971909514
 20
101.7700941908711
 30
0.0
 10
116.5707976441902
 20
101.7709506748229
 30
0.0
 10
116.6977016679901
 20
101.7726814148766
 30
0.0
 10
116.8890560757045
 20
101.7868312802804
 30
0.0
 10
117.0829608883831
 20
101.8099683626018
 30
0.0
 10
117.2788616091115
 20
101.8433795148272
 30
0.0
 10
117.4761992771157
 20
101.88725333686
 30
0.0
 10
117.6743526189009
 20
101.9420486078293
 30
0.0
 10
117.872668362909
 20
102.0081175691929
 30
0.0
 10
118.2239893504116
 20
102.1460989014459
 30
0.0
 10
118.7491011207341
 20
102.426150840287
 30
0.0
 10
119.2860929492196
 20
102.8647414426954
 30
0.0
 10
119.698152679258
 20
103.3386015642421
 30
0.0
 10
119.9850712673105
 20
103.7702853120619
 30
0.0
 10
120.1834979545177
 20
104.1734085538221
 30
0.0
 10
120.315583828566
 20
104.531144714601
 30
0.0
 10
120.4012177083638
 20
104.8338971168834
 30
0.0
 10
120.4622999197169
 20
105.1423854271291
 30
0.0
 10
120.5008008630824
 20
105.4546971372855
 30
0.0
 10
120.5056035421758
 20
105.6651865511868
 30
0.0
 10
120.5079971909514
 20
105.7700941908711
 30
0.0
  0
SPLINE
  5
180
330
1F
100
AcDbEntity
  8
0
  6
Continuous
 62
     7
370
    25
100
AcDbSpline
210
0.0
220
0.0
230
1.0
 70
     8
 71
     3
 72
    13
 73
     9
 74
     0
 42
0.000000001
 43
0.00000001
 40
0.0
 40
0.0
 40
0.0
 40
0.0
 40
0.1722587823678385
 40
0.3421398271425444
 40
0.5097456258111679
 40
0.6751828993453325
 40
0.8385626190248169
 40
1.0
 40
1.0
 40
1.0
 40
1.0
 10
113.5080155598617
 20
101.9200890136209
 30
0.0
 10
113.5688789495342
 20
101.9038252859214
 30
0.0
 10
113.6897656139796
 20
101.8715223234406
 30
0.0
 10
113.8728267719521
 20
101.834134668747
 30
0.0
 10
114.0549294548927
 20
101.8050017338369
 30
0.0
 10
114.2358709032094
 20
101.7848150182315
 30
0.0
 10
114.4152099069056
 20
101.7723682139309
 30
0.0
 10
114.534056135319
 20
101.7708491707035
 30
0.0
 10
114.593123911662
 20
101.7700941908711
 30
0.0
  0
LINE
  5
181
330
1F
100
AcDbEntity
  8
0
  6
Continuous
 62
     7
370
    25
100
AcDbLine
 10
114.5481817585
 20
100.4725594664
 30
0.0
 11
114.5931239117
 21
101.7700941909
 31
0.0
  0
SPLINE
  5
182
330
1F
100
AcDbEntity
  8
0
  6
Continuous
 62
     7
370
    25
100
AcDbSpline
210
0.0
220
0.0
230
1.0
 70
     8
 71
     3
 72
    11
 73
     7
 74
     0
 42
0.000000001
 43
0.00000001
 40
0.0
 40
0.0
 40
0.0
 40
0.0
 40
0.2392913844325938
 40
0.5001130135003002
 40
0.7515028526498353
 40
0.9999999999999999
 40
0.9999999999999999
 40
0.9999999999999999
 40
0.9999999999999999
 10
113.1805246988055
 20
101.9206677958942
 30
0.0
 10
113.1116997628585
 20
101.8491143587395
 30
0.0
 10
112.9678573666853
 20
101.6995694632283
 30
0.0
 10
112.7601085683188
 20
101.4706520365828
 30
0.0
 10
112.5521223636976
 20
101.238333664343
 30
0.0
 10
112.4191214399274
 20
101.0835577817517
 30
0.0
 10
112.3530057957029
 20
101.0066176606018
 30
0.0
  0
SPLINE
  5
183
330
1F
100
AcDbEntity
  8
0
  6
Continuous
 62
     7
370
    25
100
AcDbSpline
210
0.0
220
0.0
230
1.0
 70
    24
 71
     3
 72
     9
 73
     5
 74
     0
 42
0.000000001
 43
0.00000001
 40
0.0
 40
0.0
 40
0.0
 40
0.0
 40
0.509083966986604
 40
1.0
 40
1.0
 40
1.0
 40
1.0
 10
113.1827549671249
 20
101.9200941908711
 30
0.0
 10
113.2374883672373
 20
101.9200941908711
 30
0.0
 10
113.3450018692561
 20
101.9200941908711
 30
0.0
 10
113.4543944296271
 20
101.9200941908711
 30
0.0
 10
113.5080969914056
 20
101.9200941908711
 30
0.0
  0
LINE
  5
184
330
1F
100
AcDbEntity
  8
0
  6
Continuous
 62
     7
370
    25
100
AcDbLine
 10
106.9341471025
 20
101.9000424171
 30
0.0
 11
106.9595615941
 21
101.0024842465
 31
0.0
  0
SPLINE
  5
185
330
1F
100
AcDbEntity
  8
0
  6
Continuous
 62
     7
370
    25
100
AcDbSpline
210
0.0
220
0.0
230
1.0
 70
     8
 71
     3
 72
     8
 73
     4
 74
     0
 42
0.000000001
 43
0.00000001
 40
0.0
 40
0.0
 40
0.0
 40
0.0
 40
1.0
 40
1.0
 40
1.0
 40
1.0
 10
106.9341582936796
 20
101.9000429072103
 30
0.0
 10
106.9559611501617
 20
101.905740238243
 30
0.0
 10
106.9777158595592
 20
101.911621821038
 30
0.0
 10
106.9994193148772
 20
101.917686815591
 30
0.0
  0
LINE
  5
186
330
1F
100
AcDbEntity
  8
0
  6
Continuous
 62
     7
370
    25
100
AcDbLine
 10
107.007997191
 20
101.9200941909
 30
0.0
 11
113.1816701633
 21
101.9200941909
 31
0.0
  0
LINE
  5
187
330
1F
100
AcDbEntity
  8
0
  6
Continuous
 62
     7
370
    25
100
AcDbLine
 10
114.5931239117
 20
101.7700941909
 30
0.0
 11
116.507997191
 21
101.7700941909
 31
0.0
  0
SPLINE
  5
188
330
1F
100
AcDbEntity
  8
0
  6
Continuous
 62
     7
370
    25
100
AcDbSpline
210
0.0
220
0.0
230
1.0
 70
     8
 71
     3
 72
    13
 73
     9
 74
     0
 42
0.000000001
 43
0.00000001
 40
0.0
 40
0.0
 40
0.0
 40
0.0
 40
0.1621004456571512
 40
0.325943455157606
 40
0.4915935308260523
 40
0.6591130873964648
 40
0.8285624736043361
 40
1.0
 40
1.0
 40
1.0
 40
1.0
 10
105.9228704702409
 20
101.7700941908711
 30
0.0
 10
105.9784254283064
 20
101.7707631570723
 30
0.0
 10
106.0901325547712
 20
101.7721082807957
 30
0.0
 10
106.2579802441649
 20
101.783054849587
 30
0.0
 10
106.4267666630333
 20
101.8006937789077
 30
0.0
 10
106.5960910195652
 20
101.8259992928956
 30
0.0
 10
106.7658376677425
 20
101.8583032956886
 30
0.0
 10
106.8778305664002
 20
101.8860748955746
 30
0.0
 10
106.9341536014299
 20
101.9000416810758
 30
0.0
  0
LINE
  5
189
330
1F
100
AcDbEntity
  8
0
  6
Continuous
 62
     7
370
    25
100
AcDbLine
 10
99.1443373694
 20
101.2425924469
 30
0.0
 11
100.057997191
 21
101.7700941909
 31
0.0
  0
LINE
  5
18A
330
1F
100
AcDbEntity
  8
0
  6
Continuous
 62
     7
370
    25
100
AcDbLine
 10
100.057997191
 20
101.7700941909
 30
0.0
 11
105.9228704702
 21
101.7700941909
 31
0.0
  0
SPLINE
  5
18B
330
1F
100
AcDbEntity
  8
0
  6
Continuous
 62
     7
370
    25
100
AcDbSpline
210
0.0
220
0.0
230
1.0
 70
     8
 71
     3
 72
     8
 73
     4
 74
     0
 42
0.000000001
 43
0.00000001
 40
0.0
 40
0.0
 40
0.0
 40
0.0
 40
1.0
 40
1.0
 40
1.0
 40
1.0
 10
100.0579971905005
 20
100.8602674794951
 30
0.0
 10
99.75344391679494
 20
100.9889583440419
 30
0.0
 10
99.4488906430894
 20
101.1164031003036
 30
0.0
 10
99.14433736938389
 20
101.2425924469413
 30
0.0
  0
LINE
  5
18C
330
1F
100
AcDbEntity
  8
0
  6
Continuous
 62
     7
370
    25
100
AcDbLine
 10
98.557997191
 20
87.7794994671
 30
0.0
 11
98.557997191
 21
100.9040687871
 31
0.0
  0
SPLINE
  5
18D
330
1F
100
AcDbEntity
  8
0
  6
Continuous
 62
     7
370
    25
100
AcDbSpline
210
0.0
220
0.0
230
1.0
 70
    24
 71
     3
 72
     8
 73
     4
 74
     0
 42
0.000000001
 43
0.00000001
 40
0.0
 40
0.0
 40
0.0
 40
0.0
 40
1.0
 40
1.0
 40
1.0
 40
1.0
 10
99.14433736938388
 20
101.2425924469413
 30
0.0
 10
98.94800534372553
 20
101.1292400990769
 30
0.0
 10
98.75254432348531
 20
101.0163906264252
 30
0.0
 10
98.5579971909514
 20
100.9040687870866
 30
0.0
  0
ARC
  5
18E
330
1F
100
AcDbEntity
  8
0
  6
Continuous
 62
     7
370
    25
100
AcDbCircle
 10
131.707997191
 20
127.4325941909
 30
0.0
 40
0.8000000000000114
100
AcDbArc
 50
0.0
 51
90.0
  0
ARC
  5
18F
330
1F
100
AcDbEntity
  8
0
  6
Continuous
 62
     7
370
    25
100
AcDbCircle
 10
130.2832376645
 20
127.4325941909
 30
0.0
 40
0.7999999999999972
100
AcDbArc
 50
90.0
 51
120.0
  0
LINE
  5
190
330
1F
100
AcDbEntity
  8
0
  6
Continuous
 62
     7
370
    25
100
AcDbLine
 10
130.2832376645
 20
128.2325941909
 30
0.0
 11
131.707997191
 21
128.2325941909
 31
0.0
  0
LINE
  5
191
330
1F
100
AcDbEntity
  8
0
  6
Continuous
 62
     7
370
    25
100
AcDbLine
 10
129.007997191
 20
127.6200941909
 30
0.0
 11
129.007997191
 21
109.9825941909
 31
0.0
  0
LINE
  5
192
330
1F
100
AcDbEntity
  8
0
  6
Continuous
 62
     7
370
    25
100
AcDbLine
 10
129.007997191
 20
127.6200941909
 30
0.0
 11
129.8832376645
 21
128.1254145139
 31
0.0
  0
LINE
  5
193
330
1F
100
AcDbEntity
  8
0
  6
Continuous
 62
     7
370
    25
100
AcDbLine
 10
99.3096632408
 20
101.3380433833
 30
0.0
 11
99.1731944684
 21
101.2592531008
 31
0.0
  0
SPLINE
  5
194
330
1F
100
AcDbEntity
  8
0
  6
Continuous
 62
     7
370
    25
100
AcDbSpline
210
0.0
220
0.0
230
1.0
 70
     8
 71
     3
 72
    32
 73
    28
 74
     0
 42
0.000000001
 43
0.00000001
 40
0.0
 40
0.0
 40
0.0
 40
0.0
 40
0.1250000000000002
 40
0.1250000000000002
 40
0.1874999999999999
 40
0.1874999999999999
 40
0.2499999999999995
 40
0.2499999999999995
 40
0.3124999999999991
 40
0.3124999999999991
 40
0.3749999999999988
 40
0.3749999999999988
 40
0.4999999999999987
 40
0.4999999999999987
 40
0.562499999999999
 40
0.562499999999999
 40
0.6249999999999993
 40
0.6249999999999993
 40
0.7499999999999996
 40
0.7499999999999996
 40
0.8124999999999997
 40
0.8124999999999997
 40
0.8749999999999998
 40
0.8749999999999998
 40
0.9374999999999999
 40
0.9374999999999999
 40
1.0
 40
1.0
 40
1.0
 40
1.0
 10
112.975627522292
 20
126.1552629450806
 30
0.0
 10
112.491553278338
 20
126.1556223377003
 30
0.0
 10
112.0081557077712
 20
126.1705815438816
 30
0.0
 10
111.2842503580351
 20
126.2175655903902
 30
0.0
 10
111.0435879244983
 20
126.2373421455148
 30
0.0
 10
110.5722418154227
 20
126.2843062290139
 30
0.0
 10
110.3404059991324
 20
126.3115600781984
 30
0.0
 10
109.8847029125761
 20
126.3731880068109
 30
0.0
 10
109.6608345896348
 20
126.4075631076064
 30
0.0
 10
109.221506997627
 20
126.4828825512595
 30
0.0
 10
109.0047896049606
 20
126.5241005020077
 30
0.0
 10
108.3784476262878
 20
126.6543373211885
 30
0.0
 10
107.9940549919344
 20
126.7493772330877
 30
0.0
 10
107.4665132463145
 20
126.8956441950401
 30
0.0
 10
107.2988790947834
 20
126.9450128302307
 30
0.0
 10
106.9804743475429
 20
127.043416537731
 30
0.0
 10
106.8308934730037
 20
127.0920998023635
 30
0.0
 10
106.4178734034553
 20
127.2317226055319
 30
0.0
 10
106.1863216322961
 20
127.3173092841124
 30
0.0
 10
105.9030121172065
 20
127.4262723320285
 30
0.0
 10
105.8194444354347
 20
127.459320984603
 30
0.0
 10
105.6775196031105
 20
127.5163243808433
 30
0.0
 10
105.6185314916679
 20
127.5405210864537
 30
0.0
 10
105.5238155879581
 20
127.5797233668328
 30
0.0
 10
105.4880876208113
 20
127.5947305333298
 30
0.0
 10
105.4401233430939
 20
127.6149395310567
 30
0.0
 10
105.4279970356604
 20
127.6200941908711
 30
0.0
 10
105.4279970356604
 20
127.6200941908711
 30
0.0
  0
SPLINE
  5
195
330
1F
100
AcDbEntity
  8
0
  6
Continuous
 62
     7
370
    25
100
AcDbSpline
210
0.0
220
0.0
230
1.0
 70
     8
 71
     3
 72
    31
 73
    27
 74
     0
 42
0.000000001
 43
0.00000001
 40
0.0
 40
0.0
 40
0.0
 40
0.0
 40
0.0161756722762516
 40
0.0323169137831891
 40
0.0484425619887048
 40
0.0645715089965088
 40
0.0807226353345217
 40
0.0969147439454887
 40
0.1131664955259458
 40
0.1294963463054456
 40
0.1459224892616117
 40
0.1624627996348591
 40
0.1791347854483568
 40
0.1959555435640281
 40
0.2945755146277851
 40
0.3932797312250729
 40
0.492817622193321
 40
0.5924285912823334
 40
0.693902091744813
 40
0.7927115381487326
 40
0.8267756331435502
 40
0.860804332496487
 40
0.8949846314009902
 40
0.9295010594357855
 40
0.9645328322468291
 40
1.0
 40
1.0
 40
1.0
 40
1.0
 10
123.9839465810355
 20
127.6200941908711
 30
0.0
 10
123.9832134805843
 20
127.6197477994431
 30
0.0
 10
123.9817488401248
 20
127.6190557538996
 30
0.0
 10
123.9686924604597
 20
127.6134733918533
 30
0.0
 10
123.9476778999369
 20
127.6046066288591
 30
0.0
 10
123.9179306945963
 20
127.5921655281442
 30
0.0
 10
123.8796583819406
 20
127.576274869589
 30
0.0
 10
123.8328057010195
 20
127.5569491257617
 30
0.0
 10
123.7773879709825
 20
127.5342330362423
 30
0.0
 10
123.7134020071521
 20
127.5081640318676
 30
0.0
 10
123.6408485230015
 20
127.4787815844994
 30
0.0
 10
123.5597318255218
 20
127.4461273371646
 30
0.0
 10
123.4700381707718
 20
127.4102348901302
 30
0.0
 10
123.2129923241153
 20
127.3079969824634
 30
0.0
 10
122.6849563385225
 20
127.1014727689967
 30
0.0
 10
121.7063216912763
 20
126.7643874556468
 30
0.0
 10
120.5204453883575
 20
126.421242596319
 30
0.0
 10
119.1499791232843
 20
126.1241306956584
 30
0.0
 10
117.6641218513197
 20
125.9140872679254
 30
0.0
 10
116.4439692175546
 20
125.8558618650569
 30
0.0
 10
115.5775451846098
 20
125.8695542063169
 30
0.0
 10
115.049300256133
 20
125.894922291928
 30
0.0
 10
114.5245270249268
 20
125.9369449076455
 30
0.0
 10
114.0035377853343
 20
125.9952288708736
 30
0.0
 10
113.4862968402759
 20
126.067852416119
 30
0.0
 10
113.150659727942
 20
126.1267327338088
 30
0.0
 10
112.9818047398803
 20
126.1563547123542
 30
0.0
  0
LINE
  5
196
330
1F
100
AcDbEntity
  8
0
  6
Continuous
 62
     7
370
    25
100
AcDbLine
 10
123.983946581
 20
127.6200941909
 30
0.0
 11
129.007997191
 21
127.6200941909
 31
0.0
  0
LINE
  5
197
330
1F
100
AcDbEntity
  8
0
  6
Continuous
 62
     7
370
    25
100
AcDbLine
 10
121.157997191
 20
114.0453676017
 30
0.0
 11
121.157997191
 21
109.9825941909
 31
0.0
  0
SPLINE
  5
198
330
1F
100
AcDbEntity
  8
0
  6
Continuous
 62
     7
370
    25
100
AcDbSpline
210
0.0
220
0.0
230
1.0
 70
     8
 71
     3
 72
    25
 73
    21
 74
     0
 42
0.000000001
 43
0.00000001
 40
0.0
 40
0.0
 40
0.0
 40
0.0
 40
0.0278144320063462
 40
0.0555680196245754
 40
0.083331625367772
 40
0.111176035216759
 40
0.1391714221532265
 40
0.1673868326284763
 40
0.1958897140434718
 40
0.2247454979318961
 40
0.254017249222145
 40
0.3796724410016501
 40
0.5056484635002454
 40
0.629752729069345
 40
0.7535891720571729
 40
0.8038564806093713
 40
0.853339684343451
 40
0.9023264398358534
 40
0.9511131859219439
 40
1.0
 40
1.0
 40
1.0
 40
1.0
 10
116.5079971909514
 20
118.5300907732361
 30
0.0
 10
116.5766525449137
 20
118.529557688129
 30
0.0
 10
116.7138130684664
 20
118.5284926840446
 30
0.0
 10
116.9190556510522
 20
118.5153977866523
 30
0.0
 10
117.1233766675493
 20
118.4938593000798
 30
0.0
 10
117.3267777196383
 20
118.4630378282312
 30
0.0
 10
117.5292533504841
 20
118.4231250757237
 30
0.0
 10
117.7308022147318
 20
118.3740248827828
 30
0.0
 10
117.9314162355345
 20
118.315711635271
 30
0.0
 10
118.1311139998668
 20
118.2481196924042
 30
0.0
 10
118.546678820546
 20
118.0873061762885
 30
0.0
 10
119.1494552370886
 20
117.7733292769472
 30
0.0
 10
119.8435117925935
 20
117.2097578014525
 30
0.0
 10
120.4102854219906
 20
116.5340135821985
 30
0.0
 10
120.7478632276619
 20
115.9166517547219
 30
0.0
 10
120.9363256369508
 20
115.4245903152119
 30
0.0
 10
121.0355868544752
 20
115.0869385326655
 30
0.0
 10
121.1059314431821
 20
114.744307390642
 30
0.0
 10
121.1499300417007
 20
114.3969426902004
 30
0.0
 10
121.155306305181
 20
114.1626393135935
 30
0.0
 10
121.1579971909514
 20
114.0453676016708
 30
0.0
  0
LINE
  5
199
330
1F
100
AcDbEntity
  8
0
  6
Continuous
 62
     7
370
    25
100
AcDbLine
 10
114.5931239117
 20
118.5300907732
 30
0.0
 11
116.507997191
 21
118.5300907732
 31
0.0
  0
SPLINE
  5
19A
330
1F
100
AcDbEntity
  8
0
  6
Continuous
 62
     7
370
    25
100
AcDbSpline
210
0.0
220
0.0
230
1.0
 70
     8
 71
     3
 72
    12
 73
     8
 74
     0
 42
0.000000001
 43
0.00000001
 40
0.0
 40
0.0
 40
0.0
 40
0.0
 40
0.1992838848975294
 40
0.3984605265796777
 40
0.5979968004971673
 40
0.7983570684833388
 40
1.0
 40
1.0
 40
1.0
 40
1.0
 10
113.592090069323
 20
118.4278964605126
 30
0.0
 10
113.6575433466234
 20
118.4409188132773
 30
0.0
 10
113.7884146780054
 20
118.4669565109195
 30
0.0
 10
113.9872641296291
 20
118.4953870698935
 30
0.0
 10
114.1876706455002
 20
118.515818230875
 30
0.0
 10
114.3898415629175
 20
118.5282573079456
 30
0.0
 10
114.5252191465685
 20
118.5294783195202
 30
0.0
 10
114.593123911662
 20
118.5300907732361
 30
0.0
  0
LINE
  5
19B
330
1F
100
AcDbEntity
  8
0
  6
Continuous
 62
     7
370
    25
100
AcDbLine
 10
108.1673270618
 20
118.4277325364
 30
0.0
 11
113.5913170803
 21
118.4277325364
 31
0.0
  0
SPLINE
  5
19C
330
1F
100
AcDbEntity
  8
0
  6
Continuous
 62
     7
370
    25
100
AcDbSpline
210
0.0
220
0.0
230
1.0
 70
     8
 71
     3
 72
    24
 73
    20
 74
     0
 42
0.000000001
 43
0.00000001
 40
0.0
 40
0.0
 40
0.0
 40
0.0
 40
0.0410257106287842
 40
0.0818520099077639
 40
0.1225800578354648
 40
0.1633117464058233
 40
0.2041489402806705
 40
0.2451927184749161
 40
0.2865426449235763
 40
0.3282960933646444
 40
0.370547647549383
 40
0.4133885920102291
 40
0.4569065022351533
 40
0.5011849368587563
 40
0.6001856774947433
 40
0.6987388860447942
 40
0.7976800645453981
 40
0.8978349910029445
 40
1.0
 40
1.0
 40
1.0
 40
1.0
 10
104.3953401548013
 20
120.365374353534
 30
0.0
 10
104.4583792427558
 20
120.3648396532189
 30
0.0
 10
104.5841510081377
 20
120.3637728515763
 30
0.0
 10
104.7720891696485
 20
120.3526293595781
 30
0.0
 10
104.9586792624731
 20
120.3344678612704
 30
0.0
 10
105.1439210450082
 20
120.308592940549
 30
0.0
 10
105.3278102282361
 20
120.2751560547374
 30
0.0
 10
105.5103438942089
 20
120.2340720331938
 30
0.0
 10
105.6915193011483
 20
120.1853092851002
 30
0.0
 10
105.8713340851244
 20
120.1288117969565
 30
0.0
 10
106.049787284204
 20
120.0645207021543
 30
0.0
 10
106.2268753223536
 20
119.9923670222219
 30
0.0
 10
106.4026074466394
 20
119.9122798371832
 30
0.0
 10
106.6476220802357
 20
119.7884389505008
 30
0.0
 10
106.9518051594179
 20
119.6098139683076
 30
0.0
 10
107.299112640863
 20
119.3607247842503
 30
0.0
 10
107.6182869043354
 20
119.0811551992707
 30
0.0
 10
107.9121988066001
 20
118.7723295612985
 30
0.0
 10
108.0817228932919
 20
118.5442375179967
 30
0.0
 10
108.1673270617748
 20
118.4290584299661
 30
0.0
  0
LINE
  5
19D
330
1F
100
AcDbEntity
  8
0
  6
Continuous
 62
     7
370
    25
100
AcDbLine
 10
101.6037984379
 20
120.3653743535
 30
0.0
 11
104.3953401548
 21
120.3653743535
 31
0.0
  0
SPLINE
  5
19E
330
1F
100
AcDbEntity
  8
0
  6
Continuous
 62
     7
370
    25
100
AcDbSpline
210
0.0
220
0.0
230
1.0
 70
     8
 71
     3
 72
     8
 73
     4
 74
     0
 42
0.000000001
 43
0.00000001
 40
0.0
 40
0.0
 40
0.0
 40
0.0
 40
1.0
 40
1.0
 40
1.0
 40
1.0
 10
101.5579943661927
 20
120.4288273445437
 30
0.0
 10
101.5732623900903
 20
120.4077108741456
 30
0.0
 10
101.5885304139881
 20
120.3865598070929
 30
0.0
 10
101.6037984378857
 20
120.365374353534
 30
0.0
  0
LINE
  5
19F
330
1F
100
AcDbEntity
  8
0
  6
Continuous
 62
     7
370
    25
100
AcDbLine
 10
101.557997191
 20
127.6200941909
 30
0.0
 11
101.557997191
 21
120.4288273445
 31
0.0
  0
LINE
  5
1A0
330
1F
100
AcDbEntity
  8
0
  6
Continuous
 62
     7
370
    25
100
AcDbLine
 10
101.557997191
 20
127.6200941909
 30
0.0
 11
105.4279970357
 21
127.6200941909
 31
0.0
  0
LINE
  5
1A1
330
1F
100
AcDbEntity
  8
0
  6
Continuous
 62
     7
370
    25
100
AcDbLine
 10
132.507997191
 20
125.5325941909
 30
0.0
 11
136.207997191
 21
125.5325941909
 31
0.0
  0
LINE
  5
1A2
330
1F
100
AcDbEntity
  8
0
  6
Continuous
 62
     7
370
    25
100
AcDbLine
 10
132.507997191
 20
125.5325941909
 30
0.0
 11
132.507997191
 21
109.9825941909
 31
0.0
  0
ARC
  5
1A3
330
1F
100
AcDbEntity
  8
0
  6
Continuous
 62
     7
370
    25
100
AcDbCircle
 10
136.207997191
 20
124.3325941909
 30
0.0
 40
1.199999999999989
100
AcDbArc
 50
0.0
 51
90.0
  0
ARC
  5
1A4
330
1F
100
AcDbEntity
  8
0
  6
Continuous
 62
     7
370
    25
100
AcDbCircle
 10
159.507997191
 20
125.4825941909
 30
0.0
 40
3.0
100
AcDbArc
 50
180.0
 51
270.0
  0
LINE
  5
1A5
330
1F
100
AcDbEntity
  8
0
  6
Continuous
 62
     7
370
    25
100
AcDbLine
 10
189.9299695089
 20
97.4825941909
 30
0.0
 11
189.9299695089
 21
109.9825941909
 31
0.0
  0
LINE
  5
1A6
330
1F
100
AcDbEntity
  8
0
  6
Continuous
 62
     7
370
    25
100
AcDbLine
 10
197.3532337144
 20
119.0210692433
 30
0.0
 11
189.9299695089
 21
122.4825941909
 31
0.0
  0
SPLINE
  5
1A7
330
1F
100
AcDbEntity
  8
0
  6
Continuous
 62
     7
370
    25
100
AcDbSpline
210
0.0
220
0.0
230
1.0
 70
     8
 71
     3
 72
     9
 73
     5
 74
     0
 42
0.000000001
 43
0.00000001
 40
0.0
 40
0.0
 40
0.0
 40
0.0
 40
0.8583839281885167
 40
1.0
 40
1.0
 40
1.0
 40
1.0
 10
178.107056757734
 20
122.4825941908711
 30
0.0
 10
178.1238655116689
 20
122.4759605675614
 30
0.0
 10
178.1434473717002
 20
122.4682325299178
 30
0.0
 10
178.3987280841852
 20
122.416765495113
 30
0.0
 10
178.4348799358965
 20
122.4094769358162
 30
0.0
  0
SPLINE
  5
1A8
330
1F
100
AcDbEntity
  8
0
  6
Continuous
 62
     7
370
    25
100
AcDbSpline
210
0.0
220
0.0
230
1.0
 70
     8
 71
     3
 72
     9
 73
     5
 74
     0
 42
0.000000001
 43
0.00000001
 40
0.0
 40
0.0
 40
0.0
 40
0.0
 40
0.1421318108914155
 40
1.0
 40
1.0
 40
1.0
 40
1.0
 10
183.5811275687715
 20
122.409463813051
 30
0.0
 10
183.617403118056
 20
122.4167778049699
 30
0.0
 10
183.8726278214983
 20
122.4682370235152
 30
0.0
 10
183.8921713111185
 20
122.475964787756
 30
0.0
 10
183.9089370491678
 20
122.4825941908711
 30
0.0
  0
LINE
  5
1A9
330
1F
100
AcDbEntity
  8
0
  6
Continuous
 62
     7
370
    25
100
AcDbLine
 10
178.1070567577
 20
122.4825941909
 30
0.0
 11
159.507997191
 21
122.4825941909
 31
0.0
  0
LINE
  5
1AA
330
1F
100
AcDbEntity
  8
0
  6
Continuous
 62
     7
370
    25
100
AcDbLine
 10
189.9299695089
 20
122.4825941909
 30
0.0
 11
183.9089370492
 21
122.4825941909
 31
0.0
  0
LINE
  5
1AB
330
1F
100
AcDbEntity
  8
0
  6
Continuous
 62
     7
370
    25
100
AcDbLine
 10
198.507997191
 20
102.7567347152
 30
0.0
 11
198.507997191
 21
109.9825941909
 31
0.0
  0
ARC
  5
1AC
330
1F
100
AcDbEntity
  8
0
  6
Continuous
 62
     7
370
    25
100
AcDbCircle
 10
196.507997191
 20
117.2084536693
 30
0.0
 40
2.000000000000001
100
AcDbArc
 50
0.0
 51
65.0
  0
LINE
  5
1AD
330
1F
100
AcDbEntity
  8
0
  6
Continuous
 62
     7
370
    25
100
AcDbLine
 10
141.232997191
 20
115.7325941909
 30
0.0
 11
142.057997191
 21
115.7325941909
 31
0.0
  0
LINE
  5
1AE
330
1F
100
AcDbEntity
  8
0
  6
Continuous
 62
     7
370
    25
100
AcDbLine
 10
137.807997191
 20
114.9825941909
 30
0.0
 11
137.807997191
 21
109.9825941909
 31
0.0
  0
LINE
  5
1AF
330
1F
100
AcDbEntity
  8
0
  6
Continuous
 62
     7
370
    25
100
AcDbLine
 10
137.407997191
 20
115.2135342985
 30
0.0
 11
137.807997191
 21
114.9825941909
 31
0.0
  0
LINE
  5
1B0
330
1F
100
AcDbEntity
  8
0
  6
Continuous
 62
     7
370
    25
100
AcDbLine
 10
137.407997191
 20
115.2135342985
 30
0.0
 11
137.407997191
 21
109.9825941909
 31
0.0
  0
LINE
  5
1B1
330
1F
100
AcDbEntity
  8
0
  6
Continuous
 62
     7
370
    25
100
AcDbLine
 10
137.807997191
 20
114.9825941909
 30
0.0
 11
141.232997191
 21
114.9825941909
 31
0.0
  0
LINE
  5
1B2
330
1F
100
AcDbEntity
  8
0
  6
Continuous
 62
     7
370
    25
100
AcDbLine
 10
141.232997191
 20
114.9825941909
 30
0.0
 11
141.232997191
 21
109.9825941909
 31
0.0
  0
LINE
  5
1B3
330
1F
100
AcDbEntity
  8
0
  6
Continuous
 62
     7
370
    25
100
AcDbLine
 10
165.60885781
 20
112.9825941909
 30
0.0
 11
165.60885781
 21
109.9825941909
 31
0.0
  0
LINE
  5
1B4
330
1F
100
AcDbEntity
  8
0
  6
Continuous
 62
     7
370
    25
100
AcDbLine
 10
165.007997191
 20
113.9825941909
 30
0.0
 11
165.007997191
 21
109.9825941909
 31
0.0
  0
LINE
  5
1B5
330
1F
100
AcDbEntity
  8
0
  6
Continuous
 62
     7
370
    25
100
AcDbLine
 10
165.007997191
 20
113.9825941909
 30
0.0
 11
165.60885781
 21
112.9825941909
 31
0.0
  0
LINE
  5
1B6
330
1F
100
AcDbEntity
  8
0
  6
Continuous
 62
     7
370
    25
100
AcDbLine
 10
142.057997191
 20
113.9825941909
 30
0.0
 11
165.007997191
 21
113.9825941909
 31
0.0
  0
LINE
  5
1B7
330
1F
100
AcDbEntity
  8
0
  6
Continuous
 62
     7
370
    25
100
AcDbLine
 10
142.057997191
 20
113.9825941909
 30
0.0
 11
142.057997191
 21
109.9825941909
 31
0.0
  0
ARC
  5
1B8
330
1F
100
AcDbEntity
  8
0
  6
Continuous
 62
     7
370
    25
100
AcDbCircle
 10
198.207997191
 20
113.2825941909
 30
0.0
 40
0.2999999999999972
100
AcDbArc
 50
270.0
 51
0.0
  0
LINE
  5
1B9
330
1F
100
AcDbEntity
  8
0
  6
Continuous
 62
     7
370
    25
100
AcDbLine
 10
198.507997191
 20
113.2825941909
 30
0.0
 11
198.507997191
 21
109.9825941909
 31
0.0
  0
SPLINE
  5
1BA
330
1F
100
AcDbEntity
  8
0
  6
Continuous
 62
     7
370
    25
100
AcDbSpline
210
0.0
220
0.0
230
1.0
 70
     8
 71
     3
 72
    16
 73
    12
 74
     0
 42
0.000000001
 43
0.00000001
 40
0.0
 40
0.0
 40
0.0
 40
0.0
 40
0.0761769176785019
 40
0.2357361056635337
 40
0.340653617949585
 40
0.4481506302707272
 40
0.5532558532905959
 40
0.6619845048709205
 40
0.794378406016388
 40
0.9304172324688224
 40
1.0
 40
1.0
 40
1.0
 40
1.0
 10
179.8970967272161
 20
111.9825941908711
 30
0.0
 10
179.9457553164278
 20
111.9546515228254
 30
0.0
 10
180.0963335582026
 20
111.868180503156
 30
0.0
 10
180.3416287451663
 20
111.7630979399141
 30
0.0
 10
180.6247090241337
 20
111.6787131191939
 30
0.0
 10
180.8786367915609
 20
111.639262207539
 30
0.0
 10
181.1398866297987
 20
111.6393998901464
 30
0.0
 10
181.4167712650455
 20
111.6828457321015
 30
0.0
 10
181.701249126581
 20
111.7742509342644
 30
0.0
 10
181.9432771635182
 20
111.8799619655865
 30
0.0
 10
182.071944681331
 20
111.9566446229432
 30
0.0
 10
182.115486032253
 20
111.9825941908711
 30
0.0
  0
LINE
  5
1BB
330
1F
100
AcDbEntity
  8
0
  6
Continuous
 62
     7
370
    25
100
AcDbLine
 10
183.507997191
 20
112.9825941909
 30
0.0
 11
198.207997191
 21
112.9825941909
 31
0.0
  0
LINE
  5
1BC
330
1F
100
AcDbEntity
  8
0
  6
Continuous
 62
     7
370
    25
100
AcDbLine
 10
165.60885781
 20
112.9825941909
 30
0.0
 11
178.507997191
 21
112.9825941909
 31
0.0
  0
SPLINE
  5
1BD
330
1F
100
AcDbEntity
  8
0
  6
Continuous
 62
     7
370
    25
100
AcDbSpline
210
0.0
220
0.0
230
1.0
 70
     8
 71
     3
 72
    37
 73
    33
 74
     0
 42
0.000000001
 43
0.00000001
 40
0.0
 40
0.0
 40
0.0
 40
0.0
 40
0.0114878548102799
 40
0.0231559765621647
 40
0.0350076484354353
 40
0.0470460033795304
 40
0.0592740307999908
 40
0.0716945830965779
 40
0.0843103820274646
 40
0.097124024879799
 40
0.1101379904320506
 40
0.1233546446979382
 40
0.1811510010973225
 40
0.2483631736114419
 40
0.2888373415819251
 40
0.3232297457604623
 40
0.3515392131491943
 40
0.3737664266256187
 40
0.439930028595385
 40
0.4987424063270025
 40
0.5023253005651626
 40
0.5613100074513715
 40
0.6252595444338135
 40
0.6818650083849789
 40
0.7483890016987896
 40
0.7860781471964678
 40
0.8194856599799777
 40
0.8486127715281717
 40
0.8734622727747415
 40
0.938992615660414
 40
0.9981523731393548
 40
1.0
 40
1.0
 40
1.0
 40
1.0
 10
123.3579971909514
 20
133.4462464942243
 30
0.0
 10
123.3570707396729
 20
133.4458029772159
 30
0.0
 10
123.3552032992808
 20
133.4449089835484
 30
0.0
 10
123.3399302389411
 20
133.4377170060901
 30
0.0
 10
123.3150285364772
 20
133.4262657624977
 30
0.0
 10
123.2791742645413
 20
133.4101160037232
 30
0.0
 10
123.2322067537037
 20
133.3893883241695
 30
0.0
 10
123.1736638432828
 20
133.3640498051678
 30
0.0
 10
123.1031857037052
 20
133.3341093846133
 30
0.0
 10
123.0204111394277
 20
133.2995654105712
 30
0.0
 10
122.9249945943095
 20
133.2604156689567
 30
0.0
 10
122.695425760921
 20
133.1677169977954
 30
0.0
 10
122.2110075469484
 20
132.978994107281
 30
0.0
 10
121.432007575403
 20
132.7009043073097
 30
0.0
 10
120.6407891239829
 20
132.4503174399804
 30
0.0
 10
120.0097386307401
 20
132.2753006786505
 30
0.0
 10
119.4567006744037
 20
132.1354660380515
 30
0.0
 10
118.6637427455072
 20
131.9550551927055
 30
0.0
 10
117.5934084051741
 20
131.7659888710633
 30
0.0
 10
116.6124181257388
 20
131.6607020633537
 30
0.0
 10
115.6844508966193
 20
131.6036692914006
 30
0.0
 10
114.7119954028588
 20
131.5890746930309
 30
0.0
 10
113.3858651974255
 20
131.6672679095221
 30
0.0
 10
112.1158297129317
 20
131.8277476311163
 30
0.0
 10
111.1560537122621
 20
132.0128591693299
 30
0.0
 10
110.4574020649173
 20
132.18034877306
 30
0.0
 10
110.0135939267622
 20
132.2939719792683
 30
0.0
 10
109.6810568648322
 20
132.3871558141769
 30
0.0
 10
109.293898454589
 20
132.5018206784355
 30
0.0
 10
108.9566504924771
 20
132.6091664874955
 30
0.0
 10
108.8589264261483
 20
132.6467320607821
 30
0.0
 10
108.8580245058763
 20
132.6468634695986
 30
0.0
 10
108.8579971909514
 20
132.6468674493539
 30
0.0
  0
LINE
  5
1BE
330
1F
100
AcDbEntity
  8
0
  6
Continuous
 62
     7
370
    25
100
AcDbLine
 10
123.357997191
 20
133.4462464942
 30
0.0
 11
123.357997191
 21
128.0888202116
 31
0.0
  0
SPLINE
  5
1BF
330
1F
100
AcDbEntity
  8
0
  6
Continuous
 62
     7
370
    25
100
AcDbSpline
210
0.0
220
0.0
230
1.0
 70
     8
 71
     3
 72
    30
 73
    26
 74
     0
 42
0.000000001
 43
0.00000001
 40
0.0
 40
0.0
 40
0.0
 40
0.0
 40
0.0192411700742056
 40
0.0381353539376964
 40
0.0566868884861289
 40
0.0749003554931371
 40
0.0927805967284126
 40
0.1103327298326406
 40
0.127562164928992
 40
0.1444746219341848
 40
0.2455865830532022
 40
0.3577720192516864
 40
0.4505017408956519
 40
0.5720127868619944
 40
0.6168069840200017
 40
0.6590088499432826
 40
0.6986242498774748
 40
0.7356603299341613
 40
0.7701258931915136
 40
0.8073679165907882
 40
0.8483950324891437
 40
0.8881367798820078
 40
0.9266264622110474
 40
0.9639007443615107
 40
1.0
 40
1.0
 40
1.0
 40
1.0
 10
114.1871786003393
 20
126.4247289012791
 30
0.0
 10
114.270211080219
 20
126.4136017959542
 30
0.0
 10
114.4347786712918
 20
126.3915482462881
 30
0.0
 10
114.6826601869723
 20
126.3634963570254
 30
0.0
 10
114.9279368624147
 20
126.3395448264995
 30
0.0
 10
115.170494696026
 20
126.3200148743062
 30
0.0
 10
115.4099293731349
 20
126.3048225821295
 30
0.0
 10
115.645942568542
 20
126.2939910208986
 30
0.0
 10
115.8782606138527
 20
126.2875104556455
 30
0.0
 10
116.4868113834768
 20
126.2818789640594
 30
0.0
 10
117.5251238806968
 20
126.3418523635441
 30
0.0
 10
118.8404754087981
 20
126.5412748367189
 30
0.0
 10
120.1200206216896
 20
126.8467561974027
 30
0.0
 10
121.0114611657798
 20
127.1266990003216
 30
0.0
 10
121.6291260346408
 20
127.354148096837
 30
0.0
 10
121.9724491199241
 20
127.484426757337
 30
0.0
 10
122.2641402048196
 20
127.600517695295
 30
0.0
 10
122.5086855606454
 20
127.7018859246983
 30
0.0
 10
122.7210402410848
 20
127.7932239772159
 30
0.0
 10
122.9121032157095
 20
127.8772990611631
 30
0.0
 10
123.0773506198819
 20
127.9522920151283
 30
0.0
 10
123.2068911701261
 20
128.013280514674
 30
0.0
 10
123.2952575393486
 20
128.0565181764395
 30
0.0
 10
123.3484033846122
 20
128.0837482623183
 30
0.0
 10
123.3548335805534
 20
128.0871477084483
 30
0.0
 10
123.3579971909514
 20
128.0888202116227
 30
0.0
  0
SPLINE
  5
1C0
330
1F
100
AcDbEntity
  8
0
  6
Continuous
 62
     7
370
    25
100
AcDbSpline
210
0.0
220
0.0
230
1.0
 70
     8
 71
     3
 72
    38
 73
    34
 74
     0
 42
0.000000001
 43
0.00000001
 40
0.0
 40
0.0
 40
0.0
 40
0.0
 40
0.1250000000000009
 40
0.1250000000000009
 40
0.2500000000000019
 40
0.2500000000000019
 40
0.3125000000000021
 40
0.3125000000000021
 40
0.3750000000000024
 40
0.3750000000000024
 40
0.4375000000000027
 40
0.4375000000000027
 40
0.500000000000003
 40
0.500000000000003
 40
0.5625000000000033
 40
0.5625000000000033
 40
0.6250000000000037
 40
0.6250000000000037
 40
0.6875000000000041
 40
0.6875000000000041
 40
0.7187500000000037
 40
0.7187500000000037
 40
0.7500000000000032
 40
0.7500000000000032
 40
0.7812500000000028
 40
0.7812500000000028
 40
0.8125000000000023
 40
0.8125000000000023
 40
0.8750000000000016
 40
0.8750000000000016
 40
0.9375000000000009
 40
0.9375000000000009
 40
1.0
 40
1.0
 40
1.0
 40
1.0
 10
108.8579971909514
 20
132.518642075775
 30
0.0
 10
108.8579971909516
 20
132.5186420757749
 30
0.0
 10
108.9198029485151
 20
132.495997993113
 30
0.0
 10
109.1694254939506
 20
132.4034136040569
 30
0.0
 10
109.3531531248888
 20
132.3350260241042
 30
0.0
 10
109.7095419614739
 20
132.1991839249023
 30
0.0
 10
109.8427024229794
 20
132.1479909398458
 30
0.0
 10
110.1337814336758
 20
132.0343023347334
 30
0.0
 10
110.2902713851851
 20
131.972375727227
 30
0.0
 10
110.623652826473
 20
131.8374906185365
 30
0.0
 10
110.8005565848362
 20
131.7645523642499
 30
0.0
 10
111.1737982323095
 20
131.605576429454
 30
0.0
 10
111.3715422231906
 20
131.5189366595775
 30
0.0
 10
111.7775656564437
 20
131.332018987025
 30
0.0
 10
111.9856190498307
 20
131.231984073216
 30
0.0
 10
112.4079133225649
 20
131.012720523037
 30
0.0
 10
112.6222786256399
 20
130.8937173313723
 30
0.0
 10
113.0501209372193
 20
130.6234434810485
 30
0.0
 10
113.2665225883259
 20
130.4701946555368
 30
0.0
 10
113.565155031206
 20
130.2041261319536
 30
0.0
 10
113.6603476206757
 20
130.1093538856808
 30
0.0
 10
113.8379728725325
 20
129.9035970284909
 30
0.0
 10
113.9205871831609
 20
129.7917384867203
 30
0.0
 10
114.0626674581824
 20
129.5582229824979
 30
0.0
 10
114.1230530074274
 20
129.4356619165422
 30
0.0
 10
114.2225034995822
 20
129.179191153317
 30
0.0
 10
114.261794938607
 20
129.0439511397672
 30
0.0
 10
114.34849152476
 20
128.6356691368028
 30
0.0
 10
114.3671998517547
 20
128.3594089590178
 30
0.0
 10
114.363703831123
 20
127.8026611803822
 30
0.0
 10
114.3412242109144
 20
127.5244309363914
 30
0.0
 10
114.2755965631323
 20
126.9730451162067
 30
0.0
 10
114.2320990194429
 20
126.6987914471043
 30
0.0
 10
114.1826194723328
 20
126.4253619751426
 30
0.0
  0
LINE
  5
1C1
330
1F
100
AcDbEntity
  8
0
  6
Continuous
 62
     7
370
    25
100
AcDbLine
 10
108.857997191
 20
132.5186420758
 30
0.0
 11
108.857997191
 21
132.6468674493
 31
0.0
  0
SPLINE
  5
1C2
330
1F
100
AcDbEntity
  8
0
  6
Continuous
 62
     7
370
    25
100
AcDbSpline
210
0.0
220
0.0
230
1.0
 70
     8
 71
     3
 72
    14
 73
    10
 74
     0
 42
0.000000001
 43
0.00000001
 40
0.0
 40
0.0
 40
0.0
 40
0.0
 40
0.0003951392850831
 40
0.0003951392850831
 40
0.0003951392850831
 40
0.0008159035679249
 40
0.0008159035679249
 40
0.0008159035679249
 40
0.0012369936130997
 40
0.0012369936130997
 40
0.0012369936130997
 40
0.0012369936130997
 10
112.9858811406829
 20
126.1575671878714
 30
0.0
 10
113.1143903787897
 20
126.1864411555848
 30
0.0
 10
113.2429538865187
 20
126.2151293690611
 30
0.0
 10
113.3715042648021
 20
126.2436322130986
 30
0.0
 10
113.5083895124656
 20
126.2739831067893
 30
0.0
 10
113.6452851583655
 20
126.3041290718183
 30
0.0
 10
113.7821054197145
 20
126.3340808913868
 30
0.0
 10
113.9190314086594
 20
126.3640558561667
 30
0.0
 10
114.0559084806236
 20
126.3938419056119
 30
0.0
 10
114.1926453298107
 20
126.4234643787806
 30
0.0
  0
LINE
  5
1C3
330
1F
100
AcDbEntity
  8
0
  6
Continuous
 62
     7
370
    25
100
AcDbLine
 10
105.4279970357
 20
127.6200941909
 30
0.0
 11
108.857997191
 21
132.5186420758
 31
0.0
  0
LINE
  5
1C4
330
1F
100
AcDbEntity
  8
0
  6
Continuous
 62
     7
370
    25
100
AcDbLine
 10
178.507997191
 20
122.1569143314
 30
0.0
 11
178.507997191
 21
112.9825941909
 31
0.0
  0
LINE
  5
1C5
330
1F
100
AcDbEntity
  8
0
  6
Continuous
 62
     7
370
    25
100
AcDbLine
 10
183.507997191
 20
112.9825941909
 30
0.0
 11
183.507997191
 21
122.1569144365
 31
0.0
  0
LINE
  5
1C6
330
1F
100
AcDbEntity
  8
0
  6
Continuous
 62
     7
370
    25
100
AcDbLine
 10
108.1084353426
 20
133.4559799005
 30
0.0
 11
108.8580253215
 21
132.6468685628
 31
0.0
  0
LINE
  5
1C7
330
1F
100
AcDbEntity
  8
0
  6
Continuous
 62
     7
370
    25
100
AcDbLine
 10
123.3580101391
 20
133.4462467501
 30
0.0
 11
124.026340285
 21
134.2553585724
 31
0.0
  0
LINE
  5
1C8
330
1F
100
AcDbEntity
  8
0
  6
Continuous
 62
     7
370
    25
100
AcDbLine
 10
99.3096632408
 20
128.9181704022
 30
0.0
 11
101.557997191
 21
127.6200941909
 31
0.0
  0
LINE
  5
1C9
330
1F
100
AcDbEntity
  8
0
  6
Continuous
 62
     7
370
    25
100
AcDbLine
 10
98.557997191
 20
130.2200941909
 30
0.0
 11
99.3096632408
 21
128.9181704022
 31
0.0
  0
LINE
  5
1CA
330
1F
100
AcDbEntity
  8
0
  6
Continuous
 62
     7
370
    25
100
AcDbLine
 10
98.557997191
 20
132.1856889147
 30
0.0
 11
98.557997191
 21
130.2200941909
 31
0.0
  0
LINE
  5
1CB
330
1F
100
AcDbEntity
  8
0
  6
Continuous
 62
     7
370
    25
100
AcDbLine
 10
100.057997191
 20
133.0517143185
 30
0.0
 11
98.557997191
 21
132.1856889147
 31
0.0
  0
ARC
  5
1CC
330
1F
100
AcDbEntity
  8
0
  6
Continuous
 62
     7
370
    25
100
AcDbCircle
 10
147.532997191
 20
138.8325941909
 30
0.0
 40
1.0
100
AcDbArc
 50
180.0
 51
270.0
  0
LINE
  5
1CD
330
1F
100
AcDbEntity
  8
0
  6
Continuous
 62
     7
370
    25
100
AcDbLine
 10
149.282997191
 20
137.8325941909
 30
0.0
 11
147.532997191
 21
137.8325941909
 31
0.0
  0
ARC
  5
1CE
330
1F
100
AcDbEntity
  8
0
  6
Continuous
 62
     7
370
    25
100
AcDbCircle
 10
149.282997191
 20
138.8325941909
 30
0.0
 40
1.0
100
AcDbArc
 50
270.0
 51
0.0
  0
LINE
  5
1CF
330
1F
100
AcDbEntity
  8
0
  6
Continuous
 62
     7
370
    25
100
AcDbLine
 10
150.282997191
 20
138.9301894551
 30
0.0
 11
150.282997191
 21
138.8325941909
 31
0.0
  0
LINE
  5
1D0
330
1F
100
AcDbEntity
  8
0
  6
Continuous
 62
     7
370
    25
100
AcDbLine
 10
151.7421949955
 20
141.4575941909
 30
0.0
 11
150.282997191
 21
138.9301894551
 31
0.0
  0
LINE
  5
1D1
330
1F
100
AcDbEntity
  8
0
  6
Continuous
 62
     7
370
    25
100
AcDbLine
 10
178.1070570047
 20
122.4825939719
 30
0.0
 11
178.5079981227
 21
122.1569144258
 31
0.0
  0
LINE
  5
1D2
330
1F
100
AcDbEntity
  8
0
  6
Continuous
 62
     7
370
    25
100
AcDbLine
 10
123.9839463327
 20
127.6200954812
 30
0.0
 11
123.3580003192
 21
128.0888203365
 31
0.0
  0
LINE
  5
1D3
330
1F
100
AcDbEntity
  8
0
  6
Continuous
 62
     7
370
    25
100
AcDbLine
 10
146.532997191
 20
138.9301894551
 30
0.0
 11
145.0737993864
 21
141.4575941909
 31
0.0
  0
LINE
  5
1D4
330
1F
100
AcDbEntity
  8
0
  6
Continuous
 62
     7
370
    25
100
AcDbLine
 10
146.532997191
 20
138.8325941909
 30
0.0
 11
146.532997191
 21
138.9301894551
 31
0.0
  0
LINE
  5
1D5
330
1F
100
AcDbEntity
  8
0
  6
Continuous
 62
     7
370
    25
100
AcDbLine
 10
141.232997191
 20
114.9825941909
 30
0.0
 11
141.232997191
 21
115.7325941909
 31
0.0
  0
LINE
  5
1D6
330
1F
100
AcDbEntity
  8
0
  6
Continuous
 62
     7
370
    25
100
AcDbLine
 10
142.057997191
 20
115.7325941909
 30
0.0
 11
142.057997191
 21
113.9825941909
 31
0.0
  0
LINE
  5
1D7
330
1F
100
AcDbEntity
  8
0
  6
Continuous
 62
     7
370
    25
100
AcDbLine
 10
137.407997191
 20
124.3325941909
 30
0.0
 11
137.407997191
 21
115.2135342985
 31
0.0
  0
LINE
  5
1D8
330
1F
100
AcDbEntity
  8
0
  6
Continuous
 62
     7
370
    25
100
AcDbLine
 10
132.507997191
 20
127.4325941909
 30
0.0
 11
132.507997191
 21
125.5325941909
 31
0.0
  0
LINE
  5
1D9
330
1F
100
AcDbEntity
  8
0
  6
Continuous
 62
     7
370
    25
100
AcDbLine
 10
138.507997191
 20
141.2575941909
 30
0.0
 11
138.507997191
 21
136.8325941909
 31
0.0
  0
LINE
  5
1DA
330
1F
100
AcDbEntity
  8
0
  6
Continuous
 62
     7
370
    25
100
AcDbLine
 10
156.507997191
 20
125.4825941909
 30
0.0
 11
156.507997191
 21
141.4575941909
 31
0.0
  0
LINE
  5
1DB
330
1F
100
AcDbEntity
  8
0
  6
Continuous
 62
     7
370
    25
100
AcDbLine
 10
183.5079961572
 20
122.1569143904
 30
0.0
 11
183.9089372589
 21
122.4825939355
 31
0.0
  0
LINE
  5
1DC
330
1F
100
AcDbEntity
  8
0
  6
Continuous
 62
     7
370
    25
100
AcDbLine
 10
198.507997191
 20
113.2825941909
 30
0.0
 11
198.507997191
 21
117.2084536693
 31
0.0
  0
SPLINE
  5
1DD
330
1F
100
AcDbEntity
  8
0
  6
Continuous
 62
     7
370
    25
100
AcDbSpline
210
0.0
220
0.0
230
1.0
 70
     8
 71
     3
 72
     9
 73
     5
 74
     0
 42
0.000000001
 43
0.00000001
 40
0.0
 40
0.0
 40
0.0
 40
0.0
 40
0.5102121239851395
 40
0.9999999999999999
 40
0.9999999999999999
 40
0.9999999999999999
 40
0.9999999999999999
 10
99.36236058762252
 20
120.4442207075229
 30
0.0
 10
99.7372226446013
 20
120.4417307901412
 30
0.0
 10
100.4719406949111
 20
120.4368506289992
 30
0.0
 10
101.2009412853678
 20
120.4314657376128
 30
0.0
 10
101.5579969361812
 20
120.4288282830981
 30
0.0
  0
LINE
  5
1DE
330
1F
100
AcDbEntity
  8
0
  6
Continuous
 62
     7
370
    25
100
AcDbLine
 10
99.3096632408
 20
120.4746449984
 30
0.0
 11
99.3623605895
 21
120.44422017
 31
0.0
  0
LINE
  5
1DF
330
1F
100
AcDbEntity
  8
0
  6
Continuous
 62
     7
370
    25
100
AcDbLine
 10
99.3096632408
 20
128.9181704022
 30
0.0
 11
99.3096632408
 21
120.4746449984
 31
0.0
  0
SPLINE
  5
1E0
330
1F
100
AcDbEntity
  8
0
  6
Continuous
 62
     7
370
    25
100
AcDbSpline
210
0.0
220
0.0
230
1.0
 70
    24
 71
     3
 72
     8
 73
     4
 74
     0
 42
0.000000001
 43
0.00000001
 40
0.0000004089325119
 40
0.0000004089325119
 40
0.0000004089325119
 40
0.0000004089325119
 40
0.0015399868451459
 40
0.0015399868451459
 40
0.0015399868451459
 40
0.0015399868451459
 10
98.55799719095141
 20
120.9086195946555
 30
0.0
 10
98.80898826697587
 20
120.7637098293486
 30
0.0
 10
99.05957746347882
 20
120.6190320892916
 30
0.0
 10
99.30966324079097
 20
120.4746449984399
 30
0.0
  0
LINE
  5
1E1
330
1F
100
AcDbEntity
  8
0
  6
Continuous
 62
     7
370
    25
100
AcDbLine
 10
98.557997191
 20
130.2200941909
 30
0.0
 11
98.557997191
 21
120.9086195947
 31
0.0
  0
SPLINE
  5
1E2
330
1F
100
AcDbEntity
  8
0
  6
Continuous
 62
     7
370
    25
100
AcDbSpline
210
0.0
220
0.0
230
1.0
 70
     8
 71
     3
 72
     8
 73
     4
 74
     0
 42
0.000000001
 43
0.00000001
 40
0.0
 40
0.0
 40
0.0
 40
0.0
 40
1.0
 40
1.0
 40
1.0
 40
1.0
 10
101.6876789337082
 20
120.0425948686076
 30
0.0
 10
101.6597307135886
 20
120.1504112225831
 30
0.0
 10
101.6317706254199
 20
120.2580050727494
 30
0.0
 10
101.6037984378857
 20
120.365374353534
 30
0.0
  0
LINE
  5
1E3
330
1F
100
AcDbEntity
  8
0
  6
Continuous
 62
     7
370
    25
100
AcDbLine
 10
101.6876820723
 20
120.0425941909
 30
0.0
 11
100.0579964042
 21
120.0425941909
 31
0.0
  0
LINE
  5
1E4
330
1F
100
AcDbEntity
  8
0
  6
Continuous
 62
     7
370
    25
100
AcDbLine
 10
100.0579966041
 20
120.0425945297
 30
0.0
 11
99.3623601261
 21
120.4442204375
 31
0.0
  0
LINE
  5
1E5
330
1F
100
AcDbEntity
  8
0
  6
Continuous
 62
     7
370
    25
100
AcDbLine
 10
108.1119580882
 20
118.0450941909
 30
0.0
 11
107.8597864602
 21
118.0450941909
 31
0.0
  0
SPLINE
  5
1E6
330
1F
100
AcDbEntity
  8
0
  6
Continuous
 62
     7
370
    25
100
AcDbSpline
210
0.0
220
0.0
230
1.0
 70
     8
 71
     3
 72
    26
 73
    22
 74
     0
 42
0.000000001
 43
0.00000001
 40
0.0
 40
0.0
 40
0.0
 40
0.0
 40
0.0524616379932503
 40
0.1026498591890872
 40
0.150565513457809
 40
0.1962095861957063
 40
0.2395832262568645
 40
0.2806877815599511
 40
0.3195248450380211
 40
0.3560963147430692
 40
0.3904044736547445
 40
0.4224520974433627
 40
0.4522426027417772
 40
0.4797802555366611
 40
0.5050704712281336
 40
0.5966394156799991
 40
0.6841917884819224
 40
0.7679874773571101
 40
0.8483228539139507
 40
0.925534163520116
 40
1.0
 40
1.0
 40
1.0
 40
1.0
 10
107.857979966282
 20
118.0451239749064
 30
0.0
 10
107.8223435672507
 20
118.1046708949887
 30
0.0
 10
107.7526150669123
 20
118.2211842787753
 30
0.0
 10
107.6391369061525
 20
118.3855822395045
 30
0.0
 10
107.5236113564274
 20
118.5377439773061
 30
0.0
 10
107.4064896604173
 20
118.6776466742386
 30
0.0
 10
107.2891179599379
 20
118.8058609981427
 30
0.0
 10
107.1724969939043
 20
118.922876677083
 30
0.0
 10
107.0575940734592
 20
119.0292538323271
 30
0.0
 10
106.9452698477699
 20
119.1255699128014
 30
0.0
 10
106.8363008737351
 20
119.2124192593539
 30
0.0
 10
106.7313818328984
 20
119.2903994415477
 30
0.0
 10
106.6311245069496
 20
119.3601076386007
 30
0.0
 10
106.5360871643665
 20
119.4221176275018
 30
0.0
 10
106.3659802599357
 20
119.5266040647676
 30
0.0
 10
106.1130612285307
 20
119.661662731282
 30
0.0
 10
105.7670800714695
 20
119.8060496236991
 30
0.0
 10
105.4191215221452
 20
119.9150175359441
 30
0.0
 10
105.0729817617691
 20
119.9895471182808
 30
0.0
 10
104.731916978335
 20
120.0344758228302
 30
0.0
 10
104.5061703668194
 20
120.0399209216847
 30
0.0
 10
104.3953401548013
 20
120.0425941908711
 30
0.0
  0
SPLINE
  5
1E7
330
1F
100
AcDbEntity
  8
0
  6
Continuous
 62
     7
370
    25
100
AcDbSpline
210
0.0
220
0.0
230
1.0
 70
     8
 71
     3
 72
     8
 73
     4
 74
     0
 42
0.000000001
 43
0.00000001
 40
0.0
 40
0.0
 40
0.0
 40
0.0
 40
1.0
 40
1.0
 40
1.0
 40
1.0
 10
108.1119580881839
 20
118.0450941908709
 30
0.0
 10
108.1409627946115
 20
118.1690319177332
 30
0.0
 10
108.1599953142929
 20
118.2969840479665
 30
0.0
 10
108.1682469064846
 20
118.428053360658
 30
0.0
  0
LINE
  5
1E8
330
1F
100
AcDbEntity
  8
0
  6
Continuous
 62
     7
370
    25
100
AcDbLine
 10
104.3953401548
 20
120.0425941909
 30
0.0
 11
101.6876820723
 21
120.0425941909
 31
0.0
  0
LINE
  5
1E9
330
1F
100
AcDbEntity
  8
0
  6
Continuous
 62
     7
370
    25
100
AcDbLine
 10
121.157997191
 20
114.0453676017
 30
0.0
 11
120.507997191
 21
114.1950941909
 31
0.0
  0
SPLINE
  5
1EA
330
1F
100
AcDbEntity
  8
0
  6
Continuous
 62
     7
370
    25
100
AcDbSpline
210
0.0
220
0.0
230
1.0
 70
     8
 71
     3
 72
    26
 73
    22
 74
     0
 42
0.000000001
 43
0.00000001
 40
0.0
 40
0.0
 40
0.0
 40
0.0
 40
0.0305951740572542
 40
0.0629166281868252
 40
0.0969720532897518
 40
0.1327680143285475
 40
0.1703101548822826
 40
0.2096033578521445
 40
0.2506518729756858
 40
0.3342141733898277
 40
0.4179517165474626
 40
0.5018670561020881
 40
0.5659795686746639
 40
0.6277136397870199
 40
0.687135819210908
 40
0.7443207393864881
 40
0.7993521466017559
 40
0.8523240127975756
 40
0.903341702807647
 40
0.9525231537633125
 40
1.0
 40
1.0
 40
1.0
 40
1.0
 10
120.5079971909514
 20
114.1950941908711
 30
0.0
 10
120.5070889791068
 20
114.2596293582583
 30
0.0
 10
120.5052213111263
 20
114.3923409788516
 30
0.0
 10
120.4896287220647
 20
114.5951550703753
 30
0.0
 10
120.4629848608776
 20
114.8068681112756
 30
0.0
 10
120.4228304317991
 20
115.0265801046486
 30
0.0
 10
120.367932315116
 20
115.2533269755199
 30
0.0
 10
120.2966893465042
 20
115.4859579793029
 30
0.0
 10
120.1782769522217
 20
115.8013562937796
 30
0.0
 10
119.9901460558138
 20
116.1858381923145
 30
0.0
 10
119.7061292925792
 20
116.6158658068441
 30
0.0
 10
119.3967113360295
 20
116.9743525191849
 30
0.0
 10
119.0808017252279
 20
117.2661191754744
 30
0.0
 10
118.7740563171046
 20
117.4985782623115
 30
0.0
 10
118.4556372032824
 20
117.6953884968755
 30
0.0
 10
118.1296663271254
 20
117.8574891991338
 30
0.0
 10
117.8001274920002
 20
117.9859590826134
 30
0.0
 10
117.4705655771536
 20
118.0825429019864
 30
0.0
 10
117.1441472538544
 20
118.1483951312726
 30
0.0
 10
116.8236290615505
 20
118.187960079098
 30
0.0
 10
116.6119635480197
 20
118.1927442773134
 30
0.0
 10
116.5079971909514
 20
118.1950941908711
 30
0.0
  0
SPLINE
  5
1EB
330
1F
100
AcDbEntity
  8
0
  6
Continuous
 62
     7
370
    25
100
AcDbSpline
210
0.0
220
0.0
230
1.0
 70
     8
 71
     3
 72
    13
 73
     9
 74
     0
 42
0.000000001
 43
0.00000001
 40
0.0
 40
0.0
 40
0.0
 40
0.0
 40
0.1604061687300809
 40
0.3231296684563272
 40
0.4883154213007764
 40
0.6561019685773533
 40
0.8266215117792448
 40
1.0
 40
1.0
 40
1.0
 40
1.0
 10
114.593123911662
 20
118.1950941908711
 30
0.0
 10
114.5340739601468
 20
118.1943386208331
 30
0.0
 10
114.4151209834221
 20
118.1928165653049
 30
0.0
 10
114.2358673498162
 20
118.1803715061774
 30
0.0
 10
114.0549343681286
 20
118.1601873250467
 30
0.0
 10
113.8728058737298
 20
118.1310519589061
 30
0.0
 10
113.6896388659355
 20
118.0936358070869
 30
0.0
 10
113.5688995510611
 20
118.0613699347299
 30
0.0
 10
113.5080280194762
 20
118.0451028797914
 30
0.0
  0
SPLINE
  5
1EC
330
1F
100
AcDbEntity
  8
0
  6
Continuous
 62
     7
370
    25
100
AcDbSpline
210
0.0
220
0.0
230
1.0
 70
    24
 71
     3
 72
    10
 73
     6
 74
     0
 42
0.000000001
 43
0.00000001
 40
0.0
 40
0.0
 40
0.0
 40
0.0
 40
0.3216623556917455
 40
0.6548175346390357
 40
1.0
 40
1.0
 40
1.0
 40
1.0
 10
113.5081760258562
 20
118.0450941908711
 30
0.0
 10
113.4396301179989
 20
118.0450941908711
 30
0.0
 10
113.3000891938016
 20
118.0450941908711
 30
0.0
 10
113.0904807784511
 20
118.0450941908711
 30
0.0
 10
112.9508037832973
 20
118.0450941908711
 30
0.0
 10
112.8797270120964
 20
118.0450941908711
 30
0.0
  0
SPLINE
  5
1ED
330
1F
100
AcDbEntity
  8
0
  6
Continuous
 62
     7
370
    25
100
AcDbSpline
210
0.0
220
0.0
230
1.0
 70
     8
 71
     3
 72
     8
 73
     4
 74
     0
 42
0.000000001
 43
0.00000001
 40
0.0
 40
0.0
 40
0.0
 40
0.0
 40
1.0
 40
1.0
 40
1.0
 40
1.0
 10
113.59432730735
 20
118.423540540054
 30
0.0
 10
113.3250309772936
 20
118.3268511548607
 30
0.0
 10
113.0888702918798
 20
118.1988519854839
 30
0.0
 10
112.8796727756959
 20
118.0453753878393
 30
0.0
  0
LINE
  5
1EE
330
1F
100
AcDbEntity
  8
0
  6
Continuous
 62
     7
370
    25
100
AcDbLine
 10
112.8802184873
 20
101.9200941909
 30
0.0
 11
113.0489064987
 21
101.9200941909
 31
0.0
  0
LINE
  5
1EF
330
1F
100
AcDbEntity
  8
0
  6
Continuous
 62
     7
370
    25
100
AcDbLine
 10
116.507997191
 20
118.1950941909
 30
0.0
 11
114.5931239117
 21
118.1950941909
 31
0.0
  0
LINE
  5
1F0
330
1F
100
AcDbEntity
  8
0
  6
Continuous
 62
     7
370
    25
100
AcDbLine
 10
112.8800853729
 20
118.0450941909
 30
0.0
 11
108.1119580882
 21
118.0450941909
 31
0.0
  0
LINE
  5
1F1
330
1F
100
AcDbEntity
  8
0
  6
Continuous
 62
     7
370
    25
100
AcDbLine
 10
120.507997191
 20
109.9825941909
 30
0.0
 11
120.507997191
 21
114.1950941909
 31
0.0
  0
LINE
  5
1F2
330
1F
100
AcDbEntity
  8
VERMASSUNG
  6
CENTERX2
100
AcDbLine
 10
208.502997191
 20
109.9825941909
 30
0.0
 11
88.562997191
 21
109.9825941909
 31
0.0
  0
HATCH
  5
1F3
330
1F
100
AcDbEntity
  8
0
  6
Continuous
 62
     7
370
    18
100
AcDbHatch
 10
0.0
 20
0.0
 30
0.0
210
0.0
220
0.0
230
1.0
  2
ANSI31
 70
     0
 71
     0
 91
        1
 92
        0
 93
       40
 72
     1
 10
146.5329971909514
 20
138.8325941908711
 11
146.5329971909514
 21
138.9301894550628
 72
     1
 10
146.5329971909514
 20
138.9301894550628
 11
145.0737993863813
 21
141.4575941908711
 72
     1
 10
145.0737993863813
 20
141.4575941908711
 11
138.7079971909514
 21
141.457594190871
 72
     2
 10
138.7079971909514
 20
141.2575941908711
 40
0.2000000000000028
 50
90.0
 51
180.0
 73
     1
 72
     1
 10
138.5079971909514
 20
141.2575941908711
 11
138.5079971909514
 21
136.8325941908711
 72
     1
 10
138.5079971909514
 20
136.8325941908711
 11
138.84203587698
 21
135.7731588304745
 72
     2
 10
138.0790623163814
 20
135.5325941908711
 40
0.8000000000000049
 50
342.4999999999994
 51
467.5000000000015
 73
     0
 72
     1
 10
137.838497676778
 20
134.7696206302725
 11
137.3478151509206
 21
134.9243322363994
 72
     1
 10
137.3478151509206
 20
134.9243322363994
 11
124.0263418784011
 21
134.2553552633732
 72
     1
 10
124.0263402850026
 20
134.2553585724417
 11
123.3580101390731
 21
133.4462467500504
 72
     1
 10
123.3580101390731
 20
133.4462467500504
 11
123.3579971909514
 21
128.0888202116226
 72
     1
 10
123.3580003191851
 20
128.0888203365031
 11
123.9839463327273
 21
127.6200954811631
 72
     1
 10
123.9839465810362
 20
127.6200941908711
 11
129.0079971909514
 21
127.6200941908711
 72
     1
 10
129.0079971909514
 20
127.6200941908711
 11
129.8832376645322
 21
128.1254145138986
 72
     2
 10
130.2832376645322
 20
127.4325941908711
 40
0.7999999999999962
 50
240.0000000000009
 51
270.0000000000008
 73
     0
 72
     1
 10
130.2832376645322
 20
128.2325941908711
 11
131.7079971909514
 21
128.2325941908711
 72
     2
 10
131.7079971909514
 20
127.4325941908711
 40
0.7999999999999977
 50
270.0000000000008
 51
360.0000000000008
 73
     0
 72
     1
 10
132.5079971909514
 20
127.4325941908711
 11
132.5079971909514
 21
125.5325941908711
 72
     1
 10
132.5079971909514
 20
125.5325941908711
 11
136.2079971909514
 21
125.5325941908711
 72
     2
 10
136.2079971909514
 20
124.3325941908711
 40
1.2
 50
270.0000000000008
 51
360.0000000000008
 73
     0
 72
     1
 10
137.4079971909514
 20
124.3325941908711
 11
137.4079971909514
 21
115.2135342985469
 72
     1
 10
137.4079971909514
 20
115.2135342985469
 11
137.8079971909514
 21
114.9825941908711
 72
     1
 10
137.8079971909514
 20
114.9825941908711
 11
141.2329971909514
 21
114.9825941908711
 72
     1
 10
141.2329971909514
 20
114.9825941908711
 11
141.2329971909514
 21
115.7325941908711
 72
     1
 10
141.2329971909514
 20
115.7325941908711
 11
142.0579971909514
 21
115.7325941908711
 72
     1
 10
142.0579971909514
 20
115.7325941908711
 11
142.0579971909514
 21
113.9825941908711
 72
     1
 10
142.0579971909514
 20
113.9825941908711
 11
165.0079971909514
 21
113.9825941908711
 72
     1
 10
165.0079971909514
 20
113.9825941908711
 11
165.608857809979
 21
112.9825941908711
 72
     1
 10
165.608857809979
 20
112.9825941908711
 11
178.5079971909514
 21
112.9825941908711
 72
     1
 10
178.5079971909514
 20
112.9825941908711
 11
178.5079971909514
 21
122.1569143313573
 72
     1
 10
178.5079981227065
 20
122.1569144258375
 11
178.1070570046768
 21
122.482593971863
 72
     1
 10
178.1070567577339
 20
122.4825941908711
 11
159.5079971909514
 21
122.4825941908711
 72
     2
 10
159.5079971909514
 20
125.4825941908711
 40
3.0
 50
90.0
 51
180.0
 73
     0
 72
     1
 10
156.5079971909514
 20
125.4825941908711
 11
156.5079971909514
 21
141.4575941908711
 72
     1
 10
156.5079971909514
 20
141.4575941908711
 11
151.7421949955215
 21
141.4575941908711
 72
     1
 10
151.7421949955215
 20
141.4575941908711
 11
150.2829971909514
 21
138.9301894550628
 72
     1
 10
150.2829971909514
 20
138.9301894550628
 11
150.2829971909514
 21
138.8325941908711
 72
     2
 10
149.2829971909514
 20
138.8325941908711
 40
1.000000000000003
 50
0.0
 51
90.0
 73
     0
 72
     1
 10
149.2829971909514
 20
137.8325941908711
 11
147.5329971909514
 21
137.8325941908711
 72
     2
 10
147.5329971909514
 20
138.8325941908711
 40
1.000000000000003
 50
90.0
 51
180.0
 73
     0
 97
        0
 75
     0
 76
     1
 52
0.0
 41
1.0
 77
     0
 78
     1
 53
45.0
 43
0.0
 44
0.0
 45
-2.245064030267288
 46
2.245064030267288
 79
     0
 98
        1
 10
0.0
 20
0.0
  0
HATCH
  5
1F4
330
1F
100
AcDbEntity
  8
0
  6
Continuous
 62
     7
370
    18
100
AcDbHatch
 10
0.0
 20
0.0
 30
0.0
210
0.0
220
0.0
230
1.0
  2
ANSI31
 70
     0
 71
     0
 91
        1
 92
        0
 93
        8
 72
     1
 10
183.5079971909514
 20
112.9825941908711
 11
198.2079971909514
 21
112.9825941908711
 72
     2
 10
198.2079971909514
 20
113.2825941908711
 40
0.2999999999999973
 50
270.0000000000008
 51
360.0000000000008
 73
     1
 72
     1
 10
198.5079971909514
 20
113.2825941908711
 11
198.5079971909514
 21
117.2084536692562
 72
     2
 10
196.5079971909514
 20
117.2084536692562
 40
2.0
 50
0.0
 51
65.00000000000013
 73
     1
 72
     1
 10
197.3532337144328
 20
119.0210692433294
 11
189.9299695089132
 21
122.4825941908711
 72
     1
 10
189.9299695089132
 20
122.4825941908711
 11
183.9089370491675
 21
122.4825941908711
 72
     1
 10
183.9089372589008
 20
122.4825939354823
 11
183.5079961572222
 21
122.1569143904084
 72
     1
 10
183.5079971909514
 20
122.1569144364935
 11
183.5079971909514
 21
112.9825941908711
 97
        0
 75
     0
 76
     1
 52
0.0
 41
1.0
 77
     0
 78
     1
 53
45.0
 43
0.0
 44
0.0
 45
-2.245064030267288
 46
2.245064030267288
 79
     0
 98
        1
 10
0.0
 20
0.0
  0
HATCH
  5
1F5
330
1F
100
AcDbEntity
  8
0
  6
Continuous
 62
     7
370
    18
100
AcDbHatch
 10
0.0
 20
0.0
 30
0.0
210
0.0
220
0.0
230
1.0
  2
ANSI31
 70
     0
 71
     0
 91
        1
 92
        0
 93
        9
 72
     1
 10
108.8580253215396
 20
132.6468685627539
 11
108.1084353426039
 21
133.4559799005215
 72
     1
 10
108.1084353426039
 20
133.4559799005215
 11
100.0579971909514
 21
133.0517143184534
 72
     1
 10
100.0579971909514
 20
133.0517143184534
 11
98.5579971909514
 21
132.185688914669
 72
     1
 10
98.5579971909514
 20
132.185688914669
 11
98.5579971909514
 21
130.220094190871
 72
     1
 10
98.5579971909514
 20
130.220094190871
 11
99.30966324079094
 21
128.9181704022244
 72
     1
 10
99.30966324079094
 20
128.9181704022244
 11
101.5579971909514
 21
127.620094190871
 72
     1
 10
101.5579971909514
 20
127.620094190871
 11
105.4279970356603
 21
127.6200941908711
 72
     1
 10
105.4279970356603
 20
127.6200941908711
 11
108.8579971909514
 21
132.518642075775
 72
     1
 10
108.8579971909514
 20
132.5186420757749
 11
108.8579971909514
 21
132.6468674492607
 97
        0
 75
     0
 76
     1
 52
0.0
 41
1.0
 77
     0
 78
     1
 53
45.0
 43
0.0
 44
0.0
 45
-2.245064030267288
 46
2.245064030267288
 79
     0
 98
        1
 10
0.0
 20
0.0
  0
HATCH
  5
1F6
330
1F
100
AcDbEntity
  8
0
  6
Continuous
 62
     7
370
    18
100
AcDbHatch
 10
0.0
 20
0.0
 30
0.0
210
0.0
220
0.0
230
1.0
  2
ANSI31
 70
     0
 71
     0
 91
        1
 92
        0
 93
       15
 72
     1
 10
178.9079971909514
 20
111.9825941908711
 11
179.7579971909514
 21
111.9825941908711
 72
     1
 10
179.7579971909514
 20
111.9825941908711
 11
181.0079971909514
 21
112.7042820273581
 72
     1
 10
181.0079971909514
 20
112.7042820273581
 11
182.2579971909514
 21
111.9825941908711
 72
     1
 10
182.2579971909514
 20
111.9825941908711
 11
183.1079971909514
 21
111.9825941908711
 72
     1
 10
183.1079971909514
 20
111.9825941908711
 11
184.0079971909514
 21
112.8825941908711
 72
     1
 10
184.0079971909514
 20
112.8825941908711
 11
184.0079971909514
 21
121.9825941908711
 72
     1
 10
184.0079971909514
 20
121.9825941908711
 11
183.5079971909514
 21
122.4825941908711
 72
     1
 10
183.5079971909514
 20
122.4825941908711
 11
182.5079971909514
 21
122.4825941908711
 72
     1
 10
182.5079971909514
 20
122.4825941908711
 11
182.5079971909514
 21
118.9825941908711
 72
     1
 10
182.5079971909514
 20
118.9825941908711
 11
179.5079971909514
 21
118.9825941908711
 72
     1
 10
179.5079971909514
 20
118.9825941908711
 11
179.5079971909513
 21
122.4825941908711
 72
     1
 10
179.5079971909513
 20
122.4825941908711
 11
178.5079971909514
 21
122.4825941908711
 72
     1
 10
178.5079971909514
 20
122.4825941908711
 11
178.0079971909514
 21
121.9825941908711
 72
     1
 10
178.0079971909514
 20
121.9825941908711
 11
178.0079971909514
 21
112.8825941908711
 72
     1
 10
178.0079971909514
 20
112.8825941908711
 11
178.9079971909514
 21
111.9825941908711
 97
        0
 75
     0
 76
     1
 52
0.0
 41
1.0
 77
     0
 78
     1
 53
45.0
 43
0.0
 44
0.0
 45
-2.245064030267288
 46
2.245064030267288
 79
     0
 98
        1
 10
0.0
 20
0.0
  0
DIMENSION
  5
1F7
330
1F
100
AcDbEntity
  8
VERMASSUNG
100
AcDbDimension
  2
_D
 10
226.507997191
 20
97.4825941909
 30
0.0
 11
226.507997191
 21
109.9825941909
 31
0.0
 70
   160
  1
%%c<>
 71
     2
 42
-1.0
  3
SLDDIMSTYLE0
100
AcDbAlignedDimension
 13
189.9299695089
 23
122.4825941909
 33
0.0
 14
189.9299695089
 24
97.4825941909
 34
0.0
 50
90.0
100
AcDbRotatedDimension
  0
DIMENSION
  5
203
330
1F
100
AcDbEntity
  8
VERMASSUNG
100
AcDbDimension
  2
_D_1
 10
216.9152978988
 20
106.9825941909
 30
0.0
 11
216.9152978988
 21
109.9825941909
 31
0.0
 70
   160
  1
%%c<>
 71
     2
 42
-1.0
  3
SLDDIMSTYLE1
100
AcDbAlignedDimension
 13
178.507997191
 23
112.9825941909
 33
0.0
 14
198.207997191
 24
106.9825941909
 34
0.0
 50
90.0
100
AcDbRotatedDimension
  0
DIMENSION
  5
20D
330
1F
100
AcDbEntity
  8
VERMASSUNG
100
AcDbDimension
  2
_D_2
 10
156.507997191
 20
147.4993812505
 30
0.0
 11
177.507997191
 21
147.4993812505
 31
0.0
 70
   160
  1
<>
 71
     2
 42
-1.0
  3
SLDDIMSTYLE0
100
AcDbAlignedDimension
 13
198.507997191
 23
117.2084536693
 33
0.0
 14
156.507997191
 24
141.4575941909
 34
0.0
 50
0.0
100
AcDbRotatedDimension
  0
DIMENSION
  5
217
330
1F
100
AcDbEntity
  8
VERMASSUNG
100
AcDbDimension
  2
_D_3
 10
198.507997191
 20
154.9336310864
 30
0.0
 11
168.507997191
 21
154.9336310864
 31
0.0
 70
   160
  1
<>
 71
     2
 42
-1.0
  3
SLDDIMSTYLE0
100
AcDbAlignedDimension
 13
138.507997191
 23
141.2575941909
 33
0.0
 14
198.507997191
 24
117.2084536693
 34
0.0
 50
0.0
100
AcDbRotatedDimension
  0
DIMENSION
  5
221
330
1F
100
AcDbEntity
  8
VERMASSUNG
100
AcDbDimension
  2
_D_4
 10
79.35208688
 20
78.5075941909
 30
0.0
 11
79.35208688
 21
109.9825941909
 31
0.0
 70
   160
  1
KM<> XMZ
 71
     2
 42
-1.0
  3
SLDDIMSTYLE2
100
AcDbAlignedDimension
 13
138.707997191
 23
141.4575941909
 33
0.0
 14
138.707997191
 24
78.5075941909
 34
0.0
 50
90.0
100
AcDbRotatedDimension
  0
LINE
  5
22E
330
1F
100
AcDbEntity
  8
VERMASSUNG
  6
CENTERX2
370
    18
100
AcDbLine
 10
181.007997191
 20
109.9825941909
 30
0.0
 11
181.007997191
 21
124.4825941909
 31
0.0
  0
LINE
  5
22F
330
1F
100
AcDbEntity
  8
0
  6
Continuous
 62
     7
370
    25
100
AcDbLine
 10
264.5669771317
 20
30.8510603966
 30
0.0
 11
267.7230201765
 21
30.9157923113
 31
0.0
  0
LINE
  5
230
330
1F
100
AcDbEntity
  8
0
  6
Continuous
 62
     7
370
    25
100
AcDbLine
 10
271.9891326682
 20
38.3057166115
 30
0.0
 11
270.4669111181
 21
41.0711531907
 31
0.0
  0
LINE
  5
231
330
1F
100
AcDbEntity
  8
0
  6
Continuous
 62
     7
370
    25
100
AcDbLine
 10
245.1168448844
 20
30.7208013381
 30
0.0
 11
246.8018104095
 21
29.7480914452
 31
0.0
  0
LINE
  5
232
330
1F
100
AcDbEntity
  8
0
  6
Continuous
 62
     7
370
    25
100
AcDbLine
 10
262.5380314644
 20
57.0069793886
 30
0.0
 11
260.8530659393
 21
57.9796892816
 31
0.0
  0
SPLINE
  5
233
330
1F
100
AcDbEntity
  8
0
  6
Continuous
 62
     7
370
    25
100
AcDbSpline
210
0.0
220
0.0
230
1.0
 70
     8
 71
     3
 72
    24
 73
    20
 74
     0
 42
0.000000001
 43
0.00000001
 40
0.0
 40
0.0
 40
0.0
 40
0.0
 40
0.0478190717625018
 40
0.1055318980720195
 40
0.1656374066143012
 40
0.2275782614618519
 40
0.2903976322979938
 40
0.3532025751316467
 40
0.4157601920862498
 40
0.4781058753002429
 40
0.5403846839522245
 40
0.6027769977838824
 40
0.6654305021397485
 40
0.7285561384650681
 40
0.7923387837913459
 40
0.8568464768791801
 40
0.9217164644401136
 40
0.9787284321246075
 40
0.9999999999999999
 40
0.9999999999999999
 40
0.9999999999999999
 40
0.9999999999999999
 10
267.7368702593886
 20
30.92108588193349
 30
0.0
 10
267.8726121505632
 20
30.92867075744898
 30
0.0
 10
268.1721808978339
 20
30.94540981741582
 30
0.0
 10
268.6396210478376
 20
31.07460455419981
 30
0.0
 10
269.1362416495317
 20
31.28653985653201
 30
0.0
 10
269.6315575238661
 20
31.58529889617773
 30
0.0
 10
270.1129037473075
 20
31.96122365349229
 30
0.0
 10
270.5680587770312
 20
32.40476136879351
 30
0.0
 10
270.987104977965
 20
32.90390049110533
 30
0.0
 10
271.3626148904918
 20
33.44778165165317
 30
0.0
 10
271.6881616558375
 20
34.02588424218477
 30
0.0
 10
271.9577543969518
 20
34.62778682808382
 30
0.0
 10
272.1657233000449
 20
35.24327015030049
 30
0.0
 10
272.306728320922
 20
35.86258006320132
 30
0.0
 10
272.3745903518085
 20
36.47592360247359
 30
0.0
 10
272.364896772955
 20
37.0739699840195
 30
0.0
 10
272.2680020906266
 20
37.61776149656176
 30
0.0
 10
272.1445648488357
 20
38.01587800832041
 30
0.0
 10
272.0332219661792
 20
38.20737255170921
 30
0.0
 10
272.0029673581198
 20
38.25940634334022
 30
0.0
  0
LINE
  5
234
330
1F
100
AcDbEntity
  8
0
  6
Continuous
 62
     7
370
    25
100
AcDbLine
 10
252.6058350693
 20
37.3524239432
 30
0.0
 11
263.3616265308
 21
31.1432376987
 31
0.0
  0
LINE
  5
235
330
1F
100
AcDbEntity
  8
0
  6
Continuous
 62
     7
370
    25
100
AcDbLine
 10
269.6111186098
 20
41.9688484784
 30
0.0
 11
258.8553271482
 21
48.1780347229
 31
0.0
  0
LINE
  5
236
330
1F
100
AcDbEntity
  8
0
  6
Continuous
 62
     7
370
    25
100
AcDbLine
 10
240.508560057
 20
33.3811075428
 30
0.0
 11
242.759211007
 21
32.0818344052
 31
0.0
  0
LINE
  5
237
330
1F
100
AcDbEntity
  8
0
  6
Continuous
 62
     7
370
    25
100
AcDbLine
 10
258.4954320619
 20
59.3407223486
 30
0.0
 11
256.2447811118
 21
60.6399954862
 31
0.0
  0
SPLINE
  5
238
330
1F
100
AcDbEntity
  8
0
  6
Continuous
 62
     7
370
    25
100
AcDbSpline
210
0.0
220
0.0
230
1.0
 70
     8
 71
     3
 72
    11
 73
     7
 74
     0
 42
0.000000001
 43
0.00000001
 40
0.0
 40
0.0
 40
0.0
 40
0.0
 40
0.2834840291527381
 40
0.6051375427172566
 40
0.9220332625685553
 40
1.0
 40
1.0
 40
1.0
 40
1.0
 10
268.634720531076
 20
33.5949693163372
 30
0.0
 10
268.5959281369609
 20
33.62470616983062
 30
0.0
 10
268.5131201772991
 20
33.68818377209601
 30
0.0
 10
268.4309841439144
 20
33.87260475493849
 30
0.0
 10
268.3984441328081
 20
34.05612916538941
 30
0.0
 10
268.3967129607044
 20
34.17038417573728
 30
0.0
 10
268.3963711357515
 20
34.19294415891047
 30
0.0
  0
SPLINE
  5
239
330
1F
100
AcDbEntity
  8
0
  6
Continuous
 62
     7
370
    25
100
AcDbSpline
210
0.0
220
0.0
230
1.0
 70
     8
 71
     3
 72
    15
 73
    11
 74
     0
 42
0.000000001
 43
0.00000001
 40
0.0
 40
0.0
 40
0.0
 40
0.0
 40
0.0607450883110776
 40
0.2124901594168304
 40
0.3637353488303487
 40
0.5139470785601323
 40
0.6628724146339531
 40
0.8113065632854272
 40
0.9620238127396213
 40
1.0
 40
1.0
 40
1.0
 40
1.0
 10
268.698803770883
 20
35.22103336033218
 30
0.0
 10
268.721787721485
 20
35.26589069153621
 30
0.0
 10
268.8021870338119
 20
35.42280447211625
 30
0.0
 10
268.9870277365312
 20
35.66250537069636
 30
0.0
 10
269.2346518190968
 20
35.91560849279892
 30
0.0
 10
269.4946420046171
 20
36.09926064638206
 30
0.0
 10
269.7447884796079
 20
36.20742984982363
 30
0.0
 10
269.9628377080025
 20
36.23049802125871
 30
0.0
 10
270.1011417061887
 20
36.21108737861027
 30
0.0
 10
270.156847877257
 20
36.16321037947174
 30
0.0
 10
270.1680592263154
 20
36.15357471902479
 30
0.0
  0
SPLINE
  5
23A
330
1F
100
AcDbEntity
  8
0
  6
Continuous
 62
     7
370
    25
100
AcDbSpline
210
0.0
220
0.0
230
1.0
 70
     8
 71
     3
 72
    11
 73
     7
 74
     0
 42
0.000000001
 43
0.00000001
 40
0.0
 40
0.0
 40
0.0
 40
0.0
 40
0.1655663832337683
 40
0.4851695968266797
 40
0.8066368461851788
 40
1.0
 40
1.0
 40
1.0
 40
1.0
 10
268.3963711357515
 20
34.19294415891047
 30
0.0
 10
268.3979986610982
 20
34.24504199560626
 30
0.0
 10
268.4027679010903
 20
34.39770756654862
 30
0.0
 10
268.4601483981006
 20
34.67842342138179
 30
0.0
 10
268.5625907688313
 20
34.97954417962865
 30
0.0
 10
268.6616125603624
 20
35.15509784152913
 30
0.0
 10
268.698803770883
 20
35.22103336033218
 30
0.0
  0
LINE
  5
23B
330
1F
100
AcDbEntity
  8
0
  6
Continuous
 62
     7
370
    25
100
AcDbLine
 10
249.4673922389
 20
60.4198775216
 30
0.0
 11
240.2701796824
 21
65.0005301807
 31
0.0
  0
LINE
  5
23C
330
1F
100
AcDbEntity
  8
0
  6
Continuous
 62
     7
370
    25
100
AcDbLine
 10
228.7438319708
 20
45.0341469192
 30
0.0
 11
237.309932283
 21
39.3602573332
 31
0.0
  0
LINE
  5
23D
330
1F
100
AcDbEntity
  8
0
  6
Continuous
 62
     7
370
    25
100
AcDbLine
 10
233.7232695191
 20
45.9806369569
 30
0.0
 11
233.7232695191
 21
45.6153179401
 31
0.0
  0
LINE
  5
23E
330
1F
100
AcDbEntity
  8
0
  6
Continuous
 62
     7
370
    25
100
AcDbLine
 10
237.62123602
 20
65.3774986544
 30
0.0
 11
236.9816855675
 21
65.290287589
 31
0.0
  0
LINE
  5
23F
330
1F
100
AcDbEntity
  8
0
  6
Continuous
 62
     7
370
    25
100
AcDbLine
 10
271.9891326682
 20
38.3057166115
 30
0.0
 11
272.0060046191
 21
38.2744216109
 31
0.0
  0
LWPOLYLINE
  5
240
330
1F
100
AcDbEntity
  8
0
  6
Continuous
 62
     7
370
    25
100
AcDbPolyline
 90
       22
 70
   128
 43
0.0
 10
262.0669551879
 20
34.0047677391
 10
262.1047639162
 20
34.6927190219
 10
262.2175431835
 20
35.4125522962
 10
262.4033633051
 20
36.1519510149
 10
262.6590448472
 20
36.898263861
 10
262.9802130278
 20
37.6387212149
 10
263.3613725703
 20
38.3606536458
 10
263.7960017292
 20
39.0517086897
 10
264.2766638791
 20
39.7000622033
 10
264.7951347573
 20
40.2946206782
 10
265.3425431835
 20
40.8252110539
 10
265.9095228475
 20
41.2827547822
 10
266.4863725703
 20
41.6594231628
 10
267.0632222931
 20
41.9487712955
 10
267.6302019571
 20
42.1458483534
 10
268.1776103833
 20
42.2472822934
 10
268.6960812615
 20
42.2513375528
 10
269.1767434114
 20
42.1579447448
 10
269.6113725703
 20
41.9687018463
 10
269.9925321128
 20
41.6868468558
 10
270.3137002934
 20
41.3172023904
 10
270.4669111181
 20
41.0711531907
  0
LWPOLYLINE
  5
241
330
1F
100
AcDbEntity
  8
0
  6
Continuous
 62
     7
370
    25
100
AcDbPolyline
 90
       10
 70
   128
 43
0.0
 10
264.5669771317
 20
30.8510603966
 10
264.2766638791
 20
30.8607486243
 10
263.7960017292
 20
30.9541414323
 10
263.3613725703
 20
31.1433843308
 10
262.9802130278
 20
31.4252393213
 10
262.6590448472
 20
31.7948837867
 10
262.4033633051
 20
32.2459930079
 10
262.2175431835
 20
32.7708483809
 10
262.1047639162
 20
33.3604694848
 10
262.0669551879
 20
34.0047677391
  0
LWPOLYLINE
  5
242
330
1F
100
AcDbEntity
  8
0
  6
Continuous
 62
     7
370
    25
100
AcDbPolyline
 90
       44
 70
   128
 43
0.0
 10
243.541827968
 20
36.953424087
 10
243.5798360474
 20
38.0365359579
 10
243.6936006518
 20
39.1561322708
 10
243.8823446535
 20
40.3045650477
 10
244.1447787397
 20
41.4739893281
 10
244.4791102195
 20
42.6564167585
 10
244.8830552698
 20
43.8437701605
 10
245.3538545364
 20
45.0279387064
 10
245.8882919829
 20
46.2008333244
 10
246.4827168595
 20
47.354441955
 10
247.1330686418
 20
48.4808842813
 10
247.8349047675
 20
49.5724655601
 10
248.5834309842
 20
50.6217291845
 10
249.3735340989
 20
51.62150762
 10
250.1998169062
 20
52.564971366
 10
251.0566350567
 20
53.4456756086
 10
251.9381356135
 20
54.2576042447
 10
252.8382970341
 20
54.9952109784
 10
253.7509703032
 20
55.6534572079
 10
254.669920937
 20
56.227846444
 10
255.5888715707
 20
56.7144550257
 10
256.5015448398
 20
57.109958923
 10
257.4017062604
 20
57.4116564432
 10
258.2832068172
 20
57.6174866864
 10
259.1400249677
 20
57.7260436234
 10
259.966307775
 20
57.7365857001
 10
260.7564108897
 20
57.6490409035
 10
261.5049371065
 20
57.4640072533
 10
262.2067732322
 20
57.1827487169
 10
262.8571250144
 20
56.8071865754
 10
263.4515498911
 20
56.339886299
 10
263.9859873375
 20
55.7840400225
 10
264.4567866041
 20
55.1434447394
 10
264.8607316544
 20
54.4224763652
 10
265.1950631342
 20
53.6260598449
 10
265.4574972204
 20
52.7596355109
 10
265.6462412222
 20
51.82912192
 10
265.7600058265
 20
50.8408754234
 10
265.7980139059
 20
49.8016467468
 10
265.7600058265
 20
48.7185348759
 10
265.6462412222
 20
47.598938563
 10
265.4574972204
 20
46.4505057862
 10
265.1950631342
 20
45.2810815057
 10
265.0168603874
 20
44.6210572964
  0
LWPOLYLINE
  5
243
330
1F
100
AcDbEntity
  8
0
  6
Continuous
 62
     7
370
    25
100
AcDbPolyline
 90
       25
 70
   128
 43
0.0
 10
258.7673683084
 20
33.7954465166
 10
258.2832068172
 20
33.3093952252
 10
257.4017062604
 20
32.4974665892
 10
256.5015448398
 20
31.7598598554
 10
255.5888715707
 20
31.1016136259
 10
254.669920937
 20
30.5272243899
 10
253.7509703032
 20
30.0406158082
 10
252.8382970341
 20
29.6451119109
 10
251.9381356135
 20
29.3434143906
 10
251.0566350567
 20
29.1375841474
 10
250.1998169062
 20
29.0290272104
 10
249.3735340989
 20
29.0184851337
 10
248.5834309842
 20
29.1060299304
 10
247.8349047675
 20
29.2910635806
 10
247.1330686418
 20
29.5723221169
 10
246.4827168595
 20
29.9478842584
 10
245.8882919829
 20
30.4151845348
 10
245.3538545364
 20
30.9710308113
 10
244.8830552698
 20
31.6116260944
 10
244.4791102195
 20
32.3325944686
 10
244.1447787397
 20
33.1290109889
 10
243.8823446535
 20
33.9954353229
 10
243.6936006518
 20
34.9259489139
 10
243.5798360474
 20
35.9141954105
 10
243.541827968
 20
36.953424087
  0
SPLINE
  5
244
330
1F
100
AcDbEntity
  8
0
  6
Continuous
 62
     7
370
    25
100
AcDbSpline
210
0.0
220
0.0
230
1.0
 70
     8
 71
     3
 72
    25
 73
    21
 74
     0
 42
0.000000001
 43
0.00000001
 40
0.0
 40
0.0
 40
0.0
 40
0.0
 40
0.1249999999999998
 40
0.1249999999999998
 40
0.2499999999999997
 40
0.2499999999999997
 40
0.3749999999999995
 40
0.3749999999999995
 40
0.4999999999999993
 40
0.4999999999999993
 40
0.5624999999999996
 40
0.5624999999999996
 40
0.6249999999999998
 40
0.6875000000000001
 40
0.6875000000000001
 40
0.7500000000000003
 40
0.7500000000000003
 40
0.8750000000000001
 40
0.8750000000000001
 40
1.0
 40
1.0
 40
1.0
 40
1.0
 10
248.3754168131135
 20
53.38523868258146
 30
0.0
 10
248.4045401113746
 20
53.27405316205228
 30
0.0
 10
248.4169291522338
 20
53.15881094962424
 30
0.0
 10
248.4099516671335
 20
52.91971538178844
 30
0.0
 10
248.3899340792815
 20
52.79494141191318
 30
0.0
 10
248.3197119215683
 20
52.54857250270076
 30
0.0
 10
248.2690612669746
 20
52.42436135533963
 30
0.0
 10
248.1391465233194
 20
52.18073286002947
 30
0.0
 10
248.0614455753302
 20
52.06367576497131
 30
0.0
 10
247.926071993104
 20
51.89501924712128
 30
0.0
 10
247.8774374957969
 20
51.83965222584911
 30
0.0
 10
247.7759981604149
 20
51.73393241445209
 30
0.0
 10
247.6701281776741
 20
51.63277145583165
 30
0.0
 10
247.5555363853467
 20
51.54059713415485
 30
0.0
 10
247.4364537161285
 20
51.45306029141474
 30
0.0
 10
247.374495703071
 20
51.41156182190254
 30
0.0
 10
247.1866319995505
 20
51.29744150016445
 30
0.0
 10
247.0572545631964
 20
51.23383406904985
 30
0.0
 10
246.7895713101344
 20
51.13256576807562
 30
0.0
 10
246.6536996236694
 20
51.09602485985082
 30
0.0
 10
246.5181823569417
 20
51.07485667550075
 30
0.0
  0
LWPOLYLINE
  5
245
330
1F
100
AcDbEntity
  8
0
  6
Continuous
 62
     7
370
    25
100
AcDbPolyline
 90
       16
 70
   128
 43
0.0
 10
248.3754168131
 20
53.3852386826
 10
249.2385602923
 20
54.2876832835
 10
250.1279488888
 20
55.1205118358
 10
251.037352051
 20
55.8778900153
 10
251.9603990166
 20
56.5545120607
 10
252.8906234427
 20
57.1456379418
 10
253.821508705
 20
57.6471265665
 10
254.7465335498
 20
58.0554647902
 10
255.6592177783
 20
58.367792027
 10
256.5531676429
 20
58.5819202897
 10
257.4221206384
 20
58.6963495172
 10
258.2599893735
 20
58.7102780833
 10
259.0609042153
 20
58.6236084124
 10
259.8192544094
 20
58.436947663
 10
260.5297273847
 20
58.1516034744
 10
260.8530659393
 20
57.9796892816
  0
LWPOLYLINE
  5
246
330
1F
100
AcDbEntity
  8
0
  6
Continuous
 62
     7
370
    25
100
AcDbPolyline
 90
       22
 70
   128
 43
0.0
 10
245.1168448844
 20
30.7208013381
 10
244.5478105885
 20
31.1006637344
 10
243.9749873086
 20
31.6070582143
 10
243.4642700137
 20
32.2012918718
 10
243.0191790937
 20
32.8792686359
 10
242.642782574
 20
33.6363151923
 10
242.3376749672
 20
34.4672131958
 10
242.1059593894
 20
35.3662352413
 10
241.9492330631
 20
36.3271843422
 10
241.8685763076
 20
37.3434366472
 10
241.8645450925
 20
38.4079870981
 10
241.937167205
 20
39.5134977162
 10
242.0859420587
 20
40.652348183
 10
242.309844144
 20
41.8166883675
 10
242.607330097
 20
42.9984924374
 10
242.9763493379
 20
44.189614181
 10
243.4143582058
 20
45.3818431599
 10
243.9183374923
 20
46.5669613033
 10
244.4848132528
 20
47.7367995558
 10
245.1098807525
 20
48.8832941865
 10
245.7892313821
 20
49.998542373
 10
246.5181823569
 20
51.0748566755
  0
LWPOLYLINE
  5
247
330
1F
100
AcDbEntity
  8
0
  6
Continuous
 62
     7
370
    25
100
AcDbPolyline
 90
       13
 70
   128
 43
0.0
 10
246.7127955683
 20
53.5095155221
 10
247.5436388622
 20
54.3988083524
 10
248.4025292783
 20
55.2180894407
 10
249.2827745478
 20
55.9609751443
 10
250.1775160097
 20
56.6216770752
 10
251.0797820522
 20
57.1950472018
 10
251.9825424338
 20
57.6766179609
 10
252.878763061
 20
58.0626370683
 10
253.7614607969
 20
58.3500967551
 10
254.6237578715
 20
58.5367572042
 10
255.4589354718
 20
58.6211640019
 10
256.2604860934
 20
58.6026594706
 10
256.5133460736
 20
58.5744019296
  0
SPLINE
  5
248
330
1F
100
AcDbEntity
  8
0
  6
Continuous
 62
     7
370
    25
100
AcDbSpline
210
0.0
220
0.0
230
1.0
 70
     8
 71
     3
 72
    26
 73
    22
 74
     0
 42
0.000000001
 43
0.00000001
 40
0.0
 40
0.0
 40
0.0
 40
0.0
 40
0.1250000000000009
 40
0.1250000000000009
 40
0.2500000000000019
 40
0.2500000000000019
 40
0.3125000000000011
 40
0.3125000000000011
 40
0.3750000000000004
 40
0.3750000000000004
 40
0.4375000000000002
 40
0.4375000000000002
 40
0.5000000000000001
 40
0.5000000000000001
 40
0.5625
 40
0.5625
 40
0.6249999999999999
 40
0.6249999999999999
 40
0.7500000000000001
 40
0.7500000000000001
 40
1.0
 40
1.0
 40
1.0
 40
1.0
 10
245.368602327486
 20
51.83735190945628
 30
0.0
 10
245.344964731254
 20
51.94692776902927
 30
0.0
 10
245.3273969523722
 20
52.0578170273938
 30
0.0
 10
245.3085843695027
 20
52.28314698725674
 30
0.0
 10
245.3074045947353
 20
52.39882390057511
 30
0.0
 10
245.3235025979707
 20
52.57017941043468
 30
0.0
 10
245.331821315071
 20
52.62697792252884
 30
0.0
 10
245.3555784643279
 20
52.73980413492592
 30
0.0
 10
245.3712008433769
 20
52.79625698859208
 30
0.0
 10
245.4100580557739
 20
52.90484010500067
 30
0.0
 10
245.4332840124764
 20
52.95722006522622
 30
0.0
 10
245.4882826619548
 20
53.05767684049834
 30
0.0
 10
245.5203609289774
 20
53.10595570826978
 30
0.0
 10
245.5907756775125
 20
53.19365268385351
 30
0.0
 10
245.6293540996392
 20
53.23364181182948
 30
0.0
 10
245.7130623632354
 20
53.30612049594507
 30
0.0
 10
245.7581910731772
 20
53.33845712032169
 30
0.0
 10
245.8974717153673
 20
53.42165688767533
 30
0.0
 10
245.998260786929
 20
53.46048561031142
 30
0.0
 10
246.3013330581617
 20
53.53590189776659
 30
0.0
 10
246.5098571486467
 20
53.53577175139583
 30
0.0
 10
246.7127955683371
 20
53.50951552206962
 30
0.0
  0
LWPOLYLINE
  5
249
330
1F
100
AcDbEntity
  8
0
  6
Continuous
 62
     7
370
    25
100
AcDbPolyline
 90
       19
 70
   128
 43
0.0
 10
242.4316239328
 20
34.1815007021
 10
242.2065933563
 20
34.494270915
 10
241.806624322
 20
35.1827235529
 10
241.4774124174
 20
35.9487094408
 10
241.2214525644
 20
36.7864235797
 10
241.0406845462
 20
37.6895173805
 10
240.9364783075
 20
38.6511467761
 10
240.9096235717
 20
39.6640240896
 10
240.9603238566
 20
40.7204732635
 10
241.0881949318
 20
41.8124880321
 10
241.2922677305
 20
42.9317925972
 10
241.5709956936
 20
44.0699043457
 10
241.9222664904
 20
45.2181981349
 10
242.3434180267
 20
46.3679716578
 10
242.8312586192
 20
47.5105113934
 10
243.382091184
 20
48.6371586415
 10
243.9917412545
 20
49.7393751428
 10
244.6555886175
 20
50.8088077856
 10
245.3686023275
 20
51.8373519095
  0
LINE
  5
24A
330
1F
100
AcDbEntity
  8
0
  6
Continuous
 62
     7
370
    25
100
AcDbLine
 10
243.8932103579
 20
31.5934310538
 30
0.0
 11
244.007197544
 21
31.6473012019
 31
0.0
  0
LWPOLYLINE
  5
24B
330
1F
100
AcDbEntity
  8
0
  6
Continuous
 62
     7
370
    25
100
AcDbPolyline
 90
       43
 70
   128
 43
0.0
 10
243.8932103579
 20
31.5934310538
 10
243.1864752298
 20
31.8606186076
 10
242.5302934682
 20
32.221908022
 10
241.9291231948
 20
32.6748446839
 10
241.387048781
 20
33.2163513263
 10
240.9077530991
 20
33.8427489342
 10
240.4944925006
 20
34.5497817407
 10
240.1500746922
 20
35.3326461405
 10
239.8768396605
 20
36.1860233258
 10
239.6766437735
 20
37.1041154227
 10
239.5508471691
 20
38.0806848817
 10
239.5003045138
 20
39.1090968562
 10
239.5253591961
 20
40.1823642798
 10
239.6258409936
 20
41.2931953365
 10
239.8010672296
 20
42.4340430019
 10
240.0498474108
 20
43.5971563175
 10
240.3704913163
 20
44.7746330513
 10
240.7608204803
 20
45.9584733858
 10
241.2181829928
 20
47.1406342689
 10
241.7394715173
 20
48.3130840587
 10
242.3211444015
 20
49.4678570909
 10
242.9592497398
 20
50.5971077978
 10
243.6494522224
 20
51.6931640109
 10
244.38706259
 20
52.7485790866
 10
245.1670694922
 20
53.7561824985
 10
245.9841735351
 20
54.7091285541
 10
246.8328232858
 20
55.6009429052
 10
247.7072529885
 20
56.4255665341
 10
248.6015217377
 20
57.1773969197
 10
249.5095538406
 20
57.8513261001
 10
250.4251800958
 20
58.4427753774
 10
251.3421797069
 20
58.9477264248
 10
252.2543225469
 20
59.3627485873
 10
253.1554114859
 20
59.6850221902
 10
254.0393244946
 20
59.9123576954
 10
254.9000562373
 20
60.0432105776
 10
255.7317588731
 20
60.076691818
 10
256.5287817854
 20
60.0125739437
 10
257.2857099732
 20
59.8512925738
 10
257.9974008401
 20
59.5939434595
 10
258.6590191339
 20
59.2422750396
 10
259.2660697971
 20
58.7986765614
 10
259.5854704191
 20
58.5064201383
  0
LINE
  5
24C
330
1F
100
AcDbEntity
  8
0
  6
Continuous
 62
     7
370
    25
100
AcDbLine
 10
268.6631582752
 20
33.5674075576
 30
0.0
 11
268.6234166373
 21
33.5929211264
 31
0.0
  0
LWPOLYLINE
  5
24D
330
1F
100
AcDbEntity
  8
0
  6
Continuous
 62
     7
370
    25
100
AcDbPolyline
 90
       25
 70
   128
 43
0.0
 10
237.2485776155
 20
40.6680809958
 10
237.286344182
 20
41.7443105037
 10
237.3993858977
 20
42.8567926225
 10
237.586930573
 20
43.997927971
 10
237.8476970876
 20
45.1599214379
 10
238.1799041417
 20
46.3348354295
 10
238.5812824245
 20
47.5146440918
 10
239.0490901151
 20
48.6912881355
 10
239.5801316127
 20
49.8567298886
 10
240.1707793655
 20
51.0030082022
 10
240.8169986503
 20
52.122292833
 10
241.5143751342
 20
53.2069379322
 10
242.2581450287
 20
54.2495342738
 10
243.0432276312
 20
55.2429598677
 10
243.8642600314
 20
56.1804286098
 10
244.7156337457
 20
57.055536638
 10
245.5915330281
 20
57.862306077
 10
246.4859745986
 20
58.5952258736
 10
247.3928485141
 20
59.2492894424
 10
248.3059599063
 20
59.820028866
 10
249.2190712985
 20
60.3035454154
 10
250.125945214
 20
60.6965361823
 10
251.0203867845
 20
60.9963166412
 10
251.8962860669
 20
61.2008389878
 10
252.6050085606
 20
61.297236748
  0
ARC
  5
24E
330
1F
100
AcDbEntity
  8
0
  6
Continuous
 62
     7
370
    25
100
AcDbCircle
 10
249.4063520409
 20
40.5590422993
 30
0.0
 40
12.15623180558983
100
AcDbArc
 50
180.8571235828
 51
191.8646627492
  0
SPLINE
  5
24F
330
1F
100
AcDbEntity
  8
0
  6
Continuous
 62
     7
370
    25
100
AcDbSpline
210
0.0
220
0.0
230
1.0
 70
     8
 71
     3
 72
    10
 73
     6
 74
     0
 42
0.000000001
 43
0.00000001
 40
0.0
 40
0.0
 40
0.0
 40
0.0
 40
0.5
 40
0.5
 40
1.0
 40
1.0
 40
1.0
 40
1.0
 10
246.0952903951173
 20
50.37429862863655
 30
0.0
 10
245.991325904333
 20
50.44763700170694
 30
0.0
 10
245.9015176279056
 20
50.53487275950034
 30
0.0
 10
245.749475199907
 20
50.73580330069634
 30
0.0
 10
245.687569611546
 20
50.84997406689331
 30
0.0
 10
245.6431199069555
 20
50.9729917500534
 30
0.0
  0
SPLINE
  5
250
330
1F
100
AcDbEntity
  8
0
  6
Continuous
 62
     7
370
    25
100
AcDbSpline
210
0.0
220
0.0
230
1.0
 70
     8
 71
     3
 72
    14
 73
    10
 74
     0
 42
0.000000001
 43
0.00000001
 40
0.0
 40
0.0
 40
0.0
 40
0.0
 40
0.25
 40
0.25
 40
0.5
 40
0.5
 40
0.75
 40
0.75
 40
1.0
 40
1.0
 40
1.0
 40
1.0
 10
245.6431199069555
 20
50.9729917500534
 30
0.0
 10
245.6203991040904
 20
51.03587316971095
 30
0.0
 10
245.598484593741
 20
51.10491959918437
 30
0.0
 10
245.5563735396782
 20
51.25257211580313
 30
0.0
 10
245.5368519857651
 20
51.32897190266144
 30
0.0
 10
245.4985057435914
 20
51.48330419405704
 30
0.0
 10
245.4801461507076
 20
51.5602567903887
 30
0.0
 10
245.4381427061259
 20
51.70564695790468
 30
0.0
 10
245.4143663851129
 20
51.7722378640977
 30
0.0
 10
245.3859048810107
 20
51.81273347932905
 30
0.0
  0
LINE
  5
251
330
1F
100
AcDbEntity
  8
0
  6
Continuous
 62
     7
370
    25
100
AcDbLine
 10
245.385904881
 20
51.8127334793
 30
0.0
 11
245.3686023275
 21
51.8373519095
 31
0.0
  0
LINE
  5
252
330
1F
100
AcDbEntity
  8
0
  6
Continuous
 62
     7
370
    25
100
AcDbLine
 10
246.7127955683
 20
53.5095155221
 30
0.0
 11
246.7300981219
 21
53.4848970919
 31
0.0
  0
SPLINE
  5
253
330
1F
100
AcDbEntity
  8
0
  6
Continuous
 62
     7
370
    25
100
AcDbSpline
210
0.0
220
0.0
230
1.0
 70
     8
 71
     3
 72
    16
 73
    12
 74
     0
 42
0.000000001
 43
0.00000001
 40
0.0
 40
0.0
 40
0.0
 40
0.0
 40
0.1250000000000001
 40
0.1250000000000001
 40
0.2500000000000003
 40
0.2500000000000003
 40
0.5000000000000002
 40
0.5000000000000002
 40
0.7500000000000001
 40
0.7500000000000001
 40
1.0
 40
1.0
 40
1.0
 40
1.0
 10
246.7300981218619
 20
53.48489709194232
 30
0.0
 10
246.744250528266
 20
53.46476075612954
 30
0.0
 10
246.7659089327397
 20
53.44796333545211
 30
0.0
 10
246.8183268617749
 20
53.42111781412062
 30
0.0
 10
246.8489197409133
 20
53.41089232955964
 30
0.0
 10
246.9480005897708
 20
53.38639188912695
 30
0.0
 10
247.0218831273867
 20
53.37813196672546
 30
0.0
 10
247.174982719778
 20
53.36694600002054
 30
0.0
 10
247.2530666944257
 20
53.36434932826935
 30
0.0
 10
247.4124103281678
 20
53.36232032743564
 30
0.0
 10
247.4910632229993
 20
53.36295791609788
 30
0.0
 10
247.566815690792
 20
53.36605101691291
 30
0.0
  0
SPLINE
  5
254
330
1F
100
AcDbEntity
  8
0
  6
Continuous
 62
     7
370
    25
100
AcDbSpline
210
0.0
220
0.0
230
1.0
 70
     8
 71
     3
 72
    10
 73
     6
 74
     0
 42
0.000000001
 43
0.00000001
 40
0.0
 40
0.0
 40
0.0
 40
0.0
 40
0.5
 40
0.5
 40
1.0
 40
1.0
 40
1.0
 40
1.0
 10
247.566815690792
 20
53.36605101691291
 30
0.0
 10
247.7150100306928
 20
53.37210204134666
 30
0.0
 10
247.8572344964233
 20
53.36193981113354
 30
0.0
 10
248.129625886764
 20
53.31088937519346
 30
0.0
 10
248.2597532166326
 20
53.26952827254891
 30
0.0
 10
248.377828558818
 20
53.21375440459662
 30
0.0
  0
ARC
  5
255
330
1F
100
AcDbEntity
  8
0
  6
Continuous
 62
     7
370
    25
100
AcDbCircle
 10
231.0661194982
 20
48.4952964054
 30
0.0
 40
4.168042121425086
100
AcDbArc
 50
211.8182858313
 51
236.1400299393
  0
SPLINE
  5
256
330
1F
100
AcDbEntity
  8
0
  6
Continuous
 62
     7
370
    25
100
AcDbSpline
210
0.0
220
0.0
230
1.0
 70
     8
 71
     3
 72
     8
 73
     4
 74
     0
 42
0.000000001
 43
0.00000001
 40
0.0
 40
0.0
 40
0.0
 40
0.0
 40
1.0
 40
1.0
 40
1.0
 40
1.0
 10
228.9548748896812
 20
45.37304998535796
 30
0.0
 10
228.478101597857
 20
45.6811427932906
 30
0.0
 10
228.0012992210121
 20
45.98937223886335
 30
0.0
 10
227.5244667764865
 20
46.29773739508326
 30
0.0
  0
SPLINE
  5
257
330
1F
100
AcDbEntity
  8
0
  6
Continuous
 62
     7
370
    25
100
AcDbSpline
210
0.0
220
0.0
230
1.0
 70
     8
 71
     3
 72
    23
 73
    19
 74
     0
 42
0.000000001
 43
0.00000001
 40
0.0
 40
0.0
 40
0.0
 40
0.0
 40
0.0521036415675031
 40
0.1035646240925967
 40
0.1544751946736949
 40
0.2049306267473421
 40
0.2550287880844035
 40
0.3048696389141012
 40
0.3545546704609132
 40
0.4041862979523234
 40
0.4538672252126086
 40
0.5036997999421611
 40
0.5901870230746071
 40
0.674271637822954
 40
0.7565997087222995
 40
0.8378563983721267
 40
0.9187511781367398
 40
1.0
 40
1.0
 40
1.0
 40
1.0
 10
229.8354396932228
 20
45.19831928723786
 30
0.0
 10
229.8301707542827
 20
45.18839782500304
 30
0.0
 10
229.8196978647823
 20
45.1686772742721
 30
0.0
 10
229.8004515690197
 20
45.14410944531986
 30
0.0
 10
229.778655828687
 20
45.12342086306064
 30
0.0
 10
229.754004537482
 20
45.10688992776365
 30
0.0
 10
229.7265080229431
 20
45.09437242818749
 30
0.0
 10
229.6960969689357
 20
45.08583780436511
 30
0.0
 10
229.6627265971632
 20
45.08122793171702
 30
0.0
 10
229.6263507088913
 20
45.08049318858055
 30
0.0
 10
229.5869223373022
 20
45.08358827113184
 30
0.0
 10
229.5340739457523
 20
45.09212404661098
 30
0.0
 10
229.4655349519821
 20
45.10972048545803
 30
0.0
 10
229.3778137200277
 20
45.1413570935439
 30
0.0
 10
229.2830828005338
 20
45.18353675087662
 30
0.0
 10
229.1810485532039
 20
45.23627318660361
 30
0.0
 10
229.0721346400148
 20
45.29858974251443
 30
0.0
 10
228.9940183290287
 20
45.34819380076554
 30
0.0
 10
228.9548748896812
 20
45.37304998535795
 30
0.0
  0
SPLINE
  5
258
330
1F
100
AcDbEntity
  8
0
  6
Continuous
 62
     7
370
    25
100
AcDbSpline
210
0.0
220
0.0
230
1.0
 70
     8
 71
     3
 72
     8
 73
     4
 74
     0
 42
0.000000001
 43
0.00000001
 40
0.0
 40
0.0
 40
0.0
 40
0.0
 40
1.0
 40
1.0
 40
1.0
 40
1.0
 10
231.3089427196766
 20
44.25099915068165
 30
0.0
 10
230.8175754076352
 20
44.56687377064914
 30
0.0
 10
230.326189207709
 20
44.88285979193861
 30
0.0
 10
229.834783497565
 20
45.1989566727813
 30
0.0
  0
SPLINE
  5
259
330
1F
100
AcDbEntity
  8
0
  6
Continuous
 62
     7
370
    25
100
AcDbSpline
210
0.0
220
0.0
230
1.0
 70
     8
 71
     3
 72
    18
 73
    14
 74
     0
 42
0.000000001
 43
0.00000001
 40
0.0
 40
0.0
 40
0.0
 40
0.0
 40
0.0923824559411628
 40
0.1844689291573508
 40
0.2764953615950219
 40
0.3686975365494161
 40
0.4613092840003458
 40
0.5545607518442569
 40
0.6486768051537182
 40
0.7438756050146744
 40
0.8403674044302629
 40
0.9203921078121001
 40
1.0
 40
1.0
 40
1.0
 40
1.0
 10
232.1225068388763
 20
43.60669142613731
 30
0.0
 10
232.0989393247532
 20
43.62196540040286
 30
0.0
 10
232.0518798041018
 20
43.6524644128835
 30
0.0
 10
231.9794820161389
 20
43.70209698549441
 30
0.0
 10
231.9059998072434
 20
43.75442652816293
 30
0.0
 10
231.8313003594984
 20
43.80974421387081
 30
0.0
 10
231.7554395697304
 20
43.86798252898438
 30
0.0
 10
231.6784282889436
 20
43.92917544062195
 30
0.0
 10
231.6002961568626
 20
43.99333915720351
 30
0.0
 10
231.5210699222187
 20
44.06048811707063
 30
0.0
 10
231.4457734378088
 20
44.12633902681679
 30
0.0
 10
231.3749461296868
 20
44.18987061362512
 30
0.0
 10
231.3310417588797
 20
44.23053135863861
 30
0.0
 10
231.3091468920744
 20
44.25080864720716
 30
0.0
  0
LINE
  5
25A
330
1F
100
AcDbEntity
  8
0
  6
Continuous
 62
     7
370
    25
100
AcDbLine
 10
232.7622131071
 20
43.1949374967
 30
0.0
 11
232.1225068389
 21
43.6066914261
 31
0.0
  0
SPLINE
  5
25B
330
1F
100
AcDbEntity
  8
0
  6
Continuous
 62
     7
370
    25
100
AcDbSpline
210
0.0
220
0.0
230
1.0
 70
     8
 71
     3
 72
    25
 73
    21
 74
     0
 42
0.000000001
 43
0.00000001
 40
0.0
 40
0.0
 40
0.0
 40
0.0
 40
0.0280105225426465
 40
0.0559601148860768
 40
0.0839014045043132
 40
0.1118870776786367
 40
0.1399695827588937
 40
0.1682008401739883
 40
0.196631967042422
 40
0.2253130233141467
 40
0.2542927850735845
 40
0.3799486436587335
 40
0.5057850221667067
 40
0.6313085886338298
 40
0.7532068238012468
 40
0.8039473267955921
 40
0.8535894438554446
 40
0.9025339722394071
 40
0.9511970353791085
 40
1.0
 40
1.0
 40
1.0
 40
1.0
 10
233.8645789638665
 20
43.91084361001439
 30
0.0
 10
233.8695270713971
 20
43.8832197489069
 30
0.0
 10
233.8794125230326
 20
43.82803211580158
 30
0.0
 10
233.8909481726358
 20
43.74887140843167
 30
0.0
 10
233.9000212944486
 20
43.67256806933328
 30
0.0
 10
233.9063901031615
 20
43.59937230836367
 30
0.0
 10
233.9101063419716
 20
43.52922484015028
 30
0.0
 10
233.9111429629545
 20
43.4621485536375
 30
0.0
 10
233.9094944877276
 20
43.39814464441106
 30
0.0
 10
233.9051483358587
 20
43.33721579114422
 30
0.0
 10
233.8902920112911
 20
43.21532766964706
 30
0.0
 10
233.845203754226
 20
43.06042679799191
 30
0.0
 10
233.7318442337334
 20
42.92948367964986
 30
0.0
 10
233.5700200117391
 20
42.87360727883985
 30
0.0
 10
233.3960047926073
 20
42.89348133122263
 30
0.0
 10
233.2446438719212
 20
42.94079913357811
 30
0.0
 10
233.1342436392228
 20
42.98571455731345
 30
0.0
 10
233.0170841437741
 20
43.04309028860463
 30
0.0
 10
232.8935184768402
 20
43.11176735305745
 30
0.0
 10
232.8060234267452
 20
43.16718759901065
 30
0.0
 10
232.7622131070635
 20
43.19493749674093
 30
0.0
  0
ARC
  5
25C
330
1F
100
AcDbEntity
  8
0
  6
Continuous
 62
     7
370
    25
100
AcDbCircle
 10
245.0575772959
 20
45.6968941462
 30
0.0
 40
11.33460136833757
100
AcDbArc
 50
170.9338278112
 51
189.0661721888
  0
SPLINE
  5
25D
330
1F
100
AcDbEntity
  8
0
  6
Continuous
 62
     7
370
    25
100
AcDbSpline
210
0.0
220
0.0
230
1.0
 70
     8
 71
     3
 72
    26
 73
    22
 74
     0
 42
0.000000001
 43
0.00000001
 40
0.0
 40
0.0
 40
0.0
 40
0.0
 40
0.0241259796963635
 40
0.0482159912272988
 40
0.0723203915124065
 40
0.0964895678710797
 40
0.1207736231963513
 40
0.1452220711242836
 40
0.1698835501657706
 40
0.1948055644472379
 40
0.2200342569517627
 40
0.2456142191611387
 40
0.3690971486901655
 40
0.4940698769485187
 40
0.6192566784762451
 40
0.7454656653603225
 40
0.7971495824713707
 40
0.8481710308405392
 40
0.8988013269235234
 40
0.9493179290492194
 40
1.0
 40
1.0
 40
1.0
 40
1.0
 10
232.7622131070635
 20
50.95904788810552
 30
0.0
 10
232.7839313364396
 20
50.94471636471043
 30
0.0
 10
232.8273354166157
 20
50.91607468404138
 30
0.0
 10
232.8906425339771
 20
50.86808238611258
 30
0.0
 10
232.952504101695
 20
50.8164831882269
 30
0.0
 10
233.0128086168315
 20
50.76090839535365
 30
0.0
 10
233.0715984687714
 20
50.70145315472651
 30
0.0
 10
233.1288789872012
 20
50.63808884588911
 30
0.0
 10
233.1846701265274
 20
50.57082006792518
 30
0.0
 10
233.2389913739492
 20
50.49964595396506
 30
0.0
 10
233.2918703491582
 20
50.42455681421677
 30
0.0
 10
233.4086651738945
 20
50.24530236551493
 30
0.0
 10
233.5705347318209
 20
49.93499689367154
 30
0.0
 10
233.7337196393528
 20
49.46508310553985
 30
0.0
 10
233.8452310445262
 20
48.96612007162981
 30
0.0
 10
233.8923648826347
 20
48.5572363985728
 30
0.0
 10
233.9074838221673
 20
48.2529644419821
 30
0.0
 10
233.9094369611498
 20
48.05171520028677
 30
0.0
 10
233.9029589355107
 20
47.85605528056418
 30
0.0
 10
233.8888320128236
 20
47.66541899266672
 30
0.0
 10
233.8726721211386
 20
47.5438357189279
 30
0.0
 10
233.8645789638665
 20
47.48294468232902
 30
0.0
  0
LINE
  5
25E
330
1F
100
AcDbEntity
  8
0
  6
Continuous
 62
     7
370
    25
100
AcDbLine
 10
232.1225068389
 20
51.3720229011
 30
0.0
 11
232.7622131071
 21
50.9590478881
 31
0.0
  0
SPLINE
  5
25F
330
1F
100
AcDbEntity
  8
0
  6
Continuous
 62
     7
370
    25
100
AcDbSpline
210
0.0
220
0.0
230
1.0
 70
     8
 71
     3
 72
    14
 73
    10
 74
     0
 42
0.000000001
 43
0.00000001
 40
0.0
 40
0.0
 40
0.0
 40
0.0
 40
0.0789261963172865
 40
0.158232872055133
 40
0.330847539457262
 40
0.5000195457610529
 40
0.6670357883572423
 40
0.8332395193657144
 40
1.0
 40
1.0
 40
1.0
 40
1.0
 10
231.308554123025
 20
51.5806051713901
 30
0.0
 10
231.3302710043608
 20
51.58220833524868
 30
0.0
 10
231.3738094575765
 20
51.58542239133592
 30
0.0
 10
231.4653345762255
 20
51.58624343140382
 30
0.0
 10
231.5822429096585
 20
51.57830744962051
 30
0.0
 10
231.7230632480402
 20
51.5520317807427
 30
0.0
 10
231.8602755558523
 20
51.50907418221044
 30
0.0
 10
231.9942062302688
 20
51.45071705740082
 30
0.0
 10
232.079692322228
 20
51.39828351125084
 30
0.0
 10
232.1225068388763
 20
51.37202290109639
 30
0.0
  0
SPLINE
  5
260
330
1F
100
AcDbEntity
  8
0
  6
Continuous
 62
     7
370
    25
100
AcDbSpline
210
0.0
220
0.0
230
1.0
 70
     8
 71
     3
 72
     8
 73
     4
 74
     0
 42
0.000000001
 43
0.00000001
 40
0.0
 40
0.0
 40
0.0
 40
0.0
 40
1.0
 40
1.0
 40
1.0
 40
1.0
 10
229.5062505400205
 20
52.7429965828028
 30
0.0
 10
230.1070087637166
 20
52.35572909964391
 30
0.0
 10
230.707737626577
 20
51.9682617497206
 30
0.0
 10
231.3084382709239
 20
51.58059485713098
 30
0.0
  0
SPLINE
  5
261
330
1F
100
AcDbEntity
  8
0
  6
Continuous
 62
     7
370
    25
100
AcDbSpline
210
0.0
220
0.0
230
1.0
 70
     8
 71
     3
 72
    13
 73
     9
 74
     0
 42
0.000000001
 43
0.00000001
 40
0.0
 40
0.0
 40
0.0
 40
0.0
 40
0.1667030582307992
 40
0.3329480818053035
 40
0.4990671507274896
 40
0.6653938523718403
 40
0.832261271055009
 40
1.0
 40
1.0
 40
1.0
 40
1.0
 10
229.1644220049862
 20
53.04406136188859
 30
0.0
 10
229.1847231874261
 20
53.03049625520936
 30
0.0
 10
229.2252697726148
 20
53.00340331344652
 30
0.0
 10
229.2844194096024
 20
52.95820874043879
 30
0.0
 10
229.3421909545049
 20
52.90979759195585
 30
0.0
 10
229.3984406919645
 20
52.85776247718539
 30
0.0
 10
229.4533679007106
 20
52.80246450997637
 30
0.0
 10
229.4885886103012
 20
52.762847254816
 30
0.0
 10
229.5062448222421
 20
52.74298704581508
 30
0.0
  0
SPLINE
  5
262
330
1F
100
AcDbEntity
  8
0
  6
Continuous
 62
     7
370
    25
100
AcDbSpline
210
0.0
220
0.0
230
1.0
 70
     8
 71
     3
 72
     8
 73
     4
 74
     0
 42
0.000000001
 43
0.00000001
 40
0.0
 40
0.0
 40
0.0
 40
0.0
 40
1.0
 40
1.0
 40
1.0
 40
1.0
 10
227.2204414891955
 20
54.29878321426806
 30
0.0
 10
227.8684715615957
 20
53.8807878983833
 30
0.0
 10
228.5164645386976
 20
53.46254713596568
 30
0.0
 10
229.1644220049862
 20
53.04406136188859
 30
0.0
  0
LWPOLYLINE
  5
263
330
1F
100
AcDbEntity
  8
0
  6
Continuous
 62
     7
370
    25
100
AcDbPolyline
 90
       21
 70
   128
 43
0.0
 10
227.2204414892
 20
54.2987832144
 10
227.5680993617
 20
55.3199636556
 10
227.9829499403
 20
56.3371854785
 10
228.4610912126
 20
57.3408808717
 10
228.9980258652
 20
58.3216092509
 10
229.5887035841
 20
59.2701460559
 10
230.2275685575
 20
60.1775695145
 10
230.9086117327
 20
61.0353445595
 10
231.6254273361
 20
61.8354031083
 10
232.3712731249
 20
62.5702199494
 10
233.1391338035
 20
63.2328835234
 10
233.9217870079
 20
63.8171609321
 10
234.7118712383
 20
64.317556564
 10
235.5019551
 20
64.7293637848
 10
236.2846072017
 20
65.0487092074
 10
237.052466054
 20
65.2725891244
 10
237.7983093102
 20
65.3988977604
 10
238.5151216984
 20
65.4264470781
 10
239.196161006
 20
65.3549779536
 10
239.8350214958
 20
65.185162613
 10
240.2701796824
 20
65.0005301807
  0
SPLINE
  5
264
330
1F
100
AcDbEntity
  8
0
  6
Continuous
 62
     7
370
    25
100
AcDbSpline
210
0.0
220
0.0
230
1.0
 70
    11
 71
     3
 72
    39
 73
    35
 74
     0
 42
0.000000001
 43
0.00000001
 40
0.0
 40
0.0
 40
0.0
 40
0.0
 40
0.0310664058348413
 40
0.0621048158426138
 40
0.0931361551796939
 40
0.1235538293503726
 40
0.1538561545809849
 40
0.1850588072749156
 40
0.2160250992946587
 40
0.2471867223797568
 40
0.2784462884304475
 40
0.3100516090231247
 40
0.3419834369138969
 40
0.3734259894013238
 40
0.4048604886787081
 40
0.436874065183343
 40
0.4685120685926471
 40
0.499805535863323
 40
0.5309508213226204
 40
0.5618649784438111
 40
0.5930416446590877
 40
0.623374245013332
 40
0.6540913579072549
 40
0.6849496782718453
 40
0.7158160645166705
 40
0.7471731804043553
 40
0.7784514311866318
 40
0.810129591156098
 40
0.8419598919688388
 40
0.8735175891922303
 40
0.9050808037886594
 40
0.9370235169792582
 40
0.9687441590030581
 40
1.0
 40
1.0
 40
1.0
 40
1.0
 10
240.4290269704008
 20
63.30397358960948
 30
0.0
 10
240.691912590599
 20
63.27543910231938
 30
0.0
 10
241.2188012010824
 20
63.18949661399777
 30
0.0
 10
241.9828132701585
 20
62.98912149392532
 30
0.0
 10
242.6899634582093
 20
62.7421193877058
 30
0.0
 10
243.3028745228048
 20
62.46413750955269
 30
0.0
 10
243.8000058484752
 20
62.17000381222397
 30
0.0
 10
244.1591975695487
 20
61.86849728403175
 30
0.0
 10
244.3809168383076
 20
61.56149977912933
 30
0.0
 10
244.4461687156897
 20
61.25099451772764
 30
0.0
 10
244.3593215045757
 20
60.93185003297881
 30
0.0
 10
244.1169759168174
 20
60.60253006740663
 30
0.0
 10
243.737038054091
 20
60.26358934584897
 30
0.0
 10
243.2232321009312
 20
59.92575088143833
 30
0.0
 10
242.5973412900212
 20
59.59985298012749
 30
0.0
 10
241.8838703035293
 20
59.303206086888
 30
0.0
 10
241.119967827265
 20
59.04710277845104
 30
0.0
 10
240.3341747443634
 20
58.85807521046026
 30
0.0
 10
239.5526372893234
 20
58.74989928840701
 30
0.0
 10
238.796524304571
 20
58.7422354050373
 30
0.0
 10
238.0941597181774
 20
58.84015744042345
 30
0.0
 10
237.4751393711347
 20
59.06180587392595
 30
0.0
 10
236.966082106121
 20
59.39767396083768
 30
0.0
 10
236.5931385126871
 20
59.83748452701845
 30
0.0
 10
236.3645365614387
 20
60.34855916754109
 30
0.0
 10
236.2956902547194
 20
60.89974425530453
 30
0.0
 10
236.3803066679446
 20
61.45741618361627
 30
0.0
 10
236.6234154578794
 20
61.98749632453527
 30
0.0
 10
237.0055453006972
 20
62.460020673648
 30
0.0
 10
237.5216808751075
 20
62.84614218454122
 30
0.0
 10
238.1486587356094
 20
63.12976637187437
 30
0.0
 10
238.8645661679732
 20
63.29950359060077
 30
0.0
 10
239.6330095601588
 20
63.3610424253121
 30
0.0
 10
240.1645383395312
 20
63.33268207305653
 30
0.0
 10
240.4290269704007
 20
63.30397358960948
 30
0.0
  0
LINE
  5
265
330
1F
100
AcDbEntity
  8
0
  6
Continuous
 62
     7
370
    25
100
AcDbLine
 10
231.2044899826
 20
46.8648465628
 30
0.0
 11
231.5185345897
 21
46.6967027784
 31
0.0
  0
LINE
  5
266
330
1F
100
AcDbEntity
  8
0
  6
Continuous
 62
     7
370
    25
100
AcDbLine
 10
230.2175309436
 20
47.4346058884
 30
0.0
 11
231.2044899826
 21
46.8648465628
 31
0.0
  0
ARC
  5
267
330
1F
100
AcDbEntity
  8
0
  6
Continuous
 62
     7
370
    25
100
AcDbCircle
 10
232.4413521853
 20
51.0059439216
 30
0.0
 40
4.462267193776983
100
AcDbArc
 50
267.6359980982
 51
287.0346845948
  0
SPLINE
  5
268
330
1F
100
AcDbEntity
  8
0
  6
Continuous
 62
     7
370
    25
100
AcDbSpline
210
0.0
220
0.0
230
1.0
 70
     8
 71
     3
 72
    28
 73
    24
 74
     0
 42
0.000000001
 43
0.00000001
 40
0.0
 40
0.0
 40
0.0
 40
0.0
 40
0.0374450349121997
 40
0.1001209618530565
 40
0.1505543367308599
 40
0.1786021876043644
 40
0.2348970129301747
 40
0.2919417223611901
 40
0.3497870960637708
 40
0.3788571635562344
 40
0.4069068538933533
 40
0.4632723181201593
 40
0.5205989187397299
 40
0.5789262349501328
 40
0.6082638683139333
 40
0.6468857421603301
 40
0.6856620004198954
 40
0.738089132030303
 40
0.8179862842585683
 40
0.856240708644229
 40
0.8946415312786009
 40
0.9465302844338616
 40
1.0
 40
1.0
 40
1.0
 40
1.0
 10
241.7675327652275
 20
60.30147795674666
 30
0.0
 10
241.7182256402243
 20
60.32951871499318
 30
0.0
 10
241.5863876864582
 20
60.40449441453023
 30
0.0
 10
241.3757859148969
 20
60.51599401622303
 30
0.0
 10
241.1686000304702
 20
60.61858341986897
 30
0.0
 10
240.9640659341468
 20
60.71461635564646
 30
0.0
 10
240.7422244897284
 20
60.81286486406667
 30
0.0
 10
240.4628567687513
 20
60.92615070926769
 30
0.0
 10
240.2197723611214
 20
61.01508158638036
 30
0.0
 10
240.0216801366743
 20
61.0811929687414
 30
0.0
 10
239.8238348650349
 20
61.14293447628816
 30
0.0
 10
239.5729495984133
 20
61.21294633959025
 30
0.0
 10
239.2646279473254
 20
61.28416204321307
 30
0.0
 10
239.00331573223
 20
61.33069964739398
 30
0.0
 10
238.7762925531472
 20
61.36127485095528
 30
0.0
 10
238.5851260068794
 20
61.38031425380554
 30
0.0
 10
238.35447955189
 20
61.3935409064108
 30
0.0
 10
238.0546178973782
 20
61.39493943151574
 30
0.0
 10
237.7638489972272
 20
61.37197027795103
 30
0.0
 10
237.5069100664572
 20
61.33053404877823
 30
0.0
 10
237.3022515669518
 20
61.28494890884733
 30
0.0
 10
237.0798304371013
 20
61.22233028955188
 30
0.0
 10
236.9315082910162
 20
61.15620138377093
 30
0.0
 10
236.8562343898332
 20
61.12264078037835
 30
0.0
  0
SPLINE
  5
269
330
1F
100
AcDbEntity
  8
0
  6
Continuous
 62
     7
370
    25
100
AcDbSpline
210
0.0
220
0.0
230
1.0
 70
     8
 71
     3
 72
    10
 73
     6
 74
     0
 42
0.000000001
 43
0.00000001
 40
0.0
 40
0.0
 40
0.0
 40
0.0
 40
0.3798174487108013
 40
0.9603712743694113
 40
1.0
 40
1.0
 40
1.0
 40
1.0
 10
242.9074132142741
 20
59.77325093396541
 30
0.0
 10
242.7777605559274
 20
59.84357963986449
 30
0.0
 10
242.4499328346248
 20
60.02140630143128
 30
0.0
 10
242.0420044309793
 20
60.19445860192953
 30
0.0
 10
241.7853716324074
 20
60.29366424852959
 30
0.0
 10
241.768973185303
 20
60.30000333907955
 30
0.0
  0
SPLINE
  5
26A
330
1F
100
AcDbEntity
  8
0
  6
Continuous
 62
     7
370
    25
100
AcDbSpline
210
0.0
220
0.0
230
1.0
 70
     8
 71
     3
 72
    25
 73
    21
 74
     0
 42
0.000000001
 43
0.00000001
 40
0.0
 40
0.0
 40
0.0
 40
0.0
 40
0.0472533917872508
 40
0.0895736156386787
 40
0.1269632240823441
 40
0.1594267770588481
 40
0.2428507964512297
 40
0.3183672309096812
 40
0.3935858487026566
 40
0.4205144052940519
 40
0.4483683787012357
 40
0.4771558249980066
 40
0.5451773830434189
 40
0.6363664722698907
 40
0.696894012283923
 40
0.7498726465123202
 40
0.7959807071598741
 40
0.8771243677046747
 40
0.9543028052275159
 40
1.0
 40
1.0
 40
1.0
 40
1.0
 10
240.3741480293558
 20
62.730115727087
 30
0.0
 10
240.2337439449927
 20
62.74543185423291
 30
0.0
 10
239.9675937066468
 20
62.7744651327797
 30
0.0
 10
239.5948151034847
 20
62.78173178597786
 30
0.0
 10
239.272254494081
 20
62.76834533353283
 30
0.0
 10
238.8431376985926
 20
62.72238753818646
 30
0.0
 10
238.335520271182
 20
62.60536694254769
 30
0.0
 10
237.7927115074517
 20
62.36278365289395
 30
0.0
 10
237.4523109021262
 20
62.10543329888361
 30
0.0
 10
237.2456850684716
 20
61.89062244928764
 30
0.0
 10
237.127701048841
 20
61.74412074447978
 30
0.0
 10
236.9755309908892
 20
61.5143685239124
 30
0.0
 10
236.8088494183828
 20
61.14142719143911
 30
0.0
 10
236.7404891070273
 20
60.67886810556164
 30
0.0
 10
236.7908432934333
 20
60.25053423953307
 30
0.0
 10
236.8962731686235
 20
59.93060832745194
 30
0.0
 10
237.0784719286315
 20
59.59014206636906
 30
0.0
 10
237.3793509436635
 20
59.25419419754438
 30
0.0
 10
237.7690356444365
 20
58.98113548574296
 30
0.0
 10
238.061954490112
 20
58.88717981488347
 30
0.0
 10
238.1708904059915
 20
58.85223789425166
 30
0.0
  0
SPLINE
  5
26B
330
1F
100
AcDbEntity
  8
0
  6
Continuous
 62
     7
370
    25
100
AcDbSpline
210
0.0
220
0.0
230
1.0
 70
     8
 71
     3
 72
    22
 73
    18
 74
     0
 42
0.000000001
 43
0.00000001
 40
0.0
 40
0.0
 40
0.0
 40
0.0
 40
0.0348562881197234
 40
0.0924900456867643
 40
0.1569277512440201
 40
0.2282085045255817
 40
0.2894089389015432
 40
0.3420696599366521
 40
0.3861903415761853
 40
0.4217735618017079
 40
0.5236918804936475
 40
0.6145479382150776
 40
0.7067592537278896
 40
0.7559111263212961
 40
0.8071360145824484
 40
0.8951475406773878
 40
1.0
 40
1.0
 40
1.0
 40
1.0
 10
243.6378924533074
 20
60.21297142147419
 30
0.0
 10
243.6755282586917
 20
60.24814479998053
 30
0.0
 10
243.7753936645402
 20
60.34147623486641
 30
0.0
 10
243.8942180370032
 20
60.4968211094786
 30
0.0
 10
243.990629125005
 20
60.68554963561904
 30
0.0
 10
244.0219057769864
 20
60.87152916126624
 30
0.0
 10
243.9924995504487
 20
61.04334038050997
 30
0.0
 10
243.9240050267649
 20
61.19014827004277
 30
0.0
 10
243.8361922817792
 20
61.31135740643217
 30
0.0
 10
243.6819006987854
 20
61.47694229894493
 30
0.0
 10
243.4140745576159
 20
61.68710556274138
 30
0.0
 10
242.9625047361962
 20
61.94255007892832
 30
0.0
 10
242.5149418647723
 20
62.14918580562383
 30
0.0
 10
242.1060483755996
 20
62.30769065025145
 30
0.0
 10
241.683968409576
 20
62.45020675948039
 30
0.0
 10
241.1056558750919
 20
62.6134642277571
 30
0.0
 10
240.6317770518511
 20
62.68903235126245
 30
0.0
 10
240.3741480293558
 20
62.730115727087
 30
0.0
  0
LINE
  5
26C
330
1F
100
AcDbEntity
  8
0
  6
Continuous
 62
     7
370
    25
100
AcDbLine
 10
233.8645789639
 20
47.4829446823
 30
0.0
 11
233.8593404204
 21
47.7790281012
 31
0.0
  0
LINE
  5
26D
330
1F
100
AcDbEntity
  8
0
  6
Continuous
 62
     7
370
    25
100
AcDbLine
 10
233.8593404204
 20
47.7790281012
 30
0.0
 11
233.9024371578
 21
48.4306349301
 31
0.0
  0
LINE
  5
26E
330
1F
100
AcDbEntity
  8
0
  6
Continuous
 62
     7
370
    25
100
AcDbLine
 10
233.3797920005
 20
50.259716356
 30
0.0
 11
233.0683772305
 21
50.5883126184
 31
0.0
  0
SPLINE
  5
26F
330
1F
100
AcDbEntity
  8
0
  6
Continuous
 62
     7
370
    25
100
AcDbSpline
210
0.0
220
0.0
230
1.0
 70
     8
 71
     3
 72
    41
 73
    37
 74
     0
 42
0.000000001
 43
0.00000001
 40
0.0
 40
0.0
 40
0.0
 40
0.0
 40
0.0207864830875685
 40
0.0437693785867707
 40
0.0668383068232051
 40
0.0980083737924773
 40
0.1454841968419805
 40
0.191871448406711
 40
0.2233262709295247
 40
0.2712984989759021
 40
0.2937505534371445
 40
0.3162916304471524
 40
0.3467667575537946
 40
0.3932083439438633
 40
0.4154766762994892
 40
0.4378298888500672
 40
0.4680294278793931
 40
0.4909854901980988
 40
0.514031099103634
 40
0.5367446625251932
 40
0.5595426958797678
 40
0.5903325500511931
 40
0.6371938151714297
 40
0.6840962976913476
 40
0.7159355429375951
 40
0.742936798186159
 40
0.7647262778235899
 40
0.7805270035152544
 40
0.8125534441365251
 40
0.860812808544123
 40
0.8798809904316133
 40
0.899372149905772
 40
0.9190556027371943
 40
0.9459004324912277
 40
0.9796848979739071
 40
1.0
 40
1.0
 40
1.0
 40
1.0
 10
236.7675283007936
 20
60.48234793713163
 30
0.0
 10
236.7658958164186
 20
60.53478008400742
 30
0.0
 10
236.7624583505258
 20
60.64518464244355
 30
0.0
 10
236.7820675097069
 20
60.80654595420469
 30
0.0
 10
236.8143612880845
 20
60.98972681736616
 30
0.0
 10
236.8802521177291
 20
61.22287025285932
 30
0.0
 10
236.9996513839531
 20
61.4940298323728
 30
0.0
 10
237.165220386668
 20
61.74296478418005
 30
0.0
 10
237.3675288468466
 20
61.97054498999513
 30
0.0
 10
237.5602549743813
 20
62.13497060347921
 30
0.0
 10
237.7569352546672
 20
62.26663019006207
 30
0.0
 10
237.9269045909364
 20
62.36369559162311
 30
0.0
 10
238.1658073978003
 20
62.47573165800084
 30
0.0
 10
238.4236926016041
 20
62.56351261606616
 30
0.0
 10
238.6730299369853
 20
62.62332711683169
 30
0.0
 10
238.883932023032
 20
62.66127829011826
 30
0.0
 10
239.1029636704756
 20
62.68607949984575
 30
0.0
 10
239.3287841249987
 20
62.6971500224516
 30
0.0
 10
239.5353495986449
 20
62.69618183920927
 30
0.0
 10
239.7434680662236
 20
62.68429998782625
 30
0.0
 10
239.9763933262977
 20
62.65895735645391
 30
0.0
 10
240.2835885897839
 20
62.60674596339494
 30
0.0
 10
240.6619667384281
 20
62.50787341954839
 30
0.0
 10
241.0330078845376
 20
62.36556079613935
 30
0.0
 10
241.331451928943
 20
62.21342250221833
 30
0.0
 10
241.5475956098638
 20
62.07709049790135
 30
0.0
 10
241.7101042125909
 20
61.95275633368474
 30
0.0
 10
241.8728795251534
 20
61.80506489208058
 30
0.0
 10
242.071538052999
 20
61.57545395546809
 30
0.0
 10
242.1981971928672
 20
61.29638586311678
 30
0.0
 10
242.2447732977198
 20
61.05975697776918
 30
0.0
 10
242.2587737665614
 20
60.9044239952788
 30
0.0
 10
242.2591436323116
 20
60.7332457798726
 30
0.0
 10
242.2432453058735
 20
60.53123803422392
 30
0.0
 10
242.2133464763078
 20
60.3337287735313
 30
0.0
 10
242.1868610542887
 20
60.2046581190897
 30
0.0
 10
242.1769154285601
 20
60.15619038386925
 30
0.0
  0
SPLINE
  5
270
330
1F
100
AcDbEntity
  8
0
  6
Continuous
 62
     7
370
    25
100
AcDbSpline
210
0.0
220
0.0
230
1.0
 70
     8
 71
     3
 72
    10
 73
     6
 74
     0
 42
0.000000001
 43
0.00000001
 40
0.0
 40
0.0
 40
0.0
 40
0.0
 40
0.294947504039395
 40
0.9798113369353982
 40
1.0
 40
1.0
 40
1.0
 40
1.0
 10
242.1796433035399
 20
60.15495182586472
 30
0.0
 10
242.2624682583659
 20
60.11618673649625
 30
0.0
 10
242.5376115588118
 20
59.98740967101728
 30
0.0
 10
242.8127478415874
 20
59.84609546313464
 30
0.0
 10
242.9613814826957
 20
59.75199751554899
 30
0.0
 10
242.9656374984075
 20
59.74930308957396
 30
0.0
  0
ARC
  5
271
330
1F
100
AcDbEntity
  8
0
  6
Continuous
 62
     7
370
    25
100
AcDbCircle
 10
246.1896511498
 20
45.941741756
 30
0.0
 40
12.46644230717999
100
AcDbArc
 50
171.5249591672
 51
179.8212373334
  0
SPLINE
  5
272
330
1F
100
AcDbEntity
  8
0
  6
Continuous
 62
     7
370
    25
100
AcDbSpline
210
0.0
220
0.0
230
1.0
 70
     8
 71
     3
 72
    14
 73
    10
 74
     0
 42
0.000000001
 43
0.00000001
 40
0.0
 40
0.0
 40
0.0
 40
0.0
 40
0.0003951393068452
 40
0.0003951393068452
 40
0.0003951393068452
 40
0.0008163352168663
 40
0.0008163352168663
 40
0.0008163352168663
 40
0.0012378579337219
 40
0.0012378579337219
 40
0.0012378579337219
 40
0.0012378579337219
 10
241.7715655042399
 20
60.30019892088941
 30
0.0
 10
241.8170273184711
 20
60.28576205826438
 30
0.0
 10
241.8619149230922
 20
60.27089619769878
 30
0.0
 10
241.9061986157673
 20
60.2556124100933
 30
0.0
 10
241.9534019080066
 20
60.23932097075561
 30
0.0
 10
241.9999277210658
 20
60.2225514926717
 30
0.0
 10
242.0457386303074
 20
60.20532268187642
 30
0.0
 10
242.0915850182965
 20
60.18808052804476
 30
0.0
 10
242.1367242538689
 20
60.17037482184027
 30
0.0
 10
242.1811178119113
 20
60.15223196514948
 30
0.0
  0
LINE
  5
273
330
1F
100
AcDbEntity
  8
0
  6
Continuous
 62
     7
370
    25
100
AcDbLine
 10
233.0683772305
 20
50.5883126184
 30
0.0
 11
232.4284410352
 21
51.0005443555
 31
0.0
  0
LINE
  5
274
330
1F
100
AcDbEntity
  8
0
  6
Continuous
 62
     7
370
    25
100
AcDbLine
 10
232.1225068389
 20
51.3720229011
 30
0.0
 11
232.4284410352
 21
51.0005443555
 31
0.0
  0
SPLINE
  5
275
330
1F
100
AcDbEntity
  8
0
  6
Continuous
 62
     7
370
    25
100
AcDbSpline
210
0.0
220
0.0
230
1.0
 70
     8
 71
     3
 72
    13
 73
     9
 74
     0
 42
0.000000001
 43
0.00000001
 40
0.0
 40
0.0
 40
0.0
 40
0.0
 40
0.161854229885178
 40
0.3254858841554281
 40
0.4910085196607404
 40
0.6585318472791263
 40
0.8281616954204583
 40
0.9999999999999999
 40
0.9999999999999999
 40
0.9999999999999999
 40
0.9999999999999999
 10
232.4284410352183
 20
51.00054435545951
 30
0.0
 10
232.4088636432008
 20
51.01310733249267
 30
0.0
 10
232.3694938673551
 20
51.03837124861128
 30
0.0
 10
232.3079579275848
 20
51.07106494552615
 30
0.0
 10
232.2444012683354
 20
51.10001101923302
 30
0.0
 10
232.1787831656786
 20
51.12452338669862
 30
0.0
 10
232.1113558966238
 20
51.14495845005213
 30
0.0
 10
232.0654712964253
 20
51.15455510504191
 30
0.0
 10
232.0423806162503
 20
51.1593844658767
 30
0.0
  0
SPLINE
  5
276
330
1F
100
AcDbEntity
  8
0
  6
Continuous
 62
     7
370
    25
100
AcDbSpline
210
0.0
220
0.0
230
1.0
 70
     8
 71
     3
 72
     9
 73
     5
 74
     0
 42
0.000000001
 43
0.00000001
 40
0.0
 40
0.0
 40
0.0
 40
0.0
 40
0.4907282259506175
 40
1.0
 40
1.0
 40
1.0
 40
1.0
 10
232.0423747889584
 20
51.15935646884568
 30
0.0
 10
232.0182812664806
 20
51.16745200106381
 30
0.0
 10
231.9691837799213
 20
51.18394897798509
 30
0.0
 10
231.9184830861012
 20
51.19874264700132
 30
0.0
 10
231.8926626538138
 20
51.20627664506593
 30
0.0
  0
SPLINE
  5
277
330
1F
100
AcDbEntity
  8
0
  6
Continuous
 62
     7
370
    25
100
AcDbSpline
210
0.0
220
0.0
230
1.0
 70
     8
 71
     3
 72
    14
 73
    10
 74
     0
 42
0.000000001
 43
0.00000001
 40
0.0
 40
0.0
 40
0.0
 40
0.0
 40
0.0310276388071746
 40
0.0622853718672815
 40
0.1248003166904892
 40
0.2498289731753984
 40
0.499889260361071
 40
0.7606803621682141
 40
1.0
 40
1.0
 40
1.0
 40
1.0
 10
231.3087219645255
 20
51.58038438771179
 30
0.0
 10
231.31471420393
 20
51.57655334405815
 30
0.0
 10
231.3267431198892
 20
51.56886284656044
 30
0.0
 10
231.3508029279384
 20
51.55342495705376
 30
0.0
 10
231.3930366005847
 20
51.52635450412293
 30
0.0
 10
231.4775991750968
 20
51.47214247932755
 30
0.0
 10
231.6008861445671
 20
51.39313929746152
 30
0.0
 10
231.7470178510211
 20
51.29953312278408
 30
0.0
 10
231.8453844675618
 20
51.23655004639162
 30
0.0
 10
231.892456168246
 20
51.20641054760249
 30
0.0
  0
LINE
  5
278
330
1F
100
AcDbEntity
  8
0
  6
Continuous
 62
     7
370
    25
100
AcDbLine
 10
229.5062216978
 20
52.7430151888
 30
0.0
 11
229.7971885324
 21
52.5549367598
 31
0.0
  0
SPLINE
  5
279
330
1F
100
AcDbEntity
  8
0
  6
Continuous
 62
     7
370
    25
100
AcDbSpline
210
0.0
220
0.0
230
1.0
 70
     8
 71
     3
 72
     8
 73
     4
 74
     0
 42
0.000000001
 43
0.00000001
 40
0.0
 40
0.0
 40
0.0
 40
0.0
 40
1.0
 40
1.0
 40
1.0
 40
1.0
 10
229.8285774668208
 20
52.53471399540062
 30
0.0
 10
229.8181349609689
 20
52.54153942029802
 30
0.0
 10
229.8076690280791
 20
52.54828238708454
 30
0.0
 10
229.7971812632626
 20
52.55494147473753
 30
0.0
  0
SPLINE
  5
27A
330
1F
100
AcDbEntity
  8
0
  6
Continuous
 62
     7
370
    25
100
AcDbSpline
210
0.0
220
0.0
230
1.0
 70
     8
 71
     3
 72
     8
 73
     4
 74
     0
 42
0.000000001
 43
0.00000001
 40
0.0
 40
0.0
 40
0.0
 40
0.0
 40
1.0
 40
1.0
 40
1.0
 40
1.0
 10
227.0425730879969
 20
54.41296964720969
 30
0.0
 10
227.1015728521669
 20
54.37422898029073
 30
0.0
 10
227.1608604156775
 20
54.33616700299144
 30
0.0
 10
227.2204414891659
 20
54.29878321453115
 30
0.0
  0
SPLINE
  5
27B
330
1F
100
AcDbEntity
  8
0
  6
Continuous
 62
     7
370
    25
100
AcDbSpline
210
0.0
220
0.0
230
1.0
 70
     8
 71
     3
 72
     8
 73
     4
 74
     0
 42
0.000000001
 43
0.00000001
 40
0.0
 40
0.0
 40
0.0
 40
0.0
 40
1.0
 40
1.0
 40
1.0
 40
1.0
 10
227.0177233418974
 20
54.77617982514801
 30
0.0
 10
227.0251975539879
 20
54.65522198443617
 30
0.0
 10
227.0334936578781
 20
54.53415014202552
 30
0.0
 10
227.0425730879969
 20
54.41296964720969
 30
0.0
  0
LWPOLYLINE
  5
27C
330
1F
100
AcDbEntity
  8
0
  6
Continuous
 62
     7
370
    25
100
AcDbPolyline
 90
       17
 70
   128
 43
0.0
 10
227.0177233419
 20
54.7761798251
 10
227.3738037751
 20
55.7887941075
 10
227.7978529253
 20
56.7955822084
 10
228.2856370449
 20
57.7864922581
 10
228.8322860501
 20
58.7516309149
 10
229.4323421442
 20
59.6813621409
 10
230.0798143092
 20
60.5664034098
 10
230.7682381205
 20
61.3979183839
 10
231.4907402879
 20
62.1676051372
 10
232.2401072801
 20
62.8677790427
 10
233.0088573445
 20
63.4914494965
 10
233.7893152061
 20
64.0323897125
 10
234.5736886981
 20
64.4851988911
 10
235.3541465597
 20
64.8453561417
 10
236.1228966241
 20
65.1092656196
 10
236.8722636163
 20
65.2742924269
 10
236.9816855675
 20
65.290287589
  0
SPLINE
  5
27D
330
1F
100
AcDbEntity
  8
0
  6
Continuous
 62
     7
370
    25
100
AcDbSpline
210
0.0
220
0.0
230
1.0
 70
     8
 71
     3
 72
    10
 73
     6
 74
     0
 42
0.000000001
 43
0.00000001
 40
0.0
 40
0.0
 40
0.0
 40
0.0
 40
0.2409820260343464
 40
0.5031431986319208
 40
1.0
 40
1.0
 40
1.0
 40
1.0
 10
233.068377230547
 20
43.88247120076758
 30
0.0
 10
233.1506232587456
 20
43.83079468879857
 30
0.0
 10
233.3223436579123
 20
43.72289997999352
 30
0.0
 10
233.6000638396503
 20
43.59317669931961
 30
0.0
 10
233.7210416270302
 20
43.61595480281912
 30
0.0
 10
233.8002342661191
 20
43.63086545847443
 30
0.0
  0
LINE
  5
27E
330
1F
100
AcDbEntity
  8
0
  6
Continuous
 62
     7
370
    25
100
AcDbLine
 10
228.285203776
 20
53.6115435542
 30
0.0
 11
227.5233243944
 21
54.1021784729
 31
0.0
  0
LINE
  5
27F
330
1F
100
AcDbEntity
  8
0
  6
Continuous
 62
     7
370
    25
100
AcDbLine
 10
227.5233243944
 20
54.1021784729
 30
0.0
 11
227.042573088
 21
54.4129696472
 31
0.0
  0
LINE
  5
280
330
1F
100
AcDbEntity
  8
0
  6
Continuous
 62
     7
370
    25
100
AcDbLine
 10
232.1225068389
 20
43.6066914261
 30
0.0
 11
232.4284410352
 21
44.2947029378
 31
0.0
  0
LINE
  5
281
330
1F
100
AcDbEntity
  8
0
  6
Continuous
 62
     7
370
    25
100
AcDbLine
 10
232.4284410352
 20
44.2947029378
 30
0.0
 11
233.0683772305
 21
43.8824712008
 31
0.0
  0
SPLINE
  5
282
330
1F
100
AcDbEntity
  8
0
  6
Continuous
 62
     7
370
    25
100
AcDbSpline
210
0.0
220
0.0
230
1.0
 70
     8
 71
     3
 72
    13
 73
     9
 74
     0
 42
0.000000001
 43
0.00000001
 40
0.0
 40
0.0
 40
0.0
 40
0.0
 40
0.172258782378417
 40
0.342139827159501
 40
0.5097456258302661
 40
0.6751828993623331
 40
0.8385626190354498
 40
1.0
 40
1.0
 40
1.0
 40
1.0
 10
232.042369104445
 20
44.5760124337128
 30
0.0
 10
232.0655206284001
 20
44.55789284277535
 30
0.0
 10
232.1115041091558
 20
44.52190377083404
 30
0.0
 10
232.1790451218751
 20
44.47090378741237
 30
0.0
 10
232.2447047365633
 20
44.42257910722061
 30
0.0
 10
232.3082288078111
 20
44.37714810131478
 30
0.0
 10
232.3696591865249
 20
44.33432253356188
 30
0.0
 10
232.4089253534912
 20
44.30785671639165
 30
0.0
 10
232.4284410352183
 20
44.29470293784779
 30
0.0
  0
SPLINE
  5
283
330
1F
100
AcDbEntity
  8
0
  6
Continuous
 62
     7
370
    25
100
AcDbSpline
210
0.0
220
0.0
230
1.0
 70
     8
 71
     3
 72
    11
 73
     7
 74
     0
 42
0.000000001
 43
0.00000001
 40
0.0
 40
0.0
 40
0.0
 40
0.0
 40
0.2392845094479873
 40
0.5001120454076898
 40
0.7515010915036774
 40
1.0
 40
1.0
 40
1.0
 40
1.0
 10
231.8929886929689
 20
44.62332642592568
 30
0.0
 10
231.8459194609644
 20
44.59501190321289
 30
0.0
 10
231.7475433063697
 20
44.5358336726567
 30
0.0
 10
231.6012460847859
 20
44.44264577219678
 30
0.0
 10
231.4534053411421
 20
44.34727385622433
 30
0.0
 10
231.3571188784231
 20
44.28273860096151
 30
0.0
 10
231.3092539905641
 20
44.25065753090368
 30
0.0
  0
SPLINE
  5
284
330
1F
100
AcDbEntity
  8
0
  6
Continuous
 62
     7
370
    25
100
AcDbSpline
210
0.0
220
0.0
230
1.0
 70
     8
 71
     3
 72
     9
 73
     5
 74
     0
 42
0.000000001
 43
0.00000001
 40
0.0
 40
0.0
 40
0.0
 40
0.0
 40
0.5090669353869915
 40
1.0
 40
1.0
 40
1.0
 40
1.0
 10
231.8935596965531
 20
44.62262747171392
 30
0.0
 10
231.9192082711771
 20
44.61513476355402
 30
0.0
 10
231.9695917725225
 20
44.60041625084177
 30
0.0
 10
232.0183992840178
 20
44.5840238929896
 30
0.0
 10
232.0423605052123
 20
44.575976342513
 30
0.0
  0
LINE
  5
285
330
1F
100
AcDbEntity
  8
0
  6
Continuous
 62
     7
370
    25
100
AcDbLine
 10
233.7234782708
 20
45.5465057101
 30
0.0
 11
232.0423626101
 21
44.5760182966
 31
0.0
  0
LINE
  5
286
330
1F
100
AcDbEntity
  8
0
  6
Continuous
 62
     7
370
    25
100
AcDbLine
 10
230.035874813
 20
45.6998395744
 30
0.0
 11
229.8355787607
 21
45.198682293
 31
0.0
  0
SPLINE
  5
287
330
1F
100
AcDbEntity
  8
0
  6
Continuous
 62
     7
370
    25
100
AcDbSpline
210
0.0
220
0.0
230
1.0
 70
     8
 71
     3
 72
     8
 73
     4
 74
     0
 42
0.000000001
 43
0.00000001
 40
0.0
 40
0.0
 40
0.0
 40
0.0
 40
1.0
 40
1.0
 40
1.0
 40
1.0
 10
230.0354314984129
 20
45.70062350557526
 30
0.0
 10
230.0616068329821
 20
45.72279088255353
 30
0.0
 10
230.0874278729476
 20
45.74542302364515
 30
0.0
 10
230.1128854266559
 20
45.76850774373643
 30
0.0
  0
LINE
  5
288
330
1F
100
AcDbEntity
  8
0
  6
Continuous
 62
     7
370
    25
100
AcDbLine
 10
230.1128854267
 20
45.7685077437
 30
0.0
 11
231.893178417
 21
44.6227364812
 31
0.0
  0
LINE
  5
289
330
1F
100
AcDbEntity
  8
0
  6
Continuous
 62
     7
370
    25
100
AcDbLine
 10
233.7232695191
 20
45.6445557446
 30
0.0
 11
233.6352704966
 21
45.7520468812
 31
0.0
  0
LINE
  5
28A
330
1F
100
AcDbEntity
  8
0
  6
Continuous
 62
     7
370
    25
100
AcDbLine
 10
231.8068619081
 20
46.7464195511
 30
0.0
 11
230.1128854267
 21
45.7685077437
 31
0.0
  0
LINE
  5
28B
330
1F
100
AcDbEntity
  8
0
  6
Continuous
 62
     7
370
    25
100
AcDbLine
 10
231.9495559337
 20
46.7251271903
 30
0.0
 11
231.8072822223
 21
46.7459318063
 31
0.0
  0
LINE
  5
28C
330
1F
100
AcDbEntity
  8
0
  6
Continuous
 62
     7
370
    25
100
AcDbLine
 10
233.635343502
 20
45.751942742
 30
0.0
 11
231.9495559337
 21
46.7251271903
 31
0.0
  0
LINE
  5
28D
330
1F
100
AcDbEntity
  8
0
  6
Continuous
 62
     7
370
    25
100
AcDbLine
 10
233.7232695191
 20
45.701178401
 30
0.0
 11
233.635297045
 21
45.7519695424
 31
0.0
  0
SPLINE
  5
28E
330
1F
100
AcDbEntity
  8
0
  6
Continuous
 62
     7
370
    25
100
AcDbSpline
210
0.0
220
0.0
230
1.0
 70
     8
 71
     3
 72
    19
 73
    15
 74
     0
 42
0.000000001
 43
0.00000001
 40
0.0
 40
0.0
 40
0.0
 40
0.0
 40
0.0637852801523487
 40
0.1289627947928742
 40
0.1955871357727518
 40
0.2637094157112479
 40
0.3333774494312574
 40
0.4046359392583752
 40
0.477526660464624
 40
0.5520886439445272
 40
0.6283583539150506
 40
0.7063698590296017
 40
0.8377040422924708
 40
1.0
 40
1.0
 40
1.0
 40
1.0
 10
229.2513623924515
 20
45.86911159292713
 30
0.0
 10
229.2720517614567
 20
45.85575245291682
 30
0.0
 10
229.3138820841115
 20
45.82874258437591
 30
0.0
 10
229.3743730577062
 20
45.79122061884938
 30
0.0
 10
229.4338572558855
 20
45.75570087775871
 30
0.0
 10
229.4919384153571
 20
45.72272074884222
 30
0.0
 10
229.5484705324444
 20
45.69251431257183
 30
0.0
 10
229.603215587198
 20
45.6654008726105
 30
0.0
 10
229.655937964791
 20
45.64166925485976
 30
0.0
 10
229.7063795977194
 20
45.62162900141797
 30
0.0
 10
229.7542625161947
 20
45.6055091398685
 30
0.0
 10
229.8092266963776
 20
45.5912311635221
 30
0.0
 10
229.8720580601081
 20
45.58109260244062
 30
0.0
 10
229.9105656032689
 20
45.58756688183012
 30
0.0
 10
229.9318495851367
 20
45.59114536110514
 30
0.0
  0
LINE
  5
28F
330
1F
100
AcDbEntity
  8
0
  6
Continuous
 62
     7
370
    25
100
AcDbLine
 10
229.9564855161
 20
45.6172155083
 30
0.0
 11
230.0241600057
 21
45.6888297659
 31
0.0
  0
SPLINE
  5
290
330
1F
100
AcDbEntity
  8
0
  6
Continuous
 62
     7
370
    25
100
AcDbSpline
210
0.0
220
0.0
230
1.0
 70
     8
 71
     3
 72
     9
 73
     5
 74
     0
 42
0.000000001
 43
0.00000001
 40
0.0
 40
0.0
 40
0.0
 40
0.0
 40
0.523202776288562
 40
0.9999999999999999
 40
0.9999999999999999
 40
0.9999999999999999
 40
0.9999999999999999
 10
231.6406845539569
 20
46.65048740646227
 30
0.0
 10
231.5716602409632
 20
46.67552956553651
 30
0.0
 10
231.4397337372789
 20
46.72339276544512
 30
0.0
 10
231.1982965849245
 20
46.86099096237503
 30
0.0
 10
231.0831800209811
 20
46.92659740065891
 30
0.0
  0
LINE
  5
291
330
1F
100
AcDbEntity
  8
0
  6
Continuous
 62
     7
370
    25
100
AcDbLine
 10
227.3536788979
 20
46.6924868675
 30
0.0
 11
227.8051490675
 21
46.8047514011
 31
0.0
  0
LINE
  5
292
330
1F
100
AcDbEntity
  8
0
  6
Continuous
 62
     7
370
    25
100
AcDbLine
 10
227.8051490675
 20
46.8047514011
 30
0.0
 11
229.2513623925
 21
45.8691115929
 31
0.0
  0
SPLINE
  5
293
330
1F
100
AcDbEntity
  8
0
  6
Continuous
 62
     7
370
    25
100
AcDbSpline
210
0.0
220
0.0
230
1.0
 70
     8
 71
     3
 72
     8
 73
     4
 74
     0
 42
0.000000001
 43
0.00000001
 40
0.0
 40
0.0
 40
0.0
 40
0.0
 40
1.0
 40
1.0
 40
1.0
 40
1.0
 10
227.5244667764683
 20
46.29773739514381
 30
0.0
 10
227.4673415075442
 20
46.42952357893945
 30
0.0
 10
227.4104130158267
 20
46.56110780060024
 30
0.0
 10
227.3536788978772
 20
46.6924868675016
 30
0.0
  0
LINE
  5
294
330
1F
100
AcDbEntity
  8
0
  6
Continuous
 62
     7
370
    25
100
AcDbLine
 10
229.142850278
 20
47.5769898724
 30
0.0
 11
227.8051490675
 21
46.8047514011
 31
0.0
  0
LINE
  5
295
330
1F
100
AcDbEntity
  8
0
  6
Continuous
 62
     7
370
    25
100
AcDbLine
 10
230.1258790749
 20
47.479236339
 30
0.0
 11
229.1428498042
 21
47.57698992
 31
0.0
  0
LINE
  5
296
330
1F
100
AcDbEntity
  8
0
  6
Continuous
 62
     7
370
    25
100
AcDbLine
 10
231.083180021
 20
46.9265974007
 30
0.0
 11
230.1258783253
 21
47.4792359063
 31
0.0
  0
SPLINE
  5
297
330
1F
100
AcDbEntity
  8
0
  6
Continuous
 62
     7
370
    25
100
AcDbSpline
210
0.0
220
0.0
230
1.0
 70
     8
 71
     3
 72
     8
 73
     4
 74
     0
 42
0.000000001
 43
0.00000001
 40
0.0
 40
0.0
 40
0.0
 40
0.0
 40
1.0
 40
1.0
 40
1.0
 40
1.0
 10
227.3536788978794
 20
46.69248686749649
 30
0.0
 10
227.3505415601293
 20
46.727703174369
 30
0.0
 10
227.3485491562314
 20
46.7633474305967
 30
0.0
 10
227.3477677588593
 20
46.79944433259158
 30
0.0
  0
LINE
  5
298
330
1F
100
AcDbEntity
  8
0
  6
Continuous
 62
     7
370
    25
100
AcDbLine
 10
228.1588532913
 20
47.2676740439
 30
0.0
 11
227.3477677589
 21
46.7994443326
 31
0.0
  0
SPLINE
  5
299
330
1F
100
AcDbEntity
  8
0
  6
Continuous
 62
     7
370
    25
100
AcDbSpline
210
0.0
220
0.0
230
1.0
 70
     8
 71
     3
 72
     8
 73
     4
 74
     0
 42
0.000000001
 43
0.00000001
 40
0.0000004089325119
 40
0.0000004089325119
 40
0.0000004089325119
 40
0.0000004089325119
 40
0.0015399868451459
 40
0.0015399868451459
 40
0.0015399868451459
 40
0.0015399868451459
 10
228.158853291348
 20
47.26767404394769
 30
0.0
 10
228.3973298593713
 20
47.36205042976405
 30
0.0
 10
228.63577681704
 20
47.45647904169425
 30
0.0
 10
228.8741855558903
 20
47.55097242465671
 30
0.0
  0
LINE
  5
29A
330
1F
100
AcDbEntity
  8
0
  6
Continuous
 62
     7
370
    25
100
AcDbLine
 10
228.8741855559
 20
47.5509724247
 30
0.0
 11
228.8985817866
 21
47.5559663545
 31
0.0
  0
LINE
  5
29B
330
1F
100
AcDbEntity
  8
0
  6
Continuous
 62
     7
370
    25
100
AcDbLine
 10
229.1428500705
 20
47.5769898538
 30
0.0
 11
228.8985823283
 21
47.5559667471
 31
0.0
  0
SPLINE
  5
29C
330
1F
100
AcDbEntity
  8
0
  6
Continuous
 62
     7
370
    25
100
AcDbSpline
210
0.0
220
0.0
230
1.0
 70
     8
 71
     3
 72
     8
 73
     4
 74
     0
 42
0.000000001
 43
0.00000001
 40
0.0
 40
0.0
 40
0.0
 40
0.0
 40
1.0
 40
1.0
 40
1.0
 40
1.0
 10
230.1258774703984
 20
47.47923641724368
 30
0.0
 10
230.1564855045216
 20
47.46429640943756
 30
0.0
 10
230.1870370054935
 20
47.44941945204419
 30
0.0
 10
230.2175309436081
 20
47.43460588836327
 30
0.0
  0
ARC
  5
29D
330
1F
100
AcDbEntity
  8
0
  6
Continuous
 62
     7
370
    25
100
AcDbCircle
 10
230.9813951634
 20
52.9798608411
 30
0.0
 40
6.625581341068021
100
AcDbArc
 50
283.7327672817
 51
294.8489934469
  0
LWPOLYLINE
  5
29E
330
1F
100
AcDbEntity
  8
0
  6
Continuous
 62
     7
370
    18
100
AcDbPolyline
 90
       19
 70
   128
 43
0.0
 10
265.9153092988
 20
33.1961687223
 10
265.9527601832
 20
33.7810861741
 10
266.0642350195
 20
34.3955335274
 10
266.2471209318
 20
35.0251086569
 10
266.4971312295
 20
35.6550548552
 10
266.8084058831
 20
36.2706067174
 10
267.1736488785
 20
36.8573362295
 10
267.5842992295
 20
37.401490949
 10
268.0307316399
 20
37.8903163505
 10
268.5024821123
 20
38.3123547809
 10
268.9884932156
 20
38.6577140172
 10
269.4773732614
 20
38.9182991315
 10
269.9576633158
 20
39.0880022295
 10
270.418105787
 20
39.1628456146
 10
270.8479082937
 20
39.1410750212
 10
271.2369966294
 20
39.0232007336
 10
271.5762508934
 20
38.8119856251
 10
271.8577192531
 20
38.512380399
 10
271.9891326682
 20
38.3057166115
  0
LWPOLYLINE
  5
29F
330
1F
100
AcDbEntity
  8
0
  6
Continuous
 62
     7
370
    18
100
AcDbPolyline
 90
        9
 70
   128
 43
0.0
 10
267.7230201765
 20
30.9157923113
 10
267.5842992295
 20
30.9178212528
 10
267.1736488785
 20
30.9878491691
 10
266.8084058831
 20
31.1528780948
 10
266.4971312295
 20
31.4090398918
 10
266.2471209318
 20
31.7503303446
 10
266.0642350195
 20
32.1687498943
 10
265.9527601832
 20
32.6544911412
 10
265.9153092988
 20
33.1961687223
  0
LWPOLYLINE
  5
2A0
330
1F
100
AcDbEntity
  8
0
  6
Continuous
 62
     7
370
    18
100
AcDbPolyline
 90
       27
 70
   128
 43
0.0
 10
249.1898433828
 20
40.2139539836
 10
249.228307521
 20
40.9846141083
 10
249.3431599834
 20
41.7888656027
 10
249.5327884931
 20
42.615418539
 10
249.7945310817
 20
43.4526699256
 10
250.1247134568
 20
44.2888665885
 10
250.5187005817
 20
45.1122701593
 10
250.9709617409
 20
45.911321857
 10
251.4751481789
 20
46.6748047471
 10
252.0241822234
 20
47.3920012036
 10
252.61035664
 20
48.0528433603
 10
253.2254428246
 20
48.6480544418
 10
253.8608063156
 20
49.1692789893
 10
254.5075280023
 20
49.6092001527
 10
255.1565293298
 20
49.9616424033
 10
255.7986997422
 20
50.2216582242
 10
256.4250245744
 20
50.3855975635
 10
257.0267115988
 20
50.4511590721
 10
257.5953144485
 20
50.4174224101
 10
258.1228511858
 20
50.2848611664
 10
258.6019163513
 20
50.0553362102
 10
259.0257849202
 20
49.7320695688
 10
259.388506707
 20
49.3195991972
 10
259.6849898928
 20
48.8237152753
 10
259.9110725037
 20
48.2513789263
 10
260.0635808353
 20
47.6106244981
 10
260.0861410157
 20
47.4675010014
  0
LWPOLYLINE
  5
2A1
330
1F
100
AcDbEntity
  8
0
  6
Continuous
 62
     7
370
    18
100
AcDbPolyline
 90
       13
 70
   128
 43
0.0
 10
253.8366489368
 20
36.6418902216
 10
253.2254428246
 20
36.4392574628
 10
252.61035664
 20
36.3243051518
 10
252.0241822234
 20
36.3083647328
 10
251.4751481789
 20
36.3916599744
 10
250.9709617409
 20
36.573021594
 10
250.5187005817
 20
36.8499036721
 10
250.1247134568
 20
37.218419391
 10
249.7945310817
 20
37.673395598
 10
249.5327884931
 20
38.2084454245
 10
249.3431599834
 20
38.8160579436
 10
249.228307521
 20
39.4877036076
 10
249.1898433828
 20
40.2139539836
  0
LWPOLYLINE
  5
2A2
330
1F
100
AcDbEntity
  8
0
  6
Continuous
 62
     7
370
    18
100
AcDbPolyline
 90
       37
 70
   128
 43
0.0
 10
266.9644362234
 20
33.3304376695
 10
267.0032482687
 20
33.8651236711
 10
267.1185051205
 20
34.4283749428
 10
267.3067047575
 20
35.0030773798
 10
267.562128829
 20
35.5717689393
 10
267.877016404
 20
36.1171702161
 10
268.2417997826
 20
36.6227094684
 10
268.6453952066
 20
37.0730261418
 10
269.0755396333
 20
37.4544375921
 10
269.5191633419
 20
37.7553548253
 10
269.9627870505
 20
37.9666346236
 10
270.3929314771
 20
38.0818573572
 10
270.7965269012
 20
38.0975220417
 10
271.1613102798
 20
38.0131527135
 10
271.4761978547
 20
37.8313128921
 10
271.7316219263
 20
37.5575276883
 10
271.9198215633
 20
37.2001159271
 10
272.035078415
 20
36.7699373838
 10
272.0738904604
 20
36.280062816
 10
272.035078415
 20
35.7453768145
 10
271.9198215633
 20
35.1821255428
 10
271.7316219263
 20
34.6074231058
 10
271.4761978547
 20
34.0387315462
 10
271.1613102798
 20
33.4933302694
 10
270.7965269012
 20
32.9877910171
 10
270.3929314771
 20
32.5374743437
 10
269.9627870505
 20
32.1560628935
 10
269.5191633419
 20
31.8551456603
 10
269.0755396333
 20
31.643865862
 10
268.6453952066
 20
31.5286431283
 10
268.2417997826
 20
31.5129784439
 10
267.877016404
 20
31.597347772
 10
267.562128829
 20
31.7791875935
 10
267.3067047575
 20
32.0529727972
 10
267.1185051205
 20
32.4103845585
 10
267.0032482687
 20
32.8405631017
 10
266.9644362234
 20
33.3304376695
  0
LWPOLYLINE
  5
2A3
330
1F
100
AcDbEntity
  8
0
  6
Continuous
 62
     7
370
    18
100
AcDbPolyline
 90
        8
 70
   128
 43
0.0
 10
251.3111637263
 20
40.2139539836
 10
251.3489724547
 20
39.5696557293
 10
251.4617517219
 20
38.9800346254
 10
251.6475718435
 20
38.4551792524
 10
251.9032533857
 20
38.0040700312
 10
252.2244215663
 20
37.6344255658
 10
252.6055811087
 20
37.3525705753
 10
252.6058350693
 20
37.3524239432
  0
LWPOLYLINE
  5
2A4
330
1F
100
AcDbEntity
  8
0
  6
Continuous
 62
     7
370
    18
100
AcDbPolyline
 90
       19
 70
   128
 43
0.0
 10
258.8553271482
 20
48.1780347229
 10
258.4209519499
 20
48.3671309893
 10
257.9402898
 20
48.4605237973
 10
257.4218189217
 20
48.4564685379
 10
256.8744104956
 20
48.3550345979
 10
256.3074308315
 20
48.15795754
 10
255.7305811087
 20
47.8686094073
 10
255.153731386
 20
47.4919410267
 10
254.5867517219
 20
47.0343972984
 10
254.0393432958
 20
46.5038069227
 10
253.5208724175
 20
45.9092484478
 10
253.0402102676
 20
45.2608949342
 10
252.6055811087
 20
44.5698398903
 10
252.2244215663
 20
43.8479074594
 10
251.9032533857
 20
43.1074501055
 10
251.6475718435
 20
42.3611372594
 10
251.4617517219
 20
41.6217385407
 10
251.3489724547
 20
40.9019052664
 10
251.3111637263
 20
40.2139539836
  0
LWPOLYLINE
  5
2A5
330
1F
100
AcDbEntity
  8
0
  6
Continuous
 62
     7
370
    18
100
AcDbPolyline
 90
       25
 70
   128
 43
0.0
 10
268.3524371529
 20
34.1317135505
 10
268.3921923838
 20
34.5033686736
 10
268.508748823
 20
34.8955965267
 10
268.6941633419
 20
35.2816674299
 10
268.9358002474
 20
35.6352712891
 10
269.2171923838
 20
35.9323105856
 10
269.5191633419
 20
36.1525425824
 10
269.8211343
 20
36.2809588327
 10
270.1025264364
 20
36.3088079813
 10
270.3441633419
 20
36.2341921548
 10
270.5295778608
 20
36.0621962985
 10
270.6461343
 20
35.8045416456
 10
270.6858895308
 20
35.478786935
 10
270.6461343
 20
35.107131812
 10
270.5295778608
 20
34.7149039588
 10
270.3441633419
 20
34.3288330557
 10
270.1025264364
 20
33.9752291965
 10
269.8211343
 20
33.6781898999
 10
269.5191633419
 20
33.4579579032
 10
269.2171923838
 20
33.3295416529
 10
268.9358002474
 20
33.3016925042
 10
268.6941633419
 20
33.3763083307
 10
268.508748823
 20
33.5483041871
 10
268.3921923838
 20
33.80595884
 10
268.3524371529
 20
34.1317135505
  0
LWPOLYLINE
  5
2A6
330
1F
100
AcDbEntity
  8
0
  6
Continuous
 62
     7
370
    18
100
AcDbPolyline
 90
       30
 70
   128
 43
0.0
 10
237.2485776155
 20
40.5864401846
 10
237.2865856948
 20
41.6695520555
 10
237.4003502992
 20
42.7891483684
 10
237.5890943009
 20
43.9375811453
 10
237.8515283872
 20
45.1070054257
 10
238.1858598669
 20
46.2894328561
 10
238.5898049173
 20
47.4767862581
 10
239.0606041838
 20
48.6609548041
 10
239.5950416303
 20
49.8338494221
 10
240.189466507
 20
50.9874580526
 10
240.8398182892
 20
52.1139003789
 10
241.5416544149
 20
53.2054816578
 10
242.2901806316
 20
54.2547452822
 10
243.0802837464
 20
55.2545237176
 10
243.9065665537
 20
56.1979874636
 10
244.7633847041
 20
57.0786917062
 10
245.644885261
 20
57.8906203423
 10
246.5450466816
 20
58.628227076
 10
247.4577199507
 20
59.2864733055
 10
248.3766705844
 20
59.8608625416
 10
249.2956212181
 20
60.3474711233
 10
250.2082944872
 20
60.7429750206
 10
251.1084559078
 20
61.0446725408
 10
251.9899564647
 20
61.2505027841
 10
252.8467746151
 20
61.359059721
 10
253.6730574224
 20
61.3696017977
 10
254.4631605372
 20
61.2820570011
 10
255.2116867539
 20
61.0970233509
 10
255.9135228796
 20
60.8157648145
 10
256.2447811118
 20
60.6399954862
  0
LWPOLYLINE
  5
2A7
330
1F
100
AcDbEntity
  8
0
  6
Continuous
 62
     7
370
    18
100
AcDbPolyline
 90
       11
 70
   128
 43
0.0
 10
240.508560057
 20
33.3811075428
 10
240.189466507
 20
33.580900356
 10
239.5950416303
 20
34.0482006324
 10
239.0606041838
 20
34.604046909
 10
238.5898049173
 20
35.244642192
 10
238.1858598669
 20
35.9656105662
 10
237.8515283872
 20
36.7620270865
 10
237.5890943009
 20
37.6284514205
 10
237.4003502992
 20
38.5589650115
 10
237.2865856948
 20
39.5472115081
 10
237.2485776155
 20
40.5864401846
  0
LWPOLYLINE
  5
2A8
330
1F
100
AcDbEntity
  8
0
  6
Continuous
 62
     7
370
    18
100
AcDbPolyline
 90
       14
 70
   128
 43
0.0
 10
270.1733872695
 20
36.1594114531
 10
270.2358633956
 20
36.1144171874
 10
270.3859468213
 20
35.9160610353
 10
270.4638784504
 20
35.6398623224
 10
270.4638784504
 20
35.3063054438
 10
270.3859468213
 20
34.9401287872
 10
270.2358633956
 20
34.5684900001
 10
270.0247591742
 20
34.2189518313
 10
269.7682907917
 20
33.9174379275
 10
269.4854793346
 20
33.6863101959
 10
269.197299635
 20
33.5427103228
 10
268.9251246628
 20
33.4972884539
 10
268.6891403906
 20
33.5534133216
 10
268.6631582752
 20
33.5674075576
  0
LWPOLYLINE
  5
2A9
330
1F
100
AcDbEntity
  8
0
  6
Continuous
 62
     7
370
    18
100
AcDbPolyline
 90
       15
 70
   128
 43
0.0
 10
241.8726587171
 20
37.2508034584
 10
241.8654182771
 20
37.2856288136
 10
241.7228339559
 20
38.1895547625
 10
241.6558330044
 20
39.1477658386
 10
241.6649335509
 20
40.1528520532
 10
241.7500652194
 20
41.1970409257
 10
241.9105696742
 20
42.2722575883
 10
242.1452057105
 20
43.3701872311
 10
242.452158853
 20
44.4823394013
 10
242.8290553875
 20
45.6001136609
 10
243.2729807171
 20
46.7148660958
 10
243.7805019014
 20
47.8179761599
 10
244.3476942038
 20
48.9009133394
 10
244.9701714419
 20
49.9553031203
 10
245.643119907
 20
50.9729917501
  0
LWPOLYLINE
  5
2AA
330
1F
100
AcDbEntity
  8
0
  6
Continuous
 62
     7
370
    18
100
AcDbPolyline
 90
       19
 70
   128
 43
0.0
 10
242.3844547914
 20
34.3208759096
 10
242.2356743587
 20
34.5326485809
 10
241.8373361743
 20
35.2187442684
 10
241.5094777986
 20
35.9820513947
 10
241.2545823254
 20
36.8167889177
 10
241.0745802508
 20
37.7166348044
 10
240.9708348525
 20
38.6747739122
 10
240.9441318646
 20
39.6839496043
 10
240.9946735271
 20
40.7365187093
 10
241.1220770536
 20
41.8245094081
 10
241.3253775309
 20
42.93968161
 10
241.6030352267
 20
44.07358936
 10
241.9529472512
 20
45.2176448064
 10
242.3724634834
 20
46.3631832421
 10
242.8584066427
 20
47.5015287282
 10
243.4070963522
 20
48.6240598029
 10
244.0143770129
 20
49.7222747777
 10
244.6756492768
 20
50.7878561264
 10
245.385904881
 20
51.8127334793
  0
ARC
  5
2AB
330
1F
100
AcDbEntity
  8
0
  6
Continuous
 62
     7
370
    18
100
AcDbCircle
 10
258.6138196343
 20
43.8205935844
 30
0.0
 40
14.59972786471492
100
AcDbArc
 50
110.186167714
 51
139.1704721415
  0
LWPOLYLINE
  5
2AC
330
1F
100
AcDbEntity
  8
0
  6
Continuous
 62
     7
370
    18
100
AcDbPolyline
 90
       13
 70
   128
 43
0.0
 10
246.7300981219
 20
53.4848970919
 10
247.558007871
 20
54.3707724595
 10
248.4138379962
 20
55.1868914763
 10
249.2909236032
 20
55.9268985039
 10
250.1824342677
 20
56.5850306362
 10
251.0814272283
 20
57.156162579
 10
251.9809014543
 20
57.6358465643
 10
252.8738521669
 20
58.0203469872
 10
253.7533253902
 20
58.306669498
 10
254.6124721061
 20
58.4925843211
 10
255.4446015918
 20
58.5766436193
 10
256.2432335251
 20
58.5581927692
 10
256.3690617393
 20
58.5455504611
  0
LINE
  5
2AD
330
1F
100
AcDbEntity
  8
0
  6
Continuous
 62
     7
370
    18
100
AcDbLine
 10
232.7622131071
 20
50.9590478881
 30
0.0
 11
233.0683772305
 21
50.5883126184
 31
0.0
  0
LINE
  5
2AE
330
1F
100
AcDbEntity
  8
0
  6
Continuous
 62
     7
370
    18
100
AcDbLine
 10
232.7622131071
 20
43.1949374967
 30
0.0
 11
233.0683772305
 21
43.8824712008
 31
0.0
  0
LINE
  5
2AF
330
1F
100
AcDbEntity
  8
0
  6
Continuous
 62
     7
370
    18
100
AcDbLine
 10
233.8042873843
 20
44.3073030897
 30
0.0
 11
233.0683845567
 21
43.88247543
 31
0.0
  0
LINE
  5
2B0
330
1F
100
AcDbEntity
  8
0
  6
Continuous
 62
     7
370
    18
100
AcDbLine
 10
233.7377120091
 20
45.0505289829
 30
0.0
 11
232.4284410352
 21
44.2947029378
 31
0.0
  0
LINE
  5
2B1
330
1F
100
AcDbEntity
  8
0
  6
Continuous
 62
     7
370
    18
100
AcDbLine
 10
229.2513623925
 20
45.8691115929
 30
0.0
 11
228.9548748897
 21
45.3730499854
 31
0.0
  0
LINE
  5
2B2
330
1F
100
AcDbEntity
  8
0
  6
Continuous
 62
     7
370
    18
100
AcDbLine
 10
231.083180021
 20
46.9265974007
 30
0.0
 11
229.2514226419
 21
45.8691463742
 31
0.0
  0
LINE
  5
2B3
330
1F
100
AcDbEntity
  8
0
  6
Continuous
 62
     7
370
    18
100
AcDbLine
 10
231.083180021
 20
46.9265974007
 30
0.0
 11
231.2044899826
 21
46.8648465628
 31
0.0
  0
OLE2FRAME
  5
2B4
330
1F
100
AcDbEntity
  8
0
100
AcDbOle2Frame
 70
     2
  3
Paintbrush-Bild
 10
13.8511154363
 20
38.264191557
 30
0.0
 11
51.6290888628
 21
31.9806341108
 31
0.0
 71
     2
 72
     0
 73
     1
 90
    12928
310
80552BED0767C5B32B40DDAF6807D121434000000000000000006FFBDDFB85D0
310
4940DDAF6807D121434000000000000000006FFBDDFB85D04940416F4BD60AFB
310
3F4000000000000000002BED0767C5B32B40416F4BD60AFB3F40000000000000
310
0000000000000100000000010000010000000100000000000100000000320000
310
D0CF11E0A1B11AE1000000000000000000000000000000003E000300FEFF0900
310
0600000000000000000000000100000001000000000000000010000002000000
310
01000000FEFFFFFF0000000000000000FFFFFFFFFFFFFFFFFFFFFFFFFFFFFFFF
310
FFFFFFFFFFFFFFFFFFFFFFFFFFFFFFFFFFFFFFFFFFFFFFFFFFFFFFFFFFFFFFFF
310
FFFFFFFFFFFFFFFFFFFFFFFFFFFFFFFFFFFFFFFFFFFFFFFFFFFFFFFFFFFFFFFF
310
FFFFFFFFFFFFFFFFFFFFFFFFFFFFFFFFFFFFFFFFFFFFFFFFFFFFFFFFFFFFFFFF
310
FFFFFFFFFFFFFFFFFFFFFFFFFFFFFFFFFFFFFFFFFFFFFFFFFFFFFFFFFFFFFFFF
310
FFFFFFFFFFFFFFFFFFFFFFFFFFFFFFFFFFFFFFFFFFFFFFFFFFFFFFFFFFFFFFFF
310
FFFFFFFFFFFFFFFFFFFFFFFFFFFFFFFFFFFFFFFFFFFFFFFFFFFFFFFFFFFFFFFF
310
FFFFFFFFFFFFFFFFFFFFFFFFFFFFFFFFFFFFFFFFFFFFFFFFFFFFFFFFFFFFFFFF
310
FFFFFFFFFFFFFFFFFFFFFFFFFFFFFFFFFFFFFFFFFFFFFFFFFFFFFFFFFFFFFFFF
310
FFFFFFFFFFFFFFFFFFFFFFFFFFFFFFFFFFFFFFFFFFFFFFFFFFFFFFFFFFFFFFFF
310
FFFFFFFFFFFFFFFFFFFFFFFFFFFFFFFFFFFFFFFFFFFFFFFFFFFFFFFFFFFFFFFF
310
FFFFFFFFFFFFFFFFFFFFFFFFFFFFFFFFFFFFFFFFFFFFFFFFFFFFFFFFFFFFFFFF
310
FFFFFFFFFFFFFFFFFFFFFFFFFFFFFFFFFFFFFFFFFFFFFFFFFFFFFFFFFFFFFFFF
310
FFFFFFFFFFFFFFFFFFFFFFFFFFFFFFFFFFFFFFFFFFFFFFFFFFFFFFFFFFFFFFFF
310
FDFFFFFFFEFFFFFFFEFFFFFFFEFFFFFF05000000060000000700000008000000
310
090000000A0000000B0000000C0000000D0000000E0000000F00000010000000
310
11000000120000001300000014000000150000001600000017000000FEFFFFFF
310
FFFFFFFFFFFFFFFFFFFFFFFFFFFFFFFFFFFFFFFFFFFFFFFFFFFFFFFFFFFFFFFF
310
FFFFFFFFFFFFFFFFFFFFFFFFFFFFFFFFFFFFFFFFFFFFFFFFFFFFFFFFFFFFFFFF
310
FFFFFFFFFFFFFFFFFFFFFFFFFFFFFFFFFFFFFFFFFFFFFFFFFFFFFFFFFFFFFFFF
310
FFFFFFFFFFFFFFFFFFFFFFFFFFFFFFFFFFFFFFFFFFFFFFFFFFFFFFFFFFFFFFFF
310
FFFFFFFFFFFFFFFFFFFFFFFFFFFFFFFFFFFFFFFFFFFFFFFFFFFFFFFFFFFFFFFF
310
FFFFFFFFFFFFFFFFFFFFFFFFFFFFFFFFFFFFFFFFFFFFFFFFFFFFFFFFFFFFFFFF
310
FFFFFFFFFFFFFFFFFFFFFFFFFFFFFFFFFFFFFFFFFFFFFFFFFFFFFFFFFFFFFFFF
310
FFFFFFFFFFFFFFFFFFFFFFFFFFFFFFFFFFFFFFFFFFFFFFFFFFFFFFFFFFFFFFFF
310
FFFFFFFFFFFFFFFFFFFFFFFFFFFFFFFFFFFFFFFFFFFFFFFFFFFFFFFFFFFFFFFF
310
FFFFFFFFFFFFFFFFFFFFFFFFFFFFFFFFFFFFFFFFFFFFFFFFFFFFFFFFFFFFFFFF
310
FFFFFFFFFFFFFFFFFFFFFFFFFFFFFFFFFFFFFFFFFFFFFFFFFFFFFFFFFFFFFFFF
310
FFFFFFFFFFFFFFFFFFFFFFFFFFFFFFFFFFFFFFFFFFFFFFFFFFFFFFFFFFFFFFFF
310
FFFFFFFFFFFFFFFFFFFFFFFFFFFFFFFFFFFFFFFFFFFFFFFFFFFFFFFFFFFFFFFF
310
52006F006F007400200045006E00740072007900000000000000000000000000
310
0000000000000000000000000000000000000000000000000000000000000000
310
16000500FFFFFFFFFFFFFFFF020000000A00030000000000C000000000000046
310
00000000000000000000000010A8DDD9FFA6D30103000000C000000000000000
310
01004F006C006500000000000000000000000000000000000000000000000000
310
0000000000000000000000000000000000000000000000000000000000000000
310
0A000200FFFFFFFFFFFFFFFFFFFFFFFF00000000000000000000000000000000
310
0000000000000000000000000000000000000000000000001400000000000000
310
010043006F006D0070004F0062006A0000000000000000000000000000000000
310
0000000000000000000000000000000000000000000000000000000000000000
310
120002010100000003000000FFFFFFFF00000000000000000000000000000000
310
0000000000000000000000000000000000000000010000004D00000000000000
310
01004F006C006500310030004E00610074006900760065000000000000000000
310
0000000000000000000000000000000000000000000000000000000000000000
310
1A000200FFFFFFFFFFFFFFFFFFFFFFFF00000000000000000000000000000000
310
0000000000000000000000000000000000000000040000002426000000000000
310
FEFFFFFF02000000FEFFFFFFFFFFFFFFFFFFFFFFFFFFFFFFFFFFFFFFFFFFFFFF
310
FFFFFFFFFFFFFFFFFFFFFFFFFFFFFFFFFFFFFFFFFFFFFFFFFFFFFFFFFFFFFFFF
310
FFFFFFFFFFFFFFFFFFFFFFFFFFFFFFFFFFFFFFFFFFFFFFFFFFFFFFFFFFFFFFFF
310
FFFFFFFFFFFFFFFFFFFFFFFFFFFFFFFFFFFFFFFFFFFFFFFFFFFFFFFFFFFFFFFF
310
FFFFFFFFFFFFFFFFFFFFFFFFFFFFFFFFFFFFFFFFFFFFFFFFFFFFFFFFFFFFFFFF
310
FFFFFFFFFFFFFFFFFFFFFFFFFFFFFFFFFFFFFFFFFFFFFFFFFFFFFFFFFFFFFFFF
310
FFFFFFFFFFFFFFFFFFFFFFFFFFFFFFFFFFFFFFFFFFFFFFFFFFFFFFFFFFFFFFFF
310
FFFFFFFFFFFFFFFFFFFFFFFFFFFFFFFFFFFFFFFFFFFFFFFFFFFFFFFFFFFFFFFF
310
FFFFFFFFFFFFFFFFFFFFFFFFFFFFFFFFFFFFFFFFFFFFFFFFFFFFFFFFFFFFFFFF
310
FFFFFFFFFFFFFFFFFFFFFFFFFFFFFFFFFFFFFFFFFFFFFFFFFFFFFFFFFFFFFFFF
310
FFFFFFFFFFFFFFFFFFFFFFFFFFFFFFFFFFFFFFFFFFFFFFFFFFFFFFFFFFFFFFFF
310
FFFFFFFFFFFFFFFFFFFFFFFFFFFFFFFFFFFFFFFFFFFFFFFFFFFFFFFFFFFFFFFF
310
FFFFFFFFFFFFFFFFFFFFFFFFFFFFFFFFFFFFFFFFFFFFFFFFFFFFFFFFFFFFFFFF
310
FFFFFFFFFFFFFFFFFFFFFFFFFFFFFFFFFFFFFFFFFFFFFFFFFFFFFFFFFFFFFFFF
310
FFFFFFFFFFFFFFFFFFFFFFFFFFFFFFFFFFFFFFFFFFFFFFFFFFFFFFFFFFFFFFFF
310
FFFFFFFFFFFFFFFFFFFFFFFFFFFFFFFFFFFFFFFFFFFFFFFFFFFFFFFFFFFFFFFF
310
0100000200000000000000000000000000000000000000000000000000000000
310
0000000000000000000000000000000000000000000000000000000000000000
310
0100FEFF030A0000FFFFFFFF0A00030000000000C00000000000004607000000
310
5042727573680007000000504272757368000700000050427275736800F439B2
310
7100000000000000000000000000000000000000000000000000000000000000
310
0000000000000000000000000000000000000000000000000000000000000000
310
0000000000000000000000000000000000000000000000000000000000000000
310
0000000000000000000000000000000000000000000000000000000000000000
310
0000000000000000000000000000000000000000000000000000000000000000
310
0000000000000000000000000000000000000000000000000000000000000000
310
0000000000000000000000000000000000000000000000000000000000000000
310
0000000000000000000000000000000000000000000000000000000000000000
310
0000000000000000000000000000000000000000000000000000000000000000
310
0000000000000000000000000000000000000000000000000000000000000000
310
0000000000000000000000000000000000000000000000000000000000000000
310
0000000000000000000000000000000000000000000000000000000000000000
310
20260000424D0E260000000000003E00000028000000B40200006E0000000100
310
01000000000000000000130B0000130B00000200000002000000000000FFFFFF
310
FFFFFFFFFFFFFFFFFFFFFFFFFFFFFFFFFFFFFFFFFFFFFFFFFFFFFFFFFFFFFFFF
310
FFFFFFFFFFFFFFFFFFFFFFFFFFFFFFFFFFFFFFFFFFFFFFFFFFFFFFFFFFFFFFFF
310
FFFFFFFFFFFFFFFFFFFFFFFFFFFFFFFFFFFFFFFFFFFFFFFFF000FFFFFFFFFFFF
310
FFFFFFFFFFFFFFFFFFFFFFFFFFFFFFFFFFFFFFFFFFFFFFFFFFFFFFFFFFFFFFFF
310
FFFFFFFFFFFFFFFFFFFFFFFFFFFFFFFFFFFFFFFFFFFFFFFFFFFFFFFFFFFFFFFF
310
FFFFFFFFFFFFFFFFFFFFFFFFFFFFFFFFF000FFFFFFFFFFFFFFFFFFFFFFFFFFFF
310
FFFFFFFFFFFFFFFFFFFFFFFFFFFFFFFFFFFFFFFFFFFFFFFFFFFFFFFFFFFFFFFF
310
FFFFFFFFFFFFFFFFFFFFFFFFFFFFFFFFFFFFFFFFFFFFFFFFFFFFFFFFFFFFFFFF
310
FFFFFFFFFFFFFFFFF000FFFFFFFFFFFFFFFFFFFFFFFFFFFFFFFFFFFFFFFFFFFF
310
FFFFFFFFFFFFFFFFFFFFFFFFFFFFFFFFFFFFFFFFFFFFFFFFFFFFFFFFFFFFFFFF
310
FFFFFFFFFFFFFFFFFFFFFFFFFFFFFFFFFFFFFFFFFFFFFFFFFFFFFFFFFFFFFFFF
310
F000FFFFFFFFFFFFFFFFFFFFFFFFFFFFFFFFFFFFFFFFFFFFFFFFFFFFFFFFFFFF
310
FFFFFFFFFFFFFFFFFFFFFFFFFFFFFFFFFFFFFFFFFFFFFFFFFFFFFFFFFFFFFFFF
310
FFFFFFFFFFFFFFFFFFFFFFFFFFFFFFFFFFFFFFFFFFFFFFFFF000FFFFFFFFFFFF
310
FFFFFFFFFFFFFFFFFFFFFFFFFFFFFFFFFFFFFFFFFFFFFFFFFFFFFFFFFFFFFFFF
310
FFFFFFFFFFFFFFFFFFFFFFFFFFFFFFFFFFFFFFFFFFFFFFFFFFFFFFFFFFFFFFFF
310
FFFFFFFFFFFFFFFFFFFFFFFFFFFFFFFFF000FFFFFFFFFFFFFFFFFFFFFFFFFFFF
310
FFFFFFFFFFFFFFFFFFFFFFFFFFFFFFFFFFFFFFFFFFFFFFFFFFFFFFFFFFFFFFFF
310
FFFFFFFFFFFFFFFFFFFFFFFFFFFFFFFFFFFFFFFFFFFFFFFFFFFFFFFFFFFFFFFF
310
FFFFFFFFFFFFFFFFF000FFFFFFFFFFFFFFFFFFFFFFFFFFFFFFFFFFFFFFFFFFFF
310
FFFFFFFFFFFFFFFFFFFFFFFFFFFFFFFFFFFFFFFFFFFFFFFFFFFFFFFFFFFFFFFF
310
FFFFFFFFFFFFFFFFFFFFFFFFFFFFFFFFFFFFFFFFFFFFFFFFFFFFFFFFFFFFFFFF
310
F000FFFFFFFFFFFFFFFFFFFFFFFFFFFFFFFFFFFFFFFFFFFFFFFFFFFFFFFFFFFF
310
FFFFFFFFFFFFFFFFFFFFFFFFFFFFFFFFFFFFFFFFFFFFFFFFFFFFFFFFFFFFFFFF
310
FFFFFFFFFFFFFFFFFFFFFFFFFFFFFFFFFFFFFFFFFFFFFFFFF000FFFFFFFFFFFF
310
FFFFFFFFFFFFFFFFFFFFFFFFFFFFFFFFFFFFFFFFFFFFFFFFFFFFFFFFFFFFFFFF
310
FFFFFFFFFFFFFFFFFFFFFFFFFFFFFFFFFFFFFFFFFFFFFFFFFFFFFFFFFFFFFFFF
310
FFFFFFFFFFFFFFFFFFFFFFFFFFFFFFFFF000FFFFFFFFFFFFFFFFFFFFFFFFFFFF
310
FFFFFFFFFFFFFFFFFFFFFFFFFFFFFFFFFFFFFFFFFFFFFFFFFFFFFFFFFFFFFFFF
310
FFFFFFFFFFFFFFFFFFFFFFFFFFFFFFFFFFFFFFFFFFFFFFFFFFFFFFFFFFFFFFFF
310
FFFFFFFFFFFFFFFFF000FFFFFFFFFFFFFFFFFFFFFFFFFFFFFFFFFFFFFFFFFFFF
310
FFFFFFFFFFFFFFFFFFFFFFFFFFFFFFFFFFFFFFFFFFFFFFFFFFFFFFFFFFFFFFFF
310
FFFFFFFFFFFFFFFFFFFFFFFFFFFFFFFFFFFFFFFFFFFFFFFFFFFFFFFFFFFFFFFF
310
F000FFFFFFFFFFFFFFFFFFFFFFFFFFFFFFFFFFFFFFFFFFFFFFFFFFFFFFFFFFFF
310
FFFFFFFFFFFFFFFFFFFFFFFFFFFFFFFFFFFFFFFFFFFFFFFFFFFFFFFFFFFFFFFF
310
FFFFFFFFFFFFFFFFFFFFFFFFFFFFFFFFFFFFFFFFFFFFFFFFF000FFFFFFFFFFFF
310
FFFFFFFFFFFFFFFFFFFFFFFFFFFFFFFFFFFFFFFFFFFFFFFFFFFFFFFFFFFFFFFF
310
FFFFFFFFFFFFFFFFFFFFFFFFFFFFFFFFFFFFFFFFFFFFFFFFFFFFFFFFFFFFFFFF
310
FFFFFFFFFFFFFFFFFFFFFFFFFFFFFFFFF000FFFFFFFFFFFFFFFFFFFFFFFFFFFF
310
FFFFFFFFFFFFFFFFFFFFFFFFFFFFFFFFFFFFFFFFFFFFFFFFFFFFFFFFFFFFFFFF
310
FFFFFFFFFFFFFFFFFFFFFFFFFFFFFFFFFFFFFFFFFFFFFFFFFFFFFFFFFFFFFFFF
310
FFFFFFFFFFFFFFFFF000FFFFFFFFFFFFFFFFFFFFFFFFFFFFFFFFFFFFFFFFFFFF
310
FFFFFFFFFFFFFFFFFFFFFFFFFFFFFFFFFFFFFFFFFFFFFFFFFFFFFFFFFFFFFFFF
310
FFFFFFFFFFFFFFFFFFFFFFFFFFFFFFFFFFFFFFFFFFFFFFFFFFFFFFFFFFFFFFFF
310
F000FFFFFFFFFFFFFFFFFFFFFFFFFFFFFFFFFFFFFFFFFFFFFFFFFFFFFFFFFFFF
310
FFFFFFFFFFFFFFFFFFFFFFFFFFFFFFFFFFFFFFFFFFFFFFFFFFFFFFFFFFFFFFFF
310
FFFFFFFFFFFFFFFFFFFFFFFFFFFFFFFFFFFFFFFFFFFFFFFFF000FFFFFFFFFFFF
310
FFFFFFFFFFFFFFFFFFFFFFFFFFFFFFFFFFFFFFFFFFFFFFFFFFFFFFFFFFFFFFFF
310
FFFFFFFFFFFFFFFFFFFFFFFFFFFFFFFFFFFFFFFFFFFFFFFFFFFFFFFFFFFFFFFF
310
FFFFFFFFFFFFFFFFFFFFFFFFFFFFFFFFF000FFFFFFFFFFFFFFFFFFFFFFFFFFFF
310
FFFFFFFFFFFFFFFFFFFFFFFFFFFFFFFFFFFFFFFFFFFFFFFFFFFFFFFFFFFFFFFF
310
FFFFFFFFFFFFFFFFFFFFFFFFFFFFFFFFFFFFFFFFFFFFFFFFFFFFFFFFFFFFFFFF
310
FFFFFFFFFFFFFFFFF000FFFFF80003FFFFFFFFFFFFFFFFFFFFFFFFFFFFFFFFFF
310
FFFFF00007FFFFFFFFFF00007FFFFFF800000000000000007FFFFFFFFFFFFFFF
310
FFFFFFFC001FFFFFFFFFFFFFFC001FFFFFFFFFFFFFFFFFFFFFFFFFFE0007FFFF
310
F000FFFF8000007FFFFFFFF8000FFFFFC0007FFFFF80007FFFFF0000007FFFFF
310
FFF8000007FFFFF800000000000000007FFFFFF0001FFFFFFFFFFFC00001FFFF
310
FFFFFFFFC00001FFFFFFFF000000000003FFFFE000007FFFF000FFFE0000000F
310
FFFFFFF0000FFFFF80007FFFFF80007FFFFC0000001FFFFFFFC0000001FFFFF8
310
00000000000000007FFFFFF0001FFFFFFFFFFE0000003FFFFFFFFFFE0000003F
310
FFFFFF000000000003FFFF0000000FFFF000FFF800000003FFFFFFF00007FFFF
310
80007FFFFF80007FFFF000000007FFFFFF000000003FFFF80000000000000000
310
7FFFFFF0001FFFFFFFFFF80000000FFFFFFFFFF80000000FFFFFFF0000000000
310
03FFFC00000003FFF000FFE000000000FFFFFFF00007FFFF80003FFFFF80007F
310
FFC000000001FFFFFC000000001FFFF800000000000000007FFFFFF0001FFFFF
310
FFFFE000000003FFFFFFFFE000000003FFFFFF000000000003FFF000000000FF
310
F000FF80000000007FFFFFF00007FFFF80003FFFFF80007FFF8000000000FFFF
310
F80000000007FFF800000000000000007FFFFFF0001FFFFFFFFFC000000001FF
310
FFFFFFC000000001FFFFFF000000000003FFC0000000007FF000FF0000000000
310
3FFFFFE00007FFFF00003FFFFF80007FFE00000000003FFFF00000000003FFF8
310
00000000000000007FFFFFF0001FFFFFFFFF8000000000FFFFFFFF8000000000
310
FFFFFF000000000003FF80000000003FF000FE00000000001FFFFFE00003FFFF
310
00003FFFFF80007FFC00000000001FFFE00000000001FFF8000001FFFE000000
310
7FFFFFF0001FFFFFFFFE00000000003FFFFFFE00000000003FFFFF0000000000
310
03FF00000000001FF000FC00000000000FFFFFE00003FFFF00001FFFFF80007F
310
F800000000001FFFC00000000000FFF8000001FFFE0000007FFFFFF0001FFFFF
310
FFFC00000000001FFFFFFC00000000001FFFFF000000000003FE00000000000F
310
F000F8000000000007FFFFE00003FFFF00001FFFFF80007FF800000000000FFF
310
800000000000FFF8000001FFFE0000007FFFFFF0001FFFFFFFF800000000000F
310
FFFFF800000000000FFFFF000000000003FC000000000007F000F80000000000
310
03FFFFC00003FFFE00001FFFFF80007FF0000000000007FF0000000000007FF8
310
000001FFFE0000007FFFFFF0001FFFFFFFF0000000000007FFFFF00000000000
310
07FFFF000000000003F8000000000003F000F0000000000003FFFFC00001FFFE
310
00001FFFFF80007FE0000000000007FE0000000000003FF8000001FFFE000000
310
7FFFFFF0001FFFFFFFF0000000000007FFFFF0000000000007FFFF0000000000
310
03F800001F800003F000E00001FFF00001FFFFC00001FFFE00000FFFFF80007F
310
E00001FFE00003FE00001FFF00003FF8000001FFFE0000007FFFFFF0001FFFFF
310
FFE000003E000003FFFFE000003E000003FFFF000000000003F00001FFF80001
310
F000E00007FFFC0001FFFFC00001FFFE00000FFFFF80007FC0000FFFFC0003FC
310
0000FFFFC0001FF8000001FFFE0000007FFFFFF0001FFFFFFFC00003FFE00001
310
FFFFC00003FFE00001FFFF0001FFFFFFFFF00007FFFE0001F000E0000FFFFF00
310
00FFFF800001FFFC00000FFFFF80007FC0001FFFFE0001FC0001FFFFE0001FF8
310
000001FFFE0000007FFFFFF0001FFFFFFF80000FFFF80000FFFF80000FFFF800
310
00FFFF0003FFFFFFFFE0000FFFFF8000F000C0003FFFFF8000FFFF800000FFFC
310
000007FFFF80007F80003FFFFF0001FC0003FFFFF0001FF8000001FFFE000000
310
7FFFFFF0001FFFFFFF80003FFFFE0000FFFF80003FFFFE0000FFFF0003FFFFFF
310
FFE0003FFFFF8000F000C0003FFFFF8000FFFF800000FFFC000007FFFF80007F
310
80007FFFFF8001F80007FFFFF8000FF8000001FFFE0000007FFFFFF0001FFFFF
310
FF00007FFFFF00007FFF00007FFFFF00007FFF0003FFFFFFFFE0003FFFFFC000
310
F000C0007FFFFFC000FFFF000000FFFC000007FFFF80007F8000FFFFFF8000F8
310
000FFFFFF8000FF8000001FFFE0000007FFFFFF0001FFFFFFF0000FFFFFF8000
310
7FFF0000FFFFFF80007FFF0003FFFFFFFFC0007FFFFFC00070008000FFFFFFC0
310
00FFFF000000FFF8000007FFFF80007F8000FFFFFF8000F8000FFFFFF8000FF8
310
000001FFFE0000007FFFFFF0001FFFFFFE0001FFFFFFC0003FFE0001FFFFFFC0
310
003FFF0003FFFFFFFFC0007FFFFFE00070008000FFFFFFC0007FFF0000007FF8
310
000003FFFF80007F0001FFFFFF8000F8000FFFFFF8000FF8000001FFFE000000
310
7FFFFFF0001FFFFFFE0001FFFFFFC0003FFE0001FFFFFFC0003FFF0003FFFFFF
310
FFC000FFFFFFE00070008000FFFFFFC0007FFF0000007FF8000003FFFF80007F
310
0001FFFFFF8000F8001FFFFFF8000FF8000001FFFE0000007FFFFFF0001FFFFF
310
FE0003FFFFFFE0003FFE0003FFFFFFE0003FFF0003FFFFFFFFC000FFFFFFE000
310
70008000FFFFFFC0007FFE0000007FF8000003FFFF80007F0001FFFFFF8000F0
310
001FFFFFF8000FF8000001FFFE0000007FFFFFF0001FFFFFFC0003FFFFFFE000
310
1FFC0003FFFFFFE0001FFF0003FFFFFFFFC000FFFFFFC00070008000FFFFFF80
310
007FFE0000007FF0000003FFFF80007F0001FFFFFF0000F0001FFFFFF8000FF8
310
000001FFFE0000007FFFFFF0001FFFFFFC0007FFFFFFF0001FFC0007FFFFFFF0
310
001FFF0003FFFFFFFFC000FFFFFFC00070008001FFFFFF0000FFFE0000003FF0
310
000001FFFF80007F0001FFFFFF0000F8001FFFFFF0000FF8000001FFFE000000
310
7FFFFFF0001FFFFFFC0007FFFFFFF0001FFC0007FFFFFFF0001FFF0003FFFFFF
310
FFC001FFFFFF80007000FFFFFFFFFE0000FFFE0008003FF0008001FFFF80007F
310
FFFFFFFFFC0000FFFFFFFFFFE0000FF8000001FFFE0000007FFFFFF0001FFFFF
310
F8000FFFFFFFF8000FF8000FFFFFFFF8000FFF0003FFFFFFFFFFFFFFFFFF0000
310
7000FFFFFFFFFC0000FFFC0008003FF0008001FFFF80007FFFFFFFFFF80001FF
310
FFFFFFFF80000FF8000001FFFE0000007FFFFFF0001FFFFFF8000FFFFFFFF800
310
0FF8000FFFFFFFF8000FFF0003FFFFFFFFFFFFFFFFFE0000F000FFFFFFFFE000
310
00FFFC000C003FE000C001FFFF80007FFFFFFFFFC00001FFFFFFFFFE00001FF8
310
000001FFFE0000007FFFFFF0001FFFFFF8000FFFFFFFF8000FF8000FFFFFFFF8
310
000FFF0003FFFFFFFFFFFFFFFFF00000F000FFFFFFFE000001FFFC000C001FE0
310
00C000FFFF80007FFFFFFFFE000001FFFFFFFFE000001FF80FFFFFFFFFFFFFC0
310
7FFFFFF0001FFFFFF8000FFFFFFFF8000FF8000FFFFFFFF8000FFF0003FFFFFF
310
FFFFFFFFFF800000F000FFFFFFC0000001FFFC001C001FE001C000FFFF80007F
310
FFFFFF80000003FFFFFFF80000001FF80FFFFFFFFFFFFFC07FFFFFF0001FFFFF
310
F8001FFFFFFFFC000FF8001FFFFFFFFC000FFF0003FFFFFFFFFFFFFFF0000001
310
F000FFFFF800000001FFF8001C001FE001C000FFFF80007FFFFFF800000003FF
310
FFFF800000003FF80FFFFFFFFFFFFFC07FFFFFF0001FFFFFF8001FFFFFFFFC00
310
0FF8001FFFFFFFFC000FFF0003FFFFFFFFFFFFFE00000001F000FFFFC0000000
310
03FFF8001E001FC001E000FFFF80007FFFFF8000000007FFFFFC000000003FF8
310
0FFFFFFFFFFFFFC07FFFFFF0001FFFFFF8001FFFFFFFFC000FF8001FFFFFFFFC
310
000FFF0003FFFFFFFFFFFFE000000003F000FFFE0000000007FFF8001E000FC0
310
01E0007FFF80007FFFFE0000000007FFFFE0000000007FF80FFFFFFFFFFFFFC0
310
7FFFFFF0001FFFFFF0001FFFFFFFFC0007F0001FFFFFFFFC0007FF0003FFFFFF
310
FFFFFF0000000003F000FFF80000000007FFF8001E000FC003E0007FFF80007F
310
FFF0000000000FFFFF8000000000FFF80FFFFFFFFFFFFFC07FFFFFF0001FFFFF
310
F0001FFFFFFFFC0007F0001FFFFFFFFC0007FF0003FFFFFFFFFFFC0000000007
310
F000FFE0000000000FFFF0003E000FC003E0007FFF80007FFFC0000000001FFF
310
FE0000000001FFF80FFFFFFFFFFFFFC07FFFFFF0001FFFFFF0001FFFFFFFFC00
310
07F0001FFFFFFFFC0007FF0003FFFFFFFFFFF0000000000FF000FFC000000000
310
1FFFF0003F000F8003F0003FFF80007FFF80000000003FFFF80000000003FFF8
310
0FFFFFFFFFFFFFC07FFFFFF0001FFFFFF0001FFFFFFFFC0007F0001FFFFFFFFC
310
0007FF0003FFFFFFFFFFE0000000001FF000FF00000000007FFFF0003F000780
310
03F0003FFF80007FFF00000000007FFFF00000000007FFF80FFFFFFFFFFFFFC0
310
7FFFFFF0001FFFFFF0001FFFFFFFFC0007F0001FFFFFFFFC0007FF0003FFFFFF
310
FFFF80000000007FF000FE0000000000FFFFE0003F00078007F0003FFF80007F
310
FE0000000001FFFFE0000000001FFFF80FFFFFFFFFFFFFC07FFFFFF0001FFFFF
310
F0001FFFFFFFFC0007F0001FFFFFFFFC0007FF0003FFFFFFFFFF0000000000FF
310
F000FC0000000003FFFFE0007F00078007F0003FFF80007FFC0000000007FFFF
310
C0000000007FFFF80FFFFFFFFFFFFFC07FFFFFF0001FFFFFF8001FFFFFFFFC00
310
0FF8001FFFFFFFFC000FFF0003FFFFFFFFFE0000000003FFF000FC000000000F
310
FFFFE0007F80070007F8001FFF80007FF8000000001FFFFF8000000001FFFFF8
310
0FFFFFFFFFFFFFC07FFFFFF0001FFFFFF8001FFFFFFFFC000FF8001FFFFFFFFC
310
000FFF0003FFFFFFFFFC000000000FFFF000F8000000007FFFFFE0007F800700
310
07F8001FFF80007FF000000000FFFFFF800000000FFFFFF80FFFFFFFFFFFFFC0
310
7FFFFFF0001FFFFFF8000FFFFFFFF8000FF8000FFFFFFFF8000FFF0003FFFFFF
310
FFFC000000007FFFF000F800000007FFFFFFC0007F8003000FF8001FFF80007F
310
F000000007FFFFFF000000007FFFFFF80FFFFFFFFFFFFFC07FFFFFF0001FFFFF
310
F8000FFFFFFFF8000FF8000FFFFFFFF8000FFF0003FFFFFFFFF80000000FFFFF
310
F000F0000000FFFFFFFFC000FF8003000FF8001FFF80007FE0000000FFFFFFFF
310
0000000FFFFFFFF8000001FFFE0000007FFFFFF0001FFFFFF8000FFFFFFFF800
310
0FF8000FFFFFFFF8000FFF0003FFFFFFFFF8000000FFFFFFF000F000000FFFFF
310
FFFFC000FFC002000FF8000FFF80007FE000001FFFFFFFFE000001FFFFFFFFF8
310
000001FFFE0000007FFFFFF0001FFFFFF8000FFFFFFFF8000FF8000FFFFFFFF8
310
000FFF0003FFFFFFFFF000001FFFFFFFF000E00000FFFFFFFFFFC000FFC00200
310
0FFC000FFF80007FE00001FFFFFFFFFE00001FFFFFFFFFF8000001FFFE000000
310
7FFFFFF0001FFFFFFC000FFFFFFFF8001FFC000FFFFFFFF8001FFF0003FFFFFF
310
FFF00001FFFFFFFFF000E00007FFFFFFFFFF8000FFC000001FFC000FFF80007F
310
C0000FFFFFFFFFFE0000FFFFFFFFFFF8000001FFFE0000007FFFFFF0001FFFFF
310
FC0007FFFFFFF0001FFC0007FFFFFFF0001FFF0003FFFFFFFFF00007FFFFFFFF
310
F000E0001FFFFFFFFFFF8000FFC000001FFC000FFF80007FC0003FFFFFFFFFFE
310
0001FFFFFFFFFFF8000001FFFE0000007FFFFFF0001FFFFFFC0007FFFFFFF000
310
1FFC0007FFFFFFF0001FFF0003FFFFFFFFF0001FFFFFFFFFF000E0003FFFFF00
310
03FF8001FFE000001FFC0007FF80007FC0007FFFFF0007FC0003FFFFF0003FF8
310
000001FFFE0000007FFFFFF0001FFFFFFC0003FFFFFFE0001FFC0003FFFFFFE0
310
001FFF0003FFFFFFFFF0003FFFFFFFFFF000E0003FFFFF0001FF8001FFE00000
310
1FFE0007FF80007FC0007FFFFE0003FC0007FFFFE0003FF8000001FFFE000000
310
7FFFFFF0001FFFFFFE0003FFFFFFE0003FFE0003FFFFFFE0003FFF0003FFFFFF
310
FFF0003FFFFF8001F000E0003FFFFF0001FF0001FFE000001FFE0007FF80007F
310
C0007FFFFE0003FC0007FFFFE0003FF8000001FFFE0000007FFFFFF0001FFFFF
310
FE0001FFFFFFC0003FFE0001FFFFFFC0003FFF0003FFFFFFFFF0003FFFFF0001
310
F000E0003FFFFF0003FF0001FFE000003FFE0007FF80007FC0007FFFFE0003FC
310
0007FFFFE0003FF8000001FFFE0000007FFFFFF0001FFFFFFF0001FFFFFFC000
310
7FFF0001FFFFFFC0007FFF0003FFFFFFFFF0003FFFFF0001F000E0003FFFFE00
310
03FF0003FFF000003FFE0003FF80007FC0007FFFFC0003FE0007FFFFE0003FF8
310
000001FFFE0000007FFFFFF0001FFFFFFF0000FFFFFF80007FFF0000FFFFFF80
310
007FFF0003FFFFFFFFF0003FFFFF0001F000E0003FFFFE0003FF0003FFF00000
310
3FFF0003FF80007FC0007FFFFC0007FE0007FFFFC0003FF8000001FFFE000000
310
7FFFFFF0001FFFFFFF80007FFFFF0000FFFF80007FFFFF0000FFFF0003FFFFFF
310
FFF0003FFFFF0003F000E0003FFFFC0003FE0003FFF000003FFF0003FF80007F
310
E0003FFFF80007FE0003FFFFC0007FF8000001FFFE0000007FFFFFF0001FFFFF
310
FF80003FFFFE0000FFFF80003FFFFE0000FFFF0003FFFFFFFFF0001FFFFE0003
310
F000F0001FFFF80003FE0003FFF000007FFF0001FF80007FE0003FFFF00007FE
310
0001FFFF80007FF8000001FFFE0000007FFFFFF0001FFFFFFFC0000FFFF80001
310
FFFFC0000FFFF80001FFFF0003FFFFFFFFF0001FFFFC0003F000F0000FFFF000
310
07FE0007FFF800007FFF0001FF80007FE0001FFFE00007FF0000FFFE00007FF8
310
000001FFFE0000007FFFFFF0001FFFFFFFC00003FFE00001FFFFC00003FFE000
310
01FFFF0003FFFFFFFFF8000FFFF80003F000F00003FFC00007FC0007FFF80000
310
7FFF8001FF80007FF00007FF80000FFF00007FF80000FFF8000001FFFE000000
310
7F80000000000001FFE000003E000003FFFFE000003E000003FFFF0003FFFFFF
310
FFF80003FFE00007F000F800000000000FFC0007FFF800007FFF8001FF80007F
310
F000000000000FFF000000000000FFF8000001FFFE0000007F80000000000001
310
FFF0000000000007FFFFF0000000000007FFFF0003FFFFFFFFFC00007E000007
310
F000F800000000000FFC0007FFF80000FFFF8000FF80007FF800000000001FFF
310
800000000001FFF8000001FFFE0000007F80000000000001FFF800000000000F
310
FFFFF800000000000FFFFF0003FFFFFFFFFC00000000000FF000FC0000000000
310
1FFC0007FFFC0000FFFF8000FF80007FF800000000003FFFC00000000001FFF8
310
000001FFFE0000007F80000000000001FFF800000000000FFFFFF80000000000
310
0FFFFF0003FFFFFFFFFE00000000001FF000FE00000000003FF8000FFFFC0000
310
FFFF8000FF80007FFC00000000003FFFC00000000003FFF8000001FFFE000000
310
7F80000000000001FFFC00000000001FFFFFFC00000000001FFFFF0003FFFFFF
310
FFFF00000000001FF000FF00000000003FF8000FFFFC0000FFFFC000FF80007F
310
FE00000000007FFFE00000000007FFF8000001FFFE0000007F80000000000001
310
FFFE00000000003FFFFFFE00000000003FFFFF0003FFFFFFFFFF80000000003F
310
F000FF80000000007FF8000FFFFC0001FFFFC0007F80007FFF0000000000FFFF
310
F0000000000FFFF800000000000000007F80000000000001FFFF8000000000FF
310
FFFFFF8000000000FFFFFF0003FFFFFFFFFFC0000000007FF000FFC000000000
310
FFF8000FFFFE0001FFFFC0007F80007FFF8000000001FFFFF8000000001FFFF8
310
00000000000000007F80000000000001FFFFC000000001FFFFFFFFC000000001
310
FFFFFF0003FFFFFFFFFFE000000000FFF000FFE000000003FFF0001FFFFE0001
310
FFFFC0007F80007FFFC000000007FFFFFE000000003FFFF80000000000000000
310
7F80000000000001FFFFE000000003FFFFFFFFE000000003FFFFFF0003FFFFFF
310
FFFFF000000003FFF000FFF80000000FFFF0001FFFFE0001FFFFE0007F80007F
310
FFF00000000FFFFFFF00000000FFFFF800000000000000007F80000000000001
310
FFFFF80000000FFFFFFFFFF80000000FFFFFFF0003FFFFFFFFFFFC0000000FFF
310
F000FFFE0000003FFFF0001FFFFE0003FFFFE0003F80007FFFFC0000003FFFFF
310
FFC0000003FFFFF800000000000000007F80000000000001FFFFFE0000003FFF
310
FFFFFFFE0000003FFFFFFF0003FFFFFFFFFFFF0000003FFFF000FFFF800000FF
310
FFF0001FFFFF0003FFFFE0003F80007FFFFF000001FFFFFFFFF800001FFFFFF8
310
00000000000000007F80000000000001FFFFFFC00001FFFFFFFFFFFFC00001FF
310
FFFFFF0003FFFFFFFFFFFFC00000FFFFF000FFFFF8000FFFFFFFFFFFFFFFFFFF
310
FFFFFFFFFFFFFFFFFFFFF0001FFFFFFFFFFF0000FFFFFFF80000000000000000
310
7FFFFFFFFFFFFFFFFFFFFFFC001FFFFFFFFFFFFFFC001FFFFFFFFFFFFFFFFFFF
310
FFFFFFFC001FFFFFF000FFFFFFFFFFFFFFFFFFFFFFFFFFFFFFFFFFFFFFFFFFFF
310
FFFFFFFFFFFFFFFFFFFFFFFFFFFFFFFFFFFFFFFFFFFFFFFFFFFFFFFFFFFFFFFF
310
FFFFFFFFFFFFFFFFFFFFFFFFFFFFFFFFFFFFFFFFFFFFFFFFFFFFFFFFFFFFFFFF
310
F000FFFFFFFFFFFFFFFFFFFFFFFFFFFFFFFFFFFFFFFFFFFFFFFFFFFFFFFFFFFF
310
FFFFFFFFFFFFFFFFFFFFFFFFFFFFFFFFFFFFFFFFFFFFFFFFFFFFFFFFFFFFFFFF
310
FFFFFFFFFFFFFFFFFFFFFFFFFFFFFFFFFFFFFFFFFFFFFFFFF000FFFFFFFFFFFF
310
FFFFFFFFFFFFFFFFFFFFFFFFFFFFFFFFFFFFFFFFFFFFFFFFFFFFFFFFFFFFFFFF
310
FFFFFFFFFFFFFFFFFFFFFFFFFFFFFFFFFFFFFFFFFFFFFFFFFFFFFFFFFFFFFFFF
310
FFFFFFFFFFFFFFFFFFFFFFFFFFFFFFFFF000FFFFFFFFFFFFFFFFFFFFFFFFFFFF
310
FFFFFFFFFFFFFFFFFFFFFFFFFFFFFFFFFFFFFFFFFFFFFFFFFFFFFFFFFFFFFFFF
310
FFFFFFFFFFFFFFFFFFFFFFFFFFFFFFFFFFFFFFFFFFFFFFFFFFFFFFFFFFFFFFFF
310
FFFFFFFFFFFFFFFFF000FFFFFFFFFFFFFFFFFFFFFFFFFFFFFFFFFFFFFFFFFFFF
310
FFFFFFFFFFFFFFFFFFFFFFFFFFFFFFFFFFFFFFFFFFFFFFFFFFFFFFFFFFFFFFFF
310
FFFFFFFFFFFFFFFFFFFFFFFFFFFFFFFFFFFFFFFFFFFFFFFFFFFFFFFFFFFFFFFF
310
F000FFFFFFFFFFFFFFFFFFFFFFFFFFFFFFFFFFFFFFFFFFFFFFFFFFFFFFFFFFFF
310
FFFFFFFFFFFFFFFFFFFFFFFFFFFFFFFFFFFFFFFFFFFFFFFFFFFFFFFFFFFFFFFF
310
FFFFFFFFFFFFFFFFFFFFFFFFFFFFFFFFFFFFFFFFFFFFFFFFF000FFFFFFFFFFFF
310
FFFFFFFFFFFFFFFFFFFFFFFFFFFFFFFFFFFFFFFFFFFFFFFFFFFFFFFFFFFFFFFF
310
FFFFFFFFFFFFFFFFFFFFFFFFFFFFFFFFFFFFFFFFFFFFFFFFFFFFFFFFFFFFFFFF
310
FFFFFFFFFFFFFFFFFFFFFFFFFFFFFFFFF000FFFFFFFFFFFFFFFFFFFFFFFFFFFF
310
FFFFFFFFFFFFFFFFFFFFFFFFFFFFFFFFFFFFFFFFFFFFFFFFFFFFFFFFFFFFFFFF
310
FFFFFFFFFFFFFFFFFFFFFFFFFFFFFFFFFFFFFFFFFFFFFFFFFFFFFFFFFFFFFFFF
310
FFFFFFFFFFFFFFFFF000FFFFFFFFFFFFFFFFFFFFFFFFFFFFFFFFFFFFFFFFFFFF
310
FFFFFFFFFFFFFFFFFFFFFFFFFFFFFFFFFFFFFFFFFFFFFFFFFFFFFFFFFFFFFFFF
310
FFFFFFFFFFFFFFFFFFFFFFFFFFFFFFFFFFFFFFFFFFFFFFFFFFFFFFFFFFFFFFFF
310
F000FFFFFFFFFFFFFFFFFFFFFFFFFFFFFFFFFFFFFFFFFFFFFFFFFFFFFFFFFFFF
310
FFFFFFFFFFFFFFFFFFFFFFFFFFFFFFFFFFFFFFFFFFFFFFFFFFFFFFFFFFFFFFFF
310
FFFFFFFFFFFFFFFFFFFFFFFFFFFFFFFFFFFFFFFFFFFFFFFFF000FFFFFFFFFFFF
310
FFFFFFFFFFFFFFFFFFFFFFFFFFFFFFFFFFFFFFFFFFFFFFFFFFFFFFFFFFFFFFFF
310
FFFFFFFFFFFFFFFFFFFFFFFFFFFFFFFFFFFFFFFFFFFFFFFFFFFFFFFFFFFFFFFF
310
FFFFFFFFFFFFFFFFFFFFFFFFFFFFFFFFF000FFFFFFFFFFFFFFFFFFFFFFFFFFFF
310
FFFFFFFFFFFFFFFFFFFFFFFFFFFFFFFFFFFFFFFFFFFFFFFFFFFFFFFFFFFFFFFF
310
FFFFFFFFFFFFFFFFFFFFFFFFFFFFFFFFFFFFFFFFFFFFFFFFFFFFFFFFFFFFFFFF
310
FFFFFFFFFFFFFFFFF000FFFFFFFFFFFFFFFFFFFFFFFFFFFFFFFFFFFFFFFFFFFF
310
FFFFFFFFFFFFFFFFFFFFFFFFFFFFFFFFFFFFFFFFFFFFFFFFFFFFFFFFFFFFFFFF
310
FFFFFFFFFFFFFFFFFFFFFFFFFFFFFFFFFFFFFFFFFFFFFFFFFFFFFFFFFFFFFFFF
310
F000FFFFFFFFFFFFFFFFFFFFFFFFFFFFFFFFFFFFFFFFFFFFFFFFFFFFFFFFFFFF
310
FFFFFFFFFFFFFFFFFFFFFFFFFFFFFFFFFFFFFFFFFFFFFFFFFFFFFFFFFFFFFFFF
310
FFFFFFFFFFFFFFFFFFFFFFFFFFFFFFFFFFFFFFFFFFFFFFFFF000FFFFFFFFFFFF
310
FFFFFFFFFFFFFFFFFFFFFFFFFFFFFFFFFFFFFFFFFFFFFFFFFFFFFFFFFFFFFFFF
310
FFFFFFFFFFFFFFFFFFFFFFFFFFFFFFFFFFFFFFFFFFFFFFFFFFFFFFFFFFFFFFFF
310
FFFFFFFFFFFFFFFFFFFFFFFFFFFFFFFFF000FFFFFFFFFFFFFFFFFFFFFFFFFFFF
310
FFFFFFFFFFFFFFFFFFFFFFFFFFFFFFFFFFFFFFFFFFFFFFFFFFFFFFFFFFFFFFFF
310
FFFFFFFFFFFFFFFFFFFFFFFFFFFFFFFFFFFFFFFFFFFFFFFFFFFFFFFFFFFFFFFF
310
FFFFFFFFFFFFFFFFF000FFFFFFFFFFFFFFFFFFFFFFFFFFFFFFFFFFFFFFFFFFFF
310
FFFFFFFFFFFFFFFFFFFFFFFFFFFFFFFFFFFFFFFFFFFFFFFFFFFFFFFFFFFFFFFF
310
FFFFFFFFFFFFFFFFFFFFFFFFFFFFFFFFFFFFFFFFFFFFFFFFFFFFFFFFFFFFFFFF
310
F000FFFFFFFFFFFFFFFFFFFFFFFFFFFFFFFFFFFFFFFFFFFFFFFFFFFFFFFFFFFF
310
FFFFFFFFFFFFFFFFFFFFFFFFFFFFFFFFFFFFFFFFFFFFFFFFFFFFFFFFFFFFFFFF
310
FFFFFFFFFFFFFFFFFFFFFFFFFFFFFFFFFFFFFFFFFFFFFFFFF000FFFFFFFFFFFF
310
FFFFFFFFFFFFFFFFFFFFFFFFFFFFFFFFFFFFFFFFFFFFFFFFFFFFFFFFFFFFFFFF
310
FFFFFFFFFFFFFFFFFFFFFFFFFFFFFFFFFFFFFFFFFFFFFFFFFFFFFFFFFFFFFFFF
310
FFFFFFFFFFFFFFFFFFFFFFFFFFFFFFFFF000FFFFFFFFFFFFFFFFFFFFFFFFFFFF
310
FFFFFFFFFFFFFFFFFFFFFFFFFFFFFFFFFFFFFFFFFFFFFFFFFFFFFFFFFFFFFFFF
310
FFFFFFFFFFFFFFFFFFFFFFFFFFFFFFFFFFFFFFFFFFFFFFFFFFFFFFFFFFFFFFFF
310
FFFFFFFFFFFFFFFFF000FFFFFFFFFFFFFFFFFFFFFFFFFFFFFFFFFFFFFFFFFFFF
310
FFFFFFFFFFFFFFFFFFFFFFFFFFFFFFFFFFFFFFFFFFFFFFFFFFFFFFFFFFFFFFFF
310
FFFFFFFFFFFFFFFFFFFFFFFFFFFFFFFFFFFFFFFFFFFFFFFFFFFFFFFFFFFFFFFF
310
F000FFFFFFFFFFFFFFFFFFFFFFFFFFFFFFFFFFFFFFFFFFFFFFFFFFFFFFFFFFFF
310
FFFFFFFFFFFFFFFFFFFFFFFFFFFFFFFFFFFFFFFFFFFFFFFFFFFFFFFFFFFFFFFF
310
FFFFFFFFFFFFFFFFFFFFFFFFFFFFFFFFFFFFFFFFFFFFFFFFF000FFFFFFFFFFFF
310
FFFFFFFFFFFFFFFFFFFFFFFFFFFFFFFFFFFFFFFFFFFFFFFFFFFFFFFFFFFFFFFF
310
FFFFFFFFFFFFFFFFFFFFFFFFFFFFFFFFFFFFFFFFFFFFFFFFFFFFFFFFFFFFFFFF
310
FFFFFFFFFFFFFFFFFFFFFFFFFFFFFFFFF0000000000000000000000000000000
310
0000000000000000000000000000000000000000000000000000000000000000
310
0000000000000000000000000000000000000000000000000000000000000000
310
0000000000000000000000000000000000000000000000000000000000000000
310
0000000000000000000000000000000000000000000000000000000000000000
310
0000000000000000000000000000000000000000000000000000000000000000
310
0000000000000000000000000000000000000000000000000000000000000000
310
0000000000000000000000000000000000000000000000000000000000000000
310
0000000000000000000000000000000000000000000000000000000000000000
310
0000000000000000000000000000000000000000000000000000000000000000
310
0000000000000000000000000000000000000000000000000000000000000000
310
0000000000000000000000000000000000000000000000000000000000000000
310
0000000000000000000000000000000000000000000000000000000000000000
310
0000000000000000000000000000000000000000000000000000000000000000
310
0000000000000000000000000000000000000000000000000000000000000000
310
0000000000000000000000000000000000000000000000000000000000000000
  1
OLE
  0
ENDSEC
  0
SECTION
  2
OBJECTS
  0
DICTIONARY
  5
C
330
0
100
AcDbDictionary
281
     1
  3
ACAD_GROUP
350
D
  3
ACAD_LAYOUT
350
1A
  3
ACAD_MLINESTYLE
350
17
  3
ACAD_PLOTSETTINGS
350
19
  3
ACAD_PLOTSTYLENAME
350
E
  3
ACAD_SCALELIST
350
47
  0
DICTIONARY
  5
D
102
{ACAD_REACTORS
330
C
102
}
330
C
100
AcDbDictionary
281
     1
  0
DICTIONARY
  5
1A
102
{ACAD_REACTORS
330
C
102
}
330
C
100
AcDbDictionary
281
     1
  3
Layout1
350
1E
  3
Layout2
350
26
  3
Model
350
22
  0
DICTIONARY
  5
17
102
{ACAD_REACTORS
330
C
102
}
330
C
100
AcDbDictionary
281
     1
  3
Standard
350
18
  0
DICTIONARY
  5
19
102
{ACAD_REACTORS
330
C
102
}
330
C
100
AcDbDictionary
281
     1
  0
ACDBDICTIONARYWDFLT
  5
E
102
{ACAD_REACTORS
330
C
102
}
330
C
100
AcDbDictionary
281
     1
  3
Normal
350
F
100
AcDbDictionaryWithDefault
340
F
  0
DICTIONARY
  5
47
102
{ACAD_REACTORS
330
C
102
}
330
C
100
AcDbDictionary
281
     1
  3
A0
350
48
  3
A1
350
49
  3
A2
350
4A
  3
A3
350
4B
  3
A4
350
4C
  3
A5
350
4D
  3
A6
350
4E
  3
A7
350
4F
  3
A8
350
50
  3
A9
350
51
  3
B0
350
52
  3
B1
350
53
  3
B2
350
54
  3
B3
350
55
  3
B4
350
56
  3
B5
350
57
  3
B6
350
58
  3
B7
350
59
  3
B8
350
5A
  3
B9
350
5B
  3
C0
350
5C
  3
C1
350
5D
  3
C2
350
5E
  3
C3
350
5F
  3
C4
350
60
  3
C5
350
61
  3
C6
350
62
  3
C7
350
63
  3
C8
350
64
  3
C9
350
65
  3
D0
350
66
  3
D1
350
67
  3
D2
350
68
  0
LAYOUT
  5
1E
102
{ACAD_REACTORS
330
1A
102
}
330
1A
100
AcDbPlotSettings
  1

  2
none_device
  4

  6

 40
0.0
 41
0.0
 42
0.0
 43
0.0
 44
0.0
 45
0.0
 46
0.0
 47
0.0
 48
0.0
 49
0.0
140
0.0
141
0.0
142
1.0
143
1.0
 70
   688
 72
     1
 73
     0
 74
     5
  7

 75
    16
147
1.0
148
0.0
149
0.0
100
AcDbLayout
  1
Layout1
 70
     1
 71
     1
 10
0.0
 20
0.0
 11
420.0
 21
297.0
 12
0.0
 22
0.0
 32
0.0
 14
1.0000000000E+20
 24
1.0000000000E+20
 34
1.0000000000E+20
 15
-1.0000000000E+20
 25
-1.0000000000E+20
 35
-1.0000000000E+20
146
0.0
 13
0.0
 23
0.0
 33
0.0
 16
1.0
 26
0.0
 36
0.0
 17
0.0
 27
1.0
 37
0.0
 76
     0
330
1B
  0
LAYOUT
  5
26
102
{ACAD_REACTORS
330
1A
102
}
330
1A
100
AcDbPlotSettings
  1

  2
none_device
  4

  6

 40
0.0
 41
0.0
 42
0.0
 43
0.0
 44
0.0
 45
0.0
 46
0.0
 47
0.0
 48
0.0
 49
0.0
140
0.0
141
0.0
142
1.0
143
1.0
 70
   688
 72
     1
 73
     0
 74
     5
  7

 75
    16
147
1.0
148
0.0
149
0.0
100
AcDbLayout
  1
Layout2
 70
     1
 71
     2
 10
0.0
 20
0.0
 11
0.0
 21
0.0
 12
0.0
 22
0.0
 32
0.0
 14
0.0
 24
0.0
 34
0.0
 15
0.0
 25
0.0
 35
0.0
146
0.0
 13
0.0
 23
0.0
 33
0.0
 16
1.0
 26
0.0
 36
0.0
 17
0.0
 27
1.0
 37
0.0
 76
     0
330
23
  0
LAYOUT
  5
22
102
{ACAD_REACTORS
330
1A
102
}
330
1A
100
AcDbPlotSettings
  1

  2
none_device
  4
Letter_(8.50_x_11.00_Inches)
  6

 40
6.35
 41
6.35
 42
6.35000508
 43
6.35000508
 44
215.9
 45
279.4
 46
0.0
 47
0.0
 48
0.0
 49
0.0
140
0.0
141
0.0
142
1.0
143
1.0
 70
  1712
 72
     1
 73
     0
 74
     0
  7

 75
     0
147
1.0
148
0.0
149
0.0
100
AcDbLayout
  1
Model
 70
     1
 71
     0
 10
0.0
 20
0.0
 11
297.0
 21
210.0
 12
0.0
 22
0.0
 32
0.0
 14
0.0
 24
0.0
 34
0.0
 15
297.0
 25
210.0
 35
0.0
146
0.0
 13
0.0
 23
0.0
 33
0.0
 16
1.0
 26
0.0
 36
0.0
 17
0.0
 27
1.0
 37
0.0
 76
     0
330
1F
331
29
  0
MLINESTYLE
  5
18
102
{ACAD_REACTORS
330
17
102
}
330
17
100
AcDbMlineStyle
  2
Standard
 70
     0
  3

 62
   256
 51
90.0
 52
90.0
 71
     2
 49
0.5
 62
   256
  6
BYLAYER
 49
-0.5
 62
   256
  6
BYLAYER
  0
ACDBPLACEHOLDER
  5
F
102
{ACAD_REACTORS
330
E
102
}
330
E
  0
SCALE
  5
48
102
{ACAD_REACTORS
330
47
102
}
330
47
100
AcDbScale
 70
     0
300
1:1
140
1.0
141
1.0
290
     1
  0
SCALE
  5
49
102
{ACAD_REACTORS
330
47
102
}
330
47
100
AcDbScale
 70
     0
300
1:2
140
1.0
141
2.0
290
     0
  0
SCALE
  5
4A
102
{ACAD_REACTORS
330
47
102
}
330
47
100
AcDbScale
 70
     0
300
1:4
140
1.0
141
4.0
290
     0
  0
SCALE
  5
4B
102
{ACAD_REACTORS
330
47
102
}
330
47
100
AcDbScale
 70
     0
300
1:5
140
1.0
141
5.0
290
     0
  0
SCALE
  5
4C
102
{ACAD_REACTORS
330
47
102
}
330
47
100
AcDbScale
 70
     0
300
1:8
140
1.0
141
8.0
290
     0
  0
SCALE
  5
4D
102
{ACAD_REACTORS
330
47
102
}
330
47
100
AcDbScale
 70
     0
300
1:10
140
1.0
141
10.0
290
     0
  0
SCALE
  5
4E
102
{ACAD_REACTORS
330
47
102
}
330
47
100
AcDbScale
 70
     0
300
1:16
140
1.0
141
16.0
290
     0
  0
SCALE
  5
4F
102
{ACAD_REACTORS
330
47
102
}
330
47
100
AcDbScale
 70
     0
300
1:20
140
1.0
141
20.0
290
     0
  0
SCALE
  5
50
102
{ACAD_REACTORS
330
47
102
}
330
47
100
AcDbScale
 70
     0
300
1:30
140
1.0
141
30.0
290
     0
  0
SCALE
  5
51
102
{ACAD_REACTORS
330
47
102
}
330
47
100
AcDbScale
 70
     0
300
1:40
140
1.0
141
40.0
290
     0
  0
SCALE
  5
52
102
{ACAD_REACTORS
330
47
102
}
330
47
100
AcDbScale
 70
     0
300
1:50
140
1.0
141
50.0
290
     0
  0
SCALE
  5
53
102
{ACAD_REACTORS
330
47
102
}
330
47
100
AcDbScale
 70
     0
300
1:100
140
1.0
141
100.0
290
     0
  0
SCALE
  5
54
102
{ACAD_REACTORS
330
47
102
}
330
47
100
AcDbScale
 70
     0
300
2:1
140
2.0
141
1.0
290
     0
  0
SCALE
  5
55
102
{ACAD_REACTORS
330
47
102
}
330
47
100
AcDbScale
 70
     0
300
4:1
140
4.0
141
1.0
290
     0
  0
SCALE
  5
56
102
{ACAD_REACTORS
330
47
102
}
330
47
100
AcDbScale
 70
     0
300
8:1
140
8.0
141
1.0
290
     0
  0
SCALE
  5
57
102
{ACAD_REACTORS
330
47
102
}
330
47
100
AcDbScale
 70
     0
300
10:1
140
10.0
141
1.0
290
     0
  0
SCALE
  5
58
102
{ACAD_REACTORS
330
47
102
}
330
47
100
AcDbScale
 70
     0
300
100:1
140
100.0
141
1.0
290
     0
  0
SCALE
  5
59
102
{ACAD_REACTORS
330
47
102
}
330
47
100
AcDbScale
 70
     0
300
1/128" = 1'-0"
140
0.0078125
141
12.0
290
     0
  0
SCALE
  5
5A
102
{ACAD_REACTORS
330
47
102
}
330
47
100
AcDbScale
 70
     0
300
1/64" = 1'-0"
140
0.015625
141
12.0
290
     0
  0
SCALE
  5
5B
102
{ACAD_REACTORS
330
47
102
}
330
47
100
AcDbScale
 70
     0
300
1/32" = 1'-0"
140
0.03125
141
12.0
290
     0
  0
SCALE
  5
5C
102
{ACAD_REACTORS
330
47
102
}
330
47
100
AcDbScale
 70
     0
300
1/16" = 1'-0"
140
0.0625
141
12.0
290
     0
  0
SCALE
  5
5D
102
{ACAD_REACTORS
330
47
102
}
330
47
100
AcDbScale
 70
     0
300
3/32" = 1'-0"
140
0.09375
141
12.0
290
     0
  0
SCALE
  5
5E
102
{ACAD_REACTORS
330
47
102
}
330
47
100
AcDbScale
 70
     0
300
1/8" = 1'-0"
140
0.125
141
12.0
290
     0
  0
SCALE
  5
5F
102
{ACAD_REACTORS
330
47
102
}
330
47
100
AcDbScale
 70
     0
300
3/16" = 1'-0"
140
0.1875
141
12.0
290
     0
  0
SCALE
  5
60
102
{ACAD_REACTORS
330
47
102
}
330
47
100
AcDbScale
 70
     0
300
1/4" = 1'-0"
140
0.25
141
12.0
290
     0
  0
SCALE
  5
61
102
{ACAD_REACTORS
330
47
102
}
330
47
100
AcDbScale
 70
     0
300
3/8" = 1'-0"
140
0.375
141
12.0
290
     0
  0
SCALE
  5
62
102
{ACAD_REACTORS
330
47
102
}
330
47
100
AcDbScale
 70
     0
300
1/2" = 1'-0"
140
0.5
141
12.0
290
     0
  0
SCALE
  5
63
102
{ACAD_REACTORS
330
47
102
}
330
47
100
AcDbScale
 70
     0
300
3/4" = 1'-0"
140
0.75
141
12.0
290
     0
  0
SCALE
  5
64
102
{ACAD_REACTORS
330
47
102
}
330
47
100
AcDbScale
 70
     0
300
1" = 1'-0"
140
1.0
141
12.0
290
     0
  0
SCALE
  5
65
102
{ACAD_REACTORS
330
47
102
}
330
47
100
AcDbScale
 70
     0
300
1-1/2" = 1'-0"
140
1.5
141
12.0
290
     0
  0
SCALE
  5
66
102
{ACAD_REACTORS
330
47
102
}
330
47
100
AcDbScale
 70
     0
300
3" = 1'-0"
140
3.0
141
12.0
290
     0
  0
SCALE
  5
67
102
{ACAD_REACTORS
330
47
102
}
330
47
100
AcDbScale
 70
     0
300
6" = 1'-0"
140
6.0
141
12.0
290
     0
  0
SCALE
  5
68
102
{ACAD_REACTORS
330
47
102
}
330
47
100
AcDbScale
 70
     0
300
1'-0" = 1'-0"
140
12.0
141
12.0
290
     0
  0
ENDSEC
  0
EOF
