  0
SECTION
  2
HEADER
  9
$ACADVER
  1
AC1015
  9
$ACADMAINTVER
 70
     6
  9
$DWGCODEPAGE
  3
ANSI_1252
  9
$INSBASE
 10
0.0
 20
0.0
 30
0.0
  9
$EXTMIN
 10
0.0
 20
0.0
 30
0.0
  9
$EXTMAX
 10
297.0
 20
210.0
 30
0.0
  9
$LIMMIN
 10
0.0
 20
0.0
  9
$LIMMAX
 10
297.0
 20
210.0
  9
$ORTHOMODE
 70
     0
  9
$REGENMODE
 70
     1
  9
$FILLMODE
 70
     1
  9
$QTEXTMODE
 70
     0
  9
$MIRRTEXT
 70
     1
  9
$LTSCALE
 40
1.0
  9
$ATTMODE
 70
     1
  9
$TEXTSIZE
 40
2.0
  9
$TRACEWID
 40
1.0
  9
$TEXTSTYLE
  7
Standard
  9
$CLAYER
  8
0
  9
$CELTYPE
  6
ByLayer
  9
$CECOLOR
 62
   256
  9
$CELTSCALE
 40
1.0
  9
$DISPSILH
 70
     0
  9
$DIMSCALE
 40
1.0
  9
$DIMASZ
 40
3.0
  9
$DIMEXO
 40
0.0
  9
$DIMDLI
 40
3.75
  9
$DIMRND
 40
0.0
  9
$DIMDLE
 40
0.0
  9
$DIMEXE
 40
1.0
  9
$DIMTP
 40
0.0
  9
$DIMTM
 40
0.0
  9
$DIMTXT
 40
2.0
  9
$DIMCEN
 40
2.5
  9
$DIMTSZ
 40
0.0
  9
$DIMTOL
 70
     0
  9
$DIMLIM
 70
     0
  9
$DIMTIH
 70
     1
  9
$DIMTOH
 70
     1
  9
$DIMSE1
 70
     0
  9
$DIMSE2
 70
     0
  9
$DIMTAD
 70
     1
  9
$DIMZIN
 70
     0
  9
$DIMBLK
  1

  9
$DIMASO
 70
     1
  9
$DIMSHO
 70
     1
  9
$DIMPOST
  1

  9
$DIMAPOST
  1

  9
$DIMALT
 70
     0
  9
$DIMALTD
 70
     3
  9
$DIMALTF
 40
0.0393700787
  9
$DIMLFAC
 40
2.0
  9
$DIMTOFL
 70
     1
  9
$DIMTVP
 40
0.0
  9
$DIMTIX
 70
     0
  9
$DIMSOXD
 70
     0
  9
$DIMSAH
 70
     0
  9
$DIMBLK1
  1

  9
$DIMBLK2
  1

  9
$DIMSTYLE
  2
ISO-25
  9
$DIMCLRD
 70
     0
  9
$DIMCLRE
 70
     0
  9
$DIMCLRT
 70
     0
  9
$DIMTFAC
 40
1.0
  9
$DIMGAP
 40
1.524
  9
$DIMJUST
 70
     0
  9
$DIMSD1
 70
     0
  9
$DIMSD2
 70
     0
  9
$DIMTOLJ
 70
     0
  9
$DIMTZIN
 70
     0
  9
$DIMALTZ
 70
     0
  9
$DIMALTTZ
 70
     0
  9
$DIMUPT
 70
     0
  9
$DIMDEC
 70
     2
  9
$DIMTDEC
 70
     3
  9
$DIMALTU
 70
     2
  9
$DIMALTTD
 70
     3
  9
$DIMTXSTY
  7
Standard
  9
$DIMAUNIT
 70
     0
  9
$DIMADEC
 70
     2
  9
$DIMALTRND
 40
0.0
  9
$DIMAZIN
 70
     0
  9
$DIMDSEP
 70
    44
  9
$DIMATFIT
 70
     3
  9
$DIMFRAC
 70
     0
  9
$DIMLDRBLK
  1

  9
$DIMLUNIT
 70
     2
  9
$DIMLWD
 70
    -2
  9
$DIMLWE
 70
    -2
  9
$DIMTMOVE
 70
     0
  9
$LUNITS
 70
     2
  9
$LUPREC
 70
     2
  9
$SKETCHINC
 40
1.0
  9
$FILLETRAD
 40
10.0
  9
$AUNITS
 70
     0
  9
$AUPREC
 70
     2
  9
$MENU
  1
.
  9
$ELEVATION
 40
0.0
  9
$PELEVATION
 40
0.0
  9
$THICKNESS
 40
0.0
  9
$LIMCHECK
 70
     0
  9
$CHAMFERA
 40
0.0
  9
$CHAMFERB
 40
0.0
  9
$CHAMFERC
 40
0.0
  9
$CHAMFERD
 40
0.0
  9
$SKPOLY
 70
     0
  9
$TDCREATE
 40
2458164.434949514
  9
$TDUCREATE
 40
2458164.393282847
  9
$TDUPDATE
 40
2458164.434952604
  9
$TDUUPDATE
 40
2458164.393285938
  9
$TDINDWG
 40
0.0000000116
  9
$TDUSRTIMER
 40
0.0000000116
  9
$USRTIMER
 70
     1
  9
$ANGBASE
 50
0.0
  9
$ANGDIR
 70
     0
  9
$PDMODE
 70
     0
  9
$PDSIZE
 40
-1.0
  9
$PLINEWID
 40
0.0
  9
$SPLFRAME
 70
     0
  9
$SPLINETYPE
 70
     6
  9
$SPLINESEGS
 70
     8
  9
$HANDSEED
  5
36E
  9
$SURFTAB1
 70
     6
  9
$SURFTAB2
 70
     6
  9
$SURFTYPE
 70
     6
  9
$SURFU
 70
     6
  9
$SURFV
 70
     6
  9
$UCSBASE
  2

  9
$UCSNAME
  2

  9
$UCSORG
 10
0.0
 20
0.0
 30
0.0
  9
$UCSXDIR
 10
1.0
 20
0.0
 30
0.0
  9
$UCSYDIR
 10
0.0
 20
1.0
 30
0.0
  9
$UCSORTHOREF
  2

  9
$UCSORTHOVIEW
 70
     0
  9
$UCSORGTOP
 10
0.0
 20
0.0
 30
0.0
  9
$UCSORGBOTTOM
 10
0.0
 20
0.0
 30
0.0
  9
$UCSORGLEFT
 10
0.0
 20
0.0
 30
0.0
  9
$UCSORGRIGHT
 10
0.0
 20
0.0
 30
0.0
  9
$UCSORGFRONT
 10
0.0
 20
0.0
 30
0.0
  9
$UCSORGBACK
 10
0.0
 20
0.0
 30
0.0
  9
$PUCSBASE
  2

  9
$PUCSNAME
  2

  9
$PUCSORG
 10
0.0
 20
0.0
 30
0.0
  9
$PUCSXDIR
 10
1.0
 20
0.0
 30
0.0
  9
$PUCSYDIR
 10
0.0
 20
1.0
 30
0.0
  9
$PUCSORTHOREF
  2

  9
$PUCSORTHOVIEW
 70
     0
  9
$PUCSORGTOP
 10
0.0
 20
0.0
 30
0.0
  9
$PUCSORGBOTTOM
 10
0.0
 20
0.0
 30
0.0
  9
$PUCSORGLEFT
 10
0.0
 20
0.0
 30
0.0
  9
$PUCSORGRIGHT
 10
0.0
 20
0.0
 30
0.0
  9
$PUCSORGFRONT
 10
0.0
 20
0.0
 30
0.0
  9
$PUCSORGBACK
 10
0.0
 20
0.0
 30
0.0
  9
$USERI1
 70
     0
  9
$USERI2
 70
     0
  9
$USERI3
 70
     0
  9
$USERI4
 70
     0
  9
$USERI5
 70
     0
  9
$USERR1
 40
0.0
  9
$USERR2
 40
0.0
  9
$USERR3
 40
0.0
  9
$USERR4
 40
0.0
  9
$USERR5
 40
0.0
  9
$WORLDVIEW
 70
     1
  9
$SHADEDGE
 70
     3
  9
$SHADEDIF
 70
    70
  9
$TILEMODE
 70
     1
  9
$MAXACTVP
 70
    64
  9
$PINSBASE
 10
0.0
 20
0.0
 30
0.0
  9
$PLIMCHECK
 70
     0
  9
$PEXTMIN
 10
1.0000000000E+20
 20
1.0000000000E+20
 30
1.0000000000E+20
  9
$PEXTMAX
 10
-1.0000000000E+20
 20
-1.0000000000E+20
 30
-1.0000000000E+20
  9
$PLIMMIN
 10
0.0
 20
0.0
  9
$PLIMMAX
 10
420.0
 20
297.0
  9
$UNITMODE
 70
     0
  9
$VISRETAIN
 70
     1
  9
$PLINEGEN
 70
     0
  9
$PSLTSCALE
 70
     1
  9
$TREEDEPTH
 70
  3020
  9
$CMLSTYLE
  2
Standard
  9
$CMLJUST
 70
     0
  9
$CMLSCALE
 40
20.0
  9
$PROXYGRAPHICS
 70
     1
  9
$MEASUREMENT
 70
     1
  9
$CELWEIGHT
370
    -1
  9
$ENDCAPS
280
     0
  9
$JOINSTYLE
280
     0
  9
$LWDISPLAY
290
     1
  9
$INSUNITS
 70
     4
  9
$HYPERLINKBASE
  1

  9
$STYLESHEET
  1

  9
$XEDIT
290
     1
  9
$CEPSNTYPE
380
     0
  9
$PSTYLEMODE
290
     1
  9
$FINGERPRINTGUID
  2
{82DB221F-2755-453B-B93B-1F7DC14D1B3C}
  9
$VERSIONGUID
  2
{FAEB1C32-E019-11D5-929B-00C0DF256EC4}
  9
$EXTNAMES
290
     1
  9
$PSVPSCALE
 40
0.0
  9
$OLESTARTUP
290
     0
  0
ENDSEC
  0
SECTION
  2
CLASSES
  0
CLASS
  1
ACDBDICTIONARYWDFLT
  2
AcDbDictionaryWithDefault
  3
ObjectDBX Classes
 90
        0
280
     0
281
     0
  0
CLASS
  1
VISUALSTYLE
  2
AcDbVisualStyle
  3
ObjectDBX Classes
 90
     4095
280
     0
281
     0
  0
CLASS
  1
MATERIAL
  2
AcDbMaterial
  3
ObjectDBX Classes
 90
     1153
280
     0
281
     0
  0
CLASS
  1
SCALE
  2
AcDbScale
  3
ObjectDBX Classes
 90
     1153
280
     0
281
     0
  0
CLASS
  1
TABLESTYLE
  2
AcDbTableStyle
  3
ObjectDBX Classes
 90
     4095
280
     0
281
     0
  0
CLASS
  1
MLEADERSTYLE
  2
AcDbMLeaderStyle
  3
ACDB_MLEADERSTYLE_CLASS
 90
     4095
280
     0
281
     0
  0
CLASS
  1
SUN
  2
AcDbSun
  3
SCENEOE
 90
     1153
280
     0
281
     0
  0
CLASS
  1
ACDBPLACEHOLDER
  2
AcDbPlaceHolder
  3
ObjectDBX Classes
 90
        0
280
     0
281
     0
  0
CLASS
  1
LAYOUT
  2
AcDbLayout
  3
ObjectDBX Classes
 90
        0
280
     0
281
     0
  0
ENDSEC
  0
SECTION
  2
TABLES
  0
TABLE
  2
VPORT
  5
8
330
0
100
AcDbSymbolTable
 70
     1
  0
VPORT
  5
29
330
8
100
AcDbSymbolTableRecord
100
AcDbViewportTableRecord
  2
*Active
 70
     0
 10
0.0
 20
0.0
 11
1.0
 21
1.0
 12
148.5
 22
105.0
 13
0.0
 23
0.0
 14
10.0
 24
10.0
 15
10.0
 25
10.0
 16
0.0
 26
0.0
 36
1.0
 17
0.0
 27
0.0
 37
0.0
 40
210.0
 41
1.4142857143
 42
50.0
 43
0.0
 44
0.0
 50
0.0
 51
0.0
 71
     0
 72
  2000
 73
     1
 74
     3
 75
     0
 76
     0
 77
     0
 78
     0
281
     0
 65
     1
110
0.0
120
0.0
130
0.0
111
1.0
121
0.0
131
0.0
112
0.0
122
1.0
132
0.0
 79
     0
146
0.0
  0
ENDTAB
  0
TABLE
  2
LTYPE
  5
5
330
0
100
AcDbSymbolTable
 70
     6
  0
LTYPE
  5
14
330
5
100
AcDbSymbolTableRecord
100
AcDbLinetypeTableRecord
  2
ByBlock
 70
     0
  3

 72
    65
 73
     0
 40
0.0
  0
LTYPE
  5
15
330
5
100
AcDbSymbolTableRecord
100
AcDbLinetypeTableRecord
  2
ByLayer
 70
     0
  3

 72
    65
 73
     0
 40
0.0
  0
LTYPE
  5
16
330
5
100
AcDbSymbolTableRecord
100
AcDbLinetypeTableRecord
  2
Continuous
 70
     0
  3
Solid line
 72
    65
 73
     0
 40
0.0
  0
LTYPE
  5
6E
330
5
100
AcDbSymbolTableRecord
100
AcDbLinetypeTableRecord
  2
HIDDEN
 70
     0
  3
Hidden __ __ __ __ __ __ __ __ __ __ __ __ __ __
 72
    65
 73
     2
 40
1.905
 49
1.27
 74
     0
 49
-0.635
 74
     0
  0
LTYPE
  5
6F
330
5
100
AcDbSymbolTableRecord
100
AcDbLinetypeTableRecord
  2
PHANTOM
 70
     0
  3
Phantom ______  __  __  ______  __  __  ______
 72
    65
 73
     6
 40
12.7
 49
6.35
 74
     0
 49
-1.27
 74
     0
 49
1.27
 74
     0
 49
-1.27
 74
     0
 49
1.27
 74
     0
 49
-1.27
 74
     0
  0
LTYPE
  5
70
330
5
100
AcDbSymbolTableRecord
100
AcDbLinetypeTableRecord
  2
CENTER
 70
     0
  3
Center ____ _ ____ _ ____ _ ____ _ ____ _ ____
 72
    65
 73
     4
 40
10.16
 49
6.35
 74
     0
 49
-1.27
 74
     0
 49
1.27
 74
     0
 49
-1.27
 74
     0
  0
LTYPE
  5
71
330
5
100
AcDbSymbolTableRecord
100
AcDbLinetypeTableRecord
  2
CENTERX2
 70
     0
  3
Center (2x) ________  __  ________  __  _____
 72
    65
 73
     4
 40
20.32
 49
12.7
 74
     0
 49
-2.54
 74
     0
 49
2.54
 74
     0
 49
-2.54
 74
     0
  0
LTYPE
  5
72
330
5
100
AcDbSymbolTableRecord
100
AcDbLinetypeTableRecord
  2
DOT2
 70
     0
  3
Dot (.5x) ........................................
 72
    65
 73
     2
 40
0.635
 49
0.0
 74
     0
 49
-0.635
 74
     0
  0
ENDTAB
  0
TABLE
  2
LAYER
  5
2
330
0
100
AcDbSymbolTable
 70
     5
  0
LAYER
  5
10
330
2
100
AcDbSymbolTableRecord
100
AcDbLayerTableRecord
  2
0
 70
     0
 62
     7
  6
Continuous
370
    -3
390
F
  0
LAYER
  5
73
330
2
100
AcDbSymbolTableRecord
100
AcDbLayerTableRecord
  2
FORMAT
 70
     0
 62
     7
  6
Continuous
370
    -3
390
F
  0
LAYER
  5
74
330
2
100
AcDbSymbolTableRecord
100
AcDbLayerTableRecord
  2
VERMASSUNG
 70
     0
 62
     7
  6
Continuous
370
    -3
390
F
  0
LAYER
  5
75
330
2
100
AcDbSymbolTableRecord
100
AcDbLayerTableRecord
  2
KOPF_DÜNN
 70
     0
 62
     7
  6
Continuous
370
    -3
390
F
  0
LAYER
  5
76
330
2
100
AcDbSymbolTableRecord
100
AcDbLayerTableRecord
  2
KOPF_DICK
 70
     0
 62
     7
  6
Continuous
370
    25
390
F
  0
ENDTAB
  0
TABLE
  2
STYLE
  5
3
330
0
100
AcDbSymbolTable
 70
     2
  0
STYLE
  5
11
330
3
100
AcDbSymbolTableRecord
100
AcDbTextStyleTableRecord
  2
Standard
 70
     0
 40
0.0
 41
1.0
 50
0.0
 71
     0
 42
2.0
  3
txt
  4

  0
STYLE
  5
77
330
3
100
AcDbSymbolTableRecord
100
AcDbTextStyleTableRecord
  2
SLDTEXTSTYLE0
 70
     0
 40
0.0
 41
0.7
 50
0.0
 71
     0
 42
2.0
  3
TXT
  4

  0
ENDTAB
  0
TABLE
  2
VIEW
  5
6
330
0
100
AcDbSymbolTable
 70
     0
  0
ENDTAB
  0
TABLE
  2
UCS
  5
7
330
0
100
AcDbSymbolTable
 70
     0
  0
ENDTAB
  0
TABLE
  2
APPID
  5
9
330
0
100
AcDbSymbolTable
 70
     1
  0
APPID
  5
12
330
9
100
AcDbSymbolTableRecord
100
AcDbRegAppTableRecord
  2
ACAD
 70
     0
  0
ENDTAB
  0
TABLE
  2
DIMSTYLE
  5
A
330
0
100
AcDbSymbolTable
 70
     3
100
AcDbDimStyleTable
  0
DIMSTYLE
105
27
330
A
100
AcDbSymbolTableRecord
100
AcDbDimStyleTableRecord
  2
ISO-25
 70
     0
 41
2.5
 42
0.625
 43
3.75
 44
1.25
 73
     0
 74
     0
 77
     1
 78
     8
140
2.5
141
2.5
143
0.0393700787
147
0.625
171
     3
172
     1
178
     0
271
     2
272
     2
274
     3
278
    44
283
     0
284
     8
340
11
  0
DIMSTYLE
105
204
102
{ACAD_REACTORS
330
203
330
20E
330
218
330
225
330
22F
330
239
330
27D
330
286
330
29B
330
2A6
330
2B0
102
}
330
A
100
AcDbSymbolTableRecord
100
AcDbDimStyleTableRecord
  2
SLDDIMSTYLE0
 70
     0
 41
3.0
 44
0.0
 45
0.000000001
 73
     0
 74
     0
 77
     1
 78
    12
 79
     3
140
2.0
147
0.5
173
     1
178
     0
271
     2
272
     3
276
     2
284
    12
340
77
  0
DIMSTYLE
105
291
102
{ACAD_REACTORS
330
290
102
}
330
A
100
AcDbSymbolTableRecord
100
AcDbDimStyleTableRecord
  2
SLDDIMSTYLE1
 70
     0
 41
3.0
 44
0.0
 45
0.000000001
 73
     0
 74
     0
 77
     1
 78
    12
 79
     3
140
2.0
147
0.5
173
     1
178
     0
271
     0
272
     3
276
     2
284
    12
340
77
  0
ENDTAB
  0
TABLE
  2
BLOCK_RECORD
  5
1
330
0
100
AcDbSymbolTable
 70
    14
  0
BLOCK_RECORD
  5
1F
330
1
100
AcDbSymbolTableRecord
100
AcDbBlockTableRecord
  2
*Model_Space
340
22
  0
BLOCK_RECORD
  5
1B
330
1
100
AcDbSymbolTableRecord
100
AcDbBlockTableRecord
  2
*Paper_Space
340
1E
  0
BLOCK_RECORD
  5
23
330
1
100
AcDbSymbolTableRecord
100
AcDbBlockTableRecord
  2
*Paper_Space0
340
26
  0
BLOCK_RECORD
  5
205
330
1
100
AcDbSymbolTableRecord
100
AcDbBlockTableRecord
  2
_D
340
0
  0
BLOCK_RECORD
  5
20F
330
1
100
AcDbSymbolTableRecord
100
AcDbBlockTableRecord
  2
_D_1
340
0
  0
BLOCK_RECORD
  5
219
330
1
100
AcDbSymbolTableRecord
100
AcDbBlockTableRecord
  2
_D_2
340
0
  0
BLOCK_RECORD
  5
226
330
1
100
AcDbSymbolTableRecord
100
AcDbBlockTableRecord
  2
_D_3
340
0
  0
BLOCK_RECORD
  5
230
330
1
100
AcDbSymbolTableRecord
100
AcDbBlockTableRecord
  2
_D_4
340
0
  0
BLOCK_RECORD
  5
23A
330
1
100
AcDbSymbolTableRecord
100
AcDbBlockTableRecord
  2
_D_5
340
0
  0
BLOCK_RECORD
  5
27E
330
1
100
AcDbSymbolTableRecord
100
AcDbBlockTableRecord
  2
_D_6
340
0
  0
BLOCK_RECORD
  5
287
330
1
100
AcDbSymbolTableRecord
100
AcDbBlockTableRecord
  2
_D_7
340
0
  0
BLOCK_RECORD
  5
292
330
1
100
AcDbSymbolTableRecord
100
AcDbBlockTableRecord
  2
_D_8
340
0
  0
BLOCK_RECORD
  5
29C
330
1
100
AcDbSymbolTableRecord
100
AcDbBlockTableRecord
  2
_D_9
340
0
  0
BLOCK_RECORD
  5
2A7
330
1
100
AcDbSymbolTableRecord
100
AcDbBlockTableRecord
  2
_D_10
340
0
  0
BLOCK_RECORD
  5
2B1
330
1
100
AcDbSymbolTableRecord
100
AcDbBlockTableRecord
  2
_D_11
340
0
  0
BLOCK_RECORD
  5
2BA
330
1
100
AcDbSymbolTableRecord
100
AcDbBlockTableRecord
  2
SW_CENTERMARKSYMBOL_0
340
0
102
{BLKREFS
331
2C5
102
}
  0
ENDTAB
  0
ENDSEC
  0
SECTION
  2
BLOCKS
  0
BLOCK
  5
20
330
1F
100
AcDbEntity
  8
0
100
AcDbBlockBegin
  2
*Model_Space
 70
     0
 10
0.0
 20
0.0
 30
0.0
  3
*Model_Space
  1

  0
ENDBLK
  5
21
330
1F
100
AcDbEntity
  8
0
100
AcDbBlockEnd
  0
BLOCK
  5
1C
330
1B
100
AcDbEntity
 67
     1
  8
0
100
AcDbBlockBegin
  2
*Paper_Space
 70
     0
 10
0.0
 20
0.0
 30
0.0
  3
*Paper_Space
  1

  0
ENDBLK
  5
1D
330
1B
100
AcDbEntity
 67
     1
  8
0
100
AcDbBlockEnd
  0
BLOCK
  5
24
330
23
100
AcDbEntity
  8
0
100
AcDbBlockBegin
  2
*Paper_Space0
 70
     0
 10
0.0
 20
0.0
 30
0.0
  3
*Paper_Space0
  1

  0
ENDBLK
  5
25
330
23
100
AcDbEntity
  8
0
100
AcDbBlockEnd
  0
BLOCK
  5
206
330
205
100
AcDbEntity
  8
0
100
AcDbBlockBegin
  2
_D
 70
     0
 10
0.0
 20
0.0
 30
0.0
  3
_D
  1

  0
SOLID
  5
208
330
205
100
AcDbEntity
  8
VERMASSUNG
100
AcDbTrace
 10
275.0213882207
 20
92.1537434245
 30
0.0
 11
272.0213882207
 21
92.6037434245
 31
0.0
 12
272.0213882207
 22
91.7037434245
 32
0.0
 13
272.0213882207
 23
91.7037434245
 33
0.0
  0
SOLID
  5
209
330
205
100
AcDbEntity
  8
VERMASSUNG
100
AcDbTrace
 10
215.0213882207
 20
92.1537434245
 30
0.0
 11
218.0213882207
 21
91.7037434245
 31
0.0
 12
218.0213882207
 22
92.6037434245
 32
0.0
 13
218.0213882207
 23
92.6037434245
 33
0.0
  0
LINE
  5
20A
330
205
100
AcDbEntity
  8
VERMASSUNG
100
AcDbLine
 10
275.0213882207
 20
101.5392130951
 30
0.0
 11
275.0213882207
 21
91.1537434245
 31
0.0
  0
LINE
  5
20B
330
205
100
AcDbEntity
  8
VERMASSUNG
100
AcDbLine
 10
215.0213882207
 20
101.5392130951
 30
0.0
 11
215.0213882207
 21
91.1537434245
 31
0.0
  0
LINE
  5
20C
330
205
100
AcDbEntity
  8
VERMASSUNG
100
AcDbLine
 10
275.0213882207
 20
92.1537434245
 30
0.0
 11
215.0213882207
 21
92.1537434245
 31
0.0
  0
MTEXT
  5
20D
330
205
100
AcDbEntity
  8
VERMASSUNG
100
AcDbMText
 10
243.6213882706
 20
94.7318790204
 30
0.0
 40
2.0
 41
0.0
 71
     1
 72
     1
  1
60
  7
SLDTEXTSTYLE0
 73
     1
 44
1.0
  0
ENDBLK
  5
207
330
205
100
AcDbEntity
  8
0
100
AcDbBlockEnd
  0
BLOCK
  5
210
330
20F
100
AcDbEntity
  8
0
100
AcDbBlockBegin
  2
_D_1
 70
     0
 10
0.0
 20
0.0
 30
0.0
  3
_D_1
  1

  0
SOLID
  5
212
330
20F
100
AcDbEntity
  8
VERMASSUNG
100
AcDbTrace
 10
284.6056784696
 20
121.5392130951
 30
0.0
 11
284.1556784696
 21
118.5392130951
 31
0.0
 12
285.0556784696
 22
118.5392130951
 32
0.0
 13
285.0556784696
 23
118.5392130951
 33
0.0
  0
SOLID
  5
213
330
20F
100
AcDbEntity
  8
VERMASSUNG
100
AcDbTrace
 10
284.6056784696
 20
101.5392130951
 30
0.0
 11
285.0556784696
 21
104.5392130951
 31
0.0
 12
284.1556784696
 22
104.5392130951
 32
0.0
 13
284.1556784696
 23
104.5392130951
 33
0.0
  0
LINE
  5
214
330
20F
100
AcDbEntity
  8
VERMASSUNG
100
AcDbLine
 10
275.0213882207
 20
121.5392130951
 30
0.0
 11
285.6056784696
 21
121.5392130951
 31
0.0
  0
LINE
  5
215
330
20F
100
AcDbEntity
  8
VERMASSUNG
100
AcDbLine
 10
275.0213882207
 20
101.5392130951
 30
0.0
 11
285.6056784696
 21
101.5392130951
 31
0.0
  0
LINE
  5
216
330
20F
100
AcDbEntity
  8
VERMASSUNG
100
AcDbLine
 10
284.6056784696
 20
121.5392130951
 30
0.0
 11
284.6056784696
 21
101.5392130951
 31
0.0
  0
MTEXT
  5
217
330
20F
100
AcDbEntity
  8
VERMASSUNG
100
AcDbMText
 10
282.0275428736
 20
110.1392131451
 30
0.0
 40
2.0
 41
0.0
 71
     1
 72
     1
  1
20
  7
SLDTEXTSTYLE0
 11
-7.044195017643634E-15
 21
1.0
 31
0.0
 73
     1
 44
1.0
  0
ENDBLK
  5
211
330
20F
100
AcDbEntity
  8
0
100
AcDbBlockEnd
  0
BLOCK
  5
21A
330
219
100
AcDbEntity
  8
0
100
AcDbBlockBegin
  2
_D_2
 70
     0
 10
0.0
 20
0.0
 30
0.0
  3
_D_2
  1

  0
SOLID
  5
21C
330
219
100
AcDbEntity
  8
VERMASSUNG
100
AcDbTrace
 10
141.984502402
 20
163.0142130951
 30
0.0
 11
141.534502402
 21
160.0142130951
 31
0.0
 12
142.434502402
 22
160.0142130951
 32
0.0
 13
142.434502402
 23
160.0142130951
 33
0.0
  0
SOLID
  5
21D
330
219
100
AcDbEntity
  8
VERMASSUNG
100
AcDbTrace
 10
141.984502402
 20
100.0642130951
 30
0.0
 11
142.434502402
 21
103.0642130951
 31
0.0
 12
141.534502402
 22
103.0642130951
 32
0.0
 13
141.534502402
 23
103.0642130951
 33
0.0
  0
LINE
  5
21E
330
219
100
AcDbEntity
  8
VERMASSUNG
100
AcDbLine
 10
190.2213882207
 20
163.0142130951
 30
0.0
 11
140.984502402
 21
163.0142130951
 31
0.0
  0
LINE
  5
21F
330
219
100
AcDbEntity
  8
VERMASSUNG
100
AcDbLine
 10
190.2213882207
 20
100.0642130951
 30
0.0
 11
140.984502402
 21
100.0642130951
 31
0.0
  0
LINE
  5
220
330
219
100
AcDbEntity
  8
VERMASSUNG
100
AcDbLine
 10
141.984502402
 20
163.0142130951
 30
0.0
 11
141.984502402
 21
100.0642130951
 31
0.0
  0
MTEXT
  5
221
330
219
100
AcDbEntity
  8
VERMASSUNG
100
AcDbMText
 10
139.2063671457
 20
121.7342136393
 30
0.0
 40
2.0
 41
0.0
 71
     1
 72
     1
  1
KM
  7
SLDTEXTSTYLE0
 11
-7.044195017643634E-15
 21
1.0
 31
0.0
 73
     1
 44
1.0
  0
MTEXT
  5
222
330
219
100
AcDbEntity
  8
VERMASSUNG
100
AcDbMText
 10
139.406367097
 20
125.1342134516
 30
0.0
 40
2.0
 41
0.0
 71
     1
 72
     1
  1
%%c
  7
SLDTEXTSTYLE0
 11
-7.044195017643634E-15
 21
1.0
 31
0.0
 73
     1
 44
1.0
  0
MTEXT
  5
223
330
219
100
AcDbEntity
  8
VERMASSUNG
100
AcDbMText
 10
139.2063671457
 20
128.7442134659
 30
0.0
 40
2.0
 41
0.0
 71
     1
 72
     1
  1
62.95
  7
SLDTEXTSTYLE0
 11
-7.044195017643634E-15
 21
1.0
 31
0.0
 73
     1
 44
1.0
  0
MTEXT
  5
224
330
219
100
AcDbEntity
  8
VERMASSUNG
100
AcDbMText
 10
139.2063671457
 20
136.1317131783
 30
0.0
 40
2.0
 41
0.0
 71
     1
 72
     1
  1
XMZ
  7
SLDTEXTSTYLE0
 11
-7.044195017643634E-15
 21
1.0
 31
0.0
 73
     1
 44
1.0
  0
ENDBLK
  5
21B
330
219
100
AcDbEntity
  8
0
100
AcDbBlockEnd
  0
BLOCK
  5
227
330
226
100
AcDbEntity
  8
0
100
AcDbBlockBegin
  2
_D_3
 70
     0
 10
0.0
 20
0.0
 30
0.0
  3
_D_3
  1

  0
SOLID
  5
229
330
226
100
AcDbEntity
  8
VERMASSUNG
100
AcDbTrace
 10
190.0213882207
 20
176.9473472844
 30
0.0
 11
193.0213882207
 21
176.4973472844
 31
0.0
 12
193.0213882207
 22
177.3973472844
 32
0.0
 13
193.0213882207
 23
177.3973472844
 33
0.0
  0
SOLID
  5
22A
330
226
100
AcDbEntity
  8
VERMASSUNG
100
AcDbTrace
 10
275.0213882207
 20
176.9473472844
 30
0.0
 11
272.0213882207
 21
177.3973472844
 31
0.0
 12
272.0213882207
 22
176.4973472844
 32
0.0
 13
272.0213882207
 23
176.4973472844
 33
0.0
  0
LINE
  5
22B
330
226
100
AcDbEntity
  8
VERMASSUNG
100
AcDbLine
 10
190.0213882207
 20
162.8142130951
 30
0.0
 11
190.0213882207
 21
177.9473472844
 31
0.0
  0
LINE
  5
22C
330
226
100
AcDbEntity
  8
VERMASSUNG
100
AcDbLine
 10
275.0213882207
 20
161.5392130951
 30
0.0
 11
275.0213882207
 21
177.9473472844
 31
0.0
  0
LINE
  5
22D
330
226
100
AcDbEntity
  8
VERMASSUNG
100
AcDbLine
 10
190.0213882207
 20
176.9473472844
 30
0.0
 11
275.0213882207
 21
176.9473472844
 31
0.0
  0
MTEXT
  5
22E
330
226
100
AcDbEntity
  8
VERMASSUNG
100
AcDbMText
 10
231.1213882706
 20
179.5254828803
 30
0.0
 40
2.0
 41
0.0
 71
     1
 72
     1
  1
85
  7
SLDTEXTSTYLE0
 73
     1
 44
1.0
  0
ENDBLK
  5
228
330
226
100
AcDbEntity
  8
0
100
AcDbBlockEnd
  0
BLOCK
  5
231
330
230
100
AcDbEntity
  8
0
100
AcDbBlockBegin
  2
_D_4
 70
     0
 10
0.0
 20
0.0
 30
0.0
  3
_D_4
  1

  0
SOLID
  5
233
330
230
100
AcDbEntity
  8
VERMASSUNG
100
AcDbTrace
 10
190.0213882207
 20
169.7426836402
 30
0.0
 11
193.0213882207
 21
169.2926836402
 31
0.0
 12
193.0213882207
 22
170.1926836402
 32
0.0
 13
193.0213882207
 23
170.1926836402
 33
0.0
  0
SOLID
  5
234
330
230
100
AcDbEntity
  8
VERMASSUNG
100
AcDbTrace
 10
208.0213882207
 20
169.7426836402
 30
0.0
 11
205.0213882207
 21
170.1926836402
 31
0.0
 12
205.0213882207
 22
169.2926836402
 32
0.0
 13
205.0213882207
 23
169.2926836402
 33
0.0
  0
LINE
  5
235
330
230
100
AcDbEntity
  8
VERMASSUNG
100
AcDbLine
 10
190.0213882207
 20
162.8142130951
 30
0.0
 11
190.0213882207
 21
170.7426836402
 31
0.0
  0
LINE
  5
236
330
230
100
AcDbEntity
  8
VERMASSUNG
100
AcDbLine
 10
208.0213882207
 20
161.5392130951
 30
0.0
 11
208.0213882207
 21
170.7426836402
 31
0.0
  0
LINE
  5
237
330
230
100
AcDbEntity
  8
VERMASSUNG
100
AcDbLine
 10
190.0213882207
 20
169.7426836402
 30
0.0
 11
208.0213882207
 21
169.7426836402
 31
0.0
  0
MTEXT
  5
238
330
230
100
AcDbEntity
  8
VERMASSUNG
100
AcDbMText
 10
197.8213881637
 20
172.3208192362
 30
0.0
 40
2.0
 41
0.0
 71
     1
 72
     1
  1
18
  7
SLDTEXTSTYLE0
 73
     1
 44
1.0
  0
ENDBLK
  5
232
330
230
100
AcDbEntity
  8
0
100
AcDbBlockEnd
  0
BLOCK
  5
23B
330
23A
100
AcDbEntity
  8
0
100
AcDbBlockBegin
  2
_D_5
 70
     0
 10
0.0
 20
0.0
 30
0.0
  3
_D_5
  1

  0
SOLID
  5
23D
330
23A
100
AcDbEntity
  8
VERMASSUNG
100
AcDbTrace
 10
150.0713882207
 20
185.0142130951
 30
0.0
 11
153.0713882207
 21
184.5642130951
 31
0.0
 12
153.0713882207
 22
185.4642130951
 32
0.0
 13
153.0713882207
 23
185.4642130951
 33
0.0
  0
SOLID
  5
23E
330
23A
100
AcDbEntity
  8
VERMASSUNG
100
AcDbTrace
 10
275.0213882207
 20
185.0142130951
 30
0.0
 11
272.0213882207
 21
185.4642130951
 31
0.0
 12
272.0213882207
 22
184.5642130951
 32
0.0
 13
272.0213882207
 23
184.5642130951
 33
0.0
  0
LINE
  5
23F
330
23A
100
AcDbEntity
  8
VERMASSUNG
100
AcDbLine
 10
150.0713882207
 20
150.8679322506
 30
0.0
 11
150.0713882207
 21
186.0142130951
 31
0.0
  0
LINE
  5
240
330
23A
100
AcDbEntity
  8
VERMASSUNG
100
AcDbLine
 10
275.0213882207
 20
161.5392130951
 30
0.0
 11
275.0213882207
 21
186.0142130951
 31
0.0
  0
LINE
  5
241
330
23A
100
AcDbEntity
  8
VERMASSUNG
100
AcDbLine
 10
150.0713882207
 20
185.0142130951
 30
0.0
 11
275.0213882207
 21
185.0142130951
 31
0.0
  0
MTEXT
  5
242
330
23A
100
AcDbEntity
  8
VERMASSUNG
100
AcDbMText
 10
208.8463882196
 20
187.5923486911
 30
0.0
 40
2.0
 41
0.0
 71
     1
 72
     1
  1
124.95
  7
SLDTEXTSTYLE0
 73
     1
 44
1.0
  0
ENDBLK
  5
23C
330
23A
100
AcDbEntity
  8
0
100
AcDbBlockEnd
  0
BLOCK
  5
27F
330
27E
100
AcDbEntity
  8
0
100
AcDbBlockBegin
  2
_D_6
 70
     0
 10
0.0
 20
0.0
 30
0.0
  3
_D_6
  1

  0
SOLID
  5
281
330
27E
100
AcDbEntity
  8
VERMASSUNG
100
AcDbTrace
 10
46.6216449747
 20
173.0142130951
 30
0.0
 11
49.6216449747
 21
172.5642130951
 31
0.0
 12
49.6216449747
 22
173.4642130951
 32
0.0
 13
49.6216449747
 23
173.4642130951
 33
0.0
  0
SOLID
  5
282
330
27E
100
AcDbEntity
  8
VERMASSUNG
100
AcDbTrace
 10
66.6216449747
 20
173.0142130951
 30
0.0
 11
63.6216449747
 21
173.4642130951
 31
0.0
 12
63.6216449747
 22
172.5642130951
 32
0.0
 13
63.6216449747
 23
172.5642130951
 33
0.0
  0
LINE
  5
283
330
27E
100
AcDbEntity
  8
VERMASSUNG
100
AcDbLine
 10
46.6216449747
 20
161.5392130951
 30
0.0
 11
46.6216449747
 21
174.0142130951
 31
0.0
  0
LINE
  5
284
330
27E
100
AcDbEntity
  8
VERMASSUNG
100
AcDbLine
 10
46.6216449747
 20
173.0142130951
 30
0.0
 11
66.6216449747
 21
173.0142130951
 31
0.0
  0
MTEXT
  5
285
330
27E
100
AcDbEntity
  8
VERMASSUNG
100
AcDbMText
 10
55.2216450247
 20
175.5923486911
 30
0.0
 40
2.0
 41
0.0
 71
     1
 72
     1
  1
20
  7
SLDTEXTSTYLE0
 73
     1
 44
1.0
  0
ENDBLK
  5
280
330
27E
100
AcDbEntity
  8
0
100
AcDbBlockEnd
  0
BLOCK
  5
288
330
287
100
AcDbEntity
  8
0
100
AcDbBlockBegin
  2
_D_7
 70
     0
 10
0.0
 20
0.0
 30
0.0
  3
_D_7
  1

  0
SOLID
  5
28A
330
287
100
AcDbEntity
  8
VERMASSUNG
100
AcDbTrace
 10
121.4608987582
 20
101.5392130951
 30
0.0
 11
121.9108987582
 21
104.5392130951
 31
0.0
 12
121.0108987582
 22
104.5392130951
 32
0.0
 13
121.0108987582
 23
104.5392130951
 33
0.0
  0
SOLID
  5
28B
330
287
100
AcDbEntity
  8
VERMASSUNG
100
AcDbTrace
 10
121.4608987582
 20
161.5392130951
 30
0.0
 11
121.0108987582
 21
158.5392130951
 31
0.0
 12
121.9108987582
 22
158.5392130951
 32
0.0
 13
121.9108987582
 23
158.5392130951
 33
0.0
  0
LINE
  5
28C
330
287
100
AcDbEntity
  8
VERMASSUNG
100
AcDbLine
 10
93.0791580854
 20
101.5392130951
 30
0.0
 11
122.4608987582
 21
101.5392130951
 31
0.0
  0
LINE
  5
28D
330
287
100
AcDbEntity
  8
VERMASSUNG
100
AcDbLine
 10
91.6216449747
 20
161.5392130951
 30
0.0
 11
122.4608987582
 21
161.5392130951
 31
0.0
  0
LINE
  5
28E
330
287
100
AcDbEntity
  8
VERMASSUNG
100
AcDbLine
 10
121.4608987582
 20
101.5392130951
 30
0.0
 11
121.4608987582
 21
161.5392130951
 31
0.0
  0
MTEXT
  5
28F
330
287
100
AcDbEntity
  8
VERMASSUNG
100
AcDbMText
 10
118.8827631622
 20
130.1392131451
 30
0.0
 40
2.0
 41
0.0
 71
     1
 72
     1
  1
60
  7
SLDTEXTSTYLE0
 11
-1.608122649676637E-16
 21
1.0
 31
0.0
 73
     1
 44
1.0
  0
ENDBLK
  5
289
330
287
100
AcDbEntity
  8
0
100
AcDbBlockEnd
  0
BLOCK
  5
293
330
292
100
AcDbEntity
  8
0
100
AcDbBlockBegin
  2
_D_8
 70
     0
 10
0.0
 20
0.0
 30
0.0
  3
_D_8
  1

  0
SOLID
  5
295
330
292
100
AcDbEntity
  8
VERMASSUNG
100
AcDbTrace
 10
12.2915868246
 20
164.437725777
 30
0.0
 11
15.2006884035
 21
165.2977420581
 31
0.0
 12
14.8203319679
 22
166.1134190664
 32
0.0
 13
14.8203319679
 23
166.1134190664
 33
0.0
  0
SOLID
  5
296
330
292
100
AcDbEntity
  8
VERMASSUNG
100
AcDbTrace
 10
76.3426103603
 20
194.3052085644
 30
0.0
 11
73.4335087815
 21
193.4451922834
 31
0.0
 12
73.813865217
 22
192.629515275
 32
0.0
 13
73.813865217
 23
192.629515275
 33
0.0
  0
LINE
  5
297
330
292
100
AcDbEntity
  8
VERMASSUNG
100
AcDbLine
 10
26.674436404
 20
133.5936053175
 30
0.0
 11
11.8689685629
 21
165.3440335641
 31
0.0
  0
LINE
  5
298
330
292
100
AcDbEntity
  8
VERMASSUNG
100
AcDbLine
 10
91.6216449747
 20
161.5392130951
 30
0.0
 11
75.9199920986
 21
195.2115163515
 31
0.0
  0
LINE
  5
299
330
292
100
AcDbEntity
  8
VERMASSUNG
100
AcDbLine
 10
12.2915868246
 20
164.437725777
 30
0.0
 11
76.3426103603
 21
194.3052085644
 31
0.0
  0
MTEXT
  5
29A
330
292
100
AcDbEntity
  8
VERMASSUNG
100
AcDbMText
 10
42.1399620123
 20
181.2009095992
 30
0.0
 40
2.0
 41
0.0
 71
     1
 72
     1
  1
71
  7
SLDTEXTSTYLE0
 11
0.9063077870366527
 21
0.4226182617406935
 31
0.0
 73
     1
 44
1.0
  0
ENDBLK
  5
294
330
292
100
AcDbEntity
  8
0
100
AcDbBlockEnd
  0
BLOCK
  5
29D
330
29C
100
AcDbEntity
  8
0
100
AcDbBlockBegin
  2
_D_9
 70
     0
 10
0.0
 20
0.0
 30
0.0
  3
_D_9
  1

  0
SOLID
  5
29F
330
29C
100
AcDbEntity
  8
VERMASSUNG
100
AcDbTrace
 10
7.724900597
 20
119.2185104361
 30
0.0
 11
9.8680406967
 21
117.0715473454
 31
0.0
 12
10.4036373937
 22
117.7948288799
 32
0.0
 13
10.4036373937
 23
117.7948288799
 33
0.0
  0
SOLID
  5
2A0
330
29C
100
AcDbEntity
  8
VERMASSUNG
100
AcDbTrace
 10
72.0165925507
 20
71.6099151436
 30
0.0
 11
69.8734524509
 21
73.7568782343
 31
0.0
 12
69.3378557539
 22
73.0335966998
 32
0.0
 13
69.3378557539
 23
73.0335966998
 33
0.0
  0
LINE
  5
2A1
330
29C
100
AcDbEntity
  8
VERMASSUNG
100
AcDbLine
 10
34.4757989979
 20
155.3435107414
 30
0.0
 11
7.1297931558
 21
118.4148642867
 31
0.0
  0
LINE
  5
2A2
330
29C
100
AcDbEntity
  8
VERMASSUNG
100
AcDbLine
 10
98.7674909516
 20
107.7349154489
 30
0.0
 11
71.4214851095
 21
70.8062689942
 31
0.0
  0
LINE
  5
2A3
330
29C
100
AcDbEntity
  8
VERMASSUNG
100
AcDbLine
 10
7.724900597
 20
119.2185104361
 30
0.0
 11
72.0165925507
 21
71.6099151436
 31
0.0
  0
MTEXT
  5
2A4
330
29C
100
AcDbEntity
  8
VERMASSUNG
100
AcDbMText
 10
38.8293282036
 20
99.3934406238
 30
0.0
 40
2.0
 41
0.0
 71
     1
 72
     1
  1
%%c
  7
SLDTEXTSTYLE0
 11
0.8036461494214672
 21
-0.5951074411566779
 31
0.0
 73
     1
 44
1.0
  0
MTEXT
  5
2A5
330
29C
100
AcDbEntity
  8
VERMASSUNG
100
AcDbMText
 10
41.8495122737
 20
97.4058319434
 30
0.0
 40
2.0
 41
0.0
 71
     1
 72
     1
  1
80
  7
SLDTEXTSTYLE0
 11
0.8036461494214672
 21
-0.5951074411566779
 31
0.0
 73
     1
 44
1.0
  0
ENDBLK
  5
29E
330
29C
100
AcDbEntity
  8
0
100
AcDbBlockEnd
  0
BLOCK
  5
2A8
330
2A7
100
AcDbEntity
  8
0
100
AcDbBlockBegin
  2
_D_10
 70
     0
 10
0.0
 20
0.0
 30
0.0
  3
_D_10
  1

  0
SOLID
  5
2AA
330
2A7
100
AcDbEntity
  8
VERMASSUNG
100
AcDbTrace
 10
113.9148948838
 20
131.5392130951
 30
0.0
 11
113.4648948838
 21
128.5392130951
 31
0.0
 12
114.3648948838
 22
128.5392130951
 32
0.0
 13
114.3648948838
 23
128.5392130951
 33
0.0
  0
SOLID
  5
2AB
330
2A7
100
AcDbEntity
  8
VERMASSUNG
100
AcDbTrace
 10
113.9148948838
 20
121.5392130951
 30
0.0
 11
114.3648948838
 21
124.5392130951
 31
0.0
 12
113.4648948838
 22
124.5392130951
 32
0.0
 13
113.4648948838
 23
124.5392130951
 33
0.0
  0
LINE
  5
2AC
330
2A7
100
AcDbEntity
  8
VERMASSUNG
100
AcDbLine
 10
109.1216449747
 20
131.5392130951
 30
0.0
 11
114.9148948838
 21
131.5392130951
 31
0.0
  0
LINE
  5
2AD
330
2A7
100
AcDbEntity
  8
VERMASSUNG
100
AcDbLine
 10
86.6216449747
 20
121.5392130951
 30
0.0
 11
114.9148948838
 21
121.5392130951
 31
0.0
  0
LINE
  5
2AE
330
2A7
100
AcDbEntity
  8
VERMASSUNG
100
AcDbLine
 10
113.9148948838
 20
131.5392130951
 30
0.0
 11
113.9148948838
 21
121.5392130951
 31
0.0
  0
MTEXT
  5
2AF
330
2A7
100
AcDbEntity
  8
VERMASSUNG
100
AcDbMText
 10
111.3367592878
 20
125.3392130382
 30
0.0
 40
2.0
 41
0.0
 71
     1
 72
     1
  1
10
  7
SLDTEXTSTYLE0
 11
-7.044195017643634E-15
 21
1.0
 31
0.0
 73
     1
 44
1.0
  0
ENDBLK
  5
2A9
330
2A7
100
AcDbEntity
  8
0
100
AcDbBlockEnd
  0
BLOCK
  5
2B2
330
2B1
100
AcDbEntity
  8
0
100
AcDbBlockBegin
  2
_D_11
 70
     0
 10
0.0
 20
0.0
 30
0.0
  3
_D_11
  1

  0
SOLID
  5
2B4
330
2B1
100
AcDbEntity
  8
VERMASSUNG
100
AcDbTrace
 10
113.9148948838
 20
131.5392130951
 30
0.0
 11
114.3648948838
 21
134.5392130951
 31
0.0
 12
113.4648948838
 22
134.5392130951
 32
0.0
 13
113.4648948838
 23
134.5392130951
 33
0.0
  0
SOLID
  5
2B5
330
2B1
100
AcDbEntity
  8
VERMASSUNG
100
AcDbTrace
 10
113.9148948838
 20
141.5392130951
 30
0.0
 11
113.4648948838
 21
138.5392130951
 31
0.0
 12
114.3648948838
 22
138.5392130951
 32
0.0
 13
114.3648948838
 23
138.5392130951
 33
0.0
  0
LINE
  5
2B6
330
2B1
100
AcDbEntity
  8
VERMASSUNG
100
AcDbLine
 10
109.1216449747
 20
131.5392130951
 30
0.0
 11
114.9148948838
 21
131.5392130951
 31
0.0
  0
LINE
  5
2B7
330
2B1
100
AcDbEntity
  8
VERMASSUNG
100
AcDbLine
 10
67.6216449747
 20
141.5392130951
 30
0.0
 11
114.9148948838
 21
141.5392130951
 31
0.0
  0
LINE
  5
2B8
330
2B1
100
AcDbEntity
  8
VERMASSUNG
100
AcDbLine
 10
113.9148948838
 20
131.5392130951
 30
0.0
 11
113.9148948838
 21
141.5392130951
 31
0.0
  0
MTEXT
  5
2B9
330
2B1
100
AcDbEntity
  8
VERMASSUNG
100
AcDbMText
 10
111.3367592878
 20
135.3392130382
 30
0.0
 40
2.0
 41
0.0
 71
     1
 72
     1
  1
10
  7
SLDTEXTSTYLE0
 11
6.123233995736766E-17
 21
1.0
 31
0.0
 73
     1
 44
1.0
  0
ENDBLK
  5
2B3
330
2B1
100
AcDbEntity
  8
0
100
AcDbBlockEnd
  0
BLOCK
  5
2BB
330
2BA
100
AcDbEntity
  8
0
100
AcDbBlockBegin
  2
SW_CENTERMARKSYMBOL_0
 70
     0
 10
0.0
 20
0.0
 30
0.0
  3
SW_CENTERMARKSYMBOL_0
  1

  0
LINE
  5
2BD
330
2BA
100
AcDbEntity
  8
VERMASSUNG
 62
     0
100
AcDbLine
 10
0.0
 20
0.0
 30
0.0
 11
0.0
 21
2.5
 31
0.0
  0
LINE
  5
2BE
330
2BA
100
AcDbEntity
  8
VERMASSUNG
 62
     0
100
AcDbLine
 10
0.0
 20
0.0
 30
0.0
 11
-2.5
 21
0.0
 31
0.0
  0
LINE
  5
2BF
330
2BA
100
AcDbEntity
  8
VERMASSUNG
 62
     0
100
AcDbLine
 10
0.0
 20
0.0
 30
0.0
 11
0.0
 21
-2.5
 31
0.0
  0
LINE
  5
2C0
330
2BA
100
AcDbEntity
  8
VERMASSUNG
 62
     0
100
AcDbLine
 10
0.0
 20
0.0
 30
0.0
 11
2.5
 21
0.0
 31
0.0
  0
LINE
  5
2C1
330
2BA
100
AcDbEntity
  8
VERMASSUNG
 62
     0
100
AcDbLine
 10
0.0
 20
5.0
 30
0.0
 11
0.0
 21
42.5
 31
0.0
  0
LINE
  5
2C2
330
2BA
100
AcDbEntity
  8
VERMASSUNG
 62
     0
100
AcDbLine
 10
-5.0
 20
0.0
 30
0.0
 11
-42.5
 21
0.0
 31
0.0
  0
LINE
  5
2C3
330
2BA
100
AcDbEntity
  8
VERMASSUNG
 62
     0
100
AcDbLine
 10
0.0
 20
-5.0
 30
0.0
 11
0.0
 21
-42.5
 31
0.0
  0
LINE
  5
2C4
330
2BA
100
AcDbEntity
  8
VERMASSUNG
 62
     0
100
AcDbLine
 10
5.0
 20
0.0
 30
0.0
 11
42.5
 21
0.0
 31
0.0
  0
ENDBLK
  5
2BC
330
2BA
100
AcDbEntity
  8
0
100
AcDbBlockEnd
  0
ENDSEC
  0
SECTION
  2
ENTITIES
  0
MTEXT
  5
78
330
1F
100
AcDbEntity
  8
KOPF_DÜNN
100
AcDbMText
 10
13.8892156294
 20
23.8442973028
 30
0.0
 40
3.0
 41
0.0
 71
     1
 72
     1
  1
KY6.V20.R22.085
  7
SLDTEXTSTYLE0
 73
     1
 44
1.0
  0
MTEXT
  5
79
330
1F
100
AcDbEntity
  8
VERMASSUNG
100
AcDbMText
 10
13.9329988022
 20
28.8834360957
 30
0.0
 40
3.0
 41
0.0
 71
     1
 72
     1
  1
Werkzeughalter axial doppelt_Tool holder axial double
  7
SLDTEXTSTYLE0
 73
     1
 44
1.0
  0
MTEXT
  5
7A
330
1F
100
AcDbEntity
  8
VERMASSUNG
100
AcDbMText
 10
98.8601118557
 20
13.8365368761
 30
0.0
 40
2.0
 41
0.0
 71
     1
 72
     1
  1
Datum: 14.02.2018
  7
SLDTEXTSTYLE0
 73
     1
 44
1.0
  0
MTEXT
  5
7B
330
1F
100
AcDbEntity
  8
VERMASSUNG
100
AcDbMText
 10
13.933048693
 20
18.0482802738
 30
0.0
 40
2.0
 41
0.0
 71
     1
 72
     1
  1
KM63 XMZ / rechts / right
  7
SLDTEXTSTYLE0
 73
     1
 44
1.0
  0
MTEXT
  5
7C
330
1F
100
AcDbEntity
  8
VERMASSUNG
100
AcDbMText
 10
13.9808475933
 20
13.9090974274
 30
0.0
 40
2.0
 41
0.0
 71
     1
 72
     1
  1
Gewicht: 2277g
  7
SLDTEXTSTYLE0
 73
     1
 44
1.0
  0
LINE
  5
7D
330
1F
100
AcDbEntity
  8
0
  6
Continuous
 62
     7
370
    25
100
AcDbLine
 10
206.736234936
 20
100.0642130117
 30
0.0
 11
208.0213874459
 21
100.0642130117
 31
0.0
  0
LINE
  5
7E
330
1F
100
AcDbEntity
  8
0
  6
Continuous
 62
     7
370
    25
100
AcDbLine
 10
208.0213874459
 20
163.0142131786
 30
0.0
 11
203.2555863141
 21
163.0142131786
 31
0.0
  0
LINE
  5
7F
330
1F
100
AcDbEntity
  8
0
  6
Continuous
 62
     7
370
    25
100
AcDbLine
 10
190.2213882157
 20
100.0642130117
 30
0.0
 11
195.3818858481
 21
100.0642130117
 31
0.0
  0
LINE
  5
80
330
1F
100
AcDbEntity
  8
0
  6
Continuous
 62
     7
370
    25
100
AcDbLine
 10
196.5871904857
 20
163.0142131786
 30
0.0
 11
190.2213882157
 21
163.0142131786
 31
0.0
  0
ARC
  5
81
330
1F
100
AcDbEntity
  8
0
  6
Continuous
 62
     7
370
    25
100
AcDbCircle
 10
190.2213882207
 20
100.2642130951
 30
0.0
 40
0.2000000000000171
100
AcDbArc
 50
180.0
 51
270.0
  0
ARC
  5
82
330
1F
100
AcDbEntity
  8
0
  6
Continuous
 62
     7
370
    25
100
AcDbCircle
 10
190.2213882207
 20
162.8142130951
 30
0.0
 40
0.2000000000000171
100
AcDbArc
 50
90.0
 51
180.0
  0
ARC
  5
83
330
1F
100
AcDbEntity
  8
0
  6
Continuous
 62
     7
370
    25
100
AcDbCircle
 10
189.6397481645
 20
105.9892130951
 30
0.0
 40
0.8000000000000175
100
AcDbArc
 50
61.5070859647
 51
107.5
  0
ARC
  5
84
330
1F
100
AcDbEntity
  8
0
  6
Continuous
 62
     7
370
    25
100
AcDbCircle
 10
189.6397481645
 20
157.0892130951
 30
0.0
 40
0.8000000000000299
100
AcDbArc
 50
252.5
 51
298.4929140353
  0
LINE
  5
85
330
1F
100
AcDbEntity
  8
0
  6
Continuous
 62
     7
370
    25
100
AcDbLine
 10
198.0463880926
 20
160.4868086021
 30
0.0
 11
196.5871904857
 21
163.0142131786
 31
0.0
  0
LINE
  5
86
330
1F
100
AcDbEntity
  8
0
  6
Continuous
 62
     7
370
    25
100
AcDbLine
 10
188.9020032129
 20
156.4830006997
 30
0.0
 11
172.3789963751
 21
155.6532481651
 31
0.0
  0
LINE
  5
87
330
1F
100
AcDbEntity
  8
0
  6
Continuous
 62
     7
370
    25
100
AcDbLine
 10
172.3789963751
 20
107.4251780252
 30
0.0
 11
188.9020032129
 21
106.5954254906
 31
0.0
  0
LINE
  5
88
330
1F
100
AcDbEntity
  8
0
  6
Continuous
 62
     7
370
    25
100
AcDbLine
 10
188.9020032129
 20
106.5954254906
 30
0.0
 11
189.3991835412
 21
106.752187569
 31
0.0
  0
LINE
  5
89
330
1F
100
AcDbEntity
  8
0
  6
Continuous
 62
     7
370
    25
100
AcDbLine
 10
189.3991835412
 20
156.3262386213
 30
0.0
 11
188.9020032129
 21
156.4830006997
 31
0.0
  0
LINE
  5
8A
330
1F
100
AcDbEntity
  8
0
  6
Continuous
 62
     7
370
    25
100
AcDbLine
 10
203.2555863141
 20
163.0142131786
 30
0.0
 11
201.7963882416
 21
160.4868086021
 31
0.0
  0
ARC
  5
8B
330
1F
100
AcDbEntity
  8
0
  6
Continuous
 62
     7
370
    25
100
AcDbCircle
 10
199.0463882207
 20
160.3892130951
 30
0.0
 40
1.0
100
AcDbArc
 50
180.0
 51
270.0
  0
ARC
  5
8C
330
1F
100
AcDbEntity
  8
0
  6
Continuous
 62
     7
370
    25
100
AcDbCircle
 10
200.7963882207
 20
160.3892130951
 30
0.0
 40
1.0
100
AcDbArc
 50
270.0
 51
360.0
  0
LINE
  5
8D
330
1F
100
AcDbEntity
  8
0
  6
Continuous
 62
     7
370
    25
100
AcDbLine
 10
200.7963880777
 20
159.3892132829
 30
0.0
 11
199.0463882565
 21
159.3892132829
 31
0.0
  0
LINE
  5
8E
330
1F
100
AcDbEntity
  8
0
  6
Continuous
 62
     7
370
    25
100
AcDbLine
 10
172.3789963751
 20
155.6532481651
 30
0.0
 11
172.0213889956
 21
154.9925623427
 31
0.0
  0
LINE
  5
8F
330
1F
100
AcDbEntity
  8
0
  6
Continuous
 62
     7
370
    25
100
AcDbLine
 10
172.0213889956
 20
108.0858638476
 30
0.0
 11
172.3789963751
 21
107.4251780252
 31
0.0
  0
LINE
  5
90
330
1F
100
AcDbEntity
  8
0
  6
Continuous
 62
     7
370
    25
100
AcDbLine
 10
257.8542753934
 20
112.0942817967
 30
0.0
 11
255.9571266054
 21
114.2700972001
 31
0.0
  0
LINE
  5
91
330
1F
100
AcDbEntity
  8
0
  6
Continuous
 62
     7
370
    25
100
AcDbLine
 10
253.1242444991
 20
113.7150289456
 30
0.0
 11
255.9571266054
 21
114.2700972001
 31
0.0
  0
LINE
  5
92
330
1F
100
AcDbEntity
  8
0
  6
Continuous
 62
     7
370
    25
100
AcDbLine
 10
252.1885037302
 20
110.9841452877
 30
0.0
 11
253.1242444991
 21
113.7150289456
 31
0.0
  0
LINE
  5
93
330
1F
100
AcDbEntity
  8
0
  6
Continuous
 62
     7
370
    25
100
AcDbLine
 10
252.1885037302
 20
110.9841452877
 30
0.0
 11
254.0856525182
 21
108.8083298843
 31
0.0
  0
LINE
  5
94
330
1F
100
AcDbEntity
  8
0
  6
Continuous
 62
     7
370
    25
100
AcDbLine
 10
256.9185346245
 20
109.3633981387
 30
0.0
 11
254.0856525182
 21
108.8083298843
 31
0.0
  0
CIRCLE
  5
95
330
1F
100
AcDbEntity
  8
0
  6
Continuous
 62
     7
370
    25
100
AcDbCircle
 10
255.0213882207
 20
111.5392130951
 30
0.0
 40
4.172000000000024
  0
LINE
  5
96
330
1F
100
AcDbEntity
  8
0
  6
Continuous
 62
     7
370
    25
100
AcDbLine
 10
256.9185346245
 20
109.3633981387
 30
0.0
 11
257.8542753934
 21
112.0942817967
 31
0.0
  0
CIRCLE
  5
97
330
1F
100
AcDbEntity
  8
0
  6
Continuous
 62
     7
370
    25
100
AcDbCircle
 10
255.0213882207
 20
111.5392130951
 30
0.0
 40
5.000000000000032
  0
CIRCLE
  5
98
330
1F
100
AcDbEntity
  8
0
  6
Continuous
 62
     7
370
    25
100
AcDbCircle
 10
225.0213882207
 20
111.5392130951
 30
0.0
 40
4.172000000000024
  0
CIRCLE
  5
99
330
1F
100
AcDbEntity
  8
0
  6
Continuous
 62
     7
370
    25
100
AcDbCircle
 10
225.0213882207
 20
111.5392130951
 30
0.0
 40
5.000000000000032
  0
LINE
  5
9A
330
1F
100
AcDbEntity
  8
0
  6
Continuous
 62
     7
370
    25
100
AcDbLine
 10
226.9185334324
 20
109.3633981387
 30
0.0
 11
227.8542742013
 21
112.0942817967
 31
0.0
  0
LINE
  5
9B
330
1F
100
AcDbEntity
  8
0
  6
Continuous
 62
     7
370
    25
100
AcDbLine
 10
222.1885025381
 20
110.9841452877
 30
0.0
 11
223.124243307
 21
113.7150289456
 31
0.0
  0
LINE
  5
9C
330
1F
100
AcDbEntity
  8
0
  6
Continuous
 62
     7
370
    25
100
AcDbLine
 10
227.8542742013
 20
112.0942817967
 30
0.0
 11
225.9571291386
 21
114.2700972001
 31
0.0
  0
LINE
  5
9D
330
1F
100
AcDbEntity
  8
0
  6
Continuous
 62
     7
370
    25
100
AcDbLine
 10
222.1885025381
 20
110.9841452877
 30
0.0
 11
224.0856476008
 21
108.8083298843
 31
0.0
  0
LINE
  5
9E
330
1F
100
AcDbEntity
  8
0
  6
Continuous
 62
     7
370
    25
100
AcDbLine
 10
223.124243307
 20
113.7150289456
 30
0.0
 11
225.9571291386
 21
114.2700972001
 31
0.0
  0
LINE
  5
9F
330
1F
100
AcDbEntity
  8
0
  6
Continuous
 62
     7
370
    25
100
AcDbLine
 10
226.9185334324
 20
109.3633981387
 30
0.0
 11
224.0856476008
 21
108.8083298843
 31
0.0
  0
LINE
  5
A0
330
1F
100
AcDbEntity
  8
0
  6
Continuous
 62
     7
370
    25
100
AcDbLine
 10
275.0213891148
 20
133.5936052225
 30
0.0
 11
275.0213891148
 21
101.5392137657
 31
0.0
  0
LINE
  5
A1
330
1F
100
AcDbEntity
  8
0
  6
Continuous
 62
     7
370
    25
100
AcDbLine
 10
208.0213874459
 20
101.5392137657
 30
0.0
 11
275.0213891148
 21
101.5392137657
 31
0.0
  0
LINE
  5
A2
330
1F
100
AcDbEntity
  8
0
  6
Continuous
 62
     7
370
    25
100
AcDbLine
 10
208.0213874459
 20
133.5936052225
 30
0.0
 11
208.0213874459
 21
101.5392137657
 31
0.0
  0
LINE
  5
A3
330
1F
100
AcDbEntity
  8
0
  6
Continuous
 62
     7
370
    25
100
AcDbLine
 10
275.0213891148
 20
133.5936052225
 30
0.0
 11
208.0213874459
 21
133.5936052225
 31
0.0
  0
CIRCLE
  5
A4
330
1F
100
AcDbEntity
  8
0
  6
Continuous
 62
     7
370
    25
100
AcDbCircle
 10
255.0213882207
 20
111.5392130951
 30
0.0
 40
5.249999999999986
  0
CIRCLE
  5
A5
330
1F
100
AcDbEntity
  8
0
  6
Continuous
 62
     7
370
    25
100
AcDbCircle
 10
225.0213882207
 20
111.5392130951
 30
0.0
 40
5.249999999999986
  0
LINE
  5
A6
330
1F
100
AcDbEntity
  8
0
  6
Continuous
 62
     7
370
    25
100
AcDbLine
 10
208.0213874459
 20
161.5392124246
 30
0.0
 11
275.0213891148
 21
161.5392124246
 31
0.0
  0
LINE
  5
A7
330
1F
100
AcDbEntity
  8
0
  6
Continuous
 62
     7
370
    25
100
AcDbLine
 10
275.0213891148
 20
133.5936052225
 30
0.0
 11
275.0213891148
 21
161.5392124246
 31
0.0
  0
LINE
  5
A8
330
1F
100
AcDbEntity
  8
0
  6
Continuous
 62
     7
370
    25
100
AcDbLine
 10
208.0213874459
 20
133.5936052225
 30
0.0
 11
208.0213874459
 21
161.5392124246
 31
0.0
  0
SPLINE
  5
A9
330
1F
100
AcDbEntity
  8
0
  6
Continuous
 62
     7
370
    25
100
AcDbSpline
210
0.0
220
0.0
230
1.0
 70
     8
 71
     3
 72
    13
 73
     9
 74
     0
 42
0.000000001
 43
0.00000001
 40
0.0
 40
0.0
 40
0.0
 40
0.0
 40
0.252263394039808
 40
0.4048972146422876
 40
0.5626076711233419
 40
0.7045988583188616
 40
0.8515062482400553
 40
1.0
 40
1.0
 40
1.0
 40
1.0
 10
203.2555863141265
 20
100.4463458399373
 30
0.0
 10
203.7469123713396
 20
100.4109290402549
 30
0.0
 10
204.5355188705265
 20
100.3540830456248
 30
0.0
 10
205.4316842756117
 20
100.2536769828011
 30
0.0
 10
206.0332649230976
 20
100.1772594264389
 30
0.0
 10
206.4654226893705
 20
100.1162071584485
 30
0.0
 10
206.772903576471
 20
100.0698523056107
 30
0.0
 10
206.7485014974962
 20
100.0735070124493
 30
0.0
 10
206.7362349360433
 20
100.0753441791134
 30
0.0
  0
LINE
  5
AA
330
1F
100
AcDbEntity
  8
0
  6
Continuous
 62
     7
370
    25
100
AcDbLine
 10
203.2555863141
 20
100.4463458399
 30
0.0
 11
203.2555863141
 21
142.4137787859
 31
0.0
  0
SPLINE
  5
AB
330
1F
100
AcDbEntity
  8
0
  6
Continuous
 62
     7
370
    25
100
AcDbSpline
210
0.0
220
0.0
230
1.0
 70
     8
 71
     3
 72
    34
 73
    30
 74
     0
 42
0.000000001
 43
0.00000001
 40
0.0
 40
0.0
 40
0.0
 40
0.0
 40
0.1249999999999993
 40
0.1249999999999993
 40
0.2499999999999987
 40
0.2499999999999987
 40
0.3124999999999986
 40
0.3124999999999986
 40
0.3749999999999984
 40
0.3749999999999984
 40
0.4374999999999983
 40
0.4374999999999983
 40
0.4999999999999982
 40
0.4999999999999982
 40
0.5624999999999984
 40
0.5624999999999984
 40
0.6249999999999987
 40
0.6249999999999987
 40
0.6874999999999989
 40
0.6874999999999989
 40
0.7499999999999991
 40
0.7499999999999991
 40
0.8124999999999993
 40
0.8124999999999993
 40
0.8749999999999996
 40
0.8749999999999996
 40
0.9374999999999998
 40
0.9374999999999998
 40
1.0
 40
1.0
 40
1.0
 40
1.0
 10
203.2555860252823
 20
151.6815037157144
 30
0.0
 10
203.8200601435865
 20
151.5300482837398
 30
0.0
 10
204.3509309774689
 20
151.3213723449596
 30
0.0
 10
205.3368122862251
 20
150.7760089651884
 30
0.0
 10
205.7686438378343
 20
150.4523741406045
 30
0.0
 10
206.3204573531453
 20
149.8805737317152
 30
0.0
 10
206.4884299538922
 20
149.6740938300542
 30
0.0
 10
206.7770888826105
 20
149.2450537503227
 30
0.0
 10
206.8996806835689
 20
149.0208516168906
 30
0.0
 10
207.0999850821005
 20
148.5517313940261
 30
0.0
 10
207.1781397348092
 20
148.3040405843387
 30
0.0
 10
207.2818976403099
 20
147.8011095322215
 30
0.0
 10
207.3080984182441
 20
147.5463982589419
 30
0.0
 10
207.3096430542876
 20
147.030394396183
 30
0.0
 10
207.2843937307812
 20
146.7665473663698
 30
0.0
 10
207.1828137836191
 20
146.2455668752387
 30
0.0
 10
207.1073186236032
 20
145.9896088294271
 30
0.0
 10
206.9090012130754
 20
145.4867548086926
 30
0.0
 10
206.7847557403454
 20
145.2377772677897
 30
0.0
 10
206.4956744088749
 20
144.7622461198231
 30
0.0
 10
206.3313570232863
 20
144.5355076997286
 30
0.0
 10
205.9651820740087
 20
144.1036072719119
 30
0.0
 10
205.7615078572942
 20
143.8970187458034
 30
0.0
 10
205.3268202870872
 20
143.5156241880721
 30
0.0
 10
205.0959549960626
 20
143.3403617465334
 30
0.0
 10
204.6083976843101
 20
143.0199438191251
 30
0.0
 10
204.3502091628706
 20
142.8741124987128
 30
0.0
 10
203.8147069773445
 20
142.6172109448009
 30
0.0
 10
203.5390199731139
 20
142.5066522246981
 30
0.0
 10
203.2555860252823
 20
142.4137789250361
 30
0.0
  0
LINE
  5
AC
330
1F
100
AcDbEntity
  8
0
  6
Continuous
 62
     7
370
    25
100
AcDbLine
 10
203.2555863141
 20
151.6815038364
 30
0.0
 11
203.2555863141
 21
163.0142131786
 31
0.0
  0
LINE
  5
AD
330
1F
100
AcDbEntity
  8
0
  6
Continuous
 62
     7
370
    25
100
AcDbLine
 10
208.0213874459
 20
101.5392137657
 30
0.0
 11
208.0213874459
 21
100.0642130117
 31
0.0
  0
LINE
  5
AE
330
1F
100
AcDbEntity
  8
0
  6
Continuous
 62
     7
370
    25
100
AcDbLine
 10
208.0213874459
 20
163.0142131786
 30
0.0
 11
208.0213874459
 21
161.5392124246
 31
0.0
  0
SPLINE
  5
AF
330
1F
100
AcDbEntity
  8
0
  6
Continuous
 62
     7
370
    25
100
AcDbSpline
210
0.0
220
0.0
230
1.0
 70
     8
 71
     3
 72
    10
 73
     6
 74
     0
 42
0.000000001
 43
0.00000001
 40
0.0
 40
0.0
 40
0.0
 40
0.0
 40
0.3589828574824358
 40
0.8097225138257521
 40
1.0
 40
1.0
 40
1.0
 40
1.0
 10
195.3818858481195
 20
100.0715294818478
 30
0.0
 10
195.3967444554728
 20
100.073859863399
 30
0.0
 10
195.4302595625239
 20
100.0791162770925
 30
0.0
 10
195.9706302872564
 20
100.1599333649829
 30
0.0
 10
196.4460641983351
 20
100.2194744515193
 30
0.0
 10
196.5871904856708
 20
100.2371484379368
 30
0.0
  0
LINE
  5
B0
330
1F
100
AcDbEntity
  8
0
  6
Continuous
 62
     7
370
    25
100
AcDbLine
 10
196.5871904857
 20
150.5861567299
 30
0.0
 11
196.5871904857
 21
163.0142131786
 31
0.0
  0
SPLINE
  5
B1
330
1F
100
AcDbEntity
  8
0
  6
Continuous
 62
     7
370
    25
100
AcDbSpline
210
0.0
220
0.0
230
1.0
 70
     8
 71
     3
 72
    27
 73
    23
 74
     0
 42
0.000000001
 43
0.00000001
 40
0.0
 40
0.0
 40
0.0
 40
0.0
 40
0.1249999999999992
 40
0.1249999999999992
 40
0.2499999999999984
 40
0.2499999999999984
 40
0.3749999999999976
 40
0.3749999999999976
 40
0.4374999999999974
 40
0.4374999999999974
 40
0.4999999999999972
 40
0.5624999999999976
 40
0.5624999999999976
 40
0.624999999999998
 40
0.624999999999998
 40
0.7499999999999992
 40
0.7499999999999992
 40
0.8124999999999998
 40
0.8124999999999998
 40
0.8750000000000002
 40
0.8750000000000002
 40
1.0
 40
1.0
 40
1.0
 40
1.0
 10
196.5871904161421
 20
143.7163684283248
 30
0.0
 10
196.3172335221747
 20
143.9544281769595
 30
0.0
 10
196.0735764979576
 20
144.2115957583273
 30
0.0
 10
195.6409913657524
 20
144.7643337262297
 30
0.0
 10
195.4523967985562
 20
145.0611933986846
 30
0.0
 10
195.1499570221954
 20
145.6679978775263
 30
0.0
 10
195.0333737749046
 20
145.9808995698967
 30
0.0
 10
194.9141151024797
 20
146.4648208951962
 30
0.0
 10
194.8838984354481
 20
146.6284717158249
 30
0.0
 10
194.8440018387355
 20
146.9521237677978
 30
0.0
 10
194.8240403952875
 20
147.2742670055025
 30
0.0
 10
194.8434756968754
 20
147.5933840317115
 30
0.0
 10
194.8829285745587
 20
147.9109854013569
 30
0.0
 10
194.9129572579819
 20
148.0699061515906
 30
0.0
 10
195.0314322461141
 20
148.5342989837312
 30
0.0
 10
195.1477730612229
 20
148.8295853678274
 30
0.0
 10
195.3758094727204
 20
149.2528058273956
 30
0.0
 10
195.461343392151
 20
149.3912845545984
 30
0.0
 10
195.6476569422865
 20
149.6575008719261
 30
0.0
 10
195.7482856308589
 20
149.7852570001265
 30
0.0
 10
196.0715471151948
 20
150.1535426928904
 30
0.0
 10
196.3158278009176
 20
150.3795578811006
 30
0.0
 10
196.5871904161421
 20
150.5861558079705
 30
0.0
  0
LINE
  5
B2
330
1F
100
AcDbEntity
  8
0
  6
Continuous
 62
     7
370
    25
100
AcDbLine
 10
196.5871904857
 20
100.2371484379
 30
0.0
 11
196.5871904857
 21
143.7163684483
 31
0.0
  0
SPLINE
  5
B3
330
1F
100
AcDbEntity
  8
0
  6
Continuous
 62
     7
370
    25
100
AcDbSpline
210
0.0
220
0.0
230
1.0
 70
     8
 71
     3
 72
     8
 73
     4
 74
     0
 42
0.000000001
 43
0.00000001
 40
0.0
 40
0.0
 40
0.0
 40
0.0
 40
1.0
 40
1.0
 40
1.0
 40
1.0
 10
202.2242319360478
 20
102.0642130951486
 30
0.0
 10
202.5626162353687
 20
101.5285538760011
 30
0.0
 10
202.9071846206016
 20
100.9883346890076
 30
0.0
 10
203.2555860252818
 20
100.4463459433566
 30
0.0
  0
SPLINE
  5
B4
330
1F
100
AcDbEntity
  8
0
  6
Continuous
 62
     7
370
    25
100
AcDbSpline
210
0.0
220
0.0
230
1.0
 70
     8
 71
     3
 72
     8
 73
     4
 74
     0
 42
0.000000001
 43
0.00000001
 40
0.0
 40
0.0
 40
0.0
 40
0.0
 40
1.0
 40
1.0
 40
1.0
 40
1.0
 10
201.7963882207124
 20
102.8247569740676
 30
0.0
 10
201.9400833790294
 20
102.570220784346
 30
0.0
 10
202.0826938477663
 20
102.3166770952035
 30
0.0
 10
202.2242319360481
 20
102.0642130951481
 30
0.0
  0
LINE
  5
B5
330
1F
100
AcDbEntity
  8
0
  6
Continuous
 62
     7
370
    25
100
AcDbLine
 10
201.7963882416
 20
102.824757431
 30
0.0
 11
201.7963882416
 21
142.2460103373
 31
0.0
  0
SPLINE
  5
B6
330
1F
100
AcDbEntity
  8
0
  6
Continuous
 62
     7
370
    25
100
AcDbSpline
210
0.0
220
0.0
230
1.0
 70
     8
 71
     3
 72
     8
 73
     4
 74
     0
 42
0.000000001
 43
0.00000001
 40
0.0
 40
0.0
 40
0.0
 40
0.0
 40
1.0
 40
1.0
 40
1.0
 40
1.0
 10
202.2620993457647
 20
142.7547874925826
 30
0.0
 10
202.1080168785407
 20
142.5779020102327
 30
0.0
 10
201.9527902566963
 20
142.4083893223842
 30
0.0
 10
201.7963882207122
 20
142.2460099798547
 30
0.0
  0
SPLINE
  5
B7
330
1F
100
AcDbEntity
  8
0
  6
Continuous
 62
     7
370
    25
100
AcDbSpline
210
0.0
220
0.0
230
1.0
 70
     8
 71
     3
 72
     8
 73
     4
 74
     0
 42
0.000000001
 43
0.00000001
 40
0.0
 40
0.0
 40
0.0
 40
0.0
 40
1.0
 40
1.0
 40
1.0
 40
1.0
 10
203.2555860252823
 20
142.4137789250361
 30
0.0
 10
202.9201753998584
 20
142.5202403341605
 30
0.0
 10
202.5883330807486
 20
142.6322002380494
 30
0.0
 10
202.2620993457647
 20
142.7547874925826
 30
0.0
  0
LINE
  5
B8
330
1F
100
AcDbEntity
  8
0
  6
Continuous
 62
     7
370
    25
100
AcDbLine
 10
190.0213882207
 20
100.264212672
 30
0.0
 11
190.0213882207
 21
162.8142135183
 31
0.0
  0
LINE
  5
B9
330
1F
100
AcDbEntity
  8
0
  6
Continuous
 62
     7
370
    25
100
AcDbLine
 10
198.0463880926
 20
102.6749616454
 30
0.0
 11
198.0463880926
 21
143.3668700944
 31
0.0
  0
SPLINE
  5
BA
330
1F
100
AcDbEntity
  8
0
  6
Continuous
 62
     7
370
    25
100
AcDbSpline
210
0.0
220
0.0
230
1.0
 70
     8
 71
     3
 72
     8
 73
     4
 74
     0
 42
0.000000001
 43
0.00000001
 40
0.0
 40
0.0
 40
0.0
 40
0.0
 40
1.0
 40
1.0
 40
1.0
 40
1.0
 10
197.7154064132545
 20
102.06421309514
 30
0.0
 10
197.8161494248675
 20
102.2504471322056
 30
0.0
 10
197.9284393929694
 20
102.4577176212016
 30
0.0
 10
198.0463882207122
 20
102.6749620165311
 30
0.0
  0
SPLINE
  5
BB
330
1F
100
AcDbEntity
  8
0
  6
Continuous
 62
     7
370
    25
100
AcDbSpline
210
0.0
220
0.0
230
1.0
 70
     8
 71
     3
 72
    10
 73
     6
 74
     0
 42
0.000000001
 43
0.00000001
 40
0.0
 40
0.0
 40
0.0
 40
0.0
 40
0.5
 40
0.5
 40
1.0
 40
1.0
 40
1.0
 40
1.0
 10
196.5871904161421
 20
100.2371481216347
 30
0.0
 10
196.7822364097318
 20
100.5492951926005
 30
0.0
 10
196.9750229519113
 20
100.8595720321661
 30
0.0
 10
197.3529718919597
 20
101.4716061694677
 30
0.0
 10
197.5385212668374
 20
101.7740195554088
 30
0.0
 10
197.7154064132611
 20
102.0642130951518
 30
0.0
  0
SPLINE
  5
BC
330
1F
100
AcDbEntity
  8
0
  6
Continuous
 62
     7
370
    25
100
AcDbSpline
210
0.0
220
0.0
230
1.0
 70
     8
 71
     3
 72
     8
 73
     4
 74
     0
 42
0.000000001
 43
0.00000001
 40
0.0
 40
0.0
 40
0.0
 40
0.0
 40
1.0
 40
1.0
 40
1.0
 40
1.0
 10
197.6788645545641
 20
144.0777606016938
 30
0.0
 10
197.3224112896331
 20
143.9441527952758
 30
0.0
 10
196.9570777968717
 20
143.8275935068217
 30
0.0
 10
196.5871904161421
 20
143.7163684283248
 30
0.0
  0
SPLINE
  5
BD
330
1F
100
AcDbEntity
  8
0
  6
Continuous
 62
     7
370
    25
100
AcDbSpline
210
0.0
220
0.0
230
1.0
 70
     8
 71
     3
 72
     8
 73
     4
 74
     0
 42
0.000000001
 43
0.00000001
 40
0.0
 40
0.0
 40
0.0
 40
0.0
 40
1.0
 40
1.0
 40
1.0
 40
1.0
 10
198.0463882207123
 20
143.3668702875327
 30
0.0
 10
197.919628207683
 20
143.5957935505019
 30
0.0
 10
197.7967757939514
 20
143.8320483033039
 30
0.0
 10
197.6788645545641
 20
144.0777606016938
 30
0.0
  0
SPLINE
  5
BE
330
1F
100
AcDbEntity
  8
0
  6
Continuous
 62
     7
370
    25
100
AcDbSpline
210
0.0
220
0.0
230
1.0
 70
     8
 71
     3
 72
     8
 73
     4
 74
     0
 42
0.000000001
 43
0.00000001
 40
0.0
 40
0.0
 40
0.0
 40
0.0
 40
1.0
 40
1.0
 40
1.0
 40
1.0
 10
202.2620993457647
 20
149.7986386977138
 30
0.0
 10
202.588358181977
 20
150.4315061422502
 30
0.0
 10
202.9201965910199
 20
151.058236401743
 30
0.0
 10
203.2555860252823
 20
151.6815037157144
 30
0.0
  0
ARC
  5
BF
330
1F
100
AcDbEntity
  8
0
  6
Continuous
 62
     7
370
    25
100
AcDbCircle
 10
201.6677233569
 20
146.2767125073
 30
0.0
 40
3.571727890061979
100
AcDbArc
 50
279.5792238869
 51
80.4207761131
  0
SPLINE
  5
C0
330
1F
100
AcDbEntity
  8
0
  6
Continuous
 62
     7
370
    25
100
AcDbSpline
210
0.0
220
0.0
230
1.0
 70
     8
 71
     3
 72
     8
 73
     4
 74
     0
 42
0.000000001
 43
0.00000001
 40
0.0
 40
0.0
 40
0.0
 40
0.0
 40
1.0
 40
1.0
 40
1.0
 40
1.0
 10
196.5871904161421
 20
150.5861558079705
 30
0.0
 10
196.9570777968717
 20
149.8884450794051
 30
0.0
 10
197.3224112896331
 20
149.1869343971705
 30
0.0
 10
197.6788645545641
 20
148.4756655886025
 30
0.0
  0
ARC
  5
C1
330
1F
100
AcDbEntity
  8
0
  6
Continuous
 62
     7
370
    25
100
AcDbCircle
 10
200.1357007997
 20
146.2767134386
 30
0.0
 40
3.297186356050094
100
AcDbArc
 50
138.1703671061
 51
221.8296328939
  0
SPLINE
  5
C2
330
1F
100
AcDbEntity
  8
0
  6
Continuous
 62
     7
370
    25
100
AcDbSpline
210
0.0
220
0.0
230
1.0
 70
     8
 71
     3
 72
    16
 73
    12
 74
     0
 42
0.000000001
 43
0.00000001
 40
0.0
 40
0.0
 40
0.0
 40
0.0
 40
0.1249999999999996
 40
0.1249999999999996
 40
0.2499999999999992
 40
0.2499999999999992
 40
0.4999999999999994
 40
0.4999999999999994
 40
0.7499999999999997
 40
0.7499999999999997
 40
1.0
 40
1.0
 40
1.0
 40
1.0
 10
198.0463882207122
 20
102.7728400399644
 30
0.0
 10
198.0463882207122
 20
102.8520302638379
 30
0.0
 10
198.0560650957371
 20
102.9317411810937
 30
0.0
 10
198.0902044726262
 20
103.0803993878276
 30
0.0
 10
198.1146500647749
 20
103.1505053628406
 30
0.0
 10
198.2020108008902
 20
103.3433415585702
 30
0.0
 10
198.279401522618
 20
103.4520572061647
 30
0.0
 10
198.4578980517025
 20
103.6345098673693
 30
0.0
 10
198.5600172837213
 20
103.7091333178981
 30
0.0
 10
198.7886348042948
 20
103.8209902885371
 30
0.0
 10
198.9118336727675
 20
103.857102235943
 30
0.0
 10
199.0463882207122
 20
103.8669486639528
 30
0.0
  0
SPLINE
  5
C3
330
1F
100
AcDbEntity
  8
0
  6
Continuous
 62
     7
370
    25
100
AcDbSpline
210
0.0
220
0.0
230
1.0
 70
     8
 71
     3
 72
    16
 73
    12
 74
     0
 42
0.000000001
 43
0.00000001
 40
0.0
 40
0.0
 40
0.0
 40
0.0
 40
0.2500000000000016
 40
0.2500000000000016
 40
0.5000000000000032
 40
0.5000000000000032
 40
0.7500000000000049
 40
0.7500000000000049
 40
0.8750000000000024
 40
0.8750000000000024
 40
1.0
 40
1.0
 40
1.0
 40
1.0
 10
199.0463882207122
 20
142.1156368866036
 30
0.0
 10
198.9126110519668
 20
142.1835708003828
 30
0.0
 10
198.7890325621286
 20
142.2677772055682
 30
0.0
 10
198.5579726148385
 20
142.4619099051619
 30
0.0
 10
198.4536552917972
 20
142.5696685485024
 30
0.0
 10
198.2718280886277
 20
142.795109465407
 30
0.0
 10
198.1950633222315
 20
142.9116502341292
 30
0.0
 10
198.1095576801015
 20
143.0805035998407
 30
0.0
 10
198.0868070302014
 20
143.1343650162907
 30
0.0
 10
198.0550767559755
 20
143.2342458660587
 30
0.0
 10
198.0463882207121
 20
143.2800099885905
 30
0.0
 10
198.0463882207121
 20
143.3178133393301
 30
0.0
  0
SPLINE
  5
C4
330
1F
100
AcDbEntity
  8
0
  6
Continuous
 62
     7
370
    25
100
AcDbSpline
210
0.0
220
0.0
230
1.0
 70
     8
 71
     3
 72
    14
 73
    10
 74
     0
 42
0.000000001
 43
0.00000001
 40
0.0
 40
0.0
 40
0.0
 40
0.0
 40
0.25
 40
0.25
 40
0.5
 40
0.5
 40
0.75
 40
0.75
 40
1.0
 40
1.0
 40
1.0
 40
1.0
 10
200.7963882207122
 20
103.939770732122
 30
0.0
 10
200.9296176717355
 20
103.9410982262992
 30
0.0
 10
201.0613190343457
 20
103.9143906373876
 30
0.0
 10
201.3043966925628
 20
103.8106317672978
 30
0.0
 10
201.4153026331114
 20
103.7334148926375
 30
0.0
 10
201.5979997061891
 20
103.5446012548443
 30
0.0
 10
201.6713872356707
 20
103.4314624419105
 30
0.0
 10
201.770221514589
 20
103.1876029281155
 30
0.0
 10
201.7963882207122
 20
103.0554228776375
 30
0.0
 10
201.7963882207122
 20
102.9231473496617
 30
0.0
  0
SPLINE
  5
C5
330
1F
100
AcDbEntity
  8
0
  6
Continuous
 62
     7
370
    25
100
AcDbSpline
210
0.0
220
0.0
230
1.0
 70
     8
 71
     3
 72
    14
 73
    10
 74
     0
 42
0.000000001
 43
0.00000001
 40
0.0
 40
0.0
 40
0.0
 40
0.0
 40
0.25
 40
0.25
 40
0.5
 40
0.5
 40
0.75
 40
0.75
 40
1.0
 40
1.0
 40
1.0
 40
1.0
 10
201.7963882207122
 20
142.1966949892527
 30
0.0
 10
201.7963882207122
 20
142.1308043677429
 30
0.0
 10
201.7703480639551
 20
142.0602625907709
 30
0.0
 10
201.6715568807538
 20
141.9246745920284
 30
0.0
 10
201.5988492333368
 20
141.8592260632533
 30
0.0
 10
201.4150774554703
 20
141.7474891950138
 30
0.0
 10
201.3060074247781
 20
141.7021803991758
 30
0.0
 10
201.0603830763194
 20
141.6439509939088
 30
0.0
 10
200.929827950732
 20
141.6325388111053
 30
0.0
 10
200.7963882207122
 20
141.6407208069401
 30
0.0
  0
SPLINE
  5
C6
330
1F
100
AcDbEntity
  8
0
  6
Continuous
 62
     7
370
    25
100
AcDbSpline
210
0.0
220
0.0
230
1.0
 70
     8
 71
     3
 72
    10
 73
     6
 74
     0
 42
0.000000001
 43
0.00000001
 40
0.0
 40
0.0
 40
0.0
 40
0.0
 40
0.5
 40
0.5
 40
1.0
 40
1.0
 40
1.0
 40
1.0
 10
199.0463882207122
 20
103.8669486639528
 30
0.0
 10
199.3092077350679
 20
103.8861812611945
 30
0.0
 10
199.5875605996756
 20
103.9028356758974
 30
0.0
 10
200.174557187061
 20
103.928129843069
 30
0.0
 10
200.4839408769393
 20
103.9366575163401
 30
0.0
 10
200.7963882207122
 20
103.939770732122
 30
0.0
  0
SPLINE
  5
C7
330
1F
100
AcDbEntity
  8
0
  6
Continuous
 62
     7
370
    25
100
AcDbSpline
210
0.0
220
0.0
230
1.0
 70
     8
 71
     3
 72
    10
 73
     6
 74
     0
 42
0.000000001
 43
0.00000001
 40
0.0
 40
0.0
 40
0.0
 40
0.0
 40
0.5
 40
0.5
 40
1.0
 40
1.0
 40
1.0
 40
1.0
 10
200.7963882207122
 20
141.6407208069402
 30
0.0
 10
200.4884083620843
 20
141.659604912297
 30
0.0
 10
200.1883883519608
 20
141.7094955437354
 30
0.0
 10
199.6035770079665
 20
141.8681914613533
 30
0.0
 10
199.3169252016186
 20
141.9782544310818
 30
0.0
 10
199.0463882207122
 20
142.1156368866036
 30
0.0
  0
SPLINE
  5
C8
330
1F
100
AcDbEntity
  8
0
  6
Continuous
 62
     7
370
    25
100
AcDbSpline
210
0.0
220
0.0
230
1.0
 70
     8
 71
     3
 72
     8
 73
     4
 74
     0
 42
0.000000001
 43
0.00000001
 40
0.0
 40
0.0
 40
0.0
 40
0.0
 40
1.0
 40
1.0
 40
1.0
 40
1.0
 10
197.6788645545641
 20
148.4756655886025
 30
0.0
 10
197.7965990593936
 20
148.5027811484665
 30
0.0
 10
197.9200651723519
 20
148.5117439501573
 30
0.0
 10
198.0463882207122
 20
148.5066508032752
 30
0.0
  0
LINE
  5
C9
330
1F
100
AcDbEntity
  8
0
  6
Continuous
 62
     7
370
    25
100
AcDbLine
 10
198.0463880926
 20
148.5066512565
 30
0.0
 11
198.0463880926
 21
148.4575947712
 31
0.0
  0
SPLINE
  5
CA
330
1F
100
AcDbEntity
  8
0
  6
Continuous
 62
     7
370
    25
100
AcDbSpline
210
0.0
220
0.0
230
1.0
 70
     8
 71
     3
 72
    14
 73
    10
 74
     0
 42
0.000000001
 43
0.00000001
 40
0.0
 40
0.0
 40
0.0
 40
0.0
 40
0.25
 40
0.25
 40
0.5
 40
0.5
 40
0.75
 40
0.75
 40
1.0
 40
1.0
 40
1.0
 40
1.0
 10
198.0463882207122
 20
148.4575938550727
 30
0.0
 10
198.0463882207122
 20
148.3821111840103
 30
0.0
 10
198.0818092976445
 20
148.3386308789612
 30
0.0
 10
198.1943349688346
 20
148.3033763907194
 30
0.0
 10
198.272015155109
 20
148.3086874660826
 30
0.0
 10
198.4520803868313
 20
148.344555098104
 30
0.0
 10
198.5573604394866
 20
148.3758308950834
 30
0.0
 10
198.7863439738491
 20
148.4555411796082
 30
0.0
 10
198.912957165848
 20
148.5049426029001
 30
0.0
 10
199.046388220712
 20
148.5629110199096
 30
0.0
  0
SPLINE
  5
CB
330
1F
100
AcDbEntity
  8
0
  6
Continuous
 62
     7
370
    25
100
AcDbSpline
210
0.0
220
0.0
230
1.0
 70
     8
 71
     3
 72
    10
 73
     6
 74
     0
 42
0.000000001
 43
0.00000001
 40
0.0
 40
0.0
 40
0.0
 40
0.0
 40
0.5
 40
0.5
 40
1.0
 40
1.0
 40
1.0
 40
1.0
 10
199.0463882207122
 20
148.5629110199098
 30
0.0
 10
199.3169069408275
 20
148.6804364489977
 30
0.0
 10
199.5984821054767
 20
148.7720382456115
 30
0.0
 10
200.183075676496
 20
148.9063807810657
 30
0.0
 10
200.4884242109165
 20
148.9490076545549
 30
0.0
 10
200.7963882207122
 20
148.9648141808671
 30
0.0
  0
SPLINE
  5
CC
330
1F
100
AcDbEntity
  8
0
  6
Continuous
 62
     7
370
    25
100
AcDbSpline
210
0.0
220
0.0
230
1.0
 70
     8
 71
     3
 72
    14
 73
    10
 74
     0
 42
0.000000001
 43
0.00000001
 40
0.0
 40
0.0
 40
0.0
 40
0.0
 40
0.25
 40
0.25
 40
0.5
 40
0.5
 40
0.75
 40
0.75
 40
1.0
 40
1.0
 40
1.0
 40
1.0
 10
200.7963882207122
 20
148.9648141808671
 30
0.0
 10
200.9298165279453
 20
148.9716625072363
 30
0.0
 10
201.0615911997409
 20
148.9868070691437
 30
0.0
 10
201.3047870866023
 20
149.0333420649098
 30
0.0
 10
201.4157079483151
 20
149.0648859917997
 30
0.0
 10
201.598354297181
 20
149.1432629390447
 30
0.0
 10
201.671670036521
 20
149.1908763410055
 30
0.0
 10
201.7703081473564
 20
149.2997844032643
 30
0.0
 10
201.7963882207122
 20
149.3618607850834
 30
0.0
 10
201.7963882207122
 20
149.4280395219108
 30
0.0
  0
LINE
  5
CD
330
1F
100
AcDbEntity
  8
0
  6
Continuous
 62
     7
370
    25
100
AcDbLine
 10
201.7963882416
 20
149.4280403446
 30
0.0
 11
201.7963882416
 21
149.4773538749
 31
0.0
  0
SPLINE
  5
CE
330
1F
100
AcDbEntity
  8
0
  6
Continuous
 62
     7
370
    25
100
AcDbSpline
210
0.0
220
0.0
230
1.0
 70
     8
 71
     3
 72
     8
 73
     4
 74
     0
 42
0.000000001
 43
0.00000001
 40
0.0
 40
0.0
 40
0.0
 40
0.0
 40
1.0
 40
1.0
 40
1.0
 40
1.0
 10
201.7963882207122
 20
149.4773545125125
 30
0.0
 10
201.9528705842133
 20
149.5927514351809
 30
0.0
 10
202.1080968726908
 20
149.699943996731
 30
0.0
 10
202.2620993457647
 20
149.7986386977138
 30
0.0
  0
ARC
  5
CF
330
1F
100
AcDbEntity
  8
0
  6
Continuous
 62
     7
370
    25
100
AcDbCircle
 10
201.071388309
 20
141.4004686583
 30
0.0
 40
4.571198334499681
100
AcDbArc
 50
38.9918663496
 51
141.0081336504
  0
LINE
  5
D0
330
1F
100
AcDbEntity
  8
0
  6
Continuous
 62
     7
370
    25
100
AcDbLine
 10
198.0463880926
 20
148.5066512565
 30
0.0
 11
198.0463880926
 21
160.4868086021
 31
0.0
  0
LINE
  5
D1
330
1F
100
AcDbEntity
  8
0
  6
Continuous
 62
     7
370
    25
100
AcDbLine
 10
188.9020032129
 20
106.5954254906
 30
0.0
 11
188.9020032129
 21
156.4830006997
 31
0.0
  0
SPLINE
  5
D2
330
1F
100
AcDbEntity
  8
0
  6
Continuous
 62
     7
370
    25
100
AcDbSpline
210
0.0
220
0.0
230
1.0
 70
     8
 71
     3
 72
     8
 73
     4
 74
     0
 42
0.000000001
 43
0.00000001
 40
0.0
 40
0.0
 40
0.0
 40
0.0
 40
1.0
 40
1.0
 40
1.0
 40
1.0
 10
157.3895626736592
 20
110.0305936327936
 30
0.0
 10
155.4501711893477
 20
110.1372846437725
 30
0.0
 10
153.5107797050363
 20
110.2438752150039
 30
0.0
 10
151.5713882207249
 20
110.3503608648872
 30
0.0
  0
SPLINE
  5
D3
330
1F
100
AcDbEntity
  8
0
  6
Continuous
 62
     7
370
    25
100
AcDbSpline
210
0.0
220
0.0
230
1.0
 70
     8
 71
     3
 72
     9
 73
     5
 74
     0
 42
0.000000001
 43
0.00000001
 40
0.0
 40
0.0
 40
0.0
 40
0.0
 40
0.4022619128938587
 40
1.0
 40
1.0
 40
1.0
 40
1.0
 10
159.8056610553708
 20
109.5839949290352
 30
0.0
 10
159.5202082655656
 20
109.6742150715831
 30
0.0
 10
158.8105890332808
 20
109.8984971615749
 30
0.0
 10
157.9211901513644
 20
109.9811745073657
 30
0.0
 10
157.3895625650134
 20
110.0305939058857
 30
0.0
  0
LINE
  5
D4
330
1F
100
AcDbEntity
  8
0
  6
Continuous
 62
     7
370
    25
100
AcDbLine
 10
172.3789963751
 20
107.8173300217
 30
0.0
 11
172.3789963751
 21
107.4251780252
 31
0.0
  0
SPLINE
  5
D5
330
1F
100
AcDbEntity
  8
0
  6
Continuous
 62
     7
370
    25
100
AcDbSpline
210
0.0
220
0.0
230
1.0
 70
     8
 71
     3
 72
    25
 73
    21
 74
     0
 42
0.000000001
 43
0.00000001
 40
0.0
 40
0.0
 40
0.0
 40
0.0
 40
0.0272076067907844
 40
0.054320893861347
 40
0.0814102966621554
 40
0.1085466026278895
 40
0.1358003969417054
 40
0.1632415182211508
 40
0.1909385445965428
 40
0.2189583279826006
 40
0.2473655903301757
 40
0.3695706824300598
 40
0.4951323217741528
 40
0.6209162937160067
 40
0.7462746977576536
 40
0.7981205547976649
 40
0.8491049075670901
 40
0.8995344034064675
 40
0.9497257410926077
 40
1.0
 40
1.0
 40
1.0
 40
1.0
 10
167.9882099328985
 20
109.3442782783187
 30
0.0
 10
168.0531402050249
 20
109.3406986818613
 30
0.0
 10
168.182775657628
 20
109.3335518982165
 30
0.0
 10
168.3764578867075
 20
109.3182478766778
 30
0.0
 10
168.5688884642844
 20
109.2996315692057
 30
0.0
 10
168.7600563498588
 20
109.2774011201922
 30
0.0
 10
168.9499594655738
 20
109.2516825615159
 30
0.0
 10
169.1385949404138
 20
109.2225016043449
 30
0.0
 10
169.3259563700293
 20
109.1899277332638
 30
0.0
 10
169.5120557330277
 20
109.1540265185427
 30
0.0
 10
169.899091474044
 20
109.0720867720945
 30
0.0
 10
170.4636798493087
 20
108.9236742148718
 30
0.0
 10
171.1202105823878
 20
108.6928955655981
 30
0.0
 10
171.6664834296722
 20
108.4505374912342
 30
0.0
 10
171.9931621238634
 20
108.25952819432
 30
0.0
 10
172.1753385447446
 20
108.1248403093723
 30
0.0
 10
172.2710210480569
 20
108.0385563490825
 30
0.0
 10
172.3371807897895
 20
107.9583457973548
 30
0.0
 10
172.3764256664875
 20
107.8837221575816
 30
0.0
 10
172.3781384494474
 20
107.8394735221639
 30
0.0
 10
172.3789955477666
 20
107.817330943722
 30
0.0
  0
LINE
  5
D6
330
1F
100
AcDbEntity
  8
0
  6
Continuous
 62
     7
370
    25
100
AcDbLine
 10
166.0733371853
 20
109.4482397626
 30
0.0
 11
167.9882090419
 21
109.3442780863
 31
0.0
  0
SPLINE
  5
D7
330
1F
100
AcDbEntity
  8
0
  6
Continuous
 62
     7
370
    25
100
AcDbSpline
210
0.0
220
0.0
230
1.0
 70
     8
 71
     3
 72
    20
 73
    16
 74
     0
 42
0.000000001
 43
0.00000001
 40
0.0
 40
0.0
 40
0.0
 40
0.0
 40
0.080057784424552
 40
0.1588942060987374
 40
0.2366863281240196
 40
0.3136187788829107
 40
0.389882801524567
 40
0.4656750859622621
 40
0.5411964097344726
 40
0.6166501291103762
 40
0.69224057450012
 40
0.7681714126989251
 40
0.8446440414296847
 40
0.921856078584151
 40
1.0
 40
1.0
 40
1.0
 40
1.0
 10
163.5955828605419
 20
109.2815974427281
 30
0.0
 10
163.6532320933253
 20
109.2929092380052
 30
0.0
 10
163.7676510613389
 20
109.3153602556423
 30
0.0
 10
163.9449939707999
 20
109.3456739367761
 30
0.0
 10
164.1247101270508
 20
109.3729635693598
 30
0.0
 10
164.3072964186363
 20
109.3969038839007
 30
0.0
 10
164.4926199982076
 20
109.4174332095468
 30
0.0
 10
164.6807127443711
 20
109.4344360219275
 30
0.0
 10
164.8715621234264
 20
109.4478259086098
 30
0.0
 10
165.0651667658741
 20
109.457526135956
 30
0.0
 10
165.2615214131563
 20
109.4634656736001
 30
0.0
 10
165.4606232610336
 20
109.4656145357443
 30
0.0
 10
165.6624628259809
 20
109.4638453698397
 30
0.0
 10
165.8670558608748
 20
109.4584573594909
 30
0.0
 10
166.0043019712016
 20
109.4516588041245
 30
0.0
 10
166.073336653609
 20
109.448239136278
 30
0.0
  0
LWPOLYLINE
  5
D8
330
1F
100
AcDbEntity
  8
0
  6
Continuous
 62
     7
370
    25
100
AcDbPolyline
 90
        3
 70
   128
 43
0.0
 10
159.9486525982
 20
109.4764104079
 10
162.0070394009
 20
109.3663895468
 10
163.5955795526
 20
109.2815255712
  0
SPLINE
  5
D9
330
1F
100
AcDbEntity
  8
0
  6
Continuous
 62
     7
370
    25
100
AcDbSpline
210
0.0
220
0.0
230
1.0
 70
     8
 71
     3
 72
    26
 73
    22
 74
     0
 42
0.000000001
 43
0.00000001
 40
0.0
 40
0.0
 40
0.0
 40
0.0
 40
0.0372513093892475
 40
0.0742527272001326
 40
0.1111094615711384
 40
0.1479282207084762
 40
0.1848162960908755
 40
0.2218806241994334
 40
0.2592268670801778
 40
0.2969585501182277
 40
0.3351762898368753
 40
0.3739771362726529
 40
0.4134540448174645
 40
0.4536954827148856
 40
0.4947851667865785
 40
0.579784704027534
 40
0.6635410977708218
 40
0.7467429540368391
 40
0.8300920749794538
 40
0.9142858239917746
 40
1.0
 40
1.0
 40
1.0
 40
1.0
 10
155.8636363158231
 20
110.9638312457886
 30
0.0
 10
155.9319346551366
 20
110.9596150557291
 30
0.0
 10
156.0680731705451
 20
110.9512109589216
 30
0.0
 10
156.2709239784794
 20
110.9323017509115
 30
0.0
 10
156.4716148191962
 20
110.9088478861405
 30
0.0
 10
156.6701199055539
 20
110.8804337921444
 30
0.0
 10
156.8664396829775
 20
110.8472250936134
 30
0.0
 10
157.0605679872811
 20
110.8092498936706
 30
0.0
 10
157.252501132752
 20
110.7665908595513
 30
0.0
 10
157.4422358177963
 20
110.7193336572912
 30
0.0
 10
157.6297695246357
 20
110.667580806952
 30
0.0
 10
157.8151017030541
 20
110.6114480230881
 30
0.0
 10
157.9982286738492
 20
110.5510648700402
 30
0.0
 10
158.1791630274911
 20
110.4865760675707
 30
0.0
 10
158.42012809597
 20
110.3942866147903
 30
0.0
 10
158.7087927761371
 20
110.2722369169427
 30
0.0
 10
159.0264632342772
 20
110.1184523232409
 30
0.0
 10
159.3102728947813
 20
109.9605553341463
 30
0.0
 10
159.5592843211568
 20
109.7998311608071
 30
0.0
 10
159.776744253764
 20
109.6370893200994
 30
0.0
 10
159.8910186587187
 20
109.5304745228489
 30
0.0
 10
159.9486671554462
 20
109.476690101107
 30
0.0
  0
SPLINE
  5
DA
330
1F
100
AcDbEntity
  8
0
  6
Continuous
 62
     7
370
    25
100
AcDbSpline
210
0.0
220
0.0
230
1.0
 70
     8
 71
     3
 72
     8
 73
     4
 74
     0
 42
0.000000001
 43
0.00000001
 40
0.0
 40
0.0
 40
0.0
 40
0.0
 40
1.0
 40
1.0
 40
1.0
 40
1.0
 10
151.5713882207222
 20
111.2102742340726
 30
0.0
 10
153.0021375857558
 20
111.1282106890944
 30
0.0
 10
154.4328869507895
 20
111.0460620998723
 30
0.0
 10
155.8636363158231
 20
110.9638312457886
 30
0.0
  0
LINE
  5
DB
330
1F
100
AcDbEntity
  8
0
  6
Continuous
 62
     7
370
    25
100
AcDbLine
 10
151.5713892757
 20
111.2102741341
 30
0.0
 11
151.5713892757
 21
151.8682507764
 31
0.0
  0
SPLINE
  5
DC
330
1F
100
AcDbEntity
  8
0
  6
Continuous
 62
     7
370
    25
100
AcDbSpline
210
0.0
220
0.0
230
1.0
 70
     8
 71
     3
 72
     8
 73
     4
 74
     0
 42
0.000000001
 43
0.00000001
 40
0.0
 40
0.0
 40
0.0
 40
0.0
 40
1.0
 40
1.0
 40
1.0
 40
1.0
 10
155.8636363158231
 20
152.1145949445077
 30
0.0
 10
154.4328869507895
 20
152.032364090424
 30
0.0
 10
153.0021375857558
 20
151.9502155012018
 30
0.0
 10
151.5713882207222
 20
151.8681519562236
 30
0.0
  0
SPLINE
  5
DD
330
1F
100
AcDbEntity
  8
0
  6
Continuous
 62
     7
370
    25
100
AcDbSpline
210
0.0
220
0.0
230
1.0
 70
     8
 71
     3
 72
    26
 73
    22
 74
     0
 42
0.000000001
 43
0.00000001
 40
0.0
 40
0.0
 40
0.0
 40
0.0
 40
0.043222773749591
 40
0.0859591264825626
 40
0.1282889494706505
 40
0.1702945261968351
 40
0.2120601228093347
 40
0.2536715230366925
 40
0.2952155186946535
 40
0.3367793698756909
 40
0.3784502510241688
 40
0.4203147001053372
 40
0.4624580878474657
 40
0.5049641226030209
 40
0.580325042353443
 40
0.6531127376097858
 40
0.7239039138518183
 40
0.7933225593555396
 40
0.8620274177085187
 40
0.9306949944643782
 40
0.9999999999999999
 40
0.9999999999999999
 40
0.9999999999999999
 40
0.9999999999999999
 10
159.9481166035493
 20
153.6017784355037
 30
0.0
 10
159.9198496882302
 20
153.5747935218109
 30
0.0
 10
159.8636339681735
 20
153.5211273776002
 30
0.0
 10
159.7679637193705
 20
153.439749744133
 30
0.0
 10
159.6646090172096
 20
153.3585944498433
 30
0.0
 10
159.5527428123443
 20
153.277718308618
 30
0.0
 10
159.4325838098099
 20
153.1973133666494
 30
0.0
 10
159.3040747680552
 20
153.117528566009
 30
0.0
 10
159.1672322456213
 20
153.0385169251014
 30
0.0
 10
159.0220541088276
 20
152.9604229222916
 30
0.0
 10
158.8685426220164
 20
152.8833860064419
 30
0.0
 10
158.7067036363515
 20
152.8075389202706
 30
0.0
 10
158.5365260992527
 20
152.7330108066005
 30
0.0
 10
158.3127354441878
 20
152.6413501222322
 30
0.0
 10
158.0325875233939
 20
152.5369012725466
 30
0.0
 10
157.6912896915812
 20
152.4267308231367
 30
0.0
 10
157.3416856293082
 20
152.3314474656541
 30
0.0
 10
156.9838132844057
 20
152.2517084681873
 30
0.0
 10
156.6177273371561
 20
152.1885155501939
 30
0.0
 10
156.2436039523146
 20
152.1407594899694
 30
0.0
 10
155.9906816921537
 20
152.1233432804327
 30
0.0
 10
155.8636363158231
 20
152.1145949445076
 30
0.0
  0
LWPOLYLINE
  5
DE
330
1F
100
AcDbEntity
  8
0
  6
Continuous
 62
     7
370
    25
100
AcDbPolyline
 90
        3
 70
   128
 43
0.0
 10
163.5955255359
 20
153.7968987565
 10
162.0070394009
 20
153.7120366435
 10
159.9481049805
 20
153.6019859801
  0
SPLINE
  5
DF
330
1F
100
AcDbEntity
  8
0
  6
Continuous
 62
     7
370
    25
100
AcDbSpline
210
0.0
220
0.0
230
1.0
 70
     8
 71
     3
 72
    20
 73
    16
 74
     0
 42
0.000000001
 43
0.00000001
 40
0.0
 40
0.0
 40
0.0
 40
0.0
 40
0.0779426073450716
 40
0.1549778362601822
 40
0.2313011619122159
 40
0.3071130776186271
 40
0.3826176735042928
 40
0.4580210707753494
 40
0.533529769143918
 40
0.6093489729398621
 40
0.6856809635348943
 40
0.7627235815306821
 40
0.8406688723985782
 40
0.9197019354317632
 40
1.0
 40
1.0
 40
1.0
 40
1.0
 10
166.073336653609
 20
153.6301870540183
 30
0.0
 10
166.004468742689
 20
153.6267149729221
 30
0.0
 10
165.8675346550866
 20
153.6198112313881
 30
0.0
 10
165.6633488307696
 20
153.614298438301
 30
0.0
 10
165.4618352532927
 20
153.6124285801446
 30
0.0
 10
165.262975932273
 20
153.6145034970554
 30
0.0
 10
165.0667811114448
 20
153.6203950573991
 30
0.0
 10
164.8732535265678
 20
153.630073211798
 30
0.0
 10
164.682398541628
 20
153.6434664057934
 30
0.0
 10
164.4942175422158
 20
153.660497272012
 30
0.0
 10
164.3087230240947
 20
153.6810785323474
 30
0.0
 10
164.1258831006134
 20
153.7050936958039
 30
0.0
 10
163.9458304500548
 20
153.7324797131778
 30
0.0
 10
163.7680680056723
 20
153.7629104371775
 30
0.0
 10
163.6533463501582
 20
153.7854449780891
 30
0.0
 10
163.5955301089722
 20
153.7968017044763
 30
0.0
  0
LINE
  5
E0
330
1F
100
AcDbEntity
  8
0
  6
Continuous
 62
     7
370
    25
100
AcDbLine
 10
167.9882090419
 20
153.734148104
 30
0.0
 11
166.0733371853
 21
153.6301864277
 31
0.0
  0
SPLINE
  5
E1
330
1F
100
AcDbEntity
  8
0
  6
Continuous
 62
     7
370
    25
100
AcDbSpline
210
0.0
220
0.0
230
1.0
 70
     8
 71
     3
 72
    25
 73
    21
 74
     0
 42
0.000000001
 43
0.00000001
 40
0.0
 40
0.0
 40
0.0
 40
0.0
 40
0.0278976907625456
 40
0.055730926369464
 40
0.0835540758957587
 40
0.1114215784665472
 40
0.139387625117333
 40
0.1675058479406593
 40
0.195829025248013
 40
0.2244088104305536
 40
0.2532954907191347
 40
0.3785425415718763
 40
0.5042228551085428
 40
0.6297408166352717
 40
0.7519986130706117
 40
0.8029026584055539
 40
0.8527544500762142
 40
0.9019482111316097
 40
0.950892400311663
 40
1.0
 40
1.0
 40
1.0
 40
1.0
 10
172.3789955477666
 20
155.2610952465743
 30
0.0
 10
172.3791287215266
 20
155.2489693076111
 30
0.0
 10
172.3793947613605
 20
155.224745445598
 30
0.0
 10
172.3685981083143
 20
155.1858575216608
 30
0.0
 10
172.3495882455084
 20
155.145215555192
 30
0.0
 10
172.3215680651097
 20
155.1026528540952
 30
0.0
 10
172.2847521963464
 20
155.0582436399356
 30
0.0
 10
172.2390835369476
 20
155.0119972575771
 30
0.0
 10
172.1845815578392
 20
154.9639425459773
 30
0.0
 10
172.1212337507038
 20
154.9140962427256
 30
0.0
 10
171.9691918078884
 20
154.8053825653289
 30
0.0
 10
171.6682167393883
 20
154.6289773841303
 30
0.0
 10
171.1235340517039
 20
154.3866994170248
 30
0.0
 10
170.4679858176743
 20
154.1557656704712
 30
0.0
 10
169.8578765424296
 20
153.9951396196143
 30
0.0
 10
169.3705215710026
 20
153.8952935228022
 30
0.0
 10
169.0313012157964
 20
153.8374012498238
 30
0.0
 10
168.6875924846682
 20
153.7909253750976
 30
0.0
 10
168.3394418569044
 20
153.7550908829149
 30
0.0
 10
168.105417247301
 20
153.7411366542057
 30
0.0
 10
167.9882099328985
 20
153.7341479119775
 30
0.0
  0
LINE
  5
E2
330
1F
100
AcDbEntity
  8
0
  6
Continuous
 62
     7
370
    25
100
AcDbLine
 10
172.3789963751
 20
155.6532481651
 30
0.0
 11
172.3789963751
 21
155.2610961686
 31
0.0
  0
SPLINE
  5
E3
330
1F
100
AcDbEntity
  8
0
  6
Continuous
 62
     7
370
    25
100
AcDbSpline
210
0.0
220
0.0
230
1.0
 70
     8
 71
     3
 72
     9
 73
     5
 74
     0
 42
0.000000001
 43
0.00000001
 40
0.0
 40
0.0
 40
0.0
 40
0.0
 40
0.5967256101774271
 40
1.0
 40
1.0
 40
1.0
 40
1.0
 10
157.3895625650134
 20
153.0478322844105
 30
0.0
 10
157.92005593649
 20
153.097123311028
 30
0.0
 10
158.8090631492337
 20
153.1797258100271
 30
0.0
 10
159.5186153174385
 20
153.4038634694761
 30
0.0
 10
159.8047595351186
 20
153.4942524473267
 30
0.0
  0
SPLINE
  5
E4
330
1F
100
AcDbEntity
  8
0
  6
Continuous
 62
     7
370
    25
100
AcDbSpline
210
0.0
220
0.0
230
1.0
 70
     8
 71
     3
 72
     8
 73
     4
 74
     0
 42
0.000000001
 43
0.00000001
 40
0.0
 40
0.0
 40
0.0
 40
0.0
 40
1.0
 40
1.0
 40
1.0
 40
1.0
 10
151.5713882207249
 20
152.7280653254091
 30
0.0
 10
153.5107797050364
 20
152.8345509752924
 30
0.0
 10
155.4501711893477
 20
152.9411415465237
 30
0.0
 10
157.3895626736592
 20
153.0478325575027
 30
0.0
  0
SPLINE
  5
E5
330
1F
100
AcDbEntity
  8
0
  6
Continuous
 62
     7
370
    25
100
AcDbSpline
210
0.0
220
0.0
230
1.0
 70
    11
 71
     3
 72
    39
 73
    35
 74
     0
 42
0.000000001
 43
0.00000001
 40
0.0
 40
0.0
 40
0.0
 40
0.0
 40
0.0310664353900062
 40
0.0621048603876972
 40
0.0931362161117725
 40
0.123553887341527
 40
0.1538561988726564
 40
0.1850588368132422
 40
0.2160251058014421
 40
0.247186712868017
 40
0.2784462588807539
 40
0.3100515659479131
 40
0.3419833834553785
 40
0.3734259311699206
 40
0.4048604352637009
 40
0.4368740261890637
 40
0.4685120504548374
 40
0.4998055392338278
 40
0.5309508407944965
 40
0.5618650209181625
 40
0.5930416973304353
 40
0.623374300686562
 40
0.6540914153748527
 40
0.6849497019636582
 40
0.7158160740685293
 40
0.7471731667441052
 40
0.7784513974514702
 40
0.8101295465385695
 40
0.8419598340649483
 40
0.8735175315994808
 40
0.905080750353609
 40
0.9370234759239522
 40
0.9687441349557138
 40
1.0
 40
1.0
 40
1.0
 40
1.0
 10
161.9336823227769
 20
137.3473551088836
 30
0.0
 10
162.2978045305269
 20
137.7267870560252
 30
0.0
 10
163.1005760974208
 20
138.4142864805875
 30
0.0
 10
164.4956003773169
 20
139.1802310409633
 30
0.0
 10
166.0068337362029
 20
139.6691445097883
 30
0.0
 10
167.5784289681982
 20
139.8311564248698
 30
0.0
 10
169.1459798608508
 20
139.669744726115
 30
0.0
 10
170.6416644531357
 20
139.1900505242937
 30
0.0
 10
172.0220982809128
 20
138.4367784933299
 30
0.0
 10
173.2191656345755
 20
137.4243158830248
 30
0.0
 10
174.2080982028899
 20
136.1897864473296
 30
0.0
 10
174.9476214617591
 20
134.764849606173
 30
0.0
 10
175.4239561655986
 20
133.2139281579348
 30
0.0
 10
175.5916548996919
 20
131.5930011672847
 30
0.0
 10
175.446409520513
 20
129.9679863145264
 30
0.0
 10
174.9874645664719
 20
128.4089472105746
 30
0.0
 10
174.2635056038879
 20
126.9722719401239
 30
0.0
 10
173.2877139592056
 20
125.7255049590236
 30
0.0
 10
172.1034079703461
 20
124.6992818000815
 30
0.0
 10
170.7352161184084
 20
123.9288482028599
 30
0.0
 10
169.247487558869
 20
123.4299675190188
 30
0.0
 10
167.6778403977794
 20
123.2487298247667
 30
0.0
 10
166.1015814893007
 20
123.3851191721101
 30
0.0
 10
164.5822941919879
 20
123.8495194299038
 30
0.0
 10
163.1812587236838
 20
124.603925079037
 30
0.0
 10
161.9630999451763
 20
125.6273109063871
 30
0.0
 10
160.9554632354005
 20
126.87423363981
 30
0.0
 10
160.2099602516405
 20
128.3073087273612
 30
0.0
 10
159.7340933199835
 20
129.8639625311631
 30
0.0
 10
159.5702496642231
 20
131.4876239652803
 30
0.0
 10
159.7160294797661
 20
133.1151787692545
 30
0.0
 10
160.1761435298844
 20
134.6799390619774
 30
0.0
 10
160.9055761026483
 20
136.1239833123295
 30
0.0
 10
161.5673398556676
 20
136.9656095502294
 30
0.0
 10
161.9336823227768
 20
137.3473551088836
 30
0.0
  0
SPLINE
  5
E6
330
1F
100
AcDbEntity
  8
0
  6
Continuous
 62
     7
370
    25
100
AcDbSpline
210
0.0
220
0.0
230
1.0
 70
    11
 71
     3
 72
    47
 73
    43
 74
     0
 42
0.000000001
 43
0.00000001
 40
0.0
 40
0.0
 40
0.0
 40
0.0
 40
0.0185560892724913
 40
0.0351751995469344
 40
0.0498583338457781
 40
0.0626072835518504
 40
0.0953679990255805
 40
0.1250235797919991
 40
0.1545620188126542
 40
0.187325402796371
 40
0.2140369222220746
 40
0.2498478236075499
 40
0.2676840401883174
 40
0.2839029507946143
 40
0.298508002895383
 40
0.3115041102194467
 40
0.3429202846473727
 40
0.3729446697821306
 40
0.4028487063464252
 40
0.4364008793454997
 40
0.4619493403795835
 40
0.4999311466405
 40
0.5173444781460192
 40
0.533593460978895
 40
0.548683447065395
 40
0.5626211788030663
 40
0.5950894335365142
 40
0.6250625322454328
 40
0.6549913492535497
 40
0.6874536911319487
 40
0.7162617742887467
 40
0.750032708445562
 40
0.7698573495977115
 40
0.7869160799903322
 40
0.8012087948346551
 40
0.8127363301262015
 40
0.8457517309346233
 40
0.8751838039585992
 40
0.9050547320403319
 40
0.9375234753327911
 40
0.9660336796852937
 40
1.0
 40
1.0
 40
1.0
 40
1.0
 10
162.4775127663013
 20
136.6483270407859
 30
0.0
 10
162.2794228741353
 20
136.4489423925203
 30
0.0
 10
161.9264903672769
 20
136.0496132558957
 30
0.0
 10
161.4905977878804
 20
135.4309567344966
 30
0.0
 10
161.1606677551012
 20
134.8485845149952
 30
0.0
 10
160.7794647323972
 20
134.0160418585293
 30
0.0
 10
160.4530794207969
 20
132.9067423983233
 30
0.0
 10
160.3287551750267
 20
131.4955636666102
 30
0.0
 10
160.4701532953462
 20
130.0860755473763
 30
0.0
 10
160.8716741936047
 20
128.7780270593611
 30
0.0
 10
161.548647114096
 20
127.4933757144499
 30
0.0
 10
162.3218448728815
 20
126.5399042678457
 30
0.0
 10
163.1171251538526
 20
125.8406117842716
 30
0.0
 10
163.7212706380754
 20
125.4141259504781
 30
0.0
 10
164.30099547784
 20
125.0839833836197
 30
0.0
 10
165.118796594216
 20
124.7080424908546
 30
0.0
 10
166.2184202210802
 20
124.3790737126551
 30
0.0
 10
167.6207730743134
 20
124.2455076328318
 30
0.0
 10
169.0482592165669
 20
124.3815193675116
 30
0.0
 10
170.3454611490556
 20
124.776040088747
 30
0.0
 10
171.6398631889654
 20
125.4478611123948
 30
0.0
 10
172.591845716177
 20
126.2104299192179
 30
0.0
 10
173.3013111293378
 20
127.0124925290098
 30
0.0
 10
173.7269033407173
 20
127.6082943896547
 30
0.0
 10
174.0675563608962
 20
128.1995733297464
 30
0.0
 10
174.4572064402283
 20
129.0441470366958
 30
0.0
 10
174.7888965829388
 20
130.1678092068159
 30
0.0
 10
174.9151086581111
 20
131.585703488139
 30
0.0
 10
174.7707515322922
 20
133.0015260787396
 30
0.0
 10
174.3584475055164
 20
134.3366709194682
 30
0.0
 10
173.6791067679896
 20
135.6056255521297
 30
0.0
 10
172.8927445279379
 20
136.5659245756798
 30
0.0
 10
172.0988918102909
 20
137.2613112708706
 30
0.0
 10
171.4691691785418
 20
137.6973698288116
 30
0.0
 10
170.9079192450988
 20
138.0102155336058
 30
0.0
 10
170.104292388057
 20
138.3774082983186
 30
0.0
 10
169.0241268422855
 20
138.7000997177219
 30
0.0
 10
167.6145958756836
 20
138.8320153808219
 30
0.0
 10
166.2053921552218
 20
138.6981764396284
 30
0.0
 10
164.8646927145192
 20
138.2933966689619
 30
0.0
 10
163.580437259042
 20
137.6151161905432
 30
0.0
 10
162.8401098970661
 20
137.013294180649
 30
0.0
 10
162.4775127663013
 20
136.6483270407859
 30
0.0
  0
LINE
  5
E7
330
1F
100
AcDbEntity
  8
0
  6
Continuous
 62
     7
370
    25
100
AcDbLine
 10
201.7963882416
 20
149.4773538749
 30
0.0
 11
201.7963882416
 21
160.4868086021
 31
0.0
  0
SPLINE
  5
E8
330
1F
100
AcDbEntity
  8
0
  6
Continuous
 62
     7
370
    25
100
AcDbSpline
210
0.0
220
0.0
230
1.0
 70
     8
 71
     3
 72
     8
 73
     4
 74
     0
 42
0.000000001
 43
0.00000001
 40
0.0
 40
0.0
 40
0.0
 40
0.0
 40
1.0
 40
1.0
 40
1.0
 40
1.0
 10
150.7112543898552
 20
111.5873469965038
 30
0.0
 10
150.9979656667275
 20
111.4611040377382
 30
0.0
 10
151.2846769435997
 20
111.3354108510106
 30
0.0
 10
151.5713882204719
 20
111.2102742342715
 30
0.0
  0
SPLINE
  5
E9
330
1F
100
AcDbEntity
  8
0
  6
Continuous
 62
     7
370
    25
100
AcDbSpline
210
0.0
220
0.0
230
1.0
 70
     8
 71
     3
 72
     8
 73
     4
 74
     0
 42
0.000000001
 43
0.00000001
 40
0.0
 40
0.0
 40
0.0
 40
0.0
 40
1.0
 40
1.0
 40
1.0
 40
1.0
 10
150.0713882207122
 20
112.21049393971
 30
0.0
 10
150.2832741226868
 20
112.0008181632577
 30
0.0
 10
150.4965888310241
 20
111.7931388241487
 30
0.0
 10
150.7112543898631
 20
111.5873469965017
 30
0.0
  0
LINE
  5
EA
330
1F
100
AcDbEntity
  8
0
  6
Continuous
 62
     7
370
    25
100
AcDbLine
 10
150.0713899612
 20
112.2104940902
 30
0.0
 11
150.0713899612
 21
150.8679321001
 31
0.0
  0
SPLINE
  5
EB
330
1F
100
AcDbEntity
  8
0
  6
Continuous
 62
     7
370
    25
100
AcDbSpline
210
0.0
220
0.0
230
1.0
 70
     8
 71
     3
 72
     8
 73
     4
 74
     0
 42
0.000000001
 43
0.00000001
 40
0.0
 40
0.0
 40
0.0
 40
0.0
 40
1.0
 40
1.0
 40
1.0
 40
1.0
 10
150.7112543898656
 20
151.491079193797
 30
0.0
 10
150.4965888310258
 20
151.2852873661492
 30
0.0
 10
150.2832741226876
 20
151.0776080270394
 30
0.0
 10
150.0713882207122
 20
150.8679322505863
 30
0.0
  0
SPLINE
  5
EC
330
1F
100
AcDbEntity
  8
0
  6
Continuous
 62
     7
370
    25
100
AcDbSpline
210
0.0
220
0.0
230
1.0
 70
     8
 71
     3
 72
     8
 73
     4
 74
     0
 42
0.000000001
 43
0.00000001
 40
0.0
 40
0.0
 40
0.0
 40
0.0
 40
1.0
 40
1.0
 40
1.0
 40
1.0
 10
151.5713882204719
 20
151.8681519560247
 30
0.0
 10
151.2846769436032
 20
151.7430153392871
 30
0.0
 10
150.9979656667344
 20
151.6173221525611
 30
0.0
 10
150.7112543898656
 20
151.491079193797
 30
0.0
  0
SPLINE
  5
ED
330
1F
100
AcDbEntity
  8
0
  6
Continuous
 62
     7
370
    25
100
AcDbSpline
210
0.0
220
0.0
230
1.0
 70
     8
 71
     3
 72
     9
 73
     5
 74
     0
 42
0.000000001
 43
0.00000001
 40
0.0
 40
0.0
 40
0.0
 40
0.0
 40
0.8959546455136717
 40
0.9999999999999999
 40
0.9999999999999999
 40
0.9999999999999999
 40
0.9999999999999999
 10
165.6961329161372
 20
124.5495142380791
 30
0.0
 10
165.8001653280372
 20
124.5224153918501
 30
0.0
 10
165.9162788081345
 20
124.4921696128202
 30
0.0
 10
165.8669427969939
 20
124.5047405360369
 30
0.0
 10
165.8618096142259
 20
124.5060484821992
 30
0.0
  0
LINE
  5
EE
330
1F
100
AcDbEntity
  8
0
  6
Continuous
 62
     7
370
    25
100
AcDbLine
 10
172.3789963751
 20
107.8173300217
 30
0.0
 11
172.2926553219
 21
107.9742504249
 31
0.0
  0
LINE
  5
EF
330
1F
100
AcDbEntity
  8
0
  6
Continuous
 62
     7
370
    25
100
AcDbLine
 10
151.5713892757
 20
111.2070424448
 30
0.0
 11
152.7225188791
 21
111.1441818963
 31
0.0
  0
LINE
  5
F0
330
1F
100
AcDbEntity
  8
0
  6
Continuous
 62
     7
370
    25
100
AcDbLine
 10
150.6577283024
 20
110.7609333436
 30
0.0
 11
151.5713892757
 21
111.2070424448
 31
0.0
  0
SPLINE
  5
F1
330
1F
100
AcDbEntity
  8
0
  6
Continuous
 62
     7
370
    25
100
AcDbSpline
210
0.0
220
0.0
230
1.0
 70
     8
 71
     3
 72
     8
 73
     4
 74
     0
 42
0.000000001
 43
0.00000001
 40
0.0
 40
0.0
 40
0.0
 40
0.0
 40
1.0
 40
1.0
 40
1.0
 40
1.0
 10
151.5713882202612
 20
110.3503608652672
 30
0.0
 10
151.2668349465513
 20
110.4863934145986
 30
0.0
 10
150.9622816728413
 20
110.6232561355128
 30
0.0
 10
150.6577283991313
 20
110.7609328758884
 30
0.0
  0
LINE
  5
F2
330
1F
100
AcDbEntity
  8
0
  6
Continuous
 62
     7
370
    25
100
AcDbLine
 10
152.7225188791
 20
151.934244294
 30
0.0
 11
151.5713892757
 21
151.8713837455
 31
0.0
  0
LINE
  5
F3
330
1F
100
AcDbEntity
  8
0
  6
Continuous
 62
     7
370
    25
100
AcDbLine
 10
150.0713899612
 20
112.2104940902
 30
0.0
 11
150.0713899612
 21
111.2769866328
 31
0.0
  0
SPLINE
  5
F4
330
1F
100
AcDbEntity
  8
0
  6
Continuous
 62
     7
370
    25
100
AcDbSpline
210
0.0
220
0.0
230
1.0
 70
     8
 71
     3
 72
     8
 73
     4
 74
     0
 42
0.000000001
 43
0.00000001
 40
0.0
 40
0.0
 40
0.0
 40
0.0
 40
1.0
 40
1.0
 40
1.0
 40
1.0
 10
150.6577283991446
 20
110.7609328758824
 30
0.0
 10
150.4613963734863
 20
110.9315843951152
 30
0.0
 10
150.265935353246
 20
111.1035804900829
 30
0.0
 10
150.0713882207122
 20
111.2769873584038
 30
0.0
  0
LINE
  5
F5
330
1F
100
AcDbEntity
  8
0
  6
Continuous
 62
     7
370
    25
100
AcDbLine
 10
150.0713899612
 20
151.8014395575
 30
0.0
 11
150.0713899612
 21
150.8679321001
 31
0.0
  0
SPLINE
  5
F6
330
1F
100
AcDbEntity
  8
0
  6
Continuous
 62
     7
370
    25
100
AcDbSpline
210
0.0
220
0.0
230
1.0
 70
     8
 71
     3
 72
     8
 73
     4
 74
     0
 42
0.000000001
 43
0.00000001
 40
0.0
 40
0.0
 40
0.0
 40
0.0
 40
1.0
 40
1.0
 40
1.0
 40
1.0
 10
150.0713882207122
 20
151.8014388318925
 30
0.0
 10
150.2659353532451
 20
151.9748457002125
 30
0.0
 10
150.4613963734844
 20
152.1468417951793
 30
0.0
 10
150.6577283991418
 20
152.3174933144114
 30
0.0
  0
LINE
  5
F7
330
1F
100
AcDbEntity
  8
0
  6
Continuous
 62
     7
370
    25
100
AcDbLine
 10
151.5713892757
 20
151.8713837455
 30
0.0
 11
150.6577283024
 21
152.3174928467
 31
0.0
  0
SPLINE
  5
F8
330
1F
100
AcDbEntity
  8
0
  6
Continuous
 62
     7
370
    25
100
AcDbSpline
210
0.0
220
0.0
230
1.0
 70
     8
 71
     3
 72
     8
 73
     4
 74
     0
 42
0.000000001
 43
0.00000001
 40
0.0
 40
0.0
 40
0.0
 40
0.0
 40
1.0
 40
1.0
 40
1.0
 40
1.0
 10
150.6577283991352
 20
152.3174933144096
 30
0.0
 10
150.9622816728438
 20
152.4551700547846
 30
0.0
 10
151.2668349465525
 20
152.5920327756982
 30
0.0
 10
151.5713882202612
 20
152.7280653250291
 30
0.0
  0
SPLINE
  5
F9
330
1F
100
AcDbEntity
  8
0
  6
Continuous
 62
     7
370
    25
100
AcDbSpline
210
0.0
220
0.0
230
1.0
 70
     8
 71
     3
 72
     9
 73
     5
 74
     0
 42
0.000000001
 43
0.00000001
 40
0.0
 40
0.0
 40
0.0
 40
0.0
 40
0.7785246331285789
 40
1.0
 40
1.0
 40
1.0
 40
1.0
 10
162.6670490830388
 20
136.8022575940089
 30
0.0
 10
162.5146912938023
 20
136.6744633484344
 30
0.0
 10
162.3189906277562
 20
136.5103140843823
 30
0.0
 10
162.1634973521927
 20
136.3005868809329
 30
0.0
 10
162.1290594219413
 20
136.254137471606
 30
0.0
  0
SPLINE
  5
FA
330
1F
100
AcDbEntity
  8
0
  6
Continuous
 62
     7
370
    25
100
AcDbSpline
210
0.0
220
0.0
230
1.0
 70
     8
 71
     3
 72
     9
 73
     5
 74
     0
 42
0.000000001
 43
0.00000001
 40
0.0
 40
0.0
 40
0.0
 40
0.0
 40
0.4259697068762066
 40
1.0
 40
1.0
 40
1.0
 40
1.0
 10
164.9845447271314
 20
124.7935472953217
 30
0.0
 10
165.1239214770666
 20
124.7393884921789
 30
0.0
 10
165.4511202137028
 20
124.6122461102944
 30
0.0
 10
165.6092185776124
 20
124.5728477019903
 30
0.0
 10
165.6999718277898
 20
124.5502318221229
 30
0.0
  0
CIRCLE
  5
FB
330
1F
100
AcDbEntity
  8
0
  6
HIDDEN
 62
     7
370
    18
100
AcDbCircle
 10
255.0213882207
 20
111.5392130951
 30
0.0
 40
3.500000000000017
  0
CIRCLE
  5
FC
330
1F
100
AcDbEntity
  8
0
  6
HIDDEN
 62
     7
370
    18
100
AcDbCircle
 10
255.0213882207
 20
151.5392130951
 30
0.0
 40
5.000000000000004
  0
CIRCLE
  5
FD
330
1F
100
AcDbEntity
  8
0
  6
HIDDEN
 62
     7
370
    18
100
AcDbCircle
 10
255.0213882207
 20
151.5392130951
 30
0.0
 40
3.50000000000003
  0
LINE
  5
FE
330
1F
100
AcDbEntity
  8
0
  6
HIDDEN
 62
     7
370
    18
100
AcDbLine
 10
253.1242444991
 20
149.3633972447
 30
0.0
 11
255.9571266054
 21
148.8083289902
 31
0.0
  0
LINE
  5
FF
330
1F
100
AcDbEntity
  8
0
  6
HIDDEN
 62
     7
370
    18
100
AcDbLine
 10
257.8542753934
 20
150.9841443936
 30
0.0
 11
255.9571266054
 21
148.8083289902
 31
0.0
  0
LINE
  5
100
330
1F
100
AcDbEntity
  8
0
  6
HIDDEN
 62
     7
370
    18
100
AcDbLine
 10
252.1885037302
 20
152.0942809026
 30
0.0
 11
253.1242444991
 21
149.3633972447
 31
0.0
  0
LINE
  5
101
330
1F
100
AcDbEntity
  8
0
  6
HIDDEN
 62
     7
370
    18
100
AcDbLine
 10
256.9185346245
 20
153.7150280516
 30
0.0
 11
257.8542753934
 21
150.9841443936
 31
0.0
  0
LINE
  5
102
330
1F
100
AcDbEntity
  8
0
  6
HIDDEN
 62
     7
370
    18
100
AcDbLine
 10
252.1885037302
 20
152.0942809026
 30
0.0
 11
254.0856525182
 21
154.270096306
 31
0.0
  0
LINE
  5
103
330
1F
100
AcDbEntity
  8
0
  6
HIDDEN
 62
     7
370
    18
100
AcDbLine
 10
256.9185346245
 20
153.7150280516
 30
0.0
 11
254.0856525182
 21
154.270096306
 31
0.0
  0
CIRCLE
  5
104
330
1F
100
AcDbEntity
  8
0
  6
HIDDEN
 62
     7
370
    18
100
AcDbCircle
 10
255.0213882207
 20
151.5392130951
 30
0.0
 40
4.172000000000024
  0
CIRCLE
  5
105
330
1F
100
AcDbEntity
  8
0
  6
HIDDEN
 62
     7
370
    18
100
AcDbCircle
 10
225.0213882207
 20
151.5392130951
 30
0.0
 40
5.000000000000004
  0
CIRCLE
  5
106
330
1F
100
AcDbEntity
  8
0
  6
HIDDEN
 62
     7
370
    18
100
AcDbCircle
 10
225.0213882207
 20
151.5392130951
 30
0.0
 40
3.50000000000003
  0
LINE
  5
107
330
1F
100
AcDbEntity
  8
0
  6
HIDDEN
 62
     7
370
    18
100
AcDbLine
 10
223.124243307
 20
149.3633972447
 30
0.0
 11
225.9571291386
 21
148.8083289902
 31
0.0
  0
LINE
  5
108
330
1F
100
AcDbEntity
  8
0
  6
HIDDEN
 62
     7
370
    18
100
AcDbLine
 10
227.8542742013
 20
150.9841443936
 30
0.0
 11
225.9571291386
 21
148.8083289902
 31
0.0
  0
LINE
  5
109
330
1F
100
AcDbEntity
  8
0
  6
HIDDEN
 62
     7
370
    18
100
AcDbLine
 10
222.1885025381
 20
152.0942809026
 30
0.0
 11
223.124243307
 21
149.3633972447
 31
0.0
  0
LINE
  5
10A
330
1F
100
AcDbEntity
  8
0
  6
HIDDEN
 62
     7
370
    18
100
AcDbLine
 10
226.9185334324
 20
153.7150280516
 30
0.0
 11
227.8542742013
 21
150.9841443936
 31
0.0
  0
LINE
  5
10B
330
1F
100
AcDbEntity
  8
0
  6
HIDDEN
 62
     7
370
    18
100
AcDbLine
 10
222.1885025381
 20
152.0942809026
 30
0.0
 11
224.0856476008
 21
154.270096306
 31
0.0
  0
LINE
  5
10C
330
1F
100
AcDbEntity
  8
0
  6
HIDDEN
 62
     7
370
    18
100
AcDbLine
 10
226.9185334324
 20
153.7150280516
 30
0.0
 11
224.0856476008
 21
154.270096306
 31
0.0
  0
CIRCLE
  5
10D
330
1F
100
AcDbEntity
  8
0
  6
HIDDEN
 62
     7
370
    18
100
AcDbCircle
 10
225.0213882207
 20
151.5392130951
 30
0.0
 40
4.172000000000024
  0
CIRCLE
  5
10E
330
1F
100
AcDbEntity
  8
0
  6
HIDDEN
 62
     7
370
    18
100
AcDbCircle
 10
225.0213882207
 20
111.5392130951
 30
0.0
 40
3.500000000000017
  0
LWPOLYLINE
  5
10F
330
1F
100
AcDbEntity
  8
0
  6
HIDDEN
 62
     7
370
    18
100
AcDbPolyline
 90
       16
 70
   128
 43
0.0
 10
271.8421891212
 20
114.2377691309
 10
271.8429490804
 20
114.2398478429
 10
271.8799263119
 20
114.3414402346
 10
271.9707488894
 20
114.5909732173
 10
272.1108645081
 20
114.9759372662
 10
272.2932398199
 20
115.4770242016
 10
272.5087478637
 20
116.0691115971
 10
272.7465629458
 20
116.722508889
 10
272.9947641372
 20
117.4044502865
 10
273.240916419
 20
118.0807413499
 10
273.4726667284
 20
118.7174707617
 10
273.6783996104
 20
119.2827090587
 10
273.8477885603
 20
119.7481133009
 10
273.9723548173
 20
120.0903464074
 10
274.0458398937
 20
120.2922468971
 10
274.065323162
 20
120.3457709367
  0
LWPOLYLINE
  5
110
330
1F
100
AcDbEntity
  8
0
  6
HIDDEN
 62
     7
370
    18
100
AcDbPolyline
 90
       16
 70
   128
 43
0.0
 10
264.8307904481
 20
116.5236659314
 10
264.8447677373
 20
116.562072743
 10
264.9116366982
 20
116.7458021979
 10
265.0307044267
 20
117.0729301835
 10
265.1963978886
 20
117.5281625207
 10
265.4009610295
 20
118.0902119692
 10
265.6348496556
 20
118.7327984686
 10
265.8871039628
 20
119.4258738275
 10
266.1459445833
 20
120.1370326768
 10
266.3992643236
 20
120.8330202813
 10
266.6352167606
 20
121.4812934364
 10
266.8427675842
 20
122.0515403862
 10
267.0122161388
 20
122.5170964341
 10
267.1356424569
 20
122.8561928461
 10
267.2072648882
 20
123.0529738556
 10
267.2249302148
 20
123.1015143882
  0
LWPOLYLINE
  5
111
330
1F
100
AcDbEntity
  8
0
  6
HIDDEN
 62
     7
370
    18
100
AcDbPolyline
 90
       13
 70
   128
 43
0.0
 10
266.6251882791
 20
117.3604071106
 10
266.6495665788
 20
117.4273952807
 10
266.7299508929
 20
117.6482425968
 10
266.8600305795
 20
118.0056413601
 10
267.0292779683
 20
118.4706358205
 10
267.2239690899
 20
119.0055558424
 10
267.4283459663
 20
119.5670651238
 10
267.6258385061
 20
120.1096741448
 10
267.800450313
 20
120.5894226174
 10
267.9380401849
 20
120.9674455191
 10
268.0274546026
 20
121.2131172384
 10
268.0614590525
 20
121.3065344806
 10
268.0616676687
 20
121.3071165572
  0
LWPOLYLINE
  5
112
330
1F
100
AcDbEntity
  8
0
  6
HIDDEN
 62
     7
370
    18
100
AcDbPolyline
 90
       13
 70
   128
 43
0.0
 10
271.8596383809
 20
115.4552238028
 10
271.8840166806
 20
115.5222101103
 10
271.9644009947
 20
115.7430583577
 10
272.0944806813
 20
116.100457121
 10
272.2637280702
 20
116.5654515813
 10
272.4584191918
 20
117.1003725345
 10
272.6627960681
 20
117.6618818159
 10
272.860288608
 20
118.2044899057
 10
273.0349004149
 20
118.6842393096
 10
273.1724902868
 20
119.06226128
 10
273.2619047045
 20
119.3079329993
 10
273.2959091543
 20
119.4013502414
 10
273.2961177706
 20
119.4019323181
  0
LWPOLYLINE
  5
113
330
1F
100
AcDbEntity
  8
0
  6
HIDDEN
 62
     7
370
    18
100
AcDbPolyline
 90
       14
 70
   128
 43
0.0
 10
274.0275859713
 20
142.8363263573
 10
273.9367633938
 20
143.0858602713
 10
273.7966477751
 20
143.4708224575
 10
273.6142650127
 20
143.9719112556
 10
273.3987644195
 20
144.563998651
 10
273.1609493374
 20
145.2173950116
 10
272.9127406954
 20
145.8993364091
 10
272.6665958642
 20
146.5756274725
 10
272.4348455548
 20
147.2123568843
 10
272.2291126727
 20
147.7775951813
 10
272.0597162723
 20
148.2429994236
 10
271.9351574659
 20
148.5852325301
 10
271.8616723894
 20
148.787133951
 10
271.8421891212
 20
148.8406570594
  0
LWPOLYLINE
  5
114
330
1F
100
AcDbEntity
  8
0
  6
HIDDEN
 62
     7
370
    18
100
AcDbPolyline
 90
        3
 70
   128
 43
0.0
 10
274.065323162
 20
142.7326552535
 10
274.0645632028
 20
142.7347348969
 10
274.0275859713
 20
142.8363263573
  0
LWPOLYLINE
  5
115
330
1F
100
AcDbEntity
  8
0
  6
HIDDEN
 62
     7
370
    18
100
AcDbPolyline
 90
       15
 70
   128
 43
0.0
 10
267.1842947482
 20
140.0885578211
 10
267.0907750606
 20
140.3454929556
 10
266.9475600003
 20
140.7389795373
 10
266.7613401889
 20
141.2506202201
 10
266.5408179044
 20
141.8564893271
 10
266.2963122009
 20
142.5282578881
 10
266.0392597198
 20
143.2345151867
 10
265.7816707968
 20
143.9422374557
 10
265.5355930208
 20
144.6183310787
 10
265.3125300883
 20
145.2311841737
 10
265.1229202627
 20
145.7521390135
 10
264.9756222843
 20
146.1568377878
 10
264.8775204896
 20
146.4263560216
 10
264.8332118868
 20
146.5480919893
 10
264.8307904481
 20
146.5547602589
  0
LWPOLYLINE
  5
116
330
1F
100
AcDbEntity
  8
0
  6
HIDDEN
 62
     7
370
    18
100
AcDbPolyline
 90
        3
 70
   128
 43
0.0
 10
267.2249302148
 20
139.9769118021
 10
267.2237381219
 20
139.980188195
 10
267.1842947482
 20
140.0885578211
  0
LWPOLYLINE
  5
117
330
1F
100
AcDbEntity
  8
0
  6
HIDDEN
 62
     7
370
    18
100
AcDbPolyline
 90
       13
 70
   128
 43
0.0
 10
268.0616676687
 20
141.7713096331
 10
268.037289369
 20
141.8382968719
 10
267.956905055
 20
142.0591451193
 10
267.8268253683
 20
142.4165429513
 10
267.6575779795
 20
142.881538343
 10
267.4628868579
 20
143.4164583649
 10
267.2585099816
 20
143.9779676463
 10
267.0610174417
 20
144.5205766673
 10
266.8864056348
 20
145.0003251399
 10
266.7488157629
 20
145.3783480416
 10
266.6594013452
 20
145.6240188296
 10
266.6253968953
 20
145.7174360718
 10
266.6251882791
 20
145.7180190797
  0
LWPOLYLINE
  5
118
330
1F
100
AcDbEntity
  8
0
  6
HIDDEN
 62
     7
370
    18
100
AcDbPolyline
 90
       13
 70
   128
 43
0.0
 10
273.2961177706
 20
143.6764938722
 10
273.2717394709
 20
143.7434811111
 10
273.1913551568
 20
143.9643284272
 10
273.0612754702
 20
144.3217271905
 10
272.8920280813
 20
144.7867225821
 10
272.6973369598
 20
145.321642604
 10
272.4929600834
 20
145.8831518854
 10
272.2954675435
 20
146.4257599752
 10
272.1208557367
 20
146.905509379
 10
271.9832658648
 20
147.2835322808
 10
271.893851447
 20
147.5292040001
 10
271.8598469972
 20
147.6226212422
 10
271.8596383809
 20
147.6232023875
  0
LWPOLYLINE
  5
119
330
1F
100
AcDbEntity
  8
0
  6
HIDDEN
 62
     7
370
    18
100
AcDbPolyline
 90
       14
 70
   128
 43
0.0
 10
262.8888040661
 20
118.2908691431
 10
263.2074430465
 20
119.1663188825
 10
263.5407447695
 20
120.0820604305
 10
263.8796195268
 20
121.0131147842
 10
264.2148285984
 20
121.9340866397
 10
264.5372226714
 20
122.8198526393
 10
264.8380026101
 20
123.6462524126
 10
265.1089802264
 20
124.3907442282
 10
265.3427496433
 20
125.0330196659
 10
265.5329331636
 20
125.5555586855
 10
265.6743600845
 20
125.9441087919
 10
265.7631486534
 20
126.188070603
 10
265.7968997835
 20
126.2807898189
 10
265.7971978068
 20
126.2816103141
  0
LWPOLYLINE
  5
11A
330
1F
100
AcDbEntity
  8
0
  6
HIDDEN
 62
     7
370
    18
100
AcDbPolyline
 90
        8
 70
   128
 43
0.0
 10
261.692956078
 20
115.0053000043
 10
261.7154791831
 20
115.0671714882
 10
261.7930620789
 20
115.2803307365
 10
261.9238868236
 20
115.6397821347
 10
262.1043920397
 20
116.1357207189
 10
262.3296528935
 20
116.7546180974
 10
262.5935226559
 20
117.4795931171
 10
262.8888040661
 20
118.2908691431
  0
LWPOLYLINE
  5
11B
330
1F
100
AcDbEntity
  8
0
  6
HIDDEN
 62
     7
370
    18
100
AcDbPolyline
 90
       11
 70
   128
 43
0.0
 10
265.5283659577
 20
118.4402486275
 10
265.7739072918
 20
119.1148651729
 10
266.0313248514
 20
119.8221059482
 10
266.2885784983
 20
120.5289015512
 10
266.5336355447
 20
121.2022040005
 10
266.7550518989
 20
121.8105290051
 10
266.9424563526
 20
122.3254330422
 10
267.0871019243
 20
122.7228395606
 10
267.1822160362
 20
122.9841658811
 10
267.2233581423
 20
123.0971921201
 10
267.2249302148
 20
123.1015143882
  0
LWPOLYLINE
  5
11C
330
1F
100
AcDbEntity
  8
0
  6
HIDDEN
 62
     7
370
    18
100
AcDbPolyline
 90
        7
 70
   128
 43
0.0
 10
264.8307904481
 20
116.5236659314
 10
264.8327350496
 20
116.5290182422
 10
264.8753523707
 20
116.6461059789
 10
264.9718597411
 20
116.9112553786
 10
265.1177421092
 20
117.3120677437
 10
265.3061821937
 20
117.8298020701
 10
265.5283659577
 20
118.4402486275
  0
LWPOLYLINE
  5
11D
330
1F
100
AcDbEntity
  8
0
  6
HIDDEN
 62
     7
370
    18
100
AcDbPolyline
 90
       21
 70
   128
 43
0.0
 10
265.7971978068
 20
136.7968158762
 10
265.7746747016
 20
136.8586887571
 10
265.6970918059
 20
137.0718480053
 10
265.5662670612
 20
137.4312989379
 10
265.3857543945
 20
137.9272370565
 10
265.1605009913
 20
138.5461344349
 10
264.8966312288
 20
139.2711094546
 10
264.6013498186
 20
140.0823859464
 10
264.2827108382
 20
140.9578347544
 10
263.9494091152
 20
141.8735763024
 10
263.6105343579
 20
142.8046315874
 10
263.2753252863
 20
143.7256034429
 10
262.9529312133
 20
144.6113694425
 10
262.6521512746
 20
145.4377692158
 10
262.3811736583
 20
146.1822610314
 10
262.1474042415
 20
146.8245364691
 10
261.9572207212
 20
147.3470745574
 10
261.8157938003
 20
147.7356260608
 10
261.7270052313
 20
147.9795878719
 10
261.6932541012
 20
148.0723066221
 10
261.692956078
 20
148.073126186
  0
LWPOLYLINE
  5
11E
330
1F
100
AcDbEntity
  8
0
  6
HIDDEN
 62
     7
370
    18
100
AcDbPolyline
 90
       16
 70
   128
 43
0.0
 10
267.2249302148
 20
139.9769118021
 10
267.2085910916
 20
140.0217913057
 10
267.1386226892
 20
140.2140367742
 10
267.0167162894
 20
140.5489813502
 10
266.848564136
 20
141.0109620507
 10
266.6420414924
 20
141.5783796425
 10
266.4068043112
 20
142.2246998142
 10
266.1538421988
 20
142.9197020794
 10
265.8949866771
 20
143.6308897997
 10
265.6423523902
 20
144.3250073086
 10
265.4077410578
 20
144.9695998768
 10
265.2021199345
 20
145.5345261808
 10
265.0351151704
 20
145.9933711181
 10
264.9145275234
 20
146.3246798108
 10
264.8460045337
 20
146.5129597078
 10
264.8307904481
 20
146.5547602589
  0
SPLINE
  5
11F
330
1F
100
AcDbEntity
  8
0
  6
HIDDEN
 62
     7
370
    18
100
AcDbSpline
210
0.0
220
0.0
230
1.0
 70
     8
 71
     3
 72
    25
 73
    21
 74
     0
 42
0.000000001
 43
0.00000001
 40
0.0
 40
0.0
 40
0.0
 40
0.0
 40
0.1250000000000005
 40
0.1250000000000005
 40
0.250000000000001
 40
0.250000000000001
 40
0.3750000000000015
 40
0.3750000000000015
 40
0.500000000000002
 40
0.500000000000002
 40
0.5625000000000019
 40
0.5625000000000019
 40
0.6250000000000018
 40
0.6875000000000018
 40
0.6875000000000018
 40
0.7500000000000017
 40
0.7500000000000017
 40
0.8750000000000008
 40
0.8750000000000008
 40
1.0
 40
1.0
 40
1.0
 40
1.0
 10
203.2555860252823
 20
149.8300094133095
 30
0.0
 10
203.4968335308377
 20
149.687954594783
 30
0.0
 10
203.7127625650821
 20
149.5248571104242
 30
0.0
 10
204.0959204769247
 20
149.1565544917979
 30
0.0
 10
204.2633722624099
 20
148.9493546182644
 30
0.0
 10
204.5310569188138
 20
148.5113783818703
 30
0.0
 10
204.6347288865346
 20
148.2762262092232
 30
0.0
 10
204.7738602577888
 20
147.7857055211479
 30
0.0
 10
204.8085994977795
 20
147.5353765676035
 30
0.0
 10
204.8090299309987
 20
147.1521029342258
 30
0.0
 10
204.8002951474093
 20
147.0222377897605
 30
0.0
 10
204.7655017442346
 20
146.7660142102473
 30
0.0
 10
204.7136088825055
 20
146.5123641135811
 30
0.0
 10
204.6282306702118
 20
146.2638704980437
 30
0.0
 10
204.5257549171473
 20
146.0181064256803
 30
0.0
 10
204.4656935454962
 20
145.8963526762723
 30
0.0
 10
204.264383723045
 20
145.5449921710845
 30
0.0
 10
204.1011602029652
 20
145.3258080354005
 30
0.0
 10
203.7157820027138
 20
144.9192223175574
 30
0.0
 10
203.496832516888
 20
144.7358308115117
 30
0.0
 10
203.2555860252823
 20
144.57695710046
 30
0.0
  0
LINE
  5
120
330
1F
100
AcDbEntity
  8
0
  6
HIDDEN
 62
     7
370
    18
100
AcDbLine
 10
203.2555863141
 20
144.5769570734
 30
0.0
 11
203.2555863141
 21
142.4137787859
 31
0.0
  0
LINE
  5
121
330
1F
100
AcDbEntity
  8
0
  6
HIDDEN
 62
     7
370
    18
100
AcDbLine
 10
203.2555863141
 20
151.6815038364
 30
0.0
 11
203.2555863141
 21
149.8300103436
 31
0.0
  0
LINE
  5
122
330
1F
100
AcDbEntity
  8
0
  6
HIDDEN
 62
     7
370
    18
100
AcDbLine
 10
196.5871904857
 20
150.5861567299
 30
0.0
 11
196.5871904857
 21
143.7163684483
 31
0.0
  0
LWPOLYLINE
  5
123
330
1F
100
AcDbEntity
  8
0
  6
HIDDEN
 62
     7
370
    18
100
AcDbPolyline
 90
       12
 70
   128
 43
0.0
 10
201.0713880762
 20
138.6069302413
 10
201.8980830788
 20
138.6774443987
 10
202.6930088057
 20
138.8862757909
 10
203.4256169453
 20
139.2254001427
 10
204.0677536159
 20
139.6817849915
 10
204.5947406321
 20
140.2378907393
 10
204.9863273158
 20
140.872347724
 10
205.2274662881
 20
141.5607739206
 10
205.3088880955
 20
142.2767132486
 10
205.2274662881
 20
142.9926525767
 10
204.9863273158
 20
143.681077842
 10
204.6242849781
 20
144.2767126451
  0
LWPOLYLINE
  5
124
330
1F
100
AcDbEntity
  8
0
  6
HIDDEN
 62
     7
370
    18
100
AcDbPolyline
 90
       12
 70
   128
 43
0.0
 10
197.5184916399
 20
144.2767126451
 10
197.1564488365
 20
143.681077842
 10
196.9153107955
 20
142.9926525767
 10
196.8338880568
 20
142.2767132486
 10
196.9153107955
 20
141.5607739206
 10
197.1564488365
 20
140.872347724
 10
197.5480355202
 20
140.2378907393
 10
198.0750234678
 20
139.6817849915
 10
198.7171592071
 20
139.2254001427
 10
199.4497673466
 20
138.8862757909
 10
200.2446930736
 20
138.6774443987
 10
201.0713880762
 20
138.6069302413
  0
SPLINE
  5
125
330
1F
100
AcDbEntity
  8
0
  6
HIDDEN
 62
     7
370
    18
100
AcDbSpline
210
0.0
220
0.0
230
1.0
 70
     8
 71
     3
 72
    26
 73
    22
 74
     0
 42
0.000000001
 43
0.00000001
 40
0.0
 40
0.0
 40
0.0
 40
0.0
 40
0.1249999999999999
 40
0.1249999999999999
 40
0.2499999999999998
 40
0.2499999999999998
 40
0.3125000000000002
 40
0.3125000000000002
 40
0.3750000000000006
 40
0.3750000000000006
 40
0.4375000000000009
 40
0.4375000000000009
 40
0.5000000000000013
 40
0.5000000000000013
 40
0.5625000000000017
 40
0.5625000000000017
 40
0.6250000000000021
 40
0.6250000000000021
 40
0.7500000000000017
 40
0.7500000000000017
 40
1.0
 40
1.0
 40
1.0
 40
1.0
 10
198.0463882207122
 20
144.0703623227948
 30
0.0
 10
197.9544833100294
 20
144.2646853452143
 30
0.0
 10
197.8667865338044
 20
144.4644852966207
 30
0.0
 10
197.7025802630371
 20
144.878807736283
 30
0.0
 10
197.6253098447703
 20
145.0956864073946
 30
0.0
 10
197.5255437384452
 20
145.4257170297908
 30
0.0
 10
197.494930809543
 20
145.5365753333651
 30
0.0
 10
197.4400619356399
 20
145.7603331934527
 30
0.0
 10
197.415676714711
 20
145.8741221763009
 30
0.0
 10
197.3759973382126
 20
146.0973011569421
 30
0.0
 10
197.3605312589753
 20
146.2071562265468
 30
0.0
 10
197.3394349238928
 20
146.4229583277651
 30
0.0
 10
197.3339218577328
 20
146.5294347901986
 30
0.0
 10
197.3338549001105
 20
146.7287889981528
 30
0.0
 10
197.3391232074599
 20
146.8228588283473
 30
0.0
 10
197.359965734628
 20
147.000103724336
 30
0.0
 10
197.3756398478383
 20
147.0829907252891
 30
0.0
 10
197.4349587780158
 20
147.3075954539199
 30
0.0
 10
197.4919786135299
 20
147.4299382690566
 30
0.0
 10
197.6908135021737
 20
147.7201453736203
 30
0.0
 10
197.8620837074058
 20
147.8220847384922
 30
0.0
 10
198.0463882207122
 20
147.8723149461187
 30
0.0
  0
LINE
  5
126
330
1F
100
AcDbEntity
  8
0
  6
HIDDEN
 62
     7
370
    18
100
AcDbLine
 10
151.5713892757
 20
152.7280645411
 30
0.0
 11
151.5713892757
 21
151.8682507764
 31
0.0
  0
LINE
  5
127
330
1F
100
AcDbEntity
  8
0
  6
HIDDEN
 62
     7
370
    18
100
AcDbLine
 10
151.5713892757
 20
111.2102741341
 30
0.0
 11
151.5713892757
 21
110.3502741049
 31
0.0
  0
LINE
  5
128
330
1F
100
AcDbEntity
  8
0
  6
HIDDEN
 62
     7
370
    18
100
AcDbLine
 10
160.2468211084
 20
109.4605592976
 30
0.0
 11
159.8056610554
 21
109.583994929
 31
0.0
  0
LWPOLYLINE
  5
129
330
1F
100
AcDbEntity
  8
0
  6
HIDDEN
 62
     7
370
    18
100
AcDbPolyline
 90
        3
 70
   128
 43
0.0
 10
160.2468602239
 20
153.6179581623
 10
161.5832745909
 20
153.6893906037
 10
163.5955795526
 20
153.7969006191
  0
LINE
  5
12A
330
1F
100
AcDbEntity
  8
0
  6
HIDDEN
 62
     7
370
    18
100
AcDbLine
 10
159.8047595351
 20
153.4942524473
 30
0.0
 11
160.2468658119
 21
153.6178519915
 31
0.0
  0
SPLINE
  5
12B
330
1F
100
AcDbEntity
  8
0
  6
HIDDEN
 62
     7
370
    18
100
AcDbSpline
210
0.0
220
0.0
230
1.0
 70
     8
 71
     3
 72
    10
 73
     6
 74
     0
 42
0.000000001
 43
0.00000001
 40
0.0
 40
0.0
 40
0.0
 40
0.0
 40
0.5
 40
0.5
 40
1.0
 40
1.0
 40
1.0
 40
1.0
 10
201.7963882207122
 20
149.0717302665411
 30
0.0
 10
202.0475811105837
 20
149.2511917394011
 30
0.0
 10
202.2948504222855
 20
149.4063400210918
 30
0.0
 10
202.7814717735963
 20
149.6625858151703
 30
0.0
 10
203.020855081313
 20
149.7639937562547
 30
0.0
 10
203.2555860252822
 20
149.8300094133095
 30
0.0
  0
SPLINE
  5
12C
330
1F
100
AcDbEntity
  8
0
  6
HIDDEN
 62
     7
370
    18
100
AcDbSpline
210
0.0
220
0.0
230
1.0
 70
     8
 71
     3
 72
    16
 73
    12
 74
     0
 42
0.000000001
 43
0.00000001
 40
0.0
 40
0.0
 40
0.0
 40
0.0
 40
0.1250000000000019
 40
0.1250000000000019
 40
0.2500000000000038
 40
0.2500000000000038
 40
0.5000000000000024
 40
0.5000000000000024
 40
0.7500000000000012
 40
0.7500000000000012
 40
1.0
 40
1.0
 40
1.0
 40
1.0
 10
198.0463882207122
 20
147.823375934402
 30
0.0
 10
198.0463882207122
 20
147.7833468842482
 30
0.0
 10
198.0561607843518
 20
147.7553996357835
 30
0.0
 10
198.0903568297522
 20
147.7209085681772
 30
0.0
 10
198.1145420214631
 20
147.7138696873947
 30
0.0
 10
198.2022586855594
 20
147.712785841694
 30
0.0
 10
198.2789688514088
 20
147.7373450557099
 30
0.0
 10
198.4580509516498
 20
147.8081787682142
 30
0.0
 10
198.5589337212696
 20
147.8543921622654
 30
0.0
 10
198.7877452195326
 20
147.9640291976627
 30
0.0
 10
198.9120428279675
 20
148.0257781586586
 30
0.0
 10
199.0463882207122
 20
148.0958619781272
 30
0.0
  0
LINE
  5
12D
330
1F
100
AcDbEntity
  8
0
  6
HIDDEN
 62
     7
370
    18
100
AcDbLine
 10
198.0463880926
 20
148.5066512565
 30
0.0
 11
198.0463880926
 21
147.8233752738
 31
0.0
  0
SPLINE
  5
12E
330
1F
100
AcDbEntity
  8
0
  6
HIDDEN
 62
     7
370
    18
100
AcDbSpline
210
0.0
220
0.0
230
1.0
 70
     8
 71
     3
 72
    14
 73
    10
 74
     0
 42
0.000000001
 43
0.00000001
 40
0.0
 40
0.0
 40
0.0
 40
0.0
 40
0.0003951393068452
 40
0.0003951393068452
 40
0.0003951393068452
 40
0.0008163352168664
 40
0.0008163352168664
 40
0.0008163352168664
 40
0.0012378579337219
 40
0.0012378579337219
 40
0.0012378579337219
 40
0.0012378579337219
 10
164.5018320951114
 20
138.576710850198
 30
0.0
 10
164.6303466547401
 20
138.5767817190811
 30
0.0
 10
164.7589149829413
 20
138.5751747093551
 30
0.0
 10
164.8874694020999
 20
138.5718734877426
 30
0.0
 10
165.0244993435893
 20
138.5683546184004
 30
0.0
 10
165.1615388446695
 20
138.5629099889776
 30
0.0
 10
165.2985015062239
 20
138.5555201457315
 30
0.0
 10
165.435570239973
 20
138.5481245793424
 30
0.0
 10
165.5725886824565
 20
138.5387791751422
 30
0.0
 10
165.7094649000312
 20
138.5274669012985
 30
0.0
  0
SPLINE
  5
12F
330
1F
100
AcDbEntity
  8
0
  6
HIDDEN
 62
     7
370
    18
100
AcDbSpline
210
0.0
220
0.0
230
1.0
 70
     8
 71
     3
 72
    54
 73
    50
 74
     0
 42
0.000000001
 43
0.00000001
 40
0.0
 40
0.0
 40
0.0
 40
0.0
 40
0.0625
 40
0.0625
 40
0.0937500000000003
 40
0.0937500000000003
 40
0.1250000000000005
 40
0.1250000000000005
 40
0.1562500000000007
 40
0.1562500000000007
 40
0.187500000000001
 40
0.187500000000001
 40
0.2500000000000015
 40
0.2500000000000015
 40
0.2812500000000015
 40
0.2812500000000015
 40
0.3125000000000013
 40
0.3125000000000013
 40
0.3750000000000013
 40
0.3750000000000013
 40
0.4062500000000013
 40
0.4062500000000013
 40
0.4375000000000013
 40
0.4375000000000013
 40
0.4687500000000013
 40
0.4687500000000013
 40
0.5000000000000013
 40
0.5000000000000013
 40
0.5625000000000013
 40
0.5625000000000013
 40
0.5937500000000013
 40
0.5937500000000013
 40
0.6250000000000013
 40
0.6250000000000013
 40
0.6562500000000012
 40
0.6562500000000012
 40
0.6875000000000011
 40
0.6875000000000011
 40
0.7500000000000009
 40
0.7500000000000009
 40
0.8125000000000007
 40
0.8125000000000007
 40
0.8750000000000006
 40
0.8750000000000006
 40
0.9375000000000003
 40
0.9375000000000003
 40
0.9687500000000002
 40
0.9687500000000002
 40
1.0
 40
1.0
 40
1.0
 40
1.0
 10
164.4904364678253
 20
138.5767001690745
 30
0.0
 10
164.0064309006508
 20
138.5759399086453
 30
0.0
 10
163.5231017365823
 20
138.5419900340491
 30
0.0
 10
162.7992983901985
 20
138.4321647291299
 30
0.0
 10
162.5586506677675
 20
138.3856032049264
 30
0.0
 10
162.0873360496141
 20
138.2731184152467
 30
0.0
 10
161.8555145997913
 20
138.2070443832518
 30
0.0
 10
161.3998370297547
 20
138.0541984032342
 30
0.0
 10
161.1759798595663
 20
137.9674299599399
 30
0.0
 10
160.7366707369696
 20
137.7716780577265
 30
0.0
 10
160.5199643190311
 20
137.6619406576706
 30
0.0
 10
159.8935716976927
 20
137.3022720740419
 30
0.0
 10
159.5091382932444
 20
137.0238902350589
 30
0.0
 10
158.9815192941988
 20
136.5465665908351
 30
0.0
 10
158.8138566796489
 20
136.3774508036524
 30
0.0
 10
158.4953879998951
 20
136.0181676716061
 30
0.0
 10
158.3457440631587
 20
135.8290692999512
 30
0.0
 10
157.932558051013
 20
135.2440369451743
 30
0.0
 10
157.7008898720181
 20
134.8267158274487
 30
0.0
 10
157.4173825861335
 20
134.1590834628638
 30
0.0
 10
157.3337337938119
 20
133.9292420038018
 30
0.0
 10
157.191645313616
 20
133.4665270229781
 30
0.0
 10
157.1325741411483
 20
133.232311286685
 30
0.0
 10
157.037686310314
 20
132.7582581037705
 30
0.0
 10
157.0018694970742
 20
132.5184208242456
 30
0.0
 10
156.9537178759544
 20
132.0330251435077
 30
0.0
 10
156.9414907022176
 20
131.7863737184745
 30
0.0
 10
156.9411847502049
 20
131.0542642091402
 30
0.0
 10
156.9881463776086
 20
130.5720491185498
 30
0.0
 10
157.12987599929
 20
129.8574885835829
 30
0.0
 10
157.1896032019728
 20
129.6193560799146
 30
0.0
 10
157.3317578515636
 20
129.1548346258326
 30
0.0
 10
157.4140121400583
 20
128.928329646572
 30
0.0
 10
157.6007336137062
 20
128.486568316251
 30
0.0
 10
157.705202030746
 20
128.2713129741811
 30
0.0
 10
157.9370114829566
 20
127.852155266988
 30
0.0
 10
158.0650051280935
 20
127.6473452450769
 30
0.0
 10
158.4809407692524
 20
127.0569767302263
 30
0.0
 10
158.7957726302602
 20
126.7011594040418
 30
0.0
 10
159.5003268626616
 20
126.0612809024717
 30
0.0
 10
159.8943091788821
 20
125.7759207779333
 30
0.0
 10
160.723905249467
 20
125.2991954485067
 30
0.0
 10
161.1624371346269
 20
125.1041308169645
 30
0.0
 10
162.0850784274929
 20
124.7941095041772
 30
0.0
 10
162.5582897919178
 20
124.6829755085869
 30
0.0
 10
163.2777372340642
 20
124.5735943294979
 30
0.0
 10
163.5195130828797
 20
124.5466484124141
 30
0.0
 10
164.0068036023334
 20
124.5107939279309
 30
0.0
 10
164.2526049656468
 20
124.5019659763591
 30
0.0
 10
164.4962509360771
 20
124.5017185018519
 30
0.0
  0
SPLINE
  5
130
330
1F
100
AcDbEntity
  8
0
  6
HIDDEN
 62
     7
370
    18
100
AcDbSpline
210
0.0
220
0.0
230
1.0
 70
     8
 71
     3
 72
    14
 73
    10
 74
     0
 42
0.000000001
 43
0.00000001
 40
0.0
 40
0.0
 40
0.0
 40
0.0
 40
0.0003951407686718
 40
0.0003951407686718
 40
0.0003951407686718
 40
0.0008159291550368
 40
0.0008159291550368
 40
0.0008159291550368
 40
0.0012370378119314
 40
0.0012370378119314
 40
0.0012370378119314
 40
0.0012370378119314
 10
165.7117388309768
 20
124.5512020360032
 30
0.0
 10
165.5834412918512
 20
124.5405763693147
 30
0.0
 10
165.4550191777622
 20
124.5316775359123
 30
0.0
 10
165.3265480339665
 20
124.5244916378931
 30
0.0
 10
165.1897395471742
 20
124.516839399381
 30
0.0
 10
165.0528498181872
 20
124.5111280907126
 30
0.0
 10
164.9159648991898
 20
124.5073385835555
 30
0.0
 10
164.7789756425469
 20
124.5035461879263
 30
0.0
 10
164.6419651315518
 20
124.5016776789391
 30
0.0
 10
164.5050150114293
 20
124.5017136034115
 30
0.0
  0
SPLINE
  5
131
330
1F
100
AcDbEntity
  8
0
  6
HIDDEN
 62
     7
370
    18
100
AcDbSpline
210
0.0
220
0.0
230
1.0
 70
     8
 71
     3
 72
    14
 73
    10
 74
     0
 42
0.000000001
 43
0.00000001
 40
0.0
 40
0.0
 40
0.0
 40
0.0
 40
0.25
 40
0.25
 40
0.5
 40
0.5
 40
0.75
 40
0.75
 40
1.0
 40
1.0
 40
1.0
 40
1.0
 10
200.7963882207122
 20
148.5669307044008
 30
0.0
 10
200.9296176717355
 20
148.5747795362103
 30
0.0
 10
201.0613190343457
 20
148.5900949931555
 30
0.0
 10
201.3043966925628
 20
148.6356932035856
 30
0.0
 10
201.4153026331114
 20
148.6661339563464
 30
0.0
 10
201.5979997061891
 20
148.7419884674085
 30
0.0
 10
201.6713872356707
 20
148.7881735744015
 30
0.0
 10
201.770221514589
 20
148.8950012394018
 30
0.0
 10
201.7963882207122
 20
148.9563973147564
 30
0.0
 10
201.7963882207122
 20
149.0225350787443
 30
0.0
  0
LINE
  5
132
330
1F
100
AcDbEntity
  8
0
  6
HIDDEN
 62
     7
370
    18
100
AcDbLine
 10
201.7963882416
 20
149.4773538749
 30
0.0
 11
201.7963882416
 21
149.022535045
 31
0.0
  0
SPLINE
  5
133
330
1F
100
AcDbEntity
  8
0
  6
HIDDEN
 62
     7
370
    18
100
AcDbSpline
210
0.0
220
0.0
230
1.0
 70
     8
 71
     3
 72
    10
 73
     6
 74
     0
 42
0.000000001
 43
0.00000001
 40
0.0
 40
0.0
 40
0.0
 40
0.0
 40
0.5
 40
0.5
 40
1.0
 40
1.0
 40
1.0
 40
1.0
 10
199.0463882207122
 20
148.0958619781272
 30
0.0
 10
199.3092077350679
 20
148.232966757239
 30
0.0
 10
199.5875605996756
 20
148.3402310146033
 30
0.0
 10
200.174557187061
 20
148.4983794570333
 30
0.0
 10
200.4839408769393
 20
148.548523763355
 30
0.0
 10
200.7963882207122
 20
148.5669307044008
 30
0.0
  0
LWPOLYLINE
  5
134
330
1F
100
AcDbEntity
  8
0
  6
HIDDEN
 62
     7
370
    18
100
AcDbPolyline
 90
       22
 70
   128
 43
0.0
 10
273.6567556738
 20
124.485142153
 10
273.6286967873
 20
124.4080523926
 10
273.5451832294
 20
124.1785903427
 10
273.4081670522
 20
123.8021348569
 10
273.220859456
 20
123.2875088195
 10
272.9876488327
 20
122.646775652
 10
272.7140039086
 20
121.8949524651
 10
272.406347084
 20
121.0496617447
 10
272.0718756198
 20
120.1307173784
 10
271.718442428
 20
119.1596571322
 10
271.3543176531
 20
118.159243461
 10
270.988047111
 20
117.1529233421
 10
270.6282138705
 20
116.1642853136
 10
270.2832519888
 20
115.2165016125
 10
269.9612378954
 20
114.3317880075
 10
269.6697339296
 20
113.5308822583
 10
269.4155648231
 20
112.8325542401
 10
269.2046835899
 20
112.2531747411
 10
269.042044866
 20
111.8063224445
 10
268.9314558982
 20
111.5024728666
 10
268.8755020379
 20
111.3487468998
 10
268.8684761404
 20
111.3294461708
  0
LWPOLYLINE
  5
135
330
1F
100
AcDbEntity
  8
0
  6
HIDDEN
 62
     7
370
    18
100
AcDbPolyline
 90
       21
 70
   128
 43
0.0
 10
265.7971978068
 20
126.2816103141
 10
265.7692059755
 20
126.2047133374
 10
265.6860053419
 20
125.9761197458
 10
265.5498608827
 20
125.6020647439
 10
265.3644904374
 20
125.0927519019
 10
265.1349380492
 20
124.4620737585
 10
264.867477107
 20
123.7272337045
 10
264.569401729
 20
122.9082761298
 10
264.2488404988
 20
122.0275402035
 10
263.914540398
 20
121.1090503226
 10
263.5756134867
 20
120.1778599958
 10
263.2413133859
 20
119.2593691836
 10
262.9207521557
 20
118.3786332573
 10
262.6226693272
 20
117.5596756826
 10
262.3552158355
 20
116.8248360942
 10
262.1256634473
 20
116.1941574852
 10
261.9402930021
 20
115.6848451088
 10
261.8041485428
 20
115.3107905726
 10
261.7209404587
 20
115.082195584
 10
261.692956078
 20
115.0053000043
 10
261.692956078
 20
115.0053000043
  0
LINE
  5
136
330
1F
100
AcDbEntity
  8
0
  6
HIDDEN
 62
     7
370
    18
100
AcDbLine
 10
215.0213885932
 20
141.5392128716
 30
0.0
 11
275.0213891148
 21
141.5392128716
 31
0.0
  0
LINE
  5
137
330
1F
100
AcDbEntity
  8
0
  6
HIDDEN
 62
     7
370
    18
100
AcDbLine
 10
215.0213885932
 20
141.5392128716
 30
0.0
 11
215.0213885932
 21
161.5392124246
 31
0.0
  0
LINE
  5
138
330
1F
100
AcDbEntity
  8
0
  6
HIDDEN
 62
     7
370
    18
100
AcDbLine
 10
210.771387431
 20
141.5392128716
 30
0.0
 11
215.0213885932
 21
141.5392128716
 31
0.0
  0
CIRCLE
  5
139
330
1F
100
AcDbEntity
  8
0
  6
HIDDEN
 62
     7
370
    18
100
AcDbCircle
 10
225.0213882207
 20
111.5392130951
 30
0.0
 40
4.250000000000014
  0
CIRCLE
  5
13A
330
1F
100
AcDbEntity
  8
0
  6
HIDDEN
 62
     7
370
    18
100
AcDbCircle
 10
255.0213882207
 20
111.5392130951
 30
0.0
 40
4.250000000000014
  0
LINE
  5
13B
330
1F
100
AcDbEntity
  8
0
  6
HIDDEN
 62
     7
370
    18
100
AcDbLine
 10
150.8230529606
 20
115.7761892269
 30
0.0
 11
150.8230529606
 21
147.3022369634
 31
0.0
  0
LINE
  5
13C
330
1F
100
AcDbEntity
  8
0
  6
HIDDEN
 62
     7
370
    18
100
AcDbLine
 10
184.0213881686
 20
114.089213867
 30
0.0
 11
184.0213881686
 21
148.9892123233
 31
0.0
  0
LINE
  5
13D
330
1F
100
AcDbEntity
  8
0
  6
HIDDEN
 62
     7
370
    18
100
AcDbLine
 10
180.5213885262
 20
113.9017125557
 30
0.0
 11
180.5213885262
 21
149.1767136346
 31
0.0
  0
LINE
  5
13E
330
1F
100
AcDbEntity
  8
0
  6
HIDDEN
 62
     7
370
    18
100
AcDbLine
 10
159.3713890641
 20
147.2260715406
 30
0.0
 11
158.5213877141
 21
147.2260715406
 31
0.0
  0
SPLINE
  5
13F
330
1F
100
AcDbEntity
  8
0
  6
HIDDEN
 62
     7
370
    18
100
AcDbSpline
210
0.0
220
0.0
230
1.0
 70
     8
 71
     3
 72
    22
 73
    18
 74
     0
 42
0.000000001
 43
0.00000001
 40
0.0
 40
0.0
 40
0.0
 40
0.0
 40
0.125
 40
0.125
 40
0.25
 40
0.25
 40
0.375
 40
0.375
 40
0.5
 40
0.5
 40
0.625
 40
0.625
 40
0.75
 40
0.75
 40
0.875
 40
0.875
 40
1.0
 40
1.0
 40
1.0
 40
1.0
 10
168.0213882207122
 20
147.148064750539
 30
0.0
 10
168.2944229320843
 20
147.148064750539
 30
0.0
 10
168.5619226971099
 20
147.1627015029801
 30
0.0
 10
169.0865641769259
 20
147.2185439942781
 30
0.0
 10
169.3461493638444
 20
147.2604819833192
 30
0.0
 10
169.833405137984
 20
147.3643965043433
 30
0.0
 10
170.0633544322057
 20
147.4263512459476
 30
0.0
 10
170.4972098297351
 20
147.5661413888742
 30
0.0
 10
170.6963623040227
 20
147.6425111826523
 30
0.0
 10
171.0568684087499
 20
147.801762658567
 30
0.0
 10
171.2204487012227
 20
147.8858028179148
 30
0.0
 10
171.5033807214203
 20
148.0534618897506
 30
0.0
 10
171.6228397213697
 20
148.136827388817
 30
0.0
 10
171.8182884308287
 20
148.3001581484466
 30
0.0
 10
171.894349941044
 20
148.3806657652191
 30
0.0
 10
171.9953693534351
 20
148.5308412700273
 30
0.0
 10
172.0213882207122
 20
148.6011570391438
 30
0.0
 10
172.0213882207122
 20
148.666275014812
 30
0.0
  0
LINE
  5
140
330
1F
100
AcDbEntity
  8
0
  6
HIDDEN
 62
     7
370
    18
100
AcDbLine
 10
166.1065146207
 20
147.148064893
 30
0.0
 11
168.0213883399
 21
147.148064893
 31
0.0
  0
SPLINE
  5
141
330
1F
100
AcDbEntity
  8
0
  6
HIDDEN
 62
     7
370
    18
100
AcDbSpline
210
0.0
220
0.0
230
1.0
 70
     8
 71
     3
 72
     8
 73
     4
 74
     0
 42
0.000000001
 43
0.00000001
 40
0.0
 40
0.0
 40
0.0
 40
0.0
 40
1.0
 40
1.0
 40
1.0
 40
1.0
 10
165.0213882207122
 20
147.2260706517144
 30
0.0
 10
165.3744458614685
 20
147.1749261304422
 30
0.0
 10
165.7360252104082
 20
147.148064750539
 30
0.0
 10
166.1065149414227
 20
147.148064750539
 30
0.0
  0
LINE
  5
142
330
1F
100
AcDbEntity
  8
0
  6
HIDDEN
 62
     7
370
    18
100
AcDbLine
 10
159.3713890641
 20
147.2260715406
 30
0.0
 11
165.0213878482
 21
147.2260715406
 31
0.0
  0
SPLINE
  5
143
330
1F
100
AcDbEntity
  8
0
  6
HIDDEN
 62
     7
370
    18
100
AcDbSpline
210
0.0
220
0.0
230
1.0
 70
     8
 71
     3
 72
    18
 73
    14
 74
     0
 42
0.000000001
 43
0.00000001
 40
0.0
 40
0.0
 40
0.0
 40
0.0
 40
0.2499999999999984
 40
0.2499999999999984
 40
0.3749999999999977
 40
0.3749999999999977
 40
0.499999999999997
 40
0.499999999999997
 40
0.6249999999999963
 40
0.6249999999999963
 40
0.7499999999999956
 40
0.7499999999999956
 40
1.0
 40
1.0
 40
1.0
 40
1.0
 10
155.908731184562
 20
146.0263731429284
 30
0.0
 10
156.2778789610916
 20
146.0263731429284
 30
0.0
 10
156.63593028938
 20
146.06151715112
 30
0.0
 10
157.1577362084726
 20
146.1604545613454
 30
0.0
 10
157.3273274389506
 20
146.2009666718381
 30
0.0
 10
157.6512144401414
 20
146.2931740124602
 30
0.0
 10
157.8067279203842
 20
146.3450972044469
 30
0.0
 10
158.1056913653716
 20
146.4589134355666
 30
0.0
 10
158.2490995231424
 20
146.5209091119806
 30
0.0
 10
158.5173879180379
 20
146.6501116358522
 30
0.0
 10
158.6433037468746
 20
146.7176904833208
 30
0.0
 10
158.997791579696
 20
146.9273434671178
 30
0.0
 10
159.2030541784164
 20
147.0764668324854
 30
0.0
 10
159.3713882207122
 20
147.2260706517144
 30
0.0
  0
LINE
  5
144
330
1F
100
AcDbEntity
  8
0
  6
HIDDEN
 62
     7
370
    18
100
AcDbLine
 10
153.0713885903
 20
146.0263734649
 30
0.0
 11
155.9087298691
 21
146.0263734649
 31
0.0
  0
LINE
  5
145
330
1F
100
AcDbEntity
  8
0
  6
HIDDEN
 62
     7
370
    18
100
AcDbLine
 10
155.9087298691
 20
117.0520527254
 30
0.0
 11
153.0713885903
 21
117.0520527254
 31
0.0
  0
SPLINE
  5
146
330
1F
100
AcDbEntity
  8
0
  6
HIDDEN
 62
     7
370
    18
100
AcDbSpline
210
0.0
220
0.0
230
1.0
 70
     8
 71
     3
 72
    16
 73
    12
 74
     0
 42
0.000000001
 43
0.00000001
 40
0.0
 40
0.0
 40
0.0
 40
0.0
 40
0.2499999999999979
 40
0.2499999999999979
 40
0.4999999999999959
 40
0.4999999999999959
 40
0.6249999999999969
 40
0.6249999999999969
 40
0.7499999999999978
 40
0.7499999999999978
 40
1.0
 40
1.0
 40
1.0
 40
1.0
 10
159.3713882207122
 20
115.8523555385819
 30
0.0
 10
159.2025205024108
 20
116.0024336526568
 30
0.0
 10
159.0004576094299
 20
116.1492878101775
 30
0.0
 10
158.5280147854479
 20
116.4291361007082
 30
0.0
 10
158.254839170722
 20
116.5625898413185
 30
0.0
 10
157.8101710968722
 20
116.7320883380583
 30
0.0
 10
157.6553038180619
 20
116.783963792585
 30
0.0
 10
157.3309827249529
 20
116.8765401464616
 30
0.0
 10
157.1597120334977
 20
116.9175301147846
 30
0.0
 10
156.6382728270681
 20
117.0165974494802
 30
0.0
 10
156.2796115170212
 20
117.0520530473679
 30
0.0
 10
155.908731184562
 20
117.0520530473679
 30
0.0
  0
LINE
  5
147
330
1F
100
AcDbEntity
  8
0
  6
HIDDEN
 62
     7
370
    18
100
AcDbLine
 10
165.0213878482
 20
115.8523546497
 30
0.0
 11
159.3713890641
 21
115.8523546497
 31
0.0
  0
SPLINE
  5
148
330
1F
100
AcDbEntity
  8
0
  6
HIDDEN
 62
     7
370
    18
100
AcDbSpline
210
0.0
220
0.0
230
1.0
 70
     8
 71
     3
 72
     8
 73
     4
 74
     0
 42
0.000000001
 43
0.00000001
 40
0.0
 40
0.0
 40
0.0
 40
0.0
 40
1.0
 40
1.0
 40
1.0
 40
1.0
 10
166.1065149414227
 20
115.9303614397572
 30
0.0
 10
165.7360252104082
 20
115.9303614397572
 30
0.0
 10
165.3744458614685
 20
115.903500059854
 30
0.0
 10
165.0213882207122
 20
115.8523555385819
 30
0.0
  0
LINE
  5
149
330
1F
100
AcDbEntity
  8
0
  6
HIDDEN
 62
     7
370
    18
100
AcDbLine
 10
168.0213883399
 20
115.9303612973
 30
0.0
 11
166.1065146207
 21
115.9303612973
 31
0.0
  0
SPLINE
  5
14A
330
1F
100
AcDbEntity
  8
0
  6
HIDDEN
 62
     7
370
    18
100
AcDbSpline
210
0.0
220
0.0
230
1.0
 70
     8
 71
     3
 72
    22
 73
    18
 74
     0
 42
0.000000001
 43
0.00000001
 40
0.0
 40
0.0
 40
0.0
 40
0.0
 40
0.125
 40
0.125
 40
0.2500000000000001
 40
0.2500000000000001
 40
0.3750000000000001
 40
0.3750000000000001
 40
0.5000000000000001
 40
0.5000000000000001
 40
0.6250000000000001
 40
0.6250000000000001
 40
0.7500000000000002
 40
0.7500000000000002
 40
0.8750000000000002
 40
0.8750000000000002
 40
1.0
 40
1.0
 40
1.0
 40
1.0
 10
172.0213882207122
 20
114.4121511754843
 30
0.0
 10
172.0213882207122
 20
114.4773334730296
 30
0.0
 10
171.9953247620803
 20
114.547543625643
 30
0.0
 10
171.8949041833886
 20
114.697043528129
 30
0.0
 10
171.8195705986612
 20
114.7771041056244
 30
0.0
 10
171.6231651365065
 20
114.9414185744289
 30
0.0
 10
171.5034327068349
 20
115.0248973619
 30
0.0
 10
171.2216012038806
 20
115.1919764047563
 30
0.0
 10
171.0575141043393
 20
115.2763609928097
 30
0.0
 10
170.696517342876
 20
115.435863788435
 30
0.0
 10
170.4992334155801
 20
115.5114875627862
 30
0.0
 10
170.0690360398788
 20
115.6503869577736
 30
0.0
 10
169.8344186898635
 20
115.7137414356902
 30
0.0
 10
169.349181130763
 20
115.8173691344894
 30
0.0
 10
169.096178595656
 20
115.8585853315904
 30
0.0
 10
168.5674453734422
 20
115.9154026501213
 30
0.0
 10
168.294775271689
 20
115.9303614397572
 30
0.0
 10
168.0213882207122
 20
115.9303614397572
 30
0.0
  0
LINE
  5
14B
330
1F
100
AcDbEntity
  8
0
  6
HIDDEN
 62
     7
370
    18
100
AcDbLine
 10
158.5213877141
 20
115.8523546497
 30
0.0
 11
159.3713890641
 21
115.8523546497
 31
0.0
  0
SPLINE
  5
14C
330
1F
100
AcDbEntity
  8
0
  6
HIDDEN
 62
     7
370
    18
100
AcDbSpline
210
0.0
220
0.0
230
1.0
 70
     8
 71
     3
 72
     8
 73
     4
 74
     0
 42
0.000000001
 43
0.00000001
 40
0.0
 40
0.0
 40
0.0
 40
0.0
 40
1.0
 40
1.0
 40
1.0
 40
1.0
 10
157.4362615000016
 20
115.9303614397572
 30
0.0
 10
157.8067512310162
 20
115.9303614397572
 30
0.0
 10
158.1683305799559
 20
115.903500059854
 30
0.0
 10
158.5213882207122
 20
115.8523555385819
 30
0.0
  0
LINE
  5
14D
330
1F
100
AcDbEntity
  8
0
  6
HIDDEN
 62
     7
370
    18
100
AcDbLine
 10
153.0713885903
 20
115.9303612973
 30
0.0
 11
157.4362628042
 21
115.9303612973
 31
0.0
  0
LINE
  5
14E
330
1F
100
AcDbEntity
  8
0
  6
HIDDEN
 62
     7
370
    18
100
AcDbLine
 10
153.0713885903
 20
147.148064893
 30
0.0
 11
153.0713885903
 21
146.0263734649
 31
0.0
  0
LINE
  5
14F
330
1F
100
AcDbEntity
  8
0
  6
HIDDEN
 62
     7
370
    18
100
AcDbLine
 10
153.0713885903
 20
117.0520527254
 30
0.0
 11
153.0713885903
 21
115.9303612973
 31
0.0
  0
LINE
  5
150
330
1F
100
AcDbEntity
  8
0
  6
HIDDEN
 62
     7
370
    18
100
AcDbLine
 10
157.4362628042
 20
147.148064893
 30
0.0
 11
153.0713885903
 21
147.148064893
 31
0.0
  0
SPLINE
  5
151
330
1F
100
AcDbEntity
  8
0
  6
HIDDEN
 62
     7
370
    18
100
AcDbSpline
210
0.0
220
0.0
230
1.0
 70
     8
 71
     3
 72
     8
 73
     4
 74
     0
 42
0.000000001
 43
0.00000001
 40
0.0
 40
0.0
 40
0.0
 40
0.0
 40
1.0
 40
1.0
 40
1.0
 40
1.0
 10
158.5213882207122
 20
147.2260706517144
 30
0.0
 10
158.1683305799559
 20
147.1749261304422
 30
0.0
 10
157.8067512310162
 20
147.148064750539
 30
0.0
 10
157.4362615000016
 20
147.148064750539
 30
0.0
  0
SPLINE
  5
152
330
1F
100
AcDbEntity
  8
0
  6
HIDDEN
 62
     7
370
    18
100
AcDbSpline
210
0.0
220
0.0
230
1.0
 70
     8
 71
     3
 72
    39
 73
    35
 74
     0
 42
0.000000001
 43
0.00000001
 40
0.0
 40
0.0
 40
0.0
 40
0.0
 40
0.0031319367503712
 40
0.0538887054964734
 40
0.1033129216545128
 40
0.1527482555919561
 40
0.2035217697198827
 40
0.253333724481293
 40
0.3031081835749487
 40
0.3524072310266627
 40
0.4015637603196126
 40
0.4509647913060285
 40
0.4994182690671212
 40
0.5481639202548134
 40
0.5975398541359643
 40
0.6465133075432321
 40
0.6962476223493352
 40
0.7141487072106204
 40
0.731895971848368
 40
0.7495711538888206
 40
0.767256992307738
 40
0.7850360790240832
 40
0.803181171635974
 40
0.8214230677887541
 40
0.8393699710033142
 40
0.857120154796557
 40
0.8747751798592874
 40
0.8924382496951774
 40
0.9101334188926604
 40
0.9277968854337912
 40
0.9455270993119764
 40
0.9634267356591977
 40
0.9815955959478292
 40
1.0
 40
1.0
 40
1.0
 40
1.0
 10
164.5015322774487
 20
124.5038727891551
 30
0.0
 10
164.5311422308551
 20
124.4915812413035
 30
0.0
 10
165.0406167784147
 20
124.2800905072746
 30
0.0
 10
166.066170512504
 20
123.9697313439458
 30
0.0
 10
167.621296395021
 20
123.8170605615417
 30
0.0
 10
169.1778521980058
 20
123.9676677030618
 30
0.0
 10
170.6643810391929
 20
124.4192014073592
 30
0.0
 10
172.0345091792037
 20
125.1255164467646
 30
0.0
 10
173.2183501919581
 20
126.0734655970907
 30
0.0
 10
174.1947792353936
 20
127.2265978658205
 30
0.0
 10
174.9249048046106
 20
128.5574906515278
 30
0.0
 10
175.3920301971946
 20
130.0098138934187
 30
0.0
 10
175.5486038609835
 20
131.5345023127319
 30
0.0
 10
175.3958952229861
 20
133.0592264957069
 30
0.0
 10
174.934879791303
 20
134.5146749335607
 30
0.0
 10
174.2025965040203
 20
135.8473024769887
 30
0.0
 10
173.4314689612444
 20
136.7532710531961
 30
0.0
 10
172.7919949571443
 20
137.3353017074435
 30
0.0
 10
172.3673120579766
 20
137.6699494193132
 30
0.0
 10
171.921209522264
 20
137.9730934600798
 30
0.0
 10
171.4536096002396
 20
138.2452448380185
 30
0.0
 10
170.9627819060393
 20
138.4876721649712
 30
0.0
 10
170.450186284022
 20
138.7001730411659
 30
0.0
 10
169.9211675971675
 20
138.8794461319879
 30
0.0
 10
169.3830743386212
 20
139.0212771281359
 30
0.0
 10
168.8407147049938
 20
139.1245791546522
 30
0.0
 10
168.2941220679567
 20
139.1896565309249
 30
0.0
 10
167.7441821771275
 20
139.2166540752438
 30
0.0
 10
167.1934579776927
 20
139.2060346394176
 30
0.0
 10
166.64458060855
 20
139.1572665180056
 30
0.0
 10
166.099305827456
 20
139.070376548867
 30
0.0
 10
165.5581120335072
 20
138.9443304045675
 30
0.0
 10
165.0208909545888
 20
138.7820811567209
 30
0.0
 10
164.6725777094387
 20
138.6435985424972
 30
0.0
 10
164.497299461352
 20
138.5739112987602
 30
0.0
  0
LINE
  5
153
330
1F
100
AcDbEntity
  8
0
  6
HIDDEN
 62
     7
370
    18
100
AcDbLine
 10
153.0713885903
 20
117.0520527254
 30
0.0
 11
153.0713885903
 21
146.0263734649
 31
0.0
  0
ELLIPSE
  5
154
330
1F
100
AcDbEntity
  8
0
  6
HIDDEN
 62
     7
370
    18
100
AcDbEllipse
 10
233.0195936516
 20
131.5392130951
 30
0.0
 11
5.000000000000085
 21
0.0
 31
0.0
210
0.0
220
0.0
230
1.0
 40
0.3940053768
 41
5.739503076799589
 42
6.243164483403407
  0
SPLINE
  5
155
330
1F
100
AcDbEntity
  8
0
  6
HIDDEN
 62
     7
370
    18
100
AcDbSpline
210
0.0
220
0.0
230
1.0
 70
     8
 71
     3
 72
    14
 73
    10
 74
     0
 42
0.000000001
 43
0.00000001
 40
0.0
 40
0.0
 40
0.0
 40
0.0
 40
0.25
 40
0.25
 40
0.5
 40
0.5
 40
0.75
 40
0.75
 40
1.0
 40
1.0
 40
1.0
 40
1.0
 10
238.0155900201817
 20
131.6180341491373
 30
0.0
 10
238.0250713238202
 20
131.602678734606
 30
0.0
 10
238.0344927872747
 20
131.5872259478115
 30
0.0
 10
238.0518700962417
 20
131.555918617111
 30
0.0
 10
238.0613254356229
 20
131.5390778185157
 30
0.0
 10
238.0611593308952
 20
131.5093705815773
 30
0.0
 10
238.0516856121484
 20
131.4990395030418
 30
0.0
 10
238.034377986812
 20
131.4792386418931
 30
0.0
 10
238.0250192249814
 20
131.469853244005
 30
0.0
 10
238.0155900201817
 20
131.460392041159
 30
0.0
  0
ELLIPSE
  5
156
330
1F
100
AcDbEntity
  8
0
  6
HIDDEN
 62
     7
370
    18
100
AcDbEllipse
 10
233.0195936516
 20
131.5392130951
 30
0.0
 11
5.000000000000085
 21
0.0
 31
0.0
210
0.0
220
0.0
230
1.0
 40
0.3940053768
 41
0.0400208237762292
 42
0.5436822303797977
  0
SPLINE
  5
157
330
1F
100
AcDbEntity
  8
0
  6
HIDDEN
 62
     7
370
    18
100
AcDbSpline
210
0.0
220
0.0
230
1.0
 70
     8
 71
     3
 72
    50
 73
    46
 74
     0
 42
0.000000001
 43
0.00000001
 40
0.0
 40
0.0
 40
0.0
 40
0.0
 40
0.0625000000000004
 40
0.0625000000000004
 40
0.1250000000000007
 40
0.1250000000000007
 40
0.1562500000000006
 40
0.1562500000000006
 40
0.1875000000000005
 40
0.1875000000000005
 40
0.2187500000000004
 40
0.2187500000000004
 40
0.2500000000000003
 40
0.2500000000000003
 40
0.2812500000000002
 40
0.2812500000000002
 40
0.3125000000000002
 40
0.3125000000000002
 40
0.3750000000000001
 40
0.3750000000000001
 40
0.4374999999999999
 40
0.4374999999999999
 40
0.4999999999999999
 40
0.4999999999999999
 40
0.5624999999999999
 40
0.5624999999999999
 40
0.6249999999999999
 40
0.6249999999999999
 40
0.6875
 40
0.6875
 40
0.75
 40
0.75
 40
0.8125
 40
0.8125
 40
0.84375
 40
0.84375
 40
0.8749999999999999
 40
0.8749999999999999
 40
0.9062499999999999
 40
0.9062499999999999
 40
0.9375
 40
0.9375
 40
0.96875
 40
0.96875
 40
1.0
 40
1.0
 40
1.0
 40
1.0
 10
237.2986421702127
 20
130.5201363518027
 30
0.0
 10
237.1626939462292
 20
130.2929445049574
 30
0.0
 10
237.033876674904
 20
130.0517782709754
 30
0.0
 10
236.7837340177975
 20
129.5606067487038
 30
0.0
 10
236.6678571021369
 20
129.3217427687323
 30
0.0
 10
236.5029915157234
 20
128.9890141910834
 30
0.0
 10
236.45050383431
 20
128.8842653813695
 30
0.0
 10
236.3488280460773
 20
128.6869922338788
 30
0.0
 10
236.2992483825964
 20
128.5937735574891
 30
0.0
 10
236.2048380435117
 20
128.4249569854037
 30
0.0
 10
236.1598959313188
 20
128.3490570143916
 30
0.0
 10
236.0733736732364
 20
128.2140847843875
 30
0.0
 10
236.031479819909
 20
128.1546628012683
 30
0.0
 10
235.9525371651644
 20
128.0563921701259
 30
0.0
 10
235.9153405813626
 20
128.0171894715566
 30
0.0
 10
235.8447075276496
 20
127.9585750429211
 30
0.0
 10
235.8110069382253
 20
127.9391257935964
 30
0.0
 10
235.7172425521595
 20
127.9131719892611
 30
0.0
 10
235.6641144834622
 20
127.9378892249719
 30
0.0
 10
235.5760876030697
 20
128.0745093099193
 30
0.0
 10
235.5428495534404
 20
128.1831640637194
 30
0.0
 10
235.4969896303301
 20
128.4843159213442
 30
0.0
 10
235.4856296913897
 20
128.6682995097703
 30
0.0
 10
235.4856909292575
 20
129.1041675654471
 30
0.0
 10
235.4971379518668
 20
129.3439807396317
 30
0.0
 10
235.5431719429285
 20
129.8649231249865
 30
0.0
 10
235.5765187118405
 20
130.1321596327616
 30
0.0
 10
235.6650630212303
 20
130.6778835722417
 30
0.0
 10
235.7179498105066
 20
130.9423703952792
 30
0.0
 10
235.8439932119699
 20
131.4545403368161
 30
0.0
 10
235.9140390398732
 20
131.6896452038606
 30
0.0
 10
236.0729395086988
 20
132.1160665461236
 30
0.0
 10
236.1587520863429
 20
132.2989110887401
 30
0.0
 10
236.3006056156937
 20
132.5206191708428
 30
0.0
 10
236.3501432709399
 20
132.5854300068737
 30
0.0
 10
236.4515513439177
 20
132.6921382571696
 30
0.0
 10
236.5038547377816
 20
132.7347878904
 30
0.0
 10
236.6132510171093
 20
132.7975398222344
 30
0.0
 10
236.6706033570239
 20
132.8173838421365
 30
0.0
 10
236.7870144330023
 20
132.8316846395145
 30
0.0
 10
236.8466349067838
 20
132.8265932356901
 30
0.0
 10
236.970525770857
 20
132.7912307708312
 30
0.0
 10
237.0350125863152
 20
132.7605164042046
 30
0.0
 10
237.1647789902581
 20
132.6764082971657
 30
0.0
 10
237.2307473120366
 20
132.6229105180695
 30
0.0
 10
237.2986421702129
 20
132.5582898384933
 30
0.0
  0
LINE
  5
158
330
1F
100
AcDbEntity
  8
0
  6
HIDDEN
 62
     7
370
    18
100
AcDbLine
 10
188.9213882267
 20
117.1892132576
 30
0.0
 11
188.9213882267
 21
145.8892129327
 31
0.0
  0
LINE
  5
159
330
1F
100
AcDbEntity
  8
0
  6
HIDDEN
 62
     7
370
    18
100
AcDbLine
 10
151.5713892757
 20
112.004163299
 30
0.0
 11
150.7112532734
 21
111.5873461555
 31
0.0
  0
SPLINE
  5
15A
330
1F
100
AcDbEntity
  8
0
  6
HIDDEN
 62
     7
370
    18
100
AcDbSpline
210
0.0
220
0.0
230
1.0
 70
     8
 71
     3
 72
     8
 73
     4
 74
     0
 42
0.000000001
 43
0.00000001
 40
0.0000002393210131
 40
0.0000002393210131
 40
0.0000002393210131
 40
0.0000002393210131
 40
0.0008952434545474
 40
0.0008952434545474
 40
0.0008952434545474
 40
0.0008952434545474
 10
151.5713882207122
 20
116.0093434122275
 30
0.0
 10
151.3220710233701
 20
115.931082012378
 30
0.0
 10
151.0726237452394
 20
115.8533712298684
 30
0.0
 10
150.8230542705517
 20
115.7761893906883
 30
0.0
  0
SPLINE
  5
15B
330
1F
100
AcDbEntity
  8
0
  6
HIDDEN
 62
     7
370
    18
100
AcDbSpline
210
0.0
220
0.0
230
1.0
 70
     8
 71
     3
 72
     8
 73
     4
 74
     0
 42
0.000000001
 43
0.00000001
 40
0.000000410413179
 40
0.000000410413179
 40
0.000000410413179
 40
0.000000410413179
 40
0.0015399883258131
 40
0.0015399883258131
 40
0.0015399883258131
 40
0.0015399883258131
 10
150.8230542705517
 20
115.7761893906883
 30
0.0
 10
150.5729684932396
 20
115.3519534242596
 30
0.0
 10
150.3223792967366
 20
114.9281127778793
 30
0.0
 10
150.0713882207122
 20
114.5045902602904
 30
0.0
  0
LINE
  5
15C
330
1F
100
AcDbEntity
  8
0
  6
HIDDEN
 62
     7
370
    18
100
AcDbLine
 10
150.7112532734
 20
151.4910800348
 30
0.0
 11
151.5713892757
 21
151.0742628913
 31
0.0
  0
SPLINE
  5
15D
330
1F
100
AcDbEntity
  8
0
  6
HIDDEN
 62
     7
370
    18
100
AcDbSpline
210
0.0
220
0.0
230
1.0
 70
     8
 71
     3
 72
     8
 73
     4
 74
     0
 42
0.000000001
 43
0.00000001
 40
0.0000002390790424
 40
0.0000002390790424
 40
0.0000002390790424
 40
0.0000002390790424
 40
0.0008952432125768
 40
0.0008952432125768
 40
0.0008952432125768
 40
0.0008952432125768
 10
150.8230542705517
 20
147.302236799608
 30
0.0
 10
151.0726237452394
 20
147.2250549604279
 30
0.0
 10
151.3220710233701
 20
147.1473441779183
 30
0.0
 10
151.5713882207122
 20
147.0690827780687
 30
0.0
  0
SPLINE
  5
15E
330
1F
100
AcDbEntity
  8
0
  6
HIDDEN
 62
     7
370
    18
100
AcDbSpline
210
0.0
220
0.0
230
1.0
 70
     8
 71
     3
 72
     8
 73
     4
 74
     0
 42
0.000000001
 43
0.00000001
 40
0.0000004089325119
 40
0.0000004089325119
 40
0.0000004089325119
 40
0.0000004089325119
 40
0.0015399868451459
 40
0.0015399868451459
 40
0.0015399868451459
 40
0.0015399868451459
 10
150.0713882207122
 20
148.5738359300059
 30
0.0
 10
150.3223792967366
 20
148.150313412417
 30
0.0
 10
150.5729684932396
 20
147.7264727660366
 30
0.0
 10
150.8230542705517
 20
147.302236799608
 30
0.0
  0
SPLINE
  5
15F
330
1F
100
AcDbEntity
  8
0
  6
HIDDEN
 62
     7
370
    18
100
AcDbSpline
210
0.0
220
0.0
230
1.0
 70
     8
 71
     3
 72
    25
 73
    21
 74
     0
 42
0.000000001
 43
0.00000001
 40
0.0
 40
0.0
 40
0.0
 40
0.0
 40
0.0405941743400741
 40
0.0820429338266382
 40
0.1243773734113026
 40
0.1676266772686051
 40
0.211818216590823
 40
0.2569776488489764
 40
0.3031290167850362
 40
0.3502948457714483
 40
0.3984962384979316
 40
0.4477529662219605
 40
0.498083556050154
 40
0.5442359869370422
 40
0.5988926385946508
 40
0.662064350972584
 40
0.7337576713058216
 40
0.8139766218644394
 40
0.9027236207822834
 40
1.0
 40
1.0
 40
1.0
 40
1.0
 10
155.908731184562
 20
151.3210965182626
 30
0.0
 10
155.9678950035272
 20
151.325155563751
 30
0.0
 10
156.0874681532019
 20
151.3333591054124
 30
0.0
 10
156.2678439750018
 20
151.3522866866233
 30
0.0
 10
156.4507668917202
 20
151.3761643209565
 30
0.0
 10
156.635769042201
 20
151.4054882678572
 30
0.0
 10
156.8223804129295
 20
151.440120643684
 30
0.0
 10
157.0100791555665
 20
151.4800995410885
 30
0.0
 10
157.1983056782776
 20
151.5254125841952
 30
0.0
 10
157.386456123959
 20
151.5760685758703
 30
0.0
 10
157.5738947256538
 20
151.6320429722294
 30
0.0
 10
157.7599120327021
 20
151.6934267132344
 30
0.0
 10
157.9374689453242
 20
151.7575509057154
 30
0.0
 10
158.1149328343386
 20
151.8286667298722
 30
0.0
 10
158.2998467689437
 20
151.9098217213758
 30
0.0
 10
158.5032646401434
 20
152.0066746256852
 30
0.0
 10
158.7203205012447
 20
152.1193553617357
 30
0.0
 10
158.9442296466007
 20
152.2478662588959
 30
0.0
 10
159.1699730168234
 20
152.3921086378593
 30
0.0
 10
159.3022171118985
 20
152.4944096192507
 30
0.0
 10
159.3713709293958
 20
152.5479054172515
 30
0.0
  0
LINE
  5
160
330
1F
100
AcDbEntity
  8
0
  6
HIDDEN
 62
     7
370
    18
100
AcDbLine
 10
151.5713892757
 20
151.0742628913
 30
0.0
 11
155.9087298691
 21
151.3210969011
 31
0.0
  0
SPLINE
  5
161
330
1F
100
AcDbEntity
  8
0
  6
HIDDEN
 62
     7
370
    18
100
AcDbSpline
210
0.0
220
0.0
230
1.0
 70
     8
 71
     3
 72
     8
 73
     4
 74
     0
 42
0.000000001
 43
0.00000001
 40
0.0
 40
0.0
 40
0.0
 40
0.0
 40
1.0
 40
1.0
 40
1.0
 40
1.0
 10
151.5713882207122
 20
147.0690827780687
 30
0.0
 10
152.0730939925628
 20
146.7239587955273
 30
0.0
 10
152.5732039304702
 20
146.3765465564412
 30
0.0
 10
153.0713882207122
 20
146.0263731429284
 30
0.0
  0
LINE
  5
162
330
1F
100
AcDbEntity
  8
0
  6
HIDDEN
 62
     7
370
    18
100
AcDbLine
 10
155.9087298691
 20
111.7573292892
 30
0.0
 11
151.5713892757
 21
112.004163299
 31
0.0
  0
SPLINE
  5
163
330
1F
100
AcDbEntity
  8
0
  6
HIDDEN
 62
     7
370
    18
100
AcDbSpline
210
0.0
220
0.0
230
1.0
 70
     8
 71
     3
 72
     8
 73
     4
 74
     0
 42
0.000000001
 43
0.00000001
 40
0.0
 40
0.0
 40
0.0
 40
0.0
 40
1.0
 40
1.0
 40
1.0
 40
1.0
 10
153.0713882207122
 20
117.0520530473679
 30
0.0
 10
152.5731849539318
 20
116.7018662952586
 30
0.0
 10
152.073076040329
 20
116.3544550454065
 30
0.0
 10
151.5713882207122
 20
116.0093434122275
 30
0.0
  0
SPLINE
  5
164
330
1F
100
AcDbEntity
  8
0
  6
HIDDEN
 62
     7
370
    18
100
AcDbSpline
210
0.0
220
0.0
230
1.0
 70
     8
 71
     3
 72
    27
 73
    23
 74
     0
 42
0.000000001
 43
0.00000001
 40
0.0
 40
0.0
 40
0.0
 40
0.0
 40
0.0495870667325298
 40
0.0970680996460489
 40
0.1424433339891121
 40
0.185713047680586
 40
0.2268775696469824
 40
0.2659372904028814
 40
0.3028926756388226
 40
0.3377442839028855
 40
0.3704927899482945
 40
0.4011390160709266
 40
0.4296839749514966
 40
0.4561289294591418
 40
0.4804754781421782
 40
0.502725680840252
 40
0.5943364000192074
 40
0.6822723072086491
 40
0.7666571307119656
 40
0.8476309013725093
 40
0.9253521122660999
 40
1.0
 40
1.0
 40
1.0
 40
1.0
 10
159.3713847571051
 20
110.5305934982621
 30
0.0
 10
159.336957146425
 20
110.5578968511314
 30
0.0
 10
159.2695641150507
 20
110.6113439443278
 30
0.0
 10
159.1603209260744
 20
110.6892210544274
 30
0.0
 10
159.0493113638402
 20
110.7632045525728
 30
0.0
 10
158.9369602557174
 20
110.8332596569282
 30
0.0
 10
158.8245224838556
 20
110.8993952911802
 30
0.0
 10
158.712932591939
 20
110.9616095006772
 30
0.0
 10
158.6030947882889
 20
111.0199031356009
 30
0.0
 10
158.495814610958
 20
111.0742763255882
 30
0.0
 10
158.3918206473729
 20
111.124729862445
 30
0.0
 10
158.291764134209
 20
111.1712632630925
 30
0.0
 10
158.1962259715706
 20
111.213880820288
 30
0.0
 10
158.10571709274
 20
111.2525717143786
 30
0.0
 10
158.02069755027
 20
111.2873764388912
 30
0.0
 10
157.8567978278419
 20
111.3511292070462
 30
0.0
 10
157.6071011356205
 20
111.4379635198675
 30
0.0
 10
157.2623881249822
 20
111.5385343444346
 30
0.0
 10
156.917128918542
 20
111.6210679794436
 30
0.0
 10
156.5750743922632
 20
111.6851631031795
 30
0.0
 10
156.2395459835688
 20
111.7325677805501
 30
0.0
 10
156.0175099432477
 20
111.7491874491755
 30
0.0
 10
155.908731184562
 20
111.7573296720336
 30
0.0
  0
LINE
  5
165
330
1F
100
AcDbEntity
  8
0
  6
HIDDEN
 62
     7
370
    18
100
AcDbLine
 10
172.2926553219
 20
107.9742504249
 30
0.0
 11
172.0213889956
 21
108.4672721068
 31
0.0
  0
SPLINE
  5
166
330
1F
100
AcDbEntity
  8
0
  6
HIDDEN
 62
     7
370
    18
100
AcDbSpline
210
0.0
220
0.0
230
1.0
 70
     8
 71
     3
 72
    24
 73
    20
 74
     0
 42
0.000000001
 43
0.00000001
 40
0.0
 40
0.0
 40
0.0
 40
0.0
 40
0.0307922666480387
 40
0.0632384874665031
 40
0.0973465611352096
 40
0.133123277439837
 40
0.1705745104067155
 40
0.2097053717632373
 40
0.2505203339584285
 40
0.375578565217108
 40
0.5010035634951943
 40
0.5731194609904832
 40
0.6423564699425941
 40
0.7087546812218882
 40
0.7723595876441234
 40
0.8332229800003327
 40
0.8914040050422956
 40
0.9469704103295916
 40
1.0
 40
1.0
 40
1.0
 40
1.0
 10
172.0213882207122
 20
108.4672725056493
 30
0.0
 10
172.0204638876615
 20
108.4800638535966
 30
0.0
 10
172.0185655725842
 20
108.5063336149654
 30
0.0
 10
172.0027068881396
 20
108.551176288094
 30
0.0
 10
171.9756476689692
 20
108.6012043428414
 30
0.0
 10
171.9349333490703
 20
108.6567833243488
 30
0.0
 10
171.8793566938911
 20
108.7178329154256
 30
0.0
 10
171.8073312548597
 20
108.7842816139877
 30
0.0
 10
171.6570020326334
 20
108.9052418489626
 30
0.0
 10
171.3712968720374
 20
109.0825265685485
 30
0.0
 10
170.9482479787173
 20
109.287576546307
 30
0.0
 10
170.538594580019
 20
109.4540076525581
 30
0.0
 10
170.1871574734889
 20
109.5717505731923
 30
0.0
 10
169.8241264867019
 20
109.6747338170455
 30
0.0
 10
169.4556066560343
 20
109.7622982980702
 30
0.0
 10
169.0871903987383
 20
109.8347251849097
 30
0.0
 10
168.7236444317379
 20
109.8915417828226
 30
0.0
 10
168.3691178327181
 20
109.9342654928526
 30
0.0
 10
168.1354788127639
 20
109.9502097829869
 30
0.0
 10
168.0213882207122
 20
109.957995697778
 30
0.0
  0
SPLINE
  5
167
330
1F
100
AcDbEntity
  8
0
  6
HIDDEN
 62
     7
370
    18
100
AcDbSpline
210
0.0
220
0.0
230
1.0
 70
     8
 71
     3
 72
    23
 73
    19
 74
     0
 42
0.000000001
 43
0.00000001
 40
0.0
 40
0.0
 40
0.0
 40
0.0
 40
0.0269372354600932
 40
0.0542525658684679
 40
0.0819568136661068
 40
0.1100603518949455
 40
0.1385731177147992
 40
0.1675046265185135
 40
0.2621457022888375
 40
0.3727409761877102
 40
0.4994329442423542
 40
0.5828758850248917
 40
0.6663749244996013
 40
0.749930486429421
 40
0.8132643602568506
 40
0.8760249706888696
 40
0.9382554396949428
 40
1.0
 40
1.0
 40
1.0
 40
1.0
 10
168.0213882207122
 20
153.1204304925182
 30
0.0
 10
168.0793408150649
 20
153.12402027113
 30
0.0
 10
168.1960594347995
 20
153.1312502150074
 30
0.0
 10
168.3717183089939
 20
153.1467142870525
 30
0.0
 10
168.5488653321695
 20
153.1656296433621
 30
0.0
 10
168.7270971931168
 20
153.1883286263526
 30
0.0
 10
168.9060161349173
 20
153.2147480324096
 30
0.0
 10
169.2199101451072
 20
153.2673983984457
 30
0.0
 10
169.6874255752324
 20
153.3688512340561
 30
0.0
 10
170.2974628243176
 20
153.541778206925
 30
0.0
 10
170.8128610410598
 20
153.7314644847744
 30
0.0
 10
171.2117340532147
 20
153.9126752773579
 30
0.0
 10
171.4989168134479
 20
154.0668442588961
 30
0.0
 10
171.7090441244991
 20
154.2119187630089
 30
0.0
 10
171.8555151431597
 20
154.3388823452266
 30
0.0
 10
171.9504794908511
 20
154.4409729199751
 30
0.0
 10
172.0102306782377
 20
154.5330639490977
 30
0.0
 10
172.0176787705912
 20
154.5851918763327
 30
0.0
 10
172.0213882207122
 20
154.611153684647
 30
0.0
  0
LINE
  5
168
330
1F
100
AcDbEntity
  8
0
  6
HIDDEN
 62
     7
370
    18
100
AcDbLine
 10
168.0213883399
 20
109.9579954485
 30
0.0
 11
166.1065146207
 21
110.0615510683
 31
0.0
  0
SPLINE
  5
169
330
1F
100
AcDbEntity
  8
0
  6
HIDDEN
 62
     7
370
    18
100
AcDbSpline
210
0.0
220
0.0
230
1.0
 70
     8
 71
     3
 72
    13
 73
     9
 74
     0
 42
0.000000001
 43
0.00000001
 40
0.0
 40
0.0
 40
0.0
 40
0.0
 40
0.1633780675195029
 40
0.3279795339587661
 40
0.4938746621093329
 40
0.6611320842291412
 40
0.8298187695987571
 40
1.0
 40
1.0
 40
1.0
 40
1.0
 10
166.1065149414227
 20
110.0615502169281
 30
0.0
 10
166.0467224815279
 20
110.0648295209225
 30
0.0
 10
165.9266898270335
 20
110.0714126848202
 30
0.0
 10
165.7460992619817
 20
110.0765292490475
 30
0.0
 10
165.5647682693314
 20
110.0782418270812
 30
0.0
 10
165.3831364520702
 20
110.0761149300262
 30
0.0
 10
165.20139609209
 20
110.0705623697052
 30
0.0
 10
165.0815744891245
 20
110.0637877274119
 30
0.0
 10
165.0213994566936
 20
110.0603854668043
 30
0.0
  0
LINE
  5
16A
330
1F
100
AcDbEntity
  8
0
  6
HIDDEN
 62
     7
370
    18
100
AcDbLine
 10
172.0213889956
 20
154.6111540835
 30
0.0
 11
172.0213889956
 21
148.6662743579
 31
0.0
  0
LINE
  5
16B
330
1F
100
AcDbEntity
  8
0
  6
HIDDEN
 62
     7
370
    18
100
AcDbLine
 10
166.1065146207
 20
153.016875122
 30
0.0
 11
168.0213883399
 21
153.1204307417
 31
0.0
  0
LINE
  5
16C
330
1F
100
AcDbEntity
  8
0
  6
HIDDEN
 62
     7
370
    18
100
AcDbLine
 10
172.0213889956
 20
114.4121518324
 30
0.0
 11
172.0213889956
 21
108.4672721068
 31
0.0
  0
SPLINE
  5
16D
330
1F
100
AcDbEntity
  8
0
  6
HIDDEN
 62
     7
370
    18
100
AcDbSpline
210
0.0
220
0.0
230
1.0
 70
     8
 71
     3
 72
    13
 73
     9
 74
     0
 42
0.000000001
 43
0.00000001
 40
0.0
 40
0.0
 40
0.0
 40
0.0
 40
0.1710884389243112
 40
0.3403181381191447
 40
0.507755014152379
 40
0.6734671234318647
 40
0.8375246692388897
 40
1.0
 40
1.0
 40
1.0
 40
1.0
 10
165.0214019489704
 20
153.0180802470256
 30
0.0
 10
165.081898738267
 20
153.0146437622027
 30
0.0
 10
165.2022350673904
 20
153.0078081272297
 30
0.0
 10
165.3845742231695
 20
153.0021900622928
 30
0.0
 10
165.5664152553436
 20
153.0000340007065
 30
0.0
 10
165.7475571280995
 20
153.0017553311195
 30
0.0
 10
165.927556151982
 20
153.0069109436976
 30
0.0
 10
166.0470550222001
 20
153.0135650442928
 30
0.0
 10
166.1065149414227
 20
153.0168759733681
 30
0.0
  0
LINE
  5
16E
330
1F
100
AcDbEntity
  8
0
  6
HIDDEN
 62
     7
370
    18
100
AcDbLine
 10
165.0213878482
 20
153.0180802534
 30
0.0
 11
165.0213878482
 21
147.2260715406
 31
0.0
  0
SPLINE
  5
16F
330
1F
100
AcDbEntity
  8
0
  6
HIDDEN
 62
     7
370
    18
100
AcDbSpline
210
0.0
220
0.0
230
1.0
 70
     8
 71
     3
 72
    14
 73
    10
 74
     0
 42
0.000000001
 43
0.00000001
 40
0.0
 40
0.0
 40
0.0
 40
0.0
 40
0.1580907758395322
 40
0.3106192465103597
 40
0.4578455094955938
 40
0.6000587572884465
 40
0.7375798115701966
 40
0.8707634069621023
 40
1.0
 40
1.0
 40
1.0
 40
1.0
 10
163.5954471236402
 20
153.7965927301637
 30
0.0
 10
163.6646185969752
 20
153.7454705203289
 30
0.0
 10
163.8005277973269
 20
153.6450247972024
 30
0.0
 10
164.0079952600468
 20
153.5070253799441
 30
0.0
 10
164.2134362975127
 20
153.3820004609619
 30
0.0
 10
164.4173056420086
 20
153.2704946659186
 30
0.0
 10
164.619592831743
 20
153.1726798166951
 30
0.0
 10
164.8199534301055
 20
153.0874358456397
 30
0.0
 10
164.9550271821078
 20
153.0411130628576
 30
0.0
 10
165.0215482513216
 20
153.0183000366853
 30
0.0
  0
LINE
  5
170
330
1F
100
AcDbEntity
  8
0
  6
HIDDEN
 62
     7
370
    18
100
AcDbLine
 10
159.3713890641
 20
152.5479057769
 30
0.0
 11
159.3713890641
 21
147.2260715406
 31
0.0
  0
SPLINE
  5
171
330
1F
100
AcDbEntity
  8
0
  6
HIDDEN
 62
     7
370
    18
100
AcDbSpline
210
0.0
220
0.0
230
1.0
 70
     8
 71
     3
 72
    10
 73
     6
 74
     0
 42
0.000000001
 43
0.00000001
 40
0.0
 40
0.0
 40
0.0
 40
0.0
 40
0.3169244167813679
 40
0.6502285008747577
 40
1.0
 40
1.0
 40
1.0
 40
1.0
 10
159.3736180640836
 20
152.5477492222197
 30
0.0
 10
159.436595242804
 20
152.6578841585946
 30
0.0
 10
159.5658044622281
 20
152.8838461570431
 30
0.0
 10
159.7571046203653
 20
153.2355248136614
 30
0.0
 10
159.8834895505612
 20
153.4780063623123
 30
0.0
 10
159.9482054437763
 20
153.6021699788512
 30
0.0
  0
LINE
  5
172
330
1F
100
AcDbEntity
  8
0
  6
HIDDEN
 62
     7
370
    18
100
AcDbLine
 10
165.0213878482
 20
115.8523546497
 30
0.0
 11
165.0213878482
 21
110.0603850524
 31
0.0
  0
SPLINE
  5
173
330
1F
100
AcDbEntity
  8
0
  6
HIDDEN
 62
     7
370
    18
100
AcDbSpline
210
0.0
220
0.0
230
1.0
 70
     8
 71
     3
 72
    15
 73
    11
 74
     0
 42
0.000000001
 43
0.00000001
 40
0.0
 40
0.0
 40
0.0
 40
0.0
 40
0.112480257201694
 40
0.2280539379213219
 40
0.3469893658035898
 40
0.4695327836257063
 40
0.5959093455865657
 40
0.7263243542707681
 40
0.8609646397825202
 40
1.0
 40
1.0
 40
1.0
 40
1.0
 10
165.0214965320574
 20
110.0602396683657
 30
0.0
 10
164.9635483742319
 20
110.0405459177504
 30
0.0
 10
164.8460583727316
 20
110.0006168004812
 30
0.0
 10
164.6714529899354
 20
109.9285806611077
 30
0.0
 10
164.4952002481535
 20
109.8468332430371
 30
0.0
 10
164.3175924937764
 20
109.7544801473832
 30
0.0
 10
164.138522263262
 20
109.6518050334709
 30
0.0
 10
163.9581041561338
 20
109.5386150386702
 30
0.0
 10
163.7759589643846
 20
109.4154206410117
 30
0.0
 10
163.6563102461728
 20
109.326796833393
 30
0.0
 10
163.5955251419967
 20
109.2817733056937
 30
0.0
  0
LINE
  5
174
330
1F
100
AcDbEntity
  8
0
  6
HIDDEN
 62
     7
370
    18
100
AcDbLine
 10
159.3713890641
 20
115.8523546497
 30
0.0
 11
159.3713890641
 21
110.5305930565
 31
0.0
  0
SPLINE
  5
175
330
1F
100
AcDbEntity
  8
0
  6
HIDDEN
 62
     7
370
    18
100
AcDbSpline
210
0.0
220
0.0
230
1.0
 70
     8
 71
     3
 72
     9
 73
     5
 74
     0
 42
0.000000001
 43
0.00000001
 40
0.0
 40
0.0
 40
0.0
 40
0.0
 40
0.5180998026481407
 40
1.0
 40
1.0
 40
1.0
 40
1.0
 10
159.9487853298226
 20
109.4762753937018
 30
0.0
 10
159.8529300300608
 20
109.6602109134328
 30
0.0
 10
159.667916835167
 20
110.0152303880414
 30
0.0
 10
159.4698680189165
 20
110.3631423251987
 30
0.0
 10
159.3744282552801
 20
110.5308011563758
 30
0.0
  0
LINE
  5
176
330
1F
100
AcDbEntity
  8
0
  6
HIDDEN
 62
     7
370
    18
100
AcDbLine
 10
235.0713871299
 20
126.5392132069
 30
0.0
 11
235.0713871299
 21
136.5392129834
 31
0.0
  0
SPLINE
  5
177
330
1F
100
AcDbEntity
  8
0
  6
HIDDEN
 62
     7
370
    18
100
AcDbSpline
210
0.0
220
0.0
230
1.0
 70
     8
 71
     3
 72
    58
 73
    54
 74
     0
 42
0.000000001
 43
0.00000001
 40
0.0
 40
0.0
 40
0.0
 40
0.0
 40
0.03125
 40
0.03125
 40
0.0624999999999999
 40
0.0624999999999999
 40
0.0937499999999999
 40
0.0937499999999999
 40
0.1249999999999999
 40
0.1249999999999999
 40
0.1562499999999998
 40
0.1562499999999998
 40
0.1874999999999998
 40
0.1874999999999998
 40
0.2187499999999998
 40
0.2187499999999998
 40
0.2499999999999997
 40
0.2499999999999997
 40
0.2812499999999997
 40
0.2812499999999997
 40
0.3124999999999997
 40
0.3124999999999997
 40
0.3437499999999997
 40
0.3437499999999997
 40
0.3749999999999997
 40
0.3749999999999997
 40
0.4062499999999997
 40
0.4062499999999997
 40
0.4374999999999996
 40
0.4374999999999996
 40
0.4999999999999994
 40
0.4999999999999994
 40
0.5624999999999992
 40
0.5624999999999992
 40
0.6249999999999992
 40
0.6249999999999992
 40
0.6874999999999991
 40
0.6874999999999991
 40
0.7499999999999991
 40
0.7499999999999991
 40
0.812499999999999
 40
0.812499999999999
 40
0.8437499999999992
 40
0.8437499999999992
 40
0.8749999999999993
 40
0.8749999999999993
 40
0.9062499999999996
 40
0.9062499999999996
 40
0.9374999999999998
 40
0.9374999999999998
 40
0.9687499999999999
 40
0.9687499999999999
 40
1.0
 40
1.0
 40
1.0
 40
1.0
 10
237.298642170213
 20
132.5582898384931
 30
0.0
 10
237.2311220937502
 20
132.6711269938543
 30
0.0
 10
237.1655323930691
 20
132.7871053151793
 30
0.0
 10
237.0365537800832
 20
133.0244816911171
 30
0.0
 10
236.9725090123358
 20
133.147200676024
 30
0.0
 10
236.8484747492535
 20
133.3906448721786
 30
0.0
 10
236.7888154864597
 20
133.5106102309562
 30
0.0
 10
236.6723777229411
 20
133.7463349691795
 30
0.0
 10
236.6151577877609
 20
133.8630036251167
 30
0.0
 10
236.5059070813579
 20
134.0835627088332
 30
0.0
 10
236.4535037120042
 20
134.1882275000579
 30
0.0
 10
236.3516264316911
 20
134.3861111118661
 30
0.0
 10
236.3020914583625
 20
134.4793723710214
 30
0.0
 10
236.2080745681819
 20
134.6478661097176
 30
0.0
 10
236.1631368170764
 20
134.7240263650691
 30
0.0
 10
236.0763293822222
 20
134.8599978874867
 30
0.0
 10
236.0345028161982
 20
134.9196075234296
 30
0.0
 10
235.9558284497485
 20
135.0182992907186
 30
0.0
 10
235.918600021381
 20
135.0580195969382
 30
0.0
 10
235.8476579486737
 20
135.1178720103064
 30
0.0
 10
235.8138522544591
 20
135.1378657150405
 30
0.0
 10
235.7515197247051
 20
135.15635514274
 30
0.0
 10
235.7226812668617
 20
135.1551934120718
 30
0.0
 10
235.6692245156401
 20
135.1316700615915
 30
0.0
 10
235.6444353965351
 20
135.108914786944
 30
0.0
 10
235.6004481277702
 20
135.0426952555729
 30
0.0
 10
235.5810844194655
 20
134.9993701394127
 30
0.0
 10
235.5473463874757
 20
134.8921043061559
 30
0.0
 10
235.532889154243
 20
134.8275383671798
 30
0.0
 10
235.4980476290464
 20
134.6053034053623
 30
0.0
 10
235.4860247600217
 20
134.417487360681
 30
0.0
 10
235.4853123148759
 20
133.9885953296245
 30
0.0
 10
235.4967271902715
 20
133.7424722729395
 30
0.0
 10
235.5415649217283
 20
133.2284580757221
 30
0.0
 10
235.5755504289291
 20
132.9538926740318
 30
0.0
 10
235.6626057404395
 20
132.4140930545152
 30
0.0
 10
235.7167740507583
 20
132.1419469036174
 30
0.0
 10
235.8410806716034
 20
131.6346432967925
 30
0.0
 10
235.9129006524878
 20
131.392645441325
 30
0.0
 10
236.0701165151056
 20
130.9691459851087
 30
0.0
 10
236.1578368892357
 20
130.7815019671294
 30
0.0
 10
236.2986849956377
 20
130.5605375779387
 30
0.0
 10
236.34736892974
 20
130.496311269071
 30
0.0
 10
236.4496608194028
 20
130.387899165387
 30
0.0
 10
236.5030443958609
 20
130.3442613587425
 30
0.0
 10
236.6120368768009
 20
130.2814275050187
 30
0.0
 10
236.6681280903086
 20
130.2616544559959
 30
0.0
 10
236.7852941613344
 20
130.246655686653
 30
0.0
 10
236.8463565445296
 20
130.2518108168342
 30
0.0
 10
236.9699178839345
 20
130.2869650026224
 30
0.0
 10
237.0330662861481
 20
130.316805133017
 30
0.0
 10
237.1639542454776
 20
130.4013297780589
 30
0.0
 10
237.2311367290448
 20
130.4558863098919
 30
0.0
 10
237.2986421702127
 20
130.5201363518027
 30
0.0
  0
LINE
  5
178
330
1F
100
AcDbEntity
  8
0
  6
HIDDEN
 62
     7
370
    18
100
AcDbLine
 10
202.2242322444
 20
102.0642133395
 30
0.0
 11
204.8088880136
 21
102.0642133395
 31
0.0
  0
LINE
  5
179
330
1F
100
AcDbEntity
  8
0
  6
HIDDEN
 62
     7
370
    18
100
AcDbLine
 10
172.0213889956
 20
154.6111540835
 30
0.0
 11
172.0213889956
 21
154.9925623427
 31
0.0
  0
LINE
  5
17A
330
1F
100
AcDbEntity
  8
0
  6
HIDDEN
 62
     7
370
    18
100
AcDbLine
 10
172.0213889956
 20
154.6111540835
 30
0.0
 11
172.3789963751
 21
155.2610961686
 31
0.0
  0
LINE
  5
17B
330
1F
100
AcDbEntity
  8
0
  6
HIDDEN
 62
     7
370
    18
100
AcDbLine
 10
172.0213889956
 20
108.0858638476
 30
0.0
 11
172.0213889956
 21
108.4672721068
 31
0.0
  0
LINE
  5
17C
330
1F
100
AcDbEntity
  8
0
  6
HIDDEN
 62
     7
370
    18
100
AcDbLine
 10
197.3338881388
 20
112.9642134498
 30
0.0
 11
204.8088880136
 21
112.9642134498
 31
0.0
  0
LINE
  5
17D
330
1F
100
AcDbEntity
  8
0
  6
HIDDEN
 62
     7
370
    18
100
AcDbLine
 10
197.3338881388
 20
102.0642133395
 30
0.0
 11
197.7154062941
 21
102.0642133395
 31
0.0
  0
LINE
  5
17E
330
1F
100
AcDbEntity
  8
0
  6
HIDDEN
 62
     7
370
    18
100
AcDbLine
 10
272.5965157031
 20
132.7892130672
 30
0.0
 11
272.5965157031
 21
130.2892131231
 31
0.0
  0
LINE
  5
17F
330
1F
100
AcDbEntity
  8
0
  6
HIDDEN
 62
     7
370
    18
100
AcDbLine
 10
270.4213857531
 20
132.7892130672
 30
0.0
 11
270.4213857531
 21
130.2892131231
 31
0.0
  0
SPLINE
  5
180
330
1F
100
AcDbEntity
  8
0
  6
HIDDEN
 62
     7
370
    18
100
AcDbSpline
210
0.0
220
0.0
230
1.0
 70
     8
 71
     3
 72
    14
 73
    10
 74
     0
 42
0.000000001
 43
0.00000001
 40
0.0
 40
0.0
 40
0.0
 40
0.0
 40
0.2499999999999999
 40
0.2499999999999999
 40
0.4999999999999999
 40
0.4999999999999999
 40
0.7499999999999999
 40
0.7499999999999999
 40
1.0
 40
1.0
 40
1.0
 40
1.0
 10
238.0155900201817
 20
131.460392041159
 30
0.0
 10
238.02507201937
 20
131.4757485821657
 30
0.0
 10
238.0344940340598
 20
131.4912022451147
 30
0.0
 10
238.0518723047254
 20
131.5225117956899
 30
0.0
 10
238.0613276404598
 20
131.5393498396406
 30
0.0
 10
238.0611570704901
 20
131.5690639483697
 30
0.0
 10
238.0516814635245
 20
131.5793918011697
 30
0.0
 10
238.0343763009894
 20
131.5991891092868
 30
0.0
 10
238.0250184287386
 20
131.6085737452361
 30
0.0
 10
238.0155900201817
 20
131.6180341491373
 30
0.0
  0
LINE
  5
181
330
1F
100
AcDbEntity
  8
0
  6
HIDDEN
 62
     7
370
    18
100
AcDbLine
 10
275.0213891148
 20
121.5392133187
 30
0.0
 11
215.0213885932
 21
121.5392133187
 31
0.0
  0
LINE
  5
182
330
1F
100
AcDbEntity
  8
0
  6
HIDDEN
 62
     7
370
    18
100
AcDbLine
 10
215.0213885932
 20
121.5392133187
 30
0.0
 11
215.0213885932
 21
102.3392124067
 31
0.0
  0
LWPOLYLINE
  5
183
330
1F
100
AcDbEntity
  8
0
  6
HIDDEN
 62
     7
370
    18
100
AcDbPolyline
 90
        4
 70
   128
 43
0.0
 10
214.2213880896
 20
101.5392137657
 10
214.4862785815
 20
101.804102395
 10
214.7532999396
 20
102.071123753
 10
215.0213885932
 20
102.3392124067
  0
LINE
  5
184
330
1F
100
AcDbEntity
  8
0
  6
HIDDEN
 62
     7
370
    18
100
AcDbLine
 10
215.0213885932
 20
121.5392133187
 30
0.0
 11
210.771387431
 21
121.5392133187
 31
0.0
  0
CIRCLE
  5
185
330
1F
100
AcDbEntity
  8
0
  6
HIDDEN
 62
     7
370
    18
100
AcDbCircle
 10
225.0213882207
 20
151.5392130951
 30
0.0
 40
4.250000000000028
  0
CIRCLE
  5
186
330
1F
100
AcDbEntity
  8
0
  6
HIDDEN
 62
     7
370
    18
100
AcDbCircle
 10
255.0213882207
 20
151.5392130951
 30
0.0
 40
4.250000000000028
  0
LINE
  5
187
330
1F
100
AcDbEntity
  8
0
  6
HIDDEN
 62
     7
370
    18
100
AcDbLine
 10
198.0463880926
 20
144.0214231576
 30
0.0
 11
198.0463880926
 21
143.3668700944
 31
0.0
  0
SPLINE
  5
188
330
1F
100
AcDbEntity
  8
0
  6
HIDDEN
 62
     7
370
    18
100
AcDbSpline
210
0.0
220
0.0
230
1.0
 70
     8
 71
     3
 72
    14
 73
    10
 74
     0
 42
0.000000001
 43
0.00000001
 40
0.0
 40
0.0
 40
0.0
 40
0.0
 40
0.25
 40
0.25
 40
0.5
 40
0.5
 40
0.75
 40
0.75
 40
1.0
 40
1.0
 40
1.0
 40
1.0
 10
199.0463882207122
 20
142.6548286433644
 30
0.0
 10
198.9120374721711
 20
142.7347467711699
 30
0.0
 10
198.7888585693776
 20
142.8319826859735
 30
0.0
 10
198.5601081484883
 20
143.0535006282122
 30
0.0
 10
198.4581850564951
 20
143.1745655664222
 30
0.0
 10
198.2787599921498
 20
143.4290141379381
 30
0.0
 10
198.2023187432454
 20
143.5607955006573
 30
0.0
 10
198.0850307687837
 20
143.8183173452382
 30
0.0
 10
198.0463882207122
 20
143.9409220208644
 30
0.0
 10
198.0463882207122
 20
144.0214233110781
 30
0.0
  0
LINE
  5
189
330
1F
100
AcDbEntity
  8
0
  6
HIDDEN
 62
     7
370
    18
100
AcDbLine
 10
201.7963882416
 20
142.6719572361
 30
0.0
 11
201.7963882416
 21
142.2460103373
 31
0.0
  0
SPLINE
  5
18A
330
1F
100
AcDbEntity
  8
0
  6
HIDDEN
 62
     7
370
    18
100
AcDbSpline
210
0.0
220
0.0
230
1.0
 70
     8
 71
     3
 72
    14
 73
    10
 74
     0
 42
0.000000001
 43
0.00000001
 40
0.0
 40
0.0
 40
0.0
 40
0.0
 40
0.25
 40
0.25
 40
0.5
 40
0.5
 40
0.75
 40
0.75
 40
1.0
 40
1.0
 40
1.0
 40
1.0
 10
201.7963882207123
 20
142.6719568570377
 30
0.0
 10
201.7963882207123
 20
142.6060395773286
 30
0.0
 10
201.7704587824464
 20
142.5353331201988
 30
0.0
 10
201.67101652517
 20
142.3975202927616
 30
0.0
 10
201.5987341394492
 20
142.3314588951622
 30
0.0
 10
201.4139968026846
 20
142.2173279560349
 30
0.0
 10
201.3044501663626
 20
142.1713175155285
 30
0.0
 10
201.0610889213594
 20
142.1131081968282
 30
0.0
 10
200.9295778139136
 20
142.1017642681863
 30
0.0
 10
200.7963882207122
 20
142.1109378489213
 30
0.0
  0
SPLINE
  5
18B
330
1F
100
AcDbEntity
  8
0
  6
HIDDEN
 62
     7
370
    18
100
AcDbSpline
210
0.0
220
0.0
230
1.0
 70
     8
 71
     3
 72
    13
 73
     9
 74
     0
 42
0.000000001
 43
0.00000001
 40
0.0
 40
0.0
 40
0.0
 40
0.0
 40
0.1740253712907634
 40
0.3450134448637118
 40
0.5130317963102848
 40
0.6781516484862985
 40
0.8404480413975245
 40
1.0
 40
1.0
 40
1.0
 40
1.0
 10
158.5213515936411
 20
152.3301974019537
 30
0.0
 10
158.4602330693393
 20
152.3187068208503
 30
0.0
 10
158.3390627338995
 20
152.2959262059288
 30
0.0
 10
158.1554902959829
 20
152.2666403076488
 30
0.0
 10
157.9732398464553
 20
152.2413232822593
 30
0.0
 10
157.7924810452767
 20
152.2203934489055
 30
0.0
 10
157.6137219483629
 20
152.2033803538869
 30
0.0
 10
157.4950777523295
 20
152.1955427481332
 30
0.0
 10
157.4362615000016
 20
152.1916573612953
 30
0.0
  0
LINE
  5
18C
330
1F
100
AcDbEntity
  8
0
  6
HIDDEN
 62
     7
370
    18
100
AcDbLine
 10
158.5213877141
 20
152.3301979493
 30
0.0
 11
158.5213877141
 21
147.2260715406
 31
0.0
  0
LINE
  5
18D
330
1F
100
AcDbEntity
  8
0
  6
HIDDEN
 62
     7
370
    18
100
AcDbLine
 10
158.5213877141
 20
115.8523546497
 30
0.0
 11
158.5213877141
 21
110.7482356916
 31
0.0
  0
SPLINE
  5
18E
330
1F
100
AcDbEntity
  8
0
  6
HIDDEN
 62
     7
370
    18
100
AcDbSpline
210
0.0
220
0.0
230
1.0
 70
     8
 71
     3
 72
    13
 73
     9
 74
     0
 42
0.000000001
 43
0.00000001
 40
0.0
 40
0.0
 40
0.0
 40
0.0
 40
0.160064437534363
 40
0.3226698941149811
 40
0.4878939580723099
 40
0.6558105870432872
 40
0.8264902377008163
 40
1.0
 40
1.0
 40
1.0
 40
1.0
 10
157.4362615000016
 20
110.8867688290009
 30
0.0
 10
157.495263974211
 20
110.8828375872147
 30
0.0
 10
157.6142055854702
 20
110.8749126952745
 30
0.0
 10
157.7932969283146
 20
110.8578277250261
 30
0.0
 10
157.9741619762962
 20
110.8368745489207
 30
0.0
 10
158.1562954082226
 20
110.8115879648254
 30
0.0
 10
158.3395322578359
 20
110.7823848325747
 30
0.0
 10
158.4604148403875
 20
110.7596815077764
 30
0.0
 10
158.5213531126733
 20
110.748236505865
 30
0.0
  0
SPLINE
  5
18F
330
1F
100
AcDbEntity
  8
0
  6
HIDDEN
 62
     7
370
    18
100
AcDbSpline
210
0.0
220
0.0
230
1.0
 70
     8
 71
     3
 72
    17
 73
    13
 74
     0
 42
0.000000001
 43
0.00000001
 40
0.0
 40
0.0
 40
0.0
 40
0.0
 40
0.0862113733185176
 40
0.1750728423472319
 40
0.2667657538054734
 40
0.3614551876970605
 40
0.4592910569628879
 40
0.5604092812578327
 40
0.664932976176244
 40
0.7729736160276611
 40
0.884632142190602
 40
1.0
 40
1.0
 40
1.0
 40
1.0
 10
158.5212274396089
 20
110.7480872001378
 30
0.0
 10
158.577443454374
 20
110.7214285000215
 30
0.0
 10
158.6916035368725
 20
110.6672916243055
 30
0.0
 10
158.860356942135
 20
110.5744896183671
 30
0.0
 10
159.030435860866
 20
110.4718657721444
 30
0.0
 10
159.2014650841411
 20
110.3585975340317
 30
0.0
 10
159.373555252342
 20
110.2349197106455
 30
0.0
 10
159.5466728292596
 20
110.1007618735831
 30
0.0
 10
159.7208538862477
 20
109.9561675672136
 30
0.0
 10
159.895999487297
 20
109.80103491576
 30
0.0
 10
160.0724996973882
 20
109.6357451876619
 30
0.0
 10
160.1881403282732
 20
109.5197112860348
 30
0.0
 10
160.2469053564938
 20
109.4607464096634
 30
0.0
  0
SPLINE
  5
190
330
1F
100
AcDbEntity
  8
0
  6
HIDDEN
 62
     7
370
    18
100
AcDbSpline
210
0.0
220
0.0
230
1.0
 70
     8
 71
     3
 72
    15
 73
    11
 74
     0
 42
0.000000001
 43
0.00000001
 40
0.0
 40
0.0
 40
0.0
 40
0.0
 40
0.143412288402858
 40
0.2811248138127254
 40
0.4133235353070231
 40
0.540218654972179
 40
0.6620478302344582
 40
0.7790795849657408
 40
0.89161678950728
 40
1.0
 40
1.0
 40
1.0
 40
1.0
 10
160.2469693186721
 20
153.6176452198878
 30
0.0
 10
160.1737987245006
 20
153.5444650564834
 30
0.0
 10
160.0303656206005
 20
153.4010131944362
 30
0.0
 10
159.8104155115525
 20
153.1994809722234
 30
0.0
 10
159.5924591850072
 20
153.0137308387854
 30
0.0
 10
159.3758841621611
 20
152.844373275841
 30
0.0
 10
159.160881137876
 20
152.6911574726291
 30
0.0
 10
158.9472327962119
 20
152.554496830668
 30
0.0
 10
158.7355435590693
 20
152.4330744976236
 30
0.0
 10
158.5917592358435
 20
152.3641628951205
 30
0.0
 10
158.5212188714895
 20
152.3303549705866
 30
0.0
  0
LWPOLYLINE
  5
191
330
1F
100
AcDbEntity
  8
0
  6
HIDDEN
 62
     7
370
    18
100
AcDbPolyline
 90
       23
 70
   128
 43
0.0
 10
268.8684761404
 20
151.7489800195
 10
268.8755020379
 20
151.7296792905
 10
268.9314558982
 20
151.5759533237
 10
269.042044866
 20
151.2721037458
 10
269.2046835899
 20
150.8252514492
 10
269.4155648231
 20
150.2458719502
 10
269.6697339296
 20
149.547543932
 10
269.9612378954
 20
148.7466381828
 10
270.2832519888
 20
147.8619245778
 10
270.6282138705
 20
146.9141408767
 10
270.988047111
 20
145.9255028482
 10
271.3543176531
 20
144.9191827293
 10
271.718442428
 20
143.9187690581
 10
272.0718756198
 20
142.9477088119
 10
272.406347084
 20
142.0287644456
 10
272.7140039086
 20
141.1834737252
 10
272.9876488327
 20
140.4316505383
 10
273.220859456
 20
139.7909173708
 10
273.4081670522
 20
139.2762913334
 10
273.5451832294
 20
138.8998358476
 10
273.6286967873
 20
138.6703737977
 10
273.6567556738
 20
138.5932840373
 10
273.6567556738
 20
138.5932840373
  0
SPLINE
  5
192
330
1F
100
AcDbEntity
  8
0
  6
HIDDEN
 62
     7
370
    18
100
AcDbSpline
210
0.0
220
0.0
230
1.0
 70
     8
 71
     3
 72
     8
 73
     4
 74
     0
 42
0.000000001
 43
0.00000001
 40
0.0
 40
0.0
 40
0.0
 40
0.0
 40
1.0
 40
1.0
 40
1.0
 40
1.0
 10
151.5713882207122
 20
114.9580401535708
 30
0.0
 10
152.0722862565566
 20
115.2807616785197
 30
0.0
 10
152.5723386773351
 20
115.6047878944248
 30
0.0
 10
153.0713882207122
 20
115.9303614397572
 30
0.0
  0
LINE
  5
193
330
1F
100
AcDbEntity
  8
0
  6
HIDDEN
 62
     7
370
    18
100
AcDbLine
 10
152.7225188791
 20
111.1441818963
 30
0.0
 11
157.4362628042
 21
110.886768062
 31
0.0
  0
SPLINE
  5
194
330
1F
100
AcDbEntity
  8
0
  6
HIDDEN
 62
     7
370
    18
100
AcDbSpline
210
0.0
220
0.0
230
1.0
 70
     8
 71
     3
 72
     8
 73
     4
 74
     0
 42
0.000000001
 43
0.00000001
 40
0.0
 40
0.0
 40
0.0
 40
0.0
 40
1.0
 40
1.0
 40
1.0
 40
1.0
 10
153.0713882207122
 20
147.148064750539
 30
0.0
 10
152.5723452569569
 20
147.4736340034104
 30
0.0
 10
152.0722924964777
 20
147.7976604914836
 30
0.0
 10
151.5713882207122
 20
148.1203860367254
 30
0.0
  0
LINE
  5
195
330
1F
100
AcDbEntity
  8
0
  6
HIDDEN
 62
     7
370
    18
100
AcDbLine
 10
157.4362628042
 20
152.1916581283
 30
0.0
 11
152.7225188791
 21
151.934244294
 31
0.0
  0
SPLINE
  5
196
330
1F
100
AcDbEntity
  8
0
  6
HIDDEN
 62
     7
370
    18
100
AcDbSpline
210
0.0
220
0.0
230
1.0
 70
     8
 71
     3
 72
     8
 73
     4
 74
     0
 42
0.000000001
 43
0.00000001
 40
0.0000004024872366
 40
0.0000004024872366
 40
0.0000004024872366
 40
0.0000004024872366
 40
0.0015137680586847
 40
0.0015137680586847
 40
0.0015137680586847
 40
0.0015137680586847
 10
150.0713882207122
 20
113.4522901190629
 30
0.0
 10
150.3220570929649
 20
113.8654428686801
 30
0.0
 10
150.5726207102932
 20
114.2786808057615
 30
0.0
 10
150.8230542705517
 20
114.692023780864
 30
0.0
  0
SPLINE
  5
197
330
1F
100
AcDbEntity
  8
0
  6
HIDDEN
 62
     7
370
    18
100
AcDbSpline
210
0.0
220
0.0
230
1.0
 70
     8
 71
     3
 72
     8
 73
     4
 74
     0
 42
0.000000001
 43
0.00000001
 40
0.0000002414707367
 40
0.0000002414707367
 40
0.0000002414707367
 40
0.0000002414707367
 40
0.0009043633164144
 40
0.0009043633164144
 40
0.0009043633164144
 40
0.0009043633164144
 10
150.8230542705517
 20
114.692023780864
 30
0.0
 10
151.0726689068998
 20
114.7800557899928
 30
0.0
 10
151.3221173045775
 20
114.8687189875685
 30
0.0
 10
151.5713882207122
 20
114.9580401535708
 30
0.0
  0
SPLINE
  5
198
330
1F
100
AcDbEntity
  8
0
  6
HIDDEN
 62
     7
370
    18
100
AcDbSpline
210
0.0
220
0.0
230
1.0
 70
     8
 71
     3
 72
     8
 73
     4
 74
     0
 42
0.000000001
 43
0.00000001
 40
0.0000002418037727
 40
0.0000002418037727
 40
0.0000002418037727
 40
0.0000002418037727
 40
0.0009043636494504
 40
0.0009043636494504
 40
0.0009043636494504
 40
0.0009043636494504
 10
151.5713882207122
 20
148.1203860367254
 30
0.0
 10
151.3221173045775
 20
148.2097072027277
 30
0.0
 10
151.0726689068998
 20
148.2983704003034
 30
0.0
 10
150.8230542705517
 20
148.3864024094323
 30
0.0
  0
SPLINE
  5
199
330
1F
100
AcDbEntity
  8
0
  6
HIDDEN
 62
     7
370
    18
100
AcDbSpline
210
0.0
220
0.0
230
1.0
 70
     8
 71
     3
 72
     8
 73
     4
 74
     0
 42
0.000000001
 43
0.00000001
 40
0.0000004028655191
 40
0.0000004028655191
 40
0.0000004028655191
 40
0.0000004028655191
 40
0.0015137684369673
 40
0.0015137684369673
 40
0.0015137684369673
 40
0.0015137684369673
 10
150.8230542705517
 20
148.3864024094323
 30
0.0
 10
150.5726207102932
 20
148.7997453845348
 30
0.0
 10
150.3220570929649
 20
149.2129833216161
 30
0.0
 10
150.0713882207122
 20
149.6261360712334
 30
0.0
  0
LINE
  5
19A
330
1F
100
AcDbEntity
  8
0
  6
HIDDEN
 62
     7
370
    18
100
AcDbLine
 10
150.8230529606
 20
148.386402611
 30
0.0
 11
150.8230529606
 21
147.3022369634
 31
0.0
  0
LINE
  5
19B
330
1F
100
AcDbEntity
  8
0
  6
HIDDEN
 62
     7
370
    18
100
AcDbLine
 10
150.8230529606
 20
115.7761892269
 30
0.0
 11
150.8230529606
 21
114.6920235793
 31
0.0
  0
LWPOLYLINE
  5
19C
330
1F
100
AcDbEntity
  8
0
  6
HIDDEN
 62
     7
370
    18
100
AcDbPolyline
 90
       21
 70
   128
 43
0.0
 10
261.692956078
 20
148.073126186
 10
261.7209404587
 20
147.9962306063
 10
261.8041485428
 20
147.7676356177
 10
261.9402930021
 20
147.3935810815
 10
262.1256634473
 20
146.8842687051
 10
262.3552158355
 20
146.2535900961
 10
262.6226693272
 20
145.5187505077
 10
262.9207521557
 20
144.699792933
 10
263.2413133859
 20
143.8190570067
 10
263.5756134867
 20
142.9005661945
 10
263.914540398
 20
141.9693758677
 10
264.2488404988
 20
141.0508859868
 10
264.569401729
 20
140.1701500605
 10
264.867477107
 20
139.3511924858
 10
265.1349380492
 20
138.6163524318
 10
265.3644904374
 20
137.9856742884
 10
265.5498608827
 20
137.4763614464
 10
265.6860053419
 20
137.1023064445
 10
265.7692059755
 20
136.8737128529
 10
265.7971978068
 20
136.7968158762
 10
265.7971978068
 20
136.7968158762
  0
LWPOLYLINE
  5
19D
330
1F
100
AcDbEntity
  8
0
  6
HIDDEN
 62
     7
370
    18
100
AcDbPolyline
 90
       31
 70
   128
 43
0.0
 10
201.0713880762
 20
144.0634826164
 10
201.8484584867
 20
143.9927514608
 10
202.5915663569
 20
143.783649985
 10
203.2682355373
 20
143.4453153948
 10
203.8488918795
 20
142.9925352301
 10
204.3081577747
 20
142.4450982328
 10
204.6259622901
 20
141.8269300799
 10
204.7884138181
 20
141.165047508
 10
204.7884138181
 20
140.4883783276
 10
204.6259622901
 20
139.8264957558
 10
204.3081577747
 20
139.2083280685
 10
203.8488918795
 20
138.6608910712
 10
203.2682355373
 20
138.2081113721
 10
202.5915663569
 20
137.8697767819
 10
201.8484584867
 20
137.6606743748
 10
201.0713880762
 20
137.5899432193
 10
200.2943185969
 20
137.6606743748
 10
199.5512097954
 20
137.8697767819
 10
198.874540615
 20
138.2081113721
 10
198.2938842728
 20
138.6608910712
 10
197.8346183776
 20
139.2083280685
 10
197.5168143279
 20
139.8264957558
 10
197.3543627999
 20
140.4883783276
 10
197.3543627999
 20
141.165047508
 10
197.5168143279
 20
141.8269300799
 10
197.8346183776
 20
142.4450982328
 10
198.2938842728
 20
142.9925352301
 10
198.874540615
 20
143.4453153948
 10
199.5512097954
 20
143.783649985
 10
200.2943185969
 20
143.9927514608
 10
201.0713880762
 20
144.0634826164
  0
LINE
  5
19E
330
1F
100
AcDbEntity
  8
0
  6
HIDDEN
 62
     7
370
    18
100
AcDbLine
 10
201.7963882416
 20
142.7211524884
 30
0.0
 11
201.7963882416
 21
142.6719572361
 31
0.0
  0
SPLINE
  5
19F
330
1F
100
AcDbEntity
  8
0
  6
HIDDEN
 62
     7
370
    18
100
AcDbSpline
210
0.0
220
0.0
230
1.0
 70
     8
 71
     3
 72
    10
 73
     6
 74
     0
 42
0.000000001
 43
0.00000001
 40
0.0
 40
0.0
 40
0.0
 40
0.0
 40
0.5
 40
0.5
 40
1.0
 40
1.0
 40
1.0
 40
1.0
 10
203.2555860252822
 20
144.5769571004599
 30
0.0
 10
203.020855081313
 20
144.2181409255645
 30
0.0
 10
202.7814717735963
 20
143.8882031983239
 30
0.0
 10
202.2948504222855
 20
143.2723305164336
 30
0.0
 10
202.0475811105836
 20
142.9866441933911
 30
0.0
 10
201.7963882207122
 20
142.7211520448356
 30
0.0
  0
SPLINE
  5
1A0
330
1F
100
AcDbEntity
  8
0
  6
HIDDEN
 62
     7
370
    18
100
AcDbSpline
210
0.0
220
0.0
230
1.0
 70
     8
 71
     3
 72
    10
 73
     6
 74
     0
 42
0.000000001
 43
0.00000001
 40
0.0
 40
0.0
 40
0.0
 40
0.0
 40
0.5
 40
0.5
 40
1.0
 40
1.0
 40
1.0
 40
1.0
 10
200.7963882207122
 20
142.1109378489216
 30
0.0
 10
200.483924318424
 20
142.1324591462354
 30
0.0
 10
200.1810353364263
 20
142.1896479450658
 30
0.0
 10
199.5936921516222
 20
142.3721254962622
 30
0.0
 10
199.3092244910503
 20
142.4984812997666
 30
0.0
 10
199.0463882207122
 20
142.6548286433644
 30
0.0
  0
LINE
  5
1A1
330
1F
100
AcDbEntity
  8
0
  6
HIDDEN
 62
     7
370
    18
100
AcDbLine
 10
198.0463880926
 20
144.0214231576
 30
0.0
 11
198.0463880926
 21
144.0703622962
 31
0.0
  0
SPLINE
  5
1A2
330
1F
100
AcDbEntity
  8
0
  6
HIDDEN
 62
     7
370
    18
100
AcDbSpline
210
0.0
220
0.0
230
1.0
 70
     8
 71
     3
 72
     9
 73
     5
 74
     0
 42
0.000000001
 43
0.00000001
 40
0.0
 40
0.0
 40
0.0
 40
0.0
 40
0.9762110367010702
 40
1.0
 40
1.0
 40
1.0
 40
1.0
 10
165.8618096142259
 20
138.572377708097
 30
0.0
 10
165.8804839125731
 20
138.5786166330693
 30
0.0
 10
165.8996132787094
 20
138.5850075923371
 30
0.0
 10
165.7891238492443
 20
138.5537484247516
 30
0.0
 10
165.7864954202619
 20
138.5530048015611
 30
0.0
  0
SPLINE
  5
1A3
330
1F
100
AcDbEntity
  8
0
  6
HIDDEN
 62
     7
370
    18
100
AcDbSpline
210
0.0
220
0.0
230
1.0
 70
     8
 71
     3
 72
     9
 73
     5
 74
     0
 42
0.000000001
 43
0.00000001
 40
0.0
 40
0.0
 40
0.0
 40
0.0
 40
0.1427273679046917
 40
1.0
 40
1.0
 40
1.0
 40
1.0
 10
165.6999718277898
 20
124.5502318221229
 30
0.0
 10
165.724444902261
 20
124.5429974451911
 30
0.0
 10
165.8959121886719
 20
124.4923107616354
 30
0.0
 10
165.8782315111977
 20
124.4995512783746
 30
0.0
 10
165.8630743502822
 20
124.5057583752172
 30
0.0
  0
CIRCLE
  5
1A4
330
1F
100
AcDbEntity
  8
0
  6
HIDDEN
 62
     7
370
    18
100
AcDbCircle
 10
225.0213882207
 20
151.5392130951
 30
0.0
 40
5.250000000000028
  0
CIRCLE
  5
1A5
330
1F
100
AcDbEntity
  8
0
  6
HIDDEN
 62
     7
370
    18
100
AcDbCircle
 10
255.0213882207
 20
151.5392130951
 30
0.0
 40
5.250000000000028
  0
LINE
  5
1A6
330
1F
100
AcDbEntity
  8
0
  6
HIDDEN
 62
     7
370
    18
100
AcDbLine
 10
275.0213891148
 20
129.4848209678
 30
0.0
 11
208.0213874459
 21
129.4848209678
 31
0.0
  0
ARC
  5
1A7
330
1F
100
AcDbEntity
  8
0
  6
HIDDEN
 62
     7
370
    18
100
AcDbCircle
 10
269.383232496
 20
118.5913339551
 30
0.0
 40
4.99999999999998
100
AcDbArc
 50
204.4270040008
 51
250.0
  0
ARC
  5
1A8
330
1F
100
AcDbEntity
  8
0
  6
HIDDEN
 62
     7
370
    18
100
AcDbCircle
 10
269.383232496
 20
118.5913339551
 30
0.0
 40
5.000000000000027
100
AcDbArc
 50
20.5416018735
 51
115.5729959992
  0
ARC
  5
1A9
330
1F
100
AcDbEntity
  8
0
  6
HIDDEN
 62
     7
370
    18
100
AcDbCircle
 10
269.383232496
 20
118.5913339551
 30
0.0
 40
5.000000000000002
100
AcDbArc
 50
250.0
 51
299.4583981265
  0
LINE
  5
1AA
330
1F
100
AcDbEntity
  8
0
  6
HIDDEN
 62
     7
370
    18
100
AcDbLine
 10
264.8307904481
 20
116.5236659314
 30
0.0
 11
266.6251882791
 21
117.3604071106
 31
0.0
  0
LINE
  5
1AB
330
1F
100
AcDbEntity
  8
0
  6
HIDDEN
 62
     7
370
    18
100
AcDbLine
 10
268.0616676687
 20
121.3071165572
 30
0.0
 11
267.2249302148
 21
123.1015143882
 31
0.0
  0
LINE
  5
1AC
330
1F
100
AcDbEntity
  8
0
  6
HIDDEN
 62
     7
370
    18
100
AcDbLine
 10
273.8088071226
 20
119.6410018916
 30
0.0
 11
273.2961177706
 21
119.4019323181
 31
0.0
  0
LINE
  5
1AD
330
1F
100
AcDbEntity
  8
0
  6
HIDDEN
 62
     7
370
    18
100
AcDbLine
 10
271.8596383809
 20
115.4552238028
 30
0.0
 11
272.0987051605
 21
114.942538176
 31
0.0
  0
LINE
  5
1AE
330
1F
100
AcDbEntity
  8
0
  6
HIDDEN
 62
     7
370
    18
100
AcDbLine
 10
266.6251882791
 20
117.3604071106
 30
0.0
 11
271.8596383809
 21
115.4552238028
 31
0.0
  0
LINE
  5
1AF
330
1F
100
AcDbEntity
  8
0
  6
HIDDEN
 62
     7
370
    18
100
AcDbLine
 10
273.2961177706
 20
119.4019323181
 30
0.0
 11
268.0616676687
 21
121.3071165572
 31
0.0
  0
ARC
  5
1B0
330
1F
100
AcDbEntity
  8
0
  6
HIDDEN
 62
     7
370
    18
100
AcDbCircle
 10
269.383232496
 20
144.4870922352
 30
0.0
 40
5.00000000000004
100
AcDbArc
 50
244.4270040008
 51
290.0
  0
ARC
  5
1B1
330
1F
100
AcDbEntity
  8
0
  6
HIDDEN
 62
     7
370
    18
100
AcDbCircle
 10
269.383232496
 20
144.4870922352
 30
0.0
 40
4.999999999999978
100
AcDbArc
 50
60.5416018735
 51
155.5729959992
  0
ARC
  5
1B2
330
1F
100
AcDbEntity
  8
0
  6
HIDDEN
 62
     7
370
    18
100
AcDbCircle
 10
269.383232496
 20
144.4870922352
 30
0.0
 40
5.00000000000004
100
AcDbArc
 50
290.0
 51
339.4583981265
  0
LINE
  5
1B3
330
1F
100
AcDbEntity
  8
0
  6
HIDDEN
 62
     7
370
    18
100
AcDbLine
 10
267.2249302148
 20
139.9769118021
 30
0.0
 11
268.0616676687
 21
141.7713096331
 31
0.0
  0
LINE
  5
1B4
330
1F
100
AcDbEntity
  8
0
  6
HIDDEN
 62
     7
370
    18
100
AcDbLine
 10
266.6251882791
 20
145.7180190797
 30
0.0
 11
264.8307904481
 21
146.5547602589
 31
0.0
  0
LINE
  5
1B5
330
1F
100
AcDbEntity
  8
0
  6
HIDDEN
 62
     7
370
    18
100
AcDbLine
 10
272.0987051605
 20
148.1358880143
 30
0.0
 11
271.8596383809
 21
147.6232023875
 31
0.0
  0
LINE
  5
1B6
330
1F
100
AcDbEntity
  8
0
  6
HIDDEN
 62
     7
370
    18
100
AcDbLine
 10
273.2961177706
 20
143.6764938722
 30
0.0
 11
273.8088071226
 21
143.4374242987
 31
0.0
  0
LINE
  5
1B7
330
1F
100
AcDbEntity
  8
0
  6
HIDDEN
 62
     7
370
    18
100
AcDbLine
 10
268.0616676687
 20
141.7713096331
 30
0.0
 11
273.2961177706
 21
143.6764938722
 31
0.0
  0
LINE
  5
1B8
330
1F
100
AcDbEntity
  8
0
  6
HIDDEN
 62
     7
370
    18
100
AcDbLine
 10
271.8596383809
 20
147.6232023875
 30
0.0
 11
266.6251882791
 21
145.7180190797
 31
0.0
  0
LINE
  5
1B9
330
1F
100
AcDbEntity
  8
0
  6
HIDDEN
 62
     7
370
    18
100
AcDbLine
 10
261.692956078
 20
115.0053000043
 30
0.0
 11
269.2104950427
 21
112.26913761
 31
0.0
  0
LINE
  5
1BA
330
1F
100
AcDbEntity
  8
0
  6
HIDDEN
 62
     7
370
    18
100
AcDbLine
 10
273.3147367715
 20
123.5454497825
 30
0.0
 11
265.7971978068
 21
126.2816103141
 31
0.0
  0
ARC
  5
1BB
330
1F
100
AcDbEntity
  8
0
  6
HIDDEN
 62
     7
370
    18
100
AcDbCircle
 10
269.383232496
 20
118.5913339551
 30
0.0
 40
4.999999999999982
100
AcDbArc
 50
46.4218215218
 51
115.5729959992
  0
ARC
  5
1BC
330
1F
100
AcDbEntity
  8
0
  6
HIDDEN
 62
     7
370
    18
100
AcDbCircle
 10
269.383232496
 20
118.5913339551
 30
0.0
 40
5.000000000000013
100
AcDbArc
 50
250.0
 51
273.5781784782
  0
LINE
  5
1BD
330
1F
100
AcDbEntity
  8
0
  6
HIDDEN
 62
     7
370
    18
100
AcDbLine
 10
262.548007059
 20
117.3545304651
 30
0.0
 11
264.8307904481
 21
116.5236659314
 31
0.0
  0
LINE
  5
1BE
330
1F
100
AcDbEntity
  8
0
  6
HIDDEN
 62
     7
370
    18
100
AcDbLine
 10
267.2249302148
 20
123.1015143882
 30
0.0
 11
264.9421468257
 21
123.9323789219
 31
0.0
  0
LINE
  5
1BF
330
1F
100
AcDbEntity
  8
0
  6
HIDDEN
 62
     7
370
    18
100
AcDbLine
 10
265.7971978068
 20
136.7968158762
 30
0.0
 11
273.3147367715
 21
139.5329764078
 31
0.0
  0
LINE
  5
1C0
330
1F
100
AcDbEntity
  8
0
  6
HIDDEN
 62
     7
370
    18
100
AcDbLine
 10
269.2104950427
 20
150.8092885803
 30
0.0
 11
261.692956078
 21
148.073126186
 31
0.0
  0
ARC
  5
1C1
330
1F
100
AcDbEntity
  8
0
  6
HIDDEN
 62
     7
370
    18
100
AcDbCircle
 10
269.383232496
 20
144.4870922352
 30
0.0
 40
5.000000000000022
100
AcDbArc
 50
86.4218215218
 51
155.5729959992
  0
ARC
  5
1C2
330
1F
100
AcDbEntity
  8
0
  6
HIDDEN
 62
     7
370
    18
100
AcDbCircle
 10
269.383232496
 20
144.4870922352
 30
0.0
 40
5.00000000000002
100
AcDbArc
 50
290.0
 51
313.5781784782
  0
LINE
  5
1C3
330
1F
100
AcDbEntity
  8
0
  6
HIDDEN
 62
     7
370
    18
100
AcDbLine
 10
264.9421468257
 20
139.1460472684
 30
0.0
 11
267.2249302148
 21
139.9769118021
 31
0.0
  0
LINE
  5
1C4
330
1F
100
AcDbEntity
  8
0
  6
HIDDEN
 62
     7
370
    18
100
AcDbLine
 10
264.8307904481
 20
146.5547602589
 30
0.0
 11
262.548007059
 21
145.7238957252
 31
0.0
  0
LINE
  5
1C5
330
1F
100
AcDbEntity
  8
0
  6
HIDDEN
 62
     7
370
    18
100
AcDbLine
 10
196.8338880568
 20
146.276712973
 30
0.0
 11
196.8338880568
 21
142.2767132486
 31
0.0
  0
LINE
  5
1C6
330
1F
100
AcDbEntity
  8
0
  6
HIDDEN
 62
     7
370
    18
100
AcDbLine
 10
205.3088880955
 20
142.2767132486
 30
0.0
 11
205.3088880955
 21
146.276712973
 31
0.0
  0
LINE
  5
1C7
330
1F
100
AcDbEntity
  8
0
  6
HIDDEN
 62
     7
370
    18
100
AcDbLine
 10
190.0213882207
 20
104.5392123948
 30
0.0
 11
190.4027217122
 21
105.7486483793
 31
0.0
  0
LINE
  5
1C8
330
1F
100
AcDbEntity
  8
0
  6
HIDDEN
 62
     7
370
    18
100
AcDbLine
 10
190.4027217122
 20
157.329777811
 30
0.0
 11
190.0213882207
 21
158.5392137955
 31
0.0
  0
ARC
  5
1C9
330
1F
100
AcDbEntity
  8
0
  6
HIDDEN
 62
     7
370
    18
100
AcDbCircle
 10
189.6397481645
 20
105.9892130951
 30
0.0
 40
0.8000000000000139
100
AcDbArc
 50
342.5
 51
0.0
  0
ARC
  5
1CA
330
1F
100
AcDbEntity
  8
0
  6
HIDDEN
 62
     7
370
    18
100
AcDbCircle
 10
189.6397481645
 20
105.9892130951
 30
0.0
 40
0.8000000000000175
100
AcDbArc
 50
0.0
 51
61.5070859647
  0
ARC
  5
1CB
330
1F
100
AcDbEntity
  8
0
  6
HIDDEN
 62
     7
370
    18
100
AcDbCircle
 10
189.6397481645
 20
157.0892130951
 30
0.0
 40
0.8000000000000097
100
AcDbArc
 50
346.5625
 51
17.5
  0
ARC
  5
1CC
330
1F
100
AcDbEntity
  8
0
  6
HIDDEN
 62
     7
370
    18
100
AcDbCircle
 10
189.6397481645
 20
157.0892130951
 30
0.0
 40
0.8000000000000299
100
AcDbArc
 50
298.4929140353
 51
346.5625
  0
LINE
  5
1CD
330
1F
100
AcDbEntity
  8
0
  6
HIDDEN
 62
     7
370
    18
100
AcDbLine
 10
190.4397481583
 20
105.9892127256
 30
0.0
 11
190.4397481583
 21
157.0892134647
 31
0.0
  0
LINE
  5
1CE
330
1F
100
AcDbEntity
  8
0
  6
HIDDEN
 62
     7
370
    18
100
AcDbLine
 10
164.5088847607
 20
124.5017131756
 30
0.0
 11
165.8616978555
 21
124.5017131756
 31
0.0
  0
LINE
  5
1CF
330
1F
100
AcDbEntity
  8
0
  6
HIDDEN
 62
     7
370
    18
100
AcDbLine
 10
165.8629476904
 20
138.5767130147
 30
0.0
 11
164.5064391076
 21
138.5767130147
 31
0.0
  0
LINE
  5
1D0
330
1F
100
AcDbEntity
  8
0
  6
HIDDEN
 62
     7
370
    18
100
AcDbLine
 10
275.0213891148
 20
123.9884575795
 30
0.0
 11
273.6567556738
 21
124.485142153
 31
0.0
  0
LINE
  5
1D1
330
1F
100
AcDbEntity
  8
0
  6
HIDDEN
 62
     7
370
    18
100
AcDbLine
 10
268.8684761404
 20
111.3294461708
 30
0.0
 11
275.0213891148
 21
109.0899692814
 31
0.0
  0
LINE
  5
1D2
330
1F
100
AcDbEntity
  8
0
  6
HIDDEN
 62
     7
370
    18
100
AcDbLine
 10
273.3147367715
 20
123.5454497825
 30
0.0
 11
265.7971978068
 21
126.2816103141
 31
0.0
  0
LINE
  5
1D3
330
1F
100
AcDbEntity
  8
0
  6
HIDDEN
 62
     7
370
    18
100
AcDbLine
 10
261.692956078
 20
115.0053000043
 30
0.0
 11
269.2104950427
 21
112.26913761
 31
0.0
  0
LINE
  5
1D4
330
1F
100
AcDbEntity
  8
0
  6
HIDDEN
 62
     7
370
    18
100
AcDbLine
 10
210.771387431
 20
161.5392124246
 30
0.0
 11
210.771387431
 21
141.5392128716
 31
0.0
  0
ARC
  5
1D5
330
1F
100
AcDbEntity
  8
0
  6
HIDDEN
 62
     7
370
    18
100
AcDbCircle
 10
183.2213882207
 20
114.0892130951
 30
0.0
 40
0.8000000000000114
100
AcDbArc
 50
270.0
 51
0.0
  0
ARC
  5
1D6
330
1F
100
AcDbEntity
  8
0
  6
HIDDEN
 62
     7
370
    18
100
AcDbCircle
 10
183.2213882207
 20
148.9892130951
 30
0.0
 40
0.8000000000000114
100
AcDbArc
 50
0.0
 51
90.0
  0
LINE
  5
1D7
330
1F
100
AcDbEntity
  8
0
  6
HIDDEN
 62
     7
370
    18
100
AcDbLine
 10
181.7966289698
 20
113.2892133634
 30
0.0
 11
183.2213881306
 21
113.2892133634
 31
0.0
  0
LINE
  5
1D8
330
1F
100
AcDbEntity
  8
0
  6
HIDDEN
 62
     7
370
    18
100
AcDbLine
 10
183.2213881306
 20
149.7892128269
 30
0.0
 11
181.7966289698
 21
149.7892128269
 31
0.0
  0
ARC
  5
1D9
330
1F
100
AcDbEntity
  8
0
  6
HIDDEN
 62
     7
370
    18
100
AcDbCircle
 10
181.7966286943
 20
114.0892130951
 30
0.0
 40
0.7999999999999972
100
AcDbArc
 50
240.0
 51
270.0
  0
ARC
  5
1DA
330
1F
100
AcDbEntity
  8
0
  6
HIDDEN
 62
     7
370
    18
100
AcDbCircle
 10
181.7966286943
 20
148.9892130951
 30
0.0
 40
0.799999999999983
100
AcDbArc
 50
90.0
 51
120.0
  0
LINE
  5
1DB
330
1F
100
AcDbEntity
  8
0
  6
HIDDEN
 62
     7
370
    18
100
AcDbLine
 10
181.396628718
 20
149.6820324998
 30
0.0
 11
180.5213885262
 21
149.1767136346
 31
0.0
  0
LINE
  5
1DC
330
1F
100
AcDbEntity
  8
0
  6
HIDDEN
 62
     7
370
    18
100
AcDbLine
 10
180.5213885262
 20
113.9017125557
 30
0.0
 11
181.396628718
 21
113.3963936905
 31
0.0
  0
LINE
  5
1DD
330
1F
100
AcDbEntity
  8
0
  6
HIDDEN
 62
     7
370
    18
100
AcDbLine
 10
172.0213889956
 20
113.9017125557
 30
0.0
 11
180.5213885262
 21
113.9017125557
 31
0.0
  0
LINE
  5
1DE
330
1F
100
AcDbEntity
  8
0
  6
HIDDEN
 62
     7
370
    18
100
AcDbLine
 10
180.5213885262
 20
149.1767136346
 30
0.0
 11
172.0213889956
 21
149.1767136346
 31
0.0
  0
LINE
  5
1DF
330
1F
100
AcDbEntity
  8
0
  6
HIDDEN
 62
     7
370
    18
100
AcDbLine
 10
264.5918726801
 20
122.970009778
 30
0.0
 11
236.9480468213
 21
132.7960713266
 31
0.0
  0
LINE
  5
1E0
330
1F
100
AcDbEntity
  8
0
  6
HIDDEN
 62
     7
370
    18
100
AcDbLine
 10
235.6997281193
 20
127.9333162553
 30
0.0
 11
262.8817260145
 21
118.2714128832
 31
0.0
  0
LINE
  5
1E1
330
1F
100
AcDbEntity
  8
0
  6
HIDDEN
 62
     7
370
    18
100
AcDbLine
 10
184.0213881686
 20
115.9892134334
 30
0.0
 11
187.7213881697
 21
115.9892134334
 31
0.0
  0
LINE
  5
1E2
330
1F
100
AcDbEntity
  8
0
  6
HIDDEN
 62
     7
370
    18
100
AcDbLine
 10
187.7213881697
 20
147.0892127569
 30
0.0
 11
184.0213881686
 21
147.0892127569
 31
0.0
  0
ARC
  5
1E3
330
1F
100
AcDbEntity
  8
0
  6
HIDDEN
 62
     7
370
    18
100
AcDbCircle
 10
187.7213882207
 20
117.1892130951
 30
0.0
 40
1.200000000000017
100
AcDbArc
 50
270.0
 51
0.0
  0
ARC
  5
1E4
330
1F
100
AcDbEntity
  8
0
  6
HIDDEN
 62
     7
370
    18
100
AcDbCircle
 10
187.7213882207
 20
145.8892130951
 30
0.0
 40
1.200000000000017
100
AcDbArc
 50
0.0
 51
90.0
  0
LINE
  5
1E5
330
1F
100
AcDbEntity
  8
0
  6
HIDDEN
 62
     7
370
    18
100
AcDbLine
 10
172.3324134826
 20
107.9559890519
 30
0.0
 11
171.9761323064
 21
108.6065998267
 31
0.0
  0
LINE
  5
1E6
330
1F
100
AcDbEntity
  8
0
  6
HIDDEN
 62
     7
370
    18
100
AcDbLine
 10
171.9759385913
 20
154.4724391739
 30
0.0
 11
172.3322048663
 21
155.1230760257
 31
0.0
  0
LINE
  5
1E7
330
1F
100
AcDbEntity
  8
0
  6
HIDDEN
 62
     7
370
    18
100
AcDbLine
 10
188.9213882267
 20
126.5392132069
 30
0.0
 11
235.0713871299
 21
126.5392132069
 31
0.0
  0
LINE
  5
1E8
330
1F
100
AcDbEntity
  8
0
  6
HIDDEN
 62
     7
370
    18
100
AcDbLine
 10
235.0713871299
 20
136.5392129834
 30
0.0
 11
188.9213882267
 21
136.5392129834
 31
0.0
  0
LINE
  5
1E9
330
1F
100
AcDbEntity
  8
0
  6
HIDDEN
 62
     7
370
    18
100
AcDbLine
 10
235.0713871299
 20
126.5392132069
 30
0.0
 11
236.1920401334
 21
128.4042895737
 31
0.0
  0
LINE
  5
1EA
330
1F
100
AcDbEntity
  8
0
  6
HIDDEN
 62
     7
370
    18
100
AcDbLine
 10
236.1911386131
 20
134.6756341833
 30
0.0
 11
235.0713871299
 21
136.5392129834
 31
0.0
  0
LINE
  5
1EB
330
1F
100
AcDbEntity
  8
0
  6
HIDDEN
 62
     7
370
    18
100
AcDbLine
 10
206.8088874101
 20
100.0642130117
 30
0.0
 11
204.8088880136
 21
102.0642133395
 31
0.0
  0
LINE
  5
1EC
330
1F
100
AcDbEntity
  8
0
  6
HIDDEN
 62
     7
370
    18
100
AcDbLine
 10
204.8088880136
 20
112.9642134498
 30
0.0
 11
201.0713880762
 21
115.2099302004
 31
0.0
  0
LINE
  5
1ED
330
1F
100
AcDbEntity
  8
0
  6
HIDDEN
 62
     7
370
    18
100
AcDbLine
 10
201.0713880762
 20
115.2099302004
 30
0.0
 11
197.3338881388
 21
112.9642134498
 31
0.0
  0
LINE
  5
1EE
330
1F
100
AcDbEntity
  8
0
  6
HIDDEN
 62
     7
370
    18
100
AcDbLine
 10
197.3338881388
 20
112.9642134498
 30
0.0
 11
197.3338881388
 21
102.0642133395
 31
0.0
  0
LINE
  5
1EF
330
1F
100
AcDbEntity
  8
0
  6
HIDDEN
 62
     7
370
    18
100
AcDbLine
 10
204.8088880136
 20
102.0642133395
 30
0.0
 11
204.8088880136
 21
112.9642134498
 31
0.0
  0
LINE
  5
1F0
330
1F
100
AcDbEntity
  8
0
  6
HIDDEN
 62
     7
370
    18
100
AcDbLine
 10
197.3338881388
 20
102.0642133395
 30
0.0
 11
195.3338882766
 21
100.0642130117
 31
0.0
  0
LINE
  5
1F1
330
1F
100
AcDbEntity
  8
0
  6
HIDDEN
 62
     7
370
    18
100
AcDbLine
 10
275.0213891148
 20
134.1892130173
 30
0.0
 11
272.5965157031
 21
132.7892130672
 31
0.0
  0
LINE
  5
1F2
330
1F
100
AcDbEntity
  8
0
  6
HIDDEN
 62
     7
370
    18
100
AcDbLine
 10
272.5965157031
 20
130.2892131231
 30
0.0
 11
275.0213891148
 21
128.889213173
 31
0.0
  0
LINE
  5
1F3
330
1F
100
AcDbEntity
  8
0
  6
HIDDEN
 62
     7
370
    18
100
AcDbLine
 10
272.5965157031
 20
132.7892130672
 30
0.0
 11
270.4213857531
 21
132.7892130672
 31
0.0
  0
LINE
  5
1F4
330
1F
100
AcDbEntity
  8
0
  6
HIDDEN
 62
     7
370
    18
100
AcDbLine
 10
270.4213857531
 20
130.2892131231
 30
0.0
 11
272.5965157031
 21
130.2892131231
 31
0.0
  0
LINE
  5
1F5
330
1F
100
AcDbEntity
  8
0
  6
HIDDEN
 62
     7
370
    18
100
AcDbLine
 10
270.4213857531
 20
132.7892130672
 30
0.0
 11
269.6703150748
 21
131.5392130951
 31
0.0
  0
LINE
  5
1F6
330
1F
100
AcDbEntity
  8
0
  6
HIDDEN
 62
     7
370
    18
100
AcDbLine
 10
269.6703150748
 20
131.5392130951
 30
0.0
 11
270.4213857531
 21
130.2892131231
 31
0.0
  0
LINE
  5
1F7
330
1F
100
AcDbEntity
  8
0
  6
HIDDEN
 62
     7
370
    18
100
AcDbLine
 10
262.8817260145
 20
144.8070133071
 30
0.0
 11
235.7007413983
 21
135.1454703569
 31
0.0
  0
LINE
  5
1F8
330
1F
100
AcDbEntity
  8
0
  6
HIDDEN
 62
     7
370
    18
100
AcDbLine
 10
236.9581274568
 20
130.2859375452
 30
0.0
 11
264.5918726801
 21
140.1084164123
 31
0.0
  0
LINE
  5
1F9
330
1F
100
AcDbEntity
  8
0
  6
HIDDEN
 62
     7
370
    18
100
AcDbLine
 10
210.771387431
 20
121.5392133187
 30
0.0
 11
210.771387431
 21
101.5392137657
 31
0.0
  0
LINE
  5
1FA
330
1F
100
AcDbEntity
  8
0
  6
HIDDEN
 62
     7
370
    18
100
AcDbLine
 10
172.3322048663
 20
107.9553501646
 30
0.0
 11
171.9759385913
 21
108.6059870164
 31
0.0
  0
LINE
  5
1FB
330
1F
100
AcDbEntity
  8
0
  6
HIDDEN
 62
     7
370
    18
100
AcDbLine
 10
171.9761323064
 20
154.4718263636
 30
0.0
 11
172.3324134826
 21
155.1224371384
 31
0.0
  0
LINE
  5
1FC
330
1F
100
AcDbEntity
  8
0
  6
HIDDEN
 62
     7
370
    18
100
AcDbLine
 10
275.0213891148
 20
153.9884569089
 30
0.0
 11
268.8684761404
 21
151.7489800195
 31
0.0
  0
LINE
  5
1FD
330
1F
100
AcDbEntity
  8
0
  6
HIDDEN
 62
     7
370
    18
100
AcDbLine
 10
273.6567556738
 20
138.5932840373
 30
0.0
 11
275.0213891148
 21
139.0899686108
 31
0.0
  0
LINE
  5
1FE
330
1F
100
AcDbEntity
  8
0
  6
HIDDEN
 62
     7
370
    18
100
AcDbLine
 10
269.2104950427
 20
150.8092885803
 30
0.0
 11
261.692956078
 21
148.073126186
 31
0.0
  0
LINE
  5
1FF
330
1F
100
AcDbEntity
  8
0
  6
HIDDEN
 62
     7
370
    18
100
AcDbLine
 10
265.7971978068
 20
136.7968158762
 30
0.0
 11
273.3147367715
 21
139.5329764078
 31
0.0
  0
LINE
  5
200
330
1F
100
AcDbEntity
  8
0
  6
HIDDEN
 62
     7
370
    18
100
AcDbLine
 10
197.3338881388
 20
146.6189861263
 30
0.0
 11
197.3338881388
 21
140.8267129178
 31
0.0
  0
LINE
  5
201
330
1F
100
AcDbEntity
  8
0
  6
HIDDEN
 62
     7
370
    18
100
AcDbLine
 10
204.8088880136
 20
140.8267129178
 30
0.0
 11
204.8088880136
 21
147.2747722606
 31
0.0
  0
LINE
  5
202
330
1F
100
AcDbEntity
  8
0
  6
HIDDEN
 62
     7
370
    18
100
AcDbLine
 10
165.8616978555
 20
124.5017131756
 30
0.0
 11
165.8629476904
 21
124.5017131756
 31
0.0
  0
DIMENSION
  5
203
330
1F
100
AcDbEntity
  8
VERMASSUNG
100
AcDbDimension
  2
_D
 10
215.0213882207
 20
92.1537434245
 30
0.0
 11
245.0213882207
 21
92.1537434245
 31
0.0
 70
   160
  1
<>
 71
     2
 42
-1.0
  3
SLDDIMSTYLE0
100
AcDbAlignedDimension
 13
275.0213882207
 23
101.5392130951
 33
0.0
 14
215.0213882207
 24
101.5392130951
 34
0.0
100
AcDbRotatedDimension
  0
DIMENSION
  5
20E
330
1F
100
AcDbEntity
  8
VERMASSUNG
100
AcDbDimension
  2
_D_1
 10
284.6056784696
 20
101.5392130951
 30
0.0
 11
284.6056784696
 21
111.5392130951
 31
0.0
 70
   160
  1
<>
 71
     2
 42
-1.0
  3
SLDDIMSTYLE0
100
AcDbAlignedDimension
 13
275.0213882207
 23
121.5392130951
 33
0.0
 14
275.0213882207
 24
101.5392130951
 34
0.0
 50
90.0
100
AcDbRotatedDimension
  0
DIMENSION
  5
218
330
1F
100
AcDbEntity
  8
VERMASSUNG
100
AcDbDimension
  2
_D_2
 10
141.984502402
 20
100.0642130951
 30
0.0
 11
141.984502402
 21
131.5392130951
 31
0.0
 70
   160
  1
KM%%c<> XMZ
 71
     2
 42
-1.0
  3
SLDDIMSTYLE0
100
AcDbAlignedDimension
 13
190.2213882207
 23
163.0142130951
 33
0.0
 14
190.2213882207
 24
100.0642130951
 34
0.0
 50
90.0
100
AcDbRotatedDimension
  0
DIMENSION
  5
225
330
1F
100
AcDbEntity
  8
VERMASSUNG
100
AcDbDimension
  2
_D_3
 10
275.0213882207
 20
176.9473472844
 30
0.0
 11
232.5213882207
 21
176.9473472844
 31
0.0
 70
   160
  1
<>
 71
     2
 42
-1.0
  3
SLDDIMSTYLE0
100
AcDbAlignedDimension
 13
190.0213882207
 23
162.8142130951
 33
0.0
 14
275.0213882207
 24
161.5392130951
 34
0.0
100
AcDbRotatedDimension
  0
DIMENSION
  5
22F
330
1F
100
AcDbEntity
  8
VERMASSUNG
100
AcDbDimension
  2
_D_4
 10
208.0213882207
 20
169.7426836402
 30
0.0
 11
199.0213882207
 21
169.7426836402
 31
0.0
 70
   160
  1
<>
 71
     2
 42
-1.0
  3
SLDDIMSTYLE0
100
AcDbAlignedDimension
 13
190.0213882207
 23
162.8142130951
 33
0.0
 14
208.0213882207
 24
161.5392130951
 34
0.0
100
AcDbRotatedDimension
  0
DIMENSION
  5
239
330
1F
100
AcDbEntity
  8
VERMASSUNG
100
AcDbDimension
  2
_D_5
 10
275.0213882207
 20
185.0142130951
 30
0.0
 11
212.5463882207
 21
185.0142130951
 31
0.0
 70
   160
  1
<>
 71
     2
 42
-1.0
  3
SLDDIMSTYLE0
100
AcDbAlignedDimension
 13
150.0713882207
 23
150.8679322506
 33
0.0
 14
275.0213882207
 24
161.5392130951
 34
0.0
100
AcDbRotatedDimension
  0
LINE
  5
243
330
1F
100
AcDbEntity
  8
VERMASSUNG
  6
CENTERX2
370
    18
100
AcDbLine
 10
277.0213882207
 20
131.5392130951
 30
0.0
 11
148.0713882207
 21
131.5392130951
 31
0.0
  0
LINE
  5
244
330
1F
100
AcDbEntity
  8
0
  6
Continuous
 62
     7
370
    25
100
AcDbLine
 10
65.6216449272
 20
107.0392137359
 30
0.0
 11
66.6216449747
 21
108.0392138998
 31
0.0
  0
LINE
  5
245
330
1F
100
AcDbEntity
  8
0
  6
Continuous
 62
     7
370
    25
100
AcDbLine
 10
66.6216449747
 20
115.0392131846
 30
0.0
 11
65.6216449272
 21
116.0392133485
 31
0.0
  0
LINE
  5
246
330
1F
100
AcDbEntity
  8
0
  6
Continuous
 62
     7
370
    25
100
AcDbLine
 10
67.6216450222
 20
156.0392124544
 30
0.0
 11
66.6216449747
 21
155.0392122905
 31
0.0
  0
LINE
  5
247
330
1F
100
AcDbEntity
  8
0
  6
Continuous
 62
     7
370
    25
100
AcDbLine
 10
66.6216449747
 20
148.0392130057
 30
0.0
 11
67.6216450222
 21
147.0392128418
 31
0.0
  0
LINE
  5
248
330
1F
100
AcDbEntity
  8
0
  6
Continuous
 62
     7
370
    25
100
AcDbLine
 10
66.6216449747
 20
108.0392138998
 30
0.0
 11
66.6216449747
 21
115.0392131846
 31
0.0
  0
LINE
  5
249
330
1F
100
AcDbEntity
  8
0
  6
Continuous
 62
     7
370
    25
100
AcDbLine
 10
66.6216449747
 20
155.0392122905
 30
0.0
 11
66.6216449747
 21
148.0392130057
 31
0.0
  0
LWPOLYLINE
  5
24A
330
1F
100
AcDbEntity
  8
0
  6
Continuous
 62
     7
370
    25
100
AcDbPolyline
 90
       29
 70
   128
 43
0.0
 10
52.4612512375
 20
120.242099833
 10
53.1388433585
 20
119.992565919
 10
53.7403576011
 20
119.6076037328
 10
54.235631221
 20
119.1065149347
 10
54.5998277078
 20
118.5144275392
 10
54.8146856884
 20
117.8610311787
 10
54.8694325546
 20
117.1790897812
 10
54.7613209049
 20
116.5027987178
 10
54.4957719679
 20
115.866069306
 10
54.0861036564
 20
115.300831009
 10
53.5528562898
 20
114.8354267667
 10
52.922770002
 20
114.4931936602
 10
52.2274408425
 20
114.2912922393
 10
51.5017328719
 20
114.2398478429
 10
50.7820384512
 20
114.3414402346
 10
50.1044453988
 20
114.5909732173
 10
49.5029320876
 20
114.9759372662
 10
49.0076584677
 20
115.4770242016
 10
48.6434629122
 20
116.0691115971
 10
48.428603069
 20
116.722508889
 10
48.3738580654
 20
117.4044502865
 10
48.4819697151
 20
118.0807413499
 10
48.7475177208
 20
118.7174707617
 10
49.1571860323
 20
119.2827090587
 10
49.6904333989
 20
119.7481133009
 10
50.3205196867
 20
120.0903464074
 10
51.0158497775
 20
120.2922468971
 10
51.7415568168
 20
120.3436912934
 10
52.4612512375
 20
120.242099833
  0
LWPOLYLINE
  5
24B
330
1F
100
AcDbEntity
  8
0
  6
Continuous
 62
     7
370
    25
100
AcDbPolyline
 90
       25
 70
   128
 43
0.0
 10
52.2674951638
 20
119.5612546022
 10
52.8705721656
 20
119.3268462981
 10
53.3885355974
 20
118.9537510241
 10
53.7860883335
 20
118.4673938866
 10
54.0361382003
 20
117.9009206559
 10
54.1216447885
 20
117.2929346527
 10
54.0367798815
 20
116.6848685558
 10
53.7873279239
 20
116.1181624944
 10
53.3902883465
 20
115.6314356218
 10
52.8727179329
 20
115.2578579228
 10
52.2698895941
 20
115.0228889625
 10
51.622883969
 20
114.942538176
 10
50.9757945249
 20
115.0222854654
 10
50.3727184544
 20
115.2566937695
 10
49.8547540913
 20
115.6297890435
 10
49.4572004239
 20
116.1161461811
 10
49.2071514885
 20
116.6826194118
 10
49.1216449002
 20
117.2906054149
 10
49.2065107385
 20
117.8986705805
 10
49.4559617648
 20
118.4653775732
 10
49.8530013422
 20
118.9521035145
 10
50.3705726872
 20
119.3256821449
 10
50.9734010259
 20
119.5606520365
 10
51.6204057197
 20
119.6410009603
 10
52.2674951638
 20
119.5612546022
  0
LWPOLYLINE
  5
24C
330
1F
100
AcDbEntity
  8
0
  6
Continuous
 62
     7
370
    25
100
AcDbPolyline
 90
       23
 70
   128
 43
0.0
 10
52.1641593362
 20
119.3349450792
 10
52.7137383754
 20
119.1140977631
 10
53.1748427013
 20
118.7566989998
 10
53.5101160342
 20
118.2917036082
 10
53.6923963512
 20
117.7567835863
 10
53.7069166014
 20
117.1952743049
 10
53.5525014559
 20
116.6526662151
 10
53.2416585768
 20
116.1729168112
 10
52.7995727892
 20
115.7948939095
 10
52.2620581026
 20
115.5492221902
 10
51.6726603667
 20
115.4558049481
 10
51.0791303525
 20
115.5222101103
 10
50.5295513133
 20
115.7430583577
 10
50.0684479187
 20
116.100457121
 10
49.7331736545
 20
116.5654515813
 10
49.5508933375
 20
117.1003725345
 10
49.5363740186
 20
117.6618818159
 10
49.6907891641
 20
118.2044899057
 10
50.0016311119
 20
118.6842393096
 10
50.4437168995
 20
119.06226128
 10
50.9812315861
 20
119.3079329993
 10
51.570629322
 20
119.4013502414
 10
52.1641593362
 20
119.3349450792
  0
ARC
  5
24D
330
1F
100
AcDbEntity
  8
0
  6
Continuous
 62
     7
370
    25
100
AcDbCircle
 10
51.6217167329
 20
119.5138675379
 30
0.0
 40
2.160005729536704
100
AcDbArc
 50
211.6275598051
 51
328.2196469329
  0
LWPOLYLINE
  5
24E
330
1F
100
AcDbEntity
  8
0
  6
Continuous
 62
     7
370
    25
100
AcDbPolyline
 90
       29
 70
   128
 43
0.0
 10
80.782038712
 20
142.8363263573
 10
80.1044465909
 20
143.0858602713
 10
79.5029323483
 20
143.4708224575
 10
79.0076587285
 20
143.9719112556
 10
78.6434622417
 20
144.563998651
 10
78.4286042611
 20
145.2173950116
 10
78.3738573948
 20
145.8993364091
 10
78.4819690446
 20
146.5756274725
 10
78.7475179816
 20
147.2123568843
 10
79.1571862931
 20
147.7775951813
 10
79.6904336596
 20
148.2429994236
 10
80.3205199475
 20
148.5852325301
 10
81.015849107
 20
148.787133951
 10
81.7415570776
 20
148.8385783474
 10
82.4612514983
 20
148.7369859557
 10
83.1388445506
 20
148.487452973
 10
83.7403578619
 20
148.1024889241
 10
84.2356314818
 20
147.6014019887
 10
84.5998270372
 20
147.0093145932
 10
84.8146868805
 20
146.3559173013
 10
84.8694318841
 20
145.6739759038
 10
84.7613202343
 20
144.9976848404
 10
84.4957722286
 20
144.3609554286
 10
84.0861039172
 20
143.7957171316
 10
83.5528565506
 20
143.3303128894
 10
82.9227702627
 20
142.9880797829
 10
82.2274401719
 20
142.7861792932
 10
81.5017331327
 20
142.7347348969
 10
80.782038712
 20
142.8363263573
  0
LWPOLYLINE
  5
24F
330
1F
100
AcDbEntity
  8
0
  6
Continuous
 62
     7
370
    25
100
AcDbPolyline
 90
       25
 70
   128
 43
0.0
 10
80.9757947857
 20
143.5171715881
 10
80.3727177838
 20
143.7515798922
 10
79.8547543521
 20
144.1246751661
 10
79.457201616
 20
144.6110323037
 10
79.2071517492
 20
145.1775055344
 10
79.121645161
 20
145.7854915376
 10
79.206510068
 20
146.3935576345
 10
79.4559620256
 20
146.9602636959
 10
79.853001603
 20
147.4469905685
 10
80.3705720166
 20
147.8205682675
 10
80.9734003554
 20
148.0555372278
 10
81.6204059804
 20
148.1358880143
 10
82.2674954245
 20
148.0561407249
 10
82.8705714951
 20
147.8217324208
 10
83.3885358582
 20
147.4486371468
 10
83.7860895256
 20
146.9622800092
 10
84.036138461
 20
146.3958067785
 10
84.1216450492
 20
145.7878207753
 10
84.036779211
 20
145.1797556098
 10
83.7873281846
 20
144.6130486171
 10
83.3902886073
 20
144.1263226758
 10
82.8727172623
 20
143.7527440454
 10
82.2698889236
 20
143.5177741538
 10
81.6228842298
 20
143.43742523
 10
80.9757947857
 20
143.5171715881
  0
LWPOLYLINE
  5
250
330
1F
100
AcDbEntity
  8
0
  6
Continuous
 62
     7
370
    25
100
AcDbPolyline
 90
       23
 70
   128
 43
0.0
 10
81.0791306133
 20
143.7434811111
 10
80.5295515741
 20
143.9643284272
 10
80.0684472481
 20
144.3217271905
 10
79.7331739152
 20
144.7867225821
 10
79.5508935983
 20
145.321642604
 10
79.536373348
 20
145.8831518854
 10
79.6907884935
 20
146.4257599752
 10
80.0016313727
 20
146.905509379
 10
80.4437171603
 20
147.2835322808
 10
80.9812318469
 20
147.5292040001
 10
81.5706295828
 20
147.6226212422
 10
82.1641595969
 20
147.55621608
 10
82.7137386362
 20
147.3353678326
 10
83.1748420308
 20
146.9779690693
 10
83.510116295
 20
146.512974609
 10
83.692396612
 20
145.9780536558
 10
83.7069159309
 20
145.4165443744
 10
83.5525007854
 20
144.8739362846
 10
83.2416588376
 20
144.3941868807
 10
82.7995730499
 20
144.0161649103
 10
82.2620583633
 20
143.770493191
 10
81.6726606275
 20
143.6770759489
 10
81.0791306133
 20
143.7434811111
  0
ARC
  5
251
330
1F
100
AcDbEntity
  8
0
  6
Continuous
 62
     7
370
    25
100
AcDbCircle
 10
81.6215732166
 20
143.5645586524
 30
0.0
 40
2.160005729536709
100
AcDbArc
 50
31.6275598051
 51
148.2196469329
  0
LWPOLYLINE
  5
252
330
1F
100
AcDbEntity
  8
0
  6
Continuous
 62
     7
370
    25
100
AcDbPolyline
 90
       34
 70
   128
 43
0.0
 10
47.4570622603
 20
116.1104772206
 10
47.170447738
 20
116.8835690211
 10
47.0447117398
 20
117.6936604048
 10
47.0843972574
 20
118.5114743154
 10
47.2880719165
 20
119.3074505742
 10
47.6483726809
 20
120.0528215583
 10
48.1522777984
 20
120.7206478308
 10
48.7815743248
 20
121.2867923047
 10
49.5135193626
 20
121.7307928915
 10
50.3216577629
 20
122.0366019721
 10
51.1767795245
 20
122.1931675415
 10
52.0479815016
 20
122.1948299523
 10
52.9037738154
 20
122.0415295999
 10
53.7132263119
 20
121.7388078536
 10
54.4470842863
 20
121.2976040284
 10
55.0788227404
 20
120.7338670234
 10
55.5856103013
 20
120.0679695199
 10
55.9491297165
 20
119.3239796872
 10
56.1562428186
 20
118.5287866707
 10
56.1994636367
 20
117.7111320163
 10
56.0772303427
 20
116.9005665894
 10
55.7939601997
 20
116.1263870041
 10
55.3598912368
 20
115.4165739159
 10
54.7907134453
 20
114.7967824678
 10
54.106996947
 20
114.2894128303
 10
53.3334525237
 20
113.9128027449
 10
52.4980394105
 20
113.6805644224
 10
51.6309520165
 20
113.6010890792
 10
50.7635274837
 20
113.677254502
 10
49.9271178553
 20
113.9063021134
 10
49.1519519995
 20
114.2799561809
 10
48.4660478244
 20
114.7847125272
 10
47.8941952745
 20
115.4023265432
 10
47.4570622603
 20
116.1104772206
  0
LWPOLYLINE
  5
253
330
1F
100
AcDbEntity
  8
0
  6
Continuous
 62
     7
370
    25
100
AcDbPolyline
 90
       39
 70
   128
 43
0.0
 10
46.168925793
 20
115.5547076802
 10
45.8312207768
 20
116.4301574196
 10
45.6514624814
 20
117.3458989675
 10
45.6345552514
 20
118.2769542526
 10
45.7809591601
 20
119.1979251768
 10
46.086682559
 20
120.0836921076
 10
46.5433863858
 20
120.910091881
 10
47.1386114071
 20
121.6545827652
 10
47.856120945
 20
122.296858203
 10
48.6763441871
 20
122.8193972225
 10
49.5769089023
 20
123.2079477946
 10
50.5332486639
 20
123.4519096057
 10
51.5192752639
 20
123.5446283559
 10
52.5080958317
 20
123.4835764359
 10
53.4727355401
 20
123.2704171877
 10
54.3868826638
 20
122.9109657894
 10
55.2256010408
 20
122.4150281365
 10
55.9660127322
 20
121.7961307581
 10
56.5879220078
 20
121.0711557384
 10
57.0743638957
 20
120.259878781
 10
57.4120698432
 20
119.3844299729
 10
57.5918281386
 20
118.468688425
 10
57.6087353686
 20
117.5376331399
 10
57.4623305286
 20
116.6166622157
 10
57.1566061983
 20
115.7308952849
 10
56.6999033029
 20
114.9044955115
 10
56.104679213
 20
114.1600036959
 10
55.3871687437
 20
113.5177282582
 10
54.5669445703
 20
112.9951892386
 10
53.6663807864
 20
112.6066395979
 10
52.7100419561
 20
112.3626777868
 10
51.7240144248
 20
112.2699590365
 10
50.7351947884
 20
112.3310109566
 10
49.77055508
 20
112.5441702048
 10
48.8564079563
 20
112.9036216031
 10
48.0176886479
 20
113.3995601873
 10
47.2772778879
 20
114.0184575657
 10
46.6553686122
 20
114.7434325854
 10
46.168925793
 20
115.5547076802
  0
LWPOLYLINE
  5
254
330
1F
100
AcDbEntity
  8
0
  6
Continuous
 62
     7
370
    25
100
AcDbPolyline
 90
       39
 70
   128
 43
0.0
 10
87.0743641565
 20
147.5237185101
 10
87.4120691727
 20
146.6482687707
 10
87.5918274681
 20
145.7325272228
 10
87.6087346981
 20
144.8014719377
 10
87.4623307894
 20
143.8805010135
 10
87.1566073904
 20
142.9947340827
 10
86.6999035636
 20
142.1683343093
 10
86.1046785424
 20
141.4238434251
 10
85.3871690045
 20
140.7815679873
 10
84.5669457624
 20
140.2590289678
 10
83.6663810472
 20
139.8704783957
 10
82.7100412855
 20
139.6265165846
 10
81.7240146855
 20
139.5337978344
 10
80.7351941178
 20
139.5948497544
 10
79.7705544094
 20
139.8080090026
 10
78.8564072857
 20
140.1674604009
 10
78.0176889087
 20
140.6633980538
 10
77.2772772173
 20
141.2822954322
 10
76.6553679416
 20
142.0072704519
 10
76.1689260537
 20
142.8185474093
 10
75.8312201063
 20
143.6939962174
 10
75.6514618109
 20
144.6097377653
 10
75.6345545808
 20
145.5407930504
 10
75.7809594209
 20
146.4617639746
 10
76.0866837511
 20
147.3475309054
 10
76.5433866466
 20
148.1739306788
 10
77.1386107365
 20
148.9184224944
 10
77.8561212058
 20
149.5606979321
 10
78.6763453791
 20
150.0832369517
 10
79.5769091631
 20
150.4717865924
 10
80.5332479934
 20
150.7157484035
 10
81.5192755247
 20
150.8084671537
 10
82.5080951611
 20
150.7474152337
 10
83.4727348695
 20
150.5342559855
 10
84.3868819932
 20
150.1748045872
 10
85.2256013016
 20
149.678866003
 10
85.9660120616
 20
149.0599686246
 10
86.5879213373
 20
148.3349936049
 10
87.0743641565
 20
147.5237185101
  0
LWPOLYLINE
  5
255
330
1F
100
AcDbEntity
  8
0
  6
Continuous
 62
     7
370
    25
100
AcDbPolyline
 90
       34
 70
   128
 43
0.0
 10
85.7862276892
 20
146.9679489697
 10
86.0728422115
 20
146.1948571692
 10
86.1985782097
 20
145.3847657855
 10
86.1588926921
 20
144.5669518749
 10
85.955218033
 20
143.7709756161
 10
85.5949172685
 20
143.025604632
 10
85.091012151
 20
142.3577783595
 10
84.4617156247
 20
141.7916338856
 10
83.7297705869
 20
141.3476332988
 10
82.9216321866
 20
141.0418242182
 10
82.066510425
 20
140.8852586488
 10
81.1953084479
 20
140.883596238
 10
80.3395161341
 20
141.0368965904
 10
79.5300636376
 20
141.3396183367
 10
78.7962056632
 20
141.7808221619
 10
78.1644672091
 20
142.3445591669
 10
77.6576796482
 20
143.0104566704
 10
77.2941602329
 20
143.7544465031
 10
77.0870471309
 20
144.5496395196
 10
77.0438263128
 20
145.367294174
 10
77.1660596068
 20
146.1778596009
 10
77.4493297497
 20
146.9520391862
 10
77.8833987127
 20
147.6618522744
 10
78.4525765041
 20
148.2816437225
 10
79.1362930025
 20
148.78901336
 10
79.9098374257
 20
149.1656234454
 10
80.745250539
 20
149.3978617678
 10
81.612337933
 20
149.4773371111
 10
82.4797624657
 20
149.4011716883
 10
83.3161720941
 20
149.1721240769
 10
84.09133795
 20
148.7984700094
 10
84.7772421251
 20
148.2937136631
 10
85.349094675
 20
147.6760996471
 10
85.7862276892
 20
146.9679489697
  0
LINE
  5
256
330
1F
100
AcDbEntity
  8
0
  6
Continuous
 62
     7
370
    25
100
AcDbLine
 10
67.6216450222
 20
141.5392128716
 30
0.0
 11
67.6216450222
 21
161.5392124246
 31
0.0
  0
LINE
  5
257
330
1F
100
AcDbEntity
  8
0
  6
Continuous
 62
     7
370
    25
100
AcDbLine
 10
91.6216453473
 20
161.5392124246
 30
0.0
 11
67.6216450222
 21
161.5392124246
 31
0.0
  0
LINE
  5
258
330
1F
100
AcDbEntity
  8
0
  6
Continuous
 62
     7
370
    25
100
AcDbLine
 10
86.6216445277
 20
101.5392137657
 30
0.0
 11
93.079157726
 21
101.5392137657
 31
0.0
  0
LINE
  5
259
330
1F
100
AcDbEntity
  8
0
  6
Continuous
 62
     7
370
    25
100
AcDbLine
 10
86.6216445277
 20
121.5392133187
 30
0.0
 11
86.6216445277
 21
101.5392137657
 31
0.0
  0
LINE
  5
25A
330
1F
100
AcDbEntity
  8
0
  6
Continuous
 62
     7
370
    25
100
AcDbLine
 10
86.6216445277
 20
121.5392133187
 30
0.0
 11
65.6216449272
 21
121.5392133187
 31
0.0
  0
LINE
  5
25B
330
1F
100
AcDbEntity
  8
0
  6
Continuous
 62
     7
370
    25
100
AcDbLine
 10
65.6216449272
 20
121.5392133187
 30
0.0
 11
65.6216449272
 21
101.5392137657
 31
0.0
  0
LINE
  5
25C
330
1F
100
AcDbEntity
  8
0
  6
Continuous
 62
     7
370
    25
100
AcDbLine
 10
41.6216446022
 20
101.5392137657
 30
0.0
 11
65.6216449272
 21
101.5392137657
 31
0.0
  0
LINE
  5
25D
330
1F
100
AcDbEntity
  8
0
  6
Continuous
 62
     7
370
    25
100
AcDbLine
 10
26.6744369576
 20
133.5936052225
 30
0.0
 11
41.6216446022
 21
101.5392137657
 31
0.0
  0
ARC
  5
25E
330
1F
100
AcDbEntity
  8
0
  6
Continuous
 62
     7
370
    25
100
AcDbCircle
 10
66.6216449747
 20
131.5392130951
 30
0.0
 40
40.0
100
AcDbArc
 50
131.4096221093
 51
177.0560046432
  0
LINE
  5
25F
330
1F
100
AcDbEntity
  8
0
  6
Continuous
 62
     7
370
    25
100
AcDbLine
 10
46.6216454218
 20
161.5392124246
 30
0.0
 11
40.1641322235
 21
161.5392124246
 31
0.0
  0
LINE
  5
260
330
1F
100
AcDbEntity
  8
0
  6
Continuous
 62
     7
370
    25
100
AcDbLine
 10
46.6216454218
 20
141.5392128716
 30
0.0
 11
46.6216454218
 21
161.5392124246
 31
0.0
  0
LINE
  5
261
330
1F
100
AcDbEntity
  8
0
  6
Continuous
 62
     7
370
    25
100
AcDbLine
 10
46.6216454218
 20
141.5392128716
 30
0.0
 11
67.6216450222
 21
141.5392128716
 31
0.0
  0
CIRCLE
  5
262
330
1F
100
AcDbEntity
  8
0
  6
Continuous
 62
     7
370
    25
100
AcDbCircle
 10
66.6216449747
 20
131.5392130951
 30
0.0
 40
2.650000000000034
  0
ELLIPSE
  5
263
330
1F
100
AcDbEntity
  8
0
  6
Continuous
 62
     7
370
    25
100
AcDbEllipse
 10
51.6216449747
 20
116.5392130951
 30
0.0
 11
0.0
 21
-7.449244407331378
 31
0.0
210
0.0
220
0.0
230
1.0
 40
0.9396926208
 41
0.0
 42
6.283185307179586
  0
ELLIPSE
  5
264
330
1F
100
AcDbEntity
  8
0
  6
Continuous
 62
     7
370
    25
100
AcDbEllipse
 10
81.6216449747
 20
146.5392130951
 30
0.0
 11
5.684341886080801E-14
 21
7.449244407331349
 31
0.0
210
0.0
220
0.0
230
1.0
 40
0.9396926208
 41
0.0
 42
6.283185307179586
  0
LINE
  5
265
330
1F
100
AcDbEntity
  8
0
  6
Continuous
 62
     7
370
    25
100
AcDbLine
 10
106.5688529918
 20
129.4848209678
 30
0.0
 11
91.6216453473
 21
161.5392124246
 31
0.0
  0
ARC
  5
266
330
1F
100
AcDbEntity
  8
0
  6
Continuous
 62
     7
370
    25
100
AcDbCircle
 10
66.6216449747
 20
131.5392130951
 30
0.0
 40
40.0
100
AcDbArc
 50
311.4096221093
 51
357.0560046432
  0
ARC
  5
267
330
1F
100
AcDbEntity
  8
0
  6
Continuous
 62
     7
370
    25
100
AcDbCircle
 10
81.6216446395
 20
144.7905777483
 30
0.0
 40
7.041206214322862
100
AcDbArc
 50
8.3465401317
 51
171.6534598683
  0
CIRCLE
  5
268
330
1F
100
AcDbEntity
  8
0
  6
Continuous
 62
     7
370
    25
100
AcDbCircle
 10
66.6216449747
 20
131.5392130951
 30
0.0
 40
1.250000000000028
  0
ARC
  5
269
330
1F
100
AcDbEntity
  8
0
  6
Continuous
 62
     7
370
    25
100
AcDbCircle
 10
51.62164531
 20
118.287848442
 30
0.0
 40
7.041206214322857
100
AcDbArc
 50
188.3465401317
 51
351.6534598683
  0
LWPOLYLINE
  5
26A
330
1F
100
AcDbEntity
  8
0
  6
Continuous
 62
     7
370
    25
100
AcDbPolyline
 90
       39
 70
   128
 43
0.0
 10
81.6216446395
 20
139.5329764078
 10
82.6092125783
 20
139.6098738502
 10
83.5698420117
 20
139.8384679074
 10
84.477330179
 20
140.2125224437
 10
85.3069206635
 20
140.7218357514
 10
86.0359879146
 20
141.3525134291
 10
86.64464447
 20
142.0873539488
 10
87.1162848482
 20
142.9063115235
 10
87.4380474845
 20
143.7870474498
 10
87.6011518697
 20
144.7055373306
 10
87.6011518697
 20
145.6367276575
 10
87.4380474845
 20
146.5552175383
 10
87.1162848482
 20
147.435954396
 10
86.64464447
 20
148.2549110393
 10
86.0359879146
 20
148.9897506277
 10
85.3069206635
 20
149.6204292367
 10
84.477330179
 20
150.1297416131
 10
83.5698420117
 20
150.503798012
 10
82.6092125783
 20
150.7323911379
 10
81.6216446395
 20
150.8092885803
 10
80.6340776319
 20
150.7323911379
 10
79.6734481985
 20
150.503798012
 10
78.7659609626
 20
150.1297416131
 10
77.9363686154
 20
149.6204292367
 10
77.2073013643
 20
148.9897506277
 10
76.5986457402
 20
148.2549110393
 10
76.127005362
 20
147.435954396
 10
75.805243657
 20
146.5552175383
 10
75.6421383406
 20
145.6367276575
 10
75.6421383406
 20
144.7055373306
 10
75.805243657
 20
143.7870474498
 10
76.127005362
 20
142.9063115235
 10
76.5986457402
 20
142.0873539488
 10
77.2073013643
 20
141.3525134291
 10
77.9363686154
 20
140.7218357514
 10
78.7659609626
 20
140.2125224437
 10
79.6734481985
 20
139.8384679074
 10
80.6340776319
 20
139.6098738502
 10
81.6216446395
 20
139.5329764078
  0
LWPOLYLINE
  5
26B
330
1F
100
AcDbEntity
  8
0
  6
Continuous
 62
     7
370
    25
100
AcDbPolyline
 90
       39
 70
   128
 43
0.0
 10
51.62164531
 20
123.5454497825
 10
50.6340773712
 20
123.4685523401
 10
49.6734479378
 20
123.2399582828
 10
48.7659597705
 20
122.8659037466
 10
47.936369286
 20
122.3565904389
 10
47.2073020349
 20
121.7259127612
 10
46.5986454795
 20
120.9910722415
 10
46.1270051012
 20
120.1721146668
 10
45.8052424649
 20
119.2913787405
 10
45.6421380798
 20
118.3728888596
 10
45.6421380798
 20
117.4416985328
 10
45.8052424649
 20
116.523208652
 10
46.1270051012
 20
115.6424717943
 10
46.5986454795
 20
114.823515151
 10
47.2073020349
 20
114.0886755626
 10
47.936369286
 20
113.4579969536
 10
48.7659597705
 20
112.9486845772
 10
49.6734479378
 20
112.5746281783
 10
50.6340773712
 20
112.3460350524
 10
51.62164531
 20
112.26913761
 10
52.6092123176
 20
112.3460350524
 10
53.5698417509
 20
112.5746281783
 10
54.4773289869
 20
112.9486845772
 10
55.3069213341
 20
113.4579969536
 10
56.0359885851
 20
114.0886755626
 10
56.6446442092
 20
114.823515151
 10
57.1162845875
 20
115.6424717943
 10
57.4380462925
 20
116.523208652
 10
57.6011516089
 20
117.4416985328
 10
57.6011516089
 20
118.3728888596
 10
57.4380462925
 20
119.2913787405
 10
57.1162845875
 20
120.1721146668
 10
56.6446442092
 20
120.9910722415
 10
56.0359885851
 20
121.7259127612
 10
55.3069213341
 20
122.3565904389
 10
54.4773289869
 20
122.8659037466
 10
53.5698417509
 20
123.2399582828
 10
52.6092123176
 20
123.4685523401
 10
51.62164531
 20
123.5454497825
  0
ELLIPSE
  5
26C
330
1F
100
AcDbEntity
  8
0
  6
Continuous
 62
     7
370
    25
100
AcDbEllipse
 10
80.5966899791
 20
142.4577148868
 30
0.0
 11
2.719936621976644
 21
-0.02747899658209008
 31
0.0
210
0.0
220
0.0
230
1.0
 40
0.8636736742
 41
0.700782237889069
 42
1.882390964337954
  0
ELLIPSE
  5
26D
330
1F
100
AcDbEntity
  8
0
  6
Continuous
 62
     7
370
    25
100
AcDbEllipse
 10
52.6465999704
 20
120.6207113035
 30
0.0
 11
2.719936621976643
 21
-0.02747899658206165
 31
0.0
210
0.0
220
0.0
230
1.0
 40
0.8636736742
 41
3.84237489148129
 42
5.023983617931242
  0
ARC
  5
26E
330
1F
100
AcDbEntity
  8
0
  6
Continuous
 62
     7
370
    25
100
AcDbCircle
 10
82.3716449747
 20
102.3392130951
 30
0.0
 40
4.250000000000014
100
AcDbArc
 50
180.0
 51
190.849815863
  0
LINE
  5
26F
330
1F
100
AcDbEntity
  8
0
  6
Continuous
 62
     7
370
    25
100
AcDbLine
 10
78.1216449971
 20
121.5392133187
 30
0.0
 11
78.1216449971
 21
102.3392124067
 31
0.0
  0
LINE
  5
270
330
1F
100
AcDbEntity
  8
0
  6
Continuous
 62
     7
370
    25
100
AcDbLine
 10
78.1976185674
 20
101.5392137657
 30
0.0
 11
86.6216445277
 21
101.5392137657
 31
0.0
  0
LINE
  5
271
330
1F
100
AcDbEntity
  8
0
  6
Continuous
 62
     7
370
    25
100
AcDbLine
 10
74.1216448071
 20
102.3392124067
 30
0.0
 11
78.1216449971
 21
102.3392124067
 31
0.0
  0
LINE
  5
272
330
1F
100
AcDbEntity
  8
0
  6
Continuous
 62
     7
370
    25
100
AcDbLine
 10
74.1216448071
 20
121.5392133187
 30
0.0
 11
74.1216448071
 21
102.3392124067
 31
0.0
  0
ARC
  5
273
330
1F
100
AcDbEntity
  8
0
  6
Continuous
 62
     7
370
    25
100
AcDbCircle
 10
69.8716449747
 20
102.3392130951
 30
0.0
 40
4.250000000000004
100
AcDbArc
 50
349.150184137
 51
0.0
  0
LINE
  5
274
330
1F
100
AcDbEntity
  8
0
  6
Continuous
 62
     7
370
    25
100
AcDbLine
 10
78.1976185674
 20
101.5392137657
 30
0.0
 11
74.0456717024
 21
101.5392137657
 31
0.0
  0
LINE
  5
275
330
1F
100
AcDbEntity
  8
0
  6
Continuous
 62
     7
370
    25
100
AcDbLine
 10
65.6216449272
 20
101.5392137657
 30
0.0
 11
74.0456717024
 21
101.5392137657
 31
0.0
  0
LINE
  5
276
330
1F
100
AcDbEntity
  8
0
  6
Continuous
 62
     7
370
    25
100
AcDbLine
 10
59.1216451424
 20
141.5392128716
 30
0.0
 11
59.1216451424
 21
161.5392124246
 31
0.0
  0
LINE
  5
277
330
1F
100
AcDbEntity
  8
0
  6
Continuous
 62
     7
370
    25
100
AcDbLine
 10
67.6216450222
 20
161.5392124246
 30
0.0
 11
59.1216451424
 21
161.5392124246
 31
0.0
  0
LINE
  5
278
330
1F
100
AcDbEntity
  8
0
  6
Continuous
 62
     7
370
    25
100
AcDbLine
 10
55.1216449524
 20
141.5392128716
 30
0.0
 11
55.1216449524
 21
161.5392124246
 31
0.0
  0
LINE
  5
279
330
1F
100
AcDbEntity
  8
0
  6
Continuous
 62
     7
370
    25
100
AcDbLine
 10
59.1216451424
 20
161.5392124246
 30
0.0
 11
55.1216449524
 21
161.5392124246
 31
0.0
  0
LINE
  5
27A
330
1F
100
AcDbEntity
  8
0
  6
Continuous
 62
     7
370
    25
100
AcDbLine
 10
55.1216449524
 20
161.5392124246
 30
0.0
 11
46.6216454218
 21
161.5392124246
 31
0.0
  0
ARC
  5
27B
330
1F
100
AcDbEntity
  8
0
  6
Continuous
 62
     7
370
    25
100
AcDbCircle
 10
66.6216449747
 20
131.5392130951
 30
0.0
 40
31.475
100
AcDbArc
 50
72.389911154
 51
107.610088846
  0
ARC
  5
27C
330
1F
100
AcDbEntity
  8
0
  6
Continuous
 62
     7
370
    25
100
AcDbCircle
 10
66.6216449747
 20
131.5392130951
 30
0.0
 40
31.475
100
AcDbArc
 50
252.389911154
 51
287.610088846
  0
DIMENSION
  5
27D
330
1F
100
AcDbEntity
  8
VERMASSUNG
100
AcDbDimension
  2
_D_6
 10
66.6216449747
 20
173.0142130951
 30
0.0
 11
56.6216449747
 21
173.0142130951
 31
0.0
 70
   160
  1
<>
 71
     2
 42
-1.0
  3
SLDDIMSTYLE0
100
AcDbAlignedDimension
 13
46.6216449747
 23
161.5392130951
 33
0.0
 14
66.6216449747
 24
174.0392130951
 34
0.0
100
AcDbRotatedDimension
  0
DIMENSION
  5
286
330
1F
100
AcDbEntity
  8
VERMASSUNG
100
AcDbDimension
  2
_D_7
 10
121.4608987582
 20
161.5392130951
 30
0.0
 11
121.4608987582
 21
131.5392130951
 31
0.0
 70
   160
  1
<>
 71
     2
 42
-1.0
  3
SLDDIMSTYLE0
100
AcDbAlignedDimension
 13
93.0791580854
 23
101.5392130951
 33
0.0
 14
91.6216449747
 24
161.5392130951
 34
0.0
 50
90.0
100
AcDbRotatedDimension
  0
DIMENSION
  5
290
330
1F
100
AcDbEntity
  8
VERMASSUNG
100
AcDbDimension
  2
_D_8
 10
76.3426103603
 20
194.3052085644
 30
0.0
 11
44.3170985925
 21
179.3714671707
 31
0.0
 70
   160
  1
<>
 71
     2
 42
-1.0
  3
SLDDIMSTYLE1
100
AcDbAlignedDimension
 13
26.674436404
 23
133.5936053175
 33
0.0
 14
91.6216449747
 24
161.5392130951
 34
0.0
 50
25.0
100
AcDbRotatedDimension
  0
DIMENSION
  5
29B
330
1F
100
AcDbEntity
  8
VERMASSUNG
100
AcDbDimension
  2
_D_9
 10
72.0165925507
 20
71.6099151436
 30
0.0
 11
39.8707465738
 21
95.4142127899
 31
0.0
 70
   160
  1
%%c<>
 71
     2
 42
-1.0
  3
SLDDIMSTYLE0
100
AcDbAlignedDimension
 13
34.4757989979
 23
155.3435107414
 33
0.0
 14
98.7674909516
 24
107.7349154489
 34
0.0
 50
-36.5202917143
100
AcDbRotatedDimension
  0
DIMENSION
  5
2A6
330
1F
100
AcDbEntity
  8
VERMASSUNG
100
AcDbDimension
  2
_D_10
 10
113.9148948838
 20
121.5392130951
 30
0.0
 11
113.9148948838
 21
126.5392130951
 31
0.0
 70
   160
  1
<>
 71
     2
 42
-1.0
  3
SLDDIMSTYLE0
100
AcDbAlignedDimension
 13
109.1216449747
 23
131.5392130951
 33
0.0
 14
86.6216449747
 24
121.5392130951
 34
0.0
 50
90.0
100
AcDbRotatedDimension
  0
DIMENSION
  5
2B0
330
1F
100
AcDbEntity
  8
VERMASSUNG
100
AcDbDimension
  2
_D_11
 10
113.9148948838
 20
141.5392130951
 30
0.0
 11
113.9148948838
 21
136.5392130951
 31
0.0
 70
   160
  1
<>
 71
     2
 42
-1.0
  3
SLDDIMSTYLE0
100
AcDbAlignedDimension
 13
109.1216449747
 23
131.5392130951
 33
0.0
 14
67.6216449747
 24
141.5392130951
 34
0.0
 50
90.0
100
AcDbRotatedDimension
  0
INSERT
  5
2C5
330
1F
100
AcDbEntity
  8
VERMASSUNG
100
AcDbBlockReference
  2
SW_CENTERMARKSYMBOL_0
 10
66.6216449747
 20
131.5392130951
 30
0.0
  0
ARC
  5
2C6
330
1F
100
AcDbEntity
  8
0
  6
Continuous
 62
     7
370
    25
100
AcDbCircle
 10
253.5594566574
 20
45.3562371537
 30
0.0
 40
2.500000000000014
100
AcDbArc
 50
255.4236631272
 51
2.4358463837
  0
LWPOLYLINE
  5
2C7
330
1F
100
AcDbEntity
  8
0
  6
Continuous
 62
     7
370
    25
100
AcDbPolyline
 90
        3
 70
   128
 43
0.0
 10
265.050971373
 20
39.2841112218
 10
264.7919546227
 20
39.7849812248
 10
264.6681785483
 20
39.9539678383
  0
ARC
  5
2C8
330
1F
100
AcDbEntity
  8
0
  6
Continuous
 62
     7
370
    25
100
AcDbCircle
 10
262.7149897993
 20
38.3935017559
 30
0.0
 40
2.500000000000017
100
AcDbArc
 50
280.1588449847
 51
308.9973086074
  0
LINE
  5
2C9
330
1F
100
AcDbEntity
  8
0
  6
Continuous
 62
     7
370
    25
100
AcDbLine
 10
270.1297996445
 20
58.0450869915
 30
0.0
 11
246.4417218847
 21
71.7199232052
 31
0.0
  0
LINE
  5
2CA
330
1F
100
AcDbEntity
  8
0
  6
Continuous
 62
     7
370
    25
100
AcDbLine
 10
226.443347831
 20
37.0779697321
 30
0.0
 11
250.1314255908
 21
23.4031335184
 31
0.0
  0
LINE
  5
2CB
330
1F
100
AcDbEntity
  8
0
  6
Continuous
 62
     7
370
    25
100
AcDbLine
 10
222.2811741202
 20
44.4025182122
 30
0.0
 11
224.5318250966
 21
43.1032450593
 31
0.0
  0
LINE
  5
2CC
330
1F
100
AcDbEntity
  8
0
  6
Continuous
 62
     7
370
    25
100
AcDbLine
 10
238.1390201523
 20
71.5911941511
 30
0.0
 11
238.0173954347
 21
71.661406606
 31
0.0
  0
LINE
  5
2CD
330
1F
100
AcDbEntity
  8
0
  6
Continuous
 62
     7
370
    25
100
AcDbLine
 10
231.2400062445
 20
71.4412885137
 30
0.0
 11
222.0427940609
 21
76.0219411235
 31
0.0
  0
LINE
  5
2CE
330
1F
100
AcDbEntity
  8
0
  6
Continuous
 62
     7
370
    25
100
AcDbLine
 10
210.5164462712
 20
56.0555576678
 30
0.0
 11
219.0825462769
 21
50.3816680715
 31
0.0
  0
LINE
  5
2CF
330
1F
100
AcDbEntity
  8
0
  6
Continuous
 62
     7
370
    25
100
AcDbLine
 10
219.3938504732
 20
76.3989095002
 30
0.0
 11
218.7543003645
 21
76.3116977448
 31
0.0
  0
LWPOLYLINE
  5
2D0
330
1F
100
AcDbEntity
  8
0
  6
Continuous
 62
     7
370
    25
100
AcDbPolyline
 90
       23
 70
   128
 43
0.0
 10
255.785117449
 20
44.4024534645
 10
255.6202942953
 20
44.010834835
 10
255.3535623669
 20
43.6476842204
 10
255.006528509
 20
43.3424233644
 10
254.6073069744
 20
43.1197826209
 10
254.1882421768
 20
42.9977987548
 10
253.7832830732
 20
42.9863534463
 10
253.4252393389
 20
43.0863739753
 10
253.1431136034
 20
43.289759192
 10
252.9597655927
 20
43.5800286758
 10
252.8900461442
 20
43.933670545
 10
252.9396068868
 20
44.322031452
 10
253.1044274062
 20
44.713651222
 10
253.3711616396
 20
45.0768001258
 10
253.7181954975
 20
45.3820609818
 10
254.1174143979
 20
45.6047032459
 10
254.5364795248
 20
45.7266876824
 10
254.9414382991
 20
45.7381324206
 10
255.2994849968
 20
45.638110561
 10
255.5816107324
 20
45.4347253442
 10
255.7649584137
 20
45.1444560506
 10
255.8346781915
 20
44.7908139913
 10
255.785117449
 20
44.4024534645
  0
LWPOLYLINE
  5
2D1
330
1F
100
AcDbEntity
  8
0
  6
Continuous
 62
     7
370
    25
100
AcDbPolyline
 90
       20
 70
   128
 43
0.0
 10
255.4567895478
 20
44.3931742136
 10
255.3024599716
 20
44.0457541787
 10
255.0462588284
 20
43.7326293943
 10
254.7159431106
 20
43.4877350618
 10
254.347315249
 20
43.3376052081
 10
253.9803146509
 20
43.2985119904
 10
253.6547150996
 20
43.374690778
 10
253.4058023978
 20
43.5578850124
 10
253.26054526
 20
43.8282446712
 10
253.234688827
 20
44.1564703319
 10
253.33103323
 20
44.5069950222
 10
253.5391365872
 20
44.8418340774
 10
253.836449347
 20
45.1247016668
 10
254.1907548533
 20
45.3249445609
 10
254.5636543639
 20
45.4208644406
 10
254.9147425511
 20
45.4020654553
 10
255.2059713474
 20
45.2705857891
 10
255.4057813244
 20
45.0406729545
 10
255.492521185
 20
44.737241614
 10
255.4567895478
 20
44.3931742136
  0
LWPOLYLINE
  5
2D2
330
1F
100
AcDbEntity
  8
0
  6
Continuous
 62
     7
370
    25
100
AcDbPolyline
 90
       19
 70
   128
 43
0.0
 10
255.197157717
 20
44.4928649743
 10
255.0576328799
 20
44.1853803807
 10
254.8240533991
 20
43.9118492473
 10
254.5245918086
 20
43.7052634041
 10
254.1953679576
 20
43.5905404991
 10
253.87609208
 20
43.5815165577
 10
253.6052735536
 20
43.679280589
 10
253.4155745397
 20
43.8720418973
 10
253.3298781429
 20
44.1365490894
 10
253.3585182436
 20
44.4409002944
 10
253.4980434099
 20
44.7483854583
 10
253.7316228907
 20
45.0219162115
 10
254.0310844812
 20
45.2285020547
 10
254.3603083322
 20
45.3432249598
 10
254.6795842098
 20
45.3522485209
 10
254.9504027362
 20
45.2544844896
 10
255.1401017501
 20
45.0617231813
 10
255.2257978176
 20
44.7972157991
 10
255.197157717
 20
44.4928649743
  0
LWPOLYLINE
  5
2D3
330
1F
100
AcDbEntity
  8
0
  6
Continuous
 62
     7
370
    25
100
AcDbPolyline
 90
       23
 70
   128
 43
0.0
 10
263.7733828444
 20
37.4514415194
 10
263.8502402569
 20
37.8938416904
 10
263.9746212045
 20
38.3391697771
 10
264.1364460049
 20
38.7513495461
 10
264.3226046835
 20
39.0969888581
 10
264.5180172296
 20
39.348084421
 10
264.7068525623
 20
39.4842953266
 10
264.8738130222
 20
39.4945848239
 10
265.0053691414
 20
39.3781215965
 10
265.0908679749
 20
39.1443392403
 10
265.1233770246
 20
38.8121784772
 10
265.1002686978
 20
38.4085469156
 10
265.0234086512
 20
37.9661486455
 10
264.899030667
 20
37.5208192282
 10
264.7372058665
 20
37.1086394592
 10
264.5510445537
 20
36.7630016678
 10
264.3556316784
 20
36.5119055347
 10
264.166796675
 20
36.3756951994
 10
263.99983852
 20
36.3654039913
 10
263.8682824008
 20
36.4818672187
 10
263.7827838966
 20
36.7156493847
 10
263.7502745176
 20
37.047810338
 10
263.7733828444
 20
37.4514415194
  0
LWPOLYLINE
  5
2D4
330
1F
100
AcDbEntity
  8
0
  6
Continuous
 62
     7
370
    25
100
AcDbPolyline
 90
       20
 70
   128
 43
0.0
 10
263.9264852229
 20
37.5618763114
 10
263.9984493204
 20
37.956844925
 10
264.1179208187
 20
38.3489020534
 10
264.2719468058
 20
38.695566281
 10
264.4438437153
 20
38.959266496
 10
264.6149773717
 20
39.1114312924
 10
264.7668054665
 20
39.1355686313
 10
264.8828765702
 20
39.0290622191
 10
264.9506098485
 20
38.8034561318
 10
264.962668457
 20
38.4831957857
 10
264.9177432092
 20
38.102987449
 10
264.8207020661
 20
37.7040335422
 10
264.6820616543
 20
37.3295663561
 10
264.5168479838
 20
37.0201630687
 10
264.3429606236
 20
36.8093559201
 10
264.1792467881
 20
36.7199859946
 10
264.0434450324
 20
36.7617395401
 10
263.9502718505
 20
36.9300922632
 10
263.9098250347
 20
37.2067991979
 10
263.9264852229
 20
37.5618763114
  0
LWPOLYLINE
  5
2D5
330
1F
100
AcDbEntity
  8
0
  6
Continuous
 62
     7
370
    25
100
AcDbPolyline
 90
       12
 70
   128
 43
0.0
 10
264.4754061072
 20
38.9957094021
 10
264.5691874549
 20
38.9736032671
 10
264.6576444703
 20
38.8392877204
 10
264.6976062682
 20
38.6011825504
 10
264.6842496685
 20
38.288008368
 10
264.6191874467
 20
37.9375366612
 10
264.5102678071
 20
37.5920413135
 10
264.3706270662
 20
37.2931928578
 10
264.2171081583
 20
37.0770376481
 10
264.0682267208
 20
36.9696474705
 10
263.9419402747
 20
36.9839749078
 10
263.9351951326
 20
36.9889297306
  0
ARC
  5
2D6
330
1F
100
AcDbEntity
  8
0
  6
Continuous
 62
     7
370
    25
100
AcDbCircle
 10
254.7058669846
 20
45.4181203556
 30
0.0
 40
1.352058310458242
100
AcDbArc
 50
1.8805584665
 51
77.4513234833
  0
ARC
  5
2D7
330
1F
100
AcDbEntity
  8
0
  6
Continuous
 62
     7
370
    25
100
AcDbCircle
 10
253.2808720593
 20
44.3239024388
 30
0.0
 40
1.430815288714865
100
AcDbArc
 50
228.3738576925
 51
255.816496923
  0
LWPOLYLINE
  5
2D8
330
1F
100
AcDbEntity
  8
0
  6
Continuous
 62
     7
370
    25
100
AcDbPolyline
 90
       16
 70
   128
 43
0.0
 10
255.9940094132
 20
47.0223380286
 10
256.3208723822
 20
46.7118592381
 10
256.5580471867
 20
46.3103069632
 10
256.682641832
 20
45.8441890907
 10
256.6892068622
 20
45.3338801803
 10
256.5774561397
 20
44.80168291
 10
256.3522763941
 20
44.2708548736
 10
256.0235069388
 20
43.7645973628
 10
255.6055198493
 20
43.3050338964
 10
255.1165768939
 20
42.912253773
 10
254.5780531103
 20
42.6034197057
 10
254.013480928
 20
42.3920311621
 10
253.4475366682
 20
42.2873263065
 10
252.9049522991
 20
42.293881853
 10
252.4094469477
 20
42.4114091194
 10
252.2022161619
 20
42.502096162
  0
LWPOLYLINE
  5
2D9
330
1F
100
AcDbEntity
  8
0
  6
Continuous
 62
     7
370
    25
100
AcDbPolyline
 90
        4
 70
   128
 43
0.0
 10
263.1559351357
 20
35.9326943972
 10
263.1265870997
 20
35.9287356292
 10
262.9417491321
 20
35.9753859669
 10
262.800206844
 20
36.1412440283
  0
ARC
  5
2DA
330
1F
100
AcDbEntity
  8
0
  6
Continuous
 62
     7
370
    25
100
AcDbCircle
 10
262.3726458689
 20
36.8528848673
 30
0.0
 40
1.717156390321523
100
AcDbArc
 50
290.1812015262
 51
338.8696458921
  0
LWPOLYLINE
  5
2DB
330
1F
100
AcDbEntity
  8
0
  6
Continuous
 62
     7
370
    25
100
AcDbPolyline
 90
        3
 70
   128
 43
0.0
 10
264.8692302109
 20
40.127029866
 10
264.8805920793
 20
39.9927104409
 10
264.8883148308
 20
39.6290817681
  0
LINE
  5
2DC
330
1F
100
AcDbEntity
  8
0
  6
Continuous
 62
     7
370
    25
100
AcDbLine
 10
263.6661464446
 20
42.3568600636
 30
0.0
 11
270.7372140984
 21
46.4389005314
 31
0.0
  0
LINE
  5
2DD
330
1F
100
AcDbEntity
  8
0
  6
Continuous
 62
     7
370
    25
100
AcDbLine
 10
270.7372140984
 20
36.6404106561
 30
0.0
 11
270.7372140984
 21
46.4389005314
 31
0.0
  0
LINE
  5
2DE
330
1F
100
AcDbEntity
  8
0
  6
Continuous
 62
     7
370
    25
100
AcDbLine
 10
259.4042753154
 20
23.9955418221
 30
0.0
 11
270.7372140984
 21
36.6404106561
 31
0.0
  0
LWPOLYLINE
  5
2DF
330
1F
100
AcDbEntity
  8
0
  6
Continuous
 62
     7
370
    25
100
AcDbPolyline
 90
       11
 70
   128
 43
0.0
 10
259.4042753154
 20
23.9955418221
 10
258.2825808178
 20
23.4664814904
 10
257.1726094826
 20
23.0468984353
 10
256.08140255
 20
22.7394521428
 10
255.0158824752
 20
22.5460932161
 10
253.982808559
 20
22.4680499289
 10
252.9887336485
 20
22.505815397
 10
252.0399639661
 20
22.6591517642
 10
251.1425186084
 20
22.9270850731
 10
250.3020906927
 20
23.3079170562
 10
249.5240111369
 20
23.799230082
  0
LINE
  5
2E0
330
1F
100
AcDbEntity
  8
0
  6
Continuous
 62
     7
370
    25
100
AcDbLine
 10
249.5240111369
 20
26.4356416168
 30
0.0
 11
249.5240111369
 21
23.799230082
 31
0.0
  0
LINE
  5
2E1
330
1F
100
AcDbEntity
  8
0
  6
Continuous
 62
     7
370
    25
100
AcDbLine
 10
256.5950787908
 20
30.5176820847
 30
0.0
 11
249.5240111369
 21
26.4356416168
 31
0.0
  0
LINE
  5
2E2
330
1F
100
AcDbEntity
  8
0
  6
Continuous
 62
     7
370
    25
100
AcDbLine
 10
256.5950787908
 20
30.5176820847
 30
0.0
 11
256.5950787908
 21
39.0913604464
 31
0.0
  0
LINE
  5
2E3
330
1F
100
AcDbEntity
  8
0
  6
Continuous
 62
     7
370
    25
100
AcDbLine
 10
256.5950787908
 20
39.0913604464
 30
0.0
 11
249.5240111369
 21
35.0093199785
 31
0.0
  0
LINE
  5
2E4
330
1F
100
AcDbEntity
  8
0
  6
Continuous
 62
     7
370
    25
100
AcDbLine
 10
249.5240111369
 20
44.8078098538
 30
0.0
 11
249.5240111369
 21
35.0093199785
 31
0.0
  0
LINE
  5
2E5
330
1F
100
AcDbEntity
  8
0
  6
Continuous
 62
     7
370
    25
100
AcDbLine
 10
260.8569499199
 20
57.4526786878
 30
0.0
 11
249.5240111369
 21
44.8078098538
 31
0.0
  0
LWPOLYLINE
  5
2E6
330
1F
100
AcDbEntity
  8
0
  6
Continuous
 62
     7
370
    25
100
AcDbPolyline
 90
       11
 70
   128
 43
0.0
 10
260.8569499199
 20
57.4526786878
 10
261.9786444175
 20
57.9817390195
 10
263.0886157527
 20
58.4013220747
 10
264.1798226853
 20
58.7087683672
 10
265.2453427602
 20
58.9021272939
 10
266.2784166763
 20
58.980170581
 10
267.2724915868
 20
58.9424051129
 10
268.2212612692
 20
58.7890687458
 10
269.1187066269
 20
58.5211354368
 10
269.9591345426
 20
58.1403034537
 10
270.7372140984
 20
57.648990428
  0
LINE
  5
2E7
330
1F
100
AcDbEntity
  8
0
  6
Continuous
 62
     7
370
    25
100
AcDbLine
 10
270.7372140984
 20
55.0125788931
 30
0.0
 11
270.7372140984
 21
57.648990428
 31
0.0
  0
LINE
  5
2E8
330
1F
100
AcDbEntity
  8
0
  6
Continuous
 62
     7
370
    25
100
AcDbLine
 10
263.6661464446
 20
50.9305384253
 30
0.0
 11
270.7372140984
 21
55.0125788931
 31
0.0
  0
LINE
  5
2E9
330
1F
100
AcDbEntity
  8
0
  6
Continuous
 62
     7
370
    25
100
AcDbLine
 10
263.6661464446
 20
50.9305384253
 30
0.0
 11
263.6661464446
 21
42.3568600636
 31
0.0
  0
LWPOLYLINE
  5
2EA
330
1F
100
AcDbEntity
  8
0
  6
Continuous
 62
     7
370
    25
100
AcDbPolyline
 90
       21
 70
   128
 43
0.0
 10
261.0675290752
 20
41.2649806132
 10
261.0216731394
 20
41.5728391633
 10
260.8885939713
 20
41.7976181977
 10
260.6813183222
 20
41.9173147816
 10
260.4201357425
 20
41.9202121991
 10
260.1306126177
 20
41.8060267989
 10
259.8410894928
 20
41.5859359144
 10
259.5799069131
 20
41.2814835092
 10
259.372631264
 20
40.9224715548
 10
259.2395520959
 20
40.5440425835
 10
259.1936961601
 20
40.1832398968
 10
259.2395520959
 20
39.8753813466
 10
259.372631264
 20
39.6506023123
 10
259.5799069131
 20
39.5309057284
 10
259.8410894928
 20
39.5280083108
 10
260.1306126177
 20
39.642193711
 10
260.4201357425
 20
39.8622845955
 10
260.6813183222
 20
40.1667370008
 10
260.8885939713
 20
40.5257489552
 10
261.0216731394
 20
40.9041779265
 10
261.0675290752
 20
41.2649806132
  0
ELLIPSE
  5
2EB
330
1F
100
AcDbEntity
  8
0
  6
Continuous
 62
     7
370
    25
100
AcDbEllipse
 10
254.8273114427
 20
43.7866361073
 30
0.0
 11
1.973858632267281
 21
3.031549232987431
 31
0.0
210
0.0
220
0.0
230
1.0
 40
0.5751653209
 41
0.0
 42
6.283185307179586
  0
ELLIPSE
  5
2EC
330
1F
100
AcDbEntity
  8
0
  6
Continuous
 62
     7
370
    25
100
AcDbEllipse
 10
265.4339131605
 20
37.6615847676
 30
0.0
 11
1.973858632267252
 21
3.031549232987423
 31
0.0
210
0.0
220
0.0
230
1.0
 40
0.5751653209
 41
0.0
 42
6.283185307179586
  0
LINE
  5
2ED
330
1F
100
AcDbEntity
  8
0
  6
Continuous
 62
     7
370
    25
100
AcDbLine
 10
225.8359333771
 20
58.4826460675
 30
0.0
 11
249.5240111369
 21
44.8078098538
 31
0.0
  0
LINE
  5
2EE
330
1F
100
AcDbEntity
  8
0
  6
Continuous
 62
     7
370
    25
100
AcDbLine
 10
237.1688721601
 20
71.1275149015
 30
0.0
 11
225.8359333771
 21
58.4826460675
 31
0.0
  0
LINE
  5
2EF
330
1F
100
AcDbEntity
  8
0
  6
Continuous
 62
     7
370
    25
100
AcDbLine
 10
260.8569499199
 20
57.4526786878
 30
0.0
 11
237.1688721601
 21
71.1275149015
 31
0.0
  0
ELLIPSE
  5
2F0
330
1F
100
AcDbEntity
  8
0
  6
Continuous
 62
     7
370
    25
100
AcDbEllipse
 10
245.9884766778
 20
52.8346667549
 30
0.0
 11
2.359137218318352
 21
1.609627192830622
 31
0.0
210
0.0
220
0.0
230
1.0
 40
0.7151521803
 41
0.0
 42
6.283185307179586
  0
ELLIPSE
  5
2F1
330
1F
100
AcDbEntity
  8
0
  6
Continuous
 62
     7
370
    25
100
AcDbEllipse
 10
235.38187496
 20
58.9577275936
 30
0.0
 11
2.359137218318352
 21
1.609627192830629
 31
0.0
210
0.0
220
0.0
230
1.0
 40
0.7151521803
 41
0.0
 42
6.283185307179586
  0
LINE
  5
2F2
330
1F
100
AcDbEntity
  8
0
  6
Continuous
 62
     7
370
    25
100
AcDbLine
 10
228.3108075169
 20
38.6817634006
 30
0.0
 11
249.5240111369
 21
26.4356416168
 31
0.0
  0
LINE
  5
2F3
330
1F
100
AcDbEntity
  8
0
  6
Continuous
 62
     7
370
    25
100
AcDbLine
 10
225.8359333771
 20
37.4740662956
 30
0.0
 11
249.5240111369
 21
23.799230082
 31
0.0
  0
LINE
  5
2F4
330
1F
100
AcDbEntity
  8
0
  6
Continuous
 62
     7
370
    25
100
AcDbLine
 10
225.8359333771
 20
44.3881819746
 30
0.0
 11
225.8359333771
 21
37.4740662956
 31
0.0
  0
LINE
  5
2F5
330
1F
100
AcDbEntity
  8
0
  6
Continuous
 62
     7
370
    25
100
AcDbLine
 10
225.8359333771
 20
52.163589559
 30
0.0
 11
225.8359333771
 21
44.3881819746
 31
0.0
  0
LINE
  5
2F6
330
1F
100
AcDbEntity
  8
0
  6
Continuous
 62
     7
370
    25
100
AcDbLine
 10
225.8359333771
 20
58.4826460675
 30
0.0
 11
225.8359333771
 21
52.163589559
 31
0.0
  0
LINE
  5
2F7
330
1F
100
AcDbEntity
  8
0
  6
Continuous
 62
     7
370
    25
100
AcDbLine
 10
249.5240111369
 20
35.0093199785
 30
0.0
 11
228.3108075169
 21
47.2554417623
 31
0.0
  0
LWPOLYLINE
  5
2F8
330
1F
100
AcDbEntity
  8
0
  6
Continuous
 62
     7
370
    25
100
AcDbPolyline
 90
       13
 70
   128
 43
0.0
 10
228.3108075169
 20
47.2554417623
 10
227.9448563095
 20
47.4144549581
 10
227.600943294
 20
47.4594002179
 10
227.2997790367
 20
47.3875709596
 10
227.0594991948
 20
47.2032931682
 10
226.8945739668
 20
46.9176639669
 10
226.8149355209
 20
46.5478839799
 10
226.8253793782
 20
46.1162217929
 10
226.9252766288
 20
45.6486723451
 10
227.1086114686
 20
45.1733918759
 10
227.3643433988
 20
44.7190020318
 10
227.6770723562
 20
44.3128660547
 10
228.0279646264
 20
43.9794426563
  0
LINE
  5
2F9
330
1F
100
AcDbEntity
  8
0
  6
Continuous
 62
     7
370
    25
100
AcDbLine
 10
228.0279646264
 20
42.2843256242
 30
0.0
 11
228.0279646264
 21
43.9794426563
 31
0.0
  0
LWPOLYLINE
  5
2FA
330
1F
100
AcDbEntity
  8
0
  6
Continuous
 62
     7
370
    25
100
AcDbPolyline
 90
       13
 70
   128
 43
0.0
 10
228.0279646264
 20
42.2843256242
 10
227.6770723562
 20
42.3560340076
 10
227.3643433988
 20
42.3109673892
 10
227.1086114686
 20
42.1518389668
 10
226.9252766288
 20
41.888232398
 10
226.8253793782
 20
41.5360218606
 10
226.8149355209
 20
41.11641837
 10
226.8945739668
 20
40.6546891251
 10
227.0594991948
 20
40.1786415226
 10
227.2997790367
 20
39.7169425605
 10
227.600943294
 20
39.2973968264
 10
227.9448563095
 20
38.9452686179
 10
228.3108075169
 20
38.6817634006
  0
ARC
  5
2FB
330
1F
100
AcDbEntity
  8
0
  6
Continuous
 62
     7
370
    25
100
AcDbCircle
 10
255.0001958912
 20
45.7235326236
 30
0.0
 40
2.154266045093641
100
AcDbArc
 50
359.0267327948
 51
28.5126703643
  0
ARC
  5
2FC
330
1F
100
AcDbEntity
  8
0
  6
Continuous
 62
     7
370
    25
100
AcDbCircle
 10
253.0873556414
 20
45.9669006524
 30
0.0
 40
4.076420404842319
100
AcDbArc
 50
257.5271566275
 51
356.0619437036
  0
ARC
  5
2FD
330
1F
100
AcDbEntity
  8
0
  6
Continuous
 62
     7
370
    25
100
AcDbCircle
 10
254.9597172051
 20
45.6204200178
 30
0.0
 40
1.742163735409776
100
AcDbArc
 50
358.1755448313
 51
53.5812290778
  0
LWPOLYLINE
  5
2FE
330
1F
100
AcDbEntity
  8
0
  6
Continuous
 62
     7
370
    25
100
AcDbPolyline
 90
       12
 70
   128
 43
0.0
 10
252.2022161619
 20
42.502096162
 10
252.6226138537
 20
42.3456425659
 10
253.1418804788
 20
42.2771331275
 10
253.6978705091
 20
42.3203274273
 10
254.2662806888
 20
42.4733392495
 10
254.8222680849
 20
42.7294821702
 10
255.3415373442
 20
43.077559627
 10
255.8013910716
 20
43.5023599329
 10
256.1817311472
 20
43.985317646
 10
256.46593492
 20
44.5053247546
 10
256.6415822405
 20
45.0396549887
 10
256.7009977723
 20
45.5649541084
  0
LWPOLYLINE
  5
2FF
330
1F
100
AcDbEntity
  8
0
  6
Continuous
 62
     7
370
    25
100
AcDbPolyline
 90
       11
 70
   128
 43
0.0
 10
237.1688721601
 20
71.1275149015
 10
238.2905666577
 20
71.6565752332
 10
239.4005379929
 20
72.0761582883
 10
240.4917449255
 20
72.3836045808
 10
241.5572650003
 20
72.5769635075
 10
242.5903389165
 20
72.6550067947
 10
243.584413827
 20
72.6172413266
 10
244.5331835094
 20
72.4639049595
 10
245.4306288671
 20
72.1959716505
 10
246.2710567828
 20
71.8151396674
 10
246.4417218847
 20
71.7199232052
  0
LINE
  5
300
330
1F
100
AcDbEntity
  8
0
  6
Continuous
 62
     7
370
    25
100
AcDbLine
 10
235.3818751708
 20
42.7638038685
 30
0.0
 11
256.5950787908
 21
30.5176820847
 31
0.0
  0
ARC
  5
301
330
1F
100
AcDbEntity
  8
0
  6
Continuous
 62
     7
370
    25
100
AcDbCircle
 10
236.9732472501
 20
45.3252235385
 30
0.0
 40
3.015515846574857
100
AcDbArc
 50
211.8678948628
 51
238.1479284211
  0
ARC
  5
302
330
1F
100
AcDbEntity
  8
0
  6
Continuous
 62
     7
370
    25
100
AcDbCircle
 10
258.7471029797
 20
41.5227933976
 30
0.0
 40
0.9702443976956273
100
AcDbArc
 50
304.0894507033
 51
355.9159240358
  0
LINE
  5
303
330
1F
100
AcDbEntity
  8
0
  6
Continuous
 62
     7
370
    25
100
AcDbLine
 10
226.443347831
 20
37.0779697321
 30
0.0
 11
225.8359333771
 21
37.4740662956
 31
0.0
  0
ARC
  5
304
330
1F
100
AcDbEntity
  8
0
  6
Continuous
 62
     7
370
    25
100
AcDbCircle
 10
231.3432507248
 20
47.8044192129
 30
0.0
 40
7.618213275091946
100
AcDbArc
 50
185.8403288603
 51
223.704360301
  0
SPLINE
  5
305
330
1F
100
AcDbEntity
  8
0
  6
Continuous
 62
     7
370
    25
100
AcDbSpline
210
0.0
220
0.0
230
1.0
 70
     8
 71
     3
 72
    32
 73
    28
 74
     0
 42
0.000000001
 43
0.00000001
 40
0.0
 40
0.0
 40
0.0
 40
0.0
 40
0.1250000000000006
 40
0.1250000000000006
 40
0.2500000000000011
 40
0.2500000000000011
 40
0.3125000000000012
 40
0.3125000000000012
 40
0.3750000000000012
 40
0.3750000000000012
 40
0.4375000000000013
 40
0.4375000000000013
 40
0.5000000000000013
 40
0.5000000000000013
 40
0.5625000000000013
 40
0.5625000000000013
 40
0.6250000000000014
 40
0.6250000000000014
 40
0.6875000000000014
 40
0.6875000000000014
 40
0.7500000000000016
 40
0.7500000000000016
 40
0.875000000000001
 40
0.875000000000001
 40
0.9375000000000004
 40
0.9375000000000004
 40
1.0
 40
1.0
 40
1.0
 40
1.0
 10
223.7645810019339
 20
51.02186173878902
 30
0.0
 10
223.9309626044737
 20
50.83568540957258
 30
0.0
 10
224.0829789372563
 20
50.62887420187407
 30
0.0
 10
224.3596379899421
 20
50.17250818538948
 30
0.0
 10
224.4778352040661
 20
49.93358108089005
 30
0.0
 10
224.6260926050832
 20
49.56111710383814
 30
0.0
 10
224.6708556369491
 20
49.43352520484989
 30
0.0
 10
224.7473400988745
 20
49.18232884480858
 30
0.0
 10
224.7794874737083
 20
49.05787023428369
 30
0.0
 10
224.8317122158648
 20
48.81145566111402
 30
0.0
 10
224.8518929586813
 20
48.68853301049081
 30
0.0
 10
224.8788454846805
 20
48.45012010461215
 30
0.0
 10
224.8855751687077
 20
48.33596659515727
 30
0.0
 10
224.8859348293398
 20
48.11757768040727
 30
0.0
 10
224.8795155119775
 20
48.01297604366025
 30
0.0
 10
224.8531098280013
 20
47.81565065632714
 30
0.0
 10
224.8334523508375
 20
47.72495137939795
 30
0.0
 10
224.7817208378182
 20
47.55845533306967
 30
0.0
 10
224.7495365945253
 20
47.48247396184132
 30
0.0
 10
224.6726907625942
 20
47.34617234726959
 30
0.0
 10
224.6288192468914
 20
47.28713771147886
 30
0.0
 10
224.4813169740665
 20
47.13511525027375
 30
0.0
 10
224.360116849812
 20
47.06704236441804
 30
0.0
 10
224.1551627199176
 20
47.01631266322517
 30
0.0
 10
224.0827169891021
 20
47.00763401688346
 30
0.0
 10
223.9291502316346
 20
47.0063880077801
 30
0.0
 10
223.8482773494719
 20
47.01391625360841
 30
0.0
 10
223.7645810019339
 20
47.02921618675128
 30
0.0
  0
ARC
  5
306
330
1F
100
AcDbEntity
  8
0
  6
Continuous
 62
     7
370
    25
100
AcDbCircle
 10
246.9263476504
 20
47.8004453982
 30
0.0
 40
23.38471623610486
100
AcDbArc
 50
154.4074665036
 51
172.081906424
  0
ARC
  5
307
330
1F
100
AcDbEntity
  8
0
  6
Continuous
 62
     7
370
    25
100
AcDbCircle
 10
247.2239391959
 20
48.5447561774
 30
0.0
 40
23.31106885567842
100
AcDbArc
 50
123.5480449264
 51
152.7155192018
  0
ARC
  5
308
330
1F
100
AcDbEntity
  8
0
  6
Continuous
 62
     7
370
    25
100
AcDbCircle
 10
239.9796443279
 20
48.2758857668
 30
0.0
 40
14.66829234214782
100
AcDbArc
 50
164.630591025
 51
195.369408975
  0
LINE
  5
309
330
1F
100
AcDbEntity
  8
0
  6
Continuous
 62
     7
370
    25
100
AcDbLine
 10
270.7372140984
 20
46.4389005314
 30
0.0
 11
263.6661451275
 21
50.5209417597
 31
0.0
  0
LWPOLYLINE
  5
30A
330
1F
100
AcDbEntity
  8
0
  6
Continuous
 62
     7
370
    25
100
AcDbPolyline
 90
       20
 70
   128
 43
0.0
 10
222.7107860484
 20
51.4397891893
 10
222.8317962359
 20
52.6326435379
 10
223.0452640967
 20
53.8603594763
 10
223.3492324365
 20
55.1116802461
 10
223.740914295
 20
56.3751328151
 10
224.2167186289
 20
57.6391330087
 10
224.7722832394
 20
58.8920917819
 10
225.4025136263
 20
60.1225212997
 10
226.1016310614
 20
61.3191383561
 10
226.8632272482
 20
62.4709742553
 10
227.6803173343
 20
63.5674658726
 10
228.5454110345
 20
64.5985613519
 10
229.4505758509
 20
65.5548052716
 10
230.387512641
 20
66.4274309388
 10
231.347631021
 20
67.2084381392
 10
232.3221278559
 20
67.8906650652
 10
233.3020683021
 20
68.467857154
 10
234.2784675487
 20
68.9347211197
 10
235.2423732181
 20
69.286977846
 10
235.6142075329
 20
69.3928779078
  0
SPLINE
  5
30B
330
1F
100
AcDbEntity
  8
0
  6
Continuous
 62
     7
370
    25
100
AcDbSpline
210
0.0
220
0.0
230
1.0
 70
     8
 71
     3
 72
     8
 73
     4
 74
     0
 42
0.000000001
 43
0.00000001
 40
0.0
 40
0.0
 40
0.0
 40
0.0
 40
1.0
 40
1.0
 40
1.0
 40
1.0
 10
222.3778341326485
 20
51.15814881804067
 30
0.0
 10
222.4792958412313
 20
51.2595041066778
 30
0.0
 10
222.5922775243378
 20
51.35316059488628
 30
0.0
 10
222.7107862248589
 20
51.43978923077627
 30
0.0
  0
SPLINE
  5
30C
330
1F
100
AcDbEntity
  8
0
  6
Continuous
 62
     7
370
    25
100
AcDbSpline
210
0.0
220
0.0
230
1.0
 70
     8
 71
     3
 72
    10
 73
     6
 74
     0
 42
0.000000001
 43
0.00000001
 40
0.0
 40
0.0
 40
0.0
 40
0.0
 40
0.5
 40
0.5
 40
1.0
 40
1.0
 40
1.0
 40
1.0
 10
221.3329845253308
 20
51.68908370906347
 30
0.0
 10
221.5123043529898
 20
51.60613210333096
 30
0.0
 10
221.6901641172892
 20
51.521783525612
 30
0.0
 10
222.0401759909162
 20
51.34692305950411
 30
0.0
 10
222.2126968794869
 20
51.25687077658772
 30
0.0
 10
222.377834132655
 20
51.15814881804386
 30
0.0
  0
LWPOLYLINE
  5
30D
330
1F
100
AcDbEntity
  8
0
  6
Continuous
 62
     7
370
    25
100
AcDbPolyline
 90
       21
 70
   128
 43
0.0
 10
221.3329846617
 20
51.689083805
 10
221.4893376159
 20
52.9623288828
 10
221.740310245
 20
54.2682714504
 10
222.0837254008
 20
55.5955861383
 10
222.5166051452
 20
56.9327620991
 10
223.0351957743
 20
58.2682026259
 10
223.6349994293
 20
59.5903274317
 10
224.3108149255
 20
60.8876699844
 10
225.0567805584
 20
62.1489786451
 10
225.8664287623
 20
63.3633174235
 10
226.73273616
 20
64.5201526663
 10
227.6481913929
 20
65.6094538126
 10
228.6048547191
 20
66.621773426
 10
229.5944297949
 20
67.5483319807
 10
230.6083349622
 20
68.3810955161
 10
231.637777417
 20
69.1128405073
 10
232.6738293744
 20
69.7372221689
 10
233.7075060852
 20
70.2488263372
 10
234.7298431741
 20
70.643214877
 10
235.7319750473
 20
70.9169679036
 10
236.7052103167
 20
71.0677113546
  0
LINE
  5
30E
330
1F
100
AcDbEntity
  8
0
  6
Continuous
 62
     7
370
    25
100
AcDbLine
 10
236.8492348238
 20
70.7708755445
 30
0.0
 11
236.7052103167
 21
71.0677113546
 31
0.0
  0
ARC
  5
30F
330
1F
100
AcDbEntity
  8
0
  6
Continuous
 62
     7
370
    25
100
AcDbCircle
 10
260.8163396887
 20
37.7435232802
 30
0.0
 40
3.717053278674468
100
AcDbArc
 50
309.557130946
 51
339.9047287651
  0
ARC
  5
310
330
1F
100
AcDbEntity
  8
0
  6
Continuous
 62
     7
370
    25
100
AcDbCircle
 10
259.2076451532
 20
39.9561738076
 30
0.0
 40
5.892883509410122
100
AcDbArc
 50
353.2242861778
 51
3.3151771326
  0
SPLINE
  5
311
330
1F
100
AcDbEntity
  8
0
  6
Continuous
 62
     7
370
    25
100
AcDbSpline
210
0.0
220
0.0
230
1.0
 70
     8
 71
     3
 72
    22
 73
    18
 74
     0
 42
0.000000001
 43
0.00000001
 40
0.0
 40
0.0
 40
0.0
 40
0.0
 40
0.125
 40
0.125
 40
0.25
 40
0.25
 40
0.375
 40
0.375
 40
0.5
 40
0.5
 40
0.625
 40
0.625
 40
0.75
 40
0.75
 40
0.875
 40
0.875
 40
1.0
 40
1.0
 40
1.0
 40
1.0
 10
221.3329845253308
 20
48.99866495123482
 30
0.0
 10
221.2549666975261
 20
49.12675046475143
 30
0.0
 10
221.184638474985
 20
49.25655409293736
 30
0.0
 10
221.0603609794864
 20
49.52011715543327
 30
0.0
 10
221.0060311373084
 20
49.65524551747719
 30
0.0
 10
220.9188431906924
 20
49.9212721350051
 30
0.0
 10
220.8856087261223
 20
50.05249730691494
 30
0.0
 10
220.8405330866342
 20
50.31153749352825
 30
0.0
 10
220.8287976275543
 20
50.44068843756187
 30
0.0
 10
220.8286699491068
 20
50.6860063972934
 30
0.0
 10
220.8399158889286
 20
50.80277234603683
 30
0.0
 10
220.8846268412757
 20
51.02459429988431
 30
0.0
 10
220.9185467740181
 20
51.13007025922389
 30
0.0
 10
221.0055261097203
 20
51.32095461956594
 30
0.0
 10
221.0586798719723
 20
51.40750135814856
 30
0.0
 10
221.1833489762081
 20
51.56294175935903
 30
0.0
 10
221.254737254696
 20
51.63136993145842
 30
0.0
 10
221.3329845253308
 20
51.68908370906347
 30
0.0
  0
LWPOLYLINE
  5
312
330
1F
100
AcDbEntity
  8
0
  6
Continuous
 62
     7
370
    25
100
AcDbPolyline
 90
       11
 70
   128
 43
0.0
 10
225.7994205415
 20
42.5765139299
 10
225.6086382219
 20
42.6323631159
 10
224.8442537577
 20
42.9366686665
 10
224.1409539064
 20
43.3525097603
 10
223.5044238828
 20
43.8765242374
 10
222.9398115293
 20
44.5044754562
 10
222.4516799007
 20
45.2312868989
 10
222.0439756543
 20
46.0510824786
 10
221.719995464
 20
46.9572344519
 10
221.4823577027
 20
47.9424166537
 10
221.3329846617
 20
48.9986649561
  0
SPLINE
  5
313
330
1F
100
AcDbEntity
  8
0
  6
Continuous
 62
     7
370
    25
100
AcDbSpline
210
0.0
220
0.0
230
1.0
 70
     8
 71
     3
 72
    11
 73
     7
 74
     0
 42
0.000000001
 43
0.00000001
 40
0.0
 40
0.0
 40
0.0
 40
0.0
 40
0.2766610377822508
 40
0.6337815311172381
 40
0.9607457055891345
 40
1.0
 40
1.0
 40
1.0
 40
1.0
 10
236.7052103167493
 20
71.06771135456677
 30
0.0
 10
236.706929955642
 20
71.1483824492598
 30
0.0
 10
236.7108693443579
 20
71.33318566666011
 30
0.0
 10
237.0388121333852
 20
71.4532077498406
 30
0.0
 10
237.4214861637127
 20
71.45133548193114
 30
0.0
 10
237.6908756123888
 20
71.37075549455338
 30
0.0
 10
237.7197509794935
 20
71.36211827164706
 30
0.0
  0
ARC
  5
314
330
1F
100
AcDbEntity
  8
0
  6
Continuous
 62
     7
370
    25
100
AcDbCircle
 10
262.4307836646
 20
36.793775904
 30
0.0
 40
1.641975091137986
100
AcDbArc
 50
288.9885466451
 51
340.0623007732
  0
LWPOLYLINE
  5
315
330
1F
100
AcDbEntity
  8
0
  6
Continuous
 62
     7
370
    25
100
AcDbPolyline
 90
        3
 70
   128
 43
0.0
 10
264.8883148308
 20
39.6290817681
 10
264.8891518409
 20
39.7191310524
 10
264.8692302109
 20
40.127029866
  0
SPLINE
  5
316
330
1F
100
AcDbEntity
  8
0
  6
Continuous
 62
     7
370
    25
100
AcDbSpline
210
0.0
220
0.0
230
1.0
 70
     8
 71
     3
 72
    16
 73
    12
 74
     0
 42
0.000000001
 43
0.00000001
 40
0.0
 40
0.0
 40
0.0
 40
0.0
 40
0.1249999999999996
 40
0.1249999999999996
 40
0.2499999999999992
 40
0.2499999999999992
 40
0.4999999999999994
 40
0.4999999999999994
 40
0.7499999999999997
 40
0.7499999999999997
 40
1.0
 40
1.0
 40
1.0
 40
1.0
 10
222.7453913319083
 20
51.45976633385131
 30
0.0
 10
222.7733893040606
 20
51.47592921913814
 30
0.0
 10
222.8049926610991
 20
51.49571832526598
 30
0.0
 10
222.8696213665812
 20
51.53781953512143
 30
0.0
 10
222.9030503937372
 20
51.5603132144693
 30
0.0
 10
223.0021149690248
 20
51.62678414626275
 30
0.0
 10
223.0679135069097
 20
51.67045890031061
 30
0.0
 10
223.1955283169683
 20
51.74756390194158
 30
0.0
 10
223.2580162916456
 20
51.78159110013563
 30
0.0
 10
223.3783922024242
 20
51.83578284502968
 30
0.0
 10
223.4347170815363
 20
51.85537122436195
 30
0.0
 10
223.48577053619
 20
51.86533005191396
 30
0.0
  0
SPLINE
  5
317
330
1F
100
AcDbEntity
  8
0
  6
Continuous
 62
     7
370
    25
100
AcDbSpline
210
0.0
220
0.0
230
1.0
 70
     8
 71
     3
 72
     9
 73
     5
 74
     0
 42
0.000000001
 43
0.00000001
 40
0.0
 40
0.0
 40
0.0
 40
0.0
 40
0.9796982289324675
 40
1.0
 40
1.0
 40
1.0
 40
1.0
 10
223.4857704449691
 20
51.86532996430596
 30
0.0
 10
223.6251273164996
 20
51.88219751675306
 30
0.0
 10
223.7673720071758
 20
51.89941460661703
 30
0.0
 10
223.9191044888524
 20
51.8417874540997
 30
0.0
 10
223.9221849269589
 20
51.84061752084202
 30
0.0
  0
LINE
  5
318
330
1F
100
AcDbEntity
  8
0
  6
Continuous
 62
     7
370
    25
100
AcDbLine
 10
222.7107860484
 20
51.4397891893
 30
0.0
 11
222.7453912452
 21
51.4597663442
 31
0.0
  0
SPLINE
  5
319
330
1F
100
AcDbEntity
  8
0
  6
Continuous
 62
     7
370
    25
100
AcDbSpline
210
0.0
220
0.0
230
1.0
 70
     8
 71
     3
 72
    10
 73
     6
 74
     0
 42
0.000000001
 43
0.00000001
 40
0.0
 40
0.0
 40
0.0
 40
0.0
 40
0.5
 40
0.5
 40
1.0
 40
1.0
 40
1.0
 40
1.0
 10
222.3778341326529
 20
49.81487282888781
 30
0.0
 10
222.2126968794851
 20
49.66989792462257
 30
0.0
 10
222.0401759909147
 20
49.53214127840036
 30
0.0
 10
221.6901641172884
 20
49.26172628534547
 30
0.0
 10
221.5123043529894
 20
49.12941769170359
 30
0.0
 10
221.3329845253308
 20
48.99866495123484
 30
0.0
  0
SPLINE
  5
31A
330
1F
100
AcDbEntity
  8
0
  6
Continuous
 62
     7
370
    25
100
AcDbSpline
210
0.0
220
0.0
230
1.0
 70
     8
 71
     3
 72
     8
 73
     4
 74
     0
 42
0.000000001
 43
0.00000001
 40
0.0
 40
0.0
 40
0.0
 40
0.0
 40
1.0
 40
1.0
 40
1.0
 40
1.0
 10
222.7107862248589
 20
49.64743448677334
 30
0.0
 10
222.5919279411083
 20
49.69366624501631
 30
0.0
 10
222.4798130591518
 20
49.74807654541063
 30
0.0
 10
222.3778341326529
 20
49.81487282888781
 30
0.0
  0
ARC
  5
31B
330
1F
100
AcDbEntity
  8
0
  6
Continuous
 62
     7
370
    25
100
AcDbCircle
 10
230.9010548974
 20
49.9263577161
 30
0.0
 40
8.195016901747163
100
AcDbArc
 50
181.9504797199
 51
215.1963520309
  0
LWPOLYLINE
  5
31C
330
1F
100
AcDbEntity
  8
0
  6
Continuous
 62
     7
370
    25
100
AcDbPolyline
 90
       26
 70
   128
 43
0.0
 10
219.0211916607
 20
51.689491803
 10
219.0657053182
 20
52.8597625435
 10
219.1988887009
 20
54.0720059376
 10
219.4196683814
 20
55.3164608793
 10
219.726266948
 20
56.5831077714
 10
220.1162168344
 20
57.861748848
 10
220.5863774419
 20
59.1420892571
 10
221.1329641152
 20
60.4138201387
 10
221.7515751427
 20
61.6667026532
 10
222.4372299525
 20
62.8906485871
 10
223.1844092829
 20
64.0758039997
 10
223.9870953542
 20
65.212626407
 10
224.8388271863
 20
66.291963864
 10
225.7327460382
 20
67.3051245434
 10
226.6616550061
 20
68.2439514448
 10
227.6180750001
 20
69.1008866492
 10
228.5943054946
 20
69.8690307239
 10
229.582486514
 20
70.5421975181
 10
230.5746616882
 20
71.1149680544
 10
231.5628427076
 20
71.5827307798
 10
232.5390732022
 20
71.9417184424
 10
233.4954931962
 20
72.1890422583
 10
234.4244021641
 20
72.3227108226
 10
235.3183210159
 20
72.3416468808
 10
236.1700528481
 20
72.245698065
 10
236.9194942788
 20
72.0536241707
  0
ARC
  5
31D
330
1F
100
AcDbEntity
  8
0
  6
Continuous
 62
     7
370
    25
100
AcDbCircle
 10
231.1979358149
 20
51.5834065456
 30
0.0
 40
12.17574240461461
100
AcDbArc
 50
180.4390567717
 51
191.5242907653
  0
LINE
  5
31E
330
1F
100
AcDbEntity
  8
0
  6
Continuous
 62
     7
370
    25
100
AcDbLine
 10
231.3164994818
 20
45.5202923984
 30
0.0
 11
228.5936497489
 21
43.9484247058
 31
0.0
  0
ELLIPSE
  5
31F
330
1F
100
AcDbEntity
  8
0
  6
Continuous
 62
     7
370
    25
100
AcDbEllipse
 10
228.5936498606
 20
45.6835740792
 30
0.0
 11
3.005203820042823
 21
-2.131628207280301E-14
 31
0.0
210
0.0
220
0.0
230
1.0
 40
0.5773815452
 41
4.523023970340304
 42
4.712388980384711
  0
SPLINE
  5
320
330
1F
100
AcDbEntity
  8
0
  6
Continuous
 62
     7
370
    25
100
AcDbSpline
210
0.0
220
0.0
230
1.0
 70
     8
 71
     3
 72
     8
 73
     4
 74
     0
 42
0.000000001
 43
0.00000001
 40
0.0
 40
0.0
 40
0.0
 40
0.0
 40
1.0
 40
1.0
 40
1.0
 40
1.0
 10
223.764581001934
 20
47.02921618675104
 30
0.0
 10
223.8330244627101
 20
47.38975898641339
 30
0.0
 10
223.9021974670449
 20
47.75124365707122
 30
0.0
 10
223.9719446838286
 20
48.11474386866662
 30
0.0
  0
ARC
  5
321
330
1F
100
AcDbEntity
  8
0
  6
Continuous
 62
     7
370
    25
100
AcDbCircle
 10
224.1391183568
 20
48.8156471305
 30
0.0
 40
0.7205639511816117
100
AcDbArc
 50
256.5849353626
 51
352.6422859241
  0
ARC
  5
322
330
1F
100
AcDbEntity
  8
0
  6
Continuous
 62
     7
370
    25
100
AcDbCircle
 10
212.9558453879
 20
59.6489798674
 30
0.0
 40
4.343195960906792
100
AcDbArc
 50
204.1580134929
 51
235.8293294949
  0
SPLINE
  5
323
330
1F
100
AcDbEntity
  8
0
  6
Continuous
 62
     7
370
    25
100
AcDbSpline
210
0.0
220
0.0
230
1.0
 70
     8
 71
     3
 72
     8
 73
     4
 74
     0
 42
0.000000001
 43
0.00000001
 40
0.0
 40
0.0
 40
0.0
 40
0.0
 40
1.0
 40
1.0
 40
1.0
 40
1.0
 10
210.9370361998237
 20
56.62063121042807
 30
0.0
 10
210.2890787335351
 20
57.03736460965774
 30
0.0
 10
209.6410857564333
 20
57.45430202063453
 30
0.0
 10
208.993055684033
 20
57.87144204882436
 30
0.0
  0
SPLINE
  5
324
330
1F
100
AcDbEntity
  8
0
  6
Continuous
 62
     7
370
    25
100
AcDbSpline
210
0.0
220
0.0
230
1.0
 70
     8
 71
     3
 72
    18
 73
    14
 74
     0
 42
0.000000001
 43
0.00000001
 40
0.0
 40
0.0
 40
0.0
 40
0.0
 40
0.0730026005296138
 40
0.1452826489108536
 40
0.2170088133629551
 40
0.2883535022790732
 40
0.3594916906054809
 40
0.4305996522899147
 40
0.5018536424920834
 40
0.6288695484303932
 40
0.7534789028566814
 40
0.8768048152418848
 40
1.0
 40
1.0
 40
1.0
 40
1.0
 10
211.7456917722595
 20
56.35175465686903
 30
0.0
 10
211.7326132358541
 20
56.34836636672461
 30
0.0
 10
211.7065856094536
 20
56.341623322451
 30
0.0
 10
211.6637964743024
 20
56.33721721864212
 30
0.0
 10
211.6184603544352
 20
56.33701447968921
 30
0.0
 10
211.570248413488
 20
56.34135554797653
 30
0.0
 10
211.5191838562403
 20
56.35008141386852
 30
0.0
 10
211.4651998829632
 20
56.36317001541344
 30
0.0
 10
211.3935153945599
 20
56.38507413461357
 30
0.0
 10
211.3018392885975
 20
56.42007016615644
 30
0.0
 10
211.1868710008247
 20
56.47424845109218
 30
0.0
 10
211.065789182258
 20
56.53994385543731
 30
0.0
 10
210.9799386854205
 20
56.59374493548609
 30
0.0
 10
210.9370361998237
 20
56.62063121042807
 30
0.0
  0
LWPOLYLINE
  5
325
330
1F
100
AcDbEntity
  8
0
  6
Continuous
 62
     7
370
    25
100
AcDbPolyline
 90
        3
 70
   128
 43
0.0
 10
212.8663405172
 20
55.6318362225
 10
212.1929122448
 20
56.0644833532
 10
211.7456584495
 20
56.351837246
  0
SPLINE
  5
326
330
1F
100
AcDbEntity
  8
0
  6
Continuous
 62
     7
370
    25
100
AcDbSpline
210
0.0
220
0.0
230
1.0
 70
     8
 71
     3
 72
    20
 73
    16
 74
     0
 42
0.000000001
 43
0.00000001
 40
0.0
 40
0.0
 40
0.0
 40
0.0
 40
0.0779426073415931
 40
0.154977836253836
 40
0.2313011619036143
 40
0.3071130776083789
 40
0.3826176734930037
 40
0.4580210707636205
 40
0.5335297691323236
 40
0.609348972928961
 40
0.6856809635252247
 40
0.7627235815227535
 40
0.8406688723928591
 40
0.9197019354287006
 40
1.0
 40
1.0
 40
1.0
 40
1.0
 10
213.8013205268103
 20
54.83904803167594
 30
0.0
 10
213.7781996094465
 20
54.85407110857385
 30
0.0
 10
213.732226939716
 20
54.88394236937614
 30
0.0
 10
213.6619854159078
 20
54.93238173086669
 30
0.0
 10
213.5914007020336
 20
54.98311225149791
 30
0.0
 10
213.5203597209286
 20
55.03641349164769
 30
0.0
 10
213.4489113956736
 20
55.09222161065605
 30
0.0
 10
213.3770673175651
 20
55.15056898231791
 30
0.0
 10
213.3048546813801
 20
55.21146793472246
 30
0.0
 10
213.2323013304958
 20
55.2749408130609
 30
0.0
 10
213.1594425403023
 20
55.34101531284981
 30
0.0
 10
213.0863082229524
 20
55.40971314964742
 30
0.0
 10
213.0129675785626
 20
55.48110083766336
 30
0.0
 10
212.9393601779801
 20
55.55509453997512
 30
0.0
 10
212.8908327843518
 20
55.60606066768741
 30
0.0
 10
212.8663764471279
 20
55.63174605305719
 30
0.0
  0
LINE
  5
327
330
1F
100
AcDbEntity
  8
0
  6
Continuous
 62
     7
370
    25
100
AcDbLine
 10
214.4415743705
 20
54.4274150136
 30
0.0
 11
213.8013209362
 21
54.8390481992
 31
0.0
  0
SPLINE
  5
328
330
1F
100
AcDbEntity
  8
0
  6
Continuous
 62
     7
370
    25
100
AcDbSpline
210
0.0
220
0.0
230
1.0
 70
     8
 71
     3
 72
    25
 73
    21
 74
     0
 42
0.000000001
 43
0.00000001
 40
0.0
 40
0.0
 40
0.0
 40
0.0
 40
0.0278976907631492
 40
0.0557309263705187
 40
0.0835540758971151
 40
0.1114215784680501
 40
0.1393876251188355
 40
0.1675058479420124
 40
0.1958290252490742
 40
0.2244088104311829
 40
0.2532954907191978
 40
0.3785425415735221
 40
0.5042228551085385
 40
0.629740816633689
 40
0.7519986130705354
 40
0.8029026584046279
 40
0.8527544500748471
 40
0.9019482111302389
 40
0.9508924003107465
 40
1.0
 40
1.0
 40
1.0
 40
1.0
 10
215.4540944875399
 20
55.06365935775545
 30
0.0
 10
215.4584287384089
 20
55.03933997655079
 30
0.0
 10
215.4670872262424
 20
54.99075740192837
 30
0.0
 10
215.4770189903122
 20
54.9210234239992
 30
0.0
 10
215.4846670939081
 20
54.85377734056031
 30
0.0
 10
215.4898086514088
 20
54.78923419272343
 30
0.0
 10
215.4924933044197
 20
54.72734164995025
 30
0.0
 10
215.4926975603308
 20
54.66811842161572
 30
0.0
 10
215.490418107043
 20
54.61156449299489
 30
0.0
 10
215.4856446045665
 20
54.55768122813216
 30
0.0
 10
215.4703257494178
 20
54.44979229668306
 30
0.0
 10
215.4262836433961
 20
54.31225350723945
 30
0.0
 10
215.3193674291057
 20
54.19530476091867
 30
0.0
 10
215.169243537363
 20
54.14445716556639
 30
0.0
 10
215.0103272193671
 20
54.16104885705404
 30
0.0
 10
214.8733221428631
 20
54.20237012512005
 30
0.0
 10
214.7738576455234
 20
54.24187111417211
 30
0.0
 10
214.6687699613467
 20
54.29257085631644
 30
0.0
 10
214.5583495326739
 20
54.35345222867964
 30
0.0
 10
214.4805429033384
 20
54.40273339110985
 30
0.0
 10
214.4415747534391
 20
54.42741503766357
 30
0.0
  0
ARC
  5
329
330
1F
100
AcDbEntity
  8
0
  6
Continuous
 62
     7
370
    25
100
AcDbCircle
 10
226.6379460281
 20
56.8319463251
 30
0.0
 40
11.32278127629789
100
AcDbArc
 50
171.0152977473
 51
188.9847022527
  0
SPLINE
  5
32A
330
1F
100
AcDbEntity
  8
0
  6
Continuous
 62
     7
370
    25
100
AcDbSpline
210
0.0
220
0.0
230
1.0
 70
     8
 71
     3
 72
    25
 73
    21
 74
     0
 42
0.000000001
 43
0.00000001
 40
0.0
 40
0.0
 40
0.0
 40
0.0
 40
0.0272076067907844
 40
0.054320893861347
 40
0.0814102966621554
 40
0.1085466026278895
 40
0.1358003969417054
 40
0.1632415182211508
 40
0.1909385445965428
 40
0.2189583279826006
 40
0.2473655903301757
 40
0.3695706824300598
 40
0.4951323217741528
 40
0.6209162937160067
 40
0.7462746977576536
 40
0.7981205547976649
 40
0.8491049075670901
 40
0.8995344034064675
 40
0.9497257410926077
 40
1.0
 40
1.0
 40
1.0
 40
1.0
 10
214.4415747534391
 20
61.65212091849549
 30
0.0
 10
214.4632654928371
 20
61.63806694744154
 30
0.0
 10
214.5065717770565
 20
61.61000772577527
 30
0.0
 10
214.5696379971405
 20
61.56239584138669
 30
0.0
 10
214.6310906216696
 20
61.51087148865538
 30
0.0
 10
214.6908190251638
 20
61.45502981435111
 30
0.0
 10
214.7488670319879
 20
61.39497656719522
 30
0.0
 10
214.8052427173552
 20
61.3306809479778
 30
0.0
 10
214.8599683834967
 20
61.26215281858052
 30
0.0
 10
214.913071448081
 20
61.18938138141804
 30
0.0
 10
215.0209391714169
 20
61.0281462972805
 30
0.0
 10
215.1680795429686
 20
60.75269129771064
 30
0.0
 10
215.3186056357502
 20
60.34014586189064
 30
0.0
 10
215.4260557341676
 20
59.90176455319067
 30
0.0
 10
215.4740221095746
 20
59.54188713282822
 30
0.0
 10
215.4908118424682
 20
59.2745558181865
 30
0.0
 10
215.4941347292204
 20
59.09725545377822
 30
0.0
 10
215.4891670177061
 20
58.92556715523615
 30
0.0
 10
215.4766587360659
 20
58.7589324951338
 30
0.0
 10
215.4616200412077
 20
58.65316260254063
 30
0.0
 10
215.4540944875399
 20
58.60023400663182
 30
0.0
  0
LINE
  5
32B
330
1F
100
AcDbEntity
  8
0
  6
Continuous
 62
     7
370
    25
100
AcDbLine
 10
213.8013209362
 20
62.0645840786
 30
0.0
 11
214.4415743705
 21
61.6521212279
 31
0.0
  0
SPLINE
  5
32C
330
1F
100
AcDbEntity
  8
0
  6
Continuous
 62
     7
370
    25
100
AcDbSpline
210
0.0
220
0.0
230
1.0
 70
     8
 71
     3
 72
    20
 73
    16
 74
     0
 42
0.000000001
 43
0.00000001
 40
0.0
 40
0.0
 40
0.0
 40
0.0
 40
0.080057784424552
 40
0.1588942060987374
 40
0.2366863281240196
 40
0.3136187788829107
 40
0.389882801524567
 40
0.4656750859622621
 40
0.5411964097344726
 40
0.6166501291103762
 40
0.69224057450012
 40
0.7681714126989251
 40
0.8446440414296847
 40
0.921856078584151
 40
1.0
 40
1.0
 40
1.0
 40
1.0
 10
212.8663855364474
 20
62.21528050160826
 30
0.0
 10
212.8907669417369
 20
62.22196586069303
 30
0.0
 10
212.9391577892342
 20
62.23523458692489
 30
0.0
 10
213.012575480918
 20
62.2489993778337
 30
0.0
 10
213.0857630794329
 20
62.25799796286753
 30
0.0
 10
213.1587812612766
 20
62.26181044921428
 30
0.0
 10
213.2315612538797
 20
62.26053210633997
 30
0.0
 10
213.3040734839986
 20
62.25412419992656
 30
0.0
 10
213.3762829688925
 20
62.24258409185762
 30
0.0
 10
213.4481620949322
 20
62.22590323069279
 30
0.0
 10
213.5196838899102
 20
62.20406711330077
 30
0.0
 10
213.5908367607976
 20
62.17709683033938
 30
0.0
 10
213.6615723287365
 20
62.14488126203479
 30
0.0
 10
213.7320019405877
 20
62.10781312064182
 30
0.0
 10
213.7781221159385
 20
62.07905135324247
 30
0.0
 10
213.8013205268103
 20
62.06458420752035
 30
0.0
  0
LWPOLYLINE
  5
32D
330
1F
100
AcDbEntity
  8
0
  6
Continuous
 62
     7
370
    25
100
AcDbPolyline
 90
        3
 70
   128
 43
0.0
 10
211.6458777613
 20
62.9993063441
 10
212.3347291461
 20
62.5567299425
 10
212.8663589565
 20
62.2151847665
  0
SPLINE
  5
32E
330
1F
100
AcDbEntity
  8
0
  6
Continuous
 62
     7
370
    25
100
AcDbSpline
210
0.0
220
0.0
230
1.0
 70
     8
 71
     3
 72
    26
 73
    22
 74
     0
 42
0.000000001
 43
0.00000001
 40
0.0
 40
0.0
 40
0.0
 40
0.0
 40
0.0372513093892475
 40
0.0742527272001326
 40
0.1111094615711384
 40
0.1479282207084762
 40
0.1848162960908755
 40
0.2218806241994334
 40
0.2592268670801778
 40
0.2969585501182277
 40
0.3351762898368753
 40
0.3739771362726529
 40
0.4134540448174645
 40
0.4536954827148856
 40
0.4947851667865785
 40
0.579784704027534
 40
0.6635410977708218
 40
0.7467429540368391
 40
0.8300920749794538
 40
0.9142858239917746
 40
1.0
 40
1.0
 40
1.0
 40
1.0
 10
210.7274890845187
 20
65.29548329400305
 30
0.0
 10
210.750145545664
 20
65.28042499106552
 30
0.0
 10
210.7953064824558
 20
65.25040940024601
 30
0.0
 10
210.8603396587802
 20
65.19944842257259
 30
0.0
 10
210.9230023925643
 20
65.14436759628408
 30
0.0
 10
210.9831386396231
 20
65.0847282411216
 30
0.0
 10
211.040807114609
 20
65.02064094705973
 30
0.0
 10
211.0960155741074
 20
64.95207033137565
 30
0.0
 10
211.1487919423035
 20
64.87902079161319
 30
0.0
 10
211.1991653394251
 20
64.80148658598347
 30
0.0
 10
211.2471711216184
 20
64.7194652659019
 30
0.0
 10
211.2928500056257
 20
64.63295396274282
 30
0.0
 10
211.3362464985646
 20
64.54195069979177
 30
0.0
 10
211.3774162180011
 20
64.44645313062213
 30
0.0
 10
211.4299809860298
 20
64.31161950573427
 30
0.0
 10
211.4888882779526
 20
64.13582555180307
 30
0.0
 10
211.546830680995
 20
63.91702011348203
 30
0.0
 10
211.5913475328905
 20
63.69361412039002
 30
0.0
 10
211.6225617905477
 20
63.4657958353681
 30
0.0
 10
211.6419075574655
 20
63.23355002267737
 30
0.0
 10
211.64461563774
 20
63.07809572362193
 30
0.0
 10
211.6459817945526
 20
62.99967302998439
 30
0.0
  0
SPLINE
  5
32F
330
1F
100
AcDbEntity
  8
0
  6
Continuous
 62
     7
370
    25
100
AcDbSpline
210
0.0
220
0.0
230
1.0
 70
     8
 71
     3
 72
     8
 73
     4
 74
     0
 42
0.000000001
 43
0.00000001
 40
0.0
 40
0.0
 40
0.0
 40
0.0
 40
1.0
 40
1.0
 40
1.0
 40
1.0
 10
209.297080971324
 20
66.22350799304414
 30
0.0
 10
209.7739134158497
 20
65.91433678356216
 30
0.0
 10
210.2507157926946
 20
65.60499514802773
 30
0.0
 10
210.7274890845187
 20
65.29548329400305
 30
0.0
  0
LWPOLYLINE
  5
330
330
1F
100
AcDbEntity
  8
0
  6
Continuous
 62
     7
370
    25
100
AcDbPolyline
 90
       18
 70
   128
 43
0.0
 10
209.297081309
 20
66.223507712
 10
209.7538220965
 20
67.3546518843
 10
210.2887663614
 20
68.4691322999
 10
210.8956981021
 20
69.5539999996
 10
211.567565624
 20
70.5966505924
 10
212.2965628698
 20
71.5849681656
 10
213.0742189815
 20
72.5074709044
 10
213.8914987284
 20
73.3534394114
 10
214.7389058988
 20
74.1130440737
 10
215.6065947582
 20
74.7774595978
 10
216.4844832806
 20
75.3389661175
 10
217.3623713872
 20
75.7910387453
 10
218.2300589296
 20
76.1284255683
 10
219.0774641243
 20
76.347206133
 10
219.8947410724
 20
76.4448387557
 10
220.6723935621
 20
76.4201889563
 10
221.4013861981
 20
76.2735434217
 10
222.0427940609
 20
76.0219411235
  0
SPLINE
  5
331
330
1F
100
AcDbEntity
  8
0
  6
Continuous
 62
     7
370
    25
100
AcDbSpline
210
0.0
220
0.0
230
1.0
 70
    11
 71
     3
 72
    39
 73
    35
 74
     0
 42
0.000000001
 43
0.00000001
 40
0.0
 40
0.0
 40
0.0
 40
0.0
 40
0.0310664353900062
 40
0.0621048603876972
 40
0.0931362161117725
 40
0.123553887341527
 40
0.1538561988726564
 40
0.1850588368132422
 40
0.2160251058014421
 40
0.247186712868017
 40
0.2784462588807539
 40
0.3100515659479131
 40
0.3419833834553785
 40
0.3734259311699206
 40
0.4048604352637009
 40
0.4368740261890637
 40
0.4685120504548374
 40
0.4998055392338278
 40
0.5309508407944965
 40
0.5618650209181625
 40
0.5930416973304353
 40
0.623374300686562
 40
0.6540914153748527
 40
0.6849497019636582
 40
0.7158160740685293
 40
0.7471731667441052
 40
0.7784513974514702
 40
0.8101295465385695
 40
0.8419598340649483
 40
0.8735175315994808
 40
0.905080750353609
 40
0.9370234759239522
 40
0.9687441349557138
 40
1.0
 40
1.0
 40
1.0
 40
1.0
 10
222.2015587489302
 20
74.32539564718401
 30
0.0
 10
222.4644448414818
 20
74.29686404516542
 30
0.0
 10
222.991335203414
 20
74.21092674571605
 30
0.0
 10
223.7553530638585
 20
74.01055741403354
 30
0.0
 10
224.4625117564802
 20
73.76355909621348
 30
0.0
 10
225.0754344412859
 20
73.48557920809984
 30
0.0
 10
225.5725797209346
 20
73.1914462404174
 30
0.0
 10
225.9317865682931
 20
72.8899398787933
 30
0.0
 10
226.153521748007
 20
72.58294258196693
 30
0.0
 10
226.2187893809407
 20
72.27243782088601
 30
0.0
 10
226.1319577757591
 20
71.95329409430389
 30
0.0
 10
225.8896274797827
 20
71.62397481682093
 30
0.0
 10
225.509703692814
 20
71.28503434463609
 30
0.0
 10
224.9959099154024
 20
70.94719496966518
 30
0.0
 10
224.3700284081686
 20
70.62129453930669
 30
0.0
 10
223.656563302302
 20
70.32464327033927
 30
0.0
 10
222.8926637433807
 20
70.06853363738271
 30
0.0
 10
222.1068706054429
 20
69.87949805587184
 30
0.0
 10
221.3253305302324
 20
69.77131250416925
 30
0.0
 10
220.5692122514731
 20
69.76363731481055
 30
0.0
 10
219.866839817692
 20
69.86154717440989
 30
0.0
 10
219.2478085405475
 20
70.0831832192701
 30
0.0
 10
218.738737775196
 20
70.41904011645813
 30
0.0
 10
218.3657788856812
 20
70.8588423162679
 30
0.0
 10
218.1371607206546
 20
71.36991182225344
 30
0.0
 10
218.068298083377
 20
71.92109556380477
 30
0.0
 10
218.1528984683591
 20
72.47876956168811
 30
0.0
 10
218.3959919169318
 20
73.0088551154441
 30
0.0
 10
218.7781077800873
 20
73.48138768206519
 30
0.0
 10
219.2942313052737
 20
73.86751971121663
 30
0.0
 10
219.9211997726604
 20
74.15115576187608
 30
0.0
 10
220.6371009620973
 20
74.32090501495495
 30
0.0
 10
221.4055410622858
 20
74.38245511147107
 30
0.0
 10
221.9370696909593
 20
74.35410122254193
 30
0.0
 10
222.2015587489302
 20
74.325395647184
 30
0.0
  0
SPLINE
  5
332
330
1F
100
AcDbEntity
  8
0
  6
Continuous
 62
     7
370
    25
100
AcDbSpline
210
0.0
220
0.0
230
1.0
 70
     8
 71
     3
 72
     8
 73
     4
 74
     0
 42
0.000000001
 43
0.00000001
 40
0.0
 40
0.0
 40
0.0
 40
0.0
 40
1.0
 40
1.0
 40
1.0
 40
1.0
 10
223.9719446838286
 20
48.11474386866679
 30
0.0
 10
224.0111629160407
 20
48.17642260881834
 30
0.0
 10
224.0503837322446
 20
48.24219661961655
 30
0.0
 10
224.0895719547145
 20
48.31187598029478
 30
0.0
  0
LINE
  5
333
330
1F
100
AcDbEntity
  8
0
  6
Continuous
 62
     7
370
    25
100
AcDbLine
 10
224.0895721236
 20
48.3118760833
 30
0.0
 11
224.1243584202
 21
48.3319577848
 31
0.0
  0
SPLINE
  5
334
330
1F
100
AcDbEntity
  8
0
  6
Continuous
 62
     7
370
    25
100
AcDbSpline
210
0.0
220
0.0
230
1.0
 70
     8
 71
     3
 72
    14
 73
    10
 74
     0
 42
0.000000001
 43
0.00000001
 40
0.0
 40
0.0
 40
0.0
 40
0.0
 40
0.25
 40
0.25
 40
0.5
 40
0.5
 40
0.75
 40
0.75
 40
1.0
 40
1.0
 40
1.0
 40
1.0
 10
224.1243582056072
 20
48.3319576554849
 30
0.0
 10
224.1709703936376
 20
48.35886629886824
 30
0.0
 10
224.2084938686068
 20
48.38891220936807
 30
0.0
 10
224.2600495349556
 20
48.45210551585036
 30
0.0
 10
224.2739519699279
 20
48.48480595690962
 30
0.0
 10
224.2760858041777
 20
48.55259814172777
 30
0.0
 10
224.2642006137357
 20
48.5866743198327
 30
0.0
 10
224.2148842099902
 20
48.6545707108464
 30
0.0
 10
224.1777953804534
 20
48.68778076760456
 30
0.0
 10
224.1302354588396
 20
48.71870676403549
 30
0.0
  0
SPLINE
  5
335
330
1F
100
AcDbEntity
  8
0
  6
Continuous
 62
     7
370
    25
100
AcDbSpline
210
0.0
220
0.0
230
1.0
 70
     8
 71
     3
 72
    10
 73
     6
 74
     0
 42
0.000000001
 43
0.00000001
 40
0.0
 40
0.0
 40
0.0
 40
0.0
 40
0.5
 40
0.5
 40
1.0
 40
1.0
 40
1.0
 40
1.0
 10
224.1302354588395
 20
48.71870676403545
 30
0.0
 10
224.0186620404199
 20
48.79125774861961
 30
0.0
 10
223.9086344702621
 20
48.87638101212849
 30
0.0
 10
223.6920764853308
 20
49.0712118260684
 30
0.0
 10
223.5854973742197
 20
49.18137050441013
 30
0.0
 10
223.48577053619
 20
49.30026339379402
 30
0.0
  0
SPLINE
  5
336
330
1F
100
AcDbEntity
  8
0
  6
Continuous
 62
     7
370
    25
100
AcDbSpline
210
0.0
220
0.0
230
1.0
 70
     8
 71
     3
 72
    14
 73
    10
 74
     0
 42
0.000000001
 43
0.00000001
 40
0.0
 40
0.0
 40
0.0
 40
0.0
 40
0.25
 40
0.25
 40
0.5
 40
0.5
 40
0.75
 40
0.75
 40
1.0
 40
1.0
 40
1.0
 40
1.0
 10
223.48577053619
 20
49.30026339379402
 30
0.0
 10
223.4347954183707
 20
49.36103518967125
 30
0.0
 10
223.3785040308878
 20
49.416163920949
 30
0.0
 10
223.2580772755873
 20
49.51807611184373
 30
0.0
 10
223.195754031861
 20
49.56324845583505
 30
0.0
 10
223.067449552631
 20
49.63912486239122
 30
0.0
 10
223.0024993874189
 20
49.6696739975182
 30
0.0
 10
222.8694514261063
 20
49.7010902511916
 30
0.0
 10
222.8023127995688
 20
49.70027165368272
 30
0.0
 10
222.7453913319083
 20
49.66741158984841
 30
0.0
  0
LINE
  5
337
330
1F
100
AcDbEntity
  8
0
  6
Continuous
 62
     7
370
    25
100
AcDbLine
 10
222.7453912452
 20
49.6674115839
 30
0.0
 11
222.7107860484
 21
49.647434429
 31
0.0
  0
ARC
  5
338
330
1F
100
AcDbEntity
  8
0
  6
Continuous
 62
     7
370
    25
100
AcDbCircle
 10
223.9600437901
 20
50.4865108977
 30
0.0
 40
1.718861491751281
100
AcDbArc
 50
156.9990844282
 51
203.0009155718
  0
LINE
  5
339
330
1F
100
AcDbEntity
  8
0
  6
Continuous
 62
     7
370
    25
100
AcDbLine
 10
228.5936497489
 20
43.9484247058
 30
0.0
 11
228.5936497489
 21
42.3153430045
 31
0.0
  0
ELLIPSE
  5
33A
330
1F
100
AcDbEntity
  8
0
  6
Continuous
 62
     7
370
    25
100
AcDbEllipse
 10
228.5936498606
 20
40.5801940049
 30
0.0
 11
3.005203820042794
 21
-2.842170943040401E-14
 31
0.0
210
0.0
220
0.0
230
1.0
 40
0.5773815452
 41
1.570796326794902
 42
1.76016133683931
  0
LINE
  5
33B
330
1F
100
AcDbEntity
  8
0
  6
Continuous
 62
     7
370
    25
100
AcDbLine
 10
232.730943108
 20
44.703751622
 30
0.0
 11
228.5936497489
 21
42.3153430045
 31
0.0
  0
LINE
  5
33C
330
1F
100
AcDbEntity
  8
0
  6
Continuous
 62
     7
370
    25
100
AcDbLine
 10
213.3955001272
 20
58.0085972022
 30
0.0
 11
215.3164007
 21
56.8996849054
 31
0.0
  0
SPLINE
  5
33D
330
1F
100
AcDbEntity
  8
0
  6
Continuous
 62
     7
370
    25
100
AcDbSpline
210
0.0
220
0.0
230
1.0
 70
     8
 71
     3
 72
     8
 73
     4
 74
     0
 42
0.000000001
 43
0.00000001
 40
0.0
 40
0.0
 40
0.0
 40
0.0
 40
1.0
 40
1.0
 40
1.0
 40
1.0
 10
213.0394296400789
 20
58.18475427284599
 30
0.0
 10
213.1704175406591
 20
58.10913656740917
 30
0.0
 10
213.2887582135044
 20
58.05046872908863
 30
0.0
 10
213.3955006205626
 20
58.00859710682911
 30
0.0
  0
LINE
  5
33E
330
1F
100
AcDbEntity
  8
0
  6
Continuous
 62
     7
370
    25
100
AcDbLine
 10
211.496213973
 20
59.0756335536
 30
0.0
 11
213.0394300508
 21
58.1847538748
 31
0.0
  0
LWPOLYLINE
  5
33F
330
1F
100
AcDbEntity
  8
0
  6
Continuous
 62
     7
370
    25
100
AcDbPolyline
 90
        3
 70
   128
 43
0.0
 10
215.354440371
 20
57.7149314548
 10
214.8055170172
 20
57.6051758277
 10
214.165153606
 20
57.5642857488
  0
SPLINE
  5
340
330
1F
100
AcDbEntity
  8
0
  6
Continuous
 62
     7
370
    25
100
AcDbSpline
210
0.0
220
0.0
230
1.0
 70
     8
 71
     3
 72
    12
 73
     8
 74
     0
 42
0.000000001
 43
0.00000001
 40
0.0
 40
0.0
 40
0.0
 40
0.0
 40
0.1523598330305601
 40
0.3826801306822303
 40
0.6138741683107227
 40
0.8254372814239916
 40
1.0
 40
1.0
 40
1.0
 40
1.0
 10
223.5401471235378
 20
71.3228887678423
 30
0.0
 10
223.3351797851559
 20
71.43503516757505
 30
0.0
 10
222.8203660952393
 20
71.7167117620661
 30
0.0
 10
221.8072907679501
 20
72.13287773453318
 30
0.0
 10
220.599911986991
 20
72.4161193624807
 30
0.0
 10
219.4975815016401
 20
72.44706620522149
 30
0.0
 10
218.9326424691091
 20
72.23933882789979
 30
0.0
 10
218.6772405113668
 20
72.14542784673262
 30
0.0
  0
SPLINE
  5
341
330
1F
100
AcDbEntity
  8
0
  6
Continuous
 62
     7
370
    25
100
AcDbSpline
210
0.0
220
0.0
230
1.0
 70
     8
 71
     3
 72
    10
 73
     6
 74
     0
 42
0.000000001
 43
0.00000001
 40
0.0
 40
0.0
 40
0.0
 40
0.0
 40
0.405540438769607
 40
0.9620148320813596
 40
1.0
 40
1.0
 40
1.0
 40
1.0
 10
224.7254791641575
 20
70.77083197352124
 30
0.0
 10
224.5812724533493
 20
70.84921237115749
 30
0.0
 10
224.2391882086706
 20
71.03514476620859
 30
0.0
 10
223.8146325685409
 20
71.21587211288451
 30
0.0
 10
223.5579865328798
 20
71.31507513522303
 30
0.0
 10
223.5415871957406
 20
71.3214140751734
 30
0.0
  0
SPLINE
  5
342
330
1F
100
AcDbEntity
  8
0
  6
Continuous
 62
     7
370
    25
100
AcDbSpline
210
0.0
220
0.0
230
1.0
 70
     8
 71
     3
 72
    24
 73
    20
 74
     0
 42
0.000000001
 43
0.00000001
 40
0.0
 40
0.0
 40
0.0
 40
0.0
 40
0.061884506885966
 40
0.1150103853347526
 40
0.1593833209049525
 40
0.242811517355332
 40
0.3183322062325826
 40
0.3935545850707916
 40
0.4204846083346848
 40
0.4483401237881731
 40
0.4771292474828835
 40
0.5451526192277495
 40
0.6363484185428561
 40
0.6968785096599355
 40
0.7498599333729385
 40
0.7959711444437577
 40
0.8771166768442287
 40
0.9542938463659915
 40
1.0
 40
1.0
 40
1.0
 40
1.0
 10
222.1466878534345
 20
73.7515336174721
 30
0.0
 10
221.9627354928514
 20
73.77042543835034
 30
0.0
 10
221.6208658886729
 20
73.8055352858423
 30
0.0
 10
221.1566493025653
 20
73.79904038131366
 30
0.0
 10
220.6471878488302
 20
73.75130828817035
 30
0.0
 10
220.1080954613547
 20
73.62668206811126
 30
0.0
 10
219.565267745835
 20
73.38418169461794
 30
0.0
 10
219.2248826153506
 20
73.12680377883242
 30
0.0
 10
219.0182630462835
 20
72.91198954946158
 30
0.0
 10
218.9002824401917
 20
72.76548589037817
 30
0.0
 10
218.7481218485612
 20
72.53573312326832
 30
0.0
 10
218.5814500304444
 20
72.16278795085334
 30
0.0
 10
218.5131017141528
 20
71.70022843465595
 30
0.0
 10
218.5634686353518
 20
71.27189359854069
 30
0.0
 10
218.668906507198
 20
70.95196931394989
 30
0.0
 10
218.8511142468877
 20
70.61151216236775
 30
0.0
 10
219.1519921496275
 20
70.27557831052005
 30
0.0
 10
219.5416779447086
 20
70.00252979685375
 30
0.0
 10
219.8346023424534
 20
69.90857638175058
 30
0.0
 10
219.9435548608476
 20
69.87363063716244
 30
0.0
  0
SPLINE
  5
343
330
1F
100
AcDbEntity
  8
0
  6
Continuous
 62
     7
370
    25
100
AcDbSpline
210
0.0
220
0.0
230
1.0
 70
     8
 71
     3
 72
    22
 73
    18
 74
     0
 42
0.000000001
 43
0.00000001
 40
0.0
 40
0.0
 40
0.0
 40
0.0
 40
0.0114895939831817
 40
0.0705179681131631
 40
0.1365157990365263
 40
0.2095229758031175
 40
0.2722029545602319
 40
0.3261379310016004
 40
0.371327547581801
 40
0.4077743324000472
 40
0.5121598384037775
 40
0.6052158808071714
 40
0.699659374100385
 40
0.7500014014862727
 40
0.8024666505798397
 40
0.8926079034640786
 40
1.0
 40
1.0
 40
1.0
 40
1.0
 10
225.4842321673323
 20
71.30579999550886
 30
0.0
 10
225.4960921966101
 20
71.3171048291186
 30
0.0
 10
225.5688837302061
 20
71.38648882103196
 30
0.0
 10
225.6655049062303
 20
71.51817922802809
 30
0.0
 10
225.7636768235132
 20
71.70701122592591
 30
0.0
 10
225.7944193557869
 20
71.89295656779514
 30
0.0
 10
225.7651277862358
 20
72.0647735313378
 30
0.0
 10
225.6966023435258
 20
72.21157710302056
 30
0.0
 10
225.6087882278412
 20
72.3327891705531
 30
0.0
 10
225.4544860541723
 20
72.4983751916085
 30
0.0
 10
225.1866477687889
 20
72.70854074971447
 30
0.0
 10
224.7350667632834
 20
72.96398355636671
 30
0.0
 10
224.2874959653408
 20
73.17061890913912
 30
0.0
 10
223.8785976108379
 20
73.32912161908328
 30
0.0
 10
223.4565154087578
 20
73.47163548240106
 30
0.0
 10
222.8781989847808
 20
73.63488819844203
 30
0.0
 10
222.4043197273121
 20
73.71045211290408
 30
0.0
 10
222.1466878534345
 20
73.7515336174721
 30
0.0
  0
SPLINE
  5
344
330
1F
100
AcDbEntity
  8
0
  6
Continuous
 62
     7
370
    25
100
AcDbSpline
210
0.0
220
0.0
230
1.0
 70
     8
 71
     3
 72
    19
 73
    15
 74
     0
 42
0.000000001
 43
0.00000001
 40
0.0
 40
0.0
 40
0.0
 40
0.0
 40
0.0210492621018804
 40
0.1455865440207667
 40
0.2712169722633744
 40
0.3929514297049947
 40
0.5136082229787104
 40
0.6366369099308349
 40
0.699422462668311
 40
0.7643939711952468
 40
0.8122544601557282
 40
0.8606584764820763
 40
0.9188817427801165
 40
1.0
 40
1.0
 40
1.0
 40
1.0
 10
218.5575180458937
 20
71.49677663576345
 30
0.0
 10
218.5500494709079
 20
71.55153698266886
 30
0.0
 10
218.4983933123362
 20
71.93028516000399
 30
0.0
 10
218.7411642069958
 20
72.54043606881817
 30
0.0
 10
219.3254946744107
 20
73.22980977205773
 30
0.0
 10
220.231621042051
 20
73.6471093222898
 30
0.0
 10
221.305967170513
 20
73.76753527997843
 30
0.0
 10
222.2599010396088
 20
73.60683573639085
 30
0.0
 10
222.994563582178
 20
73.30946963754904
 30
0.0
 10
223.4673668216504
 20
73.01181156014434
 30
0.0
 10
223.8243369917699
 20
72.64089975536699
 30
0.0
 10
224.0191851332781
 20
72.2085784600594
 30
0.0
 10
224.0482141635223
 20
71.70563712883427
 30
0.0
 10
223.9858405619019
 20
71.37189211625908
 30
0.0
 10
223.9495295059278
 20
71.17760104571222
 30
0.0
  0
SPLINE
  5
345
330
1F
100
AcDbEntity
  8
0
  6
Continuous
 62
     7
370
    25
100
AcDbSpline
210
0.0
220
0.0
230
1.0
 70
     8
 71
     3
 72
    10
 73
     6
 74
     0
 42
0.000000001
 43
0.00000001
 40
0.0
 40
0.0
 40
0.0
 40
0.0
 40
0.2951242349229206
 40
0.9803977732923337
 40
1.0
 40
1.0
 40
1.0
 40
1.0
 10
223.952257361916
 20
71.17636249228983
 30
0.0
 10
224.0350814344193
 20
71.1375973402337
 30
0.0
 10
224.3102216182759
 20
71.0088201533412
 30
0.0
 10
224.5852209946395
 20
70.86759243620591
 30
0.0
 10
224.7337418609323
 20
70.77356826747014
 30
0.0
 10
224.7378721486172
 20
70.77095350446811
 30
0.0
  0
SPLINE
  5
346
330
1F
100
AcDbEntity
  8
0
  6
Continuous
 62
     7
370
    25
100
AcDbSpline
210
0.0
220
0.0
230
1.0
 70
     8
 71
     3
 72
    14
 73
    10
 74
     0
 42
0.000000001
 43
0.00000001
 40
0.0
 40
0.0
 40
0.0
 40
0.0
 40
0.0003951393068452
 40
0.0003951393068452
 40
0.0003951393068452
 40
0.0008163352168664
 40
0.0008163352168664
 40
0.0008163352168664
 40
0.0012378579337219
 40
0.0012378579337219
 40
0.0012378579337219
 40
0.0012378579337219
 10
223.5441796990774
 20
71.32160981445797
 30
0.0
 10
223.5896415133087
 20
71.30717295183294
 30
0.0
 10
223.6345291179298
 20
71.29230709126733
 30
0.0
 10
223.6788128106049
 20
71.27702330366185
 30
0.0
 10
223.7260161028442
 20
71.26073186432416
 30
0.0
 10
223.7725419159034
 20
71.24396238624026
 30
0.0
 10
223.818352825145
 20
71.22673357544495
 30
0.0
 10
223.8641992131341
 20
71.20949142161331
 30
0.0
 10
223.9093384487065
 20
71.19178571540883
 30
0.0
 10
223.9537320067489
 20
71.17364285871804
 30
0.0
  0
SPLINE
  5
347
330
1F
100
AcDbEntity
  8
0
  6
Continuous
 62
     7
370
    25
100
AcDbSpline
210
0.0
220
0.0
230
1.0
 70
     8
 71
     3
 72
    13
 73
     9
 74
     0
 42
0.000000001
 43
0.00000001
 40
0.0
 40
0.0
 40
0.0
 40
0.0
 40
0.1633780675195029
 40
0.3279795339587661
 40
0.4938746621093329
 40
0.6611320842291412
 40
0.8298187695987571
 40
1.0
 40
1.0
 40
1.0
 40
1.0
 10
214.0298890350132
 20
61.92314310790552
 30
0.0
 10
214.0099086171315
 20
61.93570034574698
 30
0.0
 10
213.96979816507
 20
61.96090885186769
 30
0.0
 10
213.9077587371175
 20
61.99364023601709
 30
0.0
 10
213.8442540376168
 20
62.02267226444132
 30
0.0
 10
213.7792855211192
 20
62.04737696400143
 30
0.0
 10
213.7130674741127
 20
62.06812830309335
 30
0.0
 10
213.668308942365
 20
62.07812166482726
 30
0.0
 10
213.6458309748465
 20
62.08314038308465
 30
0.0
  0
SPLINE
  5
348
330
1F
100
AcDbEntity
  8
0
  6
Continuous
 62
     7
370
    25
100
AcDbSpline
210
0.0
220
0.0
230
1.0
 70
     8
 71
     3
 72
    15
 73
    11
 74
     0
 42
0.000000001
 43
0.00000001
 40
0.0
 40
0.0
 40
0.0
 40
0.0
 40
0.112480257201694
 40
0.2280539379213219
 40
0.3469893658035898
 40
0.4695327836257063
 40
0.5959093455865657
 40
0.7263243542707681
 40
0.8609646397825202
 40
1.0
 40
1.0
 40
1.0
 40
1.0
 10
213.6458137486382
 20
62.08308951911549
 30
0.0
 10
213.6183631886568
 20
62.0908973212053
 30
0.0
 10
213.5627071254717
 20
62.1067276549669
 30
0.0
 10
213.4755061790475
 20
62.12766224555537
 30
0.0
 10
213.3842893477581
 20
62.14695097377746
 30
0.0
 10
213.2888437739021
 20
62.16435162251553
 30
0.0
 10
213.1892317520962
 20
62.17994402073993
 30
0.0
 10
213.0854256121536
 20
62.19366541480161
 30
0.0
 10
212.9774717650361
 20
62.2056973914251
 30
0.0
 10
212.9038363073613
 20
62.21202963859429
 30
0.0
 10
212.8664273068077
 20
62.215246608317
 30
0.0
  0
SPLINE
  5
349
330
1F
100
AcDbEntity
  8
0
  6
Continuous
 62
     7
370
    25
100
AcDbSpline
210
0.0
220
0.0
230
1.0
 70
     8
 71
     3
 72
     8
 73
     4
 74
     0
 42
0.000000001
 43
0.00000001
 40
0.0
 40
0.0
 40
0.0
 40
0.0
 40
1.0
 40
1.0
 40
1.0
 40
1.0
 10
209.126293092715
 20
66.33379127001074
 30
0.0
 10
209.1830272106643
 20
66.29660074301884
 30
0.0
 10
209.2399557023818
 20
66.25983978996214
 30
0.0
 10
209.2970809713059
 20
66.22350799316695
 30
0.0
  0
SPLINE
  5
34A
330
1F
100
AcDbEntity
  8
0
  6
Continuous
 62
     7
370
    25
100
AcDbSpline
210
0.0
220
0.0
230
1.0
 70
     8
 71
     3
 72
     8
 73
     4
 74
     0
 42
0.000000001
 43
0.00000001
 40
0.0
 40
0.0
 40
0.0
 40
0.0
 40
1.0
 40
1.0
 40
1.0
 40
1.0
 10
209.1203819536969
 20
66.7424008800506
 30
0.0
 10
209.121163351069
 20
66.60641459509466
 30
0.0
 10
209.1231557549669
 20
66.4702073736401
 30
0.0
 10
209.126293092717
 20
66.33379127001103
 30
0.0
  0
LWPOLYLINE
  5
34B
330
1F
100
AcDbEntity
  8
0
  6
Continuous
 62
     7
370
    25
100
AcDbPolyline
 90
       14
 70
   128
 43
0.0
 10
209.1203826222
 20
66.7424003859
 10
209.5912162622
 20
67.862289906
 10
210.1406340183
 20
68.9619787207
 10
210.7618512358
 20
70.027885029
 10
211.447194554
 20
71.0468447976
 10
212.1882006881
 20
72.00627335
 10
212.9757171867
 20
72.8943204911
 10
213.8000181706
 20
73.7000202132
 10
214.6509232001
 20
74.4134201529
 10
215.5179231808
 20
75.0257105494
 10
216.3903103437
 20
75.5293289388
 10
217.2573103245
 20
75.9180554127
 10
218.108215354
 20
76.1870895084
 10
218.7543003645
 20
76.3116977448
  0
SPLINE
  5
34C
330
1F
100
AcDbEntity
  8
0
  6
Continuous
 62
     7
370
    25
100
AcDbSpline
210
0.0
220
0.0
230
1.0
 70
     8
 71
     3
 72
    11
 73
     7
 74
     0
 42
0.000000001
 43
0.00000001
 40
0.0
 40
0.0
 40
0.0
 40
0.0
 40
0.250122106309324
 40
0.4772624211702478
 40
0.7212752906997454
 40
1.0
 40
1.0
 40
1.0
 40
1.0
 10
214.6702868781369
 20
54.80533630533665
 30
0.0
 10
214.7568901120162
 20
54.75255847926918
 30
0.0
 10
214.9221392764835
 20
54.6518521745577
 30
0.0
 10
215.1290234412353
 20
54.56701486766666
 30
0.0
 10
215.3114311807019
 20
54.52796862969763
 30
0.0
 10
215.3991285689236
 20
54.56062170055812
 30
0.0
 10
215.4458889895026
 20
54.57803238242211
 30
0.0
  0
LINE
  5
34D
330
1F
100
AcDbEntity
  8
0
  6
Continuous
 62
     7
370
    25
100
AcDbLine
 10
209.577763515
 20
66.0405626727
 30
0.0
 11
209.1262924006
 21
66.3337912018
 31
0.0
  0
LINE
  5
34E
330
1F
100
AcDbEntity
  8
0
  6
Continuous
 62
     7
370
    25
100
AcDbLine
 10
214.0298892226
 20
55.2173018267
 30
0.0
 11
214.6702868781
 21
54.8053363053
 31
0.0
  0
SPLINE
  5
34F
330
1F
100
AcDbEntity
  8
0
  6
Continuous
 62
     7
370
    25
100
AcDbSpline
210
0.0
220
0.0
230
1.0
 70
     8
 71
     3
 72
    14
 73
    10
 74
     0
 42
0.000000001
 43
0.00000001
 40
0.0
 40
0.0
 40
0.0
 40
0.0
 40
0.1580907758395397
 40
0.3106192465103744
 40
0.4578455094956126
 40
0.6000587572884637
 40
0.7375798115702092
 40
0.8707634069621086
 40
1.0
 40
1.0
 40
1.0
 40
1.0
 10
212.8664209909591
 20
55.63191451383589
 30
0.0
 10
212.9089512305107
 20
55.6282306225524
 30
0.0
 10
212.9925153150899
 20
55.62099245493238
 30
0.0
 10
213.1146563018438
 20
55.60681388597553
 30
0.0
 10
213.2314936612217
 20
55.59040079311269
 30
0.0
 10
213.3429956111146
 20
55.57154920536023
 30
0.0
 10
213.4490977045122
 20
55.55022618879669
 30
0.0
 10
213.5500741683988
 20
55.52673065171188
 30
0.0
 10
213.6142075283137
 20
55.50861639891099
 30
0.0
 10
213.645791900633
 20
55.49969549868826
 30
0.0
  0
SPLINE
  5
350
330
1F
100
AcDbEntity
  8
0
  6
Continuous
 62
     7
370
    25
100
AcDbSpline
210
0.0
220
0.0
230
1.0
 70
     8
 71
     3
 72
    13
 73
     9
 74
     0
 42
0.000000001
 43
0.00000001
 40
0.0
 40
0.0
 40
0.0
 40
0.0
 40
0.1710884388957349
 40
0.3403181380733731
 40
0.5077550141008337
 40
0.6734671233860127
 40
0.8375246692102153
 40
1.0
 40
1.0
 40
1.0
 40
1.0
 10
213.6458178823201
 20
55.49976863909015
 30
0.0
 10
213.6684217081534
 20
55.48152053005943
 30
0.0
 10
213.7133837872429
 20
55.44522256317881
 30
0.0
 10
213.7798366999072
 20
55.39392040849422
 30
0.0
 10
213.8448894962633
 20
55.34533210340101
 30
0.0
 10
213.9083242373526
 20
55.29972207629545
 30
0.0
 10
213.9701407182484
 20
55.25680160464086
 30
0.0
 10
214.0100373691648
 20
55.2304257269716
 30
0.0
 10
214.0298890350132
 20
55.21730169029379
 30
0.0
  0
LINE
  5
351
330
1F
100
AcDbEntity
  8
0
  6
Continuous
 62
     7
370
    25
100
AcDbLine
 10
215.3191027081
 20
56.4657429169
 30
0.0
 11
213.6458128947
 21
55.4997732689
 31
0.0
  0
SPLINE
  5
352
330
1F
100
AcDbEntity
  8
0
  6
Continuous
 62
     7
370
    25
100
AcDbSpline
210
0.0
220
0.0
230
1.0
 70
     8
 71
     3
 72
    17
 73
    13
 74
     0
 42
0.000000001
 43
0.00000001
 40
0.0
 40
0.0
 40
0.0
 40
0.0
 40
0.0862113733185176
 40
0.1750728423472319
 40
0.2667657538054734
 40
0.3614551876970605
 40
0.4592910569628879
 40
0.5604092812578327
 40
0.664932976176244
 40
0.7729736160276611
 40
0.884632142190602
 40
1.0
 40
1.0
 40
1.0
 40
1.0
 10
211.5908123983037
 20
56.96683840347195
 30
0.0
 10
211.6012624871146
 20
56.94992350609841
 30
0.0
 10
211.6224838953868
 20
56.91557375562806
 30
0.0
 10
211.6493367701381
 20
56.86218976577919
 30
0.0
 10
211.6731857397361
 20
56.80653057842301
 30
0.0
 10
211.6936073318843
 20
56.74850489001109
 30
0.0
 10
211.7107236805401
 20
56.6881380431238
 30
0.0
 10
211.7244980286626
 20
56.62542250798955
 30
0.0
 10
211.7349585246604
 20
56.56035980986598
 30
0.0
 10
211.7420341708457
 20
56.49294934874047
 30
0.0
 10
211.7459976747646
 20
56.42318932922119
 30
0.0
 10
211.7458586325603
 20
56.37590408730978
 30
0.0
 10
211.745787975569
 20
56.35187517503153
 30
0.0
  0
LINE
  5
353
330
1F
100
AcDbEntity
  8
0
  6
Continuous
 62
     7
370
    25
100
AcDbLine
 10
213.3955001272
 20
58.0085972022
 30
0.0
 11
211.5909215636
 21
56.9668361719
 31
0.0
  0
SPLINE
  5
354
330
1F
100
AcDbEntity
  8
0
  6
Continuous
 62
     7
370
    25
100
AcDbSpline
210
0.0
220
0.0
230
1.0
 70
     8
 71
     3
 72
    13
 73
     9
 74
     0
 42
0.000000001
 43
0.00000001
 40
0.0
 40
0.0
 40
0.0
 40
0.0
 40
0.160064437534363
 40
0.3226698941149811
 40
0.4878939580723099
 40
0.6558105870432872
 40
0.8264902377008163
 40
1.0
 40
1.0
 40
1.0
 40
1.0
 10
211.2562503717748
 20
57.15534679280837
 30
0.0
 10
211.2757209927221
 20
57.14281011575142
 30
0.0
 10
211.31497133025
 20
57.11753774219469
 30
0.0
 10
211.372249232579
 20
57.08257177115974
 30
0.0
 10
211.428786617077
 20
57.04961213308631
 30
0.0
 10
211.4842403519315
 20
57.01916706130798
 30
0.0
 10
211.5386994949707
 20
56.99108317438147
 30
0.0
 10
211.5734111044353
 20
56.97496469447144
 30
0.0
 10
211.5909096179877
 20
56.96683918708356
 30
0.0
  0
LINE
  5
355
330
1F
100
AcDbEntity
  8
0
  6
Continuous
 62
     7
370
    25
100
AcDbLine
 10
208.815187414
 20
58.2978126936
 30
0.0
 11
209.2959387343
 21
58.4177474992
 31
0.0
  0
LINE
  5
356
330
1F
100
AcDbEntity
  8
0
  6
Continuous
 62
     7
370
    25
100
AcDbLine
 10
209.2959387343
 20
58.4177474992
 30
0.0
 11
211.2562505617
 21
57.1553462672
 31
0.0
  0
SPLINE
  5
357
330
1F
100
AcDbEntity
  8
0
  6
Continuous
 62
     7
370
    25
100
AcDbSpline
210
0.0
220
0.0
230
1.0
 70
     8
 71
     3
 72
     8
 73
     4
 74
     0
 42
0.000000001
 43
0.00000001
 40
0.0
 40
0.0
 40
0.0
 40
0.0
 40
1.0
 40
1.0
 40
1.0
 40
1.0
 10
208.9930556840034
 20
57.87144204890568
 30
0.0
 10
208.9334746105141
 20
58.01390718038737
 30
0.0
 10
208.8741870470027
 20
58.15603300243725
 30
0.0
 10
208.8151872828319
 20
58.29781242091315
 30
0.0
  0
SPLINE
  5
358
330
1F
100
AcDbEntity
  8
0
  6
Continuous
 62
     7
370
    25
100
AcDbSpline
210
0.0
220
0.0
230
1.0
 70
     8
 71
     3
 72
     8
 73
     4
 74
     0
 42
0.000000001
 43
0.00000001
 40
0.0
 40
0.0
 40
0.0
 40
0.0
 40
1.0
 40
1.0
 40
1.0
 40
1.0
 10
210.622116319309
 20
59.18333405651691
 30
0.0
 10
210.9133098075864
 20
59.14696786930907
 30
0.0
 10
211.2046656037014
 20
59.11104056392107
 30
0.0
 10
211.4962138926761
 20
59.07563376091851
 30
0.0
  0
LINE
  5
359
330
1F
100
AcDbEntity
  8
0
  6
Continuous
 62
     7
370
    25
100
AcDbLine
 10
210.6221169815
 20
59.1833339053
 30
0.0
 11
209.2959387343
 21
58.4177474992
 31
0.0
  0
LINE
  5
35A
330
1F
100
AcDbEntity
  8
0
  6
Continuous
 62
     7
370
    25
100
AcDbLine
 10
209.559423709
 20
58.8285876632
 30
0.0
 11
208.7903378955
 21
58.3846038735
 31
0.0
  0
SPLINE
  5
35B
330
1F
100
AcDbEntity
  8
0
  6
Continuous
 62
     7
370
    25
100
AcDbSpline
210
0.0
220
0.0
230
1.0
 70
     8
 71
     3
 72
     8
 73
     4
 74
     0
 42
0.000000001
 43
0.00000001
 40
0.0000004024872366
 40
0.0000004024872366
 40
0.0000004024872366
 40
0.0000004024872366
 40
0.0015137680586847
 40
0.0015137680586847
 40
0.0015137680586847
 40
0.0015137680586847
 10
209.5594232033329
 20
58.82858791965312
 30
0.0
 10
209.7941195884941
 20
58.92083762896894
 30
0.0
 10
210.0288088787367
 20
59.01310139779491
 30
0.0
 10
210.2634893234099
 20
59.10538249359978
 30
0.0
  0
SPLINE
  5
35C
330
1F
100
AcDbEntity
  8
0
  6
Continuous
 62
     7
370
    25
100
AcDbSpline
210
0.0
220
0.0
230
1.0
 70
     8
 71
     3
 72
     8
 73
     4
 74
     0
 42
0.000000001
 43
0.00000001
 40
0.0000002414707367
 40
0.0000002414707367
 40
0.0000002414707367
 40
0.0000002414707367
 40
0.0009043633164144
 40
0.0009043633164144
 40
0.0009043633164144
 40
0.0009043633164144
 10
210.2634893234099
 20
59.10538249359978
 30
0.0
 10
210.3828654397407
 20
59.13124107289094
 30
0.0
 10
210.5024059406414
 20
59.15722322372091
 30
0.0
 10
210.622116319309
 20
59.18333405651691
 30
0.0
  0
SPLINE
  5
35D
330
1F
100
AcDbEntity
  8
0
  6
Continuous
 62
     7
370
    25
100
AcDbSpline
210
0.0
220
0.0
230
1.0
 70
     8
 71
     3
 72
     8
 73
     4
 74
     0
 42
0.000000001
 43
0.00000001
 40
0.0
 40
0.0
 40
0.0
 40
0.0
 40
1.0
 40
1.0
 40
1.0
 40
1.0
 10
208.8151872828345
 20
58.29781242090696
 30
0.0
 10
208.8061078527156
 20
58.32643609756844
 30
0.0
 10
208.7978117488255
 20
58.35536173995915
 30
0.0
 10
208.790337536735
 20
58.38460421478502
 30
0.0
  0
LWPOLYLINE
  5
35E
330
1F
100
AcDbEntity
  8
0
  6
Continuous
 62
     7
370
    25
100
AcDbPolyline
 90
        3
 70
   128
 43
0.0
 10
215.3718576385
 20
57.9151314837
 10
215.0663608169
 20
57.7921199152
 10
214.326880448
 20
57.5650926025
  0
LINE
  5
35F
330
1F
100
AcDbEntity
  8
0
  6
Continuous
 62
     7
370
    18
100
AcDbLine
 10
235.3818751708
 20
42.7638038685
 30
0.0
 11
228.3108075169
 21
38.6817634006
 31
0.0
  0
LWPOLYLINE
  5
360
330
1F
100
AcDbEntity
  8
0
  6
Continuous
 62
     7
370
    18
100
AcDbPolyline
 90
       28
 70
   128
 43
0.0
 10
219.021191779
 20
51.6078510622
 10
219.0659899277
 20
52.7856054914
 10
219.2000248085
 20
54.0056007741
 10
219.4222164084
 20
55.2580140176
 10
219.7307761206
 20
56.5327611764
 10
220.1232192565
 20
57.8195788963
 10
220.5963867782
 20
59.1081069272
 10
221.1464683472
 20
60.3879702513
 10
221.7690352516
 20
61.6488642514
 10
222.4590753092
 20
62.8806375985
 10
223.21103238
 20
64.0733724767
 10
224.0188518058
 20
65.2174648077
 10
224.8760301303
 20
66.3037039051
 10
225.775665807
 20
67.3233435721
 10
226.7105148464
 20
68.2681745311
 10
227.6730510725
 20
69.1305903879
 10
228.655524569
 20
69.9036457067
 10
229.6500247757
 20
70.5811167695
 10
230.6485447792
 20
71.1575500978
 10
231.6430449859
 20
71.628304533
 10
232.6255184824
 20
71.9895889682
 10
233.5880547085
 20
72.2384937829
 10
234.5229037479
 20
72.3730165501
 10
235.4225394246
 20
72.3920741261
 10
236.2797177491
 20
72.2955120563
 10
237.0875371749
 20
72.0841081814
 10
237.8394942457
 20
71.7595644572
 10
238.0173954347
 20
71.661406606
  0
LWPOLYLINE
  5
361
330
1F
100
AcDbEntity
  8
0
  6
Continuous
 62
     7
370
    18
100
AcDbPolyline
 90
       10
 70
   128
 43
0.0
 10
222.2811741202
 20
44.4025182122
 10
221.7690352516
 20
44.7394304159
 10
221.1464683472
 20
45.2815239682
 10
220.5963867782
 20
45.9262766315
 10
220.1232192565
 20
46.6684970703
 10
219.7307761206
 20
47.5022095901
 10
219.4222164084
 20
48.4207012884
 10
219.2000248085
 20
49.4165775711
 10
219.0659899277
 20
50.4818194746
 10
219.021191779
 20
51.6078510622
  0
LWPOLYLINE
  5
362
330
1F
100
AcDbEntity
  8
0
  6
Continuous
 62
     7
370
    18
100
AcDbPolyline
 90
       20
 70
   128
 43
0.0
 10
222.7453912452
 20
51.4597663442
 10
222.8661893813
 20
52.6483248578
 10
223.0790724546
 20
53.8715794054
 10
223.3820885391
 20
55.1183209472
 10
223.7724618696
 20
56.37712607
 10
224.246615891
 20
57.6364602182
 10
224.800204868
 20
58.8847837752
 10
225.4281573494
 20
60.1106594747
 10
226.1247183148
 20
61.3028539188
 10
226.8835064678
 20
62.4504436567
 10
227.6975682369
 20
63.5429125193
 10
228.5594449472
 20
64.5702512336
 10
229.4612386743
 20
65.5230448693
 10
230.3946869895
 20
66.3925654185
 10
231.3512362229
 20
67.1708437475
 10
232.3221219702
 20
67.8507487726
 10
233.2984478302
 20
68.4260504046
 10
234.2712679285
 20
68.8914785958
 10
235.2316682478
 20
69.242767249
 10
235.5657302607
 20
69.3387889251
  0
LWPOLYLINE
  5
363
330
1F
100
AcDbEntity
  8
0
  6
Continuous
 62
     7
370
    18
100
AcDbPolyline
 90
       18
 70
   128
 43
0.0
 10
223.485770445
 20
51.8653299643
 10
223.639790176
 20
53.0448971645
 10
223.8847667573
 20
54.2545569475
 10
224.218385405
 20
55.4828823396
 10
224.6374956423
 20
56.7182720146
 10
225.1381389579
 20
57.949057041
 10
225.7155856854
 20
59.1636115256
 10
226.3643824176
 20
60.3504643974
 10
227.0784000807
 20
61.4984035864
 10
227.8508951791
 20
62.5965878059
 10
228.6745710395
 20
63.6346442664
 10
229.5416469587
 20
64.6027663881
 10
230.4439336063
 20
65.4918105635
 10
231.3729079348
 20
66.2933797055
 10
232.319795744
 20
66.9999020904
 10
233.2756528863
 20
67.6047040925
 10
234.2314509281
 20
68.1020733235
 10
234.6052763523
 20
68.2671499492
  0
LINE
  5
364
330
1F
100
AcDbEntity
  8
0
  6
Continuous
 62
     7
370
    18
100
AcDbLine
 10
224.1848898557
 20
48.3396432369
 30
0.0
 11
224.1302352714
 21
48.7187067018
 31
0.0
  0
ARC
  5
365
330
1F
100
AcDbEntity
  8
0
  6
Continuous
 62
     7
370
    18
100
AcDbCircle
 10
230.9706450814
 20
49.9591114258
 30
0.0
 40
8.230424622643646
100
AcDbArc
 50
182.0310824168
 51
214.1212529731
  0
LWPOLYLINE
  5
366
330
1F
100
AcDbEntity
  8
0
  6
Continuous
 62
     7
370
    18
100
AcDbPolyline
 90
        3
 70
   128
 43
0.0
 10
223.8439159244
 20
47.5003620826
 10
223.642070057
 20
48.2875386326
 10
223.485770445
 20
49.3002633469
  0
LINE
  5
367
330
1F
100
AcDbEntity
  8
0
  6
Continuous
 62
     7
370
    18
100
AcDbLine
 10
214.4415743705
 20
54.4274150136
 30
0.0
 11
214.6702868781
 21
54.8053363053
 31
0.0
  0
LINE
  5
368
330
1F
100
AcDbEntity
  8
0
  6
Continuous
 62
     7
370
    18
100
AcDbLine
 10
215.4251310081
 20
55.2410985461
 30
0.0
 11
214.670292805
 21
54.8053397269
 31
0.0
  0
LINE
  5
369
330
1F
100
AcDbEntity
  8
0
  6
Continuous
 62
     7
370
    18
100
AcDbLine
 10
213.8013209362
 20
54.8390481992
 30
0.0
 11
214.0298892226
 21
55.2173018267
 31
0.0
  0
LINE
  5
36A
330
1F
100
AcDbEntity
  8
0
  6
Continuous
 62
     7
370
    18
100
AcDbLine
 10
215.3431119238
 20
55.9754091553
 30
0.0
 11
214.0298892226
 21
55.2173018267
 31
0.0
  0
LINE
  5
36B
330
1F
100
AcDbEntity
  8
0
  6
Continuous
 62
     7
370
    18
100
AcDbLine
 10
211.2562505617
 20
57.1553462672
 30
0.0
 11
210.937036258
 21
56.620631206
 31
0.0
  0
LINE
  5
36C
330
1F
100
AcDbEntity
  8
0
  6
Continuous
 62
     7
370
    18
100
AcDbLine
 10
213.0394300508
 20
58.1847538748
 30
0.0
 11
211.2563183918
 21
57.1553854247
 31
0.0
  0
OLE2FRAME
  5
36D
330
1F
100
AcDbEntity
  8
0
100
AcDbOle2Frame
 70
     2
  3
Paintbrush-Bild
 10
13.8511154363
 20
38.264191557
 30
0.0
 11
51.6290888628
 21
31.9806341108
 31
0.0
 71
     2
 72
     0
 73
     1
 90
    12928
310
80552BED0767C5B32B40DDAF6807D121434000000000000000006FFBDDFB85D0
310
4940DDAF6807D121434000000000000000006FFBDDFB85D04940416F4BD60AFB
310
3F4000000000000000002BED0767C5B32B40416F4BD60AFB3F40000000000000
310
0000000000000100000000010000010000000100000000000100000000320000
310
D0CF11E0A1B11AE1000000000000000000000000000000003E000300FEFF0900
310
0600000000000000000000000100000001000000000000000010000002000000
310
01000000FEFFFFFF0000000000000000FFFFFFFFFFFFFFFFFFFFFFFFFFFFFFFF
310
FFFFFFFFFFFFFFFFFFFFFFFFFFFFFFFFFFFFFFFFFFFFFFFFFFFFFFFFFFFFFFFF
310
FFFFFFFFFFFFFFFFFFFFFFFFFFFFFFFFFFFFFFFFFFFFFFFFFFFFFFFFFFFFFFFF
310
FFFFFFFFFFFFFFFFFFFFFFFFFFFFFFFFFFFFFFFFFFFFFFFFFFFFFFFFFFFFFFFF
310
FFFFFFFFFFFFFFFFFFFFFFFFFFFFFFFFFFFFFFFFFFFFFFFFFFFFFFFFFFFFFFFF
310
FFFFFFFFFFFFFFFFFFFFFFFFFFFFFFFFFFFFFFFFFFFFFFFFFFFFFFFFFFFFFFFF
310
FFFFFFFFFFFFFFFFFFFFFFFFFFFFFFFFFFFFFFFFFFFFFFFFFFFFFFFFFFFFFFFF
310
FFFFFFFFFFFFFFFFFFFFFFFFFFFFFFFFFFFFFFFFFFFFFFFFFFFFFFFFFFFFFFFF
310
FFFFFFFFFFFFFFFFFFFFFFFFFFFFFFFFFFFFFFFFFFFFFFFFFFFFFFFFFFFFFFFF
310
FFFFFFFFFFFFFFFFFFFFFFFFFFFFFFFFFFFFFFFFFFFFFFFFFFFFFFFFFFFFFFFF
310
FFFFFFFFFFFFFFFFFFFFFFFFFFFFFFFFFFFFFFFFFFFFFFFFFFFFFFFFFFFFFFFF
310
FFFFFFFFFFFFFFFFFFFFFFFFFFFFFFFFFFFFFFFFFFFFFFFFFFFFFFFFFFFFFFFF
310
FFFFFFFFFFFFFFFFFFFFFFFFFFFFFFFFFFFFFFFFFFFFFFFFFFFFFFFFFFFFFFFF
310
FFFFFFFFFFFFFFFFFFFFFFFFFFFFFFFFFFFFFFFFFFFFFFFFFFFFFFFFFFFFFFFF
310
FDFFFFFFFEFFFFFFFEFFFFFFFEFFFFFF05000000060000000700000008000000
310
090000000A0000000B0000000C0000000D0000000E0000000F00000010000000
310
11000000120000001300000014000000150000001600000017000000FEFFFFFF
310
FFFFFFFFFFFFFFFFFFFFFFFFFFFFFFFFFFFFFFFFFFFFFFFFFFFFFFFFFFFFFFFF
310
FFFFFFFFFFFFFFFFFFFFFFFFFFFFFFFFFFFFFFFFFFFFFFFFFFFFFFFFFFFFFFFF
310
FFFFFFFFFFFFFFFFFFFFFFFFFFFFFFFFFFFFFFFFFFFFFFFFFFFFFFFFFFFFFFFF
310
FFFFFFFFFFFFFFFFFFFFFFFFFFFFFFFFFFFFFFFFFFFFFFFFFFFFFFFFFFFFFFFF
310
FFFFFFFFFFFFFFFFFFFFFFFFFFFFFFFFFFFFFFFFFFFFFFFFFFFFFFFFFFFFFFFF
310
FFFFFFFFFFFFFFFFFFFFFFFFFFFFFFFFFFFFFFFFFFFFFFFFFFFFFFFFFFFFFFFF
310
FFFFFFFFFFFFFFFFFFFFFFFFFFFFFFFFFFFFFFFFFFFFFFFFFFFFFFFFFFFFFFFF
310
FFFFFFFFFFFFFFFFFFFFFFFFFFFFFFFFFFFFFFFFFFFFFFFFFFFFFFFFFFFFFFFF
310
FFFFFFFFFFFFFFFFFFFFFFFFFFFFFFFFFFFFFFFFFFFFFFFFFFFFFFFFFFFFFFFF
310
FFFFFFFFFFFFFFFFFFFFFFFFFFFFFFFFFFFFFFFFFFFFFFFFFFFFFFFFFFFFFFFF
310
FFFFFFFFFFFFFFFFFFFFFFFFFFFFFFFFFFFFFFFFFFFFFFFFFFFFFFFFFFFFFFFF
310
FFFFFFFFFFFFFFFFFFFFFFFFFFFFFFFFFFFFFFFFFFFFFFFFFFFFFFFFFFFFFFFF
310
FFFFFFFFFFFFFFFFFFFFFFFFFFFFFFFFFFFFFFFFFFFFFFFFFFFFFFFFFFFFFFFF
310
52006F006F007400200045006E00740072007900000000000000000000000000
310
0000000000000000000000000000000000000000000000000000000000000000
310
16000500FFFFFFFFFFFFFFFF020000000A00030000000000C000000000000046
310
000000000000000000000000F0383EDF75A5D30103000000C000000000000000
310
01004F006C006500000000000000000000000000000000000000000000000000
310
0000000000000000000000000000000000000000000000000000000000000000
310
0A000200FFFFFFFFFFFFFFFFFFFFFFFF00000000000000000000000000000000
310
0000000000000000000000000000000000000000000000001400000000000000
310
010043006F006D0070004F0062006A0000000000000000000000000000000000
310
0000000000000000000000000000000000000000000000000000000000000000
310
120002010100000003000000FFFFFFFF00000000000000000000000000000000
310
0000000000000000000000000000000000000000010000004D00000000000000
310
01004F006C006500310030004E00610074006900760065000000000000000000
310
0000000000000000000000000000000000000000000000000000000000000000
310
1A000200FFFFFFFFFFFFFFFFFFFFFFFF00000000000000000000000000000000
310
0000000000000000000000000000000000000000040000002426000000000000
310
FEFFFFFF02000000FEFFFFFFFFFFFFFFFFFFFFFFFFFFFFFFFFFFFFFFFFFFFFFF
310
FFFFFFFFFFFFFFFFFFFFFFFFFFFFFFFFFFFFFFFFFFFFFFFFFFFFFFFFFFFFFFFF
310
FFFFFFFFFFFFFFFFFFFFFFFFFFFFFFFFFFFFFFFFFFFFFFFFFFFFFFFFFFFFFFFF
310
FFFFFFFFFFFFFFFFFFFFFFFFFFFFFFFFFFFFFFFFFFFFFFFFFFFFFFFFFFFFFFFF
310
FFFFFFFFFFFFFFFFFFFFFFFFFFFFFFFFFFFFFFFFFFFFFFFFFFFFFFFFFFFFFFFF
310
FFFFFFFFFFFFFFFFFFFFFFFFFFFFFFFFFFFFFFFFFFFFFFFFFFFFFFFFFFFFFFFF
310
FFFFFFFFFFFFFFFFFFFFFFFFFFFFFFFFFFFFFFFFFFFFFFFFFFFFFFFFFFFFFFFF
310
FFFFFFFFFFFFFFFFFFFFFFFFFFFFFFFFFFFFFFFFFFFFFFFFFFFFFFFFFFFFFFFF
310
FFFFFFFFFFFFFFFFFFFFFFFFFFFFFFFFFFFFFFFFFFFFFFFFFFFFFFFFFFFFFFFF
310
FFFFFFFFFFFFFFFFFFFFFFFFFFFFFFFFFFFFFFFFFFFFFFFFFFFFFFFFFFFFFFFF
310
FFFFFFFFFFFFFFFFFFFFFFFFFFFFFFFFFFFFFFFFFFFFFFFFFFFFFFFFFFFFFFFF
310
FFFFFFFFFFFFFFFFFFFFFFFFFFFFFFFFFFFFFFFFFFFFFFFFFFFFFFFFFFFFFFFF
310
FFFFFFFFFFFFFFFFFFFFFFFFFFFFFFFFFFFFFFFFFFFFFFFFFFFFFFFFFFFFFFFF
310
FFFFFFFFFFFFFFFFFFFFFFFFFFFFFFFFFFFFFFFFFFFFFFFFFFFFFFFFFFFFFFFF
310
FFFFFFFFFFFFFFFFFFFFFFFFFFFFFFFFFFFFFFFFFFFFFFFFFFFFFFFFFFFFFFFF
310
FFFFFFFFFFFFFFFFFFFFFFFFFFFFFFFFFFFFFFFFFFFFFFFFFFFFFFFFFFFFFFFF
310
0100000200000000000000000000000000000000000000000000000000000000
310
0000000000000000000000000000000000000000000000000000000000000000
310
0100FEFF030A0000FFFFFFFF0A00030000000000C00000000000004607000000
310
5042727573680007000000504272757368000700000050427275736800F439B2
310
7100000000000000000000000000000000000000000000000000000000000000
310
0000000000000000000000000000000000000000000000000000000000000000
310
0000000000000000000000000000000000000000000000000000000000000000
310
0000000000000000000000000000000000000000000000000000000000000000
310
0000000000000000000000000000000000000000000000000000000000000000
310
0000000000000000000000000000000000000000000000000000000000000000
310
0000000000000000000000000000000000000000000000000000000000000000
310
0000000000000000000000000000000000000000000000000000000000000000
310
0000000000000000000000000000000000000000000000000000000000000000
310
0000000000000000000000000000000000000000000000000000000000000000
310
0000000000000000000000000000000000000000000000000000000000000000
310
0000000000000000000000000000000000000000000000000000000000000000
310
20260000424D0E260000000000003E00000028000000B40200006E0000000100
310
01000000000000000000130B0000130B00000200000002000000000000FFFFFF
310
FFFFFFFFFFFFFFFFFFFFFFFFFFFFFFFFFFFFFFFFFFFFFFFFFFFFFFFFFFFFFFFF
310
FFFFFFFFFFFFFFFFFFFFFFFFFFFFFFFFFFFFFFFFFFFFFFFFFFFFFFFFFFFFFFFF
310
FFFFFFFFFFFFFFFFFFFFFFFFFFFFFFFFFFFFFFFFFFFFFFFFF000FFFFFFFFFFFF
310
FFFFFFFFFFFFFFFFFFFFFFFFFFFFFFFFFFFFFFFFFFFFFFFFFFFFFFFFFFFFFFFF
310
FFFFFFFFFFFFFFFFFFFFFFFFFFFFFFFFFFFFFFFFFFFFFFFFFFFFFFFFFFFFFFFF
310
FFFFFFFFFFFFFFFFFFFFFFFFFFFFFFFFF000FFFFFFFFFFFFFFFFFFFFFFFFFFFF
310
FFFFFFFFFFFFFFFFFFFFFFFFFFFFFFFFFFFFFFFFFFFFFFFFFFFFFFFFFFFFFFFF
310
FFFFFFFFFFFFFFFFFFFFFFFFFFFFFFFFFFFFFFFFFFFFFFFFFFFFFFFFFFFFFFFF
310
FFFFFFFFFFFFFFFFF000FFFFFFFFFFFFFFFFFFFFFFFFFFFFFFFFFFFFFFFFFFFF
310
FFFFFFFFFFFFFFFFFFFFFFFFFFFFFFFFFFFFFFFFFFFFFFFFFFFFFFFFFFFFFFFF
310
FFFFFFFFFFFFFFFFFFFFFFFFFFFFFFFFFFFFFFFFFFFFFFFFFFFFFFFFFFFFFFFF
310
F000FFFFFFFFFFFFFFFFFFFFFFFFFFFFFFFFFFFFFFFFFFFFFFFFFFFFFFFFFFFF
310
FFFFFFFFFFFFFFFFFFFFFFFFFFFFFFFFFFFFFFFFFFFFFFFFFFFFFFFFFFFFFFFF
310
FFFFFFFFFFFFFFFFFFFFFFFFFFFFFFFFFFFFFFFFFFFFFFFFF000FFFFFFFFFFFF
310
FFFFFFFFFFFFFFFFFFFFFFFFFFFFFFFFFFFFFFFFFFFFFFFFFFFFFFFFFFFFFFFF
310
FFFFFFFFFFFFFFFFFFFFFFFFFFFFFFFFFFFFFFFFFFFFFFFFFFFFFFFFFFFFFFFF
310
FFFFFFFFFFFFFFFFFFFFFFFFFFFFFFFFF000FFFFFFFFFFFFFFFFFFFFFFFFFFFF
310
FFFFFFFFFFFFFFFFFFFFFFFFFFFFFFFFFFFFFFFFFFFFFFFFFFFFFFFFFFFFFFFF
310
FFFFFFFFFFFFFFFFFFFFFFFFFFFFFFFFFFFFFFFFFFFFFFFFFFFFFFFFFFFFFFFF
310
FFFFFFFFFFFFFFFFF000FFFFFFFFFFFFFFFFFFFFFFFFFFFFFFFFFFFFFFFFFFFF
310
FFFFFFFFFFFFFFFFFFFFFFFFFFFFFFFFFFFFFFFFFFFFFFFFFFFFFFFFFFFFFFFF
310
FFFFFFFFFFFFFFFFFFFFFFFFFFFFFFFFFFFFFFFFFFFFFFFFFFFFFFFFFFFFFFFF
310
F000FFFFFFFFFFFFFFFFFFFFFFFFFFFFFFFFFFFFFFFFFFFFFFFFFFFFFFFFFFFF
310
FFFFFFFFFFFFFFFFFFFFFFFFFFFFFFFFFFFFFFFFFFFFFFFFFFFFFFFFFFFFFFFF
310
FFFFFFFFFFFFFFFFFFFFFFFFFFFFFFFFFFFFFFFFFFFFFFFFF000FFFFFFFFFFFF
310
FFFFFFFFFFFFFFFFFFFFFFFFFFFFFFFFFFFFFFFFFFFFFFFFFFFFFFFFFFFFFFFF
310
FFFFFFFFFFFFFFFFFFFFFFFFFFFFFFFFFFFFFFFFFFFFFFFFFFFFFFFFFFFFFFFF
310
FFFFFFFFFFFFFFFFFFFFFFFFFFFFFFFFF000FFFFFFFFFFFFFFFFFFFFFFFFFFFF
310
FFFFFFFFFFFFFFFFFFFFFFFFFFFFFFFFFFFFFFFFFFFFFFFFFFFFFFFFFFFFFFFF
310
FFFFFFFFFFFFFFFFFFFFFFFFFFFFFFFFFFFFFFFFFFFFFFFFFFFFFFFFFFFFFFFF
310
FFFFFFFFFFFFFFFFF000FFFFFFFFFFFFFFFFFFFFFFFFFFFFFFFFFFFFFFFFFFFF
310
FFFFFFFFFFFFFFFFFFFFFFFFFFFFFFFFFFFFFFFFFFFFFFFFFFFFFFFFFFFFFFFF
310
FFFFFFFFFFFFFFFFFFFFFFFFFFFFFFFFFFFFFFFFFFFFFFFFFFFFFFFFFFFFFFFF
310
F000FFFFFFFFFFFFFFFFFFFFFFFFFFFFFFFFFFFFFFFFFFFFFFFFFFFFFFFFFFFF
310
FFFFFFFFFFFFFFFFFFFFFFFFFFFFFFFFFFFFFFFFFFFFFFFFFFFFFFFFFFFFFFFF
310
FFFFFFFFFFFFFFFFFFFFFFFFFFFFFFFFFFFFFFFFFFFFFFFFF000FFFFFFFFFFFF
310
FFFFFFFFFFFFFFFFFFFFFFFFFFFFFFFFFFFFFFFFFFFFFFFFFFFFFFFFFFFFFFFF
310
FFFFFFFFFFFFFFFFFFFFFFFFFFFFFFFFFFFFFFFFFFFFFFFFFFFFFFFFFFFFFFFF
310
FFFFFFFFFFFFFFFFFFFFFFFFFFFFFFFFF000FFFFFFFFFFFFFFFFFFFFFFFFFFFF
310
FFFFFFFFFFFFFFFFFFFFFFFFFFFFFFFFFFFFFFFFFFFFFFFFFFFFFFFFFFFFFFFF
310
FFFFFFFFFFFFFFFFFFFFFFFFFFFFFFFFFFFFFFFFFFFFFFFFFFFFFFFFFFFFFFFF
310
FFFFFFFFFFFFFFFFF000FFFFFFFFFFFFFFFFFFFFFFFFFFFFFFFFFFFFFFFFFFFF
310
FFFFFFFFFFFFFFFFFFFFFFFFFFFFFFFFFFFFFFFFFFFFFFFFFFFFFFFFFFFFFFFF
310
FFFFFFFFFFFFFFFFFFFFFFFFFFFFFFFFFFFFFFFFFFFFFFFFFFFFFFFFFFFFFFFF
310
F000FFFFFFFFFFFFFFFFFFFFFFFFFFFFFFFFFFFFFFFFFFFFFFFFFFFFFFFFFFFF
310
FFFFFFFFFFFFFFFFFFFFFFFFFFFFFFFFFFFFFFFFFFFFFFFFFFFFFFFFFFFFFFFF
310
FFFFFFFFFFFFFFFFFFFFFFFFFFFFFFFFFFFFFFFFFFFFFFFFF000FFFFFFFFFFFF
310
FFFFFFFFFFFFFFFFFFFFFFFFFFFFFFFFFFFFFFFFFFFFFFFFFFFFFFFFFFFFFFFF
310
FFFFFFFFFFFFFFFFFFFFFFFFFFFFFFFFFFFFFFFFFFFFFFFFFFFFFFFFFFFFFFFF
310
FFFFFFFFFFFFFFFFFFFFFFFFFFFFFFFFF000FFFFFFFFFFFFFFFFFFFFFFFFFFFF
310
FFFFFFFFFFFFFFFFFFFFFFFFFFFFFFFFFFFFFFFFFFFFFFFFFFFFFFFFFFFFFFFF
310
FFFFFFFFFFFFFFFFFFFFFFFFFFFFFFFFFFFFFFFFFFFFFFFFFFFFFFFFFFFFFFFF
310
FFFFFFFFFFFFFFFFF000FFFFF80003FFFFFFFFFFFFFFFFFFFFFFFFFFFFFFFFFF
310
FFFFF00007FFFFFFFFFF00007FFFFFF800000000000000007FFFFFFFFFFFFFFF
310
FFFFFFFC001FFFFFFFFFFFFFFC001FFFFFFFFFFFFFFFFFFFFFFFFFFE0007FFFF
310
F000FFFF8000007FFFFFFFF8000FFFFFC0007FFFFF80007FFFFF0000007FFFFF
310
FFF8000007FFFFF800000000000000007FFFFFF0001FFFFFFFFFFFC00001FFFF
310
FFFFFFFFC00001FFFFFFFF000000000003FFFFE000007FFFF000FFFE0000000F
310
FFFFFFF0000FFFFF80007FFFFF80007FFFFC0000001FFFFFFFC0000001FFFFF8
310
00000000000000007FFFFFF0001FFFFFFFFFFE0000003FFFFFFFFFFE0000003F
310
FFFFFF000000000003FFFF0000000FFFF000FFF800000003FFFFFFF00007FFFF
310
80007FFFFF80007FFFF000000007FFFFFF000000003FFFF80000000000000000
310
7FFFFFF0001FFFFFFFFFF80000000FFFFFFFFFF80000000FFFFFFF0000000000
310
03FFFC00000003FFF000FFE000000000FFFFFFF00007FFFF80003FFFFF80007F
310
FFC000000001FFFFFC000000001FFFF800000000000000007FFFFFF0001FFFFF
310
FFFFE000000003FFFFFFFFE000000003FFFFFF000000000003FFF000000000FF
310
F000FF80000000007FFFFFF00007FFFF80003FFFFF80007FFF8000000000FFFF
310
F80000000007FFF800000000000000007FFFFFF0001FFFFFFFFFC000000001FF
310
FFFFFFC000000001FFFFFF000000000003FFC0000000007FF000FF0000000000
310
3FFFFFE00007FFFF00003FFFFF80007FFE00000000003FFFF00000000003FFF8
310
00000000000000007FFFFFF0001FFFFFFFFF8000000000FFFFFFFF8000000000
310
FFFFFF000000000003FF80000000003FF000FE00000000001FFFFFE00003FFFF
310
00003FFFFF80007FFC00000000001FFFE00000000001FFF8000001FFFE000000
310
7FFFFFF0001FFFFFFFFE00000000003FFFFFFE00000000003FFFFF0000000000
310
03FF00000000001FF000FC00000000000FFFFFE00003FFFF00001FFFFF80007F
310
F800000000001FFFC00000000000FFF8000001FFFE0000007FFFFFF0001FFFFF
310
FFFC00000000001FFFFFFC00000000001FFFFF000000000003FE00000000000F
310
F000F8000000000007FFFFE00003FFFF00001FFFFF80007FF800000000000FFF
310
800000000000FFF8000001FFFE0000007FFFFFF0001FFFFFFFF800000000000F
310
FFFFF800000000000FFFFF000000000003FC000000000007F000F80000000000
310
03FFFFC00003FFFE00001FFFFF80007FF0000000000007FF0000000000007FF8
310
000001FFFE0000007FFFFFF0001FFFFFFFF0000000000007FFFFF00000000000
310
07FFFF000000000003F8000000000003F000F0000000000003FFFFC00001FFFE
310
00001FFFFF80007FE0000000000007FE0000000000003FF8000001FFFE000000
310
7FFFFFF0001FFFFFFFF0000000000007FFFFF0000000000007FFFF0000000000
310
03F800001F800003F000E00001FFF00001FFFFC00001FFFE00000FFFFF80007F
310
E00001FFE00003FE00001FFF00003FF8000001FFFE0000007FFFFFF0001FFFFF
310
FFE000003E000003FFFFE000003E000003FFFF000000000003F00001FFF80001
310
F000E00007FFFC0001FFFFC00001FFFE00000FFFFF80007FC0000FFFFC0003FC
310
0000FFFFC0001FF8000001FFFE0000007FFFFFF0001FFFFFFFC00003FFE00001
310
FFFFC00003FFE00001FFFF0001FFFFFFFFF00007FFFE0001F000E0000FFFFF00
310
00FFFF800001FFFC00000FFFFF80007FC0001FFFFE0001FC0001FFFFE0001FF8
310
000001FFFE0000007FFFFFF0001FFFFFFF80000FFFF80000FFFF80000FFFF800
310
00FFFF0003FFFFFFFFE0000FFFFF8000F000C0003FFFFF8000FFFF800000FFFC
310
000007FFFF80007F80003FFFFF0001FC0003FFFFF0001FF8000001FFFE000000
310
7FFFFFF0001FFFFFFF80003FFFFE0000FFFF80003FFFFE0000FFFF0003FFFFFF
310
FFE0003FFFFF8000F000C0003FFFFF8000FFFF800000FFFC000007FFFF80007F
310
80007FFFFF8001F80007FFFFF8000FF8000001FFFE0000007FFFFFF0001FFFFF
310
FF00007FFFFF00007FFF00007FFFFF00007FFF0003FFFFFFFFE0003FFFFFC000
310
F000C0007FFFFFC000FFFF000000FFFC000007FFFF80007F8000FFFFFF8000F8
310
000FFFFFF8000FF8000001FFFE0000007FFFFFF0001FFFFFFF0000FFFFFF8000
310
7FFF0000FFFFFF80007FFF0003FFFFFFFFC0007FFFFFC00070008000FFFFFFC0
310
00FFFF000000FFF8000007FFFF80007F8000FFFFFF8000F8000FFFFFF8000FF8
310
000001FFFE0000007FFFFFF0001FFFFFFE0001FFFFFFC0003FFE0001FFFFFFC0
310
003FFF0003FFFFFFFFC0007FFFFFE00070008000FFFFFFC0007FFF0000007FF8
310
000003FFFF80007F0001FFFFFF8000F8000FFFFFF8000FF8000001FFFE000000
310
7FFFFFF0001FFFFFFE0001FFFFFFC0003FFE0001FFFFFFC0003FFF0003FFFFFF
310
FFC000FFFFFFE00070008000FFFFFFC0007FFF0000007FF8000003FFFF80007F
310
0001FFFFFF8000F8001FFFFFF8000FF8000001FFFE0000007FFFFFF0001FFFFF
310
FE0003FFFFFFE0003FFE0003FFFFFFE0003FFF0003FFFFFFFFC000FFFFFFE000
310
70008000FFFFFFC0007FFE0000007FF8000003FFFF80007F0001FFFFFF8000F0
310
001FFFFFF8000FF8000001FFFE0000007FFFFFF0001FFFFFFC0003FFFFFFE000
310
1FFC0003FFFFFFE0001FFF0003FFFFFFFFC000FFFFFFC00070008000FFFFFF80
310
007FFE0000007FF0000003FFFF80007F0001FFFFFF0000F0001FFFFFF8000FF8
310
000001FFFE0000007FFFFFF0001FFFFFFC0007FFFFFFF0001FFC0007FFFFFFF0
310
001FFF0003FFFFFFFFC000FFFFFFC00070008001FFFFFF0000FFFE0000003FF0
310
000001FFFF80007F0001FFFFFF0000F8001FFFFFF0000FF8000001FFFE000000
310
7FFFFFF0001FFFFFFC0007FFFFFFF0001FFC0007FFFFFFF0001FFF0003FFFFFF
310
FFC001FFFFFF80007000FFFFFFFFFE0000FFFE0008003FF0008001FFFF80007F
310
FFFFFFFFFC0000FFFFFFFFFFE0000FF8000001FFFE0000007FFFFFF0001FFFFF
310
F8000FFFFFFFF8000FF8000FFFFFFFF8000FFF0003FFFFFFFFFFFFFFFFFF0000
310
7000FFFFFFFFFC0000FFFC0008003FF0008001FFFF80007FFFFFFFFFF80001FF
310
FFFFFFFF80000FF8000001FFFE0000007FFFFFF0001FFFFFF8000FFFFFFFF800
310
0FF8000FFFFFFFF8000FFF0003FFFFFFFFFFFFFFFFFE0000F000FFFFFFFFE000
310
00FFFC000C003FE000C001FFFF80007FFFFFFFFFC00001FFFFFFFFFE00001FF8
310
000001FFFE0000007FFFFFF0001FFFFFF8000FFFFFFFF8000FF8000FFFFFFFF8
310
000FFF0003FFFFFFFFFFFFFFFFF00000F000FFFFFFFE000001FFFC000C001FE0
310
00C000FFFF80007FFFFFFFFE000001FFFFFFFFE000001FF80FFFFFFFFFFFFFC0
310
7FFFFFF0001FFFFFF8000FFFFFFFF8000FF8000FFFFFFFF8000FFF0003FFFFFF
310
FFFFFFFFFF800000F000FFFFFFC0000001FFFC001C001FE001C000FFFF80007F
310
FFFFFF80000003FFFFFFF80000001FF80FFFFFFFFFFFFFC07FFFFFF0001FFFFF
310
F8001FFFFFFFFC000FF8001FFFFFFFFC000FFF0003FFFFFFFFFFFFFFF0000001
310
F000FFFFF800000001FFF8001C001FE001C000FFFF80007FFFFFF800000003FF
310
FFFF800000003FF80FFFFFFFFFFFFFC07FFFFFF0001FFFFFF8001FFFFFFFFC00
310
0FF8001FFFFFFFFC000FFF0003FFFFFFFFFFFFFE00000001F000FFFFC0000000
310
03FFF8001E001FC001E000FFFF80007FFFFF8000000007FFFFFC000000003FF8
310
0FFFFFFFFFFFFFC07FFFFFF0001FFFFFF8001FFFFFFFFC000FF8001FFFFFFFFC
310
000FFF0003FFFFFFFFFFFFE000000003F000FFFE0000000007FFF8001E000FC0
310
01E0007FFF80007FFFFE0000000007FFFFE0000000007FF80FFFFFFFFFFFFFC0
310
7FFFFFF0001FFFFFF0001FFFFFFFFC0007F0001FFFFFFFFC0007FF0003FFFFFF
310
FFFFFF0000000003F000FFF80000000007FFF8001E000FC003E0007FFF80007F
310
FFF0000000000FFFFF8000000000FFF80FFFFFFFFFFFFFC07FFFFFF0001FFFFF
310
F0001FFFFFFFFC0007F0001FFFFFFFFC0007FF0003FFFFFFFFFFFC0000000007
310
F000FFE0000000000FFFF0003E000FC003E0007FFF80007FFFC0000000001FFF
310
FE0000000001FFF80FFFFFFFFFFFFFC07FFFFFF0001FFFFFF0001FFFFFFFFC00
310
07F0001FFFFFFFFC0007FF0003FFFFFFFFFFF0000000000FF000FFC000000000
310
1FFFF0003F000F8003F0003FFF80007FFF80000000003FFFF80000000003FFF8
310
0FFFFFFFFFFFFFC07FFFFFF0001FFFFFF0001FFFFFFFFC0007F0001FFFFFFFFC
310
0007FF0003FFFFFFFFFFE0000000001FF000FF00000000007FFFF0003F000780
310
03F0003FFF80007FFF00000000007FFFF00000000007FFF80FFFFFFFFFFFFFC0
310
7FFFFFF0001FFFFFF0001FFFFFFFFC0007F0001FFFFFFFFC0007FF0003FFFFFF
310
FFFF80000000007FF000FE0000000000FFFFE0003F00078007F0003FFF80007F
310
FE0000000001FFFFE0000000001FFFF80FFFFFFFFFFFFFC07FFFFFF0001FFFFF
310
F0001FFFFFFFFC0007F0001FFFFFFFFC0007FF0003FFFFFFFFFF0000000000FF
310
F000FC0000000003FFFFE0007F00078007F0003FFF80007FFC0000000007FFFF
310
C0000000007FFFF80FFFFFFFFFFFFFC07FFFFFF0001FFFFFF8001FFFFFFFFC00
310
0FF8001FFFFFFFFC000FFF0003FFFFFFFFFE0000000003FFF000FC000000000F
310
FFFFE0007F80070007F8001FFF80007FF8000000001FFFFF8000000001FFFFF8
310
0FFFFFFFFFFFFFC07FFFFFF0001FFFFFF8001FFFFFFFFC000FF8001FFFFFFFFC
310
000FFF0003FFFFFFFFFC000000000FFFF000F8000000007FFFFFE0007F800700
310
07F8001FFF80007FF000000000FFFFFF800000000FFFFFF80FFFFFFFFFFFFFC0
310
7FFFFFF0001FFFFFF8000FFFFFFFF8000FF8000FFFFFFFF8000FFF0003FFFFFF
310
FFFC000000007FFFF000F800000007FFFFFFC0007F8003000FF8001FFF80007F
310
F000000007FFFFFF000000007FFFFFF80FFFFFFFFFFFFFC07FFFFFF0001FFFFF
310
F8000FFFFFFFF8000FF8000FFFFFFFF8000FFF0003FFFFFFFFF80000000FFFFF
310
F000F0000000FFFFFFFFC000FF8003000FF8001FFF80007FE0000000FFFFFFFF
310
0000000FFFFFFFF8000001FFFE0000007FFFFFF0001FFFFFF8000FFFFFFFF800
310
0FF8000FFFFFFFF8000FFF0003FFFFFFFFF8000000FFFFFFF000F000000FFFFF
310
FFFFC000FFC002000FF8000FFF80007FE000001FFFFFFFFE000001FFFFFFFFF8
310
000001FFFE0000007FFFFFF0001FFFFFF8000FFFFFFFF8000FF8000FFFFFFFF8
310
000FFF0003FFFFFFFFF000001FFFFFFFF000E00000FFFFFFFFFFC000FFC00200
310
0FFC000FFF80007FE00001FFFFFFFFFE00001FFFFFFFFFF8000001FFFE000000
310
7FFFFFF0001FFFFFFC000FFFFFFFF8001FFC000FFFFFFFF8001FFF0003FFFFFF
310
FFF00001FFFFFFFFF000E00007FFFFFFFFFF8000FFC000001FFC000FFF80007F
310
C0000FFFFFFFFFFE0000FFFFFFFFFFF8000001FFFE0000007FFFFFF0001FFFFF
310
FC0007FFFFFFF0001FFC0007FFFFFFF0001FFF0003FFFFFFFFF00007FFFFFFFF
310
F000E0001FFFFFFFFFFF8000FFC000001FFC000FFF80007FC0003FFFFFFFFFFE
310
0001FFFFFFFFFFF8000001FFFE0000007FFFFFF0001FFFFFFC0007FFFFFFF000
310
1FFC0007FFFFFFF0001FFF0003FFFFFFFFF0001FFFFFFFFFF000E0003FFFFF00
310
03FF8001FFE000001FFC0007FF80007FC0007FFFFF0007FC0003FFFFF0003FF8
310
000001FFFE0000007FFFFFF0001FFFFFFC0003FFFFFFE0001FFC0003FFFFFFE0
310
001FFF0003FFFFFFFFF0003FFFFFFFFFF000E0003FFFFF0001FF8001FFE00000
310
1FFE0007FF80007FC0007FFFFE0003FC0007FFFFE0003FF8000001FFFE000000
310
7FFFFFF0001FFFFFFE0003FFFFFFE0003FFE0003FFFFFFE0003FFF0003FFFFFF
310
FFF0003FFFFF8001F000E0003FFFFF0001FF0001FFE000001FFE0007FF80007F
310
C0007FFFFE0003FC0007FFFFE0003FF8000001FFFE0000007FFFFFF0001FFFFF
310
FE0001FFFFFFC0003FFE0001FFFFFFC0003FFF0003FFFFFFFFF0003FFFFF0001
310
F000E0003FFFFF0003FF0001FFE000003FFE0007FF80007FC0007FFFFE0003FC
310
0007FFFFE0003FF8000001FFFE0000007FFFFFF0001FFFFFFF0001FFFFFFC000
310
7FFF0001FFFFFFC0007FFF0003FFFFFFFFF0003FFFFF0001F000E0003FFFFE00
310
03FF0003FFF000003FFE0003FF80007FC0007FFFFC0003FE0007FFFFE0003FF8
310
000001FFFE0000007FFFFFF0001FFFFFFF0000FFFFFF80007FFF0000FFFFFF80
310
007FFF0003FFFFFFFFF0003FFFFF0001F000E0003FFFFE0003FF0003FFF00000
310
3FFF0003FF80007FC0007FFFFC0007FE0007FFFFC0003FF8000001FFFE000000
310
7FFFFFF0001FFFFFFF80007FFFFF0000FFFF80007FFFFF0000FFFF0003FFFFFF
310
FFF0003FFFFF0003F000E0003FFFFC0003FE0003FFF000003FFF0003FF80007F
310
E0003FFFF80007FE0003FFFFC0007FF8000001FFFE0000007FFFFFF0001FFFFF
310
FF80003FFFFE0000FFFF80003FFFFE0000FFFF0003FFFFFFFFF0001FFFFE0003
310
F000F0001FFFF80003FE0003FFF000007FFF0001FF80007FE0003FFFF00007FE
310
0001FFFF80007FF8000001FFFE0000007FFFFFF0001FFFFFFFC0000FFFF80001
310
FFFFC0000FFFF80001FFFF0003FFFFFFFFF0001FFFFC0003F000F0000FFFF000
310
07FE0007FFF800007FFF0001FF80007FE0001FFFE00007FF0000FFFE00007FF8
310
000001FFFE0000007FFFFFF0001FFFFFFFC00003FFE00001FFFFC00003FFE000
310
01FFFF0003FFFFFFFFF8000FFFF80003F000F00003FFC00007FC0007FFF80000
310
7FFF8001FF80007FF00007FF80000FFF00007FF80000FFF8000001FFFE000000
310
7F80000000000001FFE000003E000003FFFFE000003E000003FFFF0003FFFFFF
310
FFF80003FFE00007F000F800000000000FFC0007FFF800007FFF8001FF80007F
310
F000000000000FFF000000000000FFF8000001FFFE0000007F80000000000001
310
FFF0000000000007FFFFF0000000000007FFFF0003FFFFFFFFFC00007E000007
310
F000F800000000000FFC0007FFF80000FFFF8000FF80007FF800000000001FFF
310
800000000001FFF8000001FFFE0000007F80000000000001FFF800000000000F
310
FFFFF800000000000FFFFF0003FFFFFFFFFC00000000000FF000FC0000000000
310
1FFC0007FFFC0000FFFF8000FF80007FF800000000003FFFC00000000001FFF8
310
000001FFFE0000007F80000000000001FFF800000000000FFFFFF80000000000
310
0FFFFF0003FFFFFFFFFE00000000001FF000FE00000000003FF8000FFFFC0000
310
FFFF8000FF80007FFC00000000003FFFC00000000003FFF8000001FFFE000000
310
7F80000000000001FFFC00000000001FFFFFFC00000000001FFFFF0003FFFFFF
310
FFFF00000000001FF000FF00000000003FF8000FFFFC0000FFFFC000FF80007F
310
FE00000000007FFFE00000000007FFF8000001FFFE0000007F80000000000001
310
FFFE00000000003FFFFFFE00000000003FFFFF0003FFFFFFFFFF80000000003F
310
F000FF80000000007FF8000FFFFC0001FFFFC0007F80007FFF0000000000FFFF
310
F0000000000FFFF800000000000000007F80000000000001FFFF8000000000FF
310
FFFFFF8000000000FFFFFF0003FFFFFFFFFFC0000000007FF000FFC000000000
310
FFF8000FFFFE0001FFFFC0007F80007FFF8000000001FFFFF8000000001FFFF8
310
00000000000000007F80000000000001FFFFC000000001FFFFFFFFC000000001
310
FFFFFF0003FFFFFFFFFFE000000000FFF000FFE000000003FFF0001FFFFE0001
310
FFFFC0007F80007FFFC000000007FFFFFE000000003FFFF80000000000000000
310
7F80000000000001FFFFE000000003FFFFFFFFE000000003FFFFFF0003FFFFFF
310
FFFFF000000003FFF000FFF80000000FFFF0001FFFFE0001FFFFE0007F80007F
310
FFF00000000FFFFFFF00000000FFFFF800000000000000007F80000000000001
310
FFFFF80000000FFFFFFFFFF80000000FFFFFFF0003FFFFFFFFFFFC0000000FFF
310
F000FFFE0000003FFFF0001FFFFE0003FFFFE0003F80007FFFFC0000003FFFFF
310
FFC0000003FFFFF800000000000000007F80000000000001FFFFFE0000003FFF
310
FFFFFFFE0000003FFFFFFF0003FFFFFFFFFFFF0000003FFFF000FFFF800000FF
310
FFF0001FFFFF0003FFFFE0003F80007FFFFF000001FFFFFFFFF800001FFFFFF8
310
00000000000000007F80000000000001FFFFFFC00001FFFFFFFFFFFFC00001FF
310
FFFFFF0003FFFFFFFFFFFFC00000FFFFF000FFFFF8000FFFFFFFFFFFFFFFFFFF
310
FFFFFFFFFFFFFFFFFFFFF0001FFFFFFFFFFF0000FFFFFFF80000000000000000
310
7FFFFFFFFFFFFFFFFFFFFFFC001FFFFFFFFFFFFFFC001FFFFFFFFFFFFFFFFFFF
310
FFFFFFFC001FFFFFF000FFFFFFFFFFFFFFFFFFFFFFFFFFFFFFFFFFFFFFFFFFFF
310
FFFFFFFFFFFFFFFFFFFFFFFFFFFFFFFFFFFFFFFFFFFFFFFFFFFFFFFFFFFFFFFF
310
FFFFFFFFFFFFFFFFFFFFFFFFFFFFFFFFFFFFFFFFFFFFFFFFFFFFFFFFFFFFFFFF
310
F000FFFFFFFFFFFFFFFFFFFFFFFFFFFFFFFFFFFFFFFFFFFFFFFFFFFFFFFFFFFF
310
FFFFFFFFFFFFFFFFFFFFFFFFFFFFFFFFFFFFFFFFFFFFFFFFFFFFFFFFFFFFFFFF
310
FFFFFFFFFFFFFFFFFFFFFFFFFFFFFFFFFFFFFFFFFFFFFFFFF000FFFFFFFFFFFF
310
FFFFFFFFFFFFFFFFFFFFFFFFFFFFFFFFFFFFFFFFFFFFFFFFFFFFFFFFFFFFFFFF
310
FFFFFFFFFFFFFFFFFFFFFFFFFFFFFFFFFFFFFFFFFFFFFFFFFFFFFFFFFFFFFFFF
310
FFFFFFFFFFFFFFFFFFFFFFFFFFFFFFFFF000FFFFFFFFFFFFFFFFFFFFFFFFFFFF
310
FFFFFFFFFFFFFFFFFFFFFFFFFFFFFFFFFFFFFFFFFFFFFFFFFFFFFFFFFFFFFFFF
310
FFFFFFFFFFFFFFFFFFFFFFFFFFFFFFFFFFFFFFFFFFFFFFFFFFFFFFFFFFFFFFFF
310
FFFFFFFFFFFFFFFFF000FFFFFFFFFFFFFFFFFFFFFFFFFFFFFFFFFFFFFFFFFFFF
310
FFFFFFFFFFFFFFFFFFFFFFFFFFFFFFFFFFFFFFFFFFFFFFFFFFFFFFFFFFFFFFFF
310
FFFFFFFFFFFFFFFFFFFFFFFFFFFFFFFFFFFFFFFFFFFFFFFFFFFFFFFFFFFFFFFF
310
F000FFFFFFFFFFFFFFFFFFFFFFFFFFFFFFFFFFFFFFFFFFFFFFFFFFFFFFFFFFFF
310
FFFFFFFFFFFFFFFFFFFFFFFFFFFFFFFFFFFFFFFFFFFFFFFFFFFFFFFFFFFFFFFF
310
FFFFFFFFFFFFFFFFFFFFFFFFFFFFFFFFFFFFFFFFFFFFFFFFF000FFFFFFFFFFFF
310
FFFFFFFFFFFFFFFFFFFFFFFFFFFFFFFFFFFFFFFFFFFFFFFFFFFFFFFFFFFFFFFF
310
FFFFFFFFFFFFFFFFFFFFFFFFFFFFFFFFFFFFFFFFFFFFFFFFFFFFFFFFFFFFFFFF
310
FFFFFFFFFFFFFFFFFFFFFFFFFFFFFFFFF000FFFFFFFFFFFFFFFFFFFFFFFFFFFF
310
FFFFFFFFFFFFFFFFFFFFFFFFFFFFFFFFFFFFFFFFFFFFFFFFFFFFFFFFFFFFFFFF
310
FFFFFFFFFFFFFFFFFFFFFFFFFFFFFFFFFFFFFFFFFFFFFFFFFFFFFFFFFFFFFFFF
310
FFFFFFFFFFFFFFFFF000FFFFFFFFFFFFFFFFFFFFFFFFFFFFFFFFFFFFFFFFFFFF
310
FFFFFFFFFFFFFFFFFFFFFFFFFFFFFFFFFFFFFFFFFFFFFFFFFFFFFFFFFFFFFFFF
310
FFFFFFFFFFFFFFFFFFFFFFFFFFFFFFFFFFFFFFFFFFFFFFFFFFFFFFFFFFFFFFFF
310
F000FFFFFFFFFFFFFFFFFFFFFFFFFFFFFFFFFFFFFFFFFFFFFFFFFFFFFFFFFFFF
310
FFFFFFFFFFFFFFFFFFFFFFFFFFFFFFFFFFFFFFFFFFFFFFFFFFFFFFFFFFFFFFFF
310
FFFFFFFFFFFFFFFFFFFFFFFFFFFFFFFFFFFFFFFFFFFFFFFFF000FFFFFFFFFFFF
310
FFFFFFFFFFFFFFFFFFFFFFFFFFFFFFFFFFFFFFFFFFFFFFFFFFFFFFFFFFFFFFFF
310
FFFFFFFFFFFFFFFFFFFFFFFFFFFFFFFFFFFFFFFFFFFFFFFFFFFFFFFFFFFFFFFF
310
FFFFFFFFFFFFFFFFFFFFFFFFFFFFFFFFF000FFFFFFFFFFFFFFFFFFFFFFFFFFFF
310
FFFFFFFFFFFFFFFFFFFFFFFFFFFFFFFFFFFFFFFFFFFFFFFFFFFFFFFFFFFFFFFF
310
FFFFFFFFFFFFFFFFFFFFFFFFFFFFFFFFFFFFFFFFFFFFFFFFFFFFFFFFFFFFFFFF
310
FFFFFFFFFFFFFFFFF000FFFFFFFFFFFFFFFFFFFFFFFFFFFFFFFFFFFFFFFFFFFF
310
FFFFFFFFFFFFFFFFFFFFFFFFFFFFFFFFFFFFFFFFFFFFFFFFFFFFFFFFFFFFFFFF
310
FFFFFFFFFFFFFFFFFFFFFFFFFFFFFFFFFFFFFFFFFFFFFFFFFFFFFFFFFFFFFFFF
310
F000FFFFFFFFFFFFFFFFFFFFFFFFFFFFFFFFFFFFFFFFFFFFFFFFFFFFFFFFFFFF
310
FFFFFFFFFFFFFFFFFFFFFFFFFFFFFFFFFFFFFFFFFFFFFFFFFFFFFFFFFFFFFFFF
310
FFFFFFFFFFFFFFFFFFFFFFFFFFFFFFFFFFFFFFFFFFFFFFFFF000FFFFFFFFFFFF
310
FFFFFFFFFFFFFFFFFFFFFFFFFFFFFFFFFFFFFFFFFFFFFFFFFFFFFFFFFFFFFFFF
310
FFFFFFFFFFFFFFFFFFFFFFFFFFFFFFFFFFFFFFFFFFFFFFFFFFFFFFFFFFFFFFFF
310
FFFFFFFFFFFFFFFFFFFFFFFFFFFFFFFFF000FFFFFFFFFFFFFFFFFFFFFFFFFFFF
310
FFFFFFFFFFFFFFFFFFFFFFFFFFFFFFFFFFFFFFFFFFFFFFFFFFFFFFFFFFFFFFFF
310
FFFFFFFFFFFFFFFFFFFFFFFFFFFFFFFFFFFFFFFFFFFFFFFFFFFFFFFFFFFFFFFF
310
FFFFFFFFFFFFFFFFF000FFFFFFFFFFFFFFFFFFFFFFFFFFFFFFFFFFFFFFFFFFFF
310
FFFFFFFFFFFFFFFFFFFFFFFFFFFFFFFFFFFFFFFFFFFFFFFFFFFFFFFFFFFFFFFF
310
FFFFFFFFFFFFFFFFFFFFFFFFFFFFFFFFFFFFFFFFFFFFFFFFFFFFFFFFFFFFFFFF
310
F000FFFFFFFFFFFFFFFFFFFFFFFFFFFFFFFFFFFFFFFFFFFFFFFFFFFFFFFFFFFF
310
FFFFFFFFFFFFFFFFFFFFFFFFFFFFFFFFFFFFFFFFFFFFFFFFFFFFFFFFFFFFFFFF
310
FFFFFFFFFFFFFFFFFFFFFFFFFFFFFFFFFFFFFFFFFFFFFFFFF000FFFFFFFFFFFF
310
FFFFFFFFFFFFFFFFFFFFFFFFFFFFFFFFFFFFFFFFFFFFFFFFFFFFFFFFFFFFFFFF
310
FFFFFFFFFFFFFFFFFFFFFFFFFFFFFFFFFFFFFFFFFFFFFFFFFFFFFFFFFFFFFFFF
310
FFFFFFFFFFFFFFFFFFFFFFFFFFFFFFFFF000FFFFFFFFFFFFFFFFFFFFFFFFFFFF
310
FFFFFFFFFFFFFFFFFFFFFFFFFFFFFFFFFFFFFFFFFFFFFFFFFFFFFFFFFFFFFFFF
310
FFFFFFFFFFFFFFFFFFFFFFFFFFFFFFFFFFFFFFFFFFFFFFFFFFFFFFFFFFFFFFFF
310
FFFFFFFFFFFFFFFFF000FFFFFFFFFFFFFFFFFFFFFFFFFFFFFFFFFFFFFFFFFFFF
310
FFFFFFFFFFFFFFFFFFFFFFFFFFFFFFFFFFFFFFFFFFFFFFFFFFFFFFFFFFFFFFFF
310
FFFFFFFFFFFFFFFFFFFFFFFFFFFFFFFFFFFFFFFFFFFFFFFFFFFFFFFFFFFFFFFF
310
F000FFFFFFFFFFFFFFFFFFFFFFFFFFFFFFFFFFFFFFFFFFFFFFFFFFFFFFFFFFFF
310
FFFFFFFFFFFFFFFFFFFFFFFFFFFFFFFFFFFFFFFFFFFFFFFFFFFFFFFFFFFFFFFF
310
FFFFFFFFFFFFFFFFFFFFFFFFFFFFFFFFFFFFFFFFFFFFFFFFF000FFFFFFFFFFFF
310
FFFFFFFFFFFFFFFFFFFFFFFFFFFFFFFFFFFFFFFFFFFFFFFFFFFFFFFFFFFFFFFF
310
FFFFFFFFFFFFFFFFFFFFFFFFFFFFFFFFFFFFFFFFFFFFFFFFFFFFFFFFFFFFFFFF
310
FFFFFFFFFFFFFFFFFFFFFFFFFFFFFFFFF0000000000000000000000000000000
310
0000000000000000000000000000000000000000000000000000000000000000
310
0000000000000000000000000000000000000000000000000000000000000000
310
0000000000000000000000000000000000000000000000000000000000000000
310
0000000000000000000000000000000000000000000000000000000000000000
310
0000000000000000000000000000000000000000000000000000000000000000
310
0000000000000000000000000000000000000000000000000000000000000000
310
0000000000000000000000000000000000000000000000000000000000000000
310
0000000000000000000000000000000000000000000000000000000000000000
310
0000000000000000000000000000000000000000000000000000000000000000
310
0000000000000000000000000000000000000000000000000000000000000000
310
0000000000000000000000000000000000000000000000000000000000000000
310
0000000000000000000000000000000000000000000000000000000000000000
310
0000000000000000000000000000000000000000000000000000000000000000
310
0000000000000000000000000000000000000000000000000000000000000000
310
0000000000000000000000000000000000000000000000000000000000000000
  1
OLE
  0
ENDSEC
  0
SECTION
  2
OBJECTS
  0
DICTIONARY
  5
C
330
0
100
AcDbDictionary
281
     1
  3
ACAD_GROUP
350
D
  3
ACAD_LAYOUT
350
1A
  3
ACAD_MLINESTYLE
350
17
  3
ACAD_PLOTSETTINGS
350
19
  3
ACAD_PLOTSTYLENAME
350
E
  3
ACAD_SCALELIST
350
47
  0
DICTIONARY
  5
D
102
{ACAD_REACTORS
330
C
102
}
330
C
100
AcDbDictionary
281
     1
  0
DICTIONARY
  5
1A
102
{ACAD_REACTORS
330
C
102
}
330
C
100
AcDbDictionary
281
     1
  3
Layout1
350
1E
  3
Layout2
350
26
  3
Model
350
22
  0
DICTIONARY
  5
17
102
{ACAD_REACTORS
330
C
102
}
330
C
100
AcDbDictionary
281
     1
  3
Standard
350
18
  0
DICTIONARY
  5
19
102
{ACAD_REACTORS
330
C
102
}
330
C
100
AcDbDictionary
281
     1
  0
ACDBDICTIONARYWDFLT
  5
E
102
{ACAD_REACTORS
330
C
102
}
330
C
100
AcDbDictionary
281
     1
  3
Normal
350
F
100
AcDbDictionaryWithDefault
340
F
  0
DICTIONARY
  5
47
102
{ACAD_REACTORS
330
C
102
}
330
C
100
AcDbDictionary
281
     1
  3
A0
350
48
  3
A1
350
49
  3
A2
350
4A
  3
A3
350
4B
  3
A4
350
4C
  3
A5
350
4D
  3
A6
350
4E
  3
A7
350
4F
  3
A8
350
50
  3
A9
350
51
  3
B0
350
52
  3
B1
350
53
  3
B2
350
54
  3
B3
350
55
  3
B4
350
56
  3
B5
350
57
  3
B6
350
58
  3
B7
350
59
  3
B8
350
5A
  3
B9
350
5B
  3
C0
350
5C
  3
C1
350
5D
  3
C2
350
5E
  3
C3
350
5F
  3
C4
350
60
  3
C5
350
61
  3
C6
350
62
  3
C7
350
63
  3
C8
350
64
  3
C9
350
65
  3
D0
350
66
  3
D1
350
67
  3
D2
350
68
  0
LAYOUT
  5
1E
102
{ACAD_REACTORS
330
1A
102
}
330
1A
100
AcDbPlotSettings
  1

  2
none_device
  4

  6

 40
0.0
 41
0.0
 42
0.0
 43
0.0
 44
0.0
 45
0.0
 46
0.0
 47
0.0
 48
0.0
 49
0.0
140
0.0
141
0.0
142
1.0
143
1.0
 70
   688
 72
     1
 73
     0
 74
     5
  7

 75
    16
147
1.0
148
0.0
149
0.0
100
AcDbLayout
  1
Layout1
 70
     1
 71
     1
 10
0.0
 20
0.0
 11
420.0
 21
297.0
 12
0.0
 22
0.0
 32
0.0
 14
1.0000000000E+20
 24
1.0000000000E+20
 34
1.0000000000E+20
 15
-1.0000000000E+20
 25
-1.0000000000E+20
 35
-1.0000000000E+20
146
0.0
 13
0.0
 23
0.0
 33
0.0
 16
1.0
 26
0.0
 36
0.0
 17
0.0
 27
1.0
 37
0.0
 76
     0
330
1B
  0
LAYOUT
  5
26
102
{ACAD_REACTORS
330
1A
102
}
330
1A
100
AcDbPlotSettings
  1

  2
none_device
  4

  6

 40
0.0
 41
0.0
 42
0.0
 43
0.0
 44
0.0
 45
0.0
 46
0.0
 47
0.0
 48
0.0
 49
0.0
140
0.0
141
0.0
142
1.0
143
1.0
 70
   688
 72
     1
 73
     0
 74
     5
  7

 75
    16
147
1.0
148
0.0
149
0.0
100
AcDbLayout
  1
Layout2
 70
     1
 71
     2
 10
0.0
 20
0.0
 11
0.0
 21
0.0
 12
0.0
 22
0.0
 32
0.0
 14
0.0
 24
0.0
 34
0.0
 15
0.0
 25
0.0
 35
0.0
146
0.0
 13
0.0
 23
0.0
 33
0.0
 16
1.0
 26
0.0
 36
0.0
 17
0.0
 27
1.0
 37
0.0
 76
     0
330
23
  0
LAYOUT
  5
22
102
{ACAD_REACTORS
330
1A
102
}
330
1A
100
AcDbPlotSettings
  1

  2
none_device
  4
Letter_(8.50_x_11.00_Inches)
  6

 40
6.35
 41
6.35
 42
6.35000508
 43
6.35000508
 44
215.9
 45
279.4
 46
0.0
 47
0.0
 48
0.0
 49
0.0
140
0.0
141
0.0
142
1.0
143
1.0
 70
  1712
 72
     1
 73
     0
 74
     0
  7

 75
     0
147
1.0
148
0.0
149
0.0
100
AcDbLayout
  1
Model
 70
     1
 71
     0
 10
0.0
 20
0.0
 11
297.0
 21
210.0
 12
0.0
 22
0.0
 32
0.0
 14
0.0
 24
0.0
 34
0.0
 15
297.0
 25
210.0
 35
0.0
146
0.0
 13
0.0
 23
0.0
 33
0.0
 16
1.0
 26
0.0
 36
0.0
 17
0.0
 27
1.0
 37
0.0
 76
     0
330
1F
331
29
  0
MLINESTYLE
  5
18
102
{ACAD_REACTORS
330
17
102
}
330
17
100
AcDbMlineStyle
  2
Standard
 70
     0
  3

 62
   256
 51
90.0
 52
90.0
 71
     2
 49
0.5
 62
   256
  6
BYLAYER
 49
-0.5
 62
   256
  6
BYLAYER
  0
ACDBPLACEHOLDER
  5
F
102
{ACAD_REACTORS
330
E
102
}
330
E
  0
SCALE
  5
48
102
{ACAD_REACTORS
330
47
102
}
330
47
100
AcDbScale
 70
     0
300
1:1
140
1.0
141
1.0
290
     1
  0
SCALE
  5
49
102
{ACAD_REACTORS
330
47
102
}
330
47
100
AcDbScale
 70
     0
300
1:2
140
1.0
141
2.0
290
     0
  0
SCALE
  5
4A
102
{ACAD_REACTORS
330
47
102
}
330
47
100
AcDbScale
 70
     0
300
1:4
140
1.0
141
4.0
290
     0
  0
SCALE
  5
4B
102
{ACAD_REACTORS
330
47
102
}
330
47
100
AcDbScale
 70
     0
300
1:5
140
1.0
141
5.0
290
     0
  0
SCALE
  5
4C
102
{ACAD_REACTORS
330
47
102
}
330
47
100
AcDbScale
 70
     0
300
1:8
140
1.0
141
8.0
290
     0
  0
SCALE
  5
4D
102
{ACAD_REACTORS
330
47
102
}
330
47
100
AcDbScale
 70
     0
300
1:10
140
1.0
141
10.0
290
     0
  0
SCALE
  5
4E
102
{ACAD_REACTORS
330
47
102
}
330
47
100
AcDbScale
 70
     0
300
1:16
140
1.0
141
16.0
290
     0
  0
SCALE
  5
4F
102
{ACAD_REACTORS
330
47
102
}
330
47
100
AcDbScale
 70
     0
300
1:20
140
1.0
141
20.0
290
     0
  0
SCALE
  5
50
102
{ACAD_REACTORS
330
47
102
}
330
47
100
AcDbScale
 70
     0
300
1:30
140
1.0
141
30.0
290
     0
  0
SCALE
  5
51
102
{ACAD_REACTORS
330
47
102
}
330
47
100
AcDbScale
 70
     0
300
1:40
140
1.0
141
40.0
290
     0
  0
SCALE
  5
52
102
{ACAD_REACTORS
330
47
102
}
330
47
100
AcDbScale
 70
     0
300
1:50
140
1.0
141
50.0
290
     0
  0
SCALE
  5
53
102
{ACAD_REACTORS
330
47
102
}
330
47
100
AcDbScale
 70
     0
300
1:100
140
1.0
141
100.0
290
     0
  0
SCALE
  5
54
102
{ACAD_REACTORS
330
47
102
}
330
47
100
AcDbScale
 70
     0
300
2:1
140
2.0
141
1.0
290
     0
  0
SCALE
  5
55
102
{ACAD_REACTORS
330
47
102
}
330
47
100
AcDbScale
 70
     0
300
4:1
140
4.0
141
1.0
290
     0
  0
SCALE
  5
56
102
{ACAD_REACTORS
330
47
102
}
330
47
100
AcDbScale
 70
     0
300
8:1
140
8.0
141
1.0
290
     0
  0
SCALE
  5
57
102
{ACAD_REACTORS
330
47
102
}
330
47
100
AcDbScale
 70
     0
300
10:1
140
10.0
141
1.0
290
     0
  0
SCALE
  5
58
102
{ACAD_REACTORS
330
47
102
}
330
47
100
AcDbScale
 70
     0
300
100:1
140
100.0
141
1.0
290
     0
  0
SCALE
  5
59
102
{ACAD_REACTORS
330
47
102
}
330
47
100
AcDbScale
 70
     0
300
1/128" = 1'-0"
140
0.0078125
141
12.0
290
     0
  0
SCALE
  5
5A
102
{ACAD_REACTORS
330
47
102
}
330
47
100
AcDbScale
 70
     0
300
1/64" = 1'-0"
140
0.015625
141
12.0
290
     0
  0
SCALE
  5
5B
102
{ACAD_REACTORS
330
47
102
}
330
47
100
AcDbScale
 70
     0
300
1/32" = 1'-0"
140
0.03125
141
12.0
290
     0
  0
SCALE
  5
5C
102
{ACAD_REACTORS
330
47
102
}
330
47
100
AcDbScale
 70
     0
300
1/16" = 1'-0"
140
0.0625
141
12.0
290
     0
  0
SCALE
  5
5D
102
{ACAD_REACTORS
330
47
102
}
330
47
100
AcDbScale
 70
     0
300
3/32" = 1'-0"
140
0.09375
141
12.0
290
     0
  0
SCALE
  5
5E
102
{ACAD_REACTORS
330
47
102
}
330
47
100
AcDbScale
 70
     0
300
1/8" = 1'-0"
140
0.125
141
12.0
290
     0
  0
SCALE
  5
5F
102
{ACAD_REACTORS
330
47
102
}
330
47
100
AcDbScale
 70
     0
300
3/16" = 1'-0"
140
0.1875
141
12.0
290
     0
  0
SCALE
  5
60
102
{ACAD_REACTORS
330
47
102
}
330
47
100
AcDbScale
 70
     0
300
1/4" = 1'-0"
140
0.25
141
12.0
290
     0
  0
SCALE
  5
61
102
{ACAD_REACTORS
330
47
102
}
330
47
100
AcDbScale
 70
     0
300
3/8" = 1'-0"
140
0.375
141
12.0
290
     0
  0
SCALE
  5
62
102
{ACAD_REACTORS
330
47
102
}
330
47
100
AcDbScale
 70
     0
300
1/2" = 1'-0"
140
0.5
141
12.0
290
     0
  0
SCALE
  5
63
102
{ACAD_REACTORS
330
47
102
}
330
47
100
AcDbScale
 70
     0
300
3/4" = 1'-0"
140
0.75
141
12.0
290
     0
  0
SCALE
  5
64
102
{ACAD_REACTORS
330
47
102
}
330
47
100
AcDbScale
 70
     0
300
1" = 1'-0"
140
1.0
141
12.0
290
     0
  0
SCALE
  5
65
102
{ACAD_REACTORS
330
47
102
}
330
47
100
AcDbScale
 70
     0
300
1-1/2" = 1'-0"
140
1.5
141
12.0
290
     0
  0
SCALE
  5
66
102
{ACAD_REACTORS
330
47
102
}
330
47
100
AcDbScale
 70
     0
300
3" = 1'-0"
140
3.0
141
12.0
290
     0
  0
SCALE
  5
67
102
{ACAD_REACTORS
330
47
102
}
330
47
100
AcDbScale
 70
     0
300
6" = 1'-0"
140
6.0
141
12.0
290
     0
  0
SCALE
  5
68
102
{ACAD_REACTORS
330
47
102
}
330
47
100
AcDbScale
 70
     0
300
1'-0" = 1'-0"
140
12.0
141
12.0
290
     0
  0
ENDSEC
  0
EOF
