  0
SECTION
  2
HEADER
  9
$ACADVER
  1
AC1015
  9
$ACADMAINTVER
 70
     6
  9
$DWGCODEPAGE
  3
ANSI_1252
  9
$INSBASE
 10
0.0
 20
0.0
 30
0.0
  9
$EXTMIN
 10
0.0
 20
0.0
 30
0.0
  9
$EXTMAX
 10
297.0
 20
210.0
 30
0.0
  9
$LIMMIN
 10
0.0
 20
0.0
  9
$LIMMAX
 10
297.0
 20
210.0
  9
$ORTHOMODE
 70
     0
  9
$REGENMODE
 70
     1
  9
$FILLMODE
 70
     1
  9
$QTEXTMODE
 70
     0
  9
$MIRRTEXT
 70
     1
  9
$LTSCALE
 40
1.0
  9
$ATTMODE
 70
     1
  9
$TEXTSIZE
 40
2.0
  9
$TRACEWID
 40
1.0
  9
$TEXTSTYLE
  7
Standard
  9
$CLAYER
  8
0
  9
$CELTYPE
  6
ByLayer
  9
$CECOLOR
 62
   256
  9
$CELTSCALE
 40
1.0
  9
$DISPSILH
 70
     0
  9
$DIMSCALE
 40
1.0
  9
$DIMASZ
 40
3.0
  9
$DIMEXO
 40
0.0
  9
$DIMDLI
 40
3.75
  9
$DIMRND
 40
0.0
  9
$DIMDLE
 40
0.0
  9
$DIMEXE
 40
1.0
  9
$DIMTP
 40
0.0
  9
$DIMTM
 40
0.0
  9
$DIMTXT
 40
2.0
  9
$DIMCEN
 40
2.5
  9
$DIMTSZ
 40
0.0
  9
$DIMTOL
 70
     0
  9
$DIMLIM
 70
     0
  9
$DIMTIH
 70
     1
  9
$DIMTOH
 70
     1
  9
$DIMSE1
 70
     0
  9
$DIMSE2
 70
     0
  9
$DIMTAD
 70
     1
  9
$DIMZIN
 70
     0
  9
$DIMBLK
  1

  9
$DIMASO
 70
     1
  9
$DIMSHO
 70
     1
  9
$DIMPOST
  1

  9
$DIMAPOST
  1

  9
$DIMALT
 70
     0
  9
$DIMALTD
 70
     3
  9
$DIMALTF
 40
0.0393700787
  9
$DIMLFAC
 40
2.0
  9
$DIMTOFL
 70
     1
  9
$DIMTVP
 40
0.0
  9
$DIMTIX
 70
     0
  9
$DIMSOXD
 70
     0
  9
$DIMSAH
 70
     0
  9
$DIMBLK1
  1

  9
$DIMBLK2
  1

  9
$DIMSTYLE
  2
ISO-25
  9
$DIMCLRD
 70
     0
  9
$DIMCLRE
 70
     0
  9
$DIMCLRT
 70
     0
  9
$DIMTFAC
 40
1.0
  9
$DIMGAP
 40
1.524
  9
$DIMJUST
 70
     0
  9
$DIMSD1
 70
     0
  9
$DIMSD2
 70
     0
  9
$DIMTOLJ
 70
     0
  9
$DIMTZIN
 70
     0
  9
$DIMALTZ
 70
     0
  9
$DIMALTTZ
 70
     0
  9
$DIMUPT
 70
     0
  9
$DIMDEC
 70
     2
  9
$DIMTDEC
 70
     3
  9
$DIMALTU
 70
     2
  9
$DIMALTTD
 70
     3
  9
$DIMTXSTY
  7
Standard
  9
$DIMAUNIT
 70
     0
  9
$DIMADEC
 70
     2
  9
$DIMALTRND
 40
0.0
  9
$DIMAZIN
 70
     0
  9
$DIMDSEP
 70
    44
  9
$DIMATFIT
 70
     3
  9
$DIMFRAC
 70
     0
  9
$DIMLDRBLK
  1

  9
$DIMLUNIT
 70
     2
  9
$DIMLWD
 70
    -2
  9
$DIMLWE
 70
    -2
  9
$DIMTMOVE
 70
     0
  9
$LUNITS
 70
     2
  9
$LUPREC
 70
     2
  9
$SKETCHINC
 40
1.0
  9
$FILLETRAD
 40
10.0
  9
$AUNITS
 70
     0
  9
$AUPREC
 70
     2
  9
$MENU
  1
.
  9
$ELEVATION
 40
0.0
  9
$PELEVATION
 40
0.0
  9
$THICKNESS
 40
0.0
  9
$LIMCHECK
 70
     0
  9
$CHAMFERA
 40
0.0
  9
$CHAMFERB
 40
0.0
  9
$CHAMFERC
 40
0.0
  9
$CHAMFERD
 40
0.0
  9
$SKPOLY
 70
     0
  9
$TDCREATE
 40
2458166.34868875
  9
$TDUCREATE
 40
2458166.307022084
  9
$TDUPDATE
 40
2458166.348691944
  9
$TDUUPDATE
 40
2458166.307025278
  9
$TDINDWG
 40
0.0000000116
  9
$TDUSRTIMER
 40
0.0000000116
  9
$USRTIMER
 70
     1
  9
$ANGBASE
 50
0.0
  9
$ANGDIR
 70
     0
  9
$PDMODE
 70
     0
  9
$PDSIZE
 40
-1.0
  9
$PLINEWID
 40
0.0
  9
$SPLFRAME
 70
     0
  9
$SPLINETYPE
 70
     6
  9
$SPLINESEGS
 70
     8
  9
$HANDSEED
  5
2F9
  9
$SURFTAB1
 70
     6
  9
$SURFTAB2
 70
     6
  9
$SURFTYPE
 70
     6
  9
$SURFU
 70
     6
  9
$SURFV
 70
     6
  9
$UCSBASE
  2

  9
$UCSNAME
  2

  9
$UCSORG
 10
0.0
 20
0.0
 30
0.0
  9
$UCSXDIR
 10
1.0
 20
0.0
 30
0.0
  9
$UCSYDIR
 10
0.0
 20
1.0
 30
0.0
  9
$UCSORTHOREF
  2

  9
$UCSORTHOVIEW
 70
     0
  9
$UCSORGTOP
 10
0.0
 20
0.0
 30
0.0
  9
$UCSORGBOTTOM
 10
0.0
 20
0.0
 30
0.0
  9
$UCSORGLEFT
 10
0.0
 20
0.0
 30
0.0
  9
$UCSORGRIGHT
 10
0.0
 20
0.0
 30
0.0
  9
$UCSORGFRONT
 10
0.0
 20
0.0
 30
0.0
  9
$UCSORGBACK
 10
0.0
 20
0.0
 30
0.0
  9
$PUCSBASE
  2

  9
$PUCSNAME
  2

  9
$PUCSORG
 10
0.0
 20
0.0
 30
0.0
  9
$PUCSXDIR
 10
1.0
 20
0.0
 30
0.0
  9
$PUCSYDIR
 10
0.0
 20
1.0
 30
0.0
  9
$PUCSORTHOREF
  2

  9
$PUCSORTHOVIEW
 70
     0
  9
$PUCSORGTOP
 10
0.0
 20
0.0
 30
0.0
  9
$PUCSORGBOTTOM
 10
0.0
 20
0.0
 30
0.0
  9
$PUCSORGLEFT
 10
0.0
 20
0.0
 30
0.0
  9
$PUCSORGRIGHT
 10
0.0
 20
0.0
 30
0.0
  9
$PUCSORGFRONT
 10
0.0
 20
0.0
 30
0.0
  9
$PUCSORGBACK
 10
0.0
 20
0.0
 30
0.0
  9
$USERI1
 70
     0
  9
$USERI2
 70
     0
  9
$USERI3
 70
     0
  9
$USERI4
 70
     0
  9
$USERI5
 70
     0
  9
$USERR1
 40
0.0
  9
$USERR2
 40
0.0
  9
$USERR3
 40
0.0
  9
$USERR4
 40
0.0
  9
$USERR5
 40
0.0
  9
$WORLDVIEW
 70
     1
  9
$SHADEDGE
 70
     3
  9
$SHADEDIF
 70
    70
  9
$TILEMODE
 70
     1
  9
$MAXACTVP
 70
    64
  9
$PINSBASE
 10
0.0
 20
0.0
 30
0.0
  9
$PLIMCHECK
 70
     0
  9
$PEXTMIN
 10
1.0000000000E+20
 20
1.0000000000E+20
 30
1.0000000000E+20
  9
$PEXTMAX
 10
-1.0000000000E+20
 20
-1.0000000000E+20
 30
-1.0000000000E+20
  9
$PLIMMIN
 10
0.0
 20
0.0
  9
$PLIMMAX
 10
420.0
 20
297.0
  9
$UNITMODE
 70
     0
  9
$VISRETAIN
 70
     1
  9
$PLINEGEN
 70
     0
  9
$PSLTSCALE
 70
     1
  9
$TREEDEPTH
 70
  3020
  9
$CMLSTYLE
  2
Standard
  9
$CMLJUST
 70
     0
  9
$CMLSCALE
 40
20.0
  9
$PROXYGRAPHICS
 70
     1
  9
$MEASUREMENT
 70
     1
  9
$CELWEIGHT
370
    -1
  9
$ENDCAPS
280
     0
  9
$JOINSTYLE
280
     0
  9
$LWDISPLAY
290
     1
  9
$INSUNITS
 70
     4
  9
$HYPERLINKBASE
  1

  9
$STYLESHEET
  1

  9
$XEDIT
290
     1
  9
$CEPSNTYPE
380
     0
  9
$PSTYLEMODE
290
     1
  9
$FINGERPRINTGUID
  2
{A4A8C9AB-5215-4E36-9A2C-E3EE13E6C38A}
  9
$VERSIONGUID
  2
{FAEB1C32-E019-11D5-929B-00C0DF256EC4}
  9
$EXTNAMES
290
     1
  9
$PSVPSCALE
 40
0.0
  9
$OLESTARTUP
290
     0
  0
ENDSEC
  0
SECTION
  2
CLASSES
  0
CLASS
  1
ACDBDICTIONARYWDFLT
  2
AcDbDictionaryWithDefault
  3
ObjectDBX Classes
 90
        0
280
     0
281
     0
  0
CLASS
  1
VISUALSTYLE
  2
AcDbVisualStyle
  3
ObjectDBX Classes
 90
     4095
280
     0
281
     0
  0
CLASS
  1
MATERIAL
  2
AcDbMaterial
  3
ObjectDBX Classes
 90
     1153
280
     0
281
     0
  0
CLASS
  1
SCALE
  2
AcDbScale
  3
ObjectDBX Classes
 90
     1153
280
     0
281
     0
  0
CLASS
  1
TABLESTYLE
  2
AcDbTableStyle
  3
ObjectDBX Classes
 90
     4095
280
     0
281
     0
  0
CLASS
  1
MLEADERSTYLE
  2
AcDbMLeaderStyle
  3
ACDB_MLEADERSTYLE_CLASS
 90
     4095
280
     0
281
     0
  0
CLASS
  1
SUN
  2
AcDbSun
  3
SCENEOE
 90
     1153
280
     0
281
     0
  0
CLASS
  1
ACDBPLACEHOLDER
  2
AcDbPlaceHolder
  3
ObjectDBX Classes
 90
        0
280
     0
281
     0
  0
CLASS
  1
LAYOUT
  2
AcDbLayout
  3
ObjectDBX Classes
 90
        0
280
     0
281
     0
  0
ENDSEC
  0
SECTION
  2
TABLES
  0
TABLE
  2
VPORT
  5
8
330
0
100
AcDbSymbolTable
 70
     1
  0
VPORT
  5
29
330
8
100
AcDbSymbolTableRecord
100
AcDbViewportTableRecord
  2
*Active
 70
     0
 10
0.0
 20
0.0
 11
1.0
 21
1.0
 12
148.5
 22
105.0
 13
0.0
 23
0.0
 14
10.0
 24
10.0
 15
10.0
 25
10.0
 16
0.0
 26
0.0
 36
1.0
 17
0.0
 27
0.0
 37
0.0
 40
210.0
 41
1.4142857143
 42
50.0
 43
0.0
 44
0.0
 50
0.0
 51
0.0
 71
     0
 72
  2000
 73
     1
 74
     3
 75
     0
 76
     0
 77
     0
 78
     0
281
     0
 65
     1
110
0.0
120
0.0
130
0.0
111
1.0
121
0.0
131
0.0
112
0.0
122
1.0
132
0.0
 79
     0
146
0.0
  0
ENDTAB
  0
TABLE
  2
LTYPE
  5
5
330
0
100
AcDbSymbolTable
 70
     6
  0
LTYPE
  5
14
330
5
100
AcDbSymbolTableRecord
100
AcDbLinetypeTableRecord
  2
ByBlock
 70
     0
  3

 72
    65
 73
     0
 40
0.0
  0
LTYPE
  5
15
330
5
100
AcDbSymbolTableRecord
100
AcDbLinetypeTableRecord
  2
ByLayer
 70
     0
  3

 72
    65
 73
     0
 40
0.0
  0
LTYPE
  5
16
330
5
100
AcDbSymbolTableRecord
100
AcDbLinetypeTableRecord
  2
Continuous
 70
     0
  3
Solid line
 72
    65
 73
     0
 40
0.0
  0
LTYPE
  5
6E
330
5
100
AcDbSymbolTableRecord
100
AcDbLinetypeTableRecord
  2
HIDDEN
 70
     0
  3
Hidden __ __ __ __ __ __ __ __ __ __ __ __ __ __
 72
    65
 73
     2
 40
1.905
 49
1.27
 74
     0
 49
-0.635
 74
     0
  0
LTYPE
  5
6F
330
5
100
AcDbSymbolTableRecord
100
AcDbLinetypeTableRecord
  2
PHANTOM
 70
     0
  3
Phantom ______  __  __  ______  __  __  ______
 72
    65
 73
     6
 40
12.7
 49
6.35
 74
     0
 49
-1.27
 74
     0
 49
1.27
 74
     0
 49
-1.27
 74
     0
 49
1.27
 74
     0
 49
-1.27
 74
     0
  0
LTYPE
  5
70
330
5
100
AcDbSymbolTableRecord
100
AcDbLinetypeTableRecord
  2
CENTER
 70
     0
  3
Center ____ _ ____ _ ____ _ ____ _ ____ _ ____
 72
    65
 73
     4
 40
10.16
 49
6.35
 74
     0
 49
-1.27
 74
     0
 49
1.27
 74
     0
 49
-1.27
 74
     0
  0
LTYPE
  5
71
330
5
100
AcDbSymbolTableRecord
100
AcDbLinetypeTableRecord
  2
CENTERX2
 70
     0
  3
Center (2x) ________  __  ________  __  _____
 72
    65
 73
     4
 40
20.32
 49
12.7
 74
     0
 49
-2.54
 74
     0
 49
2.54
 74
     0
 49
-2.54
 74
     0
  0
LTYPE
  5
72
330
5
100
AcDbSymbolTableRecord
100
AcDbLinetypeTableRecord
  2
DOT2
 70
     0
  3
Dot (.5x) ........................................
 72
    65
 73
     2
 40
0.635
 49
0.0
 74
     0
 49
-0.635
 74
     0
  0
ENDTAB
  0
TABLE
  2
LAYER
  5
2
330
0
100
AcDbSymbolTable
 70
     5
  0
LAYER
  5
10
330
2
100
AcDbSymbolTableRecord
100
AcDbLayerTableRecord
  2
0
 70
     0
 62
     7
  6
Continuous
370
    -3
390
F
  0
LAYER
  5
73
330
2
100
AcDbSymbolTableRecord
100
AcDbLayerTableRecord
  2
FORMAT
 70
     0
 62
     7
  6
Continuous
370
    -3
390
F
  0
LAYER
  5
74
330
2
100
AcDbSymbolTableRecord
100
AcDbLayerTableRecord
  2
VERMASSUNG
 70
     0
 62
     7
  6
Continuous
370
    -3
390
F
  0
LAYER
  5
75
330
2
100
AcDbSymbolTableRecord
100
AcDbLayerTableRecord
  2
KOPF_DÜNN
 70
     0
 62
     7
  6
Continuous
370
    -3
390
F
  0
LAYER
  5
76
330
2
100
AcDbSymbolTableRecord
100
AcDbLayerTableRecord
  2
KOPF_DICK
 70
     0
 62
     7
  6
Continuous
370
    25
390
F
  0
ENDTAB
  0
TABLE
  2
STYLE
  5
3
330
0
100
AcDbSymbolTable
 70
     2
  0
STYLE
  5
11
330
3
100
AcDbSymbolTableRecord
100
AcDbTextStyleTableRecord
  2
Standard
 70
     0
 40
0.0
 41
1.0
 50
0.0
 71
     0
 42
2.0
  3
txt
  4

  0
STYLE
  5
77
330
3
100
AcDbSymbolTableRecord
100
AcDbTextStyleTableRecord
  2
SLDTEXTSTYLE0
 70
     0
 40
0.0
 41
0.7
 50
0.0
 71
     0
 42
2.0
  3
TXT
  4

  0
ENDTAB
  0
TABLE
  2
VIEW
  5
6
330
0
100
AcDbSymbolTable
 70
     0
  0
ENDTAB
  0
TABLE
  2
UCS
  5
7
330
0
100
AcDbSymbolTable
 70
     0
  0
ENDTAB
  0
TABLE
  2
APPID
  5
9
330
0
100
AcDbSymbolTable
 70
     1
  0
APPID
  5
12
330
9
100
AcDbSymbolTableRecord
100
AcDbRegAppTableRecord
  2
ACAD
 70
     0
  0
ENDTAB
  0
TABLE
  2
DIMSTYLE
  5
A
330
0
100
AcDbSymbolTable
 70
     4
100
AcDbDimStyleTable
  0
DIMSTYLE
105
27
330
A
100
AcDbSymbolTableRecord
100
AcDbDimStyleTableRecord
  2
ISO-25
 70
     0
 41
2.5
 42
0.625
 43
3.75
 44
1.25
 73
     0
 74
     0
 77
     1
 78
     8
140
2.5
141
2.5
143
0.0393700787
147
0.625
171
     3
172
     1
178
     0
271
     2
272
     2
274
     3
278
    44
283
     0
284
     8
340
11
  0
DIMSTYLE
105
206
102
{ACAD_REACTORS
330
205
330
21B
330
231
330
23B
330
245
330
24F
330
259
102
}
330
A
100
AcDbSymbolTableRecord
100
AcDbDimStyleTableRecord
  2
SLDDIMSTYLE0
 70
     0
 41
3.0
 44
0.0
 45
0.000000001
 73
     0
 74
     0
 77
     1
 78
    12
 79
     3
140
2.0
147
0.5
173
     1
178
     0
271
     2
272
     3
276
     2
284
    12
340
77
  0
DIMSTYLE
105
212
102
{ACAD_REACTORS
330
211
102
}
330
A
100
AcDbSymbolTableRecord
100
AcDbDimStyleTableRecord
  2
SLDDIMSTYLE1
 70
     0
 41
3.0
 44
0.0
 45
0.000000001
 73
     0
 74
     0
 76
     1
 77
     1
 78
    12
 79
     3
140
2.0
147
0.5
173
     1
178
     0
271
     2
272
     3
276
     2
282
     1
284
    12
340
77
  0
DIMSTYLE
105
227
102
{ACAD_REACTORS
330
226
330
263
102
}
330
A
100
AcDbSymbolTableRecord
100
AcDbDimStyleTableRecord
  2
SLDDIMSTYLE2
 70
     0
 41
3.0
 44
0.0
 45
0.000000001
 73
     0
 74
     0
 77
     1
 78
    12
 79
     3
140
2.0
147
0.5
173
     1
178
     0
271
     1
272
     3
276
     2
284
    12
340
77
  0
ENDTAB
  0
TABLE
  2
BLOCK_RECORD
  5
1
330
0
100
AcDbSymbolTable
 70
    11
  0
BLOCK_RECORD
  5
1F
330
1
100
AcDbSymbolTableRecord
100
AcDbBlockTableRecord
  2
*Model_Space
340
22
  0
BLOCK_RECORD
  5
1B
330
1
100
AcDbSymbolTableRecord
100
AcDbBlockTableRecord
  2
*Paper_Space
340
1E
  0
BLOCK_RECORD
  5
23
330
1
100
AcDbSymbolTableRecord
100
AcDbBlockTableRecord
  2
*Paper_Space0
340
26
  0
BLOCK_RECORD
  5
207
330
1
100
AcDbSymbolTableRecord
100
AcDbBlockTableRecord
  2
_D
340
0
  0
BLOCK_RECORD
  5
213
330
1
100
AcDbSymbolTableRecord
100
AcDbBlockTableRecord
  2
_D_1
340
0
  0
BLOCK_RECORD
  5
21C
330
1
100
AcDbSymbolTableRecord
100
AcDbBlockTableRecord
  2
_D_2
340
0
  0
BLOCK_RECORD
  5
228
330
1
100
AcDbSymbolTableRecord
100
AcDbBlockTableRecord
  2
_D_3
340
0
  0
BLOCK_RECORD
  5
232
330
1
100
AcDbSymbolTableRecord
100
AcDbBlockTableRecord
  2
_D_4
340
0
  0
BLOCK_RECORD
  5
23C
330
1
100
AcDbSymbolTableRecord
100
AcDbBlockTableRecord
  2
_D_5
340
0
  0
BLOCK_RECORD
  5
246
330
1
100
AcDbSymbolTableRecord
100
AcDbBlockTableRecord
  2
_D_6
340
0
  0
BLOCK_RECORD
  5
250
330
1
100
AcDbSymbolTableRecord
100
AcDbBlockTableRecord
  2
_D_7
340
0
  0
BLOCK_RECORD
  5
25A
330
1
100
AcDbSymbolTableRecord
100
AcDbBlockTableRecord
  2
_D_8
340
0
  0
BLOCK_RECORD
  5
264
330
1
100
AcDbSymbolTableRecord
100
AcDbBlockTableRecord
  2
_D_9
340
0
  0
ENDTAB
  0
ENDSEC
  0
SECTION
  2
BLOCKS
  0
BLOCK
  5
20
330
1F
100
AcDbEntity
  8
0
100
AcDbBlockBegin
  2
*Model_Space
 70
     0
 10
0.0
 20
0.0
 30
0.0
  3
*Model_Space
  1

  0
ENDBLK
  5
21
330
1F
100
AcDbEntity
  8
0
100
AcDbBlockEnd
  0
BLOCK
  5
1C
330
1B
100
AcDbEntity
 67
     1
  8
0
100
AcDbBlockBegin
  2
*Paper_Space
 70
     0
 10
0.0
 20
0.0
 30
0.0
  3
*Paper_Space
  1

  0
ENDBLK
  5
1D
330
1B
100
AcDbEntity
 67
     1
  8
0
100
AcDbBlockEnd
  0
BLOCK
  5
24
330
23
100
AcDbEntity
  8
0
100
AcDbBlockBegin
  2
*Paper_Space0
 70
     0
 10
0.0
 20
0.0
 30
0.0
  3
*Paper_Space0
  1

  0
ENDBLK
  5
25
330
23
100
AcDbEntity
  8
0
100
AcDbBlockEnd
  0
BLOCK
  5
208
330
207
100
AcDbEntity
  8
0
100
AcDbBlockBegin
  2
_D
 70
     0
 10
0.0
 20
0.0
 30
0.0
  3
_D
  1

  0
SOLID
  5
20A
330
207
100
AcDbEntity
  8
VERMASSUNG
100
AcDbTrace
 10
242.4891904977
 20
100.049684229
 30
0.0
 11
242.9391904977
 21
103.049684229
 31
0.0
 12
242.0391904977
 22
103.049684229
 32
0.0
 13
242.0391904977
 23
103.049684229
 33
0.0
  0
SOLID
  5
20B
330
207
100
AcDbEntity
  8
VERMASSUNG
100
AcDbTrace
 10
242.4891904977
 20
133.049684229
 30
0.0
 11
242.0391904977
 21
130.049684229
 31
0.0
 12
242.9391904977
 22
130.049684229
 32
0.0
 13
242.9391904977
 23
130.049684229
 33
0.0
  0
LINE
  5
20C
330
207
100
AcDbEntity
  8
VERMASSUNG
100
AcDbLine
 10
206.7763166791
 20
100.049684229
 30
0.0
 11
243.4891904977
 21
100.049684229
 31
0.0
  0
LINE
  5
20D
330
207
100
AcDbEntity
  8
VERMASSUNG
100
AcDbLine
 10
206.7763166791
 20
133.049684229
 30
0.0
 11
243.4891904977
 21
133.049684229
 31
0.0
  0
LINE
  5
20E
330
207
100
AcDbEntity
  8
VERMASSUNG
100
AcDbLine
 10
242.4891904977
 20
100.049684229
 30
0.0
 11
242.4891904977
 21
133.049684229
 31
0.0
  0
MTEXT
  5
20F
330
207
100
AcDbEntity
  8
VERMASSUNG
100
AcDbMText
 10
239.9110551928
 20
113.3446842718
 30
0.0
 40
2.0
 41
0.0
 71
     1
 72
     1
  1
%%c
  7
SLDTEXTSTYLE0
 11
6.123233995736766E-17
 21
1.0
 31
0.0
 73
     1
 44
1.0
  0
MTEXT
  5
210
330
207
100
AcDbEntity
  8
VERMASSUNG
100
AcDbMText
 10
239.7110552415
 20
116.9546842861
 30
0.0
 40
2.0
 41
0.0
 71
     1
 72
     1
  1
33
  7
SLDTEXTSTYLE0
 11
6.123233995736766E-17
 21
1.0
 31
0.0
 73
     1
 44
1.0
  0
ENDBLK
  5
209
330
207
100
AcDbEntity
  8
0
100
AcDbBlockEnd
  0
BLOCK
  5
214
330
213
100
AcDbEntity
  8
0
100
AcDbBlockBegin
  2
_D_1
 70
     0
 10
0.0
 20
0.0
 30
0.0
  3
_D_1
  1

  0
SOLID
  5
216
330
213
100
AcDbEntity
  8
VERMASSUNG
100
AcDbTrace
 10
230.3354489765
 20
126.549684229
 30
0.0
 11
229.8854489765
 21
123.549684229
 31
0.0
 12
230.7854489765
 22
123.549684229
 32
0.0
 13
230.7854489765
 23
123.549684229
 33
0.0
  0
LINE
  5
217
330
213
100
AcDbEntity
  8
VERMASSUNG
100
AcDbLine
 10
203.2763166791
 20
126.549684229
 30
0.0
 11
231.3354489765
 21
126.549684229
 31
0.0
  0
LINE
  5
218
330
213
100
AcDbEntity
  8
VERMASSUNG
100
AcDbLine
 10
230.3354489765
 20
126.549684229
 30
0.0
 11
230.3354489765
 21
113.3446842718
 31
0.0
  0
MTEXT
  5
219
330
213
100
AcDbEntity
  8
VERMASSUNG
100
AcDbMText
 10
227.7573136715
 20
113.3446842718
 30
0.0
 40
2.0
 41
0.0
 71
     1
 72
     1
  1
%%c
  7
SLDTEXTSTYLE0
 11
-5.267838178243384E-15
 21
1.0
 31
0.0
 73
     1
 44
1.0
  0
MTEXT
  5
21A
330
213
100
AcDbEntity
  8
VERMASSUNG
100
AcDbMText
 10
227.5573137203
 20
116.9546842861
 30
0.0
 40
2.0
 41
0.0
 71
     1
 72
     1
  1
20
  7
SLDTEXTSTYLE0
 11
-5.267838178243384E-15
 21
1.0
 31
0.0
 73
     1
 44
1.0
  0
ENDBLK
  5
215
330
213
100
AcDbEntity
  8
0
100
AcDbBlockEnd
  0
BLOCK
  5
21D
330
21C
100
AcDbEntity
  8
0
100
AcDbBlockBegin
  2
_D_2
 70
     0
 10
0.0
 20
0.0
 30
0.0
  3
_D_2
  1

  0
SOLID
  5
21F
330
21C
100
AcDbEntity
  8
VERMASSUNG
100
AcDbTrace
 10
255.390349443
 20
137.049684229
 30
0.0
 11
254.940349443
 21
134.049684229
 31
0.0
 12
255.840349443
 22
134.049684229
 32
0.0
 13
255.840349443
 23
134.049684229
 33
0.0
  0
SOLID
  5
220
330
21C
100
AcDbEntity
  8
VERMASSUNG
100
AcDbTrace
 10
255.390349443
 20
96.049684229
 30
0.0
 11
255.840349443
 21
99.049684229
 31
0.0
 12
254.940349443
 22
99.049684229
 32
0.0
 13
254.940349443
 23
99.049684229
 33
0.0
  0
LINE
  5
221
330
21C
100
AcDbEntity
  8
VERMASSUNG
100
AcDbLine
 10
155.9514977344
 20
137.049684229
 30
0.0
 11
256.390349443
 21
137.049684229
 31
0.0
  0
LINE
  5
222
330
21C
100
AcDbEntity
  8
VERMASSUNG
100
AcDbLine
 10
155.9514977344
 20
96.049684229
 30
0.0
 11
256.390349443
 21
96.049684229
 31
0.0
  0
LINE
  5
223
330
21C
100
AcDbEntity
  8
VERMASSUNG
100
AcDbLine
 10
255.390349443
 20
137.049684229
 30
0.0
 11
255.390349443
 21
96.049684229
 31
0.0
  0
MTEXT
  5
224
330
21C
100
AcDbEntity
  8
VERMASSUNG
100
AcDbMText
 10
252.8122141381
 20
113.4446841019
 30
0.0
 40
2.0
 41
0.0
 71
     1
 72
     1
  1
%%c
  7
SLDTEXTSTYLE0
 11
-5.267838178243384E-15
 21
1.0
 31
0.0
 73
     1
 44
1.0
  0
MTEXT
  5
225
330
21C
100
AcDbEntity
  8
VERMASSUNG
100
AcDbMText
 10
252.6122141868
 20
117.0546841162
 30
0.0
 40
2.0
 41
0.0
 71
     1
 72
     1
  1
41
  7
SLDTEXTSTYLE0
 11
-5.267838178243384E-15
 21
1.0
 31
0.0
 73
     1
 44
1.0
  0
ENDBLK
  5
21E
330
21C
100
AcDbEntity
  8
0
100
AcDbBlockEnd
  0
BLOCK
  5
229
330
228
100
AcDbEntity
  8
0
100
AcDbBlockBegin
  2
_D_3
 70
     0
 10
0.0
 20
0.0
 30
0.0
  3
_D_3
  1

  0
SOLID
  5
22B
330
228
100
AcDbEntity
  8
VERMASSUNG
100
AcDbTrace
 10
206.7763166791
 20
81.4093490104
 30
0.0
 11
203.7763166791
 21
81.8593490104
 31
0.0
 12
203.7763166791
 22
80.9593490104
 32
0.0
 13
203.7763166791
 23
80.9593490104
 33
0.0
  0
SOLID
  5
22C
330
228
100
AcDbEntity
  8
VERMASSUNG
100
AcDbTrace
 10
155.9514977344
 20
81.4093490104
 30
0.0
 11
158.9514977344
 21
80.9593490104
 31
0.0
 12
158.9514977344
 22
81.8593490104
 32
0.0
 13
158.9514977344
 23
81.8593490104
 33
0.0
  0
LINE
  5
22D
330
228
100
AcDbEntity
  8
VERMASSUNG
100
AcDbLine
 10
206.7763166791
 20
101.8984652123
 30
0.0
 11
206.7763166791
 21
80.4093490104
 31
0.0
  0
LINE
  5
22E
330
228
100
AcDbEntity
  8
VERMASSUNG
100
AcDbLine
 10
155.9514977344
 20
96.049684229
 30
0.0
 11
155.9514977344
 21
80.4093490104
 31
0.0
  0
LINE
  5
22F
330
228
100
AcDbEntity
  8
VERMASSUNG
100
AcDbLine
 10
206.7763166791
 20
81.4093490104
 30
0.0
 11
155.9514977344
 21
81.4093490104
 31
0.0
  0
MTEXT
  5
230
330
228
100
AcDbEntity
  8
VERMASSUNG
100
AcDbMText
 10
178.9639073256
 20
83.9874846063
 30
0.0
 40
2.0
 41
0.0
 71
     1
 72
     1
  1
50.8
  7
SLDTEXTSTYLE0
 73
     1
 44
1.0
  0
ENDBLK
  5
22A
330
228
100
AcDbEntity
  8
0
100
AcDbBlockEnd
  0
BLOCK
  5
233
330
232
100
AcDbEntity
  8
0
100
AcDbBlockBegin
  2
_D_4
 70
     0
 10
0.0
 20
0.0
 30
0.0
  3
_D_4
  1

  0
SOLID
  5
235
330
232
100
AcDbEntity
  8
VERMASSUNG
100
AcDbTrace
 10
144.7763166791
 20
72.6704219657
 30
0.0
 11
147.7763166791
 21
72.2204219657
 31
0.0
 12
147.7763166791
 22
73.1204219657
 32
0.0
 13
147.7763166791
 23
73.1204219657
 33
0.0
  0
SOLID
  5
236
330
232
100
AcDbEntity
  8
VERMASSUNG
100
AcDbTrace
 10
206.7763166791
 20
72.6704219657
 30
0.0
 11
203.7763166791
 21
73.1204219657
 31
0.0
 12
203.7763166791
 22
72.2204219657
 32
0.0
 13
203.7763166791
 23
72.2204219657
 33
0.0
  0
LINE
  5
237
330
232
100
AcDbEntity
  8
VERMASSUNG
100
AcDbLine
 10
144.7763166791
 20
85.074684229
 30
0.0
 11
144.7763166791
 21
71.6704219657
 31
0.0
  0
LINE
  5
238
330
232
100
AcDbEntity
  8
VERMASSUNG
100
AcDbLine
 10
206.7763166791
 20
101.8984652123
 30
0.0
 11
206.7763166791
 21
71.6704219657
 31
0.0
  0
LINE
  5
239
330
232
100
AcDbEntity
  8
VERMASSUNG
100
AcDbLine
 10
144.7763166791
 20
72.6704219657
 30
0.0
 11
206.7763166791
 21
72.6704219657
 31
0.0
  0
MTEXT
  5
23A
330
232
100
AcDbEntity
  8
VERMASSUNG
100
AcDbMText
 10
174.376316729
 20
75.2485575616
 30
0.0
 40
2.0
 41
0.0
 71
     1
 72
     1
  1
62
  7
SLDTEXTSTYLE0
 73
     1
 44
1.0
  0
ENDBLK
  5
234
330
232
100
AcDbEntity
  8
0
100
AcDbBlockEnd
  0
BLOCK
  5
23D
330
23C
100
AcDbEntity
  8
0
100
AcDbBlockBegin
  2
_D_5
 70
     0
 10
0.0
 20
0.0
 30
0.0
  3
_D_5
  1

  0
SOLID
  5
23F
330
23C
100
AcDbEntity
  8
VERMASSUNG
100
AcDbTrace
 10
126.7763166791
 20
159.3676100128
 30
0.0
 11
129.7763166791
 21
158.9176100128
 31
0.0
 12
129.7763166791
 22
159.8176100128
 32
0.0
 13
129.7763166791
 23
159.8176100128
 33
0.0
  0
SOLID
  5
240
330
23C
100
AcDbEntity
  8
VERMASSUNG
100
AcDbTrace
 10
206.7763166791
 20
159.3676100128
 30
0.0
 11
203.7763166791
 21
159.8176100128
 31
0.0
 12
203.7763166791
 22
158.9176100128
 32
0.0
 13
203.7763166791
 23
158.9176100128
 33
0.0
  0
LINE
  5
241
330
23C
100
AcDbEntity
  8
VERMASSUNG
100
AcDbLine
 10
126.7763166791
 20
147.824684229
 30
0.0
 11
126.7763166791
 21
160.3676100128
 31
0.0
  0
LINE
  5
242
330
23C
100
AcDbEntity
  8
VERMASSUNG
100
AcDbLine
 10
206.7763166791
 20
131.2009032457
 30
0.0
 11
206.7763166791
 21
160.3676100128
 31
0.0
  0
LINE
  5
243
330
23C
100
AcDbEntity
  8
VERMASSUNG
100
AcDbLine
 10
126.7763166791
 20
159.3676100128
 30
0.0
 11
206.7763166791
 21
159.3676100128
 31
0.0
  0
MTEXT
  5
244
330
23C
100
AcDbEntity
  8
VERMASSUNG
100
AcDbMText
 10
165.376316729
 20
161.9457456088
 30
0.0
 40
2.0
 41
0.0
 71
     1
 72
     1
  1
80
  7
SLDTEXTSTYLE0
 73
     1
 44
1.0
  0
ENDBLK
  5
23E
330
23C
100
AcDbEntity
  8
0
100
AcDbBlockEnd
  0
BLOCK
  5
247
330
246
100
AcDbEntity
  8
0
100
AcDbBlockBegin
  2
_D_6
 70
     0
 10
0.0
 20
0.0
 30
0.0
  3
_D_6
  1

  0
SOLID
  5
249
330
246
100
AcDbEntity
  8
VERMASSUNG
100
AcDbTrace
 10
86.8263166791
 20
166.340398711
 30
0.0
 11
89.8263166791
 21
165.890398711
 31
0.0
 12
89.8263166791
 22
166.790398711
 32
0.0
 13
89.8263166791
 23
166.790398711
 33
0.0
  0
SOLID
  5
24A
330
246
100
AcDbEntity
  8
VERMASSUNG
100
AcDbTrace
 10
206.7763166791
 20
166.340398711
 30
0.0
 11
203.7763166791
 21
166.790398711
 31
0.0
 12
203.7763166791
 22
165.890398711
 32
0.0
 13
203.7763166791
 23
165.890398711
 33
0.0
  0
LINE
  5
24B
330
246
100
AcDbEntity
  8
VERMASSUNG
100
AcDbLine
 10
86.8263166791
 20
138.7527789528
 30
0.0
 11
86.8263166791
 21
167.340398711
 31
0.0
  0
LINE
  5
24C
330
246
100
AcDbEntity
  8
VERMASSUNG
100
AcDbLine
 10
206.7763166791
 20
131.2009032457
 30
0.0
 11
206.7763166791
 21
167.340398711
 31
0.0
  0
LINE
  5
24D
330
246
100
AcDbEntity
  8
VERMASSUNG
100
AcDbLine
 10
86.8263166791
 20
166.340398711
 30
0.0
 11
206.7763166791
 21
166.340398711
 31
0.0
  0
MTEXT
  5
24E
330
246
100
AcDbEntity
  8
VERMASSUNG
100
AcDbMText
 10
143.401316634
 20
168.918534307
 30
0.0
 40
2.0
 41
0.0
 71
     1
 72
     1
  1
119.95
  7
SLDTEXTSTYLE0
 73
     1
 44
1.0
  0
ENDBLK
  5
248
330
246
100
AcDbEntity
  8
0
100
AcDbBlockEnd
  0
BLOCK
  5
251
330
250
100
AcDbEntity
  8
0
100
AcDbBlockBegin
  2
_D_7
 70
     0
 10
0.0
 20
0.0
 30
0.0
  3
_D_7
  1

  0
SOLID
  5
253
330
250
100
AcDbEntity
  8
VERMASSUNG
100
AcDbTrace
 10
155.2763166791
 20
152.0826068953
 30
0.0
 11
158.2763166791
 21
151.6326068953
 31
0.0
 12
158.2763166791
 22
152.5326068953
 32
0.0
 13
158.2763166791
 23
152.5326068953
 33
0.0
  0
SOLID
  5
254
330
250
100
AcDbEntity
  8
VERMASSUNG
100
AcDbTrace
 10
206.7763166791
 20
152.0826068953
 30
0.0
 11
203.7763166791
 21
152.5326068953
 31
0.0
 12
203.7763166791
 22
151.6326068953
 32
0.0
 13
203.7763166791
 23
151.6326068953
 33
0.0
  0
LINE
  5
255
330
250
100
AcDbEntity
  8
VERMASSUNG
100
AcDbLine
 10
155.2763166791
 20
126.449684229
 30
0.0
 11
155.2763166791
 21
153.0826068953
 31
0.0
  0
LINE
  5
256
330
250
100
AcDbEntity
  8
VERMASSUNG
100
AcDbLine
 10
206.7763166791
 20
131.2009032457
 30
0.0
 11
206.7763166791
 21
153.0826068953
 31
0.0
  0
LINE
  5
257
330
250
100
AcDbEntity
  8
VERMASSUNG
100
AcDbLine
 10
155.2763166791
 20
152.0826068953
 30
0.0
 11
206.7763166791
 21
152.0826068953
 31
0.0
  0
MTEXT
  5
258
330
250
100
AcDbEntity
  8
VERMASSUNG
100
AcDbMText
 10
178.826316691
 20
154.6607424913
 30
0.0
 40
2.0
 41
0.0
 71
     1
 72
     1
  1
51.5
  7
SLDTEXTSTYLE0
 73
     1
 44
1.0
  0
ENDBLK
  5
252
330
250
100
AcDbEntity
  8
0
100
AcDbBlockEnd
  0
BLOCK
  5
25B
330
25A
100
AcDbEntity
  8
0
100
AcDbBlockBegin
  2
_D_8
 70
     0
 10
0.0
 20
0.0
 30
0.0
  3
_D_8
  1

  0
SOLID
  5
25D
330
25A
100
AcDbEntity
  8
VERMASSUNG
100
AcDbTrace
 10
165.7763166791
 20
144.6935323047
 30
0.0
 11
168.7763166791
 21
144.2435323047
 31
0.0
 12
168.7763166791
 22
145.1435323047
 32
0.0
 13
168.7763166791
 23
145.1435323047
 33
0.0
  0
SOLID
  5
25E
330
25A
100
AcDbEntity
  8
VERMASSUNG
100
AcDbTrace
 10
206.7763166791
 20
144.6935323047
 30
0.0
 11
203.7763166791
 21
145.1435323047
 31
0.0
 12
203.7763166791
 22
144.2435323047
 32
0.0
 13
203.7763166791
 23
144.2435323047
 33
0.0
  0
LINE
  5
25F
330
25A
100
AcDbEntity
  8
VERMASSUNG
100
AcDbLine
 10
165.7763166791
 20
126.549684229
 30
0.0
 11
165.7763166791
 21
145.6935323047
 31
0.0
  0
LINE
  5
260
330
25A
100
AcDbEntity
  8
VERMASSUNG
100
AcDbLine
 10
206.7763166791
 20
131.2009032457
 30
0.0
 11
206.7763166791
 21
145.6935323047
 31
0.0
  0
LINE
  5
261
330
25A
100
AcDbEntity
  8
VERMASSUNG
100
AcDbLine
 10
165.7763166791
 20
144.6935323047
 30
0.0
 11
206.7763166791
 21
144.6935323047
 31
0.0
  0
MTEXT
  5
262
330
25A
100
AcDbEntity
  8
VERMASSUNG
100
AcDbMText
 10
184.9763166756
 20
147.2716679007
 30
0.0
 40
2.0
 41
0.0
 71
     1
 72
     1
  1
41
  7
SLDTEXTSTYLE0
 73
     1
 44
1.0
  0
ENDBLK
  5
25C
330
25A
100
AcDbEntity
  8
0
100
AcDbBlockEnd
  0
BLOCK
  5
265
330
264
100
AcDbEntity
  8
0
100
AcDbBlockBegin
  2
_D_9
 70
     0
 10
0.0
 20
0.0
 30
0.0
  3
_D_9
  1

  0
SOLID
  5
267
330
264
100
AcDbEntity
  8
VERMASSUNG
100
AcDbTrace
 10
70.8262916791
 20
85.074684229
 30
0.0
 11
71.2762916791
 21
88.074684229
 31
0.0
 12
70.3762916791
 22
88.074684229
 32
0.0
 13
70.3762916791
 23
88.074684229
 33
0.0
  0
SOLID
  5
268
330
264
100
AcDbEntity
  8
VERMASSUNG
100
AcDbTrace
 10
70.8262916791
 20
148.024684229
 30
0.0
 11
70.3762916791
 21
145.024684229
 31
0.0
 12
71.2762916791
 22
145.024684229
 32
0.0
 13
71.2762916791
 23
145.024684229
 33
0.0
  0
LINE
  5
269
330
264
100
AcDbEntity
  8
VERMASSUNG
100
AcDbLine
 10
126.9763166791
 20
85.074684229
 30
0.0
 11
69.8262916791
 21
85.074684229
 31
0.0
  0
LINE
  5
26A
330
264
100
AcDbEntity
  8
VERMASSUNG
100
AcDbLine
 10
126.9763166791
 20
148.024684229
 30
0.0
 11
69.8262916791
 21
148.024684229
 31
0.0
  0
LINE
  5
26B
330
264
100
AcDbEntity
  8
VERMASSUNG
100
AcDbLine
 10
70.8262916791
 20
85.074684229
 30
0.0
 11
70.8262916791
 21
148.024684229
 31
0.0
  0
MTEXT
  5
26C
330
264
100
AcDbEntity
  8
VERMASSUNG
100
AcDbMText
 10
68.2481560832
 20
110.2496846865
 30
0.0
 40
2.0
 41
0.0
 71
     1
 72
     1
  1
KM
  7
SLDTEXTSTYLE0
 11
1.171455364582524E-15
 21
1.0
 31
0.0
 73
     1
 44
1.0
  0
MTEXT
  5
26D
330
264
100
AcDbEntity
  8
VERMASSUNG
100
AcDbMText
 10
68.2481560832
 20
113.6496844987
 30
0.0
 40
2.0
 41
0.0
 71
     1
 72
     1
  1
63
  7
SLDTEXTSTYLE0
 11
1.171455364582524E-15
 21
1.0
 31
0.0
 73
     1
 44
1.0
  0
MTEXT
  5
26E
330
264
100
AcDbEntity
  8
VERMASSUNG
100
AcDbMText
 10
68.2481560832
 20
117.6371843989
 30
0.0
 40
2.0
 41
0.0
 71
     1
 72
     1
  1
XMZ
  7
SLDTEXTSTYLE0
 11
1.171455364582524E-15
 21
1.0
 31
0.0
 73
     1
 44
1.0
  0
ENDBLK
  5
266
330
264
100
AcDbEntity
  8
0
100
AcDbBlockEnd
  0
ENDSEC
  0
SECTION
  2
ENTITIES
  0
MTEXT
  5
78
330
1F
100
AcDbEntity
  8
KOPF_DÜNN
100
AcDbMText
 10
13.8892156294
 20
23.8442973028
 30
0.0
 40
3.0
 41
0.0
 71
     1
 72
     1
  1
KY6.S20.K01.080
  7
SLDTEXTSTYLE0
 73
     1
 44
1.0
  0
MTEXT
  5
79
330
1F
100
AcDbEntity
  8
VERMASSUNG
100
AcDbMText
 10
13.9329988022
 20
28.8834360957
 30
0.0
 40
3.0
 41
0.0
 71
     1
 72
     1
  1
Schrumpffutter_Heat shrink chuck
  7
SLDTEXTSTYLE0
 73
     1
 44
1.0
  0
MTEXT
  5
7A
330
1F
100
AcDbEntity
  8
VERMASSUNG
100
AcDbMText
 10
98.8601118557
 20
13.8365368761
 30
0.0
 40
2.0
 41
0.0
 71
     1
 72
     1
  1
Datum: 16.04.2018
  7
SLDTEXTSTYLE0
 73
     1
 44
1.0
  0
MTEXT
  5
7B
330
1F
100
AcDbEntity
  8
VERMASSUNG
100
AcDbMText
 10
13.933048693
 20
18.0482802738
 30
0.0
 40
2.0
 41
0.0
 71
     1
 72
     1
  1
KM63 XMZ / Ø20
  7
SLDTEXTSTYLE0
 73
     1
 44
1.0
  0
MTEXT
  5
7C
330
1F
100
AcDbEntity
  8
VERMASSUNG
100
AcDbMText
 10
13.9808475933
 20
13.9090974274
 30
0.0
 40
2.0
 41
0.0
 71
     1
 72
     1
  1
Gewicht: 1033g
  7
SLDTEXTSTYLE0
 73
     1
 44
1.0
  0
CIRCLE
  5
7D
330
1F
100
AcDbEntity
  8
0
  6
Continuous
 62
     7
370
    25
100
AcDbCircle
 10
373.3033443983
 20
116.549684229
 30
0.0
 40
1.850000000000038
  0
SPLINE
  5
7E
330
1F
100
AcDbEntity
  8
0
  6
Continuous
 62
     7
370
    25
100
AcDbSpline
210
0.0
220
0.0
230
1.0
 70
     8
 71
     3
 72
    11
 73
     7
 74
     0
 42
0.000000001
 43
0.00000001
 40
0.0
 40
0.0
 40
0.0
 40
0.0
 40
0.1234465259519315
 40
0.4778176435134816
 40
0.8145811687410559
 40
1.0
 40
1.0
 40
1.0
 40
1.0
 10
374.9347598474232
 20
117.1314778325
 30
0.0
 10
374.9227051622896
 20
117.0656210147787
 30
0.0
 10
374.8760457589617
 20
116.8107126711845
 30
0.0
 10
374.7882168438624
 20
116.3308878329333
 30
0.0
 10
374.6923511470105
 20
115.8071572844342
 30
0.0
 10
374.6410990272792
 20
115.5271574710283
 30
0.0
 10
374.6229001968858
 20
115.427733893212
 30
0.0
  0
SPLINE
  5
7F
330
1F
100
AcDbEntity
  8
0
  6
Continuous
 62
     7
370
    25
100
AcDbSpline
210
0.0
220
0.0
230
1.0
 70
     8
 71
     3
 72
    11
 73
     7
 74
     0
 42
0.000000001
 43
0.00000001
 40
0.0
 40
0.0
 40
0.0
 40
0.0
 40
0.2164553630256291
 40
0.44031129974246
 40
0.7519005966669099
 40
0.9999999999999999
 40
0.9999999999999999
 40
0.9999999999999999
 40
0.9999999999999999
 10
373.6152040488777
 20
118.2534281683006
 30
0.0
 10
373.7055949120076
 20
118.1765734839627
 30
0.0
 10
373.8894670871909
 20
118.0202364661171
 30
0.0
 10
374.2306845499522
 20
117.7301167256049
 30
0.0
 10
374.5967015717515
 20
117.4189113868054
 30
0.0
 10
374.8309305682927
 20
117.2197585251768
 30
0.0
 10
374.9347598474232
 20
117.1314778325
 30
0.0
  0
SPLINE
  5
80
330
1F
100
AcDbEntity
  8
0
  6
Continuous
 62
     7
370
    25
100
AcDbSpline
210
0.0
220
0.0
230
1.0
 70
     8
 71
     3
 72
    11
 73
     7
 74
     0
 42
0.000000001
 43
0.00000001
 40
0.0
 40
0.0
 40
0.0
 40
0.0
 40
0.2164553824056041
 40
0.4403113289369913
 40
0.7519006281756485
 40
1.0
 40
1.0
 40
1.0
 40
1.0
 10
371.9837885997948
 20
117.6716345648133
 30
0.0
 10
372.0955421636068
 20
117.7114879866527
 30
0.0
 10
372.3228701221385
 20
117.7925574104653
 30
0.0
 10
372.7447299145304
 20
117.9430006158014
 30
0.0
 10
373.1972501705835
 20
118.1043779418892
 30
0.0
 10
373.4868360994269
 20
118.2076497393321
 30
0.0
 10
373.6152040488777
 20
118.2534281683006
 30
0.0
  0
SPLINE
  5
81
330
1F
100
AcDbEntity
  8
0
  6
Continuous
 62
     7
370
    25
100
AcDbSpline
210
0.0
220
0.0
230
1.0
 70
     8
 71
     3
 72
    11
 73
     7
 74
     0
 42
0.000000001
 43
0.00000001
 40
0.0
 40
0.0
 40
0.0
 40
0.0
 40
0.1854188419013375
 40
0.5221823827026723
 40
0.8765534846712125
 40
1.0
 40
1.0
 40
1.0
 40
1.0
 10
371.6719289492574
 20
115.9678906255253
 30
0.0
 10
371.6901278271671
 20
116.0673142018523
 30
0.0
 10
371.7413800803467
 20
116.3473140090503
 30
0.0
 10
371.8372456494882
 20
116.871044585894
 30
0.0
 10
371.9250747275671
 20
117.3508693906862
 30
0.0
 10
371.9717339593553
 20
117.6057777460939
 30
0.0
 10
371.9837885997948
 20
117.6716345648133
 30
0.0
  0
SPLINE
  5
82
330
1F
100
AcDbEntity
  8
0
  6
Continuous
 62
     7
370
    25
100
AcDbSpline
210
0.0
220
0.0
230
1.0
 70
     8
 71
     3
 72
    11
 73
     7
 74
     0
 42
0.000000001
 43
0.00000001
 40
0.0
 40
0.0
 40
0.0
 40
0.0
 40
0.2164553630256291
 40
0.44031129974246
 40
0.7519005966669099
 40
0.9999999999999999
 40
0.9999999999999999
 40
0.9999999999999999
 40
0.9999999999999999
 10
372.9914847478029
 20
114.8459402897247
 30
0.0
 10
372.9010938846729
 20
114.9227949740626
 30
0.0
 10
372.7172217094896
 20
115.0791319919082
 30
0.0
 10
372.3760042467284
 20
115.3692517324204
 30
0.0
 10
372.009987224929
 20
115.6804570712198
 30
0.0
 10
371.7757582283878
 20
115.8796099328485
 30
0.0
 10
371.6719289492574
 20
115.9678906255253
 30
0.0
  0
SPLINE
  5
83
330
1F
100
AcDbEntity
  8
0
  6
Continuous
 62
     7
370
    25
100
AcDbSpline
210
0.0
220
0.0
230
1.0
 70
     8
 71
     3
 72
    11
 73
     7
 74
     0
 42
0.000000001
 43
0.00000001
 40
0.0
 40
0.0
 40
0.0
 40
0.0
 40
0.2164553824056041
 40
0.4403113289369913
 40
0.7519006281756485
 40
1.0
 40
1.0
 40
1.0
 40
1.0
 10
374.6229001968858
 20
115.427733893212
 30
0.0
 10
374.5111466330738
 20
115.3878804713726
 30
0.0
 10
374.283818674542
 20
115.3068110475599
 30
0.0
 10
373.8619588821502
 20
115.1563678422239
 30
0.0
 10
373.409438626097
 20
114.9949905161361
 30
0.0
 10
373.1198526972537
 20
114.8917187186932
 30
0.0
 10
372.9914847478029
 20
114.8459402897247
 30
0.0
  0
ARC
  5
84
330
1F
100
AcDbEntity
  8
0
  6
Continuous
 62
     7
370
    25
100
AcDbCircle
 10
373.3033443983
 20
116.549684229
 30
0.0
 40
1.500000000000034
100
AcDbArc
 50
109.6271967899
 51
169.6271967899
  0
ARC
  5
85
330
1F
100
AcDbEntity
  8
0
  6
Continuous
 62
     7
370
    25
100
AcDbCircle
 10
373.3033443983
 20
116.549684229
 30
0.0
 40
1.500000000000044
100
AcDbArc
 50
169.6271967899
 51
229.6271967899
  0
ARC
  5
86
330
1F
100
AcDbEntity
  8
0
  6
Continuous
 62
     7
370
    25
100
AcDbCircle
 10
373.3033443983
 20
116.549684229
 30
0.0
 40
1.500000000000044
100
AcDbArc
 50
229.6271967899
 51
289.6271967899
  0
ARC
  5
87
330
1F
100
AcDbEntity
  8
0
  6
Continuous
 62
     7
370
    25
100
AcDbCircle
 10
373.3033443983
 20
116.549684229
 30
0.0
 40
1.500000000000007
100
AcDbArc
 50
49.6271967899
 51
109.6271967899
  0
ARC
  5
88
330
1F
100
AcDbEntity
  8
0
  6
Continuous
 62
     7
370
    25
100
AcDbCircle
 10
373.3033443983
 20
116.549684229
 30
0.0
 40
1.49999999999997
100
AcDbArc
 50
349.6271967899
 51
49.6271967899
  0
ARC
  5
89
330
1F
100
AcDbEntity
  8
0
  6
Continuous
 62
     7
370
    25
100
AcDbCircle
 10
373.3033443983
 20
116.549684229
 30
0.0
 40
1.499999999999988
100
AcDbArc
 50
289.6271967899
 51
349.6271967899
  0
SPLINE
  5
8A
330
1F
100
AcDbEntity
  8
0
  6
Continuous
 62
     7
370
    25
100
AcDbSpline
210
0.0
220
0.0
230
1.0
 70
     8
 71
     3
 72
     8
 73
     4
 74
     0
 42
0.000000001
 43
0.00000001
 40
0.0
 40
0.0
 40
0.0
 40
0.0
 40
1.0
 40
1.0
 40
1.0
 40
1.0
 10
362.9142042887074
 20
112.1796833570478
 30
0.0
 10
362.8453659185206
 20
112.1165886837289
 30
0.0
 10
362.7769345580645
 20
112.052866305598
 30
0.0
 10
362.7089182833998
 20
111.9885208733246
 30
0.0
  0
SPLINE
  5
8B
330
1F
100
AcDbEntity
  8
0
  6
Continuous
 62
     7
370
    25
100
AcDbSpline
210
0.0
220
0.0
230
1.0
 70
     8
 71
     3
 72
     8
 73
     4
 74
     0
 42
0.000000001
 43
0.00000001
 40
0.0
 40
0.0
 40
0.0
 40
0.0
 40
1.0
 40
1.0
 40
1.0
 40
1.0
 10
363.1722315299681
 20
112.0104215271204
 30
0.0
 10
363.0855280958077
 20
112.0665824467897
 30
0.0
 10
362.9995300483238
 20
112.1230071831156
 30
0.0
 10
362.9142042887074
 20
112.1796833570478
 30
0.0
  0
ARC
  5
8C
330
1F
100
AcDbEntity
  8
0
  6
Continuous
 62
     7
370
    25
100
AcDbCircle
 10
373.3033443983
 20
116.549684229
 30
0.0
 40
11.10154736189901
100
AcDbArc
 50
204.1348482805
 51
335.8651517195
  0
SPLINE
  5
8D
330
1F
100
AcDbEntity
  8
0
  6
Continuous
 62
     7
370
    25
100
AcDbSpline
210
0.0
220
0.0
230
1.0
 70
     8
 71
     3
 72
     8
 73
     4
 74
     0
 42
0.000000001
 43
0.00000001
 40
0.0
 40
0.0
 40
0.0
 40
0.0
 40
1.0
 40
1.0
 40
1.0
 40
1.0
 10
383.6924845079732
 20
112.1796833570478
 30
0.0
 10
383.6071587483567
 20
112.1230071831156
 30
0.0
 10
383.5211607008728
 20
112.0665824467897
 30
0.0
 10
383.4344572667125
 20
112.0104215271204
 30
0.0
  0
SPLINE
  5
8E
330
1F
100
AcDbEntity
  8
0
  6
Continuous
 62
     7
370
    25
100
AcDbSpline
210
0.0
220
0.0
230
1.0
 70
     8
 71
     3
 72
     8
 73
     4
 74
     0
 42
0.000000001
 43
0.00000001
 40
0.0
 40
0.0
 40
0.0
 40
0.0
 40
1.0
 40
1.0
 40
1.0
 40
1.0
 10
383.8977705132807
 20
111.9885208733246
 30
0.0
 10
383.829754238616
 20
112.052866305598
 30
0.0
 10
383.7613228781599
 20
112.1165886837289
 30
0.0
 10
383.6924845079732
 20
112.1796833570478
 30
0.0
  0
ARC
  5
8F
330
1F
100
AcDbEntity
  8
0
  6
Continuous
 62
     7
370
    25
100
AcDbCircle
 10
373.3033443983
 20
116.549684229
 30
0.0
 40
11.53456006379121
100
AcDbArc
 50
203.2930774359
 51
336.7074733161
  0
ARC
  5
90
330
1F
100
AcDbEntity
  8
0
  6
Continuous
 62
     7
370
    25
100
AcDbCircle
 10
373.3033443983
 20
116.549684229
 30
0.0
 40
11.10154736189899
100
AcDbArc
 50
29.4783538465
 51
150.5216461535
  0
SPLINE
  5
91
330
1F
100
AcDbEntity
  8
0
  6
Continuous
 62
     7
370
    25
100
AcDbSpline
210
0.0
220
0.0
230
1.0
 70
     8
 71
     3
 72
     8
 73
     4
 74
     0
 42
0.000000001
 43
0.00000001
 40
0.0
 40
0.0
 40
0.0
 40
0.0
 40
1.0
 40
1.0
 40
1.0
 40
1.0
 10
363.3274113490158
 20
121.8279834784018
 30
0.0
 10
363.4303072628397
 20
121.8899520874928
 30
0.0
 10
363.5341469323946
 20
121.9515307396334
 30
0.0
 10
363.6389848206212
 20
122.0126969309049
 30
0.0
  0
SPLINE
  5
92
330
1F
100
AcDbEntity
  8
0
  6
Continuous
 62
     7
370
    25
100
AcDbSpline
210
0.0
220
0.0
230
1.0
 70
     8
 71
     3
 72
     8
 73
     4
 74
     0
 42
0.000000001
 43
0.00000001
 40
0.0
 40
0.0
 40
0.0
 40
0.0
 40
1.0
 40
1.0
 40
1.0
 40
1.0
 10
363.138874967902
 20
122.0021732992714
 30
0.0
 10
363.2014432762716
 20
121.9437228301639
 30
0.0
 10
363.2642898696354
 20
121.8856588196308
 30
0.0
 10
363.3274113490183
 20
121.8279834783996
 30
0.0
  0
ARC
  5
93
330
1F
100
AcDbEntity
  8
0
  6
Continuous
 62
     7
370
    25
100
AcDbCircle
 10
373.3033443983
 20
116.549684229
 30
0.0
 40
11.53456006379123
100
AcDbArc
 50
28.2102805322
 51
151.7902347364
  0
SPLINE
  5
94
330
1F
100
AcDbEntity
  8
0
  6
Continuous
 62
     7
370
    25
100
AcDbSpline
210
0.0
220
0.0
230
1.0
 70
     8
 71
     3
 72
     8
 73
     4
 74
     0
 42
0.000000001
 43
0.00000001
 40
0.0
 40
0.0
 40
0.0
 40
0.0
 40
1.0
 40
1.0
 40
1.0
 40
1.0
 10
383.2792774476626
 20
121.8279834783999
 30
0.0
 10
383.3423989270453
 20
121.885658819631
 30
0.0
 10
383.405245520409
 20
121.943722830164
 30
0.0
 10
383.4678138287786
 20
122.0021732992714
 30
0.0
  0
SPLINE
  5
95
330
1F
100
AcDbEntity
  8
0
  6
Continuous
 62
     7
370
    25
100
AcDbSpline
210
0.0
220
0.0
230
1.0
 70
     8
 71
     3
 72
     8
 73
     4
 74
     0
 42
0.000000001
 43
0.00000001
 40
0.0
 40
0.0
 40
0.0
 40
0.0
 40
1.0
 40
1.0
 40
1.0
 40
1.0
 10
382.9677039760593
 20
122.0126969309049
 30
0.0
 10
383.0725418642855
 20
121.9515307396336
 30
0.0
 10
383.17638153384
 20
121.8899520874932
 30
0.0
 10
383.2792774476636
 20
121.8279834784025
 30
0.0
  0
SPLINE
  5
96
330
1F
100
AcDbEntity
  8
0
  6
Continuous
 62
     7
370
    25
100
AcDbSpline
210
0.0
220
0.0
230
1.0
 70
     8
 71
     3
 72
     8
 73
     4
 74
     0
 42
0.000000001
 43
0.00000001
 40
0.0000004028655191
 40
0.0000004028655191
 40
0.0000004028655191
 40
0.0000004028655191
 40
0.0015137684369673
 40
0.0015137684369673
 40
0.0015137684369673
 40
0.0015137684369673
 10
364.8797497411982
 20
112.2274088252282
 30
0.0
 10
364.6730782536469
 20
112.1551148835135
 30
0.0
 10
364.4664592851063
 20
112.0827833975567
 30
0.0
 10
364.2598829102977
 20
112.0104215271204
 30
0.0
  0
LINE
  5
97
330
1F
100
AcDbEntity
  8
0
  6
Continuous
 62
     7
370
    25
100
AcDbLine
 10
364.2598827552
 20
112.0104217256
 30
0.0
 11
363.1722311672
 21
112.0104217256
 31
0.0
  0
LINE
  5
98
330
1F
100
AcDbEntity
  8
0
  6
Continuous
 62
     7
370
    25
100
AcDbLine
 10
363.1372590732
 20
112.4434341031
 30
0.0
 11
362.9142045226
 21
112.17968355
 31
0.0
  0
LINE
  5
99
330
1F
100
AcDbEntity
  8
0
  6
Continuous
 62
     7
370
    25
100
AcDbLine
 10
364.9048692729
 20
112.4434341031
 30
0.0
 11
363.1374742087
 21
112.4434341031
 31
0.0
  0
LINE
  5
9A
330
1F
100
AcDbEntity
  8
0
  6
Continuous
 62
     7
370
    25
100
AcDbLine
 10
364.9155263971
 20
112.2858533922
 30
0.0
 11
364.9048692729
 21
112.4434341031
 31
0.0
  0
SPLINE
  5
9B
330
1F
100
AcDbEntity
  8
0
  6
Continuous
 62
     7
370
    25
100
AcDbSpline
210
0.0
220
0.0
230
1.0
 70
     8
 71
     3
 72
     8
 73
     4
 74
     0
 42
0.000000001
 43
0.00000001
 40
0.0006523765358269
 40
0.0006523765358269
 40
0.0006523765358269
 40
0.0006523765358269
 40
0.0009043636494504
 40
0.0009043636494504
 40
0.0009043636494504
 40
0.0009043636494504
 10
364.9166266162331
 20
112.2876469226768
 30
0.0
 10
364.9043096217156
 20
112.2675713416947
 30
0.0
 10
364.8920174243116
 20
112.2474919531722
 30
0.0
 10
364.8797497411982
 20
112.2274088252282
 30
0.0
  0
LINE
  5
9C
330
1F
100
AcDbEntity
  8
0
  6
Continuous
 62
     7
370
    25
100
AcDbLine
 10
363.3274109285
 20
121.827983326
 30
0.0
 11
363.5358195003
 21
121.5796843457
 31
0.0
  0
LINE
  5
9D
330
1F
100
AcDbEntity
  8
0
  6
Continuous
 62
     7
370
    25
100
AcDbLine
 10
364.7860334437
 20
122.0126967232
 30
0.0
 11
363.6389848958
 21
122.0126967232
 31
0.0
  0
SPLINE
  5
9E
330
1F
100
AcDbEntity
  8
0
  6
Continuous
 62
     7
370
    25
100
AcDbSpline
210
0.0
220
0.0
230
1.0
 70
     8
 71
     3
 72
     8
 73
     4
 74
     0
 42
0.000000001
 43
0.00000001
 40
0.0000004089325119
 40
0.0000004089325119
 40
0.0000004089325119
 40
0.0000004089325119
 40
0.0015399868451459
 40
0.0015399868451459
 40
0.0015399868451459
 40
0.0015399868451459
 10
364.7860329809114
 20
122.0126969309049
 30
0.0
 10
364.9977942397059
 20
121.9402420482514
 30
0.0
 10
365.209714562896
 20
121.8679031782229
 30
0.0
 10
365.4218325461104
 20
121.7957096327971
 30
0.0
  0
LINE
  5
9F
330
1F
100
AcDbEntity
  8
0
  6
Continuous
 62
     7
370
    25
100
AcDbLine
 10
365.4218324642
 20
121.7957097391
 30
0.0
 11
365.4299852621
 21
121.7804970505
 31
0.0
  0
LINE
  5
A0
330
1F
100
AcDbEntity
  8
0
  6
Continuous
 62
     7
370
    25
100
AcDbLine
 10
365.4276150461
 20
121.5796843457
 30
0.0
 11
365.4299861934
 21
121.7804975162
 31
0.0
  0
LINE
  5
A1
330
1F
100
AcDbEntity
  8
0
  6
Continuous
 62
     7
370
    25
100
AcDbLine
 10
365.4276150461
 20
121.5796843457
 30
0.0
 11
363.5358195003
 21
121.5796843457
 31
0.0
  0
LINE
  5
A2
330
1F
100
AcDbEntity
  8
0
  6
Continuous
 62
     7
370
    25
100
AcDbLine
 10
383.6924842741
 20
112.17968355
 30
0.0
 11
383.4694297235
 21
112.4434341031
 31
0.0
  0
LINE
  5
A3
330
1F
100
AcDbEntity
  8
0
  6
Continuous
 62
     7
370
    25
100
AcDbLine
 10
383.4344576295
 20
112.0104217256
 30
0.0
 11
382.3468060415
 21
112.0104217256
 31
0.0
  0
SPLINE
  5
A4
330
1F
100
AcDbEntity
  8
0
  6
Continuous
 62
     7
370
    25
100
AcDbSpline
210
0.0
220
0.0
230
1.0
 70
     8
 71
     3
 72
     8
 73
     4
 74
     0
 42
0.000000001
 43
0.00000001
 40
0.0000004024872366
 40
0.0000004024872366
 40
0.0000004024872366
 40
0.0000004024872366
 40
0.0015137680586847
 40
0.0015137680586847
 40
0.0015137680586847
 40
0.0015137680586847
 10
382.3468058863829
 20
112.0104215271204
 30
0.0
 10
382.1402295115743
 20
112.0827833975567
 30
0.0
 10
381.9336105430336
 20
112.1551148835135
 30
0.0
 10
381.7269390554823
 20
112.2274088252282
 30
0.0
  0
SPLINE
  5
A5
330
1F
100
AcDbEntity
  8
0
  6
Continuous
 62
     7
370
    25
100
AcDbSpline
210
0.0
220
0.0
230
1.0
 70
     8
 71
     3
 72
     8
 73
     4
 74
     0
 42
0.000000001
 43
0.00000001
 40
0.0000002414707367
 40
0.0000002414707367
 40
0.0000002414707367
 40
0.0000002414707367
 40
0.0002447240690309
 40
0.0002447240690309
 40
0.0002447240690309
 40
0.0002447240690309
 10
381.7269390554823
 20
112.2274088252282
 30
0.0
 10
381.7150367201272
 20
112.2468938511748
 30
0.0
 10
381.7031113089155
 20
112.2663753569991
 30
0.0
 10
381.6911625636207
 20
112.285853280511
 30
0.0
  0
LINE
  5
A6
330
1F
100
AcDbEntity
  8
0
  6
Continuous
 62
     7
370
    25
100
AcDbLine
 10
381.7018195238
 20
112.4434341031
 30
0.0
 11
381.6911623996
 21
112.2858533922
 31
0.0
  0
LINE
  5
A7
330
1F
100
AcDbEntity
  8
0
  6
Continuous
 62
     7
370
    25
100
AcDbLine
 10
383.4694297235
 20
112.4434341031
 30
0.0
 11
381.6967112195
 21
112.4434341031
 31
0.0
  0
SPLINE
  5
A8
330
1F
100
AcDbEntity
  8
0
  6
Continuous
 62
     7
370
    25
100
AcDbSpline
210
0.0
220
0.0
230
1.0
 70
     8
 71
     3
 72
     8
 73
     4
 74
     0
 42
0.000000001
 43
0.00000001
 40
0.000000410413179
 40
0.000000410413179
 40
0.000000410413179
 40
0.000000410413179
 40
0.0015399883258131
 40
0.0015399883258131
 40
0.0015399883258131
 40
0.0015399883258131
 10
381.1848562505702
 20
121.7957096327971
 30
0.0
 10
381.3969742337845
 20
121.8679031782229
 30
0.0
 10
381.6088945569747
 20
121.9402420482514
 30
0.0
 10
381.8206558157691
 20
122.0126969309049
 30
0.0
  0
LINE
  5
A9
330
1F
100
AcDbEntity
  8
0
  6
Continuous
 62
     7
370
    25
100
AcDbLine
 10
382.9677039008
 20
122.0126967232
 30
0.0
 11
381.820655353
 21
122.0126967232
 31
0.0
  0
LINE
  5
AA
330
1F
100
AcDbEntity
  8
0
  6
Continuous
 62
     7
370
    25
100
AcDbLine
 10
383.0708692964
 20
121.5796843457
 30
0.0
 11
383.2792778682
 21
121.827983326
 31
0.0
  0
LINE
  5
AB
330
1F
100
AcDbEntity
  8
0
  6
Continuous
 62
     7
370
    25
100
AcDbLine
 10
383.0706793066
 20
121.5796843457
 30
0.0
 11
381.1790737506
 21
121.5796843457
 31
0.0
  0
LINE
  5
AC
330
1F
100
AcDbEntity
  8
0
  6
Continuous
 62
     7
370
    25
100
AcDbLine
 10
381.1767026033
 20
121.7804970505
 30
0.0
 11
381.1790737506
 21
121.5796843457
 31
0.0
  0
LINE
  5
AD
330
1F
100
AcDbEntity
  8
0
  6
Continuous
 62
     7
370
    25
100
AcDbLine
 10
381.1767035346
 20
121.7804970505
 30
0.0
 11
381.1848563324
 21
121.7957097391
 31
0.0
  0
ARC
  5
AE
330
1F
100
AcDbEntity
  8
0
  6
Continuous
 62
     7
370
    25
100
AcDbCircle
 10
373.3033443983
 20
116.549684229
 30
0.0
 40
10.11875000000003
100
AcDbArc
 50
32.6761561262
 51
147.3238438738
  0
ARC
  5
AF
330
1F
100
AcDbEntity
  8
0
  6
Continuous
 62
     7
370
    25
100
AcDbCircle
 10
373.3033443983
 20
116.549684229
 30
0.0
 40
10.11875
100
AcDbArc
 50
206.6538426687
 51
333.3461573313
  0
ARC
  5
B0
330
1F
100
AcDbEntity
  8
0
  6
Continuous
 62
     7
370
    25
100
AcDbCircle
 10
373.3033443983
 20
116.549684229
 30
0.0
 40
9.467788105676684
100
AcDbArc
 50
33.6481949792
 51
146.3518050208
  0
ARC
  5
B1
330
1F
100
AcDbEntity
  8
0
  6
Continuous
 62
     7
370
    25
100
AcDbCircle
 10
373.3033443983
 20
116.549684229
 30
0.0
 40
9.467788105676709
100
AcDbArc
 50
207.1630537883
 51
332.8369462117
  0
SPLINE
  5
B2
330
1F
100
AcDbEntity
  8
0
  6
Continuous
 62
     7
370
    25
100
AcDbSpline
210
0.0
220
0.0
230
1.0
 70
     8
 71
     3
 72
     8
 73
     4
 74
     0
 42
0.000000001
 43
0.00000001
 40
0.0
 40
0.0
 40
0.0
 40
0.0
 40
1.0
 40
1.0
 40
1.0
 40
1.0
 10
362.7089182832098
 20
111.9885208734359
 30
0.0
 10
362.6556754582681
 20
111.9890445996738
 30
0.0
 10
362.6023801726524
 20
111.9898426929362
 30
0.0
 10
362.549034667163
 20
111.990915740861
 30
0.0
  0
LINE
  5
B3
330
1F
100
AcDbEntity
  8
0
  6
Continuous
 62
     7
370
    25
100
AcDbLine
 10
362.9771218817
 20
112.4434341031
 30
0.0
 11
363.1372590732
 21
112.4434341031
 31
0.0
  0
LINE
  5
B4
330
1F
100
AcDbEntity
  8
0
  6
Continuous
 62
     7
370
    25
100
AcDbLine
 10
383.4694297235
 20
112.4434341031
 30
0.0
 11
383.6295669149
 21
112.4434341031
 31
0.0
  0
SPLINE
  5
B5
330
1F
100
AcDbEntity
  8
0
  6
Continuous
 62
     7
370
    25
100
AcDbSpline
210
0.0
220
0.0
230
1.0
 70
     8
 71
     3
 72
     8
 73
     4
 74
     0
 42
0.000000001
 43
0.00000001
 40
0.0
 40
0.0
 40
0.0
 40
0.0
 40
1.0
 40
1.0
 40
1.0
 40
1.0
 10
384.0576541295175
 20
111.990915740861
 30
0.0
 10
384.0043086240281
 20
111.9898426929362
 30
0.0
 10
383.9510133384123
 20
111.9890445996738
 30
0.0
 10
383.8977705134707
 20
111.9885208734359
 30
0.0
  0
LINE
  5
B6
330
1F
100
AcDbEntity
  8
0
  6
Continuous
 62
     7
370
    25
100
AcDbLine
 10
363.5358195003
 20
121.5796843457
 30
0.0
 11
363.4124024953
 21
121.5796843457
 31
0.0
  0
SPLINE
  5
B7
330
1F
100
AcDbEntity
  8
0
  6
Continuous
 62
     7
370
    25
100
AcDbSpline
210
0.0
220
0.0
230
1.0
 70
     8
 71
     3
 72
     8
 73
     4
 74
     0
 42
0.000000001
 43
0.00000001
 40
0.0
 40
0.0
 40
0.0
 40
0.0
 40
1.0
 40
1.0
 40
1.0
 40
1.0
 10
363.0156534736605
 20
122.000129745949
 30
0.0
 10
363.0567689007023
 20
122.000998683589
 30
0.0
 10
363.0978431953134
 20
122.0016797211718
 30
0.0
 10
363.1388749678025
 20
122.0021732992333
 30
0.0
  0
SPLINE
  5
B8
330
1F
100
AcDbEntity
  8
0
  6
Continuous
 62
     7
370
    25
100
AcDbSpline
210
0.0
220
0.0
230
1.0
 70
     8
 71
     3
 72
     8
 73
     4
 74
     0
 42
0.000000001
 43
0.00000001
 40
0.0
 40
0.0
 40
0.0
 40
0.0
 40
1.0
 40
1.0
 40
1.0
 40
1.0
 10
383.467813828878
 20
122.0021732992333
 30
0.0
 10
383.5088456013671
 20
122.0016797211719
 30
0.0
 10
383.5499198959782
 20
122.000998683589
 30
0.0
 10
383.59103532302
 20
122.000129745949
 30
0.0
  0
LINE
  5
B9
330
1F
100
AcDbEntity
  8
0
  6
Continuous
 62
     7
370
    25
100
AcDbLine
 10
383.1942863013
 20
121.5796843457
 30
0.0
 11
383.0708692964
 21
121.5796843457
 31
0.0
  0
SPLINE
  5
BA
330
1F
100
AcDbEntity
  8
0
  6
Continuous
 62
     7
370
    25
100
AcDbSpline
210
0.0
220
0.0
230
1.0
 70
     8
 71
     3
 72
     9
 73
     5
 74
     0
 42
0.000000001
 43
0.00000001
 40
0.0
 40
0.0
 40
0.0
 40
0.0
 40
0.4897878789203994
 40
0.9999999999999999
 40
0.9999999999999999
 40
0.9999999999999999
 40
0.9999999999999999
 10
380.4089339629917
 20
121.7728010952504
 30
0.0
 10
380.5352890452129
 20
121.7741198210037
 30
0.0
 10
380.7932682391851
 20
121.77681226361
 30
0.0
 10
381.0471629874745
 20
121.779252341446
 30
0.0
 10
381.1767031655303
 20
121.7804972987343
 30
0.0
  0
ARC
  5
BB
330
1F
100
AcDbEntity
  8
0
  6
Continuous
 62
     7
370
    25
100
AcDbCircle
 10
373.3033443983
 20
116.549684229
 30
0.0
 40
8.818750000000074
100
AcDbArc
 50
36.3185452201
 51
143.6814533294
  0
SPLINE
  5
BC
330
1F
100
AcDbEntity
  8
0
  6
Continuous
 62
     7
370
    25
100
AcDbSpline
210
0.0
220
0.0
230
1.0
 70
     8
 71
     3
 72
     9
 73
     5
 74
     0
 42
0.000000001
 43
0.00000001
 40
0.0
 40
0.0
 40
0.0
 40
0.0
 40
0.5102121239851395
 40
0.9999999999999999
 40
0.9999999999999999
 40
0.9999999999999999
 40
0.9999999999999999
 10
365.4299855300255
 20
121.7804974873386
 30
0.0
 10
365.5595257478764
 20
121.7792525286477
 30
0.0
 10
365.8134205727171
 20
121.7768124480767
 30
0.0
 10
366.0713998457268
 20
121.7741200023835
 30
0.0
 10
366.1977549659101
 20
121.7728012751262
 30
0.0
  0
SPLINE
  5
BD
330
1F
100
AcDbEntity
  8
0
  6
Continuous
 62
     7
370
    25
100
AcDbSpline
210
0.0
220
0.0
230
1.0
 70
     8
 71
     3
 72
     8
 73
     4
 74
     0
 42
0.000000001
 43
0.00000001
 40
0.0
 40
0.0
 40
0.0
 40
0.0
 40
1.0
 40
1.0
 40
1.0
 40
1.0
 10
366.1977547122355
 20
121.772800805849
 30
0.0
 10
366.1899936542901
 20
121.7622425706499
 30
0.0
 10
366.1822561291942
 20
121.7516670371236
 30
0.0
 10
366.1745422138247
 20
121.7410743103441
 30
0.0
  0
SPLINE
  5
BE
330
1F
100
AcDbEntity
  8
0
  6
Continuous
 62
     7
370
    25
100
AcDbSpline
210
0.0
220
0.0
230
1.0
 70
     8
 71
     3
 72
     8
 73
     4
 74
     0
 42
0.000000001
 43
0.00000001
 40
0.0
 40
0.0
 40
0.0
 40
0.0
 40
1.0
 40
1.0
 40
1.0
 40
1.0
 10
366.0029843810617
 20
121.5796845678809
 30
0.0
 10
366.0602447880961
 20
121.6335927448687
 30
0.0
 10
366.1174311792059
 20
121.6873896699518
 30
0.0
 10
366.1745422138247
 20
121.7410743103441
 30
0.0
  0
LINE
  5
BF
330
1F
100
AcDbEntity
  8
0
  6
Continuous
 62
     7
370
    25
100
AcDbLine
 10
366.0029852014
 20
121.5796843457
 30
0.0
 11
365.4276150461
 21
121.5796843457
 31
0.0
  0
SPLINE
  5
C0
330
1F
100
AcDbEntity
  8
0
  6
Continuous
 62
     7
370
    25
100
AcDbSpline
210
0.0
220
0.0
230
1.0
 70
     8
 71
     3
 72
     8
 73
     4
 74
     0
 42
0.000000001
 43
0.00000001
 40
0.0
 40
0.0
 40
0.0
 40
0.0
 40
1.0
 40
1.0
 40
1.0
 40
1.0
 10
380.4322620146369
 20
121.7409157960453
 30
0.0
 10
380.4245099019362
 20
121.7515614727178
 30
0.0
 10
380.416733943269
 20
121.762189784912
 30
0.0
 10
380.4089342166656
 20
121.7728006259745
 30
0.0
  0
LINE
  5
C1
330
1F
100
AcDbEntity
  8
0
  6
Continuous
 62
     7
370
    25
100
AcDbLine
 10
381.1790737506
 20
121.5796843457
 30
0.0
 11
380.60367519
 21
121.5796843457
 31
0.0
  0
SPLINE
  5
C2
330
1F
100
AcDbEntity
  8
0
  6
Continuous
 62
     7
370
    25
100
AcDbSpline
210
0.0
220
0.0
230
1.0
 70
     8
 71
     3
 72
     8
 73
     4
 74
     0
 42
0.000000001
 43
0.00000001
 40
0.0
 40
0.0
 40
0.0
 40
0.0
 40
1.0
 40
1.0
 40
1.0
 40
1.0
 10
380.4322620146369
 20
121.7409157960453
 30
0.0
 10
380.489325142323
 20
121.6872838456295
 30
0.0
 10
380.5464635220532
 20
121.6335397592645
 30
0.0
 10
380.6036758155271
 20
121.5796845680143
 30
0.0
  0
ARC
  5
C3
330
1F
100
AcDbEntity
  8
0
  6
Continuous
 62
     7
370
    25
100
AcDbCircle
 10
373.3033443983
 20
116.549684229
 30
0.0
 40
8.818750000000044
100
AcDbArc
 50
209.2047569376
 51
330.7952430624
  0
SPLINE
  5
C4
330
1F
100
AcDbEntity
  8
0
  6
Continuous
 62
     7
370
    25
100
AcDbSpline
210
0.0
220
0.0
230
1.0
 70
    24
 71
     3
 72
     8
 73
     4
 74
     0
 42
0.000000001
 43
0.00000001
 40
0.0
 40
0.0
 40
0.0
 40
0.0
 40
0.000136040218399
 40
0.000136040218399
 40
0.000136040218399
 40
0.000136040218399
 10
381.0444797951845
 20
112.2901437981615
 30
0.0
 10
381.0300407955004
 20
112.2757047984774
 30
0.0
 10
381.0155703431382
 20
112.2612343461151
 30
0.0
 10
381.0010687445868
 20
112.2467327475637
 30
0.0
  0
SPLINE
  5
C5
330
1F
100
AcDbEntity
  8
0
  6
Continuous
 62
     7
370
    25
100
AcDbSpline
210
0.0
220
0.0
230
1.0
 70
     8
 71
     3
 72
     9
 73
     5
 74
     0
 42
0.000000001
 43
0.00000001
 40
0.0
 40
0.0
 40
0.0
 40
0.0
 40
0.5086448740973026
 40
1.0
 40
1.0
 40
1.0
 40
1.0
 10
381.6911625239409
 20
112.2858531923763
 30
0.0
 10
381.581996474943
 20
112.2865470412213
 30
0.0
 10
381.3673751260272
 20
112.2879111537492
 30
0.0
 10
381.1508638133498
 20
112.2894079736871
 30
0.0
 10
381.0444798700499
 20
112.2901434438361
 30
0.0
  0
SPLINE
  5
C6
330
1F
100
AcDbEntity
  8
0
  6
Continuous
 62
     7
370
    25
100
AcDbSpline
210
0.0
220
0.0
230
1.0
 70
     8
 71
     3
 72
     9
 73
     5
 74
     0
 42
0.000000001
 43
0.00000001
 40
0.0
 40
0.0
 40
0.0
 40
0.0
 40
0.4913551252639757
 40
1.0
 40
1.0
 40
1.0
 40
1.0
 10
365.5622089570951
 20
112.2901434133715
 30
0.0
 10
365.455825005703
 20
112.2894079430427
 30
0.0
 10
365.2393136762754
 20
112.287911122737
 30
0.0
 10
365.0246923109086
 20
112.2865470098827
 30
0.0
 10
364.915526253406
 20
112.2858531608708
 30
0.0
  0
SPLINE
  5
C7
330
1F
100
AcDbEntity
  8
0
  6
Continuous
 62
     7
370
    25
100
AcDbSpline
210
0.0
220
0.0
230
1.0
 70
    24
 71
     3
 72
     8
 73
     4
 74
     0
 42
0.000000001
 43
0.00000001
 40
0.0
 40
0.0
 40
0.0
 40
0.0
 40
0.0001360401227241
 40
0.0001360401227241
 40
0.0001360401227241
 40
0.0001360401227241
 10
365.6056200520937
 20
112.2467327475637
 30
0.0
 10
365.5911184637411
 20
112.2612343359164
 30
0.0
 10
365.5766480215339
 20
112.2757047781236
 30
0.0
 10
365.5622090319604
 20
112.290143767697
 30
0.0
  0
LINE
  5
C8
330
1F
100
AcDbEntity
  8
0
  6
Continuous
 62
     7
370
    25
100
AcDbLine
 10
364.9048692729
 20
112.4434341031
 30
0.0
 11
365.4089187454
 21
112.4434341031
 31
0.0
  0
SPLINE
  5
C9
330
1F
100
AcDbEntity
  8
0
  6
Continuous
 62
     7
370
    25
100
AcDbSpline
210
0.0
220
0.0
230
1.0
 70
     8
 71
     3
 72
     8
 73
     4
 74
     0
 42
0.000000001
 43
0.00000001
 40
0.0
 40
0.0
 40
0.0
 40
0.0
 40
1.0
 40
1.0
 40
1.0
 40
1.0
 10
365.5622092317925
 20
112.2901435681099
 30
0.0
 10
365.511140469188
 20
112.3411860598539
 30
0.0
 10
365.460043509552
 20
112.3922830318799
 30
0.0
 10
365.4089186680364
 20
112.4434341316211
 30
0.0
  0
SPLINE
  5
CA
330
1F
100
AcDbEntity
  8
0
  6
Continuous
 62
     7
370
    25
100
AcDbSpline
210
0.0
220
0.0
230
1.0
 70
     8
 71
     3
 72
     8
 73
     4
 74
     0
 42
0.000000001
 43
0.00000001
 40
0.0
 40
0.0
 40
0.0
 40
0.0
 40
1.0
 40
1.0
 40
1.0
 40
1.0
 10
381.1977701286442
 20
112.4434341316211
 30
0.0
 10
381.146645297299
 20
112.3922830420658
 30
0.0
 10
381.095548347818
 20
112.3411860801948
 30
0.0
 10
381.0444795953526
 20
112.2901435985744
 30
0.0
  0
LINE
  5
CB
330
1F
100
AcDbEntity
  8
0
  6
Continuous
 62
     7
370
    25
100
AcDbLine
 10
381.1977700513
 20
112.4434341031
 30
0.0
 11
381.7018195238
 21
112.4434341031
 31
0.0
  0
CIRCLE
  5
CC
330
1F
100
AcDbEntity
  8
0
  6
Continuous
 62
     7
370
    25
100
AcDbCircle
 10
373.3033443983
 20
116.549684229
 30
0.0
 40
12.47086902276419
  0
SPLINE
  5
CD
330
1F
100
AcDbEntity
  8
0
  6
Continuous
 62
     7
370
    25
100
AcDbSpline
210
0.0
220
0.0
230
1.0
 70
     8
 71
     3
 72
    23
 73
    19
 74
     0
 42
0.000000001
 43
0.00000001
 40
0.0
 40
0.0
 40
0.0
 40
0.0
 40
0.0521036415675031
 40
0.1035646240925967
 40
0.1544751946736949
 40
0.2049306267473421
 40
0.2550287880844035
 40
0.3048696389141012
 40
0.3545546704609132
 40
0.4041862979523234
 40
0.4538672252126086
 40
0.5036997999421611
 40
0.5901870230746071
 40
0.674271637822954
 40
0.7565997087222995
 40
0.8378563983721267
 40
0.9187511781367398
 40
1.0
 40
1.0
 40
1.0
 40
1.0
 10
362.4640922516828
 20
121.0400949417625
 30
0.0
 10
362.4773866066325
 20
121.0692628349241
 30
0.0
 10
362.5038113407106
 20
121.1272388573281
 30
0.0
 10
362.5430223469345
 20
121.2101381583401
 30
0.0
 10
362.5814643017402
 20
121.2893201393576
 30
0.0
 10
362.6190518832069
 20
121.3645749561596
 30
0.0
 10
362.6557077695144
 20
121.4359946104173
 30
0.0
 10
362.6913576335731
 20
121.5035912191989
 30
0.0
 10
362.7259313803343
 20
121.5673975406634
 30
0.0
 10
362.7593630742903
 20
121.6274410827326
 30
0.0
 10
362.7915899515152
 20
121.6837477794593
 30
0.0
 10
362.8300913884049
 20
121.749152761283
 30
0.0
 10
362.8727528691182
 20
121.8187138391191
 30
0.0
 10
362.9162459112413
 20
121.8854733357835
 30
0.0
 10
362.9526584080693
 20
121.9371973838813
 30
0.0
 10
362.9815592145465
 20
121.9736456959332
 30
0.0
 10
363.0034766706448
 20
121.9962430928164
 30
0.0
 10
363.011588635138
 20
121.9988323103777
 30
0.0
 10
363.0156534736605
 20
122.000129745949
 30
0.0
  0
SPLINE
  5
CE
330
1F
100
AcDbEntity
  8
0
  6
Continuous
 62
     7
370
    25
100
AcDbSpline
210
0.0
220
0.0
230
1.0
 70
     8
 71
     3
 72
     8
 73
     4
 74
     0
 42
0.000000001
 43
0.00000001
 40
0.0
 40
0.0
 40
0.0
 40
0.0
 40
1.0
 40
1.0
 40
1.0
 40
1.0
 10
362.34345431182
 20
121.0378845843527
 30
0.0
 10
362.383643325413
 20
121.0386148945703
 30
0.0
 10
362.423805627503
 20
121.0391954203997
 30
0.0
 10
362.4639403379785
 20
121.0396263853495
 30
0.0
  0
SPLINE
  5
CF
330
1F
100
AcDbEntity
  8
0
  6
Continuous
 62
     7
370
    25
100
AcDbSpline
210
0.0
220
0.0
230
1.0
 70
     8
 71
     3
 72
    18
 73
    14
 74
     0
 42
0.000000001
 43
0.00000001
 40
0.0
 40
0.0
 40
0.0
 40
0.0
 40
0.0923824559411628
 40
0.1844689291573508
 40
0.2764953615950219
 40
0.3686975365494161
 40
0.4613092840003458
 40
0.5545607518442569
 40
0.6486768051537182
 40
0.7438756050146744
 40
0.8403674044302629
 40
0.9203921078121001
 40
1.0
 40
1.0
 40
1.0
 40
1.0
 10
362.3963933006195
 20
121.3047015912346
 30
0.0
 10
362.3982289542721
 20
121.3044932790194
 30
0.0
 10
362.401894380355
 20
121.3040773219972
 30
0.0
 10
362.4046897099743
 20
121.2972728985311
 30
0.0
 10
362.4054920050528
 20
121.2859395198789
 30
0.0
 10
362.4041258680096
 20
121.2696391248523
 30
0.0
 10
362.4006643193807
 20
121.2484878860165
 30
0.0
 10
362.3951230136113
 20
121.2224521849
 30
0.0
 10
362.3875385455423
 20
121.1915278052488
 30
0.0
 10
362.3779615436055
 20
121.1557287738041
 30
0.0
 10
362.3671210675867
 20
121.1174778662729
 30
0.0
 10
362.3556324266478
 20
121.0782596528786
 30
0.0
 10
362.3475324417697
 20
121.0514046760291
 30
0.0
 10
362.3434930241269
 20
121.0380122476587
 30
0.0
  0
LINE
  5
D0
330
1F
100
AcDbEntity
  8
0
  6
Continuous
 62
     7
370
    25
100
AcDbLine
 10
362.3436381291
 20
121.3039537246
 30
0.0
 11
362.3963928964
 21
121.3047015766
 31
0.0
  0
SPLINE
  5
D1
330
1F
100
AcDbEntity
  8
0
  6
Continuous
 62
     7
370
    25
100
AcDbSpline
210
0.0
220
0.0
230
1.0
 70
     8
 71
     3
 72
    25
 73
    21
 74
     0
 42
0.000000001
 43
0.00000001
 40
0.0
 40
0.0
 40
0.0
 40
0.0
 40
0.0280105225426465
 40
0.0559601148860768
 40
0.0839014045043132
 40
0.1118870776786367
 40
0.1399695827588937
 40
0.1682008401739883
 40
0.196631967042422
 40
0.2253130233141467
 40
0.2542927850735845
 40
0.3799486436587335
 40
0.5057850221667067
 40
0.6313085886338298
 40
0.7532068238012468
 40
0.8039473267955921
 40
0.8535894438554446
 40
0.9025339722394071
 40
0.9511970353791085
 40
1.0
 40
1.0
 40
1.0
 40
1.0
 10
361.4326765335666
 20
118.737021971547
 30
0.0
 10
361.4396556034775
 20
118.7743319850537
 30
0.0
 10
361.4535985620003
 20
118.8488708530473
 30
0.0
 10
361.4761204594432
 20
118.9601798985305
 30
0.0
 10
361.4997540715408
 20
119.070842107545
 30
0.0
 10
361.5246036620288
 20
119.1808262404893
 30
0.0
 10
361.550622286515
 20
119.2901213841038
 30
0.0
 10
361.5778036678329
 20
119.398712353306
 30
0.0
 10
361.6061293091655
 20
119.5065830632484
 30
0.0
 10
361.6355880899981
 20
119.6137280089734
 30
0.0
 10
361.6999963779101
 20
119.8379028954853
 30
0.0
 10
361.805098069982
 20
120.1645683095213
 30
0.0
 10
361.9505608307782
 20
120.5505149148411
 30
0.0
 10
362.0898242388879
 20
120.8725947275313
 30
0.0
 10
362.1869725917555
 20
121.068415311563
 30
0.0
 10
362.2472679979817
 20
121.1777627620463
 30
0.0
 10
362.282156580863
 20
121.2356907864617
 30
0.0
 10
362.3100510827908
 20
121.2761447392266
 30
0.0
 10
362.3314161751625
 20
121.3007589546256
 30
0.0
 10
362.3395601227352
 20
121.3028878821333
 30
0.0
 10
362.3436379413802
 20
121.3039538738047
 30
0.0
  0
ARC
  5
D2
330
1F
100
AcDbEntity
  8
0
  6
Continuous
 62
     7
370
    25
100
AcDbCircle
 10
373.3033443983
 20
116.549684229
 30
0.0
 40
12.07050959801147
100
AcDbArc
 50
169.5595567507
 51
190.4404432494
  0
SPLINE
  5
D3
330
1F
100
AcDbEntity
  8
0
  6
Continuous
 62
     7
370
    25
100
AcDbSpline
210
0.0
220
0.0
230
1.0
 70
     8
 71
     3
 72
    26
 73
    22
 74
     0
 42
0.000000001
 43
0.00000001
 40
0.0
 40
0.0
 40
0.0
 40
0.0
 40
0.0241259796963635
 40
0.0482159912272988
 40
0.0723203915124065
 40
0.0964895678710797
 40
0.1207736231963513
 40
0.1452220711242836
 40
0.1698835501657706
 40
0.1948055644472379
 40
0.2200342569517627
 40
0.2456142191611387
 40
0.3690971486901655
 40
0.4940698769485187
 40
0.6192566784762451
 40
0.7454656653603225
 40
0.7971495824713707
 40
0.8481710308405392
 40
0.8988013269235234
 40
0.9493179290492194
 40
1.0
 40
1.0
 40
1.0
 40
1.0
 10
362.3436379413802
 20
111.7954145842206
 30
0.0
 10
362.3417276266398
 20
111.79570147741
 30
0.0
 10
362.3379098451476
 20
111.7962748360748
 30
0.0
 10
362.3299497199667
 20
111.8023335243212
 30
0.0
 10
362.3203706193913
 20
111.812212785052
 30
0.0
 10
362.3090234125226
 20
111.8262938761624
 30
0.0
 10
362.2959672292287
 20
111.8444894241866
 30
0.0
 10
362.2812113260013
 20
111.8668399669253
 30
0.0
 10
362.264784145704
 20
111.8933542026173
 30
0.0
 10
362.2467159909837
 20
111.9240497133306
 30
0.0
 10
362.2270388445608
 20
111.9589508165705
 30
0.0
 10
362.1788394631325
 20
112.0477153516782
 30
0.0
 10
362.0905214236971
 20
112.2249956531271
 30
0.0
 10
361.9514618069304
 20
112.5460815599722
 30
0.0
 10
361.8057891270681
 20
112.9326642118627
 30
0.0
 10
361.6920505320587
 20
113.2863719159926
 30
0.0
 10
361.6123449135121
 20
113.5686256156054
 30
0.0
 10
361.5616953411579
 20
113.7630690463797
 30
0.0
 10
361.5147286712925
 20
113.9603104233138
 30
0.0
 10
361.4711688492882
 20
114.1602134684089
 30
0.0
 10
361.4455212841567
 20
114.2948954081412
 30
0.0
 10
361.4326765335666
 20
114.3623464864783
 30
0.0
  0
LINE
  5
D4
330
1F
100
AcDbEntity
  8
0
  6
Continuous
 62
     7
370
    25
100
AcDbLine
 10
362.3963928964
 20
111.7946668814
 30
0.0
 11
362.3436381291
 21
111.7954147334
 31
0.0
  0
SPLINE
  5
D5
330
1F
100
AcDbEntity
  8
0
  6
Continuous
 62
     7
370
    25
100
AcDbSpline
210
0.0
220
0.0
230
1.0
 70
     8
 71
     3
 72
    14
 73
    10
 74
     0
 42
0.000000001
 43
0.00000001
 40
0.0
 40
0.0
 40
0.0
 40
0.0
 40
0.0789261963172865
 40
0.158232872055133
 40
0.330847539457262
 40
0.5000195457610529
 40
0.6670357883572423
 40
0.8332395193657144
 40
1.0
 40
1.0
 40
1.0
 40
1.0
 10
362.3433964437676
 20
112.0616903440954
 30
0.0
 10
362.3474109903636
 20
112.0483872194577
 30
0.0
 10
362.3554594364757
 20
112.0217168398253
 30
0.0
 10
362.3703601432853
 20
111.9709021005055
 30
0.0
 10
362.3862571248818
 20
111.9138622843186
 30
0.0
 10
362.3993356198796
 20
111.8595590675906
 30
0.0
 10
362.4055682269968
 20
111.8213919248678
 30
0.0
 10
362.4053786471599
 20
111.7979831961909
 30
0.0
 10
362.3993917530291
 20
111.7957735415123
 30
0.0
 10
362.3963933006195
 20
111.7946668667907
 30
0.0
  0
SPLINE
  5
D6
330
1F
100
AcDbEntity
  8
0
  6
Continuous
 62
     7
370
    25
100
AcDbSpline
210
0.0
220
0.0
230
1.0
 70
     8
 71
     3
 72
     8
 73
     4
 74
     0
 42
0.000000001
 43
0.00000001
 40
0.0
 40
0.0
 40
0.0
 40
0.0
 40
1.0
 40
1.0
 40
1.0
 40
1.0
 10
362.490701134992
 20
112.0596292656449
 30
0.0
 10
362.4416332199633
 20
112.0601163188569
 30
0.0
 10
362.3925237824425
 20
112.0608273867317
 30
0.0
 10
362.3433744379172
 20
112.061762879966
 30
0.0
  0
SPLINE
  5
D7
330
1F
100
AcDbEntity
  8
0
  6
Continuous
 62
     7
370
    25
100
AcDbSpline
210
0.0
220
0.0
230
1.0
 70
     8
 71
     3
 72
    13
 73
     9
 74
     0
 42
0.000000001
 43
0.00000001
 40
0.0
 40
0.0
 40
0.0
 40
0.0
 40
0.1667030582307992
 40
0.3329480818053035
 40
0.4990671507274896
 40
0.6653938523718403
 40
0.832261271055009
 40
1.0
 40
1.0
 40
1.0
 40
1.0
 10
362.549034667163
 20
111.990915740861
 30
0.0
 10
362.5471913533261
 20
111.9913328506267
 30
0.0
 10
362.5435097903562
 20
111.9921659241041
 30
0.0
 10
362.5359925365617
 20
111.9981804029306
 30
0.0
 10
362.5270417324452
 20
112.0076751352227
 30
0.0
 10
362.5164914440223
 20
112.0210847423324
 30
0.0
 10
362.5045182585052
 20
112.038002645956
 30
0.0
 10
362.4953118508988
 20
112.0524153810954
 30
0.0
 10
362.49069666041
 20
112.059640513957
 30
0.0
  0
SPLINE
  5
D8
330
1F
100
AcDbEntity
  8
0
  6
Continuous
 62
     7
370
    25
100
AcDbSpline
210
0.0
220
0.0
230
1.0
 70
     8
 71
     3
 72
    13
 73
     9
 74
     0
 42
0.000000001
 43
0.00000001
 40
0.0
 40
0.0
 40
0.0
 40
0.0
 40
0.1686319999748085
 40
0.3360343310905433
 40
0.502536782590866
 40
0.6684737453788339
 40
0.834182263691515
 40
1.0
 40
1.0
 40
1.0
 40
1.0
 10
384.1159935173886
 20
112.0596439637698
 30
0.0
 10
384.1113562722904
 20
112.0523868037504
 30
0.0
 10
384.1021155970039
 20
112.0379254031081
 30
0.0
 10
384.0901002236369
 20
112.020944706404
 30
0.0
 10
384.0795346698823
 20
112.0075119252245
 30
0.0
 10
384.0705953205893
 20
111.9980324566705
 30
0.0
 10
384.0631144400007
 20
111.9920672309727
 30
0.0
 10
384.0594746327113
 20
111.9912996551883
 30
0.0
 10
384.0576541295175
 20
111.990915740861
 30
0.0
  0
SPLINE
  5
D9
330
1F
100
AcDbEntity
  8
0
  6
Continuous
 62
     7
370
    25
100
AcDbSpline
210
0.0
220
0.0
230
1.0
 70
     8
 71
     3
 72
     8
 73
     4
 74
     0
 42
0.000000001
 43
0.00000001
 40
0.0
 40
0.0
 40
0.0
 40
0.0
 40
1.0
 40
1.0
 40
1.0
 40
1.0
 10
384.2633191293611
 20
112.0617629847125
 30
0.0
 10
384.2141681997528
 20
112.0608274544505
 30
0.0
 10
384.1650571796735
 20
112.0601163639385
 30
0.0
 10
384.1159876847657
 20
112.0596293024405
 30
0.0
  0
SPLINE
  5
DA
330
1F
100
AcDbEntity
  8
0
  6
Continuous
 62
     7
370
    25
100
AcDbSpline
210
0.0
220
0.0
230
1.0
 70
     8
 71
     3
 72
    18
 73
    14
 74
     0
 42
0.000000001
 43
0.00000001
 40
0.0
 40
0.0
 40
0.0
 40
0.0
 40
0.0923325137111192
 40
0.1843692047063016
 40
0.2763458873810836
 40
0.3684982175655623
 40
0.4610598988303626
 40
0.554260954653301
 40
0.6483261285442131
 40
0.74347346365053
 40
0.8399130993119804
 40
0.9201660718299768
 40
1.0
 40
1.0
 40
1.0
 40
1.0
 10
384.2102954960611
 20
111.7946668667907
 30
0.0
 10
384.2084598424086
 20
111.7948751790065
 30
0.0
 10
384.2047944163261
 20
111.7952911360298
 30
0.0
 10
384.2019990867038
 20
111.8020955594871
 30
0.0
 10
384.201196791637
 20
111.8134289381729
 30
0.0
 10
384.2025629286362
 20
111.8297293330733
 30
0.0
 10
384.2060244774302
 20
111.8508805723834
 30
0.0
 10
384.2115657825767
 20
111.876916271711
 30
0.0
 10
384.2191502530039
 20
111.9078406581337
 30
0.0
 10
384.2287272459843
 20
111.9436396638618
 30
0.0
 10
384.2395785930102
 20
111.9819289089755
 30
0.0
 10
384.2510933546421
 20
112.021234533392
 30
0.0
 10
384.2592250634632
 20
112.0481916112857
 30
0.0
 10
384.2632802750709
 20
112.0616348687352
 30
0.0
  0
LINE
  5
DB
330
1F
100
AcDbEntity
  8
0
  6
Continuous
 62
     7
370
    25
100
AcDbLine
 10
384.2630506675
 20
111.7954147334
 30
0.0
 11
384.2102959003
 21
111.7946668814
 31
0.0
  0
SPLINE
  5
DC
330
1F
100
AcDbEntity
  8
0
  6
Continuous
 62
     7
370
    25
100
AcDbSpline
210
0.0
220
0.0
230
1.0
 70
     8
 71
     3
 72
    25
 73
    21
 74
     0
 42
0.000000001
 43
0.00000001
 40
0.0
 40
0.0
 40
0.0
 40
0.0
 40
0.0280105225422753
 40
0.0559601148854256
 40
0.0839014045034749
 40
0.1118870776777086
 40
0.1399695827579646
 40
0.1682008401731476
 40
0.1966319670417595
 40
0.2253130233137476
 40
0.2542927850735311
 40
0.3799486436564626
 40
0.5057850221666382
 40
0.631308588631066
 40
0.7532068238011618
 40
0.8039473267946936
 40
0.8535894438541253
 40
0.9025339722380873
 40
0.9511970353782256
 40
1.0
 40
1.0
 40
1.0
 40
1.0
 10
385.1740122631139
 20
114.3623464864783
 30
0.0
 10
385.1670331932031
 20
114.3250364729721
 30
0.0
 10
385.1530902346805
 20
114.2504976049794
 30
0.0
 10
385.1305683372378
 20
114.1391885594973
 30
0.0
 10
385.1069347251404
 20
114.0285263504836
 30
0.0
 10
385.0820851346525
 20
113.9185422175396
 30
0.0
 10
385.0560665101663
 20
113.8092470739251
 30
0.0
 10
385.0288851288483
 20
113.7006561047226
 30
0.0
 10
385.0005594875157
 20
113.5927853947794
 30
0.0
 10
384.9711007066828
 20
113.4856404490533
 30
0.0
 10
384.9066924187713
 20
113.2614655625429
 30
0.0
 10
384.8015907266994
 20
112.9348001485068
 30
0.0
 10
384.6561279659043
 20
112.5488535431887
 30
0.0
 10
384.5168645577936
 20
112.2267737304961
 30
0.0
 10
384.4197162049264
 20
112.0309531464651
 30
0.0
 10
384.3594207986989
 20
111.9216056959786
 30
0.0
 10
384.3245322158177
 20
111.8636776715634
 30
0.0
 10
384.2966377138898
 20
111.8232237187984
 30
0.0
 10
384.2752726215181
 20
111.7986095033996
 30
0.0
 10
384.2671286739454
 20
111.7964805758919
 30
0.0
 10
384.2630508553003
 20
111.7954145842206
 30
0.0
  0
ARC
  5
DD
330
1F
100
AcDbEntity
  8
0
  6
Continuous
 62
     7
370
    25
100
AcDbCircle
 10
373.3033443983
 20
116.549684229
 30
0.0
 40
12.07050959801135
100
AcDbArc
 50
349.5595567507
 51
10.4404432493
  0
SPLINE
  5
DE
330
1F
100
AcDbEntity
  8
0
  6
Continuous
 62
     7
370
    25
100
AcDbSpline
210
0.0
220
0.0
230
1.0
 70
     8
 71
     3
 72
    26
 73
    22
 74
     0
 42
0.000000001
 43
0.00000001
 40
0.0
 40
0.0
 40
0.0
 40
0.0
 40
0.0241259796962591
 40
0.0482159912271133
 40
0.0723203915121637
 40
0.0964895678708023
 40
0.1207736231960627
 40
0.1452220711240065
 40
0.1698835501655268
 40
0.1948055644470484
 40
0.220034256951649
 40
0.2456142191611191
 40
0.3690971486898426
 40
0.4940698769485092
 40
0.6192566784753767
 40
0.7454656653602836
 40
0.7971495824708205
 40
0.848171030839725
 40
0.8988013269227118
 40
0.9493179290486752
 40
1.0
 40
1.0
 40
1.0
 40
1.0
 10
384.2630508553003
 20
121.3039538738047
 30
0.0
 10
384.2649611700407
 20
121.3036669806153
 30
0.0
 10
384.2687789515329
 20
121.3030936219505
 30
0.0
 10
384.2767390767138
 20
121.2970349337041
 30
0.0
 10
384.2863181772892
 20
121.2871556729732
 30
0.0
 10
384.2976653841579
 20
121.2730745818629
 30
0.0
 10
384.3107215674518
 20
121.2548790338387
 30
0.0
 10
384.3254774706791
 20
121.2325284911
 30
0.0
 10
384.3419046509765
 20
121.2060142554079
 30
0.0
 10
384.3599728056967
 20
121.1753187446946
 30
0.0
 10
384.3796499521197
 20
121.1404176414547
 30
0.0
 10
384.4278493335478
 20
121.0516531063475
 30
0.0
 10
384.5161673729833
 20
120.8743728048986
 30
0.0
 10
384.6552269897497
 20
120.5532868980543
 30
0.0
 10
384.8008996696122
 20
120.1667042461631
 30
0.0
 10
384.9146382646214
 20
119.8129965420341
 30
0.0
 10
384.9943438831679
 20
119.5307428424218
 30
0.0
 10
385.0449934555219
 20
119.3362994116485
 30
0.0
 10
385.0919601253874
 20
119.1390580347144
 30
0.0
 10
385.135519947392
 20
118.9391549896182
 30
0.0
 10
385.1611675125238
 20
118.8044730498848
 30
0.0
 10
385.1740122631139
 20
118.7370219715469
 30
0.0
  0
LINE
  5
DF
330
1F
100
AcDbEntity
  8
0
  6
Continuous
 62
     7
370
    25
100
AcDbLine
 10
384.2102959003
 20
121.3047015766
 30
0.0
 11
384.2630506675
 21
121.3039537246
 31
0.0
  0
SPLINE
  5
E0
330
1F
100
AcDbEntity
  8
0
  6
Continuous
 62
     7
370
    25
100
AcDbSpline
210
0.0
220
0.0
230
1.0
 70
     8
 71
     3
 72
    14
 73
    10
 74
     0
 42
0.000000001
 43
0.00000001
 40
0.0
 40
0.0
 40
0.0
 40
0.0
 40
0.0786889129232242
 40
0.1577561817122941
 40
0.3304686003115578
 40
0.4997364082435315
 40
0.6668472316653192
 40
0.8331450833767118
 40
1.0
 40
1.0
 40
1.0
 40
1.0
 10
384.2632037828378
 20
121.0379700820171
 30
0.0
 10
384.2592057738833
 20
121.0512199865329
 30
0.0
 10
384.2511905325525
 20
121.0777835044012
 30
0.0
 10
384.2363178592631
 20
121.1285050321699
 30
0.0
 10
384.2204316945008
 20
121.1855061111938
 30
0.0
 10
384.2073531708565
 20
121.2398094068029
 30
0.0
 10
384.2011205712515
 20
121.2779765288401
 30
0.0
 10
384.2013101491278
 20
121.3013852629157
 30
0.0
 10
384.2072970435203
 20
121.3035949168738
 30
0.0
 10
384.2102954960611
 20
121.3047015912346
 30
0.0
  0
SPLINE
  5
E1
330
1F
100
AcDbEntity
  8
0
  6
Continuous
 62
     7
370
    25
100
AcDbSpline
210
0.0
220
0.0
230
1.0
 70
     8
 71
     3
 72
     8
 73
     4
 74
     0
 42
0.000000001
 43
0.00000001
 40
0.0
 40
0.0
 40
0.0
 40
0.0
 40
1.0
 40
1.0
 40
1.0
 40
1.0
 10
384.1427484421552
 20
121.0396264219824
 30
0.0
 10
384.1828815606618
 20
121.0391954680351
 30
0.0
 10
384.2230422685903
 20
121.0386149650226
 30
0.0
 10
384.2632296859333
 20
121.037884689463
 30
0.0
  0
SPLINE
  5
E2
330
1F
100
AcDbEntity
  8
0
  6
Continuous
 62
     7
370
    25
100
AcDbSpline
210
0.0
220
0.0
230
1.0
 70
     8
 71
     3
 72
    23
 73
    19
 74
     0
 42
0.000000001
 43
0.00000001
 40
0.0
 40
0.0
 40
0.0
 40
0.0
 40
0.0441308420121292
 40
0.0880968635211716
 40
0.1320155028408941
 40
0.1760048571434164
 40
0.2201827305793597
 40
0.2646656976937351
 40
0.3095682184569769
 40
0.355001836559425
 40
0.401074485474427
 40
0.4478899182339682
 40
0.4955472680213688
 40
0.5953670562452651
 40
0.6949121173401501
 40
0.7950007648984784
 40
0.8964386255170008
 40
1.0
 40
1.0
 40
1.0
 40
1.0
 10
383.59103532302
 20
122.000129745949
 30
0.0
 10
383.5930197131268
 20
121.9998468887191
 30
0.0
 10
383.5969810820117
 20
121.9992822306785
 30
0.0
 10
383.6058413862423
 20
121.9928628774998
 30
0.0
 10
383.6168138643646
 20
121.9823416279932
 30
0.0
 10
383.630093262385
 20
121.9673100916835
 30
0.0
 10
383.6456039860513
 20
121.947857846621
 30
0.0
 10
383.6633354478044
 20
121.9239378686689
 30
0.0
 10
383.6832520945076
 20
121.8955367779551
 30
0.0
 10
383.7053176285197
 20
121.8626290381545
 30
0.0
 10
383.7294885522138
 20
121.8251890554982
 30
0.0
 10
383.7557155622611
 20
121.7831889838684
 30
0.0
 10
383.7940521424921
 20
121.7199118753453
 30
0.0
 10
383.8463849218705
 20
121.6298530129821
 30
0.0
 10
383.9147855330788
 20
121.5055068934153
 30
0.0
 10
383.9874706078742
 20
121.3657938154348
 30
0.0
 10
384.0638308437741
 20
121.2114578002065
 30
0.0
 10
384.1161196584243
 20
121.0977351459787
 30
0.0
 10
384.1425348863279
 20
121.0402848126842
 30
0.0
  0
SPLINE
  5
E3
330
1F
100
AcDbEntity
  8
0
  6
Continuous
 62
     7
370
    25
100
AcDbSpline
210
0.0
220
0.0
230
1.0
 70
    11
 71
     3
 72
    39
 73
    35
 74
     0
 42
0.000000001
 43
0.00000001
 40
0.0
 40
0.0
 40
0.0
 40
0.0
 40
0.0310664058348413
 40
0.0621048158426138
 40
0.0931361551796939
 40
0.1235538293503726
 40
0.1538561545809849
 40
0.1850588072749156
 40
0.2160250992946587
 40
0.2471867223797568
 40
0.2784462884304475
 40
0.3100516090231247
 40
0.3419834369138969
 40
0.3734259894013238
 40
0.4048604886787081
 40
0.436874065183343
 40
0.4685120685926471
 40
0.499805535863323
 40
0.5309508213226204
 40
0.5618649784438111
 40
0.5930416446590877
 40
0.623374245013332
 40
0.6540913579072549
 40
0.6849496782718453
 40
0.7158160645166705
 40
0.7471731804043553
 40
0.7784514311866318
 40
0.810129591156098
 40
0.8419598919688388
 40
0.8735175891922303
 40
0.9050808037886594
 40
0.9370235169792582
 40
0.9687441590030581
 40
1.0
 40
1.0
 40
1.0
 40
1.0
 10
376.2074709631377
 20
105.1180540452592
 30
0.0
 10
376.3971827920923
 20
105.1568226220067
 30
0.0
 10
376.7409236425411
 20
105.2332535677897
 30
0.0
 10
377.1238806297487
 20
105.321393107783
 30
0.0
 10
377.3683210964638
 20
105.3683425944279
 30
0.0
 10
377.4493100332801
 20
105.3564336697142
 30
0.0
 10
377.3685875877983
 20
105.2844757629987
 30
0.0
 10
377.1287253941787
 20
105.1599554968014
 30
0.0
 10
376.7520756600815
 20
105.0025865069762
 30
0.0
 10
376.2458327232536
 20
104.8305624222812
 30
0.0
 10
375.6285583295702
 20
104.6656380146955
 30
0.0
 10
374.9160825154304
 20
104.527925438617
 30
0.0
 10
374.1406172756579
 20
104.4362926261083
 30
0.0
 10
373.3301528420435
 20
104.4029600480129
 30
0.0
 10
372.517648369081
 20
104.4322074935661
 30
0.0
 10
371.7381353789439
 20
104.5205364505537
 30
0.0
 10
371.0198070796085
 20
104.6560419501886
 30
0.0
 10
370.3964349722084
 20
104.8198184716798
 30
0.0
 10
369.8833363776129
 20
104.9918246158252
 30
0.0
 10
369.4981342677514
 20
105.1506366302963
 30
0.0
 10
369.2487096625104
 20
105.2778955954618
 30
0.0
 10
369.1581076225639
 20
105.3535025524168
 30
0.0
 10
369.2263191935232
 20
105.3702719490967
 30
0.0
 10
369.4585350599259
 20
105.3274916068814
 30
0.0
 10
369.8357520971102
 20
105.2403649219715
 30
0.0
 10
370.3474569648778
 20
105.1256358666645
 30
0.0
 10
370.9709280956247
 20
105.006213721612
 30
0.0
 10
371.6874727987575
 20
104.9015882715627
 30
0.0
 10
372.4658039113684
 20
104.8309397786358
 30
0.0
 10
373.2776353982184
 20
104.8048609542058
 30
0.0
 10
374.0914099202155
 20
104.8278865258965
 30
0.0
 10
374.873783764381
 20
104.8961189640342
 30
0.0
 10
375.5957967991149
 20
104.9993661437439
 30
0.0
 10
376.016602318964
 20
105.0790490674405
 30
0.0
 10
376.2074709631376
 20
105.1180540452592
 30
0.0
  0
SPLINE
  5
E4
330
1F
100
AcDbEntity
  8
0
  6
Continuous
 62
     7
370
    25
100
AcDbSpline
210
0.0
220
0.0
230
1.0
 70
    11
 71
     3
 72
    39
 73
    35
 74
     0
 42
0.000000001
 43
0.00000001
 40
0.0
 40
0.0
 40
0.0
 40
0.0
 40
0.0312651429934057
 40
0.0629601069329321
 40
0.0948697276489808
 40
0.1264264963751833
 40
0.1579651393672472
 40
0.1898765439016956
 40
0.221552335268876
 40
0.2527844076550827
 40
0.2838418966734154
 40
0.3148645781100674
 40
0.3459127639308091
 40
0.3763475365526575
 40
0.4066751324671412
 40
0.4379141187435632
 40
0.4688932367345488
 40
0.5000738678969536
 40
0.5313369410958942
 40
0.5629183719104849
 40
0.5948445736343699
 40
0.6262809966135365
 40
0.6577486436587271
 40
0.6897584692806508
 40
0.7214430019610059
 40
0.7527623343195418
 40
0.7839279690572818
 40
0.8148885765585865
 40
0.8460375004982862
 40
0.8763409566916784
 40
0.906758919146387
 40
0.9378312724751761
 40
0.9689189660506093
 40
1.0
 40
1.0
 40
1.0
 40
1.0
 10
376.2073667133508
 20
127.9813464652018
 30
0.0
 10
376.0162927770691
 20
128.0204104230825
 30
0.0
 10
375.5953582146295
 20
128.1001294176426
 30
0.0
 10
374.8739688094659
 20
128.203244832993
 30
0.0
 10
374.0923127611755
 20
128.2714457054169
 30
0.0
 10
373.2792250414647
 20
128.2945025980588
 30
0.0
 10
372.4669448246126
 20
128.2685183244126
 30
0.0
 10
371.6883143995631
 20
128.1979281591744
 30
0.0
 10
370.9716386096517
 20
128.0933125969352
 30
0.0
 10
370.3497633399901
 20
127.9741402719189
 30
0.0
 10
369.8402524065042
 20
127.8602031041926
 30
0.0
 10
369.46513306026
 20
127.7740888252461
 30
0.0
 10
369.2291724854091
 20
127.7300331039103
 30
0.0
 10
369.1577719422275
 20
127.7455629046215
 30
0.0
 10
369.2483683720253
 20
127.8210717868054
 30
0.0
 10
369.4973446523848
 20
127.9482453146496
 30
0.0
 10
369.8822594722275
 20
128.1070959932619
 30
0.0
 10
370.3950447790497
 20
128.2791202544718
 30
0.0
 10
371.0175039019745
 20
128.4427933340066
 30
0.0
 10
371.7340040467811
 20
128.5781949073868
 30
0.0
 10
372.5121030808912
 20
128.6667125748696
 30
0.0
 10
373.3238257695381
 20
128.6964199833524
 30
0.0
 10
374.1352679572394
 20
128.6635335387023
 30
0.0
 10
374.9123938487215
 20
128.5720526306575
 30
0.0
 10
375.626831937892
 20
128.4341684406961
 30
0.0
 10
376.2450548961274
 20
128.2690406158461
 30
0.0
 10
376.7514222568533
 20
128.0969900784936
 30
0.0
 10
377.127974778267
 20
127.9397065567833
 30
0.0
 10
377.3676705896984
 20
127.8153027592993
 30
0.0
 10
377.4491372978927
 20
127.743114585863
 30
0.0
 10
377.3690780554008
 20
127.730842077485
 30
0.0
 10
377.1247320494471
 20
127.7777374879911
 30
0.0
 10
376.7417586159982
 20
127.8658710361367
 30
0.0
 10
376.3973154847882
 20
127.9425125407466
 30
0.0
 10
376.2073667133508
 20
127.9813464652018
 30
0.0
  0
SPLINE
  5
E5
330
1F
100
AcDbEntity
  8
0
  6
Continuous
 62
     7
370
    25
100
AcDbSpline
210
0.0
220
0.0
230
1.0
 70
     8
 71
     3
 72
    23
 73
    19
 74
     0
 42
0.000000001
 43
0.00000001
 40
0.0
 40
0.0
 40
0.0
 40
0.0
 40
0.0449850911516383
 40
0.0909520670767777
 40
0.1379394291255006
 40
0.1859832248910951
 40
0.2351171761689533
 40
0.2853728096402591
 40
0.3367795876576951
 40
0.3893650370792399
 40
0.4431548745925064
 40
0.498173127394291
 40
0.5575107590849617
 40
0.6265492281305397
 40
0.7053073138942775
 40
0.7937970253739629
 40
0.8920262115920568
 40
1.0
 40
1.0
 40
1.0
 40
1.0
 10
363.412402686783
 20
121.5796842290126
 30
0.0
 10
363.4102399974175
 20
121.5792553273531
 30
0.0
 10
363.4058674138968
 20
121.5783881624433
 30
0.0
 10
363.3955864547054
 20
121.5712945948423
 30
0.0
 10
363.3825261766755
 20
121.5596818532632
 30
0.0
 10
363.3664070151214
 20
121.5428924830907
 30
0.0
 10
363.3473065874653
 20
121.5208204964759
 30
0.0
 10
363.3252042347095
 20
121.4932230227126
 30
0.0
 10
363.3001037561737
 20
121.4599145915033
 30
0.0
 10
363.2720126247958
 20
121.4207142530966
 30
0.0
 10
363.2408967239437
 20
121.3754722076233
 30
0.0
 10
363.2062577930616
 20
121.323076275234
 30
0.0
 10
363.1655362847828
 20
121.2602938070148
 30
0.0
 10
363.1168153637581
 20
121.1825368077562
 30
0.0
 10
363.0590410254402
 20
121.0852522501777
 30
0.0
 10
362.9921303757951
 20
120.9655074164586
 30
0.0
 10
362.9161864115017
 20
120.8215872115544
 30
0.0
 10
362.8618252468165
 20
120.7108530066614
 30
0.0
 10
362.8333601827019
 20
120.6528694027375
 30
0.0
  0
LINE
  5
E6
330
1F
100
AcDbEntity
  8
0
  6
Continuous
 62
     7
370
    25
100
AcDbLine
 10
362.8333601352
 20
120.6533955696
 30
0.0
 11
362.4640208851
 21
121.0394804652
 31
0.0
  0
LINE
  5
E7
330
1F
100
AcDbEntity
  8
0
  6
Continuous
 62
     7
370
    25
100
AcDbLine
 10
384.1426353153
 20
121.0394208605
 30
0.0
 11
383.7733687084
 21
120.6534127991
 31
0.0
  0
SPLINE
  5
E8
330
1F
100
AcDbEntity
  8
0
  6
Continuous
 62
     7
370
    25
100
AcDbSpline
210
0.0
220
0.0
230
1.0
 70
     8
 71
     3
 72
    26
 73
    22
 74
     0
 42
0.000000001
 43
0.00000001
 40
0.0
 40
0.0
 40
0.0
 40
0.0
 40
0.0509383868653979
 40
0.0998291548270505
 40
0.1466728126490638
 40
0.1914699456369332
 40
0.2342212299774179
 40
0.274927450668867
 40
0.3135895241747119
 40
0.3502085273716571
 40
0.3847857350077695
 40
0.4173226688482998
 40
0.4478211631571791
 40
0.4762834534603437
 40
0.5027122992246547
 40
0.593906700502561
 40
0.6816015993191188
 40
0.7659159552051488
 40
0.846983628966416
 40
0.9249552229440475
 40
1.0
 40
1.0
 40
1.0
 40
1.0
 10
383.7733690986469
 20
120.6526786724878
 30
0.0
 10
383.7599112344488
 20
120.6802994536521
 30
0.0
 10
383.7335364846511
 20
120.7344307171054
 30
0.0
 10
383.6951643048721
 20
120.8107387541806
 30
0.0
 10
383.6586981223799
 20
120.8814909337723
 30
0.0
 10
383.6241618727562
 20
120.9466627604605
 30
0.0
 10
383.5915494209033
 20
121.0065210057122
 30
0.0
 10
383.5608621371104
 20
121.0612861652535
 30
0.0
 10
383.5320995208092
 20
121.1112105565655
 30
0.0
 10
383.5052613563369
 20
121.1565527871606
 30
0.0
 10
383.4803477759087
 20
121.1975787261015
 30
0.0
 10
383.4573571291199
 20
121.2345561110485
 30
0.0
 10
383.4362936236303
 20
121.2677522270319
 30
0.0
 10
383.417141253251
 20
121.2974279592991
 30
0.0
 10
383.3854701763062
 20
121.3460982843489
 30
0.0
 10
383.3440002308696
 20
121.4079936022676
 30
0.0
 10
383.2970107147259
 20
121.4733342096914
 30
0.0
 10
383.2583921450109
 20
121.5224526009832
 30
0.0
 10
383.2283436852896
 20
121.5559288894954
 30
0.0
 10
383.2060535743205
 20
121.5760463217334
 30
0.0
 10
383.1981582588871
 20
121.5784871555829
 30
0.0
 10
383.1942861098975
 20
121.5796842290126
 30
0.0
  0
SPLINE
  5
E9
330
1F
100
AcDbEntity
  8
0
  6
Continuous
 62
     7
370
    25
100
AcDbSpline
210
0.0
220
0.0
230
1.0
 70
     8
 71
     3
 72
     8
 73
     4
 74
     0
 42
0.000000001
 43
0.00000001
 40
0.0
 40
0.0
 40
0.0
 40
0.0
 40
1.0
 40
1.0
 40
1.0
 40
1.0
 10
381.0450248501406
 20
120.7726825554953
 30
0.0
 10
381.1086178304807
 20
120.7070137776486
 30
0.0
 10
381.1725742569161
 20
120.6426714799883
 30
0.0
 10
381.2367731766234
 20
120.5809342290126
 30
0.0
  0
SPLINE
  5
EA
330
1F
100
AcDbEntity
  8
0
  6
Continuous
 62
     7
370
    25
100
AcDbSpline
210
0.0
220
0.0
230
1.0
 70
     8
 71
     3
 72
    25
 73
    21
 74
     0
 42
0.000000001
 43
0.00000001
 40
0.0
 40
0.0
 40
0.0
 40
0.0
 40
0.0367725003254103
 40
0.074208401060063
 40
0.1123590542807964
 40
0.1512729822568881
 40
0.190995910016845
 40
0.2315708273504481
 40
0.2730380740418892
 40
0.3154354426077851
 40
0.3587982934432034
 40
0.4031596779810961
 40
0.4485504661847858
 40
0.494999475376923
 40
0.5532504315673752
 40
0.621829488573267
 40
0.7007739996560722
 40
0.7901076726660372
 40
0.8898461547533933
 40
1.0
 40
1.0
 40
1.0
 40
1.0
 10
380.6031036628291
 20
121.5796842290123
 30
0.0
 10
380.6033274368939
 20
121.5793595413785
 30
0.0
 10
380.6037790220569
 20
121.5787043085298
 30
0.0
 10
380.6084960619291
 20
121.573341936742
 30
0.0
 10
380.6161486710118
 20
121.5645863430415
 30
0.0
 10
380.6270416501488
 20
121.5519621249497
 30
0.0
 10
380.6410902365645
 20
121.5354057868192
 30
0.0
 10
380.6583171341738
 20
121.5147486094415
 30
0.0
 10
380.6787156869553
 20
121.4898608734736
 30
0.0
 10
380.7022865002474
 20
121.4606133272803
 30
0.0
 10
380.7290318488072
 20
121.4268903920838
 30
0.0
 10
380.7589397022395
 20
121.3885845769584
 30
0.0
 10
380.792055794584
 20
121.3456136816204
 30
0.0
 10
380.830981716158
 20
121.2941923999497
 30
0.0
 10
380.8798097958746
 20
121.2299761682605
 30
0.0
 10
380.9417304004757
 20
121.147081639166
 30
0.0
 10
381.0161149587966
 20
121.0431358889515
 30
0.0
 10
381.1030893867851
 20
120.9150496786942
 30
0.0
 10
381.2025142367677
 20
120.760959898788
 30
0.0
 10
381.2739334124973
 20
120.6428956629175
 30
0.0
 10
381.3114149961781
 20
120.5809342290126
 30
0.0
  0
LINE
  5
EB
330
1F
100
AcDbEntity
  8
0
  6
Continuous
 62
     7
370
    25
100
AcDbLine
 10
381.3114146884
 20
120.5809340167
 30
0.0
 11
381.2367729094
 21
120.5809340167
 31
0.0
  0
SPLINE
  5
EC
330
1F
100
AcDbEntity
  8
0
  6
Continuous
 62
     7
370
    25
100
AcDbSpline
210
0.0
220
0.0
230
1.0
 70
     8
 71
     3
 72
    23
 73
    19
 74
     0
 42
0.000000001
 43
0.00000001
 40
0.0
 40
0.0
 40
0.0
 40
0.0
 40
0.0511129009857221
 40
0.1016896331838983
 40
0.1518293139104713
 40
0.201633670189439
 40
0.2512064936754081
 40
0.3006530343006331
 40
0.3500793489716449
 40
0.3995916247932065
 40
0.4492954981442684
 40
0.4992953912354716
 40
0.5872572780521574
 40
0.6724255494349275
 40
0.7555067762540824
 40
0.8372616735271673
 40
0.9184882400167564
 40
1.0
 40
1.0
 40
1.0
 40
1.0
 10
381.0450875262661
 20
120.7729252715905
 30
0.0
 10
381.0290719423656
 20
120.8020538738214
 30
0.0
 10
380.9972087763026
 20
120.8600055224052
 30
0.0
 10
380.9501649378837
 20
120.9427633576235
 30
0.0
 10
380.9041864137087
 20
121.0218522161077
 30
0.0
 10
380.8594057469052
 20
121.0970692040419
 30
0.0
 10
380.8159219824693
 20
121.1685322590876
 30
0.0
 10
380.7738360188846
 20
121.2362736632759
 30
0.0
 10
380.7332415544873
 20
121.3003471750209
 30
0.0
 10
380.6942266481371
 20
121.3608007740921
 30
0.0
 10
380.6568768256496
 20
121.4176782790204
 30
0.0
 10
380.6123485690575
 20
121.4843927520809
 30
0.0
 10
380.5637083085164
 20
121.5557130359453
 30
0.0
 10
380.5158692087605
 20
121.6242932884044
 30
0.0
 10
380.4782176966796
 20
121.6773096164465
 30
0.0
 10
380.4513949952921
 20
121.7145822725741
 30
0.0
 10
380.4346661644686
 20
121.7376196721541
 30
0.0
 10
380.4328177545047
 20
121.7401543974193
 30
0.0
 10
380.4318919298844
 20
121.7414239810627
 30
0.0
  0
SPLINE
  5
ED
330
1F
100
AcDbEntity
  8
0
  6
Continuous
 62
     7
370
    25
100
AcDbSpline
210
0.0
220
0.0
230
1.0
 70
     8
 71
     3
 72
     8
 73
     4
 74
     0
 42
0.000000001
 43
0.00000001
 40
0.0
 40
0.0
 40
0.0
 40
0.0
 40
1.0
 40
1.0
 40
1.0
 40
1.0
 10
383.7072370454123
 20
120.5809342290125
 30
0.0
 10
383.7291224170555
 20
120.6052552452102
 30
0.0
 10
383.7510077886986
 20
120.6292798435326
 30
0.0
 10
383.7728931603418
 20
120.6529866956212
 30
0.0
  0
LINE
  5
EE
330
1F
100
AcDbEntity
  8
0
  6
Continuous
 62
     7
370
    25
100
AcDbLine
 10
383.7070771675
 20
120.5809340167
 30
0.0
 11
381.3114146884
 21
120.5809340167
 31
0.0
  0
SPLINE
  5
EF
330
1F
100
AcDbEntity
  8
0
  6
Continuous
 62
     7
370
    25
100
AcDbSpline
210
0.0
220
0.0
230
1.0
 70
     8
 71
     3
 72
     8
 73
     4
 74
     0
 42
0.000000001
 43
0.00000001
 40
0.0
 40
0.0
 40
0.0
 40
0.0
 40
1.0
 40
1.0
 40
1.0
 40
1.0
 10
362.833701410514
 20
120.6530902631013
 30
0.0
 10
362.8556181830015
 20
120.6293498145422
 30
0.0
 10
362.8775349554891
 20
120.6052906627555
 30
0.0
 10
362.8994517279767
 20
120.5809342290126
 30
0.0
  0
SPLINE
  5
F0
330
1F
100
AcDbEntity
  8
0
  6
Continuous
 62
     7
370
    25
100
AcDbSpline
210
0.0
220
0.0
230
1.0
 70
     8
 71
     3
 72
    26
 73
    22
 74
     0
 42
0.000000001
 43
0.00000001
 40
0.0
 40
0.0
 40
0.0
 40
0.0
 40
0.0524616379932503
 40
0.1026498591890872
 40
0.150565513457809
 40
0.1962095861957063
 40
0.2395832262568645
 40
0.2806877815599511
 40
0.3195248450380211
 40
0.3560963147430692
 40
0.3904044736547445
 40
0.4224520974433627
 40
0.4522426027417772
 40
0.4797802555366611
 40
0.5050704712281336
 40
0.5966394156799991
 40
0.6841917884819224
 40
0.7679874773571101
 40
0.8483228539139507
 40
0.925534163520116
 40
1.0
 40
1.0
 40
1.0
 40
1.0
 10
365.2950962424241
 20
120.5809491210303
 30
0.0
 10
365.3129577267125
 20
120.6107225810714
 30
0.0
 10
365.3479066706882
 20
120.6689792729648
 30
0.0
 10
365.3986715041704
 20
120.7511782533294
 30
0.0
 10
365.4467414618121
 20
120.8272591222301
 30
0.0
 10
365.4920854345769
 20
120.8972104706964
 30
0.0
 10
365.5347114140822
 20
120.9613176326484
 30
0.0
 10
365.5746177125914
 20
121.0198254721186
 30
0.0
 10
365.6118050417066
 20
121.0730140497406
 30
0.0
 10
365.6462738642975
 20
121.1211720899778
 30
0.0
 10
365.6780239529298
 20
121.164596763254
 30
0.0
 10
365.707058357531
 20
121.203586854351
 30
0.0
 10
365.7333696467321
 20
121.2384409528774
 30
0.0
 10
365.7569862762762
 20
121.269445947328
 30
0.0
 10
365.7966319552821
 20
121.3216891659609
 30
0.0
 10
365.8481702520812
 20
121.3892184992181
 30
0.0
 10
365.9049963890623
 20
121.4614119454267
 30
0.0
 10
365.9491538170253
 20
121.5158959015492
 30
0.0
 10
365.9803314399673
 20
121.5531606927175
 30
0.0
 10
365.9997910066065
 20
121.5756250449922
 30
0.0
 10
366.0019326042869
 20
121.5783475944194
 30
0.0
 10
366.0029840208437
 20
121.5796842290126
 30
0.0
  0
LINE
  5
F1
330
1F
100
AcDbEntity
  8
0
  6
Continuous
 62
     7
370
    25
100
AcDbLine
 10
365.2950962256
 20
120.5809340167
 30
0.0
 11
362.8994514417
 21
120.5809340167
 31
0.0
  0
LINE
  5
F2
330
1F
100
AcDbEntity
  8
0
  6
Continuous
 62
     7
370
    25
100
AcDbLine
 10
365.3699158873
 20
120.5809340167
 30
0.0
 11
365.2947963398
 21
120.5809340167
 31
0.0
  0
SPLINE
  5
F3
330
1F
100
AcDbEntity
  8
0
  6
Continuous
 62
     7
370
    25
100
AcDbSpline
210
0.0
220
0.0
230
1.0
 70
     8
 71
     3
 72
     8
 73
     4
 74
     0
 42
0.000000001
 43
0.00000001
 40
0.0
 40
0.0
 40
0.0
 40
0.0
 40
1.0
 40
1.0
 40
1.0
 40
1.0
 10
365.3699156200572
 20
120.5809342290126
 30
0.0
 10
365.4338244227171
 20
120.6429030924437
 30
0.0
 10
365.497599342069
 20
120.7068791575604
 30
0.0
 10
365.56095940795
 20
120.7724138139061
 30
0.0
  0
SPLINE
  5
F4
330
1F
100
AcDbEntity
  8
0
  6
Continuous
 62
     7
370
    25
100
AcDbSpline
210
0.0
220
0.0
230
1.0
 70
     8
 71
     3
 72
    24
 73
    20
 74
     0
 42
0.000000001
 43
0.00000001
 40
0.0
 40
0.0
 40
0.0
 40
0.0
 40
0.0410257106287842
 40
0.0818520099077639
 40
0.1225800578354648
 40
0.1633117464058233
 40
0.2041489402806705
 40
0.2451927184749161
 40
0.2865426449235763
 40
0.3282960933646444
 40
0.370547647549383
 40
0.4133885920102291
 40
0.4569065022351533
 40
0.5011849368587563
 40
0.6001856774947433
 40
0.6987388860447942
 40
0.7976800645453981
 40
0.8978349910029445
 40
1.0
 40
1.0
 40
1.0
 40
1.0
 10
366.1745422138247
 20
121.7410743103441
 30
0.0
 10
366.1743474503837
 20
121.7408069601866
 30
0.0
 10
366.1739588701772
 20
121.7402735593652
 30
0.0
 10
366.169904082503
 20
121.7347018133662
 30
0.0
 10
366.1633101235231
 20
121.7256210642123
 30
0.0
 10
366.1539458626131
 20
121.7126836038516
 30
0.0
 10
366.1418977488431
 20
121.6959651609458
 30
0.0
 10
366.1271751793827
 20
121.675423150174
 30
0.0
 10
366.1098161865355
 20
121.6510417761272
 30
0.0
 10
366.089859015382
 20
121.6227930320554
 30
0.0
 10
366.0673499656865
 20
121.5906474846542
 30
0.0
 10
366.0423407299251
 20
121.5545706446881
 30
0.0
 10
366.0148913604003
 20
121.5145270521687
 30
0.0
 10
365.972968247333
 20
121.4526066088275
 30
0.0
 10
365.9137620721218
 20
121.3632941177309
 30
0.0
 10
365.8339824790016
 20
121.2387495257022
 30
0.0
 10
365.7480016940152
 20
121.0989647332125
 30
0.0
 10
365.6567169067932
 20
120.9445519142263
 30
0.0
 10
365.5935125527352
 20
120.8305058925755
 30
0.0
 10
365.5615964027696
 20
120.7729163485602
 30
0.0
  0
LINE
  5
F5
330
1F
100
AcDbEntity
  8
0
  6
Continuous
 62
     7
370
    25
100
AcDbLine
 10
362.4907032769
 20
112.0596290852
 30
0.0
 11
362.9149411987
 21
112.508422258
 31
0.0
  0
SPLINE
  5
F6
330
1F
100
AcDbEntity
  8
0
  6
Continuous
 62
     7
370
    25
100
AcDbSpline
210
0.0
220
0.0
230
1.0
 70
     8
 71
     3
 72
    13
 73
     9
 74
     0
 42
0.000000001
 43
0.00000001
 40
0.0
 40
0.0
 40
0.0
 40
0.0
 40
0.170632084649598
 40
0.3395984165075754
 40
0.5069574111411415
 40
0.6727691830249297
 40
0.8370955447763889
 40
1.0
 40
1.0
 40
1.0
 40
1.0
 10
362.914940911218
 20
112.5084014874834
 30
0.0
 10
362.9199463816268
 20
112.501450114402
 30
0.0
 10
362.9299084577991
 20
112.4876152292699
 30
0.0
 10
362.942782285691
 20
112.471487470813
 30
0.0
 10
362.9540485981869
 20
112.458818740654
 30
0.0
 10
362.9635259616222
 20
112.449962302815
 30
0.0
 10
362.971408194317
 20
112.4444502743352
 30
0.0
 10
362.9752231005504
 20
112.4437719282543
 30
0.0
 10
362.9771222652667
 20
112.4434342290126
 30
0.0
  0
SPLINE
  5
F7
330
1F
100
AcDbEntity
  8
0
  6
Continuous
 62
     7
370
    25
100
AcDbSpline
210
0.0
220
0.0
230
1.0
 70
     8
 71
     3
 72
    13
 73
     9
 74
     0
 42
0.000000001
 43
0.00000001
 40
0.0
 40
0.0
 40
0.0
 40
0.0
 40
0.1621004456571512
 40
0.325943455157606
 40
0.4915935308260523
 40
0.6591130873964648
 40
0.8285624736043361
 40
1.0
 40
1.0
 40
1.0
 40
1.0
 10
383.6295665314139
 20
112.4434342290126
 30
0.0
 10
383.6314436377561
 20
112.4437687121133
 30
0.0
 10
383.635218029149
 20
112.4444412739749
 30
0.0
 10
383.6430651063279
 20
112.4499145583706
 30
0.0
 10
383.652531166103
 20
112.458734023031
 30
0.0
 10
383.6638120809054
 20
112.4713867800249
 30
0.0
 10
383.676726699403
 20
112.4875387814214
 30
0.0
 10
383.6867224136487
 20
112.5014245813644
 30
0.0
 10
383.6917494195604
 20
112.508407974115
 30
0.0
  0
LINE
  5
F8
330
1F
100
AcDbEntity
  8
0
  6
Continuous
 62
     7
370
    25
100
AcDbLine
 10
383.6917624991
 20
112.5084082882
 30
0.0
 11
384.1159845885
 21
112.0596290852
 31
0.0
  0
LINE
  5
F9
330
1F
100
AcDbEntity
  8
0
  6
Continuous
 62
     7
370
    25
100
AcDbLine
 10
381.2367729094
 20
112.5184344414
 30
0.0
 11
381.2454947453
 21
112.5184344414
 31
0.0
  0
SPLINE
  5
FA
330
1F
100
AcDbEntity
  8
0
  6
Continuous
 62
     7
370
    25
100
AcDbSpline
210
0.0
220
0.0
230
1.0
 70
     8
 71
     3
 72
    13
 73
     9
 74
     0
 42
0.000000001
 43
0.00000001
 40
0.0
 40
0.0
 40
0.0
 40
0.0
 40
0.170527330366418
 40
0.3393382731715298
 40
0.5065592454659379
 40
0.672320302183991
 40
0.8367549624218703
 40
1.0
 40
1.0
 40
1.0
 40
1.0
 10
381.2455073660512
 20
112.5184340946972
 30
0.0
 10
381.2404719625088
 20
112.5104279719303
 30
0.0
 10
381.2304518376458
 20
112.4944963094297
 30
0.0
 10
381.2186487949904
 20
112.4758792843203
 30
0.0
 10
381.209306691279
 20
112.4612402913337
 30
0.0
 10
381.2027110666563
 20
112.4509932218159
 30
0.0
 10
381.1985580439679
 20
112.4446102315473
 30
0.0
 10
381.1980321956589
 20
112.44382527995
 30
0.0
 10
381.1977702260357
 20
112.4434342290126
 30
0.0
  0
SPLINE
  5
FB
330
1F
100
AcDbEntity
  8
0
  6
Continuous
 62
     7
370
    25
100
AcDbSpline
210
0.0
220
0.0
230
1.0
 70
     8
 71
     3
 72
     8
 73
     4
 74
     0
 42
0.000000001
 43
0.00000001
 40
0.0
 40
0.0
 40
0.0
 40
0.0
 40
1.0
 40
1.0
 40
1.0
 40
1.0
 10
383.6917624605533
 20
112.5084085871822
 30
0.0
 10
383.6895789763122
 20
112.5112572526986
 30
0.0
 10
383.6873954920711
 20
112.5141980440961
 30
0.0
 10
383.6852120078299
 20
112.5172305413726
 30
0.0
  0
LINE
  5
FC
330
1F
100
AcDbEntity
  8
0
  6
Continuous
 62
     7
370
    25
100
AcDbLine
 10
383.6843091245
 20
112.5184344414
 30
0.0
 11
381.2454984706
 21
112.5184344414
 31
0.0
  0
SPLINE
  5
FD
330
1F
100
AcDbEntity
  8
0
  6
Continuous
 62
     7
370
    25
100
AcDbSpline
210
0.0
220
0.0
230
1.0
 70
     8
 71
     3
 72
     8
 73
     4
 74
     0
 42
0.000000001
 43
0.00000001
 40
0.0
 40
0.0
 40
0.0
 40
0.0
 40
1.0
 40
1.0
 40
1.0
 40
1.0
 10
362.92237955526
 20
112.5184342290203
 30
0.0
 10
362.9198936365735
 20
112.5149725297082
 30
0.0
 10
362.917407717887
 20
112.5116283777994
 30
0.0
 10
362.9149217992005
 20
112.5084023858589
 30
0.0
  0
LINE
  5
FE
330
1F
100
AcDbEntity
  8
0
  6
Continuous
 62
     7
370
    25
100
AcDbLine
 10
365.3596834462
 20
112.5184344414
 30
0.0
 11
362.922595739
 21
112.5184344414
 31
0.0
  0
SPLINE
  5
FF
330
1F
100
AcDbEntity
  8
0
  6
Continuous
 62
     7
370
    25
100
AcDbSpline
210
0.0
220
0.0
230
1.0
 70
     8
 71
     3
 72
    13
 73
     9
 74
     0
 42
0.000000001
 43
0.00000001
 40
0.0
 40
0.0
 40
0.0
 40
0.0
 40
0.1631595583870535
 40
0.3275424452489252
 40
0.4932858679997912
 40
0.6605236853065742
 40
0.8293862019229544
 40
1.0
 40
1.0
 40
1.0
 40
1.0
 10
365.4089185706448
 20
112.4434342290126
 30
0.0
 10
365.4086607251581
 20
112.4438248794052
 30
0.0
 10
365.4081431009256
 20
112.4446091091866
 30
0.0
 10
365.4039965046817
 20
112.4509872784214
 30
0.0
 10
365.3974032260061
 20
112.4612297245688
 30
0.0
 10
365.3880588311285
 20
112.4758666406177
 30
0.0
 10
365.3762490181149
 20
112.4944864994674
 30
0.0
 10
365.3662223008004
 20
112.5104242071148
 30
0.0
 10
365.3611830793607
 20
112.5184341704515
 30
0.0
  0
LINE
  5
100
330
1F
100
AcDbEntity
  8
0
  6
Continuous
 62
     7
370
    25
100
AcDbLine
 10
365.3611931201
 20
112.5184344414
 30
0.0
 11
365.3699158873
 21
112.5184344414
 31
0.0
  0
SPLINE
  5
101
330
1F
100
AcDbEntity
  8
0
  6
Continuous
 62
     7
370
    25
100
AcDbSpline
210
0.0
220
0.0
230
1.0
 70
     8
 71
     3
 72
    14
 73
    10
 74
     0
 42
0.000000001
 43
0.00000001
 40
0.0
 40
0.0
 40
0.0
 40
0.0
 40
0.0310276388071746
 40
0.0622853718672815
 40
0.1248003166904892
 40
0.2498289731753984
 40
0.499889260361071
 40
0.7606803621682141
 40
1.0
 40
1.0
 40
1.0
 40
1.0
 10
362.3432504038811
 20
112.0616960543972
 30
0.0
 10
362.3475796973462
 20
112.0664799766754
 30
0.0
 10
362.3562703893797
 20
112.0760832977636
 30
0.0
 10
362.3736711680419
 20
112.0953776117614
 30
0.0
 10
362.4041473278868
 20
112.1291425582151
 30
0.0
 10
362.4649687207063
 20
112.1965613170768
 30
0.0
 10
362.5528590631195
 20
112.2940279919438
 30
0.0
 10
362.655696743203
 20
112.4081725038407
 30
0.0
 10
362.7229028546446
 20
112.4829573168473
 30
0.0
 10
362.7550632162915
 20
112.5187443394915
 30
0.0
  0
LINE
  5
102
330
1F
100
AcDbEntity
  8
0
  6
Continuous
 62
     7
370
    25
100
AcDbLine
 10
362.7547350894
 20
112.5184344414
 30
0.0
 11
362.9223796721
 21
112.5184344414
 31
0.0
  0
LINE
  5
103
330
1F
100
AcDbEntity
  8
0
  6
Continuous
 62
     7
370
    25
100
AcDbLine
 10
383.6843091245
 20
112.5184344414
 30
0.0
 11
383.8519611578
 21
112.5184344414
 31
0.0
  0
SPLINE
  5
104
330
1F
100
AcDbEntity
  8
0
  6
Continuous
 62
     7
370
    25
100
AcDbSpline
210
0.0
220
0.0
230
1.0
 70
     8
 71
     3
 72
    11
 73
     7
 74
     0
 42
0.000000001
 43
0.00000001
 40
0.0
 40
0.0
 40
0.0
 40
0.0
 40
0.2392913844325938
 40
0.5001130135003002
 40
0.7515028526498353
 40
0.9999999999999999
 40
0.9999999999999999
 40
0.9999999999999999
 40
0.9999999999999999
 10
383.8516576510107
 20
112.5187210315242
 30
0.0
 10
383.8838142039903
 20
112.4829443129469
 30
0.0
 10
383.9510205961159
 20
112.4081718651912
 30
0.0
 10
384.0540486858633
 20
112.2937131518685
 30
0.0
 10
384.1591393504805
 20
112.1775539657486
 30
0.0
 10
384.2288141705602
 20
112.1001660244529
 30
0.0
 10
384.2634499872538
 20
112.061695963878
 30
0.0
  0
LINE
  5
105
330
1F
100
AcDbEntity
  8
0
  6
Continuous
 62
     7
370
    25
100
AcDbLine
 10
362.8994514417
 20
120.5809340167
 30
0.0
 11
362.7548794444
 21
120.5809340167
 31
0.0
  0
SPLINE
  5
106
330
1F
100
AcDbEntity
  8
0
  6
Continuous
 62
     7
370
    25
100
AcDbSpline
210
0.0
220
0.0
230
1.0
 70
     8
 71
     3
 72
    11
 73
     7
 74
     0
 42
0.000000001
 43
0.00000001
 40
0.0
 40
0.0
 40
0.0
 40
0.0
 40
0.2392845094479873
 40
0.5001120454076898
 40
0.7515010915036774
 40
1.0
 40
1.0
 40
1.0
 40
1.0
 10
362.7551820541306
 20
120.580648442816
 30
0.0
 10
362.7230209243606
 20
120.6164462918779
 30
0.0
 10
362.6558031657644
 20
120.6912649065756
 30
0.0
 10
362.5527585172665
 20
120.8057931708308
 30
0.0
 10
362.4476502883796
 20
120.9220241645051
 30
0.0
 10
362.3779647717523
 20
120.9994586601961
 30
0.0
 10
362.3433234593125
 20
121.0379520615322
 30
0.0
  0
SPLINE
  5
107
330
1F
100
AcDbEntity
  8
0
  6
Continuous
 62
     7
370
    25
100
AcDbSpline
210
0.0
220
0.0
230
1.0
 70
     8
 71
     3
 72
    14
 73
    10
 74
     0
 42
0.000000001
 43
0.00000001
 40
0.0
 40
0.0
 40
0.0
 40
0.0
 40
0.031029414748255
 40
0.0622870907562092
 40
0.1248019217225762
 40
0.249830351143087
 40
0.4998901825554788
 40
0.7606872170552411
 40
1.0
 40
1.0
 40
1.0
 40
1.0
 10
384.2633537220428
 20
121.0379519532561
 30
0.0
 10
384.2590235257273
 20
121.033164766686
 30
0.0
 10
384.2503312789322
 20
121.0235551776309
 30
0.0
 10
384.2329276505847
 20
121.0042491839249
 30
0.0
 10
384.2024469150496
 20
120.970463968273
 30
0.0
 10
384.1416162933274
 20
120.9030048373255
 30
0.0
 10
384.0537113901607
 20
120.8054783316151
 30
0.0
 10
383.9508571455438
 20
120.6912643248407
 30
0.0
 10
383.8836396873974
 20
120.6164333647356
 30
0.0
 10
383.851474757995
 20
120.5806252188274
 30
0.0
  0
LINE
  5
108
330
1F
100
AcDbEntity
  8
0
  6
Continuous
 62
     7
370
    25
100
AcDbLine
 10
383.8518019017
 20
120.5809340167
 30
0.0
 11
383.707237355
 21
120.5809340167
 31
0.0
  0
LINE
  5
109
330
1F
100
AcDbEntity
  8
0
  6
Continuous
 62
     7
370
    25
100
AcDbLine
 10
361.4326761286
 20
114.3623465027
 30
0.0
 11
361.8727390837
 21
114.4434341981
 31
0.0
  0
SPLINE
  5
10A
330
1F
100
AcDbEntity
  8
0
  6
Continuous
 62
     7
370
    25
100
AcDbSpline
210
0.0
220
0.0
230
1.0
 70
     8
 71
     3
 72
    25
 73
    21
 74
     0
 42
0.000000001
 43
0.00000001
 40
0.0
 40
0.0
 40
0.0
 40
0.0
 40
0.0274788704223154
 40
0.0560416006850518
 40
0.0856947086352136
 40
0.116444016653826
 40
0.1482947438681133
 40
0.1812515840470034
 40
0.2153187716748716
 40
0.2505001382254911
 40
0.333051455250936
 40
0.5015081958163736
 40
0.5771663066143947
 40
0.648898130302521
 40
0.716747770006283
 40
0.7807674423488066
 40
0.84101941313403
 40
0.8975784849924567
 40
0.9505352047788314
 40
1.0
 40
1.0
 40
1.0
 40
1.0
 10
361.8727391909291
 20
114.4434342290126
 30
0.0
 10
361.8794473582725
 20
114.4142520244952
 30
0.0
 10
361.8931282858293
 20
114.3547365703464
 30
0.0
 10
361.9158930144831
 20
114.2643460732878
 30
0.0
 10
361.9407706517235
 20
114.1712144641666
 30
0.0
 10
361.967909889741
 20
114.0756284198917
 30
0.0
 10
361.9972712967723
 20
113.9778749502784
 30
0.0
 10
362.0288564670603
 20
113.878294274221
 30
0.0
 10
362.0627033369252
 20
113.7772851346424
 30
0.0
 10
362.114404566858
 20
113.6305183273913
 30
0.0
 10
362.2187635798717
 20
113.366251914477
 30
0.0
 10
362.3396368075555
 20
113.0962822846485
 30
0.0
 10
362.4531298540125
 20
112.8788726099322
 30
0.0
 10
362.5244028216284
 20
112.7491690392017
 30
0.0
 10
362.5864773937543
 20
112.6452939618769
 30
0.0
 10
362.6390614059216
 20
112.5654333280584
 30
0.0
 10
362.682307951849
 20
112.5074147019078
 30
0.0
 10
362.7159147640692
 20
112.4693111432554
 30
0.0
 10
362.7408617469418
 20
112.4473086122607
 30
0.0
 10
362.7498212838038
 20
112.4446959989094
 30
0.0
 10
362.7541483205218
 20
112.4434342290126
 30
0.0
  0
LINE
  5
10B
330
1F
100
AcDbEntity
  8
0
  6
Continuous
 62
     7
370
    25
100
AcDbLine
 10
385.174012668
 20
118.7370219554
 30
0.0
 11
384.733949713
 21
118.6559342599
 31
0.0
  0
SPLINE
  5
10C
330
1F
100
AcDbEntity
  8
0
  6
Continuous
 62
     7
370
    25
100
AcDbSpline
210
0.0
220
0.0
230
1.0
 70
     8
 71
     3
 72
    25
 73
    21
 74
     0
 42
0.000000001
 43
0.00000001
 40
0.0
 40
0.0
 40
0.0
 40
0.0
 40
0.0274788704223041
 40
0.0560416006850305
 40
0.0856947086351823
 40
0.1164440166537841
 40
0.1482947438680617
 40
0.1812515840469434
 40
0.2153187716748025
 40
0.2505001382254136
 40
0.3330514552861967
 40
0.5015081958164245
 40
0.5771663066128696
 40
0.6488981302998588
 40
0.7167477700029257
 40
0.7807674423452041
 40
0.8410194131306359
 40
0.8975784849897311
 40
0.950535204777236
 40
1.0
 40
1.0
 40
1.0
 40
1.0
 10
384.7339496057515
 20
118.6559342290126
 30
0.0
 10
384.7272414384081
 20
118.6851164335301
 30
0.0
 10
384.7135605108513
 20
118.7446318876789
 30
0.0
 10
384.6907957821974
 20
118.8350223847375
 30
0.0
 10
384.6659181449571
 20
118.9281539938587
 30
0.0
 10
384.6387789069395
 20
119.0237400381336
 30
0.0
 10
384.6094174999083
 20
119.1214935077468
 30
0.0
 10
384.5778323296202
 20
119.2210741838043
 30
0.0
 10
384.5439854597554
 20
119.3220833233829
 30
0.0
 10
384.4922842298102
 20
119.468850130668
 30
0.0
 10
384.3879252167992
 20
119.7331165435806
 30
0.0
 10
384.2670519891135
 20
120.0030861733997
 30
0.0
 10
384.1535589426682
 20
120.2204958480899
 30
0.0
 10
384.0822859750526
 20
120.3501994188189
 30
0.0
 10
384.0202114029268
 20
120.4540744961436
 30
0.0
 10
383.9676273907596
 20
120.5339351299629
 30
0.0
 10
383.9243808448321
 20
120.5919537561148
 30
0.0
 10
383.8907740326118
 20
120.6300573147685
 30
0.0
 10
383.865827049739
 20
120.6520598457644
 30
0.0
 10
383.8568675128768
 20
120.6546724591158
 30
0.0
 10
383.8525404761587
 20
120.6559342290126
 30
0.0
  0
SPLINE
  5
10D
330
1F
100
AcDbEntity
  8
0
  6
Continuous
 62
     7
370
    25
100
AcDbSpline
210
0.0
220
0.0
230
1.0
 70
     8
 71
     3
 72
    25
 73
    21
 74
     0
 42
0.000000001
 43
0.00000001
 40
0.0
 40
0.0
 40
0.0
 40
0.0
 40
0.0288821753110086
 40
0.0583636594013118
 40
0.0884647204314734
 40
0.1192044006626603
 40
0.150600580009491
 40
0.1826700399677263
 40
0.2154285269580574
 40
0.248890814337993
 40
0.361059447124065
 40
0.4984670131067773
 40
0.5822693905007604
 40
0.666112764278331
 40
0.7499972937224478
 40
0.8007709755049082
 40
0.8511237700832938
 40
0.9010896024531745
 40
0.9507031914125761
 40
1.0
 40
1.0
 40
1.0
 40
1.0
 10
362.7541483205218
 20
120.6559342290126
 30
0.0
 10
362.7518580521441
 20
120.6555059870367
 30
0.0
 10
362.7472299920312
 20
120.6546406170099
 30
0.0
 10
362.7369197289438
 20
120.6475656843083
 30
0.0
 10
362.724083659713
 20
120.6359971431479
 30
0.0
 10
362.7084701009703
 20
120.6192915670355
 30
0.0
 10
362.6901486575576
 20
120.5973546560193
 30
0.0
 10
362.6691010717266
 20
120.5699570205345
 30
0.0
 10
362.6453294997344
 20
120.5369225398524
 30
0.0
 10
362.598272970298
 20
120.4679318737246
 30
0.0
 10
362.5105785524411
 20
120.327905904303
 30
0.0
 10
362.3930268979076
 20
120.1086106030985
 30
0.0
 10
362.2815047335662
 20
119.8716805423273
 30
0.0
 10
362.1900454162182
 20
119.6558386684174
 30
0.0
 10
362.1091637650406
 20
119.4542770475356
 30
0.0
 10
362.0430188631726
 20
119.2754089671434
 30
0.0
 10
361.9936683023456
 20
119.1240327659995
 30
0.0
 10
361.9487012854806
 20
118.9697886108766
 30
0.0
 10
361.9079435715614
 20
118.813632755801
 30
0.0
 10
361.8844489023442
 20
118.708388048853
 30
0.0
 10
361.8727391909291
 20
118.6559342290126
 30
0.0
  0
LINE
  5
10E
330
1F
100
AcDbEntity
  8
0
  6
Continuous
 62
     7
370
    25
100
AcDbLine
 10
361.4326761286
 20
118.7370219554
 30
0.0
 11
361.8727390837
 21
118.6559342599
 31
0.0
  0
SPLINE
  5
10F
330
1F
100
AcDbEntity
  8
0
  6
Continuous
 62
     7
370
    25
100
AcDbSpline
210
0.0
220
0.0
230
1.0
 70
     8
 71
     3
 72
    25
 73
    21
 74
     0
 42
0.000000001
 43
0.00000001
 40
0.0
 40
0.0
 40
0.0
 40
0.0
 40
0.0288821753116583
 40
0.0583636594024247
 40
0.088464720432864
 40
0.1192044006641432
 40
0.1506005800108822
 40
0.1826700399688414
 40
0.2154285269587146
 40
0.2488908143380118
 40
0.3610594471217245
 40
0.498467013106778
 40
0.5822693905006526
 40
0.6661127642782239
 40
0.7499972937224496
 40
0.8007709755032478
 40
0.8511237700807983
 40
0.901089602450676
 40
0.9507031914109089
 40
1.0
 40
1.0
 40
1.0
 40
1.0
 10
383.8525404761587
 20
112.4434342290126
 30
0.0
 10
383.8548307445364
 20
112.4438624709886
 30
0.0
 10
383.8594588046495
 20
112.4447278410154
 30
0.0
 10
383.869769067737
 20
112.4518027737173
 30
0.0
 10
383.8826051369678
 20
112.463371314878
 30
0.0
 10
383.8982186957105
 20
112.4800768909907
 30
0.0
 10
383.9165401391231
 20
112.5020138020071
 30
0.0
 10
383.9375877249542
 20
112.5294114374918
 30
0.0
 10
383.9613592969461
 20
112.5624459181735
 30
0.0
 10
384.0084158263825
 20
112.6314365843
 30
0.0
 10
384.0961102442402
 20
112.7714625537206
 30
0.0
 10
384.2136618987723
 20
112.9907578549248
 30
0.0
 10
384.3251840631131
 20
113.2276879156982
 30
0.0
 10
384.4166433804612
 20
113.4435297896081
 30
0.0
 10
384.4975250316391
 20
113.6450914104881
 30
0.0
 10
384.5636699335071
 20
113.8239594908776
 30
0.0
 10
384.6130204943336
 20
113.9753356920188
 30
0.0
 10
384.6579875111985
 20
114.1295798471416
 30
0.0
 10
384.6987452251183
 20
114.2857357022198
 30
0.0
 10
384.722239894336
 20
114.3909804091705
 30
0.0
 10
384.7339496057515
 20
114.4434342290126
 30
0.0
  0
LINE
  5
110
330
1F
100
AcDbEntity
  8
0
  6
Continuous
 62
     7
370
    25
100
AcDbLine
 10
385.174012668
 20
114.3623465027
 30
0.0
 11
384.733949713
 21
114.4434341981
 31
0.0
  0
SPLINE
  5
111
330
1F
100
AcDbEntity
  8
0
  6
Continuous
 62
     7
370
    25
100
AcDbSpline
210
0.0
220
0.0
230
1.0
 70
     8
 71
     3
 72
    15
 73
    11
 74
     0
 42
0.000000001
 43
0.00000001
 40
0.0
 40
0.0
 40
0.0
 40
0.0
 40
0.1351922525168508
 40
0.295505352053604
 40
0.3941605101370091
 40
0.4930224738308925
 40
0.5920945925114958
 40
0.7581984282951001
 40
0.9106346529387762
 40
1.0
 40
1.0
 40
1.0
 40
1.0
 10
364.4054866578189
 20
118.6559342599326
 30
0.0
 10
364.4407475352502
 20
118.7763532111698
 30
0.0
 10
364.5178213157745
 20
119.0395668489104
 30
0.0
 10
364.6426148526522
 20
119.3717894106702
 30
0.0
 10
364.759518377977
 20
119.6512838106497
 30
0.0
 10
364.8571032268264
 20
119.8662982757663
 30
0.0
 10
364.9811828839484
 20
120.1049300674274
 30
0.0
 10
365.1117959337206
 20
120.3356074368334
 30
0.0
 10
365.2148742717122
 20
120.5128028772581
 30
0.0
 10
365.248832830395
 20
120.5665074890529
 30
0.0
 10
365.2613832797614
 20
120.5863557110392
 30
0.0
  0
SPLINE
  5
112
330
1F
100
AcDbEntity
  8
0
  6
Continuous
 62
     7
370
    25
100
AcDbSpline
210
0.0
220
0.0
230
1.0
 70
     8
 71
     3
 72
    15
 73
    11
 74
     0
 42
0.000000001
 43
0.00000001
 40
0.0
 40
0.0
 40
0.0
 40
0.0
 40
0.1361835767353471
 40
0.2976722041233961
 40
0.3970507708760626
 40
0.4966376596826896
 40
0.5964362444794897
 40
0.763758069845573
 40
0.9173120635806887
 40
0.9999999999999999
 40
0.9999999999999999
 40
0.9999999999999999
 40
0.9999999999999999
 10
382.2012021388617
 20
114.4434341980927
 30
0.0
 10
382.1659412284143
 20
114.3230151843623
 30
0.0
 10
382.0888673757229
 20
114.0598014100232
 30
0.0
 10
381.9640743738061
 20
113.7275798608429
 30
0.0
 10
381.8471694827655
 20
113.4480828758225
 30
0.0
 10
381.7495891305472
 20
113.2330769219757
 30
0.0
 10
381.6254887653002
 20
112.9944059337622
 30
0.0
 10
381.4950024044936
 20
112.763968362536
 30
0.0
 10
381.3933592536724
 20
112.5891698031685
 30
0.0
 10
381.3602594861745
 20
112.5367737745848
 30
0.0
 10
381.3486741106716
 20
112.5184344413542
 30
0.0
  0
SPLINE
  5
113
330
1F
100
AcDbEntity
  8
0
  6
Continuous
 62
     7
370
    25
100
AcDbSpline
210
0.0
220
0.0
230
1.0
 70
     8
 71
     3
 72
    15
 73
    11
 74
     0
 42
0.000000001
 43
0.00000001
 40
0.0
 40
0.0
 40
0.0
 40
0.0
 40
0.0210214847137796
 40
0.0995173547081305
 40
0.2360971400771362
 40
0.3979401334474181
 40
0.5486162591715825
 40
0.7000321895560188
 40
0.8517812990240201
 40
0.9999999999999999
 40
0.9999999999999999
 40
0.9999999999999999
 40
0.9999999999999999
 10
365.2565683420506
 20
112.5184344413542
 30
0.0
 10
365.2537198407964
 20
112.5229190509474
 30
0.0
 10
365.2402348128088
 20
112.5441495439258
 30
0.0
 10
365.1928259487797
 20
112.62128473308
 30
0.0
 10
365.099684130628
 20
112.7772141671242
 30
0.0
 10
364.96326504705
 20
113.0262296315669
 30
0.0
 10
364.8139426108328
 20
113.3358686279615
 30
0.0
 10
364.6607774751203
 20
113.677832502065
 30
0.0
 10
364.515144708406
 20
114.0489413447505
 30
0.0
 10
364.4417514123249
 20
114.3129723997636
 30
0.0
 10
364.4054866578189
 20
114.4434341980927
 30
0.0
  0
LINE
  5
114
330
1F
100
AcDbEntity
  8
0
  6
Continuous
 62
     7
370
    25
100
AcDbLine
 10
364.7217470404
 20
118.5810708261
 30
0.0
 11
364.4054866578
 21
118.6559342599
 31
0.0
  0
SPLINE
  5
115
330
1F
100
AcDbEntity
  8
0
  6
Continuous
 62
     7
370
    25
100
AcDbSpline
210
0.0
220
0.0
230
1.0
 70
     8
 71
     3
 72
    25
 73
    21
 74
     0
 42
0.000000001
 43
0.00000001
 40
0.0
 40
0.0
 40
0.0
 40
0.0
 40
0.0278144320063462
 40
0.0555680196245754
 40
0.083331625367772
 40
0.111176035216759
 40
0.1391714221532265
 40
0.1673868326284763
 40
0.1958897140434718
 40
0.2247454979318961
 40
0.254017249222145
 40
0.3796724410016501
 40
0.5056484635002454
 40
0.629752729069345
 40
0.7535891720571729
 40
0.8038564806093713
 40
0.853339684343451
 40
0.9023264398358534
 40
0.9511131859219439
 40
1.0
 40
1.0
 40
1.0
 40
1.0
 10
365.5893683090517
 20
120.8234325201951
 30
0.0
 10
365.5892205577371
 20
120.8231659776416
 30
0.0
 10
365.5889253783153
 20
120.8226334755994
 30
0.0
 10
365.5853006792995
 20
120.8160860269033
 30
0.0
 10
365.5793547836292
 20
120.805316783617
 30
0.0
 10
365.5708800607141
 20
120.7899060476927
 30
0.0
 10
365.559965073875
 20
120.769949671439
 30
0.0
 10
365.5466290056366
 20
120.7453995749685
 30
0.0
 10
365.5309212409497
 20
120.7162429512126
 30
0.0
 10
365.5128896527918
 20
120.6824469797792
 30
0.0
 10
365.4704721080434
 20
120.6020402217214
 30
0.0
 10
365.3899510682899
 20
120.4450517720507
 30
0.0
 10
365.2565247214154
 20
120.1632660343033
 30
0.0
 10
365.1124477447322
 20
119.8253939246763
 30
0.0
 10
364.9967699932809
 20
119.5167130109381
 30
0.0
 10
364.9142585180637
 20
119.2706822911831
 30
0.0
 10
364.8613368935385
 20
119.1018563999099
 30
0.0
 10
364.811479759161
 20
118.9305408288981
 30
0.0
 10
364.7644617659305
 20
118.7568584786773
 30
0.0
 10
364.735994755202
 20
118.6397067903739
 30
0.0
 10
364.7217466674031
 20
118.5810709344125
 30
0.0
  0
LINE
  5
116
330
1F
100
AcDbEntity
  8
0
  6
Continuous
 62
     7
370
    25
100
AcDbLine
 10
364.7217470404
 20
114.5182976319
 30
0.0
 11
364.4054866578
 21
114.4434341981
 31
0.0
  0
SPLINE
  5
117
330
1F
100
AcDbEntity
  8
0
  6
Continuous
 62
     7
370
    25
100
AcDbSpline
210
0.0
220
0.0
230
1.0
 70
     8
 71
     3
 72
    25
 73
    21
 74
     0
 42
0.000000001
 43
0.00000001
 40
0.0
 40
0.0
 40
0.0
 40
0.0
 40
0.0269872354797669
 40
0.0539362690259618
 40
0.0809037148829035
 40
0.1079460716545392
 40
0.1351193706855853
 40
0.162478838835575
 40
0.190078585418252
 40
0.2179713214290535
 40
0.2462081170984584
 40
0.3700050494705653
 40
0.4947542611659071
 40
0.6210439034695193
 40
0.7446557472315123
 40
0.7967060293738726
 40
0.8478613449329371
 40
0.8985210411990388
 40
0.9490962115257747
 40
1.0
 40
1.0
 40
1.0
 40
1.0
 10
364.7217466674031
 20
114.5182975236128
 30
0.0
 10
364.7295274121272
 20
114.4859011185851
 30
0.0
 10
364.7450778874983
 20
114.4211541674438
 30
0.0
 10
364.7697632934715
 20
114.3245076310151
 30
0.0
 10
364.7953832504704
 20
114.2284135425238
 30
0.0
 10
364.8220261140979
 20
114.1329012718071
 30
0.0
 10
364.8496512993824
 20
114.0379765444144
 30
0.0
 10
364.8782530784417
 20
113.9436503882787
 30
0.0
 10
364.9078151680832
 20
113.8499340438294
 30
0.0
 10
364.9383283151303
 20
113.7568299599392
 30
0.0
 10
365.0050625197196
 20
113.5605647178261
 30
0.0
 10
365.1122456958154
 20
113.2744916022228
 30
0.0
 10
365.2560257861242
 20
112.9372017062295
 30
0.0
 10
365.3892742423359
 20
112.655692529406
 30
0.0
 10
365.4769454185492
 20
112.4847015992276
 30
0.0
 10
365.5278204543415
 20
112.3887887808451
 30
0.0
 10
365.5554896089929
 20
112.3375715773904
 30
0.0
 10
365.5751885271105
 20
112.3015887833054
 30
0.0
 10
365.5874360358139
 20
112.2794188949834
 30
0.0
 10
365.58872282897
 20
112.2770994272498
 30
0.0
 10
365.5893683090517
 20
112.2759359378301
 30
0.0
  0
SPLINE
  5
118
330
1F
100
AcDbEntity
  8
0
  6
Continuous
 62
     7
370
    25
100
AcDbSpline
210
0.0
220
0.0
230
1.0
 70
     8
 71
     3
 72
    15
 73
    11
 74
     0
 42
0.000000001
 43
0.00000001
 40
0.0
 40
0.0
 40
0.0
 40
0.0
 40
0.0210214847137796
 40
0.0995173547081305
 40
0.2360971400771362
 40
0.3979401334474181
 40
0.5486162591715825
 40
0.7000321895560188
 40
0.8517812990240201
 40
0.9999999999999999
 40
0.9999999999999999
 40
0.9999999999999999
 40
0.9999999999999999
 10
381.35012045463
 20
120.5809340166711
 30
0.0
 10
381.3529689558841
 20
120.5764494070779
 30
0.0
 10
381.3664539838717
 20
120.5552189140994
 30
0.0
 10
381.4138628479008
 20
120.4780837249453
 30
0.0
 10
381.5070046660525
 20
120.3221542909011
 30
0.0
 10
381.6434237496305
 20
120.0731388264583
 30
0.0
 10
381.7927461858478
 20
119.7634998300638
 30
0.0
 10
381.9459113215603
 20
119.4215359559603
 30
0.0
 10
382.0915440882745
 20
119.0504271132748
 30
0.0
 10
382.1649373843556
 20
118.7863960582617
 30
0.0
 10
382.2012021388617
 20
118.6559342599326
 30
0.0
  0
LINE
  5
119
330
1F
100
AcDbEntity
  8
0
  6
Continuous
 62
     7
370
    25
100
AcDbLine
 10
381.8849417563
 20
118.5810708261
 30
0.0
 11
382.2012021389
 21
118.6559342599
 31
0.0
  0
SPLINE
  5
11A
330
1F
100
AcDbEntity
  8
0
  6
Continuous
 62
     7
370
    25
100
AcDbSpline
210
0.0
220
0.0
230
1.0
 70
     8
 71
     3
 72
    14
 73
    10
 74
     0
 42
0.000000001
 43
0.00000001
 40
0.0
 40
0.0
 40
0.0
 40
0.0
 40
0.1400505481383316
 40
0.2837940635646364
 40
0.4267314741655509
 40
0.5707685044357909
 40
0.7165840938251985
 40
0.8593077005344127
 40
1.0
 40
1.0
 40
1.0
 40
1.0
 10
381.8849417563287
 20
118.5810708260947
 30
0.0
 10
381.8481749662038
 20
118.7266308432905
 30
0.0
 10
381.77367188919
 20
119.021589123152
 30
0.0
 10
381.6384827422539
 20
119.439653487751
 30
0.0
 10
381.4945980797392
 20
119.8247059978821
 30
0.0
 10
381.3504622913467
 20
120.1625142780235
 30
0.0
 10
381.2180652657954
 20
120.4424545281823
 30
0.0
 10
381.1071453947599
 20
120.6585954039498
 30
0.0
 10
381.0658095292849
 20
120.7346586310891
 30
0.0
 10
381.0452897283939
 20
120.7724176633023
 30
0.0
  0
LINE
  5
11B
330
1F
100
AcDbEntity
  8
0
  6
Continuous
 62
     7
370
    25
100
AcDbLine
 10
381.8849417563
 20
114.5182976319
 30
0.0
 11
382.2012021389
 21
114.4434341981
 31
0.0
  0
SPLINE
  5
11C
330
1F
100
AcDbEntity
  8
0
  6
Continuous
 62
     7
370
    25
100
AcDbSpline
210
0.0
220
0.0
230
1.0
 70
     8
 71
     3
 72
    25
 73
    21
 74
     0
 42
0.000000001
 43
0.00000001
 40
0.0
 40
0.0
 40
0.0
 40
0.0
 40
0.0278144320057649
 40
0.0555680196235595
 40
0.083331625366468
 40
0.1111760352153128
 40
0.1391714221517827
 40
0.1673868326271739
 40
0.195889714042447
 40
0.2247454979312803
 40
0.2540172492220635
 40
0.3796724409988544
 40
0.505648463500191
 40
0.6297527290689083
 40
0.7535891720572004
 40
0.803856480609888
 40
0.85333968434422
 40
0.902326439836625
 40
0.9511131859224594
 40
1.0
 40
1.0
 40
1.0
 40
1.0
 10
381.0173204876288
 20
112.2759359378301
 30
0.0
 10
381.0174682389435
 20
112.2762024803837
 30
0.0
 10
381.0177634183652
 20
112.2767349824259
 30
0.0
 10
381.0213881173811
 20
112.283282431122
 30
0.0
 10
381.0273340130514
 20
112.2940516744083
 30
0.0
 10
381.0358087359665
 20
112.3094624103326
 30
0.0
 10
381.0467237228056
 20
112.3294187865864
 30
0.0
 10
381.060059791044
 20
112.3539688830569
 30
0.0
 10
381.0757675557309
 20
112.3831255068128
 30
0.0
 10
381.0937991438888
 20
112.4169214782462
 30
0.0
 10
381.1362166886358
 20
112.4973282363015
 30
0.0
 10
381.2167377283897
 20
112.6543166859727
 30
0.0
 10
381.3501640752641
 20
112.9361024237195
 30
0.0
 10
381.4942410519476
 20
113.2739745333473
 30
0.0
 10
381.6099188033997
 20
113.5826554470871
 30
0.0
 10
381.6924302786175
 20
113.8286861668438
 30
0.0
 10
381.7453519031428
 20
113.9975120581179
 30
0.0
 10
381.7952090375201
 20
114.1688276291297
 30
0.0
 10
381.8422270307504
 20
114.3425099793495
 30
0.0
 10
381.8706940414787
 20
114.459661667652
 30
0.0
 10
381.8849421292774
 20
114.5182975236128
 30
0.0
  0
ARC
  5
11D
330
1F
100
AcDbEntity
  8
0
  6
Continuous
 62
     7
370
    25
100
AcDbCircle
 10
373.3033443983
 20
116.549684229
 30
0.0
 40
11.62303852141071
100
AcDbArc
 50
169.5595567507
 51
190.4404432494
  0
ARC
  5
11E
330
1F
100
AcDbEntity
  8
0
  6
Continuous
 62
     7
370
    25
100
AcDbCircle
 10
373.3033443983
 20
116.549684229
 30
0.0
 40
9.143750000000006
100
AcDbArc
 50
166.6824039243
 51
193.3175960757
  0
ARC
  5
11F
330
1F
100
AcDbEntity
  8
0
  6
Continuous
 62
     7
370
    25
100
AcDbCircle
 10
373.3033443983
 20
116.549684229
 30
0.0
 40
8.81875000000008
100
AcDbArc
 50
166.6824039243
 51
193.3175960757
  0
ARC
  5
120
330
1F
100
AcDbEntity
  8
0
  6
Continuous
 62
     7
370
    25
100
AcDbCircle
 10
373.3033443983
 20
116.549684229
 30
0.0
 40
9.143750000000006
100
AcDbArc
 50
346.6824039243
 51
13.3175960757
  0
ARC
  5
121
330
1F
100
AcDbEntity
  8
0
  6
Continuous
 62
     7
370
    25
100
AcDbCircle
 10
373.3033443983
 20
116.549684229
 30
0.0
 40
8.81874999999997
100
AcDbArc
 50
346.6824039243
 51
13.3175960757
  0
ARC
  5
122
330
1F
100
AcDbEntity
  8
0
  6
Continuous
 62
     7
370
    25
100
AcDbCircle
 10
373.3033443983
 20
116.549684229
 30
0.0
 40
11.6230385214107
100
AcDbArc
 50
349.5595567507
 51
10.4404432493
  0
CIRCLE
  5
123
330
1F
100
AcDbEntity
  8
0
  6
Continuous
 62
     7
370
    25
100
AcDbCircle
 10
373.3033443983
 20
116.549684229
 30
0.0
 40
7.775000000000034
  0
CIRCLE
  5
124
330
1F
100
AcDbEntity
  8
0
  6
Continuous
 62
     7
370
    25
100
AcDbCircle
 10
373.3033443983
 20
116.549684229
 30
0.0
 40
2.615470053837953
  0
CIRCLE
  5
125
330
1F
100
AcDbEntity
  8
0
  6
Continuous
 62
     7
370
    25
100
AcDbCircle
 10
373.3033443983
 20
116.549684229
 30
0.0
 40
2.5
  0
CIRCLE
  5
126
330
1F
100
AcDbEntity
  8
0
  6
Continuous
 62
     7
370
    25
100
AcDbCircle
 10
373.3033443983
 20
116.549684229
 30
0.0
 40
15.73750000000001
  0
CIRCLE
  5
127
330
1F
100
AcDbEntity
  8
0
  6
Continuous
 62
     7
370
    25
100
AcDbCircle
 10
373.3033443983
 20
116.549684229
 30
0.0
 40
13.42500000000001
  0
CIRCLE
  5
128
330
1F
100
AcDbEntity
  8
0
  6
Continuous
 62
     7
370
    25
100
AcDbCircle
 10
373.3033443983
 20
116.549684229
 30
0.0
 40
2.0
  0
LINE
  5
129
330
1F
100
AcDbEntity
  8
0
  6
CENTER
 62
     7
370
    18
100
AcDbLine
 10
373.3033443983
 20
116.549684229
 30
0.0
 11
373.3033443983
 21
136.064184229
 31
0.0
  0
LINE
  5
12A
330
1F
100
AcDbEntity
  8
0
  6
CENTER
 62
     7
370
    18
100
AcDbLine
 10
373.3033443983
 20
116.549684229
 30
0.0
 11
392.8155021224
 21
116.549684229
 31
0.0
  0
LINE
  5
12B
330
1F
100
AcDbEntity
  8
0
  6
Continuous
 62
     7
370
    18
100
AcDbLine
 10
385.3033443983
 20
134.064184229
 30
0.0
 11
373.3033443983
 21
134.064184229
 31
0.0
  0
SOLID
  5
12C
330
1F
100
AcDbEntity
  8
0
  6
Continuous
 62
     7
370
    18
100
AcDbTrace
 10
373.3033443983
 20
134.064184229
 30
0.0
 11
379.3033443983
 21
132.564184229
 31
0.0
 12
379.3033443983
 22
135.564184229
 32
0.0
 13
379.3033443983
 23
135.564184229
 33
0.0
  0
LINE
  5
12D
330
1F
100
AcDbEntity
  8
0
  6
Continuous
 62
     7
370
    18
100
AcDbLine
 10
402.8155021224
 20
116.549684229
 30
0.0
 11
390.8155021224
 21
116.549684229
 31
0.0
  0
SOLID
  5
12E
330
1F
100
AcDbEntity
  8
0
  6
Continuous
 62
     7
370
    18
100
AcDbTrace
 10
390.8155021224
 20
116.549684229
 30
0.0
 11
396.8155021224
 21
115.049684229
 31
0.0
 12
396.8155021224
 22
118.049684229
 32
0.0
 13
396.8155021224
 23
118.049684229
 33
0.0
  0
MTEXT
  5
12F
330
1F
100
AcDbEntity
  8
0
  6
Continuous
 62
     7
100
AcDbMText
 10
382.1559636544
 20
140.7104774456
 30
0.0
 40
3.5
 41
0.0
 71
     1
 72
     1
  1
A
  7
SLDTEXTSTYLE0
 73
     1
 44
1.0
  0
MTEXT
  5
130
330
1F
100
AcDbEntity
  8
0
  6
Continuous
 62
     7
100
AcDbMText
 10
399.6681213784
 20
114.3364685879
 30
0.0
 40
3.5
 41
0.0
 71
     1
 72
     1
  1
A
  7
SLDTEXTSTYLE0
 73
     1
 44
1.0
  0
LINE
  5
131
330
1F
100
AcDbEntity
  8
0
  6
Continuous
 62
     7
370
    25
100
AcDbLine
 10
126.9763166791
 20
85.074684229
 30
0.0
 11
133.3421188746
 21
85.074684229
 31
0.0
  0
LINE
  5
132
330
1F
100
AcDbEntity
  8
0
  6
Continuous
 62
     7
370
    25
100
AcDbLine
 10
140.0105144837
 20
85.074684229
 30
0.0
 11
144.7763166791
 21
85.074684229
 31
0.0
  0
ARC
  5
133
330
1F
100
AcDbEntity
  8
0
  6
Continuous
 62
     7
370
    25
100
AcDbCircle
 10
126.9763166791
 20
85.274684229
 30
0.0
 40
0.2000000000000028
100
AcDbArc
 50
180.0
 51
270.0
  0
LINE
  5
134
330
1F
100
AcDbEntity
  8
0
  6
Continuous
 62
     7
370
    25
100
AcDbLine
 10
133.3421188746
 20
85.074684229
 30
0.0
 11
134.8013166791
 21
87.6020889648
 31
0.0
  0
LINE
  5
135
330
1F
100
AcDbEntity
  8
0
  6
Continuous
 62
     7
370
    25
100
AcDbLine
 10
138.5513166791
 20
87.6020889648
 30
0.0
 11
140.0105144837
 21
85.074684229
 31
0.0
  0
ARC
  5
136
330
1F
100
AcDbEntity
  8
0
  6
Continuous
 62
     7
370
    25
100
AcDbCircle
 10
135.8013166791
 20
87.699684229
 30
0.0
 40
1.0
100
AcDbArc
 50
90.0
 51
180.0
  0
ARC
  5
137
330
1F
100
AcDbEntity
  8
0
  6
Continuous
 62
     7
370
    25
100
AcDbCircle
 10
137.5513166791
 20
87.699684229
 30
0.0
 40
1.0
100
AcDbArc
 50
0.0
 51
90.0
  0
LINE
  5
138
330
1F
100
AcDbEntity
  8
0
  6
Continuous
 62
     7
370
    25
100
AcDbLine
 10
135.8013166791
 20
88.699684229
 30
0.0
 11
137.5513166791
 21
88.699684229
 31
0.0
  0
ARC
  5
139
330
1F
100
AcDbEntity
  8
0
  6
Continuous
 62
     7
370
    25
100
AcDbCircle
 10
126.3473818046
 20
90.999684229
 30
0.0
 40
0.8000000000000047
100
AcDbArc
 50
57.576802718
 51
107.5
  0
LINE
  5
13A
330
1F
100
AcDbEntity
  8
0
  6
Continuous
 62
     7
370
    25
100
AcDbLine
 10
125.6161346391
 20
91.6079461835
 30
0.0
 11
126.1068171649
 21
91.7626577896
 31
0.0
  0
LINE
  5
13B
330
1F
100
AcDbEntity
  8
0
  6
Continuous
 62
     7
370
    25
100
AcDbLine
 10
112.2898712111
 20
92.2771637083
 30
0.0
 11
125.6161346391
 21
91.6079461835
 31
0.0
  0
LINE
  5
13C
330
1F
100
AcDbEntity
  8
0
  6
Continuous
 62
     7
370
    25
100
AcDbLine
 10
88.3263166791
 20
93.4805641014
 30
0.0
 11
96.3811535426
 21
93.0760667705
 31
0.0
  0
ARC
  5
13D
330
1F
100
AcDbEntity
  8
0
  6
Continuous
 62
     7
370
    25
100
AcDbCircle
 10
147.7763166791
 20
93.049684229
 30
0.0
 40
3.0
100
AcDbArc
 50
90.0
 51
180.0
  0
LINE
  5
13E
330
1F
100
AcDbEntity
  8
0
  6
Continuous
 62
     7
370
    25
100
AcDbLine
 10
86.8263166791
 20
94.3465895052
 30
0.0
 11
88.3263166791
 21
93.4805641014
 31
0.0
  0
LINE
  5
13F
330
1F
100
AcDbEntity
  8
0
  6
Continuous
 62
     7
370
    25
100
AcDbLine
 10
155.9514977344
 20
96.049684229
 30
0.0
 11
204.9332348706
 21
99.9046305449
 31
0.0
  0
LINE
  5
140
330
1F
100
AcDbEntity
  8
0
  6
Continuous
 62
     7
370
    25
100
AcDbLine
 10
147.7763166791
 20
96.049684229
 30
0.0
 11
155.9514977344
 21
96.049684229
 31
0.0
  0
ARC
  5
141
330
1F
100
AcDbEntity
  8
0
  6
Continuous
 62
     7
370
    25
100
AcDbCircle
 10
204.7763166791
 20
101.8984652123
 30
0.0
 40
2.0
100
AcDbArc
 50
274.5
 51
0.0
  0
LINE
  5
142
330
1F
100
AcDbEntity
  8
0
  6
Continuous
 62
     7
370
    25
100
AcDbLine
 10
155.2763166791
 20
122.549684229
 30
0.0
 11
140.2763166791
 21
122.549684229
 31
0.0
  0
LINE
  5
143
330
1F
100
AcDbEntity
  8
0
  6
Continuous
 62
     7
370
    25
100
AcDbLine
 10
155.7763166791
 20
122.049684229
 30
0.0
 11
155.2763166791
 21
122.549684229
 31
0.0
  0
LINE
  5
144
330
1F
100
AcDbEntity
  8
0
  6
Continuous
 62
     7
370
    25
100
AcDbLine
 10
140.2763166791
 20
122.549684229
 30
0.0
 11
139.7763166791
 21
122.049684229
 31
0.0
  0
LINE
  5
145
330
1F
100
AcDbEntity
  8
0
  6
Continuous
 62
     7
370
    25
100
AcDbLine
 10
157.7763166791
 20
122.0247864504
 30
0.0
 11
159.7763166791
 21
122.0247864504
 31
0.0
  0
LINE
  5
146
330
1F
100
AcDbEntity
  8
0
  6
Continuous
 62
     7
370
    25
100
AcDbLine
 10
157.7763166791
 20
122.049684229
 30
0.0
 11
155.7763166791
 21
122.049684229
 31
0.0
  0
SPLINE
  5
147
330
1F
100
AcDbEntity
  8
0
  6
Continuous
 62
     7
370
    25
100
AcDbSpline
210
0.0
220
0.0
230
1.0
 70
     8
 71
     3
 72
    11
 73
     7
 74
     0
 42
0.000000001
 43
0.00000001
 40
0.0
 40
0.0
 40
0.0
 40
0.0
 40
0.2701949965567412
 40
0.5496278655746643
 40
0.9385757634130559
 40
1.0
 40
1.0
 40
1.0
 40
1.0
 10
140.0122150639834
 20
118.7935849615555
 30
0.0
 10
140.1208546902693
 20
118.8732900698389
 30
0.0
 10
140.3418482936791
 20
119.0354253761897
 30
0.0
 10
140.5264069060916
 20
119.336342712207
 30
0.0
 10
140.4423194132973
 20
119.5770570191173
 30
0.0
 10
140.3093886499167
 20
119.7158172088836
 30
0.0
 10
140.2912588189714
 20
119.7347420891628
 30
0.0
  0
SPLINE
  5
148
330
1F
100
AcDbEntity
  8
0
  6
Continuous
 62
     7
370
    25
100
AcDbSpline
210
0.0
220
0.0
230
1.0
 70
     8
 71
     3
 72
    10
 73
     6
 74
     0
 42
0.000000001
 43
0.00000001
 40
0.0
 40
0.0
 40
0.0
 40
0.0
 40
0.2702476582550659
 40
0.8114648036973531
 40
1.0
 40
1.0
 40
1.0
 40
1.0
 10
140.3700180942555
 20
116.549684229013
 30
0.0
 10
140.4176767350161
 20
116.7554439258014
 30
0.0
 10
140.5607799530753
 20
117.3732725983652
 30
0.0
 10
140.3177492654679
 20
118.1527566974244
 30
0.0
 10
140.0749448172114
 20
118.6620154067392
 30
0.0
 10
140.0122150639834
 20
118.7935849615555
 30
0.0
  0
LINE
  5
149
330
1F
100
AcDbEntity
  8
0
  6
Continuous
 62
     7
370
    25
100
AcDbLine
 10
139.7763166791
 20
120.249684229
 30
0.0
 11
140.291258819
 21
119.7347420892
 31
0.0
  0
LINE
  5
14A
330
1F
100
AcDbEntity
  8
0
  6
Continuous
 62
     7
370
    25
100
AcDbLine
 10
139.7763166791
 20
120.249684229
 30
0.0
 11
139.7763166791
 21
116.549684229
 31
0.0
  0
LINE
  5
14B
330
1F
100
AcDbEntity
  8
0
  6
Continuous
 62
     7
370
    25
100
AcDbLine
 10
152.7763166791
 20
119.3753785791
 30
0.0
 11
152.7763166791
 21
119.549684229
 31
0.0
  0
LINE
  5
14C
330
1F
100
AcDbEntity
  8
0
  6
Continuous
 62
     7
370
    25
100
AcDbLine
 10
152.7763166791
 20
117.0898409778
 30
0.0
 11
152.7763166791
 21
119.3753785791
 31
0.0
  0
LINE
  5
14D
330
1F
100
AcDbEntity
  8
0
  6
Continuous
 62
     7
370
    25
100
AcDbLine
 10
152.7763166791
 20
116.549684229
 30
0.0
 11
152.7763166791
 21
117.0898409778
 31
0.0
  0
LINE
  5
14E
330
1F
100
AcDbEntity
  8
0
  6
Continuous
 62
     7
370
    25
100
AcDbLine
 10
146.7763166791
 20
117.0898409778
 30
0.0
 11
146.7763166791
 21
116.549684229
 31
0.0
  0
LINE
  5
14F
330
1F
100
AcDbEntity
  8
0
  6
Continuous
 62
     7
370
    25
100
AcDbLine
 10
146.7763166791
 20
119.3753785791
 30
0.0
 11
146.7763166791
 21
117.0898409778
 31
0.0
  0
LINE
  5
150
330
1F
100
AcDbEntity
  8
0
  6
Continuous
 62
     7
370
    25
100
AcDbLine
 10
146.7763166791
 20
119.549684229
 30
0.0
 11
146.7763166791
 21
119.3753785791
 31
0.0
  0
LINE
  5
151
330
1F
100
AcDbEntity
  8
0
  6
Continuous
 62
     7
370
    25
100
AcDbLine
 10
146.7763166791
 20
119.549684229
 30
0.0
 11
152.7763166791
 21
119.549684229
 31
0.0
  0
LINE
  5
152
330
1F
100
AcDbEntity
  8
0
  6
Continuous
 62
     7
370
    25
100
AcDbLine
 10
157.7763166791
 20
119.7347420892
 30
0.0
 11
157.7763166791
 21
122.049684229
 31
0.0
  0
LINE
  5
153
330
1F
100
AcDbEntity
  8
0
  6
Continuous
 62
     7
370
    25
100
AcDbLine
 10
152.7763166791
 20
119.7347420892
 30
0.0
 11
157.7763166791
 21
119.7347420892
 31
0.0
  0
LINE
  5
154
330
1F
100
AcDbEntity
  8
0
  6
Continuous
 62
     7
370
    25
100
AcDbLine
 10
152.7763166791
 20
119.549684229
 30
0.0
 11
152.7763166791
 21
119.7347420892
 31
0.0
  0
LINE
  5
155
330
1F
100
AcDbEntity
  8
0
  6
Continuous
 62
     7
370
    25
100
AcDbLine
 10
146.7763166791
 20
119.7347420892
 30
0.0
 11
146.7763166791
 21
119.549684229
 31
0.0
  0
LINE
  5
156
330
1F
100
AcDbEntity
  8
0
  6
Continuous
 62
     7
370
    25
100
AcDbLine
 10
140.291258819
 20
119.7347420892
 30
0.0
 11
146.7763166791
 21
119.7347420892
 31
0.0
  0
LINE
  5
157
330
1F
100
AcDbEntity
  8
0
  6
Continuous
 62
     7
370
    25
100
AcDbLine
 10
139.7763166791
 20
122.049684229
 30
0.0
 11
139.7763166791
 21
120.249684229
 31
0.0
  0
LINE
  5
158
330
1F
100
AcDbEntity
  8
0
  6
Continuous
 62
     7
370
    25
100
AcDbLine
 10
146.7763166791
 20
118.7935849616
 30
0.0
 11
140.012215064
 21
118.7935849616
 31
0.0
  0
LINE
  5
159
330
1F
100
AcDbEntity
  8
0
  6
Continuous
 62
     7
370
    25
100
AcDbLine
 10
159.0763166791
 20
119.3753785791
 30
0.0
 11
157.7763166791
 21
119.3753785791
 31
0.0
  0
SPLINE
  5
15A
330
1F
100
AcDbEntity
  8
0
  6
Continuous
 62
     7
370
    25
100
AcDbSpline
210
0.0
220
0.0
230
1.0
 70
     8
 71
     3
 72
     9
 73
     5
 74
     0
 42
0.000000001
 43
0.00000001
 40
0.0
 40
0.0
 40
0.0
 40
0.0
 40
0.5039876238385103
 40
0.9999999999999999
 40
0.9999999999999999
 40
0.9999999999999999
 40
0.9999999999999999
 10
159.0763166791211
 20
119.3753785790606
 30
0.0
 10
159.1031483873457
 20
119.2730200117625
 30
0.0
 10
159.1563872109904
 20
119.0699226290957
 30
0.0
 10
159.413090356892
 20
118.885206465016
 30
0.0
 10
159.5404182942589
 20
118.7935849615555
 30
0.0
  0
LINE
  5
15B
330
1F
100
AcDbEntity
  8
0
  6
Continuous
 62
     7
370
    25
100
AcDbLine
 10
152.7763166791
 20
118.7935849616
 30
0.0
 11
159.5404182943
 21
118.7935849616
 31
0.0
  0
LINE
  5
15C
330
1F
100
AcDbEntity
  8
0
  6
Continuous
 62
     7
370
    25
100
AcDbLine
 10
157.7763166791
 20
119.3753785791
 30
0.0
 11
157.7763166791
 21
119.7347420892
 31
0.0
  0
LINE
  5
15D
330
1F
100
AcDbEntity
  8
0
  6
Continuous
 62
     7
370
    25
100
AcDbLine
 10
159.7763166791
 20
122.0247864504
 30
0.0
 11
159.7763166791
 21
120.1467926279
 31
0.0
  0
LINE
  5
15E
330
1F
100
AcDbEntity
  8
0
  6
Continuous
 62
     7
370
    25
100
AcDbLine
 10
159.7763166791
 20
120.1467926279
 30
0.0
 11
159.0763166791
 21
119.3753785791
 31
0.0
  0
SPLINE
  5
15F
330
1F
100
AcDbEntity
  8
0
  6
Continuous
 62
     7
370
    25
100
AcDbSpline
210
0.0
220
0.0
230
1.0
 70
     8
 71
     3
 72
    10
 73
     6
 74
     0
 42
0.000000001
 43
0.00000001
 40
0.0
 40
0.0
 40
0.0
 40
0.0
 40
0.188535196302644
 40
0.7297523417449292
 40
1.0
 40
1.0
 40
1.0
 40
1.0
 10
159.5404182942589
 20
118.7935849615555
 30
0.0
 10
159.4776885410309
 20
118.6620154067392
 30
0.0
 10
159.2348840927743
 20
118.1527566974244
 30
0.0
 10
158.9918534051669
 20
117.3732725983652
 30
0.0
 10
159.1349566232261
 20
116.7554439258014
 30
0.0
 10
159.1826152639867
 20
116.549684229013
 30
0.0
  0
LINE
  5
160
330
1F
100
AcDbEntity
  8
0
  6
Continuous
 62
     7
370
    25
100
AcDbLine
 10
159.7763166791
 20
120.1467926279
 30
0.0
 11
159.7763166791
 21
116.549684229
 31
0.0
  0
SPLINE
  5
161
330
1F
100
AcDbEntity
  8
0
  6
Continuous
 62
     7
370
    25
100
AcDbSpline
210
0.0
220
0.0
230
1.0
 70
     8
 71
     3
 72
    14
 73
    10
 74
     0
 42
0.000000001
 43
0.00000001
 40
0.0
 40
0.0
 40
0.0
 40
0.0
 40
0.2500000000000001
 40
0.2500000000000001
 40
0.5000000000000002
 40
0.5000000000000002
 40
0.7500000000000001
 40
0.7500000000000001
 40
1.0
 40
1.0
 40
1.0
 40
1.0
 10
133.342118874551
 20
113.2547861434962
 30
0.0
 10
133.1452429890261
 20
113.4822827114253
 30
0.0
 10
132.9691346676366
 20
113.7238694864964
 30
0.0
 10
132.6593982738634
 20
114.2360267208706
 30
0.0
 10
132.5248402723698
 20
114.5095595239787
 30
0.0
 10
132.3095981196607
 20
115.069664658516
 30
0.0
 10
132.2279548821417
 20
115.356637153926
 30
0.0
 10
132.1174318598717
 20
115.9446761389703
 30
0.0
 10
132.0888166791211
 20
116.2491195947409
 30
0.0
 10
132.0888166791211
 20
116.5496842290127
 30
0.0
  0
LINE
  5
162
330
1F
100
AcDbEntity
  8
0
  6
Continuous
 62
     7
370
    25
100
AcDbLine
 10
133.3421188746
 20
85.074684229
 30
0.0
 11
133.3421188746
 21
113.2547861435
 31
0.0
  0
LINE
  5
163
330
1F
100
AcDbEntity
  8
0
  6
Continuous
 62
     7
370
    25
100
AcDbLine
 10
133.3421188746
 20
148.024684229
 30
0.0
 11
126.9763166791
 21
148.024684229
 31
0.0
  0
LINE
  5
164
330
1F
100
AcDbEntity
  8
0
  6
Continuous
 62
     7
370
    25
100
AcDbLine
 10
140.0105144837
 20
85.074684229
 30
0.0
 11
140.0105144837
 21
111.6599769493
 31
0.0
  0
SPLINE
  5
165
330
1F
100
AcDbEntity
  8
0
  6
Continuous
 62
     7
370
    25
100
AcDbSpline
210
0.0
220
0.0
230
1.0
 70
     8
 71
     3
 72
    20
 73
    16
 74
     0
 42
0.000000001
 43
0.00000001
 40
0.0
 40
0.0
 40
0.0
 40
0.0
 40
0.1250000000000001
 40
0.1250000000000001
 40
0.2500000000000001
 40
0.2500000000000001
 40
0.3750000000000002
 40
0.3750000000000002
 40
0.5000000000000002
 40
0.5000000000000002
 40
0.7500000000000001
 40
0.7500000000000001
 40
0.875
 40
0.875
 40
1.0
 40
1.0
 40
1.0
 40
1.0
 10
143.5638166791211
 20
116.5496842290128
 30
0.0
 10
143.5638166791211
 20
116.2830161415316
 30
0.0
 10
143.5417696500774
 20
116.0147039662576
 30
0.0
 10
143.4527636123726
 20
115.4818609310242
 30
0.0
 10
143.3868846441731
 20
115.2225707210383
 30
0.0
 10
143.2147097364659
 20
114.7174437550169
 30
0.0
 10
143.1080031655589
 20
114.4708635390956
 30
0.0
 10
142.8553262626827
 20
113.9944468883559
 30
0.0
 10
142.711868998488
 20
113.7690268265911
 30
0.0
 10
142.2335468062075
 20
113.1284191449774
 30
0.0
 10
141.8455198232419
 20
112.7456534298743
 30
0.0
 10
141.2037151747966
 20
112.2697511817027
 30
0.0
 10
140.9789105471494
 20
112.126155545551
 30
0.0
 10
140.5076014895272
 20
111.8688241601605
 30
0.0
 10
140.2619048896383
 20
111.7557717816385
 30
0.0
 10
140.0105144836912
 20
111.6599769493278
 30
0.0
  0
LINE
  5
166
330
1F
100
AcDbEntity
  8
0
  6
Continuous
 62
     7
370
    25
100
AcDbLine
 10
144.7763166791
 20
85.074684229
 30
0.0
 11
144.7763166791
 21
116.549684229
 31
0.0
  0
LINE
  5
167
330
1F
100
AcDbEntity
  8
0
  6
Continuous
 62
     7
370
    25
100
AcDbLine
 10
144.7763166791
 20
148.024684229
 30
0.0
 11
140.0105144837
 21
148.024684229
 31
0.0
  0
LINE
  5
168
330
1F
100
AcDbEntity
  8
0
  6
Continuous
 62
     7
370
    25
100
AcDbLine
 10
126.7763166791
 20
85.274684229
 30
0.0
 11
126.7763166791
 21
116.549684229
 31
0.0
  0
LINE
  5
169
330
1F
100
AcDbEntity
  8
0
  6
Continuous
 62
     7
370
    25
100
AcDbLine
 10
126.7763166791
 20
116.549684229
 30
0.0
 11
126.9763166791
 21
116.549684229
 31
0.0
  0
ARC
  5
16A
330
1F
100
AcDbEntity
  8
0
  6
Continuous
 62
     7
370
    25
100
AcDbCircle
 10
126.9763166791
 20
147.824684229
 30
0.0
 40
0.2000000000000028
100
AcDbArc
 50
90.0
 51
180.0
  0
SPLINE
  5
16B
330
1F
100
AcDbEntity
  8
0
  6
Continuous
 62
     7
370
    25
100
AcDbSpline
210
0.0
220
0.0
230
1.0
 70
     8
 71
     3
 72
     8
 73
     4
 74
     0
 42
0.000000001
 43
0.00000001
 40
0.0
 40
0.0
 40
0.0
 40
0.0
 40
1.0
 40
1.0
 40
1.0
 40
1.0
 10
140.0105144836908
 20
111.6599769493267
 30
0.0
 10
139.6621130790105
 20
112.0979522757406
 30
0.0
 10
139.3175446937776
 20
112.5410354143254
 30
0.0
 10
138.9791603944568
 20
112.994426486174
 30
0.0
  0
ARC
  5
16C
330
1F
100
AcDbEntity
  8
0
  6
Continuous
 62
     7
370
    25
100
AcDbCircle
 10
137.8263166791
 20
116.549684229
 30
0.0
 40
3.737500000000006
100
AcDbArc
 50
287.9660359156
 51
360.0
  0
ARC
  5
16D
330
1F
100
AcDbEntity
  8
0
  6
Continuous
 62
     7
370
    25
100
AcDbCircle
 10
137.8263166791
 20
116.549684229
 30
0.0
 40
3.737500000000011
100
AcDbArc
 50
180.0
 51
206.113804444
  0
SPLINE
  5
16E
330
1F
100
AcDbEntity
  8
0
  6
Continuous
 62
     7
370
    25
100
AcDbSpline
210
0.0
220
0.0
230
1.0
 70
     8
 71
     3
 72
    10
 73
     6
 74
     0
 42
0.000000001
 43
0.00000001
 40
0.0
 40
0.0
 40
0.0
 40
0.0
 40
0.5
 40
0.5
 40
1.0
 40
1.0
 40
1.0
 40
1.0
 10
134.4703348716679
 20
114.9046029671773
 30
0.0
 10
134.2934497252444
 20
114.6061526518207
 30
0.0
 10
134.1079003503671
 20
114.3271599476933
 30
0.0
 10
133.7299514103195
 20
113.7818406535676
 30
0.0
 10
133.5371648681403
 20
113.5165052677462
 30
0.0
 10
133.342118874551
 20
113.2547861434962
 30
0.0
  0
SPLINE
  5
16F
330
1F
100
AcDbEntity
  8
0
  6
Continuous
 62
     7
370
    25
100
AcDbSpline
210
0.0
220
0.0
230
1.0
 70
     8
 71
     3
 72
     8
 73
     4
 74
     0
 42
0.000000001
 43
0.00000001
 40
0.0
 40
0.0
 40
0.0
 40
0.0
 40
1.0
 40
1.0
 40
1.0
 40
1.0
 10
134.8013166791212
 20
114.3546258584906
 30
0.0
 10
134.6830199196912
 20
114.517650086949
 30
0.0
 10
134.5715914375198
 20
114.6980385859715
 30
0.0
 10
134.4703348716679
 20
114.9046029671773
 30
0.0
  0
LINE
  5
170
330
1F
100
AcDbEntity
  8
0
  6
Continuous
 62
     7
370
    25
100
AcDbLine
 10
134.8013166791
 20
87.6020889648
 30
0.0
 11
134.8013166791
 21
114.3546258585
 31
0.0
  0
SPLINE
  5
171
330
1F
100
AcDbEntity
  8
0
  6
Continuous
 62
     7
370
    25
100
AcDbSpline
210
0.0
220
0.0
230
1.0
 70
     8
 71
     3
 72
     8
 73
     4
 74
     0
 42
0.000000001
 43
0.00000001
 40
0.0
 40
0.0
 40
0.0
 40
0.0
 40
1.0
 40
1.0
 40
1.0
 40
1.0
 10
138.9791603944571
 20
112.9944264861748
 30
0.0
 10
138.8376223061752
 20
112.9485307150777
 30
0.0
 10
138.6950118374384
 20
112.9115898641404
 30
0.0
 10
138.5513166791214
 20
112.8831761831999
 30
0.0
  0
LINE
  5
172
330
1F
100
AcDbEntity
  8
0
  6
Continuous
 62
     7
370
    25
100
AcDbLine
 10
138.5513166791
 20
87.6020889648
 30
0.0
 11
138.5513166791
 21
112.8831761832
 31
0.0
  0
SPLINE
  5
173
330
1F
100
AcDbEntity
  8
0
  6
Continuous
 62
     7
370
    25
100
AcDbSpline
210
0.0
220
0.0
230
1.0
 70
     8
 71
     3
 72
    14
 73
    10
 74
     0
 42
0.000000001
 43
0.00000001
 40
0.0
 40
0.0
 40
0.0
 40
0.0
 40
0.25
 40
0.25
 40
0.5
 40
0.5
 40
0.75
 40
0.75
 40
1.0
 40
1.0
 40
1.0
 40
1.0
 10
135.8013166791211
 20
113.4083021685179
 30
0.0
 10
135.6669685927646
 20
113.4949057301455
 30
0.0
 10
135.5437919189087
 20
113.5863741274689
 30
0.0
 10
135.3150453139907
 20
113.7775655140998
 30
0.0
 10
135.2131233500235
 20
113.8744273662407
 30
0.0
 10
135.0336999475947
 20
114.062301980976
 30
0.0
 10
134.9572586594119
 20
114.1525373323273
 30
0.0
 10
134.8399686865618
 20
114.3003436963047
 30
0.0
 10
134.8013166791211
 20
114.3546258584906
 30
0.0
 10
134.8013166791211
 20
114.3546258584906
 30
0.0
  0
SPLINE
  5
174
330
1F
100
AcDbEntity
  8
0
  6
Continuous
 62
     7
370
    25
100
AcDbSpline
210
0.0
220
0.0
230
1.0
 70
     8
 71
     3
 72
    14
 73
    10
 74
     0
 42
0.000000001
 43
0.00000001
 40
0.0
 40
0.0
 40
0.0
 40
0.0
 40
0.25
 40
0.25
 40
0.5
 40
0.5
 40
0.75
 40
0.75
 40
1.0
 40
1.0
 40
1.0
 40
1.0
 10
138.5513166791212
 20
112.8831761832004
 30
0.0
 10
138.5513166791214
 20
112.8831761832004
 30
0.0
 10
138.5254001565503
 20
112.8777994522121
 30
0.0
 10
138.4259553099727
 20
112.8602548646116
 30
0.0
 10
138.3536569175605
 20
112.8484054609653
 30
0.0
 10
138.1689530230366
 20
112.826761642965
 30
0.0
 10
138.0593757611607
 20
112.8174723822806
 30
0.0
 10
137.8160455829425
 20
112.810216845923
 30
0.0
 10
137.6845093240224
 20
112.8124882520824
 30
0.0
 10
137.5513166791211
 20
112.8223150160156
 30
0.0
  0
SPLINE
  5
175
330
1F
100
AcDbEntity
  8
0
  6
Continuous
 62
     7
370
    25
100
AcDbSpline
210
0.0
220
0.0
230
1.0
 70
     8
 71
     3
 72
    10
 73
     6
 74
     0
 42
0.000000001
 43
0.00000001
 40
0.0
 40
0.0
 40
0.0
 40
0.0
 40
0.5
 40
0.5
 40
1.0
 40
1.0
 40
1.0
 40
1.0
 10
137.5513166791211
 20
112.8223150160156
 30
0.0
 10
137.238852776833
 20
112.8453681583847
 30
0.0
 10
136.9359637948352
 20
112.9066028607911
 30
0.0
 10
136.3486206100312
 20
113.102774824715
 30
0.0
 10
136.0641529494592
 20
113.2388724598149
 30
0.0
 10
135.8013166791211
 20
113.4083021685179
 30
0.0
  0
LINE
  5
176
330
1F
100
AcDbEntity
  8
0
  6
Continuous
 62
     7
370
    25
100
AcDbLine
 10
126.7763166791
 20
143.399684229
 30
0.0
 11
127.1103553651
 21
142.3402488686
 31
0.0
  0
LINE
  5
177
330
1F
100
AcDbEntity
  8
0
  6
Continuous
 62
     7
370
    25
100
AcDbLine
 10
126.7763166791
 20
143.399684229
 30
0.0
 11
126.7763166791
 21
141.4243954957
 31
0.0
  0
ARC
  5
178
330
1F
100
AcDbEntity
  8
0
  6
Continuous
 62
     7
370
    25
100
AcDbCircle
 10
126.3473818046
 20
142.099684229
 30
0.0
 40
0.799999999999991
100
AcDbArc
 50
252.5
 51
17.5
  0
LINE
  5
179
330
1F
100
AcDbEntity
  8
0
  6
Continuous
 62
     7
370
    25
100
AcDbLine
 10
125.6161346391
 20
91.6079461835
 30
0.0
 11
125.6161346391
 21
116.549684229
 31
0.0
  0
LINE
  5
17A
330
1F
100
AcDbEntity
  8
0
  6
Continuous
 62
     7
370
    25
100
AcDbLine
 10
126.1068171649
 20
141.3367106684
 30
0.0
 11
125.6161346391
 21
141.4914222745
 31
0.0
  0
SPLINE
  5
17B
330
1F
100
AcDbEntity
  8
0
  6
Continuous
 62
     7
370
    25
100
AcDbSpline
210
0.0
220
0.0
230
1.0
 70
     8
 71
     3
 72
    23
 73
    19
 74
     0
 42
0.000000001
 43
0.00000001
 40
0.0
 40
0.0
 40
0.0
 40
0.0
 40
0.001460483585462
 40
0.069615055201918
 40
0.1372664175514486
 40
0.2039701100159476
 40
0.270300937204775
 40
0.3365574243307605
 40
0.4028683822767346
 40
0.4678692470317519
 40
0.5326412098413903
 40
0.5993596686012845
 40
0.6655231153857109
 40
0.7321169425959915
 40
0.798886844841679
 40
0.8663366772638037
 40
0.9345228518799363
 40
1.0
 40
1.0
 40
1.0
 40
1.0
 10
96.5361069915728
 20
139.9739528191543
 30
0.0
 10
96.53726212215987
 20
139.9735964467982
 30
0.0
 10
96.59232229564357
 20
139.9566096887887
 30
0.0
 10
96.98873972230146
 20
139.8393443327678
 30
0.0
 10
97.704789595017
 20
139.6387366408342
 30
0.0
 10
98.71447137071796
 20
139.3981209926469
 30
0.0
 10
99.93044898602876
 20
139.1708488932773
 30
0.0
 10
101.3346490870091
 20
138.9984593417692
 30
0.0
 10
102.8517131654064
 20
138.910391045099
 30
0.0
 10
104.4260110151295
 20
138.9414387039938
 30
0.0
 10
105.9918312411666
 20
139.0924619437028
 30
0.0
 10
107.4816883106808
 20
139.3467987422753
 30
0.0
 10
108.8533685030228
 20
139.6645355209315
 30
0.0
 10
110.0392915967412
 20
140.0084519410659
 30
0.0
 10
111.0168909407495
 20
140.3362945413745
 30
0.0
 10
111.7364020923399
 20
140.6052189708582
 30
0.0
 10
112.2090370940423
 20
140.78780830648
 30
0.0
 10
112.2665082083955
 20
140.8110566990647
 30
0.0
 10
112.2946613665701
 20
140.822445301515
 30
0.0
  0
LINE
  5
17C
330
1F
100
AcDbEntity
  8
0
  6
Continuous
 62
     7
370
    25
100
AcDbLine
 10
96.3767507939
 20
140.0230805906
 30
0.0
 11
88.3263166791
 21
139.6188043566
 31
0.0
  0
LINE
  5
17D
330
1F
100
AcDbEntity
  8
0
  6
Continuous
 62
     7
370
    25
100
AcDbLine
 10
88.3263166791
 20
93.4805641014
 30
0.0
 11
88.3263166791
 21
107.4275611944
 31
0.0
  0
SPLINE
  5
17E
330
1F
100
AcDbEntity
  8
0
  6
Continuous
 62
     7
370
    25
100
AcDbSpline
210
0.0
220
0.0
230
1.0
 70
     8
 71
     3
 72
     8
 73
     4
 74
     0
 42
0.000000001
 43
0.00000001
 40
0.0
 40
0.0
 40
0.0
 40
0.0
 40
1.0
 40
1.0
 40
1.0
 40
1.0
 10
94.1444911320681
 20
107.4321472527096
 30
0.0
 10
92.2050996477567
 20
107.43000115686
 30
0.0
 10
90.26570816344527
 20
107.4284049703352
 30
0.0
 10
88.32631667913387
 20
107.4273575178595
 30
0.0
  0
SPLINE
  5
17F
330
1F
100
AcDbEntity
  8
0
  6
Continuous
 62
     7
370
    25
100
AcDbSpline
210
0.0
220
0.0
230
1.0
 70
     8
 71
     3
 72
    13
 73
     9
 74
     0
 42
0.000000001
 43
0.00000001
 40
0.0
 40
0.0
 40
0.0
 40
0.0
 40
0.1686319999748085
 40
0.3360343310905433
 40
0.502536782590866
 40
0.6684737453788339
 40
0.834182263691515
 40
1.0
 40
1.0
 40
1.0
 40
1.0
 10
95.22798618153507
 20
107.5696036985272
 30
0.0
 10
95.16849628547536
 20
107.5550893784884
 30
0.0
 10
95.04995029520028
 20
107.5261665772038
 30
0.0
 10
94.87007359961441
 20
107.4922051837956
 30
0.0
 10
94.68968331198637
 20
107.4653396214366
 30
0.0
 10
94.50857113995256
 20
107.4463806843286
 30
0.0
 10
94.3268103027851
 20
107.434450232933
 30
0.0
 10
94.20527753489047
 20
107.4329150813641
 30
0.0
 10
94.14449113206808
 20
107.4321472527096
 30
0.0
  0
SPLINE
  5
180
330
1F
100
AcDbEntity
  8
0
  6
Continuous
 62
     7
370
    25
100
AcDbSpline
210
0.0
220
0.0
230
1.0
 70
     8
 71
     3
 72
     8
 73
     4
 74
     0
 42
0.000000001
 43
0.00000001
 40
0.0
 40
0.0
 40
0.0
 40
0.0
 40
1.0
 40
1.0
 40
1.0
 40
1.0
 10
100.6201795980279
 20
107.5738417404127
 30
0.0
 10
98.8227849265901
 20
107.5719706798887
 30
0.0
 10
97.02539025515227
 20
107.5705484988646
 30
0.0
 10
95.22799558371445
 20
107.5695743758686
 30
0.0
  0
SPLINE
  5
181
330
1F
100
AcDbEntity
  8
0
  6
Continuous
 62
     7
370
    25
100
AcDbSpline
210
0.0
220
0.0
230
1.0
 70
     8
 71
     3
 72
    18
 73
    14
 74
     0
 42
0.000000001
 43
0.00000001
 40
0.0
 40
0.0
 40
0.0
 40
0.0
 40
0.0923325137111192
 40
0.1843692047063016
 40
0.2763458873810836
 40
0.3684982175655623
 40
0.4610598988303626
 40
0.554260954653301
 40
0.6483261285442131
 40
0.74347346365053
 40
0.8399130993119804
 40
0.9201660718299768
 40
1.0
 40
1.0
 40
1.0
 40
1.0
 10
102.8165012466302
 20
107.039649504569
 30
0.0
 10
102.7461709431172
 20
107.0400661290006
 30
0.0
 10
102.6057356662652
 20
107.0408980430473
 30
0.0
 10
102.3953731397626
 20
107.0545068899619
 30
0.0
 10
102.1859294768463
 20
107.0771736473335
 30
0.0
 10
101.9773798064737
 20
107.1097744371342
 30
0.0
 10
101.7697361891985
 20
107.1520769157545
 30
0.0
 10
101.5629980016589
 20
107.2041483144097
 30
0.0
 10
101.357175909694
 20
107.2659970872551
 30
0.0
 10
101.1522442309019
 20
107.3375950987113
 30
0.0
 10
100.9607634855062
 20
107.4141735889387
 30
0.0
 10
100.7830403334516
 20
107.4927848377717
 30
0.0
 10
100.6747063388876
 20
107.5466989935591
 30
0.0
 10
100.6206811294343
 20
107.5735855084581
 30
0.0
  0
LINE
  5
182
330
1F
100
AcDbEntity
  8
0
  6
Continuous
 62
     7
370
    25
100
AcDbLine
 10
104.7313745259
 20
107.0411449394
 30
0.0
 11
102.8165012466
 21
107.0396495046
 31
0.0
  0
SPLINE
  5
183
330
1F
100
AcDbEntity
  8
0
  6
Continuous
 62
     7
370
    25
100
AcDbSpline
210
0.0
220
0.0
230
1.0
 70
     8
 71
     3
 72
    25
 73
    21
 74
     0
 42
0.000000001
 43
0.00000001
 40
0.0
 40
0.0
 40
0.0
 40
0.0
 40
0.0280105225422753
 40
0.0559601148854256
 40
0.0839014045034749
 40
0.1118870776777086
 40
0.1399695827579646
 40
0.1682008401731476
 40
0.1966319670417595
 40
0.2253130233137476
 40
0.2542927850735311
 40
0.3799486436564626
 40
0.5057850221666382
 40
0.631308588631066
 40
0.7532068238011618
 40
0.8039473267946936
 40
0.8535894438541253
 40
0.9025339722380873
 40
0.9511970353782256
 40
1.0
 40
1.0
 40
1.0
 40
1.0
 10
109.6712588323226
 20
112.1750087439443
 30
0.0
 10
109.6712960540564
 20
112.1003887169319
 30
0.0
 10
109.671370416557
 20
111.9513109809464
 30
0.0
 10
109.6589543659105
 20
111.7286928899822
 30
0.0
 10
109.6373498055567
 20
111.5073684719548
 30
0.0
 10
109.6056643358967
 20
111.2874002060669
 30
0.0
 10
109.5641381975767
 20
111.0688099188378
 30
0.0
 10
109.5127074418468
 20
110.8516279804328
 30
0.0
 10
109.4513935671356
 20
110.6358865605465
 30
0.0
 10
109.3801832316361
 20
110.4215966690943
 30
0.0
 10
109.209346624435
 20
109.9732468960734
 30
0.0
 10
108.8716143909989
 20
109.3199160680013
 30
0.0
 10
108.2600597268042
 20
108.5480228573651
 30
0.0
 10
107.5238248916517
 20
107.9038632319799
 30
0.0
 10
106.8373388200074
 20
107.5122220639179
 30
0.0
 10
106.2886346738586
 20
107.2935271629448
 30
0.0
 10
105.906598495357
 20
107.1776711141144
 30
0.0
 10
105.5194323966525
 20
107.0967632085845
 30
0.0
 10
105.1272057278624
 20
107.0475347777868
 30
0.0
 10
104.8634444597436
 20
107.0432769227715
 30
0.0
 10
104.7313745259197
 20
107.0411449394288
 30
0.0
  0
LINE
  5
184
330
1F
100
AcDbEntity
  8
0
  6
Continuous
 62
     7
370
    25
100
AcDbLine
 10
109.6712588323
 20
116.549684229
 30
0.0
 11
109.6712588323
 21
112.1750087439
 31
0.0
  0
LINE
  5
185
330
1F
100
AcDbEntity
  8
0
  6
Continuous
 62
     7
370
    25
100
AcDbLine
 10
125.6161346391
 20
141.4914222745
 30
0.0
 11
112.2946613666
 21
140.8224453015
 31
0.0
  0
SPLINE
  5
186
330
1F
100
AcDbEntity
  8
0
  6
Continuous
 62
     7
370
    25
100
AcDbSpline
210
0.0
220
0.0
230
1.0
 70
     8
 71
     3
 72
    20
 73
    16
 74
     0
 42
0.000000001
 43
0.00000001
 40
0.0
 40
0.0
 40
0.0
 40
0.0
 40
0.0829621378684844
 40
0.1658495135106147
 40
0.248718007085733
 40
0.3299477216398489
 40
0.4108693994445691
 40
0.4941953814850509
 40
0.5768901676626165
 40
0.6601065810557706
 40
0.7435845489350774
 40
0.8279858465401798
 40
0.9132590745392786
 40
0.9972257035811698
 40
1.0
 40
1.0
 40
1.0
 40
1.0
 10
98.6887327738481
 20
93.68642386150611
 30
0.0
 10
99.07447860991938
 20
93.76334228811024
 30
0.0
 10
99.84562266303658
 20
93.91710982544784
 30
0.0
 10
101.2533708142064
 20
94.09302504683336
 30
0.0
 10
102.761222182081
 20
94.1870213341624
 30
0.0
 10
104.3337111570989
 20
94.16317695229581
 30
0.0
 10
105.901008188311
 20
94.01927190739522
 30
0.0
 10
107.3967842150924
 20
93.77021430459617
 30
0.0
 10
108.7770380907651
 20
93.45553361205755
 30
0.0
 10
109.9746322738208
 20
93.11127226007702
 30
0.0
 10
110.961494303643
 20
92.78222503425728
 30
0.0
 10
111.708732549841
 20
92.5037641260495
 30
0.0
 10
112.1559339792066
 20
92.3319083310179
 30
0.0
 10
112.3426885913565
 20
92.2580576594194
 30
0.0
 10
112.2915903774583
 20
92.27820895049257
 30
0.0
 10
112.2899560671132
 20
92.2788534634991
 30
0.0
  0
SPLINE
  5
187
330
1F
100
AcDbEntity
  8
0
  6
Continuous
 62
     7
370
    25
100
AcDbSpline
210
0.0
220
0.0
230
1.0
 70
     8
 71
     3
 72
    11
 73
     7
 74
     0
 42
0.000000001
 43
0.00000001
 40
0.0
 40
0.0
 40
0.0
 40
0.0
 40
0.2435512231731604
 40
0.4981153923403679
 40
0.7509097881719522
 40
1.0
 40
1.0
 40
1.0
 40
1.0
 10
96.3812386561045
 20
93.07776165212297
 30
0.0
 10
96.40718957762978
 20
93.08599718866114
 30
0.0
 10
96.46026487443487
 20
93.10284065781062
 30
0.0
 10
96.93795985809737
 20
93.24374209994812
 30
0.0
 10
97.64929930636414
 20
93.44903265039633
 30
0.0
 10
98.3439639535388
 20
93.60768376859355
 30
0.0
 10
98.6887327738481
 20
93.68642386150611
 30
0.0
  0
LINE
  5
188
330
1F
100
AcDbEntity
  8
0
  6
Continuous
 62
     7
370
    25
100
AcDbLine
 10
109.6712588323
 20
112.1750087439
 30
0.0
 11
108.7763166791
 21
112.337184229
 31
0.0
  0
LINE
  5
189
330
1F
100
AcDbEntity
  8
0
  6
Continuous
 62
     7
370
    25
100
AcDbLine
 10
108.7763166791
 20
112.337184229
 30
0.0
 11
108.7763166791
 21
116.549684229
 31
0.0
  0
SPLINE
  5
18A
330
1F
100
AcDbEntity
  8
0
  6
Continuous
 62
     7
370
    25
100
AcDbSpline
210
0.0
220
0.0
230
1.0
 70
     8
 71
     3
 72
    25
 73
    21
 74
     0
 42
0.000000001
 43
0.00000001
 40
0.0
 40
0.0
 40
0.0
 40
0.0
 40
0.0288821753116583
 40
0.0583636594024247
 40
0.088464720432864
 40
0.1192044006641432
 40
0.1506005800108822
 40
0.1826700399688414
 40
0.2154285269587146
 40
0.2488908143380118
 40
0.3610594471217245
 40
0.498467013106778
 40
0.5822693905006526
 40
0.6661127642782239
 40
0.7499972937224496
 40
0.8007709755032478
 40
0.8511237700807983
 40
0.901089602450676
 40
0.9507031914109089
 40
1.0
 40
1.0
 40
1.0
 40
1.0
 10
104.7763166791211
 20
108.3371842290129
 30
0.0
 10
104.8391171323599
 20
108.3380407129648
 30
0.0
 10
104.9660211561598
 20
108.3397714530184
 30
0.0
 10
105.1573755638742
 20
108.3539213184222
 30
0.0
 10
105.3512803765529
 20
108.3770584007437
 30
0.0
 10
105.5471810972813
 20
108.4104695529691
 30
0.0
 10
105.7445187652854
 20
108.4543433750018
 30
0.0
 10
105.9426721070706
 20
108.5091386459712
 30
0.0
 10
106.1409878510787
 20
108.5752076073347
 30
0.0
 10
106.4923088385813
 20
108.7131889395877
 30
0.0
 10
107.0174206089038
 20
108.9932408784289
 30
0.0
 10
107.5544124373893
 20
109.4318314808373
 30
0.0
 10
107.9664721674277
 20
109.9056916023839
 30
0.0
 10
108.2533907554802
 20
110.3373753502038
 30
0.0
 10
108.4518174426874
 20
110.7404985919639
 30
0.0
 10
108.5839033167357
 20
111.0982347527429
 30
0.0
 10
108.6695371965335
 20
111.4009871550252
 30
0.0
 10
108.7306194078866
 20
111.7094754652709
 30
0.0
 10
108.7691203512521
 20
112.0217871754273
 30
0.0
 10
108.7739230303455
 20
112.2322765893287
 30
0.0
 10
108.7763166791211
 20
112.3371842290129
 30
0.0
  0
ARC
  5
18B
330
1F
100
AcDbEntity
  8
0
  6
Continuous
 62
     7
370
    25
100
AcDbCircle
 10
147.7763166791
 20
140.049684229
 30
0.0
 40
3.000000000000028
100
AcDbArc
 50
180.0
 51
270.0
  0
SPLINE
  5
18C
330
1F
100
AcDbEntity
  8
0
  6
Continuous
 62
     7
370
    25
100
AcDbSpline
210
0.0
220
0.0
230
1.0
 70
     8
 71
     3
 72
    13
 73
     9
 74
     0
 42
0.000000001
 43
0.00000001
 40
0.0
 40
0.0
 40
0.0
 40
0.0
 40
0.1722587823678385
 40
0.3421398271425444
 40
0.5097456258111679
 40
0.6751828993453325
 40
0.8385626190248169
 40
1.0
 40
1.0
 40
1.0
 40
1.0
 10
101.7763350480314
 20
108.4871790517627
 30
0.0
 10
101.8371984377039
 20
108.4709153240632
 30
0.0
 10
101.9580851021493
 20
108.4386123615825
 30
0.0
 10
102.1411462601218
 20
108.4012247068889
 30
0.0
 10
102.3232489430624
 20
108.3720917719788
 30
0.0
 10
102.5041903913791
 20
108.3519050563734
 30
0.0
 10
102.6835293950753
 20
108.3394582520727
 30
0.0
 10
102.8023756234887
 20
108.3379392088453
 30
0.0
 10
102.8614433998317
 20
108.3371842290129
 30
0.0
  0
LINE
  5
18D
330
1F
100
AcDbEntity
  8
0
  6
Continuous
 62
     7
370
    25
100
AcDbLine
 10
102.8165012466
 20
107.0396495046
 30
0.0
 11
102.8614433998
 21
108.337184229
 31
0.0
  0
SPLINE
  5
18E
330
1F
100
AcDbEntity
  8
0
  6
Continuous
 62
     7
370
    25
100
AcDbSpline
210
0.0
220
0.0
230
1.0
 70
     8
 71
     3
 72
    11
 73
     7
 74
     0
 42
0.000000001
 43
0.00000001
 40
0.0
 40
0.0
 40
0.0
 40
0.0
 40
0.2392913844325938
 40
0.5001130135003002
 40
0.7515028526498353
 40
0.9999999999999999
 40
0.9999999999999999
 40
0.9999999999999999
 40
0.9999999999999999
 10
101.4488441869752
 20
108.487757834036
 30
0.0
 10
101.3800192510282
 20
108.4162043968814
 30
0.0
 10
101.236176854855
 20
108.2666595013701
 30
0.0
 10
101.0284280564885
 20
108.0377420747246
 30
0.0
 10
100.8204418518674
 20
107.8054237024848
 30
0.0
 10
100.6874409280971
 20
107.6506478198935
 30
0.0
 10
100.6213252838727
 20
107.5737076987437
 30
0.0
  0
SPLINE
  5
18F
330
1F
100
AcDbEntity
  8
0
  6
Continuous
 62
     7
370
    25
100
AcDbSpline
210
0.0
220
0.0
230
1.0
 70
    24
 71
     3
 72
     9
 73
     5
 74
     0
 42
0.000000001
 43
0.00000001
 40
0.0
 40
0.0
 40
0.0
 40
0.0
 40
0.509083966986604
 40
1.0
 40
1.0
 40
1.0
 40
1.0
 10
101.4510744552946
 20
108.4871842290129
 30
0.0
 10
101.505807855407
 20
108.4871842290129
 30
0.0
 10
101.6133213574258
 20
108.4871842290129
 30
0.0
 10
101.7227139177968
 20
108.4871842290129
 30
0.0
 10
101.7764164795753
 20
108.4871842290129
 30
0.0
  0
LINE
  5
190
330
1F
100
AcDbEntity
  8
0
  6
Continuous
 62
     7
370
    25
100
AcDbLine
 10
95.2024665907
 20
108.4671324553
 30
0.0
 11
95.2278810823
 21
107.5695742846
 31
0.0
  0
SPLINE
  5
191
330
1F
100
AcDbEntity
  8
0
  6
Continuous
 62
     7
370
    25
100
AcDbSpline
210
0.0
220
0.0
230
1.0
 70
     8
 71
     3
 72
     8
 73
     4
 74
     0
 42
0.000000001
 43
0.00000001
 40
0.0
 40
0.0
 40
0.0
 40
0.0
 40
1.0
 40
1.0
 40
1.0
 40
1.0
 10
95.20247778184934
 20
108.4671329453521
 30
0.0
 10
95.22428063833138
 20
108.4728302763848
 30
0.0
 10
95.24603534772888
 20
108.4787118591798
 30
0.0
 10
95.26773880304695
 20
108.4847768537329
 30
0.0
  0
LINE
  5
192
330
1F
100
AcDbEntity
  8
0
  6
Continuous
 62
     7
370
    25
100
AcDbLine
 10
95.2763166792
 20
108.487184229
 30
0.0
 11
101.4499896515
 21
108.487184229
 31
0.0
  0
LINE
  5
193
330
1F
100
AcDbEntity
  8
0
  6
Continuous
 62
     7
370
    25
100
AcDbLine
 10
102.8614433998
 20
108.337184229
 30
0.0
 11
104.7763166791
 21
108.337184229
 31
0.0
  0
SPLINE
  5
194
330
1F
100
AcDbEntity
  8
0
  6
Continuous
 62
     7
370
    25
100
AcDbSpline
210
0.0
220
0.0
230
1.0
 70
     8
 71
     3
 72
    13
 73
     9
 74
     0
 42
0.000000001
 43
0.00000001
 40
0.0
 40
0.0
 40
0.0
 40
0.0
 40
0.1621004456571512
 40
0.325943455157606
 40
0.4915935308260523
 40
0.6591130873964648
 40
0.8285624736043361
 40
1.0
 40
1.0
 40
1.0
 40
1.0
 10
94.19118995841058
 20
108.3371842290129
 30
0.0
 10
94.24674491647612
 20
108.3378531952142
 30
0.0
 10
94.35845204294088
 20
108.3391983189375
 30
0.0
 10
94.52629973233465
 20
108.3501448877289
 30
0.0
 10
94.69508615120303
 20
108.3677838170496
 30
0.0
 10
94.86441050773486
 20
108.3930893310374
 30
0.0
 10
95.03415715591224
 20
108.4253933338304
 30
0.0
 10
95.14615005456987
 20
108.4531649337165
 30
0.0
 10
95.20247308959962
 20
108.4671317192177
 30
0.0
  0
LINE
  5
195
330
1F
100
AcDbEntity
  8
0
  6
Continuous
 62
     7
370
    25
100
AcDbLine
 10
87.4126568576
 20
107.8096824851
 30
0.0
 11
88.3263166792
 21
108.337184229
 31
0.0
  0
LINE
  5
196
330
1F
100
AcDbEntity
  8
0
  6
Continuous
 62
     7
370
    25
100
AcDbLine
 10
88.3263166792
 20
108.337184229
 30
0.0
 11
94.1911899584
 21
108.337184229
 31
0.0
  0
SPLINE
  5
197
330
1F
100
AcDbEntity
  8
0
  6
Continuous
 62
     7
370
    25
100
AcDbSpline
210
0.0
220
0.0
230
1.0
 70
     8
 71
     3
 72
     8
 73
     4
 74
     0
 42
0.000000001
 43
0.00000001
 40
0.0
 40
0.0
 40
0.0
 40
0.0
 40
1.0
 40
1.0
 40
1.0
 40
1.0
 10
88.32631667867017
 20
107.4273575176369
 30
0.0
 10
88.02176340496464
 20
107.5560483821837
 30
0.0
 10
87.71721013125911
 20
107.6834931384454
 30
0.0
 10
87.41265685755359
 20
107.8096824850832
 30
0.0
  0
LINE
  5
198
330
1F
100
AcDbEntity
  8
0
  6
Continuous
 62
     7
370
    25
100
AcDbLine
 10
86.8263166791
 20
94.3465895052
 30
0.0
 11
86.8263166791
 21
107.4711588252
 31
0.0
  0
SPLINE
  5
199
330
1F
100
AcDbEntity
  8
0
  6
Continuous
 62
     7
370
    25
100
AcDbSpline
210
0.0
220
0.0
230
1.0
 70
    24
 71
     3
 72
     8
 73
     4
 74
     0
 42
0.000000001
 43
0.00000001
 40
0.0
 40
0.0
 40
0.0
 40
0.0
 40
1.0
 40
1.0
 40
1.0
 40
1.0
 10
87.41265685755357
 20
107.8096824850832
 30
0.0
 10
87.21632483189524
 20
107.6963301372188
 30
0.0
 10
87.020863811655
 20
107.583480664567
 30
0.0
 10
86.8263166791211
 20
107.4711588252285
 30
0.0
  0
LINE
  5
19A
330
1F
100
AcDbEntity
  8
0
  6
Continuous
 62
     7
370
    25
100
AcDbLine
 10
155.9514977344
 20
96.049684229
 30
0.0
 11
155.9514977344
 21
116.549684229
 31
0.0
  0
LINE
  5
19B
330
1F
100
AcDbEntity
  8
0
  6
Continuous
 62
     7
370
    25
100
AcDbLine
 10
204.9332348706
 20
133.1947379132
 30
0.0
 11
155.9514977344
 21
137.049684229
 31
0.0
  0
LINE
  5
19C
330
1F
100
AcDbEntity
  8
0
  6
Continuous
 62
     7
370
    25
100
AcDbLine
 10
155.9514977344
 20
137.049684229
 30
0.0
 11
147.7763166791
 21
137.049684229
 31
0.0
  0
LINE
  5
19D
330
1F
100
AcDbEntity
  8
0
  6
Continuous
 62
     7
370
    25
100
AcDbLine
 10
118.5515571527
 20
134.799684229
 30
0.0
 11
119.9763166791
 21
134.799684229
 31
0.0
  0
ARC
  5
19E
330
1F
100
AcDbEntity
  8
0
  6
Continuous
 62
     7
370
    25
100
AcDbCircle
 10
118.5515571527
 20
133.999684229
 30
0.0
 40
0.799999999999983
100
AcDbArc
 50
90.0
 51
120.0
  0
ARC
  5
19F
330
1F
100
AcDbEntity
  8
0
  6
Continuous
 62
     7
370
    25
100
AcDbCircle
 10
119.9763166791
 20
133.999684229
 30
0.0
 40
0.799999999999983
100
AcDbArc
 50
0.0
 51
90.0
  0
LINE
  5
1A0
330
1F
100
AcDbEntity
  8
0
  6
Continuous
 62
     7
370
    25
100
AcDbLine
 10
117.2763166791
 20
134.187184229
 30
0.0
 11
117.2763166791
 21
116.549684229
 31
0.0
  0
LINE
  5
1A1
330
1F
100
AcDbEntity
  8
0
  6
Continuous
 62
     7
370
    25
100
AcDbLine
 10
117.2763166791
 20
134.187184229
 30
0.0
 11
118.1515571527
 21
134.692504552
 31
0.0
  0
LINE
  5
1A2
330
1F
100
AcDbEntity
  8
0
  6
Continuous
 62
     7
370
    25
100
AcDbLine
 10
87.577982729
 20
107.9051334214
 30
0.0
 11
87.4415139566
 21
107.826343139
 31
0.0
  0
SPLINE
  5
1A3
330
1F
100
AcDbEntity
  8
0
  6
Continuous
 62
     7
370
    25
100
AcDbSpline
210
0.0
220
0.0
230
1.0
 70
     8
 71
     3
 72
    32
 73
    28
 74
     0
 42
0.000000001
 43
0.00000001
 40
0.0
 40
0.0
 40
0.0
 40
0.0
 40
0.1250000000000002
 40
0.1250000000000002
 40
0.1875000000000003
 40
0.1875000000000003
 40
0.2500000000000004
 40
0.2500000000000004
 40
0.3125000000000005
 40
0.3125000000000005
 40
0.3750000000000006
 40
0.3750000000000006
 40
0.5000000000000009
 40
0.5000000000000009
 40
0.5625000000000009
 40
0.5625000000000009
 40
0.6250000000000009
 40
0.6250000000000009
 40
0.7500000000000006
 40
0.7500000000000006
 40
0.8125000000000004
 40
0.8125000000000004
 40
0.8750000000000003
 40
0.8750000000000003
 40
0.9375000000000002
 40
0.9375000000000002
 40
1.0
 40
1.0
 40
1.0
 40
1.0
 10
101.2439470104617
 20
132.7223529832225
 30
0.0
 10
100.7598727665077
 20
132.7227123758421
 30
0.0
 10
100.2764751959408
 20
132.7376715820234
 30
0.0
 10
99.5525698462048
 20
132.7846556285321
 30
0.0
 10
99.31190741266795
 20
132.8044321836566
 30
0.0
 10
98.84056130359231
 20
132.8513962671557
 30
0.0
 10
98.60872548730207
 20
132.8786501163402
 30
0.0
 10
98.15302240074574
 20
132.9402780449528
 30
0.0
 10
97.92915407780441
 20
132.9746531457482
 30
0.0
 10
97.48982648579661
 20
133.0499725894013
 30
0.0
 10
97.2731090931302
 20
133.0911905401496
 30
0.0
 10
96.64676711445738
 20
133.2214273593303
 30
0.0
 10
96.26237448010397
 20
133.3164672712296
 30
0.0
 10
95.73483273448414
 20
133.462734233182
 30
0.0
 10
95.56719858295305
 20
133.5121028683726
 30
0.0
 10
95.24879383571248
 20
133.6105065758729
 30
0.0
 10
95.09921296117335
 20
133.6591898405054
 30
0.0
 10
94.68619289162491
 20
133.7988126436738
 30
0.0
 10
94.45464112046577
 20
133.8843993222544
 30
0.0
 10
94.1713316053761
 20
133.9933623701704
 30
0.0
 10
94.0877639236043
 20
134.0264110227449
 30
0.0
 10
93.94583909128012
 20
134.0834144189852
 30
0.0
 10
93.88685097983759
 20
134.1076111245956
 30
0.0
 10
93.79213507612776
 20
134.1468134049746
 30
0.0
 10
93.75640710898102
 20
134.1618205714717
 30
0.0
 10
93.70844283126357
 20
134.1820295691986
 30
0.0
 10
93.69631652383009
 20
134.1871842290129
 30
0.0
 10
93.69631652383012
 20
134.1871842290129
 30
0.0
  0
SPLINE
  5
1A4
330
1F
100
AcDbEntity
  8
0
  6
Continuous
 62
     7
370
    25
100
AcDbSpline
210
0.0
220
0.0
230
1.0
 70
     8
 71
     3
 72
    31
 73
    27
 74
     0
 42
0.000000001
 43
0.00000001
 40
0.0
 40
0.0
 40
0.0
 40
0.0
 40
0.0161756722762542
 40
0.0323169137831942
 40
0.0484425619887114
 40
0.064571508996517
 40
0.0807226353345304
 40
0.0969147439455009
 40
0.1131664955259595
 40
0.1294963463054609
 40
0.1459224892616276
 40
0.1624627996348776
 40
0.1791347854483751
 40
0.1959555435640499
 40
0.2945755146278042
 40
0.3932797312250894
 40
0.4928176221933347
 40
0.5924285912823444
 40
0.6939020917448213
 40
0.7927115381487382
 40
0.8267756331435548
 40
0.8608043324964908
 40
0.8949846314009929
 40
0.9295010594357874
 40
0.96453283224683
 40
1.0
 40
1.0
 40
1.0
 40
1.0
 10
112.2522660692052
 20
134.1871842290129
 30
0.0
 10
112.251532968754
 20
134.186837837585
 30
0.0
 10
112.2500683282945
 20
134.1861457920415
 30
0.0
 10
112.2370119486295
 20
134.1805634299951
 30
0.0
 10
112.2159973881067
 20
134.171696667001
 30
0.0
 10
112.186250182766
 20
134.159255566286
 30
0.0
 10
112.1479778701104
 20
134.1433649077308
 30
0.0
 10
112.1011251891892
 20
134.1240391639036
 30
0.0
 10
112.0457074591523
 20
134.1013230743841
 30
0.0
 10
111.9817214953218
 20
134.0752540700094
 30
0.0
 10
111.9091680111712
 20
134.0458716226413
 30
0.0
 10
111.8280513136916
 20
134.0132173753065
 30
0.0
 10
111.7383576589416
 20
133.9773249282721
 30
0.0
 10
111.4813118122851
 20
133.8750870206053
 30
0.0
 10
110.9532758266922
 20
133.6685628071386
 30
0.0
 10
109.974641179446
 20
133.3314774937886
 30
0.0
 10
108.7887648765272
 20
132.9883326344608
 30
0.0
 10
107.418298611454
 20
132.6912207338002
 30
0.0
 10
105.9324413394894
 20
132.4811773060673
 30
0.0
 10
104.7122887057243
 20
132.4229519031987
 30
0.0
 10
103.8458646727795
 20
132.4366442444588
 30
0.0
 10
103.3176197443027
 20
132.4620123300698
 30
0.0
 10
102.7928465130965
 20
132.5040349457873
 30
0.0
 10
102.271857273504
 20
132.5623189090154
 30
0.0
 10
101.7546163284456
 20
132.6349424542609
 30
0.0
 10
101.4189792161117
 20
132.6938227719507
 30
0.0
 10
101.25012422805
 20
132.723444750496
 30
0.0
  0
LINE
  5
1A5
330
1F
100
AcDbEntity
  8
0
  6
Continuous
 62
     7
370
    25
100
AcDbLine
 10
112.2522660692
 20
134.187184229
 30
0.0
 11
117.2763166791
 21
134.187184229
 31
0.0
  0
LINE
  5
1A6
330
1F
100
AcDbEntity
  8
0
  6
Continuous
 62
     7
370
    25
100
AcDbLine
 10
109.4263166791
 20
120.6124576398
 30
0.0
 11
109.4263166791
 21
116.549684229
 31
0.0
  0
SPLINE
  5
1A7
330
1F
100
AcDbEntity
  8
0
  6
Continuous
 62
     7
370
    25
100
AcDbSpline
210
0.0
220
0.0
230
1.0
 70
     8
 71
     3
 72
    25
 73
    21
 74
     0
 42
0.000000001
 43
0.00000001
 40
0.0
 40
0.0
 40
0.0
 40
0.0
 40
0.0278144320063462
 40
0.0555680196245754
 40
0.083331625367772
 40
0.111176035216759
 40
0.1391714221532265
 40
0.1673868326284763
 40
0.1958897140434718
 40
0.2247454979318961
 40
0.254017249222145
 40
0.3796724410016501
 40
0.5056484635002454
 40
0.629752729069345
 40
0.7535891720571729
 40
0.8038564806093713
 40
0.853339684343451
 40
0.9023264398358534
 40
0.9511131859219439
 40
1.0
 40
1.0
 40
1.0
 40
1.0
 10
104.7763166791211
 20
125.0971808113779
 30
0.0
 10
104.8449720330834
 20
125.0966477262708
 30
0.0
 10
104.9821325566361
 20
125.0955827221864
 30
0.0
 10
105.1873751392219
 20
125.0824878247942
 30
0.0
 10
105.391696155719
 20
125.0609493382217
 30
0.0
 10
105.595097207808
 20
125.0301278663731
 30
0.0
 10
105.7975728386538
 20
124.9902151138656
 30
0.0
 10
105.9991217029015
 20
124.9411149209246
 30
0.0
 10
106.1997357237042
 20
124.8828016734128
 30
0.0
 10
106.3994334880365
 20
124.815209730546
 30
0.0
 10
106.8149983087158
 20
124.6543962144304
 30
0.0
 10
107.4177747252583
 20
124.3404193150891
 30
0.0
 10
108.1118312807632
 20
123.7768478395943
 30
0.0
 10
108.6786049101603
 20
123.1011036203403
 30
0.0
 10
109.0161827158316
 20
122.4837417928638
 30
0.0
 10
109.2046451251205
 20
121.9916803533538
 30
0.0
 10
109.3039063426449
 20
121.6540285708074
 30
0.0
 10
109.3742509313518
 20
121.3113974287838
 30
0.0
 10
109.4182495298704
 20
120.9640327283423
 30
0.0
 10
109.4236257933507
 20
120.7297293517354
 30
0.0
 10
109.4263166791211
 20
120.6124576398126
 30
0.0
  0
LINE
  5
1A8
330
1F
100
AcDbEntity
  8
0
  6
Continuous
 62
     7
370
    25
100
AcDbLine
 10
102.8614433998
 20
125.0971808114
 30
0.0
 11
104.7763166791
 21
125.0971808114
 31
0.0
  0
SPLINE
  5
1A9
330
1F
100
AcDbEntity
  8
0
  6
Continuous
 62
     7
370
    25
100
AcDbSpline
210
0.0
220
0.0
230
1.0
 70
     8
 71
     3
 72
    12
 73
     8
 74
     0
 42
0.000000001
 43
0.00000001
 40
0.0
 40
0.0
 40
0.0
 40
0.0
 40
0.1992838848975294
 40
0.3984605265796777
 40
0.5979968004971673
 40
0.7983570684833388
 40
1.0
 40
1.0
 40
1.0
 40
1.0
 10
101.8604095574927
 20
124.9949864986545
 30
0.0
 10
101.9258628347931
 20
125.0080088514192
 30
0.0
 10
102.0567341661751
 20
125.0340465490613
 30
0.0
 10
102.2555836177988
 20
125.0624771080354
 30
0.0
 10
102.4559901336699
 20
125.0829082690169
 30
0.0
 10
102.6581610510872
 20
125.0953473460875
 30
0.0
 10
102.7935386347382
 20
125.0965683576621
 30
0.0
 10
102.8614433998317
 20
125.0971808113779
 30
0.0
  0
LINE
  5
1AA
330
1F
100
AcDbEntity
  8
0
  6
Continuous
 62
     7
370
    25
100
AcDbLine
 10
96.4356465499
 20
124.9948225746
 30
0.0
 11
101.8596365684
 21
124.9948225746
 31
0.0
  0
SPLINE
  5
1AB
330
1F
100
AcDbEntity
  8
0
  6
Continuous
 62
     7
370
    25
100
AcDbSpline
210
0.0
220
0.0
230
1.0
 70
     8
 71
     3
 72
    24
 73
    20
 74
     0
 42
0.000000001
 43
0.00000001
 40
0.0
 40
0.0
 40
0.0
 40
0.0
 40
0.0410257106287842
 40
0.0818520099077639
 40
0.1225800578354648
 40
0.1633117464058233
 40
0.2041489402806705
 40
0.2451927184749161
 40
0.2865426449235763
 40
0.3282960933646444
 40
0.370547647549383
 40
0.4133885920102291
 40
0.4569065022351533
 40
0.5011849368587563
 40
0.6001856774947433
 40
0.6987388860447942
 40
0.7976800645453981
 40
0.8978349910029445
 40
1.0
 40
1.0
 40
1.0
 40
1.0
 10
92.663659642971
 20
126.9324643916759
 30
0.0
 10
92.7266987309255
 20
126.9319296913608
 30
0.0
 10
92.8524704963074
 20
126.9308628897181
 30
0.0
 10
93.0404086578182
 20
126.91971939772
 30
0.0
 10
93.22699875064282
 20
126.9015578994123
 30
0.0
 10
93.41224053317794
 20
126.8756829786908
 30
0.0
 10
93.59612971640585
 20
126.8422460928792
 30
0.0
 10
93.77866338237864
 20
126.8011620713356
 30
0.0
 10
93.95983878931796
 20
126.7523993232421
 30
0.0
 10
94.1396535732941
 20
126.6959018350984
 30
0.0
 10
94.31810677237367
 20
126.6316107402961
 30
0.0
 10
94.49519481052333
 20
126.5594570603638
 30
0.0
 10
94.67092693480907
 20
126.479369875325
 30
0.0
 10
94.91594156840539
 20
126.3555289886426
 30
0.0
 10
95.2201246475876
 20
126.1769040064494
 30
0.0
 10
95.5674321290327
 20
125.9278148223922
 30
0.0
 10
95.88660639250512
 20
125.6482452374126
 30
0.0
 10
96.18051829476981
 20
125.3394195994403
 30
0.0
 10
96.35004238146165
 20
125.1113275561386
 30
0.0
 10
96.43564654994447
 20
124.996148468108
 30
0.0
  0
LINE
  5
1AC
330
1F
100
AcDbEntity
  8
0
  6
Continuous
 62
     7
370
    25
100
AcDbLine
 10
89.8721179261
 20
126.9324643917
 30
0.0
 11
92.663659643
 21
126.9324643917
 31
0.0
  0
SPLINE
  5
1AD
330
1F
100
AcDbEntity
  8
0
  6
Continuous
 62
     7
370
    25
100
AcDbSpline
210
0.0
220
0.0
230
1.0
 70
     8
 71
     3
 72
     8
 73
     4
 74
     0
 42
0.000000001
 43
0.00000001
 40
0.0
 40
0.0
 40
0.0
 40
0.0
 40
1.0
 40
1.0
 40
1.0
 40
1.0
 10
89.82631385436238
 20
126.9959173826856
 30
0.0
 10
89.84158187826006
 20
126.9748009122874
 30
0.0
 10
89.85684990215775
 20
126.9536498452348
 30
0.0
 10
89.87211792605542
 20
126.9324643916759
 30
0.0
  0
LINE
  5
1AE
330
1F
100
AcDbEntity
  8
0
  6
Continuous
 62
     7
370
    25
100
AcDbLine
 10
89.8263166791
 20
134.187184229
 30
0.0
 11
89.8263166791
 21
126.9959173827
 31
0.0
  0
LINE
  5
1AF
330
1F
100
AcDbEntity
  8
0
  6
Continuous
 62
     7
370
    25
100
AcDbLine
 10
89.8263166791
 20
134.187184229
 30
0.0
 11
93.6963165238
 21
134.187184229
 31
0.0
  0
LINE
  5
1B0
330
1F
100
AcDbEntity
  8
0
  6
Continuous
 62
     7
370
    25
100
AcDbLine
 10
206.7763166791
 20
101.8984652145
 30
0.0
 11
206.7763166791
 21
116.549684229
 31
0.0
  0
ARC
  5
1B1
330
1F
100
AcDbEntity
  8
0
  6
Continuous
 62
     7
370
    25
100
AcDbCircle
 10
204.7763166791
 20
131.2009032457
 30
0.0
 40
2.0
100
AcDbArc
 50
0.0
 51
85.5
  0
ARC
  5
1B2
330
1F
100
AcDbEntity
  8
0
  6
Continuous
 62
     7
370
    25
100
AcDbCircle
 10
124.4763166791
 20
130.899684229
 30
0.0
 40
1.200000000000017
100
AcDbArc
 50
0.0
 51
90.0
  0
LINE
  5
1B3
330
1F
100
AcDbEntity
  8
0
  6
Continuous
 62
     7
370
    25
100
AcDbLine
 10
120.7763166791
 20
132.099684229
 30
0.0
 11
124.4763166791
 21
132.099684229
 31
0.0
  0
LINE
  5
1B4
330
1F
100
AcDbEntity
  8
0
  6
Continuous
 62
     7
370
    25
100
AcDbLine
 10
120.7763166791
 20
132.099684229
 30
0.0
 11
120.7763166791
 21
116.549684229
 31
0.0
  0
ARC
  5
1B5
330
1F
100
AcDbEntity
  8
0
  6
Continuous
 62
     7
370
    25
100
AcDbCircle
 10
206.2763166791
 20
127.5863784771
 30
0.0
 40
0.5000000000000154
100
AcDbArc
 50
280.0
 51
0.0
  0
LINE
  5
1B6
330
1F
100
AcDbEntity
  8
0
  6
Continuous
 62
     7
370
    25
100
AcDbLine
 10
206.7763166791
 20
127.5863784771
 30
0.0
 11
206.7763166791
 21
116.549684229
 31
0.0
  0
LINE
  5
1B7
330
1F
100
AcDbEntity
  8
0
  6
Continuous
 62
     7
370
    25
100
AcDbLine
 10
203.2763166791
 20
126.549684229
 30
0.0
 11
203.2763166791
 21
116.549684229
 31
0.0
  0
LINE
  5
1B8
330
1F
100
AcDbEntity
  8
0
  6
Continuous
 62
     7
370
    25
100
AcDbLine
 10
203.2763166791
 20
126.549684229
 30
0.0
 11
206.363140768
 21
127.0939746006
 31
0.0
  0
ARC
  5
1B9
330
1F
100
AcDbEntity
  8
0
  6
Continuous
 62
     7
370
    25
100
AcDbCircle
 10
164.881542661
 20
126.449684229
 30
0.0
 40
0.4000000000000111
100
AcDbArc
 50
70.0
 51
90.0
  0
LINE
  5
1BA
330
1F
100
AcDbEntity
  8
0
  6
Continuous
 62
     7
370
    25
100
AcDbLine
 10
155.6763166791
 20
126.849684229
 30
0.0
 11
164.881542661
 21
126.849684229
 31
0.0
  0
ARC
  5
1BB
330
1F
100
AcDbEntity
  8
0
  6
Continuous
 62
     7
370
    25
100
AcDbCircle
 10
155.6763166791
 20
126.449684229
 30
0.0
 40
0.4000000000000057
100
AcDbArc
 50
90.0
 51
180.0
  0
LINE
  5
1BC
330
1F
100
AcDbEntity
  8
0
  6
Continuous
 62
     7
370
    25
100
AcDbLine
 10
165.7763166791
 20
126.549684229
 30
0.0
 11
165.7763166791
 21
116.549684229
 31
0.0
  0
LINE
  5
1BD
330
1F
100
AcDbEntity
  8
0
  6
Continuous
 62
     7
370
    25
100
AcDbLine
 10
165.0183507183
 20
126.8255612773
 30
0.0
 11
165.7763166791
 21
126.549684229
 31
0.0
  0
LINE
  5
1BE
330
1F
100
AcDbEntity
  8
0
  6
Continuous
 62
     7
370
    25
100
AcDbLine
 10
165.7763166791
 20
126.549684229
 30
0.0
 11
203.2763166791
 21
126.549684229
 31
0.0
  0
LINE
  5
1BF
330
1F
100
AcDbEntity
  8
0
  6
Continuous
 62
     7
370
    25
100
AcDbLine
 10
154.7763166791
 20
122.049684229
 30
0.0
 11
155.2763166791
 21
122.549684229
 31
0.0
  0
LINE
  5
1C0
330
1F
100
AcDbEntity
  8
0
  6
Continuous
 62
     7
370
    25
100
AcDbLine
 10
129.5013166791
 20
122.299684229
 30
0.0
 11
130.3263166791
 21
122.299684229
 31
0.0
  0
LINE
  5
1C1
330
1F
100
AcDbEntity
  8
0
  6
Continuous
 62
     7
370
    25
100
AcDbLine
 10
134.7763166791
 20
122.049684229
 30
0.0
 11
134.7763166791
 21
116.549684229
 31
0.0
  0
LINE
  5
1C2
330
1F
100
AcDbEntity
  8
0
  6
Continuous
 62
     7
370
    25
100
AcDbLine
 10
134.7763166791
 20
122.049684229
 30
0.0
 11
154.7763166791
 21
122.049684229
 31
0.0
  0
LINE
  5
1C3
330
1F
100
AcDbEntity
  8
0
  6
Continuous
 62
     7
370
    25
100
AcDbLine
 10
133.8750257506
 20
120.549684229
 30
0.0
 11
133.8750257506
 21
116.549684229
 31
0.0
  0
LINE
  5
1C4
330
1F
100
AcDbEntity
  8
0
  6
Continuous
 62
     7
370
    25
100
AcDbLine
 10
133.8750257506
 20
120.549684229
 30
0.0
 11
134.7763166791
 21
122.049684229
 31
0.0
  0
LINE
  5
1C5
330
1F
100
AcDbEntity
  8
0
  6
Continuous
 62
     7
370
    25
100
AcDbLine
 10
126.0763166791
 20
121.549684229
 30
0.0
 11
126.0763166791
 21
116.549684229
 31
0.0
  0
LINE
  5
1C6
330
1F
100
AcDbEntity
  8
0
  6
Continuous
 62
     7
370
    25
100
AcDbLine
 10
125.6763166791
 20
121.7806243367
 30
0.0
 11
126.0763166791
 21
121.549684229
 31
0.0
  0
LINE
  5
1C7
330
1F
100
AcDbEntity
  8
0
  6
Continuous
 62
     7
370
    25
100
AcDbLine
 10
125.6763166791
 20
121.7806243367
 30
0.0
 11
125.6763166791
 21
116.549684229
 31
0.0
  0
LINE
  5
1C8
330
1F
100
AcDbEntity
  8
0
  6
Continuous
 62
     7
370
    25
100
AcDbLine
 10
126.0763166791
 20
121.549684229
 30
0.0
 11
129.5013166791
 21
121.549684229
 31
0.0
  0
LINE
  5
1C9
330
1F
100
AcDbEntity
  8
0
  6
Continuous
 62
     7
370
    25
100
AcDbLine
 10
129.5013166791
 20
121.549684229
 30
0.0
 11
129.5013166791
 21
116.549684229
 31
0.0
  0
LINE
  5
1CA
330
1F
100
AcDbEntity
  8
0
  6
Continuous
 62
     7
370
    25
100
AcDbLine
 10
130.3263166791
 20
120.549684229
 30
0.0
 11
133.8750257506
 21
120.549684229
 31
0.0
  0
LINE
  5
1CB
330
1F
100
AcDbEntity
  8
0
  6
Continuous
 62
     7
370
    25
100
AcDbLine
 10
130.3263166791
 20
120.549684229
 30
0.0
 11
130.3263166791
 21
116.549684229
 31
0.0
  0
SPLINE
  5
1CC
330
1F
100
AcDbEntity
  8
0
  6
Continuous
 62
     7
370
    25
100
AcDbSpline
210
0.0
220
0.0
230
1.0
 70
     8
 71
     3
 72
    38
 73
    34
 74
     0
 42
0.000000001
 43
0.00000001
 40
0.0
 40
0.0
 40
0.0
 40
0.0
 40
0.1250000000000009
 40
0.1250000000000009
 40
0.2500000000000019
 40
0.2500000000000019
 40
0.3125000000000023
 40
0.3125000000000023
 40
0.3750000000000028
 40
0.3750000000000028
 40
0.4375000000000033
 40
0.4375000000000033
 40
0.5000000000000038
 40
0.5000000000000038
 40
0.5625000000000042
 40
0.5625000000000042
 40
0.6250000000000047
 40
0.6250000000000047
 40
0.6875000000000052
 40
0.6875000000000052
 40
0.718750000000005
 40
0.718750000000005
 40
0.7500000000000048
 40
0.7500000000000048
 40
0.7812500000000046
 40
0.7812500000000046
 40
0.8125000000000043
 40
0.8125000000000043
 40
0.8750000000000029
 40
0.8750000000000029
 40
0.9375000000000016
 40
0.9375000000000016
 40
1.0
 40
1.0
 40
1.0
 40
1.0
 10
97.12631667912112
 20
139.0857321139169
 30
0.0
 10
97.12631667912112
 20
139.0857321139169
 30
0.0
 10
97.18812243668452
 20
139.0630880312549
 30
0.0
 10
97.43774498211988
 20
138.9705036421989
 30
0.0
 10
97.62147261305797
 20
138.9021160622462
 30
0.0
 10
97.97786144964297
 20
138.7662739630444
 30
0.0
 10
98.1110219111485
 20
138.7150809779879
 30
0.0
 10
98.40210092184488
 20
138.6013923728755
 30
0.0
 10
98.55859087335418
 20
138.5394657653691
 30
0.0
 10
98.89197231464208
 20
138.4045806566787
 30
0.0
 10
99.06887607300521
 20
138.331642402392
 30
0.0
 10
99.44211772047852
 20
138.1726664675961
 30
0.0
 10
99.63986171135964
 20
138.0860266977196
 30
0.0
 10
100.0458851446128
 20
137.8991090251672
 30
0.0
 10
100.2539385379998
 20
137.7990741113581
 30
0.0
 10
100.676232810734
 20
137.5798105611791
 30
0.0
 10
100.8905981138091
 20
137.4608073695145
 30
0.0
 10
101.3184404253886
 20
137.1905335191906
 30
0.0
 10
101.5348420764952
 20
137.037284693679
 30
0.0
 10
101.8334745193754
 20
136.7712161700958
 30
0.0
 10
101.9286671088451
 20
136.6764439238231
 30
0.0
 10
102.1062923607019
 20
136.4706870666331
 30
0.0
 10
102.1889066713303
 20
136.3588285248625
 30
0.0
 10
102.330986946352
 20
136.1253130206402
 30
0.0
 10
102.3913724955969
 20
136.0027519546844
 30
0.0
 10
102.4908229877518
 20
135.7462811914592
 30
0.0
 10
102.5301144267766
 20
135.6110411779094
 30
0.0
 10
102.6168110129297
 20
135.2027591749449
 30
0.0
 10
102.6355193399244
 20
134.9264989971599
 30
0.0
 10
102.6320233192927
 20
134.3697512185242
 30
0.0
 10
102.6095436990842
 20
134.0915209745334
 30
0.0
 10
102.5439160513021
 20
133.5401351543486
 30
0.0
 10
102.5004185076126
 20
133.2658814852462
 30
0.0
 10
102.4509389605025
 20
132.9924520132845
 30
0.0
  0
SPLINE
  5
1CD
330
1F
100
AcDbEntity
  8
0
  6
Continuous
 62
     7
370
    25
100
AcDbSpline
210
0.0
220
0.0
230
1.0
 70
     8
 71
     3
 72
    14
 73
    10
 74
     0
 42
0.000000001
 43
0.00000001
 40
0.0
 40
0.0
 40
0.0
 40
0.0
 40
0.0003951392850831
 40
0.0003951392850831
 40
0.0003951392850831
 40
0.0008159035679249
 40
0.0008159035679249
 40
0.0008159035679249
 40
0.0012369936130997
 40
0.0012369936130997
 40
0.0012369936130997
 40
0.0012369936130997
 10
101.2542006288527
 20
132.7246572260132
 30
0.0
 10
101.3827098669594
 20
132.7535311937267
 30
0.0
 10
101.5112733746884
 20
132.782219407203
 30
0.0
 10
101.6398237529718
 20
132.8107222512404
 30
0.0
 10
101.7767090006353
 20
132.8410731449312
 30
0.0
 10
101.9136046465352
 20
132.8712191099602
 30
0.0
 10
102.0504249078842
 20
132.9011709295287
 30
0.0
 10
102.1873508968291
 20
132.9311458943086
 30
0.0
 10
102.3242279687933
 20
132.9609319437538
 30
0.0
 10
102.4609648179805
 20
132.9905544169225
 30
0.0
  0
LINE
  5
1CE
330
1F
100
AcDbEntity
  8
0
  6
Continuous
 62
     7
370
    25
100
AcDbLine
 10
93.6963165238
 20
134.187184229
 30
0.0
 11
97.1263166791
 21
139.0857321139
 31
0.0
  0
SPLINE
  5
1CF
330
1F
100
AcDbEntity
  8
0
  6
Continuous
 62
     7
370
    25
100
AcDbSpline
210
0.0
220
0.0
230
1.0
 70
     8
 71
     3
 72
    37
 73
    33
 74
     0
 42
0.000000001
 43
0.00000001
 40
0.0
 40
0.0
 40
0.0
 40
0.0
 40
0.0114878548102814
 40
0.0231559765621674
 40
0.0350076484354392
 40
0.0470460033795357
 40
0.0592740307999977
 40
0.0716945830965863
 40
0.0843103820274745
 40
0.0971240248798106
 40
0.1101379904320636
 40
0.1233546446979531
 40
0.1811510010973351
 40
0.2483631736114519
 40
0.2888373415819334
 40
0.3232297457604692
 40
0.3515392131492001
 40
0.3737664266256236
 40
0.4399300285953873
 40
0.4987424063270024
 40
0.5023253005651623
 40
0.5613100074513688
 40
0.6252595444338083
 40
0.6818650083849715
 40
0.7483890016987796
 40
0.7860781471964563
 40
0.8194856599799648
 40
0.8486127715281576
 40
0.8734622727747265
 40
0.9389926156603965
 40
0.9981523731393348
 40
1.0
 40
1.0
 40
1.0
 40
1.0
 10
111.6263166791211
 20
140.0133365323662
 30
0.0
 10
111.6253902278426
 20
140.0128930153577
 30
0.0
 10
111.6235227874505
 20
140.0119990216903
 30
0.0
 10
111.6082497271108
 20
140.004807044232
 30
0.0
 10
111.5833480246469
 20
139.9933558006395
 30
0.0
 10
111.5474937527111
 20
139.9772060418651
 30
0.0
 10
111.5005262418734
 20
139.9564783623114
 30
0.0
 10
111.4419833314525
 20
139.9311398433096
 30
0.0
 10
111.3715051918749
 20
139.9011994227551
 30
0.0
 10
111.2887306275974
 20
139.8666554487131
 30
0.0
 10
111.1933140824792
 20
139.8275057070985
 30
0.0
 10
110.9637452490907
 20
139.7348070359373
 30
0.0
 10
110.4793270351181
 20
139.5460841454228
 30
0.0
 10
109.7003270635727
 20
139.2679943454516
 30
0.0
 10
108.9091086121526
 20
139.0174074781222
 30
0.0
 10
108.2780581189098
 20
138.8423907167924
 30
0.0
 10
107.7250201625734
 20
138.7025560761934
 30
0.0
 10
106.932062233677
 20
138.5221452308473
 30
0.0
 10
105.8617278933438
 20
138.3330789092052
 30
0.0
 10
104.8807376139086
 20
138.2277921014955
 30
0.0
 10
103.9527703847889
 20
138.1707593295425
 30
0.0
 10
102.9803148910285
 20
138.1561647311727
 30
0.0
 10
101.6541846855952
 20
138.2343579476639
 30
0.0
 10
100.3841492011014
 20
138.3948376692582
 30
0.0
 10
99.4243732004318
 20
138.5799492074717
 30
0.0
 10
98.72572155308698
 20
138.7474388112018
 30
0.0
 10
98.28191341493186
 20
138.8610620174101
 30
0.0
 10
97.94937635300191
 20
138.9542458523187
 30
0.0
 10
97.56221794275865
 20
139.0689107165773
 30
0.0
 10
97.22496998064689
 20
139.1762565256374
 30
0.0
 10
97.12724591431781
 20
139.213822098924
 30
0.0
 10
97.126343994046
 20
139.2139535077405
 30
0.0
 10
97.12631667912112
 20
139.2139574874957
 30
0.0
  0
LINE
  5
1D0
330
1F
100
AcDbEntity
  8
0
  6
Continuous
 62
     7
370
    25
100
AcDbLine
 10
111.6263166791
 20
140.0133365324
 30
0.0
 11
111.6263166791
 21
134.6559102498
 31
0.0
  0
SPLINE
  5
1D1
330
1F
100
AcDbEntity
  8
0
  6
Continuous
 62
     7
370
    25
100
AcDbSpline
210
0.0
220
0.0
230
1.0
 70
     8
 71
     3
 72
    30
 73
    26
 74
     0
 42
0.000000001
 43
0.00000001
 40
0.0
 40
0.0
 40
0.0
 40
0.0
 40
0.019241170074205
 40
0.0381353539376952
 40
0.0566868884861271
 40
0.0749003554931347
 40
0.0927805967284097
 40
0.1103327298326371
 40
0.127562164928988
 40
0.1444746219341803
 40
0.2455865830531945
 40
0.3577720192516751
 40
0.4505017408956378
 40
0.5720127868619764
 40
0.6168069840199856
 40
0.6590088499432682
 40
0.6986242498774629
 40
0.7356603299341501
 40
0.7701258931915032
 40
0.8073679165907824
 40
0.8483950324891393
 40
0.8881367798820043
 40
0.9266264622110458
 40
0.9639007443615101
 40
1.0
 40
1.0
 40
1.0
 40
1.0
 10
102.455498088509
 20
132.991818939421
 30
0.0
 10
102.5385305683887
 20
132.9806918340961
 30
0.0
 10
102.7030981594615
 20
132.95863828443
 30
0.0
 10
102.950979675142
 20
132.9305863951673
 30
0.0
 10
103.1962563505844
 20
132.9066348646413
 30
0.0
 10
103.4388141841957
 20
132.887104912448
 30
0.0
 10
103.6782488613046
 20
132.8719126202713
 30
0.0
 10
103.9142620567117
 20
132.8610810590405
 30
0.0
 10
104.1465801020224
 20
132.8546004937874
 30
0.0
 10
104.7551308716465
 20
132.8489690022013
 30
0.0
 10
105.7934433688665
 20
132.9089424016859
 30
0.0
 10
107.1087948969678
 20
133.1083648748607
 30
0.0
 10
108.3883401098593
 20
133.4138462355446
 30
0.0
 10
109.2797806539495
 20
133.6937890384635
 30
0.0
 10
109.8974455228105
 20
133.9212381349789
 30
0.0
 10
110.2407686080939
 20
134.0515167954789
 30
0.0
 10
110.5324596929894
 20
134.1676077334368
 30
0.0
 10
110.7770050488152
 20
134.2689759628402
 30
0.0
 10
110.9893597292546
 20
134.3603140153578
 30
0.0
 10
111.1804227038792
 20
134.444389099305
 30
0.0
 10
111.3456701080517
 20
134.5193820532702
 30
0.0
 10
111.4752106582958
 20
134.5803705528159
 30
0.0
 10
111.5635770275183
 20
134.6236082145814
 30
0.0
 10
111.616722872782
 20
134.6508383004602
 30
0.0
 10
111.6231530687231
 20
134.6542377465901
 30
0.0
 10
111.6263166791211
 20
134.6559102497646
 30
0.0
  0
LINE
  5
1D2
330
1F
100
AcDbEntity
  8
0
  6
Continuous
 62
     7
370
    25
100
AcDbLine
 10
97.1263166791
 20
139.0857321139
 30
0.0
 11
97.1263166791
 21
139.2139574874
 31
0.0
  0
LINE
  5
1D3
330
1F
100
AcDbEntity
  8
0
  6
Continuous
 62
     7
370
    25
100
AcDbLine
 10
87.577982729
 20
135.4852604404
 30
0.0
 11
89.8263166791
 21
134.187184229
 31
0.0
  0
LINE
  5
1D4
330
1F
100
AcDbEntity
  8
0
  6
Continuous
 62
     7
370
    25
100
AcDbLine
 10
86.8263166791
 20
136.787184229
 30
0.0
 11
87.577982729
 21
135.4852604404
 31
0.0
  0
LINE
  5
1D5
330
1F
100
AcDbEntity
  8
0
  6
Continuous
 62
     7
370
    25
100
AcDbLine
 10
86.8263166791
 20
138.7527789528
 30
0.0
 11
86.8263166791
 21
136.787184229
 31
0.0
  0
LINE
  5
1D6
330
1F
100
AcDbEntity
  8
0
  6
Continuous
 62
     7
370
    25
100
AcDbLine
 10
88.3263166791
 20
139.6188043566
 30
0.0
 11
86.8263166791
 21
138.7527789528
 31
0.0
  0
LINE
  5
1D7
330
1F
100
AcDbEntity
  8
0
  6
Continuous
 62
     7
370
    25
100
AcDbLine
 10
96.3767548308
 20
140.0230699387
 30
0.0
 11
97.1263448097
 21
139.2139586009
 31
0.0
  0
LINE
  5
1D8
330
1F
100
AcDbEntity
  8
0
  6
Continuous
 62
     7
370
    25
100
AcDbLine
 10
111.6263296272
 20
140.0133367882
 30
0.0
 11
112.2946597732
 21
140.8224486106
 31
0.0
  0
LINE
  5
1D9
330
1F
100
AcDbEntity
  8
0
  6
Continuous
 62
     7
370
    25
100
AcDbLine
 10
137.5513166791
 20
144.399684229
 30
0.0
 11
135.8013166791
 21
144.399684229
 31
0.0
  0
ARC
  5
1DA
330
1F
100
AcDbEntity
  8
0
  6
Continuous
 62
     7
370
    25
100
AcDbCircle
 10
137.5513166791
 20
145.399684229
 30
0.0
 40
1.0
100
AcDbArc
 50
270.0
 51
0.0
  0
LINE
  5
1DB
330
1F
100
AcDbEntity
  8
0
  6
Continuous
 62
     7
370
    25
100
AcDbLine
 10
138.5513166791
 20
145.4972794932
 30
0.0
 11
138.5513166791
 21
145.399684229
 31
0.0
  0
LINE
  5
1DC
330
1F
100
AcDbEntity
  8
0
  6
Continuous
 62
     7
370
    25
100
AcDbLine
 10
140.0105144837
 20
148.024684229
 30
0.0
 11
138.5513166791
 21
145.4972794932
 31
0.0
  0
LINE
  5
1DD
330
1F
100
AcDbEntity
  8
0
  6
Continuous
 62
     7
370
    25
100
AcDbLine
 10
112.2522658209
 20
134.1871855193
 30
0.0
 11
111.6263198074
 21
134.6559103746
 31
0.0
  0
LINE
  5
1DE
330
1F
100
AcDbEntity
  8
0
  6
Continuous
 62
     7
370
    25
100
AcDbLine
 10
134.8013166791
 20
145.4972794932
 30
0.0
 11
133.3421188746
 21
148.024684229
 31
0.0
  0
LINE
  5
1DF
330
1F
100
AcDbEntity
  8
0
  6
Continuous
 62
     7
370
    25
100
AcDbLine
 10
134.8013166791
 20
145.399684229
 30
0.0
 11
134.8013166791
 21
145.4972794932
 31
0.0
  0
ARC
  5
1E0
330
1F
100
AcDbEntity
  8
0
  6
Continuous
 62
     7
370
    25
100
AcDbCircle
 10
135.8013166791
 20
145.399684229
 30
0.0
 40
1.0
100
AcDbArc
 50
180.0
 51
270.0
  0
LINE
  5
1E1
330
1F
100
AcDbEntity
  8
0
  6
Continuous
 62
     7
370
    25
100
AcDbLine
 10
130.3263166791
 20
122.299684229
 30
0.0
 11
130.3263166791
 21
120.549684229
 31
0.0
  0
LINE
  5
1E2
330
1F
100
AcDbEntity
  8
0
  6
Continuous
 62
     7
370
    25
100
AcDbLine
 10
129.5013166791
 20
121.549684229
 30
0.0
 11
129.5013166791
 21
122.299684229
 31
0.0
  0
LINE
  5
1E3
330
1F
100
AcDbEntity
  8
0
  6
Continuous
 62
     7
370
    25
100
AcDbLine
 10
155.2763166791
 20
122.549684229
 30
0.0
 11
155.2763166791
 21
126.449684229
 31
0.0
  0
LINE
  5
1E4
330
1F
100
AcDbEntity
  8
0
  6
Continuous
 62
     7
370
    25
100
AcDbLine
 10
125.6763166791
 20
130.899684229
 30
0.0
 11
125.6763166791
 21
121.7806243367
 31
0.0
  0
LINE
  5
1E5
330
1F
100
AcDbEntity
  8
0
  6
Continuous
 62
     7
370
    25
100
AcDbLine
 10
206.7763166791
 20
127.5863784771
 30
0.0
 11
206.7763166791
 21
131.2009032457
 31
0.0
  0
LINE
  5
1E6
330
1F
100
AcDbEntity
  8
0
  6
Continuous
 62
     7
370
    25
100
AcDbLine
 10
120.7763166791
 20
133.999684229
 30
0.0
 11
120.7763166791
 21
132.099684229
 31
0.0
  0
LINE
  5
1E7
330
1F
100
AcDbEntity
  8
0
  6
Continuous
 62
     7
370
    25
100
AcDbLine
 10
126.7763166791
 20
147.824684229
 30
0.0
 11
126.7763166791
 21
143.399684229
 31
0.0
  0
LINE
  5
1E8
330
1F
100
AcDbEntity
  8
0
  6
Continuous
 62
     7
370
    25
100
AcDbLine
 10
144.7763166791
 20
140.049684229
 30
0.0
 11
144.7763166791
 21
148.024684229
 31
0.0
  0
SPLINE
  5
1E9
330
1F
100
AcDbEntity
  8
0
  6
Continuous
 62
     7
370
    25
100
AcDbSpline
210
0.0
220
0.0
230
1.0
 70
     8
 71
     3
 72
     9
 73
     5
 74
     0
 42
0.000000001
 43
0.00000001
 40
0.0
 40
0.0
 40
0.0
 40
0.0
 40
0.5102121239851395
 40
0.9999999999999999
 40
0.9999999999999999
 40
0.9999999999999999
 40
0.9999999999999999
 10
87.63068007579223
 20
127.0113107456647
 30
0.0
 10
88.00554213277101
 20
127.0088208282831
 30
0.0
 10
88.7402601830808
 20
127.003940667141
 30
0.0
 10
89.46926077353753
 20
126.9985557757547
 30
0.0
 10
89.82631642435094
 20
126.99591832124
 30
0.0
  0
LINE
  5
1EA
330
1F
100
AcDbEntity
  8
0
  6
Continuous
 62
     7
370
    25
100
AcDbLine
 10
87.577982729
 20
127.0417350366
 30
0.0
 11
87.6306800776
 21
127.0113102081
 31
0.0
  0
LINE
  5
1EB
330
1F
100
AcDbEntity
  8
0
  6
Continuous
 62
     7
370
    25
100
AcDbLine
 10
87.577982729
 20
135.4852604404
 30
0.0
 11
87.577982729
 21
127.0417350366
 31
0.0
  0
SPLINE
  5
1EC
330
1F
100
AcDbEntity
  8
0
  6
Continuous
 62
     7
370
    25
100
AcDbSpline
210
0.0
220
0.0
230
1.0
 70
    24
 71
     3
 72
     8
 73
     4
 74
     0
 42
0.000000001
 43
0.00000001
 40
0.0000004089325119
 40
0.0000004089325119
 40
0.0000004089325119
 40
0.0000004089325119
 40
0.0015399868451459
 40
0.0015399868451459
 40
0.0015399868451459
 40
0.0015399868451459
 10
86.82631667912112
 20
127.4757096327974
 30
0.0
 10
87.07730775514558
 20
127.3307998674904
 30
0.0
 10
87.32789695164853
 20
127.1861221274335
 30
0.0
 10
87.57798272896066
 20
127.0417350365818
 30
0.0
  0
LINE
  5
1ED
330
1F
100
AcDbEntity
  8
0
  6
Continuous
 62
     7
370
    25
100
AcDbLine
 10
86.8263166791
 20
136.787184229
 30
0.0
 11
86.8263166791
 21
127.4757096328
 31
0.0
  0
SPLINE
  5
1EE
330
1F
100
AcDbEntity
  8
0
  6
Continuous
 62
     7
370
    25
100
AcDbSpline
210
0.0
220
0.0
230
1.0
 70
     8
 71
     3
 72
     8
 73
     4
 74
     0
 42
0.000000001
 43
0.00000001
 40
0.0
 40
0.0
 40
0.0
 40
0.0
 40
1.0
 40
1.0
 40
1.0
 40
1.0
 10
89.9559984218779
 20
126.6096849067495
 30
0.0
 10
89.92805020175835
 20
126.717501260725
 30
0.0
 10
89.90009011358966
 20
126.8250951108912
 30
0.0
 10
89.87211792605542
 20
126.9324643916759
 30
0.0
  0
LINE
  5
1EF
330
1F
100
AcDbEntity
  8
0
  6
Continuous
 62
     7
370
    25
100
AcDbLine
 10
89.9560015604
 20
126.609684229
 30
0.0
 11
88.3263158923
 21
126.609684229
 31
0.0
  0
LINE
  5
1F0
330
1F
100
AcDbEntity
  8
0
  6
Continuous
 62
     7
370
    25
100
AcDbLine
 10
88.3263160923
 20
126.6096845678
 30
0.0
 11
87.6306796143
 21
127.0113104757
 31
0.0
  0
LINE
  5
1F1
330
1F
100
AcDbEntity
  8
0
  6
Continuous
 62
     7
370
    25
100
AcDbLine
 10
96.3802775764
 20
124.612184229
 30
0.0
 11
96.1281059484
 21
124.612184229
 31
0.0
  0
SPLINE
  5
1F2
330
1F
100
AcDbEntity
  8
0
  6
Continuous
 62
     7
370
    25
100
AcDbSpline
210
0.0
220
0.0
230
1.0
 70
     8
 71
     3
 72
    26
 73
    22
 74
     0
 42
0.000000001
 43
0.00000001
 40
0.0
 40
0.0
 40
0.0
 40
0.0
 40
0.0524616379932503
 40
0.1026498591890872
 40
0.150565513457809
 40
0.1962095861957063
 40
0.2395832262568645
 40
0.2806877815599511
 40
0.3195248450380211
 40
0.3560963147430692
 40
0.3904044736547445
 40
0.4224520974433627
 40
0.4522426027417772
 40
0.4797802555366611
 40
0.5050704712281336
 40
0.5966394156799991
 40
0.6841917884819224
 40
0.7679874773571101
 40
0.8483228539139507
 40
0.925534163520116
 40
1.0
 40
1.0
 40
1.0
 40
1.0
 10
96.12629945445173
 20
124.6122140130483
 30
0.0
 10
96.09066305542044
 20
124.6717609331305
 30
0.0
 10
96.020934555082
 20
124.7882743169172
 30
0.0
 10
95.90745639432215
 20
124.9526722776464
 30
0.0
 10
95.79193084459713
 20
125.1048340154479
 30
0.0
 10
95.674809148587
 20
125.2447367123805
 30
0.0
 10
95.55743744810762
 20
125.3729510362845
 30
0.0
 10
95.44081648207397
 20
125.4899667152249
 30
0.0
 10
95.32591356162895
 20
125.5963438704689
 30
0.0
 10
95.21358933593962
 20
125.6926599509432
 30
0.0
 10
95.10462036190475
 20
125.7795092974957
 30
0.0
 10
94.99970132106809
 20
125.8574894796896
 30
0.0
 10
94.89944399511934
 20
125.9271976767425
 30
0.0
 10
94.80440665253622
 20
125.9892076656436
 30
0.0
 10
94.63429974810545
 20
126.0936941029095
 30
0.0
 10
94.38138071670035
 20
126.2287527694239
 30
0.0
 10
94.03539955963923
 20
126.373139661841
 30
0.0
 10
93.68744101031488
 20
126.482107574086
 30
0.0
 10
93.34130124993884
 20
126.5566371564227
 30
0.0
 10
93.00023646650472
 20
126.6015658609721
 30
0.0
 10
92.77448985498907
 20
126.6070109598265
 30
0.0
 10
92.663659642971
 20
126.6096842290129
 30
0.0
  0
SPLINE
  5
1F3
330
1F
100
AcDbEntity
  8
0
  6
Continuous
 62
     7
370
    25
100
AcDbSpline
210
0.0
220
0.0
230
1.0
 70
     8
 71
     3
 72
     8
 73
     4
 74
     0
 42
0.000000001
 43
0.00000001
 40
0.0
 40
0.0
 40
0.0
 40
0.0
 40
1.0
 40
1.0
 40
1.0
 40
1.0
 10
96.38027757635362
 20
124.6121842290128
 30
0.0
 10
96.40928228278119
 20
124.7361219558751
 30
0.0
 10
96.42831480246264
 20
124.8640740861084
 30
0.0
 10
96.43656639465428
 20
124.9951433987999
 30
0.0
  0
LINE
  5
1F4
330
1F
100
AcDbEntity
  8
0
  6
Continuous
 62
     7
370
    25
100
AcDbLine
 10
92.663659643
 20
126.609684229
 30
0.0
 11
89.9560015604
 21
126.609684229
 31
0.0
  0
LINE
  5
1F5
330
1F
100
AcDbEntity
  8
0
  6
Continuous
 62
     7
370
    25
100
AcDbLine
 10
109.4263166791
 20
120.6124576398
 30
0.0
 11
108.7763166791
 21
120.762184229
 31
0.0
  0
SPLINE
  5
1F6
330
1F
100
AcDbEntity
  8
0
  6
Continuous
 62
     7
370
    25
100
AcDbSpline
210
0.0
220
0.0
230
1.0
 70
     8
 71
     3
 72
    26
 73
    22
 74
     0
 42
0.000000001
 43
0.00000001
 40
0.0
 40
0.0
 40
0.0
 40
0.0
 40
0.0305951740572542
 40
0.0629166281868252
 40
0.0969720532897518
 40
0.1327680143285475
 40
0.1703101548822826
 40
0.2096033578521445
 40
0.2506518729756858
 40
0.3342141733898277
 40
0.4179517165474626
 40
0.5018670561020881
 40
0.5659795686746639
 40
0.6277136397870199
 40
0.687135819210908
 40
0.7443207393864881
 40
0.7993521466017559
 40
0.8523240127975756
 40
0.903341702807647
 40
0.9525231537633125
 40
1.0
 40
1.0
 40
1.0
 40
1.0
 10
108.7763166791211
 20
120.7621842290129
 30
0.0
 10
108.7754084672765
 20
120.8267193964001
 30
0.0
 10
108.773540799296
 20
120.9594310169935
 30
0.0
 10
108.7579482102344
 20
121.1622451085171
 30
0.0
 10
108.7313043490473
 20
121.3739581494175
 30
0.0
 10
108.6911499199689
 20
121.5936701427904
 30
0.0
 10
108.6362518032857
 20
121.8204170136617
 30
0.0
 10
108.5650088346739
 20
122.0530480174447
 30
0.0
 10
108.4465964403914
 20
122.3684463319214
 30
0.0
 10
108.2584655439835
 20
122.7529282304564
 30
0.0
 10
107.9744487807489
 20
123.1829558449859
 30
0.0
 10
107.6650308241992
 20
123.5414425573268
 30
0.0
 10
107.3491212133976
 20
123.8332092136162
 30
0.0
 10
107.0423758052743
 20
124.0656683004534
 30
0.0
 10
106.7239566914522
 20
124.2624785350174
 30
0.0
 10
106.3979858152951
 20
124.4245792372756
 30
0.0
 10
106.0684469801699
 20
124.5530491207553
 30
0.0
 10
105.7388850653233
 20
124.6496329401282
 30
0.0
 10
105.4124667420241
 20
124.7154851694145
 30
0.0
 10
105.0919485497202
 20
124.7550501172399
 30
0.0
 10
104.8802830361894
 20
124.7598343154553
 30
0.0
 10
104.7763166791211
 20
124.7621842290129
 30
0.0
  0
SPLINE
  5
1F7
330
1F
100
AcDbEntity
  8
0
  6
Continuous
 62
     7
370
    25
100
AcDbSpline
210
0.0
220
0.0
230
1.0
 70
     8
 71
     3
 72
    13
 73
     9
 74
     0
 42
0.000000001
 43
0.00000001
 40
0.0
 40
0.0
 40
0.0
 40
0.0
 40
0.1604061687300809
 40
0.3231296684563272
 40
0.4883154213007764
 40
0.6561019685773533
 40
0.8266215117792448
 40
1.0
 40
1.0
 40
1.0
 40
1.0
 10
102.8614433998317
 20
124.7621842290129
 30
0.0
 10
102.8023934483165
 20
124.7614286589749
 30
0.0
 10
102.6834404715918
 20
124.7599066034467
 30
0.0
 10
102.504186837986
 20
124.7474615443193
 30
0.0
 10
102.3232538562983
 20
124.7272773631885
 30
0.0
 10
102.1411253618995
 20
124.6981419970479
 30
0.0
 10
101.9579583541052
 20
124.6607258452288
 30
0.0
 10
101.8372190392308
 20
124.6284599728717
 30
0.0
 10
101.7763475076459
 20
124.6121929179332
 30
0.0
  0
SPLINE
  5
1F8
330
1F
100
AcDbEntity
  8
0
  6
Continuous
 62
     7
370
    25
100
AcDbSpline
210
0.0
220
0.0
230
1.0
 70
    24
 71
     3
 72
    10
 73
     6
 74
     0
 42
0.000000001
 43
0.00000001
 40
0.0
 40
0.0
 40
0.0
 40
0.0
 40
0.3216623556917455
 40
0.6548175346390357
 40
1.0
 40
1.0
 40
1.0
 40
1.0
 10
101.7764955140259
 20
124.6121842290129
 30
0.0
 10
101.7079496061686
 20
124.6121842290129
 30
0.0
 10
101.5684086819713
 20
124.6121842290129
 30
0.0
 10
101.3588002666208
 20
124.6121842290129
 30
0.0
 10
101.219123271467
 20
124.6121842290129
 30
0.0
 10
101.1480465002661
 20
124.6121842290129
 30
0.0
  0
SPLINE
  5
1F9
330
1F
100
AcDbEntity
  8
0
  6
Continuous
 62
     7
370
    25
100
AcDbSpline
210
0.0
220
0.0
230
1.0
 70
     8
 71
     3
 72
     8
 73
     4
 74
     0
 42
0.000000001
 43
0.00000001
 40
0.0
 40
0.0
 40
0.0
 40
0.0
 40
1.0
 40
1.0
 40
1.0
 40
1.0
 10
101.8626467955198
 20
124.9906305781958
 30
0.0
 10
101.5933504654633
 20
124.8939411930026
 30
0.0
 10
101.3571897800495
 20
124.7659420236258
 30
0.0
 10
101.1479922638656
 20
124.6124654259811
 30
0.0
  0
SPLINE
  5
1FA
330
1F
100
AcDbEntity
  8
0
  6
Continuous
 62
     7
370
    25
100
AcDbSpline
210
0.0
220
0.0
230
1.0
 70
     8
 71
     3
 72
    13
 73
     9
 74
     0
 42
0.000000001
 43
0.00000001
 40
0.0
 40
0.0
 40
0.0
 40
0.0
 40
0.1729721449870872
 40
0.3432476269514002
 40
0.5109528657483393
 40
0.6762201802332181
 40
0.8391878283027183
 40
1.0
 40
1.0
 40
1.0
 40
1.0
 10
101.7763435485058
 20
108.4871766559486
 30
0.0
 10
101.8370705484871
 20
108.4709461177384
 30
0.0
 10
101.9575778049417
 20
108.4387380779688
 30
0.0
 10
102.1404771737064
 20
108.401347693034
 30
0.0
 10
102.3225126659768
 20
108.3721917597098
 30
0.0
 10
102.5035315318018
 20
108.3519632376519
 30
0.0
 10
102.6830518024387
 20
108.3394724310592
 30
0.0
 10
102.8022440306827
 20
108.3379435703698
 30
0.0
 10
102.8614433998317
 20
108.3371842290129
 30
0.0
  0
LINE
  5
1FB
330
1F
100
AcDbEntity
  8
0
  6
Continuous
 62
     7
370
    25
100
AcDbLine
 10
101.1485379754
 20
108.487184229
 30
0.0
 11
101.3016977051
 21
108.487184229
 31
0.0
  0
LINE
  5
1FC
330
1F
100
AcDbEntity
  8
0
  6
Continuous
 62
     7
370
    25
100
AcDbLine
 10
104.7763166791
 20
124.762184229
 30
0.0
 11
102.8614433998
 21
124.762184229
 31
0.0
  0
LINE
  5
1FD
330
1F
100
AcDbEntity
  8
0
  6
Continuous
 62
     7
370
    25
100
AcDbLine
 10
101.1484048611
 20
124.612184229
 30
0.0
 11
96.3802775764
 21
124.612184229
 31
0.0
  0
LINE
  5
1FE
330
1F
100
AcDbEntity
  8
0
  6
Continuous
 62
     7
370
    25
100
AcDbLine
 10
108.7763166791
 20
116.549684229
 30
0.0
 11
108.7763166791
 21
120.762184229
 31
0.0
  0
LINE
  5
1FF
330
1F
100
AcDbEntity
  8
VERMASSUNG
  6
CENTERX2
100
AcDbLine
 10
218.7713166791
 20
116.549684229
 30
0.0
 11
74.8313166791
 21
116.549684229
 31
0.0
  0
HATCH
  5
200
330
1F
100
AcDbEntity
  8
0
  6
Continuous
 62
     7
370
    18
100
AcDbHatch
 10
0.0
 20
0.0
 30
0.0
210
0.0
220
0.0
230
1.0
  2
ANSI31
 70
     0
 71
     0
 91
        1
 92
        0
 93
       50
 72
     2
 10
135.8013166791212
 20
145.3996842290129
 40
1.000000000000003
 50
90.0
 51
180.0
 73
     0
 72
     1
 10
134.8013166791212
 20
145.3996842290129
 11
134.8013166791212
 21
145.4972794932046
 72
     1
 10
134.8013166791212
 20
145.4972794932046
 11
133.3421188745511
 21
148.0246842290129
 72
     1
 10
133.3421188745511
 20
148.0246842290129
 11
126.9763166791212
 21
148.0246842290129
 72
     2
 10
126.9763166791212
 20
147.8246842290129
 40
0.2000000000000028
 50
90.0
 51
180.0
 73
     1
 72
     1
 10
126.7763166791212
 20
147.8246842290129
 11
126.7763166791212
 21
143.3996842290129
 72
     1
 10
126.7763166791212
 20
143.3996842290129
 11
127.1103553651498
 21
142.3402488686164
 72
     2
 10
126.3473818045512
 20
142.0996842290129
 40
0.8000000000000049
 50
342.4999999999994
 51
467.5000000000022
 73
     0
 72
     1
 10
126.1068171649478
 20
141.3367106684144
 11
125.6161346390904
 21
141.4914222745413
 72
     1
 10
125.6161346390904
 20
141.4914222745413
 11
112.2946613665709
 21
140.8224453015151
 72
     1
 10
112.2946597731724
 20
140.8224486105835
 11
111.6263296272428
 21
140.0133367881923
 72
     1
 10
111.6263296272428
 20
140.0133367881923
 11
111.6263166791211
 21
134.6559102497645
 72
     1
 10
111.6263198073548
 20
134.655910374645
 11
112.252265820897
 21
134.187185519305
 72
     1
 10
112.2522660692059
 20
134.187184229013
 11
117.2763166791212
 21
134.1871842290129
 72
     1
 10
117.2763166791212
 20
134.1871842290129
 11
118.151557152702
 21
134.6925045520405
 72
     2
 10
118.551557152702
 20
133.999684229013
 40
0.7999999999999937
 50
240.0000000000002
 51
269.9999999999998
 73
     0
 72
     1
 10
118.551557152702
 20
134.7996842290129
 11
119.9763166791212
 21
134.7996842290129
 72
     2
 10
119.9763166791212
 20
133.9996842290129
 40
0.7999999999999977
 50
270.0000000000008
 51
360.0000000000008
 73
     0
 72
     1
 10
120.7763166791211
 20
133.9996842290129
 11
120.7763166791211
 21
132.099684229013
 72
     1
 10
120.7763166791211
 20
132.099684229013
 11
124.4763166791211
 21
132.099684229013
 72
     2
 10
124.4763166791211
 20
130.8996842290129
 40
1.2
 50
270.0000000000008
 51
360.0000000000008
 73
     0
 72
     1
 10
125.6763166791211
 20
130.8996842290129
 11
125.6763166791211
 21
121.7806243366888
 72
     1
 10
125.6763166791211
 20
121.7806243366888
 11
126.0763166791211
 21
121.5496842290129
 72
     1
 10
126.0763166791211
 20
121.5496842290129
 11
129.5013166791211
 21
121.5496842290129
 72
     1
 10
129.5013166791211
 20
121.5496842290129
 11
129.5013166791211
 21
122.2996842290129
 72
     1
 10
129.5013166791211
 20
122.2996842290129
 11
130.3263166791211
 21
122.2996842290129
 72
     1
 10
130.3263166791211
 20
122.2996842290129
 11
130.3263166791211
 21
120.5496842290129
 72
     1
 10
130.3263166791211
 20
120.5496842290129
 11
133.8750257505798
 21
120.5496842290129
 72
     1
 10
133.8750257505798
 20
120.5496842290129
 11
134.7763166791211
 21
122.0496842290129
 72
     1
 10
134.7763166791211
 20
122.0496842290129
 11
154.7763166791211
 21
122.0496842290129
 72
     1
 10
154.7763166791211
 20
122.0496842290129
 11
155.2763166791211
 21
122.5496842290129
 72
     1
 10
155.2763166791211
 20
122.5496842290129
 11
155.2763166791211
 21
126.4496842290129
 72
     2
 10
155.6763166791211
 20
126.4496842290129
 40
0.4000000000000002
 50
180.0
 51
270.0000000000008
 73
     0
 72
     1
 10
155.6763166791211
 20
126.8496842290129
 11
164.8815426610014
 21
126.8496842290129
 72
     2
 10
164.8815426610014
 20
126.4496842290129
 40
0.3999999999999985
 50
270.0000000000008
 51
290.0000000000038
 73
     0
 72
     1
 10
165.0183507183316
 20
126.8255612773273
 11
165.7763166791211
 21
126.5496842290129
 72
     1
 10
165.7763166791211
 20
126.5496842290129
 11
203.2763166791211
 21
126.5496842290128
 72
     1
 10
203.2763166791211
 20
126.5496842290128
 11
206.3631407679546
 21
127.093974600575
 72
     2
 10
206.2763166791211
 20
127.5863784770811
 40
0.4999999999999946
 50
279.9999999999991
 51
360.0000000000008
 73
     1
 72
     1
 10
206.7763166791211
 20
127.5863784770811
 11
206.7763166791212
 21
131.2009032456964
 72
     2
 10
204.7763166791212
 20
131.2009032456965
 40
2.0
 50
0.0
 51
85.50000000000044
 73
     1
 72
     1
 10
204.9332348705769
 20
133.1947379131627
 11
155.9514977344224
 21
137.0496842290129
 72
     1
 10
155.9514977344224
 20
137.0496842290129
 11
147.7763166791212
 21
137.0496842290129
 72
     2
 10
147.7763166791212
 20
140.0496842290129
 40
3.0
 50
90.00000000000054
 51
180.0
 73
     0
 72
     1
 10
144.7763166791212
 20
140.0496842290129
 11
144.7763166791212
 21
148.0246842290129
 72
     1
 10
144.7763166791212
 20
148.0246842290129
 11
140.0105144836912
 21
148.0246842290129
 72
     1
 10
140.0105144836912
 20
148.0246842290129
 11
138.5513166791212
 21
145.4972794932046
 72
     1
 10
138.5513166791212
 20
145.4972794932046
 11
138.5513166791212
 21
145.3996842290129
 72
     2
 10
137.5513166791212
 20
145.3996842290129
 40
1.000000000000003
 50
0.0
 51
90.0
 73
     0
 72
     1
 10
137.5513166791212
 20
144.3996842290129
 11
135.8013166791212
 21
144.3996842290129
 97
        0
 75
     0
 76
     1
 52
0.0
 41
1.0
 77
     0
 78
     1
 53
45.0
 43
0.0
 44
0.0
 45
-2.245064030267288
 46
2.245064030267288
 79
     0
 98
        1
 10
0.0
 20
0.0
  0
HATCH
  5
201
330
1F
100
AcDbEntity
  8
0
  6
Continuous
 62
     7
370
    18
100
AcDbHatch
 10
0.0
 20
0.0
 30
0.0
210
0.0
220
0.0
230
1.0
  2
ANSI31
 70
     0
 71
     0
 91
        1
 92
        0
 93
        9
 72
     1
 10
97.12634480970932
 20
139.2139586008959
 11
96.3767548307736
 21
140.0230699386634
 72
     1
 10
96.3767548307736
 20
140.0230699386634
 11
88.32631667912116
 21
139.6188043565953
 72
     1
 10
88.32631667912116
 20
139.6188043565953
 11
86.82631667912115
 21
138.7527789528109
 72
     1
 10
86.82631667912115
 20
138.7527789528109
 11
86.82631667912113
 21
136.787184229013
 72
     1
 10
86.82631667912113
 20
136.787184229013
 11
87.57798272896068
 21
135.4852604403663
 72
     1
 10
87.57798272896068
 20
135.4852604403663
 11
89.82631667912113
 21
134.187184229013
 72
     1
 10
89.82631667912113
 20
134.187184229013
 11
93.69631652383009
 21
134.187184229013
 72
     1
 10
93.69631652383009
 20
134.187184229013
 11
97.12631667912115
 21
139.0857321139169
 72
     1
 10
97.12631667912113
 20
139.0857321139169
 11
97.12631667912113
 21
139.2139574874026
 97
        0
 75
     0
 76
     1
 52
0.0
 41
1.0
 77
     0
 78
     1
 53
45.0
 43
0.0
 44
0.0
 45
-2.245064030267288
 46
2.245064030267288
 79
     0
 98
        1
 10
0.0
 20
0.0
  0
HATCH
  5
202
330
1F
100
AcDbEntity
  8
0
  6
Continuous
 62
     7
370
    18
100
AcDbHatch
 10
0.0
 20
0.0
 30
0.0
210
0.0
220
0.0
230
1.0
  2
ANSI31
 70
     0
 71
     0
 91
        1
 92
        0
 93
       12
 72
     1
 10
155.7763166791211
 20
122.0496842290129
 11
155.2763166791211
 21
122.5496842290129
 72
     1
 10
155.2763166791211
 20
122.5496842290129
 11
140.2763166791211
 21
122.5496842290129
 72
     1
 10
140.2763166791211
 20
122.5496842290129
 11
139.7763166791211
 21
122.0496842290129
 72
     1
 10
139.7763166791211
 20
122.0496842290129
 11
139.7763166791211
 21
120.2496842290129
 72
     1
 10
139.7763166791211
 20
120.2496842290129
 11
140.2912588189714
 21
119.7347420891628
 72
     1
 10
140.2912588189714
 20
119.7347420891628
 11
146.7763166790543
 21
119.7347420891627
 72
     1
 10
146.7763166790543
 20
119.7347420891627
 11
146.7763166790543
 21
119.5496842290129
 72
     1
 10
146.7763166790543
 20
119.5496842290129
 11
152.7763166791211
 21
119.5496842290129
 72
     1
 10
152.7763166791211
 20
119.5496842290129
 11
152.7763166791211
 21
119.7347420891627
 72
     1
 10
152.7763166791211
 20
119.7347420891627
 11
157.7763166791211
 21
119.7347420891627
 72
     1
 10
157.7763166791211
 20
119.7347420891627
 11
157.7763166791211
 21
122.0496842290129
 72
     1
 10
157.7763166791211
 20
122.0496842290129
 11
155.7763166791211
 21
122.0496842290129
 97
        0
 75
     0
 76
     1
 52
0.0
 41
1.0
 77
     0
 78
     1
 53
45.0
 43
0.0
 44
0.0
 45
-2.245064030267288
 46
2.245064030267288
 79
     0
 98
        1
 10
0.0
 20
0.0
  0
POINT
  5
203
330
1F
100
AcDbEntity
  8
VERMASSUNG
100
AcDbPoint
 10
206.7763166791
 20
100.049684229
 30
0.0
  0
POINT
  5
204
330
1F
100
AcDbEntity
  8
VERMASSUNG
100
AcDbPoint
 10
206.7763166791
 20
133.049684229
 30
0.0
  0
DIMENSION
  5
205
330
1F
100
AcDbEntity
  8
VERMASSUNG
100
AcDbDimension
  2
_D
 10
242.4891904977
 20
133.049684229
 30
0.0
 11
242.4891904977
 21
116.549684229
 31
0.0
 70
   160
  1
%%c<>
 71
     2
 42
-1.0
  3
SLDDIMSTYLE0
100
AcDbAlignedDimension
 13
206.7763166791
 23
100.049684229
 33
0.0
 14
206.7763166791
 24
133.049684229
 34
0.0
 50
90.0
100
AcDbRotatedDimension
  0
DIMENSION
  5
211
330
1F
100
AcDbEntity
  8
VERMASSUNG
100
AcDbDimension
  2
_D_1
 10
230.3354489765
 20
106.549684229
 30
0.0
 11
230.3354489765
 21
116.549684229
 31
0.0
 70
   160
  1
%%c<>
 71
     2
 42
-1.0
  3
SLDDIMSTYLE1
100
AcDbAlignedDimension
 13
203.2763166791
 23
126.549684229
 33
0.0
 14
203.2763166791
 24
106.549684229
 34
0.0
 50
90.0
100
AcDbRotatedDimension
  0
DIMENSION
  5
21B
330
1F
100
AcDbEntity
  8
VERMASSUNG
100
AcDbDimension
  2
_D_2
 10
255.390349443
 20
96.049684229
 30
0.0
 11
255.390349443
 21
116.549684229
 31
0.0
 70
   160
  1
%%c<>
 71
     2
 42
-1.0
  3
SLDDIMSTYLE0
100
AcDbAlignedDimension
 13
155.9514977344
 23
137.049684229
 33
0.0
 14
155.9514977344
 24
96.049684229
 34
0.0
 50
90.0
100
AcDbRotatedDimension
  0
DIMENSION
  5
226
330
1F
100
AcDbEntity
  8
VERMASSUNG
100
AcDbDimension
  2
_D_3
 10
155.9514977344
 20
81.4093490104
 30
0.0
 11
181.3639072068
 21
81.4093490104
 31
0.0
 70
   160
  1
<>
 71
     2
 42
-1.0
  3
SLDDIMSTYLE2
100
AcDbAlignedDimension
 13
206.7763166791
 23
101.8984652123
 33
0.0
 14
155.9514977344
 24
96.049684229
 34
0.0
 50
0.0
100
AcDbRotatedDimension
  0
DIMENSION
  5
231
330
1F
100
AcDbEntity
  8
VERMASSUNG
100
AcDbDimension
  2
_D_4
 10
206.7763166791
 20
72.6704219657
 30
0.0
 11
175.7763166791
 21
72.6704219657
 31
0.0
 70
   160
  1
<>
 71
     2
 42
-1.0
  3
SLDDIMSTYLE0
100
AcDbAlignedDimension
 13
144.7763166791
 23
85.074684229
 33
0.0
 14
206.7763166791
 24
101.8984652123
 34
0.0
 50
0.0
100
AcDbRotatedDimension
  0
DIMENSION
  5
23B
330
1F
100
AcDbEntity
  8
VERMASSUNG
100
AcDbDimension
  2
_D_5
 10
206.7763166791
 20
159.3676100128
 30
0.0
 11
166.7763166791
 21
159.3676100128
 31
0.0
 70
   160
  1
<>
 71
     2
 42
-1.0
  3
SLDDIMSTYLE0
100
AcDbAlignedDimension
 13
126.7763166791
 23
147.824684229
 33
0.0
 14
206.7763166791
 24
131.2009032457
 34
0.0
 50
0.0
100
AcDbRotatedDimension
  0
DIMENSION
  5
245
330
1F
100
AcDbEntity
  8
VERMASSUNG
100
AcDbDimension
  2
_D_6
 10
206.7763166791
 20
166.340398711
 30
0.0
 11
146.8013166791
 21
166.340398711
 31
0.0
 70
   160
  1
<>
 71
     2
 42
-1.0
  3
SLDDIMSTYLE0
100
AcDbAlignedDimension
 13
86.8263166791
 23
138.7527789528
 33
0.0
 14
206.7763166791
 24
131.2009032457
 34
0.0
 50
0.0
100
AcDbRotatedDimension
  0
DIMENSION
  5
24F
330
1F
100
AcDbEntity
  8
VERMASSUNG
100
AcDbDimension
  2
_D_7
 10
206.7763166791
 20
152.0826068953
 30
0.0
 11
181.0263166791
 21
152.0826068953
 31
0.0
 70
   160
  1
<>
 71
     2
 42
-1.0
  3
SLDDIMSTYLE0
100
AcDbAlignedDimension
 13
155.2763166791
 23
126.449684229
 33
0.0
 14
206.7763166791
 24
131.2009032457
 34
0.0
 50
0.0
100
AcDbRotatedDimension
  0
DIMENSION
  5
259
330
1F
100
AcDbEntity
  8
VERMASSUNG
100
AcDbDimension
  2
_D_8
 10
206.7763166791
 20
144.6935323047
 30
0.0
 11
186.2763166791
 21
144.6935323047
 31
0.0
 70
   160
  1
<>
 71
     2
 42
-1.0
  3
SLDDIMSTYLE0
100
AcDbAlignedDimension
 13
165.7763166791
 23
126.549684229
 33
0.0
 14
206.7763166791
 24
131.2009032457
 34
0.0
 50
0.0
100
AcDbRotatedDimension
  0
DIMENSION
  5
263
330
1F
100
AcDbEntity
  8
VERMASSUNG
100
AcDbDimension
  2
_D_9
 10
70.8262916791
 20
148.024684229
 30
0.0
 11
70.8262916791
 21
116.549684229
 31
0.0
 70
   160
  1
KM<> XMZ
 71
     2
 42
-1.0
  3
SLDDIMSTYLE2
100
AcDbAlignedDimension
 13
126.9763166791
 23
85.074684229
 33
0.0
 14
126.9763166791
 24
148.024684229
 34
0.0
 50
90.0
100
AcDbRotatedDimension
  0
LINE
  5
26F
330
1F
100
AcDbEntity
  8
0
  6
Continuous
 62
     7
370
    25
100
AcDbLine
 10
254.7067599322
 20
29.1883179278
 30
0.0
 11
272.9329426413
 21
20.8887112682
 31
0.0
  0
LINE
  5
270
330
1F
100
AcDbEntity
  8
0
  6
Continuous
 62
     7
370
    25
100
AcDbLine
 10
281.241894846
 20
35.2817979314
 30
0.0
 11
264.9400414217
 21
46.914802273
 31
0.0
  0
SPLINE
  5
271
330
1F
100
AcDbEntity
  8
0
  6
Continuous
 62
     7
370
    25
100
AcDbSpline
210
0.0
220
0.0
230
1.0
 70
     8
 71
     3
 72
    34
 73
    30
 74
     0
 42
0.000000001
 43
0.00000001
 40
0.0
 40
0.0
 40
0.0
 40
0.0
 40
0.027966802990282
 40
0.0625849811849452
 40
0.0976749249305236
 40
0.1335487535829807
 40
0.1703070939210099
 40
0.207831579538221
 40
0.2458661861690843
 40
0.2841428586233551
 40
0.3224426543817511
 40
0.3606692664991019
 40
0.3988016087299507
 40
0.4368501382077964
 40
0.4748406303743056
 40
0.5128058686025253
 40
0.5507817864853882
 40
0.5887949170490071
 40
0.626881935895539
 40
0.6650805359468684
 40
0.7034248664257045
 40
0.7419382668342136
 40
0.7806181293051226
 40
0.8194027505688483
 40
0.85807538233904
 40
0.8963312704101125
 40
0.9338169683599267
 40
0.9702971065591383
 40
1.0
 40
1.0
 40
1.0
 40
1.0
 10
272.9852149408656
 20
20.87407493856107
 30
0.0
 10
273.1343397002608
 20
20.81255140715172
 30
0.0
 10
273.4680557229398
 20
20.67487213587344
 30
0.0
 10
274.031513830821
 20
20.57416551719013
 30
0.0
 10
274.6570253335227
 20
20.55092744501411
 30
0.0
 10
275.3087949323572
 20
20.62547439412615
 30
0.0
 10
275.9804043447943
 20
20.79502275555491
 30
0.0
 10
276.6651187880747
 20
21.06044911827741
 30
0.0
 10
277.353460963046
 20
21.41893000038059
 30
0.0
 10
278.0350906311636
 20
21.86521711838751
 30
0.0
 10
278.7001650944533
 20
22.39196593674347
 30
0.0
 10
279.3400741695431
 20
22.99090780526494
 30
0.0
 10
279.9474381387362
 20
23.6536017091521
 30
0.0
 10
280.5156154285005
 20
24.37145077916017
 30
0.0
 10
281.0383967459123
 20
25.13562180743176
 30
0.0
 10
281.5099916754379
 20
25.93701775737302
 30
0.0
 10
281.924934680265
 20
26.76627165690262
 30
0.0
 10
282.2782090918846
 20
27.61386080902777
 30
0.0
 10
282.5652750073969
 20
28.47022903163568
 30
0.0
 10
282.7820271909865
 20
29.3259912143289
 30
0.0
 10
282.9247460742459
 20
30.1718868884346
 30
0.0
 10
282.9899644836904
 20
30.9987443826462
 30
0.0
 10
282.9744387953808
 20
31.79716238019499
 30
0.0
 10
282.8753935558327
 20
32.55675373641263
 30
0.0
 10
282.6910283533914
 20
33.26550361441635
 30
0.0
 10
282.4228876883199
 20
33.91139622554905
 30
0.0
 10
282.073000996586
 20
34.47831799165265
 30
0.0
 10
281.6803838427921
 20
34.94213560199795
 30
0.0
 10
281.375564049536
 20
35.17186327304396
 30
0.0
 10
281.2387611619471
 20
35.27496487423089
 30
0.0
  0
SPLINE
  5
272
330
1F
100
AcDbEntity
  8
0
  6
Continuous
 62
     7
370
    25
100
AcDbSpline
210
0.0
220
0.0
230
1.0
 70
     8
 71
     3
 72
    13
 73
     9
 74
     0
 42
0.000000001
 43
0.00000001
 40
0.0
 40
0.0
 40
0.0
 40
0.0
 40
0.0214355499176037
 40
0.2418277945314957
 40
0.4579898128098658
 40
0.6701648240103022
 40
0.8802159631722031
 40
1.0
 40
1.0
 40
1.0
 40
1.0
 10
274.424704002535
 20
23.58590262189786
 30
0.0
 10
274.4140062896942
 20
23.59359739321304
 30
0.0
 10
274.2933187256824
 20
23.68040690282335
 30
0.0
 10
274.114109937937
 20
23.92820482546395
 30
0.0
 10
273.8979798620354
 20
24.33060982381995
 30
0.0
 10
273.7550530119851
 20
24.81288721898315
 30
0.0
 10
273.6872448977935
 20
25.27440923099844
 30
0.0
 10
273.680900504308
 20
25.58091333298389
 30
0.0
 10
273.6785964533206
 20
25.69222437956931
 30
0.0
  0
SPLINE
  5
273
330
1F
100
AcDbEntity
  8
0
  6
Continuous
 62
     7
370
    25
100
AcDbSpline
210
0.0
220
0.0
230
1.0
 70
     8
 71
     3
 72
    19
 73
    15
 74
     0
 42
0.000000001
 43
0.00000001
 40
0.0
 40
0.0
 40
0.0
 40
0.0
 40
0.0048242847424254
 40
0.0977831197945682
 40
0.1907226903561019
 40
0.2835837413253214
 40
0.3763181348712706
 40
0.4688819763903521
 40
0.5612466997194491
 40
0.6534247975014813
 40
0.7455197669684877
 40
0.8377102232935594
 40
0.9304843464832026
 40
1.0
 40
1.0
 40
1.0
 40
1.0
 10
274.7031570353898
 20
29.26007260449768
 30
0.0
 10
274.7089015156644
 20
29.27145971855806
 30
0.0
 10
274.8253360200182
 20
29.50226440727964
 30
0.0
 10
275.1023134168028
 20
29.92980301890156
 30
0.0
 10
275.5288084840686
 20
30.5247366404865
 30
0.0
 10
275.9972849689364
 20
31.06552830670808
 30
0.0
 10
276.490166464014
 20
31.54468692250995
 30
0.0
 10
276.9990909862159
 20
31.9520301967015
 30
0.0
 10
277.5126475419532
 20
32.28025450855465
 30
0.0
 10
278.0197988303349
 20
32.52343937036242
 30
0.0
 10
278.5101499685082
 20
32.67914121680571
 30
0.0
 10
278.971886022761
 20
32.74276450522807
 30
0.0
 10
279.3664932301746
 20
32.7298743369122
 30
0.0
 10
279.5842651925523
 20
32.6582942453737
 30
0.0
 10
279.6775462395138
 20
32.62763343023749
 30
0.0
  0
SPLINE
  5
274
330
1F
100
AcDbEntity
  8
0
  6
Continuous
 62
     7
370
    25
100
AcDbSpline
210
0.0
220
0.0
230
1.0
 70
     8
 71
     3
 72
    13
 73
     9
 74
     0
 42
0.000000001
 43
0.00000001
 40
0.0
 40
0.0
 40
0.0
 40
0.0
 40
0.0953103594796388
 40
0.2776228767786659
 40
0.4602566092470148
 40
0.6431424773290401
 40
0.8262520969629072
 40
1.0
 40
1.0
 40
1.0
 40
1.0
 10
273.6785964533206
 20
25.69222437956931
 30
0.0
 10
273.6805306322788
 20
25.7963911260525
 30
0.0
 10
273.6861645668217
 20
26.09981115280745
 30
0.0
 10
273.7494984401854
 20
26.63377989151192
 30
0.0
 10
273.8912352845355
 20
27.29296196150458
 30
0.0
 10
274.1031815846021
 20
27.96583597188182
 30
0.0
 10
274.3701540154894
 20
28.6289043599052
 30
0.0
 10
274.5941144707845
 20
29.05339518725264
 30
0.0
 10
274.7031570353898
 20
29.26007260449768
 30
0.0
  0
LINE
  5
275
330
1F
100
AcDbEntity
  8
0
  6
Continuous
 62
     7
370
    25
100
AcDbLine
 10
246.0340461806
 20
27.8403771322
 30
0.0
 11
247.7190113296
 21
26.8676674564
 31
0.0
  0
LINE
  5
276
330
1F
100
AcDbEntity
  8
0
  6
Continuous
 62
     7
370
    25
100
AcDbLine
 10
263.4552326441
 20
54.1265558502
 30
0.0
 11
261.7702674951
 21
55.099265526
 31
0.0
  0
LINE
  5
277
330
1F
100
AcDbEntity
  8
0
  6
Continuous
 62
     7
370
    25
100
AcDbLine
 10
251.5231987178
 20
31.0078047015
 30
0.0
 11
254.4135617586
 21
29.3392336346
 31
0.0
  0
LINE
  5
278
330
1F
100
AcDbEntity
  8
0
  6
Continuous
 62
     7
370
    25
100
AcDbLine
 10
264.662728988
 20
47.0932351697
 30
0.0
 11
261.7723659472
 21
48.7618062366
 31
0.0
  0
LINE
  5
279
330
1F
100
AcDbEntity
  8
0
  6
Continuous
 62
     7
370
    25
100
AcDbLine
 10
241.4257612492
 20
30.5006833969
 30
0.0
 11
243.6764122256
 21
29.201410244
 31
0.0
  0
LINE
  5
27A
330
1F
100
AcDbEntity
  8
0
  6
Continuous
 62
     7
370
    25
100
AcDbLine
 10
259.4126335401
 20
56.4602986378
 30
0.0
 11
257.1619825637
 21
57.7595717907
 31
0.0
  0
LINE
  5
27B
330
1F
100
AcDbEntity
  8
0
  6
Continuous
 62
     7
370
    25
100
AcDbLine
 10
250.3845933735
 20
57.5394536983
 30
0.0
 11
241.1873811898
 21
62.1201063082
 31
0.0
  0
LINE
  5
27C
330
1F
100
AcDbEntity
  8
0
  6
Continuous
 62
     7
370
    25
100
AcDbLine
 10
229.6610334002
 20
42.1537228525
 30
0.0
 11
238.2271334059
 21
36.4798332562
 31
0.0
  0
LINE
  5
27D
330
1F
100
AcDbEntity
  8
0
  6
Continuous
 62
     7
370
    25
100
AcDbLine
 10
234.6404708419
 20
43.1002127182
 30
0.0
 11
234.6404708419
 21
42.7348940132
 31
0.0
  0
LINE
  5
27E
330
1F
100
AcDbEntity
  8
0
  6
Continuous
 62
     7
370
    25
100
AcDbLine
 10
238.5384376022
 20
62.4970746849
 30
0.0
 11
237.8988874935
 21
62.4098629294
 31
0.0
  0
LINE
  5
27F
330
1F
100
AcDbEntity
  8
0
  6
Continuous
 62
     7
370
    25
100
AcDbLine
 10
272.9724727632
 20
20.8710775577
 30
0.0
 11
272.9329426413
 21
20.8887112682
 31
0.0
  0
LWPOLYLINE
  5
280
330
1F
100
AcDbEntity
  8
0
  6
Continuous
 62
     7
370
    25
100
AcDbPolyline
 90
       24
 70
   128
 43
0.0
 10
252.2903006659
 20
34.0321427135
 10
252.3313615745
 20
34.945474565
 10
252.4540773923
 20
35.8958650467
 10
252.6570592489
 20
36.8725465146
 10
252.9380061898
 20
37.8644525484
 10
253.2937354694
 20
38.8603441854
 10
253.7202161368
 20
39.8489378654
 10
254.2126164509
 20
40.8190324234
 10
254.7653572226
 20
41.7596362719
 10
255.3721756936
 20
42.6600921114
 10
256.0261960008
 20
43.510197076
 10
256.7200082014
 20
44.3003190777
 10
257.4457510849
 20
45.0215062096
 10
258.1952014883
 20
45.6655869764
 10
258.9598680977
 20
46.2252632283
 10
259.7310867722
 20
46.6941940882
 10
260.500119367
 20
47.0670666889
 10
261.2582524329
 20
47.3396554331
 10
261.996895874
 20
47.5088728632
 10
262.7076809068
 20
47.572800356
 10
263.3825536966
 20
47.5307140414
 10
264.0138677184
 20
47.3830909716
 10
264.5944701912
 20
47.1316042659
 10
264.9400414217
 20
46.914802273
  0
LWPOLYLINE
  5
281
330
1F
100
AcDbEntity
  8
0
  6
Continuous
 62
     7
370
    25
100
AcDbPolyline
 90
        9
 70
   128
 43
0.0
 10
254.7067599322
 20
29.1883179278
 10
254.2126164509
 20
29.4647115664
 10
253.7202161368
 20
29.8662928229
 10
253.2937354694
 20
30.3624824055
 10
252.9380061898
 20
30.9476577587
 10
252.6570592489
 20
31.615189359
 10
252.4540773923
 20
32.3575129637
 10
252.3313615745
 20
33.166218778
 10
252.2903006659
 20
34.0321427135
  0
LINE
  5
282
330
1F
100
AcDbEntity
  8
0
  6
Continuous
 62
     7
370
    25
100
AcDbLine
 10
279.6479160172
 20
32.6471843696
 30
0.0
 11
279.6856315197
 21
32.6346830032
 31
0.0
  0
LWPOLYLINE
  5
283
330
1F
100
AcDbEntity
  8
0
  6
Continuous
 62
     7
370
    25
100
AcDbPolyline
 90
       22
 70
   128
 43
0.0
 10
278.9846459585
 20
32.7399297708
 10
278.9976212609
 20
32.7293577388
 10
279.3090324707
 20
32.3978801967
 10
279.5492115553
 20
31.9763789923
 10
279.7125282884
 20
31.4747337323
 10
279.7951552093
 20
30.9047026967
 10
279.7951552093
 20
30.2796468298
 10
279.7125282884
 20
29.6142167819
 10
279.5492115553
 20
28.9240100356
 10
279.3090324707
 20
28.2252039627
 10
278.9976212609
 20
27.5341786908
 10
278.6222767392
 20
26.8671306342
 10
278.1917965664
 20
26.2396947498
 10
277.7162711261
 20
25.6665782986
 10
277.2068462017
 20
25.1612141445
 10
276.6754622342
 20
24.7354474916
 10
276.134574492
 20
24.3992583714
 10
275.5968608725
 20
24.1605264197
 10
275.0749250018
 20
24.0248476926
 10
274.5810004865
 20
23.9954019574
 10
274.1266645389
 20
24.0728793884
 10
273.9989026238
 20
24.1170792137
  0
LWPOLYLINE
  5
284
330
1F
100
AcDbEntity
  8
0
  6
Continuous
 62
     7
370
    25
100
AcDbPolyline
 90
       39
 70
   128
 43
0.0
 10
244.4590289884
 20
34.0730003064
 10
244.5002235816
 20
35.2014558804
 10
244.6235011378
 20
36.369118162
 10
244.8279495731
 20
37.567342865
 10
245.112055552
 20
38.7872587614
 10
245.4737150249
 20
40.0198336506
 10
245.9102503498
 20
41.255941849
 10
246.4184300488
 20
42.4864322493
 10
246.9944918571
 20
43.7021948591
 10
247.6341703821
 20
44.8942273388
 10
248.3327293714
 20
46.0537057213
 10
249.0849972753
 20
47.1720444857
 10
249.8854054411
 20
48.240964995
 10
250.7280266393
 20
49.2525519569
 10
251.6066228068
 20
50.1993174887
 10
252.5146891703
 20
51.0742509229
 10
253.4455028136
 20
51.8708742218
 10
254.3921723976
 20
52.5832912127
 10
255.347688848
 20
53.2062259747
 10
256.3049779767
 20
53.7350669045
 10
257.256952466
 20
54.1658990082
 10
258.1965639346
 20
54.4955316765
 10
259.1168560123
 20
54.7215247614
 10
260.0110152329
 20
54.8422057889
 10
260.8724217423
 20
54.8566809806
 10
261.6946975372
 20
54.7648425691
 10
262.4717550319
 20
54.5673709795
 10
263.1978411817
 20
54.2657276007
 10
263.8675796292
 20
53.8621464168
 10
264.4760128514
 20
53.3596157517
 10
265.0186364039
 20
52.7618554519
 10
265.4914318479
 20
52.0732910282
 10
265.8908990196
 20
51.2990201917
 10
266.2140810539
 20
50.4447767299
 10
266.4585841418
 20
49.5168833558
 10
266.6225992613
 20
48.5222112115
 10
266.7049113979
 20
47.4681239257
 10
266.7049113979
 20
46.362425806
 10
266.6658201959
 20
45.6832864445
  0
LWPOLYLINE
  5
285
330
1F
100
AcDbEntity
  8
0
  6
Continuous
 62
     7
370
    25
100
AcDbPolyline
 90
       21
 70
   128
 43
0.0
 10
256.636255581
 20
28.3096895244
 10
256.3049779767
 20
28.0879752861
 10
255.347688848
 20
27.5115537141
 10
254.3921723976
 20
27.031272665
 10
253.4455028136
 20
26.6506882194
 10
252.5146891703
 20
26.3726169614
 10
251.6066228068
 20
26.1991192887
 10
250.7280266393
 20
26.1314792777
 10
249.8854054411
 20
26.1701965124
 10
249.0849972753
 20
26.314985424
 10
248.3327293714
 20
26.5647741542
 10
247.6341703821
 20
26.9177134953
 10
246.9944918571
 20
27.3711888707
 10
246.4184300488
 20
27.9218446738
 10
245.9102503498
 20
28.5656032826
 10
245.4737150249
 20
29.297698523
 10
245.112055552
 20
30.1127102729
 10
244.8279495731
 20
31.0046043882
 10
244.6235011378
 20
31.9667779524
 10
244.5002235816
 20
32.9921069972
 10
244.4590289884
 20
34.0730003064
  0
SPLINE
  5
286
330
1F
100
AcDbEntity
  8
0
  6
Continuous
 62
     7
370
    25
100
AcDbSpline
210
0.0
220
0.0
230
1.0
 70
     8
 71
     3
 72
    25
 73
    21
 74
     0
 42
0.000000001
 43
0.00000001
 40
0.0
 40
0.0
 40
0.0
 40
0.0
 40
0.1249999999999998
 40
0.1249999999999998
 40
0.2499999999999997
 40
0.2499999999999997
 40
0.3749999999999995
 40
0.3749999999999995
 40
0.4999999999999993
 40
0.4999999999999993
 40
0.5624999999999996
 40
0.5624999999999996
 40
0.6249999999999998
 40
0.6875000000000001
 40
0.6875000000000001
 40
0.7500000000000003
 40
0.7500000000000003
 40
0.8750000000000001
 40
0.8750000000000001
 40
1.0
 40
1.0
 40
1.0
 40
1.0
 10
249.29261813694
 20
50.50481476082533
 30
0.0
 10
249.3217414352011
 20
50.39362924029614
 30
0.0
 10
249.3341304760604
 20
50.27838702786811
 30
0.0
 10
249.3271529909601
 20
50.03929146003232
 30
0.0
 10
249.307135403108
 20
49.91451749015705
 30
0.0
 10
249.2369132453948
 20
49.66814858094463
 30
0.0
 10
249.1862625908011
 20
49.54393743358351
 30
0.0
 10
249.0563478471459
 20
49.30030893827334
 30
0.0
 10
248.9786468991567
 20
49.18325184321517
 30
0.0
 10
248.8432733169305
 20
49.01459532536514
 30
0.0
 10
248.7946388196234
 20
48.95922830409298
 30
0.0
 10
248.6931994842414
 20
48.85350849269597
 30
0.0
 10
248.5873295015007
 20
48.75234753407552
 30
0.0
 10
248.4727377091732
 20
48.66017321239872
 30
0.0
 10
248.353655039955
 20
48.5726363696586
 30
0.0
 10
248.2916970268975
 20
48.53113790014642
 30
0.0
 10
248.103833323377
 20
48.41701757840831
 30
0.0
 10
247.974455887023
 20
48.35341014729372
 30
0.0
 10
247.7067726339609
 20
48.25214184631948
 30
0.0
 10
247.5709009474959
 20
48.21560093809469
 30
0.0
 10
247.4353836807683
 20
48.19443275374462
 30
0.0
  0
LWPOLYLINE
  5
287
330
1F
100
AcDbEntity
  8
0
  6
Continuous
 62
     7
370
    25
100
AcDbPolyline
 90
       15
 70
   128
 43
0.0
 10
249.2926182486
 20
50.5048147933
 10
250.1975670625
 20
51.448544556
 10
251.1309972677
 20
52.3155572904
 10
252.0857320463
 20
53.0991874522
 10
253.0544316728
 20
53.7934108204
 10
254.0296486468
 20
54.3928877311
 10
255.0038855007
 20
54.8930131802
 10
255.9696522169
 20
55.2899400825
 10
256.919523809
 20
55.580616316
 10
257.8461976768
 20
55.7628079456
 10
258.7425495214
 20
55.8351147723
 10
259.6016883328
 20
55.7969800232
 10
260.4170085806
 20
55.6486969063
 10
261.1822425672
 20
55.3914061337
 10
261.7702674951
 20
55.099265526
  0
LWPOLYLINE
  5
288
330
1F
100
AcDbEntity
  8
0
  6
Continuous
 62
     7
370
    25
100
AcDbPolyline
 90
       21
 70
   128
 43
0.0
 10
246.0340461806
 20
27.8403771322
 10
245.4078862573
 20
28.2645833039
 10
244.8153397628
 20
28.8062360127
 10
244.2915321441
 20
29.4436846261
 10
243.8404265219
 20
30.1721085782
 10
243.4654348155
 20
30.985996094
 10
243.1693940344
 20
31.8791909602
 10
242.9545432302
 20
32.8449356836
 10
242.8225076905
 20
33.8759252003
 10
242.7742877445
 20
34.964361095
 10
242.8102455918
 20
36.1020081744
 10
242.9301118875
 20
37.2802619329
 10
243.1329778402
 20
38.4902081791
 10
243.4173096999
 20
39.7226941257
 10
243.7809566601
 20
40.9683970795
 10
244.2211673219
 20
42.2178928822
 10
244.7346120843
 20
43.4617296727
 10
245.3174068517
 20
44.6904986081
 10
245.9651426687
 20
45.8949034432
 10
246.6729193055
 20
47.0658339121
 10
247.435383454
 20
48.1944322653
  0
LWPOLYLINE
  5
289
330
1F
100
AcDbEntity
  8
0
  6
Continuous
 62
     7
370
    25
100
AcDbPolyline
 90
       12
 70
   128
 43
0.0
 10
247.6299968562
 20
50.6290912739
 10
248.5011560806
 20
51.5590379655
 10
249.4027502687
 20
52.4118037533
 10
250.3270701692
 20
53.1800963314
 10
251.266211931
 20
53.857346042
 10
252.2121450873
 20
54.4377618524
 10
253.1567808492
 20
54.9163814258
 10
254.0920417259
 20
55.2891105523
 10
255.0099304454
 20
55.5527636961
 10
255.9025980627
 20
55.7050850628
 10
256.7624112237
 20
55.7447729809
 10
257.4305474325
 20
55.693977907
  0
SPLINE
  5
28A
330
1F
100
AcDbEntity
  8
0
  6
Continuous
 62
     7
370
    25
100
AcDbSpline
210
0.0
220
0.0
230
1.0
 70
     8
 71
     3
 72
    26
 73
    22
 74
     0
 42
0.000000001
 43
0.00000001
 40
0.0
 40
0.0
 40
0.0
 40
0.0
 40
0.1250000000000009
 40
0.1250000000000009
 40
0.2500000000000019
 40
0.2500000000000019
 40
0.3125000000000011
 40
0.3125000000000011
 40
0.3750000000000004
 40
0.3750000000000004
 40
0.4375000000000002
 40
0.4375000000000002
 40
0.5000000000000001
 40
0.5000000000000001
 40
0.5625
 40
0.5625
 40
0.6249999999999999
 40
0.6249999999999999
 40
0.7500000000000001
 40
0.7500000000000001
 40
1.0
 40
1.0
 40
1.0
 40
1.0
 10
246.2858036513125
 20
48.95692798770015
 30
0.0
 10
246.2621660550805
 20
49.06650384727314
 30
0.0
 10
246.2445982761987
 20
49.17739310563766
 30
0.0
 10
246.2257856933293
 20
49.40272306550062
 30
0.0
 10
246.2246059185618
 20
49.51839997881899
 30
0.0
 10
246.2407039217973
 20
49.68975548867854
 30
0.0
 10
246.2490226388975
 20
49.7465540007727
 30
0.0
 10
246.2727797881544
 20
49.85938021316979
 30
0.0
 10
246.2884021672034
 20
49.91583306683594
 30
0.0
 10
246.3272593796005
 20
50.02441618324455
 30
0.0
 10
246.3504853363029
 20
50.07679614347009
 30
0.0
 10
246.4054839857813
 20
50.1772529187422
 30
0.0
 10
246.437562252804
 20
50.22553178651364
 30
0.0
 10
246.507977001339
 20
50.31322876209739
 30
0.0
 10
246.5465554234657
 20
50.35321789007334
 30
0.0
 10
246.6302636870619
 20
50.42569657418894
 30
0.0
 10
246.6753923970037
 20
50.45803319856555
 30
0.0
 10
246.8146730391938
 20
50.5412329659192
 30
0.0
 10
246.9154621107555
 20
50.58006168855529
 30
0.0
 10
247.2185343819882
 20
50.65547797601047
 30
0.0
 10
247.4270584724732
 20
50.65534782963971
 30
0.0
 10
247.6299968921637
 20
50.62909160031348
 30
0.0
  0
LWPOLYLINE
  5
28B
330
1F
100
AcDbEntity
  8
0
  6
Continuous
 62
     7
370
    25
100
AcDbPolyline
 90
       18
 70
   128
 43
0.0
 10
243.3488250224
 20
31.3010766976
 10
243.022298899
 20
31.7704437401
 10
242.6224254054
 20
32.5134843049
 10
242.3010471244
 20
33.3398566325
 10
242.0608364297
 20
34.2426872185
 10
241.9037913452
 20
35.2144679202
 10
241.8312184233
 20
36.2471166293
 10
241.8437202323
 20
37.3320443125
 10
241.9411933805
 20
38.4602281111
 10
242.1228278584
 20
39.6222852484
 10
242.3871116476
 20
40.8085504305
 10
242.7318471852
 20
42.0091578083
 10
243.1541684854
 20
43.2141225827
 10
243.6505615548
 20
44.413422943
 10
244.2168986364
 20
45.5970831442
 10
244.8484698199
 20
46.7552609569
 10
245.5400218957
 20
47.87832295
 10
246.2858037947
 20
48.9569277567
  0
LINE
  5
28C
330
1F
100
AcDbEntity
  8
0
  6
Continuous
 62
     7
370
    25
100
AcDbLine
 10
244.8104113804
 20
28.7130068126
 30
0.0
 11
244.9286146865
 21
28.7688692641
 31
0.0
  0
LWPOLYLINE
  5
28D
330
1F
100
AcDbEntity
  8
0
  6
Continuous
 62
     7
370
    25
100
AcDbPolyline
 90
       41
 70
   128
 43
0.0
 10
244.8104113804
 20
28.7130068126
 10
244.0740624729
 20
28.9939620009
 10
243.3929740108
 20
29.3772714498
 10
242.7721851766
 20
29.8601019622
 10
242.2162873425
 20
30.4388804526
 10
241.7293937776
 20
31.1093258895
 10
241.3151054033
 20
31.8664793365
 10
240.9764870856
 20
32.7047389366
 10
240.7160432694
 20
33.6179045908
 10
240.5357015145
 20
34.5992213067
 10
240.4367947148
 20
35.641429533
 10
240.4200558305
 20
36.7368205072
 10
240.4856060337
 20
37.8772897988
 10
240.6329639285
 20
39.05440304
 10
240.8610369894
 20
40.259451251
 10
241.1681393425
 20
41.4835209193
 10
241.5519990093
 20
42.7175576164
 10
242.0097756873
 20
43.9524318718
 10
242.5380837992
 20
45.179009703
 10
243.1330155419
 20
46.3882176334
 10
243.7901692039
 20
47.5711107513
 10
244.5046840682
 20
48.7189384858
 10
245.271275315
 20
49.823211145
 10
246.0842709006
 20
50.8757584675
 10
246.9376576551
 20
51.8687957788
 10
247.8251231001
 20
52.7949762688
 10
248.7401015467
 20
53.6474495434
 10
249.6758254625
 20
54.4199095287
 10
250.625372639
 20
55.1066422334
 10
251.5817189455
 20
55.7025668485
 10
252.5377901708
 20
56.2032748011
 10
253.4865138374
 20
56.605064229
 10
254.4208720965
 20
56.9049621504
 10
255.3339532765
 20
57.1007489001
 10
256.2190025216
 20
57.1909774755
 10
257.0694735703
 20
57.1749798541
 10
257.8790750175
 20
57.0528746879
 10
258.6418177302
 20
56.8255650183
 10
259.3520599577
 20
56.4947323779
 10
260.0045471733
 20
56.0628240491
 10
260.5026715563
 20
55.6259963214
  0
LINE
  5
28E
330
1F
100
AcDbEntity
  8
0
  6
Continuous
 62
     7
370
    25
100
AcDbLine
 10
261.7723659472
 20
48.7618062366
 30
0.0
 11
261.7410567656
 21
48.7796610409
 31
0.0
  0
LWPOLYLINE
  5
28F
330
1F
100
AcDbEntity
  8
0
  6
Continuous
 62
     7
370
    25
100
AcDbPolyline
 90
       27
 70
   128
 43
0.0
 10
238.1657787897
 20
37.7876569877
 10
238.2067112821
 20
38.9089418015
 10
238.329205829
 20
40.0691848905
 10
238.5323556144
 20
41.2597957708
 10
238.8146558643
 20
42.4719596779
 10
239.1740170169
 20
43.6967023952
 10
239.6077792108
 20
44.924956793
 10
240.1127294076
 20
46.1476280367
 10
240.685130367
 20
47.3556650673
 10
241.3207443552
 20
48.5401229575
 10
242.0148647546
 20
49.6922336316
 10
242.7623529424
 20
50.8034663187
 10
243.5576745105
 20
51.8655948507
 10
244.3949417418
 20
52.8707541222
 10
245.2679550982
 20
53.8115035855
 10
246.1702512948
 20
54.6808770565
 10
247.0951505498
 20
55.4724388892
 10
248.035804659
 20
56.1803292189
 10
248.9852495143
 20
56.7993049272
 10
249.9364558114
 20
57.3247864056
 10
250.8823810755
 20
57.7528799847
 10
251.8160221796
 20
58.0804188984
 10
252.7304665467
 20
58.3049761127
 10
253.6189441745
 20
58.4248897959
 10
254.4748768621
 20
58.4392727248
 10
255.2919274355
 20
58.3480178885
 10
255.9862770084
 20
58.1769778637
  0
LWPOLYLINE
  5
290
330
1F
100
AcDbEntity
  8
0
  6
Continuous
 62
     7
370
    25
100
AcDbPolyline
 90
        3
 70
   128
 43
0.0
 10
238.2399743652
 20
36.3537886891
 10
238.2067112821
 20
36.7136318237
 10
238.1757280801
 20
37.2518643195
  0
SPLINE
  5
291
330
1F
100
AcDbEntity
  8
0
  6
Continuous
 62
     7
370
    25
100
AcDbSpline
210
0.0
220
0.0
230
1.0
 70
     8
 71
     3
 72
    10
 73
     6
 74
     0
 42
0.000000001
 43
0.00000001
 40
0.0
 40
0.0
 40
0.0
 40
0.0
 40
0.5
 40
0.5
 40
1.0
 40
1.0
 40
1.0
 40
1.0
 10
247.0124917189438
 20
47.49387470688042
 30
0.0
 10
246.9085272281595
 20
47.5672130799508
 30
0.0
 10
246.8187189517321
 20
47.65444883774421
 30
0.0
 10
246.6666765237335
 20
47.8553793789402
 30
0.0
 10
246.6047709353725
 20
47.96955014513718
 30
0.0
 10
246.5603212307821
 20
48.09256782829728
 30
0.0
  0
SPLINE
  5
292
330
1F
100
AcDbEntity
  8
0
  6
Continuous
 62
     7
370
    25
100
AcDbSpline
210
0.0
220
0.0
230
1.0
 70
     8
 71
     3
 72
    14
 73
    10
 74
     0
 42
0.000000001
 43
0.00000001
 40
0.0
 40
0.0
 40
0.0
 40
0.0
 40
0.25
 40
0.25
 40
0.5
 40
0.5
 40
0.75
 40
0.75
 40
1.0
 40
1.0
 40
1.0
 40
1.0
 10
246.5603212307821
 20
48.09256782829728
 30
0.0
 10
246.5376004279169
 20
48.15544924795482
 30
0.0
 10
246.5156859175675
 20
48.22449567742823
 30
0.0
 10
246.4735748635047
 20
48.37214819404701
 30
0.0
 10
246.4540533095916
 20
48.44854798090531
 30
0.0
 10
246.4157070674179
 20
48.60288027230092
 30
0.0
 10
246.3973474745341
 20
48.67983286863256
 30
0.0
 10
246.3553440299524
 20
48.82522303614854
 30
0.0
 10
246.3315677089394
 20
48.89181394234157
 30
0.0
 10
246.3031062048372
 20
48.93230955757292
 30
0.0
  0
LINE
  5
293
330
1F
100
AcDbEntity
  8
0
  6
Continuous
 62
     7
370
    25
100
AcDbLine
 10
246.3031063931
 20
48.9323099493
 30
0.0
 11
246.2858037947
 21
48.9569277567
 31
0.0
  0
LINE
  5
294
330
1F
100
AcDbEntity
  8
0
  6
Continuous
 62
     7
370
    25
100
AcDbLine
 10
247.6299968562
 20
50.6290912739
 30
0.0
 11
247.6472994546
 21
50.6044734666
 31
0.0
  0
SPLINE
  5
295
330
1F
100
AcDbEntity
  8
0
  6
Continuous
 62
     7
370
    25
100
AcDbSpline
210
0.0
220
0.0
230
1.0
 70
     8
 71
     3
 72
    16
 73
    12
 74
     0
 42
0.000000001
 43
0.00000001
 40
0.0
 40
0.0
 40
0.0
 40
0.0
 40
0.1250000000000001
 40
0.1250000000000001
 40
0.2500000000000003
 40
0.2500000000000003
 40
0.5000000000000002
 40
0.5000000000000002
 40
0.7500000000000001
 40
0.7500000000000001
 40
1.0
 40
1.0
 40
1.0
 40
1.0
 10
247.6472994456884
 20
50.6044731701862
 30
0.0
 10
247.6614518520925
 20
50.5843368343734
 30
0.0
 10
247.6831102565662
 20
50.56753941369598
 30
0.0
 10
247.7355281856015
 20
50.5406938923645
 30
0.0
 10
247.7661210647398
 20
50.53046840780351
 30
0.0
 10
247.8652019135973
 20
50.50596796737082
 30
0.0
 10
247.9390844512132
 20
50.49770804496932
 30
0.0
 10
248.0921840436046
 20
50.48652207826441
 30
0.0
 10
248.1702680182522
 20
50.48392540651322
 30
0.0
 10
248.3296116519943
 20
50.48189640567951
 30
0.0
 10
248.4082645468259
 20
50.48253399434174
 30
0.0
 10
248.4840170146185
 20
50.48562709515678
 30
0.0
  0
SPLINE
  5
296
330
1F
100
AcDbEntity
  8
0
  6
Continuous
 62
     7
370
    25
100
AcDbSpline
210
0.0
220
0.0
230
1.0
 70
     8
 71
     3
 72
    10
 73
     6
 74
     0
 42
0.000000001
 43
0.00000001
 40
0.0
 40
0.0
 40
0.0
 40
0.0
 40
0.5
 40
0.5
 40
1.0
 40
1.0
 40
1.0
 40
1.0
 10
248.4840170146185
 20
50.48562709515678
 30
0.0
 10
248.6322113545192
 20
50.49167811959055
 30
0.0
 10
248.7744358202498
 20
50.48151588937741
 30
0.0
 10
249.0468272105906
 20
50.43046545343733
 30
0.0
 10
249.1769545404591
 20
50.38910435079277
 30
0.0
 10
249.2950298826445
 20
50.3333304828405
 30
0.0
  0
LINE
  5
297
330
1F
100
AcDbEntity
  8
0
  6
Continuous
 62
     7
370
    25
100
AcDbLine
 10
249.4502329741
 20
50.3617490903
 30
0.0
 11
249.4328398258
 21
50.386496375
 31
0.0
  0
ARC
  5
298
330
1F
100
AcDbEntity
  8
0
  6
Continuous
 62
     7
370
    25
100
AcDbCircle
 10
231.9776508713
 20
45.6094013175
 30
0.0
 40
4.160340149630765
100
AcDbArc
 50
211.7954354499
 51
236.1628935314
  0
SPLINE
  5
299
330
1F
100
AcDbEntity
  8
0
  6
Continuous
 62
     7
370
    25
100
AcDbSpline
210
0.0
220
0.0
230
1.0
 70
     8
 71
     3
 72
     8
 73
     4
 74
     0
 42
0.000000001
 43
0.00000001
 40
0.0
 40
0.0
 40
0.0
 40
0.0
 40
1.0
 40
1.0
 40
1.0
 40
1.0
 10
229.8720762135077
 20
42.49262606360183
 30
0.0
 10
229.3953029216835
 20
42.80071887153447
 30
0.0
 10
228.9185005448387
 20
43.10894831710722
 30
0.0
 10
228.441668100313
 20
43.41731347332713
 30
0.0
  0
SPLINE
  5
29A
330
1F
100
AcDbEntity
  8
0
  6
Continuous
 62
     7
370
    25
100
AcDbSpline
210
0.0
220
0.0
230
1.0
 70
     8
 71
     3
 72
    23
 73
    19
 74
     0
 42
0.000000001
 43
0.00000001
 40
0.0
 40
0.0
 40
0.0
 40
0.0
 40
0.0521036415675031
 40
0.1035646240925967
 40
0.1544751946736949
 40
0.2049306267473421
 40
0.2550287880844035
 40
0.3048696389141012
 40
0.3545546704609132
 40
0.4041862979523234
 40
0.4538672252126086
 40
0.5036997999421611
 40
0.5901870230746071
 40
0.674271637822954
 40
0.7565997087222995
 40
0.8378563983721267
 40
0.9187511781367398
 40
1.0
 40
1.0
 40
1.0
 40
1.0
 10
230.7526410170493
 20
42.31789536548173
 30
0.0
 10
230.7473720781092
 20
42.3079739032469
 30
0.0
 10
230.7368991886089
 20
42.28825335251596
 30
0.0
 10
230.7176528928462
 20
42.26368552356373
 30
0.0
 10
230.6958571525134
 20
42.2429969413045
 30
0.0
 10
230.6712058613085
 20
42.22646600600753
 30
0.0
 10
230.6437093467696
 20
42.21394850643136
 30
0.0
 10
230.6132982927623
 20
42.20541388260897
 30
0.0
 10
230.5799279209897
 20
42.2008040099609
 30
0.0
 10
230.5435520327178
 20
42.20006926682442
 30
0.0
 10
230.5041236611287
 20
42.20316434937571
 30
0.0
 10
230.4512752695788
 20
42.21170012485484
 30
0.0
 10
230.3827362758086
 20
42.2292965637019
 30
0.0
 10
230.2950150438542
 20
42.26093317178777
 30
0.0
 10
230.2002841243603
 20
42.30311282912049
 30
0.0
 10
230.0982498770304
 20
42.35584926484748
 30
0.0
 10
229.9893359638413
 20
42.4181658207583
 30
0.0
 10
229.9112196528553
 20
42.46776987900942
 30
0.0
 10
229.8720762135077
 20
42.49262606360183
 30
0.0
  0
SPLINE
  5
29B
330
1F
100
AcDbEntity
  8
0
  6
Continuous
 62
     7
370
    25
100
AcDbSpline
210
0.0
220
0.0
230
1.0
 70
     8
 71
     3
 72
     8
 73
     4
 74
     0
 42
0.000000001
 43
0.00000001
 40
0.0
 40
0.0
 40
0.0
 40
0.0
 40
1.0
 40
1.0
 40
1.0
 40
1.0
 10
232.2261440435032
 20
41.37057522892552
 30
0.0
 10
231.7347767314617
 20
41.68644984889301
 30
0.0
 10
231.2433905315355
 20
42.00243587018249
 30
0.0
 10
230.7519848213915
 20
42.31853275102517
 30
0.0
  0
SPLINE
  5
29C
330
1F
100
AcDbEntity
  8
0
  6
Continuous
 62
     7
370
    25
100
AcDbSpline
210
0.0
220
0.0
230
1.0
 70
     8
 71
     3
 72
    18
 73
    14
 74
     0
 42
0.000000001
 43
0.00000001
 40
0.0
 40
0.0
 40
0.0
 40
0.0
 40
0.0923824559411628
 40
0.1844689291573508
 40
0.2764953615950219
 40
0.3686975365494161
 40
0.4613092840003458
 40
0.5545607518442569
 40
0.6486768051537182
 40
0.7438756050146744
 40
0.8403674044302629
 40
0.9203921078121001
 40
1.0
 40
1.0
 40
1.0
 40
1.0
 10
233.0397081627028
 20
40.72626750438118
 30
0.0
 10
233.0161406485797
 20
40.74154147864672
 30
0.0
 10
232.9690811279283
 20
40.77204049112736
 30
0.0
 10
232.8966833399654
 20
40.82167306373827
 30
0.0
 10
232.8232011310699
 20
40.8740026064068
 30
0.0
 10
232.748501683325
 20
40.92932029211467
 30
0.0
 10
232.6726408935569
 20
40.98755860722824
 30
0.0
 10
232.5956296127701
 20
41.04875151886583
 30
0.0
 10
232.5174974806891
 20
41.11291523544737
 30
0.0
 10
232.4382712460452
 20
41.18006419531449
 30
0.0
 10
232.3629747616354
 20
41.24591510506066
 30
0.0
 10
232.2921474535133
 20
41.30944669186898
 30
0.0
 10
232.2482430827062
 20
41.35010743688248
 30
0.0
 10
232.2263482159009
 20
41.37038472545103
 30
0.0
  0
LINE
  5
29D
330
1F
100
AcDbEntity
  8
0
  6
Continuous
 62
     7
370
    25
100
AcDbLine
 10
233.6794146946
 20
40.3145136979
 30
0.0
 11
233.0397078522
 21
40.7262673655
 31
0.0
  0
SPLINE
  5
29E
330
1F
100
AcDbEntity
  8
0
  6
Continuous
 62
     7
370
    25
100
AcDbSpline
210
0.0
220
0.0
230
1.0
 70
     8
 71
     3
 72
    25
 73
    21
 74
     0
 42
0.000000001
 43
0.00000001
 40
0.0
 40
0.0
 40
0.0
 40
0.0
 40
0.0280105225426465
 40
0.0559601148860768
 40
0.0839014045043132
 40
0.1118870776786367
 40
0.1399695827588937
 40
0.1682008401739883
 40
0.196631967042422
 40
0.2253130233141467
 40
0.2542927850735845
 40
0.3799486436587335
 40
0.5057850221667067
 40
0.6313085886338298
 40
0.7532068238012468
 40
0.8039473267955921
 40
0.8535894438554446
 40
0.9025339722394071
 40
0.9511970353791085
 40
1.0
 40
1.0
 40
1.0
 40
1.0
 10
234.781780287693
 20
41.03041968825826
 30
0.0
 10
234.7867283952236
 20
41.00279582715077
 30
0.0
 10
234.7966138468591
 20
40.94760819404545
 30
0.0
 10
234.8081494964623
 20
40.86844748667554
 30
0.0
 10
234.8172226182751
 20
40.79214414757715
 30
0.0
 10
234.8235914269881
 20
40.71894838660754
 30
0.0
 10
234.8273076657982
 20
40.64880091839415
 30
0.0
 10
234.828344286781
 20
40.58172463188137
 30
0.0
 10
234.8266958115541
 20
40.51772072265493
 30
0.0
 10
234.8223496596852
 20
40.4567918693881
 30
0.0
 10
234.8074933351176
 20
40.33490374789093
 30
0.0
 10
234.7624050780525
 20
40.18000287623578
 30
0.0
 10
234.6490455575599
 20
40.04905975789372
 30
0.0
 10
234.4872213355656
 20
39.99318335708372
 30
0.0
 10
234.3132061164338
 20
40.01305740946649
 30
0.0
 10
234.1618451957477
 20
40.06037521182197
 30
0.0
 10
234.0514449630494
 20
40.10529063555732
 30
0.0
 10
233.9342854676006
 20
40.16266636684851
 30
0.0
 10
233.8107198006668
 20
40.23134343130133
 30
0.0
 10
233.7232247505717
 20
40.28676367725451
 30
0.0
 10
233.67941443089
 20
40.31451357498481
 30
0.0
  0
ARC
  5
29F
330
1F
100
AcDbEntity
  8
0
  6
Continuous
 62
     7
370
    25
100
AcDbCircle
 10
245.9748014521
 20
42.8164700568
 30
0.0
 40
11.33462419218391
100
AcDbArc
 50
170.9338462887
 51
189.0661537113
  0
SPLINE
  5
2A0
330
1F
100
AcDbEntity
  8
0
  6
Continuous
 62
     7
370
    25
100
AcDbSpline
210
0.0
220
0.0
230
1.0
 70
     8
 71
     3
 72
    26
 73
    22
 74
     0
 42
0.000000001
 43
0.00000001
 40
0.0
 40
0.0
 40
0.0
 40
0.0
 40
0.0241259796963635
 40
0.0482159912272988
 40
0.0723203915124065
 40
0.0964895678710797
 40
0.1207736231963513
 40
0.1452220711242836
 40
0.1698835501657706
 40
0.1948055644472379
 40
0.2200342569517627
 40
0.2456142191611387
 40
0.3690971486901655
 40
0.4940698769485187
 40
0.6192566784762451
 40
0.7454656653603225
 40
0.7971495824713707
 40
0.8481710308405392
 40
0.8988013269235234
 40
0.9493179290492194
 40
1.0
 40
1.0
 40
1.0
 40
1.0
 10
233.67941443089
 20
48.07862396634938
 30
0.0
 10
233.7011326602661
 20
48.06429244295429
 30
0.0
 10
233.7445367404422
 20
48.03565076228526
 30
0.0
 10
233.8078438578036
 20
47.98765846435644
 30
0.0
 10
233.8697054255215
 20
47.93605926647076
 30
0.0
 10
233.930009940658
 20
47.88048447359753
 30
0.0
 10
233.9887997925979
 20
47.82102923297038
 30
0.0
 10
234.0460803110277
 20
47.75766492413297
 30
0.0
 10
234.1018714503539
 20
47.69039614616905
 30
0.0
 10
234.1561926977757
 20
47.61922203220892
 30
0.0
 10
234.2090716729847
 20
47.54413289246065
 30
0.0
 10
234.325866497721
 20
47.36487844375879
 30
0.0
 10
234.4877360556475
 20
47.05457297191541
 30
0.0
 10
234.6509209631793
 20
46.58465918378372
 30
0.0
 10
234.7624323683528
 20
46.08569614987368
 30
0.0
 10
234.8095662064613
 20
45.67681247681667
 30
0.0
 10
234.8246851459938
 20
45.37254052022596
 30
0.0
 10
234.8266382849763
 20
45.17129127853065
 30
0.0
 10
234.8201602593372
 20
44.97563135880805
 30
0.0
 10
234.8060333366501
 20
44.78499507091058
 30
0.0
 10
234.7898734449651
 20
44.66341179717178
 30
0.0
 10
234.781780287693
 20
44.60252076057289
 30
0.0
  0
LINE
  5
2A1
330
1F
100
AcDbEntity
  8
0
  6
Continuous
 62
     7
370
    25
100
AcDbLine
 10
233.0397078522
 20
48.4915988166
 30
0.0
 11
233.6794146946
 21
48.0786238456
 31
0.0
  0
SPLINE
  5
2A2
330
1F
100
AcDbEntity
  8
0
  6
Continuous
 62
     7
370
    25
100
AcDbSpline
210
0.0
220
0.0
230
1.0
 70
     8
 71
     3
 72
    14
 73
    10
 74
     0
 42
0.000000001
 43
0.00000001
 40
0.0
 40
0.0
 40
0.0
 40
0.0
 40
0.0789261963172865
 40
0.158232872055133
 40
0.330847539457262
 40
0.5000195457610529
 40
0.6670357883572423
 40
0.8332395193657144
 40
1.0
 40
1.0
 40
1.0
 40
1.0
 10
232.2257554468515
 20
48.70018124963398
 30
0.0
 10
232.2474723281873
 20
48.70178441349255
 30
0.0
 10
232.291010781403
 20
48.7049984695798
 30
0.0
 10
232.382535900052
 20
48.70581950964769
 30
0.0
 10
232.499444233485
 20
48.69788352786438
 30
0.0
 10
232.6402645718667
 20
48.67160785898657
 30
0.0
 10
232.7774768796788
 20
48.62865026045432
 30
0.0
 10
232.9114075540953
 20
48.57029313564469
 30
0.0
 10
232.9968936460545
 20
48.51785958949471
 30
0.0
 10
233.0397081627028
 20
48.49159897934027
 30
0.0
  0
SPLINE
  5
2A3
330
1F
100
AcDbEntity
  8
0
  6
Continuous
 62
     7
370
    25
100
AcDbSpline
210
0.0
220
0.0
230
1.0
 70
     8
 71
     3
 72
     8
 73
     4
 74
     0
 42
0.000000001
 43
0.00000001
 40
0.0
 40
0.0
 40
0.0
 40
0.0
 40
1.0
 40
1.0
 40
1.0
 40
1.0
 10
230.423451863847
 20
49.86257266104668
 30
0.0
 10
231.0242100875432
 20
49.47530517788778
 30
0.0
 10
231.6249389504036
 20
49.08783782796447
 30
0.0
 10
232.2256395947504
 20
48.70017093537485
 30
0.0
  0
SPLINE
  5
2A4
330
1F
100
AcDbEntity
  8
0
  6
Continuous
 62
     7
370
    25
100
AcDbSpline
210
0.0
220
0.0
230
1.0
 70
     8
 71
     3
 72
    13
 73
     9
 74
     0
 42
0.000000001
 43
0.00000001
 40
0.0
 40
0.0
 40
0.0
 40
0.0
 40
0.1667030582307992
 40
0.3329480818053035
 40
0.4990671507274896
 40
0.6653938523718403
 40
0.832261271055009
 40
1.0
 40
1.0
 40
1.0
 40
1.0
 10
230.0816233288127
 20
50.16363744013245
 30
0.0
 10
230.1019245112526
 20
50.15007233345322
 30
0.0
 10
230.1424710964413
 20
50.12297939169039
 30
0.0
 10
230.2016207334289
 20
50.07778481868267
 30
0.0
 10
230.2593922783314
 20
50.02937367019972
 30
0.0
 10
230.315642015791
 20
49.97733855542926
 30
0.0
 10
230.3705692245372
 20
49.92204058822024
 30
0.0
 10
230.4057899341277
 20
49.88242333305988
 30
0.0
 10
230.4234461460686
 20
49.86256312405896
 30
0.0
  0
SPLINE
  5
2A5
330
1F
100
AcDbEntity
  8
0
  6
Continuous
 62
     7
370
    25
100
AcDbSpline
210
0.0
220
0.0
230
1.0
 70
     8
 71
     3
 72
     8
 73
     4
 74
     0
 42
0.000000001
 43
0.00000001
 40
0.0
 40
0.0
 40
0.0
 40
0.0
 40
1.0
 40
1.0
 40
1.0
 40
1.0
 10
228.137642813022
 20
51.41835929251193
 30
0.0
 10
228.7856728854222
 20
51.00036397662718
 30
0.0
 10
229.4336658625241
 20
50.58212321420955
 30
0.0
 10
230.0816233288127
 20
50.16363744013245
 30
0.0
  0
LWPOLYLINE
  5
2A6
330
1F
100
AcDbEntity
  8
0
  6
Continuous
 62
     7
370
    25
100
AcDbPolyline
 90
       20
 70
   128
 43
0.0
 10
228.1376434633
 20
51.418359343
 10
228.5019667488
 20
52.4839180802
 10
228.9392771805
 20
53.5447128932
 10
229.4450959975
 20
54.5898798492
 10
230.0142437471
 20
55.6087155387
 10
230.640890664
 20
56.5907860072
 10
231.3186205491
 20
57.5260351154
 10
232.0404920141
 20
58.4048837734
 10
232.799113226
 20
59.2183331668
 10
233.5867151708
 20
59.958051918
 10
234.3952320775
 20
60.6164650999
 10
235.2163839838
 20
61.1868300373
 10
236.0417617703
 20
61.6633059284
 10
236.8629129357
 20
62.0410132483
 10
237.6714281961
 20
62.316083741
 10
238.4590276713
 20
62.4857002881
 10
239.2176455905
 20
62.5481267967
 10
239.9395137627
 20
62.5027229257
 10
240.6172387088
 20
62.3499543916
 10
241.1873811898
 20
62.1201063082
  0
SPLINE
  5
2A7
330
1F
100
AcDbEntity
  8
0
  6
Continuous
 62
     7
370
    25
100
AcDbSpline
210
0.0
220
0.0
230
1.0
 70
    11
 71
     3
 72
    39
 73
    35
 74
     0
 42
0.000000001
 43
0.00000001
 40
0.0
 40
0.0
 40
0.0
 40
0.0
 40
0.0310664058348413
 40
0.0621048158426138
 40
0.0931361551796939
 40
0.1235538293503726
 40
0.1538561545809849
 40
0.1850588072749156
 40
0.2160250992946587
 40
0.2471867223797568
 40
0.2784462884304475
 40
0.3100516090231247
 40
0.3419834369138969
 40
0.3734259894013238
 40
0.4048604886787081
 40
0.436874065183343
 40
0.4685120685926471
 40
0.499805535863323
 40
0.5309508213226204
 40
0.5618649784438111
 40
0.5930416446590877
 40
0.623374245013332
 40
0.6540913579072549
 40
0.6849496782718453
 40
0.7158160645166705
 40
0.7471731804043553
 40
0.7784514311866318
 40
0.810129591156098
 40
0.8419598919688388
 40
0.8735175891922303
 40
0.9050808037886594
 40
0.9370235169792582
 40
0.9687441590030581
 40
1.0
 40
1.0
 40
1.0
 40
1.0
 10
241.3462282942273
 20
60.42354966785334
 30
0.0
 10
241.6091139144255
 20
60.39501518056324
 30
0.0
 10
242.136002524909
 20
60.30907269224164
 30
0.0
 10
242.900014593985
 20
60.10869757216919
 30
0.0
 10
243.6071647820359
 20
59.86169546594967
 30
0.0
 10
244.2200758466313
 20
59.58371358779657
 30
0.0
 10
244.7172071723018
 20
59.28957989046784
 30
0.0
 10
245.0763988933752
 20
58.98807336227561
 30
0.0
 10
245.2981181621341
 20
58.6810758573732
 30
0.0
 10
245.3633700395162
 20
58.37057059597151
 30
0.0
 10
245.2765228284022
 20
58.05142611122269
 30
0.0
 10
245.0341772406439
 20
57.72210614565049
 30
0.0
 10
244.6542393779175
 20
57.38316542409283
 30
0.0
 10
244.1404334247578
 20
57.0453269596822
 30
0.0
 10
243.5145426138477
 20
56.71942905837135
 30
0.0
 10
242.8010716273558
 20
56.42278216513187
 30
0.0
 10
242.0371691510915
 20
56.16667885669492
 30
0.0
 10
241.2513760681899
 20
55.97765128870413
 30
0.0
 10
240.4698386131499
 20
55.86947536665087
 30
0.0
 10
239.7137256283975
 20
55.86181148328117
 30
0.0
 10
239.011361042004
 20
55.95973351866731
 30
0.0
 10
238.3923406949613
 20
56.18138195216982
 30
0.0
 10
237.8832834299475
 20
56.51725003908155
 30
0.0
 10
237.5103398365137
 20
56.95706060526231
 30
0.0
 10
237.2817378852652
 20
57.46813524578496
 30
0.0
 10
237.212891578546
 20
58.01932033354839
 30
0.0
 10
237.2975079917711
 20
58.57699226186015
 30
0.0
 10
237.5406167817059
 20
59.10707240277914
 30
0.0
 10
237.9227466245237
 20
59.57959675189187
 30
0.0
 10
238.438882198934
 20
59.9657182627851
 30
0.0
 10
239.0658600594359
 20
60.24934245011823
 30
0.0
 10
239.7817674917997
 20
60.41907966884465
 30
0.0
 10
240.5502108839854
 20
60.48061850355596
 30
0.0
 10
241.0817396633578
 20
60.45225815130039
 30
0.0
 10
241.3462282942273
 20
60.42354966785334
 30
0.0
  0
LINE
  5
2A8
330
1F
100
AcDbEntity
  8
0
  6
Continuous
 62
     7
370
    25
100
AcDbLine
 10
232.1216908812
 20
43.9844230505
 30
0.0
 11
232.4357359398
 21
43.8162788233
 31
0.0
  0
LINE
  5
2A9
330
1F
100
AcDbEntity
  8
0
  6
Continuous
 62
     7
370
    25
100
AcDbLine
 10
231.1347328613
 20
44.5541817877
 30
0.0
 11
232.1216908812
 21
43.9844230505
 31
0.0
  0
ARC
  5
2AA
330
1F
100
AcDbEntity
  8
0
  6
Continuous
 62
     7
370
    25
100
AcDbCircle
 10
233.3667178588
 20
48.062095235
 30
0.0
 40
4.399246259573227
100
AcDbArc
 50
267.4956853267
 51
287.1750110524
  0
SPLINE
  5
2AB
330
1F
100
AcDbEntity
  8
0
  6
Continuous
 62
     7
370
    25
100
AcDbSpline
210
0.0
220
0.0
230
1.0
 70
     8
 71
     3
 72
    14
 73
    10
 74
     0
 42
0.000000001
 43
0.00000001
 40
0.0
 40
0.0
 40
0.0
 40
0.0
 40
0.1520927654964334
 40
0.2674857265629534
 40
0.3827932169674477
 40
0.4986859355030901
 40
0.6145509981003119
 40
0.825743267810779
 40
1.0
 40
1.0
 40
1.0
 40
1.0
 10
242.6847342525267
 20
57.42105395251762
 30
0.0
 10
242.4799393112343
 20
57.53343485274804
 30
0.0
 10
242.1197662057667
 20
57.73107927489931
 30
0.0
 10
241.5201430375648
 20
57.99520214170143
 30
0.0
 10
240.9409704031822
 20
58.20831853623432
 30
0.0
 10
240.3300785876883
 20
58.37910668732022
 30
0.0
 10
239.5409428979121
 20
58.51848544253941
 30
0.0
 10
238.6416695729891
 20
58.54561935721635
 30
0.0
 10
238.0770742233212
 20
58.33762480089867
 30
0.0
 10
237.8218276403558
 20
58.24359303140793
 30
0.0
  0
SPLINE
  5
2AC
330
1F
100
AcDbEntity
  8
0
  6
Continuous
 62
     7
370
    25
100
AcDbSpline
210
0.0
220
0.0
230
1.0
 70
     8
 71
     3
 72
    10
 73
     6
 74
     0
 42
0.000000001
 43
0.00000001
 40
0.0
 40
0.0
 40
0.0
 40
0.0
 40
0.3798174073072795
 40
0.9603711649033085
 40
1.0
 40
1.0
 40
1.0
 40
1.0
 10
243.8246143743862
 20
56.89282702499914
 30
0.0
 10
243.6949617571378
 20
56.9631555868365
 30
0.0
 10
243.3671341413833
 20
57.14098188325762
 30
0.0
 10
242.9592055963732
 20
57.31403473366003
 30
0.0
 10
242.7025728149413
 20
57.41324016590834
 30
0.0
 10
242.6861743247295
 20
57.41957925984871
 30
0.0
  0
SPLINE
  5
2AD
330
1F
100
AcDbEntity
  8
0
  6
Continuous
 62
     7
370
    25
100
AcDbSpline
210
0.0
220
0.0
230
1.0
 70
     8
 71
     3
 72
    24
 73
    20
 74
     0
 42
0.000000001
 43
0.00000001
 40
0.0
 40
0.0
 40
0.0
 40
0.0
 40
0.0618858212107145
 40
0.1150115607194259
 40
0.1593831488268445
 40
0.2428114970815824
 40
0.318331853291959
 40
0.3935543804326023
 40
0.4204843226990471
 40
0.4483397435477174
 40
0.4771286702554668
 40
0.5451537905345539
 40
0.6363475754294583
 40
0.6968782859867285
 40
0.7498596693403015
 40
0.7959701295389731
 40
0.8771179302751783
 40
0.9543004207779655
 40
1.0
 40
1.0
 40
1.0
 40
1.0
 10
241.2913497272251
 20
59.84969176789657
 30
0.0
 10
241.1073929378888
 20
59.86858633286253
 30
0.0
 10
240.7655188699266
 20
59.90370089324703
 30
0.0
 10
240.3013008969498
 20
59.89721034485977
 30
0.0
 10
239.7918392846769
 20
59.84948615206246
 30
0.0
 10
239.2527441853023
 20
59.72486955389554
 30
0.0
 10
238.7099062005787
 20
59.48237926995255
 30
0.0
 10
238.3695131850836
 20
59.22500651932665
 30
0.0
 10
238.1628864765326
 20
59.01019941882782
 30
0.0
 10
238.0449024203215
 20
58.86369606752884
 30
0.0
 10
237.8927320161305
 20
58.63394524330839
 30
0.0
 10
237.7260513775508
 20
58.26100254788137
 30
0.0
 10
237.6576897967136
 20
57.79844349518849
 30
0.0
 10
237.7080452603331
 20
57.37011079698666
 30
0.0
 10
237.8134744038483
 20
57.05018390334228
 30
0.0
 10
237.9956737305343
 20
56.70971838814908
 30
0.0
 10
238.2965521556048
 20
56.373770131294
 30
0.0
 10
238.6862370502032
 20
56.10071083057898
 30
0.0
 10
238.9791560063976
 20
56.00675575965168
 30
0.0
 10
239.0880919404539
 20
55.97181406948672
 30
0.0
  0
SPLINE
  5
2AE
330
1F
100
AcDbEntity
  8
0
  6
Continuous
 62
     7
370
    25
100
AcDbSpline
210
0.0
220
0.0
230
1.0
 70
     8
 71
     3
 72
    22
 73
    18
 74
     0
 42
0.000000001
 43
0.00000001
 40
0.0
 40
0.0
 40
0.0
 40
0.0
 40
0.0348562931077237
 40
0.0924900623539491
 40
0.1569277788850789
 40
0.2282085360920659
 40
0.2894089077515647
 40
0.3420696922203051
 40
0.3861903498429299
 40
0.4217735408338573
 40
0.5236918810098915
 40
0.6145479843395962
 40
0.7067593487247504
 40
0.7559111409869668
 40
0.8071360726317764
 40
0.8951475619903156
 40
1.0
 40
1.0
 40
1.0
 40
1.0
 10
244.5550936746094
 20
57.33254768012686
 30
0.0
 10
244.592729564485
 20
57.36772090253844
 30
0.0
 10
244.6925951982339
 20
57.46105192669477
 30
0.0
 10
244.8114192469689
 20
57.61639716629509
 30
0.0
 10
244.9078303154872
 20
57.80512637109742
 30
0.0
 10
244.9391064706292
 20
57.99110525670991
 30
0.0
 10
244.9097011464556
 20
58.16291681804535
 30
0.0
 10
244.8412061232475
 20
58.30972340855612
 30
0.0
 10
244.7533934762331
 20
58.43093433056997
 30
0.0
 10
244.5991023242788
 20
58.59651747775342
 30
0.0
 10
244.3312760063228
 20
58.80668172010896
 30
0.0
 10
243.8797058668563
 20
59.06212553057101
 30
0.0
 10
243.4321432301331
 20
59.268762227242
 30
0.0
 10
243.0232494612492
 20
59.42726644388571
 30
0.0
 10
242.6011698614417
 20
59.5697831918205
 30
0.0
 10
242.0228572440626
 20
59.73303976067596
 30
0.0
 10
241.548978650195
 20
59.80860821059775
 30
0.0
 10
241.2913497272251
 20
59.84969176789657
 30
0.0
  0
LINE
  5
2AF
330
1F
100
AcDbEntity
  8
0
  6
Continuous
 62
     7
370
    25
100
AcDbLine
 10
234.7817800053
 20
44.6025205798
 30
0.0
 11
234.7765419423
 21
44.8986040027
 31
0.0
  0
LINE
  5
2B0
330
1F
100
AcDbEntity
  8
0
  6
Continuous
 62
     7
370
    25
100
AcDbLine
 10
234.7765419423
 20
44.8986040027
 30
0.0
 11
234.8196397291
 21
45.5502291984
 31
0.0
  0
LINE
  5
2B1
330
1F
100
AcDbEntity
  8
0
  6
Continuous
 62
     7
370
    25
100
AcDbLine
 10
234.2969931243
 20
47.3792922202
 30
0.0
 11
233.9855786218
 21
47.7078887897
 31
0.0
  0
SPLINE
  5
2B2
330
1F
100
AcDbEntity
  8
0
  6
Continuous
 62
     7
370
    25
100
AcDbSpline
210
0.0
220
0.0
230
1.0
 70
     8
 71
     3
 72
    19
 73
    15
 74
     0
 42
0.000000001
 43
0.00000001
 40
0.0
 40
0.0
 40
0.0
 40
0.0
 40
0.0210492621018804
 40
0.1455865440207667
 40
0.2712169722633744
 40
0.3929514297049947
 40
0.5136082229787104
 40
0.6366369099308349
 40
0.699422462668311
 40
0.7643939711952468
 40
0.8122544601557282
 40
0.8606584764820763
 40
0.9188817427801165
 40
1.0
 40
1.0
 40
1.0
 40
1.0
 10
237.7021051748827
 20
57.59494182043877
 30
0.0
 10
237.6946365998969
 20
57.64970216734418
 30
0.0
 10
237.6429804413251
 20
58.02845034467932
 30
0.0
 10
237.8857513359848
 20
58.6386012534935
 30
0.0
 10
238.4700818033997
 20
59.32797495673306
 30
0.0
 10
239.37620817104
 20
59.74527450696512
 30
0.0
 10
240.450554299502
 20
59.86570046465376
 30
0.0
 10
241.4044881685977
 20
59.70500092106616
 30
0.0
 10
242.139150711167
 20
59.40763482222437
 30
0.0
 10
242.6119539506393
 20
59.10997674481967
 30
0.0
 10
242.9689241207588
 20
58.73906494004231
 30
0.0
 10
243.163772262267
 20
58.30674364473473
 30
0.0
 10
243.1928012925112
 20
57.80380231350958
 30
0.0
 10
243.1304276908908
 20
57.47005730093439
 30
0.0
 10
243.0941166349168
 20
57.27576623038753
 30
0.0
  0
SPLINE
  5
2B3
330
1F
100
AcDbEntity
  8
0
  6
Continuous
 62
     7
370
    25
100
AcDbSpline
210
0.0
220
0.0
230
1.0
 70
     8
 71
     3
 72
    10
 73
     6
 74
     0
 42
0.000000001
 43
0.00000001
 40
0.0
 40
0.0
 40
0.0
 40
0.0
 40
0.2950355258923527
 40
0.9801030833761959
 40
1.0
 40
1.0
 40
1.0
 40
1.0
 10
243.0968444909049
 20
57.27452767696514
 30
0.0
 10
243.1796690611654
 20
57.23576249527637
 30
0.0
 10
243.4548108985631
 20
57.10698520994476
 30
0.0
 10
243.7298778331032
 20
56.96571593005491
 30
0.0
 10
243.8784564436823
 20
56.87165319411605
 30
0.0
 10
243.8826499262412
 20
56.86899836754943
 30
0.0
  0
ARC
  5
2B4
330
1F
100
AcDbEntity
  8
0
  6
Continuous
 62
     7
370
    25
100
AcDbCircle
 10
247.1069530562
 20
43.0613086846
 30
0.0
 40
12.46654291792146
100
AcDbArc
 50
171.5249863735
 51
179.8211981812
  0
SPLINE
  5
2B5
330
1F
100
AcDbEntity
  8
0
  6
Continuous
 62
     7
370
    25
100
AcDbSpline
210
0.0
220
0.0
230
1.0
 70
     8
 71
     3
 72
    14
 73
    10
 74
     0
 42
0.000000001
 43
0.00000001
 40
0.0
 40
0.0
 40
0.0
 40
0.0
 40
0.0003951393068452
 40
0.0003951393068452
 40
0.0003951393068452
 40
0.0008163352168663
 40
0.0008163352168663
 40
0.0008163352168663
 40
0.0012378579337219
 40
0.0012378579337219
 40
0.0012378579337219
 40
0.0012378579337219
 10
242.6887668280664
 20
57.41977499913328
 30
0.0
 10
242.7342286422976
 20
57.40533813650825
 30
0.0
 10
242.7791162469187
 20
57.39047227594264
 30
0.0
 10
242.8233999395938
 20
57.37518848833717
 30
0.0
 10
242.8706032318331
 20
57.35889704899948
 30
0.0
 10
242.9171290448923
 20
57.34212757091557
 30
0.0
 10
242.962939954134
 20
57.32489876012028
 30
0.0
 10
243.008786342123
 20
57.30765660628865
 30
0.0
 10
243.0539255776955
 20
57.28995090008414
 30
0.0
 10
243.0983191357378
 20
57.27180804339335
 30
0.0
  0
LINE
  5
2B6
330
1F
100
AcDbEntity
  8
0
  6
Continuous
 62
     7
370
    25
100
AcDbLine
 10
233.9855786218
 20
47.7078887897
 30
0.0
 11
233.3456419474
 21
48.1201204298
 31
0.0
  0
LINE
  5
2B7
330
1F
100
AcDbEntity
  8
0
  6
Continuous
 62
     7
370
    25
100
AcDbLine
 10
233.0397078522
 20
48.4915988166
 30
0.0
 11
233.3456419474
 21
48.1201204298
 31
0.0
  0
SPLINE
  5
2B8
330
1F
100
AcDbEntity
  8
0
  6
Continuous
 62
     7
370
    25
100
AcDbSpline
210
0.0
220
0.0
230
1.0
 70
     8
 71
     3
 72
    13
 73
     9
 74
     0
 42
0.000000001
 43
0.00000001
 40
0.0
 40
0.0
 40
0.0
 40
0.0
 40
0.161854229885178
 40
0.3254858841554281
 40
0.4910085196607404
 40
0.6585318472791263
 40
0.8281616954204583
 40
0.9999999999999999
 40
0.9999999999999999
 40
0.9999999999999999
 40
0.9999999999999999
 10
233.3456423590448
 20
48.12012043370338
 30
0.0
 10
233.3260649670273
 20
48.13268341073654
 30
0.0
 10
233.2866951911816
 20
48.15794732685515
 30
0.0
 10
233.2251592514113
 20
48.19064102377001
 30
0.0
 10
233.1616025921619
 20
48.2195870974769
 30
0.0
 10
233.0959844895051
 20
48.2440994649425
 30
0.0
 10
233.0285572204503
 20
48.264534528296
 30
0.0
 10
232.9826726202518
 20
48.27413118328578
 30
0.0
 10
232.9595819400768
 20
48.27896054412057
 30
0.0
  0
SPLINE
  5
2B9
330
1F
100
AcDbEntity
  8
0
  6
Continuous
 62
     7
370
    25
100
AcDbSpline
210
0.0
220
0.0
230
1.0
 70
     8
 71
     3
 72
     9
 73
     5
 74
     0
 42
0.000000001
 43
0.00000001
 40
0.0
 40
0.0
 40
0.0
 40
0.0
 40
0.4907282259506175
 40
1.0
 40
1.0
 40
1.0
 40
1.0
 10
232.9595761127849
 20
48.27893254708955
 30
0.0
 10
232.9354825903071
 20
48.28702807930768
 30
0.0
 10
232.8863851037478
 20
48.30352505622896
 30
0.0
 10
232.8356844099277
 20
48.3183187252452
 30
0.0
 10
232.8098639776403
 20
48.32585272330979
 30
0.0
  0
SPLINE
  5
2BA
330
1F
100
AcDbEntity
  8
0
  6
Continuous
 62
     7
370
    25
100
AcDbSpline
210
0.0
220
0.0
230
1.0
 70
     8
 71
     3
 72
    14
 73
    10
 74
     0
 42
0.000000001
 43
0.00000001
 40
0.0
 40
0.0
 40
0.0
 40
0.0
 40
0.0310276388071746
 40
0.0622853718672815
 40
0.1248003166904892
 40
0.2498289731753984
 40
0.499889260361071
 40
0.7606803621682141
 40
1.0
 40
1.0
 40
1.0
 40
1.0
 10
232.225923288352
 20
48.69996046595566
 30
0.0
 10
232.2319155277565
 20
48.69612942230201
 30
0.0
 10
232.2439444437158
 20
48.68843892480432
 30
0.0
 10
232.2680042517649
 20
48.67300103529763
 30
0.0
 10
232.3102379244112
 20
48.64593058236679
 30
0.0
 10
232.3948004989234
 20
48.59171855757142
 30
0.0
 10
232.5180874683936
 20
48.51271537570539
 30
0.0
 10
232.6642191748476
 20
48.41910920102795
 30
0.0
 10
232.7625857913883
 20
48.35612612463548
 30
0.0
 10
232.8096574920725
 20
48.32598662584636
 30
0.0
  0
LINE
  5
2BB
330
1F
100
AcDbEntity
  8
0
  6
Continuous
 62
     7
370
    25
100
AcDbLine
 10
230.4234231331
 20
49.862591143
 30
0.0
 11
230.7143904873
 21
49.6745126038
 31
0.0
  0
SPLINE
  5
2BC
330
1F
100
AcDbEntity
  8
0
  6
Continuous
 62
     7
370
    25
100
AcDbSpline
210
0.0
220
0.0
230
1.0
 70
     8
 71
     3
 72
     8
 73
     4
 74
     0
 42
0.000000001
 43
0.00000001
 40
0.0
 40
0.0
 40
0.0
 40
0.0
 40
1.0
 40
1.0
 40
1.0
 40
1.0
 10
230.7457787906473
 20
49.65429007364448
 30
0.0
 10
230.7353362847954
 20
49.66111549854189
 30
0.0
 10
230.7248703519057
 20
49.66785846532841
 30
0.0
 10
230.7143825870891
 20
49.6745175529814
 30
0.0
  0
SPLINE
  5
2BD
330
1F
100
AcDbEntity
  8
0
  6
Continuous
 62
     7
370
    25
100
AcDbSpline
210
0.0
220
0.0
230
1.0
 70
     8
 71
     3
 72
     8
 73
     4
 74
     0
 42
0.000000001
 43
0.00000001
 40
0.0
 40
0.0
 40
0.0
 40
0.0
 40
1.0
 40
1.0
 40
1.0
 40
1.0
 10
227.9597744118235
 20
51.53254572545356
 30
0.0
 10
228.0187741759934
 20
51.4938050585346
 30
0.0
 10
228.078061739504
 20
51.45574308123531
 30
0.0
 10
228.1376428129924
 20
51.41835929277502
 30
0.0
  0
SPLINE
  5
2BE
330
1F
100
AcDbEntity
  8
0
  6
Continuous
 62
     7
370
    25
100
AcDbSpline
210
0.0
220
0.0
230
1.0
 70
     8
 71
     3
 72
     8
 73
     4
 74
     0
 42
0.000000001
 43
0.00000001
 40
0.0
 40
0.0
 40
0.0
 40
0.0
 40
1.0
 40
1.0
 40
1.0
 40
1.0
 10
227.9349246657239
 20
51.89575590339188
 30
0.0
 10
227.9423988778144
 20
51.77479806268004
 30
0.0
 10
227.9506949817046
 20
51.65372622026938
 30
0.0
 10
227.9597744118235
 20
51.53254572545356
 30
0.0
  0
LWPOLYLINE
  5
2BF
330
1F
100
AcDbEntity
  8
0
  6
Continuous
 62
     7
370
    25
100
AcDbPolyline
 90
       16
 70
   128
 43
0.0
 10
227.9349250245
 20
51.895755238
 10
228.3088354009
 20
52.9543354484
 10
228.7568340101
 20
54.0060470502
 10
229.2740318176
 20
55.0394135962
 10
229.8547854263
 20
56.0431596623
 10
230.4927583209
 20
57.0063332763
 10
231.1809890275
 20
57.918423593
 10
231.911968163
 20
58.7694802801
 10
232.6777194363
 20
59.5502157921
 10
233.4698872348
 20
60.2521106868
 10
234.2798279971
 20
60.8675074387
 10
235.0987038913
 20
61.3896903738
 10
235.9175797854
 20
61.8129614216
 10
236.7275205477
 20
62.1327023688
 10
237.5196883462
 20
62.345424946
 10
237.8988874935
 20
62.4098629294
  0
SPLINE
  5
2C0
330
1F
100
AcDbEntity
  8
0
  6
Continuous
 62
     7
370
    25
100
AcDbSpline
210
0.0
220
0.0
230
1.0
 70
     8
 71
     3
 72
    10
 73
     6
 74
     0
 42
0.000000001
 43
0.00000001
 40
0.0
 40
0.0
 40
0.0
 40
0.0
 40
0.2409818396634726
 40
0.5031433556203718
 40
1.0
 40
1.0
 40
1.0
 40
1.0
 10
233.9855786217626
 20
41.00204716643806
 30
0.0
 10
234.0678244927656
 20
40.9503706445175
 30
0.0
 10
234.23954475011
 20
40.84247579782612
 30
0.0
 10
234.517266109137
 20
40.71275308736188
 30
0.0
 10
234.638243356181
 20
40.73553102846687
 30
0.0
 10
234.7174355970965
 20
40.7504415694456
 30
0.0
  0
LINE
  5
2C1
330
1F
100
AcDbEntity
  8
0
  6
Continuous
 62
     7
370
    25
100
AcDbLine
 10
229.2024045656
 20
50.7311198994
 30
0.0
 11
228.4405258632
 21
51.2217543071
 31
0.0
  0
LINE
  5
2C2
330
1F
100
AcDbEntity
  8
0
  6
Continuous
 62
     7
370
    25
100
AcDbLine
 10
228.4405258632
 20
51.2217543071
 30
0.0
 11
227.959774543
 21
51.5325456831
 31
0.0
  0
LINE
  5
2C3
330
1F
100
AcDbEntity
  8
0
  6
Continuous
 62
     7
370
    25
100
AcDbLine
 10
233.0397078522
 20
40.7262673655
 30
0.0
 11
233.3456419474
 21
41.4142788066
 31
0.0
  0
LINE
  5
2C4
330
1F
100
AcDbEntity
  8
0
  6
Continuous
 62
     7
370
    25
100
AcDbLine
 10
233.3456419474
 20
41.4142788066
 30
0.0
 11
233.9855786218
 21
41.0020471664
 31
0.0
  0
SPLINE
  5
2C5
330
1F
100
AcDbEntity
  8
0
  6
Continuous
 62
     7
370
    25
100
AcDbSpline
210
0.0
220
0.0
230
1.0
 70
     8
 71
     3
 72
    13
 73
     9
 74
     0
 42
0.000000001
 43
0.00000001
 40
0.0
 40
0.0
 40
0.0
 40
0.0
 40
0.172258782378417
 40
0.342139827159501
 40
0.5097456258302661
 40
0.6751828993623331
 40
0.8385626190354498
 40
1.0
 40
1.0
 40
1.0
 40
1.0
 10
232.9595704282715
 20
41.69558851195668
 30
0.0
 10
232.9827219522267
 20
41.67746892101922
 30
0.0
 10
233.0287054329823
 20
41.6414798490779
 30
0.0
 10
233.0962464457016
 20
41.59047986565624
 30
0.0
 10
233.1619060603899
 20
41.54215518546447
 30
0.0
 10
233.2254301316376
 20
41.49672417955865
 30
0.0
 10
233.2868605103514
 20
41.45389861180576
 30
0.0
 10
233.3261266773177
 20
41.42743279463552
 30
0.0
 10
233.3456423590448
 20
41.41427901609166
 30
0.0
  0
SPLINE
  5
2C6
330
1F
100
AcDbEntity
  8
0
  6
Continuous
 62
     7
370
    25
100
AcDbSpline
210
0.0
220
0.0
230
1.0
 70
     8
 71
     3
 72
    11
 73
     7
 74
     0
 42
0.000000001
 43
0.00000001
 40
0.0
 40
0.0
 40
0.0
 40
0.0
 40
0.2392845094479873
 40
0.5001120454076898
 40
0.7515010915036774
 40
1.0
 40
1.0
 40
1.0
 40
1.0
 10
232.8101900167954
 20
41.74290250416955
 30
0.0
 10
232.7631207847909
 20
41.71458798145676
 30
0.0
 10
232.6647446301963
 20
41.65540975090057
 30
0.0
 10
232.5184474086124
 20
41.56222185044065
 30
0.0
 10
232.3706066649686
 20
41.4668499344682
 30
0.0
 10
232.2743202022496
 20
41.40231467920538
 30
0.0
 10
232.2264553143906
 20
41.37023360914755
 30
0.0
  0
SPLINE
  5
2C7
330
1F
100
AcDbEntity
  8
0
  6
Continuous
 62
     7
370
    25
100
AcDbSpline
210
0.0
220
0.0
230
1.0
 70
     8
 71
     3
 72
     9
 73
     5
 74
     0
 42
0.000000001
 43
0.00000001
 40
0.0
 40
0.0
 40
0.0
 40
0.0
 40
0.5090669353869915
 40
1.0
 40
1.0
 40
1.0
 40
1.0
 10
232.8107610203796
 20
41.74220354995778
 30
0.0
 10
232.8364095950036
 20
41.7347108417979
 30
0.0
 10
232.886793096349
 20
41.71999232908563
 30
0.0
 10
232.9356006078443
 20
41.70359997123347
 30
0.0
 10
232.9595618290389
 20
41.69555242075687
 30
0.0
  0
LINE
  5
2C8
330
1F
100
AcDbEntity
  8
0
  6
Continuous
 62
     7
370
    25
100
AcDbLine
 10
234.6406796005
 20
42.6660821172
 30
0.0
 11
232.9595636441
 21
41.695594533
 31
0.0
  0
LINE
  5
2C9
330
1F
100
AcDbEntity
  8
0
  6
Continuous
 62
     7
370
    25
100
AcDbLine
 10
230.9530759929
 20
42.8194158317
 30
0.0
 11
230.7527803394
 21
42.3182584174
 31
0.0
  0
SPLINE
  5
2CA
330
1F
100
AcDbEntity
  8
0
  6
Continuous
 62
     7
370
    25
100
AcDbSpline
210
0.0
220
0.0
230
1.0
 70
     8
 71
     3
 72
     8
 73
     4
 74
     0
 42
0.000000001
 43
0.00000001
 40
0.0
 40
0.0
 40
0.0
 40
0.0
 40
1.0
 40
1.0
 40
1.0
 40
1.0
 10
230.9526328222394
 20
42.82019958381913
 30
0.0
 10
230.9788081568086
 20
42.84236696079739
 30
0.0
 10
231.0046291967741
 20
42.86499910188901
 30
0.0
 10
231.0300867504825
 20
42.88808382198029
 30
0.0
  0
LINE
  5
2CB
330
1F
100
AcDbEntity
  8
0
  6
Continuous
 62
     7
370
    25
100
AcDbLine
 10
231.0300868462
 20
42.8880837064
 30
0.0
 11
232.8103796055
 21
41.7423128212
 31
0.0
  0
LINE
  5
2CC
330
1F
100
AcDbEntity
  8
0
  6
Continuous
 62
     7
370
    25
100
AcDbLine
 10
234.6404708419
 20
42.7641320524
 30
0.0
 11
234.5524715149
 21
42.8716231207
 31
0.0
  0
LINE
  5
2CD
330
1F
100
AcDbEntity
  8
0
  6
Continuous
 62
     7
370
    25
100
AcDbLine
 10
232.7240635183
 20
43.8659956237
 30
0.0
 11
231.0300868462
 21
42.8880837064
 31
0.0
  0
LINE
  5
2CE
330
1F
100
AcDbEntity
  8
0
  6
Continuous
 62
     7
370
    25
100
AcDbLine
 10
232.8667576008
 20
43.844703462
 30
0.0
 11
232.7244836697
 21
43.8655082462
 31
0.0
  0
LINE
  5
2CF
330
1F
100
AcDbEntity
  8
0
  6
Continuous
 62
     7
370
    25
100
AcDbLine
 10
234.5525452719
 20
42.8715189543
 30
0.0
 11
232.8667576008
 21
43.844703462
 31
0.0
  0
LINE
  5
2D0
330
1F
100
AcDbEntity
  8
0
  6
Continuous
 62
     7
370
    25
100
AcDbLine
 10
234.6404708419
 20
42.8207548714
 30
0.0
 11
234.5524985153
 21
42.8715459276
 31
0.0
  0
SPLINE
  5
2D1
330
1F
100
AcDbEntity
  8
0
  6
Continuous
 62
     7
370
    25
100
AcDbSpline
210
0.0
220
0.0
230
1.0
 70
     8
 71
     3
 72
    19
 73
    15
 74
     0
 42
0.000000001
 43
0.00000001
 40
0.0
 40
0.0
 40
0.0
 40
0.0
 40
0.0637853009127854
 40
0.1289628367668835
 40
0.1955871994312377
 40
0.2637095015417503
 40
0.3333775579368785
 40
0.404636070956767
 40
0.4775268158870349
 40
0.5520888236349092
 40
0.6283585584292241
 40
0.7063700889344752
 40
0.8377041805690577
 40
0.9999999999999999
 40
0.9999999999999999
 40
0.9999999999999999
 40
0.9999999999999999
 10
230.168563716278
 20
42.988687671171
 30
0.0
 10
230.1892530852832
 20
42.97532853116068
 30
0.0
 10
230.231083407938
 20
42.94831866261978
 30
0.0
 10
230.2915743815327
 20
42.91079669709325
 30
0.0
 10
230.351058579712
 20
42.87527695600259
 30
0.0
 10
230.4091397391836
 20
42.84229682708607
 30
0.0
 10
230.4656718562709
 20
42.81209039081574
 30
0.0
 10
230.5204169110247
 20
42.78497695085422
 30
0.0
 10
230.573139288617
 20
42.76124533310423
 30
0.0
 10
230.623580921548
 20
42.74120507965954
 30
0.0
 10
230.6714638400134
 20
42.72508521812123
 30
0.0
 10
230.7264279943834
 20
42.71080724843963
 30
0.0
 10
230.7892593083431
 20
42.70066869118491
 30
0.0
 10
230.8277668240011
 20
42.70714294249818
 30
0.0
 10
230.8490507891982
 20
42.71072140600783
 30
0.0
  0
LINE
  5
2D2
330
1F
100
AcDbEntity
  8
0
  6
Continuous
 62
     7
370
    25
100
AcDbLine
 10
230.8736864768
 20
42.7367918603
 30
0.0
 11
230.9413993402
 21
42.8084463806
 31
0.0
  0
SPLINE
  5
2D3
330
1F
100
AcDbEntity
  8
0
  6
Continuous
 62
     7
370
    25
100
AcDbSpline
210
0.0
220
0.0
230
1.0
 70
     8
 71
     3
 72
     9
 73
     5
 74
     0
 42
0.000000001
 43
0.00000001
 40
0.0
 40
0.0
 40
0.0
 40
0.0
 40
0.5232016984460688
 40
1.0
 40
1.0
 40
1.0
 40
1.0
 10
232.5578857385924
 20
43.77006340290388
 30
0.0
 10
232.4888615759438
 20
43.79510556802038
 30
0.0
 10
232.3569350878349
 20
43.84296887808011
 30
0.0
 10
232.1154976750162
 20
43.98056700876677
 30
0.0
 10
232.0003807266527
 20
44.04617356377516
 30
0.0
  0
LINE
  5
2D4
330
1F
100
AcDbEntity
  8
0
  6
Continuous
 62
     7
370
    25
100
AcDbLine
 10
228.2708795296
 20
43.8120631264
 30
0.0
 11
228.722350644
 21
43.9243270993
 31
0.0
  0
LINE
  5
2D5
330
1F
100
AcDbEntity
  8
0
  6
Continuous
 62
     7
370
    25
100
AcDbLine
 10
228.722350644
 20
43.9243270993
 30
0.0
 11
230.1685631158
 21
42.9886877663
 31
0.0
  0
SPLINE
  5
2D6
330
1F
100
AcDbEntity
  8
0
  6
Continuous
 62
     7
370
    25
100
AcDbSpline
210
0.0
220
0.0
230
1.0
 70
     8
 71
     3
 72
     8
 73
     4
 74
     0
 42
0.000000001
 43
0.00000001
 40
0.0
 40
0.0
 40
0.0
 40
0.0
 40
1.0
 40
1.0
 40
1.0
 40
1.0
 10
228.4416681002948
 20
43.41731347338767
 30
0.0
 10
228.3845428313708
 20
43.54909965718331
 30
0.0
 10
228.3276143396532
 20
43.68068387884411
 30
0.0
 10
228.2708802217037
 20
43.81206294574547
 30
0.0
  0
LINE
  5
2D7
330
1F
100
AcDbEntity
  8
0
  6
Continuous
 62
     7
370
    25
100
AcDbLine
 10
230.060052103
 20
44.696565714
 30
0.0
 11
228.722350644
 21
43.9243270993
 31
0.0
  0
LINE
  5
2D8
330
1F
100
AcDbEntity
  8
0
  6
Continuous
 62
     7
370
    25
100
AcDbLine
 10
231.0430805879
 20
44.5988123112
 30
0.0
 11
230.060052103
 21
44.696565714
 31
0.0
  0
LINE
  5
2D9
330
1F
100
AcDbEntity
  8
0
  6
Continuous
 62
     7
370
    25
100
AcDbLine
 10
232.0003807267
 20
44.0461735638
 30
0.0
 11
231.0430796001
 21
44.5988117409
 31
0.0
  0
SPLINE
  5
2DA
330
1F
100
AcDbEntity
  8
0
  6
Continuous
 62
     7
370
    25
100
AcDbSpline
210
0.0
220
0.0
230
1.0
 70
     8
 71
     3
 72
     8
 73
     4
 74
     0
 42
0.000000001
 43
0.00000001
 40
0.0
 40
0.0
 40
0.0
 40
0.0
 40
1.0
 40
1.0
 40
1.0
 40
1.0
 10
228.270880221706
 20
43.81206294574036
 30
0.0
 10
228.2677428839559
 20
43.84727925261287
 30
0.0
 10
228.2657504800579
 20
43.88292350884056
 30
0.0
 10
228.2649690826858
 20
43.91902041083544
 30
0.0
  0
LINE
  5
2DB
330
1F
100
AcDbEntity
  8
0
  6
Continuous
 62
     7
370
    25
100
AcDbLine
 10
229.0760555578
 20
44.3872501255
 30
0.0
 11
228.2649697512
 21
43.9190202559
 31
0.0
  0
SPLINE
  5
2DC
330
1F
100
AcDbEntity
  8
0
  6
Continuous
 62
     7
370
    25
100
AcDbSpline
210
0.0
220
0.0
230
1.0
 70
     8
 71
     3
 72
     8
 73
     4
 74
     0
 42
0.000000001
 43
0.00000001
 40
0.0000004089325119
 40
0.0000004089325119
 40
0.0000004089325119
 40
0.0000004089325119
 40
0.0015399868451459
 40
0.0015399868451459
 40
0.0015399868451459
 40
0.0015399868451459
 10
229.0760546151746
 20
44.38725012219156
 30
0.0
 10
229.3145311831978
 20
44.48162650800791
 30
0.0
 10
229.5529781408665
 20
44.57605511993813
 30
0.0
 10
229.7913868797168
 20
44.67054850290058
 30
0.0
  0
LINE
  5
2DD
330
1F
100
AcDbEntity
  8
0
  6
Continuous
 62
     7
370
    25
100
AcDbLine
 10
229.7913863587
 20
44.67054865
 30
0.0
 11
229.8157827985
 21
44.6755426764
 31
0.0
  0
LINE
  5
2DE
330
1F
100
AcDbEntity
  8
0
  6
Continuous
 62
     7
370
    25
100
AcDbLine
 10
230.060052103
 20
44.696565714
 30
0.0
 11
229.8157834571
 21
44.6755426764
 31
0.0
  0
SPLINE
  5
2DF
330
1F
100
AcDbEntity
  8
0
  6
Continuous
 62
     7
370
    25
100
AcDbSpline
210
0.0
220
0.0
230
1.0
 70
     8
 71
     3
 72
     8
 73
     4
 74
     0
 42
0.000000001
 43
0.00000001
 40
0.0
 40
0.0
 40
0.0
 40
0.0
 40
1.0
 40
1.0
 40
1.0
 40
1.0
 10
231.0430787942249
 20
44.59881249548755
 30
0.0
 10
231.0736868283481
 20
44.58387248768143
 30
0.0
 10
231.10423832932
 20
44.56899553028805
 30
0.0
 10
231.1347322674346
 20
44.55418196660713
 30
0.0
  0
LWPOLYLINE
  5
2E0
330
1F
100
AcDbEntity
  8
0
  6
Continuous
 62
     7
370
    25
100
AcDbPolyline
 90
        3
 70
   128
 43
0.0
 10
234.6828519265
 20
44.0872624248
 10
234.2083222466
 20
43.8893001191
 10
233.471467577
 20
43.6632577872
  0
LWPOLYLINE
  5
2E1
330
1F
100
AcDbEntity
  8
0
  6
Continuous
 62
     7
370
    18
100
AcDbPolyline
 90
       22
 70
   128
 43
0.0
 10
270.9708896222
 20
24.8216733225
 10
271.0121948508
 20
25.6492652414
 10
271.1355323346
 20
26.5129305755
 10
271.339169443
 20
27.400544667
 10
271.6202480928
 20
28.2996474094
 10
271.9748226146
 20
29.1976177703
 10
272.3979153998
 20
30.0818498334
 10
272.8835870353
 20
30.9399309302
 10
273.4250199393
 20
31.7598157779
 10
274.0146135202
 20
32.5299945334
 10
274.6440911907
 20
33.2396560921
 10
275.3046166005
 20
33.8788380786
 10
275.9869171961
 20
34.4385681385
 10
276.681415065
 20
34.910988143
 10
277.3783609908
 20
35.2894669387
 10
278.0679713481
 20
35.5686911627
 10
278.7405656562
 20
35.7447416083
 10
279.3867018686
 20
35.815145851
 10
279.997309934
 20
35.7789169482
 10
280.5638182372
 20
35.6365629329
 10
281.0782738654
 20
35.3900820973
 10
281.241894846
 20
35.2817979314
  0
LWPOLYLINE
  5
2E2
330
1F
100
AcDbEntity
  8
0
  6
Continuous
 62
     7
370
    18
100
AcDbPolyline
 90
        9
 70
   128
 43
0.0
 10
272.9329426413
 20
20.8887112682
 10
272.8835870353
 20
20.9117691418
 10
272.3979153998
 20
21.2091057039
 10
271.9748226146
 20
21.6048452352
 10
271.6202480928
 20
22.0934325673
 10
271.339169443
 20
22.6680088083
 10
271.1355323346
 20
23.320508499
 10
271.0121948508
 20
24.0417714054
 10
270.9708896222
 20
24.8216733225
  0
LWPOLYLINE
  5
2E3
330
1F
100
AcDbEntity
  8
0
  6
Continuous
 62
     7
370
    18
100
AcDbPolyline
 90
       51
 70
   128
 43
0.0
 10
272.3274435641
 20
24.8524425434
 10
272.368289458
 20
25.6257230537
 10
272.4901824244
 20
26.4339678415
 10
272.6912005013
 20
27.2644305407
 10
272.9681734554
 20
28.1040143291
 10
273.3167334902
 20
28.9394784367
 10
273.7313830762
 20
29.7576468389
 10
274.2055831957
 20
30.5456171852
 10
274.7318554172
 20
31.2909619323
 10
275.3019001044
 20
31.9819266237
 10
275.9067274662
 20
32.6076150499
 10
276.5367988145
 20
33.1581590085
 10
277.1821777007
 20
33.624876657
 10
277.8326859901
 20
34.000407099
 10
278.4780648762
 20
34.2788280519
 10
279.1081362246
 20
34.4557489875
 10
279.7129635863
 20
34.528379369
 10
280.2830082735
 20
34.4955742642
 10
280.8092804951
 20
34.3578504905
 10
281.2834806146
 20
34.1173799483
 10
281.6981302006
 20
33.7779557677
 10
282.0466902354
 20
33.3449305102
 10
282.3236631895
 20
32.8251328877
 10
282.5246812663
 20
32.2267607199
 10
282.6465742328
 20
31.5592505556
 10
282.6874201266
 20
30.8331297104
 10
282.6465742328
 20
30.0598492
 10
282.5246812663
 20
29.2516044122
 10
282.3236631895
 20
28.4211417131
 10
282.0466902354
 20
27.5815579247
 10
281.6981302006
 20
26.746093817
 10
281.2834806146
 20
25.9279254149
 10
280.8092804951
 20
25.1399550685
 10
280.2830082735
 20
24.3946103214
 10
279.7129635863
 20
23.70364563
 10
279.1081362246
 20
23.0779572039
 10
278.4780648762
 20
22.5274132452
 10
277.8326859901
 20
22.0606955968
 10
277.1821777007
 20
21.6851651547
 10
276.5367988145
 20
21.4067442019
 10
275.9067274662
 20
21.2298232663
 10
275.3019001044
 20
21.1571928847
 10
274.7318554172
 20
21.1899979896
 10
274.2055831957
 20
21.3277217633
 10
273.7313830762
 20
21.5681923055
 10
273.3167334902
 20
21.907616486
 10
272.9681734554
 20
22.3406417436
 10
272.6912005013
 20
22.8604393661
 10
272.4901824244
 20
23.4588115339
 10
272.368289458
 20
24.1263216982
 10
272.3274435641
 20
24.8524425434
  0
LWPOLYLINE
  5
2E4
330
1F
100
AcDbEntity
  8
0
  6
Continuous
 62
     7
370
    18
100
AcDbPolyline
 90
       44
 70
   128
 43
0.0
 10
273.6053712431
 20
25.5901744894
 10
273.6469540483
 20
26.2702521234
 10
273.7708160628
 20
26.9838455225
 10
273.9743178403
 20
27.7157458192
 10
274.2531218773
 20
28.4503539976
 10
274.6012854684
 20
29.1720125893
 10
275.011388957
 20
29.8653410732
 10
275.4746909881
 20
30.515562289
 10
275.9813175099
 20
31.1088182025
 10
276.5204704504
 20
31.6324641369
 10
277.0806587431
 20
32.0753394051
 10
277.6499429966
 20
32.4280055135
 10
278.2161898782
 20
32.6829454861
 10
278.7673307983
 20
32.8347261282
 10
279.2916190722
 20
32.8801118812
 10
279.777880599
 20
32.8181357719
 10
280.2157514522
 20
32.6501186987
 10
280.5958992329
 20
32.3796420817
 10
280.9102215387
 20
32.0124698493
 10
281.1520193257
 20
31.5564281735
 10
281.3161391538
 20
31.0212368238
 10
281.3990828346
 20
30.4183020738
 10
281.3990828346
 20
29.7604747715
 10
281.3161391538
 20
29.0617752861
 10
281.1520193257
 20
28.3370952163
 10
280.9102215387
 20
27.601879758
 10
280.5958992329
 20
26.871798716
 10
280.2157514522
 20
26.1624128139
 10
279.777880599
 20
25.4888408147
 10
279.2916190722
 20
24.8654390968
 10
278.7673307983
 20
24.3054944936
 10
278.2161898782
 20
23.820941374
 10
277.6499429966
 20
23.4221066131
 10
277.0806587431
 20
23.117491113
 10
276.5204704504
 20
22.9135867456
 10
275.9813175099
 20
22.814739945
 10
275.4746909881
 20
22.8230573271
 10
275.011388957
 20
22.938361404
 10
274.6012854684
 20
23.1581944785
 10
274.2531218773
 20
23.4778719445
 10
273.9743178403
 20
23.8905798335
 10
273.7708160628
 20
24.3875219791
 10
273.6469540483
 20
24.9581073403
 10
273.6053712431
 20
25.5901744894
  0
LWPOLYLINE
  5
2E5
330
1F
100
AcDbEntity
  8
0
  6
Continuous
 62
     7
370
    18
100
AcDbPolyline
 90
       25
 70
   128
 43
0.0
 10
279.6856315197
 20
32.6346830032
 10
279.6857046182
 20
32.6346579011
 10
280.0941485746
 20
32.4328146826
 10
280.4415466076
 20
32.1303216585
 10
280.7201379348
 20
31.7339357946
 10
280.9236999692
 20
31.2525121244
 10
281.0476848022
 20
30.6968044002
 10
281.0893232544
 20
30.0792264879
 10
281.0476848022
 20
29.413573842
 10
280.9236999692
 20
28.7147162766
 10
280.7201379348
 20
27.9982648843
 10
280.4415466076
 20
27.2802243206
 10
280.0941485746
 20
26.5766340651
 10
279.6857046182
 20
25.9032114923
 10
279.2253383785
 20
25.274999318
 10
278.723333769
 20
24.7060311575
 10
278.1909048148
 20
24.2090169056
 10
277.639945015
 20
23.7950586918
 10
277.0827619902
 20
23.4734037782
 10
276.5318021904
 20
23.2512373474
 10
275.9993732362
 20
23.1335222137
 10
275.4973686267
 20
23.1228881893
 10
275.0370023871
 20
23.2195728172
 10
274.6285584306
 20
23.4214160357
 10
274.4226193799
 20
23.5818046258
  0
LWPOLYLINE
  5
2E6
330
1F
100
AcDbEntity
  8
0
  6
Continuous
 62
     7
370
    18
100
AcDbPolyline
 90
       30
 70
   128
 43
0.0
 10
247.2786175924
 20
35.7007141606
 10
247.3199043818
 20
36.6798377231
 10
247.4433544767
 20
37.6968991533
 10
247.6477410087
 20
38.7417902084
 10
247.9310323681
 20
39.8041262929
 10
248.2904139355
 20
40.8733501645
 10
248.7223131071
 20
41.9388341192
 10
249.2224381482
 20
42.9899902547
 10
249.785818365
 20
44.0163706575
 10
250.4068541535
 20
45.0077753839
 10
251.0793739637
 20
45.954350745
 10
251.796693569
 20
46.8466896813
 10
252.5516842251
 20
47.675923203
 10
253.3368426405
 20
48.4338109727
 10
254.1443652273
 20
49.1128206724
 10
254.9662266742
 20
49.7062030201
 10
255.7942587654
 20
50.2080616064
 10
256.6202322053
 20
50.6134084957
 10
257.4359382778
 20
50.9182144089
 10
258.2332698884
 20
51.1194517058
 10
259.0043028533
 20
51.2151184985
 10
259.7413741841
 20
51.2042648323
 10
260.4371590547
 20
51.0869998556
 10
261.0847417601
 20
50.8644863947
 10
261.677686674
 20
50.5389385708
 10
262.2101014694
 20
50.1135898547
 10
262.6766934242
 20
49.5926681563
 10
263.0728257265
 20
48.9813507618
 10
263.3945622557
 20
48.2857133785
 10
263.5842204398
 20
47.7158451862
  0
LWPOLYLINE
  5
2E7
330
1F
100
AcDbEntity
  8
0
  6
Continuous
 62
     7
370
    18
100
AcDbPolyline
 90
       14
 70
   128
 43
0.0
 10
253.3350532104
 20
29.9618430808
 10
252.5516842251
 20
29.8136582624
 10
251.796693569
 20
29.771198127
 10
251.0793739637
 20
29.8353374758
 10
250.4068541535
 20
30.0054379916
 10
249.785818365
 20
30.2798100592
 10
249.2224381482
 20
30.6557255092
 10
248.7223131071
 20
31.1294495632
 10
248.2904139355
 20
31.6962733487
 10
247.9310323681
 20
32.3505640947
 10
247.6477410087
 20
33.0858189377
 10
247.4433544767
 20
33.8947303259
 10
247.3199043818
 20
34.7692593104
 10
247.2786175924
 20
35.7007141606
  0
LWPOLYLINE
  5
2E8
330
1F
100
AcDbEntity
  8
0
  6
Continuous
 62
     7
370
    18
100
AcDbPolyline
 90
        9
 70
   128
 43
0.0
 10
249.3999376251
 20
35.7007137804
 10
249.4409985337
 20
34.8347898449
 10
249.5637143515
 20
34.0260840306
 10
249.7666962081
 20
33.2837604259
 10
250.047643149
 20
32.6162288256
 10
250.4033724286
 20
32.0310534724
 10
250.829853096
 20
31.5348638898
 10
251.3222534101
 20
31.1332826334
 10
251.5231987178
 20
31.0078047015
  0
LWPOLYLINE
  5
2E9
330
1F
100
AcDbEntity
  8
0
  6
Continuous
 62
     7
370
    18
100
AcDbPolyline
 90
       24
 70
   128
 43
0.0
 10
261.7410567656
 20
48.7796610409
 10
261.7041071504
 20
48.8001753328
 10
261.1235046776
 20
49.0516620385
 10
260.4921906558
 20
49.1992851083
 10
259.817317866
 20
49.2413714229
 10
259.1065328332
 20
49.1774439301
 10
258.3678893921
 20
49.0082265
 10
257.6097563262
 20
48.7356377558
 10
256.8407237314
 20
48.3627651551
 10
256.0695050569
 20
47.8938342953
 10
255.3048384475
 20
47.3341580433
 10
254.5553880441
 20
46.6900772765
 10
253.8296451606
 20
45.9688901446
 10
253.13583296
 20
45.1787681429
 10
252.4818126528
 20
44.3286631783
 10
251.8749941818
 20
43.4282073389
 10
251.3222534101
 20
42.4876034903
 10
250.829853096
 20
41.5175089323
 10
250.4033724286
 20
40.5289152523
 10
250.047643149
 20
39.5330236153
 10
249.7666962081
 20
38.5411175815
 10
249.5637143515
 20
37.5644361136
 10
249.4409985337
 20
36.6140456319
 10
249.3999376251
 20
35.7007137804
  0
LWPOLYLINE
  5
2EA
330
1F
100
AcDbEntity
  8
0
  6
Continuous
 62
     7
370
    18
100
AcDbPolyline
 90
       29
 70
   128
 43
0.0
 10
238.165778908
 20
37.7060162469
 10
238.2069735012
 20
38.8344718209
 10
238.3302510574
 20
40.0021341025
 10
238.5346994927
 20
41.2003588055
 10
238.8188054716
 20
42.4202747019
 10
239.1804649445
 20
43.6528495911
 10
239.6170002694
 20
44.8889577895
 10
240.1251799684
 20
46.1194481898
 10
240.7012417768
 20
47.3352107996
 10
241.3409203017
 20
48.5272432793
 10
242.039479291
 20
49.6867216618
 10
242.7917471949
 20
50.8050604262
 10
243.5921553608
 20
51.8739809354
 10
244.4347765589
 20
52.8855678974
 10
245.3133727264
 20
53.8323334291
 10
246.2214390899
 20
54.7072668634
 10
247.1522527332
 20
55.5038901623
 10
248.0989223172
 20
56.2163071532
 10
249.0544387676
 20
56.8392419151
 10
250.0117278963
 20
57.368082845
 10
250.9637023856
 20
57.7989149487
 10
251.9033138542
 20
58.128547617
 10
252.8236059319
 20
58.3545407019
 10
253.7177651525
 20
58.4752217293
 10
254.579171662
 20
58.4896969211
 10
255.4014474568
 20
58.3978585096
 10
256.1785049515
 20
58.20038692
 10
256.9045911013
 20
57.8987435412
 10
257.1619825637
 20
57.7595717907
  0
LWPOLYLINE
  5
2EB
330
1F
100
AcDbEntity
  8
0
  6
Continuous
 62
     7
370
    18
100
AcDbPolyline
 90
       11
 70
   128
 43
0.0
 10
241.4257612492
 20
30.5006833969
 10
241.3409203017
 20
30.5507294358
 10
240.7012417768
 20
31.0042048112
 10
240.1251799684
 20
31.5548606143
 10
239.6170002694
 20
32.1986192231
 10
239.1804649445
 20
32.9307144635
 10
238.8188054716
 20
33.7457262134
 10
238.5346994927
 20
34.6376203287
 10
238.3302510574
 20
35.5997938929
 10
238.2069735012
 20
36.6251229377
 10
238.165778908
 20
37.7060162469
  0
LWPOLYLINE
  5
2EC
330
1F
100
AcDbEntity
  8
0
  6
Continuous
 62
     7
370
    18
100
AcDbPolyline
 90
       14
 70
   128
 43
0.0
 10
242.7898603465
 20
34.3703796191
 10
242.7165735624
 20
34.7598037628
 10
242.6004866536
 20
35.7340420496
 10
242.5680625562
 20
36.7645036193
 10
242.6195772004
 20
37.8424031867
 10
242.7545906783
 20
38.958550991
 10
242.9719538299
 20
40.1034325732
 10
243.2698115352
 20
41.2672866153
 10
243.6456257637
 20
42.4401915963
 10
244.0961920379
 20
43.6121481099
 10
244.6176697262
 20
44.7731644146
 10
245.205612336
 20
45.9133431226
 10
245.8550083437
 20
47.0229648479
 10
246.5603213656
 20
48.0925680503
  0
LWPOLYLINE
  5
2ED
330
1F
100
AcDbEntity
  8
0
  6
Continuous
 62
     7
370
    18
100
AcDbPolyline
 90
       18
 70
   128
 43
0.0
 10
243.3016561134
 20
31.4404519182
 10
243.0517924733
 20
31.8082907316
 10
242.6535528286
 20
32.548771425
 10
242.3335001977
 20
33.3722382798
 10
242.0942937834
 20
34.2718459298
 10
241.93792239
 20
35.2401175073
 10
241.8656859843
 20
36.2690055058
 10
241.8781845006
 20
37.3499577269
 10
241.9753138886
 20
38.473989668
 10
242.1562674314
 20
39.6317589992
 10
242.4195403548
 20
40.813642489
 10
242.7629449739
 20
42.0098168732
 10
243.1836271569
 20
43.2103399377
 10
243.6780906909
 20
44.4052343571
 10
244.2422242826
 20
45.5845662102
 10
244.8713404121
 20
46.7385358517
 10
245.5602095776
 20
47.8575501525
 10
246.3031063931
 20
48.9323099493
  0
LINE
  5
2EE
330
1F
100
AcDbEntity
  8
0
  6
Continuous
 62
     7
370
    18
100
AcDbLine
 10
249.2950298386
 20
50.3333305167
 30
0.0
 11
249.3381895286
 21
50.3785572788
 31
0.0
  0
ARC
  5
2EF
330
1F
100
AcDbEntity
  8
0
  6
Continuous
 62
     7
370
    18
100
AcDbCircle
 10
259.4622696302
 20
41.0395410841
 30
0.0
 40
14.48276781207067
100
AcDbArc
 50
110.0665409331
 51
139.2901057068
  0
LWPOLYLINE
  5
2F0
330
1F
100
AcDbEntity
  8
0
  6
Continuous
 62
     7
370
    18
100
AcDbPolyline
 90
       12
 70
   128
 43
0.0
 10
247.6472994546
 20
50.6044734666
 10
248.5153819591
 20
51.5308455108
 10
249.4137617914
 20
52.3803191761
 10
250.3347613105
 20
53.1456325722
 10
251.2705091809
 20
53.8202469795
 10
252.213007935
 20
54.3983957386
 10
253.1542027298
 20
54.8751376301
 10
254.0860496294
 20
55.2463985755
 10
255.000584711
 20
55.509005447
 10
255.8899918744
 20
55.6607145668
 10
256.7466697051
 20
55.7002282528
 10
257.2862629649
 20
55.6651265557
  0
LINE
  5
2F1
330
1F
100
AcDbEntity
  8
0
  6
Continuous
 62
     7
370
    18
100
AcDbLine
 10
233.6794146946
 20
48.0786238456
 30
0.0
 11
233.9855786218
 21
47.7078887897
 31
0.0
  0
LINE
  5
2F2
330
1F
100
AcDbEntity
  8
0
  6
Continuous
 62
     7
370
    18
100
AcDbLine
 10
233.6794146946
 20
40.3145136979
 30
0.0
 11
233.9855786218
 21
41.0020471664
 31
0.0
  0
LINE
  5
2F3
330
1F
100
AcDbEntity
  8
0
  6
Continuous
 62
     7
370
    18
100
AcDbLine
 10
234.7214889385
 20
41.4268791495
 30
0.0
 11
233.9855858658
 21
41.0020513483
 31
0.0
  0
LINE
  5
2F4
330
1F
100
AcDbEntity
  8
0
  6
Continuous
 62
     7
370
    18
100
AcDbLine
 10
234.6549133815
 20
42.1701051173
 30
0.0
 11
233.3456419474
 21
41.4142788066
 31
0.0
  0
LINE
  5
2F5
330
1F
100
AcDbEntity
  8
0
  6
Continuous
 62
     7
370
    18
100
AcDbLine
 10
230.1685631158
 20
42.9886877663
 30
0.0
 11
229.8720758416
 21
42.4926261484
 31
0.0
  0
LINE
  5
2F6
330
1F
100
AcDbEntity
  8
0
  6
Continuous
 62
     7
370
    18
100
AcDbLine
 10
232.0003807267
 20
44.0461735638
 30
0.0
 11
230.1686237019
 21
42.9887227419
 31
0.0
  0
LINE
  5
2F7
330
1F
100
AcDbEntity
  8
0
  6
Continuous
 62
     7
370
    18
100
AcDbLine
 10
232.0003807267
 20
44.0461735638
 30
0.0
 11
232.1216908812
 21
43.9844230505
 31
0.0
  0
OLE2FRAME
  5
2F8
330
1F
100
AcDbEntity
  8
0
100
AcDbOle2Frame
 70
     2
  3
Paintbrush-Bild
 10
13.8511154363
 20
38.264191557
 30
0.0
 11
51.6290888628
 21
31.9806341108
 31
0.0
 71
     2
 72
     0
 73
     1
 90
    12928
310
80552BED0767C5B32B40DDAF6807D121434000000000000000006FFBDDFB85D0
310
4940DDAF6807D121434000000000000000006FFBDDFB85D04940416F4BD60AFB
310
3F4000000000000000002BED0767C5B32B40416F4BD60AFB3F40000000000000
310
0000000000000100000000010000010000000100000000000100000000320000
310
D0CF11E0A1B11AE1000000000000000000000000000000003E000300FEFF0900
310
0600000000000000000000000100000001000000000000000010000002000000
310
01000000FEFFFFFF0000000000000000FFFFFFFFFFFFFFFFFFFFFFFFFFFFFFFF
310
FFFFFFFFFFFFFFFFFFFFFFFFFFFFFFFFFFFFFFFFFFFFFFFFFFFFFFFFFFFFFFFF
310
FFFFFFFFFFFFFFFFFFFFFFFFFFFFFFFFFFFFFFFFFFFFFFFFFFFFFFFFFFFFFFFF
310
FFFFFFFFFFFFFFFFFFFFFFFFFFFFFFFFFFFFFFFFFFFFFFFFFFFFFFFFFFFFFFFF
310
FFFFFFFFFFFFFFFFFFFFFFFFFFFFFFFFFFFFFFFFFFFFFFFFFFFFFFFFFFFFFFFF
310
FFFFFFFFFFFFFFFFFFFFFFFFFFFFFFFFFFFFFFFFFFFFFFFFFFFFFFFFFFFFFFFF
310
FFFFFFFFFFFFFFFFFFFFFFFFFFFFFFFFFFFFFFFFFFFFFFFFFFFFFFFFFFFFFFFF
310
FFFFFFFFFFFFFFFFFFFFFFFFFFFFFFFFFFFFFFFFFFFFFFFFFFFFFFFFFFFFFFFF
310
FFFFFFFFFFFFFFFFFFFFFFFFFFFFFFFFFFFFFFFFFFFFFFFFFFFFFFFFFFFFFFFF
310
FFFFFFFFFFFFFFFFFFFFFFFFFFFFFFFFFFFFFFFFFFFFFFFFFFFFFFFFFFFFFFFF
310
FFFFFFFFFFFFFFFFFFFFFFFFFFFFFFFFFFFFFFFFFFFFFFFFFFFFFFFFFFFFFFFF
310
FFFFFFFFFFFFFFFFFFFFFFFFFFFFFFFFFFFFFFFFFFFFFFFFFFFFFFFFFFFFFFFF
310
FFFFFFFFFFFFFFFFFFFFFFFFFFFFFFFFFFFFFFFFFFFFFFFFFFFFFFFFFFFFFFFF
310
FFFFFFFFFFFFFFFFFFFFFFFFFFFFFFFFFFFFFFFFFFFFFFFFFFFFFFFFFFFFFFFF
310
FDFFFFFFFEFFFFFFFEFFFFFFFEFFFFFF05000000060000000700000008000000
310
090000000A0000000B0000000C0000000D0000000E0000000F00000010000000
310
11000000120000001300000014000000150000001600000017000000FEFFFFFF
310
FFFFFFFFFFFFFFFFFFFFFFFFFFFFFFFFFFFFFFFFFFFFFFFFFFFFFFFFFFFFFFFF
310
FFFFFFFFFFFFFFFFFFFFFFFFFFFFFFFFFFFFFFFFFFFFFFFFFFFFFFFFFFFFFFFF
310
FFFFFFFFFFFFFFFFFFFFFFFFFFFFFFFFFFFFFFFFFFFFFFFFFFFFFFFFFFFFFFFF
310
FFFFFFFFFFFFFFFFFFFFFFFFFFFFFFFFFFFFFFFFFFFFFFFFFFFFFFFFFFFFFFFF
310
FFFFFFFFFFFFFFFFFFFFFFFFFFFFFFFFFFFFFFFFFFFFFFFFFFFFFFFFFFFFFFFF
310
FFFFFFFFFFFFFFFFFFFFFFFFFFFFFFFFFFFFFFFFFFFFFFFFFFFFFFFFFFFFFFFF
310
FFFFFFFFFFFFFFFFFFFFFFFFFFFFFFFFFFFFFFFFFFFFFFFFFFFFFFFFFFFFFFFF
310
FFFFFFFFFFFFFFFFFFFFFFFFFFFFFFFFFFFFFFFFFFFFFFFFFFFFFFFFFFFFFFFF
310
FFFFFFFFFFFFFFFFFFFFFFFFFFFFFFFFFFFFFFFFFFFFFFFFFFFFFFFFFFFFFFFF
310
FFFFFFFFFFFFFFFFFFFFFFFFFFFFFFFFFFFFFFFFFFFFFFFFFFFFFFFFFFFFFFFF
310
FFFFFFFFFFFFFFFFFFFFFFFFFFFFFFFFFFFFFFFFFFFFFFFFFFFFFFFFFFFFFFFF
310
FFFFFFFFFFFFFFFFFFFFFFFFFFFFFFFFFFFFFFFFFFFFFFFFFFFFFFFFFFFFFFFF
310
FFFFFFFFFFFFFFFFFFFFFFFFFFFFFFFFFFFFFFFFFFFFFFFFFFFFFFFFFFFFFFFF
310
52006F006F007400200045006E00740072007900000000000000000000000000
310
0000000000000000000000000000000000000000000000000000000000000000
310
16000500FFFFFFFFFFFFFFFF020000000A00030000000000C000000000000046
310
0000000000000000000000007061C8D9F6A6D30103000000C000000000000000
310
01004F006C006500000000000000000000000000000000000000000000000000
310
0000000000000000000000000000000000000000000000000000000000000000
310
0A000200FFFFFFFFFFFFFFFFFFFFFFFF00000000000000000000000000000000
310
0000000000000000000000000000000000000000000000001400000000000000
310
010043006F006D0070004F0062006A0000000000000000000000000000000000
310
0000000000000000000000000000000000000000000000000000000000000000
310
120002010100000003000000FFFFFFFF00000000000000000000000000000000
310
0000000000000000000000000000000000000000010000004D00000000000000
310
01004F006C006500310030004E00610074006900760065000000000000000000
310
0000000000000000000000000000000000000000000000000000000000000000
310
1A000200FFFFFFFFFFFFFFFFFFFFFFFF00000000000000000000000000000000
310
0000000000000000000000000000000000000000040000002426000000000000
310
FEFFFFFF02000000FEFFFFFFFFFFFFFFFFFFFFFFFFFFFFFFFFFFFFFFFFFFFFFF
310
FFFFFFFFFFFFFFFFFFFFFFFFFFFFFFFFFFFFFFFFFFFFFFFFFFFFFFFFFFFFFFFF
310
FFFFFFFFFFFFFFFFFFFFFFFFFFFFFFFFFFFFFFFFFFFFFFFFFFFFFFFFFFFFFFFF
310
FFFFFFFFFFFFFFFFFFFFFFFFFFFFFFFFFFFFFFFFFFFFFFFFFFFFFFFFFFFFFFFF
310
FFFFFFFFFFFFFFFFFFFFFFFFFFFFFFFFFFFFFFFFFFFFFFFFFFFFFFFFFFFFFFFF
310
FFFFFFFFFFFFFFFFFFFFFFFFFFFFFFFFFFFFFFFFFFFFFFFFFFFFFFFFFFFFFFFF
310
FFFFFFFFFFFFFFFFFFFFFFFFFFFFFFFFFFFFFFFFFFFFFFFFFFFFFFFFFFFFFFFF
310
FFFFFFFFFFFFFFFFFFFFFFFFFFFFFFFFFFFFFFFFFFFFFFFFFFFFFFFFFFFFFFFF
310
FFFFFFFFFFFFFFFFFFFFFFFFFFFFFFFFFFFFFFFFFFFFFFFFFFFFFFFFFFFFFFFF
310
FFFFFFFFFFFFFFFFFFFFFFFFFFFFFFFFFFFFFFFFFFFFFFFFFFFFFFFFFFFFFFFF
310
FFFFFFFFFFFFFFFFFFFFFFFFFFFFFFFFFFFFFFFFFFFFFFFFFFFFFFFFFFFFFFFF
310
FFFFFFFFFFFFFFFFFFFFFFFFFFFFFFFFFFFFFFFFFFFFFFFFFFFFFFFFFFFFFFFF
310
FFFFFFFFFFFFFFFFFFFFFFFFFFFFFFFFFFFFFFFFFFFFFFFFFFFFFFFFFFFFFFFF
310
FFFFFFFFFFFFFFFFFFFFFFFFFFFFFFFFFFFFFFFFFFFFFFFFFFFFFFFFFFFFFFFF
310
FFFFFFFFFFFFFFFFFFFFFFFFFFFFFFFFFFFFFFFFFFFFFFFFFFFFFFFFFFFFFFFF
310
FFFFFFFFFFFFFFFFFFFFFFFFFFFFFFFFFFFFFFFFFFFFFFFFFFFFFFFFFFFFFFFF
310
0100000200000000000000000000000000000000000000000000000000000000
310
0000000000000000000000000000000000000000000000000000000000000000
310
0100FEFF030A0000FFFFFFFF0A00030000000000C00000000000004607000000
310
5042727573680007000000504272757368000700000050427275736800F439B2
310
7100000000000000000000000000000000000000000000000000000000000000
310
0000000000000000000000000000000000000000000000000000000000000000
310
0000000000000000000000000000000000000000000000000000000000000000
310
0000000000000000000000000000000000000000000000000000000000000000
310
0000000000000000000000000000000000000000000000000000000000000000
310
0000000000000000000000000000000000000000000000000000000000000000
310
0000000000000000000000000000000000000000000000000000000000000000
310
0000000000000000000000000000000000000000000000000000000000000000
310
0000000000000000000000000000000000000000000000000000000000000000
310
0000000000000000000000000000000000000000000000000000000000000000
310
0000000000000000000000000000000000000000000000000000000000000000
310
0000000000000000000000000000000000000000000000000000000000000000
310
20260000424D0E260000000000003E00000028000000B40200006E0000000100
310
01000000000000000000130B0000130B00000200000002000000000000FFFFFF
310
FFFFFFFFFFFFFFFFFFFFFFFFFFFFFFFFFFFFFFFFFFFFFFFFFFFFFFFFFFFFFFFF
310
FFFFFFFFFFFFFFFFFFFFFFFFFFFFFFFFFFFFFFFFFFFFFFFFFFFFFFFFFFFFFFFF
310
FFFFFFFFFFFFFFFFFFFFFFFFFFFFFFFFFFFFFFFFFFFFFFFFF000FFFFFFFFFFFF
310
FFFFFFFFFFFFFFFFFFFFFFFFFFFFFFFFFFFFFFFFFFFFFFFFFFFFFFFFFFFFFFFF
310
FFFFFFFFFFFFFFFFFFFFFFFFFFFFFFFFFFFFFFFFFFFFFFFFFFFFFFFFFFFFFFFF
310
FFFFFFFFFFFFFFFFFFFFFFFFFFFFFFFFF000FFFFFFFFFFFFFFFFFFFFFFFFFFFF
310
FFFFFFFFFFFFFFFFFFFFFFFFFFFFFFFFFFFFFFFFFFFFFFFFFFFFFFFFFFFFFFFF
310
FFFFFFFFFFFFFFFFFFFFFFFFFFFFFFFFFFFFFFFFFFFFFFFFFFFFFFFFFFFFFFFF
310
FFFFFFFFFFFFFFFFF000FFFFFFFFFFFFFFFFFFFFFFFFFFFFFFFFFFFFFFFFFFFF
310
FFFFFFFFFFFFFFFFFFFFFFFFFFFFFFFFFFFFFFFFFFFFFFFFFFFFFFFFFFFFFFFF
310
FFFFFFFFFFFFFFFFFFFFFFFFFFFFFFFFFFFFFFFFFFFFFFFFFFFFFFFFFFFFFFFF
310
F000FFFFFFFFFFFFFFFFFFFFFFFFFFFFFFFFFFFFFFFFFFFFFFFFFFFFFFFFFFFF
310
FFFFFFFFFFFFFFFFFFFFFFFFFFFFFFFFFFFFFFFFFFFFFFFFFFFFFFFFFFFFFFFF
310
FFFFFFFFFFFFFFFFFFFFFFFFFFFFFFFFFFFFFFFFFFFFFFFFF000FFFFFFFFFFFF
310
FFFFFFFFFFFFFFFFFFFFFFFFFFFFFFFFFFFFFFFFFFFFFFFFFFFFFFFFFFFFFFFF
310
FFFFFFFFFFFFFFFFFFFFFFFFFFFFFFFFFFFFFFFFFFFFFFFFFFFFFFFFFFFFFFFF
310
FFFFFFFFFFFFFFFFFFFFFFFFFFFFFFFFF000FFFFFFFFFFFFFFFFFFFFFFFFFFFF
310
FFFFFFFFFFFFFFFFFFFFFFFFFFFFFFFFFFFFFFFFFFFFFFFFFFFFFFFFFFFFFFFF
310
FFFFFFFFFFFFFFFFFFFFFFFFFFFFFFFFFFFFFFFFFFFFFFFFFFFFFFFFFFFFFFFF
310
FFFFFFFFFFFFFFFFF000FFFFFFFFFFFFFFFFFFFFFFFFFFFFFFFFFFFFFFFFFFFF
310
FFFFFFFFFFFFFFFFFFFFFFFFFFFFFFFFFFFFFFFFFFFFFFFFFFFFFFFFFFFFFFFF
310
FFFFFFFFFFFFFFFFFFFFFFFFFFFFFFFFFFFFFFFFFFFFFFFFFFFFFFFFFFFFFFFF
310
F000FFFFFFFFFFFFFFFFFFFFFFFFFFFFFFFFFFFFFFFFFFFFFFFFFFFFFFFFFFFF
310
FFFFFFFFFFFFFFFFFFFFFFFFFFFFFFFFFFFFFFFFFFFFFFFFFFFFFFFFFFFFFFFF
310
FFFFFFFFFFFFFFFFFFFFFFFFFFFFFFFFFFFFFFFFFFFFFFFFF000FFFFFFFFFFFF
310
FFFFFFFFFFFFFFFFFFFFFFFFFFFFFFFFFFFFFFFFFFFFFFFFFFFFFFFFFFFFFFFF
310
FFFFFFFFFFFFFFFFFFFFFFFFFFFFFFFFFFFFFFFFFFFFFFFFFFFFFFFFFFFFFFFF
310
FFFFFFFFFFFFFFFFFFFFFFFFFFFFFFFFF000FFFFFFFFFFFFFFFFFFFFFFFFFFFF
310
FFFFFFFFFFFFFFFFFFFFFFFFFFFFFFFFFFFFFFFFFFFFFFFFFFFFFFFFFFFFFFFF
310
FFFFFFFFFFFFFFFFFFFFFFFFFFFFFFFFFFFFFFFFFFFFFFFFFFFFFFFFFFFFFFFF
310
FFFFFFFFFFFFFFFFF000FFFFFFFFFFFFFFFFFFFFFFFFFFFFFFFFFFFFFFFFFFFF
310
FFFFFFFFFFFFFFFFFFFFFFFFFFFFFFFFFFFFFFFFFFFFFFFFFFFFFFFFFFFFFFFF
310
FFFFFFFFFFFFFFFFFFFFFFFFFFFFFFFFFFFFFFFFFFFFFFFFFFFFFFFFFFFFFFFF
310
F000FFFFFFFFFFFFFFFFFFFFFFFFFFFFFFFFFFFFFFFFFFFFFFFFFFFFFFFFFFFF
310
FFFFFFFFFFFFFFFFFFFFFFFFFFFFFFFFFFFFFFFFFFFFFFFFFFFFFFFFFFFFFFFF
310
FFFFFFFFFFFFFFFFFFFFFFFFFFFFFFFFFFFFFFFFFFFFFFFFF000FFFFFFFFFFFF
310
FFFFFFFFFFFFFFFFFFFFFFFFFFFFFFFFFFFFFFFFFFFFFFFFFFFFFFFFFFFFFFFF
310
FFFFFFFFFFFFFFFFFFFFFFFFFFFFFFFFFFFFFFFFFFFFFFFFFFFFFFFFFFFFFFFF
310
FFFFFFFFFFFFFFFFFFFFFFFFFFFFFFFFF000FFFFFFFFFFFFFFFFFFFFFFFFFFFF
310
FFFFFFFFFFFFFFFFFFFFFFFFFFFFFFFFFFFFFFFFFFFFFFFFFFFFFFFFFFFFFFFF
310
FFFFFFFFFFFFFFFFFFFFFFFFFFFFFFFFFFFFFFFFFFFFFFFFFFFFFFFFFFFFFFFF
310
FFFFFFFFFFFFFFFFF000FFFFFFFFFFFFFFFFFFFFFFFFFFFFFFFFFFFFFFFFFFFF
310
FFFFFFFFFFFFFFFFFFFFFFFFFFFFFFFFFFFFFFFFFFFFFFFFFFFFFFFFFFFFFFFF
310
FFFFFFFFFFFFFFFFFFFFFFFFFFFFFFFFFFFFFFFFFFFFFFFFFFFFFFFFFFFFFFFF
310
F000FFFFFFFFFFFFFFFFFFFFFFFFFFFFFFFFFFFFFFFFFFFFFFFFFFFFFFFFFFFF
310
FFFFFFFFFFFFFFFFFFFFFFFFFFFFFFFFFFFFFFFFFFFFFFFFFFFFFFFFFFFFFFFF
310
FFFFFFFFFFFFFFFFFFFFFFFFFFFFFFFFFFFFFFFFFFFFFFFFF000FFFFFFFFFFFF
310
FFFFFFFFFFFFFFFFFFFFFFFFFFFFFFFFFFFFFFFFFFFFFFFFFFFFFFFFFFFFFFFF
310
FFFFFFFFFFFFFFFFFFFFFFFFFFFFFFFFFFFFFFFFFFFFFFFFFFFFFFFFFFFFFFFF
310
FFFFFFFFFFFFFFFFFFFFFFFFFFFFFFFFF000FFFFFFFFFFFFFFFFFFFFFFFFFFFF
310
FFFFFFFFFFFFFFFFFFFFFFFFFFFFFFFFFFFFFFFFFFFFFFFFFFFFFFFFFFFFFFFF
310
FFFFFFFFFFFFFFFFFFFFFFFFFFFFFFFFFFFFFFFFFFFFFFFFFFFFFFFFFFFFFFFF
310
FFFFFFFFFFFFFFFFF000FFFFF80003FFFFFFFFFFFFFFFFFFFFFFFFFFFFFFFFFF
310
FFFFF00007FFFFFFFFFF00007FFFFFF800000000000000007FFFFFFFFFFFFFFF
310
FFFFFFFC001FFFFFFFFFFFFFFC001FFFFFFFFFFFFFFFFFFFFFFFFFFE0007FFFF
310
F000FFFF8000007FFFFFFFF8000FFFFFC0007FFFFF80007FFFFF0000007FFFFF
310
FFF8000007FFFFF800000000000000007FFFFFF0001FFFFFFFFFFFC00001FFFF
310
FFFFFFFFC00001FFFFFFFF000000000003FFFFE000007FFFF000FFFE0000000F
310
FFFFFFF0000FFFFF80007FFFFF80007FFFFC0000001FFFFFFFC0000001FFFFF8
310
00000000000000007FFFFFF0001FFFFFFFFFFE0000003FFFFFFFFFFE0000003F
310
FFFFFF000000000003FFFF0000000FFFF000FFF800000003FFFFFFF00007FFFF
310
80007FFFFF80007FFFF000000007FFFFFF000000003FFFF80000000000000000
310
7FFFFFF0001FFFFFFFFFF80000000FFFFFFFFFF80000000FFFFFFF0000000000
310
03FFFC00000003FFF000FFE000000000FFFFFFF00007FFFF80003FFFFF80007F
310
FFC000000001FFFFFC000000001FFFF800000000000000007FFFFFF0001FFFFF
310
FFFFE000000003FFFFFFFFE000000003FFFFFF000000000003FFF000000000FF
310
F000FF80000000007FFFFFF00007FFFF80003FFFFF80007FFF8000000000FFFF
310
F80000000007FFF800000000000000007FFFFFF0001FFFFFFFFFC000000001FF
310
FFFFFFC000000001FFFFFF000000000003FFC0000000007FF000FF0000000000
310
3FFFFFE00007FFFF00003FFFFF80007FFE00000000003FFFF00000000003FFF8
310
00000000000000007FFFFFF0001FFFFFFFFF8000000000FFFFFFFF8000000000
310
FFFFFF000000000003FF80000000003FF000FE00000000001FFFFFE00003FFFF
310
00003FFFFF80007FFC00000000001FFFE00000000001FFF8000001FFFE000000
310
7FFFFFF0001FFFFFFFFE00000000003FFFFFFE00000000003FFFFF0000000000
310
03FF00000000001FF000FC00000000000FFFFFE00003FFFF00001FFFFF80007F
310
F800000000001FFFC00000000000FFF8000001FFFE0000007FFFFFF0001FFFFF
310
FFFC00000000001FFFFFFC00000000001FFFFF000000000003FE00000000000F
310
F000F8000000000007FFFFE00003FFFF00001FFFFF80007FF800000000000FFF
310
800000000000FFF8000001FFFE0000007FFFFFF0001FFFFFFFF800000000000F
310
FFFFF800000000000FFFFF000000000003FC000000000007F000F80000000000
310
03FFFFC00003FFFE00001FFFFF80007FF0000000000007FF0000000000007FF8
310
000001FFFE0000007FFFFFF0001FFFFFFFF0000000000007FFFFF00000000000
310
07FFFF000000000003F8000000000003F000F0000000000003FFFFC00001FFFE
310
00001FFFFF80007FE0000000000007FE0000000000003FF8000001FFFE000000
310
7FFFFFF0001FFFFFFFF0000000000007FFFFF0000000000007FFFF0000000000
310
03F800001F800003F000E00001FFF00001FFFFC00001FFFE00000FFFFF80007F
310
E00001FFE00003FE00001FFF00003FF8000001FFFE0000007FFFFFF0001FFFFF
310
FFE000003E000003FFFFE000003E000003FFFF000000000003F00001FFF80001
310
F000E00007FFFC0001FFFFC00001FFFE00000FFFFF80007FC0000FFFFC0003FC
310
0000FFFFC0001FF8000001FFFE0000007FFFFFF0001FFFFFFFC00003FFE00001
310
FFFFC00003FFE00001FFFF0001FFFFFFFFF00007FFFE0001F000E0000FFFFF00
310
00FFFF800001FFFC00000FFFFF80007FC0001FFFFE0001FC0001FFFFE0001FF8
310
000001FFFE0000007FFFFFF0001FFFFFFF80000FFFF80000FFFF80000FFFF800
310
00FFFF0003FFFFFFFFE0000FFFFF8000F000C0003FFFFF8000FFFF800000FFFC
310
000007FFFF80007F80003FFFFF0001FC0003FFFFF0001FF8000001FFFE000000
310
7FFFFFF0001FFFFFFF80003FFFFE0000FFFF80003FFFFE0000FFFF0003FFFFFF
310
FFE0003FFFFF8000F000C0003FFFFF8000FFFF800000FFFC000007FFFF80007F
310
80007FFFFF8001F80007FFFFF8000FF8000001FFFE0000007FFFFFF0001FFFFF
310
FF00007FFFFF00007FFF00007FFFFF00007FFF0003FFFFFFFFE0003FFFFFC000
310
F000C0007FFFFFC000FFFF000000FFFC000007FFFF80007F8000FFFFFF8000F8
310
000FFFFFF8000FF8000001FFFE0000007FFFFFF0001FFFFFFF0000FFFFFF8000
310
7FFF0000FFFFFF80007FFF0003FFFFFFFFC0007FFFFFC00070008000FFFFFFC0
310
00FFFF000000FFF8000007FFFF80007F8000FFFFFF8000F8000FFFFFF8000FF8
310
000001FFFE0000007FFFFFF0001FFFFFFE0001FFFFFFC0003FFE0001FFFFFFC0
310
003FFF0003FFFFFFFFC0007FFFFFE00070008000FFFFFFC0007FFF0000007FF8
310
000003FFFF80007F0001FFFFFF8000F8000FFFFFF8000FF8000001FFFE000000
310
7FFFFFF0001FFFFFFE0001FFFFFFC0003FFE0001FFFFFFC0003FFF0003FFFFFF
310
FFC000FFFFFFE00070008000FFFFFFC0007FFF0000007FF8000003FFFF80007F
310
0001FFFFFF8000F8001FFFFFF8000FF8000001FFFE0000007FFFFFF0001FFFFF
310
FE0003FFFFFFE0003FFE0003FFFFFFE0003FFF0003FFFFFFFFC000FFFFFFE000
310
70008000FFFFFFC0007FFE0000007FF8000003FFFF80007F0001FFFFFF8000F0
310
001FFFFFF8000FF8000001FFFE0000007FFFFFF0001FFFFFFC0003FFFFFFE000
310
1FFC0003FFFFFFE0001FFF0003FFFFFFFFC000FFFFFFC00070008000FFFFFF80
310
007FFE0000007FF0000003FFFF80007F0001FFFFFF0000F0001FFFFFF8000FF8
310
000001FFFE0000007FFFFFF0001FFFFFFC0007FFFFFFF0001FFC0007FFFFFFF0
310
001FFF0003FFFFFFFFC000FFFFFFC00070008001FFFFFF0000FFFE0000003FF0
310
000001FFFF80007F0001FFFFFF0000F8001FFFFFF0000FF8000001FFFE000000
310
7FFFFFF0001FFFFFFC0007FFFFFFF0001FFC0007FFFFFFF0001FFF0003FFFFFF
310
FFC001FFFFFF80007000FFFFFFFFFE0000FFFE0008003FF0008001FFFF80007F
310
FFFFFFFFFC0000FFFFFFFFFFE0000FF8000001FFFE0000007FFFFFF0001FFFFF
310
F8000FFFFFFFF8000FF8000FFFFFFFF8000FFF0003FFFFFFFFFFFFFFFFFF0000
310
7000FFFFFFFFFC0000FFFC0008003FF0008001FFFF80007FFFFFFFFFF80001FF
310
FFFFFFFF80000FF8000001FFFE0000007FFFFFF0001FFFFFF8000FFFFFFFF800
310
0FF8000FFFFFFFF8000FFF0003FFFFFFFFFFFFFFFFFE0000F000FFFFFFFFE000
310
00FFFC000C003FE000C001FFFF80007FFFFFFFFFC00001FFFFFFFFFE00001FF8
310
000001FFFE0000007FFFFFF0001FFFFFF8000FFFFFFFF8000FF8000FFFFFFFF8
310
000FFF0003FFFFFFFFFFFFFFFFF00000F000FFFFFFFE000001FFFC000C001FE0
310
00C000FFFF80007FFFFFFFFE000001FFFFFFFFE000001FF80FFFFFFFFFFFFFC0
310
7FFFFFF0001FFFFFF8000FFFFFFFF8000FF8000FFFFFFFF8000FFF0003FFFFFF
310
FFFFFFFFFF800000F000FFFFFFC0000001FFFC001C001FE001C000FFFF80007F
310
FFFFFF80000003FFFFFFF80000001FF80FFFFFFFFFFFFFC07FFFFFF0001FFFFF
310
F8001FFFFFFFFC000FF8001FFFFFFFFC000FFF0003FFFFFFFFFFFFFFF0000001
310
F000FFFFF800000001FFF8001C001FE001C000FFFF80007FFFFFF800000003FF
310
FFFF800000003FF80FFFFFFFFFFFFFC07FFFFFF0001FFFFFF8001FFFFFFFFC00
310
0FF8001FFFFFFFFC000FFF0003FFFFFFFFFFFFFE00000001F000FFFFC0000000
310
03FFF8001E001FC001E000FFFF80007FFFFF8000000007FFFFFC000000003FF8
310
0FFFFFFFFFFFFFC07FFFFFF0001FFFFFF8001FFFFFFFFC000FF8001FFFFFFFFC
310
000FFF0003FFFFFFFFFFFFE000000003F000FFFE0000000007FFF8001E000FC0
310
01E0007FFF80007FFFFE0000000007FFFFE0000000007FF80FFFFFFFFFFFFFC0
310
7FFFFFF0001FFFFFF0001FFFFFFFFC0007F0001FFFFFFFFC0007FF0003FFFFFF
310
FFFFFF0000000003F000FFF80000000007FFF8001E000FC003E0007FFF80007F
310
FFF0000000000FFFFF8000000000FFF80FFFFFFFFFFFFFC07FFFFFF0001FFFFF
310
F0001FFFFFFFFC0007F0001FFFFFFFFC0007FF0003FFFFFFFFFFFC0000000007
310
F000FFE0000000000FFFF0003E000FC003E0007FFF80007FFFC0000000001FFF
310
FE0000000001FFF80FFFFFFFFFFFFFC07FFFFFF0001FFFFFF0001FFFFFFFFC00
310
07F0001FFFFFFFFC0007FF0003FFFFFFFFFFF0000000000FF000FFC000000000
310
1FFFF0003F000F8003F0003FFF80007FFF80000000003FFFF80000000003FFF8
310
0FFFFFFFFFFFFFC07FFFFFF0001FFFFFF0001FFFFFFFFC0007F0001FFFFFFFFC
310
0007FF0003FFFFFFFFFFE0000000001FF000FF00000000007FFFF0003F000780
310
03F0003FFF80007FFF00000000007FFFF00000000007FFF80FFFFFFFFFFFFFC0
310
7FFFFFF0001FFFFFF0001FFFFFFFFC0007F0001FFFFFFFFC0007FF0003FFFFFF
310
FFFF80000000007FF000FE0000000000FFFFE0003F00078007F0003FFF80007F
310
FE0000000001FFFFE0000000001FFFF80FFFFFFFFFFFFFC07FFFFFF0001FFFFF
310
F0001FFFFFFFFC0007F0001FFFFFFFFC0007FF0003FFFFFFFFFF0000000000FF
310
F000FC0000000003FFFFE0007F00078007F0003FFF80007FFC0000000007FFFF
310
C0000000007FFFF80FFFFFFFFFFFFFC07FFFFFF0001FFFFFF8001FFFFFFFFC00
310
0FF8001FFFFFFFFC000FFF0003FFFFFFFFFE0000000003FFF000FC000000000F
310
FFFFE0007F80070007F8001FFF80007FF8000000001FFFFF8000000001FFFFF8
310
0FFFFFFFFFFFFFC07FFFFFF0001FFFFFF8001FFFFFFFFC000FF8001FFFFFFFFC
310
000FFF0003FFFFFFFFFC000000000FFFF000F8000000007FFFFFE0007F800700
310
07F8001FFF80007FF000000000FFFFFF800000000FFFFFF80FFFFFFFFFFFFFC0
310
7FFFFFF0001FFFFFF8000FFFFFFFF8000FF8000FFFFFFFF8000FFF0003FFFFFF
310
FFFC000000007FFFF000F800000007FFFFFFC0007F8003000FF8001FFF80007F
310
F000000007FFFFFF000000007FFFFFF80FFFFFFFFFFFFFC07FFFFFF0001FFFFF
310
F8000FFFFFFFF8000FF8000FFFFFFFF8000FFF0003FFFFFFFFF80000000FFFFF
310
F000F0000000FFFFFFFFC000FF8003000FF8001FFF80007FE0000000FFFFFFFF
310
0000000FFFFFFFF8000001FFFE0000007FFFFFF0001FFFFFF8000FFFFFFFF800
310
0FF8000FFFFFFFF8000FFF0003FFFFFFFFF8000000FFFFFFF000F000000FFFFF
310
FFFFC000FFC002000FF8000FFF80007FE000001FFFFFFFFE000001FFFFFFFFF8
310
000001FFFE0000007FFFFFF0001FFFFFF8000FFFFFFFF8000FF8000FFFFFFFF8
310
000FFF0003FFFFFFFFF000001FFFFFFFF000E00000FFFFFFFFFFC000FFC00200
310
0FFC000FFF80007FE00001FFFFFFFFFE00001FFFFFFFFFF8000001FFFE000000
310
7FFFFFF0001FFFFFFC000FFFFFFFF8001FFC000FFFFFFFF8001FFF0003FFFFFF
310
FFF00001FFFFFFFFF000E00007FFFFFFFFFF8000FFC000001FFC000FFF80007F
310
C0000FFFFFFFFFFE0000FFFFFFFFFFF8000001FFFE0000007FFFFFF0001FFFFF
310
FC0007FFFFFFF0001FFC0007FFFFFFF0001FFF0003FFFFFFFFF00007FFFFFFFF
310
F000E0001FFFFFFFFFFF8000FFC000001FFC000FFF80007FC0003FFFFFFFFFFE
310
0001FFFFFFFFFFF8000001FFFE0000007FFFFFF0001FFFFFFC0007FFFFFFF000
310
1FFC0007FFFFFFF0001FFF0003FFFFFFFFF0001FFFFFFFFFF000E0003FFFFF00
310
03FF8001FFE000001FFC0007FF80007FC0007FFFFF0007FC0003FFFFF0003FF8
310
000001FFFE0000007FFFFFF0001FFFFFFC0003FFFFFFE0001FFC0003FFFFFFE0
310
001FFF0003FFFFFFFFF0003FFFFFFFFFF000E0003FFFFF0001FF8001FFE00000
310
1FFE0007FF80007FC0007FFFFE0003FC0007FFFFE0003FF8000001FFFE000000
310
7FFFFFF0001FFFFFFE0003FFFFFFE0003FFE0003FFFFFFE0003FFF0003FFFFFF
310
FFF0003FFFFF8001F000E0003FFFFF0001FF0001FFE000001FFE0007FF80007F
310
C0007FFFFE0003FC0007FFFFE0003FF8000001FFFE0000007FFFFFF0001FFFFF
310
FE0001FFFFFFC0003FFE0001FFFFFFC0003FFF0003FFFFFFFFF0003FFFFF0001
310
F000E0003FFFFF0003FF0001FFE000003FFE0007FF80007FC0007FFFFE0003FC
310
0007FFFFE0003FF8000001FFFE0000007FFFFFF0001FFFFFFF0001FFFFFFC000
310
7FFF0001FFFFFFC0007FFF0003FFFFFFFFF0003FFFFF0001F000E0003FFFFE00
310
03FF0003FFF000003FFE0003FF80007FC0007FFFFC0003FE0007FFFFE0003FF8
310
000001FFFE0000007FFFFFF0001FFFFFFF0000FFFFFF80007FFF0000FFFFFF80
310
007FFF0003FFFFFFFFF0003FFFFF0001F000E0003FFFFE0003FF0003FFF00000
310
3FFF0003FF80007FC0007FFFFC0007FE0007FFFFC0003FF8000001FFFE000000
310
7FFFFFF0001FFFFFFF80007FFFFF0000FFFF80007FFFFF0000FFFF0003FFFFFF
310
FFF0003FFFFF0003F000E0003FFFFC0003FE0003FFF000003FFF0003FF80007F
310
E0003FFFF80007FE0003FFFFC0007FF8000001FFFE0000007FFFFFF0001FFFFF
310
FF80003FFFFE0000FFFF80003FFFFE0000FFFF0003FFFFFFFFF0001FFFFE0003
310
F000F0001FFFF80003FE0003FFF000007FFF0001FF80007FE0003FFFF00007FE
310
0001FFFF80007FF8000001FFFE0000007FFFFFF0001FFFFFFFC0000FFFF80001
310
FFFFC0000FFFF80001FFFF0003FFFFFFFFF0001FFFFC0003F000F0000FFFF000
310
07FE0007FFF800007FFF0001FF80007FE0001FFFE00007FF0000FFFE00007FF8
310
000001FFFE0000007FFFFFF0001FFFFFFFC00003FFE00001FFFFC00003FFE000
310
01FFFF0003FFFFFFFFF8000FFFF80003F000F00003FFC00007FC0007FFF80000
310
7FFF8001FF80007FF00007FF80000FFF00007FF80000FFF8000001FFFE000000
310
7F80000000000001FFE000003E000003FFFFE000003E000003FFFF0003FFFFFF
310
FFF80003FFE00007F000F800000000000FFC0007FFF800007FFF8001FF80007F
310
F000000000000FFF000000000000FFF8000001FFFE0000007F80000000000001
310
FFF0000000000007FFFFF0000000000007FFFF0003FFFFFFFFFC00007E000007
310
F000F800000000000FFC0007FFF80000FFFF8000FF80007FF800000000001FFF
310
800000000001FFF8000001FFFE0000007F80000000000001FFF800000000000F
310
FFFFF800000000000FFFFF0003FFFFFFFFFC00000000000FF000FC0000000000
310
1FFC0007FFFC0000FFFF8000FF80007FF800000000003FFFC00000000001FFF8
310
000001FFFE0000007F80000000000001FFF800000000000FFFFFF80000000000
310
0FFFFF0003FFFFFFFFFE00000000001FF000FE00000000003FF8000FFFFC0000
310
FFFF8000FF80007FFC00000000003FFFC00000000003FFF8000001FFFE000000
310
7F80000000000001FFFC00000000001FFFFFFC00000000001FFFFF0003FFFFFF
310
FFFF00000000001FF000FF00000000003FF8000FFFFC0000FFFFC000FF80007F
310
FE00000000007FFFE00000000007FFF8000001FFFE0000007F80000000000001
310
FFFE00000000003FFFFFFE00000000003FFFFF0003FFFFFFFFFF80000000003F
310
F000FF80000000007FF8000FFFFC0001FFFFC0007F80007FFF0000000000FFFF
310
F0000000000FFFF800000000000000007F80000000000001FFFF8000000000FF
310
FFFFFF8000000000FFFFFF0003FFFFFFFFFFC0000000007FF000FFC000000000
310
FFF8000FFFFE0001FFFFC0007F80007FFF8000000001FFFFF8000000001FFFF8
310
00000000000000007F80000000000001FFFFC000000001FFFFFFFFC000000001
310
FFFFFF0003FFFFFFFFFFE000000000FFF000FFE000000003FFF0001FFFFE0001
310
FFFFC0007F80007FFFC000000007FFFFFE000000003FFFF80000000000000000
310
7F80000000000001FFFFE000000003FFFFFFFFE000000003FFFFFF0003FFFFFF
310
FFFFF000000003FFF000FFF80000000FFFF0001FFFFE0001FFFFE0007F80007F
310
FFF00000000FFFFFFF00000000FFFFF800000000000000007F80000000000001
310
FFFFF80000000FFFFFFFFFF80000000FFFFFFF0003FFFFFFFFFFFC0000000FFF
310
F000FFFE0000003FFFF0001FFFFE0003FFFFE0003F80007FFFFC0000003FFFFF
310
FFC0000003FFFFF800000000000000007F80000000000001FFFFFE0000003FFF
310
FFFFFFFE0000003FFFFFFF0003FFFFFFFFFFFF0000003FFFF000FFFF800000FF
310
FFF0001FFFFF0003FFFFE0003F80007FFFFF000001FFFFFFFFF800001FFFFFF8
310
00000000000000007F80000000000001FFFFFFC00001FFFFFFFFFFFFC00001FF
310
FFFFFF0003FFFFFFFFFFFFC00000FFFFF000FFFFF8000FFFFFFFFFFFFFFFFFFF
310
FFFFFFFFFFFFFFFFFFFFF0001FFFFFFFFFFF0000FFFFFFF80000000000000000
310
7FFFFFFFFFFFFFFFFFFFFFFC001FFFFFFFFFFFFFFC001FFFFFFFFFFFFFFFFFFF
310
FFFFFFFC001FFFFFF000FFFFFFFFFFFFFFFFFFFFFFFFFFFFFFFFFFFFFFFFFFFF
310
FFFFFFFFFFFFFFFFFFFFFFFFFFFFFFFFFFFFFFFFFFFFFFFFFFFFFFFFFFFFFFFF
310
FFFFFFFFFFFFFFFFFFFFFFFFFFFFFFFFFFFFFFFFFFFFFFFFFFFFFFFFFFFFFFFF
310
F000FFFFFFFFFFFFFFFFFFFFFFFFFFFFFFFFFFFFFFFFFFFFFFFFFFFFFFFFFFFF
310
FFFFFFFFFFFFFFFFFFFFFFFFFFFFFFFFFFFFFFFFFFFFFFFFFFFFFFFFFFFFFFFF
310
FFFFFFFFFFFFFFFFFFFFFFFFFFFFFFFFFFFFFFFFFFFFFFFFF000FFFFFFFFFFFF
310
FFFFFFFFFFFFFFFFFFFFFFFFFFFFFFFFFFFFFFFFFFFFFFFFFFFFFFFFFFFFFFFF
310
FFFFFFFFFFFFFFFFFFFFFFFFFFFFFFFFFFFFFFFFFFFFFFFFFFFFFFFFFFFFFFFF
310
FFFFFFFFFFFFFFFFFFFFFFFFFFFFFFFFF000FFFFFFFFFFFFFFFFFFFFFFFFFFFF
310
FFFFFFFFFFFFFFFFFFFFFFFFFFFFFFFFFFFFFFFFFFFFFFFFFFFFFFFFFFFFFFFF
310
FFFFFFFFFFFFFFFFFFFFFFFFFFFFFFFFFFFFFFFFFFFFFFFFFFFFFFFFFFFFFFFF
310
FFFFFFFFFFFFFFFFF000FFFFFFFFFFFFFFFFFFFFFFFFFFFFFFFFFFFFFFFFFFFF
310
FFFFFFFFFFFFFFFFFFFFFFFFFFFFFFFFFFFFFFFFFFFFFFFFFFFFFFFFFFFFFFFF
310
FFFFFFFFFFFFFFFFFFFFFFFFFFFFFFFFFFFFFFFFFFFFFFFFFFFFFFFFFFFFFFFF
310
F000FFFFFFFFFFFFFFFFFFFFFFFFFFFFFFFFFFFFFFFFFFFFFFFFFFFFFFFFFFFF
310
FFFFFFFFFFFFFFFFFFFFFFFFFFFFFFFFFFFFFFFFFFFFFFFFFFFFFFFFFFFFFFFF
310
FFFFFFFFFFFFFFFFFFFFFFFFFFFFFFFFFFFFFFFFFFFFFFFFF000FFFFFFFFFFFF
310
FFFFFFFFFFFFFFFFFFFFFFFFFFFFFFFFFFFFFFFFFFFFFFFFFFFFFFFFFFFFFFFF
310
FFFFFFFFFFFFFFFFFFFFFFFFFFFFFFFFFFFFFFFFFFFFFFFFFFFFFFFFFFFFFFFF
310
FFFFFFFFFFFFFFFFFFFFFFFFFFFFFFFFF000FFFFFFFFFFFFFFFFFFFFFFFFFFFF
310
FFFFFFFFFFFFFFFFFFFFFFFFFFFFFFFFFFFFFFFFFFFFFFFFFFFFFFFFFFFFFFFF
310
FFFFFFFFFFFFFFFFFFFFFFFFFFFFFFFFFFFFFFFFFFFFFFFFFFFFFFFFFFFFFFFF
310
FFFFFFFFFFFFFFFFF000FFFFFFFFFFFFFFFFFFFFFFFFFFFFFFFFFFFFFFFFFFFF
310
FFFFFFFFFFFFFFFFFFFFFFFFFFFFFFFFFFFFFFFFFFFFFFFFFFFFFFFFFFFFFFFF
310
FFFFFFFFFFFFFFFFFFFFFFFFFFFFFFFFFFFFFFFFFFFFFFFFFFFFFFFFFFFFFFFF
310
F000FFFFFFFFFFFFFFFFFFFFFFFFFFFFFFFFFFFFFFFFFFFFFFFFFFFFFFFFFFFF
310
FFFFFFFFFFFFFFFFFFFFFFFFFFFFFFFFFFFFFFFFFFFFFFFFFFFFFFFFFFFFFFFF
310
FFFFFFFFFFFFFFFFFFFFFFFFFFFFFFFFFFFFFFFFFFFFFFFFF000FFFFFFFFFFFF
310
FFFFFFFFFFFFFFFFFFFFFFFFFFFFFFFFFFFFFFFFFFFFFFFFFFFFFFFFFFFFFFFF
310
FFFFFFFFFFFFFFFFFFFFFFFFFFFFFFFFFFFFFFFFFFFFFFFFFFFFFFFFFFFFFFFF
310
FFFFFFFFFFFFFFFFFFFFFFFFFFFFFFFFF000FFFFFFFFFFFFFFFFFFFFFFFFFFFF
310
FFFFFFFFFFFFFFFFFFFFFFFFFFFFFFFFFFFFFFFFFFFFFFFFFFFFFFFFFFFFFFFF
310
FFFFFFFFFFFFFFFFFFFFFFFFFFFFFFFFFFFFFFFFFFFFFFFFFFFFFFFFFFFFFFFF
310
FFFFFFFFFFFFFFFFF000FFFFFFFFFFFFFFFFFFFFFFFFFFFFFFFFFFFFFFFFFFFF
310
FFFFFFFFFFFFFFFFFFFFFFFFFFFFFFFFFFFFFFFFFFFFFFFFFFFFFFFFFFFFFFFF
310
FFFFFFFFFFFFFFFFFFFFFFFFFFFFFFFFFFFFFFFFFFFFFFFFFFFFFFFFFFFFFFFF
310
F000FFFFFFFFFFFFFFFFFFFFFFFFFFFFFFFFFFFFFFFFFFFFFFFFFFFFFFFFFFFF
310
FFFFFFFFFFFFFFFFFFFFFFFFFFFFFFFFFFFFFFFFFFFFFFFFFFFFFFFFFFFFFFFF
310
FFFFFFFFFFFFFFFFFFFFFFFFFFFFFFFFFFFFFFFFFFFFFFFFF000FFFFFFFFFFFF
310
FFFFFFFFFFFFFFFFFFFFFFFFFFFFFFFFFFFFFFFFFFFFFFFFFFFFFFFFFFFFFFFF
310
FFFFFFFFFFFFFFFFFFFFFFFFFFFFFFFFFFFFFFFFFFFFFFFFFFFFFFFFFFFFFFFF
310
FFFFFFFFFFFFFFFFFFFFFFFFFFFFFFFFF000FFFFFFFFFFFFFFFFFFFFFFFFFFFF
310
FFFFFFFFFFFFFFFFFFFFFFFFFFFFFFFFFFFFFFFFFFFFFFFFFFFFFFFFFFFFFFFF
310
FFFFFFFFFFFFFFFFFFFFFFFFFFFFFFFFFFFFFFFFFFFFFFFFFFFFFFFFFFFFFFFF
310
FFFFFFFFFFFFFFFFF000FFFFFFFFFFFFFFFFFFFFFFFFFFFFFFFFFFFFFFFFFFFF
310
FFFFFFFFFFFFFFFFFFFFFFFFFFFFFFFFFFFFFFFFFFFFFFFFFFFFFFFFFFFFFFFF
310
FFFFFFFFFFFFFFFFFFFFFFFFFFFFFFFFFFFFFFFFFFFFFFFFFFFFFFFFFFFFFFFF
310
F000FFFFFFFFFFFFFFFFFFFFFFFFFFFFFFFFFFFFFFFFFFFFFFFFFFFFFFFFFFFF
310
FFFFFFFFFFFFFFFFFFFFFFFFFFFFFFFFFFFFFFFFFFFFFFFFFFFFFFFFFFFFFFFF
310
FFFFFFFFFFFFFFFFFFFFFFFFFFFFFFFFFFFFFFFFFFFFFFFFF000FFFFFFFFFFFF
310
FFFFFFFFFFFFFFFFFFFFFFFFFFFFFFFFFFFFFFFFFFFFFFFFFFFFFFFFFFFFFFFF
310
FFFFFFFFFFFFFFFFFFFFFFFFFFFFFFFFFFFFFFFFFFFFFFFFFFFFFFFFFFFFFFFF
310
FFFFFFFFFFFFFFFFFFFFFFFFFFFFFFFFF000FFFFFFFFFFFFFFFFFFFFFFFFFFFF
310
FFFFFFFFFFFFFFFFFFFFFFFFFFFFFFFFFFFFFFFFFFFFFFFFFFFFFFFFFFFFFFFF
310
FFFFFFFFFFFFFFFFFFFFFFFFFFFFFFFFFFFFFFFFFFFFFFFFFFFFFFFFFFFFFFFF
310
FFFFFFFFFFFFFFFFF000FFFFFFFFFFFFFFFFFFFFFFFFFFFFFFFFFFFFFFFFFFFF
310
FFFFFFFFFFFFFFFFFFFFFFFFFFFFFFFFFFFFFFFFFFFFFFFFFFFFFFFFFFFFFFFF
310
FFFFFFFFFFFFFFFFFFFFFFFFFFFFFFFFFFFFFFFFFFFFFFFFFFFFFFFFFFFFFFFF
310
F000FFFFFFFFFFFFFFFFFFFFFFFFFFFFFFFFFFFFFFFFFFFFFFFFFFFFFFFFFFFF
310
FFFFFFFFFFFFFFFFFFFFFFFFFFFFFFFFFFFFFFFFFFFFFFFFFFFFFFFFFFFFFFFF
310
FFFFFFFFFFFFFFFFFFFFFFFFFFFFFFFFFFFFFFFFFFFFFFFFF000FFFFFFFFFFFF
310
FFFFFFFFFFFFFFFFFFFFFFFFFFFFFFFFFFFFFFFFFFFFFFFFFFFFFFFFFFFFFFFF
310
FFFFFFFFFFFFFFFFFFFFFFFFFFFFFFFFFFFFFFFFFFFFFFFFFFFFFFFFFFFFFFFF
310
FFFFFFFFFFFFFFFFFFFFFFFFFFFFFFFFF0000000000000000000000000000000
310
0000000000000000000000000000000000000000000000000000000000000000
310
0000000000000000000000000000000000000000000000000000000000000000
310
0000000000000000000000000000000000000000000000000000000000000000
310
0000000000000000000000000000000000000000000000000000000000000000
310
0000000000000000000000000000000000000000000000000000000000000000
310
0000000000000000000000000000000000000000000000000000000000000000
310
0000000000000000000000000000000000000000000000000000000000000000
310
0000000000000000000000000000000000000000000000000000000000000000
310
0000000000000000000000000000000000000000000000000000000000000000
310
0000000000000000000000000000000000000000000000000000000000000000
310
0000000000000000000000000000000000000000000000000000000000000000
310
0000000000000000000000000000000000000000000000000000000000000000
310
0000000000000000000000000000000000000000000000000000000000000000
310
0000000000000000000000000000000000000000000000000000000000000000
310
0000000000000000000000000000000000000000000000000000000000000000
  1
OLE
  0
ENDSEC
  0
SECTION
  2
OBJECTS
  0
DICTIONARY
  5
C
330
0
100
AcDbDictionary
281
     1
  3
ACAD_GROUP
350
D
  3
ACAD_LAYOUT
350
1A
  3
ACAD_MLINESTYLE
350
17
  3
ACAD_PLOTSETTINGS
350
19
  3
ACAD_PLOTSTYLENAME
350
E
  3
ACAD_SCALELIST
350
47
  0
DICTIONARY
  5
D
102
{ACAD_REACTORS
330
C
102
}
330
C
100
AcDbDictionary
281
     1
  0
DICTIONARY
  5
1A
102
{ACAD_REACTORS
330
C
102
}
330
C
100
AcDbDictionary
281
     1
  3
Layout1
350
1E
  3
Layout2
350
26
  3
Model
350
22
  0
DICTIONARY
  5
17
102
{ACAD_REACTORS
330
C
102
}
330
C
100
AcDbDictionary
281
     1
  3
Standard
350
18
  0
DICTIONARY
  5
19
102
{ACAD_REACTORS
330
C
102
}
330
C
100
AcDbDictionary
281
     1
  0
ACDBDICTIONARYWDFLT
  5
E
102
{ACAD_REACTORS
330
C
102
}
330
C
100
AcDbDictionary
281
     1
  3
Normal
350
F
100
AcDbDictionaryWithDefault
340
F
  0
DICTIONARY
  5
47
102
{ACAD_REACTORS
330
C
102
}
330
C
100
AcDbDictionary
281
     1
  3
A0
350
48
  3
A1
350
49
  3
A2
350
4A
  3
A3
350
4B
  3
A4
350
4C
  3
A5
350
4D
  3
A6
350
4E
  3
A7
350
4F
  3
A8
350
50
  3
A9
350
51
  3
B0
350
52
  3
B1
350
53
  3
B2
350
54
  3
B3
350
55
  3
B4
350
56
  3
B5
350
57
  3
B6
350
58
  3
B7
350
59
  3
B8
350
5A
  3
B9
350
5B
  3
C0
350
5C
  3
C1
350
5D
  3
C2
350
5E
  3
C3
350
5F
  3
C4
350
60
  3
C5
350
61
  3
C6
350
62
  3
C7
350
63
  3
C8
350
64
  3
C9
350
65
  3
D0
350
66
  3
D1
350
67
  3
D2
350
68
  0
LAYOUT
  5
1E
102
{ACAD_REACTORS
330
1A
102
}
330
1A
100
AcDbPlotSettings
  1

  2
none_device
  4

  6

 40
0.0
 41
0.0
 42
0.0
 43
0.0
 44
0.0
 45
0.0
 46
0.0
 47
0.0
 48
0.0
 49
0.0
140
0.0
141
0.0
142
1.0
143
1.0
 70
   688
 72
     1
 73
     0
 74
     5
  7

 75
    16
147
1.0
148
0.0
149
0.0
100
AcDbLayout
  1
Layout1
 70
     1
 71
     1
 10
0.0
 20
0.0
 11
420.0
 21
297.0
 12
0.0
 22
0.0
 32
0.0
 14
1.0000000000E+20
 24
1.0000000000E+20
 34
1.0000000000E+20
 15
-1.0000000000E+20
 25
-1.0000000000E+20
 35
-1.0000000000E+20
146
0.0
 13
0.0
 23
0.0
 33
0.0
 16
1.0
 26
0.0
 36
0.0
 17
0.0
 27
1.0
 37
0.0
 76
     0
330
1B
  0
LAYOUT
  5
26
102
{ACAD_REACTORS
330
1A
102
}
330
1A
100
AcDbPlotSettings
  1

  2
none_device
  4

  6

 40
0.0
 41
0.0
 42
0.0
 43
0.0
 44
0.0
 45
0.0
 46
0.0
 47
0.0
 48
0.0
 49
0.0
140
0.0
141
0.0
142
1.0
143
1.0
 70
   688
 72
     1
 73
     0
 74
     5
  7

 75
    16
147
1.0
148
0.0
149
0.0
100
AcDbLayout
  1
Layout2
 70
     1
 71
     2
 10
0.0
 20
0.0
 11
0.0
 21
0.0
 12
0.0
 22
0.0
 32
0.0
 14
0.0
 24
0.0
 34
0.0
 15
0.0
 25
0.0
 35
0.0
146
0.0
 13
0.0
 23
0.0
 33
0.0
 16
1.0
 26
0.0
 36
0.0
 17
0.0
 27
1.0
 37
0.0
 76
     0
330
23
  0
LAYOUT
  5
22
102
{ACAD_REACTORS
330
1A
102
}
330
1A
100
AcDbPlotSettings
  1

  2
none_device
  4
Letter_(8.50_x_11.00_Inches)
  6

 40
6.35
 41
6.35
 42
6.35000508
 43
6.35000508
 44
215.9
 45
279.4
 46
0.0
 47
0.0
 48
0.0
 49
0.0
140
0.0
141
0.0
142
1.0
143
1.0
 70
  1712
 72
     1
 73
     0
 74
     0
  7

 75
     0
147
1.0
148
0.0
149
0.0
100
AcDbLayout
  1
Model
 70
     1
 71
     0
 10
0.0
 20
0.0
 11
297.0
 21
210.0
 12
0.0
 22
0.0
 32
0.0
 14
0.0
 24
0.0
 34
0.0
 15
297.0
 25
210.0
 35
0.0
146
0.0
 13
0.0
 23
0.0
 33
0.0
 16
1.0
 26
0.0
 36
0.0
 17
0.0
 27
1.0
 37
0.0
 76
     0
330
1F
331
29
  0
MLINESTYLE
  5
18
102
{ACAD_REACTORS
330
17
102
}
330
17
100
AcDbMlineStyle
  2
Standard
 70
     0
  3

 62
   256
 51
90.0
 52
90.0
 71
     2
 49
0.5
 62
   256
  6
BYLAYER
 49
-0.5
 62
   256
  6
BYLAYER
  0
ACDBPLACEHOLDER
  5
F
102
{ACAD_REACTORS
330
E
102
}
330
E
  0
SCALE
  5
48
102
{ACAD_REACTORS
330
47
102
}
330
47
100
AcDbScale
 70
     0
300
1:1
140
1.0
141
1.0
290
     1
  0
SCALE
  5
49
102
{ACAD_REACTORS
330
47
102
}
330
47
100
AcDbScale
 70
     0
300
1:2
140
1.0
141
2.0
290
     0
  0
SCALE
  5
4A
102
{ACAD_REACTORS
330
47
102
}
330
47
100
AcDbScale
 70
     0
300
1:4
140
1.0
141
4.0
290
     0
  0
SCALE
  5
4B
102
{ACAD_REACTORS
330
47
102
}
330
47
100
AcDbScale
 70
     0
300
1:5
140
1.0
141
5.0
290
     0
  0
SCALE
  5
4C
102
{ACAD_REACTORS
330
47
102
}
330
47
100
AcDbScale
 70
     0
300
1:8
140
1.0
141
8.0
290
     0
  0
SCALE
  5
4D
102
{ACAD_REACTORS
330
47
102
}
330
47
100
AcDbScale
 70
     0
300
1:10
140
1.0
141
10.0
290
     0
  0
SCALE
  5
4E
102
{ACAD_REACTORS
330
47
102
}
330
47
100
AcDbScale
 70
     0
300
1:16
140
1.0
141
16.0
290
     0
  0
SCALE
  5
4F
102
{ACAD_REACTORS
330
47
102
}
330
47
100
AcDbScale
 70
     0
300
1:20
140
1.0
141
20.0
290
     0
  0
SCALE
  5
50
102
{ACAD_REACTORS
330
47
102
}
330
47
100
AcDbScale
 70
     0
300
1:30
140
1.0
141
30.0
290
     0
  0
SCALE
  5
51
102
{ACAD_REACTORS
330
47
102
}
330
47
100
AcDbScale
 70
     0
300
1:40
140
1.0
141
40.0
290
     0
  0
SCALE
  5
52
102
{ACAD_REACTORS
330
47
102
}
330
47
100
AcDbScale
 70
     0
300
1:50
140
1.0
141
50.0
290
     0
  0
SCALE
  5
53
102
{ACAD_REACTORS
330
47
102
}
330
47
100
AcDbScale
 70
     0
300
1:100
140
1.0
141
100.0
290
     0
  0
SCALE
  5
54
102
{ACAD_REACTORS
330
47
102
}
330
47
100
AcDbScale
 70
     0
300
2:1
140
2.0
141
1.0
290
     0
  0
SCALE
  5
55
102
{ACAD_REACTORS
330
47
102
}
330
47
100
AcDbScale
 70
     0
300
4:1
140
4.0
141
1.0
290
     0
  0
SCALE
  5
56
102
{ACAD_REACTORS
330
47
102
}
330
47
100
AcDbScale
 70
     0
300
8:1
140
8.0
141
1.0
290
     0
  0
SCALE
  5
57
102
{ACAD_REACTORS
330
47
102
}
330
47
100
AcDbScale
 70
     0
300
10:1
140
10.0
141
1.0
290
     0
  0
SCALE
  5
58
102
{ACAD_REACTORS
330
47
102
}
330
47
100
AcDbScale
 70
     0
300
100:1
140
100.0
141
1.0
290
     0
  0
SCALE
  5
59
102
{ACAD_REACTORS
330
47
102
}
330
47
100
AcDbScale
 70
     0
300
1/128" = 1'-0"
140
0.0078125
141
12.0
290
     0
  0
SCALE
  5
5A
102
{ACAD_REACTORS
330
47
102
}
330
47
100
AcDbScale
 70
     0
300
1/64" = 1'-0"
140
0.015625
141
12.0
290
     0
  0
SCALE
  5
5B
102
{ACAD_REACTORS
330
47
102
}
330
47
100
AcDbScale
 70
     0
300
1/32" = 1'-0"
140
0.03125
141
12.0
290
     0
  0
SCALE
  5
5C
102
{ACAD_REACTORS
330
47
102
}
330
47
100
AcDbScale
 70
     0
300
1/16" = 1'-0"
140
0.0625
141
12.0
290
     0
  0
SCALE
  5
5D
102
{ACAD_REACTORS
330
47
102
}
330
47
100
AcDbScale
 70
     0
300
3/32" = 1'-0"
140
0.09375
141
12.0
290
     0
  0
SCALE
  5
5E
102
{ACAD_REACTORS
330
47
102
}
330
47
100
AcDbScale
 70
     0
300
1/8" = 1'-0"
140
0.125
141
12.0
290
     0
  0
SCALE
  5
5F
102
{ACAD_REACTORS
330
47
102
}
330
47
100
AcDbScale
 70
     0
300
3/16" = 1'-0"
140
0.1875
141
12.0
290
     0
  0
SCALE
  5
60
102
{ACAD_REACTORS
330
47
102
}
330
47
100
AcDbScale
 70
     0
300
1/4" = 1'-0"
140
0.25
141
12.0
290
     0
  0
SCALE
  5
61
102
{ACAD_REACTORS
330
47
102
}
330
47
100
AcDbScale
 70
     0
300
3/8" = 1'-0"
140
0.375
141
12.0
290
     0
  0
SCALE
  5
62
102
{ACAD_REACTORS
330
47
102
}
330
47
100
AcDbScale
 70
     0
300
1/2" = 1'-0"
140
0.5
141
12.0
290
     0
  0
SCALE
  5
63
102
{ACAD_REACTORS
330
47
102
}
330
47
100
AcDbScale
 70
     0
300
3/4" = 1'-0"
140
0.75
141
12.0
290
     0
  0
SCALE
  5
64
102
{ACAD_REACTORS
330
47
102
}
330
47
100
AcDbScale
 70
     0
300
1" = 1'-0"
140
1.0
141
12.0
290
     0
  0
SCALE
  5
65
102
{ACAD_REACTORS
330
47
102
}
330
47
100
AcDbScale
 70
     0
300
1-1/2" = 1'-0"
140
1.5
141
12.0
290
     0
  0
SCALE
  5
66
102
{ACAD_REACTORS
330
47
102
}
330
47
100
AcDbScale
 70
     0
300
3" = 1'-0"
140
3.0
141
12.0
290
     0
  0
SCALE
  5
67
102
{ACAD_REACTORS
330
47
102
}
330
47
100
AcDbScale
 70
     0
300
6" = 1'-0"
140
6.0
141
12.0
290
     0
  0
SCALE
  5
68
102
{ACAD_REACTORS
330
47
102
}
330
47
100
AcDbScale
 70
     0
300
1'-0" = 1'-0"
140
12.0
141
12.0
290
     0
  0
ENDSEC
  0
EOF
