  0
SECTION
  2
HEADER
  9
$ACADVER
  1
AC1015
  9
$ACADMAINTVER
 70
     6
  9
$DWGCODEPAGE
  3
ANSI_1252
  9
$INSBASE
 10
0.0
 20
0.0
 30
0.0
  9
$EXTMIN
 10
0.0
 20
0.0
 30
0.0
  9
$EXTMAX
 10
297.0
 20
210.0
 30
0.0
  9
$LIMMIN
 10
0.0
 20
0.0
  9
$LIMMAX
 10
297.0
 20
210.0
  9
$ORTHOMODE
 70
     0
  9
$REGENMODE
 70
     1
  9
$FILLMODE
 70
     1
  9
$QTEXTMODE
 70
     0
  9
$MIRRTEXT
 70
     1
  9
$LTSCALE
 40
1.0
  9
$ATTMODE
 70
     1
  9
$TEXTSIZE
 40
2.0
  9
$TRACEWID
 40
1.0
  9
$TEXTSTYLE
  7
Standard
  9
$CLAYER
  8
0
  9
$CELTYPE
  6
ByLayer
  9
$CECOLOR
 62
   256
  9
$CELTSCALE
 40
1.0
  9
$DISPSILH
 70
     0
  9
$DIMSCALE
 40
1.0
  9
$DIMASZ
 40
3.0
  9
$DIMEXO
 40
0.0
  9
$DIMDLI
 40
3.75
  9
$DIMRND
 40
0.0
  9
$DIMDLE
 40
0.0
  9
$DIMEXE
 40
1.0
  9
$DIMTP
 40
0.0
  9
$DIMTM
 40
0.0
  9
$DIMTXT
 40
2.0
  9
$DIMCEN
 40
2.5
  9
$DIMTSZ
 40
0.0
  9
$DIMTOL
 70
     0
  9
$DIMLIM
 70
     0
  9
$DIMTIH
 70
     1
  9
$DIMTOH
 70
     1
  9
$DIMSE1
 70
     0
  9
$DIMSE2
 70
     0
  9
$DIMTAD
 70
     1
  9
$DIMZIN
 70
     0
  9
$DIMBLK
  1

  9
$DIMASO
 70
     1
  9
$DIMSHO
 70
     1
  9
$DIMPOST
  1

  9
$DIMAPOST
  1

  9
$DIMALT
 70
     0
  9
$DIMALTD
 70
     3
  9
$DIMALTF
 40
0.0393700787
  9
$DIMLFAC
 40
2.0
  9
$DIMTOFL
 70
     1
  9
$DIMTVP
 40
0.0
  9
$DIMTIX
 70
     0
  9
$DIMSOXD
 70
     0
  9
$DIMSAH
 70
     0
  9
$DIMBLK1
  1

  9
$DIMBLK2
  1

  9
$DIMSTYLE
  2
ISO-25
  9
$DIMCLRD
 70
     0
  9
$DIMCLRE
 70
     0
  9
$DIMCLRT
 70
     0
  9
$DIMTFAC
 40
1.0
  9
$DIMGAP
 40
1.524
  9
$DIMJUST
 70
     0
  9
$DIMSD1
 70
     0
  9
$DIMSD2
 70
     0
  9
$DIMTOLJ
 70
     0
  9
$DIMTZIN
 70
     0
  9
$DIMALTZ
 70
     0
  9
$DIMALTTZ
 70
     0
  9
$DIMUPT
 70
     0
  9
$DIMDEC
 70
     2
  9
$DIMTDEC
 70
     3
  9
$DIMALTU
 70
     2
  9
$DIMALTTD
 70
     3
  9
$DIMTXSTY
  7
Standard
  9
$DIMAUNIT
 70
     0
  9
$DIMADEC
 70
     2
  9
$DIMALTRND
 40
0.0
  9
$DIMAZIN
 70
     0
  9
$DIMDSEP
 70
    44
  9
$DIMATFIT
 70
     3
  9
$DIMFRAC
 70
     0
  9
$DIMLDRBLK
  1

  9
$DIMLUNIT
 70
     2
  9
$DIMLWD
 70
    -2
  9
$DIMLWE
 70
    -2
  9
$DIMTMOVE
 70
     0
  9
$LUNITS
 70
     2
  9
$LUPREC
 70
     2
  9
$SKETCHINC
 40
1.0
  9
$FILLETRAD
 40
10.0
  9
$AUNITS
 70
     0
  9
$AUPREC
 70
     2
  9
$MENU
  1
.
  9
$ELEVATION
 40
0.0
  9
$PELEVATION
 40
0.0
  9
$THICKNESS
 40
0.0
  9
$LIMCHECK
 70
     0
  9
$CHAMFERA
 40
0.0
  9
$CHAMFERB
 40
0.0
  9
$CHAMFERC
 40
0.0
  9
$CHAMFERD
 40
0.0
  9
$SKPOLY
 70
     0
  9
$TDCREATE
 40
2458166.335055335
  9
$TDUCREATE
 40
2458166.293388669
  9
$TDUPDATE
 40
2458166.335058669
  9
$TDUUPDATE
 40
2458166.293392002
  9
$TDINDWG
 40
0.0000000116
  9
$TDUSRTIMER
 40
0.0000000116
  9
$USRTIMER
 70
     1
  9
$ANGBASE
 50
0.0
  9
$ANGDIR
 70
     0
  9
$PDMODE
 70
     0
  9
$PDSIZE
 40
-1.0
  9
$PLINEWID
 40
0.0
  9
$SPLFRAME
 70
     0
  9
$SPLINETYPE
 70
     6
  9
$SPLINESEGS
 70
     8
  9
$HANDSEED
  5
2FA
  9
$SURFTAB1
 70
     6
  9
$SURFTAB2
 70
     6
  9
$SURFTYPE
 70
     6
  9
$SURFU
 70
     6
  9
$SURFV
 70
     6
  9
$UCSBASE
  2

  9
$UCSNAME
  2

  9
$UCSORG
 10
0.0
 20
0.0
 30
0.0
  9
$UCSXDIR
 10
1.0
 20
0.0
 30
0.0
  9
$UCSYDIR
 10
0.0
 20
1.0
 30
0.0
  9
$UCSORTHOREF
  2

  9
$UCSORTHOVIEW
 70
     0
  9
$UCSORGTOP
 10
0.0
 20
0.0
 30
0.0
  9
$UCSORGBOTTOM
 10
0.0
 20
0.0
 30
0.0
  9
$UCSORGLEFT
 10
0.0
 20
0.0
 30
0.0
  9
$UCSORGRIGHT
 10
0.0
 20
0.0
 30
0.0
  9
$UCSORGFRONT
 10
0.0
 20
0.0
 30
0.0
  9
$UCSORGBACK
 10
0.0
 20
0.0
 30
0.0
  9
$PUCSBASE
  2

  9
$PUCSNAME
  2

  9
$PUCSORG
 10
0.0
 20
0.0
 30
0.0
  9
$PUCSXDIR
 10
1.0
 20
0.0
 30
0.0
  9
$PUCSYDIR
 10
0.0
 20
1.0
 30
0.0
  9
$PUCSORTHOREF
  2

  9
$PUCSORTHOVIEW
 70
     0
  9
$PUCSORGTOP
 10
0.0
 20
0.0
 30
0.0
  9
$PUCSORGBOTTOM
 10
0.0
 20
0.0
 30
0.0
  9
$PUCSORGLEFT
 10
0.0
 20
0.0
 30
0.0
  9
$PUCSORGRIGHT
 10
0.0
 20
0.0
 30
0.0
  9
$PUCSORGFRONT
 10
0.0
 20
0.0
 30
0.0
  9
$PUCSORGBACK
 10
0.0
 20
0.0
 30
0.0
  9
$USERI1
 70
     0
  9
$USERI2
 70
     0
  9
$USERI3
 70
     0
  9
$USERI4
 70
     0
  9
$USERI5
 70
     0
  9
$USERR1
 40
0.0
  9
$USERR2
 40
0.0
  9
$USERR3
 40
0.0
  9
$USERR4
 40
0.0
  9
$USERR5
 40
0.0
  9
$WORLDVIEW
 70
     1
  9
$SHADEDGE
 70
     3
  9
$SHADEDIF
 70
    70
  9
$TILEMODE
 70
     1
  9
$MAXACTVP
 70
    64
  9
$PINSBASE
 10
0.0
 20
0.0
 30
0.0
  9
$PLIMCHECK
 70
     0
  9
$PEXTMIN
 10
1.0000000000E+20
 20
1.0000000000E+20
 30
1.0000000000E+20
  9
$PEXTMAX
 10
-1.0000000000E+20
 20
-1.0000000000E+20
 30
-1.0000000000E+20
  9
$PLIMMIN
 10
0.0
 20
0.0
  9
$PLIMMAX
 10
420.0
 20
297.0
  9
$UNITMODE
 70
     0
  9
$VISRETAIN
 70
     1
  9
$PLINEGEN
 70
     0
  9
$PSLTSCALE
 70
     1
  9
$TREEDEPTH
 70
  3020
  9
$CMLSTYLE
  2
Standard
  9
$CMLJUST
 70
     0
  9
$CMLSCALE
 40
20.0
  9
$PROXYGRAPHICS
 70
     1
  9
$MEASUREMENT
 70
     1
  9
$CELWEIGHT
370
    -1
  9
$ENDCAPS
280
     0
  9
$JOINSTYLE
280
     0
  9
$LWDISPLAY
290
     1
  9
$INSUNITS
 70
     4
  9
$HYPERLINKBASE
  1

  9
$STYLESHEET
  1

  9
$XEDIT
290
     1
  9
$CEPSNTYPE
380
     0
  9
$PSTYLEMODE
290
     1
  9
$FINGERPRINTGUID
  2
{96764BFC-D8AB-40AC-9EE1-75D95F53B2CC}
  9
$VERSIONGUID
  2
{FAEB1C32-E019-11D5-929B-00C0DF256EC4}
  9
$EXTNAMES
290
     1
  9
$PSVPSCALE
 40
0.0
  9
$OLESTARTUP
290
     0
  0
ENDSEC
  0
SECTION
  2
CLASSES
  0
CLASS
  1
ACDBDICTIONARYWDFLT
  2
AcDbDictionaryWithDefault
  3
ObjectDBX Classes
 90
        0
280
     0
281
     0
  0
CLASS
  1
VISUALSTYLE
  2
AcDbVisualStyle
  3
ObjectDBX Classes
 90
     4095
280
     0
281
     0
  0
CLASS
  1
MATERIAL
  2
AcDbMaterial
  3
ObjectDBX Classes
 90
     1153
280
     0
281
     0
  0
CLASS
  1
SCALE
  2
AcDbScale
  3
ObjectDBX Classes
 90
     1153
280
     0
281
     0
  0
CLASS
  1
TABLESTYLE
  2
AcDbTableStyle
  3
ObjectDBX Classes
 90
     4095
280
     0
281
     0
  0
CLASS
  1
MLEADERSTYLE
  2
AcDbMLeaderStyle
  3
ACDB_MLEADERSTYLE_CLASS
 90
     4095
280
     0
281
     0
  0
CLASS
  1
SUN
  2
AcDbSun
  3
SCENEOE
 90
     1153
280
     0
281
     0
  0
CLASS
  1
ACDBPLACEHOLDER
  2
AcDbPlaceHolder
  3
ObjectDBX Classes
 90
        0
280
     0
281
     0
  0
CLASS
  1
LAYOUT
  2
AcDbLayout
  3
ObjectDBX Classes
 90
        0
280
     0
281
     0
  0
ENDSEC
  0
SECTION
  2
TABLES
  0
TABLE
  2
VPORT
  5
8
330
0
100
AcDbSymbolTable
 70
     1
  0
VPORT
  5
29
330
8
100
AcDbSymbolTableRecord
100
AcDbViewportTableRecord
  2
*Active
 70
     0
 10
0.0
 20
0.0
 11
1.0
 21
1.0
 12
148.5
 22
105.0
 13
0.0
 23
0.0
 14
10.0
 24
10.0
 15
10.0
 25
10.0
 16
0.0
 26
0.0
 36
1.0
 17
0.0
 27
0.0
 37
0.0
 40
210.0
 41
1.4142857143
 42
50.0
 43
0.0
 44
0.0
 50
0.0
 51
0.0
 71
     0
 72
  2000
 73
     1
 74
     3
 75
     0
 76
     0
 77
     0
 78
     0
281
     0
 65
     1
110
0.0
120
0.0
130
0.0
111
1.0
121
0.0
131
0.0
112
0.0
122
1.0
132
0.0
 79
     0
146
0.0
  0
ENDTAB
  0
TABLE
  2
LTYPE
  5
5
330
0
100
AcDbSymbolTable
 70
     6
  0
LTYPE
  5
14
330
5
100
AcDbSymbolTableRecord
100
AcDbLinetypeTableRecord
  2
ByBlock
 70
     0
  3

 72
    65
 73
     0
 40
0.0
  0
LTYPE
  5
15
330
5
100
AcDbSymbolTableRecord
100
AcDbLinetypeTableRecord
  2
ByLayer
 70
     0
  3

 72
    65
 73
     0
 40
0.0
  0
LTYPE
  5
16
330
5
100
AcDbSymbolTableRecord
100
AcDbLinetypeTableRecord
  2
Continuous
 70
     0
  3
Solid line
 72
    65
 73
     0
 40
0.0
  0
LTYPE
  5
6E
330
5
100
AcDbSymbolTableRecord
100
AcDbLinetypeTableRecord
  2
HIDDEN
 70
     0
  3
Hidden __ __ __ __ __ __ __ __ __ __ __ __ __ __
 72
    65
 73
     2
 40
1.905
 49
1.27
 74
     0
 49
-0.635
 74
     0
  0
LTYPE
  5
6F
330
5
100
AcDbSymbolTableRecord
100
AcDbLinetypeTableRecord
  2
PHANTOM
 70
     0
  3
Phantom ______  __  __  ______  __  __  ______
 72
    65
 73
     6
 40
12.7
 49
6.35
 74
     0
 49
-1.27
 74
     0
 49
1.27
 74
     0
 49
-1.27
 74
     0
 49
1.27
 74
     0
 49
-1.27
 74
     0
  0
LTYPE
  5
70
330
5
100
AcDbSymbolTableRecord
100
AcDbLinetypeTableRecord
  2
CENTER
 70
     0
  3
Center ____ _ ____ _ ____ _ ____ _ ____ _ ____
 72
    65
 73
     4
 40
10.16
 49
6.35
 74
     0
 49
-1.27
 74
     0
 49
1.27
 74
     0
 49
-1.27
 74
     0
  0
LTYPE
  5
71
330
5
100
AcDbSymbolTableRecord
100
AcDbLinetypeTableRecord
  2
CENTERX2
 70
     0
  3
Center (2x) ________  __  ________  __  _____
 72
    65
 73
     4
 40
20.32
 49
12.7
 74
     0
 49
-2.54
 74
     0
 49
2.54
 74
     0
 49
-2.54
 74
     0
  0
LTYPE
  5
72
330
5
100
AcDbSymbolTableRecord
100
AcDbLinetypeTableRecord
  2
DOT2
 70
     0
  3
Dot (.5x) ........................................
 72
    65
 73
     2
 40
0.635
 49
0.0
 74
     0
 49
-0.635
 74
     0
  0
ENDTAB
  0
TABLE
  2
LAYER
  5
2
330
0
100
AcDbSymbolTable
 70
     5
  0
LAYER
  5
10
330
2
100
AcDbSymbolTableRecord
100
AcDbLayerTableRecord
  2
0
 70
     0
 62
     7
  6
Continuous
370
    -3
390
F
  0
LAYER
  5
73
330
2
100
AcDbSymbolTableRecord
100
AcDbLayerTableRecord
  2
FORMAT
 70
     0
 62
     7
  6
Continuous
370
    -3
390
F
  0
LAYER
  5
74
330
2
100
AcDbSymbolTableRecord
100
AcDbLayerTableRecord
  2
VERMASSUNG
 70
     0
 62
     7
  6
Continuous
370
    -3
390
F
  0
LAYER
  5
75
330
2
100
AcDbSymbolTableRecord
100
AcDbLayerTableRecord
  2
KOPF_DÜNN
 70
     0
 62
     7
  6
Continuous
370
    -3
390
F
  0
LAYER
  5
76
330
2
100
AcDbSymbolTableRecord
100
AcDbLayerTableRecord
  2
KOPF_DICK
 70
     0
 62
     7
  6
Continuous
370
    25
390
F
  0
ENDTAB
  0
TABLE
  2
STYLE
  5
3
330
0
100
AcDbSymbolTable
 70
     2
  0
STYLE
  5
11
330
3
100
AcDbSymbolTableRecord
100
AcDbTextStyleTableRecord
  2
Standard
 70
     0
 40
0.0
 41
1.0
 50
0.0
 71
     0
 42
2.0
  3
txt
  4

  0
STYLE
  5
77
330
3
100
AcDbSymbolTableRecord
100
AcDbTextStyleTableRecord
  2
SLDTEXTSTYLE0
 70
     0
 40
0.0
 41
0.7
 50
0.0
 71
     0
 42
2.0
  3
TXT
  4

  0
ENDTAB
  0
TABLE
  2
VIEW
  5
6
330
0
100
AcDbSymbolTable
 70
     0
  0
ENDTAB
  0
TABLE
  2
UCS
  5
7
330
0
100
AcDbSymbolTable
 70
     0
  0
ENDTAB
  0
TABLE
  2
APPID
  5
9
330
0
100
AcDbSymbolTable
 70
     1
  0
APPID
  5
12
330
9
100
AcDbSymbolTableRecord
100
AcDbRegAppTableRecord
  2
ACAD
 70
     0
  0
ENDTAB
  0
TABLE
  2
DIMSTYLE
  5
A
330
0
100
AcDbSymbolTable
 70
     4
100
AcDbDimStyleTable
  0
DIMSTYLE
105
27
330
A
100
AcDbSymbolTableRecord
100
AcDbDimStyleTableRecord
  2
ISO-25
 70
     0
 41
2.5
 42
0.625
 43
3.75
 44
1.25
 73
     0
 74
     0
 77
     1
 78
     8
140
2.5
141
2.5
143
0.0393700787
147
0.625
171
     3
172
     1
178
     0
271
     2
272
     2
274
     3
278
    44
283
     0
284
     8
340
11
  0
DIMSTYLE
105
205
102
{ACAD_REACTORS
330
204
330
21A
330
230
330
23A
330
244
330
24E
330
258
102
}
330
A
100
AcDbSymbolTableRecord
100
AcDbDimStyleTableRecord
  2
SLDDIMSTYLE0
 70
     0
 41
3.0
 44
0.0
 45
0.000000001
 73
     0
 74
     0
 77
     1
 78
    12
 79
     3
140
2.0
147
0.5
173
     1
178
     0
271
     2
272
     3
276
     2
284
    12
340
77
  0
DIMSTYLE
105
211
102
{ACAD_REACTORS
330
210
102
}
330
A
100
AcDbSymbolTableRecord
100
AcDbDimStyleTableRecord
  2
SLDDIMSTYLE1
 70
     0
 41
3.0
 44
0.0
 45
0.000000001
 73
     0
 74
     0
 76
     1
 77
     1
 78
    12
 79
     3
140
2.0
147
0.5
173
     1
178
     0
271
     2
272
     3
276
     2
282
     1
284
    12
340
77
  0
DIMSTYLE
105
226
102
{ACAD_REACTORS
330
225
330
262
102
}
330
A
100
AcDbSymbolTableRecord
100
AcDbDimStyleTableRecord
  2
SLDDIMSTYLE2
 70
     0
 41
3.0
 44
0.0
 45
0.000000001
 73
     0
 74
     0
 77
     1
 78
    12
 79
     3
140
2.0
147
0.5
173
     1
178
     0
271
     1
272
     3
276
     2
284
    12
340
77
  0
ENDTAB
  0
TABLE
  2
BLOCK_RECORD
  5
1
330
0
100
AcDbSymbolTable
 70
    11
  0
BLOCK_RECORD
  5
1F
330
1
100
AcDbSymbolTableRecord
100
AcDbBlockTableRecord
  2
*Model_Space
340
22
  0
BLOCK_RECORD
  5
1B
330
1
100
AcDbSymbolTableRecord
100
AcDbBlockTableRecord
  2
*Paper_Space
340
1E
  0
BLOCK_RECORD
  5
23
330
1
100
AcDbSymbolTableRecord
100
AcDbBlockTableRecord
  2
*Paper_Space0
340
26
  0
BLOCK_RECORD
  5
206
330
1
100
AcDbSymbolTableRecord
100
AcDbBlockTableRecord
  2
_D
340
0
  0
BLOCK_RECORD
  5
212
330
1
100
AcDbSymbolTableRecord
100
AcDbBlockTableRecord
  2
_D_1
340
0
  0
BLOCK_RECORD
  5
21B
330
1
100
AcDbSymbolTableRecord
100
AcDbBlockTableRecord
  2
_D_2
340
0
  0
BLOCK_RECORD
  5
227
330
1
100
AcDbSymbolTableRecord
100
AcDbBlockTableRecord
  2
_D_3
340
0
  0
BLOCK_RECORD
  5
231
330
1
100
AcDbSymbolTableRecord
100
AcDbBlockTableRecord
  2
_D_4
340
0
  0
BLOCK_RECORD
  5
23B
330
1
100
AcDbSymbolTableRecord
100
AcDbBlockTableRecord
  2
_D_5
340
0
  0
BLOCK_RECORD
  5
245
330
1
100
AcDbSymbolTableRecord
100
AcDbBlockTableRecord
  2
_D_6
340
0
  0
BLOCK_RECORD
  5
24F
330
1
100
AcDbSymbolTableRecord
100
AcDbBlockTableRecord
  2
_D_7
340
0
  0
BLOCK_RECORD
  5
259
330
1
100
AcDbSymbolTableRecord
100
AcDbBlockTableRecord
  2
_D_8
340
0
  0
BLOCK_RECORD
  5
263
330
1
100
AcDbSymbolTableRecord
100
AcDbBlockTableRecord
  2
_D_9
340
0
  0
ENDTAB
  0
ENDSEC
  0
SECTION
  2
BLOCKS
  0
BLOCK
  5
20
330
1F
100
AcDbEntity
  8
0
100
AcDbBlockBegin
  2
*Model_Space
 70
     0
 10
0.0
 20
0.0
 30
0.0
  3
*Model_Space
  1

  0
ENDBLK
  5
21
330
1F
100
AcDbEntity
  8
0
100
AcDbBlockEnd
  0
BLOCK
  5
1C
330
1B
100
AcDbEntity
 67
     1
  8
0
100
AcDbBlockBegin
  2
*Paper_Space
 70
     0
 10
0.0
 20
0.0
 30
0.0
  3
*Paper_Space
  1

  0
ENDBLK
  5
1D
330
1B
100
AcDbEntity
 67
     1
  8
0
100
AcDbBlockEnd
  0
BLOCK
  5
24
330
23
100
AcDbEntity
  8
0
100
AcDbBlockBegin
  2
*Paper_Space0
 70
     0
 10
0.0
 20
0.0
 30
0.0
  3
*Paper_Space0
  1

  0
ENDBLK
  5
25
330
23
100
AcDbEntity
  8
0
100
AcDbBlockEnd
  0
BLOCK
  5
207
330
206
100
AcDbEntity
  8
0
100
AcDbBlockBegin
  2
_D
 70
     0
 10
0.0
 20
0.0
 30
0.0
  3
_D
  1

  0
SOLID
  5
209
330
206
100
AcDbEntity
  8
VERMASSUNG
100
AcDbTrace
 10
268.9343986096
 20
102.3797527505
 30
0.0
 11
269.3843986096
 21
105.3797527505
 31
0.0
 12
268.4843986096
 22
105.3797527505
 32
0.0
 13
268.4843986096
 23
105.3797527505
 33
0.0
  0
SOLID
  5
20A
330
206
100
AcDbEntity
  8
VERMASSUNG
100
AcDbTrace
 10
268.9343986096
 20
129.3797527505
 30
0.0
 11
268.4843986096
 21
126.3797527505
 31
0.0
 12
269.3843986096
 22
126.3797527505
 32
0.0
 13
269.3843986096
 23
126.3797527505
 33
0.0
  0
LINE
  5
20B
330
206
100
AcDbEntity
  8
VERMASSUNG
100
AcDbLine
 10
230.8058142774
 20
102.3797527505
 30
0.0
 11
269.9343986096
 21
102.3797527505
 31
0.0
  0
LINE
  5
20C
330
206
100
AcDbEntity
  8
VERMASSUNG
100
AcDbLine
 10
230.8058142774
 20
129.3797527505
 30
0.0
 11
269.9343986096
 21
129.3797527505
 31
0.0
  0
LINE
  5
20D
330
206
100
AcDbEntity
  8
VERMASSUNG
100
AcDbLine
 10
268.9343986096
 20
102.3797527505
 30
0.0
 11
268.9343986096
 21
129.3797527505
 31
0.0
  0
MTEXT
  5
20E
330
206
100
AcDbEntity
  8
VERMASSUNG
100
AcDbMText
 10
266.3562633047
 20
112.6747527932
 30
0.0
 40
2.0
 41
0.0
 71
     1
 72
     1
  1
%%c
  7
SLDTEXTSTYLE0
 11
2.059633784282649E-15
 21
1.0
 31
0.0
 73
     1
 44
1.0
  0
MTEXT
  5
20F
330
206
100
AcDbEntity
  8
VERMASSUNG
100
AcDbMText
 10
266.1562633534
 20
116.2847528076
 30
0.0
 40
2.0
 41
0.0
 71
     1
 72
     1
  1
27
  7
SLDTEXTSTYLE0
 11
2.059633784282649E-15
 21
1.0
 31
0.0
 73
     1
 44
1.0
  0
ENDBLK
  5
208
330
206
100
AcDbEntity
  8
0
100
AcDbBlockEnd
  0
BLOCK
  5
213
330
212
100
AcDbEntity
  8
0
100
AcDbBlockBegin
  2
_D_1
 70
     0
 10
0.0
 20
0.0
 30
0.0
  3
_D_1
  1

  0
SOLID
  5
215
330
212
100
AcDbEntity
  8
VERMASSUNG
100
AcDbTrace
 10
258.8058142774
 20
123.8797527505
 30
0.0
 11
258.3558142774
 21
120.8797527505
 31
0.0
 12
259.2558142774
 22
120.8797527505
 32
0.0
 13
259.2558142774
 23
120.8797527505
 33
0.0
  0
LINE
  5
216
330
212
100
AcDbEntity
  8
VERMASSUNG
100
AcDbLine
 10
227.3058142774
 20
123.8797527505
 30
0.0
 11
259.8058142774
 21
123.8797527505
 31
0.0
  0
LINE
  5
217
330
212
100
AcDbEntity
  8
VERMASSUNG
100
AcDbLine
 10
258.8058142774
 20
123.8797527505
 30
0.0
 11
258.8058142774
 21
112.8747526863
 31
0.0
  0
MTEXT
  5
218
330
212
100
AcDbEntity
  8
VERMASSUNG
100
AcDbMText
 10
256.2276789724
 20
112.8747526863
 30
0.0
 40
2.0
 41
0.0
 71
     1
 72
     1
  1
%%c
  7
SLDTEXTSTYLE0
 11
-6.156016597943509E-15
 21
1.0
 31
0.0
 73
     1
 44
1.0
  0
MTEXT
  5
219
330
212
100
AcDbEntity
  8
VERMASSUNG
100
AcDbMText
 10
256.0276790212
 20
116.4847527006
 30
0.0
 40
2.0
 41
0.0
 71
     1
 72
     1
  1
16
  7
SLDTEXTSTYLE0
 11
-6.156016597943509E-15
 21
1.0
 31
0.0
 73
     1
 44
1.0
  0
ENDBLK
  5
214
330
212
100
AcDbEntity
  8
0
100
AcDbBlockEnd
  0
BLOCK
  5
21C
330
21B
100
AcDbEntity
  8
0
100
AcDbBlockBegin
  2
_D_2
 70
     0
 10
0.0
 20
0.0
 30
0.0
  3
_D_2
  1

  0
SOLID
  5
21E
330
21B
100
AcDbEntity
  8
VERMASSUNG
100
AcDbTrace
 10
279.4531242982
 20
132.8797527505
 30
0.0
 11
279.0031242982
 21
129.8797527505
 31
0.0
 12
279.9031242982
 22
129.8797527505
 32
0.0
 13
279.9031242982
 23
129.8797527505
 33
0.0
  0
SOLID
  5
21F
330
21B
100
AcDbEntity
  8
VERMASSUNG
100
AcDbTrace
 10
279.4531242982
 20
98.8797527505
 30
0.0
 11
279.9031242982
 21
101.8797527505
 31
0.0
 12
279.0031242982
 22
101.8797527505
 32
0.0
 13
279.0031242982
 23
101.8797527505
 33
0.0
  0
LINE
  5
220
330
21B
100
AcDbEntity
  8
VERMASSUNG
100
AcDbLine
 10
186.3340977008
 20
132.8797527505
 30
0.0
 11
280.4531242982
 21
132.8797527505
 31
0.0
  0
LINE
  5
221
330
21B
100
AcDbEntity
  8
VERMASSUNG
100
AcDbLine
 10
186.3340977008
 20
98.8797527505
 30
0.0
 11
280.4531242982
 21
98.8797527505
 31
0.0
  0
LINE
  5
222
330
21B
100
AcDbEntity
  8
VERMASSUNG
100
AcDbLine
 10
279.4531242982
 20
132.8797527505
 30
0.0
 11
279.4531242982
 21
98.8797527505
 31
0.0
  0
MTEXT
  5
223
330
21B
100
AcDbEntity
  8
VERMASSUNG
100
AcDbMText
 10
276.8749889933
 20
112.5747527303
 30
0.0
 40
2.0
 41
0.0
 71
     1
 72
     1
  1
%%c
  7
SLDTEXTSTYLE0
 11
-6.156016597943509E-15
 21
1.0
 31
0.0
 73
     1
 44
1.0
  0
MTEXT
  5
224
330
21B
100
AcDbEntity
  8
VERMASSUNG
100
AcDbMText
 10
276.674989042
 20
116.1847527446
 30
0.0
 40
2.0
 41
0.0
 71
     1
 72
     1
  1
34
  7
SLDTEXTSTYLE0
 11
-6.156016597943509E-15
 21
1.0
 31
0.0
 73
     1
 44
1.0
  0
ENDBLK
  5
21D
330
21B
100
AcDbEntity
  8
0
100
AcDbBlockEnd
  0
BLOCK
  5
228
330
227
100
AcDbEntity
  8
0
100
AcDbBlockBegin
  2
_D_3
 70
     0
 10
0.0
 20
0.0
 30
0.0
  3
_D_3
  1

  0
SOLID
  5
22A
330
227
100
AcDbEntity
  8
VERMASSUNG
100
AcDbTrace
 10
186.3340977008
 20
85.270307276
 30
0.0
 11
189.3340977008
 21
84.820307276
 31
0.0
 12
189.3340977008
 22
85.720307276
 32
0.0
 13
189.3340977008
 23
85.720307276
 33
0.0
  0
SOLID
  5
22B
330
227
100
AcDbEntity
  8
VERMASSUNG
100
AcDbTrace
 10
230.8058142774
 20
85.270307276
 30
0.0
 11
227.8058142774
 21
85.720307276
 31
0.0
 12
227.8058142774
 22
84.820307276
 32
0.0
 13
227.8058142774
 23
84.820307276
 33
0.0
  0
LINE
  5
22C
330
227
100
AcDbEntity
  8
VERMASSUNG
100
AcDbLine
 10
186.3340977008
 20
98.8797527505
 30
0.0
 11
186.3340977008
 21
84.270307276
 31
0.0
  0
LINE
  5
22D
330
227
100
AcDbEntity
  8
VERMASSUNG
100
AcDbLine
 10
230.8058142774
 20
104.2285337338
 30
0.0
 11
230.8058142774
 21
84.270307276
 31
0.0
  0
LINE
  5
22E
330
227
100
AcDbEntity
  8
VERMASSUNG
100
AcDbLine
 10
186.3340977008
 20
85.270307276
 30
0.0
 11
230.8058142774
 21
85.270307276
 31
0.0
  0
MTEXT
  5
22F
330
227
100
AcDbEntity
  8
VERMASSUNG
100
AcDbMText
 10
205.969955982
 20
87.848442872
 30
0.0
 40
2.0
 41
0.0
 71
     1
 72
     1
  1
44.5
  7
SLDTEXTSTYLE0
 73
     1
 44
1.0
  0
ENDBLK
  5
229
330
227
100
AcDbEntity
  8
0
100
AcDbBlockEnd
  0
BLOCK
  5
232
330
231
100
AcDbEntity
  8
0
100
AcDbBlockBegin
  2
_D_4
 70
     0
 10
0.0
 20
0.0
 30
0.0
  3
_D_4
  1

  0
SOLID
  5
234
330
231
100
AcDbEntity
  8
VERMASSUNG
100
AcDbTrace
 10
128.8058142774
 20
78.1866496274
 30
0.0
 11
131.8058142774
 21
77.7366496274
 31
0.0
 12
131.8058142774
 22
78.6366496274
 32
0.0
 13
131.8058142774
 23
78.6366496274
 33
0.0
  0
SOLID
  5
235
330
231
100
AcDbEntity
  8
VERMASSUNG
100
AcDbTrace
 10
230.8058142774
 20
78.1866496274
 30
0.0
 11
227.8058142774
 21
78.6366496274
 31
0.0
 12
227.8058142774
 22
77.7366496274
 32
0.0
 13
227.8058142774
 23
77.7366496274
 33
0.0
  0
LINE
  5
236
330
231
100
AcDbEntity
  8
VERMASSUNG
100
AcDbLine
 10
128.8058142774
 20
84.4047527505
 30
0.0
 11
128.8058142774
 21
77.1866496274
 31
0.0
  0
LINE
  5
237
330
231
100
AcDbEntity
  8
VERMASSUNG
100
AcDbLine
 10
230.8058142774
 20
104.2285337338
 30
0.0
 11
230.8058142774
 21
77.1866496274
 31
0.0
  0
LINE
  5
238
330
231
100
AcDbEntity
  8
VERMASSUNG
100
AcDbLine
 10
128.8058142774
 20
78.1866496274
 30
0.0
 11
230.8058142774
 21
78.1866496274
 31
0.0
  0
MTEXT
  5
239
330
231
100
AcDbEntity
  8
VERMASSUNG
100
AcDbMText
 10
177.9058142453
 20
80.7647852234
 30
0.0
 40
2.0
 41
0.0
 71
     1
 72
     1
  1
102
  7
SLDTEXTSTYLE0
 73
     1
 44
1.0
  0
ENDBLK
  5
233
330
231
100
AcDbEntity
  8
0
100
AcDbBlockEnd
  0
BLOCK
  5
23C
330
23B
100
AcDbEntity
  8
0
100
AcDbBlockBegin
  2
_D_5
 70
     0
 10
0.0
 20
0.0
 30
0.0
  3
_D_5
  1

  0
SOLID
  5
23E
330
23B
100
AcDbEntity
  8
VERMASSUNG
100
AcDbTrace
 10
181.3058142774
 20
149.394113908
 30
0.0
 11
184.3058142774
 21
148.944113908
 31
0.0
 12
184.3058142774
 22
149.844113908
 32
0.0
 13
184.3058142774
 23
149.844113908
 33
0.0
  0
SOLID
  5
23F
330
23B
100
AcDbEntity
  8
VERMASSUNG
100
AcDbTrace
 10
230.8058142774
 20
149.394113908
 30
0.0
 11
227.8058142774
 21
149.844113908
 31
0.0
 12
227.8058142774
 22
148.944113908
 32
0.0
 13
227.8058142774
 23
148.944113908
 33
0.0
  0
LINE
  5
240
330
23B
100
AcDbEntity
  8
VERMASSUNG
100
AcDbLine
 10
181.3058142774
 20
123.7797527505
 30
0.0
 11
181.3058142774
 21
150.394113908
 31
0.0
  0
LINE
  5
241
330
23B
100
AcDbEntity
  8
VERMASSUNG
100
AcDbLine
 10
230.8058142774
 20
127.5309717672
 30
0.0
 11
230.8058142774
 21
150.394113908
 31
0.0
  0
LINE
  5
242
330
23B
100
AcDbEntity
  8
VERMASSUNG
100
AcDbLine
 10
181.3058142774
 20
149.394113908
 30
0.0
 11
230.8058142774
 21
149.394113908
 31
0.0
  0
MTEXT
  5
243
330
23B
100
AcDbEntity
  8
VERMASSUNG
100
AcDbMText
 10
203.5558143333
 20
151.972249504
 30
0.0
 40
2.0
 41
0.0
 71
     1
 72
     1
  1
49.5
  7
SLDTEXTSTYLE0
 73
     1
 44
1.0
  0
ENDBLK
  5
23D
330
23B
100
AcDbEntity
  8
0
100
AcDbBlockEnd
  0
BLOCK
  5
246
330
245
100
AcDbEntity
  8
0
100
AcDbBlockBegin
  2
_D_6
 70
     0
 10
0.0
 20
0.0
 30
0.0
  3
_D_6
  1

  0
SOLID
  5
248
330
245
100
AcDbEntity
  8
VERMASSUNG
100
AcDbTrace
 10
191.8058142774
 20
142.4743619328
 30
0.0
 11
194.8058142774
 21
142.0243619328
 31
0.0
 12
194.8058142774
 22
142.9243619328
 32
0.0
 13
194.8058142774
 23
142.9243619328
 33
0.0
  0
SOLID
  5
249
330
245
100
AcDbEntity
  8
VERMASSUNG
100
AcDbTrace
 10
230.8058142774
 20
142.4743619328
 30
0.0
 11
227.8058142774
 21
142.9243619328
 31
0.0
 12
227.8058142774
 22
142.0243619328
 32
0.0
 13
227.8058142774
 23
142.0243619328
 33
0.0
  0
LINE
  5
24A
330
245
100
AcDbEntity
  8
VERMASSUNG
100
AcDbLine
 10
191.8058142774
 20
123.8797527505
 30
0.0
 11
191.8058142774
 21
143.4743619328
 31
0.0
  0
LINE
  5
24B
330
245
100
AcDbEntity
  8
VERMASSUNG
100
AcDbLine
 10
230.8058142774
 20
127.5309717672
 30
0.0
 11
230.8058142774
 21
143.4743619328
 31
0.0
  0
LINE
  5
24C
330
245
100
AcDbEntity
  8
VERMASSUNG
100
AcDbLine
 10
191.8058142774
 20
142.4743619328
 30
0.0
 11
230.8058142774
 21
142.4743619328
 31
0.0
  0
MTEXT
  5
24D
330
245
100
AcDbEntity
  8
VERMASSUNG
100
AcDbMText
 10
209.9058143273
 20
145.0524975288
 30
0.0
 40
2.0
 41
0.0
 71
     1
 72
     1
  1
39
  7
SLDTEXTSTYLE0
 73
     1
 44
1.0
  0
ENDBLK
  5
247
330
245
100
AcDbEntity
  8
0
100
AcDbBlockEnd
  0
BLOCK
  5
250
330
24F
100
AcDbEntity
  8
0
100
AcDbBlockBegin
  2
_D_7
 70
     0
 10
0.0
 20
0.0
 30
0.0
  3
_D_7
  1

  0
SOLID
  5
252
330
24F
100
AcDbEntity
  8
VERMASSUNG
100
AcDbTrace
 10
110.8058142774
 20
157.3547527505
 30
0.0
 11
113.8058142774
 21
156.9047527505
 31
0.0
 12
113.8058142774
 22
157.8047527505
 32
0.0
 13
113.8058142774
 23
157.8047527505
 33
0.0
  0
SOLID
  5
253
330
24F
100
AcDbEntity
  8
VERMASSUNG
100
AcDbTrace
 10
230.8058142774
 20
157.3547527505
 30
0.0
 11
227.8058142774
 21
157.8047527505
 31
0.0
 12
227.8058142774
 22
156.9047527505
 32
0.0
 13
227.8058142774
 23
156.9047527505
 33
0.0
  0
LINE
  5
254
330
24F
100
AcDbEntity
  8
VERMASSUNG
100
AcDbLine
 10
110.8058142774
 20
147.1547527505
 30
0.0
 11
110.8058142774
 21
158.3547527505
 31
0.0
  0
LINE
  5
255
330
24F
100
AcDbEntity
  8
VERMASSUNG
100
AcDbLine
 10
230.8058142774
 20
127.5309717672
 30
0.0
 11
230.8058142774
 21
158.3547527505
 31
0.0
  0
LINE
  5
256
330
24F
100
AcDbEntity
  8
VERMASSUNG
100
AcDbLine
 10
110.8058142774
 20
157.3547527505
 30
0.0
 11
230.8058142774
 21
157.3547527505
 31
0.0
  0
MTEXT
  5
257
330
24F
100
AcDbEntity
  8
VERMASSUNG
100
AcDbMText
 10
168.9058142453
 20
159.9328883464
 30
0.0
 40
2.0
 41
0.0
 71
     1
 72
     1
  1
120
  7
SLDTEXTSTYLE0
 73
     1
 44
1.0
  0
ENDBLK
  5
251
330
24F
100
AcDbEntity
  8
0
100
AcDbBlockEnd
  0
BLOCK
  5
25A
330
259
100
AcDbEntity
  8
0
100
AcDbBlockBegin
  2
_D_8
 70
     0
 10
0.0
 20
0.0
 30
0.0
  3
_D_8
  1

  0
SOLID
  5
25C
330
259
100
AcDbEntity
  8
VERMASSUNG
100
AcDbTrace
 10
230.8058142774
 20
164.4682107983
 30
0.0
 11
227.8058142774
 21
164.9182107983
 31
0.0
 12
227.8058142774
 22
164.0182107983
 32
0.0
 13
227.8058142774
 23
164.0182107983
 33
0.0
  0
SOLID
  5
25D
330
259
100
AcDbEntity
  8
VERMASSUNG
100
AcDbTrace
 10
70.8558142774
 20
164.4682107983
 30
0.0
 11
73.8558142774
 21
164.0182107983
 31
0.0
 12
73.8558142774
 22
164.9182107983
 32
0.0
 13
73.8558142774
 23
164.9182107983
 33
0.0
  0
LINE
  5
25E
330
259
100
AcDbEntity
  8
VERMASSUNG
100
AcDbLine
 10
230.8058142774
 20
127.5309717672
 30
0.0
 11
230.8058142774
 21
165.4682107983
 31
0.0
  0
LINE
  5
25F
330
259
100
AcDbEntity
  8
VERMASSUNG
100
AcDbLine
 10
70.8558142774
 20
138.0828474743
 30
0.0
 11
70.8558142774
 21
165.4682107983
 31
0.0
  0
LINE
  5
260
330
259
100
AcDbEntity
  8
VERMASSUNG
100
AcDbLine
 10
230.8058142774
 20
164.4682107983
 30
0.0
 11
70.8558142774
 21
164.4682107983
 31
0.0
  0
MTEXT
  5
261
330
259
100
AcDbEntity
  8
VERMASSUNG
100
AcDbMText
 10
147.2308143392
 20
167.0463463943
 30
0.0
 40
2.0
 41
0.0
 71
     1
 72
     1
  1
159.95
  7
SLDTEXTSTYLE0
 73
     1
 44
1.0
  0
ENDBLK
  5
25B
330
259
100
AcDbEntity
  8
0
100
AcDbBlockEnd
  0
BLOCK
  5
264
330
263
100
AcDbEntity
  8
0
100
AcDbBlockBegin
  2
_D_9
 70
     0
 10
0.0
 20
0.0
 30
0.0
  3
_D_9
  1

  0
SOLID
  5
266
330
263
100
AcDbEntity
  8
VERMASSUNG
100
AcDbTrace
 10
48.8557892774
 20
147.3547527505
 30
0.0
 11
48.4057892774
 21
144.3547527505
 31
0.0
 12
49.3057892774
 22
144.3547527505
 32
0.0
 13
49.3057892774
 23
144.3547527505
 33
0.0
  0
SOLID
  5
267
330
263
100
AcDbEntity
  8
VERMASSUNG
100
AcDbTrace
 10
48.8557892774
 20
84.4047527505
 30
0.0
 11
49.3057892774
 21
87.4047527505
 31
0.0
 12
48.4057892774
 22
87.4047527505
 32
0.0
 13
48.4057892774
 23
87.4047527505
 33
0.0
  0
LINE
  5
268
330
263
100
AcDbEntity
  8
VERMASSUNG
100
AcDbLine
 10
111.0058142774
 20
147.3547527505
 30
0.0
 11
47.8557892774
 21
147.3547527505
 31
0.0
  0
LINE
  5
269
330
263
100
AcDbEntity
  8
VERMASSUNG
100
AcDbLine
 10
111.0058142774
 20
84.4047527505
 30
0.0
 11
47.8557892774
 21
84.4047527505
 31
0.0
  0
LINE
  5
26A
330
263
100
AcDbEntity
  8
VERMASSUNG
100
AcDbLine
 10
48.8557892774
 20
147.3547527505
 30
0.0
 11
48.8557892774
 21
84.4047527505
 31
0.0
  0
MTEXT
  5
26B
330
263
100
AcDbEntity
  8
VERMASSUNG
100
AcDbMText
 10
46.0776540212
 20
107.7747541321
 30
0.0
 40
2.0
 41
0.0
 71
     1
 72
     1
  1
KM
  7
SLDTEXTSTYLE0
 11
-6.156016597943509E-15
 21
1.0
 31
0.0
 73
     1
 44
1.0
  0
MTEXT
  5
26C
330
263
100
AcDbEntity
  8
VERMASSUNG
100
AcDbMText
 10
46.2776539724
 20
111.1747539444
 30
0.0
 40
2.0
 41
0.0
 71
     1
 72
     1
  1
%%c
  7
SLDTEXTSTYLE0
 11
-6.156016597943509E-15
 21
1.0
 31
0.0
 73
     1
 44
1.0
  0
MTEXT
  5
26D
330
263
100
AcDbEntity
  8
VERMASSUNG
100
AcDbMText
 10
46.0776540212
 20
114.7847539587
 30
0.0
 40
2.0
 41
0.0
 71
     1
 72
     1
  1
63
  7
SLDTEXTSTYLE0
 11
-6.156016597943509E-15
 21
1.0
 31
0.0
 73
     1
 44
1.0
  0
MTEXT
  5
26E
330
263
100
AcDbEntity
  8
VERMASSUNG
100
AcDbMText
 10
46.0776540212
 20
118.7722538588
 30
0.0
 40
2.0
 41
0.0
 71
     1
 72
     1
  1
XMZ
  7
SLDTEXTSTYLE0
 11
-6.156016597943509E-15
 21
1.0
 31
0.0
 73
     1
 44
1.0
  0
ENDBLK
  5
265
330
263
100
AcDbEntity
  8
0
100
AcDbBlockEnd
  0
ENDSEC
  0
SECTION
  2
ENTITIES
  0
MTEXT
  5
78
330
1F
100
AcDbEntity
  8
KOPF_DÜNN
100
AcDbMText
 10
13.8892156294
 20
23.8442973028
 30
0.0
 40
3.0
 41
0.0
 71
     1
 72
     1
  1
KY6.S16.K01.120
  7
SLDTEXTSTYLE0
 73
     1
 44
1.0
  0
MTEXT
  5
79
330
1F
100
AcDbEntity
  8
VERMASSUNG
100
AcDbMText
 10
13.9329988022
 20
28.8834360957
 30
0.0
 40
3.0
 41
0.0
 71
     1
 72
     1
  1
Schrumpffutter_Heat shrink chuck
  7
SLDTEXTSTYLE0
 73
     1
 44
1.0
  0
MTEXT
  5
7A
330
1F
100
AcDbEntity
  8
VERMASSUNG
100
AcDbMText
 10
98.8601118557
 20
13.8365368761
 30
0.0
 40
2.0
 41
0.0
 71
     1
 72
     1
  1
Datum: 16.02.2018
  7
SLDTEXTSTYLE0
 73
     1
 44
1.0
  0
MTEXT
  5
7B
330
1F
100
AcDbEntity
  8
VERMASSUNG
100
AcDbMText
 10
13.933048693
 20
18.0482802738
 30
0.0
 40
2.0
 41
0.0
 71
     1
 72
     1
  1
KM63 XMZ / Ø16
  7
SLDTEXTSTYLE0
 73
     1
 44
1.0
  0
MTEXT
  5
7C
330
1F
100
AcDbEntity
  8
VERMASSUNG
100
AcDbMText
 10
13.9808475933
 20
13.9090974274
 30
0.0
 40
2.0
 41
0.0
 71
     1
 72
     1
  1
Gewicht: 1185g
  7
SLDTEXTSTYLE0
 73
     1
 44
1.0
  0
CIRCLE
  5
7D
330
1F
100
AcDbEntity
  8
0
  6
Continuous
 62
     7
370
    25
100
AcDbCircle
 10
357.1740474185
 20
115.8797527505
 30
0.0
 40
1.849999999999979
  0
SPLINE
  5
7E
330
1F
100
AcDbEntity
  8
0
  6
Continuous
 62
     7
370
    25
100
AcDbSpline
210
0.0
220
0.0
230
1.0
 70
     8
 71
     3
 72
    11
 73
     7
 74
     0
 42
0.000000001
 43
0.00000001
 40
0.0
 40
0.0
 40
0.0
 40
0.0
 40
0.1234466727345278
 40
0.4778177359845583
 40
0.81458141317089
 40
1.0
 40
1.0
 40
1.0
 40
1.0
 10
358.8054628675654
 20
116.461546353967
 30
0.0
 10
358.7934081856325
 20
116.3956895537316
 30
0.0
 10
358.7467488411431
 20
116.1407815315823
 30
0.0
 10
358.6589197882431
 20
115.6609559405014
 30
0.0
 10
358.5630542567313
 20
115.1372262952848
 30
0.0
 10
358.5118020555685
 20
114.857226037004
 30
0.0
 10
358.493603217028
 20
114.7578024146791
 30
0.0
  0
SPLINE
  5
7F
330
1F
100
AcDbEntity
  8
0
  6
Continuous
 62
     7
370
    25
100
AcDbSpline
210
0.0
220
0.0
230
1.0
 70
     8
 71
     3
 72
    11
 73
     7
 74
     0
 42
0.000000001
 43
0.00000001
 40
0.0
 40
0.0
 40
0.0
 40
0.0
 40
0.2164553920803214
 40
0.4403113588452198
 40
0.7519007546236887
 40
1.0
 40
1.0
 40
1.0
 40
1.0
 10
357.4859070690199
 20
117.5834966897677
 30
0.0
 10
357.5762979296462
 20
117.5066420075586
 30
0.0
 10
357.7601700997364
 20
117.3503049940433
 30
0.0
 10
358.101387632756
 20
117.0601851937941
 30
0.0
 10
358.4674043746222
 20
116.7489800930073
 30
0.0
 10
358.7016335599084
 20
116.5498270708986
 30
0.0
 10
358.8054628675654
 20
116.461546353967
 30
0.0
  0
SPLINE
  5
80
330
1F
100
AcDbEntity
  8
0
  6
Continuous
 62
     7
370
    25
100
AcDbSpline
210
0.0
220
0.0
230
1.0
 70
     8
 71
     3
 72
    11
 73
     7
 74
     0
 42
0.000000001
 43
0.00000001
 40
0.0
 40
0.0
 40
0.0
 40
0.0
 40
0.2164554114603034
 40
0.4403113880397639
 40
0.7519007861324442
 40
0.9999999999999999
 40
0.9999999999999999
 40
0.9999999999999999
 40
0.9999999999999999
 10
355.8544916199371
 20
117.0017030862804
 30
0.0
 10
355.9662451806536
 20
117.0415565070159
 30
0.0
 10
356.1935731328886
 20
117.122625928583
 30
0.0
 10
356.6154330121433
 20
117.273069164896
 30
0.0
 10
357.0679529221049
 20
117.434446367561
 30
0.0
 10
357.3575390843006
 20
117.5377182482217
 30
0.0
 10
357.4859070690199
 20
117.5834966897677
 30
0.0
  0
SPLINE
  5
81
330
1F
100
AcDbEntity
  8
0
  6
Continuous
 62
     7
370
    25
100
AcDbSpline
210
0.0
220
0.0
230
1.0
 70
     8
 71
     3
 72
    11
 73
     7
 74
     0
 42
0.000000001
 43
0.00000001
 40
0.0
 40
0.0
 40
0.0
 40
0.0
 40
0.1854185974715213
 40
0.5221822902316107
 40
0.8765533378886127
 40
1.0
 40
1.0
 40
1.0
 40
1.0
 10
355.5426319693997
 20
115.2979591469924
 30
0.0
 10
355.5608308554563
 20
115.397382767828
 30
0.0
 10
355.6120831900676
 20
115.6773830199009
 30
0.0
 10
355.7079485938688
 20
116.201112693462
 30
0.0
 10
355.7957778097484
 20
116.680938251084
 30
0.0
 10
355.8424369826982
 20
116.9358462850468
 30
0.0
 10
355.8544916199371
 20
117.0017030862804
 30
0.0
  0
SPLINE
  5
82
330
1F
100
AcDbEntity
  8
0
  6
Continuous
 62
     7
370
    25
100
AcDbSpline
210
0.0
220
0.0
230
1.0
 70
     8
 71
     3
 72
    11
 73
     7
 74
     0
 42
0.000000001
 43
0.00000001
 40
0.0
 40
0.0
 40
0.0
 40
0.0
 40
0.2164554114603034
 40
0.4403113880397639
 40
0.7519007861324442
 40
0.9999999999999999
 40
0.9999999999999999
 40
0.9999999999999999
 40
0.9999999999999999
 10
358.493603217028
 20
114.7578024146791
 30
0.0
 10
358.3818496563115
 20
114.7179489939436
 30
0.0
 10
358.1545217040764
 20
114.6368795723764
 30
0.0
 10
357.7326618248217
 20
114.4864363360635
 30
0.0
 10
357.2801419148602
 20
114.3250591333985
 30
0.0
 10
356.9905557526645
 20
114.2217872527377
 30
0.0
 10
356.8621877679452
 20
114.1760088111918
 30
0.0
  0
SPLINE
  5
83
330
1F
100
AcDbEntity
  8
0
  6
Continuous
 62
     7
370
    25
100
AcDbSpline
210
0.0
220
0.0
230
1.0
 70
     8
 71
     3
 72
    11
 73
     7
 74
     0
 42
0.000000001
 43
0.00000001
 40
0.0
 40
0.0
 40
0.0
 40
0.0
 40
0.2164553920803214
 40
0.4403113588452198
 40
0.7519007546236887
 40
1.0
 40
1.0
 40
1.0
 40
1.0
 10
356.8621877679452
 20
114.1760088111918
 30
0.0
 10
356.7717969073189
 20
114.2528634934009
 30
0.0
 10
356.5879247372287
 20
114.4092005069162
 30
0.0
 10
356.2467072042091
 20
114.6993203071653
 30
0.0
 10
355.8806904623429
 20
115.0105254079521
 30
0.0
 10
355.6464612770567
 20
115.2096784300608
 30
0.0
 10
355.5426319693997
 20
115.2979591469924
 30
0.0
  0
ARC
  5
84
330
1F
100
AcDbEntity
  8
0
  6
Continuous
 62
     7
370
    25
100
AcDbCircle
 10
357.1740474185
 20
115.8797527505
 30
0.0
 40
1.500000000000007
100
AcDbArc
 50
169.6271967899
 51
229.6271967899
  0
ARC
  5
85
330
1F
100
AcDbEntity
  8
0
  6
Continuous
 62
     7
370
    25
100
AcDbCircle
 10
357.1740474185
 20
115.8797527505
 30
0.0
 40
1.500000000000007
100
AcDbArc
 50
229.6271967899
 51
289.6271967899
  0
ARC
  5
86
330
1F
100
AcDbEntity
  8
0
  6
Continuous
 62
     7
370
    25
100
AcDbCircle
 10
357.1740474185
 20
115.8797527505
 30
0.0
 40
1.500000000000007
100
AcDbArc
 50
49.6271967899
 51
109.6271967899
  0
ARC
  5
87
330
1F
100
AcDbEntity
  8
0
  6
Continuous
 62
     7
370
    25
100
AcDbCircle
 10
357.1740474185
 20
115.8797527505
 30
0.0
 40
1.499999999999988
100
AcDbArc
 50
109.6271967899
 51
169.6271967899
  0
ARC
  5
88
330
1F
100
AcDbEntity
  8
0
  6
Continuous
 62
     7
370
    25
100
AcDbCircle
 10
357.1740474185
 20
115.8797527505
 30
0.0
 40
1.500000000000034
100
AcDbArc
 50
349.6271967899
 51
49.6271967899
  0
ARC
  5
89
330
1F
100
AcDbEntity
  8
0
  6
Continuous
 62
     7
370
    25
100
AcDbCircle
 10
357.1740474185
 20
115.8797527505
 30
0.0
 40
1.500000000000034
100
AcDbArc
 50
289.6271967899
 51
349.6271967899
  0
SPLINE
  5
8A
330
1F
100
AcDbEntity
  8
0
  6
Continuous
 62
     7
370
    25
100
AcDbSpline
210
0.0
220
0.0
230
1.0
 70
     8
 71
     3
 72
     8
 73
     4
 74
     0
 42
0.000000001
 43
0.00000001
 40
0.0
 40
0.0
 40
0.0
 40
0.0
 40
1.0
 40
1.0
 40
1.0
 40
1.0
 10
346.7849073088497
 20
111.5097518785148
 30
0.0
 10
346.7160689386629
 20
111.446657205196
 30
0.0
 10
346.6476375782067
 20
111.3829348270651
 30
0.0
 10
346.5796213035421
 20
111.3185893947917
 30
0.0
  0
SPLINE
  5
8B
330
1F
100
AcDbEntity
  8
0
  6
Continuous
 62
     7
370
    25
100
AcDbSpline
210
0.0
220
0.0
230
1.0
 70
     8
 71
     3
 72
     8
 73
     4
 74
     0
 42
0.000000001
 43
0.00000001
 40
0.0
 40
0.0
 40
0.0
 40
0.0
 40
1.0
 40
1.0
 40
1.0
 40
1.0
 10
347.0429345501104
 20
111.3404900485875
 30
0.0
 10
346.9562311159499
 20
111.3966509682568
 30
0.0
 10
346.8702330684661
 20
111.4530757045826
 30
0.0
 10
346.7849073088497
 20
111.5097518785148
 30
0.0
  0
ARC
  5
8C
330
1F
100
AcDbEntity
  8
0
  6
Continuous
 62
     7
370
    25
100
AcDbCircle
 10
357.1740474185
 20
115.8797527505
 30
0.0
 40
11.10154736189901
100
AcDbArc
 50
204.1348482805
 51
335.8651517195
  0
SPLINE
  5
8D
330
1F
100
AcDbEntity
  8
0
  6
Continuous
 62
     7
370
    25
100
AcDbSpline
210
0.0
220
0.0
230
1.0
 70
     8
 71
     3
 72
     8
 73
     4
 74
     0
 42
0.000000001
 43
0.00000001
 40
0.0
 40
0.0
 40
0.0
 40
0.0
 40
1.0
 40
1.0
 40
1.0
 40
1.0
 10
367.5631875281154
 20
111.5097518785148
 30
0.0
 10
367.477861768499
 20
111.4530757045826
 30
0.0
 10
367.3918637210151
 20
111.3966509682568
 30
0.0
 10
367.3051602868547
 20
111.3404900485875
 30
0.0
  0
SPLINE
  5
8E
330
1F
100
AcDbEntity
  8
0
  6
Continuous
 62
     7
370
    25
100
AcDbSpline
210
0.0
220
0.0
230
1.0
 70
     8
 71
     3
 72
     8
 73
     4
 74
     0
 42
0.000000001
 43
0.00000001
 40
0.0
 40
0.0
 40
0.0
 40
0.0
 40
1.0
 40
1.0
 40
1.0
 40
1.0
 10
367.768473533423
 20
111.3185893947917
 30
0.0
 10
367.7004572587583
 20
111.3829348270651
 30
0.0
 10
367.6320258983022
 20
111.446657205196
 30
0.0
 10
367.5631875281154
 20
111.5097518785148
 30
0.0
  0
ARC
  5
8F
330
1F
100
AcDbEntity
  8
0
  6
Continuous
 62
     7
370
    25
100
AcDbCircle
 10
357.1740474185
 20
115.8797527505
 30
0.0
 40
11.53456006379117
100
AcDbArc
 50
203.2930774359
 51
336.7074733161
  0
ARC
  5
90
330
1F
100
AcDbEntity
  8
0
  6
Continuous
 62
     7
370
    25
100
AcDbCircle
 10
357.1740474185
 20
115.8797527505
 30
0.0
 40
11.10154736189899
100
AcDbArc
 50
29.4783538465
 51
150.5216461535
  0
SPLINE
  5
91
330
1F
100
AcDbEntity
  8
0
  6
Continuous
 62
     7
370
    25
100
AcDbSpline
210
0.0
220
0.0
230
1.0
 70
     8
 71
     3
 72
     8
 73
     4
 74
     0
 42
0.000000001
 43
0.00000001
 40
0.0
 40
0.0
 40
0.0
 40
0.0
 40
1.0
 40
1.0
 40
1.0
 40
1.0
 10
347.1981143691581
 20
121.1580519998689
 30
0.0
 10
347.301010282982
 20
121.2200206089599
 30
0.0
 10
347.4048499525369
 20
121.2815992611004
 30
0.0
 10
347.5096878407635
 20
121.3427654523719
 30
0.0
  0
SPLINE
  5
92
330
1F
100
AcDbEntity
  8
0
  6
Continuous
 62
     7
370
    25
100
AcDbSpline
210
0.0
220
0.0
230
1.0
 70
     8
 71
     3
 72
     8
 73
     4
 74
     0
 42
0.000000001
 43
0.00000001
 40
0.0
 40
0.0
 40
0.0
 40
0.0
 40
1.0
 40
1.0
 40
1.0
 40
1.0
 10
347.0095779880442
 20
121.3322418207385
 30
0.0
 10
347.0721462964138
 20
121.2737913516309
 30
0.0
 10
347.1349928897777
 20
121.2157273410979
 30
0.0
 10
347.1981143691605
 20
121.1580519998667
 30
0.0
  0
ARC
  5
93
330
1F
100
AcDbEntity
  8
0
  6
Continuous
 62
     7
370
    25
100
AcDbCircle
 10
357.1740474185
 20
115.8797527505
 30
0.0
 40
11.53456006379122
100
AcDbArc
 50
28.2102805322
 51
151.7902347364
  0
SPLINE
  5
94
330
1F
100
AcDbEntity
  8
0
  6
Continuous
 62
     7
370
    25
100
AcDbSpline
210
0.0
220
0.0
230
1.0
 70
     8
 71
     3
 72
     8
 73
     4
 74
     0
 42
0.000000001
 43
0.00000001
 40
0.0
 40
0.0
 40
0.0
 40
0.0
 40
1.0
 40
1.0
 40
1.0
 40
1.0
 10
367.1499804678049
 20
121.158051999867
 30
0.0
 10
367.2131019471876
 20
121.2157273410981
 30
0.0
 10
367.2759485405513
 20
121.2737913516311
 30
0.0
 10
367.3385168489208
 20
121.3322418207385
 30
0.0
  0
SPLINE
  5
95
330
1F
100
AcDbEntity
  8
0
  6
Continuous
 62
     7
370
    25
100
AcDbSpline
210
0.0
220
0.0
230
1.0
 70
     8
 71
     3
 72
     8
 73
     4
 74
     0
 42
0.000000001
 43
0.00000001
 40
0.0
 40
0.0
 40
0.0
 40
0.0
 40
1.0
 40
1.0
 40
1.0
 40
1.0
 10
366.8384069962016
 20
121.3427654523719
 30
0.0
 10
366.9432448844278
 20
121.2815992611007
 30
0.0
 10
367.0470845539822
 20
121.2200206089603
 30
0.0
 10
367.1499804678058
 20
121.1580519998696
 30
0.0
  0
SPLINE
  5
96
330
1F
100
AcDbEntity
  8
0
  6
Continuous
 62
     7
370
    25
100
AcDbSpline
210
0.0
220
0.0
230
1.0
 70
     8
 71
     3
 72
     8
 73
     4
 74
     0
 42
0.000000001
 43
0.00000001
 40
0.0000004028655191
 40
0.0000004028655191
 40
0.0000004028655191
 40
0.0000004028655191
 40
0.0015137684369673
 40
0.0015137684369673
 40
0.0015137684369673
 40
0.0015137684369673
 10
348.7504527613405
 20
111.5574773466953
 30
0.0
 10
348.5437812737892
 20
111.4851834049806
 30
0.0
 10
348.3371623052485
 20
111.4128519190238
 30
0.0
 10
348.1305859304399
 20
111.3404900485875
 30
0.0
  0
LINE
  5
97
330
1F
100
AcDbEntity
  8
0
  6
Continuous
 62
     7
370
    25
100
AcDbLine
 10
348.1305857753
 20
111.3404902471
 30
0.0
 11
347.0429341873
 21
111.3404902471
 31
0.0
  0
LINE
  5
98
330
1F
100
AcDbEntity
  8
0
  6
Continuous
 62
     7
370
    25
100
AcDbLine
 10
347.0079620933
 20
111.7735026246
 30
0.0
 11
346.7849075427
 21
111.5097520714
 31
0.0
  0
LINE
  5
99
330
1F
100
AcDbEntity
  8
0
  6
Continuous
 62
     7
370
    25
100
AcDbLine
 10
348.7755722931
 20
111.7735026246
 30
0.0
 11
347.0081772288
 21
111.7735026246
 31
0.0
  0
LINE
  5
9A
330
1F
100
AcDbEntity
  8
0
  6
Continuous
 62
     7
370
    25
100
AcDbLine
 10
348.7862294173
 20
111.6159219136
 30
0.0
 11
348.7755722931
 21
111.7735026246
 31
0.0
  0
SPLINE
  5
9B
330
1F
100
AcDbEntity
  8
0
  6
Continuous
 62
     7
370
    25
100
AcDbSpline
210
0.0
220
0.0
230
1.0
 70
     8
 71
     3
 72
     8
 73
     4
 74
     0
 42
0.000000001
 43
0.00000001
 40
0.0006523765358269
 40
0.0006523765358269
 40
0.0006523765358269
 40
0.0006523765358269
 40
0.0009043636494504
 40
0.0009043636494504
 40
0.0009043636494504
 40
0.0009043636494504
 10
348.7873296363753
 20
111.6177154441439
 30
0.0
 10
348.7750126418579
 20
111.5976398631617
 30
0.0
 10
348.7627204444538
 20
111.5775604746393
 30
0.0
 10
348.7504527613405
 20
111.5574773466953
 30
0.0
  0
LINE
  5
9C
330
1F
100
AcDbEntity
  8
0
  6
Continuous
 62
     7
370
    25
100
AcDbLine
 10
347.1981139487
 20
121.1580518475
 30
0.0
 11
347.4065225204
 21
120.9097528672
 31
0.0
  0
LINE
  5
9D
330
1F
100
AcDbEntity
  8
0
  6
Continuous
 62
     7
370
    25
100
AcDbLine
 10
348.6567364639
 20
121.3427652446
 30
0.0
 11
347.509687916
 21
121.3427652446
 31
0.0
  0
SPLINE
  5
9E
330
1F
100
AcDbEntity
  8
0
  6
Continuous
 62
     7
370
    25
100
AcDbSpline
210
0.0
220
0.0
230
1.0
 70
     8
 71
     3
 72
     8
 73
     4
 74
     0
 42
0.000000001
 43
0.00000001
 40
0.0000004089325119
 40
0.0000004089325119
 40
0.0000004089325119
 40
0.0000004089325119
 40
0.0015399868451459
 40
0.0015399868451459
 40
0.0015399868451459
 40
0.0015399868451459
 10
348.6567360010537
 20
121.3427654523719
 30
0.0
 10
348.8684972598481
 20
121.2703105697185
 30
0.0
 10
349.0804175830383
 20
121.19797169969
 30
0.0
 10
349.2925355662526
 20
121.1257781542642
 30
0.0
  0
LINE
  5
9F
330
1F
100
AcDbEntity
  8
0
  6
Continuous
 62
     7
370
    25
100
AcDbLine
 10
349.2925354844
 20
121.1257782606
 30
0.0
 11
349.3006882822
 21
121.110565572
 31
0.0
  0
LINE
  5
A0
330
1F
100
AcDbEntity
  8
0
  6
Continuous
 62
     7
370
    25
100
AcDbLine
 10
349.2983180662
 20
120.9097528672
 30
0.0
 11
349.3006892135
 21
121.1105660377
 31
0.0
  0
LINE
  5
A1
330
1F
100
AcDbEntity
  8
0
  6
Continuous
 62
     7
370
    25
100
AcDbLine
 10
349.2983180662
 20
120.9097528672
 30
0.0
 11
347.4065225204
 21
120.9097528672
 31
0.0
  0
LINE
  5
A2
330
1F
100
AcDbEntity
  8
0
  6
Continuous
 62
     7
370
    25
100
AcDbLine
 10
367.5631872943
 20
111.5097520714
 30
0.0
 11
367.3401327437
 21
111.7735026246
 31
0.0
  0
LINE
  5
A3
330
1F
100
AcDbEntity
  8
0
  6
Continuous
 62
     7
370
    25
100
AcDbLine
 10
367.3051606497
 20
111.3404902471
 30
0.0
 11
366.2175090616
 21
111.3404902471
 31
0.0
  0
SPLINE
  5
A4
330
1F
100
AcDbEntity
  8
0
  6
Continuous
 62
     7
370
    25
100
AcDbSpline
210
0.0
220
0.0
230
1.0
 70
     8
 71
     3
 72
     8
 73
     4
 74
     0
 42
0.000000001
 43
0.00000001
 40
0.0000004024872366
 40
0.0000004024872366
 40
0.0000004024872366
 40
0.0000004024872366
 40
0.0015137680586847
 40
0.0015137680586847
 40
0.0015137680586847
 40
0.0015137680586847
 10
366.2175089065252
 20
111.3404900485875
 30
0.0
 10
366.0109325317165
 20
111.4128519190238
 30
0.0
 10
365.8043135631759
 20
111.4851834049806
 30
0.0
 10
365.5976420756246
 20
111.5574773466953
 30
0.0
  0
SPLINE
  5
A5
330
1F
100
AcDbEntity
  8
0
  6
Continuous
 62
     7
370
    25
100
AcDbSpline
210
0.0
220
0.0
230
1.0
 70
     8
 71
     3
 72
     8
 73
     4
 74
     0
 42
0.000000001
 43
0.00000001
 40
0.0000002414707367
 40
0.0000002414707367
 40
0.0000002414707367
 40
0.0000002414707367
 40
0.0002447240690309
 40
0.0002447240690309
 40
0.0002447240690309
 40
0.0002447240690309
 10
365.5976420756246
 20
111.5574773466953
 30
0.0
 10
365.5857397402696
 20
111.5769623726419
 30
0.0
 10
365.5738143290578
 20
111.5964438784662
 30
0.0
 10
365.5618655837629
 20
111.6159218019781
 30
0.0
  0
LINE
  5
A6
330
1F
100
AcDbEntity
  8
0
  6
Continuous
 62
     7
370
    25
100
AcDbLine
 10
365.5725225439
 20
111.7735026246
 30
0.0
 11
365.5618654197
 21
111.6159219136
 31
0.0
  0
LINE
  5
A7
330
1F
100
AcDbEntity
  8
0
  6
Continuous
 62
     7
370
    25
100
AcDbLine
 10
367.3401327437
 20
111.7735026246
 30
0.0
 11
365.5674142396
 21
111.7735026246
 31
0.0
  0
SPLINE
  5
A8
330
1F
100
AcDbEntity
  8
0
  6
Continuous
 62
     7
370
    25
100
AcDbSpline
210
0.0
220
0.0
230
1.0
 70
     8
 71
     3
 72
     8
 73
     4
 74
     0
 42
0.000000001
 43
0.00000001
 40
0.000000410413179
 40
0.000000410413179
 40
0.000000410413179
 40
0.000000410413179
 40
0.0015399883258131
 40
0.0015399883258131
 40
0.0015399883258131
 40
0.0015399883258131
 10
365.0555592707125
 20
121.1257781542642
 30
0.0
 10
365.2676772539268
 20
121.19797169969
 30
0.0
 10
365.479597577117
 20
121.2703105697185
 30
0.0
 10
365.6913588359114
 20
121.3427654523719
 30
0.0
  0
LINE
  5
A9
330
1F
100
AcDbEntity
  8
0
  6
Continuous
 62
     7
370
    25
100
AcDbLine
 10
366.838406921
 20
121.3427652446
 30
0.0
 11
365.6913583731
 21
121.3427652446
 31
0.0
  0
LINE
  5
AA
330
1F
100
AcDbEntity
  8
0
  6
Continuous
 62
     7
370
    25
100
AcDbLine
 10
366.9415723165
 20
120.9097528672
 30
0.0
 11
367.1499808883
 21
121.1580518475
 31
0.0
  0
LINE
  5
AB
330
1F
100
AcDbEntity
  8
0
  6
Continuous
 62
     7
370
    25
100
AcDbLine
 10
366.9413823267
 20
120.9097528672
 30
0.0
 11
365.0497767707
 21
120.9097528672
 31
0.0
  0
LINE
  5
AC
330
1F
100
AcDbEntity
  8
0
  6
Continuous
 62
     7
370
    25
100
AcDbLine
 10
365.0474056234
 20
121.110565572
 30
0.0
 11
365.0497767707
 21
120.9097528672
 31
0.0
  0
LINE
  5
AD
330
1F
100
AcDbEntity
  8
0
  6
Continuous
 62
     7
370
    25
100
AcDbLine
 10
365.0474065548
 20
121.110565572
 30
0.0
 11
365.0555593526
 21
121.1257782606
 31
0.0
  0
ARC
  5
AE
330
1F
100
AcDbEntity
  8
0
  6
Continuous
 62
     7
370
    25
100
AcDbCircle
 10
357.1740474185
 20
115.8797527505
 30
0.0
 40
10.11875000000003
100
AcDbArc
 50
32.6761561262
 51
147.3238438738
  0
ARC
  5
AF
330
1F
100
AcDbEntity
  8
0
  6
Continuous
 62
     7
370
    25
100
AcDbCircle
 10
357.1740474185
 20
115.8797527505
 30
0.0
 40
10.11875
100
AcDbArc
 50
206.6538426687
 51
333.3461573313
  0
ARC
  5
B0
330
1F
100
AcDbEntity
  8
0
  6
Continuous
 62
     7
370
    25
100
AcDbCircle
 10
357.1740474185
 20
115.8797527505
 30
0.0
 40
9.467788105676664
100
AcDbArc
 50
207.1630537883
 51
332.8369462117
  0
ARC
  5
B1
330
1F
100
AcDbEntity
  8
0
  6
Continuous
 62
     7
370
    25
100
AcDbCircle
 10
357.1740474185
 20
115.8797527505
 30
0.0
 40
9.467788105676675
100
AcDbArc
 50
33.6481949792
 51
146.3518050208
  0
SPLINE
  5
B2
330
1F
100
AcDbEntity
  8
0
  6
Continuous
 62
     7
370
    25
100
AcDbSpline
210
0.0
220
0.0
230
1.0
 70
     8
 71
     3
 72
     8
 73
     4
 74
     0
 42
0.000000001
 43
0.00000001
 40
0.0
 40
0.0
 40
0.0
 40
0.0
 40
1.0
 40
1.0
 40
1.0
 40
1.0
 10
346.579621303352
 20
111.318589394903
 30
0.0
 10
346.5263784784104
 20
111.3191131211409
 30
0.0
 10
346.4730831927947
 20
111.3199112144032
 30
0.0
 10
346.4197376873053
 20
111.3209842623281
 30
0.0
  0
LINE
  5
B3
330
1F
100
AcDbEntity
  8
0
  6
Continuous
 62
     7
370
    25
100
AcDbLine
 10
346.8478249019
 20
111.7735026246
 30
0.0
 11
347.0079620933
 21
111.7735026246
 31
0.0
  0
LINE
  5
B4
330
1F
100
AcDbEntity
  8
0
  6
Continuous
 62
     7
370
    25
100
AcDbLine
 10
367.3401327437
 20
111.7735026246
 30
0.0
 11
367.5002699351
 21
111.7735026246
 31
0.0
  0
SPLINE
  5
B5
330
1F
100
AcDbEntity
  8
0
  6
Continuous
 62
     7
370
    25
100
AcDbSpline
210
0.0
220
0.0
230
1.0
 70
     8
 71
     3
 72
     8
 73
     4
 74
     0
 42
0.000000001
 43
0.00000001
 40
0.0
 40
0.0
 40
0.0
 40
0.0
 40
1.0
 40
1.0
 40
1.0
 40
1.0
 10
367.9283571496598
 20
111.3209842623281
 30
0.0
 10
367.8750116441703
 20
111.3199112144032
 30
0.0
 10
367.8217163585546
 20
111.3191131211409
 30
0.0
 10
367.768473533613
 20
111.318589394903
 30
0.0
  0
LINE
  5
B6
330
1F
100
AcDbEntity
  8
0
  6
Continuous
 62
     7
370
    25
100
AcDbLine
 10
347.4065225204
 20
120.9097528672
 30
0.0
 11
347.2831055155
 21
120.9097528672
 31
0.0
  0
SPLINE
  5
B7
330
1F
100
AcDbEntity
  8
0
  6
Continuous
 62
     7
370
    25
100
AcDbSpline
210
0.0
220
0.0
230
1.0
 70
     8
 71
     3
 72
     8
 73
     4
 74
     0
 42
0.000000001
 43
0.00000001
 40
0.0
 40
0.0
 40
0.0
 40
0.0
 40
1.0
 40
1.0
 40
1.0
 40
1.0
 10
346.8863564938028
 20
121.3301982674161
 30
0.0
 10
346.9274719208446
 20
121.3310672050561
 30
0.0
 10
346.9685462154557
 20
121.3317482426389
 30
0.0
 10
347.0095779879448
 20
121.3322418207004
 30
0.0
  0
SPLINE
  5
B8
330
1F
100
AcDbEntity
  8
0
  6
Continuous
 62
     7
370
    25
100
AcDbSpline
210
0.0
220
0.0
230
1.0
 70
     8
 71
     3
 72
     8
 73
     4
 74
     0
 42
0.000000001
 43
0.00000001
 40
0.0
 40
0.0
 40
0.0
 40
0.0
 40
1.0
 40
1.0
 40
1.0
 40
1.0
 10
367.3385168490203
 20
121.3322418207004
 30
0.0
 10
367.3795486215094
 20
121.3317482426389
 30
0.0
 10
367.4206229161204
 20
121.3310672050561
 30
0.0
 10
367.4617383431623
 20
121.3301982674161
 30
0.0
  0
LINE
  5
B9
330
1F
100
AcDbEntity
  8
0
  6
Continuous
 62
     7
370
    25
100
AcDbLine
 10
367.0649893215
 20
120.9097528672
 30
0.0
 11
366.9415723165
 21
120.9097528672
 31
0.0
  0
SPLINE
  5
BA
330
1F
100
AcDbEntity
  8
0
  6
Continuous
 62
     7
370
    25
100
AcDbSpline
210
0.0
220
0.0
230
1.0
 70
     8
 71
     3
 72
     9
 73
     5
 74
     0
 42
0.000000001
 43
0.00000001
 40
0.0
 40
0.0
 40
0.0
 40
0.0
 40
0.5102121239851395
 40
0.9999999999999999
 40
0.9999999999999999
 40
0.9999999999999999
 40
0.9999999999999999
 10
349.3006885501678
 20
121.1105660088056
 30
0.0
 10
349.4302287680186
 20
121.1093210501148
 30
0.0
 10
349.6841235928594
 20
121.1068809695438
 30
0.0
 10
349.9421028658691
 20
121.1041885238506
 30
0.0
 10
350.0684579860524
 20
121.1028697965933
 30
0.0
  0
SPLINE
  5
BB
330
1F
100
AcDbEntity
  8
0
  6
Continuous
 62
     7
370
    25
100
AcDbSpline
210
0.0
220
0.0
230
1.0
 70
     8
 71
     3
 72
     8
 73
     4
 74
     0
 42
0.000000001
 43
0.00000001
 40
0.0
 40
0.0
 40
0.0
 40
0.0
 40
1.0
 40
1.0
 40
1.0
 40
1.0
 10
350.0684577323779
 20
121.1028693273161
 30
0.0
 10
350.0606966744324
 20
121.092311092117
 30
0.0
 10
350.0529591493365
 20
121.0817355585906
 30
0.0
 10
350.045245233967
 20
121.0711428318112
 30
0.0
  0
SPLINE
  5
BC
330
1F
100
AcDbEntity
  8
0
  6
Continuous
 62
     7
370
    25
100
AcDbSpline
210
0.0
220
0.0
230
1.0
 70
     8
 71
     3
 72
     8
 73
     4
 74
     0
 42
0.000000001
 43
0.00000001
 40
0.0
 40
0.0
 40
0.0
 40
0.0
 40
1.0
 40
1.0
 40
1.0
 40
1.0
 10
349.873687401204
 20
120.909753089348
 30
0.0
 10
349.9309478082384
 20
120.9636612663357
 30
0.0
 10
349.9881341993481
 20
121.0174581914189
 30
0.0
 10
350.045245233967
 20
121.0711428318112
 30
0.0
  0
LINE
  5
BD
330
1F
100
AcDbEntity
  8
0
  6
Continuous
 62
     7
370
    25
100
AcDbLine
 10
349.8736882215
 20
120.9097528672
 30
0.0
 11
349.2983180662
 21
120.9097528672
 31
0.0
  0
SPLINE
  5
BE
330
1F
100
AcDbEntity
  8
0
  6
Continuous
 62
     7
370
    25
100
AcDbSpline
210
0.0
220
0.0
230
1.0
 70
     8
 71
     3
 72
     9
 73
     5
 74
     0
 42
0.000000001
 43
0.00000001
 40
0.0
 40
0.0
 40
0.0
 40
0.0
 40
0.4897878789203994
 40
0.9999999999999999
 40
0.9999999999999999
 40
0.9999999999999999
 40
0.9999999999999999
 10
364.279636983134
 20
121.1028696167175
 30
0.0
 10
364.4059920653552
 20
121.1041883424707
 30
0.0
 10
364.6639712593274
 20
121.1068807850771
 30
0.0
 10
364.9178660076168
 20
121.1093208629131
 30
0.0
 10
365.0474061856725
 20
121.1105658202014
 30
0.0
  0
ARC
  5
BF
330
1F
100
AcDbEntity
  8
0
  6
Continuous
 62
     7
370
    25
100
AcDbCircle
 10
357.1740474185
 20
115.8797527505
 30
0.0
 40
8.818750000000001
100
AcDbArc
 50
36.3185452201
 51
143.6814533294
  0
SPLINE
  5
C0
330
1F
100
AcDbEntity
  8
0
  6
Continuous
 62
     7
370
    25
100
AcDbSpline
210
0.0
220
0.0
230
1.0
 70
     8
 71
     3
 72
     8
 73
     4
 74
     0
 42
0.000000001
 43
0.00000001
 40
0.0
 40
0.0
 40
0.0
 40
0.0
 40
1.0
 40
1.0
 40
1.0
 40
1.0
 10
364.3029650347792
 20
121.0709843175123
 30
0.0
 10
364.2952129220785
 20
121.0816299941849
 30
0.0
 10
364.2874369634113
 20
121.0922583063791
 30
0.0
 10
364.2796372368078
 20
121.1028691474416
 30
0.0
  0
LINE
  5
C1
330
1F
100
AcDbEntity
  8
0
  6
Continuous
 62
     7
370
    25
100
AcDbLine
 10
365.0497767707
 20
120.9097528672
 30
0.0
 11
364.4743782101
 21
120.9097528672
 31
0.0
  0
SPLINE
  5
C2
330
1F
100
AcDbEntity
  8
0
  6
Continuous
 62
     7
370
    25
100
AcDbSpline
210
0.0
220
0.0
230
1.0
 70
     8
 71
     3
 72
     8
 73
     4
 74
     0
 42
0.000000001
 43
0.00000001
 40
0.0
 40
0.0
 40
0.0
 40
0.0
 40
1.0
 40
1.0
 40
1.0
 40
1.0
 10
364.3029650347792
 20
121.0709843175123
 30
0.0
 10
364.3600281624653
 20
121.0173523670965
 30
0.0
 10
364.4171665421955
 20
120.9636082807316
 30
0.0
 10
364.4743788356694
 20
120.9097530894814
 30
0.0
  0
ARC
  5
C3
330
1F
100
AcDbEntity
  8
0
  6
Continuous
 62
     7
370
    25
100
AcDbCircle
 10
357.1740474185
 20
115.8797527505
 30
0.0
 40
8.818750000000003
100
AcDbArc
 50
209.2047569376
 51
330.7952430624
  0
SPLINE
  5
C4
330
1F
100
AcDbEntity
  8
0
  6
Continuous
 62
     7
370
    25
100
AcDbSpline
210
0.0
220
0.0
230
1.0
 70
    24
 71
     3
 72
     8
 73
     4
 74
     0
 42
0.000000001
 43
0.00000001
 40
0.0
 40
0.0
 40
0.0
 40
0.0
 40
0.000136040218399
 40
0.000136040218399
 40
0.000136040218399
 40
0.000136040218399
 10
364.9151828153268
 20
111.6202123196285
 30
0.0
 10
364.9007438156427
 20
111.6057733199445
 30
0.0
 10
364.8862733632805
 20
111.5913028675822
 30
0.0
 10
364.8717717647291
 20
111.5768012690308
 30
0.0
  0
SPLINE
  5
C5
330
1F
100
AcDbEntity
  8
0
  6
Continuous
 62
     7
370
    25
100
AcDbSpline
210
0.0
220
0.0
230
1.0
 70
     8
 71
     3
 72
     9
 73
     5
 74
     0
 42
0.000000001
 43
0.00000001
 40
0.0
 40
0.0
 40
0.0
 40
0.0
 40
0.5086448740973026
 40
1.0
 40
1.0
 40
1.0
 40
1.0
 10
365.5618655440831
 20
111.6159217138434
 30
0.0
 10
365.4526994950853
 20
111.6166155626884
 30
0.0
 10
365.2380781461695
 20
111.6179796752163
 30
0.0
 10
365.0215668334921
 20
111.6194764951542
 30
0.0
 10
364.9151828901922
 20
111.6202119653032
 30
0.0
  0
SPLINE
  5
C6
330
1F
100
AcDbEntity
  8
0
  6
Continuous
 62
     7
370
    25
100
AcDbSpline
210
0.0
220
0.0
230
1.0
 70
     8
 71
     3
 72
     9
 73
     5
 74
     0
 42
0.000000001
 43
0.00000001
 40
0.0
 40
0.0
 40
0.0
 40
0.0
 40
0.4913551252639757
 40
1.0
 40
1.0
 40
1.0
 40
1.0
 10
349.4329119772374
 20
111.6202119348386
 30
0.0
 10
349.3265280258453
 20
111.6194764645098
 30
0.0
 10
349.1100166964177
 20
111.6179796442041
 30
0.0
 10
348.8953953310509
 20
111.6166155313498
 30
0.0
 10
348.7862292735483
 20
111.6159216823378
 30
0.0
  0
SPLINE
  5
C7
330
1F
100
AcDbEntity
  8
0
  6
Continuous
 62
     7
370
    25
100
AcDbSpline
210
0.0
220
0.0
230
1.0
 70
    24
 71
     3
 72
     8
 73
     4
 74
     0
 42
0.000000001
 43
0.00000001
 40
0.0
 40
0.0
 40
0.0
 40
0.0
 40
0.0001360401227241
 40
0.0001360401227241
 40
0.0001360401227241
 40
0.0001360401227241
 10
349.476323072236
 20
111.5768012690308
 30
0.0
 10
349.4618214838833
 20
111.5913028573835
 30
0.0
 10
349.4473510416761
 20
111.6057732995907
 30
0.0
 10
349.4329120521028
 20
111.6202122891641
 30
0.0
  0
LINE
  5
C8
330
1F
100
AcDbEntity
  8
0
  6
Continuous
 62
     7
370
    25
100
AcDbLine
 10
348.7755722931
 20
111.7735026246
 30
0.0
 11
349.2796217656
 21
111.7735026246
 31
0.0
  0
SPLINE
  5
C9
330
1F
100
AcDbEntity
  8
0
  6
Continuous
 62
     7
370
    25
100
AcDbSpline
210
0.0
220
0.0
230
1.0
 70
     8
 71
     3
 72
     8
 73
     4
 74
     0
 42
0.000000001
 43
0.00000001
 40
0.0
 40
0.0
 40
0.0
 40
0.0
 40
1.0
 40
1.0
 40
1.0
 40
1.0
 10
349.4329122519347
 20
111.6202120895769
 30
0.0
 10
349.3818434893303
 20
111.671254581321
 30
0.0
 10
349.3307465296943
 20
111.722351553347
 30
0.0
 10
349.2796216881787
 20
111.7735026530881
 30
0.0
  0
SPLINE
  5
CA
330
1F
100
AcDbEntity
  8
0
  6
Continuous
 62
     7
370
    25
100
AcDbSpline
210
0.0
220
0.0
230
1.0
 70
     8
 71
     3
 72
     8
 73
     4
 74
     0
 42
0.000000001
 43
0.00000001
 40
0.0
 40
0.0
 40
0.0
 40
0.0
 40
1.0
 40
1.0
 40
1.0
 40
1.0
 10
365.0684731487865
 20
111.7735026530882
 30
0.0
 10
365.0173483174412
 20
111.7223515635329
 30
0.0
 10
364.9662513679602
 20
111.6712546016619
 30
0.0
 10
364.9151826154949
 20
111.6202121200415
 30
0.0
  0
LINE
  5
CB
330
1F
100
AcDbEntity
  8
0
  6
Continuous
 62
     7
370
    25
100
AcDbLine
 10
365.0684730714
 20
111.7735026246
 30
0.0
 11
365.5725225439
 21
111.7735026246
 31
0.0
  0
CIRCLE
  5
CC
330
1F
100
AcDbEntity
  8
0
  6
Continuous
 62
     7
370
    25
100
AcDbCircle
 10
357.1740474185
 20
115.8797527505
 30
0.0
 40
12.47086902276419
  0
SPLINE
  5
CD
330
1F
100
AcDbEntity
  8
0
  6
Continuous
 62
     7
370
    25
100
AcDbSpline
210
0.0
220
0.0
230
1.0
 70
     8
 71
     3
 72
    23
 73
    19
 74
     0
 42
0.000000001
 43
0.00000001
 40
0.0
 40
0.0
 40
0.0
 40
0.0
 40
0.0521036415675031
 40
0.1035646240925967
 40
0.1544751946736949
 40
0.2049306267473421
 40
0.2550287880844035
 40
0.3048696389141012
 40
0.3545546704609132
 40
0.4041862979523234
 40
0.4538672252126086
 40
0.5036997999421611
 40
0.5901870230746071
 40
0.674271637822954
 40
0.7565997087222995
 40
0.8378563983721267
 40
0.9187511781367398
 40
1.0
 40
1.0
 40
1.0
 40
1.0
 10
346.334795271825
 20
120.3701634632296
 30
0.0
 10
346.3480896267748
 20
120.3993313563912
 30
0.0
 10
346.3745143608529
 20
120.4573073787952
 30
0.0
 10
346.4137253670768
 20
120.5402066798072
 30
0.0
 10
346.4521673218825
 20
120.6193886608247
 30
0.0
 10
346.4897549033491
 20
120.6946434776267
 30
0.0
 10
346.5264107896567
 20
120.7660631318844
 30
0.0
 10
346.5620606537153
 20
120.833659740666
 30
0.0
 10
346.5966344004765
 20
120.8974660621305
 30
0.0
 10
346.6300660944326
 20
120.9575096041997
 30
0.0
 10
346.6622929716575
 20
121.0138163009264
 30
0.0
 10
346.7007944085471
 20
121.07922128275
 30
0.0
 10
346.7434558892605
 20
121.1487823605862
 30
0.0
 10
346.7869489313836
 20
121.2155418572506
 30
0.0
 10
346.8233614282115
 20
121.2672659053484
 30
0.0
 10
346.8522622346887
 20
121.3037142174003
 30
0.0
 10
346.8741796907871
 20
121.3263116142835
 30
0.0
 10
346.8822916552803
 20
121.3289008318448
 30
0.0
 10
346.8863564938028
 20
121.3301982674161
 30
0.0
  0
SPLINE
  5
CE
330
1F
100
AcDbEntity
  8
0
  6
Continuous
 62
     7
370
    25
100
AcDbSpline
210
0.0
220
0.0
230
1.0
 70
     8
 71
     3
 72
     8
 73
     4
 74
     0
 42
0.000000001
 43
0.00000001
 40
0.0
 40
0.0
 40
0.0
 40
0.0
 40
1.0
 40
1.0
 40
1.0
 40
1.0
 10
346.2141573319623
 20
120.3679531058198
 30
0.0
 10
346.2543463455552
 20
120.3686834160373
 30
0.0
 10
346.2945086476453
 20
120.3692639418668
 30
0.0
 10
346.3346433581208
 20
120.3696949068166
 30
0.0
  0
SPLINE
  5
CF
330
1F
100
AcDbEntity
  8
0
  6
Continuous
 62
     7
370
    25
100
AcDbSpline
210
0.0
220
0.0
230
1.0
 70
     8
 71
     3
 72
    18
 73
    14
 74
     0
 42
0.000000001
 43
0.00000001
 40
0.0
 40
0.0
 40
0.0
 40
0.0
 40
0.0923824559411628
 40
0.1844689291573508
 40
0.2764953615950219
 40
0.3686975365494161
 40
0.4613092840003458
 40
0.5545607518442569
 40
0.6486768051537182
 40
0.7438756050146744
 40
0.8403674044302629
 40
0.9203921078121001
 40
1.0
 40
1.0
 40
1.0
 40
1.0
 10
346.2670963207617
 20
120.6347701127017
 30
0.0
 10
346.2689319744144
 20
120.6345618004864
 30
0.0
 10
346.2725974004973
 20
120.6341458434643
 30
0.0
 10
346.2753927301165
 20
120.6273414199981
 30
0.0
 10
346.276195025195
 20
120.616008041346
 30
0.0
 10
346.2748288881519
 20
120.5997076463194
 30
0.0
 10
346.271367339523
 20
120.5785564074835
 30
0.0
 10
346.2658260337536
 20
120.5525207063671
 30
0.0
 10
346.2582415656846
 20
120.5215963267159
 30
0.0
 10
346.2486645637478
 20
120.4857972952712
 30
0.0
 10
346.237824087729
 20
120.44754638774
 30
0.0
 10
346.22633544679
 20
120.4083281743456
 30
0.0
 10
346.2182354619119
 20
120.3814731974962
 30
0.0
 10
346.2141960442692
 20
120.3680807691258
 30
0.0
  0
LINE
  5
D0
330
1F
100
AcDbEntity
  8
0
  6
Continuous
 62
     7
370
    25
100
AcDbLine
 10
346.2143411493
 20
120.6340222461
 30
0.0
 11
346.2670959165
 21
120.6347700981
 31
0.0
  0
SPLINE
  5
D1
330
1F
100
AcDbEntity
  8
0
  6
Continuous
 62
     7
370
    25
100
AcDbSpline
210
0.0
220
0.0
230
1.0
 70
     8
 71
     3
 72
    25
 73
    21
 74
     0
 42
0.000000001
 43
0.00000001
 40
0.0
 40
0.0
 40
0.0
 40
0.0
 40
0.0280105225426465
 40
0.0559601148860768
 40
0.0839014045043132
 40
0.1118870776786367
 40
0.1399695827588937
 40
0.1682008401739883
 40
0.196631967042422
 40
0.2253130233141467
 40
0.2542927850735845
 40
0.3799486436587335
 40
0.5057850221667067
 40
0.6313085886338298
 40
0.7532068238012468
 40
0.8039473267955921
 40
0.8535894438554446
 40
0.9025339722394071
 40
0.9511970353791085
 40
1.0
 40
1.0
 40
1.0
 40
1.0
 10
345.3033795537089
 20
118.0670904930141
 30
0.0
 10
345.3103586236198
 20
118.1044005065208
 30
0.0
 10
345.3243015821426
 20
118.1789393745144
 30
0.0
 10
345.3468234795855
 20
118.2902484199976
 30
0.0
 10
345.3704570916831
 20
118.4009106290121
 30
0.0
 10
345.3953066821711
 20
118.5108947619564
 30
0.0
 10
345.4213253066573
 20
118.6201899055709
 30
0.0
 10
345.4485066879752
 20
118.7287808747731
 30
0.0
 10
345.4768323293077
 20
118.8366515847154
 30
0.0
 10
345.5062911101403
 20
118.9437965304404
 30
0.0
 10
345.5706993980524
 20
119.1679714169524
 30
0.0
 10
345.6758010901243
 20
119.4946368309884
 30
0.0
 10
345.8212638509204
 20
119.8805834363082
 30
0.0
 10
345.9605272590301
 20
120.2026632489983
 30
0.0
 10
346.0576756118978
 20
120.39848383303
 30
0.0
 10
346.117971018124
 20
120.5078312835134
 30
0.0
 10
346.1528596010053
 20
120.5657593079288
 30
0.0
 10
346.1807541029331
 20
120.6062132606937
 30
0.0
 10
346.2021191953048
 20
120.6308274760927
 30
0.0
 10
346.2102631428775
 20
120.6329564036004
 30
0.0
 10
346.2143409615225
 20
120.6340223952718
 30
0.0
  0
ARC
  5
D2
330
1F
100
AcDbEntity
  8
0
  6
Continuous
 62
     7
370
    25
100
AcDbCircle
 10
357.1740474185
 20
115.8797527505
 30
0.0
 40
12.07050959801142
100
AcDbArc
 50
169.5595567507
 51
190.4404432494
  0
SPLINE
  5
D3
330
1F
100
AcDbEntity
  8
0
  6
Continuous
 62
     7
370
    25
100
AcDbSpline
210
0.0
220
0.0
230
1.0
 70
     8
 71
     3
 72
    26
 73
    22
 74
     0
 42
0.000000001
 43
0.00000001
 40
0.0
 40
0.0
 40
0.0
 40
0.0
 40
0.0241259796963635
 40
0.0482159912272988
 40
0.0723203915124065
 40
0.0964895678710797
 40
0.1207736231963513
 40
0.1452220711242836
 40
0.1698835501657706
 40
0.1948055644472379
 40
0.2200342569517627
 40
0.2456142191611387
 40
0.3690971486901655
 40
0.4940698769485187
 40
0.6192566784762451
 40
0.7454656653603225
 40
0.7971495824713707
 40
0.8481710308405392
 40
0.8988013269235234
 40
0.9493179290492194
 40
1.0
 40
1.0
 40
1.0
 40
1.0
 10
346.2143409615225
 20
111.1254831056877
 30
0.0
 10
346.2124306467821
 20
111.1257699988771
 30
0.0
 10
346.2086128652899
 20
111.1263433575418
 30
0.0
 10
346.200652740109
 20
111.1324020457883
 30
0.0
 10
346.1910736395336
 20
111.1422813065191
 30
0.0
 10
346.1797264326649
 20
111.1563623976295
 30
0.0
 10
346.1666702493709
 20
111.1745579456537
 30
0.0
 10
346.1519143461436
 20
111.1969084883924
 30
0.0
 10
346.1354871658463
 20
111.2234227240844
 30
0.0
 10
346.117419011126
 20
111.2541182347977
 30
0.0
 10
346.097741864703
 20
111.2890193380376
 30
0.0
 10
346.0495424832748
 20
111.3777838731453
 30
0.0
 10
345.9612244438393
 20
111.5550641745942
 30
0.0
 10
345.8221648270726
 20
111.8761500814393
 30
0.0
 10
345.6764921472104
 20
112.2627327333297
 30
0.0
 10
345.5627535522009
 20
112.6164404374597
 30
0.0
 10
345.4830479336544
 20
112.8986941370725
 30
0.0
 10
345.4323983613001
 20
113.0931375678468
 30
0.0
 10
345.3854316914347
 20
113.2903789447809
 30
0.0
 10
345.3418718694304
 20
113.490281989876
 30
0.0
 10
345.3162243042989
 20
113.6249639296083
 30
0.0
 10
345.3033795537089
 20
113.6924150079454
 30
0.0
  0
LINE
  5
D4
330
1F
100
AcDbEntity
  8
0
  6
Continuous
 62
     7
370
    25
100
AcDbLine
 10
346.2670959165
 20
111.1247354028
 30
0.0
 11
346.2143411493
 21
111.1254832549
 31
0.0
  0
SPLINE
  5
D5
330
1F
100
AcDbEntity
  8
0
  6
Continuous
 62
     7
370
    25
100
AcDbSpline
210
0.0
220
0.0
230
1.0
 70
     8
 71
     3
 72
    14
 73
    10
 74
     0
 42
0.000000001
 43
0.00000001
 40
0.0
 40
0.0
 40
0.0
 40
0.0
 40
0.0789261963172865
 40
0.158232872055133
 40
0.330847539457262
 40
0.5000195457610529
 40
0.6670357883572423
 40
0.8332395193657144
 40
1.0
 40
1.0
 40
1.0
 40
1.0
 10
346.2140994639099
 20
111.3917588655625
 30
0.0
 10
346.2181140105059
 20
111.3784557409248
 30
0.0
 10
346.226162456618
 20
111.3517853612924
 30
0.0
 10
346.2410631634276
 20
111.3009706219726
 30
0.0
 10
346.256960145024
 20
111.2439308057857
 30
0.0
 10
346.2700386400219
 20
111.1896275890577
 30
0.0
 10
346.2762712471391
 20
111.1514604463349
 30
0.0
 10
346.2760816673022
 20
111.128051717658
 30
0.0
 10
346.2700947731714
 20
111.1258420629794
 30
0.0
 10
346.2670963207617
 20
111.1247353882578
 30
0.0
  0
SPLINE
  5
D6
330
1F
100
AcDbEntity
  8
0
  6
Continuous
 62
     7
370
    25
100
AcDbSpline
210
0.0
220
0.0
230
1.0
 70
     8
 71
     3
 72
     8
 73
     4
 74
     0
 42
0.000000001
 43
0.00000001
 40
0.0
 40
0.0
 40
0.0
 40
0.0
 40
1.0
 40
1.0
 40
1.0
 40
1.0
 10
346.3614041551343
 20
111.389697787112
 30
0.0
 10
346.3123362401056
 20
111.390184840324
 30
0.0
 10
346.2632268025848
 20
111.3908959081988
 30
0.0
 10
346.2140774580595
 20
111.3918314014331
 30
0.0
  0
SPLINE
  5
D7
330
1F
100
AcDbEntity
  8
0
  6
Continuous
 62
     7
370
    25
100
AcDbSpline
210
0.0
220
0.0
230
1.0
 70
     8
 71
     3
 72
    13
 73
     9
 74
     0
 42
0.000000001
 43
0.00000001
 40
0.0
 40
0.0
 40
0.0
 40
0.0
 40
0.1667030582307992
 40
0.3329480818053035
 40
0.4990671507274896
 40
0.6653938523718403
 40
0.832261271055009
 40
1.0
 40
1.0
 40
1.0
 40
1.0
 10
346.4197376873053
 20
111.3209842623281
 30
0.0
 10
346.4178943734684
 20
111.3214013720938
 30
0.0
 10
346.4142128104985
 20
111.3222344455712
 30
0.0
 10
346.406695556704
 20
111.3282489243976
 30
0.0
 10
346.3977447525875
 20
111.3377436566898
 30
0.0
 10
346.3871944641646
 20
111.3511532637995
 30
0.0
 10
346.3752212786475
 20
111.3680711674231
 30
0.0
 10
346.366014871041
 20
111.3824839025625
 30
0.0
 10
346.3613996805523
 20
111.3897090354241
 30
0.0
  0
SPLINE
  5
D8
330
1F
100
AcDbEntity
  8
0
  6
Continuous
 62
     7
370
    25
100
AcDbSpline
210
0.0
220
0.0
230
1.0
 70
     8
 71
     3
 72
    13
 73
     9
 74
     0
 42
0.000000001
 43
0.00000001
 40
0.0
 40
0.0
 40
0.0
 40
0.0
 40
0.1686319999748085
 40
0.3360343310905433
 40
0.502536782590866
 40
0.6684737453788339
 40
0.834182263691515
 40
1.0
 40
1.0
 40
1.0
 40
1.0
 10
367.9866965375308
 20
111.3897124852369
 30
0.0
 10
367.9820592924327
 20
111.3824553252174
 30
0.0
 10
367.9728186171462
 20
111.3679939245752
 30
0.0
 10
367.9608032437791
 20
111.3510132278711
 30
0.0
 10
367.9502376900246
 20
111.3375804466915
 30
0.0
 10
367.9412983407316
 20
111.3281009781376
 30
0.0
 10
367.933817460143
 20
111.3221357524397
 30
0.0
 10
367.9301776528536
 20
111.3213681766553
 30
0.0
 10
367.9283571496598
 20
111.3209842623281
 30
0.0
  0
SPLINE
  5
D9
330
1F
100
AcDbEntity
  8
0
  6
Continuous
 62
     7
370
    25
100
AcDbSpline
210
0.0
220
0.0
230
1.0
 70
     8
 71
     3
 72
     8
 73
     4
 74
     0
 42
0.000000001
 43
0.00000001
 40
0.0
 40
0.0
 40
0.0
 40
0.0
 40
1.0
 40
1.0
 40
1.0
 40
1.0
 10
368.1340221495033
 20
111.3918315061796
 30
0.0
 10
368.084871219895
 20
111.3908959759176
 30
0.0
 10
368.0357601998157
 20
111.3901848854055
 30
0.0
 10
367.986690704908
 20
111.3896978239076
 30
0.0
  0
SPLINE
  5
DA
330
1F
100
AcDbEntity
  8
0
  6
Continuous
 62
     7
370
    25
100
AcDbSpline
210
0.0
220
0.0
230
1.0
 70
     8
 71
     3
 72
    18
 73
    14
 74
     0
 42
0.000000001
 43
0.00000001
 40
0.0
 40
0.0
 40
0.0
 40
0.0
 40
0.0923325137111192
 40
0.1843692047063016
 40
0.2763458873810836
 40
0.3684982175655623
 40
0.4610598988303626
 40
0.554260954653301
 40
0.6483261285442131
 40
0.74347346365053
 40
0.8399130993119804
 40
0.9201660718299768
 40
1.0
 40
1.0
 40
1.0
 40
1.0
 10
368.0809985162034
 20
111.1247353882578
 30
0.0
 10
368.0791628625509
 20
111.1249437004736
 30
0.0
 10
368.0754974364683
 20
111.1253596574969
 30
0.0
 10
368.0727021068461
 20
111.1321640809542
 30
0.0
 10
368.0718998117792
 20
111.14349745964
 30
0.0
 10
368.0732659487785
 20
111.1597978545404
 30
0.0
 10
368.0767274975725
 20
111.1809490938505
 30
0.0
 10
368.0822688027189
 20
111.2069847931781
 30
0.0
 10
368.0898532731462
 20
111.2379091796008
 30
0.0
 10
368.0994302661266
 20
111.2737081853289
 30
0.0
 10
368.1102816131524
 20
111.3119974304426
 30
0.0
 10
368.1217963747844
 20
111.3513030548591
 30
0.0
 10
368.1299280836055
 20
111.3782601327528
 30
0.0
 10
368.1339832952132
 20
111.3917033902023
 30
0.0
  0
LINE
  5
DB
330
1F
100
AcDbEntity
  8
0
  6
Continuous
 62
     7
370
    25
100
AcDbLine
 10
368.1337536877
 20
111.1254832549
 30
0.0
 11
368.0809989204
 21
111.1247354028
 31
0.0
  0
SPLINE
  5
DC
330
1F
100
AcDbEntity
  8
0
  6
Continuous
 62
     7
370
    25
100
AcDbSpline
210
0.0
220
0.0
230
1.0
 70
     8
 71
     3
 72
    25
 73
    21
 74
     0
 42
0.000000001
 43
0.00000001
 40
0.0
 40
0.0
 40
0.0
 40
0.0
 40
0.0280105225422753
 40
0.0559601148854256
 40
0.0839014045034749
 40
0.1118870776777086
 40
0.1399695827579646
 40
0.1682008401731476
 40
0.1966319670417595
 40
0.2253130233137476
 40
0.2542927850735311
 40
0.3799486436564626
 40
0.5057850221666382
 40
0.631308588631066
 40
0.7532068238011618
 40
0.8039473267946936
 40
0.8535894438541253
 40
0.9025339722380873
 40
0.9511970353782256
 40
1.0
 40
1.0
 40
1.0
 40
1.0
 10
369.0447152832562
 20
113.6924150079454
 30
0.0
 10
369.0377362133453
 20
113.6551049944392
 30
0.0
 10
369.0237932548227
 20
113.5805661264464
 30
0.0
 10
369.0012713573801
 20
113.4692570809644
 30
0.0
 10
368.9776377452827
 20
113.3585948719506
 30
0.0
 10
368.9527881547948
 20
113.2486107390067
 30
0.0
 10
368.9267695303086
 20
113.1393155953922
 30
0.0
 10
368.8995881489906
 20
113.0307246261896
 30
0.0
 10
368.871262507658
 20
112.9228539162465
 30
0.0
 10
368.8418037268251
 20
112.8157089705204
 30
0.0
 10
368.7773954389136
 20
112.59153408401
 30
0.0
 10
368.6722937468417
 20
112.2648686699739
 30
0.0
 10
368.5268309860465
 20
111.8789220646558
 30
0.0
 10
368.3875675779359
 20
111.5568422519632
 30
0.0
 10
368.2904192250687
 20
111.3610216679322
 30
0.0
 10
368.2301238188411
 20
111.2516742174457
 30
0.0
 10
368.19523523596
 20
111.1937461930304
 30
0.0
 10
368.1673407340321
 20
111.1532922402655
 30
0.0
 10
368.1459756416604
 20
111.1286780248666
 30
0.0
 10
368.1378316940877
 20
111.126549097359
 30
0.0
 10
368.1337538754426
 20
111.1254831056876
 30
0.0
  0
ARC
  5
DD
330
1F
100
AcDbEntity
  8
0
  6
Continuous
 62
     7
370
    25
100
AcDbCircle
 10
357.1740474185
 20
115.8797527505
 30
0.0
 40
12.07050959801141
100
AcDbArc
 50
349.5595567507
 51
10.4404432493
  0
SPLINE
  5
DE
330
1F
100
AcDbEntity
  8
0
  6
Continuous
 62
     7
370
    25
100
AcDbSpline
210
0.0
220
0.0
230
1.0
 70
     8
 71
     3
 72
    26
 73
    22
 74
     0
 42
0.000000001
 43
0.00000001
 40
0.0
 40
0.0
 40
0.0
 40
0.0
 40
0.0241259796962591
 40
0.0482159912271133
 40
0.0723203915121637
 40
0.0964895678708023
 40
0.1207736231960627
 40
0.1452220711240065
 40
0.1698835501655268
 40
0.1948055644470484
 40
0.220034256951649
 40
0.2456142191611191
 40
0.3690971486898426
 40
0.4940698769485092
 40
0.6192566784753767
 40
0.7454656653602836
 40
0.7971495824708205
 40
0.848171030839725
 40
0.8988013269227118
 40
0.9493179290486752
 40
1.0
 40
1.0
 40
1.0
 40
1.0
 10
368.1337538754426
 20
120.6340223952718
 30
0.0
 10
368.135664190183
 20
120.6337355020824
 30
0.0
 10
368.1394819716752
 20
120.6331621434176
 30
0.0
 10
368.1474420968561
 20
120.6271034551712
 30
0.0
 10
368.1570211974315
 20
120.6172241944403
 30
0.0
 10
368.1683684043002
 20
120.6031431033299
 30
0.0
 10
368.1814245875941
 20
120.5849475553058
 30
0.0
 10
368.1961804908214
 20
120.5625970125671
 30
0.0
 10
368.2126076711188
 20
120.536082776875
 30
0.0
 10
368.230675825839
 20
120.5053872661617
 30
0.0
 10
368.2503529722621
 20
120.4704861629218
 30
0.0
 10
368.2985523536901
 20
120.3817216278146
 30
0.0
 10
368.3868703931255
 20
120.2044413263657
 30
0.0
 10
368.525930009892
 20
119.8833554195213
 30
0.0
 10
368.6716026897544
 20
119.4967727676302
 30
0.0
 10
368.7853412847637
 20
119.1430650635012
 30
0.0
 10
368.8650469033102
 20
118.8608113638888
 30
0.0
 10
368.9156964756642
 20
118.6663679331156
 30
0.0
 10
368.9626631455297
 20
118.4691265561814
 30
0.0
 10
369.0062229675343
 20
118.2692235110852
 30
0.0
 10
369.0318705326661
 20
118.1345415713519
 30
0.0
 10
369.0447152832562
 20
118.067090493014
 30
0.0
  0
LINE
  5
DF
330
1F
100
AcDbEntity
  8
0
  6
Continuous
 62
     7
370
    25
100
AcDbLine
 10
368.0809989204
 20
120.6347700981
 30
0.0
 11
368.1337536877
 21
120.6340222461
 31
0.0
  0
SPLINE
  5
E0
330
1F
100
AcDbEntity
  8
0
  6
Continuous
 62
     7
370
    25
100
AcDbSpline
210
0.0
220
0.0
230
1.0
 70
     8
 71
     3
 72
    14
 73
    10
 74
     0
 42
0.000000001
 43
0.00000001
 40
0.0
 40
0.0
 40
0.0
 40
0.0
 40
0.0786889129232242
 40
0.1577561817122941
 40
0.3304686003115578
 40
0.4997364082435315
 40
0.6668472316653192
 40
0.8331450833767118
 40
1.0
 40
1.0
 40
1.0
 40
1.0
 10
368.1339068029802
 20
120.3680386034841
 30
0.0
 10
368.1299087940255
 20
120.381288508
 30
0.0
 10
368.1218935526948
 20
120.4078520258683
 30
0.0
 10
368.1070208794054
 20
120.458573553637
 30
0.0
 10
368.0911347146431
 20
120.5155746326609
 30
0.0
 10
368.0780561909988
 20
120.56987792827
 30
0.0
 10
368.0718235913938
 20
120.6080450503072
 30
0.0
 10
368.0720131692701
 20
120.6314537843828
 30
0.0
 10
368.0780000636626
 20
120.6336634383409
 30
0.0
 10
368.0809985162034
 20
120.6347701127017
 30
0.0
  0
SPLINE
  5
E1
330
1F
100
AcDbEntity
  8
0
  6
Continuous
 62
     7
370
    25
100
AcDbSpline
210
0.0
220
0.0
230
1.0
 70
     8
 71
     3
 72
     8
 73
     4
 74
     0
 42
0.000000001
 43
0.00000001
 40
0.0
 40
0.0
 40
0.0
 40
0.0
 40
1.0
 40
1.0
 40
1.0
 40
1.0
 10
368.0134514622974
 20
120.3696949434495
 30
0.0
 10
368.0535845808041
 20
120.3692639895021
 30
0.0
 10
368.0937452887326
 20
120.3686834864897
 30
0.0
 10
368.1339327060756
 20
120.3679532109301
 30
0.0
  0
SPLINE
  5
E2
330
1F
100
AcDbEntity
  8
0
  6
Continuous
 62
     7
370
    25
100
AcDbSpline
210
0.0
220
0.0
230
1.0
 70
     8
 71
     3
 72
    23
 73
    19
 74
     0
 42
0.000000001
 43
0.00000001
 40
0.0
 40
0.0
 40
0.0
 40
0.0
 40
0.0441308420121292
 40
0.0880968635211716
 40
0.1320155028408941
 40
0.1760048571434164
 40
0.2201827305793597
 40
0.2646656976937351
 40
0.3095682184569769
 40
0.355001836559425
 40
0.401074485474427
 40
0.4478899182339682
 40
0.4955472680213688
 40
0.5953670562452651
 40
0.6949121173401501
 40
0.7950007648984784
 40
0.8964386255170008
 40
1.0
 40
1.0
 40
1.0
 40
1.0
 10
367.4617383431623
 20
121.3301982674161
 30
0.0
 10
367.4637227332691
 20
121.3299154101862
 30
0.0
 10
367.467684102154
 20
121.3293507521456
 30
0.0
 10
367.4765444063845
 20
121.3229313989669
 30
0.0
 10
367.4875168845068
 20
121.3124101494603
 30
0.0
 10
367.5007962825272
 20
121.2973786131506
 30
0.0
 10
367.5163070061936
 20
121.2779263680881
 30
0.0
 10
367.5340384679466
 20
121.254006390136
 30
0.0
 10
367.5539551146498
 20
121.2256052994222
 30
0.0
 10
367.5760206486619
 20
121.1926975596215
 30
0.0
 10
367.600191572356
 20
121.1552575769653
 30
0.0
 10
367.6264185824033
 20
121.1132575053354
 30
0.0
 10
367.6647551626344
 20
121.0499803968124
 30
0.0
 10
367.7170879420129
 20
120.9599215344492
 30
0.0
 10
367.785488553221
 20
120.8355754148824
 30
0.0
 10
367.8581736280165
 20
120.6958623369019
 30
0.0
 10
367.9345338639164
 20
120.5415263216735
 30
0.0
 10
367.9868226785666
 20
120.4278036674458
 30
0.0
 10
368.0132379064701
 20
120.3703533341513
 30
0.0
  0
SPLINE
  5
E3
330
1F
100
AcDbEntity
  8
0
  6
Continuous
 62
     7
370
    25
100
AcDbSpline
210
0.0
220
0.0
230
1.0
 70
    11
 71
     3
 72
    39
 73
    35
 74
     0
 42
0.000000001
 43
0.00000001
 40
0.0
 40
0.0
 40
0.0
 40
0.0
 40
0.0310664058348413
 40
0.0621048158426138
 40
0.0931361551796939
 40
0.1235538293503726
 40
0.1538561545809849
 40
0.1850588072749156
 40
0.2160250992946587
 40
0.2471867223797568
 40
0.2784462884304475
 40
0.3100516090231247
 40
0.3419834369138969
 40
0.3734259894013238
 40
0.4048604886787081
 40
0.436874065183343
 40
0.4685120685926471
 40
0.499805535863323
 40
0.5309508213226204
 40
0.5618649784438111
 40
0.5930416446590877
 40
0.623374245013332
 40
0.6540913579072549
 40
0.6849496782718453
 40
0.7158160645166705
 40
0.7471731804043553
 40
0.7784514311866318
 40
0.810129591156098
 40
0.8419598919688388
 40
0.8735175891922303
 40
0.9050808037886594
 40
0.9370235169792582
 40
0.9687441590030581
 40
1.0
 40
1.0
 40
1.0
 40
1.0
 10
360.0781739832799
 20
104.4481225667263
 30
0.0
 10
360.2678858122346
 20
104.4868911434738
 30
0.0
 10
360.6116266626834
 20
104.5633220892568
 30
0.0
 10
360.994583649891
 20
104.6514616292501
 30
0.0
 10
361.2390241166061
 20
104.698411115895
 30
0.0
 10
361.3200130534223
 20
104.6865021911813
 30
0.0
 10
361.2392906079406
 20
104.6145442844658
 30
0.0
 10
360.999428414321
 20
104.4900240182684
 30
0.0
 10
360.6227786802237
 20
104.3326550284433
 30
0.0
 10
360.1165357433958
 20
104.1606309437482
 30
0.0
 10
359.4992613497125
 20
103.9957065361626
 30
0.0
 10
358.7867855355726
 20
103.8579939600841
 30
0.0
 10
358.0113202958001
 20
103.7663611475754
 30
0.0
 10
357.2008558621858
 20
103.7330285694799
 30
0.0
 10
356.3883513892233
 20
103.7622760150332
 30
0.0
 10
355.6088383990862
 20
103.8506049720208
 30
0.0
 10
354.8905100997508
 20
103.9861104716556
 30
0.0
 10
354.2671379923507
 20
104.1498869931469
 30
0.0
 10
353.7540393977552
 20
104.3218931372922
 30
0.0
 10
353.3688372878937
 20
104.4807051517634
 30
0.0
 10
353.1194126826527
 20
104.6079641169289
 30
0.0
 10
353.0288106427063
 20
104.6835710738838
 30
0.0
 10
353.0970222136655
 20
104.7003404705637
 30
0.0
 10
353.3292380800682
 20
104.6575601283485
 30
0.0
 10
353.7064551172525
 20
104.5704334434386
 30
0.0
 10
354.2181599850201
 20
104.4557043881316
 30
0.0
 10
354.8416311157669
 20
104.3362822430791
 30
0.0
 10
355.5581758188998
 20
104.2316567930298
 30
0.0
 10
356.3365069315107
 20
104.1610083001029
 30
0.0
 10
357.1483384183607
 20
104.1349294756729
 30
0.0
 10
357.9621129403577
 20
104.1579550473636
 30
0.0
 10
358.7444867845232
 20
104.2261874855013
 30
0.0
 10
359.4664998192571
 20
104.329434665211
 30
0.0
 10
359.8873053391062
 20
104.4091175889075
 30
0.0
 10
360.0781739832798
 20
104.4481225667263
 30
0.0
  0
SPLINE
  5
E4
330
1F
100
AcDbEntity
  8
0
  6
Continuous
 62
     7
370
    25
100
AcDbSpline
210
0.0
220
0.0
230
1.0
 70
    11
 71
     3
 72
    39
 73
    35
 74
     0
 42
0.000000001
 43
0.00000001
 40
0.0
 40
0.0
 40
0.0
 40
0.0
 40
0.0312651429934057
 40
0.0629601069329321
 40
0.0948697276489808
 40
0.1264264963751833
 40
0.1579651393672472
 40
0.1898765439016956
 40
0.221552335268876
 40
0.2527844076550827
 40
0.2838418966734154
 40
0.3148645781100674
 40
0.3459127639308091
 40
0.3763475365526575
 40
0.4066751324671412
 40
0.4379141187435632
 40
0.4688932367345488
 40
0.5000738678969536
 40
0.5313369410958942
 40
0.5629183719104849
 40
0.5948445736343699
 40
0.6262809966135365
 40
0.6577486436587271
 40
0.6897584692806508
 40
0.7214430019610059
 40
0.7527623343195418
 40
0.7839279690572818
 40
0.8148885765585865
 40
0.8460375004982862
 40
0.8763409566916784
 40
0.906758919146387
 40
0.9378312724751761
 40
0.9689189660506093
 40
1.0
 40
1.0
 40
1.0
 40
1.0
 10
360.0780697334931
 20
127.3114149866689
 30
0.0
 10
359.8869957972114
 20
127.3504789445496
 30
0.0
 10
359.4660612347718
 20
127.4301979391097
 30
0.0
 10
358.7446718296082
 20
127.5333133544601
 30
0.0
 10
357.9630157813177
 20
127.601514226884
 30
0.0
 10
357.1499280616069
 20
127.6245711195259
 30
0.0
 10
356.3376478447549
 20
127.5985868458797
 30
0.0
 10
355.5590174197054
 20
127.5279966806415
 30
0.0
 10
354.842341629794
 20
127.4233811184023
 30
0.0
 10
354.2204663601323
 20
127.304208793386
 30
0.0
 10
353.7109554266465
 20
127.1902716256597
 30
0.0
 10
353.3358360804023
 20
127.1041573467132
 30
0.0
 10
353.0998755055513
 20
127.0601016253774
 30
0.0
 10
353.0284749623698
 20
127.0756314260885
 30
0.0
 10
353.1190713921676
 20
127.1511403082725
 30
0.0
 10
353.368047672527
 20
127.2783138361167
 30
0.0
 10
353.7529624923698
 20
127.4371645147289
 30
0.0
 10
354.265747799192
 20
127.6091887759389
 30
0.0
 10
354.8882069221168
 20
127.7728618554736
 30
0.0
 10
355.6047070669233
 20
127.9082634288539
 30
0.0
 10
356.3828061010334
 20
127.9967810963367
 30
0.0
 10
357.1945287896804
 20
128.0264885048195
 30
0.0
 10
358.0059709773817
 20
127.9936020601694
 30
0.0
 10
358.7830968688638
 20
127.9021211521246
 30
0.0
 10
359.4975349580343
 20
127.7642369621632
 30
0.0
 10
360.1157579162697
 20
127.5991091373132
 30
0.0
 10
360.6221252769956
 20
127.4270585999606
 30
0.0
 10
360.9986777984093
 20
127.2697750782504
 30
0.0
 10
361.2383736098407
 20
127.1453712807664
 30
0.0
 10
361.3198403180349
 20
127.0731831073301
 30
0.0
 10
361.2397810755431
 20
127.0609105989521
 30
0.0
 10
360.9954350695893
 20
127.1078060094582
 30
0.0
 10
360.6124616361404
 20
127.1959395576038
 30
0.0
 10
360.2680185049305
 20
127.2725810622137
 30
0.0
 10
360.078069733493
 20
127.3114149866689
 30
0.0
  0
SPLINE
  5
E5
330
1F
100
AcDbEntity
  8
0
  6
Continuous
 62
     7
370
    25
100
AcDbSpline
210
0.0
220
0.0
230
1.0
 70
     8
 71
     3
 72
    23
 73
    19
 74
     0
 42
0.000000001
 43
0.00000001
 40
0.0
 40
0.0
 40
0.0
 40
0.0
 40
0.0449850911516383
 40
0.0909520670767777
 40
0.1379394291255006
 40
0.1859832248910951
 40
0.2351171761689533
 40
0.2853728096402591
 40
0.3367795876576951
 40
0.3893650370792399
 40
0.4431548745925064
 40
0.498173127394291
 40
0.5575107590849617
 40
0.6265492281305397
 40
0.7053073138942775
 40
0.7937970253739629
 40
0.8920262115920568
 40
1.0
 40
1.0
 40
1.0
 40
1.0
 10
347.2831057069253
 20
120.9097527504797
 30
0.0
 10
347.2809430175598
 20
120.9093238488202
 30
0.0
 10
347.2765704340392
 20
120.9084566839103
 30
0.0
 10
347.2662894748477
 20
120.9013631163094
 30
0.0
 10
347.2532291968178
 20
120.8897503747303
 30
0.0
 10
347.2371100352636
 20
120.8729610045577
 30
0.0
 10
347.2180096076076
 20
120.850889017943
 30
0.0
 10
347.1959072548517
 20
120.8232915441797
 30
0.0
 10
347.170806776316
 20
120.7899831129704
 30
0.0
 10
347.1427156449381
 20
120.7507827745636
 30
0.0
 10
347.111599744086
 20
120.7055407290904
 30
0.0
 10
347.0769608132038
 20
120.6531447967011
 30
0.0
 10
347.0362393049251
 20
120.5903623284819
 30
0.0
 10
346.9875183839003
 20
120.5126053292233
 30
0.0
 10
346.9297440455824
 20
120.4153207716448
 30
0.0
 10
346.8628333959374
 20
120.2955759379257
 30
0.0
 10
346.7868894316439
 20
120.1516557330215
 30
0.0
 10
346.7325282669587
 20
120.0409215281285
 30
0.0
 10
346.7040632028442
 20
119.9829379242046
 30
0.0
  0
LINE
  5
E6
330
1F
100
AcDbEntity
  8
0
  6
Continuous
 62
     7
370
    25
100
AcDbLine
 10
346.7040631553
 20
119.9834640911
 30
0.0
 11
346.3347239053
 21
120.3695489866
 31
0.0
  0
LINE
  5
E7
330
1F
100
AcDbEntity
  8
0
  6
Continuous
 62
     7
370
    25
100
AcDbLine
 10
368.0133383354
 20
120.369489382
 30
0.0
 11
367.6440717285
 21
119.9834813205
 31
0.0
  0
SPLINE
  5
E8
330
1F
100
AcDbEntity
  8
0
  6
Continuous
 62
     7
370
    25
100
AcDbSpline
210
0.0
220
0.0
230
1.0
 70
     8
 71
     3
 72
    26
 73
    22
 74
     0
 42
0.000000001
 43
0.00000001
 40
0.0
 40
0.0
 40
0.0
 40
0.0
 40
0.0509383868653979
 40
0.0998291548270505
 40
0.1466728126490638
 40
0.1914699456369332
 40
0.2342212299774179
 40
0.274927450668867
 40
0.3135895241747119
 40
0.3502085273716571
 40
0.3847857350077695
 40
0.4173226688482998
 40
0.4478211631571791
 40
0.4762834534603437
 40
0.5027122992246547
 40
0.593906700502561
 40
0.6816015993191188
 40
0.7659159552051488
 40
0.846983628966416
 40
0.9249552229440475
 40
1.0
 40
1.0
 40
1.0
 40
1.0
 10
367.6440721187892
 20
119.9827471939549
 30
0.0
 10
367.630614254591
 20
120.0103679751192
 30
0.0
 10
367.6042395047934
 20
120.0644992385725
 30
0.0
 10
367.5658673250144
 20
120.1408072756477
 30
0.0
 10
367.5294011425222
 20
120.2115594552394
 30
0.0
 10
367.4948648928984
 20
120.2767312819276
 30
0.0
 10
367.4622524410456
 20
120.3365895271793
 30
0.0
 10
367.4315651572527
 20
120.3913546867206
 30
0.0
 10
367.4028025409515
 20
120.4412790780326
 30
0.0
 10
367.3759643764791
 20
120.4866213086277
 30
0.0
 10
367.3510507960509
 20
120.5276472475685
 30
0.0
 10
367.3280601492622
 20
120.5646246325156
 30
0.0
 10
367.3069966437725
 20
120.597820748499
 30
0.0
 10
367.2878442733933
 20
120.6274964807662
 30
0.0
 10
367.2561731964485
 20
120.676166805816
 30
0.0
 10
367.2147032510119
 20
120.7380621237347
 30
0.0
 10
367.1677137348682
 20
120.8034027311585
 30
0.0
 10
367.1290951651532
 20
120.8525211224503
 30
0.0
 10
367.0990467054319
 20
120.8859974109625
 30
0.0
 10
367.0767565944627
 20
120.9061148432005
 30
0.0
 10
367.0688612790293
 20
120.90855567705
 30
0.0
 10
367.0649891300397
 20
120.9097527504797
 30
0.0
  0
SPLINE
  5
E9
330
1F
100
AcDbEntity
  8
0
  6
Continuous
 62
     7
370
    25
100
AcDbSpline
210
0.0
220
0.0
230
1.0
 70
     8
 71
     3
 72
     8
 73
     4
 74
     0
 42
0.000000001
 43
0.00000001
 40
0.0
 40
0.0
 40
0.0
 40
0.0
 40
1.0
 40
1.0
 40
1.0
 40
1.0
 10
364.9157278702829
 20
120.1027510769624
 30
0.0
 10
364.979320850623
 20
120.0370822991157
 30
0.0
 10
365.0432772770583
 20
119.9727400014554
 30
0.0
 10
365.1074761967657
 20
119.9110027504797
 30
0.0
  0
SPLINE
  5
EA
330
1F
100
AcDbEntity
  8
0
  6
Continuous
 62
     7
370
    25
100
AcDbSpline
210
0.0
220
0.0
230
1.0
 70
     8
 71
     3
 72
    25
 73
    21
 74
     0
 42
0.000000001
 43
0.00000001
 40
0.0
 40
0.0
 40
0.0
 40
0.0
 40
0.0367725003254103
 40
0.074208401060063
 40
0.1123590542807964
 40
0.1512729822568881
 40
0.190995910016845
 40
0.2315708273504481
 40
0.2730380740418892
 40
0.3154354426077851
 40
0.3587982934432034
 40
0.4031596779810961
 40
0.4485504661847858
 40
0.494999475376923
 40
0.5532504315673752
 40
0.621829488573267
 40
0.7007739996560722
 40
0.7901076726660372
 40
0.8898461547533933
 40
1.0
 40
1.0
 40
1.0
 40
1.0
 10
364.4738066829714
 20
120.9097527504794
 30
0.0
 10
364.4740304570362
 20
120.9094280628456
 30
0.0
 10
364.4744820421992
 20
120.9087728299969
 30
0.0
 10
364.4791990820714
 20
120.9034104582091
 30
0.0
 10
364.4868516911541
 20
120.8946548645086
 30
0.0
 10
364.4977446702911
 20
120.8820306464167
 30
0.0
 10
364.5117932567068
 20
120.8654743082863
 30
0.0
 10
364.5290201543161
 20
120.8448171309085
 30
0.0
 10
364.5494187070976
 20
120.8199293949407
 30
0.0
 10
364.5729895203897
 20
120.7906818487473
 30
0.0
 10
364.5997348689494
 20
120.7569589135509
 30
0.0
 10
364.6296427223817
 20
120.7186530984254
 30
0.0
 10
364.6627588147263
 20
120.6756822030875
 30
0.0
 10
364.7016847363003
 20
120.6242609214167
 30
0.0
 10
364.7505128160169
 20
120.5600446897276
 30
0.0
 10
364.8124334206179
 20
120.4771501606331
 30
0.0
 10
364.8868179789389
 20
120.3732044104186
 30
0.0
 10
364.9737924069274
 20
120.2451182001613
 30
0.0
 10
365.07321725691
 20
120.091028420255
 30
0.0
 10
365.1446364326395
 20
119.9729641843846
 30
0.0
 10
365.1821180163204
 20
119.9110027504797
 30
0.0
  0
LINE
  5
EB
330
1F
100
AcDbEntity
  8
0
  6
Continuous
 62
     7
370
    25
100
AcDbLine
 10
365.1821177086
 20
119.9110025381
 30
0.0
 11
365.1074759295
 21
119.9110025381
 31
0.0
  0
SPLINE
  5
EC
330
1F
100
AcDbEntity
  8
0
  6
Continuous
 62
     7
370
    25
100
AcDbSpline
210
0.0
220
0.0
230
1.0
 70
     8
 71
     3
 72
    23
 73
    19
 74
     0
 42
0.000000001
 43
0.00000001
 40
0.0
 40
0.0
 40
0.0
 40
0.0
 40
0.0511129009857221
 40
0.1016896331838983
 40
0.1518293139104713
 40
0.201633670189439
 40
0.2512064936754081
 40
0.3006530343006331
 40
0.3500793489716449
 40
0.3995916247932065
 40
0.4492954981442684
 40
0.4992953912354716
 40
0.5872572780521574
 40
0.6724255494349275
 40
0.7555067762540824
 40
0.8372616735271673
 40
0.9184882400167564
 40
1.0
 40
1.0
 40
1.0
 40
1.0
 10
364.9157905464083
 20
120.1029937930575
 30
0.0
 10
364.8997749625078
 20
120.1321223952885
 30
0.0
 10
364.8679117964448
 20
120.1900740438723
 30
0.0
 10
364.820867958026
 20
120.2728318790906
 30
0.0
 10
364.774889433851
 20
120.3519207375748
 30
0.0
 10
364.7301087670474
 20
120.4271377255089
 30
0.0
 10
364.6866250026115
 20
120.4986007805546
 30
0.0
 10
364.6445390390269
 20
120.566342184743
 30
0.0
 10
364.6039445746296
 20
120.6304156964879
 30
0.0
 10
364.5649296682793
 20
120.6908692955592
 30
0.0
 10
364.5275798457919
 20
120.7477468004874
 30
0.0
 10
364.4830515891998
 20
120.8144612735479
 30
0.0
 10
364.4344113286586
 20
120.8857815574124
 30
0.0
 10
364.3865722289028
 20
120.9543618098715
 30
0.0
 10
364.3489207168219
 20
121.0073781379136
 30
0.0
 10
364.3220980154344
 20
121.0446507940412
 30
0.0
 10
364.3053691846108
 20
121.0676881936212
 30
0.0
 10
364.3035207746469
 20
121.0702229188864
 30
0.0
 10
364.3025949500266
 20
121.0714925025298
 30
0.0
  0
SPLINE
  5
ED
330
1F
100
AcDbEntity
  8
0
  6
Continuous
 62
     7
370
    25
100
AcDbSpline
210
0.0
220
0.0
230
1.0
 70
     8
 71
     3
 72
     8
 73
     4
 74
     0
 42
0.000000001
 43
0.00000001
 40
0.0
 40
0.0
 40
0.0
 40
0.0
 40
1.0
 40
1.0
 40
1.0
 40
1.0
 10
367.5779400655546
 20
119.9110027504796
 30
0.0
 10
367.5998254371977
 20
119.9353237666773
 30
0.0
 10
367.6217108088409
 20
119.9593483649997
 30
0.0
 10
367.6435961804841
 20
119.9830552170882
 30
0.0
  0
LINE
  5
EE
330
1F
100
AcDbEntity
  8
0
  6
Continuous
 62
     7
370
    25
100
AcDbLine
 10
367.5777801877
 20
119.9110025381
 30
0.0
 11
365.1821177086
 21
119.9110025381
 31
0.0
  0
SPLINE
  5
EF
330
1F
100
AcDbEntity
  8
0
  6
Continuous
 62
     7
370
    25
100
AcDbSpline
210
0.0
220
0.0
230
1.0
 70
     8
 71
     3
 72
     8
 73
     4
 74
     0
 42
0.000000001
 43
0.00000001
 40
0.0
 40
0.0
 40
0.0
 40
0.0
 40
1.0
 40
1.0
 40
1.0
 40
1.0
 10
346.7044044306563
 20
119.9831587845683
 30
0.0
 10
346.7263212031438
 20
119.9594183360093
 30
0.0
 10
346.7482379756314
 20
119.9353591842226
 30
0.0
 10
346.770154748119
 20
119.9110027504797
 30
0.0
  0
SPLINE
  5
F0
330
1F
100
AcDbEntity
  8
0
  6
Continuous
 62
     7
370
    25
100
AcDbSpline
210
0.0
220
0.0
230
1.0
 70
     8
 71
     3
 72
    26
 73
    22
 74
     0
 42
0.000000001
 43
0.00000001
 40
0.0
 40
0.0
 40
0.0
 40
0.0
 40
0.0524616379932503
 40
0.1026498591890872
 40
0.150565513457809
 40
0.1962095861957063
 40
0.2395832262568645
 40
0.2806877815599511
 40
0.3195248450380211
 40
0.3560963147430692
 40
0.3904044736547445
 40
0.4224520974433627
 40
0.4522426027417772
 40
0.4797802555366611
 40
0.5050704712281336
 40
0.5966394156799991
 40
0.6841917884819224
 40
0.7679874773571101
 40
0.8483228539139507
 40
0.925534163520116
 40
1.0
 40
1.0
 40
1.0
 40
1.0
 10
349.1657992625664
 20
119.9110176424974
 30
0.0
 10
349.1836607468547
 20
119.9407911025385
 30
0.0
 10
349.2186096908305
 20
119.9990477944318
 30
0.0
 10
349.2693745243126
 20
120.0812467747965
 30
0.0
 10
349.3174444819543
 20
120.1573276436972
 30
0.0
 10
349.3627884547192
 20
120.2272789921635
 30
0.0
 10
349.4054144342245
 20
120.2913861541155
 30
0.0
 10
349.4453207327336
 20
120.3498939935857
 30
0.0
 10
349.4825080618489
 20
120.4030825712077
 30
0.0
 10
349.5169768844398
 20
120.4512406114449
 30
0.0
 10
349.5487269730721
 20
120.4946652847211
 30
0.0
 10
349.5777613776732
 20
120.533655375818
 30
0.0
 10
349.6040726668743
 20
120.5685094743445
 30
0.0
 10
349.6276892964185
 20
120.5995144687951
 30
0.0
 10
349.6673349754243
 20
120.651757687428
 30
0.0
 10
349.7188732722234
 20
120.7192870206852
 30
0.0
 10
349.7756994092045
 20
120.7914804668937
 30
0.0
 10
349.8198568371676
 20
120.8459644230162
 30
0.0
 10
349.8510344601096
 20
120.8832292141846
 30
0.0
 10
349.8704940267488
 20
120.9056935664593
 30
0.0
 10
349.8726356244292
 20
120.9084161158865
 30
0.0
 10
349.8736870409859
 20
120.9097527504797
 30
0.0
  0
LINE
  5
F1
330
1F
100
AcDbEntity
  8
0
  6
Continuous
 62
     7
370
    25
100
AcDbLine
 10
349.1657992458
 20
119.9110025381
 30
0.0
 11
346.7701544618
 21
119.9110025381
 31
0.0
  0
LINE
  5
F2
330
1F
100
AcDbEntity
  8
0
  6
Continuous
 62
     7
370
    25
100
AcDbLine
 10
349.2406189075
 20
119.9110025381
 30
0.0
 11
349.1654993599
 21
119.9110025381
 31
0.0
  0
SPLINE
  5
F3
330
1F
100
AcDbEntity
  8
0
  6
Continuous
 62
     7
370
    25
100
AcDbSpline
210
0.0
220
0.0
230
1.0
 70
     8
 71
     3
 72
     8
 73
     4
 74
     0
 42
0.000000001
 43
0.00000001
 40
0.0
 40
0.0
 40
0.0
 40
0.0
 40
1.0
 40
1.0
 40
1.0
 40
1.0
 10
349.2406186401994
 20
119.9110027504797
 30
0.0
 10
349.3045274428594
 20
119.9729716139108
 30
0.0
 10
349.3683023622113
 20
120.0369476790274
 30
0.0
 10
349.4316624280922
 20
120.1024823353732
 30
0.0
  0
SPLINE
  5
F4
330
1F
100
AcDbEntity
  8
0
  6
Continuous
 62
     7
370
    25
100
AcDbSpline
210
0.0
220
0.0
230
1.0
 70
     8
 71
     3
 72
    24
 73
    20
 74
     0
 42
0.000000001
 43
0.00000001
 40
0.0
 40
0.0
 40
0.0
 40
0.0
 40
0.0410257106287842
 40
0.0818520099077639
 40
0.1225800578354648
 40
0.1633117464058233
 40
0.2041489402806705
 40
0.2451927184749161
 40
0.2865426449235763
 40
0.3282960933646444
 40
0.370547647549383
 40
0.4133885920102291
 40
0.4569065022351533
 40
0.5011849368587563
 40
0.6001856774947433
 40
0.6987388860447942
 40
0.7976800645453981
 40
0.8978349910029445
 40
1.0
 40
1.0
 40
1.0
 40
1.0
 10
350.045245233967
 20
121.0711428318112
 30
0.0
 10
350.045050470526
 20
121.0708754816536
 30
0.0
 10
350.0446618903195
 20
121.0703420808323
 30
0.0
 10
350.0406071026452
 20
121.0647703348332
 30
0.0
 10
350.0340131436653
 20
121.0556895856794
 30
0.0
 10
350.0246488827554
 20
121.0427521253187
 30
0.0
 10
350.0126007689854
 20
121.0260336824129
 30
0.0
 10
349.997878199525
 20
121.0054916716411
 30
0.0
 10
349.9805192066777
 20
120.9811102975943
 30
0.0
 10
349.9605620355243
 20
120.9528615535224
 30
0.0
 10
349.9380529858288
 20
120.9207160061213
 30
0.0
 10
349.9130437500674
 20
120.8846391661551
 30
0.0
 10
349.8855943805426
 20
120.8445955736358
 30
0.0
 10
349.8436712674753
 20
120.7826751302946
 30
0.0
 10
349.7844650922642
 20
120.693362639198
 30
0.0
 10
349.7046854991439
 20
120.5688180471693
 30
0.0
 10
349.6187047141574
 20
120.4290332546795
 30
0.0
 10
349.5274199269355
 20
120.2746204356934
 30
0.0
 10
349.4642155728774
 20
120.1605744140426
 30
0.0
 10
349.4322994229119
 20
120.1029848700273
 30
0.0
  0
LINE
  5
F5
330
1F
100
AcDbEntity
  8
0
  6
Continuous
 62
     7
370
    25
100
AcDbLine
 10
346.361406297
 20
111.3896976066
 30
0.0
 11
346.7856442189
 21
111.8384907795
 31
0.0
  0
SPLINE
  5
F6
330
1F
100
AcDbEntity
  8
0
  6
Continuous
 62
     7
370
    25
100
AcDbSpline
210
0.0
220
0.0
230
1.0
 70
     8
 71
     3
 72
    13
 73
     9
 74
     0
 42
0.000000001
 43
0.00000001
 40
0.0
 40
0.0
 40
0.0
 40
0.0
 40
0.170632084649598
 40
0.3395984165075754
 40
0.5069574111411415
 40
0.6727691830249297
 40
0.8370955447763889
 40
1.0
 40
1.0
 40
1.0
 40
1.0
 10
346.7856439313603
 20
111.8384700089505
 30
0.0
 10
346.7906494017691
 20
111.8315186358691
 30
0.0
 10
346.8006114779414
 20
111.817683750737
 30
0.0
 10
346.8134853058333
 20
111.80155599228
 30
0.0
 10
346.8247516183292
 20
111.788887262121
 30
0.0
 10
346.8342289817645
 20
111.7800308242821
 30
0.0
 10
346.8421112144592
 20
111.7745187958023
 30
0.0
 10
346.8459261206926
 20
111.7738404497214
 30
0.0
 10
346.8478252854089
 20
111.7735027504797
 30
0.0
  0
SPLINE
  5
F7
330
1F
100
AcDbEntity
  8
0
  6
Continuous
 62
     7
370
    25
100
AcDbSpline
210
0.0
220
0.0
230
1.0
 70
     8
 71
     3
 72
    13
 73
     9
 74
     0
 42
0.000000001
 43
0.00000001
 40
0.0
 40
0.0
 40
0.0
 40
0.0
 40
0.1621004456571512
 40
0.325943455157606
 40
0.4915935308260523
 40
0.6591130873964648
 40
0.8285624736043361
 40
1.0
 40
1.0
 40
1.0
 40
1.0
 10
367.5002695515561
 20
111.7735027504797
 30
0.0
 10
367.5021466578983
 20
111.7738372335804
 30
0.0
 10
367.5059210492913
 20
111.774509795442
 30
0.0
 10
367.5137681264702
 20
111.7799830798377
 30
0.0
 10
367.5232341862452
 20
111.788802544498
 30
0.0
 10
367.5345151010476
 20
111.801455301492
 30
0.0
 10
367.5474297195453
 20
111.8176073028885
 30
0.0
 10
367.557425433791
 20
111.8314931028315
 30
0.0
 10
367.5624524397027
 20
111.8384764955821
 30
0.0
  0
LINE
  5
F8
330
1F
100
AcDbEntity
  8
0
  6
Continuous
 62
     7
370
    25
100
AcDbLine
 10
367.5624655193
 20
111.8384768096
 30
0.0
 11
367.9866876086
 21
111.3896976066
 31
0.0
  0
SPLINE
  5
F9
330
1F
100
AcDbEntity
  8
0
  6
Continuous
 62
     7
370
    25
100
AcDbSpline
210
0.0
220
0.0
230
1.0
 70
     8
 71
     3
 72
     8
 73
     4
 74
     0
 42
0.000000001
 43
0.00000001
 40
0.0
 40
0.0
 40
0.0
 40
0.0
 40
1.0
 40
1.0
 40
1.0
 40
1.0
 10
367.5624654806956
 20
111.8384771086493
 30
0.0
 10
367.5602819964544
 20
111.8413257741657
 30
0.0
 10
367.5580985122133
 20
111.8442665655632
 30
0.0
 10
367.5559150279722
 20
111.8472990628397
 30
0.0
  0
LINE
  5
FA
330
1F
100
AcDbEntity
  8
0
  6
Continuous
 62
     7
370
    25
100
AcDbLine
 10
367.5550121447
 20
111.8485029628
 30
0.0
 11
365.1162014907
 21
111.8485029628
 31
0.0
  0
LINE
  5
FB
330
1F
100
AcDbEntity
  8
0
  6
Continuous
 62
     7
370
    25
100
AcDbLine
 10
365.1074759295
 20
111.8485029628
 30
0.0
 11
365.1161977654
 21
111.8485029628
 31
0.0
  0
SPLINE
  5
FC
330
1F
100
AcDbEntity
  8
0
  6
Continuous
 62
     7
370
    25
100
AcDbSpline
210
0.0
220
0.0
230
1.0
 70
     8
 71
     3
 72
     8
 73
     4
 74
     0
 42
0.000000001
 43
0.00000001
 40
0.0
 40
0.0
 40
0.0
 40
0.0
 40
1.0
 40
1.0
 40
1.0
 40
1.0
 10
346.7930825754023
 20
111.8485027504874
 30
0.0
 10
346.7905966567158
 20
111.8450410511753
 30
0.0
 10
346.7881107380293
 20
111.8416968992664
 30
0.0
 10
346.7856248193428
 20
111.838470907326
 30
0.0
  0
LINE
  5
FD
330
1F
100
AcDbEntity
  8
0
  6
Continuous
 62
     7
370
    25
100
AcDbLine
 10
349.2303864663
 20
111.8485029628
 30
0.0
 11
346.7932987591
 21
111.8485029628
 31
0.0
  0
LINE
  5
FE
330
1F
100
AcDbEntity
  8
0
  6
Continuous
 62
     7
370
    25
100
AcDbLine
 10
349.2318961402
 20
111.8485029628
 30
0.0
 11
349.2406189075
 21
111.8485029628
 31
0.0
  0
SPLINE
  5
FF
330
1F
100
AcDbEntity
  8
0
  6
Continuous
 62
     7
370
    25
100
AcDbSpline
210
0.0
220
0.0
230
1.0
 70
     8
 71
     3
 72
    14
 73
    10
 74
     0
 42
0.000000001
 43
0.00000001
 40
0.0
 40
0.0
 40
0.0
 40
0.0
 40
0.0310276388071746
 40
0.0622853718672815
 40
0.1248003166904892
 40
0.2498289731753984
 40
0.499889260361071
 40
0.7606803621682141
 40
1.0
 40
1.0
 40
1.0
 40
1.0
 10
346.2139534240233
 20
111.3917645758643
 30
0.0
 10
346.2182827174885
 20
111.3965484981424
 30
0.0
 10
346.226973409522
 20
111.4061518192307
 30
0.0
 10
346.2443741881842
 20
111.4254461332285
 30
0.0
 10
346.2748503480291
 20
111.4592110796822
 30
0.0
 10
346.3356717408485
 20
111.5266298385439
 30
0.0
 10
346.4235620832617
 20
111.6240965134108
 30
0.0
 10
346.5263997633452
 20
111.7382410253078
 30
0.0
 10
346.5936058747869
 20
111.8130258383144
 30
0.0
 10
346.6257662364338
 20
111.8488128609586
 30
0.0
  0
LINE
  5
100
330
1F
100
AcDbEntity
  8
0
  6
Continuous
 62
     7
370
    25
100
AcDbLine
 10
346.6254381096
 20
111.8485029628
 30
0.0
 11
346.7930826923
 21
111.8485029628
 31
0.0
  0
LINE
  5
101
330
1F
100
AcDbEntity
  8
0
  6
Continuous
 62
     7
370
    25
100
AcDbLine
 10
367.5550121447
 20
111.8485029628
 30
0.0
 11
367.722664178
 21
111.8485029628
 31
0.0
  0
SPLINE
  5
102
330
1F
100
AcDbEntity
  8
0
  6
Continuous
 62
     7
370
    25
100
AcDbSpline
210
0.0
220
0.0
230
1.0
 70
     8
 71
     3
 72
    11
 73
     7
 74
     0
 42
0.000000001
 43
0.00000001
 40
0.0
 40
0.0
 40
0.0
 40
0.0
 40
0.2392913844325938
 40
0.5001130135003002
 40
0.7515028526498353
 40
0.9999999999999999
 40
0.9999999999999999
 40
0.9999999999999999
 40
0.9999999999999999
 10
367.7223606711529
 20
111.8487895529913
 30
0.0
 10
367.7545172241326
 20
111.813012834414
 30
0.0
 10
367.8217236162582
 20
111.7382403866583
 30
0.0
 10
367.9247517060056
 20
111.6237816733356
 30
0.0
 10
368.0298423706227
 20
111.5076224872157
 30
0.0
 10
368.0995171907024
 20
111.43023454592
 30
0.0
 10
368.1341530073961
 20
111.3917644853451
 30
0.0
  0
LINE
  5
103
330
1F
100
AcDbEntity
  8
0
  6
Continuous
 62
     7
370
    25
100
AcDbLine
 10
346.7701544618
 20
119.9110025381
 30
0.0
 11
346.6255824646
 21
119.9110025381
 31
0.0
  0
SPLINE
  5
104
330
1F
100
AcDbEntity
  8
0
  6
Continuous
 62
     7
370
    25
100
AcDbSpline
210
0.0
220
0.0
230
1.0
 70
     8
 71
     3
 72
    11
 73
     7
 74
     0
 42
0.000000001
 43
0.00000001
 40
0.0
 40
0.0
 40
0.0
 40
0.0
 40
0.2392845094479873
 40
0.5001120454076898
 40
0.7515010915036774
 40
1.0
 40
1.0
 40
1.0
 40
1.0
 10
346.6258850742728
 20
119.9107169642831
 30
0.0
 10
346.5937239445029
 20
119.9465148133449
 30
0.0
 10
346.5265061859067
 20
120.0213334280427
 30
0.0
 10
346.4234615374087
 20
120.1358616922978
 30
0.0
 10
346.3183533085219
 20
120.2520926859722
 30
0.0
 10
346.2486677918945
 20
120.3295271816632
 30
0.0
 10
346.2140264794548
 20
120.3680205829993
 30
0.0
  0
SPLINE
  5
105
330
1F
100
AcDbEntity
  8
0
  6
Continuous
 62
     7
370
    25
100
AcDbSpline
210
0.0
220
0.0
230
1.0
 70
     8
 71
     3
 72
    14
 73
    10
 74
     0
 42
0.000000001
 43
0.00000001
 40
0.0
 40
0.0
 40
0.0
 40
0.0
 40
0.031029414748255
 40
0.0622870907562092
 40
0.1248019217225762
 40
0.249830351143087
 40
0.4998901825554788
 40
0.7606872170552411
 40
1.0
 40
1.0
 40
1.0
 40
1.0
 10
368.1340567421851
 20
120.3680204747231
 30
0.0
 10
368.1297265458695
 20
120.3632332881531
 30
0.0
 10
368.1210342990744
 20
120.353623699098
 30
0.0
 10
368.103630670727
 20
120.334317705392
 30
0.0
 10
368.0731499351919
 20
120.3005324897401
 30
0.0
 10
368.0123193134696
 20
120.2330733587925
 30
0.0
 10
367.924414410303
 20
120.1355468530822
 30
0.0
 10
367.8215601656861
 20
120.0213328463077
 30
0.0
 10
367.7543427075396
 20
119.9465018862027
 30
0.0
 10
367.7221777781373
 20
119.9106937402945
 30
0.0
  0
LINE
  5
106
330
1F
100
AcDbEntity
  8
0
  6
Continuous
 62
     7
370
    25
100
AcDbLine
 10
367.7225049218
 20
119.9110025381
 30
0.0
 11
367.5779403752
 21
119.9110025381
 31
0.0
  0
LINE
  5
107
330
1F
100
AcDbEntity
  8
0
  6
Continuous
 62
     7
370
    25
100
AcDbLine
 10
345.3033791488
 20
113.6924150241
 30
0.0
 11
345.7434421038
 21
113.7735027196
 31
0.0
  0
SPLINE
  5
108
330
1F
100
AcDbEntity
  8
0
  6
Continuous
 62
     7
370
    25
100
AcDbSpline
210
0.0
220
0.0
230
1.0
 70
     8
 71
     3
 72
    25
 73
    21
 74
     0
 42
0.000000001
 43
0.00000001
 40
0.0
 40
0.0
 40
0.0
 40
0.0
 40
0.0274788704223154
 40
0.0560416006850518
 40
0.0856947086352136
 40
0.116444016653826
 40
0.1482947438681133
 40
0.1812515840470034
 40
0.2153187716748716
 40
0.2505001382254911
 40
0.333051455250936
 40
0.5015081958163736
 40
0.5771663066143947
 40
0.648898130302521
 40
0.716747770006283
 40
0.7807674423488066
 40
0.84101941313403
 40
0.8975784849924567
 40
0.9505352047788314
 40
1.0
 40
1.0
 40
1.0
 40
1.0
 10
345.7434422110713
 20
113.7735027504797
 30
0.0
 10
345.7501503784147
 20
113.7443205459622
 30
0.0
 10
345.7638313059715
 20
113.6848050918135
 30
0.0
 10
345.7865960346254
 20
113.5944145947548
 30
0.0
 10
345.8114736718658
 20
113.5012829856337
 30
0.0
 10
345.8386129098833
 20
113.4056969413588
 30
0.0
 10
345.8679743169146
 20
113.3079434717455
 30
0.0
 10
345.8995594872026
 20
113.208362795688
 30
0.0
 10
345.9334063570674
 20
113.1073536561095
 30
0.0
 10
345.9851075870002
 20
112.9605868488584
 30
0.0
 10
346.0894666000139
 20
112.6963204359441
 30
0.0
 10
346.2103398276977
 20
112.4263508061156
 30
0.0
 10
346.3238328741548
 20
112.2089411313993
 30
0.0
 10
346.3951058417707
 20
112.0792375606688
 30
0.0
 10
346.4571804138965
 20
111.9753624833439
 30
0.0
 10
346.5097644260638
 20
111.8955018495254
 30
0.0
 10
346.5530109719913
 20
111.8374832233749
 30
0.0
 10
346.5866177842114
 20
111.7993796647225
 30
0.0
 10
346.6115647670841
 20
111.7773771337278
 30
0.0
 10
346.6205243039461
 20
111.7747645203765
 30
0.0
 10
346.6248513406641
 20
111.7735027504797
 30
0.0
  0
LINE
  5
109
330
1F
100
AcDbEntity
  8
0
  6
Continuous
 62
     7
370
    25
100
AcDbLine
 10
369.0447156882
 20
118.0670904768
 30
0.0
 11
368.6046527332
 21
117.9860027814
 31
0.0
  0
SPLINE
  5
10A
330
1F
100
AcDbEntity
  8
0
  6
Continuous
 62
     7
370
    25
100
AcDbSpline
210
0.0
220
0.0
230
1.0
 70
     8
 71
     3
 72
    25
 73
    21
 74
     0
 42
0.000000001
 43
0.00000001
 40
0.0
 40
0.0
 40
0.0
 40
0.0
 40
0.0274788704223041
 40
0.0560416006850305
 40
0.0856947086351823
 40
0.1164440166537841
 40
0.1482947438680617
 40
0.1812515840469434
 40
0.2153187716748025
 40
0.2505001382254136
 40
0.3330514552861967
 40
0.5015081958164245
 40
0.5771663066128696
 40
0.6488981302998588
 40
0.7167477700029257
 40
0.7807674423452041
 40
0.8410194131306359
 40
0.8975784849897311
 40
0.950535204777236
 40
1.0
 40
1.0
 40
1.0
 40
1.0
 10
368.6046526258938
 20
117.9860027504797
 30
0.0
 10
368.5979444585503
 20
118.0151849549972
 30
0.0
 10
368.5842635309936
 20
118.0747004091459
 30
0.0
 10
368.5614988023397
 20
118.1650909062046
 30
0.0
 10
368.5366211650993
 20
118.2582225153258
 30
0.0
 10
368.5094819270818
 20
118.3538085596007
 30
0.0
 10
368.4801205200505
 20
118.4515620292139
 30
0.0
 10
368.4485353497624
 20
118.5511427052714
 30
0.0
 10
368.4146884798977
 20
118.65215184485
 30
0.0
 10
368.3629872499524
 20
118.7989186521351
 30
0.0
 10
368.2586282369414
 20
119.0631850650477
 30
0.0
 10
368.1377550092557
 20
119.3331546948668
 30
0.0
 10
368.0242619628104
 20
119.550564369557
 30
0.0
 10
367.9529889951949
 20
119.680267940286
 30
0.0
 10
367.8909144230691
 20
119.7841430176107
 30
0.0
 10
367.8383304109018
 20
119.86400365143
 30
0.0
 10
367.7950838649743
 20
119.9220222775819
 30
0.0
 10
367.7614770527541
 20
119.9601258362356
 30
0.0
 10
367.7365300698813
 20
119.9821283672315
 30
0.0
 10
367.7275705330191
 20
119.9847409805829
 30
0.0
 10
367.723243496301
 20
119.9860027504797
 30
0.0
  0
SPLINE
  5
10B
330
1F
100
AcDbEntity
  8
0
  6
Continuous
 62
     7
370
    25
100
AcDbSpline
210
0.0
220
0.0
230
1.0
 70
     8
 71
     3
 72
    25
 73
    21
 74
     0
 42
0.000000001
 43
0.00000001
 40
0.0
 40
0.0
 40
0.0
 40
0.0
 40
0.0288821753110086
 40
0.0583636594013118
 40
0.0884647204314734
 40
0.1192044006626603
 40
0.150600580009491
 40
0.1826700399677263
 40
0.2154285269580574
 40
0.248890814337993
 40
0.361059447124065
 40
0.4984670131067773
 40
0.5822693905007604
 40
0.666112764278331
 40
0.7499972937224478
 40
0.8007709755049082
 40
0.8511237700832938
 40
0.9010896024531745
 40
0.9507031914125761
 40
1.0
 40
1.0
 40
1.0
 40
1.0
 10
346.6248513406641
 20
119.9860027504797
 30
0.0
 10
346.6225610722864
 20
119.9855745085038
 30
0.0
 10
346.6179330121734
 20
119.984709138477
 30
0.0
 10
346.6076227490861
 20
119.9776342057754
 30
0.0
 10
346.5947866798552
 20
119.966065664615
 30
0.0
 10
346.5791731211126
 20
119.9493600885025
 30
0.0
 10
346.5608516776999
 20
119.9274231774863
 30
0.0
 10
346.5398040918688
 20
119.9000255420016
 30
0.0
 10
346.5160325198767
 20
119.8669910613195
 30
0.0
 10
346.4689759904402
 20
119.7980003951917
 30
0.0
 10
346.3812815725834
 20
119.6579744257701
 30
0.0
 10
346.2637299180499
 20
119.4386791245656
 30
0.0
 10
346.1522077537085
 20
119.2017490637944
 30
0.0
 10
346.0607484363605
 20
118.9859071898845
 30
0.0
 10
345.9798667851829
 20
118.7843455690027
 30
0.0
 10
345.9137218833148
 20
118.6054774886105
 30
0.0
 10
345.8643713224878
 20
118.4541012874666
 30
0.0
 10
345.8194043056229
 20
118.2998571323437
 30
0.0
 10
345.7786465917036
 20
118.1437012772681
 30
0.0
 10
345.7551519224864
 20
118.0384565703201
 30
0.0
 10
345.7434422110713
 20
117.9860027504797
 30
0.0
  0
LINE
  5
10C
330
1F
100
AcDbEntity
  8
0
  6
Continuous
 62
     7
370
    25
100
AcDbLine
 10
345.3033791488
 20
118.0670904768
 30
0.0
 11
345.7434421038
 21
117.9860027814
 31
0.0
  0
SPLINE
  5
10D
330
1F
100
AcDbEntity
  8
0
  6
Continuous
 62
     7
370
    25
100
AcDbSpline
210
0.0
220
0.0
230
1.0
 70
     8
 71
     3
 72
    25
 73
    21
 74
     0
 42
0.000000001
 43
0.00000001
 40
0.0
 40
0.0
 40
0.0
 40
0.0
 40
0.0288821753116583
 40
0.0583636594024247
 40
0.088464720432864
 40
0.1192044006641432
 40
0.1506005800108822
 40
0.1826700399688414
 40
0.2154285269587146
 40
0.2488908143380118
 40
0.3610594471217245
 40
0.498467013106778
 40
0.5822693905006526
 40
0.6661127642782239
 40
0.7499972937224496
 40
0.8007709755032478
 40
0.8511237700807983
 40
0.901089602450676
 40
0.9507031914109089
 40
1.0
 40
1.0
 40
1.0
 40
1.0
 10
367.723243496301
 20
111.7735027504797
 30
0.0
 10
367.7255337646787
 20
111.7739309924556
 30
0.0
 10
367.7301618247917
 20
111.7747963624825
 30
0.0
 10
367.7404720878792
 20
111.7818712951844
 30
0.0
 10
367.7533081571101
 20
111.7934398363451
 30
0.0
 10
367.7689217158528
 20
111.8101454124578
 30
0.0
 10
367.7872431592654
 20
111.8320823234742
 30
0.0
 10
367.8082907450965
 20
111.8594799589588
 30
0.0
 10
367.8320623170884
 20
111.8925144396406
 30
0.0
 10
367.8791188465247
 20
111.9615051057671
 30
0.0
 10
367.9668132643824
 20
112.1015310751877
 30
0.0
 10
368.0843649189145
 20
112.3208263763919
 30
0.0
 10
368.1958870832553
 20
112.5577564371652
 30
0.0
 10
368.2873464006034
 20
112.7735983110751
 30
0.0
 10
368.3682280517813
 20
112.9751599319552
 30
0.0
 10
368.4343729536494
 20
113.1540280123447
 30
0.0
 10
368.4837235144759
 20
113.3054042134859
 30
0.0
 10
368.5286905313407
 20
113.4596483686087
 30
0.0
 10
368.5694482452605
 20
113.6158042236869
 30
0.0
 10
368.5929429144783
 20
113.7210489306376
 30
0.0
 10
368.6046526258938
 20
113.7735027504797
 30
0.0
  0
LINE
  5
10E
330
1F
100
AcDbEntity
  8
0
  6
Continuous
 62
     7
370
    25
100
AcDbLine
 10
369.0447156882
 20
113.6924150241
 30
0.0
 11
368.6046527332
 21
113.7735027196
 31
0.0
  0
SPLINE
  5
10F
330
1F
100
AcDbEntity
  8
0
  6
Continuous
 62
     7
370
    25
100
AcDbSpline
210
0.0
220
0.0
230
1.0
 70
     8
 71
     3
 72
    12
 73
     8
 74
     0
 42
0.000000001
 43
0.00000001
 40
0.0
 40
0.0
 40
0.0
 40
0.0
 40
0.2971540265968837
 40
0.5953109213084592
 40
0.7630993176302537
 40
0.9170814912125203
 40
1.0
 40
1.0
 40
1.0
 40
1.0
 10
348.2761896779611
 20
117.9860027813996
 30
0.0
 10
348.358518507973
 20
118.2473387929515
 30
0.0
 10
348.5234540203935
 20
118.7708928015904
 30
0.0
 10
348.7897441743265
 20
119.327206501293
 30
0.0
 10
348.9825545024586
 20
119.6653983335209
 30
0.0
 10
349.084013322366
 20
119.840275367658
 30
0.0
 10
349.1171273421511
 20
119.8926653286488
 30
0.0
 10
349.1287177061512
 20
119.9110025381382
 30
0.0
  0
SPLINE
  5
110
330
1F
100
AcDbEntity
  8
0
  6
Continuous
 62
     7
370
    25
100
AcDbSpline
210
0.0
220
0.0
230
1.0
 70
     8
 71
     3
 72
    12
 73
     8
 74
     0
 42
0.000000001
 43
0.00000001
 40
0.0
 40
0.0
 40
0.0
 40
0.0
 40
0.2971540265968837
 40
0.5953109213084592
 40
0.7630993176302537
 40
0.9170814912125203
 40
1.0
 40
1.0
 40
1.0
 40
1.0
 10
366.071905159004
 20
113.7735027195598
 30
0.0
 10
365.9895763289921
 20
113.512166708008
 30
0.0
 10
365.8246408165716
 20
112.9886126993691
 30
0.0
 10
365.5583506626386
 20
112.4322989996665
 30
0.0
 10
365.3655403345065
 20
112.0941071674386
 30
0.0
 10
365.2640815145991
 20
111.9192301333014
 30
0.0
 10
365.2309674948139
 20
111.8668401723106
 30
0.0
 10
365.2193771308138
 20
111.8485029628213
 30
0.0
  0
SPLINE
  5
111
330
1F
100
AcDbEntity
  8
0
  6
Continuous
 62
     7
370
    25
100
AcDbSpline
210
0.0
220
0.0
230
1.0
 70
     8
 71
     3
 72
    11
 73
     7
 74
     0
 42
0.000000001
 43
0.00000001
 40
0.0
 40
0.0
 40
0.0
 40
0.0
 40
0.1078686449390932
 40
0.4034673949314601
 40
0.7028907467952099
 40
1.0
 40
1.0
 40
1.0
 40
1.0
 10
349.1276485478356
 20
111.8485029628213
 30
0.0
 10
349.1112026635881
 20
111.8744675304245
 30
0.0
 10
349.0496891618802
 20
111.9715843196205
 30
0.0
 10
348.8341805594179
 20
112.3472612273136
 30
0.0
 10
348.522412500032
 20
112.986524246934
 30
0.0
 10
348.358051419452
 20
113.5118558594386
 30
0.0
 10
348.2761896779611
 20
113.7735027195598
 30
0.0
  0
LINE
  5
112
330
1F
100
AcDbEntity
  8
0
  6
Continuous
 62
     7
370
    25
100
AcDbLine
 10
348.5924500605
 20
117.9111393476
 30
0.0
 11
348.276189678
 21
117.9860027814
 31
0.0
  0
SPLINE
  5
113
330
1F
100
AcDbEntity
  8
0
  6
Continuous
 62
     7
370
    25
100
AcDbSpline
210
0.0
220
0.0
230
1.0
 70
     8
 71
     3
 72
    25
 73
    21
 74
     0
 42
0.000000001
 43
0.00000001
 40
0.0
 40
0.0
 40
0.0
 40
0.0
 40
0.0278144320063462
 40
0.0555680196245754
 40
0.083331625367772
 40
0.111176035216759
 40
0.1391714221532265
 40
0.1673868326284763
 40
0.1958897140434718
 40
0.2247454979318961
 40
0.254017249222145
 40
0.3796724410016501
 40
0.5056484635002454
 40
0.629752729069345
 40
0.7535891720571729
 40
0.8038564806093713
 40
0.853339684343451
 40
0.9023264398358534
 40
0.9511131859219439
 40
1.0
 40
1.0
 40
1.0
 40
1.0
 10
349.460071329194
 20
120.1535010416622
 30
0.0
 10
349.4599235778793
 20
120.1532344991087
 30
0.0
 10
349.4596283984575
 20
120.1527019970665
 30
0.0
 10
349.4560036994418
 20
120.1461545483703
 30
0.0
 10
349.4500578037715
 20
120.1353853050841
 30
0.0
 10
349.4415830808564
 20
120.1199745691598
 30
0.0
 10
349.4306680940172
 20
120.100018192906
 30
0.0
 10
349.4173320257789
 20
120.0754680964356
 30
0.0
 10
349.401624261092
 20
120.0463114726797
 30
0.0
 10
349.3835926729341
 20
120.0125155012463
 30
0.0
 10
349.3411751281856
 20
119.9321087431885
 30
0.0
 10
349.2606540884321
 20
119.7751202935178
 30
0.0
 10
349.1272277415576
 20
119.4933345557704
 30
0.0
 10
348.9831507648745
 20
119.1554624461434
 30
0.0
 10
348.8674730134231
 20
118.8467815324051
 30
0.0
 10
348.7849615382059
 20
118.6007508126501
 30
0.0
 10
348.7320399136808
 20
118.4319249213769
 30
0.0
 10
348.6821827793033
 20
118.2606093503652
 30
0.0
 10
348.6351647860728
 20
118.0869270001444
 30
0.0
 10
348.6066977753442
 20
117.969775311841
 30
0.0
 10
348.5924496875454
 20
117.9111394558796
 30
0.0
  0
LINE
  5
114
330
1F
100
AcDbEntity
  8
0
  6
Continuous
 62
     7
370
    25
100
AcDbLine
 10
348.5924500605
 20
113.8483661534
 30
0.0
 11
348.276189678
 21
113.7735027196
 31
0.0
  0
SPLINE
  5
115
330
1F
100
AcDbEntity
  8
0
  6
Continuous
 62
     7
370
    25
100
AcDbSpline
210
0.0
220
0.0
230
1.0
 70
     8
 71
     3
 72
    25
 73
    21
 74
     0
 42
0.000000001
 43
0.00000001
 40
0.0
 40
0.0
 40
0.0
 40
0.0
 40
0.0269872354797669
 40
0.0539362690259618
 40
0.0809037148829035
 40
0.1079460716545392
 40
0.1351193706855853
 40
0.162478838835575
 40
0.190078585418252
 40
0.2179713214290535
 40
0.2462081170984584
 40
0.3700050494705653
 40
0.4947542611659071
 40
0.6210439034695193
 40
0.7446557472315123
 40
0.7967060293738726
 40
0.8478613449329371
 40
0.8985210411990388
 40
0.9490962115257747
 40
1.0
 40
1.0
 40
1.0
 40
1.0
 10
348.5924496875454
 20
113.8483660450799
 30
0.0
 10
348.6002304322695
 20
113.8159696400522
 30
0.0
 10
348.6157809076405
 20
113.7512226889108
 30
0.0
 10
348.6404663136137
 20
113.6545761524822
 30
0.0
 10
348.6660862706128
 20
113.5584820639909
 30
0.0
 10
348.6927291342402
 20
113.4629697932741
 30
0.0
 10
348.7203543195247
 20
113.3680450658815
 30
0.0
 10
348.748956098584
 20
113.2737189097458
 30
0.0
 10
348.7785181882255
 20
113.1800025652965
 30
0.0
 10
348.8090313352726
 20
113.0868984814062
 30
0.0
 10
348.8757655398619
 20
112.8906332392932
 30
0.0
 10
348.9829487159577
 20
112.6045601236899
 30
0.0
 10
349.1267288062664
 20
112.2672702276965
 30
0.0
 10
349.2599772624783
 20
111.9857610508731
 30
0.0
 10
349.3476484386915
 20
111.8147701206946
 30
0.0
 10
349.3985234744838
 20
111.7188573023122
 30
0.0
 10
349.4261926291352
 20
111.6676400988575
 30
0.0
 10
349.4458915472528
 20
111.6316573047725
 30
0.0
 10
349.4581390559562
 20
111.6094874164505
 30
0.0
 10
349.4594258491123
 20
111.6071679487169
 30
0.0
 10
349.460071329194
 20
111.6060044592972
 30
0.0
  0
LINE
  5
116
330
1F
100
AcDbEntity
  8
0
  6
Continuous
 62
     7
370
    25
100
AcDbLine
 10
365.7556447765
 20
113.8483661534
 30
0.0
 11
366.071905159
 21
113.7735027196
 31
0.0
  0
SPLINE
  5
117
330
1F
100
AcDbEntity
  8
0
  6
Continuous
 62
     7
370
    25
100
AcDbSpline
210
0.0
220
0.0
230
1.0
 70
     8
 71
     3
 72
    25
 73
    21
 74
     0
 42
0.000000001
 43
0.00000001
 40
0.0
 40
0.0
 40
0.0
 40
0.0
 40
0.0278144320057649
 40
0.0555680196235595
 40
0.083331625366468
 40
0.1111760352153128
 40
0.1391714221517827
 40
0.1673868326271739
 40
0.195889714042447
 40
0.2247454979312803
 40
0.2540172492220635
 40
0.3796724409988544
 40
0.505648463500191
 40
0.6297527290689083
 40
0.7535891720572004
 40
0.803856480609888
 40
0.85333968434422
 40
0.902326439836625
 40
0.9511131859224594
 40
1.0
 40
1.0
 40
1.0
 40
1.0
 10
364.888023507771
 20
111.6060044592972
 30
0.0
 10
364.8881712590857
 20
111.6062710018508
 30
0.0
 10
364.8884664385075
 20
111.606803503893
 30
0.0
 10
364.8920911375233
 20
111.6133509525891
 30
0.0
 10
364.8980370331936
 20
111.6241201958754
 30
0.0
 10
364.9065117561087
 20
111.6395309317997
 30
0.0
 10
364.9174267429478
 20
111.6594873080535
 30
0.0
 10
364.9307628111862
 20
111.684037404524
 30
0.0
 10
364.9464705758732
 20
111.7131940282799
 30
0.0
 10
364.9645021640311
 20
111.7469899997133
 30
0.0
 10
365.0069197087781
 20
111.8273967577686
 30
0.0
 10
365.0874407485319
 20
111.9843852074398
 30
0.0
 10
365.2208670954063
 20
112.2661709451866
 30
0.0
 10
365.3649440720899
 20
112.6040430548144
 30
0.0
 10
365.4806218235419
 20
112.9127239685542
 30
0.0
 10
365.5631332987597
 20
113.1587546883109
 30
0.0
 10
365.6160549232851
 20
113.327580579585
 30
0.0
 10
365.6659120576624
 20
113.4988961505967
 30
0.0
 10
365.7129300508927
 20
113.6725785008166
 30
0.0
 10
365.7413970616209
 20
113.7897301891191
 30
0.0
 10
365.7556451494196
 20
113.8483660450799
 30
0.0
  0
SPLINE
  5
118
330
1F
100
AcDbEntity
  8
0
  6
Continuous
 62
     7
370
    25
100
AcDbSpline
210
0.0
220
0.0
230
1.0
 70
     8
 71
     3
 72
    11
 73
     7
 74
     0
 42
0.000000001
 43
0.00000001
 40
0.0
 40
0.0
 40
0.0
 40
0.0
 40
0.1078686449390932
 40
0.4034673949314601
 40
0.7028907467952099
 40
1.0
 40
1.0
 40
1.0
 40
1.0
 10
365.2204462891295
 20
119.9110025381382
 30
0.0
 10
365.236892173377
 20
119.8850379705349
 30
0.0
 10
365.2984056750849
 20
119.787921181339
 30
0.0
 10
365.5139142775473
 20
119.4122442736458
 30
0.0
 10
365.8256823369331
 20
118.7729812540255
 30
0.0
 10
365.990043417513
 20
118.2476496415209
 30
0.0
 10
366.071905159004
 20
117.9860027813996
 30
0.0
  0
LINE
  5
119
330
1F
100
AcDbEntity
  8
0
  6
Continuous
 62
     7
370
    25
100
AcDbLine
 10
365.7556447765
 20
117.9111393476
 30
0.0
 11
366.071905159
 21
117.9860027814
 31
0.0
  0
SPLINE
  5
11A
330
1F
100
AcDbEntity
  8
0
  6
Continuous
 62
     7
370
    25
100
AcDbSpline
210
0.0
220
0.0
230
1.0
 70
     8
 71
     3
 72
    12
 73
     8
 74
     0
 42
0.000000001
 43
0.00000001
 40
0.0
 40
0.0
 40
0.0
 40
0.0
 40
0.1404141540052139
 40
0.2845308631549995
 40
0.5710083094680874
 40
0.8589424285223366
 40
0.9999999999999999
 40
0.9999999999999999
 40
0.9999999999999999
 40
0.9999999999999999
 10
365.7556447764709
 20
117.9111393475617
 30
0.0
 10
365.71887390314
 20
118.0566854063871
 30
0.0
 10
365.644362552045
 20
118.351615401442
 30
0.0
 10
365.4640190680882
 20
118.9098659713273
 30
0.0
 10
365.2177976872804
 20
119.5177223063586
 30
0.0
 10
364.9996226469193
 20
119.948509445951
 30
0.0
 10
364.9366868028135
 20
120.064384942843
 30
0.0
 10
364.9159927485361
 20
120.1024861847694
 30
0.0
  0
ARC
  5
11B
330
1F
100
AcDbEntity
  8
0
  6
Continuous
 62
     7
370
    25
100
AcDbCircle
 10
357.1740474185
 20
115.8797527505
 30
0.0
 40
11.62303852141071
100
AcDbArc
 50
169.5595567507
 51
190.4404432494
  0
ARC
  5
11C
330
1F
100
AcDbEntity
  8
0
  6
Continuous
 62
     7
370
    25
100
AcDbCircle
 10
357.1740474185
 20
115.8797527505
 30
0.0
 40
9.143750000000006
100
AcDbArc
 50
166.6824039243
 51
193.3175960757
  0
ARC
  5
11D
330
1F
100
AcDbEntity
  8
0
  6
Continuous
 62
     7
370
    25
100
AcDbCircle
 10
357.1740474185
 20
115.8797527505
 30
0.0
 40
8.818750000000026
100
AcDbArc
 50
166.6824039243
 51
193.3175960757
  0
ARC
  5
11E
330
1F
100
AcDbEntity
  8
0
  6
Continuous
 62
     7
370
    25
100
AcDbCircle
 10
357.1740474185
 20
115.8797527505
 30
0.0
 40
9.143750000000006
100
AcDbArc
 50
346.6824039243
 51
13.3175960757
  0
ARC
  5
11F
330
1F
100
AcDbEntity
  8
0
  6
Continuous
 62
     7
370
    25
100
AcDbCircle
 10
357.1740474185
 20
115.8797527505
 30
0.0
 40
8.81874999999997
100
AcDbArc
 50
346.6824039243
 51
13.3175960757
  0
ARC
  5
120
330
1F
100
AcDbEntity
  8
0
  6
Continuous
 62
     7
370
    25
100
AcDbCircle
 10
357.1740474185
 20
115.8797527505
 30
0.0
 40
11.6230385214107
100
AcDbArc
 50
349.5595567507
 51
10.4404432493
  0
CIRCLE
  5
121
330
1F
100
AcDbEntity
  8
0
  6
Continuous
 62
     7
370
    25
100
AcDbCircle
 10
357.1740474185
 20
115.8797527505
 30
0.0
 40
7.774999999999977
  0
CIRCLE
  5
122
330
1F
100
AcDbEntity
  8
0
  6
Continuous
 62
     7
370
    25
100
AcDbCircle
 10
357.1740474185
 20
115.8797527505
 30
0.0
 40
2.615470053837896
  0
CIRCLE
  5
123
330
1F
100
AcDbEntity
  8
0
  6
Continuous
 62
     7
370
    25
100
AcDbCircle
 10
357.1740474185
 20
115.8797527505
 30
0.0
 40
2.5
  0
CIRCLE
  5
124
330
1F
100
AcDbEntity
  8
0
  6
Continuous
 62
     7
370
    25
100
AcDbCircle
 10
357.1740474185
 20
115.8797527505
 30
0.0
 40
15.73750000000001
  0
CIRCLE
  5
125
330
1F
100
AcDbEntity
  8
0
  6
Continuous
 62
     7
370
    25
100
AcDbCircle
 10
357.1740474185
 20
115.8797527505
 30
0.0
 40
13.42499999999995
  0
CIRCLE
  5
126
330
1F
100
AcDbEntity
  8
0
  6
Continuous
 62
     7
370
    25
100
AcDbCircle
 10
357.1740474185
 20
115.8797527505
 30
0.0
 40
2.0
  0
LINE
  5
127
330
1F
100
AcDbEntity
  8
0
  6
CENTER
 62
     7
370
    18
100
AcDbLine
 10
357.1740474185
 20
115.8797527505
 30
0.0
 11
357.1740474185
 21
135.3827043506
 31
0.0
  0
LINE
  5
128
330
1F
100
AcDbEntity
  8
0
  6
CENTER
 62
     7
370
    18
100
AcDbLine
 10
357.1740474185
 20
115.8797527505
 30
0.0
 11
376.6885474185
 21
115.8797527505
 31
0.0
  0
LINE
  5
129
330
1F
100
AcDbEntity
  8
0
  6
Continuous
 62
     7
370
    18
100
AcDbLine
 10
369.1740474185
 20
133.3827043506
 30
0.0
 11
357.1740474185
 21
133.3827043506
 31
0.0
  0
SOLID
  5
12A
330
1F
100
AcDbEntity
  8
0
  6
Continuous
 62
     7
370
    18
100
AcDbTrace
 10
357.1740474185
 20
133.3827043506
 30
0.0
 11
363.1740474185
 21
131.8827043506
 31
0.0
 12
363.1740474185
 22
134.8827043506
 32
0.0
 13
363.1740474185
 23
134.8827043506
 33
0.0
  0
LINE
  5
12B
330
1F
100
AcDbEntity
  8
0
  6
Continuous
 62
     7
370
    18
100
AcDbLine
 10
386.6885474185
 20
115.8797527505
 30
0.0
 11
374.6885474185
 21
115.8797527505
 31
0.0
  0
SOLID
  5
12C
330
1F
100
AcDbEntity
  8
0
  6
Continuous
 62
     7
370
    18
100
AcDbTrace
 10
374.6885474185
 20
115.8797527505
 30
0.0
 11
380.6885474185
 21
114.3797527505
 31
0.0
 12
380.6885474185
 22
117.3797527505
 32
0.0
 13
380.6885474185
 23
117.3797527505
 33
0.0
  0
MTEXT
  5
12D
330
1F
100
AcDbEntity
  8
0
  6
Continuous
 62
     7
100
AcDbMText
 10
366.0266666745
 20
140.0289975672
 30
0.0
 40
3.5
 41
0.0
 71
     1
 72
     1
  1
A
  7
SLDTEXTSTYLE0
 73
     1
 44
1.0
  0
MTEXT
  5
12E
330
1F
100
AcDbEntity
  8
0
  6
Continuous
 62
     7
100
AcDbMText
 10
383.5411666745
 20
113.6665371093
 30
0.0
 40
3.5
 41
0.0
 71
     1
 72
     1
  1
A
  7
SLDTEXTSTYLE0
 73
     1
 44
1.0
  0
LINE
  5
12F
330
1F
100
AcDbEntity
  8
0
  6
Continuous
 62
     7
370
    25
100
AcDbLine
 10
124.0400120819
 20
84.4047527505
 30
0.0
 11
128.8058142774
 21
84.4047527505
 31
0.0
  0
LINE
  5
130
330
1F
100
AcDbEntity
  8
0
  6
Continuous
 62
     7
370
    25
100
AcDbLine
 10
111.0058142774
 20
84.4047527505
 30
0.0
 11
117.3716164728
 21
84.4047527505
 31
0.0
  0
ARC
  5
131
330
1F
100
AcDbEntity
  8
0
  6
Continuous
 62
     7
370
    25
100
AcDbCircle
 10
111.0058142774
 20
84.6047527505
 30
0.0
 40
0.2000000000000171
100
AcDbArc
 50
180.0
 51
270.0
  0
LINE
  5
132
330
1F
100
AcDbEntity
  8
0
  6
Continuous
 62
     7
370
    25
100
AcDbLine
 10
117.3716164728
 20
84.4047527505
 30
0.0
 11
118.8308142774
 21
86.9321574863
 31
0.0
  0
LINE
  5
133
330
1F
100
AcDbEntity
  8
0
  6
Continuous
 62
     7
370
    25
100
AcDbLine
 10
122.5808142774
 20
86.9321574863
 30
0.0
 11
124.0400120819
 21
84.4047527505
 31
0.0
  0
ARC
  5
134
330
1F
100
AcDbEntity
  8
0
  6
Continuous
 62
     7
370
    25
100
AcDbCircle
 10
119.8308142774
 20
87.0297527505
 30
0.0
 40
1.000000000000014
100
AcDbArc
 50
90.0
 51
180.0
  0
ARC
  5
135
330
1F
100
AcDbEntity
  8
0
  6
Continuous
 62
     7
370
    25
100
AcDbCircle
 10
121.5808142774
 20
87.0297527505
 30
0.0
 40
1.0
100
AcDbArc
 50
0.0
 51
90.0
  0
LINE
  5
136
330
1F
100
AcDbEntity
  8
0
  6
Continuous
 62
     7
370
    25
100
AcDbLine
 10
119.8308142774
 20
88.0297527505
 30
0.0
 11
121.5808142774
 21
88.0297527505
 31
0.0
  0
ARC
  5
137
330
1F
100
AcDbEntity
  8
0
  6
Continuous
 62
     7
370
    25
100
AcDbCircle
 10
110.3768794028
 20
90.3297527505
 30
0.0
 40
0.8000000000000139
100
AcDbArc
 50
57.576802718
 51
107.5
  0
LINE
  5
138
330
1F
100
AcDbEntity
  8
0
  6
Continuous
 62
     7
370
    25
100
AcDbLine
 10
109.6456322373
 20
90.938014705
 30
0.0
 11
110.1363147632
 21
91.0927263111
 31
0.0
  0
LINE
  5
139
330
1F
100
AcDbEntity
  8
0
  6
Continuous
 62
     7
370
    25
100
AcDbLine
 10
96.3193688093
 20
91.6072322297
 30
0.0
 11
109.6456322373
 21
90.938014705
 31
0.0
  0
LINE
  5
13A
330
1F
100
AcDbEntity
  8
0
  6
Continuous
 62
     7
370
    25
100
AcDbLine
 10
72.3558142774
 20
92.8106326229
 30
0.0
 11
80.4106511409
 21
92.4061352919
 31
0.0
  0
LINE
  5
13B
330
1F
100
AcDbEntity
  8
0
  6
Continuous
 62
     7
370
    25
100
AcDbLine
 10
70.8558142774
 20
93.6766580267
 30
0.0
 11
72.3558142774
 21
92.8106326229
 31
0.0
  0
ARC
  5
13C
330
1F
100
AcDbEntity
  8
0
  6
Continuous
 62
     7
370
    25
100
AcDbCircle
 10
131.8058142774
 20
95.8797527505
 30
0.0
 40
3.0
100
AcDbArc
 50
90.0
 51
180.0
  0
LINE
  5
13D
330
1F
100
AcDbEntity
  8
0
  6
Continuous
 62
     7
370
    25
100
AcDbLine
 10
131.8058142774
 20
98.8797527505
 30
0.0
 11
186.3340977008
 21
98.8797527505
 31
0.0
  0
LINE
  5
13E
330
1F
100
AcDbEntity
  8
0
  6
Continuous
 62
     7
370
    25
100
AcDbLine
 10
186.3340977008
 20
98.8797527505
 30
0.0
 11
228.9627324688
 21
102.2346990663
 31
0.0
  0
ARC
  5
13F
330
1F
100
AcDbEntity
  8
0
  6
Continuous
 62
     7
370
    25
100
AcDbCircle
 10
228.8058142774
 20
104.2285337338
 30
0.0
 40
2.000000000000019
100
AcDbArc
 50
274.5
 51
0.0
  0
LINE
  5
140
330
1F
100
AcDbEntity
  8
0
  6
Continuous
 62
     7
370
    25
100
AcDbLine
 10
181.8058142774
 20
121.3797527505
 30
0.0
 11
181.3058142774
 21
121.8797527505
 31
0.0
  0
LINE
  5
141
330
1F
100
AcDbEntity
  8
0
  6
Continuous
 62
     7
370
    25
100
AcDbLine
 10
181.3058142774
 20
121.8797527505
 30
0.0
 11
166.3058142774
 21
121.8797527505
 31
0.0
  0
LINE
  5
142
330
1F
100
AcDbEntity
  8
0
  6
Continuous
 62
     7
370
    25
100
AcDbLine
 10
166.3058142774
 20
121.8797527505
 30
0.0
 11
165.8058142774
 21
121.3797527505
 31
0.0
  0
LINE
  5
143
330
1F
100
AcDbEntity
  8
0
  6
Continuous
 62
     7
370
    25
100
AcDbLine
 10
183.8058142774
 20
121.3548549719
 30
0.0
 11
185.8058142774
 21
121.3548549719
 31
0.0
  0
LINE
  5
144
330
1F
100
AcDbEntity
  8
0
  6
Continuous
 62
     7
370
    25
100
AcDbLine
 10
183.8058142774
 20
121.3797527505
 30
0.0
 11
181.8058142774
 21
121.3797527505
 31
0.0
  0
SPLINE
  5
145
330
1F
100
AcDbEntity
  8
0
  6
Continuous
 62
     7
370
    25
100
AcDbSpline
210
0.0
220
0.0
230
1.0
 70
     8
 71
     3
 72
    11
 73
     7
 74
     0
 42
0.000000001
 43
0.00000001
 40
0.0
 40
0.0
 40
0.0
 40
0.0
 40
0.2701949965567602
 40
0.5496278655747033
 40
0.9385757634131232
 40
1.0
 40
1.0
 40
1.0
 40
1.0
 10
166.041712662232
 20
118.1236534830226
 30
0.0
 10
166.150352288518
 20
118.2033585913059
 30
0.0
 10
166.3713458919278
 20
118.3654938976568
 30
0.0
 10
166.5559045043404
 20
118.6664112336741
 30
0.0
 10
166.471817011546
 20
118.9071255405843
 30
0.0
 10
166.3388862481654
 20
119.0458857303507
 30
0.0
 10
166.3207564172202
 20
119.0648106106298
 30
0.0
  0
SPLINE
  5
146
330
1F
100
AcDbEntity
  8
0
  6
Continuous
 62
     7
370
    25
100
AcDbSpline
210
0.0
220
0.0
230
1.0
 70
     8
 71
     3
 72
    10
 73
     6
 74
     0
 42
0.000000001
 43
0.00000001
 40
0.0
 40
0.0
 40
0.0
 40
0.0
 40
0.2702476582550726
 40
0.8114648036973552
 40
1.0
 40
1.0
 40
1.0
 40
1.0
 10
166.3995156925042
 20
115.87975275048
 30
0.0
 10
166.4471743332648
 20
116.0855124472684
 30
0.0
 10
166.590277551324
 20
116.7033411198322
 30
0.0
 10
166.3472468637166
 20
117.4828252188914
 30
0.0
 10
166.1044424154601
 20
117.9920839282063
 30
0.0
 10
166.041712662232
 20
118.1236534830226
 30
0.0
  0
LINE
  5
147
330
1F
100
AcDbEntity
  8
0
  6
Continuous
 62
     7
370
    25
100
AcDbLine
 10
165.8058142774
 20
119.5797527505
 30
0.0
 11
166.3207564172
 21
119.0648106106
 31
0.0
  0
LINE
  5
148
330
1F
100
AcDbEntity
  8
0
  6
Continuous
 62
     7
370
    25
100
AcDbLine
 10
165.8058142774
 20
119.5797527505
 30
0.0
 11
165.8058142774
 21
115.8797527505
 31
0.0
  0
LINE
  5
149
330
1F
100
AcDbEntity
  8
0
  6
Continuous
 62
     7
370
    25
100
AcDbLine
 10
178.8058142774
 20
118.7054471005
 30
0.0
 11
178.8058142774
 21
118.8797527505
 31
0.0
  0
LINE
  5
14A
330
1F
100
AcDbEntity
  8
0
  6
Continuous
 62
     7
370
    25
100
AcDbLine
 10
178.8058142774
 20
116.4199094992
 30
0.0
 11
178.8058142774
 21
118.7054471005
 31
0.0
  0
LINE
  5
14B
330
1F
100
AcDbEntity
  8
0
  6
Continuous
 62
     7
370
    25
100
AcDbLine
 10
178.8058142774
 20
115.8797527505
 30
0.0
 11
178.8058142774
 21
116.4199094992
 31
0.0
  0
LINE
  5
14C
330
1F
100
AcDbEntity
  8
0
  6
Continuous
 62
     7
370
    25
100
AcDbLine
 10
172.8058142773
 20
116.4199094992
 30
0.0
 11
172.8058142773
 21
115.8797527505
 31
0.0
  0
LINE
  5
14D
330
1F
100
AcDbEntity
  8
0
  6
Continuous
 62
     7
370
    25
100
AcDbLine
 10
172.8058142773
 20
118.7054471005
 30
0.0
 11
172.8058142773
 21
116.4199094992
 31
0.0
  0
LINE
  5
14E
330
1F
100
AcDbEntity
  8
0
  6
Continuous
 62
     7
370
    25
100
AcDbLine
 10
172.8058142773
 20
118.8797527505
 30
0.0
 11
172.8058142773
 21
118.7054471005
 31
0.0
  0
LINE
  5
14F
330
1F
100
AcDbEntity
  8
0
  6
Continuous
 62
     7
370
    25
100
AcDbLine
 10
172.8058142773
 20
118.8797527505
 30
0.0
 11
178.8058142774
 21
118.8797527505
 31
0.0
  0
LINE
  5
150
330
1F
100
AcDbEntity
  8
0
  6
Continuous
 62
     7
370
    25
100
AcDbLine
 10
183.8058142774
 20
119.0648106106
 30
0.0
 11
183.8058142774
 21
121.3797527505
 31
0.0
  0
LINE
  5
151
330
1F
100
AcDbEntity
  8
0
  6
Continuous
 62
     7
370
    25
100
AcDbLine
 10
178.8058142774
 20
119.0648106106
 30
0.0
 11
183.8058142774
 21
119.0648106106
 31
0.0
  0
LINE
  5
152
330
1F
100
AcDbEntity
  8
0
  6
Continuous
 62
     7
370
    25
100
AcDbLine
 10
178.8058142774
 20
118.8797527505
 30
0.0
 11
178.8058142774
 21
119.0648106106
 31
0.0
  0
LINE
  5
153
330
1F
100
AcDbEntity
  8
0
  6
Continuous
 62
     7
370
    25
100
AcDbLine
 10
172.8058142773
 20
119.0648106106
 30
0.0
 11
172.8058142773
 21
118.8797527505
 31
0.0
  0
LINE
  5
154
330
1F
100
AcDbEntity
  8
0
  6
Continuous
 62
     7
370
    25
100
AcDbLine
 10
166.3207564172
 20
119.0648106106
 30
0.0
 11
172.8058142773
 21
119.0648106106
 31
0.0
  0
LINE
  5
155
330
1F
100
AcDbEntity
  8
0
  6
Continuous
 62
     7
370
    25
100
AcDbLine
 10
165.8058142774
 20
121.3797527505
 30
0.0
 11
165.8058142774
 21
119.5797527505
 31
0.0
  0
LINE
  5
156
330
1F
100
AcDbEntity
  8
0
  6
Continuous
 62
     7
370
    25
100
AcDbLine
 10
172.8058142773
 20
118.123653483
 30
0.0
 11
166.0417126622
 21
118.123653483
 31
0.0
  0
LINE
  5
157
330
1F
100
AcDbEntity
  8
0
  6
Continuous
 62
     7
370
    25
100
AcDbLine
 10
185.1058142774
 20
118.7054471005
 30
0.0
 11
183.8058142774
 21
118.7054471005
 31
0.0
  0
SPLINE
  5
158
330
1F
100
AcDbEntity
  8
0
  6
Continuous
 62
     7
370
    25
100
AcDbSpline
210
0.0
220
0.0
230
1.0
 70
     8
 71
     3
 72
     9
 73
     5
 74
     0
 42
0.000000001
 43
0.00000001
 40
0.0
 40
0.0
 40
0.0
 40
0.0
 40
0.5039876238385124
 40
1.0
 40
1.0
 40
1.0
 40
1.0
 10
185.1058142773698
 20
118.7054471005276
 30
0.0
 10
185.1326459855944
 20
118.6030885332296
 30
0.0
 10
185.1858848092391
 20
118.3999911505628
 30
0.0
 10
185.4425879551408
 20
118.2152749864831
 30
0.0
 10
185.5699158925075
 20
118.1236534830226
 30
0.0
  0
LINE
  5
159
330
1F
100
AcDbEntity
  8
0
  6
Continuous
 62
     7
370
    25
100
AcDbLine
 10
178.8058142774
 20
118.123653483
 30
0.0
 11
185.5699158925
 21
118.123653483
 31
0.0
  0
LINE
  5
15A
330
1F
100
AcDbEntity
  8
0
  6
Continuous
 62
     7
370
    25
100
AcDbLine
 10
183.8058142774
 20
118.7054471005
 30
0.0
 11
183.8058142774
 21
119.0648106106
 31
0.0
  0
LINE
  5
15B
330
1F
100
AcDbEntity
  8
0
  6
Continuous
 62
     7
370
    25
100
AcDbLine
 10
185.8058142774
 20
121.3548549719
 30
0.0
 11
185.8058142774
 21
119.4768611494
 31
0.0
  0
LINE
  5
15C
330
1F
100
AcDbEntity
  8
0
  6
Continuous
 62
     7
370
    25
100
AcDbLine
 10
185.8058142774
 20
119.4768611494
 30
0.0
 11
185.1058142774
 21
118.7054471005
 31
0.0
  0
SPLINE
  5
15D
330
1F
100
AcDbEntity
  8
0
  6
Continuous
 62
     7
370
    25
100
AcDbSpline
210
0.0
220
0.0
230
1.0
 70
     8
 71
     3
 72
    10
 73
     6
 74
     0
 42
0.000000001
 43
0.00000001
 40
0.0
 40
0.0
 40
0.0
 40
0.0
 40
0.1885351963026426
 40
0.7297523417449236
 40
1.0
 40
1.0
 40
1.0
 40
1.0
 10
185.5699158925075
 20
118.1236534830226
 30
0.0
 10
185.5071861392796
 20
117.9920839282063
 30
0.0
 10
185.264381691023
 20
117.4828252188914
 30
0.0
 10
185.0213510034156
 20
116.7033411198322
 30
0.0
 10
185.1644542214748
 20
116.0855124472684
 30
0.0
 10
185.2121128622354
 20
115.87975275048
 30
0.0
  0
LINE
  5
15E
330
1F
100
AcDbEntity
  8
0
  6
Continuous
 62
     7
370
    25
100
AcDbLine
 10
185.8058142774
 20
119.4768611494
 30
0.0
 11
185.8058142774
 21
115.8797527505
 31
0.0
  0
LINE
  5
15F
330
1F
100
AcDbEntity
  8
0
  6
Continuous
 62
     7
370
    25
100
AcDbLine
 10
124.0400120819
 20
84.4047527505
 30
0.0
 11
124.0400120819
 21
110.9900454708
 31
0.0
  0
SPLINE
  5
160
330
1F
100
AcDbEntity
  8
0
  6
Continuous
 62
     7
370
    25
100
AcDbSpline
210
0.0
220
0.0
230
1.0
 70
     8
 71
     3
 72
    20
 73
    16
 74
     0
 42
0.000000001
 43
0.00000001
 40
0.0
 40
0.0
 40
0.0
 40
0.0
 40
0.1250000000000001
 40
0.1250000000000001
 40
0.2500000000000001
 40
0.2500000000000001
 40
0.3750000000000002
 40
0.3750000000000002
 40
0.5000000000000002
 40
0.5000000000000002
 40
0.7500000000000001
 40
0.7500000000000001
 40
0.875
 40
0.875
 40
1.0
 40
1.0
 40
1.0
 40
1.0
 10
127.5933142773698
 20
115.8797527504799
 30
0.0
 10
127.5933142773698
 20
115.6130846629987
 30
0.0
 10
127.5712672483261
 20
115.3447724877246
 30
0.0
 10
127.4822612106213
 20
114.8119294524913
 30
0.0
 10
127.4163822424218
 20
114.5526392425054
 30
0.0
 10
127.2442073347146
 20
114.0475122764839
 30
0.0
 10
127.1375007638076
 20
113.8009320605627
 30
0.0
 10
126.8848238609314
 20
113.324515409823
 30
0.0
 10
126.7413665967367
 20
113.0990953480581
 30
0.0
 10
126.2630444044562
 20
112.4584876664444
 30
0.0
 10
125.8750174214907
 20
112.0757219513414
 30
0.0
 10
125.2332127730453
 20
111.5998197031698
 30
0.0
 10
125.0084081453981
 20
111.4562240670181
 30
0.0
 10
124.5370990877759
 20
111.1988926816275
 30
0.0
 10
124.291402487887
 20
111.0858403031056
 30
0.0
 10
124.0400120819399
 20
110.9900454707949
 30
0.0
  0
LINE
  5
161
330
1F
100
AcDbEntity
  8
0
  6
Continuous
 62
     7
370
    25
100
AcDbLine
 10
128.8058142774
 20
84.4047527505
 30
0.0
 11
128.8058142774
 21
115.8797527505
 31
0.0
  0
LINE
  5
162
330
1F
100
AcDbEntity
  8
0
  6
Continuous
 62
     7
370
    25
100
AcDbLine
 10
128.8058142774
 20
147.3547527505
 30
0.0
 11
124.0400120819
 21
147.3547527505
 31
0.0
  0
SPLINE
  5
163
330
1F
100
AcDbEntity
  8
0
  6
Continuous
 62
     7
370
    25
100
AcDbSpline
210
0.0
220
0.0
230
1.0
 70
     8
 71
     3
 72
    14
 73
    10
 74
     0
 42
0.000000001
 43
0.00000001
 40
0.0
 40
0.0
 40
0.0
 40
0.0
 40
0.2500000000000001
 40
0.2500000000000001
 40
0.5000000000000002
 40
0.5000000000000002
 40
0.7500000000000001
 40
0.7500000000000001
 40
1.0
 40
1.0
 40
1.0
 40
1.0
 10
117.3716164727997
 20
112.5848546649632
 30
0.0
 10
117.1747405872748
 20
112.8123512328924
 30
0.0
 10
116.9986322658853
 20
113.0539380079635
 30
0.0
 10
116.6888958721121
 20
113.5660952423376
 30
0.0
 10
116.5543378706185
 20
113.8396280454457
 30
0.0
 10
116.3390957179094
 20
114.3997331799831
 30
0.0
 10
116.2574524803904
 20
114.6867056753931
 30
0.0
 10
116.1469294581204
 20
115.2747446604373
 30
0.0
 10
116.1183142773698
 20
115.579188116208
 30
0.0
 10
116.1183142773698
 20
115.8797527504798
 30
0.0
  0
LINE
  5
164
330
1F
100
AcDbEntity
  8
0
  6
Continuous
 62
     7
370
    25
100
AcDbLine
 10
117.3716164728
 20
84.4047527505
 30
0.0
 11
117.3716164728
 21
112.584854665
 31
0.0
  0
LINE
  5
165
330
1F
100
AcDbEntity
  8
0
  6
Continuous
 62
     7
370
    25
100
AcDbLine
 10
117.3716164728
 20
147.3547527505
 30
0.0
 11
111.0058142774
 21
147.3547527505
 31
0.0
  0
LINE
  5
166
330
1F
100
AcDbEntity
  8
0
  6
Continuous
 62
     7
370
    25
100
AcDbLine
 10
110.8058142774
 20
84.6047527505
 30
0.0
 11
110.8058142774
 21
115.8797527505
 31
0.0
  0
LINE
  5
167
330
1F
100
AcDbEntity
  8
0
  6
Continuous
 62
     7
370
    25
100
AcDbLine
 10
110.8058142774
 20
115.8797527505
 30
0.0
 11
111.0058142774
 21
115.8797527505
 31
0.0
  0
ARC
  5
168
330
1F
100
AcDbEntity
  8
0
  6
Continuous
 62
     7
370
    25
100
AcDbCircle
 10
111.0058142774
 20
147.1547527505
 30
0.0
 40
0.2000000000000171
100
AcDbArc
 50
90.0
 51
179.9999999999
  0
SPLINE
  5
169
330
1F
100
AcDbEntity
  8
0
  6
Continuous
 62
     7
370
    25
100
AcDbSpline
210
0.0
220
0.0
230
1.0
 70
     8
 71
     3
 72
     8
 73
     4
 74
     0
 42
0.000000001
 43
0.00000001
 40
0.0
 40
0.0
 40
0.0
 40
0.0
 40
1.0
 40
1.0
 40
1.0
 40
1.0
 10
124.0400120819395
 20
110.9900454707938
 30
0.0
 10
123.6916106772592
 20
111.4280207972077
 30
0.0
 10
123.3470422920263
 20
111.8711039357925
 30
0.0
 10
123.0086579927055
 20
112.3244950076411
 30
0.0
  0
ARC
  5
16A
330
1F
100
AcDbEntity
  8
0
  6
Continuous
 62
     7
370
    25
100
AcDbCircle
 10
121.8558142774
 20
115.8797527505
 30
0.0
 40
3.737499999999983
100
AcDbArc
 50
287.9660359156
 51
360.0
  0
ARC
  5
16B
330
1F
100
AcDbEntity
  8
0
  6
Continuous
 62
     7
370
    25
100
AcDbCircle
 10
121.8558142774
 20
115.8797527505
 30
0.0
 40
3.737500000000011
100
AcDbArc
 50
180.0
 51
206.113804444
  0
SPLINE
  5
16C
330
1F
100
AcDbEntity
  8
0
  6
Continuous
 62
     7
370
    25
100
AcDbSpline
210
0.0
220
0.0
230
1.0
 70
     8
 71
     3
 72
    10
 73
     6
 74
     0
 42
0.000000001
 43
0.00000001
 40
0.0
 40
0.0
 40
0.0
 40
0.0
 40
0.5
 40
0.5
 40
1.0
 40
1.0
 40
1.0
 40
1.0
 10
118.4998324699166
 20
114.2346714886444
 30
0.0
 10
118.3229473234932
 20
113.9362211732878
 30
0.0
 10
118.1373979486158
 20
113.6572284691604
 30
0.0
 10
117.7594490085682
 20
113.1119091750347
 30
0.0
 10
117.566662466389
 20
112.8465737892132
 30
0.0
 10
117.3716164727997
 20
112.5848546649633
 30
0.0
  0
SPLINE
  5
16D
330
1F
100
AcDbEntity
  8
0
  6
Continuous
 62
     7
370
    25
100
AcDbSpline
210
0.0
220
0.0
230
1.0
 70
     8
 71
     3
 72
     8
 73
     4
 74
     0
 42
0.000000001
 43
0.00000001
 40
0.0
 40
0.0
 40
0.0
 40
0.0
 40
1.0
 40
1.0
 40
1.0
 40
1.0
 10
118.8308142773699
 20
113.6846943799576
 30
0.0
 10
118.7125175179399
 20
113.8477186084161
 30
0.0
 10
118.6010890357685
 20
114.0281071074385
 30
0.0
 10
118.4998324699166
 20
114.2346714886444
 30
0.0
  0
LINE
  5
16E
330
1F
100
AcDbEntity
  8
0
  6
Continuous
 62
     7
370
    25
100
AcDbLine
 10
118.8308142774
 20
86.9321574863
 30
0.0
 11
118.8308142774
 21
113.68469438
 31
0.0
  0
SPLINE
  5
16F
330
1F
100
AcDbEntity
  8
0
  6
Continuous
 62
     7
370
    25
100
AcDbSpline
210
0.0
220
0.0
230
1.0
 70
     8
 71
     3
 72
     8
 73
     4
 74
     0
 42
0.000000001
 43
0.00000001
 40
0.0
 40
0.0
 40
0.0
 40
0.0
 40
1.0
 40
1.0
 40
1.0
 40
1.0
 10
123.0086579927058
 20
112.3244950076419
 30
0.0
 10
122.8671199044239
 20
112.2785992365448
 30
0.0
 10
122.7245094356871
 20
112.2416583856075
 30
0.0
 10
122.58081427737
 20
112.2132447046669
 30
0.0
  0
LINE
  5
170
330
1F
100
AcDbEntity
  8
0
  6
Continuous
 62
     7
370
    25
100
AcDbLine
 10
122.5808142774
 20
86.9321574863
 30
0.0
 11
122.5808142774
 21
112.2132447047
 31
0.0
  0
SPLINE
  5
171
330
1F
100
AcDbEntity
  8
0
  6
Continuous
 62
     7
370
    25
100
AcDbSpline
210
0.0
220
0.0
230
1.0
 70
     8
 71
     3
 72
    14
 73
    10
 74
     0
 42
0.000000001
 43
0.00000001
 40
0.0
 40
0.0
 40
0.0
 40
0.0
 40
0.25
 40
0.25
 40
0.5
 40
0.5
 40
0.75
 40
0.75
 40
1.0
 40
1.0
 40
1.0
 40
1.0
 10
119.8308142773698
 20
112.738370689985
 30
0.0
 10
119.6964661910133
 20
112.8249742516126
 30
0.0
 10
119.5732895171574
 20
112.916442648936
 30
0.0
 10
119.3445429122394
 20
113.1076340355669
 30
0.0
 10
119.2426209482722
 20
113.2044958877078
 30
0.0
 10
119.0631975458434
 20
113.3923705024431
 30
0.0
 10
118.9867562576606
 20
113.4826058537944
 30
0.0
 10
118.8694662848105
 20
113.6304122177718
 30
0.0
 10
118.8308142773698
 20
113.6846943799577
 30
0.0
 10
118.8308142773698
 20
113.6846943799577
 30
0.0
  0
SPLINE
  5
172
330
1F
100
AcDbEntity
  8
0
  6
Continuous
 62
     7
370
    25
100
AcDbSpline
210
0.0
220
0.0
230
1.0
 70
     8
 71
     3
 72
    14
 73
    10
 74
     0
 42
0.000000001
 43
0.00000001
 40
0.0
 40
0.0
 40
0.0
 40
0.0
 40
0.25
 40
0.25
 40
0.5
 40
0.5
 40
0.75
 40
0.75
 40
1.0
 40
1.0
 40
1.0
 40
1.0
 10
122.58081427737
 20
112.2132447046675
 30
0.0
 10
122.5808142773701
 20
112.2132447046675
 30
0.0
 10
122.554897754799
 20
112.2078679736791
 30
0.0
 10
122.4554529082214
 20
112.1903233860787
 30
0.0
 10
122.3831545158092
 20
112.1784739824324
 30
0.0
 10
122.1984506212853
 20
112.1568301644321
 30
0.0
 10
122.0888733594094
 20
112.1475409037477
 30
0.0
 10
121.8455431811912
 20
112.1402853673901
 30
0.0
 10
121.7140069222711
 20
112.1425567735495
 30
0.0
 10
121.5808142773698
 20
112.1523835374826
 30
0.0
  0
SPLINE
  5
173
330
1F
100
AcDbEntity
  8
0
  6
Continuous
 62
     7
370
    25
100
AcDbSpline
210
0.0
220
0.0
230
1.0
 70
     8
 71
     3
 72
    10
 73
     6
 74
     0
 42
0.000000001
 43
0.00000001
 40
0.0
 40
0.0
 40
0.0
 40
0.0
 40
0.5
 40
0.5
 40
1.0
 40
1.0
 40
1.0
 40
1.0
 10
121.5808142773698
 20
112.1523835374827
 30
0.0
 10
121.2683503750817
 20
112.1754366798518
 30
0.0
 10
120.9654613930839
 20
112.2366713822582
 30
0.0
 10
120.3781182082799
 20
112.4328433461821
 30
0.0
 10
120.0936505477079
 20
112.5689409812819
 30
0.0
 10
119.8308142773698
 20
112.738370689985
 30
0.0
  0
LINE
  5
174
330
1F
100
AcDbEntity
  8
0
  6
Continuous
 62
     7
370
    25
100
AcDbLine
 10
110.8058142774
 20
142.7297527505
 30
0.0
 11
111.1398529634
 21
141.6703173901
 31
0.0
  0
LINE
  5
175
330
1F
100
AcDbEntity
  8
0
  6
Continuous
 62
     7
370
    25
100
AcDbLine
 10
110.8058142774
 20
142.7297527505
 30
0.0
 11
110.8058142774
 21
140.7544640171
 31
0.0
  0
ARC
  5
176
330
1F
100
AcDbEntity
  8
0
  6
Continuous
 62
     7
370
    25
100
AcDbCircle
 10
110.3768794028
 20
141.4297527505
 30
0.0
 40
0.8000000000000139
100
AcDbArc
 50
252.5
 51
17.5
  0
LINE
  5
177
330
1F
100
AcDbEntity
  8
0
  6
Continuous
 62
     7
370
    25
100
AcDbLine
 10
109.6456322373
 20
90.938014705
 30
0.0
 11
109.6456322373
 21
115.8797527505
 31
0.0
  0
LINE
  5
178
330
1F
100
AcDbEntity
  8
0
  6
Continuous
 62
     7
370
    25
100
AcDbLine
 10
110.1363147632
 20
140.6667791899
 30
0.0
 11
109.6456322373
 21
140.821490796
 31
0.0
  0
SPLINE
  5
179
330
1F
100
AcDbEntity
  8
0
  6
Continuous
 62
     7
370
    25
100
AcDbSpline
210
0.0
220
0.0
230
1.0
 70
     8
 71
     3
 72
    22
 73
    18
 74
     0
 42
0.000000001
 43
0.00000001
 40
0.0
 40
0.0
 40
0.0
 40
0.0
 40
0.0016445471980119
 40
0.0768294870796028
 40
0.1514593100030156
 40
0.2250437077752785
 40
0.2982167779920979
 40
0.3713078397240424
 40
0.4444589911202457
 40
0.5161649089031314
 40
0.5876183127519711
 40
0.6612190000115749
 40
0.7342074239846605
 40
0.8076706235403173
 40
0.8813280608505035
 40
0.9557355653715409
 40
1.0
 40
1.0
 40
1.0
 40
1.0
 10
80.5655313960791
 20
139.3040438985107
 30
0.0
 10
80.56671003827641
 20
139.3036802647926
 30
0.0
 10
80.62177350837963
 20
139.2866921284343
 30
0.0
 10
81.01821869581505
 20
139.1694182778048
 30
0.0
 10
81.73429207533952
 20
138.9688037299232
 30
0.0
 10
82.74396773588383
 20
138.728189915243
 30
0.0
 10
83.95994669382642
 20
138.5009172261258
 30
0.0
 10
85.3641474751764
 20
138.3285282178924
 30
0.0
 10
86.88120751769813
 20
138.2404583458047
 30
0.0
 10
88.45552052576079
 20
138.2715116506399
 30
0.0
 10
90.02128394170944
 20
138.4225138015817
 30
0.0
 10
91.51135850978366
 20
138.6769313195826
 30
0.0
 10
92.88222677286656
 20
138.9943667751469
 30
0.0
 10
94.07119567729306
 20
139.339413554796
 30
0.0
 10
95.03734402773824
 20
139.66300646935
 30
0.0
 10
95.69443297133131
 20
139.9085014133479
 30
0.0
 10
95.91026260821087
 20
139.9918571604154
 30
0.0
 10
95.99076670143636
 20
140.0229487145218
 30
0.0
  0
SPLINE
  5
17A
330
1F
100
AcDbEntity
  8
0
  6
Continuous
 62
     7
370
    25
100
AcDbSpline
210
0.0
220
0.0
230
1.0
 70
     8
 71
     3
 72
     9
 73
     5
 74
     0
 42
0.000000001
 43
0.00000001
 40
0.0
 40
0.0
 40
0.0
 40
0.0
 40
0.0362226197549323
 40
1.0
 40
1.0
 40
1.0
 40
1.0
 10
96.16168150495433
 20
140.0885043812175
 30
0.0
 10
96.16722417906657
 20
140.0906299323761
 30
0.0
 10
96.32024111019247
 20
140.1493101485799
 30
0.0
 10
96.32223617066404
 20
140.1509415322767
 30
0.0
 10
96.32415896481876
 20
140.1525138229821
 30
0.0
  0
LINE
  5
17B
330
1F
100
AcDbEntity
  8
0
  6
Continuous
 62
     7
370
    25
100
AcDbLine
 10
80.4062483921
 20
139.353149112
 30
0.0
 11
72.3558142774
 21
138.9488728781
 31
0.0
  0
LINE
  5
17C
330
1F
100
AcDbEntity
  8
0
  6
Continuous
 62
     7
370
    25
100
AcDbLine
 10
72.3558142774
 20
92.8106326229
 30
0.0
 11
72.3558142774
 21
106.7576297159
 31
0.0
  0
SPLINE
  5
17D
330
1F
100
AcDbEntity
  8
0
  6
Continuous
 62
     7
370
    25
100
AcDbSpline
210
0.0
220
0.0
230
1.0
 70
     8
 71
     3
 72
     8
 73
     4
 74
     0
 42
0.000000001
 43
0.00000001
 40
0.0
 40
0.0
 40
0.0
 40
0.0
 40
1.0
 40
1.0
 40
1.0
 40
1.0
 10
78.17398873031681
 20
106.7622157741767
 30
0.0
 10
76.23459724600539
 20
106.7600696783271
 30
0.0
 10
74.29520576169398
 20
106.7584734918023
 30
0.0
 10
72.35581427738256
 20
106.7574260393266
 30
0.0
  0
SPLINE
  5
17E
330
1F
100
AcDbEntity
  8
0
  6
Continuous
 62
     7
370
    25
100
AcDbSpline
210
0.0
220
0.0
230
1.0
 70
     8
 71
     3
 72
    13
 73
     9
 74
     0
 42
0.000000001
 43
0.00000001
 40
0.0
 40
0.0
 40
0.0
 40
0.0
 40
0.1686319999748085
 40
0.3360343310905433
 40
0.502536782590866
 40
0.6684737453788339
 40
0.834182263691515
 40
1.0
 40
1.0
 40
1.0
 40
1.0
 10
79.25748377978378
 20
106.8996722199943
 30
0.0
 10
79.19799388372407
 20
106.8851578999555
 30
0.0
 10
79.07944789344897
 20
106.8562350986709
 30
0.0
 10
78.89957119786311
 20
106.8222737052626
 30
0.0
 10
78.71918091023508
 20
106.7954081429037
 30
0.0
 10
78.53806873820126
 20
106.7764492057957
 30
0.0
 10
78.3563079010338
 20
106.7645187544
 30
0.0
 10
78.23477513313917
 20
106.7629836028312
 30
0.0
 10
78.1739887303168
 20
106.7622157741767
 30
0.0
  0
SPLINE
  5
17F
330
1F
100
AcDbEntity
  8
0
  6
Continuous
 62
     7
370
    25
100
AcDbSpline
210
0.0
220
0.0
230
1.0
 70
     8
 71
     3
 72
     8
 73
     4
 74
     0
 42
0.000000001
 43
0.00000001
 40
0.0
 40
0.0
 40
0.0
 40
0.0
 40
1.0
 40
1.0
 40
1.0
 40
1.0
 10
84.64967719627664
 20
106.9039102618798
 30
0.0
 10
82.85228252483881
 20
106.9020392013558
 30
0.0
 10
81.05488785340098
 20
106.9006170203316
 30
0.0
 10
79.25749318196316
 20
106.8996428973357
 30
0.0
  0
SPLINE
  5
180
330
1F
100
AcDbEntity
  8
0
  6
Continuous
 62
     7
370
    25
100
AcDbSpline
210
0.0
220
0.0
230
1.0
 70
     8
 71
     3
 72
    18
 73
    14
 74
     0
 42
0.000000001
 43
0.00000001
 40
0.0
 40
0.0
 40
0.0
 40
0.0
 40
0.0923325137111192
 40
0.1843692047063016
 40
0.2763458873810836
 40
0.3684982175655623
 40
0.4610598988303626
 40
0.554260954653301
 40
0.6483261285442131
 40
0.74347346365053
 40
0.8399130993119804
 40
0.9201660718299768
 40
1.0
 40
1.0
 40
1.0
 40
1.0
 10
86.84599884487893
 20
106.3697180260361
 30
0.0
 10
86.77566854136589
 20
106.3701346504677
 30
0.0
 10
86.63523326451394
 20
106.3709665645144
 30
0.0
 10
86.42487073801132
 20
106.3845754114289
 30
0.0
 10
86.21542707509496
 20
106.4072421688006
 30
0.0
 10
86.00687740472246
 20
106.4398429586013
 30
0.0
 10
85.79923378744718
 20
106.4821454372216
 30
0.0
 10
85.5924955999076
 20
106.5342168358768
 30
0.0
 10
85.38667350794275
 20
106.5960656087221
 30
0.0
 10
85.1817418291506
 20
106.6676636201783
 30
0.0
 10
84.9902610837549
 20
106.7442421104057
 30
0.0
 10
84.81253793170028
 20
106.8228533592388
 30
0.0
 10
84.70420393713626
 20
106.8767675150262
 30
0.0
 10
84.65017872768298
 20
106.9036540299252
 30
0.0
  0
LINE
  5
181
330
1F
100
AcDbEntity
  8
0
  6
Continuous
 62
     7
370
    25
100
AcDbLine
 10
88.7608721242
 20
106.3712134609
 30
0.0
 11
86.8459988449
 21
106.369718026
 31
0.0
  0
SPLINE
  5
182
330
1F
100
AcDbEntity
  8
0
  6
Continuous
 62
     7
370
    25
100
AcDbSpline
210
0.0
220
0.0
230
1.0
 70
     8
 71
     3
 72
    25
 73
    21
 74
     0
 42
0.000000001
 43
0.00000001
 40
0.0
 40
0.0
 40
0.0
 40
0.0
 40
0.0280105225422753
 40
0.0559601148854256
 40
0.0839014045034749
 40
0.1118870776777086
 40
0.1399695827579646
 40
0.1682008401731476
 40
0.1966319670417595
 40
0.2253130233137476
 40
0.2542927850735311
 40
0.3799486436564626
 40
0.5057850221666382
 40
0.631308588631066
 40
0.7532068238011618
 40
0.8039473267946936
 40
0.8535894438541253
 40
0.9025339722380873
 40
0.9511970353782256
 40
1.0
 40
1.0
 40
1.0
 40
1.0
 10
93.70075643057127
 20
111.5050772654114
 30
0.0
 10
93.7007936523051
 20
111.4304572383989
 30
0.0
 10
93.70086801480574
 20
111.2813795024134
 30
0.0
 10
93.68845196415916
 20
111.0587614114493
 30
0.0
 10
93.66684740380538
 20
110.8374369934218
 30
0.0
 10
93.63516193414537
 20
110.6174687275339
 30
0.0
 10
93.59363579582542
 20
110.3988784403049
 30
0.0
 10
93.54220504009552
 20
110.1816965018998
 30
0.0
 10
93.4808911653843
 20
109.9659550820136
 30
0.0
 10
93.40968082988482
 20
109.7516651905614
 30
0.0
 10
93.2388442226837
 20
109.3033154175405
 30
0.0
 10
92.90111198924764
 20
108.6499845894683
 30
0.0
 10
92.28955732505293
 20
107.8780913788322
 30
0.0
 10
91.55332248990042
 20
107.233931753447
 30
0.0
 10
90.86683641825614
 20
106.8422905853849
 30
0.0
 10
90.31813227210733
 20
106.6235956844119
 30
0.0
 10
89.93609609360574
 20
106.5077396355815
 30
0.0
 10
89.54892999490119
 20
106.4268317300516
 30
0.0
 10
89.15670332611106
 20
106.3776032992539
 30
0.0
 10
88.89294205799231
 20
106.3733454442386
 30
0.0
 10
88.7608721241684
 20
106.3712134608959
 30
0.0
  0
LINE
  5
183
330
1F
100
AcDbEntity
  8
0
  6
Continuous
 62
     7
370
    25
100
AcDbLine
 10
93.7007564306
 20
115.8797527505
 30
0.0
 11
93.7007564306
 21
111.5050772654
 31
0.0
  0
LINE
  5
184
330
1F
100
AcDbEntity
  8
0
  6
Continuous
 62
     7
370
    25
100
AcDbLine
 10
109.6456322373
 20
140.821490796
 30
0.0
 11
96.3241589648
 21
140.152513823
 31
0.0
  0
SPLINE
  5
185
330
1F
100
AcDbEntity
  8
0
  6
Continuous
 62
     7
370
    25
100
AcDbSpline
210
0.0
220
0.0
230
1.0
 70
     8
 71
     3
 72
    20
 73
    16
 74
     0
 42
0.000000001
 43
0.00000001
 40
0.0
 40
0.0
 40
0.0
 40
0.0
 40
0.0829621378684844
 40
0.1658495135106147
 40
0.2487180070857331
 40
0.3299477216398489
 40
0.4108693994445691
 40
0.494195381485051
 40
0.5768901676626166
 40
0.6601065810557707
 40
0.7435845489350775
 40
0.8279858465401799
 40
0.9132590745392787
 40
0.9972257035811699
 40
1.0
 40
1.0
 40
1.0
 40
1.0
 10
82.7182303720968
 20
93.01649238297317
 30
0.0
 10
83.10397620816809
 20
93.0934108095773
 30
0.0
 10
83.87512026128528
 20
93.2471783469149
 30
0.0
 10
85.28286841245513
 20
93.42309356830044
 30
0.0
 10
86.79071978032972
 20
93.51708985562948
 30
0.0
 10
88.36320875534756
 20
93.49324547376288
 30
0.0
 10
89.93050578655966
 20
93.34934042886228
 30
0.0
 10
91.42628181334113
 20
93.10028282606325
 30
0.0
 10
92.80653568901384
 20
92.78560213352463
 30
0.0
 10
94.00412987206947
 20
92.44134078154408
 30
0.0
 10
94.9909919018917
 20
92.11229355572434
 30
0.0
 10
95.73823014808968
 20
91.83383264751657
 30
0.0
 10
96.18543157745529
 20
91.66197685248498
 30
0.0
 10
96.3721861896052
 20
91.58812618088646
 30
0.0
 10
96.32108797570704
 20
91.60827747195964
 30
0.0
 10
96.3194536653619
 20
91.60892198496619
 30
0.0
  0
SPLINE
  5
186
330
1F
100
AcDbEntity
  8
0
  6
Continuous
 62
     7
370
    25
100
AcDbSpline
210
0.0
220
0.0
230
1.0
 70
     8
 71
     3
 72
    11
 73
     7
 74
     0
 42
0.000000001
 43
0.00000001
 40
0.0
 40
0.0
 40
0.0
 40
0.0
 40
0.2435512231731604
 40
0.4981153923403679
 40
0.7509097881719522
 40
1.0
 40
1.0
 40
1.0
 40
1.0
 10
80.4107362543532
 20
92.40783017359006
 30
0.0
 10
80.43668717587849
 20
92.41606571012821
 30
0.0
 10
80.48976247268358
 20
92.43290917927769
 30
0.0
 10
80.96745745634608
 20
92.5738106214152
 30
0.0
 10
81.67879690461284
 20
92.7791011718634
 30
0.0
 10
82.37346155178751
 20
92.93775229006063
 30
0.0
 10
82.7182303720968
 20
93.01649238297317
 30
0.0
  0
LINE
  5
187
330
1F
100
AcDbEntity
  8
0
  6
Continuous
 62
     7
370
    25
100
AcDbLine
 10
93.7007564306
 20
111.5050772654
 30
0.0
 11
92.8058142774
 21
111.6672527505
 31
0.0
  0
LINE
  5
188
330
1F
100
AcDbEntity
  8
0
  6
Continuous
 62
     7
370
    25
100
AcDbLine
 10
92.8058142774
 20
111.6672527505
 30
0.0
 11
92.8058142774
 21
115.8797527505
 31
0.0
  0
SPLINE
  5
189
330
1F
100
AcDbEntity
  8
0
  6
Continuous
 62
     7
370
    25
100
AcDbSpline
210
0.0
220
0.0
230
1.0
 70
     8
 71
     3
 72
    25
 73
    21
 74
     0
 42
0.000000001
 43
0.00000001
 40
0.0
 40
0.0
 40
0.0
 40
0.0
 40
0.0288821753116583
 40
0.0583636594024247
 40
0.088464720432864
 40
0.1192044006641432
 40
0.1506005800108822
 40
0.1826700399688414
 40
0.2154285269587146
 40
0.2488908143380118
 40
0.3610594471217245
 40
0.498467013106778
 40
0.5822693905006526
 40
0.6661127642782239
 40
0.7499972937224496
 40
0.8007709755032478
 40
0.8511237700807983
 40
0.901089602450676
 40
0.9507031914109089
 40
1.0
 40
1.0
 40
1.0
 40
1.0
 10
88.80581427736983
 20
107.66725275048
 30
0.0
 10
88.86861473060856
 20
107.6681092344319
 30
0.0
 10
88.99551875440847
 20
107.6698399744855
 30
0.0
 10
89.18687316212294
 20
107.6839898398893
 30
0.0
 10
89.38077797480156
 20
107.7071269222107
 30
0.0
 10
89.57667869552996
 20
107.7405380744362
 30
0.0
 10
89.7740163635341
 20
107.7844118964689
 30
0.0
 10
89.97216970531926
 20
107.8392071674382
 30
0.0
 10
90.17048544932744
 20
107.9052761288018
 30
0.0
 10
90.52180643683003
 20
108.0432574610548
 30
0.0
 10
91.04691820715249
 20
108.323309399896
 30
0.0
 10
91.58391003563801
 20
108.7619000023043
 30
0.0
 10
91.99596976567643
 20
109.235760123851
 30
0.0
 10
92.28288835372892
 20
109.6674438716708
 30
0.0
 10
92.48131504093612
 20
110.070567113431
 30
0.0
 10
92.61340091498444
 20
110.42830327421
 30
0.0
 10
92.69903479478222
 20
110.7310556764923
 30
0.0
 10
92.76011700613526
 20
111.039543986738
 30
0.0
 10
92.79861794950077
 20
111.3518556968944
 30
0.0
 10
92.80342062859424
 20
111.5623451107958
 30
0.0
 10
92.80581427736982
 20
111.66725275048
 30
0.0
  0
SPLINE
  5
18A
330
1F
100
AcDbEntity
  8
0
  6
Continuous
 62
     7
370
    25
100
AcDbSpline
210
0.0
220
0.0
230
1.0
 70
     8
 71
     3
 72
    13
 73
     9
 74
     0
 42
0.000000001
 43
0.00000001
 40
0.0
 40
0.0
 40
0.0
 40
0.0
 40
0.1722587823678385
 40
0.3421398271425444
 40
0.5097456258111679
 40
0.6751828993453325
 40
0.8385626190248169
 40
1.0
 40
1.0
 40
1.0
 40
1.0
 10
85.80583264628008
 20
107.8172475732298
 30
0.0
 10
85.86669603595264
 20
107.8009838455303
 30
0.0
 10
85.98758270039804
 20
107.7686808830496
 30
0.0
 10
86.17064385837048
 20
107.7312932283559
 30
0.0
 10
86.35274654131112
 20
107.7021602934458
 30
0.0
 10
86.53368798962777
 20
107.6819735778404
 30
0.0
 10
86.71302699332405
 20
107.6695267735398
 30
0.0
 10
86.83187322173742
 20
107.6680077303124
 30
0.0
 10
86.89094099808037
 20
107.66725275048
 30
0.0
  0
LINE
  5
18B
330
1F
100
AcDbEntity
  8
0
  6
Continuous
 62
     7
370
    25
100
AcDbLine
 10
86.8459988449
 20
106.369718026
 30
0.0
 11
86.8909409981
 21
107.6672527505
 31
0.0
  0
SPLINE
  5
18C
330
1F
100
AcDbEntity
  8
0
  6
Continuous
 62
     7
370
    25
100
AcDbSpline
210
0.0
220
0.0
230
1.0
 70
     8
 71
     3
 72
    11
 73
     7
 74
     0
 42
0.000000001
 43
0.00000001
 40
0.0
 40
0.0
 40
0.0
 40
0.0
 40
0.2392913844325938
 40
0.5001130135003002
 40
0.7515028526498353
 40
0.9999999999999999
 40
0.9999999999999999
 40
0.9999999999999999
 40
0.9999999999999999
 10
85.47834178522388
 20
107.8178263555031
 30
0.0
 10
85.40951684927694
 20
107.7462729183485
 30
0.0
 10
85.26567445310374
 20
107.5967280228372
 30
0.0
 10
85.05792565473716
 20
107.3678105961917
 30
0.0
 10
84.84993945011605
 20
107.1354922239519
 30
0.0
 10
84.7169385263458
 20
106.9807163413606
 30
0.0
 10
84.65082288212135
 20
106.9037762202107
 30
0.0
  0
SPLINE
  5
18D
330
1F
100
AcDbEntity
  8
0
  6
Continuous
 62
     7
370
    25
100
AcDbSpline
210
0.0
220
0.0
230
1.0
 70
    24
 71
     3
 72
     9
 73
     5
 74
     0
 42
0.000000001
 43
0.00000001
 40
0.0
 40
0.0
 40
0.0
 40
0.0
 40
0.509083966986604
 40
1.0
 40
1.0
 40
1.0
 40
1.0
 10
85.48057205354336
 20
107.81725275048
 30
0.0
 10
85.53530545365571
 20
107.81725275048
 30
0.0
 10
85.64281895567453
 20
107.81725275048
 30
0.0
 10
85.75221151604548
 20
107.81725275048
 30
0.0
 10
85.80591407782397
 20
107.81725275048
 30
0.0
  0
LINE
  5
18E
330
1F
100
AcDbEntity
  8
0
  6
Continuous
 62
     7
370
    25
100
AcDbLine
 10
79.231964189
 20
107.7972009767
 30
0.0
 11
79.2573786806
 21
106.8996428061
 31
0.0
  0
SPLINE
  5
18F
330
1F
100
AcDbEntity
  8
0
  6
Continuous
 62
     7
370
    25
100
AcDbSpline
210
0.0
220
0.0
230
1.0
 70
     8
 71
     3
 72
     8
 73
     4
 74
     0
 42
0.000000001
 43
0.00000001
 40
0.0
 40
0.0
 40
0.0
 40
0.0
 40
1.0
 40
1.0
 40
1.0
 40
1.0
 10
79.23197538009805
 20
107.7972014668192
 30
0.0
 10
79.25377823658009
 20
107.8028987978519
 30
0.0
 10
79.27553294597759
 20
107.8087803806469
 30
0.0
 10
79.29723640129566
 20
107.8148453752
 30
0.0
  0
LINE
  5
190
330
1F
100
AcDbEntity
  8
0
  6
Continuous
 62
     7
370
    25
100
AcDbLine
 10
79.3058142774
 20
107.8172527505
 30
0.0
 11
85.4794872497
 21
107.8172527505
 31
0.0
  0
LINE
  5
191
330
1F
100
AcDbEntity
  8
0
  6
Continuous
 62
     7
370
    25
100
AcDbLine
 10
86.8909409981
 20
107.6672527505
 30
0.0
 11
88.8058142774
 21
107.6672527505
 31
0.0
  0
SPLINE
  5
192
330
1F
100
AcDbEntity
  8
0
  6
Continuous
 62
     7
370
    25
100
AcDbSpline
210
0.0
220
0.0
230
1.0
 70
     8
 71
     3
 72
    13
 73
     9
 74
     0
 42
0.000000001
 43
0.00000001
 40
0.0
 40
0.0
 40
0.0
 40
0.0
 40
0.1621004456571512
 40
0.325943455157606
 40
0.4915935308260523
 40
0.6591130873964648
 40
0.8285624736043361
 40
1.0
 40
1.0
 40
1.0
 40
1.0
 10
78.22068755665929
 20
107.66725275048
 30
0.0
 10
78.27624251472483
 20
107.6679217166812
 30
0.0
 10
78.38794964118959
 20
107.6692668404046
 30
0.0
 10
78.55579733058335
 20
107.6802134091959
 30
0.0
 10
78.72458374945174
 20
107.6978523385166
 30
0.0
 10
78.89390810598357
 20
107.7231578525045
 30
0.0
 10
79.06365475416094
 20
107.7554618552975
 30
0.0
 10
79.17564765281858
 20
107.7832334551835
 30
0.0
 10
79.23197068784832
 20
107.7972002406848
 30
0.0
  0
LINE
  5
193
330
1F
100
AcDbEntity
  8
0
  6
Continuous
 62
     7
370
    25
100
AcDbLine
 10
71.4421544558
 20
107.1397510066
 30
0.0
 11
72.3558142774
 21
107.6672527505
 31
0.0
  0
LINE
  5
194
330
1F
100
AcDbEntity
  8
0
  6
Continuous
 62
     7
370
    25
100
AcDbLine
 10
72.3558142774
 20
107.6672527505
 30
0.0
 11
78.2206875567
 21
107.6672527505
 31
0.0
  0
SPLINE
  5
195
330
1F
100
AcDbEntity
  8
0
  6
Continuous
 62
     7
370
    25
100
AcDbSpline
210
0.0
220
0.0
230
1.0
 70
     8
 71
     3
 72
     8
 73
     4
 74
     0
 42
0.000000001
 43
0.00000001
 40
0.0
 40
0.0
 40
0.0
 40
0.0
 40
1.0
 40
1.0
 40
1.0
 40
1.0
 10
72.35581427691886
 20
106.757426039104
 30
0.0
 10
72.05126100321336
 20
106.8861169036508
 30
0.0
 10
71.7467077295078
 20
107.0135616599125
 30
0.0
 10
71.4421544558023
 20
107.1397510065502
 30
0.0
  0
LINE
  5
196
330
1F
100
AcDbEntity
  8
0
  6
Continuous
 62
     7
370
    25
100
AcDbLine
 10
70.8558142774
 20
93.6766580267
 30
0.0
 11
70.8558142774
 21
106.8012273467
 31
0.0
  0
SPLINE
  5
197
330
1F
100
AcDbEntity
  8
0
  6
Continuous
 62
     7
370
    25
100
AcDbSpline
210
0.0
220
0.0
230
1.0
 70
    24
 71
     3
 72
     8
 73
     4
 74
     0
 42
0.000000001
 43
0.00000001
 40
0.0
 40
0.0
 40
0.0
 40
0.0
 40
1.0
 40
1.0
 40
1.0
 40
1.0
 10
71.44215445580228
 20
107.1397510065502
 30
0.0
 10
71.24582243014393
 20
107.0263986586858
 30
0.0
 10
71.05036140990372
 20
106.9135491860341
 30
0.0
 10
70.85581427736982
 20
106.8012273466956
 30
0.0
  0
ARC
  5
198
330
1F
100
AcDbEntity
  8
0
  6
Continuous
 62
     7
370
    25
100
AcDbCircle
 10
131.8058142774
 20
135.8797527505
 30
0.0
 40
3.0
100
AcDbArc
 50
180.0
 51
270.0
  0
LINE
  5
199
330
1F
100
AcDbEntity
  8
0
  6
Continuous
 62
     7
370
    25
100
AcDbLine
 10
102.581054751
 20
134.1297527505
 30
0.0
 11
104.0058142774
 21
134.1297527505
 31
0.0
  0
ARC
  5
19A
330
1F
100
AcDbEntity
  8
0
  6
Continuous
 62
     7
370
    25
100
AcDbCircle
 10
104.0058142774
 20
133.3297527505
 30
0.0
 40
0.8000000000000114
100
AcDbArc
 50
0.0
 51
90.0
  0
ARC
  5
19B
330
1F
100
AcDbEntity
  8
0
  6
Continuous
 62
     7
370
    25
100
AcDbCircle
 10
102.581054751
 20
133.3297527505
 30
0.0
 40
0.8000000000000114
100
AcDbArc
 50
90.0
 51
120.0
  0
LINE
  5
19C
330
1F
100
AcDbEntity
  8
0
  6
Continuous
 62
     7
370
    25
100
AcDbLine
 10
101.3058142774
 20
133.5172527505
 30
0.0
 11
101.3058142774
 21
115.8797527505
 31
0.0
  0
LINE
  5
19D
330
1F
100
AcDbEntity
  8
0
  6
Continuous
 62
     7
370
    25
100
AcDbLine
 10
101.3058142774
 20
133.5172527505
 30
0.0
 11
102.181054751
 21
134.0225730735
 31
0.0
  0
LINE
  5
19E
330
1F
100
AcDbEntity
  8
0
  6
Continuous
 62
     7
370
    25
100
AcDbLine
 10
71.6074803272
 20
107.2352019429
 30
0.0
 11
71.4710115548
 21
107.1564116604
 31
0.0
  0
SPLINE
  5
19F
330
1F
100
AcDbEntity
  8
0
  6
Continuous
 62
     7
370
    25
100
AcDbSpline
210
0.0
220
0.0
230
1.0
 70
     8
 71
     3
 72
    32
 73
    28
 74
     0
 42
0.000000001
 43
0.00000001
 40
0.0
 40
0.0
 40
0.0
 40
0.0
 40
0.1249999999999999
 40
0.1249999999999999
 40
0.1874999999999999
 40
0.1874999999999999
 40
0.2499999999999998
 40
0.2499999999999998
 40
0.3124999999999997
 40
0.3124999999999997
 40
0.3749999999999997
 40
0.3749999999999997
 40
0.4999999999999997
 40
0.4999999999999997
 40
0.5624999999999997
 40
0.5624999999999997
 40
0.6249999999999996
 40
0.6249999999999996
 40
0.7499999999999994
 40
0.7499999999999994
 40
0.8124999999999996
 40
0.8124999999999996
 40
0.8749999999999998
 40
0.8749999999999998
 40
0.9374999999999999
 40
0.9374999999999999
 40
1.0
 40
1.0
 40
1.0
 40
1.0
 10
85.27344460871045
 20
132.0524215046895
 30
0.0
 10
84.78937036475644
 20
132.0527808973092
 30
0.0
 10
84.30597279418957
 20
132.0677401034905
 30
0.0
 10
83.58206744445356
 20
132.1147241499991
 30
0.0
 10
83.34140501091672
 20
132.1345007051237
 30
0.0
 10
82.8700589018411
 20
132.1814647886228
 30
0.0
 10
82.63822308555083
 20
132.2087186378073
 30
0.0
 10
82.18251999899454
 20
132.2703465664198
 30
0.0
 10
81.95865167605321
 20
132.3047216672153
 30
0.0
 10
81.51932408404541
 20
132.3800411108683
 30
0.0
 10
81.30260669137901
 20
132.4212590616166
 30
0.0
 10
80.67626471270619
 20
132.5514958807974
 30
0.0
 10
80.29187207835278
 20
132.6465357926966
 30
0.0
 10
79.76433033273297
 20
132.792802754649
 30
0.0
 10
79.59669618120186
 20
132.8421713898397
 30
0.0
 10
79.27829143396131
 20
132.9405750973399
 30
0.0
 10
79.12871055942216
 20
132.9892583619724
 30
0.0
 10
78.71569048987372
 20
133.1288811651408
 30
0.0
 10
78.48413871871458
 20
133.2144678437214
 30
0.0
 10
78.20082920362489
 20
133.3234308916375
 30
0.0
 10
78.11726152185308
 20
133.3564795442119
 30
0.0
 10
77.9753366895289
 20
133.4134829404522
 30
0.0
 10
77.91634857808636
 20
133.4376796460627
 30
0.0
 10
77.8216326743765
 20
133.4768819264417
 30
0.0
 10
77.78590470722973
 20
133.4918890929387
 30
0.0
 10
77.73794042951229
 20
133.5120980906657
 30
0.0
 10
77.72581412207883
 20
133.51725275048
 30
0.0
 10
77.72581412207883
 20
133.51725275048
 30
0.0
  0
SPLINE
  5
1A0
330
1F
100
AcDbEntity
  8
0
  6
Continuous
 62
     7
370
    25
100
AcDbSpline
210
0.0
220
0.0
230
1.0
 70
     8
 71
     3
 72
    31
 73
    27
 74
     0
 42
0.000000001
 43
0.00000001
 40
0.0
 40
0.0
 40
0.0
 40
0.0
 40
0.0161756722762525
 40
0.0323169137831919
 40
0.0484425619887075
 40
0.0645715089965114
 40
0.0807226353345232
 40
0.0969147439454901
 40
0.11316649552595
 40
0.1294963463054498
 40
0.1459224892616148
 40
0.1624627996348631
 40
0.1791347854483608
 40
0.1959555435640329
 40
0.2945755146277892
 40
0.3932797312250765
 40
0.492817622193324
 40
0.5924285912823357
 40
0.6939020917448148
 40
0.7927115381487337
 40
0.8267756331435511
 40
0.8608043324964877
 40
0.8949846314009906
 40
0.9295010594357858
 40
0.9645328322468291
 40
0.9999999999999999
 40
0.9999999999999999
 40
0.9999999999999999
 40
0.9999999999999999
 10
96.2817636674539
 20
133.51725275048
 30
0.0
 10
96.28103056700273
 20
133.5169063590521
 30
0.0
 10
96.27956592654323
 20
133.5162143135086
 30
0.0
 10
96.26650954687815
 20
133.5106319514622
 30
0.0
 10
96.24549498635535
 20
133.501765188468
 30
0.0
 10
96.21574778101467
 20
133.4893240877531
 30
0.0
 10
96.17747546835905
 20
133.4734334291979
 30
0.0
 10
96.1306227874379
 20
133.4541076853707
 30
0.0
 10
96.07520505740092
 20
133.4313915958512
 30
0.0
 10
96.01121909357047
 20
133.4053225914765
 30
0.0
 10
95.93866560941989
 20
133.3759401441083
 30
0.0
 10
95.85754891194023
 20
133.3432858967736
 30
0.0
 10
95.76785525719025
 20
133.3073934497391
 30
0.0
 10
95.51080941053375
 20
133.2051555420724
 30
0.0
 10
94.98277342494089
 20
132.9986313286057
 30
0.0
 10
94.0041387776947
 20
132.6615460152557
 30
0.0
 10
92.81826247477592
 20
132.3184011559279
 30
0.0
 10
91.4477962097027
 20
132.0212892552673
 30
0.0
 10
89.96193893773807
 20
131.8112458275343
 30
0.0
 10
88.74178630397306
 20
131.7530204246658
 30
0.0
 10
87.87536227102821
 20
131.7667127659258
 30
0.0
 10
87.34711734255137
 20
131.7920808515369
 30
0.0
 10
86.82234411134519
 20
131.8341034672544
 30
0.0
 10
86.30135487175272
 20
131.8923874304825
 30
0.0
 10
85.78411392669426
 20
131.9650109757279
 30
0.0
 10
85.44847681436039
 20
132.0238912934177
 30
0.0
 10
85.27962182629867
 20
132.0535132719631
 30
0.0
  0
LINE
  5
1A1
330
1F
100
AcDbEntity
  8
0
  6
Continuous
 62
     7
370
    25
100
AcDbLine
 10
96.2817636675
 20
133.5172527505
 30
0.0
 11
101.3058142774
 21
133.5172527505
 31
0.0
  0
LINE
  5
1A2
330
1F
100
AcDbEntity
  8
0
  6
Continuous
 62
     7
370
    25
100
AcDbLine
 10
93.4558142774
 20
119.9425261613
 30
0.0
 11
93.4558142774
 21
115.8797527505
 31
0.0
  0
SPLINE
  5
1A3
330
1F
100
AcDbEntity
  8
0
  6
Continuous
 62
     7
370
    25
100
AcDbSpline
210
0.0
220
0.0
230
1.0
 70
     8
 71
     3
 72
    25
 73
    21
 74
     0
 42
0.000000001
 43
0.00000001
 40
0.0
 40
0.0
 40
0.0
 40
0.0
 40
0.0278144320063462
 40
0.0555680196245754
 40
0.083331625367772
 40
0.111176035216759
 40
0.1391714221532265
 40
0.1673868326284763
 40
0.1958897140434718
 40
0.2247454979318961
 40
0.254017249222145
 40
0.3796724410016501
 40
0.5056484635002454
 40
0.629752729069345
 40
0.7535891720571729
 40
0.8038564806093713
 40
0.853339684343451
 40
0.9023264398358534
 40
0.9511131859219439
 40
1.0
 40
1.0
 40
1.0
 40
1.0
 10
88.80581427736983
 20
124.427249332845
 30
0.0
 10
88.87446963133213
 20
124.4267162477379
 30
0.0
 10
89.01163015488481
 20
124.4256512436535
 30
0.0
 10
89.2168727374706
 20
124.4125563462613
 30
0.0
 10
89.42119375396767
 20
124.3910178596888
 30
0.0
 10
89.62459480605666
 20
124.3601963878402
 30
0.0
 10
89.82707043690255
 20
124.3202836353327
 30
0.0
 10
90.02861930115019
 20
124.2711834423917
 30
0.0
 10
90.22923332195288
 20
124.2128701948799
 30
0.0
 10
90.42893108628517
 20
124.1452782520131
 30
0.0
 10
90.84449590696445
 20
123.9844647358974
 30
0.0
 10
91.447272323507
 20
123.6704878365561
 30
0.0
 10
92.1413288790119
 20
123.1069163610614
 30
0.0
 10
92.70810250840903
 20
122.4311721418074
 30
0.0
 10
93.0456803140803
 20
121.8138103143309
 30
0.0
 10
93.23414272336916
 20
121.3217488748208
 30
0.0
 10
93.33340394089363
 20
120.9840970922744
 30
0.0
 10
93.4037485296005
 20
120.6414659502509
 30
0.0
 10
93.4477471281191
 20
120.2941012498093
 30
0.0
 10
93.45312339159939
 20
120.0597978732025
 30
0.0
 10
93.45581427736983
 20
119.9425261612797
 30
0.0
  0
LINE
  5
1A4
330
1F
100
AcDbEntity
  8
0
  6
Continuous
 62
     7
370
    25
100
AcDbLine
 10
86.8909409981
 20
124.4272493328
 30
0.0
 11
88.8058142774
 21
124.4272493328
 31
0.0
  0
SPLINE
  5
1A5
330
1F
100
AcDbEntity
  8
0
  6
Continuous
 62
     7
370
    25
100
AcDbSpline
210
0.0
220
0.0
230
1.0
 70
     8
 71
     3
 72
    12
 73
     8
 74
     0
 42
0.000000001
 43
0.00000001
 40
0.0
 40
0.0
 40
0.0
 40
0.0
 40
0.1992838848975294
 40
0.3984605265796777
 40
0.5979968004971673
 40
0.7983570684833388
 40
1.0
 40
1.0
 40
1.0
 40
1.0
 10
85.88990715574138
 20
124.3250550201216
 30
0.0
 10
85.95536043304183
 20
124.3380773728862
 30
0.0
 10
86.0862317644238
 20
124.3641150705284
 30
0.0
 10
86.28508121604756
 20
124.3925456295024
 30
0.0
 10
86.48548773191861
 20
124.412976790484
 30
0.0
 10
86.68765864933586
 20
124.4254158675545
 30
0.0
 10
86.82303623298694
 20
124.4266368791291
 30
0.0
 10
86.89094099808037
 20
124.427249332845
 30
0.0
  0
LINE
  5
1A6
330
1F
100
AcDbEntity
  8
0
  6
Continuous
 62
     7
370
    25
100
AcDbLine
 10
80.4651441482
 20
124.3248910961
 30
0.0
 11
85.8891341667
 21
124.3248910961
 31
0.0
  0
SPLINE
  5
1A7
330
1F
100
AcDbEntity
  8
0
  6
Continuous
 62
     7
370
    25
100
AcDbSpline
210
0.0
220
0.0
230
1.0
 70
     8
 71
     3
 72
    24
 73
    20
 74
     0
 42
0.000000001
 43
0.00000001
 40
0.0
 40
0.0
 40
0.0
 40
0.0
 40
0.0410257106287842
 40
0.0818520099077639
 40
0.1225800578354648
 40
0.1633117464058233
 40
0.2041489402806705
 40
0.2451927184749161
 40
0.2865426449235763
 40
0.3282960933646444
 40
0.370547647549383
 40
0.4133885920102291
 40
0.4569065022351533
 40
0.5011849368587563
 40
0.6001856774947433
 40
0.6987388860447942
 40
0.7976800645453981
 40
0.8978349910029445
 40
1.0
 40
1.0
 40
1.0
 40
1.0
 10
76.6931572412197
 20
126.262532913143
 30
0.0
 10
76.75619632917422
 20
126.2619982128278
 30
0.0
 10
76.88196809455611
 20
126.2609314111852
 30
0.0
 10
77.06990625606691
 20
126.2497879191871
 30
0.0
 10
77.25649634889152
 20
126.2316264208794
 30
0.0
 10
77.44173813142665
 20
126.2057515001579
 30
0.0
 10
77.62562731465455
 20
126.1723146143463
 30
0.0
 10
77.80816098062735
 20
126.1312305928027
 30
0.0
 10
77.98933638756667
 20
126.0824678447092
 30
0.0
 10
78.1691511715428
 20
126.0259703565655
 30
0.0
 10
78.34760437062236
 20
125.9616792617632
 30
0.0
 10
78.52469240877204
 20
125.8895255818308
 30
0.0
 10
78.70042453305778
 20
125.8094383967921
 30
0.0
 10
78.94543916665408
 20
125.6855975101097
 30
0.0
 10
79.2496222458363
 20
125.5069725279165
 30
0.0
 10
79.59692972728139
 20
125.2578833438592
 30
0.0
 10
79.91610399075381
 20
124.9783137588796
 30
0.0
 10
80.21001589301852
 20
124.6694881209074
 30
0.0
 10
80.37953997971036
 20
124.4413960776057
 30
0.0
 10
80.46514414819316
 20
124.326216989575
 30
0.0
  0
LINE
  5
1A8
330
1F
100
AcDbEntity
  8
0
  6
Continuous
 62
     7
370
    25
100
AcDbLine
 10
73.9016155243
 20
126.2625329131
 30
0.0
 11
76.6931572412
 21
126.2625329131
 31
0.0
  0
SPLINE
  5
1A9
330
1F
100
AcDbEntity
  8
0
  6
Continuous
 62
     7
370
    25
100
AcDbSpline
210
0.0
220
0.0
230
1.0
 70
     8
 71
     3
 72
     8
 73
     4
 74
     0
 42
0.000000001
 43
0.00000001
 40
0.0
 40
0.0
 40
0.0
 40
0.0
 40
1.0
 40
1.0
 40
1.0
 40
1.0
 10
73.85581145261108
 20
126.3259859041526
 30
0.0
 10
73.87107947650875
 20
126.3048694337545
 30
0.0
 10
73.88634750040646
 20
126.2837183667018
 30
0.0
 10
73.90161552430413
 20
126.262532913143
 30
0.0
  0
LINE
  5
1AA
330
1F
100
AcDbEntity
  8
0
  6
Continuous
 62
     7
370
    25
100
AcDbLine
 10
73.8558142774
 20
133.5172527505
 30
0.0
 11
73.8558142774
 21
126.3259859042
 31
0.0
  0
LINE
  5
1AB
330
1F
100
AcDbEntity
  8
0
  6
Continuous
 62
     7
370
    25
100
AcDbLine
 10
73.8558142774
 20
133.5172527505
 30
0.0
 11
77.7258141221
 21
133.5172527505
 31
0.0
  0
LINE
  5
1AC
330
1F
100
AcDbEntity
  8
0
  6
Continuous
 62
     7
370
    25
100
AcDbLine
 10
186.3340977008
 20
98.8797527505
 30
0.0
 11
186.3340977008
 21
115.8797527505
 31
0.0
  0
LINE
  5
1AD
330
1F
100
AcDbEntity
  8
0
  6
Continuous
 62
     7
370
    25
100
AcDbLine
 10
186.3340977008
 20
132.8797527505
 30
0.0
 11
131.8058142774
 21
132.8797527505
 31
0.0
  0
LINE
  5
1AE
330
1F
100
AcDbEntity
  8
0
  6
Continuous
 62
     7
370
    25
100
AcDbLine
 10
228.9627324688
 20
129.5248064346
 30
0.0
 11
186.3340977008
 21
132.8797527505
 31
0.0
  0
LINE
  5
1AF
330
1F
100
AcDbEntity
  8
0
  6
Continuous
 62
     7
370
    25
100
AcDbLine
 10
104.8058142774
 20
131.4297527505
 30
0.0
 11
108.5058142774
 21
131.4297527505
 31
0.0
  0
LINE
  5
1B0
330
1F
100
AcDbEntity
  8
0
  6
Continuous
 62
     7
370
    25
100
AcDbLine
 10
104.8058142774
 20
131.4297527505
 30
0.0
 11
104.8058142774
 21
115.8797527505
 31
0.0
  0
ARC
  5
1B1
330
1F
100
AcDbEntity
  8
0
  6
Continuous
 62
     7
370
    25
100
AcDbCircle
 10
108.5058142774
 20
130.2297527505
 30
0.0
 40
1.200000000000003
100
AcDbArc
 50
0.0
 51
90.0
  0
LINE
  5
1B2
330
1F
100
AcDbEntity
  8
0
  6
Continuous
 62
     7
370
    25
100
AcDbLine
 10
230.8058142774
 20
104.2285337352
 30
0.0
 11
230.8058142774
 21
115.8797527505
 31
0.0
  0
ARC
  5
1B3
330
1F
100
AcDbEntity
  8
0
  6
Continuous
 62
     7
370
    25
100
AcDbCircle
 10
228.8058142774
 20
127.5309717672
 30
0.0
 40
2.0
100
AcDbArc
 50
0.0
 51
85.5
  0
ARC
  5
1B4
330
1F
100
AcDbEntity
  8
0
  6
Continuous
 62
     7
370
    25
100
AcDbCircle
 10
230.3058142774
 20
124.9164469985
 30
0.0
 40
0.5
100
AcDbArc
 50
280.0
 51
0.0
  0
LINE
  5
1B5
330
1F
100
AcDbEntity
  8
0
  6
Continuous
 62
     7
370
    25
100
AcDbLine
 10
230.8058142774
 20
124.9164469985
 30
0.0
 11
230.8058142774
 21
115.8797527505
 31
0.0
  0
LINE
  5
1B6
330
1F
100
AcDbEntity
  8
0
  6
Continuous
 62
     7
370
    25
100
AcDbLine
 10
227.3058142774
 20
123.8797527505
 30
0.0
 11
227.3058142774
 21
115.8797527505
 31
0.0
  0
LINE
  5
1B7
330
1F
100
AcDbEntity
  8
0
  6
Continuous
 62
     7
370
    25
100
AcDbLine
 10
227.3058142774
 20
123.8797527505
 30
0.0
 11
230.3926383662
 21
124.424043122
 31
0.0
  0
LINE
  5
1B8
330
1F
100
AcDbEntity
  8
0
  6
Continuous
 62
     7
370
    25
100
AcDbLine
 10
181.7058142774
 20
124.1797527505
 30
0.0
 11
190.9110402593
 21
124.1797527505
 31
0.0
  0
ARC
  5
1B9
330
1F
100
AcDbEntity
  8
0
  6
Continuous
 62
     7
370
    25
100
AcDbCircle
 10
181.7058142774
 20
123.7797527505
 30
0.0
 40
0.4000000000000341
100
AcDbArc
 50
90.0
 51
180.0
  0
ARC
  5
1BA
330
1F
100
AcDbEntity
  8
0
  6
Continuous
 62
     7
370
    25
100
AcDbCircle
 10
190.9110402593
 20
123.7797527505
 30
0.0
 40
0.4000000000000057
100
AcDbArc
 50
70.0
 51
90.0
  0
LINE
  5
1BB
330
1F
100
AcDbEntity
  8
0
  6
Continuous
 62
     7
370
    25
100
AcDbLine
 10
191.8058142774
 20
123.8797527505
 30
0.0
 11
191.8058142774
 21
115.8797527505
 31
0.0
  0
LINE
  5
1BC
330
1F
100
AcDbEntity
  8
0
  6
Continuous
 62
     7
370
    25
100
AcDbLine
 10
191.0478483166
 20
124.1556297988
 30
0.0
 11
191.8058142774
 21
123.8797527505
 31
0.0
  0
LINE
  5
1BD
330
1F
100
AcDbEntity
  8
0
  6
Continuous
 62
     7
370
    25
100
AcDbLine
 10
191.8058142774
 20
123.8797527505
 30
0.0
 11
227.3058142774
 21
123.8797527505
 31
0.0
  0
LINE
  5
1BE
330
1F
100
AcDbEntity
  8
0
  6
Continuous
 62
     7
370
    25
100
AcDbLine
 10
180.8058142774
 20
121.3797527505
 30
0.0
 11
181.3058142774
 21
121.8797527505
 31
0.0
  0
LINE
  5
1BF
330
1F
100
AcDbEntity
  8
0
  6
Continuous
 62
     7
370
    25
100
AcDbLine
 10
113.5308142774
 20
121.6297527505
 30
0.0
 11
114.3558142774
 21
121.6297527505
 31
0.0
  0
LINE
  5
1C0
330
1F
100
AcDbEntity
  8
0
  6
Continuous
 62
     7
370
    25
100
AcDbLine
 10
160.8058142774
 20
121.3797527505
 30
0.0
 11
160.8058142774
 21
115.8797527505
 31
0.0
  0
LINE
  5
1C1
330
1F
100
AcDbEntity
  8
0
  6
Continuous
 62
     7
370
    25
100
AcDbLine
 10
159.9045233488
 20
119.8797527505
 30
0.0
 11
159.9045233488
 21
115.8797527505
 31
0.0
  0
LINE
  5
1C2
330
1F
100
AcDbEntity
  8
0
  6
Continuous
 62
     7
370
    25
100
AcDbLine
 10
159.9045233488
 20
119.8797527505
 30
0.0
 11
160.8058142774
 21
121.3797527505
 31
0.0
  0
LINE
  5
1C3
330
1F
100
AcDbEntity
  8
0
  6
Continuous
 62
     7
370
    25
100
AcDbLine
 10
160.8058142774
 20
121.3797527505
 30
0.0
 11
180.8058142774
 21
121.3797527505
 31
0.0
  0
LINE
  5
1C4
330
1F
100
AcDbEntity
  8
0
  6
Continuous
 62
     7
370
    25
100
AcDbLine
 10
110.1058142774
 20
120.8797527505
 30
0.0
 11
110.1058142774
 21
115.8797527505
 31
0.0
  0
LINE
  5
1C5
330
1F
100
AcDbEntity
  8
0
  6
Continuous
 62
     7
370
    25
100
AcDbLine
 10
109.7058142774
 20
121.1106928582
 30
0.0
 11
110.1058142774
 21
120.8797527505
 31
0.0
  0
LINE
  5
1C6
330
1F
100
AcDbEntity
  8
0
  6
Continuous
 62
     7
370
    25
100
AcDbLine
 10
109.7058142774
 20
121.1106928582
 30
0.0
 11
109.7058142774
 21
115.8797527505
 31
0.0
  0
LINE
  5
1C7
330
1F
100
AcDbEntity
  8
0
  6
Continuous
 62
     7
370
    25
100
AcDbLine
 10
110.1058142774
 20
120.8797527505
 30
0.0
 11
113.5308142774
 21
120.8797527505
 31
0.0
  0
LINE
  5
1C8
330
1F
100
AcDbEntity
  8
0
  6
Continuous
 62
     7
370
    25
100
AcDbLine
 10
113.5308142774
 20
120.8797527505
 30
0.0
 11
113.5308142774
 21
115.8797527505
 31
0.0
  0
LINE
  5
1C9
330
1F
100
AcDbEntity
  8
0
  6
Continuous
 62
     7
370
    25
100
AcDbLine
 10
114.3558142774
 20
119.8797527505
 30
0.0
 11
159.9045233488
 21
119.8797527505
 31
0.0
  0
LINE
  5
1CA
330
1F
100
AcDbEntity
  8
0
  6
Continuous
 62
     7
370
    25
100
AcDbLine
 10
114.3558142774
 20
119.8797527505
 30
0.0
 11
114.3558142774
 21
115.8797527505
 31
0.0
  0
SPLINE
  5
1CB
330
1F
100
AcDbEntity
  8
0
  6
Continuous
 62
     7
370
    25
100
AcDbSpline
210
0.0
220
0.0
230
1.0
 70
     8
 71
     3
 72
    38
 73
    34
 74
     0
 42
0.000000001
 43
0.00000001
 40
0.0
 40
0.0
 40
0.0
 40
0.0
 40
0.1249999999999993
 40
0.1249999999999993
 40
0.2499999999999986
 40
0.2499999999999986
 40
0.3124999999999981
 40
0.3124999999999981
 40
0.3749999999999976
 40
0.3749999999999976
 40
0.4374999999999969
 40
0.4374999999999969
 40
0.4999999999999964
 40
0.4999999999999964
 40
0.5624999999999958
 40
0.5624999999999958
 40
0.6249999999999952
 40
0.6249999999999952
 40
0.6874999999999947
 40
0.6874999999999947
 40
0.7187499999999949
 40
0.7187499999999949
 40
0.7499999999999952
 40
0.7499999999999952
 40
0.7812499999999954
 40
0.7812499999999954
 40
0.8124999999999957
 40
0.8124999999999957
 40
0.8749999999999971
 40
0.8749999999999971
 40
0.9374999999999986
 40
0.9374999999999986
 40
1.0
 40
1.0
 40
1.0
 40
1.0
 10
81.15581427736981
 20
138.415800635384
 30
0.0
 10
81.15581427736997
 20
138.4158006353839
 30
0.0
 10
81.21762003493347
 20
138.3931565527219
 30
0.0
 10
81.46724258036906
 20
138.3005721636658
 30
0.0
 10
81.65097021130721
 20
138.2321845837131
 30
0.0
 10
82.0073590478923
 20
138.0963424845113
 30
0.0
 10
82.14051950939785
 20
138.0451494994547
 30
0.0
 10
82.43159852009424
 20
137.9314608943423
 30
0.0
 10
82.58808847160356
 20
137.8695342868359
 30
0.0
 10
82.92146991289148
 20
137.7346491781454
 30
0.0
 10
83.0983736712546
 20
137.6617109238588
 30
0.0
 10
83.47161531872791
 20
137.5027349890629
 30
0.0
 10
83.66935930960905
 20
137.4160952191864
 30
0.0
 10
84.07538274286216
 20
137.2291775466339
 30
0.0
 10
84.28343613624914
 20
137.1291426328249
 30
0.0
 10
84.70573040898329
 20
136.9098790826459
 30
0.0
 10
84.92009571205836
 20
136.7908758909813
 30
0.0
 10
85.34793802363774
 20
136.5206020406574
 30
0.0
 10
85.56433967474436
 20
136.3673532151457
 30
0.0
 10
85.86297211762447
 20
136.1012846915625
 30
0.0
 10
85.95816470709416
 20
136.0065124452898
 30
0.0
 10
86.13578995895094
 20
135.8007555880998
 30
0.0
 10
86.2184042695793
 20
135.6888970463292
 30
0.0
 10
86.36048454460085
 20
135.4553815421068
 30
0.0
 10
86.4208700938458
 20
135.3328204761511
 30
0.0
 10
86.52032058600062
 20
135.0763497129259
 30
0.0
 10
86.55961202502543
 20
134.9411096993761
 30
0.0
 10
86.64630861117843
 20
134.5328276964117
 30
0.0
 10
86.66501693817317
 20
134.2565675186268
 30
0.0
 10
86.66152091754144
 20
133.6998197399911
 30
0.0
 10
86.63904129733285
 20
133.4215894960003
 30
0.0
 10
86.57341364955074
 20
132.8702036758156
 30
0.0
 10
86.52991610586128
 20
132.5959500067132
 30
0.0
 10
86.48043655875124
 20
132.3225205347516
 30
0.0
  0
SPLINE
  5
1CC
330
1F
100
AcDbEntity
  8
0
  6
Continuous
 62
     7
370
    25
100
AcDbSpline
210
0.0
220
0.0
230
1.0
 70
     8
 71
     3
 72
    14
 73
    10
 74
     0
 42
0.000000001
 43
0.00000001
 40
0.0
 40
0.0
 40
0.0
 40
0.0
 40
0.0003951392850831
 40
0.0003951392850831
 40
0.0003951392850831
 40
0.0008159035679249
 40
0.0008159035679249
 40
0.0008159035679249
 40
0.0012369936130997
 40
0.0012369936130997
 40
0.0012369936130997
 40
0.0012369936130997
 10
85.28369822710135
 20
132.0547257474803
 30
0.0
 10
85.41220746520806
 20
132.0835997151937
 30
0.0
 10
85.54077097293707
 20
132.11228792867
 30
0.0
 10
85.66932135122046
 20
132.1407907727075
 30
0.0
 10
85.80620659888405
 20
132.1711416663982
 30
0.0
 10
85.94310224478389
 20
132.2012876314272
 30
0.0
 10
86.07992250613295
 20
132.2312394509957
 30
0.0
 10
86.21684849507784
 20
132.2612144157756
 30
0.0
 10
86.35372556704202
 20
132.2910004652209
 30
0.0
 10
86.49046241622915
 20
132.3206229383896
 30
0.0
  0
LINE
  5
1CD
330
1F
100
AcDbEntity
  8
0
  6
Continuous
 62
     7
370
    25
100
AcDbLine
 10
77.7258141221
 20
133.5172527505
 30
0.0
 11
81.1558142774
 21
138.4158006354
 31
0.0
  0
SPLINE
  5
1CE
330
1F
100
AcDbEntity
  8
0
  6
Continuous
 62
     7
370
    25
100
AcDbSpline
210
0.0
220
0.0
230
1.0
 70
     8
 71
     3
 72
    37
 73
    33
 74
     0
 42
0.000000001
 43
0.00000001
 40
0.0
 40
0.0
 40
0.0
 40
0.0
 40
0.0114878548102804
 40
0.0231559765621655
 40
0.0350076484354365
 40
0.047046003379532
 40
0.0592740307999929
 40
0.0716945830965805
 40
0.0843103820274676
 40
0.0971240248798025
 40
0.1101379904320543
 40
0.1233546446979426
 40
0.1811510010973263
 40
0.2483631736114449
 40
0.2888373415819276
 40
0.3232297457604645
 40
0.3515392131491962
 40
0.3737664266256203
 40
0.4399300285953859
 40
0.4987424063270027
 40
0.5023253005651627
 40
0.5613100074513709
 40
0.6252595444338123
 40
0.6818650083849771
 40
0.7483890016987871
 40
0.7860781471964648
 40
0.8194856599799744
 40
0.8486127715281679
 40
0.8734622727747376
 40
0.9389926156604094
 40
0.9981523731393495
 40
1.0
 40
1.0
 40
1.0
 40
1.0
 10
95.65581427736983
 20
139.3434050538333
 30
0.0
 10
95.6548878260913
 20
139.3429615368248
 30
0.0
 10
95.65302038569921
 20
139.3420675431574
 30
0.0
 10
95.63774732535946
 20
139.3348755656991
 30
0.0
 10
95.61284562289559
 20
139.3234243221066
 30
0.0
 10
95.57699135095973
 20
139.3072745633321
 30
0.0
 10
95.5300238401221
 20
139.2865468837784
 30
0.0
 10
95.4714809297012
 20
139.2612083647767
 30
0.0
 10
95.40100279012358
 20
139.2312679442222
 30
0.0
 10
95.31822822584608
 20
139.1967239701802
 30
0.0
 10
95.22281168072794
 20
139.1575742285656
 30
0.0
 10
94.99324284733943
 20
139.0648755574044
 30
0.0
 10
94.50882463336683
 20
138.8761526668899
 30
0.0
 10
93.72982466182143
 20
138.5980628669187
 30
0.0
 10
92.93860621040128
 20
138.3474759995893
 30
0.0
 10
92.30755571715845
 20
138.1724592382595
 30
0.0
 10
91.75451776082211
 20
138.0326245976605
 30
0.0
 10
90.96155983192567
 20
137.8522137523144
 30
0.0
 10
89.89122549159248
 20
137.6631474306723
 30
0.0
 10
88.91023521215727
 20
137.5578606229626
 30
0.0
 10
87.98226798303763
 20
137.5008278510096
 30
0.0
 10
87.00981248927724
 20
137.4862332526398
 30
0.0
 10
85.68368228384388
 20
137.564426469131
 30
0.0
 10
84.41364679935013
 20
137.7249061907252
 30
0.0
 10
83.45387079868053
 20
137.9100177289388
 30
0.0
 10
82.75521915133568
 20
138.0775073326689
 30
0.0
 10
82.31141101318057
 20
138.1911305388772
 30
0.0
 10
81.97887395125059
 20
138.2843143737858
 30
0.0
 10
81.59171554100737
 20
138.3989792380443
 30
0.0
 10
81.25446757889563
 20
138.5063250471045
 30
0.0
 10
81.1567435125665
 20
138.543890620391
 30
0.0
 10
81.1558415922947
 20
138.5440220292076
 30
0.0
 10
81.15581427736981
 20
138.5440260089628
 30
0.0
  0
LINE
  5
1CF
330
1F
100
AcDbEntity
  8
0
  6
Continuous
 62
     7
370
    25
100
AcDbLine
 10
95.6558142774
 20
139.3434050538
 30
0.0
 11
95.6558142774
 21
133.9859787712
 31
0.0
  0
SPLINE
  5
1D0
330
1F
100
AcDbEntity
  8
0
  6
Continuous
 62
     7
370
    25
100
AcDbSpline
210
0.0
220
0.0
230
1.0
 70
     8
 71
     3
 72
    30
 73
    26
 74
     0
 42
0.000000001
 43
0.00000001
 40
0.0
 40
0.0
 40
0.0
 40
0.0
 40
0.0192411700742054
 40
0.0381353539376962
 40
0.0566868884861285
 40
0.0749003554931366
 40
0.092780596728412
 40
0.1103327298326399
 40
0.1275621649289912
 40
0.1444746219341839
 40
0.2455865830532007
 40
0.3577720192516841
 40
0.4505017408956491
 40
0.5720127868619908
 40
0.6168069840199986
 40
0.65900884994328
 40
0.6986242498774727
 40
0.7356603299341594
 40
0.7701258931915119
 40
0.8073679165907864
 40
0.8483950324891424
 40
0.8881367798820068
 40
0.9266264622110469
 40
0.9639007443615107
 40
1.0
 40
1.0
 40
1.0
 40
1.0
 10
86.48499568675773
 20
132.321887460888
 30
0.0
 10
86.56802816663736
 20
132.3107603555632
 30
0.0
 10
86.73259575771019
 20
132.288706805897
 30
0.0
 10
86.98047727339075
 20
132.2606549166344
 30
0.0
 10
87.22575394883312
 20
132.2367033861084
 30
0.0
 10
87.46831178244439
 20
132.2171734339151
 30
0.0
 10
87.70774645955329
 20
132.2019811417384
 30
0.0
 10
87.94375965496037
 20
132.1911495805076
 30
0.0
 10
88.17607770027114
 20
132.1846690152545
 30
0.0
 10
88.78462846989517
 20
132.1790375236683
 30
0.0
 10
89.82294096711519
 20
132.239010923153
 30
0.0
 10
91.13829249521648
 20
132.4384333963278
 30
0.0
 10
92.41783770810807
 20
132.7439147570117
 30
0.0
 10
93.30927825219817
 20
133.0238575599306
 30
0.0
 10
93.92694312105921
 20
133.2513066564459
 30
0.0
 10
94.27026620634254
 20
133.381585316946
 30
0.0
 10
94.56195729123804
 20
133.4976762549039
 30
0.0
 10
94.80650264706388
 20
133.5990444843072
 30
0.0
 10
95.01885732750326
 20
133.6903825368248
 30
0.0
 10
95.20992030212787
 20
133.774457620772
 30
0.0
 10
95.37516770630035
 20
133.8494505747373
 30
0.0
 10
95.50470825654448
 20
133.9104390742829
 30
0.0
 10
95.59307462576699
 20
133.9536767360484
 30
0.0
 10
95.64622047103066
 20
133.9809068219272
 30
0.0
 10
95.65265066697185
 20
133.9843062680572
 30
0.0
 10
95.65581427736983
 20
133.9859787712316
 30
0.0
  0
LINE
  5
1D1
330
1F
100
AcDbEntity
  8
0
  6
Continuous
 62
     7
370
    25
100
AcDbLine
 10
81.1558142774
 20
138.4158006354
 30
0.0
 11
81.1558142774
 21
138.5440260089
 31
0.0
  0
LINE
  5
1D2
330
1F
100
AcDbEntity
  8
0
  6
Continuous
 62
     7
370
    25
100
AcDbLine
 10
71.6074803272
 20
134.8153289618
 30
0.0
 11
73.8558142774
 21
133.5172527505
 31
0.0
  0
LINE
  5
1D3
330
1F
100
AcDbEntity
  8
0
  6
Continuous
 62
     7
370
    25
100
AcDbLine
 10
70.8558142774
 20
136.1172527505
 30
0.0
 11
71.6074803272
 21
134.8153289618
 31
0.0
  0
LINE
  5
1D4
330
1F
100
AcDbEntity
  8
0
  6
Continuous
 62
     7
370
    25
100
AcDbLine
 10
70.8558142774
 20
138.0828474743
 30
0.0
 11
70.8558142774
 21
136.1172527505
 31
0.0
  0
LINE
  5
1D5
330
1F
100
AcDbEntity
  8
0
  6
Continuous
 62
     7
370
    25
100
AcDbLine
 10
72.3558142774
 20
138.9488728781
 30
0.0
 11
70.8558142774
 21
138.0828474743
 31
0.0
  0
LINE
  5
1D6
330
1F
100
AcDbEntity
  8
0
  6
Continuous
 62
     7
370
    25
100
AcDbLine
 10
80.406252429
 20
139.3531384601
 30
0.0
 11
81.155842408
 21
138.5440271224
 31
0.0
  0
LINE
  5
1D7
330
1F
100
AcDbEntity
  8
0
  6
Continuous
 62
     7
370
    25
100
AcDbLine
 10
95.6558272255
 20
139.3434053097
 30
0.0
 11
96.3241573714
 21
140.1525171321
 31
0.0
  0
LINE
  5
1D8
330
1F
100
AcDbEntity
  8
0
  6
Continuous
 62
     7
370
    25
100
AcDbLine
 10
121.5808142774
 20
143.7297527505
 30
0.0
 11
119.8308142774
 21
143.7297527505
 31
0.0
  0
ARC
  5
1D9
330
1F
100
AcDbEntity
  8
0
  6
Continuous
 62
     7
370
    25
100
AcDbCircle
 10
121.5808142774
 20
144.7297527505
 30
0.0
 40
1.0
100
AcDbArc
 50
270.0
 51
0.0
  0
LINE
  5
1DA
330
1F
100
AcDbEntity
  8
0
  6
Continuous
 62
     7
370
    25
100
AcDbLine
 10
122.5808142774
 20
144.8273480147
 30
0.0
 11
122.5808142774
 21
144.7297527505
 31
0.0
  0
LINE
  5
1DB
330
1F
100
AcDbEntity
  8
0
  6
Continuous
 62
     7
370
    25
100
AcDbLine
 10
124.0400120819
 20
147.3547527505
 30
0.0
 11
122.5808142774
 21
144.8273480147
 31
0.0
  0
LINE
  5
1DC
330
1F
100
AcDbEntity
  8
0
  6
Continuous
 62
     7
370
    25
100
AcDbLine
 10
96.2817634191
 20
133.5172540408
 30
0.0
 11
95.6558174056
 21
133.9859788961
 31
0.0
  0
LINE
  5
1DD
330
1F
100
AcDbEntity
  8
0
  6
Continuous
 62
     7
370
    25
100
AcDbLine
 10
118.8308142774
 20
144.8273480147
 30
0.0
 11
117.3716164728
 21
147.3547527505
 31
0.0
  0
LINE
  5
1DE
330
1F
100
AcDbEntity
  8
0
  6
Continuous
 62
     7
370
    25
100
AcDbLine
 10
118.8308142774
 20
144.7297527505
 30
0.0
 11
118.8308142774
 21
144.8273480147
 31
0.0
  0
ARC
  5
1DF
330
1F
100
AcDbEntity
  8
0
  6
Continuous
 62
     7
370
    25
100
AcDbCircle
 10
119.8308142774
 20
144.7297527505
 30
0.0
 40
1.000000000000014
100
AcDbArc
 50
180.0
 51
270.0
  0
LINE
  5
1E0
330
1F
100
AcDbEntity
  8
0
  6
Continuous
 62
     7
370
    25
100
AcDbLine
 10
113.5308142774
 20
120.8797527505
 30
0.0
 11
113.5308142774
 21
121.6297527505
 31
0.0
  0
LINE
  5
1E1
330
1F
100
AcDbEntity
  8
0
  6
Continuous
 62
     7
370
    25
100
AcDbLine
 10
114.3558142774
 20
121.6297527505
 30
0.0
 11
114.3558142774
 21
119.8797527505
 31
0.0
  0
LINE
  5
1E2
330
1F
100
AcDbEntity
  8
0
  6
Continuous
 62
     7
370
    25
100
AcDbLine
 10
181.3058142774
 20
121.8797527505
 30
0.0
 11
181.3058142774
 21
123.7797527505
 31
0.0
  0
LINE
  5
1E3
330
1F
100
AcDbEntity
  8
0
  6
Continuous
 62
     7
370
    25
100
AcDbLine
 10
230.8058142774
 20
124.9164469985
 30
0.0
 11
230.8058142774
 21
127.5309717672
 31
0.0
  0
LINE
  5
1E4
330
1F
100
AcDbEntity
  8
0
  6
Continuous
 62
     7
370
    25
100
AcDbLine
 10
109.7058142774
 20
130.2297527505
 30
0.0
 11
109.7058142774
 21
121.1106928582
 31
0.0
  0
LINE
  5
1E5
330
1F
100
AcDbEntity
  8
0
  6
Continuous
 62
     7
370
    25
100
AcDbLine
 10
104.8058142774
 20
133.3297527505
 30
0.0
 11
104.8058142774
 21
131.4297527505
 31
0.0
  0
LINE
  5
1E6
330
1F
100
AcDbEntity
  8
0
  6
Continuous
 62
     7
370
    25
100
AcDbLine
 10
110.8058142774
 20
147.1547527505
 30
0.0
 11
110.8058142774
 21
142.7297527505
 31
0.0
  0
LINE
  5
1E7
330
1F
100
AcDbEntity
  8
0
  6
Continuous
 62
     7
370
    25
100
AcDbLine
 10
128.8058142774
 20
135.8797527505
 30
0.0
 11
128.8058142774
 21
147.3547527505
 31
0.0
  0
SPLINE
  5
1E8
330
1F
100
AcDbEntity
  8
0
  6
Continuous
 62
     7
370
    25
100
AcDbSpline
210
0.0
220
0.0
230
1.0
 70
     8
 71
     3
 72
     9
 73
     5
 74
     0
 42
0.000000001
 43
0.00000001
 40
0.0
 40
0.0
 40
0.0
 40
0.0
 40
0.5102121239851395
 40
0.9999999999999999
 40
0.9999999999999999
 40
0.9999999999999999
 40
0.9999999999999999
 10
71.66017767404092
 20
126.3413792671318
 30
0.0
 10
72.03503973101971
 20
126.3388893497502
 30
0.0
 10
72.7697577813295
 20
126.3340091886081
 30
0.0
 10
73.49875837178624
 20
126.3286242972218
 30
0.0
 10
73.85581402259963
 20
126.3259868427071
 30
0.0
  0
LINE
  5
1E9
330
1F
100
AcDbEntity
  8
0
  6
Continuous
 62
     7
370
    25
100
AcDbLine
 10
71.6074803272
 20
126.371803558
 30
0.0
 11
71.6601776759
 21
126.3413787296
 31
0.0
  0
LINE
  5
1EA
330
1F
100
AcDbEntity
  8
0
  6
Continuous
 62
     7
370
    25
100
AcDbLine
 10
71.6074803272
 20
134.8153289618
 30
0.0
 11
71.6074803272
 21
126.371803558
 31
0.0
  0
SPLINE
  5
1EB
330
1F
100
AcDbEntity
  8
0
  6
Continuous
 62
     7
370
    25
100
AcDbSpline
210
0.0
220
0.0
230
1.0
 70
    24
 71
     3
 72
     8
 73
     4
 74
     0
 42
0.000000001
 43
0.00000001
 40
0.0000004089325119
 40
0.0000004089325119
 40
0.0000004089325119
 40
0.0000004089325119
 40
0.0015399868451459
 40
0.0015399868451459
 40
0.0015399868451459
 40
0.0015399868451459
 10
70.85581427736983
 20
126.8057781542644
 30
0.0
 10
71.10680535339428
 20
126.6608683889575
 30
0.0
 10
71.35739454989724
 20
126.5161906489005
 30
0.0
 10
71.60748032720937
 20
126.3718035580489
 30
0.0
  0
LINE
  5
1EC
330
1F
100
AcDbEntity
  8
0
  6
Continuous
 62
     7
370
    25
100
AcDbLine
 10
70.8558142774
 20
136.1172527505
 30
0.0
 11
70.8558142774
 21
126.8057781543
 31
0.0
  0
SPLINE
  5
1ED
330
1F
100
AcDbEntity
  8
0
  6
Continuous
 62
     7
370
    25
100
AcDbSpline
210
0.0
220
0.0
230
1.0
 70
     8
 71
     3
 72
     8
 73
     4
 74
     0
 42
0.000000001
 43
0.00000001
 40
0.0
 40
0.0
 40
0.0
 40
0.0
 40
1.0
 40
1.0
 40
1.0
 40
1.0
 10
73.98549602012659
 20
125.9397534282165
 30
0.0
 10
73.95754780000706
 20
126.047569782192
 30
0.0
 10
73.92958771183835
 20
126.1551636323583
 30
0.0
 10
73.90161552430413
 20
126.262532913143
 30
0.0
  0
LINE
  5
1EE
330
1F
100
AcDbEntity
  8
0
  6
Continuous
 62
     7
370
    25
100
AcDbLine
 10
73.9854991587
 20
125.9397527505
 30
0.0
 11
72.3558134906
 21
125.9397527505
 31
0.0
  0
LINE
  5
1EF
330
1F
100
AcDbEntity
  8
0
  6
Continuous
 62
     7
370
    25
100
AcDbLine
 10
72.3558136905
 20
125.9397530893
 30
0.0
 11
71.6601772125
 21
126.3413789971
 31
0.0
  0
LINE
  5
1F0
330
1F
100
AcDbEntity
  8
0
  6
Continuous
 62
     7
370
    25
100
AcDbLine
 10
80.4097751746
 20
123.9422527505
 30
0.0
 11
80.1576035466
 21
123.9422527505
 31
0.0
  0
SPLINE
  5
1F1
330
1F
100
AcDbEntity
  8
0
  6
Continuous
 62
     7
370
    25
100
AcDbSpline
210
0.0
220
0.0
230
1.0
 70
     8
 71
     3
 72
    26
 73
    22
 74
     0
 42
0.000000001
 43
0.00000001
 40
0.0
 40
0.0
 40
0.0
 40
0.0
 40
0.0524616379932503
 40
0.1026498591890872
 40
0.150565513457809
 40
0.1962095861957063
 40
0.2395832262568645
 40
0.2806877815599511
 40
0.3195248450380211
 40
0.3560963147430692
 40
0.3904044736547445
 40
0.4224520974433627
 40
0.4522426027417772
 40
0.4797802555366611
 40
0.5050704712281336
 40
0.5966394156799991
 40
0.6841917884819224
 40
0.7679874773571101
 40
0.8483228539139507
 40
0.925534163520116
 40
1.0
 40
1.0
 40
1.0
 40
1.0
 10
80.15579705270042
 20
123.9422825345154
 30
0.0
 10
80.12016065366915
 20
124.0018294545976
 30
0.0
 10
80.0504321533307
 20
124.1183428383843
 30
0.0
 10
79.93695399257086
 20
124.2827407991135
 30
0.0
 10
79.82142844284583
 20
124.434902536915
 30
0.0
 10
79.70430674683571
 20
124.5748052338476
 30
0.0
 10
79.58693504635632
 20
124.7030195577516
 30
0.0
 10
79.47031408032268
 20
124.820035236692
 30
0.0
 10
79.35541115987765
 20
124.926412391936
 30
0.0
 10
79.24308693418831
 20
125.0227284724103
 30
0.0
 10
79.13411796015346
 20
125.1095778189628
 30
0.0
 10
79.02919891931678
 20
125.1875580011567
 30
0.0
 10
78.92894159336805
 20
125.2572661982096
 30
0.0
 10
78.83390425078491
 20
125.3192761871107
 30
0.0
 10
78.66379734635414
 20
125.4237626243766
 30
0.0
 10
78.41087831494906
 20
125.558821290891
 30
0.0
 10
78.06489715788793
 20
125.703208183308
 30
0.0
 10
77.71693860856358
 20
125.812176095553
 30
0.0
 10
77.37079884818753
 20
125.8867056778898
 30
0.0
 10
77.02973406475341
 20
125.9316343824392
 30
0.0
 10
76.80398745323777
 20
125.9370794812936
 30
0.0
 10
76.6931572412197
 20
125.93975275048
 30
0.0
  0
SPLINE
  5
1F2
330
1F
100
AcDbEntity
  8
0
  6
Continuous
 62
     7
370
    25
100
AcDbSpline
210
0.0
220
0.0
230
1.0
 70
     8
 71
     3
 72
     8
 73
     4
 74
     0
 42
0.000000001
 43
0.00000001
 40
0.0
 40
0.0
 40
0.0
 40
0.0
 40
1.0
 40
1.0
 40
1.0
 40
1.0
 10
80.40977517460232
 20
123.9422527504799
 30
0.0
 10
80.43877988102989
 20
124.0661904773422
 30
0.0
 10
80.45781240071135
 20
124.1941426075755
 30
0.0
 10
80.46606399290299
 20
124.325211920267
 30
0.0
  0
LINE
  5
1F3
330
1F
100
AcDbEntity
  8
0
  6
Continuous
 62
     7
370
    25
100
AcDbLine
 10
76.6931572412
 20
125.9397527505
 30
0.0
 11
73.9854991587
 21
125.9397527505
 31
0.0
  0
LINE
  5
1F4
330
1F
100
AcDbEntity
  8
0
  6
Continuous
 62
     7
370
    25
100
AcDbLine
 10
93.4558142774
 20
119.9425261613
 30
0.0
 11
92.8058142774
 21
120.0922527505
 31
0.0
  0
SPLINE
  5
1F5
330
1F
100
AcDbEntity
  8
0
  6
Continuous
 62
     7
370
    25
100
AcDbSpline
210
0.0
220
0.0
230
1.0
 70
     8
 71
     3
 72
    26
 73
    22
 74
     0
 42
0.000000001
 43
0.00000001
 40
0.0
 40
0.0
 40
0.0
 40
0.0
 40
0.0305951740572542
 40
0.0629166281868252
 40
0.0969720532897518
 40
0.1327680143285475
 40
0.1703101548822826
 40
0.2096033578521445
 40
0.2506518729756858
 40
0.3342141733898277
 40
0.4179517165474626
 40
0.5018670561020881
 40
0.5659795686746639
 40
0.6277136397870199
 40
0.687135819210908
 40
0.7443207393864881
 40
0.7993521466017559
 40
0.8523240127975756
 40
0.903341702807647
 40
0.9525231537633125
 40
1.0
 40
1.0
 40
1.0
 40
1.0
 10
92.80581427736982
 20
120.09225275048
 30
0.0
 10
92.80490606552519
 20
120.1567879178672
 30
0.0
 10
92.80303839754471
 20
120.2894995384606
 30
0.0
 10
92.78744580848311
 20
120.4923136299842
 30
0.0
 10
92.76080194729599
 20
120.7040266708846
 30
0.0
 10
92.72064751821756
 20
120.9237386642575
 30
0.0
 10
92.66574940153441
 20
121.1504855351288
 30
0.0
 10
92.59450643292263
 20
121.3831165389118
 30
0.0
 10
92.47609403864006
 20
121.6985148533885
 30
0.0
 10
92.28796314223217
 20
122.0829967519235
 30
0.0
 10
92.00394637899761
 20
122.513024366453
 30
0.0
 10
91.69452842244787
 20
122.8715110787938
 30
0.0
 10
91.3786188116463
 20
123.1632777350833
 30
0.0
 10
91.07187340352296
 20
123.3957368219205
 30
0.0
 10
90.75345428970085
 20
123.5925470564844
 30
0.0
 10
90.42748341354378
 20
123.7546477587427
 30
0.0
 10
90.09794457841856
 20
123.8831176422224
 30
0.0
 10
89.768382663572
 20
123.9797014615953
 30
0.0
 10
89.44196434027276
 20
124.0455536908815
 30
0.0
 10
89.12144614796887
 20
124.085118638707
 30
0.0
 10
88.90978063443809
 20
124.0899028369223
 30
0.0
 10
88.80581427736983
 20
124.09225275048
 30
0.0
  0
SPLINE
  5
1F6
330
1F
100
AcDbEntity
  8
0
  6
Continuous
 62
     7
370
    25
100
AcDbSpline
210
0.0
220
0.0
230
1.0
 70
     8
 71
     3
 72
    13
 73
     9
 74
     0
 42
0.000000001
 43
0.00000001
 40
0.0
 40
0.0
 40
0.0
 40
0.0
 40
0.1604061687300809
 40
0.3231296684563272
 40
0.4883154213007764
 40
0.6561019685773533
 40
0.8266215117792448
 40
1.0
 40
1.0
 40
1.0
 40
1.0
 10
86.89094099808037
 20
124.09225275048
 30
0.0
 10
86.83189104656522
 20
124.091497180442
 30
0.0
 10
86.71293806984049
 20
124.0899751249138
 30
0.0
 10
86.53368443623467
 20
124.0775300657863
 30
0.0
 10
86.35275145454699
 20
124.0573458846556
 30
0.0
 10
86.17062296014821
 20
124.028210518515
 30
0.0
 10
85.98745595235387
 20
123.9907943666958
 30
0.0
 10
85.86671663747953
 20
123.9585284943388
 30
0.0
 10
85.80584510589465
 20
123.9422614394003
 30
0.0
  0
SPLINE
  5
1F7
330
1F
100
AcDbEntity
  8
0
  6
Continuous
 62
     7
370
    25
100
AcDbSpline
210
0.0
220
0.0
230
1.0
 70
    24
 71
     3
 72
    10
 73
     6
 74
     0
 42
0.000000001
 43
0.00000001
 40
0.0
 40
0.0
 40
0.0
 40
0.0
 40
0.3216623556917455
 40
0.6548175346390357
 40
1.0
 40
1.0
 40
1.0
 40
1.0
 10
85.8059931122746
 20
123.94225275048
 30
0.0
 10
85.73744720441731
 20
123.94225275048
 30
0.0
 10
85.59790628022004
 20
123.94225275048
 30
0.0
 10
85.38829786486951
 20
123.94225275048
 30
0.0
 10
85.24862086971567
 20
123.94225275048
 30
0.0
 10
85.17754409851484
 20
123.94225275048
 30
0.0
  0
SPLINE
  5
1F8
330
1F
100
AcDbEntity
  8
0
  6
Continuous
 62
     7
370
    25
100
AcDbSpline
210
0.0
220
0.0
230
1.0
 70
     8
 71
     3
 72
     8
 73
     4
 74
     0
 42
0.000000001
 43
0.00000001
 40
0.0
 40
0.0
 40
0.0
 40
0.0
 40
1.0
 40
1.0
 40
1.0
 40
1.0
 10
85.89214439376845
 20
124.3206990996629
 30
0.0
 10
85.62284806371201
 20
124.2240097144696
 30
0.0
 10
85.38668737829822
 20
124.0960105450928
 30
0.0
 10
85.17748986211431
 20
123.9425339474482
 30
0.0
  0
SPLINE
  5
1F9
330
1F
100
AcDbEntity
  8
0
  6
Continuous
 62
     7
370
    25
100
AcDbSpline
210
0.0
220
0.0
230
1.0
 70
     8
 71
     3
 72
    13
 73
     9
 74
     0
 42
0.000000001
 43
0.00000001
 40
0.0
 40
0.0
 40
0.0
 40
0.0
 40
0.1729721449870872
 40
0.3432476269514002
 40
0.5109528657483393
 40
0.6762201802332181
 40
0.8391878283027183
 40
1.0
 40
1.0
 40
1.0
 40
1.0
 10
85.80584114675453
 20
107.8172451774157
 30
0.0
 10
85.86656814673583
 20
107.8010146392055
 30
0.0
 10
85.98707540319042
 20
107.7688065994359
 30
0.0
 10
86.16997477195515
 20
107.7314162145011
 30
0.0
 10
86.35201026422554
 20
107.7022602811769
 30
0.0
 10
86.5330291300505
 20
107.6820317591189
 30
0.0
 10
86.71254940068737
 20
107.6695409525263
 30
0.0
 10
86.8317416289314
 20
107.6680120918369
 30
0.0
 10
86.89094099808037
 20
107.66725275048
 30
0.0
  0
LINE
  5
1FA
330
1F
100
AcDbEntity
  8
0
  6
Continuous
 62
     7
370
    25
100
AcDbLine
 10
85.1780355737
 20
107.8172527505
 30
0.0
 11
85.297516282
 21
107.8172527505
 31
0.0
  0
LINE
  5
1FB
330
1F
100
AcDbEntity
  8
0
  6
Continuous
 62
     7
370
    25
100
AcDbLine
 10
88.8058142774
 20
124.0922527505
 30
0.0
 11
86.8909409981
 21
124.0922527505
 31
0.0
  0
LINE
  5
1FC
330
1F
100
AcDbEntity
  8
0
  6
Continuous
 62
     7
370
    25
100
AcDbLine
 10
85.1779024593
 20
123.9422527505
 30
0.0
 11
80.4097751746
 21
123.9422527505
 31
0.0
  0
LINE
  5
1FD
330
1F
100
AcDbEntity
  8
0
  6
Continuous
 62
     7
370
    25
100
AcDbLine
 10
92.8058142774
 20
115.8797527505
 30
0.0
 11
92.8058142774
 21
120.0922527505
 31
0.0
  0
LINE
  5
1FE
330
1F
100
AcDbEntity
  8
VERMASSUNG
  6
CENTERX2
100
AcDbLine
 10
246.8008142774
 20
115.8797527505
 30
0.0
 11
54.8608142774
 21
115.8797527505
 31
0.0
  0
HATCH
  5
1FF
330
1F
100
AcDbEntity
  8
0
  6
Continuous
 62
     7
370
    18
100
AcDbHatch
 10
0.0
 20
0.0
 30
0.0
210
0.0
220
0.0
230
1.0
  2
ANSI31
 70
     0
 71
     0
 91
        1
 92
        0
 93
       50
 72
     2
 10
119.8308142773699
 20
144.72975275048
 40
1.000000000000003
 50
90.0
 51
180.0
 73
     0
 72
     1
 10
118.8308142773699
 20
144.72975275048
 11
118.8308142773699
 21
144.8273480146717
 72
     1
 10
118.8308142773699
 20
144.8273480146717
 11
117.3716164727998
 21
147.35475275048
 72
     1
 10
117.3716164727998
 20
147.35475275048
 11
111.0058142773699
 21
147.35475275048
 72
     2
 10
111.0058142773699
 20
147.15475275048
 40
0.2000000000000028
 50
90.0
 51
180.0
 73
     1
 72
     1
 10
110.8058142773699
 20
147.15475275048
 11
110.8058142773698
 21
142.72975275048
 72
     1
 10
110.8058142773698
 20
142.72975275048
 11
111.1398529633985
 21
141.6703173900834
 72
     2
 10
110.3768794027999
 20
141.42975275048
 40
0.8000000000000049
 50
342.4999999999998
 51
467.5000000000007
 73
     0
 72
     1
 10
110.1363147631965
 20
140.6667791898814
 11
109.6456322373391
 21
140.8214907960083
 72
     1
 10
109.6456322373391
 20
140.8214907960083
 11
96.3241589648196
 21
140.1525138229822
 72
     1
 10
96.32415737142105
 20
140.1525171320506
 11
95.65582722549152
 21
139.3434053096594
 72
     1
 10
95.65582722549152
 20
139.3434053096594
 11
95.65581427736984
 21
133.9859787712315
 72
     1
 10
95.65581740560353
 20
133.9859788961121
 11
96.2817634191457
 21
133.5172540407721
 72
     1
 10
96.28176366745463
 20
133.51725275048
 11
101.3058142773699
 21
133.51725275048
 72
     1
 10
101.3058142773699
 20
133.51725275048
 11
102.1810547509507
 21
134.0225730735075
 72
     2
 10
102.5810547509507
 20
133.32975275048
 40
0.7999999999999923
 50
240.0000000000003
 51
269.9999999999998
 73
     0
 72
     1
 10
102.5810547509507
 20
134.12975275048
 11
104.0058142773699
 21
134.12975275048
 72
     2
 10
104.0058142773699
 20
133.32975275048
 40
0.7999999999999977
 50
270.0000000000008
 51
360.0000000000008
 73
     0
 72
     1
 10
104.8058142773698
 20
133.32975275048
 11
104.8058142773698
 21
131.42975275048
 72
     1
 10
104.8058142773698
 20
131.42975275048
 11
108.5058142773698
 21
131.42975275048
 72
     2
 10
108.5058142773698
 20
130.22975275048
 40
1.2
 50
270.0000000000008
 51
360.0000000000008
 73
     0
 72
     1
 10
109.7058142773698
 20
130.22975275048
 11
109.7058142773698
 21
121.1106928581559
 72
     1
 10
109.7058142773698
 20
121.1106928581559
 11
110.1058142773698
 21
120.87975275048
 72
     1
 10
110.1058142773698
 20
120.87975275048
 11
113.5308142773698
 21
120.87975275048
 72
     1
 10
113.5308142773698
 20
120.87975275048
 11
113.5308142773698
 21
121.62975275048
 72
     1
 10
113.5308142773698
 20
121.62975275048
 11
114.3558142773698
 21
121.62975275048
 72
     1
 10
114.3558142773698
 20
121.62975275048
 11
114.3558142773698
 21
119.87975275048
 72
     1
 10
114.3558142773698
 20
119.87975275048
 11
159.9045233488285
 21
119.87975275048
 72
     1
 10
159.9045233488285
 20
119.87975275048
 11
160.8058142773698
 21
121.37975275048
 72
     1
 10
160.8058142773698
 20
121.37975275048
 11
180.8058142773698
 21
121.3797527504799
 72
     1
 10
180.8058142773698
 20
121.3797527504799
 11
181.3058142773698
 21
121.8797527504799
 72
     1
 10
181.3058142773698
 20
121.8797527504799
 11
181.3058142773698
 21
123.7797527504799
 72
     2
 10
181.7058142773698
 20
123.7797527504799
 40
0.3999999999999976
 50
180.0
 51
270.0000000000008
 73
     0
 72
     1
 10
181.7058142773698
 20
124.1797527504799
 11
190.91104025925
 21
124.1797527504799
 72
     2
 10
190.9110402592501
 20
123.7797527504799
 40
0.3999999999999957
 50
269.9999999999927
 51
289.9999999999992
 73
     0
 72
     1
 10
191.0478483165803
 20
124.1556297987943
 11
191.8058142773698
 21
123.8797527504799
 72
     1
 10
191.8058142773698
 20
123.8797527504799
 11
227.3058142773698
 21
123.8797527504799
 72
     1
 10
227.3058142773698
 20
123.8797527504799
 11
230.3926383662033
 21
124.424043122042
 72
     2
 10
230.3058142773698
 20
124.9164469985481
 40
0.5000000000000007
 50
279.9999999999959
 51
360.0000000000008
 73
     1
 72
     1
 10
230.8058142773698
 20
124.9164469985481
 11
230.8058142773698
 21
127.5309717671634
 72
     2
 10
228.8058142773698
 20
127.5309717671635
 40
2.000000000000009
 50
0.0
 51
85.50000000000044
 73
     1
 72
     1
 10
228.9627324688255
 20
129.5248064346297
 11
186.3340977007583
 21
132.8797527504799
 72
     1
 10
186.3340977007583
 20
132.8797527504799
 11
131.8058142773698
 21
132.87975275048
 72
     2
 10
131.8058142773698
 20
135.87975275048
 40
3.0
 50
90.0
 51
180.0
 73
     0
 72
     1
 10
128.8058142773698
 20
135.87975275048
 11
128.8058142773699
 21
147.35475275048
 72
     1
 10
128.8058142773699
 20
147.35475275048
 11
124.0400120819399
 21
147.35475275048
 72
     1
 10
124.0400120819399
 20
147.35475275048
 11
122.5808142773699
 21
144.8273480146717
 72
     1
 10
122.5808142773699
 20
144.8273480146717
 11
122.5808142773698
 21
144.72975275048
 72
     2
 10
121.5808142773698
 20
144.72975275048
 40
1.000000000000003
 50
0.0
 51
90.0
 73
     0
 72
     1
 10
121.5808142773698
 20
143.72975275048
 11
119.8308142773699
 21
143.72975275048
 97
        0
 75
     0
 76
     1
 52
0.0
 41
1.0
 77
     0
 78
     1
 53
45.0
 43
0.0
 44
0.0
 45
-2.245064030267288
 46
2.245064030267288
 79
     0
 98
        1
 10
0.0
 20
0.0
  0
HATCH
  5
200
330
1F
100
AcDbEntity
  8
0
  6
Continuous
 62
     7
370
    18
100
AcDbHatch
 10
0.0
 20
0.0
 30
0.0
210
0.0
220
0.0
230
1.0
  2
ANSI31
 70
     0
 71
     0
 91
        1
 92
        0
 93
        9
 72
     1
 10
81.155842407958
 20
138.5440271223629
 11
80.4062524290223
 21
139.3531384601305
 72
     1
 10
80.4062524290223
 20
139.3531384601305
 11
72.35581427736987
 21
138.9488728780624
 72
     1
 10
72.35581427736987
 20
138.9488728780624
 11
70.85581427736986
 21
138.082847474278
 72
     1
 10
70.85581427736986
 20
138.082847474278
 11
70.85581427736984
 21
136.11725275048
 72
     1
 10
70.85581427736984
 20
136.11725275048
 11
71.60748032720939
 21
134.8153289618334
 72
     1
 10
71.60748032720939
 20
134.8153289618334
 11
73.85581427736984
 21
133.5172527504801
 72
     1
 10
73.85581427736984
 20
133.5172527504801
 11
77.7258141220788
 21
133.5172527504801
 72
     1
 10
77.7258141220788
 20
133.5172527504801
 11
81.15581427736984
 21
138.415800635384
 72
     1
 10
81.15581427736984
 20
138.415800635384
 11
81.15581427736984
 21
138.5440260088697
 97
        0
 75
     0
 76
     1
 52
0.0
 41
1.0
 77
     0
 78
     1
 53
45.0
 43
0.0
 44
0.0
 45
-2.245064030267288
 46
2.245064030267288
 79
     0
 98
        1
 10
0.0
 20
0.0
  0
HATCH
  5
201
330
1F
100
AcDbEntity
  8
0
  6
Continuous
 62
     7
370
    18
100
AcDbHatch
 10
0.0
 20
0.0
 30
0.0
210
0.0
220
0.0
230
1.0
  2
ANSI31
 70
     0
 71
     0
 91
        1
 92
        0
 93
       12
 72
     1
 10
181.8058142773698
 20
121.3797527504799
 11
181.3058142773698
 21
121.8797527504799
 72
     1
 10
181.3058142773698
 20
121.8797527504799
 11
166.3058142773698
 21
121.87975275048
 72
     1
 10
166.3058142773698
 20
121.87975275048
 11
165.8058142773698
 21
121.37975275048
 72
     1
 10
165.8058142773698
 20
121.37975275048
 11
165.8058142773698
 21
119.5797527504799
 72
     1
 10
165.8058142773698
 20
119.5797527504799
 11
166.3207564172202
 21
119.0648106106297
 72
     1
 10
166.3207564172202
 20
119.0648106106297
 11
172.805814277303
 21
119.0648106106297
 72
     1
 10
172.805814277303
 20
119.0648106106297
 11
172.805814277303
 21
118.8797527504799
 72
     1
 10
172.805814277303
 20
118.8797527504799
 11
178.8058142773698
 21
118.8797527504799
 72
     1
 10
178.8058142773698
 20
118.8797527504799
 11
178.8058142773698
 21
119.0648106106297
 72
     1
 10
178.8058142773698
 20
119.0648106106297
 11
183.8058142773698
 21
119.0648106106297
 72
     1
 10
183.8058142773698
 20
119.0648106106297
 11
183.8058142773698
 21
121.3797527504799
 72
     1
 10
183.8058142773698
 20
121.3797527504799
 11
181.8058142773698
 21
121.3797527504799
 97
        0
 75
     0
 76
     1
 52
0.0
 41
1.0
 77
     0
 78
     1
 53
45.0
 43
0.0
 44
0.0
 45
-2.245064030267288
 46
2.245064030267288
 79
     0
 98
        1
 10
0.0
 20
0.0
  0
POINT
  5
202
330
1F
100
AcDbEntity
  8
VERMASSUNG
100
AcDbPoint
 10
230.8058142774
 20
102.3797527505
 30
0.0
  0
POINT
  5
203
330
1F
100
AcDbEntity
  8
VERMASSUNG
100
AcDbPoint
 10
230.8058142774
 20
129.3797527505
 30
0.0
  0
DIMENSION
  5
204
330
1F
100
AcDbEntity
  8
VERMASSUNG
100
AcDbDimension
  2
_D
 10
268.9343986096
 20
129.3797527505
 30
0.0
 11
268.9343986096
 21
115.8797527505
 31
0.0
 70
   160
  1
%%c<>
 71
     2
 42
-1.0
  3
SLDDIMSTYLE0
100
AcDbAlignedDimension
 13
230.8058142774
 23
102.3797527505
 33
0.0
 14
230.8058142774
 24
129.3797527505
 34
0.0
 50
90.0
100
AcDbRotatedDimension
  0
DIMENSION
  5
210
330
1F
100
AcDbEntity
  8
VERMASSUNG
100
AcDbDimension
  2
_D_1
 10
258.8058142774
 20
107.8797527505
 30
0.0
 11
258.8058142774
 21
115.8797527505
 31
0.0
 70
   160
  1
%%c<>
 71
     2
 42
-1.0
  3
SLDDIMSTYLE1
100
AcDbAlignedDimension
 13
227.3058142774
 23
123.8797527505
 33
0.0
 14
227.3058142774
 24
107.8797527505
 34
0.0
 50
90.0
100
AcDbRotatedDimension
  0
DIMENSION
  5
21A
330
1F
100
AcDbEntity
  8
VERMASSUNG
100
AcDbDimension
  2
_D_2
 10
279.4531242982
 20
98.8797527505
 30
0.0
 11
279.4531242982
 21
115.8797527505
 31
0.0
 70
   160
  1
%%c<>
 71
     2
 42
-1.0
  3
SLDDIMSTYLE0
100
AcDbAlignedDimension
 13
186.3340977008
 23
132.8797527505
 33
0.0
 14
186.3340977008
 24
98.8797527505
 34
0.0
 50
90.0
100
AcDbRotatedDimension
  0
DIMENSION
  5
225
330
1F
100
AcDbEntity
  8
VERMASSUNG
100
AcDbDimension
  2
_D_3
 10
230.8058142774
 20
85.270307276
 30
0.0
 11
208.5699559891
 21
85.270307276
 31
0.0
 70
   160
  1
<>
 71
     2
 42
-1.0
  3
SLDDIMSTYLE2
100
AcDbAlignedDimension
 13
186.3340977008
 23
98.8797527505
 33
0.0
 14
230.8058142774
 24
104.2285337338
 34
0.0
 50
0.0
100
AcDbRotatedDimension
  0
DIMENSION
  5
230
330
1F
100
AcDbEntity
  8
VERMASSUNG
100
AcDbDimension
  2
_D_4
 10
230.8058142774
 20
78.1866496274
 30
0.0
 11
179.8058142774
 21
78.1866496274
 31
0.0
 70
   160
  1
<>
 71
     2
 42
-1.0
  3
SLDDIMSTYLE0
100
AcDbAlignedDimension
 13
128.8058142774
 23
84.4047527505
 33
0.0
 14
230.8058142774
 24
104.2285337338
 34
0.0
 50
0.0
100
AcDbRotatedDimension
  0
DIMENSION
  5
23A
330
1F
100
AcDbEntity
  8
VERMASSUNG
100
AcDbDimension
  2
_D_5
 10
230.8058142774
 20
149.394113908
 30
0.0
 11
206.0558142774
 21
149.394113908
 31
0.0
 70
   160
  1
<>
 71
     2
 42
-1.0
  3
SLDDIMSTYLE0
100
AcDbAlignedDimension
 13
181.3058142774
 23
123.7797527505
 33
0.0
 14
230.8058142774
 24
127.5309717672
 34
0.0
 50
0.0
100
AcDbRotatedDimension
  0
DIMENSION
  5
244
330
1F
100
AcDbEntity
  8
VERMASSUNG
100
AcDbDimension
  2
_D_6
 10
230.8058142774
 20
142.4743619328
 30
0.0
 11
211.3058142774
 21
142.4743619328
 31
0.0
 70
   160
  1
<>
 71
     2
 42
-1.0
  3
SLDDIMSTYLE0
100
AcDbAlignedDimension
 13
191.8058142774
 23
123.8797527505
 33
0.0
 14
230.8058142774
 24
127.5309717672
 34
0.0
 50
0.0
100
AcDbRotatedDimension
  0
DIMENSION
  5
24E
330
1F
100
AcDbEntity
  8
VERMASSUNG
100
AcDbDimension
  2
_D_7
 10
230.8058142774
 20
157.3547527505
 30
0.0
 11
170.8058142774
 21
157.3547527505
 31
0.0
 70
   160
  1
<>
 71
     2
 42
-1.0
  3
SLDDIMSTYLE0
100
AcDbAlignedDimension
 13
110.8058142774
 23
147.1547527505
 33
0.0
 14
230.8058142774
 24
127.5309717672
 34
0.0
 50
0.0
100
AcDbRotatedDimension
  0
DIMENSION
  5
258
330
1F
100
AcDbEntity
  8
VERMASSUNG
100
AcDbDimension
  2
_D_8
 10
70.8558142774
 20
164.4682107983
 30
0.0
 11
150.8308142774
 21
164.4682107983
 31
0.0
 70
   160
  1
<>
 71
     2
 42
-1.0
  3
SLDDIMSTYLE0
100
AcDbAlignedDimension
 13
230.8058142774
 23
127.5309717672
 33
0.0
 14
70.8558142774
 24
138.0828474743
 34
0.0
 50
0.0
100
AcDbRotatedDimension
  0
DIMENSION
  5
262
330
1F
100
AcDbEntity
  8
VERMASSUNG
100
AcDbDimension
  2
_D_9
 10
48.8557892774
 20
84.4047527505
 30
0.0
 11
48.8557892774
 21
115.8797527505
 31
0.0
 70
   160
  1
KM%%c<> XMZ
 71
     2
 42
-1.0
  3
SLDDIMSTYLE2
100
AcDbAlignedDimension
 13
111.0058142774
 23
147.3547527505
 33
0.0
 14
111.0058142774
 24
84.4047527505
 34
0.0
 50
90.0
100
AcDbRotatedDimension
  0
LINE
  5
26F
330
1F
100
AcDbEntity
  8
0
  6
Continuous
 62
     7
370
    25
100
AcDbLine
 10
257.5838714491
 20
26.5227198828
 30
0.0
 11
273.4460532302
 21
19.2996015924
 31
0.0
  0
LINE
  5
270
330
1F
100
AcDbEntity
  8
0
  6
Continuous
 62
     7
370
    25
100
AcDbLine
 10
280.2574518455
 20
31.0985687483
 30
0.0
 11
266.0700070293
 21
41.2227309943
 31
0.0
  0
SPLINE
  5
271
330
1F
100
AcDbEntity
  8
0
  6
Continuous
 62
     7
370
    25
100
AcDbSpline
210
0.0
220
0.0
230
1.0
 70
     8
 71
     3
 72
    31
 73
    27
 74
     0
 42
0.000000001
 43
0.00000001
 40
0.0
 40
0.0
 40
0.0
 40
0.0
 40
0.0059588730363551
 40
0.0467041280440702
 40
0.0875959416559729
 40
0.1293929562887302
 40
0.172532258923276
 40
0.2170020731753003
 40
0.2624046162862715
 40
0.3082304274789422
 40
0.3540545672660109
 40
0.3997453882168336
 40
0.4452993629771709
 40
0.4907646888347551
 40
0.5362106940151534
 40
0.5817071928860984
 40
0.627317732963677
 40
0.6731250731963199
 40
0.719204558582018
 40
0.7656008627091455
 40
0.8122730773083238
 40
0.8588800129130876
 40
0.9048047055964623
 40
0.9493590156465143
 40
0.9922255066151868
 40
1.0
 40
1.0
 40
1.0
 40
1.0
 10
273.4506442732815
 20
19.3058782252958
 30
0.0
 10
273.4759739303656
 20
19.29166806458105
 30
0.0
 10
273.6745013264933
 20
19.18029244682591
 30
0.0
 10
274.0977027041864
 20
19.07611486315143
 30
0.0
 10
274.7031883215692
 20
19.00301483156505
 30
0.0
 10
275.3404742834877
 20
19.05030936642377
 30
0.0
 10
275.9983830503196
 20
19.20489331759368
 30
0.0
 10
276.6714407800182
 20
19.47118469903909
 30
0.0
 10
277.3473588627751
 20
19.84572105665482
 30
0.0
 10
278.0117640123511
 20
20.32143682581675
 30
0.0
 10
278.6506793047015
 20
20.88718415819665
 30
0.0
 10
279.2522930482297
 20
21.53044006962109
 30
0.0
 10
279.8069753337943
 20
22.23876309464962
 30
0.0
 10
280.3061835910343
 20
22.9996371041726
 30
0.0
 10
280.7420423831981
 20
23.80030530445063
 30
0.0
 10
281.1072931305412
 20
24.62772369773168
 30
0.0
 10
281.3953460916081
 20
25.46883219962352
 30
0.0
 10
281.6002259288773
 20
26.31079324227979
 30
0.0
 10
281.716400686752
 20
27.14114856559935
 30
0.0
 10
281.7384254640654
 20
27.94732243831476
 30
0.0
 10
281.6612174203467
 20
28.71557348584776
 30
0.0
 10
281.4803144279159
 20
29.42820016828297
 30
0.0
 10
281.1984056133484
 20
30.06948676760624
 30
0.0
 10
280.814328802184
 20
30.6068579377622
 30
0.0
 10
280.4883584583653
 20
30.95079761172627
 30
0.0
 10
280.2763303963441
 20
31.07722967209267
 30
0.0
 10
280.2437794736751
 20
31.09663974536624
 30
0.0
  0
SPLINE
  5
272
330
1F
100
AcDbEntity
  8
0
  6
Continuous
 62
     7
370
    25
100
AcDbSpline
210
0.0
220
0.0
230
1.0
 70
     8
 71
     3
 72
    12
 73
     8
 74
     0
 42
0.000000001
 43
0.00000001
 40
0.0
 40
0.0
 40
0.0
 40
0.0
 40
0.1265866661327247
 40
0.4195257490289764
 40
0.7041867706511665
 40
0.968652268646799
 40
1.0
 40
1.0
 40
1.0
 40
1.0
 10
274.683973507185
 20
21.62006790922792
 30
0.0
 10
274.643769948295
 20
21.66036472443209
 30
0.0
 10
274.5105297842854
 20
21.79391395278673
 30
0.0
 10
274.3538895977334
 20
22.1271831461876
 30
0.0
 10
274.2261502861391
 20
22.59323320052631
 30
0.0
 10
274.1929425746054
 20
22.967746869516
 30
0.0
 10
274.1918927130797
 20
23.16884926901328
 30
0.0
 10
274.1917814578219
 20
23.1901603645576
 30
0.0
  0
SPLINE
  5
273
330
1F
100
AcDbEntity
  8
0
  6
Continuous
 62
     7
370
    25
100
AcDbSpline
210
0.0
220
0.0
230
1.0
 70
     8
 71
     3
 72
    11
 73
     7
 74
     0
 42
0.000000001
 43
0.00000001
 40
0.0
 40
0.0
 40
0.0
 40
0.0
 40
0.2732621866735603
 40
0.5551585192661513
 40
0.8375724823995065
 40
1.0
 40
1.0
 40
1.0
 40
1.0
 10
277.2717841540972
 20
28.5118145193106
 30
0.0
 10
277.430846505237
 20
28.59526806622043
 30
0.0
 10
277.7539970311282
 20
28.7648120052994
 30
0.0
 10
278.2156277581329
 20
28.88871587466082
 30
0.0
 10
278.5916004011628
 20
28.92830707171908
 30
0.0
 10
278.786776401135
 20
28.88521133844569
 30
0.0
 10
278.8580421318362
 20
28.86947554653344
 30
0.0
  0
SPLINE
  5
274
330
1F
100
AcDbEntity
  8
0
  6
Continuous
 62
     7
370
    25
100
AcDbSpline
210
0.0
220
0.0
230
1.0
 70
     8
 71
     3
 72
     9
 73
     5
 74
     0
 42
0.000000001
 43
0.00000001
 40
0.0
 40
0.0
 40
0.0
 40
0.0
 40
0.8477589584142856
 40
1.0
 40
1.0
 40
1.0
 40
1.0
 10
274.1917814578219
 20
23.1901603645576
 30
0.0
 10
274.19089211107
 20
23.28966174124044
 30
0.0
 10
274.1898430549165
 20
23.40703163240497
 30
0.0
 10
274.2080258060658
 20
23.53435947243998
 30
0.0
 10
274.2107939670396
 20
23.55374399542978
 30
0.0
  0
LINE
  5
275
330
1F
100
AcDbEntity
  8
0
  6
Continuous
 62
     7
370
    25
100
AcDbLine
 10
238.0620709093
 20
37.7772031539
 30
0.0
 11
257.3407315484
 21
26.6478692615
 31
0.0
  0
LINE
  5
276
330
1F
100
AcDbEntity
  8
0
  6
Continuous
 62
     7
370
    25
100
AcDbLine
 10
265.840040653
 20
41.3706998678
 30
0.0
 11
246.5613800138
 21
52.5000337602
 31
0.0
  0
LINE
  5
277
330
1F
100
AcDbEntity
  8
0
  6
Continuous
 62
     7
370
    25
100
AcDbLine
 10
231.6979893096
 20
33.0941901202
 30
0.0
 11
233.3829544586
 21
32.1214804444
 31
0.0
  0
LINE
  5
278
330
1F
100
AcDbEntity
  8
0
  6
Continuous
 62
     7
370
    25
100
AcDbLine
 10
249.1191757732
 20
59.3803688382
 30
0.0
 11
247.4342106242
 21
60.353078514
 31
0.0
  0
LINE
  5
279
330
1F
100
AcDbEntity
  8
0
  6
Continuous
 62
     7
370
    25
100
AcDbLine
 10
227.0897043782
 20
35.7544963849
 30
0.0
 11
229.3403553546
 21
34.455223232
 31
0.0
  0
LINE
  5
27A
330
1F
100
AcDbEntity
  8
0
  6
Continuous
 62
     7
370
    25
100
AcDbLine
 10
245.0765766692
 20
61.7141116258
 30
0.0
 11
242.8259256928
 21
63.0133847787
 31
0.0
  0
LINE
  5
27B
330
1F
100
AcDbEntity
  8
0
  6
Continuous
 62
     7
370
    25
100
AcDbLine
 10
236.0485365025
 20
62.7932666863
 30
0.0
 11
226.8513243189
 21
67.3739192962
 31
0.0
  0
LINE
  5
27C
330
1F
100
AcDbEntity
  8
0
  6
Continuous
 62
     7
370
    25
100
AcDbLine
 10
215.3249765293
 20
47.4075358405
 30
0.0
 11
223.8910765349
 21
41.7336462442
 31
0.0
  0
LINE
  5
27D
330
1F
100
AcDbEntity
  8
0
  6
Continuous
 62
     7
370
    25
100
AcDbLine
 10
220.304413971
 20
48.3540257062
 30
0.0
 11
220.304413971
 21
47.9887070012
 31
0.0
  0
LINE
  5
27E
330
1F
100
AcDbEntity
  8
0
  6
Continuous
 62
     7
370
    25
100
AcDbLine
 10
224.2023807313
 20
67.7508876729
 30
0.0
 11
223.5628306225
 21
67.6636759174
 31
0.0
  0
LWPOLYLINE
  5
27F
330
1F
100
AcDbEntity
  8
0
  6
Continuous
 62
     7
370
    25
100
AcDbPolyline
 90
       20
 70
   128
 43
0.0
 10
255.579978134
 20
30.5395499008
 10
255.6293235325
 20
31.455580238
 10
255.7765497183
 20
32.4135424401
 10
256.019238516
 20
33.3977065591
 10
256.3534054021
 20
34.3919125621
 10
256.7735633836
 20
35.3798361071
 10
257.2728135484
 20
36.3452552668
 10
257.8429583344
 20
37.2723178208
 10
258.4746355435
 20
38.145801131
 10
259.1574732645
 20
38.9513631751
 10
259.8802592831
 20
39.675776468
 10
260.6311256396
 20
40.3071460123
 10
261.3977430636
 20
40.8351048137
 10
262.1675236415
 20
41.2509844914
 10
262.9278275993
 20
41.5479544227
 10
263.6661709088
 20
41.7211408318
 10
264.3704297655
 20
41.7676980635
 10
265.0290404572
 20
41.6868623672
 10
265.6311885306
 20
41.4799614802
 10
266.0700070293
 20
41.2227309943
  0
LWPOLYLINE
  5
280
330
1F
100
AcDbEntity
  8
0
  6
Continuous
 62
     7
370
    25
100
AcDbPolyline
 90
        8
 70
   128
 43
0.0
 10
257.5838714491
 20
26.5227198828
 10
257.2728135484
 20
26.6883507015
 10
256.7735633836
 20
27.0773478904
 10
256.3534054021
 20
27.5801673557
 10
256.019238516
 20
28.1885524845
 10
255.7765497183
 20
28.892514082
 10
255.6293235325
 20
29.6804925481
 10
255.579978134
 20
30.5395499008
  0
ARC
  5
281
330
1F
100
AcDbEntity
  8
0
  6
Continuous
 62
     7
370
    25
100
AcDbCircle
 10
281.0147481954
 20
22.7810305292
 30
0.0
 40
6.914446896735568
100
AcDbArc
 50
122.2792330458
 51
174.1954556123
  0
LINE
  5
282
330
1F
100
AcDbEntity
  8
0
  6
Continuous
 62
     7
370
    25
100
AcDbLine
 10
278.8463605401
 20
28.8860708815
 30
0.0
 11
279.0202882362
 21
28.8416320265
 31
0.0
  0
LINE
  5
283
330
1F
100
AcDbEntity
  8
0
  6
Continuous
 62
     7
370
    25
100
AcDbLine
 10
274.7818294344
 20
21.4996106134
 30
0.0
 11
274.6628513506
 21
21.6206001116
 31
0.0
  0
LWPOLYLINE
  5
284
330
1F
100
AcDbEntity
  8
0
  6
Continuous
 62
     7
370
    25
100
AcDbPolyline
 90
       18
 70
   128
 43
0.0
 10
278.3308714909
 20
28.9204119839
 10
278.4808507221
 20
28.7545369619
 10
278.7135033015
 20
28.3493052364
 10
278.8563414406
 20
27.8520456339
 10
278.9045008005
 20
27.2796915052
 10
278.8563414406
 20
26.6517337631
 10
278.7135033015
 20
25.9895567555
 10
278.4808507221
 20
25.3157100795
 10
278.1663064867
 20
24.6531410527
 10
277.7805816573
 20
24.0244121742
 10
277.336811974
 20
23.4509346128
 10
276.850109387
 20
22.9522369683
 10
276.337047877
 20
22.5453022795
 10
275.8150992059
 20
22.2439877253
 10
275.3020376959
 20
22.0585542035
 10
274.8153351089
 20
21.9953170023
 10
274.3715654256
 20
22.0564289934
 10
274.3479949652
 20
22.0636013245
  0
LWPOLYLINE
  5
285
330
1F
100
AcDbEntity
  8
0
  6
Continuous
 62
     7
370
    25
100
AcDbPolyline
 90
       37
 70
   128
 43
0.0
 10
230.1229721175
 20
39.3268132944
 10
230.1718690472
 20
40.5583631493
 10
230.3181304653
 20
41.8355455201
 10
230.560470893
 20
43.1471362852
 10
230.8967605973
 20
44.4816094987
 10
231.3240446889
 20
45.8272373889
 10
231.8385674886
 20
47.1721943498
 10
232.4358074298
 20
48.5046613111
 10
233.1105165713
 20
49.8129287776
 10
233.8567647198
 20
51.0854987265
 10
234.6679947476
 20
52.3111880256
 10
235.5370765933
 20
53.4792257672
 10
236.4563734456
 20
54.5793469893
 10
237.4178059511
 20
55.6018837347
 10
238.4129253131
 20
56.5378498358
 10
239.4329867191
 20
57.3790198058
 10
240.4690251557
 20
58.1180015035
 10
241.5119362452
 20
58.7483018101
 10
242.5525547765
 20
59.2643803303
 10
243.5817357892
 20
59.6617015234
 10
244.5904346682
 20
59.9367748579
 10
245.5697874869
 20
60.087182941
 10
246.5111867392
 20
60.1116024244
 10
247.4063601184
 20
60.0098205844
 10
248.2474406516
 20
59.782730182
 10
249.0270361769
 20
59.4323285064
 10
249.7382965142
 20
58.9616937935
 10
250.3749707591
 20
58.374962027
 10
250.9314639174
 20
57.677290431
 10
251.4028856376
 20
56.8748095555
 10
251.7850923577
 20
55.9745711816
 10
252.0747255006
 20
54.98448691
 10
252.2692404505
 20
53.9132580058
 10
252.3669276257
 20
52.770298637
 10
252.3669276257
 20
51.5656523179
 10
252.2692404505
 20
50.3099057374
 10
252.1235480148
 20
49.2890626161
  0
LWPOLYLINE
  5
286
330
1F
100
AcDbEntity
  8
0
  6
Continuous
 62
     7
370
    25
100
AcDbPolyline
 90
       21
 70
   128
 43
0.0
 10
243.6242387456
 20
34.566232295
 10
243.5817357892
 20
34.5310828404
 10
242.5525547765
 20
33.7401369292
 10
241.5119362452
 20
33.0547428672
 10
240.4690251557
 20
32.4809236604
 10
239.4329867191
 20
32.0237208406
 10
238.4129253131
 20
31.6871529802
 10
237.4178059511
 20
31.4741787218
 10
236.4563734456
 20
31.3866691243
 10
235.5370765933
 20
31.4253927932
 10
234.6679947476
 20
31.5900099942
 10
233.8567647198
 20
31.8790730398
 10
233.1105165713
 20
32.2900432161
 10
232.4358074298
 20
32.8193080894
 10
231.8385674886
 20
33.4622164924
 10
231.3240446889
 20
34.2131180735
 10
230.8967605973
 20
35.0654142523
 10
230.560470893
 20
36.0116156378
 10
230.3181304653
 20
37.0434061009
 10
230.1718690472
 20
38.1517186328
 10
230.1229721175
 20
39.3268132944
  0
SPLINE
  5
287
330
1F
100
AcDbEntity
  8
0
  6
Continuous
 62
     7
370
    25
100
AcDbSpline
210
0.0
220
0.0
230
1.0
 70
     8
 71
     3
 72
    25
 73
    21
 74
     0
 42
0.000000001
 43
0.00000001
 40
0.0
 40
0.0
 40
0.0
 40
0.0
 40
0.1249999999999998
 40
0.1249999999999998
 40
0.2499999999999997
 40
0.2499999999999997
 40
0.3749999999999995
 40
0.3749999999999995
 40
0.4999999999999993
 40
0.4999999999999993
 40
0.5624999999999996
 40
0.5624999999999996
 40
0.6249999999999998
 40
0.6875000000000001
 40
0.6875000000000001
 40
0.7500000000000003
 40
0.7500000000000003
 40
0.8750000000000001
 40
0.8750000000000001
 40
1.0
 40
1.0
 40
1.0
 40
1.0
 10
234.9565612659937
 20
55.7586277488229
 30
0.0
 10
234.9856845642548
 20
55.64744222829372
 30
0.0
 10
234.998073605114
 20
55.53220001586569
 30
0.0
 10
234.9910961200137
 20
55.29310444802989
 30
0.0
 10
234.9710785321617
 20
55.16833047815463
 30
0.0
 10
234.9008563744485
 20
54.9219615689422
 30
0.0
 10
234.8502057198548
 20
54.79775042158109
 30
0.0
 10
234.7202909761996
 20
54.55412192627092
 30
0.0
 10
234.6425900282103
 20
54.43706483121276
 30
0.0
 10
234.5072164459842
 20
54.26840831336272
 30
0.0
 10
234.4585819486771
 20
54.21304129209056
 30
0.0
 10
234.3571426132951
 20
54.10732148069354
 30
0.0
 10
234.2512726305544
 20
54.0061605220731
 30
0.0
 10
234.1366808382268
 20
53.91398620039629
 30
0.0
 10
234.0175981690086
 20
53.82644935765618
 30
0.0
 10
233.9556401559512
 20
53.784950888144
 30
0.0
 10
233.7677764524307
 20
53.67083056640589
 30
0.0
 10
233.6383990160766
 20
53.60722313529129
 30
0.0
 10
233.3707157630146
 20
53.50595483431707
 30
0.0
 10
233.2348440765495
 20
53.46941392609227
 30
0.0
 10
233.0993268098219
 20
53.4482457417422
 30
0.0
  0
LWPOLYLINE
  5
288
330
1F
100
AcDbEntity
  8
0
  6
Continuous
 62
     7
370
    25
100
AcDbPolyline
 90
       14
 70
   128
 43
0.0
 10
234.9565613777
 20
55.7586277813
 10
235.9585477126
 20
56.7973551589
 10
236.9944105648
 20
57.7414859491
 10
238.0544229026
 20
58.5821546376
 10
239.1286304554
 20
59.3114664386
 10
240.2069460501
 20
59.9225715261
 10
241.2792439061
 20
60.4097339181
 10
242.3354544665
 20
60.7683770958
 10
243.3656594336
 20
60.9951335432
 10
244.3601851177
 20
61.0878743016
 10
245.3096920408
 20
61.0457287568
 10
246.2052638393
 20
60.8690910949
 10
247.0384905708
 20
60.5596220054
 10
247.4342106242
 20
60.353078514
  0
LWPOLYLINE
  5
289
330
1F
100
AcDbEntity
  8
0
  6
Continuous
 62
     7
370
    25
100
AcDbPolyline
 90
       20
 70
   128
 43
0.0
 10
231.6979893096
 20
33.0941901202
 10
231.6566142753
 20
33.1183288133
 10
230.9415850877
 20
33.6242527801
 10
230.3062457126
 20
34.2512140489
 10
229.7564650985
 20
34.9934173418
 10
229.2973239162
 20
35.8440058486
 10
228.9330645096
 20
36.7951201675
 10
228.6670520411
 20
37.8379720735
 10
228.5017448572
 20
38.962925891
 10
228.4386707813
 20
40.1595874816
 10
228.4784113082
 20
41.4168991494
 10
228.6206002871
 20
42.7232442283
 10
228.8639239217
 20
44.0665522875
 10
229.2061332826
 20
45.4344111676
 10
229.644067356
 20
46.814182462
 10
230.1736787275
 20
48.19311701
 10
230.7900744113
 20
49.5584737149
 10
231.4875593146
 20
50.8976370318
 10
232.2596882622
 20
52.1982336934
 10
233.099326583
 20
53.4482452533
  0
LWPOLYLINE
  5
28A
330
1F
100
AcDbEntity
  8
0
  6
Continuous
 62
     7
370
    25
100
AcDbPolyline
 90
       12
 70
   128
 43
0.0
 10
233.2939399853
 20
55.8829042619
 10
234.2095190246
 20
56.8573861464
 10
235.1582317429
 20
57.7463613261
 10
236.1311347767
 20
58.5414509095
 10
237.1190568646
 20
59.2351596606
 10
238.1126850349
 20
59.8209485674
 10
239.1026527267
 20
60.2932940785
 10
240.0796275412
 20
60.6477448447
 10
241.0344000215
 20
60.8809592818
 10
241.9579698398
 20
60.9907385954
 10
242.8416305439
 20
60.9760483274
 10
243.0944905615
 20
60.947790895
  0
SPLINE
  5
28B
330
1F
100
AcDbEntity
  8
0
  6
Continuous
 62
     7
370
    25
100
AcDbSpline
210
0.0
220
0.0
230
1.0
 70
     8
 71
     3
 72
    26
 73
    22
 74
     0
 42
0.000000001
 43
0.00000001
 40
0.0
 40
0.0
 40
0.0
 40
0.0
 40
0.1250000000000009
 40
0.1250000000000009
 40
0.2500000000000019
 40
0.2500000000000019
 40
0.3125000000000011
 40
0.3125000000000011
 40
0.3750000000000004
 40
0.3750000000000004
 40
0.4375000000000002
 40
0.4375000000000002
 40
0.5000000000000001
 40
0.5000000000000001
 40
0.5625
 40
0.5625
 40
0.6249999999999999
 40
0.6249999999999999
 40
0.7500000000000001
 40
0.7500000000000001
 40
1.0
 40
1.0
 40
1.0
 40
1.0
 10
231.9497467803662
 20
54.21074097569772
 30
0.0
 10
231.9261091841341
 20
54.32031683527072
 30
0.0
 10
231.9085414052524
 20
54.43120609363525
 30
0.0
 10
231.8897288223829
 20
54.65653605349819
 30
0.0
 10
231.8885490476155
 20
54.77221296681656
 30
0.0
 10
231.9046470508509
 20
54.94356847667612
 30
0.0
 10
231.9129657679511
 20
55.00036698877028
 30
0.0
 10
231.9367229172081
 20
55.11319320116736
 30
0.0
 10
231.9523452962571
 20
55.16964605483352
 30
0.0
 10
231.9912025086541
 20
55.27822917124212
 30
0.0
 10
232.0144284653566
 20
55.33060913146767
 30
0.0
 10
232.069427114835
 20
55.43106590673978
 30
0.0
 10
232.1015053818576
 20
55.47934477451122
 30
0.0
 10
232.1719201303927
 20
55.56704175009496
 30
0.0
 10
232.2104985525193
 20
55.60703087807092
 30
0.0
 10
232.2942068161156
 20
55.67950956218652
 30
0.0
 10
232.3393355260574
 20
55.71184618656313
 30
0.0
 10
232.4786161682475
 20
55.79504595391678
 30
0.0
 10
232.5794052398092
 20
55.83387467655287
 30
0.0
 10
232.8824775110419
 20
55.90929096400804
 30
0.0
 10
233.0910016015269
 20
55.90916081763729
 30
0.0
 10
233.2939400212173
 20
55.88290458831106
 30
0.0
  0
LWPOLYLINE
  5
28C
330
1F
100
AcDbEntity
  8
0
  6
Continuous
 62
     7
370
    25
100
AcDbPolyline
 90
       17
 70
   128
 43
0.0
 10
229.0127681514
 20
36.5548896856
 10
228.9523440586
 20
36.6346215245
 10
228.466186088
 20
37.404547986
 10
228.0740768341
 20
38.2799418258
 10
227.7799991742
 20
39.2519111477
 10
227.5869409248
 20
40.3105818212
 10
227.4968625729
 20
41.4451992912
 10
227.5106794952
 20
42.6442378012
 10
227.6282514218
 20
43.8955171253
 10
227.848383753
 20
45.1863259532
 10
228.1688407303
 20
46.5035520231
 10
228.5863665094
 20
47.8338145355
 10
229.0967200638
 20
49.1635995122
 10
229.6947166727
 20
50.4793989572
 10
230.3742819213
 20
51.7678460237
 10
231.1285129463
 20
53.0158530326
 10
231.9497469237
 20
54.2107407447
  0
LINE
  5
28D
330
1F
100
AcDbEntity
  8
0
  6
Continuous
 62
     7
370
    25
100
AcDbLine
 10
230.4743545094
 20
33.9668198006
 30
0.0
 11
230.5959898203
 21
34.0243044071
 31
0.0
  0
LWPOLYLINE
  5
28E
330
1F
100
AcDbEntity
  8
0
  6
Continuous
 62
     7
370
    25
100
AcDbPolyline
 90
       38
 70
   128
 43
0.0
 10
230.4743545094
 20
33.9668198006
 10
229.67067667
 20
34.2799097231
 10
228.9338760011
 20
34.715479227
 10
228.2704898739
 20
35.2696641672
 10
227.6864037007
 20
35.9375472186
 10
227.1868008853
 20
36.7132035087
 10
226.7761127738
 20
37.5897508128
 10
226.45798441
 20
38.5594126755
 10
226.2352369985
 20
39.613584955
 10
226.1098468315
 20
40.742915008
 10
226.0829281662
 20
41.9373839641
 10
226.1547174201
 20
43.1863928019
 10
226.3245797563
 20
44.4788611141
 10
226.5910071079
 20
45.8033214041
 10
226.9516359586
 20
47.1480220805
 10
227.4032657822
 20
48.5010329216
 10
227.9418906524
 20
49.8503496361
 10
228.5627315116
 20
51.1840007051
 10
229.2602802937
 20
52.490154223
 10
230.0283473388
 20
53.7572201755
 10
230.8601180284
 20
54.9739580396
 10
231.7482140297
 20
56.1295714555
 10
232.6847545406
 20
57.2138082218
 10
233.6614310344
 20
58.2170490723
 10
234.6695778886
 20
59.130391796
 10
235.7002504222
 20
59.9457335494
 10
236.7443043333
 20
60.6558402893
 10
237.7924764525
 20
61.2544124022
 10
238.8354670612
 20
61.7361375492
 10
239.8640223742
 20
62.0967436051
 10
240.8690169404
 20
62.3330294972
 10
241.8415337378
 20
62.4429000363
 10
242.7729445163
 20
62.4253803581
 10
243.6549858594
 20
62.2806248516
 10
244.4798312949
 20
62.0099192433
 10
245.2401637348
 20
61.6156638605
 10
245.929235732
 20
61.1013582259
 10
246.1666146853
 20
60.8798093094
  0
LWPOLYLINE
  5
28F
330
1F
100
AcDbEntity
  8
0
  6
Continuous
 62
     7
370
    25
100
AcDbPolyline
 90
       16
 70
   128
 43
0.0
 10
224.2579076762
 20
46.7373500656
 10
224.2672208126
 20
46.7801522257
 10
224.6035105169
 20
48.1146254392
 10
225.0307946085
 20
49.4602533294
 10
225.5453174082
 20
50.8052102903
 10
226.1425573494
 20
52.1376772516
 10
226.8172664909
 20
53.4459447181
 10
227.5635146394
 20
54.718514667
 10
228.3747446672
 20
55.9442039661
 10
229.2438265129
 20
57.1122417077
 10
230.1631233652
 20
58.2123629298
 10
231.1245558707
 20
59.2348996752
 10
232.1196752327
 20
60.1708657763
 10
233.1397366387
 20
61.0120357463
 10
234.1757750753
 20
61.751017444
 10
234.8996317536
 20
62.2004867218
  0
LWPOLYLINE
  5
290
330
1F
100
AcDbEntity
  8
0
  6
Continuous
 62
     7
370
    25
100
AcDbPolyline
 90
       24
 70
   128
 43
0.0
 10
223.8297219187
 20
43.0414699757
 10
223.878308674
 20
44.2651946015
 10
224.0236402273
 20
45.5342611144
 10
224.2644409779
 20
46.837517731
 10
224.5985937052
 20
48.1635112232
 10
225.0231626179
 20
49.5005887234
 10
225.5344157441
 20
50.8369999092
 10
226.1278611519
 20
52.1610002328
 10
226.79828251
 20
53.4609535806
 10
227.5397891381
 20
54.725437212
 10
228.3458640794
 20
55.9433390943
 10
229.2094240295
 20
57.103954856
 10
230.1228792627
 20
58.1970855008
 10
231.0782027801
 20
59.2131244738
 10
232.066999127
 20
60.1431437781
 10
233.0805784794
 20
60.9789686825
 10
234.1100336936
 20
61.7132549019
 10
235.1463178496
 20
62.339550092
 10
236.1803241002
 20
62.8523490711
 10
237.2029653543
 20
63.2471459034
 10
238.2052549489
 20
63.520471345
 10
239.1783841927
 20
63.6699223991
 10
240.1138018853
 20
63.6941876896
 10
240.8790526648
 20
63.6152024594
  0
LWPOLYLINE
  5
291
330
1F
100
AcDbEntity
  8
0
  6
Continuous
 62
     7
370
    25
100
AcDbPolyline
 90
        3
 70
   128
 43
0.0
 10
223.9821137277
 20
41.0168658152
 10
223.878308674
 20
41.8738424234
 10
223.8488888566
 20
42.301045622
  0
SPLINE
  5
292
330
1F
100
AcDbEntity
  8
0
  6
Continuous
 62
     7
370
    25
100
AcDbSpline
210
0.0
220
0.0
230
1.0
 70
     8
 71
     3
 72
    10
 73
     6
 74
     0
 42
0.000000001
 43
0.00000001
 40
0.0
 40
0.0
 40
0.0
 40
0.0
 40
0.5
 40
0.5
 40
1.0
 40
1.0
 40
1.0
 40
1.0
 10
232.6764348479975
 20
52.747687694878
 30
0.0
 10
232.5724703572132
 20
52.82102606794837
 30
0.0
 10
232.4826620807858
 20
52.90826182574178
 30
0.0
 10
232.3306196527872
 20
53.10919236693778
 30
0.0
 10
232.2687140644262
 20
53.22336313313475
 30
0.0
 10
232.2242643598357
 20
53.34638081629485
 30
0.0
  0
SPLINE
  5
293
330
1F
100
AcDbEntity
  8
0
  6
Continuous
 62
     7
370
    25
100
AcDbSpline
210
0.0
220
0.0
230
1.0
 70
     8
 71
     3
 72
    14
 73
    10
 74
     0
 42
0.000000001
 43
0.00000001
 40
0.0
 40
0.0
 40
0.0
 40
0.0
 40
0.25
 40
0.25
 40
0.5
 40
0.5
 40
0.75
 40
0.75
 40
1.0
 40
1.0
 40
1.0
 40
1.0
 10
232.2242643598357
 20
53.34638081629485
 30
0.0
 10
232.2015435569706
 20
53.4092622359524
 30
0.0
 10
232.1796290466212
 20
53.47830866542581
 30
0.0
 10
232.1375179925584
 20
53.62596118204458
 30
0.0
 10
232.1179964386453
 20
53.70236096890289
 30
0.0
 10
232.0796501964716
 20
53.85669326029848
 30
0.0
 10
232.0612906035877
 20
53.93364585663014
 30
0.0
 10
232.0192871590061
 20
54.07903602414612
 30
0.0
 10
231.995510837993
 20
54.14562693033915
 30
0.0
 10
231.9670493338909
 20
54.1861225455705
 30
0.0
  0
LINE
  5
294
330
1F
100
AcDbEntity
  8
0
  6
Continuous
 62
     7
370
    25
100
AcDbLine
 10
231.9670495221
 20
54.1861229373
 30
0.0
 11
231.9497469237
 21
54.2107407447
 31
0.0
  0
LINE
  5
295
330
1F
100
AcDbEntity
  8
0
  6
Continuous
 62
     7
370
    25
100
AcDbLine
 10
233.2939399853
 20
55.8829042619
 30
0.0
 11
233.3112425837
 21
55.8582864546
 31
0.0
  0
SPLINE
  5
296
330
1F
100
AcDbEntity
  8
0
  6
Continuous
 62
     7
370
    25
100
AcDbSpline
210
0.0
220
0.0
230
1.0
 70
     8
 71
     3
 72
    16
 73
    12
 74
     0
 42
0.000000001
 43
0.00000001
 40
0.0
 40
0.0
 40
0.0
 40
0.0
 40
0.1250000000000001
 40
0.1250000000000001
 40
0.2500000000000003
 40
0.2500000000000003
 40
0.5000000000000002
 40
0.5000000000000002
 40
0.7500000000000001
 40
0.7500000000000001
 40
1.0
 40
1.0
 40
1.0
 40
1.0
 10
233.3112425747421
 20
55.85828615818377
 30
0.0
 10
233.3253949811462
 20
55.83814982237098
 30
0.0
 10
233.3470533856199
 20
55.82135240169356
 30
0.0
 10
233.3994713146552
 20
55.79450688036207
 30
0.0
 10
233.4300641937935
 20
55.78428139580109
 30
0.0
 10
233.529145042651
 20
55.75978095536841
 30
0.0
 10
233.6030275802669
 20
55.75152103296691
 30
0.0
 10
233.7561271726582
 20
55.74033506626198
 30
0.0
 10
233.8342111473058
 20
55.73773839451079
 30
0.0
 10
233.993554781048
 20
55.73570939367708
 30
0.0
 10
234.0722076758795
 20
55.73634698233932
 30
0.0
 10
234.1479601436722
 20
55.73944008315435
 30
0.0
  0
SPLINE
  5
297
330
1F
100
AcDbEntity
  8
0
  6
Continuous
 62
     7
370
    25
100
AcDbSpline
210
0.0
220
0.0
230
1.0
 70
     8
 71
     3
 72
    10
 73
     6
 74
     0
 42
0.000000001
 43
0.00000001
 40
0.0
 40
0.0
 40
0.0
 40
0.0
 40
0.5
 40
0.5
 40
1.0
 40
1.0
 40
1.0
 40
1.0
 10
234.1479601436722
 20
55.73944008315435
 30
0.0
 10
234.2961544835729
 20
55.74549110758812
 30
0.0
 10
234.4383789493035
 20
55.73532887737498
 30
0.0
 10
234.7107703396443
 20
55.68427844143491
 30
0.0
 10
234.8408976695128
 20
55.64291733879035
 30
0.0
 10
234.9589730116981
 20
55.58714347083807
 30
0.0
  0
ARC
  5
298
330
1F
100
AcDbEntity
  8
0
  6
Continuous
 62
     7
370
    25
100
AcDbCircle
 10
217.6290129621
 20
50.8510737765
 30
0.0
 40
4.143252031907277
100
AcDbArc
 50
211.7444095219
 51
236.2139194594
  0
SPLINE
  5
299
330
1F
100
AcDbEntity
  8
0
  6
Continuous
 62
     7
370
    25
100
AcDbSpline
210
0.0
220
0.0
230
1.0
 70
     8
 71
     3
 72
     8
 73
     4
 74
     0
 42
0.000000001
 43
0.00000001
 40
0.0
 40
0.0
 40
0.0
 40
0.0
 40
1.0
 40
1.0
 40
1.0
 40
1.0
 10
215.5360193425613
 20
47.74643905159941
 30
0.0
 10
215.0592460507372
 20
48.05453185953205
 30
0.0
 10
214.5824436738923
 20
48.3627613051048
 30
0.0
 10
214.1056112293667
 20
48.67112646132471
 30
0.0
  0
SPLINE
  5
29A
330
1F
100
AcDbEntity
  8
0
  6
Continuous
 62
     7
370
    25
100
AcDbSpline
210
0.0
220
0.0
230
1.0
 70
     8
 71
     3
 72
    23
 73
    19
 74
     0
 42
0.000000001
 43
0.00000001
 40
0.0
 40
0.0
 40
0.0
 40
0.0
 40
0.0521036415675031
 40
0.1035646240925967
 40
0.1544751946736949
 40
0.2049306267473421
 40
0.2550287880844035
 40
0.3048696389141012
 40
0.3545546704609132
 40
0.4041862979523234
 40
0.4538672252126086
 40
0.5036997999421611
 40
0.5901870230746071
 40
0.674271637822954
 40
0.7565997087222995
 40
0.8378563983721267
 40
0.9187511781367398
 40
1.0
 40
1.0
 40
1.0
 40
1.0
 10
216.416584146103
 20
47.57170835347931
 30
0.0
 10
216.4113152071628
 20
47.56178689124448
 30
0.0
 10
216.4008423176626
 20
47.54206634051354
 30
0.0
 10
216.3815960218998
 20
47.51749851156131
 30
0.0
 10
216.3598002815671
 20
47.49680992930208
 30
0.0
 10
216.3351489903622
 20
47.4802789940051
 30
0.0
 10
216.3076524758233
 20
47.46776149442894
 30
0.0
 10
216.2772414218159
 20
47.45922687060655
 30
0.0
 10
216.2438710500433
 20
47.45461699795847
 30
0.0
 10
216.2074951617714
 20
47.453882254822
 30
0.0
 10
216.1680667901824
 20
47.45697733737329
 30
0.0
 10
216.1152183986325
 20
47.46551311285242
 30
0.0
 10
216.0466794048623
 20
47.48310955169948
 30
0.0
 10
215.9589581729079
 20
47.51474615978535
 30
0.0
 10
215.864227253414
 20
47.55692581711807
 30
0.0
 10
215.762193006084
 20
47.60966225284506
 30
0.0
 10
215.653279092895
 20
47.67197880875588
 30
0.0
 10
215.5751627819089
 20
47.72158286700699
 30
0.0
 10
215.5360193425613
 20
47.7464390515994
 30
0.0
  0
SPLINE
  5
29B
330
1F
100
AcDbEntity
  8
0
  6
Continuous
 62
     7
370
    25
100
AcDbSpline
210
0.0
220
0.0
230
1.0
 70
     8
 71
     3
 72
     8
 73
     4
 74
     0
 42
0.000000001
 43
0.00000001
 40
0.0
 40
0.0
 40
0.0
 40
0.0
 40
1.0
 40
1.0
 40
1.0
 40
1.0
 10
217.8900871725568
 20
46.6243882169231
 30
0.0
 10
217.3987198605154
 20
46.94026283689059
 30
0.0
 10
216.9073336605892
 20
47.25624885818007
 30
0.0
 10
216.4159279504452
 20
47.57234573902275
 30
0.0
  0
SPLINE
  5
29C
330
1F
100
AcDbEntity
  8
0
  6
Continuous
 62
     7
370
    25
100
AcDbSpline
210
0.0
220
0.0
230
1.0
 70
     8
 71
     3
 72
    18
 73
    14
 74
     0
 42
0.000000001
 43
0.00000001
 40
0.0
 40
0.0
 40
0.0
 40
0.0
 40
0.0923824559411628
 40
0.1844689291573508
 40
0.2764953615950219
 40
0.3686975365494161
 40
0.4613092840003458
 40
0.5545607518442569
 40
0.6486768051537182
 40
0.7438756050146744
 40
0.8403674044302629
 40
0.9203921078121001
 40
1.0
 40
1.0
 40
1.0
 40
1.0
 10
218.7036512917564
 20
45.98008049237875
 30
0.0
 10
218.6800837776333
 20
45.9953544666443
 30
0.0
 10
218.633024256982
 20
46.02585347912494
 30
0.0
 10
218.5606264690191
 20
46.07548605173585
 30
0.0
 10
218.4871442601236
 20
46.12781559440437
 30
0.0
 10
218.4124448123786
 20
46.18313328011225
 30
0.0
 10
218.3365840226105
 20
46.24137159522581
 30
0.0
 10
218.2595727418238
 20
46.3025645068634
 30
0.0
 10
218.1814406097428
 20
46.36672822344495
 30
0.0
 10
218.1022143750989
 20
46.43387718331207
 30
0.0
 10
218.026917890689
 20
46.49972809305824
 30
0.0
 10
217.956090582567
 20
46.56325967986656
 30
0.0
 10
217.9121862117599
 20
46.60392042488005
 30
0.0
 10
217.8902913449546
 20
46.6241977134486
 30
0.0
  0
LINE
  5
29D
330
1F
100
AcDbEntity
  8
0
  6
Continuous
 62
     7
370
    25
100
AcDbLine
 10
219.3433578236
 20
45.5683266859
 30
0.0
 11
218.7036509813
 21
45.9800803535
 31
0.0
  0
SPLINE
  5
29E
330
1F
100
AcDbEntity
  8
0
  6
Continuous
 62
     7
370
    25
100
AcDbSpline
210
0.0
220
0.0
230
1.0
 70
     8
 71
     3
 72
    25
 73
    21
 74
     0
 42
0.000000001
 43
0.00000001
 40
0.0
 40
0.0
 40
0.0
 40
0.0
 40
0.0280105225426465
 40
0.0559601148860768
 40
0.0839014045043132
 40
0.1118870776786367
 40
0.1399695827588937
 40
0.1682008401739883
 40
0.196631967042422
 40
0.2253130233141467
 40
0.2542927850735845
 40
0.3799486436587335
 40
0.5057850221667067
 40
0.6313085886338298
 40
0.7532068238012468
 40
0.8039473267955921
 40
0.8535894438554446
 40
0.9025339722394071
 40
0.9511970353791085
 40
1.0
 40
1.0
 40
1.0
 40
1.0
 10
220.4457234167467
 20
46.28423267625584
 30
0.0
 10
220.4506715242773
 20
46.25660881514835
 30
0.0
 10
220.4605569759128
 20
46.20142118204303
 30
0.0
 10
220.472092625516
 20
46.12226047467311
 30
0.0
 10
220.4811657473288
 20
46.04595713557473
 30
0.0
 10
220.4875345560417
 20
45.97276137460512
 30
0.0
 10
220.4912507948518
 20
45.90261390639173
 30
0.0
 10
220.4922874158347
 20
45.83553761987895
 30
0.0
 10
220.4906389406077
 20
45.77153371065251
 30
0.0
 10
220.4862927887389
 20
45.71060485738568
 30
0.0
 10
220.4714364641712
 20
45.5887167358885
 30
0.0
 10
220.4263482071062
 20
45.43381586423335
 30
0.0
 10
220.3129886866136
 20
45.3028727458913
 30
0.0
 10
220.1511644646193
 20
45.24699634508129
 30
0.0
 10
219.9771492454875
 20
45.26687039746407
 30
0.0
 10
219.8257883248014
 20
45.31418819981955
 30
0.0
 10
219.715388092103
 20
45.3591036235549
 30
0.0
 10
219.5982285966543
 20
45.41647935484608
 30
0.0
 10
219.4746629297204
 20
45.4851564192989
 30
0.0
 10
219.3871678796254
 20
45.54057666525209
 30
0.0
 10
219.3433575599437
 20
45.56832656298239
 30
0.0
  0
ARC
  5
29F
330
1F
100
AcDbEntity
  8
0
  6
Continuous
 62
     7
370
    25
100
AcDbCircle
 10
231.6387445811
 20
48.0702830448
 30
0.0
 40
11.33462419218323
100
AcDbArc
 50
170.9338462887
 51
189.0661537113
  0
SPLINE
  5
2A0
330
1F
100
AcDbEntity
  8
0
  6
Continuous
 62
     7
370
    25
100
AcDbSpline
210
0.0
220
0.0
230
1.0
 70
     8
 71
     3
 72
    26
 73
    22
 74
     0
 42
0.000000001
 43
0.00000001
 40
0.0
 40
0.0
 40
0.0
 40
0.0
 40
0.0241259796963635
 40
0.0482159912272988
 40
0.0723203915124065
 40
0.0964895678710797
 40
0.1207736231963513
 40
0.1452220711242836
 40
0.1698835501657706
 40
0.1948055644472379
 40
0.2200342569517627
 40
0.2456142191611387
 40
0.3690971486901655
 40
0.4940698769485187
 40
0.6192566784762451
 40
0.7454656653603225
 40
0.7971495824713707
 40
0.8481710308405392
 40
0.8988013269235234
 40
0.9493179290492194
 40
1.0
 40
1.0
 40
1.0
 40
1.0
 10
219.3433575599437
 20
53.33243695434696
 30
0.0
 10
219.3650757893197
 20
53.31810543095187
 30
0.0
 10
219.4084798694959
 20
53.28946375028283
 30
0.0
 10
219.4717869868572
 20
53.24147145235402
 30
0.0
 10
219.5336485545752
 20
53.18987225446834
 30
0.0
 10
219.5939530697117
 20
53.1342974615951
 30
0.0
 10
219.6527429216516
 20
53.07484222096796
 30
0.0
 10
219.7100234400814
 20
53.01147791213055
 30
0.0
 10
219.7658145794076
 20
52.94420913416663
 30
0.0
 10
219.8201358268294
 20
52.8730350202065
 30
0.0
 10
219.8730148020383
 20
52.79794588045822
 30
0.0
 10
219.9898096267747
 20
52.61869143175637
 30
0.0
 10
220.1516791847011
 20
52.30838595991298
 30
0.0
 10
220.314864092233
 20
51.83847217178129
 30
0.0
 10
220.4263754974064
 20
51.33950913787125
 30
0.0
 10
220.4735093355149
 20
50.93062546481425
 30
0.0
 10
220.4886282750474
 20
50.62635350822354
 30
0.0
 10
220.49058141403
 20
50.42510426652822
 30
0.0
 10
220.4841033883908
 20
50.22944434680563
 30
0.0
 10
220.4699764657038
 20
50.03880805890816
 30
0.0
 10
220.4538165740188
 20
49.91722478516935
 30
0.0
 10
220.4457234167467
 20
49.85633374857046
 30
0.0
  0
LINE
  5
2A1
330
1F
100
AcDbEntity
  8
0
  6
Continuous
 62
     7
370
    25
100
AcDbLine
 10
218.7036509813
 20
53.7454118046
 30
0.0
 11
219.3433578236
 21
53.3324368336
 31
0.0
  0
SPLINE
  5
2A2
330
1F
100
AcDbEntity
  8
0
  6
Continuous
 62
     7
370
    25
100
AcDbSpline
210
0.0
220
0.0
230
1.0
 70
     8
 71
     3
 72
    14
 73
    10
 74
     0
 42
0.000000001
 43
0.00000001
 40
0.0
 40
0.0
 40
0.0
 40
0.0
 40
0.0789261963172865
 40
0.158232872055133
 40
0.330847539457262
 40
0.5000195457610529
 40
0.6670357883572423
 40
0.8332395193657144
 40
1.0
 40
1.0
 40
1.0
 40
1.0
 10
217.8896985759052
 20
53.95399423763155
 30
0.0
 10
217.911415457241
 20
53.95559740149012
 30
0.0
 10
217.9549539104567
 20
53.95881145757738
 30
0.0
 10
218.0464790291057
 20
53.95963249764527
 30
0.0
 10
218.1633873625387
 20
53.95169651586195
 30
0.0
 10
218.3042077009204
 20
53.92542084698415
 30
0.0
 10
218.4414200087325
 20
53.88246324845189
 30
0.0
 10
218.575350683149
 20
53.82410612364227
 30
0.0
 10
218.6608367751082
 20
53.77167257749228
 30
0.0
 10
218.7036512917564
 20
53.74541196733784
 30
0.0
  0
SPLINE
  5
2A3
330
1F
100
AcDbEntity
  8
0
  6
Continuous
 62
     7
370
    25
100
AcDbSpline
210
0.0
220
0.0
230
1.0
 70
     8
 71
     3
 72
     8
 73
     4
 74
     0
 42
0.000000001
 43
0.00000001
 40
0.0
 40
0.0
 40
0.0
 40
0.0
 40
1.0
 40
1.0
 40
1.0
 40
1.0
 10
216.0873949929007
 20
55.11638564904425
 30
0.0
 10
216.6881532165968
 20
54.72911816588535
 30
0.0
 10
217.2888820794572
 20
54.34165081596205
 30
0.0
 10
217.8895827238041
 20
53.95398392337243
 30
0.0
  0
SPLINE
  5
2A4
330
1F
100
AcDbEntity
  8
0
  6
Continuous
 62
     7
370
    25
100
AcDbSpline
210
0.0
220
0.0
230
1.0
 70
     8
 71
     3
 72
    13
 73
     9
 74
     0
 42
0.000000001
 43
0.00000001
 40
0.0
 40
0.0
 40
0.0
 40
0.0
 40
0.1667030582307992
 40
0.3329480818053035
 40
0.4990671507274896
 40
0.6653938523718403
 40
0.832261271055009
 40
1.0
 40
1.0
 40
1.0
 40
1.0
 10
215.7455664578663
 20
55.41745042813004
 30
0.0
 10
215.7658676403063
 20
55.4038853214508
 30
0.0
 10
215.806414225495
 20
55.37679237968796
 30
0.0
 10
215.8655638624826
 20
55.33159780668024
 30
0.0
 10
215.9233354073851
 20
55.2831866581973
 30
0.0
 10
215.9795851448447
 20
55.23115154342684
 30
0.0
 10
216.0345123535908
 20
55.17585357621782
 30
0.0
 10
216.0697330631814
 20
55.13623632105745
 30
0.0
 10
216.0873892751223
 20
55.11637611205653
 30
0.0
  0
SPLINE
  5
2A5
330
1F
100
AcDbEntity
  8
0
  6
Continuous
 62
     7
370
    25
100
AcDbSpline
210
0.0
220
0.0
230
1.0
 70
     8
 71
     3
 72
     8
 73
     4
 74
     0
 42
0.000000001
 43
0.00000001
 40
0.0
 40
0.0
 40
0.0
 40
0.0
 40
1.0
 40
1.0
 40
1.0
 40
1.0
 10
213.8015859420756
 20
56.67217228050951
 30
0.0
 10
214.4496160144759
 20
56.25417696462475
 30
0.0
 10
215.0976089915778
 20
55.83593620220712
 30
0.0
 10
215.7455664578663
 20
55.41745042813003
 30
0.0
  0
LWPOLYLINE
  5
2A6
330
1F
100
AcDbEntity
  8
0
  6
Continuous
 62
     7
370
    25
100
AcDbPolyline
 90
       19
 70
   128
 43
0.0
 10
213.8015865924
 20
56.672172331
 10
214.204478854
 20
57.8391363164
 10
214.6944339923
 20
58.9991407412
 10
215.2654342276
 20
60.1379381372
 10
215.9104654023
 20
61.241540828
 10
216.6216058845
 20
62.2963954466
 10
217.3901210691
 20
63.2895450951
 10
218.2065720378
 20
64.2087916939
 10
219.0609309686
 20
65.0428458766
 10
219.942704284
 20
65.7814619605
 10
220.8410619317
 20
66.4155696141
 10
221.7449700805
 20
66.937379358
 10
222.6433267403
 20
67.3404829102
 10
223.5250981625
 20
67.619929647
 10
224.3794541299
 20
67.772286453
 10
225.1959014765
 20
67.7956828612
 10
225.9644120513
 20
67.6898309316
 10
226.6755472652
 20
67.456030991
 10
226.8513243189
 20
67.3739192962
  0
SPLINE
  5
2A7
330
1F
100
AcDbEntity
  8
0
  6
Continuous
 62
     7
370
    25
100
AcDbSpline
210
0.0
220
0.0
230
1.0
 70
    11
 71
     3
 72
    39
 73
    35
 74
     0
 42
0.000000001
 43
0.00000001
 40
0.0
 40
0.0
 40
0.0
 40
0.0
 40
0.0310664058348413
 40
0.0621048158426138
 40
0.0931361551796939
 40
0.1235538293503726
 40
0.1538561545809849
 40
0.1850588072749156
 40
0.2160250992946587
 40
0.2471867223797568
 40
0.2784462884304475
 40
0.3100516090231247
 40
0.3419834369138969
 40
0.3734259894013238
 40
0.4048604886787081
 40
0.436874065183343
 40
0.4685120685926471
 40
0.499805535863323
 40
0.5309508213226204
 40
0.5618649784438111
 40
0.5930416446590877
 40
0.623374245013332
 40
0.6540913579072549
 40
0.6849496782718453
 40
0.7158160645166705
 40
0.7471731804043553
 40
0.7784514311866318
 40
0.810129591156098
 40
0.8419598919688388
 40
0.8735175891922303
 40
0.9050808037886594
 40
0.9370235169792582
 40
0.9687441590030581
 40
1.0
 40
1.0
 40
1.0
 40
1.0
 10
227.010171423281
 20
65.67736265585091
 30
0.0
 10
227.2730570434791
 20
65.64882816856081
 30
0.0
 10
227.7999456539626
 20
65.56288568023922
 30
0.0
 10
228.5639577230386
 20
65.36251056016675
 30
0.0
 10
229.2711079110895
 20
65.11550845394724
 30
0.0
 10
229.884018975685
 20
64.83752657579414
 30
0.0
 10
230.3811503013554
 20
64.54339287846541
 30
0.0
 10
230.7403420224289
 20
64.24188635027319
 30
0.0
 10
230.9620612911877
 20
63.93488884537077
 30
0.0
 10
231.0273131685698
 20
63.62438358396908
 30
0.0
 10
230.9404659574559
 20
63.30523909922026
 30
0.0
 10
230.6981203696976
 20
62.97591913364807
 30
0.0
 10
230.3181825069712
 20
62.63697841209041
 30
0.0
 10
229.8043765538114
 20
62.29913994767977
 30
0.0
 10
229.1784857429014
 20
61.97324204636893
 30
0.0
 10
228.4650147564095
 20
61.67659515312944
 30
0.0
 10
227.7011122801452
 20
61.42049184469249
 30
0.0
 10
226.9153191972435
 20
61.2314642767017
 30
0.0
 10
226.1337817422036
 20
61.12328835464846
 30
0.0
 10
225.3776687574512
 20
61.11562447127874
 30
0.0
 10
224.6753041710576
 20
61.2135465066649
 30
0.0
 10
224.0562838240149
 20
61.43519494016739
 30
0.0
 10
223.5472265590012
 20
61.77106302707912
 30
0.0
 10
223.1742829655673
 20
62.21087359325989
 30
0.0
 10
222.9456810143189
 20
62.72194823378253
 30
0.0
 10
222.8768347075996
 20
63.27313332154596
 30
0.0
 10
222.9614511208247
 20
63.83080524985773
 30
0.0
 10
223.2045599107596
 20
64.36088539077673
 30
0.0
 10
223.5866897535773
 20
64.83340973988943
 30
0.0
 10
224.1028253279876
 20
65.21953125078267
 30
0.0
 10
224.7298031884896
 20
65.5031554381158
 30
0.0
 10
225.4457106208534
 20
65.67289265684224
 30
0.0
 10
226.214154013039
 20
65.73443149155355
 30
0.0
 10
226.7456827924114
 20
65.70607113929796
 30
0.0
 10
227.010171423281
 20
65.67736265585091
 30
0.0
  0
LINE
  5
2A8
330
1F
100
AcDbEntity
  8
0
  6
Continuous
 62
     7
370
    25
100
AcDbLine
 10
217.7856340102
 20
49.2382360385
 30
0.0
 11
218.0963856878
 21
49.071855338
 31
0.0
  0
LINE
  5
2A9
330
1F
100
AcDbEntity
  8
0
  6
Continuous
 62
     7
370
    25
100
AcDbLine
 10
216.7986759903
 20
49.8079947757
 30
0.0
 11
217.7856340102
 21
49.2382360385
 31
0.0
  0
ARC
  5
2AA
330
1F
100
AcDbEntity
  8
0
  6
Continuous
 62
     7
370
    25
100
AcDbCircle
 10
219.0196459011
 20
53.4014755398
 30
0.0
 40
4.48427479056589
100
AcDbArc
 50
267.6840627222
 51
286.9866336569
  0
SPLINE
  5
2AB
330
1F
100
AcDbEntity
  8
0
  6
Continuous
 62
     7
370
    25
100
AcDbSpline
210
0.0
220
0.0
230
1.0
 70
     8
 71
     3
 72
    12
 73
     8
 74
     0
 42
0.000000001
 43
0.00000001
 40
0.0
 40
0.0
 40
0.0
 40
0.0
 40
0.1523598330305601
 40
0.3826801306822303
 40
0.6138741683107227
 40
0.8254372814239916
 40
1.0
 40
1.0
 40
1.0
 40
1.0
 10
228.3486773815804
 20
62.67486694051519
 30
0.0
 10
228.1437100431986
 20
62.78701334024795
 30
0.0
 10
227.6288963532819
 20
63.06868993473899
 30
0.0
 10
226.6158210259927
 20
63.48485590720608
 30
0.0
 10
225.4084422450336
 20
63.7680975351536
 30
0.0
 10
224.3061117596827
 20
63.79904437789438
 30
0.0
 10
223.7411727271517
 20
63.59131700057269
 30
0.0
 10
223.4857707694094
 20
63.49740601940551
 30
0.0
  0
SPLINE
  5
2AC
330
1F
100
AcDbEntity
  8
0
  6
Continuous
 62
     7
370
    25
100
AcDbSpline
210
0.0
220
0.0
230
1.0
 70
     8
 71
     3
 72
    10
 73
     6
 74
     0
 42
0.000000001
 43
0.00000001
 40
0.0
 40
0.0
 40
0.0
 40
0.0
 40
0.3798174073072795
 40
0.9603711649033085
 40
1.0
 40
1.0
 40
1.0
 40
1.0
 10
229.4885575034398
 20
62.14664001299671
 30
0.0
 10
229.3589048861915
 20
62.21696857483408
 30
0.0
 10
229.031077270437
 20
62.39479487125519
 30
0.0
 10
228.6231487254268
 20
62.56784772165761
 30
0.0
 10
228.3665159439949
 20
62.66705315390592
 30
0.0
 10
228.3501174537832
 20
62.67339224784629
 30
0.0
  0
SPLINE
  5
2AD
330
1F
100
AcDbEntity
  8
0
  6
Continuous
 62
     7
370
    25
100
AcDbSpline
210
0.0
220
0.0
230
1.0
 70
     8
 71
     3
 72
    24
 73
    20
 74
     0
 42
0.000000001
 43
0.00000001
 40
0.0
 40
0.0
 40
0.0
 40
0.0
 40
0.0618858212107145
 40
0.1150115607194259
 40
0.1593831488268445
 40
0.2428114970815824
 40
0.318331853291959
 40
0.3935543804326023
 40
0.4204843226990471
 40
0.4483397435477174
 40
0.4771286702554668
 40
0.5451537905345539
 40
0.6363475754294583
 40
0.6968782859867285
 40
0.7498596693403015
 40
0.7959701295389731
 40
0.8771179302751783
 40
0.9543004207779655
 40
1.0
 40
1.0
 40
1.0
 40
1.0
 10
226.9552928562787
 20
65.10350475589416
 30
0.0
 10
226.7713360669425
 20
65.12239932086011
 30
0.0
 10
226.4294619989803
 20
65.15751388124461
 30
0.0
 10
225.9652440260035
 20
65.15102333285733
 30
0.0
 10
225.4557824137305
 20
65.10329914006003
 30
0.0
 10
224.9166873143559
 20
64.97868254189312
 30
0.0
 10
224.3738493296323
 20
64.73619225795014
 30
0.0
 10
224.0334563141372
 20
64.47881950732423
 30
0.0
 10
223.8268296055862
 20
64.26401240682539
 30
0.0
 10
223.7088455493752
 20
64.11750905552643
 30
0.0
 10
223.5566751451841
 20
63.88775823130597
 30
0.0
 10
223.3899945066045
 20
63.51481553587894
 30
0.0
 10
223.3216329257672
 20
63.05225648318606
 30
0.0
 10
223.3719883893867
 20
62.62392378498424
 30
0.0
 10
223.4774175329019
 20
62.30399689133985
 30
0.0
 10
223.659616859588
 20
61.96353137614665
 30
0.0
 10
223.9604952846584
 20
61.62758311929158
 30
0.0
 10
224.3501801792569
 20
61.35452381857655
 30
0.0
 10
224.6430991354513
 20
61.26056874764926
 30
0.0
 10
224.7520350695076
 20
61.2256270574843
 30
0.0
  0
SPLINE
  5
2AE
330
1F
100
AcDbEntity
  8
0
  6
Continuous
 62
     7
370
    25
100
AcDbSpline
210
0.0
220
0.0
230
1.0
 70
     8
 71
     3
 72
    22
 73
    18
 74
     0
 42
0.000000001
 43
0.00000001
 40
0.0
 40
0.0
 40
0.0
 40
0.0
 40
0.0114834662766631
 40
0.0705129490302074
 40
0.1365111498489265
 40
0.2095181088460596
 40
0.2722005662080079
 40
0.326136633712203
 40
0.3713257586344869
 40
0.4077706656115294
 40
0.5121571560731971
 40
0.6052135161672628
 40
0.6996579575918662
 40
0.7500000558373026
 40
0.8024654985564912
 40
0.8926083568347373
 40
1.0
 40
1.0
 40
1.0
 40
1.0
 10
230.2927519709808
 20
62.65776757181781
 30
0.0
 10
230.3046060411407
 20
62.66906655472732
 30
0.0
 10
230.377394642147
 20
62.73844670413487
 30
0.0
 10
230.4740158593585
 20
62.87012995555109
 30
0.0
 10
230.5721979601124
 20
63.05896464330834
 30
0.0
 10
230.6029488795431
 20
63.24491224580031
 30
0.0
 10
230.5736657443854
 20
63.4167310847325
 30
0.0
 10
230.5051448123028
 20
63.56353613210672
 30
0.0
 10
230.417337437782
 20
63.68474736815111
 30
0.0
 10
230.2630448006801
 20
63.85033042687892
 30
0.0
 10
229.9952193487911
 20
64.06049472081756
 30
0.0
 10
229.5436489395288
 20
64.31593851521052
 30
0.0
 10
229.0960863667154
 20
64.52257521568798
 30
0.0
 10
228.6871925887855
 20
64.68107943179291
 30
0.0
 10
228.2651129912435
 20
64.82359617986263
 30
0.0
 10
227.6868003728397
 20
64.98685274865707
 30
0.0
 10
227.2129217791512
 20
65.06242119858952
 30
0.0
 10
226.9552928562787
 20
65.10350475589416
 30
0.0
  0
LINE
  5
2AF
330
1F
100
AcDbEntity
  8
0
  6
Continuous
 62
     7
370
    25
100
AcDbLine
 10
220.4457231344
 20
49.8563335678
 30
0.0
 11
220.4404850714
 21
50.1524169907
 31
0.0
  0
LINE
  5
2B0
330
1F
100
AcDbEntity
  8
0
  6
Continuous
 62
     7
370
    25
100
AcDbLine
 10
220.4404850714
 20
50.1524169907
 30
0.0
 11
220.4835848338
 21
50.8040786874
 31
0.0
  0
LINE
  5
2B1
330
1F
100
AcDbEntity
  8
0
  6
Continuous
 62
     7
370
    25
100
AcDbLine
 10
220.0534005121
 20
52.5355396942
 30
0.0
 11
219.6495217508
 21
52.9617017777
 31
0.0
  0
SPLINE
  5
2B2
330
1F
100
AcDbEntity
  8
0
  6
Continuous
 62
     7
370
    25
100
AcDbSpline
210
0.0
220
0.0
230
1.0
 70
     8
 71
     3
 72
    19
 73
    15
 74
     0
 42
0.000000001
 43
0.00000001
 40
0.0
 40
0.0
 40
0.0
 40
0.0
 40
0.0210492621018804
 40
0.1455865440207667
 40
0.2712169722633744
 40
0.3929514297049947
 40
0.5136082229787104
 40
0.6366369099308349
 40
0.699422462668311
 40
0.7643939711952468
 40
0.8122544601557282
 40
0.8606584764820763
 40
0.9188817427801165
 40
1.0
 40
1.0
 40
1.0
 40
1.0
 10
223.3660483039364
 20
62.84875480843635
 30
0.0
 10
223.3585797289505
 20
62.90351515534176
 30
0.0
 10
223.3069235703788
 20
63.28226333267689
 30
0.0
 10
223.5496944650385
 20
63.89241424149107
 30
0.0
 10
224.1340249324534
 20
64.58178794473064
 30
0.0
 10
225.0401513000936
 20
64.9990874949627
 30
0.0
 10
226.1144974285557
 20
65.11951345265133
 30
0.0
 10
227.0684312976514
 20
64.95881390906375
 30
0.0
 10
227.8030938402206
 20
64.66144781022194
 30
0.0
 10
228.275897079693
 20
64.36378973281724
 30
0.0
 10
228.6328672498124
 20
63.99287792803988
 30
0.0
 10
228.8277153913207
 20
63.5605566327323
 30
0.0
 10
228.8567444215648
 20
63.05761530150716
 30
0.0
 10
228.7943708199445
 20
62.72387028893198
 30
0.0
 10
228.7580597639704
 20
62.52957921838512
 30
0.0
  0
SPLINE
  5
2B3
330
1F
100
AcDbEntity
  8
0
  6
Continuous
 62
     7
370
    25
100
AcDbSpline
210
0.0
220
0.0
230
1.0
 70
     8
 71
     3
 72
    10
 73
     6
 74
     0
 42
0.000000001
 43
0.00000001
 40
0.0
 40
0.0
 40
0.0
 40
0.0
 40
0.2952118939789638
 40
0.9806889752106586
 40
1.0
 40
1.0
 40
1.0
 40
1.0
 10
228.7607876199586
 20
62.52834066496273
 30
0.0
 10
228.8436112448354
 20
62.48957548716926
 30
0.0
 10
229.1187499416842
 20
62.36079821477781
 30
0.0
 10
229.3936812557868
 20
62.21961321491843
 30
0.0
 10
229.5421463204612
 20
62.12562562052122
 30
0.0
 10
229.5462142275666
 20
62.12305038301397
 30
0.0
  0
ARC
  5
2B4
330
1F
100
AcDbEntity
  8
0
  6
Continuous
 62
     7
370
    25
100
AcDbCircle
 10
232.7708961853
 20
48.3151216726
 30
0.0
 40
12.46654291792365
100
AcDbArc
 50
171.5249863735
 51
179.8211981812
  0
SPLINE
  5
2B5
330
1F
100
AcDbEntity
  8
0
  6
Continuous
 62
     7
370
    25
100
AcDbSpline
210
0.0
220
0.0
230
1.0
 70
     8
 71
     3
 72
    14
 73
    10
 74
     0
 42
0.000000001
 43
0.00000001
 40
0.0
 40
0.0
 40
0.0
 40
0.0
 40
0.0003951393068452
 40
0.0003951393068452
 40
0.0003951393068452
 40
0.0008163352168663
 40
0.0008163352168663
 40
0.0008163352168663
 40
0.0012378579337219
 40
0.0012378579337219
 40
0.0012378579337219
 40
0.0012378579337219
 10
228.3527099571201
 20
62.67358798713085
 30
0.0
 10
228.3981717713513
 20
62.65915112450582
 30
0.0
 10
228.4430593759724
 20
62.64428526394023
 30
0.0
 10
228.4873430686474
 20
62.62900147633474
 30
0.0
 10
228.5345463608868
 20
62.61271003699706
 30
0.0
 10
228.581072173946
 20
62.59594055891316
 30
0.0
 10
228.6268830831876
 20
62.57871174811785
 30
0.0
 10
228.6727294711767
 20
62.56146959428621
 30
0.0
 10
228.7178687067491
 20
62.54376388808172
 30
0.0
 10
228.7622622647915
 20
62.52562103139092
 30
0.0
  0
LINE
  5
2B6
330
1F
100
AcDbEntity
  8
0
  6
Continuous
 62
     7
370
    25
100
AcDbLine
 10
219.6495217508
 20
52.9617017777
 30
0.0
 11
219.0095850765
 21
53.3739334178
 31
0.0
  0
LINE
  5
2B7
330
1F
100
AcDbEntity
  8
0
  6
Continuous
 62
     7
370
    25
100
AcDbLine
 10
218.7036509813
 20
53.7454118046
 30
0.0
 11
219.0095850765
 21
53.3739334178
 31
0.0
  0
SPLINE
  5
2B8
330
1F
100
AcDbEntity
  8
0
  6
Continuous
 62
     7
370
    25
100
AcDbSpline
210
0.0
220
0.0
230
1.0
 70
     8
 71
     3
 72
    13
 73
     9
 74
     0
 42
0.000000001
 43
0.00000001
 40
0.0
 40
0.0
 40
0.0
 40
0.0
 40
0.161854229885178
 40
0.3254858841554281
 40
0.4910085196607404
 40
0.6585318472791263
 40
0.8281616954204583
 40
0.9999999999999999
 40
0.9999999999999999
 40
0.9999999999999999
 40
0.9999999999999999
 10
219.0095854880985
 20
53.37393342170095
 30
0.0
 10
218.990008096081
 20
53.38649639873412
 30
0.0
 10
218.9506383202353
 20
53.41176031485273
 30
0.0
 10
218.889102380465
 20
53.44445401176759
 30
0.0
 10
218.8255457212156
 20
53.47340008547447
 30
0.0
 10
218.7599276185588
 20
53.49791245294007
 30
0.0
 10
218.692500349504
 20
53.51834751629358
 30
0.0
 10
218.6466157493055
 20
53.52794417128336
 30
0.0
 10
218.6235250691305
 20
53.53277353211815
 30
0.0
  0
SPLINE
  5
2B9
330
1F
100
AcDbEntity
  8
0
  6
Continuous
 62
     7
370
    25
100
AcDbSpline
210
0.0
220
0.0
230
1.0
 70
     8
 71
     3
 72
     9
 73
     5
 74
     0
 42
0.000000001
 43
0.00000001
 40
0.0
 40
0.0
 40
0.0
 40
0.0
 40
0.4907282259506175
 40
1.0
 40
1.0
 40
1.0
 40
1.0
 10
218.6235192418386
 20
53.53274553508713
 30
0.0
 10
218.5994257193607
 20
53.54084106730526
 30
0.0
 10
218.5503282328015
 20
53.55733804422653
 30
0.0
 10
218.4996275389813
 20
53.57213171324278
 30
0.0
 10
218.473807106694
 20
53.57966571130737
 30
0.0
  0
SPLINE
  5
2BA
330
1F
100
AcDbEntity
  8
0
  6
Continuous
 62
     7
370
    25
100
AcDbSpline
210
0.0
220
0.0
230
1.0
 70
     8
 71
     3
 72
    14
 73
    10
 74
     0
 42
0.000000001
 43
0.00000001
 40
0.0
 40
0.0
 40
0.0
 40
0.0
 40
0.0310276388071746
 40
0.0622853718672815
 40
0.1248003166904892
 40
0.2498289731753984
 40
0.499889260361071
 40
0.7606803621682141
 40
1.0
 40
1.0
 40
1.0
 40
1.0
 10
217.8898664174057
 20
53.95377345395323
 30
0.0
 10
217.8958586568102
 20
53.9499424102996
 30
0.0
 10
217.9078875727694
 20
53.94225191280189
 30
0.0
 10
217.9319473808186
 20
53.92681402329521
 30
0.0
 10
217.9741810534649
 20
53.89974357036438
 30
0.0
 10
218.058743627977
 20
53.845531545569
 30
0.0
 10
218.1820305974472
 20
53.76652836370297
 30
0.0
 10
218.3281623039013
 20
53.67292218902553
 30
0.0
 10
218.426528920442
 20
53.60993911263306
 30
0.0
 10
218.4736006211262
 20
53.57979961384393
 30
0.0
  0
LINE
  5
2BB
330
1F
100
AcDbEntity
  8
0
  6
Continuous
 62
     7
370
    25
100
AcDbLine
 10
216.0873662622
 20
55.116404131
 30
0.0
 11
216.3783336163
 21
54.9283255918
 31
0.0
  0
SPLINE
  5
2BC
330
1F
100
AcDbEntity
  8
0
  6
Continuous
 62
     7
370
    25
100
AcDbSpline
210
0.0
220
0.0
230
1.0
 70
     8
 71
     3
 72
     8
 73
     4
 74
     0
 42
0.000000001
 43
0.00000001
 40
0.0
 40
0.0
 40
0.0
 40
0.0
 40
1.0
 40
1.0
 40
1.0
 40
1.0
 10
216.409721919701
 20
54.90810306164206
 30
0.0
 10
216.3992794138491
 20
54.91492848653947
 30
0.0
 10
216.3888134809593
 20
54.92167145332598
 30
0.0
 10
216.3783257161428
 20
54.92833054097898
 30
0.0
  0
SPLINE
  5
2BD
330
1F
100
AcDbEntity
  8
0
  6
Continuous
 62
     7
370
    25
100
AcDbSpline
210
0.0
220
0.0
230
1.0
 70
     8
 71
     3
 72
     8
 73
     4
 74
     0
 42
0.000000001
 43
0.00000001
 40
0.0
 40
0.0
 40
0.0
 40
0.0
 40
1.0
 40
1.0
 40
1.0
 40
1.0
 10
213.6237175408771
 20
56.78635871345114
 30
0.0
 10
213.6827173050471
 20
56.74761804653218
 30
0.0
 10
213.7420048685576
 20
56.70955606923289
 30
0.0
 10
213.801585942046
 20
56.67217228077259
 30
0.0
  0
SPLINE
  5
2BE
330
1F
100
AcDbEntity
  8
0
  6
Continuous
 62
     7
370
    25
100
AcDbSpline
210
0.0
220
0.0
230
1.0
 70
     8
 71
     3
 72
     8
 73
     4
 74
     0
 42
0.000000001
 43
0.00000001
 40
0.0
 40
0.0
 40
0.0
 40
0.0
 40
1.0
 40
1.0
 40
1.0
 40
1.0
 10
213.5988677947776
 20
57.14956889138946
 30
0.0
 10
213.6063420068681
 20
57.02861105067762
 30
0.0
 10
213.6146381107582
 20
56.90753920826697
 30
0.0
 10
213.6237175408771
 20
56.78635871345114
 30
0.0
  0
LWPOLYLINE
  5
2BF
330
1F
100
AcDbEntity
  8
0
  6
Continuous
 62
     7
370
    25
100
AcDbPolyline
 90
       15
 70
   128
 43
0.0
 10
213.5988681536
 20
57.149568226
 10
214.0143195175
 20
58.3138196025
 10
214.51885088
 20
59.4683651976
 10
215.1058030388
 20
60.5979659597
 10
215.767428218
 20
61.6877103189
 10
216.4949921417
 20
62.7232130379
 10
217.2788909261
 20
63.6908051271
 10
218.1087768612
 20
64.5777144424
 10
218.9736950593
 20
65.3722327845
 10
219.8622280872
 20
66.0638723976
 10
220.7626470203
 20
66.6435033618
 10
221.6630659534
 20
67.1034739692
 10
222.5515989813
 20
67.4377127537
 10
223.4165171794
 20
67.641807707
 10
223.5628306225
 20
67.6636759174
  0
SPLINE
  5
2C0
330
1F
100
AcDbEntity
  8
0
  6
Continuous
 62
     7
370
    25
100
AcDbSpline
210
0.0
220
0.0
230
1.0
 70
     8
 71
     3
 72
    10
 73
     6
 74
     0
 42
0.000000001
 43
0.00000001
 40
0.0
 40
0.0
 40
0.0
 40
0.0
 40
0.2409818396634726
 40
0.5031433556203718
 40
1.0
 40
1.0
 40
1.0
 40
1.0
 10
219.6495217508163
 20
46.25586015443563
 30
0.0
 10
219.7317676218192
 20
46.20418363251508
 30
0.0
 10
219.9034878791637
 20
46.0962887858237
 30
0.0
 10
220.1812092381906
 20
45.96656607535945
 30
0.0
 10
220.3021864852347
 20
45.98934401646444
 30
0.0
 10
220.3813787261502
 20
46.00425455744318
 30
0.0
  0
LINE
  5
2C1
330
1F
100
AcDbEntity
  8
0
  6
Continuous
 62
     7
370
    25
100
AcDbLine
 10
214.8663476947
 20
55.9849328874
 30
0.0
 11
214.1044689923
 21
56.4755672951
 31
0.0
  0
LINE
  5
2C2
330
1F
100
AcDbEntity
  8
0
  6
Continuous
 62
     7
370
    25
100
AcDbLine
 10
214.1044689923
 20
56.4755672951
 30
0.0
 11
213.623717672
 21
56.7863586711
 31
0.0
  0
LINE
  5
2C3
330
1F
100
AcDbEntity
  8
0
  6
Continuous
 62
     7
370
    25
100
AcDbLine
 10
218.7036509813
 20
45.9800803535
 30
0.0
 11
219.0095850765
 21
46.6680917946
 31
0.0
  0
LINE
  5
2C4
330
1F
100
AcDbEntity
  8
0
  6
Continuous
 62
     7
370
    25
100
AcDbLine
 10
219.0095850765
 20
46.6680917946
 30
0.0
 11
219.6495217508
 21
46.2558601544
 31
0.0
  0
SPLINE
  5
2C5
330
1F
100
AcDbEntity
  8
0
  6
Continuous
 62
     7
370
    25
100
AcDbSpline
210
0.0
220
0.0
230
1.0
 70
     8
 71
     3
 72
    13
 73
     9
 74
     0
 42
0.000000001
 43
0.00000001
 40
0.0
 40
0.0
 40
0.0
 40
0.0
 40
0.172258782378417
 40
0.342139827159501
 40
0.5097456258302661
 40
0.6751828993623331
 40
0.8385626190354498
 40
1.0
 40
1.0
 40
1.0
 40
1.0
 10
218.6235135573252
 20
46.94940149995426
 30
0.0
 10
218.6466650812803
 20
46.9312819090168
 30
0.0
 10
218.692648562036
 20
46.89529283707548
 30
0.0
 10
218.7601895747553
 20
46.84429285365382
 30
0.0
 10
218.8258491894435
 20
46.79596817346205
 30
0.0
 10
218.8893732606913
 20
46.75053716755622
 30
0.0
 10
218.9508036394051
 20
46.70771159980333
 30
0.0
 10
218.9900698063714
 20
46.6812457826331
 30
0.0
 10
219.0095854880985
 20
46.66809200408924
 30
0.0
  0
SPLINE
  5
2C6
330
1F
100
AcDbEntity
  8
0
  6
Continuous
 62
     7
370
    25
100
AcDbSpline
210
0.0
220
0.0
230
1.0
 70
     8
 71
     3
 72
    11
 73
     7
 74
     0
 42
0.000000001
 43
0.00000001
 40
0.0
 40
0.0
 40
0.0
 40
0.0
 40
0.2392845094479873
 40
0.5001120454076898
 40
0.7515010915036774
 40
1.0
 40
1.0
 40
1.0
 40
1.0
 10
218.4741331458491
 20
46.99671549216713
 30
0.0
 10
218.4270639138446
 20
46.96840096945434
 30
0.0
 10
218.3286877592499
 20
46.90922273889814
 30
0.0
 10
218.1823905376661
 20
46.81603483843823
 30
0.0
 10
218.0345497940223
 20
46.72066292246577
 30
0.0
 10
217.9382633313033
 20
46.65612766720296
 30
0.0
 10
217.8903984434443
 20
46.62404659714512
 30
0.0
  0
SPLINE
  5
2C7
330
1F
100
AcDbEntity
  8
0
  6
Continuous
 62
     7
370
    25
100
AcDbSpline
210
0.0
220
0.0
230
1.0
 70
     8
 71
     3
 72
     9
 73
     5
 74
     0
 42
0.000000001
 43
0.00000001
 40
0.0
 40
0.0
 40
0.0
 40
0.0
 40
0.5090669353869915
 40
1.0
 40
1.0
 40
1.0
 40
1.0
 10
218.4747041494332
 20
46.99601653795536
 30
0.0
 10
218.5003527240573
 20
46.98852382979548
 30
0.0
 10
218.5507362254027
 20
46.97380531708321
 30
0.0
 10
218.599543736898
 20
46.95741295923104
 30
0.0
 10
218.6235049580925
 20
46.94936540875445
 30
0.0
  0
LINE
  5
2C8
330
1F
100
AcDbEntity
  8
0
  6
Continuous
 62
     7
370
    25
100
AcDbLine
 10
220.3046227296
 20
47.9198951052
 30
0.0
 11
218.6235067732
 21
46.949407521
 31
0.0
  0
LINE
  5
2C9
330
1F
100
AcDbEntity
  8
0
  6
Continuous
 62
     7
370
    25
100
AcDbLine
 10
216.617019122
 20
48.0732288197
 30
0.0
 11
216.4167234684
 21
47.5720714054
 31
0.0
  0
SPLINE
  5
2CA
330
1F
100
AcDbEntity
  8
0
  6
Continuous
 62
     7
370
    25
100
AcDbSpline
210
0.0
220
0.0
230
1.0
 70
     8
 71
     3
 72
     8
 73
     4
 74
     0
 42
0.000000001
 43
0.00000001
 40
0.0
 40
0.0
 40
0.0
 40
0.0
 40
1.0
 40
1.0
 40
1.0
 40
1.0
 10
216.6165759512931
 20
48.0740125718167
 30
0.0
 10
216.6427512858623
 20
48.09617994879497
 30
0.0
 10
216.6685723258278
 20
48.11881208988659
 30
0.0
 10
216.6940298795361
 20
48.14189680997787
 30
0.0
  0
LINE
  5
2CB
330
1F
100
AcDbEntity
  8
0
  6
Continuous
 62
     7
370
    25
100
AcDbLine
 10
216.6940299753
 20
48.1418966943
 30
0.0
 11
218.4743227345
 21
46.9961258092
 31
0.0
  0
LINE
  5
2CC
330
1F
100
AcDbEntity
  8
0
  6
Continuous
 62
     7
370
    25
100
AcDbLine
 10
220.304413971
 20
48.0179450404
 30
0.0
 11
220.216414644
 21
48.1254361087
 31
0.0
  0
LINE
  5
2CD
330
1F
100
AcDbEntity
  8
0
  6
Continuous
 62
     7
370
    25
100
AcDbLine
 10
218.3880066473
 20
49.1198086117
 30
0.0
 11
216.6940299753
 21
48.1418966943
 31
0.0
  0
LINE
  5
2CE
330
1F
100
AcDbEntity
  8
0
  6
Continuous
 62
     7
370
    25
100
AcDbLine
 10
218.5307007299
 20
49.09851645
 30
0.0
 11
218.3884267987
 21
49.1193212342
 31
0.0
  0
LINE
  5
2CF
330
1F
100
AcDbEntity
  8
0
  6
Continuous
 62
     7
370
    25
100
AcDbLine
 10
220.216488401
 20
48.1253319423
 30
0.0
 11
218.5307007299
 21
49.09851645
 31
0.0
  0
LINE
  5
2D0
330
1F
100
AcDbEntity
  8
0
  6
Continuous
 62
     7
370
    25
100
AcDbLine
 10
220.304413971
 20
48.0745678594
 30
0.0
 11
220.2164416443
 21
48.1253589156
 31
0.0
  0
SPLINE
  5
2D1
330
1F
100
AcDbEntity
  8
0
  6
Continuous
 62
     7
370
    25
100
AcDbSpline
210
0.0
220
0.0
230
1.0
 70
     8
 71
     3
 72
    19
 73
    15
 74
     0
 42
0.000000001
 43
0.00000001
 40
0.0
 40
0.0
 40
0.0
 40
0.0
 40
0.0637853009127854
 40
0.1289628367668835
 40
0.1955871994312377
 40
0.2637095015417503
 40
0.3333775579368785
 40
0.404636070956767
 40
0.4775268158870349
 40
0.5520888236349092
 40
0.6283585584292241
 40
0.7063700889344752
 40
0.8377041805690577
 40
0.9999999999999999
 40
0.9999999999999999
 40
0.9999999999999999
 40
0.9999999999999999
 10
215.8325068453317
 20
48.24250065916858
 30
0.0
 10
215.8531962143368
 20
48.22914151915826
 30
0.0
 10
215.8950265369916
 20
48.20213165061735
 30
0.0
 10
215.9555175105864
 20
48.16460968509083
 30
0.0
 10
216.0150017087657
 20
48.12908994400017
 30
0.0
 10
216.0730828682373
 20
48.09610981508365
 30
0.0
 10
216.1296149853245
 20
48.06590337881332
 30
0.0
 10
216.1843600400784
 20
48.03878993885179
 30
0.0
 10
216.2370824176706
 20
48.0150583211018
 30
0.0
 10
216.2875240506016
 20
47.99501806765712
 30
0.0
 10
216.3354069690671
 20
47.97889820611881
 30
0.0
 10
216.3903711234371
 20
47.96462023643721
 30
0.0
 10
216.4532024373968
 20
47.95448167918249
 30
0.0
 10
216.4917099530547
 20
47.96095593049576
 30
0.0
 10
216.5129939182519
 20
47.9645343940054
 30
0.0
  0
LINE
  5
2D2
330
1F
100
AcDbEntity
  8
0
  6
Continuous
 62
     7
370
    25
100
AcDbLine
 10
216.5376296059
 20
47.9906048483
 30
0.0
 11
216.6164336759
 21
48.073996452
 31
0.0
  0
SPLINE
  5
2D3
330
1F
100
AcDbEntity
  8
0
  6
Continuous
 62
     7
370
    25
100
AcDbSpline
210
0.0
220
0.0
230
1.0
 70
     8
 71
     3
 72
     9
 73
     5
 74
     0
 42
0.000000001
 43
0.00000001
 40
0.0
 40
0.0
 40
0.0
 40
0.0
 40
0.5232016984460688
 40
1.0
 40
1.0
 40
1.0
 40
1.0
 10
218.2218288676461
 20
49.02387639090146
 30
0.0
 10
218.1528047049975
 20
49.04891855601796
 30
0.0
 10
218.0208782168885
 20
49.09678186607768
 30
0.0
 10
217.7794408040699
 20
49.23437999676435
 30
0.0
 10
217.6643238557064
 20
49.29998655177274
 30
0.0
  0
LINE
  5
2D4
330
1F
100
AcDbEntity
  8
0
  6
Continuous
 62
     7
370
    25
100
AcDbLine
 10
213.9348226587
 20
49.0658761144
 30
0.0
 11
214.386293773
 21
49.1781400873
 31
0.0
  0
LINE
  5
2D5
330
1F
100
AcDbEntity
  8
0
  6
Continuous
 62
     7
370
    25
100
AcDbLine
 10
214.386293773
 20
49.1781400873
 30
0.0
 11
215.8325062449
 21
48.2425007543
 31
0.0
  0
SPLINE
  5
2D6
330
1F
100
AcDbEntity
  8
0
  6
Continuous
 62
     7
370
    25
100
AcDbSpline
210
0.0
220
0.0
230
1.0
 70
     8
 71
     3
 72
     8
 73
     4
 74
     0
 42
0.000000001
 43
0.00000001
 40
0.0
 40
0.0
 40
0.0
 40
0.0
 40
1.0
 40
1.0
 40
1.0
 40
1.0
 10
214.1056112293485
 20
48.67112646138526
 30
0.0
 10
214.0484859604244
 20
48.8029126451809
 30
0.0
 10
213.9915574687068
 20
48.93449686684169
 30
0.0
 10
213.9348233507574
 20
49.06587593374304
 30
0.0
  0
LINE
  5
2D7
330
1F
100
AcDbEntity
  8
0
  6
Continuous
 62
     7
370
    25
100
AcDbLine
 10
215.7239952321
 20
49.950378702
 30
0.0
 11
214.386293773
 21
49.1781400873
 31
0.0
  0
LINE
  5
2D8
330
1F
100
AcDbEntity
  8
0
  6
Continuous
 62
     7
370
    25
100
AcDbLine
 10
216.707023717
 20
49.8526252992
 30
0.0
 11
215.7239952321
 21
49.950378702
 31
0.0
  0
LINE
  5
2D9
330
1F
100
AcDbEntity
  8
0
  6
Continuous
 62
     7
370
    25
100
AcDbLine
 10
217.6643238557
 20
49.2999865518
 30
0.0
 11
216.7070227291
 21
49.8526247289
 31
0.0
  0
SPLINE
  5
2DA
330
1F
100
AcDbEntity
  8
0
  6
Continuous
 62
     7
370
    25
100
AcDbSpline
210
0.0
220
0.0
230
1.0
 70
     8
 71
     3
 72
     8
 73
     4
 74
     0
 42
0.000000001
 43
0.00000001
 40
0.0
 40
0.0
 40
0.0
 40
0.0
 40
1.0
 40
1.0
 40
1.0
 40
1.0
 10
213.9348233507596
 20
49.06587593373794
 30
0.0
 10
213.9316860130095
 20
49.10109224061045
 30
0.0
 10
213.9296936091116
 20
49.13673649683814
 30
0.0
 10
213.9289122117395
 20
49.17283339883302
 30
0.0
  0
LINE
  5
2DB
330
1F
100
AcDbEntity
  8
0
  6
Continuous
 62
     7
370
    25
100
AcDbLine
 10
214.7399986868
 20
49.6410631135
 30
0.0
 11
213.9289128803
 21
49.1728332439
 31
0.0
  0
SPLINE
  5
2DC
330
1F
100
AcDbEntity
  8
0
  6
Continuous
 62
     7
370
    25
100
AcDbSpline
210
0.0
220
0.0
230
1.0
 70
     8
 71
     3
 72
     8
 73
     4
 74
     0
 42
0.000000001
 43
0.00000001
 40
0.0000004089325119
 40
0.0000004089325119
 40
0.0000004089325119
 40
0.0000004089325119
 40
0.0015399868451459
 40
0.0015399868451459
 40
0.0015399868451459
 40
0.0015399868451459
 10
214.7399977442282
 20
49.64106311018914
 30
0.0
 10
214.9784743122515
 20
49.73543949600549
 30
0.0
 10
215.2169212699202
 20
49.8298681079357
 30
0.0
 10
215.4553300087705
 20
49.92436149089816
 30
0.0
  0
LINE
  5
2DD
330
1F
100
AcDbEntity
  8
0
  6
Continuous
 62
     7
370
    25
100
AcDbLine
 10
215.4553294877
 20
49.924361638
 30
0.0
 11
215.4797259276
 21
49.9293556644
 31
0.0
  0
LINE
  5
2DE
330
1F
100
AcDbEntity
  8
0
  6
Continuous
 62
     7
370
    25
100
AcDbLine
 10
215.7239952321
 20
49.950378702
 30
0.0
 11
215.4797265861
 21
49.9293556644
 31
0.0
  0
SPLINE
  5
2DF
330
1F
100
AcDbEntity
  8
0
  6
Continuous
 62
     7
370
    25
100
AcDbSpline
210
0.0
220
0.0
230
1.0
 70
     8
 71
     3
 72
     8
 73
     4
 74
     0
 42
0.000000001
 43
0.00000001
 40
0.0
 40
0.0
 40
0.0
 40
0.0
 40
1.0
 40
1.0
 40
1.0
 40
1.0
 10
216.7070219232785
 20
49.85262548348513
 30
0.0
 10
216.7376299574018
 20
49.837685475679
 30
0.0
 10
216.7681814583737
 20
49.82280851828563
 30
0.0
 10
216.7986753964883
 20
49.80799495460471
 30
0.0
  0
ARC
  5
2E0
330
1F
100
AcDbEntity
  8
0
  6
Continuous
 62
     7
370
    25
100
AcDbCircle
 10
217.5877054035
 20
55.2813454287
 30
0.0
 40
6.549762100197316
100
AcDbArc
 50
283.6682343678
 51
294.9135532271
  0
LWPOLYLINE
  5
2E1
330
1F
100
AcDbEntity
  8
0
  6
Continuous
 62
     7
370
    18
100
AcDbPolyline
 90
       18
 70
   128
 43
0.0
 10
271.8376280752
 20
22.5237113689
 10
271.8867321172
 20
23.3448762169
 10
272.0330442432
 20
24.2060186033
 10
272.2735865151
 20
25.0896085694
 10
272.6034616666
 20
25.977658348
 10
273.0159545194
 20
26.8520897995
 10
273.5026679723
 20
27.6951022263
 10
274.0536938941
 20
28.4895342414
 10
274.6578151315
 20
29.2192136577
 10
275.3027334481
 20
29.8692864145
 10
275.9753200595
 20
30.4265182434
 10
276.6618831256
 20
30.8795662003
 10
277.3484461917
 20
31.2192070866
 10
278.0210328031
 20
31.4385272298
 10
278.6659511197
 20
31.5330613121
 10
279.2700723571
 20
31.5008854296
 10
279.8210982789
 20
31.3426544019
 10
280.2574518455
 20
31.0985687483
  0
ARC
  5
2E2
330
1F
100
AcDbEntity
  8
0
  6
Continuous
 62
     7
370
    18
100
AcDbCircle
 10
275.1390876014
 20
22.1574685308
 30
0.0
 40
3.32171173034388
100
AcDbArc
 50
173.6698542397
 51
239.3569950387
  0
LWPOLYLINE
  5
2E3
330
1F
100
AcDbEntity
  8
0
  6
Continuous
 62
     7
370
    18
100
AcDbPolyline
 90
       42
 70
   128
 43
0.0
 10
273.1941823465
 20
22.5544807798
 10
273.2424589272
 20
23.3084796743
 10
273.3861579487
 20
24.1005449462
 10
273.6219102971
 20
24.9121105906
 10
273.9441911133
 20
25.724154907
 10
274.3454455748
 20
26.5176439331
 10
274.8162690073
 20
27.2739787696
 10
275.3456256867
 20
27.9754318758
 10
275.9211079759
 20
28.6055616873
 10
276.5292268254
 20
29.149598191
 10
277.1557287596
 20
29.5947901777
 10
277.7859289152
 20
29.9307024443
 10
278.4050560358
 20
30.1494613441
 10
278.9985982496
 20
30.24593957
 10
279.5526432687
 20
30.2178757416
 10
280.0542050893
 20
30.0659276418
 10
280.4915272103
 20
29.7936567661
 10
280.854359551
 20
29.4074450254
 10
281.1341971736
 20
28.9163447222
 10
281.324480975
 20
28.3318667434
 10
281.4207512918
 20
27.6677111037
 10
281.4207512918
 20
26.9394447855
 10
281.324480975
 20
26.1641378041
 10
281.1341971736
 20
25.3599628245
 10
280.854359551
 20
24.5457688794
 10
280.4915272103
 20
23.7406398351
 10
280.0542050893
 20
22.9634475861
 10
279.5526432687
 20
22.2324085345
 10
278.9985982496
 20
21.5646579431
 10
278.4050560358
 20
20.9758469158
 10
277.7859289152
 20
20.4797768577
 10
277.1557287596
 20
20.0880755124
 10
276.5292268254
 20
19.8099237626
 10
275.9211079759
 20
19.6518411877
 10
275.3456256867
 20
19.617533291
 10
274.8162690073
 20
19.7078041846
 10
274.3454455748
 20
19.9205378568
 10
273.9441911133
 20
20.2507483428
 10
273.6219102971
 20
20.6906951492
 10
273.3861579487
 20
21.2300669259
 10
273.2424589272
 20
21.8562208392
 10
273.1941823465
 20
22.5544807798
  0
LINE
  5
2E4
330
1F
100
AcDbEntity
  8
0
  6
Continuous
 62
     7
370
    18
100
AcDbLine
 10
274.1185562476
 20
23.0881104744
 30
0.0
 11
274.1357538082
 21
23.480324536
 31
0.0
  0
LWPOLYLINE
  5
2E5
330
1F
100
AcDbEntity
  8
0
  6
Continuous
 62
     7
370
    18
100
AcDbPolyline
 90
       29
 70
   128
 43
0.0
 10
277.3221158497
 20
28.6268873738
 10
277.8683082233
 20
28.8861605299
 10
278.4062489069
 20
29.0302584797
 10
278.9109872993
 20
29.0498490746
 10
279.3671870925
 20
28.9443363387
 10
279.7609869947
 20
28.7169265912
 10
280.0804215816
 20
28.37452957
 10
280.3157847302
 20
27.9275485578
 10
280.459925635
 20
27.3895652847
 10
280.5084643165
 20
26.7769258839
 10
280.459925635
 20
26.1082449143
 10
280.3157847302
 20
25.4038400949
 10
280.0804215816
 20
24.6851145755
 10
279.7609869947
 20
23.9739062307
 10
279.3671870925
 20
23.291824794
 10
278.9109872993
 20
22.6595949884
 10
278.4062489069
 20
22.0964270398
 10
277.8683082233
 20
21.6194318967
 10
277.3135102821
 20
21.2431031846
 10
276.7587123408
 20
20.9788758283
 10
276.2207716572
 20
20.8347778785
 10
275.7160332648
 20
20.8151872837
 10
275.2598334717
 20
20.9207000195
 10
274.8660335694
 20
21.148109767
 10
274.5465989826
 20
21.4905067882
 10
274.3112358339
 20
21.9374878005
 10
274.1670949291
 20
22.4754710736
 10
274.1185562476
 20
23.0881104744
 10
274.1185562476
 20
23.0881104744
  0
LWPOLYLINE
  5
2E6
330
1F
100
AcDbEntity
  8
0
  6
Continuous
 62
     7
370
    18
100
AcDbPolyline
 90
       21
 70
   128
 43
0.0
 10
279.0202882362
 20
28.8416320265
 10
279.2550374567
 20
28.7433801521
 10
279.6113612373
 20
28.4781165574
 10
279.8891353108
 20
28.1016050876
 10
280.0794314599
 20
27.6259467807
 10
280.1761337818
 20
27.0664300577
 10
280.1761337818
 20
26.4410379711
 10
280.0794314599
 20
25.7698711237
 10
279.8891353108
 20
25.0745015598
 10
279.6113612373
 20
24.3772789713
 10
279.2550374567
 20
23.7006126965
 10
278.8316162225
 20
23.0662511845
 10
278.3547066862
 20
22.4945832598
 10
277.8396371711
 20
22.0039831431
 10
277.3029624364
 20
21.6102191544
 10
276.7619316356
 20
21.32594676
 10
276.2339339863
 20
21.160303013
 10
275.7359397482
 20
21.1186119732
 10
275.2839548045
 20
21.2022131913
 10
274.8925064001
 20
21.4084199672
 10
274.7818294344
 20
21.4996106134
  0
LWPOLYLINE
  5
2E7
330
1F
100
AcDbEntity
  8
0
  6
Continuous
 62
     7
370
    18
100
AcDbPolyline
 90
        8
 70
   128
 43
0.0
 10
236.3013174948
 20
41.6688837933
 10
236.3506628933
 20
40.8098264405
 10
236.4978890792
 20
40.0218479744
 10
236.7405778769
 20
39.317886377
 10
237.0747447629
 20
38.7095012481
 10
237.4949027445
 20
38.2066817829
 10
237.9941529092
 20
37.8176845939
 10
238.0620709093
 20
37.7772031539
  0
LWPOLYLINE
  5
2E8
330
1F
100
AcDbEntity
  8
0
  6
Continuous
 62
     7
370
    18
100
AcDbPolyline
 90
       20
 70
   128
 43
0.0
 10
246.5613800138
 20
52.5000337602
 10
246.3525278915
 20
52.6092953727
 10
245.7503798181
 20
52.8161962596
 10
245.0917691263
 20
52.8970319559
 10
244.3875102696
 20
52.8504747243
 10
243.6491669602
 20
52.6772883152
 10
242.8888630023
 20
52.3803183838
 10
242.1190824244
 20
51.9644387062
 10
241.3524650004
 20
51.4364799048
 10
240.601598644
 20
50.8051103605
 10
239.8788126253
 20
50.0806970675
 10
239.1959749043
 20
49.2751350234
 10
238.5642976952
 20
48.4016517132
 10
237.9941529092
 20
47.4745891593
 10
237.4949027445
 20
46.5091699996
 10
237.0747447629
 20
45.5212464545
 10
236.7405778769
 20
44.5270404515
 10
236.4978890792
 20
43.5428763325
 10
236.3506628933
 20
42.5849141304
 10
236.3013174948
 20
41.6688837933
  0
LWPOLYLINE
  5
2E9
330
1F
100
AcDbEntity
  8
0
  6
Continuous
 62
     7
370
    18
100
AcDbPolyline
 90
       27
 70
   128
 43
0.0
 10
234.1799974621
 20
41.6688841734
 10
234.2278091104
 20
42.6444312371
 10
234.3705986819
 20
43.6619885756
 10
234.6064346655
 20
44.7077951287
 10
234.9321283886
 20
45.7677085822
 10
235.3432741886
 20
46.8273944338
 10
235.8343129619
 20
47.8725234227
 10
236.3986039457
 20
48.8889610679
 10
237.0285162556
 20
49.8629621484
 10
237.715531289
 20
50.7813552957
 10
238.4503583001
 20
51.6317199807
 10
239.2230600168
 20
52.4025575111
 10
240.0231870665
 20
53.0834431587
 10
240.839919069
 20
53.665168448
 10
241.6622111628
 20
54.1398675695
 10
242.4789431653
 20
54.5011209784
 10
243.279070215
 20
54.7440423586
 10
244.0517719317
 20
54.8653472406
 10
244.7865989428
 20
54.8633957636
 10
245.4736139762
 20
54.7382132899
 10
246.1035262861
 20
54.4914934818
 10
246.6678172699
 20
54.1265723385
 10
247.1588560432
 20
53.6483846497
 10
247.5700018432
 20
53.0633976344
 10
247.8956955663
 20
52.3795221495
 10
248.1315315499
 20
51.606006027
 10
248.1348473215
 20
51.5916905723
  0
LWPOLYLINE
  5
2EA
330
1F
100
AcDbEntity
  8
0
  6
Continuous
 62
     7
370
    18
100
AcDbPolyline
 90
       13
 70
   128
 43
0.0
 10
239.6355380523
 20
36.8688596809
 10
239.2230600168
 20
36.757806924
 10
238.4503583001
 20
36.636502042
 10
237.715531289
 20
36.638453519
 10
237.0285162556
 20
36.7636359927
 10
236.3986039457
 20
37.0103558008
 10
235.8343129619
 20
37.3752769441
 10
235.3432741886
 20
37.853464633
 10
234.9321283886
 20
38.4384516482
 10
234.6064346655
 20
39.1223271332
 10
234.3705986819
 20
39.8958432556
 10
234.2278091104
 20
40.748539264
 10
234.1799974621
 20
41.6688841734
  0
ARC
  5
2EB
330
1F
100
AcDbEntity
  8
0
  6
Continuous
 62
     7
370
    18
100
AcDbCircle
 10
241.7850328279
 20
42.8376054371
 30
0.0
 40
17.95572678149935
100
AcDbArc
 50
167.4561534803
 51
179.6099872796
  0
LWPOLYLINE
  5
2EC
330
1F
100
AcDbEntity
  8
0
  6
Continuous
 62
     7
370
    18
100
AcDbPolyline
 90
       11
 70
   128
 43
0.0
 10
234.8996317536
 20
62.2004867218
 10
235.2186861648
 20
62.3813177506
 10
236.2593046961
 20
62.8973962708
 10
237.2884857088
 20
63.2947174639
 10
238.2971845878
 20
63.5697907984
 10
239.2765374065
 20
63.7201988815
 10
240.2179366588
 20
63.7446183649
 10
241.113110038
 20
63.6428365249
 10
241.9541905712
 20
63.4157461225
 10
242.7337860965
 20
63.0653444469
 10
242.8259256928
 20
63.0133847787
  0
LWPOLYLINE
  5
2ED
330
1F
100
AcDbEntity
  8
0
  6
Continuous
 62
     7
370
    18
100
AcDbPolyline
 90
       10
 70
   128
 43
0.0
 10
227.0897043782
 20
35.7544963849
 10
226.8172664909
 20
35.9230591566
 10
226.1425573494
 20
36.4523240299
 10
225.5453174082
 20
37.0952324328
 10
225.0307946085
 20
37.846134014
 10
224.6035105169
 20
38.6984301928
 10
224.2672208126
 20
39.6446315783
 10
224.0248803849
 20
40.6764220414
 10
223.8786189668
 20
41.7847345733
 10
223.8297220371
 20
42.9598292349
  0
LWPOLYLINE
  5
2EE
330
1F
100
AcDbEntity
  8
0
  6
Continuous
 62
     7
370
    18
100
AcDbPolyline
 90
       13
 70
   128
 43
0.0
 10
228.4538034756
 20
39.6241926071
 10
228.4175894545
 20
39.8056002453
 10
228.2732088395
 20
40.8766735885
 10
228.2320056853
 20
42.0183166073
 10
228.2944133141
 20
43.2185152662
 10
228.4597744986
 20
44.4646393008
 10
228.7263500227
 20
45.743576177
 10
229.0913344868
 20
47.0418669154
 10
229.5508866009
 20
48.3458495903
 10
230.1001706724
 20
49.6418017224
 10
230.7334059979
 20
50.9160857125
 10
231.4439294239
 20
52.1552921832
 10
232.2242644946
 20
53.3463810383
  0
LWPOLYLINE
  5
2EF
330
1F
100
AcDbEntity
  8
0
  6
Continuous
 62
     7
370
    18
100
AcDbPolyline
 90
       16
 70
   128
 43
0.0
 10
228.9655992425
 20
36.6942649062
 10
228.4965772585
 20
37.4410922204
 10
228.1060781459
 20
38.3134326506
 10
227.8132240618
 20
39.2819470747
 10
227.6209876759
 20
40.3368029991
 10
227.5313209142
 20
41.4672917824
 10
227.5451338853
 20
42.6619366234
 10
227.6622863191
 20
43.9086094829
 10
227.8815888842
 20
45.1946538985
 10
228.2008157003
 20
46.5070144521
 10
228.6167254112
 20
47.832367948
 10
229.1250960881
 20
49.1572591519
 10
229.7207660592
 20
50.4682374804
 10
230.3976892273
 20
51.7519950202
 10
231.1489923634
 20
52.9954973216
 10
231.9670495221
 20
54.1861229373
  0
ARC
  5
2F0
330
1F
100
AcDbEntity
  8
0
  6
Continuous
 62
     7
370
    18
100
AcDbCircle
 10
245.0501781274
 20
46.4032508369
 30
0.0
 40
14.35349360837106
100
AcDbArc
 50
109.931969941
 51
139.4246766989
  0
LWPOLYLINE
  5
2F1
330
1F
100
AcDbEntity
  8
0
  6
Continuous
 62
     7
370
    18
100
AcDbPolyline
 90
       12
 70
   128
 43
0.0
 10
233.3112425837
 20
55.8582864546
 10
234.2235871816
 20
56.829022032
 10
235.1689156397
 20
57.7145644196
 10
236.1383208144
 20
58.5065700838
 10
237.1226693105
 20
59.1975770554
 10
238.1126869282
 20
59.7810755491
 10
239.0990459608
 20
60.251566725
 10
240.0724530281
 20
60.6046179563
 10
241.0237371981
 20
60.8369038153
 10
241.9439352685
 20
60.9462347722
 10
242.8243779948
 20
60.9315818787
 10
242.950206094
 20
60.9189395437
  0
LINE
  5
2F2
330
1F
100
AcDbEntity
  8
0
  6
Continuous
 62
     7
370
    18
100
AcDbLine
 10
219.3433578236
 20
53.3324368336
 30
0.0
 11
219.6495217508
 21
52.9617017777
 31
0.0
  0
LINE
  5
2F3
330
1F
100
AcDbEntity
  8
0
  6
Continuous
 62
     7
370
    18
100
AcDbLine
 10
219.3433578236
 20
45.5683266859
 30
0.0
 11
219.6495217508
 21
46.2558601544
 31
0.0
  0
LINE
  5
2F4
330
1F
100
AcDbEntity
  8
0
  6
Continuous
 62
     7
370
    18
100
AcDbLine
 10
220.3854320676
 20
46.6806921375
 30
0.0
 11
219.6495289948
 21
46.2558643363
 31
0.0
  0
LINE
  5
2F5
330
1F
100
AcDbEntity
  8
0
  6
Continuous
 62
     7
370
    18
100
AcDbLine
 10
220.3188565106
 20
47.4239181053
 30
0.0
 11
219.0095850765
 21
46.6680917946
 31
0.0
  0
LINE
  5
2F6
330
1F
100
AcDbEntity
  8
0
  6
Continuous
 62
     7
370
    18
100
AcDbLine
 10
215.8325062449
 20
48.2425007543
 30
0.0
 11
215.5360189707
 21
47.7464391364
 31
0.0
  0
LINE
  5
2F7
330
1F
100
AcDbEntity
  8
0
  6
Continuous
 62
     7
370
    18
100
AcDbLine
 10
217.6643238557
 20
49.2999865518
 30
0.0
 11
215.832566831
 21
48.2425357299
 31
0.0
  0
LINE
  5
2F8
330
1F
100
AcDbEntity
  8
0
  6
Continuous
 62
     7
370
    18
100
AcDbLine
 10
217.6643238557
 20
49.2999865518
 30
0.0
 11
217.7856340102
 21
49.2382360385
 31
0.0
  0
OLE2FRAME
  5
2F9
330
1F
100
AcDbEntity
  8
0
100
AcDbOle2Frame
 70
     2
  3
Paintbrush-Bild
 10
13.8511154363
 20
38.264191557
 30
0.0
 11
51.6290888628
 21
31.9806341108
 31
0.0
 71
     2
 72
     0
 73
     1
 90
    12928
310
80552BED0767C5B32B40DDAF6807D121434000000000000000006FFBDDFB85D0
310
4940DDAF6807D121434000000000000000006FFBDDFB85D04940416F4BD60AFB
310
3F4000000000000000002BED0767C5B32B40416F4BD60AFB3F40000000000000
310
0000000000000100000000010000010000000100000000000100000000320000
310
D0CF11E0A1B11AE1000000000000000000000000000000003E000300FEFF0900
310
0600000000000000000000000100000001000000000000000010000002000000
310
01000000FEFFFFFF0000000000000000FFFFFFFFFFFFFFFFFFFFFFFFFFFFFFFF
310
FFFFFFFFFFFFFFFFFFFFFFFFFFFFFFFFFFFFFFFFFFFFFFFFFFFFFFFFFFFFFFFF
310
FFFFFFFFFFFFFFFFFFFFFFFFFFFFFFFFFFFFFFFFFFFFFFFFFFFFFFFFFFFFFFFF
310
FFFFFFFFFFFFFFFFFFFFFFFFFFFFFFFFFFFFFFFFFFFFFFFFFFFFFFFFFFFFFFFF
310
FFFFFFFFFFFFFFFFFFFFFFFFFFFFFFFFFFFFFFFFFFFFFFFFFFFFFFFFFFFFFFFF
310
FFFFFFFFFFFFFFFFFFFFFFFFFFFFFFFFFFFFFFFFFFFFFFFFFFFFFFFFFFFFFFFF
310
FFFFFFFFFFFFFFFFFFFFFFFFFFFFFFFFFFFFFFFFFFFFFFFFFFFFFFFFFFFFFFFF
310
FFFFFFFFFFFFFFFFFFFFFFFFFFFFFFFFFFFFFFFFFFFFFFFFFFFFFFFFFFFFFFFF
310
FFFFFFFFFFFFFFFFFFFFFFFFFFFFFFFFFFFFFFFFFFFFFFFFFFFFFFFFFFFFFFFF
310
FFFFFFFFFFFFFFFFFFFFFFFFFFFFFFFFFFFFFFFFFFFFFFFFFFFFFFFFFFFFFFFF
310
FFFFFFFFFFFFFFFFFFFFFFFFFFFFFFFFFFFFFFFFFFFFFFFFFFFFFFFFFFFFFFFF
310
FFFFFFFFFFFFFFFFFFFFFFFFFFFFFFFFFFFFFFFFFFFFFFFFFFFFFFFFFFFFFFFF
310
FFFFFFFFFFFFFFFFFFFFFFFFFFFFFFFFFFFFFFFFFFFFFFFFFFFFFFFFFFFFFFFF
310
FFFFFFFFFFFFFFFFFFFFFFFFFFFFFFFFFFFFFFFFFFFFFFFFFFFFFFFFFFFFFFFF
310
FDFFFFFFFEFFFFFFFEFFFFFFFEFFFFFF05000000060000000700000008000000
310
090000000A0000000B0000000C0000000D0000000E0000000F00000010000000
310
11000000120000001300000014000000150000001600000017000000FEFFFFFF
310
FFFFFFFFFFFFFFFFFFFFFFFFFFFFFFFFFFFFFFFFFFFFFFFFFFFFFFFFFFFFFFFF
310
FFFFFFFFFFFFFFFFFFFFFFFFFFFFFFFFFFFFFFFFFFFFFFFFFFFFFFFFFFFFFFFF
310
FFFFFFFFFFFFFFFFFFFFFFFFFFFFFFFFFFFFFFFFFFFFFFFFFFFFFFFFFFFFFFFF
310
FFFFFFFFFFFFFFFFFFFFFFFFFFFFFFFFFFFFFFFFFFFFFFFFFFFFFFFFFFFFFFFF
310
FFFFFFFFFFFFFFFFFFFFFFFFFFFFFFFFFFFFFFFFFFFFFFFFFFFFFFFFFFFFFFFF
310
FFFFFFFFFFFFFFFFFFFFFFFFFFFFFFFFFFFFFFFFFFFFFFFFFFFFFFFFFFFFFFFF
310
FFFFFFFFFFFFFFFFFFFFFFFFFFFFFFFFFFFFFFFFFFFFFFFFFFFFFFFFFFFFFFFF
310
FFFFFFFFFFFFFFFFFFFFFFFFFFFFFFFFFFFFFFFFFFFFFFFFFFFFFFFFFFFFFFFF
310
FFFFFFFFFFFFFFFFFFFFFFFFFFFFFFFFFFFFFFFFFFFFFFFFFFFFFFFFFFFFFFFF
310
FFFFFFFFFFFFFFFFFFFFFFFFFFFFFFFFFFFFFFFFFFFFFFFFFFFFFFFFFFFFFFFF
310
FFFFFFFFFFFFFFFFFFFFFFFFFFFFFFFFFFFFFFFFFFFFFFFFFFFFFFFFFFFFFFFF
310
FFFFFFFFFFFFFFFFFFFFFFFFFFFFFFFFFFFFFFFFFFFFFFFFFFFFFFFFFFFFFFFF
310
FFFFFFFFFFFFFFFFFFFFFFFFFFFFFFFFFFFFFFFFFFFFFFFFFFFFFFFFFFFFFFFF
310
52006F006F007400200045006E00740072007900000000000000000000000000
310
0000000000000000000000000000000000000000000000000000000000000000
310
16000500FFFFFFFFFFFFFFFF020000000A00030000000000C000000000000046
310
000000000000000000000000C0D0B01BF4A6D30103000000C000000000000000
310
01004F006C006500000000000000000000000000000000000000000000000000
310
0000000000000000000000000000000000000000000000000000000000000000
310
0A000200FFFFFFFFFFFFFFFFFFFFFFFF00000000000000000000000000000000
310
0000000000000000000000000000000000000000000000001400000000000000
310
010043006F006D0070004F0062006A0000000000000000000000000000000000
310
0000000000000000000000000000000000000000000000000000000000000000
310
120002010100000003000000FFFFFFFF00000000000000000000000000000000
310
0000000000000000000000000000000000000000010000004D00000000000000
310
01004F006C006500310030004E00610074006900760065000000000000000000
310
0000000000000000000000000000000000000000000000000000000000000000
310
1A000200FFFFFFFFFFFFFFFFFFFFFFFF00000000000000000000000000000000
310
0000000000000000000000000000000000000000040000002426000000000000
310
FEFFFFFF02000000FEFFFFFFFFFFFFFFFFFFFFFFFFFFFFFFFFFFFFFFFFFFFFFF
310
FFFFFFFFFFFFFFFFFFFFFFFFFFFFFFFFFFFFFFFFFFFFFFFFFFFFFFFFFFFFFFFF
310
FFFFFFFFFFFFFFFFFFFFFFFFFFFFFFFFFFFFFFFFFFFFFFFFFFFFFFFFFFFFFFFF
310
FFFFFFFFFFFFFFFFFFFFFFFFFFFFFFFFFFFFFFFFFFFFFFFFFFFFFFFFFFFFFFFF
310
FFFFFFFFFFFFFFFFFFFFFFFFFFFFFFFFFFFFFFFFFFFFFFFFFFFFFFFFFFFFFFFF
310
FFFFFFFFFFFFFFFFFFFFFFFFFFFFFFFFFFFFFFFFFFFFFFFFFFFFFFFFFFFFFFFF
310
FFFFFFFFFFFFFFFFFFFFFFFFFFFFFFFFFFFFFFFFFFFFFFFFFFFFFFFFFFFFFFFF
310
FFFFFFFFFFFFFFFFFFFFFFFFFFFFFFFFFFFFFFFFFFFFFFFFFFFFFFFFFFFFFFFF
310
FFFFFFFFFFFFFFFFFFFFFFFFFFFFFFFFFFFFFFFFFFFFFFFFFFFFFFFFFFFFFFFF
310
FFFFFFFFFFFFFFFFFFFFFFFFFFFFFFFFFFFFFFFFFFFFFFFFFFFFFFFFFFFFFFFF
310
FFFFFFFFFFFFFFFFFFFFFFFFFFFFFFFFFFFFFFFFFFFFFFFFFFFFFFFFFFFFFFFF
310
FFFFFFFFFFFFFFFFFFFFFFFFFFFFFFFFFFFFFFFFFFFFFFFFFFFFFFFFFFFFFFFF
310
FFFFFFFFFFFFFFFFFFFFFFFFFFFFFFFFFFFFFFFFFFFFFFFFFFFFFFFFFFFFFFFF
310
FFFFFFFFFFFFFFFFFFFFFFFFFFFFFFFFFFFFFFFFFFFFFFFFFFFFFFFFFFFFFFFF
310
FFFFFFFFFFFFFFFFFFFFFFFFFFFFFFFFFFFFFFFFFFFFFFFFFFFFFFFFFFFFFFFF
310
FFFFFFFFFFFFFFFFFFFFFFFFFFFFFFFFFFFFFFFFFFFFFFFFFFFFFFFFFFFFFFFF
310
0100000200000000000000000000000000000000000000000000000000000000
310
0000000000000000000000000000000000000000000000000000000000000000
310
0100FEFF030A0000FFFFFFFF0A00030000000000C00000000000004607000000
310
5042727573680007000000504272757368000700000050427275736800F439B2
310
7100000000000000000000000000000000000000000000000000000000000000
310
0000000000000000000000000000000000000000000000000000000000000000
310
0000000000000000000000000000000000000000000000000000000000000000
310
0000000000000000000000000000000000000000000000000000000000000000
310
0000000000000000000000000000000000000000000000000000000000000000
310
0000000000000000000000000000000000000000000000000000000000000000
310
0000000000000000000000000000000000000000000000000000000000000000
310
0000000000000000000000000000000000000000000000000000000000000000
310
0000000000000000000000000000000000000000000000000000000000000000
310
0000000000000000000000000000000000000000000000000000000000000000
310
0000000000000000000000000000000000000000000000000000000000000000
310
0000000000000000000000000000000000000000000000000000000000000000
310
20260000424D0E260000000000003E00000028000000B40200006E0000000100
310
01000000000000000000130B0000130B00000200000002000000000000FFFFFF
310
FFFFFFFFFFFFFFFFFFFFFFFFFFFFFFFFFFFFFFFFFFFFFFFFFFFFFFFFFFFFFFFF
310
FFFFFFFFFFFFFFFFFFFFFFFFFFFFFFFFFFFFFFFFFFFFFFFFFFFFFFFFFFFFFFFF
310
FFFFFFFFFFFFFFFFFFFFFFFFFFFFFFFFFFFFFFFFFFFFFFFFF000FFFFFFFFFFFF
310
FFFFFFFFFFFFFFFFFFFFFFFFFFFFFFFFFFFFFFFFFFFFFFFFFFFFFFFFFFFFFFFF
310
FFFFFFFFFFFFFFFFFFFFFFFFFFFFFFFFFFFFFFFFFFFFFFFFFFFFFFFFFFFFFFFF
310
FFFFFFFFFFFFFFFFFFFFFFFFFFFFFFFFF000FFFFFFFFFFFFFFFFFFFFFFFFFFFF
310
FFFFFFFFFFFFFFFFFFFFFFFFFFFFFFFFFFFFFFFFFFFFFFFFFFFFFFFFFFFFFFFF
310
FFFFFFFFFFFFFFFFFFFFFFFFFFFFFFFFFFFFFFFFFFFFFFFFFFFFFFFFFFFFFFFF
310
FFFFFFFFFFFFFFFFF000FFFFFFFFFFFFFFFFFFFFFFFFFFFFFFFFFFFFFFFFFFFF
310
FFFFFFFFFFFFFFFFFFFFFFFFFFFFFFFFFFFFFFFFFFFFFFFFFFFFFFFFFFFFFFFF
310
FFFFFFFFFFFFFFFFFFFFFFFFFFFFFFFFFFFFFFFFFFFFFFFFFFFFFFFFFFFFFFFF
310
F000FFFFFFFFFFFFFFFFFFFFFFFFFFFFFFFFFFFFFFFFFFFFFFFFFFFFFFFFFFFF
310
FFFFFFFFFFFFFFFFFFFFFFFFFFFFFFFFFFFFFFFFFFFFFFFFFFFFFFFFFFFFFFFF
310
FFFFFFFFFFFFFFFFFFFFFFFFFFFFFFFFFFFFFFFFFFFFFFFFF000FFFFFFFFFFFF
310
FFFFFFFFFFFFFFFFFFFFFFFFFFFFFFFFFFFFFFFFFFFFFFFFFFFFFFFFFFFFFFFF
310
FFFFFFFFFFFFFFFFFFFFFFFFFFFFFFFFFFFFFFFFFFFFFFFFFFFFFFFFFFFFFFFF
310
FFFFFFFFFFFFFFFFFFFFFFFFFFFFFFFFF000FFFFFFFFFFFFFFFFFFFFFFFFFFFF
310
FFFFFFFFFFFFFFFFFFFFFFFFFFFFFFFFFFFFFFFFFFFFFFFFFFFFFFFFFFFFFFFF
310
FFFFFFFFFFFFFFFFFFFFFFFFFFFFFFFFFFFFFFFFFFFFFFFFFFFFFFFFFFFFFFFF
310
FFFFFFFFFFFFFFFFF000FFFFFFFFFFFFFFFFFFFFFFFFFFFFFFFFFFFFFFFFFFFF
310
FFFFFFFFFFFFFFFFFFFFFFFFFFFFFFFFFFFFFFFFFFFFFFFFFFFFFFFFFFFFFFFF
310
FFFFFFFFFFFFFFFFFFFFFFFFFFFFFFFFFFFFFFFFFFFFFFFFFFFFFFFFFFFFFFFF
310
F000FFFFFFFFFFFFFFFFFFFFFFFFFFFFFFFFFFFFFFFFFFFFFFFFFFFFFFFFFFFF
310
FFFFFFFFFFFFFFFFFFFFFFFFFFFFFFFFFFFFFFFFFFFFFFFFFFFFFFFFFFFFFFFF
310
FFFFFFFFFFFFFFFFFFFFFFFFFFFFFFFFFFFFFFFFFFFFFFFFF000FFFFFFFFFFFF
310
FFFFFFFFFFFFFFFFFFFFFFFFFFFFFFFFFFFFFFFFFFFFFFFFFFFFFFFFFFFFFFFF
310
FFFFFFFFFFFFFFFFFFFFFFFFFFFFFFFFFFFFFFFFFFFFFFFFFFFFFFFFFFFFFFFF
310
FFFFFFFFFFFFFFFFFFFFFFFFFFFFFFFFF000FFFFFFFFFFFFFFFFFFFFFFFFFFFF
310
FFFFFFFFFFFFFFFFFFFFFFFFFFFFFFFFFFFFFFFFFFFFFFFFFFFFFFFFFFFFFFFF
310
FFFFFFFFFFFFFFFFFFFFFFFFFFFFFFFFFFFFFFFFFFFFFFFFFFFFFFFFFFFFFFFF
310
FFFFFFFFFFFFFFFFF000FFFFFFFFFFFFFFFFFFFFFFFFFFFFFFFFFFFFFFFFFFFF
310
FFFFFFFFFFFFFFFFFFFFFFFFFFFFFFFFFFFFFFFFFFFFFFFFFFFFFFFFFFFFFFFF
310
FFFFFFFFFFFFFFFFFFFFFFFFFFFFFFFFFFFFFFFFFFFFFFFFFFFFFFFFFFFFFFFF
310
F000FFFFFFFFFFFFFFFFFFFFFFFFFFFFFFFFFFFFFFFFFFFFFFFFFFFFFFFFFFFF
310
FFFFFFFFFFFFFFFFFFFFFFFFFFFFFFFFFFFFFFFFFFFFFFFFFFFFFFFFFFFFFFFF
310
FFFFFFFFFFFFFFFFFFFFFFFFFFFFFFFFFFFFFFFFFFFFFFFFF000FFFFFFFFFFFF
310
FFFFFFFFFFFFFFFFFFFFFFFFFFFFFFFFFFFFFFFFFFFFFFFFFFFFFFFFFFFFFFFF
310
FFFFFFFFFFFFFFFFFFFFFFFFFFFFFFFFFFFFFFFFFFFFFFFFFFFFFFFFFFFFFFFF
310
FFFFFFFFFFFFFFFFFFFFFFFFFFFFFFFFF000FFFFFFFFFFFFFFFFFFFFFFFFFFFF
310
FFFFFFFFFFFFFFFFFFFFFFFFFFFFFFFFFFFFFFFFFFFFFFFFFFFFFFFFFFFFFFFF
310
FFFFFFFFFFFFFFFFFFFFFFFFFFFFFFFFFFFFFFFFFFFFFFFFFFFFFFFFFFFFFFFF
310
FFFFFFFFFFFFFFFFF000FFFFFFFFFFFFFFFFFFFFFFFFFFFFFFFFFFFFFFFFFFFF
310
FFFFFFFFFFFFFFFFFFFFFFFFFFFFFFFFFFFFFFFFFFFFFFFFFFFFFFFFFFFFFFFF
310
FFFFFFFFFFFFFFFFFFFFFFFFFFFFFFFFFFFFFFFFFFFFFFFFFFFFFFFFFFFFFFFF
310
F000FFFFFFFFFFFFFFFFFFFFFFFFFFFFFFFFFFFFFFFFFFFFFFFFFFFFFFFFFFFF
310
FFFFFFFFFFFFFFFFFFFFFFFFFFFFFFFFFFFFFFFFFFFFFFFFFFFFFFFFFFFFFFFF
310
FFFFFFFFFFFFFFFFFFFFFFFFFFFFFFFFFFFFFFFFFFFFFFFFF000FFFFFFFFFFFF
310
FFFFFFFFFFFFFFFFFFFFFFFFFFFFFFFFFFFFFFFFFFFFFFFFFFFFFFFFFFFFFFFF
310
FFFFFFFFFFFFFFFFFFFFFFFFFFFFFFFFFFFFFFFFFFFFFFFFFFFFFFFFFFFFFFFF
310
FFFFFFFFFFFFFFFFFFFFFFFFFFFFFFFFF000FFFFFFFFFFFFFFFFFFFFFFFFFFFF
310
FFFFFFFFFFFFFFFFFFFFFFFFFFFFFFFFFFFFFFFFFFFFFFFFFFFFFFFFFFFFFFFF
310
FFFFFFFFFFFFFFFFFFFFFFFFFFFFFFFFFFFFFFFFFFFFFFFFFFFFFFFFFFFFFFFF
310
FFFFFFFFFFFFFFFFF000FFFFF80003FFFFFFFFFFFFFFFFFFFFFFFFFFFFFFFFFF
310
FFFFF00007FFFFFFFFFF00007FFFFFF800000000000000007FFFFFFFFFFFFFFF
310
FFFFFFFC001FFFFFFFFFFFFFFC001FFFFFFFFFFFFFFFFFFFFFFFFFFE0007FFFF
310
F000FFFF8000007FFFFFFFF8000FFFFFC0007FFFFF80007FFFFF0000007FFFFF
310
FFF8000007FFFFF800000000000000007FFFFFF0001FFFFFFFFFFFC00001FFFF
310
FFFFFFFFC00001FFFFFFFF000000000003FFFFE000007FFFF000FFFE0000000F
310
FFFFFFF0000FFFFF80007FFFFF80007FFFFC0000001FFFFFFFC0000001FFFFF8
310
00000000000000007FFFFFF0001FFFFFFFFFFE0000003FFFFFFFFFFE0000003F
310
FFFFFF000000000003FFFF0000000FFFF000FFF800000003FFFFFFF00007FFFF
310
80007FFFFF80007FFFF000000007FFFFFF000000003FFFF80000000000000000
310
7FFFFFF0001FFFFFFFFFF80000000FFFFFFFFFF80000000FFFFFFF0000000000
310
03FFFC00000003FFF000FFE000000000FFFFFFF00007FFFF80003FFFFF80007F
310
FFC000000001FFFFFC000000001FFFF800000000000000007FFFFFF0001FFFFF
310
FFFFE000000003FFFFFFFFE000000003FFFFFF000000000003FFF000000000FF
310
F000FF80000000007FFFFFF00007FFFF80003FFFFF80007FFF8000000000FFFF
310
F80000000007FFF800000000000000007FFFFFF0001FFFFFFFFFC000000001FF
310
FFFFFFC000000001FFFFFF000000000003FFC0000000007FF000FF0000000000
310
3FFFFFE00007FFFF00003FFFFF80007FFE00000000003FFFF00000000003FFF8
310
00000000000000007FFFFFF0001FFFFFFFFF8000000000FFFFFFFF8000000000
310
FFFFFF000000000003FF80000000003FF000FE00000000001FFFFFE00003FFFF
310
00003FFFFF80007FFC00000000001FFFE00000000001FFF8000001FFFE000000
310
7FFFFFF0001FFFFFFFFE00000000003FFFFFFE00000000003FFFFF0000000000
310
03FF00000000001FF000FC00000000000FFFFFE00003FFFF00001FFFFF80007F
310
F800000000001FFFC00000000000FFF8000001FFFE0000007FFFFFF0001FFFFF
310
FFFC00000000001FFFFFFC00000000001FFFFF000000000003FE00000000000F
310
F000F8000000000007FFFFE00003FFFF00001FFFFF80007FF800000000000FFF
310
800000000000FFF8000001FFFE0000007FFFFFF0001FFFFFFFF800000000000F
310
FFFFF800000000000FFFFF000000000003FC000000000007F000F80000000000
310
03FFFFC00003FFFE00001FFFFF80007FF0000000000007FF0000000000007FF8
310
000001FFFE0000007FFFFFF0001FFFFFFFF0000000000007FFFFF00000000000
310
07FFFF000000000003F8000000000003F000F0000000000003FFFFC00001FFFE
310
00001FFFFF80007FE0000000000007FE0000000000003FF8000001FFFE000000
310
7FFFFFF0001FFFFFFFF0000000000007FFFFF0000000000007FFFF0000000000
310
03F800001F800003F000E00001FFF00001FFFFC00001FFFE00000FFFFF80007F
310
E00001FFE00003FE00001FFF00003FF8000001FFFE0000007FFFFFF0001FFFFF
310
FFE000003E000003FFFFE000003E000003FFFF000000000003F00001FFF80001
310
F000E00007FFFC0001FFFFC00001FFFE00000FFFFF80007FC0000FFFFC0003FC
310
0000FFFFC0001FF8000001FFFE0000007FFFFFF0001FFFFFFFC00003FFE00001
310
FFFFC00003FFE00001FFFF0001FFFFFFFFF00007FFFE0001F000E0000FFFFF00
310
00FFFF800001FFFC00000FFFFF80007FC0001FFFFE0001FC0001FFFFE0001FF8
310
000001FFFE0000007FFFFFF0001FFFFFFF80000FFFF80000FFFF80000FFFF800
310
00FFFF0003FFFFFFFFE0000FFFFF8000F000C0003FFFFF8000FFFF800000FFFC
310
000007FFFF80007F80003FFFFF0001FC0003FFFFF0001FF8000001FFFE000000
310
7FFFFFF0001FFFFFFF80003FFFFE0000FFFF80003FFFFE0000FFFF0003FFFFFF
310
FFE0003FFFFF8000F000C0003FFFFF8000FFFF800000FFFC000007FFFF80007F
310
80007FFFFF8001F80007FFFFF8000FF8000001FFFE0000007FFFFFF0001FFFFF
310
FF00007FFFFF00007FFF00007FFFFF00007FFF0003FFFFFFFFE0003FFFFFC000
310
F000C0007FFFFFC000FFFF000000FFFC000007FFFF80007F8000FFFFFF8000F8
310
000FFFFFF8000FF8000001FFFE0000007FFFFFF0001FFFFFFF0000FFFFFF8000
310
7FFF0000FFFFFF80007FFF0003FFFFFFFFC0007FFFFFC00070008000FFFFFFC0
310
00FFFF000000FFF8000007FFFF80007F8000FFFFFF8000F8000FFFFFF8000FF8
310
000001FFFE0000007FFFFFF0001FFFFFFE0001FFFFFFC0003FFE0001FFFFFFC0
310
003FFF0003FFFFFFFFC0007FFFFFE00070008000FFFFFFC0007FFF0000007FF8
310
000003FFFF80007F0001FFFFFF8000F8000FFFFFF8000FF8000001FFFE000000
310
7FFFFFF0001FFFFFFE0001FFFFFFC0003FFE0001FFFFFFC0003FFF0003FFFFFF
310
FFC000FFFFFFE00070008000FFFFFFC0007FFF0000007FF8000003FFFF80007F
310
0001FFFFFF8000F8001FFFFFF8000FF8000001FFFE0000007FFFFFF0001FFFFF
310
FE0003FFFFFFE0003FFE0003FFFFFFE0003FFF0003FFFFFFFFC000FFFFFFE000
310
70008000FFFFFFC0007FFE0000007FF8000003FFFF80007F0001FFFFFF8000F0
310
001FFFFFF8000FF8000001FFFE0000007FFFFFF0001FFFFFFC0003FFFFFFE000
310
1FFC0003FFFFFFE0001FFF0003FFFFFFFFC000FFFFFFC00070008000FFFFFF80
310
007FFE0000007FF0000003FFFF80007F0001FFFFFF0000F0001FFFFFF8000FF8
310
000001FFFE0000007FFFFFF0001FFFFFFC0007FFFFFFF0001FFC0007FFFFFFF0
310
001FFF0003FFFFFFFFC000FFFFFFC00070008001FFFFFF0000FFFE0000003FF0
310
000001FFFF80007F0001FFFFFF0000F8001FFFFFF0000FF8000001FFFE000000
310
7FFFFFF0001FFFFFFC0007FFFFFFF0001FFC0007FFFFFFF0001FFF0003FFFFFF
310
FFC001FFFFFF80007000FFFFFFFFFE0000FFFE0008003FF0008001FFFF80007F
310
FFFFFFFFFC0000FFFFFFFFFFE0000FF8000001FFFE0000007FFFFFF0001FFFFF
310
F8000FFFFFFFF8000FF8000FFFFFFFF8000FFF0003FFFFFFFFFFFFFFFFFF0000
310
7000FFFFFFFFFC0000FFFC0008003FF0008001FFFF80007FFFFFFFFFF80001FF
310
FFFFFFFF80000FF8000001FFFE0000007FFFFFF0001FFFFFF8000FFFFFFFF800
310
0FF8000FFFFFFFF8000FFF0003FFFFFFFFFFFFFFFFFE0000F000FFFFFFFFE000
310
00FFFC000C003FE000C001FFFF80007FFFFFFFFFC00001FFFFFFFFFE00001FF8
310
000001FFFE0000007FFFFFF0001FFFFFF8000FFFFFFFF8000FF8000FFFFFFFF8
310
000FFF0003FFFFFFFFFFFFFFFFF00000F000FFFFFFFE000001FFFC000C001FE0
310
00C000FFFF80007FFFFFFFFE000001FFFFFFFFE000001FF80FFFFFFFFFFFFFC0
310
7FFFFFF0001FFFFFF8000FFFFFFFF8000FF8000FFFFFFFF8000FFF0003FFFFFF
310
FFFFFFFFFF800000F000FFFFFFC0000001FFFC001C001FE001C000FFFF80007F
310
FFFFFF80000003FFFFFFF80000001FF80FFFFFFFFFFFFFC07FFFFFF0001FFFFF
310
F8001FFFFFFFFC000FF8001FFFFFFFFC000FFF0003FFFFFFFFFFFFFFF0000001
310
F000FFFFF800000001FFF8001C001FE001C000FFFF80007FFFFFF800000003FF
310
FFFF800000003FF80FFFFFFFFFFFFFC07FFFFFF0001FFFFFF8001FFFFFFFFC00
310
0FF8001FFFFFFFFC000FFF0003FFFFFFFFFFFFFE00000001F000FFFFC0000000
310
03FFF8001E001FC001E000FFFF80007FFFFF8000000007FFFFFC000000003FF8
310
0FFFFFFFFFFFFFC07FFFFFF0001FFFFFF8001FFFFFFFFC000FF8001FFFFFFFFC
310
000FFF0003FFFFFFFFFFFFE000000003F000FFFE0000000007FFF8001E000FC0
310
01E0007FFF80007FFFFE0000000007FFFFE0000000007FF80FFFFFFFFFFFFFC0
310
7FFFFFF0001FFFFFF0001FFFFFFFFC0007F0001FFFFFFFFC0007FF0003FFFFFF
310
FFFFFF0000000003F000FFF80000000007FFF8001E000FC003E0007FFF80007F
310
FFF0000000000FFFFF8000000000FFF80FFFFFFFFFFFFFC07FFFFFF0001FFFFF
310
F0001FFFFFFFFC0007F0001FFFFFFFFC0007FF0003FFFFFFFFFFFC0000000007
310
F000FFE0000000000FFFF0003E000FC003E0007FFF80007FFFC0000000001FFF
310
FE0000000001FFF80FFFFFFFFFFFFFC07FFFFFF0001FFFFFF0001FFFFFFFFC00
310
07F0001FFFFFFFFC0007FF0003FFFFFFFFFFF0000000000FF000FFC000000000
310
1FFFF0003F000F8003F0003FFF80007FFF80000000003FFFF80000000003FFF8
310
0FFFFFFFFFFFFFC07FFFFFF0001FFFFFF0001FFFFFFFFC0007F0001FFFFFFFFC
310
0007FF0003FFFFFFFFFFE0000000001FF000FF00000000007FFFF0003F000780
310
03F0003FFF80007FFF00000000007FFFF00000000007FFF80FFFFFFFFFFFFFC0
310
7FFFFFF0001FFFFFF0001FFFFFFFFC0007F0001FFFFFFFFC0007FF0003FFFFFF
310
FFFF80000000007FF000FE0000000000FFFFE0003F00078007F0003FFF80007F
310
FE0000000001FFFFE0000000001FFFF80FFFFFFFFFFFFFC07FFFFFF0001FFFFF
310
F0001FFFFFFFFC0007F0001FFFFFFFFC0007FF0003FFFFFFFFFF0000000000FF
310
F000FC0000000003FFFFE0007F00078007F0003FFF80007FFC0000000007FFFF
310
C0000000007FFFF80FFFFFFFFFFFFFC07FFFFFF0001FFFFFF8001FFFFFFFFC00
310
0FF8001FFFFFFFFC000FFF0003FFFFFFFFFE0000000003FFF000FC000000000F
310
FFFFE0007F80070007F8001FFF80007FF8000000001FFFFF8000000001FFFFF8
310
0FFFFFFFFFFFFFC07FFFFFF0001FFFFFF8001FFFFFFFFC000FF8001FFFFFFFFC
310
000FFF0003FFFFFFFFFC000000000FFFF000F8000000007FFFFFE0007F800700
310
07F8001FFF80007FF000000000FFFFFF800000000FFFFFF80FFFFFFFFFFFFFC0
310
7FFFFFF0001FFFFFF8000FFFFFFFF8000FF8000FFFFFFFF8000FFF0003FFFFFF
310
FFFC000000007FFFF000F800000007FFFFFFC0007F8003000FF8001FFF80007F
310
F000000007FFFFFF000000007FFFFFF80FFFFFFFFFFFFFC07FFFFFF0001FFFFF
310
F8000FFFFFFFF8000FF8000FFFFFFFF8000FFF0003FFFFFFFFF80000000FFFFF
310
F000F0000000FFFFFFFFC000FF8003000FF8001FFF80007FE0000000FFFFFFFF
310
0000000FFFFFFFF8000001FFFE0000007FFFFFF0001FFFFFF8000FFFFFFFF800
310
0FF8000FFFFFFFF8000FFF0003FFFFFFFFF8000000FFFFFFF000F000000FFFFF
310
FFFFC000FFC002000FF8000FFF80007FE000001FFFFFFFFE000001FFFFFFFFF8
310
000001FFFE0000007FFFFFF0001FFFFFF8000FFFFFFFF8000FF8000FFFFFFFF8
310
000FFF0003FFFFFFFFF000001FFFFFFFF000E00000FFFFFFFFFFC000FFC00200
310
0FFC000FFF80007FE00001FFFFFFFFFE00001FFFFFFFFFF8000001FFFE000000
310
7FFFFFF0001FFFFFFC000FFFFFFFF8001FFC000FFFFFFFF8001FFF0003FFFFFF
310
FFF00001FFFFFFFFF000E00007FFFFFFFFFF8000FFC000001FFC000FFF80007F
310
C0000FFFFFFFFFFE0000FFFFFFFFFFF8000001FFFE0000007FFFFFF0001FFFFF
310
FC0007FFFFFFF0001FFC0007FFFFFFF0001FFF0003FFFFFFFFF00007FFFFFFFF
310
F000E0001FFFFFFFFFFF8000FFC000001FFC000FFF80007FC0003FFFFFFFFFFE
310
0001FFFFFFFFFFF8000001FFFE0000007FFFFFF0001FFFFFFC0007FFFFFFF000
310
1FFC0007FFFFFFF0001FFF0003FFFFFFFFF0001FFFFFFFFFF000E0003FFFFF00
310
03FF8001FFE000001FFC0007FF80007FC0007FFFFF0007FC0003FFFFF0003FF8
310
000001FFFE0000007FFFFFF0001FFFFFFC0003FFFFFFE0001FFC0003FFFFFFE0
310
001FFF0003FFFFFFFFF0003FFFFFFFFFF000E0003FFFFF0001FF8001FFE00000
310
1FFE0007FF80007FC0007FFFFE0003FC0007FFFFE0003FF8000001FFFE000000
310
7FFFFFF0001FFFFFFE0003FFFFFFE0003FFE0003FFFFFFE0003FFF0003FFFFFF
310
FFF0003FFFFF8001F000E0003FFFFF0001FF0001FFE000001FFE0007FF80007F
310
C0007FFFFE0003FC0007FFFFE0003FF8000001FFFE0000007FFFFFF0001FFFFF
310
FE0001FFFFFFC0003FFE0001FFFFFFC0003FFF0003FFFFFFFFF0003FFFFF0001
310
F000E0003FFFFF0003FF0001FFE000003FFE0007FF80007FC0007FFFFE0003FC
310
0007FFFFE0003FF8000001FFFE0000007FFFFFF0001FFFFFFF0001FFFFFFC000
310
7FFF0001FFFFFFC0007FFF0003FFFFFFFFF0003FFFFF0001F000E0003FFFFE00
310
03FF0003FFF000003FFE0003FF80007FC0007FFFFC0003FE0007FFFFE0003FF8
310
000001FFFE0000007FFFFFF0001FFFFFFF0000FFFFFF80007FFF0000FFFFFF80
310
007FFF0003FFFFFFFFF0003FFFFF0001F000E0003FFFFE0003FF0003FFF00000
310
3FFF0003FF80007FC0007FFFFC0007FE0007FFFFC0003FF8000001FFFE000000
310
7FFFFFF0001FFFFFFF80007FFFFF0000FFFF80007FFFFF0000FFFF0003FFFFFF
310
FFF0003FFFFF0003F000E0003FFFFC0003FE0003FFF000003FFF0003FF80007F
310
E0003FFFF80007FE0003FFFFC0007FF8000001FFFE0000007FFFFFF0001FFFFF
310
FF80003FFFFE0000FFFF80003FFFFE0000FFFF0003FFFFFFFFF0001FFFFE0003
310
F000F0001FFFF80003FE0003FFF000007FFF0001FF80007FE0003FFFF00007FE
310
0001FFFF80007FF8000001FFFE0000007FFFFFF0001FFFFFFFC0000FFFF80001
310
FFFFC0000FFFF80001FFFF0003FFFFFFFFF0001FFFFC0003F000F0000FFFF000
310
07FE0007FFF800007FFF0001FF80007FE0001FFFE00007FF0000FFFE00007FF8
310
000001FFFE0000007FFFFFF0001FFFFFFFC00003FFE00001FFFFC00003FFE000
310
01FFFF0003FFFFFFFFF8000FFFF80003F000F00003FFC00007FC0007FFF80000
310
7FFF8001FF80007FF00007FF80000FFF00007FF80000FFF8000001FFFE000000
310
7F80000000000001FFE000003E000003FFFFE000003E000003FFFF0003FFFFFF
310
FFF80003FFE00007F000F800000000000FFC0007FFF800007FFF8001FF80007F
310
F000000000000FFF000000000000FFF8000001FFFE0000007F80000000000001
310
FFF0000000000007FFFFF0000000000007FFFF0003FFFFFFFFFC00007E000007
310
F000F800000000000FFC0007FFF80000FFFF8000FF80007FF800000000001FFF
310
800000000001FFF8000001FFFE0000007F80000000000001FFF800000000000F
310
FFFFF800000000000FFFFF0003FFFFFFFFFC00000000000FF000FC0000000000
310
1FFC0007FFFC0000FFFF8000FF80007FF800000000003FFFC00000000001FFF8
310
000001FFFE0000007F80000000000001FFF800000000000FFFFFF80000000000
310
0FFFFF0003FFFFFFFFFE00000000001FF000FE00000000003FF8000FFFFC0000
310
FFFF8000FF80007FFC00000000003FFFC00000000003FFF8000001FFFE000000
310
7F80000000000001FFFC00000000001FFFFFFC00000000001FFFFF0003FFFFFF
310
FFFF00000000001FF000FF00000000003FF8000FFFFC0000FFFFC000FF80007F
310
FE00000000007FFFE00000000007FFF8000001FFFE0000007F80000000000001
310
FFFE00000000003FFFFFFE00000000003FFFFF0003FFFFFFFFFF80000000003F
310
F000FF80000000007FF8000FFFFC0001FFFFC0007F80007FFF0000000000FFFF
310
F0000000000FFFF800000000000000007F80000000000001FFFF8000000000FF
310
FFFFFF8000000000FFFFFF0003FFFFFFFFFFC0000000007FF000FFC000000000
310
FFF8000FFFFE0001FFFFC0007F80007FFF8000000001FFFFF8000000001FFFF8
310
00000000000000007F80000000000001FFFFC000000001FFFFFFFFC000000001
310
FFFFFF0003FFFFFFFFFFE000000000FFF000FFE000000003FFF0001FFFFE0001
310
FFFFC0007F80007FFFC000000007FFFFFE000000003FFFF80000000000000000
310
7F80000000000001FFFFE000000003FFFFFFFFE000000003FFFFFF0003FFFFFF
310
FFFFF000000003FFF000FFF80000000FFFF0001FFFFE0001FFFFE0007F80007F
310
FFF00000000FFFFFFF00000000FFFFF800000000000000007F80000000000001
310
FFFFF80000000FFFFFFFFFF80000000FFFFFFF0003FFFFFFFFFFFC0000000FFF
310
F000FFFE0000003FFFF0001FFFFE0003FFFFE0003F80007FFFFC0000003FFFFF
310
FFC0000003FFFFF800000000000000007F80000000000001FFFFFE0000003FFF
310
FFFFFFFE0000003FFFFFFF0003FFFFFFFFFFFF0000003FFFF000FFFF800000FF
310
FFF0001FFFFF0003FFFFE0003F80007FFFFF000001FFFFFFFFF800001FFFFFF8
310
00000000000000007F80000000000001FFFFFFC00001FFFFFFFFFFFFC00001FF
310
FFFFFF0003FFFFFFFFFFFFC00000FFFFF000FFFFF8000FFFFFFFFFFFFFFFFFFF
310
FFFFFFFFFFFFFFFFFFFFF0001FFFFFFFFFFF0000FFFFFFF80000000000000000
310
7FFFFFFFFFFFFFFFFFFFFFFC001FFFFFFFFFFFFFFC001FFFFFFFFFFFFFFFFFFF
310
FFFFFFFC001FFFFFF000FFFFFFFFFFFFFFFFFFFFFFFFFFFFFFFFFFFFFFFFFFFF
310
FFFFFFFFFFFFFFFFFFFFFFFFFFFFFFFFFFFFFFFFFFFFFFFFFFFFFFFFFFFFFFFF
310
FFFFFFFFFFFFFFFFFFFFFFFFFFFFFFFFFFFFFFFFFFFFFFFFFFFFFFFFFFFFFFFF
310
F000FFFFFFFFFFFFFFFFFFFFFFFFFFFFFFFFFFFFFFFFFFFFFFFFFFFFFFFFFFFF
310
FFFFFFFFFFFFFFFFFFFFFFFFFFFFFFFFFFFFFFFFFFFFFFFFFFFFFFFFFFFFFFFF
310
FFFFFFFFFFFFFFFFFFFFFFFFFFFFFFFFFFFFFFFFFFFFFFFFF000FFFFFFFFFFFF
310
FFFFFFFFFFFFFFFFFFFFFFFFFFFFFFFFFFFFFFFFFFFFFFFFFFFFFFFFFFFFFFFF
310
FFFFFFFFFFFFFFFFFFFFFFFFFFFFFFFFFFFFFFFFFFFFFFFFFFFFFFFFFFFFFFFF
310
FFFFFFFFFFFFFFFFFFFFFFFFFFFFFFFFF000FFFFFFFFFFFFFFFFFFFFFFFFFFFF
310
FFFFFFFFFFFFFFFFFFFFFFFFFFFFFFFFFFFFFFFFFFFFFFFFFFFFFFFFFFFFFFFF
310
FFFFFFFFFFFFFFFFFFFFFFFFFFFFFFFFFFFFFFFFFFFFFFFFFFFFFFFFFFFFFFFF
310
FFFFFFFFFFFFFFFFF000FFFFFFFFFFFFFFFFFFFFFFFFFFFFFFFFFFFFFFFFFFFF
310
FFFFFFFFFFFFFFFFFFFFFFFFFFFFFFFFFFFFFFFFFFFFFFFFFFFFFFFFFFFFFFFF
310
FFFFFFFFFFFFFFFFFFFFFFFFFFFFFFFFFFFFFFFFFFFFFFFFFFFFFFFFFFFFFFFF
310
F000FFFFFFFFFFFFFFFFFFFFFFFFFFFFFFFFFFFFFFFFFFFFFFFFFFFFFFFFFFFF
310
FFFFFFFFFFFFFFFFFFFFFFFFFFFFFFFFFFFFFFFFFFFFFFFFFFFFFFFFFFFFFFFF
310
FFFFFFFFFFFFFFFFFFFFFFFFFFFFFFFFFFFFFFFFFFFFFFFFF000FFFFFFFFFFFF
310
FFFFFFFFFFFFFFFFFFFFFFFFFFFFFFFFFFFFFFFFFFFFFFFFFFFFFFFFFFFFFFFF
310
FFFFFFFFFFFFFFFFFFFFFFFFFFFFFFFFFFFFFFFFFFFFFFFFFFFFFFFFFFFFFFFF
310
FFFFFFFFFFFFFFFFFFFFFFFFFFFFFFFFF000FFFFFFFFFFFFFFFFFFFFFFFFFFFF
310
FFFFFFFFFFFFFFFFFFFFFFFFFFFFFFFFFFFFFFFFFFFFFFFFFFFFFFFFFFFFFFFF
310
FFFFFFFFFFFFFFFFFFFFFFFFFFFFFFFFFFFFFFFFFFFFFFFFFFFFFFFFFFFFFFFF
310
FFFFFFFFFFFFFFFFF000FFFFFFFFFFFFFFFFFFFFFFFFFFFFFFFFFFFFFFFFFFFF
310
FFFFFFFFFFFFFFFFFFFFFFFFFFFFFFFFFFFFFFFFFFFFFFFFFFFFFFFFFFFFFFFF
310
FFFFFFFFFFFFFFFFFFFFFFFFFFFFFFFFFFFFFFFFFFFFFFFFFFFFFFFFFFFFFFFF
310
F000FFFFFFFFFFFFFFFFFFFFFFFFFFFFFFFFFFFFFFFFFFFFFFFFFFFFFFFFFFFF
310
FFFFFFFFFFFFFFFFFFFFFFFFFFFFFFFFFFFFFFFFFFFFFFFFFFFFFFFFFFFFFFFF
310
FFFFFFFFFFFFFFFFFFFFFFFFFFFFFFFFFFFFFFFFFFFFFFFFF000FFFFFFFFFFFF
310
FFFFFFFFFFFFFFFFFFFFFFFFFFFFFFFFFFFFFFFFFFFFFFFFFFFFFFFFFFFFFFFF
310
FFFFFFFFFFFFFFFFFFFFFFFFFFFFFFFFFFFFFFFFFFFFFFFFFFFFFFFFFFFFFFFF
310
FFFFFFFFFFFFFFFFFFFFFFFFFFFFFFFFF000FFFFFFFFFFFFFFFFFFFFFFFFFFFF
310
FFFFFFFFFFFFFFFFFFFFFFFFFFFFFFFFFFFFFFFFFFFFFFFFFFFFFFFFFFFFFFFF
310
FFFFFFFFFFFFFFFFFFFFFFFFFFFFFFFFFFFFFFFFFFFFFFFFFFFFFFFFFFFFFFFF
310
FFFFFFFFFFFFFFFFF000FFFFFFFFFFFFFFFFFFFFFFFFFFFFFFFFFFFFFFFFFFFF
310
FFFFFFFFFFFFFFFFFFFFFFFFFFFFFFFFFFFFFFFFFFFFFFFFFFFFFFFFFFFFFFFF
310
FFFFFFFFFFFFFFFFFFFFFFFFFFFFFFFFFFFFFFFFFFFFFFFFFFFFFFFFFFFFFFFF
310
F000FFFFFFFFFFFFFFFFFFFFFFFFFFFFFFFFFFFFFFFFFFFFFFFFFFFFFFFFFFFF
310
FFFFFFFFFFFFFFFFFFFFFFFFFFFFFFFFFFFFFFFFFFFFFFFFFFFFFFFFFFFFFFFF
310
FFFFFFFFFFFFFFFFFFFFFFFFFFFFFFFFFFFFFFFFFFFFFFFFF000FFFFFFFFFFFF
310
FFFFFFFFFFFFFFFFFFFFFFFFFFFFFFFFFFFFFFFFFFFFFFFFFFFFFFFFFFFFFFFF
310
FFFFFFFFFFFFFFFFFFFFFFFFFFFFFFFFFFFFFFFFFFFFFFFFFFFFFFFFFFFFFFFF
310
FFFFFFFFFFFFFFFFFFFFFFFFFFFFFFFFF000FFFFFFFFFFFFFFFFFFFFFFFFFFFF
310
FFFFFFFFFFFFFFFFFFFFFFFFFFFFFFFFFFFFFFFFFFFFFFFFFFFFFFFFFFFFFFFF
310
FFFFFFFFFFFFFFFFFFFFFFFFFFFFFFFFFFFFFFFFFFFFFFFFFFFFFFFFFFFFFFFF
310
FFFFFFFFFFFFFFFFF000FFFFFFFFFFFFFFFFFFFFFFFFFFFFFFFFFFFFFFFFFFFF
310
FFFFFFFFFFFFFFFFFFFFFFFFFFFFFFFFFFFFFFFFFFFFFFFFFFFFFFFFFFFFFFFF
310
FFFFFFFFFFFFFFFFFFFFFFFFFFFFFFFFFFFFFFFFFFFFFFFFFFFFFFFFFFFFFFFF
310
F000FFFFFFFFFFFFFFFFFFFFFFFFFFFFFFFFFFFFFFFFFFFFFFFFFFFFFFFFFFFF
310
FFFFFFFFFFFFFFFFFFFFFFFFFFFFFFFFFFFFFFFFFFFFFFFFFFFFFFFFFFFFFFFF
310
FFFFFFFFFFFFFFFFFFFFFFFFFFFFFFFFFFFFFFFFFFFFFFFFF000FFFFFFFFFFFF
310
FFFFFFFFFFFFFFFFFFFFFFFFFFFFFFFFFFFFFFFFFFFFFFFFFFFFFFFFFFFFFFFF
310
FFFFFFFFFFFFFFFFFFFFFFFFFFFFFFFFFFFFFFFFFFFFFFFFFFFFFFFFFFFFFFFF
310
FFFFFFFFFFFFFFFFFFFFFFFFFFFFFFFFF000FFFFFFFFFFFFFFFFFFFFFFFFFFFF
310
FFFFFFFFFFFFFFFFFFFFFFFFFFFFFFFFFFFFFFFFFFFFFFFFFFFFFFFFFFFFFFFF
310
FFFFFFFFFFFFFFFFFFFFFFFFFFFFFFFFFFFFFFFFFFFFFFFFFFFFFFFFFFFFFFFF
310
FFFFFFFFFFFFFFFFF000FFFFFFFFFFFFFFFFFFFFFFFFFFFFFFFFFFFFFFFFFFFF
310
FFFFFFFFFFFFFFFFFFFFFFFFFFFFFFFFFFFFFFFFFFFFFFFFFFFFFFFFFFFFFFFF
310
FFFFFFFFFFFFFFFFFFFFFFFFFFFFFFFFFFFFFFFFFFFFFFFFFFFFFFFFFFFFFFFF
310
F000FFFFFFFFFFFFFFFFFFFFFFFFFFFFFFFFFFFFFFFFFFFFFFFFFFFFFFFFFFFF
310
FFFFFFFFFFFFFFFFFFFFFFFFFFFFFFFFFFFFFFFFFFFFFFFFFFFFFFFFFFFFFFFF
310
FFFFFFFFFFFFFFFFFFFFFFFFFFFFFFFFFFFFFFFFFFFFFFFFF000FFFFFFFFFFFF
310
FFFFFFFFFFFFFFFFFFFFFFFFFFFFFFFFFFFFFFFFFFFFFFFFFFFFFFFFFFFFFFFF
310
FFFFFFFFFFFFFFFFFFFFFFFFFFFFFFFFFFFFFFFFFFFFFFFFFFFFFFFFFFFFFFFF
310
FFFFFFFFFFFFFFFFFFFFFFFFFFFFFFFFF0000000000000000000000000000000
310
0000000000000000000000000000000000000000000000000000000000000000
310
0000000000000000000000000000000000000000000000000000000000000000
310
0000000000000000000000000000000000000000000000000000000000000000
310
0000000000000000000000000000000000000000000000000000000000000000
310
0000000000000000000000000000000000000000000000000000000000000000
310
0000000000000000000000000000000000000000000000000000000000000000
310
0000000000000000000000000000000000000000000000000000000000000000
310
0000000000000000000000000000000000000000000000000000000000000000
310
0000000000000000000000000000000000000000000000000000000000000000
310
0000000000000000000000000000000000000000000000000000000000000000
310
0000000000000000000000000000000000000000000000000000000000000000
310
0000000000000000000000000000000000000000000000000000000000000000
310
0000000000000000000000000000000000000000000000000000000000000000
310
0000000000000000000000000000000000000000000000000000000000000000
310
0000000000000000000000000000000000000000000000000000000000000000
  1
OLE
  0
ENDSEC
  0
SECTION
  2
OBJECTS
  0
DICTIONARY
  5
C
330
0
100
AcDbDictionary
281
     1
  3
ACAD_GROUP
350
D
  3
ACAD_LAYOUT
350
1A
  3
ACAD_MLINESTYLE
350
17
  3
ACAD_PLOTSETTINGS
350
19
  3
ACAD_PLOTSTYLENAME
350
E
  3
ACAD_SCALELIST
350
47
  0
DICTIONARY
  5
D
102
{ACAD_REACTORS
330
C
102
}
330
C
100
AcDbDictionary
281
     1
  0
DICTIONARY
  5
1A
102
{ACAD_REACTORS
330
C
102
}
330
C
100
AcDbDictionary
281
     1
  3
Layout1
350
1E
  3
Layout2
350
26
  3
Model
350
22
  0
DICTIONARY
  5
17
102
{ACAD_REACTORS
330
C
102
}
330
C
100
AcDbDictionary
281
     1
  3
Standard
350
18
  0
DICTIONARY
  5
19
102
{ACAD_REACTORS
330
C
102
}
330
C
100
AcDbDictionary
281
     1
  0
ACDBDICTIONARYWDFLT
  5
E
102
{ACAD_REACTORS
330
C
102
}
330
C
100
AcDbDictionary
281
     1
  3
Normal
350
F
100
AcDbDictionaryWithDefault
340
F
  0
DICTIONARY
  5
47
102
{ACAD_REACTORS
330
C
102
}
330
C
100
AcDbDictionary
281
     1
  3
A0
350
48
  3
A1
350
49
  3
A2
350
4A
  3
A3
350
4B
  3
A4
350
4C
  3
A5
350
4D
  3
A6
350
4E
  3
A7
350
4F
  3
A8
350
50
  3
A9
350
51
  3
B0
350
52
  3
B1
350
53
  3
B2
350
54
  3
B3
350
55
  3
B4
350
56
  3
B5
350
57
  3
B6
350
58
  3
B7
350
59
  3
B8
350
5A
  3
B9
350
5B
  3
C0
350
5C
  3
C1
350
5D
  3
C2
350
5E
  3
C3
350
5F
  3
C4
350
60
  3
C5
350
61
  3
C6
350
62
  3
C7
350
63
  3
C8
350
64
  3
C9
350
65
  3
D0
350
66
  3
D1
350
67
  3
D2
350
68
  0
LAYOUT
  5
1E
102
{ACAD_REACTORS
330
1A
102
}
330
1A
100
AcDbPlotSettings
  1

  2
none_device
  4

  6

 40
0.0
 41
0.0
 42
0.0
 43
0.0
 44
0.0
 45
0.0
 46
0.0
 47
0.0
 48
0.0
 49
0.0
140
0.0
141
0.0
142
1.0
143
1.0
 70
   688
 72
     1
 73
     0
 74
     5
  7

 75
    16
147
1.0
148
0.0
149
0.0
100
AcDbLayout
  1
Layout1
 70
     1
 71
     1
 10
0.0
 20
0.0
 11
420.0
 21
297.0
 12
0.0
 22
0.0
 32
0.0
 14
1.0000000000E+20
 24
1.0000000000E+20
 34
1.0000000000E+20
 15
-1.0000000000E+20
 25
-1.0000000000E+20
 35
-1.0000000000E+20
146
0.0
 13
0.0
 23
0.0
 33
0.0
 16
1.0
 26
0.0
 36
0.0
 17
0.0
 27
1.0
 37
0.0
 76
     0
330
1B
  0
LAYOUT
  5
26
102
{ACAD_REACTORS
330
1A
102
}
330
1A
100
AcDbPlotSettings
  1

  2
none_device
  4

  6

 40
0.0
 41
0.0
 42
0.0
 43
0.0
 44
0.0
 45
0.0
 46
0.0
 47
0.0
 48
0.0
 49
0.0
140
0.0
141
0.0
142
1.0
143
1.0
 70
   688
 72
     1
 73
     0
 74
     5
  7

 75
    16
147
1.0
148
0.0
149
0.0
100
AcDbLayout
  1
Layout2
 70
     1
 71
     2
 10
0.0
 20
0.0
 11
0.0
 21
0.0
 12
0.0
 22
0.0
 32
0.0
 14
0.0
 24
0.0
 34
0.0
 15
0.0
 25
0.0
 35
0.0
146
0.0
 13
0.0
 23
0.0
 33
0.0
 16
1.0
 26
0.0
 36
0.0
 17
0.0
 27
1.0
 37
0.0
 76
     0
330
23
  0
LAYOUT
  5
22
102
{ACAD_REACTORS
330
1A
102
}
330
1A
100
AcDbPlotSettings
  1

  2
none_device
  4
Letter_(8.50_x_11.00_Inches)
  6

 40
6.35
 41
6.35
 42
6.35000508
 43
6.35000508
 44
215.9
 45
279.4
 46
0.0
 47
0.0
 48
0.0
 49
0.0
140
0.0
141
0.0
142
1.0
143
1.0
 70
  1712
 72
     1
 73
     0
 74
     0
  7

 75
     0
147
1.0
148
0.0
149
0.0
100
AcDbLayout
  1
Model
 70
     1
 71
     0
 10
0.0
 20
0.0
 11
297.0
 21
210.0
 12
0.0
 22
0.0
 32
0.0
 14
0.0
 24
0.0
 34
0.0
 15
297.0
 25
210.0
 35
0.0
146
0.0
 13
0.0
 23
0.0
 33
0.0
 16
1.0
 26
0.0
 36
0.0
 17
0.0
 27
1.0
 37
0.0
 76
     0
330
1F
331
29
  0
MLINESTYLE
  5
18
102
{ACAD_REACTORS
330
17
102
}
330
17
100
AcDbMlineStyle
  2
Standard
 70
     0
  3

 62
   256
 51
90.0
 52
90.0
 71
     2
 49
0.5
 62
   256
  6
BYLAYER
 49
-0.5
 62
   256
  6
BYLAYER
  0
ACDBPLACEHOLDER
  5
F
102
{ACAD_REACTORS
330
E
102
}
330
E
  0
SCALE
  5
48
102
{ACAD_REACTORS
330
47
102
}
330
47
100
AcDbScale
 70
     0
300
1:1
140
1.0
141
1.0
290
     1
  0
SCALE
  5
49
102
{ACAD_REACTORS
330
47
102
}
330
47
100
AcDbScale
 70
     0
300
1:2
140
1.0
141
2.0
290
     0
  0
SCALE
  5
4A
102
{ACAD_REACTORS
330
47
102
}
330
47
100
AcDbScale
 70
     0
300
1:4
140
1.0
141
4.0
290
     0
  0
SCALE
  5
4B
102
{ACAD_REACTORS
330
47
102
}
330
47
100
AcDbScale
 70
     0
300
1:5
140
1.0
141
5.0
290
     0
  0
SCALE
  5
4C
102
{ACAD_REACTORS
330
47
102
}
330
47
100
AcDbScale
 70
     0
300
1:8
140
1.0
141
8.0
290
     0
  0
SCALE
  5
4D
102
{ACAD_REACTORS
330
47
102
}
330
47
100
AcDbScale
 70
     0
300
1:10
140
1.0
141
10.0
290
     0
  0
SCALE
  5
4E
102
{ACAD_REACTORS
330
47
102
}
330
47
100
AcDbScale
 70
     0
300
1:16
140
1.0
141
16.0
290
     0
  0
SCALE
  5
4F
102
{ACAD_REACTORS
330
47
102
}
330
47
100
AcDbScale
 70
     0
300
1:20
140
1.0
141
20.0
290
     0
  0
SCALE
  5
50
102
{ACAD_REACTORS
330
47
102
}
330
47
100
AcDbScale
 70
     0
300
1:30
140
1.0
141
30.0
290
     0
  0
SCALE
  5
51
102
{ACAD_REACTORS
330
47
102
}
330
47
100
AcDbScale
 70
     0
300
1:40
140
1.0
141
40.0
290
     0
  0
SCALE
  5
52
102
{ACAD_REACTORS
330
47
102
}
330
47
100
AcDbScale
 70
     0
300
1:50
140
1.0
141
50.0
290
     0
  0
SCALE
  5
53
102
{ACAD_REACTORS
330
47
102
}
330
47
100
AcDbScale
 70
     0
300
1:100
140
1.0
141
100.0
290
     0
  0
SCALE
  5
54
102
{ACAD_REACTORS
330
47
102
}
330
47
100
AcDbScale
 70
     0
300
2:1
140
2.0
141
1.0
290
     0
  0
SCALE
  5
55
102
{ACAD_REACTORS
330
47
102
}
330
47
100
AcDbScale
 70
     0
300
4:1
140
4.0
141
1.0
290
     0
  0
SCALE
  5
56
102
{ACAD_REACTORS
330
47
102
}
330
47
100
AcDbScale
 70
     0
300
8:1
140
8.0
141
1.0
290
     0
  0
SCALE
  5
57
102
{ACAD_REACTORS
330
47
102
}
330
47
100
AcDbScale
 70
     0
300
10:1
140
10.0
141
1.0
290
     0
  0
SCALE
  5
58
102
{ACAD_REACTORS
330
47
102
}
330
47
100
AcDbScale
 70
     0
300
100:1
140
100.0
141
1.0
290
     0
  0
SCALE
  5
59
102
{ACAD_REACTORS
330
47
102
}
330
47
100
AcDbScale
 70
     0
300
1/128" = 1'-0"
140
0.0078125
141
12.0
290
     0
  0
SCALE
  5
5A
102
{ACAD_REACTORS
330
47
102
}
330
47
100
AcDbScale
 70
     0
300
1/64" = 1'-0"
140
0.015625
141
12.0
290
     0
  0
SCALE
  5
5B
102
{ACAD_REACTORS
330
47
102
}
330
47
100
AcDbScale
 70
     0
300
1/32" = 1'-0"
140
0.03125
141
12.0
290
     0
  0
SCALE
  5
5C
102
{ACAD_REACTORS
330
47
102
}
330
47
100
AcDbScale
 70
     0
300
1/16" = 1'-0"
140
0.0625
141
12.0
290
     0
  0
SCALE
  5
5D
102
{ACAD_REACTORS
330
47
102
}
330
47
100
AcDbScale
 70
     0
300
3/32" = 1'-0"
140
0.09375
141
12.0
290
     0
  0
SCALE
  5
5E
102
{ACAD_REACTORS
330
47
102
}
330
47
100
AcDbScale
 70
     0
300
1/8" = 1'-0"
140
0.125
141
12.0
290
     0
  0
SCALE
  5
5F
102
{ACAD_REACTORS
330
47
102
}
330
47
100
AcDbScale
 70
     0
300
3/16" = 1'-0"
140
0.1875
141
12.0
290
     0
  0
SCALE
  5
60
102
{ACAD_REACTORS
330
47
102
}
330
47
100
AcDbScale
 70
     0
300
1/4" = 1'-0"
140
0.25
141
12.0
290
     0
  0
SCALE
  5
61
102
{ACAD_REACTORS
330
47
102
}
330
47
100
AcDbScale
 70
     0
300
3/8" = 1'-0"
140
0.375
141
12.0
290
     0
  0
SCALE
  5
62
102
{ACAD_REACTORS
330
47
102
}
330
47
100
AcDbScale
 70
     0
300
1/2" = 1'-0"
140
0.5
141
12.0
290
     0
  0
SCALE
  5
63
102
{ACAD_REACTORS
330
47
102
}
330
47
100
AcDbScale
 70
     0
300
3/4" = 1'-0"
140
0.75
141
12.0
290
     0
  0
SCALE
  5
64
102
{ACAD_REACTORS
330
47
102
}
330
47
100
AcDbScale
 70
     0
300
1" = 1'-0"
140
1.0
141
12.0
290
     0
  0
SCALE
  5
65
102
{ACAD_REACTORS
330
47
102
}
330
47
100
AcDbScale
 70
     0
300
1-1/2" = 1'-0"
140
1.5
141
12.0
290
     0
  0
SCALE
  5
66
102
{ACAD_REACTORS
330
47
102
}
330
47
100
AcDbScale
 70
     0
300
3" = 1'-0"
140
3.0
141
12.0
290
     0
  0
SCALE
  5
67
102
{ACAD_REACTORS
330
47
102
}
330
47
100
AcDbScale
 70
     0
300
6" = 1'-0"
140
6.0
141
12.0
290
     0
  0
SCALE
  5
68
102
{ACAD_REACTORS
330
47
102
}
330
47
100
AcDbScale
 70
     0
300
1'-0" = 1'-0"
140
12.0
141
12.0
290
     0
  0
ENDSEC
  0
EOF
