  0
SECTION
  2
HEADER
  9
$ACADVER
  1
AC1015
  9
$ACADMAINTVER
 70
     6
  9
$DWGCODEPAGE
  3
ANSI_1252
  9
$INSBASE
 10
0.0
 20
0.0
 30
0.0
  9
$EXTMIN
 10
0.0
 20
0.0
 30
0.0
  9
$EXTMAX
 10
297.0
 20
210.0
 30
0.0
  9
$LIMMIN
 10
0.0
 20
0.0
  9
$LIMMAX
 10
297.0
 20
210.0
  9
$ORTHOMODE
 70
     0
  9
$REGENMODE
 70
     1
  9
$FILLMODE
 70
     1
  9
$QTEXTMODE
 70
     0
  9
$MIRRTEXT
 70
     1
  9
$LTSCALE
 40
1.0
  9
$ATTMODE
 70
     1
  9
$TEXTSIZE
 40
2.0
  9
$TRACEWID
 40
1.0
  9
$TEXTSTYLE
  7
Standard
  9
$CLAYER
  8
0
  9
$CELTYPE
  6
ByLayer
  9
$CECOLOR
 62
   256
  9
$CELTSCALE
 40
1.0
  9
$DISPSILH
 70
     0
  9
$DIMSCALE
 40
1.0
  9
$DIMASZ
 40
3.0
  9
$DIMEXO
 40
0.0
  9
$DIMDLI
 40
3.75
  9
$DIMRND
 40
0.0
  9
$DIMDLE
 40
0.0
  9
$DIMEXE
 40
1.0
  9
$DIMTP
 40
0.0
  9
$DIMTM
 40
0.0
  9
$DIMTXT
 40
2.0
  9
$DIMCEN
 40
2.5
  9
$DIMTSZ
 40
0.0
  9
$DIMTOL
 70
     0
  9
$DIMLIM
 70
     0
  9
$DIMTIH
 70
     1
  9
$DIMTOH
 70
     1
  9
$DIMSE1
 70
     0
  9
$DIMSE2
 70
     0
  9
$DIMTAD
 70
     1
  9
$DIMZIN
 70
     0
  9
$DIMBLK
  1

  9
$DIMASO
 70
     1
  9
$DIMSHO
 70
     1
  9
$DIMPOST
  1

  9
$DIMAPOST
  1

  9
$DIMALT
 70
     0
  9
$DIMALTD
 70
     3
  9
$DIMALTF
 40
0.0393700787
  9
$DIMLFAC
 40
2.0
  9
$DIMTOFL
 70
     1
  9
$DIMTVP
 40
0.0
  9
$DIMTIX
 70
     0
  9
$DIMSOXD
 70
     0
  9
$DIMSAH
 70
     0
  9
$DIMBLK1
  1

  9
$DIMBLK2
  1

  9
$DIMSTYLE
  2
ISO-25
  9
$DIMCLRD
 70
     0
  9
$DIMCLRE
 70
     0
  9
$DIMCLRT
 70
     0
  9
$DIMTFAC
 40
1.0
  9
$DIMGAP
 40
1.524
  9
$DIMJUST
 70
     0
  9
$DIMSD1
 70
     0
  9
$DIMSD2
 70
     0
  9
$DIMTOLJ
 70
     0
  9
$DIMTZIN
 70
     0
  9
$DIMALTZ
 70
     0
  9
$DIMALTTZ
 70
     0
  9
$DIMUPT
 70
     0
  9
$DIMDEC
 70
     2
  9
$DIMTDEC
 70
     3
  9
$DIMALTU
 70
     2
  9
$DIMALTTD
 70
     3
  9
$DIMTXSTY
  7
Standard
  9
$DIMAUNIT
 70
     0
  9
$DIMADEC
 70
     2
  9
$DIMALTRND
 40
0.0
  9
$DIMAZIN
 70
     0
  9
$DIMDSEP
 70
    44
  9
$DIMATFIT
 70
     3
  9
$DIMFRAC
 70
     0
  9
$DIMLDRBLK
  1

  9
$DIMLUNIT
 70
     2
  9
$DIMLWD
 70
    -2
  9
$DIMLWE
 70
    -2
  9
$DIMTMOVE
 70
     0
  9
$LUNITS
 70
     2
  9
$LUPREC
 70
     2
  9
$SKETCHINC
 40
1.0
  9
$FILLETRAD
 40
10.0
  9
$AUNITS
 70
     0
  9
$AUPREC
 70
     2
  9
$MENU
  1
.
  9
$ELEVATION
 40
0.0
  9
$PELEVATION
 40
0.0
  9
$THICKNESS
 40
0.0
  9
$LIMCHECK
 70
     0
  9
$CHAMFERA
 40
0.0
  9
$CHAMFERB
 40
0.0
  9
$CHAMFERC
 40
0.0
  9
$CHAMFERD
 40
0.0
  9
$SKPOLY
 70
     0
  9
$TDCREATE
 40
2458164.697935486
  9
$TDUCREATE
 40
2458164.656268819
  9
$TDUPDATE
 40
2458164.697939062
  9
$TDUUPDATE
 40
2458164.656272396
  9
$TDINDWG
 40
0.0000000116
  9
$TDUSRTIMER
 40
0.0000000116
  9
$USRTIMER
 70
     1
  9
$ANGBASE
 50
0.0
  9
$ANGDIR
 70
     0
  9
$PDMODE
 70
     0
  9
$PDSIZE
 40
-1.0
  9
$PLINEWID
 40
0.0
  9
$SPLFRAME
 70
     0
  9
$SPLINETYPE
 70
     6
  9
$SPLINESEGS
 70
     8
  9
$HANDSEED
  5
2FB
  9
$SURFTAB1
 70
     6
  9
$SURFTAB2
 70
     6
  9
$SURFTYPE
 70
     6
  9
$SURFU
 70
     6
  9
$SURFV
 70
     6
  9
$UCSBASE
  2

  9
$UCSNAME
  2

  9
$UCSORG
 10
0.0
 20
0.0
 30
0.0
  9
$UCSXDIR
 10
1.0
 20
0.0
 30
0.0
  9
$UCSYDIR
 10
0.0
 20
1.0
 30
0.0
  9
$UCSORTHOREF
  2

  9
$UCSORTHOVIEW
 70
     0
  9
$UCSORGTOP
 10
0.0
 20
0.0
 30
0.0
  9
$UCSORGBOTTOM
 10
0.0
 20
0.0
 30
0.0
  9
$UCSORGLEFT
 10
0.0
 20
0.0
 30
0.0
  9
$UCSORGRIGHT
 10
0.0
 20
0.0
 30
0.0
  9
$UCSORGFRONT
 10
0.0
 20
0.0
 30
0.0
  9
$UCSORGBACK
 10
0.0
 20
0.0
 30
0.0
  9
$PUCSBASE
  2

  9
$PUCSNAME
  2

  9
$PUCSORG
 10
0.0
 20
0.0
 30
0.0
  9
$PUCSXDIR
 10
1.0
 20
0.0
 30
0.0
  9
$PUCSYDIR
 10
0.0
 20
1.0
 30
0.0
  9
$PUCSORTHOREF
  2

  9
$PUCSORTHOVIEW
 70
     0
  9
$PUCSORGTOP
 10
0.0
 20
0.0
 30
0.0
  9
$PUCSORGBOTTOM
 10
0.0
 20
0.0
 30
0.0
  9
$PUCSORGLEFT
 10
0.0
 20
0.0
 30
0.0
  9
$PUCSORGRIGHT
 10
0.0
 20
0.0
 30
0.0
  9
$PUCSORGFRONT
 10
0.0
 20
0.0
 30
0.0
  9
$PUCSORGBACK
 10
0.0
 20
0.0
 30
0.0
  9
$USERI1
 70
     0
  9
$USERI2
 70
     0
  9
$USERI3
 70
     0
  9
$USERI4
 70
     0
  9
$USERI5
 70
     0
  9
$USERR1
 40
0.0
  9
$USERR2
 40
0.0
  9
$USERR3
 40
0.0
  9
$USERR4
 40
0.0
  9
$USERR5
 40
0.0
  9
$WORLDVIEW
 70
     1
  9
$SHADEDGE
 70
     3
  9
$SHADEDIF
 70
    70
  9
$TILEMODE
 70
     1
  9
$MAXACTVP
 70
    64
  9
$PINSBASE
 10
0.0
 20
0.0
 30
0.0
  9
$PLIMCHECK
 70
     0
  9
$PEXTMIN
 10
1.0000000000E+20
 20
1.0000000000E+20
 30
1.0000000000E+20
  9
$PEXTMAX
 10
-1.0000000000E+20
 20
-1.0000000000E+20
 30
-1.0000000000E+20
  9
$PLIMMIN
 10
0.0
 20
0.0
  9
$PLIMMAX
 10
420.0
 20
297.0
  9
$UNITMODE
 70
     0
  9
$VISRETAIN
 70
     1
  9
$PLINEGEN
 70
     0
  9
$PSLTSCALE
 70
     1
  9
$TREEDEPTH
 70
  3020
  9
$CMLSTYLE
  2
Standard
  9
$CMLJUST
 70
     0
  9
$CMLSCALE
 40
20.0
  9
$PROXYGRAPHICS
 70
     1
  9
$MEASUREMENT
 70
     1
  9
$CELWEIGHT
370
    -1
  9
$ENDCAPS
280
     0
  9
$JOINSTYLE
280
     0
  9
$LWDISPLAY
290
     1
  9
$INSUNITS
 70
     4
  9
$HYPERLINKBASE
  1

  9
$STYLESHEET
  1

  9
$XEDIT
290
     1
  9
$CEPSNTYPE
380
     0
  9
$PSTYLEMODE
290
     1
  9
$FINGERPRINTGUID
  2
{0D928952-D5F7-4141-A688-1F3F2C987D2C}
  9
$VERSIONGUID
  2
{FAEB1C32-E019-11D5-929B-00C0DF256EC4}
  9
$EXTNAMES
290
     1
  9
$PSVPSCALE
 40
0.0
  9
$OLESTARTUP
290
     0
  0
ENDSEC
  0
SECTION
  2
CLASSES
  0
CLASS
  1
ACDBDICTIONARYWDFLT
  2
AcDbDictionaryWithDefault
  3
ObjectDBX Classes
 90
        0
280
     0
281
     0
  0
CLASS
  1
VISUALSTYLE
  2
AcDbVisualStyle
  3
ObjectDBX Classes
 90
     4095
280
     0
281
     0
  0
CLASS
  1
MATERIAL
  2
AcDbMaterial
  3
ObjectDBX Classes
 90
     1153
280
     0
281
     0
  0
CLASS
  1
SCALE
  2
AcDbScale
  3
ObjectDBX Classes
 90
     1153
280
     0
281
     0
  0
CLASS
  1
TABLESTYLE
  2
AcDbTableStyle
  3
ObjectDBX Classes
 90
     4095
280
     0
281
     0
  0
CLASS
  1
MLEADERSTYLE
  2
AcDbMLeaderStyle
  3
ACDB_MLEADERSTYLE_CLASS
 90
     4095
280
     0
281
     0
  0
CLASS
  1
SUN
  2
AcDbSun
  3
SCENEOE
 90
     1153
280
     0
281
     0
  0
CLASS
  1
ACDBPLACEHOLDER
  2
AcDbPlaceHolder
  3
ObjectDBX Classes
 90
        0
280
     0
281
     0
  0
CLASS
  1
LAYOUT
  2
AcDbLayout
  3
ObjectDBX Classes
 90
        0
280
     0
281
     0
  0
ENDSEC
  0
SECTION
  2
TABLES
  0
TABLE
  2
VPORT
  5
8
330
0
100
AcDbSymbolTable
 70
     1
  0
VPORT
  5
29
330
8
100
AcDbSymbolTableRecord
100
AcDbViewportTableRecord
  2
*Active
 70
     0
 10
0.0
 20
0.0
 11
1.0
 21
1.0
 12
148.5
 22
105.0
 13
0.0
 23
0.0
 14
10.0
 24
10.0
 15
10.0
 25
10.0
 16
0.0
 26
0.0
 36
1.0
 17
0.0
 27
0.0
 37
0.0
 40
210.0
 41
1.4142857143
 42
50.0
 43
0.0
 44
0.0
 50
0.0
 51
0.0
 71
     0
 72
  2000
 73
     1
 74
     3
 75
     0
 76
     0
 77
     0
 78
     0
281
     0
 65
     1
110
0.0
120
0.0
130
0.0
111
1.0
121
0.0
131
0.0
112
0.0
122
1.0
132
0.0
 79
     0
146
0.0
  0
ENDTAB
  0
TABLE
  2
LTYPE
  5
5
330
0
100
AcDbSymbolTable
 70
     6
  0
LTYPE
  5
14
330
5
100
AcDbSymbolTableRecord
100
AcDbLinetypeTableRecord
  2
ByBlock
 70
     0
  3

 72
    65
 73
     0
 40
0.0
  0
LTYPE
  5
15
330
5
100
AcDbSymbolTableRecord
100
AcDbLinetypeTableRecord
  2
ByLayer
 70
     0
  3

 72
    65
 73
     0
 40
0.0
  0
LTYPE
  5
16
330
5
100
AcDbSymbolTableRecord
100
AcDbLinetypeTableRecord
  2
Continuous
 70
     0
  3
Solid line
 72
    65
 73
     0
 40
0.0
  0
LTYPE
  5
6E
330
5
100
AcDbSymbolTableRecord
100
AcDbLinetypeTableRecord
  2
HIDDEN
 70
     0
  3
Hidden __ __ __ __ __ __ __ __ __ __ __ __ __ __
 72
    65
 73
     2
 40
1.905
 49
1.27
 74
     0
 49
-0.635
 74
     0
  0
LTYPE
  5
6F
330
5
100
AcDbSymbolTableRecord
100
AcDbLinetypeTableRecord
  2
PHANTOM
 70
     0
  3
Phantom ______  __  __  ______  __  __  ______
 72
    65
 73
     6
 40
12.7
 49
6.35
 74
     0
 49
-1.27
 74
     0
 49
1.27
 74
     0
 49
-1.27
 74
     0
 49
1.27
 74
     0
 49
-1.27
 74
     0
  0
LTYPE
  5
70
330
5
100
AcDbSymbolTableRecord
100
AcDbLinetypeTableRecord
  2
CENTER
 70
     0
  3
Center ____ _ ____ _ ____ _ ____ _ ____ _ ____
 72
    65
 73
     4
 40
10.16
 49
6.35
 74
     0
 49
-1.27
 74
     0
 49
1.27
 74
     0
 49
-1.27
 74
     0
  0
LTYPE
  5
71
330
5
100
AcDbSymbolTableRecord
100
AcDbLinetypeTableRecord
  2
CENTERX2
 70
     0
  3
Center (2x) ________  __  ________  __  _____
 72
    65
 73
     4
 40
20.32
 49
12.7
 74
     0
 49
-2.54
 74
     0
 49
2.54
 74
     0
 49
-2.54
 74
     0
  0
LTYPE
  5
72
330
5
100
AcDbSymbolTableRecord
100
AcDbLinetypeTableRecord
  2
DOT2
 70
     0
  3
Dot (.5x) ........................................
 72
    65
 73
     2
 40
0.635
 49
0.0
 74
     0
 49
-0.635
 74
     0
  0
ENDTAB
  0
TABLE
  2
LAYER
  5
2
330
0
100
AcDbSymbolTable
 70
     5
  0
LAYER
  5
10
330
2
100
AcDbSymbolTableRecord
100
AcDbLayerTableRecord
  2
0
 70
     0
 62
     7
  6
Continuous
370
    -3
390
F
  0
LAYER
  5
73
330
2
100
AcDbSymbolTableRecord
100
AcDbLayerTableRecord
  2
FORMAT
 70
     0
 62
     7
  6
Continuous
370
    -3
390
F
  0
LAYER
  5
74
330
2
100
AcDbSymbolTableRecord
100
AcDbLayerTableRecord
  2
VERMASSUNG
 70
     0
 62
     7
  6
Continuous
370
    -3
390
F
  0
LAYER
  5
75
330
2
100
AcDbSymbolTableRecord
100
AcDbLayerTableRecord
  2
KOPF_DÜNN
 70
     0
 62
     7
  6
Continuous
370
    -3
390
F
  0
LAYER
  5
76
330
2
100
AcDbSymbolTableRecord
100
AcDbLayerTableRecord
  2
KOPF_DICK
 70
     0
 62
     7
  6
Continuous
370
    25
390
F
  0
ENDTAB
  0
TABLE
  2
STYLE
  5
3
330
0
100
AcDbSymbolTable
 70
     2
  0
STYLE
  5
11
330
3
100
AcDbSymbolTableRecord
100
AcDbTextStyleTableRecord
  2
Standard
 70
     0
 40
0.0
 41
1.0
 50
0.0
 71
     0
 42
2.0
  3
txt
  4

  0
STYLE
  5
77
330
3
100
AcDbSymbolTableRecord
100
AcDbTextStyleTableRecord
  2
SLDTEXTSTYLE0
 70
     0
 40
0.0
 41
0.7
 50
0.0
 71
     0
 42
2.0
  3
TXT
  4

  0
ENDTAB
  0
TABLE
  2
VIEW
  5
6
330
0
100
AcDbSymbolTable
 70
     0
  0
ENDTAB
  0
TABLE
  2
UCS
  5
7
330
0
100
AcDbSymbolTable
 70
     0
  0
ENDTAB
  0
TABLE
  2
APPID
  5
9
330
0
100
AcDbSymbolTable
 70
     1
  0
APPID
  5
12
330
9
100
AcDbSymbolTableRecord
100
AcDbRegAppTableRecord
  2
ACAD
 70
     0
  0
ENDTAB
  0
TABLE
  2
DIMSTYLE
  5
A
330
0
100
AcDbSymbolTable
 70
     5
100
AcDbDimStyleTable
  0
DIMSTYLE
105
27
330
A
100
AcDbSymbolTableRecord
100
AcDbDimStyleTableRecord
  2
ISO-25
 70
     0
 41
2.5
 42
0.625
 43
3.75
 44
1.25
 73
     0
 74
     0
 77
     1
 78
     8
140
2.5
141
2.5
143
0.0393700787
147
0.625
171
     3
172
     1
178
     0
271
     2
272
     2
274
     3
278
    44
283
     0
284
     8
340
11
  0
DIMSTYLE
105
1FD
102
{ACAD_REACTORS
330
1FC
330
21C
330
232
330
23C
330
247
330
252
330
25C
330
266
102
}
330
A
100
AcDbSymbolTableRecord
100
AcDbDimStyleTableRecord
  2
SLDDIMSTYLE0
 70
     0
 41
3.0
 44
0.0
 45
0.000000001
 73
     0
 74
     0
 77
     1
 78
    12
 79
     3
140
2.0
147
0.5
173
     1
178
     0
271
     2
272
     3
276
     2
284
    12
340
77
  0
DIMSTYLE
105
209
102
{ACAD_REACTORS
330
208
102
}
330
A
100
AcDbSymbolTableRecord
100
AcDbDimStyleTableRecord
  2
SLDDIMSTYLE1
 70
     0
 41
3.0
 44
0.0
 73
     0
 74
     0
 77
     1
 78
    12
 79
     3
140
2.0
147
0.5
173
     1
178
     0
179
     2
272
     3
276
     2
284
    12
340
77
  0
DIMSTYLE
105
213
102
{ACAD_REACTORS
330
212
102
}
330
A
100
AcDbSymbolTableRecord
100
AcDbDimStyleTableRecord
  2
SLDDIMSTYLE2
 70
     0
 41
3.0
 44
0.0
 45
0.000000001
 73
     0
 74
     0
 76
     1
 77
     1
 78
    12
 79
     3
140
2.0
147
0.5
173
     1
178
     0
271
     2
272
     3
276
     2
282
     1
284
    12
340
77
  0
DIMSTYLE
105
228
102
{ACAD_REACTORS
330
227
102
}
330
A
100
AcDbSymbolTableRecord
100
AcDbDimStyleTableRecord
  2
SLDDIMSTYLE3
 70
     0
 41
3.0
 44
0.0
 45
0.000000001
 73
     0
 74
     0
 77
     1
 78
    12
 79
     3
140
2.0
147
0.5
173
     1
178
     0
271
     1
272
     3
276
     2
284
    12
340
77
  0
ENDTAB
  0
TABLE
  2
BLOCK_RECORD
  5
1
330
0
100
AcDbSymbolTable
 70
    12
  0
BLOCK_RECORD
  5
1F
330
1
100
AcDbSymbolTableRecord
100
AcDbBlockTableRecord
  2
*Model_Space
340
22
  0
BLOCK_RECORD
  5
1B
330
1
100
AcDbSymbolTableRecord
100
AcDbBlockTableRecord
  2
*Paper_Space
340
1E
  0
BLOCK_RECORD
  5
23
330
1
100
AcDbSymbolTableRecord
100
AcDbBlockTableRecord
  2
*Paper_Space0
340
26
  0
BLOCK_RECORD
  5
1FE
330
1
100
AcDbSymbolTableRecord
100
AcDbBlockTableRecord
  2
_D
340
0
  0
BLOCK_RECORD
  5
20A
330
1
100
AcDbSymbolTableRecord
100
AcDbBlockTableRecord
  2
_D_1
340
0
  0
BLOCK_RECORD
  5
214
330
1
100
AcDbSymbolTableRecord
100
AcDbBlockTableRecord
  2
_D_2
340
0
  0
BLOCK_RECORD
  5
21D
330
1
100
AcDbSymbolTableRecord
100
AcDbBlockTableRecord
  2
_D_3
340
0
  0
BLOCK_RECORD
  5
229
330
1
100
AcDbSymbolTableRecord
100
AcDbBlockTableRecord
  2
_D_4
340
0
  0
BLOCK_RECORD
  5
233
330
1
100
AcDbSymbolTableRecord
100
AcDbBlockTableRecord
  2
_D_5
340
0
  0
BLOCK_RECORD
  5
23D
330
1
100
AcDbSymbolTableRecord
100
AcDbBlockTableRecord
  2
_D_6
340
0
  0
BLOCK_RECORD
  5
248
330
1
100
AcDbSymbolTableRecord
100
AcDbBlockTableRecord
  2
_D_7
340
0
  0
BLOCK_RECORD
  5
253
330
1
100
AcDbSymbolTableRecord
100
AcDbBlockTableRecord
  2
_D_8
340
0
  0
BLOCK_RECORD
  5
25D
330
1
100
AcDbSymbolTableRecord
100
AcDbBlockTableRecord
  2
_D_9
340
0
  0
BLOCK_RECORD
  5
267
330
1
100
AcDbSymbolTableRecord
100
AcDbBlockTableRecord
  2
_D_10
340
0
  0
ENDTAB
  0
ENDSEC
  0
SECTION
  2
BLOCKS
  0
BLOCK
  5
20
330
1F
100
AcDbEntity
  8
0
100
AcDbBlockBegin
  2
*Model_Space
 70
     0
 10
0.0
 20
0.0
 30
0.0
  3
*Model_Space
  1

  0
ENDBLK
  5
21
330
1F
100
AcDbEntity
  8
0
100
AcDbBlockEnd
  0
BLOCK
  5
1C
330
1B
100
AcDbEntity
 67
     1
  8
0
100
AcDbBlockBegin
  2
*Paper_Space
 70
     0
 10
0.0
 20
0.0
 30
0.0
  3
*Paper_Space
  1

  0
ENDBLK
  5
1D
330
1B
100
AcDbEntity
 67
     1
  8
0
100
AcDbBlockEnd
  0
BLOCK
  5
24
330
23
100
AcDbEntity
  8
0
100
AcDbBlockBegin
  2
*Paper_Space0
 70
     0
 10
0.0
 20
0.0
 30
0.0
  3
*Paper_Space0
  1

  0
ENDBLK
  5
25
330
23
100
AcDbEntity
  8
0
100
AcDbBlockEnd
  0
BLOCK
  5
1FF
330
1FE
100
AcDbEntity
  8
0
100
AcDbBlockBegin
  2
_D
 70
     0
 10
0.0
 20
0.0
 30
0.0
  3
_D
  1

  0
SOLID
  5
201
330
1FE
100
AcDbEntity
  8
VERMASSUNG
100
AcDbTrace
 10
268.8669782341
 20
126.3242333561
 30
0.0
 11
268.4169782341
 21
123.3242333561
 31
0.0
 12
269.3169782341
 22
123.3242333561
 32
0.0
 13
269.3169782341
 23
123.3242333561
 33
0.0
  0
SOLID
  5
202
330
1FE
100
AcDbEntity
  8
VERMASSUNG
100
AcDbTrace
 10
268.8669782341
 20
102.3242333561
 30
0.0
 11
269.3169782341
 21
105.3242333561
 31
0.0
 12
268.4169782341
 22
105.3242333561
 32
0.0
 13
268.4169782341
 23
105.3242333561
 33
0.0
  0
LINE
  5
203
330
1FE
100
AcDbEntity
  8
VERMASSUNG
100
AcDbLine
 10
231.7530967293
 20
126.3242333561
 30
0.0
 11
269.8669782341
 21
126.3242333561
 31
0.0
  0
LINE
  5
204
330
1FE
100
AcDbEntity
  8
VERMASSUNG
100
AcDbLine
 10
231.7530967293
 20
102.3242333561
 30
0.0
 11
269.8669782341
 21
102.3242333561
 31
0.0
  0
LINE
  5
205
330
1FE
100
AcDbEntity
  8
VERMASSUNG
100
AcDbLine
 10
268.8669782341
 20
126.3242333561
 30
0.0
 11
268.8669782341
 21
102.3242333561
 31
0.0
  0
MTEXT
  5
206
330
1FE
100
AcDbEntity
  8
VERMASSUNG
100
AcDbMText
 10
266.2888429292
 20
111.0192333359
 30
0.0
 40
2.0
 41
0.0
 71
     1
 72
     1
  1
%%c
  7
SLDTEXTSTYLE0
 11
-6.156016597943509E-15
 21
1.0
 31
0.0
 73
     1
 44
1.0
  0
MTEXT
  5
207
330
1FE
100
AcDbEntity
  8
VERMASSUNG
100
AcDbMText
 10
266.0888429779
 20
114.6292333502
 30
0.0
 40
2.0
 41
0.0
 71
     1
 72
     1
  1
24
  7
SLDTEXTSTYLE0
 11
-6.156016597943509E-15
 21
1.0
 31
0.0
 73
     1
 44
1.0
  0
ENDBLK
  5
200
330
1FE
100
AcDbEntity
  8
0
100
AcDbBlockEnd
  0
BLOCK
  5
20B
330
20A
100
AcDbEntity
  8
0
100
AcDbBlockBegin
  2
_D_1
 70
     0
 10
0.0
 20
0.0
 30
0.0
  3
_D_1
  1

  0
ARC
  5
20D
330
20A
100
AcDbEntity
  8
VERMASSUNG
100
AcDbCircle
 10
384.2275535634
 20
114.3242333561
 30
0.0
 40
171.2871019089882
100
AcDbArc
 50
175.5
 51
180.0
  0
ARC
  5
20E
330
20A
100
AcDbEntity
  8
VERMASSUNG
100
AcDbCircle
 10
384.2275535634
 20
114.3242333561
 30
0.0
 40
171.2871019089882
100
AcDbArc
 50
172.0171062739
 51
175.5
  0
SOLID
  5
20F
330
20A
100
AcDbEntity
  8
VERMASSUNG
100
AcDbTrace
 10
213.4684726254
 20
127.7632644817
 30
0.0
 11
212.8103872889
 21
124.8019432074
 31
0.0
 12
213.7081967974
 22
124.7391890327
 32
0.0
 13
213.7081967974
 23
124.7391890327
 33
0.0
  0
SOLID
  5
210
330
20A
100
AcDbEntity
  8
VERMASSUNG
100
AcDbTrace
 10
212.9404516544
 20
114.3242333561
 30
0.0
 11
213.4167030619
 21
117.320178048
 31
0.0
 12
212.5167375647
 22
117.3280586457
 32
0.0
 13
212.5167375647
 23
117.3280586457
 33
0.0
  0
MTEXT
  5
211
330
20A
100
AcDbEntity
  8
VERMASSUNG
100
AcDbMText
 10
211.2522467889
 20
132.1732265343
 30
0.0
 40
2.0
 41
0.0
 71
     1
 72
     1
  1
4°30'
  7
SLDTEXTSTYLE0
 11
0.1206450738993339
 21
0.9926957067217649
 31
0.0
 73
     1
 44
1.0
  0
ENDBLK
  5
20C
330
20A
100
AcDbEntity
  8
0
100
AcDbBlockEnd
  0
BLOCK
  5
215
330
214
100
AcDbEntity
  8
0
100
AcDbBlockBegin
  2
_D_2
 70
     0
 10
0.0
 20
0.0
 30
0.0
  3
_D_2
  1

  0
SOLID
  5
217
330
214
100
AcDbEntity
  8
VERMASSUNG
100
AcDbTrace
 10
259.7530967293
 20
120.3242333561
 30
0.0
 11
259.3030967293
 21
117.3242333561
 31
0.0
 12
260.2030967293
 22
117.3242333561
 32
0.0
 13
260.2030967293
 23
117.3242333561
 33
0.0
  0
LINE
  5
218
330
214
100
AcDbEntity
  8
VERMASSUNG
100
AcDbLine
 10
228.2530967293
 20
120.3242333561
 30
0.0
 11
260.7530967293
 21
120.3242333561
 31
0.0
  0
LINE
  5
219
330
214
100
AcDbEntity
  8
VERMASSUNG
100
AcDbLine
 10
259.7530967293
 20
120.3242333561
 30
0.0
 11
259.7530967293
 21
111.319233292
 31
0.0
  0
MTEXT
  5
21A
330
214
100
AcDbEntity
  8
VERMASSUNG
100
AcDbMText
 10
257.1749614244
 20
111.319233292
 30
0.0
 40
2.0
 41
0.0
 71
     1
 72
     1
  1
%%c
  7
SLDTEXTSTYLE0
 11
-6.156016597943509E-15
 21
1.0
 31
0.0
 73
     1
 44
1.0
  0
MTEXT
  5
21B
330
214
100
AcDbEntity
  8
VERMASSUNG
100
AcDbMText
 10
256.9749614731
 20
114.9292333063
 30
0.0
 40
2.0
 41
0.0
 71
     1
 72
     1
  1
12
  7
SLDTEXTSTYLE0
 11
-6.156016597943509E-15
 21
1.0
 31
0.0
 73
     1
 44
1.0
  0
ENDBLK
  5
216
330
214
100
AcDbEntity
  8
0
100
AcDbBlockEnd
  0
BLOCK
  5
21E
330
21D
100
AcDbEntity
  8
0
100
AcDbBlockBegin
  2
_D_3
 70
     0
 10
0.0
 20
0.0
 30
0.0
  3
_D_3
  1

  0
SOLID
  5
220
330
21D
100
AcDbEntity
  8
VERMASSUNG
100
AcDbTrace
 10
277.7530967293
 20
130.3242333561
 30
0.0
 11
277.3030967293
 21
127.3242333561
 31
0.0
 12
278.2030967293
 22
127.3242333561
 32
0.0
 13
278.2030967293
 23
127.3242333561
 33
0.0
  0
SOLID
  5
221
330
21D
100
AcDbEntity
  8
VERMASSUNG
100
AcDbTrace
 10
277.7530967293
 20
98.3242333561
 30
0.0
 11
278.2030967293
 21
101.3242333561
 31
0.0
 12
277.3030967293
 22
101.3242333561
 32
0.0
 13
277.3030967293
 23
101.3242333561
 33
0.0
  0
LINE
  5
222
330
21D
100
AcDbEntity
  8
VERMASSUNG
100
AcDbLine
 10
180.9282777846
 20
130.3242333561
 30
0.0
 11
278.7530967293
 21
130.3242333561
 31
0.0
  0
LINE
  5
223
330
21D
100
AcDbEntity
  8
VERMASSUNG
100
AcDbLine
 10
180.9282777846
 20
98.3242333561
 30
0.0
 11
278.7530967293
 21
98.3242333561
 31
0.0
  0
LINE
  5
224
330
21D
100
AcDbEntity
  8
VERMASSUNG
100
AcDbLine
 10
277.7530967293
 20
130.3242333561
 30
0.0
 11
277.7530967293
 21
98.3242333561
 31
0.0
  0
MTEXT
  5
225
330
21D
100
AcDbEntity
  8
VERMASSUNG
100
AcDbMText
 10
275.1749614244
 20
111.1192333989
 30
0.0
 40
2.0
 41
0.0
 71
     1
 72
     1
  1
%%c
  7
SLDTEXTSTYLE0
 11
-6.156016597943509E-15
 21
1.0
 31
0.0
 73
     1
 44
1.0
  0
MTEXT
  5
226
330
21D
100
AcDbEntity
  8
VERMASSUNG
100
AcDbMText
 10
274.9749614731
 20
114.7292334132
 30
0.0
 40
2.0
 41
0.0
 71
     1
 72
     1
  1
32
  7
SLDTEXTSTYLE0
 11
-6.156016597943509E-15
 21
1.0
 31
0.0
 73
     1
 44
1.0
  0
ENDBLK
  5
21F
330
21D
100
AcDbEntity
  8
0
100
AcDbBlockEnd
  0
BLOCK
  5
22A
330
229
100
AcDbEntity
  8
0
100
AcDbBlockBegin
  2
_D_4
 70
     0
 10
0.0
 20
0.0
 30
0.0
  3
_D_4
  1

  0
SOLID
  5
22C
330
229
100
AcDbEntity
  8
VERMASSUNG
100
AcDbTrace
 10
180.9282777846
 20
83.9751938591
 30
0.0
 11
183.9282777846
 21
83.5251938591
 31
0.0
 12
183.9282777846
 22
84.4251938591
 32
0.0
 13
183.9282777846
 23
84.4251938591
 33
0.0
  0
SOLID
  5
22D
330
229
100
AcDbEntity
  8
VERMASSUNG
100
AcDbTrace
 10
231.7530967293
 20
83.9751938591
 30
0.0
 11
228.7530967293
 21
84.4251938591
 31
0.0
 12
228.7530967293
 22
83.5251938591
 32
0.0
 13
228.7530967293
 23
83.5251938591
 33
0.0
  0
LINE
  5
22E
330
229
100
AcDbEntity
  8
VERMASSUNG
100
AcDbLine
 10
180.9282777846
 20
98.3242333561
 30
0.0
 11
180.9282777846
 21
82.9751938591
 31
0.0
  0
LINE
  5
22F
330
229
100
AcDbEntity
  8
VERMASSUNG
100
AcDbLine
 10
231.7530967293
 20
104.1730143394
 30
0.0
 11
231.7530967293
 21
82.9751938591
 31
0.0
  0
LINE
  5
230
330
229
100
AcDbEntity
  8
VERMASSUNG
100
AcDbLine
 10
180.9282777846
 20
83.9751938591
 30
0.0
 11
231.7530967293
 21
83.9751938591
 31
0.0
  0
MTEXT
  5
231
330
229
100
AcDbEntity
  8
VERMASSUNG
100
AcDbMText
 10
203.9406873758
 20
86.5533294551
 30
0.0
 40
2.0
 41
0.0
 71
     1
 72
     1
  1
50.8
  7
SLDTEXTSTYLE0
 73
     1
 44
1.0
  0
ENDBLK
  5
22B
330
229
100
AcDbEntity
  8
0
100
AcDbBlockEnd
  0
BLOCK
  5
234
330
233
100
AcDbEntity
  8
0
100
AcDbBlockBegin
  2
_D_5
 70
     0
 10
0.0
 20
0.0
 30
0.0
  3
_D_5
  1

  0
SOLID
  5
236
330
233
100
AcDbEntity
  8
VERMASSUNG
100
AcDbTrace
 10
231.7530967293
 20
74.5001835772
 30
0.0
 11
228.7530967293
 21
74.9501835772
 31
0.0
 12
228.7530967293
 22
74.0501835772
 32
0.0
 13
228.7530967293
 23
74.0501835772
 33
0.0
  0
SOLID
  5
237
330
233
100
AcDbEntity
  8
VERMASSUNG
100
AcDbTrace
 10
129.7530967293
 20
74.5001835772
 30
0.0
 11
132.7530967293
 21
74.0501835772
 31
0.0
 12
132.7530967293
 22
74.9501835772
 32
0.0
 13
132.7530967293
 23
74.9501835772
 33
0.0
  0
LINE
  5
238
330
233
100
AcDbEntity
  8
VERMASSUNG
100
AcDbLine
 10
231.7530967293
 20
104.1730143394
 30
0.0
 11
231.7530967293
 21
73.5001835772
 31
0.0
  0
LINE
  5
239
330
233
100
AcDbEntity
  8
VERMASSUNG
100
AcDbLine
 10
129.7530967293
 20
82.8492333561
 30
0.0
 11
129.7530967293
 21
73.5001835772
 31
0.0
  0
LINE
  5
23A
330
233
100
AcDbEntity
  8
VERMASSUNG
100
AcDbLine
 10
231.7530967293
 20
74.5001835772
 30
0.0
 11
129.7530967293
 21
74.5001835772
 31
0.0
  0
MTEXT
  5
23B
330
233
100
AcDbEntity
  8
VERMASSUNG
100
AcDbMText
 10
178.8530966972
 20
77.0783191732
 30
0.0
 40
2.0
 41
0.0
 71
     1
 72
     1
  1
102
  7
SLDTEXTSTYLE0
 73
     1
 44
1.0
  0
ENDBLK
  5
235
330
233
100
AcDbEntity
  8
0
100
AcDbBlockEnd
  0
BLOCK
  5
23E
330
23D
100
AcDbEntity
  8
0
100
AcDbBlockBegin
  2
_D_6
 70
     0
 10
0.0
 20
0.0
 30
0.0
  3
_D_6
  1

  0
SOLID
  5
240
330
23D
100
AcDbEntity
  8
VERMASSUNG
100
AcDbTrace
 10
195.7530967293
 20
143.9796349444
 30
0.0
 11
198.7530967293
 21
143.5296349444
 31
0.0
 12
198.7530967293
 22
144.4296349444
 32
0.0
 13
198.7530967293
 23
144.4296349444
 33
0.0
  0
SOLID
  5
241
330
23D
100
AcDbEntity
  8
VERMASSUNG
100
AcDbTrace
 10
231.7530967293
 20
143.9796349444
 30
0.0
 11
228.7530967293
 21
144.4296349444
 31
0.0
 12
228.7530967293
 22
143.5296349444
 32
0.0
 13
228.7530967293
 23
143.5296349444
 33
0.0
  0
LINE
  5
242
330
23D
100
AcDbEntity
  8
VERMASSUNG
100
AcDbLine
 10
195.7530967293
 20
120.3242333561
 30
0.0
 11
195.7530967293
 21
144.9796349444
 31
0.0
  0
LINE
  5
243
330
23D
100
AcDbEntity
  8
VERMASSUNG
100
AcDbLine
 10
231.7530967293
 20
124.4754523728
 30
0.0
 11
231.7530967293
 21
144.9796349444
 31
0.0
  0
LINE
  5
244
330
23D
100
AcDbEntity
  8
VERMASSUNG
100
AcDbLine
 10
195.7530967293
 20
143.9796349444
 30
0.0
 11
231.7530967293
 21
143.9796349444
 31
0.0
  0
MTEXT
  5
245
330
23D
100
AcDbEntity
  8
VERMASSUNG
100
AcDbMText
 10
209.553096879
 20
146.5577705404
 30
0.0
 40
2.0
 41
0.0
 71
     1
 72
     1
  1
36
  7
SLDTEXTSTYLE0
 73
     1
 44
1.0
  0
MTEXT
  5
246
330
23D
100
AcDbEntity
  8
VERMASSUNG
100
AcDbMText
 10
213.5405967792
 20
146.5577705404
 30
0.0
 40
2.0
 41
0.0
 71
     1
 72
     1
  1
min.
  7
SLDTEXTSTYLE0
 73
     1
 44
1.0
  0
ENDBLK
  5
23F
330
23D
100
AcDbEntity
  8
0
100
AcDbBlockEnd
  0
BLOCK
  5
249
330
248
100
AcDbEntity
  8
0
100
AcDbBlockBegin
  2
_D_7
 70
     0
 10
0.0
 20
0.0
 30
0.0
  3
_D_7
  1

  0
SOLID
  5
24B
330
248
100
AcDbEntity
  8
VERMASSUNG
100
AcDbTrace
 10
185.2530967293
 20
152.6854245898
 30
0.0
 11
188.2530967293
 21
152.2354245898
 31
0.0
 12
188.2530967293
 22
153.1354245898
 32
0.0
 13
188.2530967293
 23
153.1354245898
 33
0.0
  0
SOLID
  5
24C
330
248
100
AcDbEntity
  8
VERMASSUNG
100
AcDbTrace
 10
231.7530967293
 20
152.6854245898
 30
0.0
 11
228.7530967293
 21
153.1354245898
 31
0.0
 12
228.7530967293
 22
152.2354245898
 32
0.0
 13
228.7530967293
 23
152.2354245898
 33
0.0
  0
LINE
  5
24D
330
248
100
AcDbEntity
  8
VERMASSUNG
100
AcDbLine
 10
185.2530967293
 20
120.2242333561
 30
0.0
 11
185.2530967293
 21
153.6854245898
 31
0.0
  0
LINE
  5
24E
330
248
100
AcDbEntity
  8
VERMASSUNG
100
AcDbLine
 10
231.7530967293
 20
124.4754523728
 30
0.0
 11
231.7530967293
 21
153.6854245898
 31
0.0
  0
LINE
  5
24F
330
248
100
AcDbEntity
  8
VERMASSUNG
100
AcDbLine
 10
185.2530967293
 20
152.6854245898
 30
0.0
 11
231.7530967293
 21
152.6854245898
 31
0.0
  0
MTEXT
  5
250
330
248
100
AcDbEntity
  8
VERMASSUNG
100
AcDbMText
 10
202.8030975645
 20
155.2635601857
 30
0.0
 40
2.0
 41
0.0
 71
     1
 72
     1
  1
46.5
  7
SLDTEXTSTYLE0
 73
     1
 44
1.0
  0
MTEXT
  5
251
330
248
100
AcDbEntity
  8
VERMASSUNG
100
AcDbMText
 10
208.9905974527
 20
155.2635601857
 30
0.0
 40
2.0
 41
0.0
 71
     1
 72
     1
  1
max.
  7
SLDTEXTSTYLE0
 73
     1
 44
1.0
  0
ENDBLK
  5
24A
330
248
100
AcDbEntity
  8
0
100
AcDbBlockEnd
  0
BLOCK
  5
254
330
253
100
AcDbEntity
  8
0
100
AcDbBlockBegin
  2
_D_8
 70
     0
 10
0.0
 20
0.0
 30
0.0
  3
_D_8
  1

  0
SOLID
  5
256
330
253
100
AcDbEntity
  8
VERMASSUNG
100
AcDbTrace
 10
231.7530967293
 20
161.7992333561
 30
0.0
 11
228.7530967293
 21
162.2492333561
 31
0.0
 12
228.7530967293
 22
161.3492333561
 32
0.0
 13
228.7530967293
 23
161.3492333561
 33
0.0
  0
SOLID
  5
257
330
253
100
AcDbEntity
  8
VERMASSUNG
100
AcDbTrace
 10
111.7530967293
 20
161.7992333561
 30
0.0
 11
114.7530967293
 21
161.3492333561
 31
0.0
 12
114.7530967293
 22
162.2492333561
 32
0.0
 13
114.7530967293
 23
162.2492333561
 33
0.0
  0
LINE
  5
258
330
253
100
AcDbEntity
  8
VERMASSUNG
100
AcDbLine
 10
231.7530967293
 20
124.4754523728
 30
0.0
 11
231.7530967293
 21
162.7992333561
 31
0.0
  0
LINE
  5
259
330
253
100
AcDbEntity
  8
VERMASSUNG
100
AcDbLine
 10
111.7530967293
 20
145.5992333561
 30
0.0
 11
111.7530967293
 21
162.7992333561
 31
0.0
  0
LINE
  5
25A
330
253
100
AcDbEntity
  8
VERMASSUNG
100
AcDbLine
 10
231.7530967293
 20
161.7992333561
 30
0.0
 11
111.7530967293
 21
161.7992333561
 31
0.0
  0
MTEXT
  5
25B
330
253
100
AcDbEntity
  8
VERMASSUNG
100
AcDbMText
 10
169.8530966972
 20
164.3773689521
 30
0.0
 40
2.0
 41
0.0
 71
     1
 72
     1
  1
120
  7
SLDTEXTSTYLE0
 73
     1
 44
1.0
  0
ENDBLK
  5
255
330
253
100
AcDbEntity
  8
0
100
AcDbBlockEnd
  0
BLOCK
  5
25E
330
25D
100
AcDbEntity
  8
0
100
AcDbBlockBegin
  2
_D_9
 70
     0
 10
0.0
 20
0.0
 30
0.0
  3
_D_9
  1

  0
SOLID
  5
260
330
25D
100
AcDbEntity
  8
VERMASSUNG
100
AcDbTrace
 10
71.8030967293
 20
169.5460045358
 30
0.0
 11
74.8030967293
 21
169.0960045358
 31
0.0
 12
74.8030967293
 22
169.9960045358
 32
0.0
 13
74.8030967293
 23
169.9960045358
 33
0.0
  0
SOLID
  5
261
330
25D
100
AcDbEntity
  8
VERMASSUNG
100
AcDbTrace
 10
231.7530967293
 20
169.5460045358
 30
0.0
 11
228.7530967293
 21
169.9960045358
 31
0.0
 12
228.7530967293
 22
169.0960045358
 32
0.0
 13
228.7530967293
 23
169.0960045358
 33
0.0
  0
LINE
  5
262
330
25D
100
AcDbEntity
  8
VERMASSUNG
100
AcDbLine
 10
71.8030967293
 20
136.5273280799
 30
0.0
 11
71.8030967293
 21
170.5460045358
 31
0.0
  0
LINE
  5
263
330
25D
100
AcDbEntity
  8
VERMASSUNG
100
AcDbLine
 10
231.7530967293
 20
124.4754523728
 30
0.0
 11
231.7530967293
 21
170.5460045358
 31
0.0
  0
LINE
  5
264
330
25D
100
AcDbEntity
  8
VERMASSUNG
100
AcDbLine
 10
71.8030967293
 20
169.5460045358
 30
0.0
 11
231.7530967293
 21
169.5460045358
 31
0.0
  0
MTEXT
  5
265
330
25D
100
AcDbEntity
  8
VERMASSUNG
100
AcDbMText
 10
148.1780967911
 20
172.1241401317
 30
0.0
 40
2.0
 41
0.0
 71
     1
 72
     1
  1
159.95
  7
SLDTEXTSTYLE0
 73
     1
 44
1.0
  0
ENDBLK
  5
25F
330
25D
100
AcDbEntity
  8
0
100
AcDbBlockEnd
  0
BLOCK
  5
268
330
267
100
AcDbEntity
  8
0
100
AcDbBlockBegin
  2
_D_10
 70
     0
 10
0.0
 20
0.0
 30
0.0
  3
_D_10
  1

  0
SOLID
  5
26A
330
267
100
AcDbEntity
  8
VERMASSUNG
100
AcDbTrace
 10
47.2588621444
 20
82.8492333561
 30
0.0
 11
47.7088621444
 21
85.8492333561
 31
0.0
 12
46.8088621444
 22
85.8492333561
 32
0.0
 13
46.8088621444
 23
85.8492333561
 33
0.0
  0
SOLID
  5
26B
330
267
100
AcDbEntity
  8
VERMASSUNG
100
AcDbTrace
 10
47.2588621444
 20
145.7992333561
 30
0.0
 11
46.8088621444
 21
142.7992333561
 31
0.0
 12
47.7088621444
 22
142.7992333561
 32
0.0
 13
47.7088621444
 23
142.7992333561
 33
0.0
  0
LINE
  5
26C
330
267
100
AcDbEntity
  8
VERMASSUNG
100
AcDbLine
 10
111.9530967293
 20
82.8492333561
 30
0.0
 11
46.2588621444
 21
82.8492333561
 31
0.0
  0
LINE
  5
26D
330
267
100
AcDbEntity
  8
VERMASSUNG
100
AcDbLine
 10
118.3188989247
 20
145.7992333561
 30
0.0
 11
46.2588621444
 21
145.7992333561
 31
0.0
  0
LINE
  5
26E
330
267
100
AcDbEntity
  8
VERMASSUNG
100
AcDbLine
 10
47.2588621444
 20
82.8492333561
 30
0.0
 11
47.2588621444
 21
145.7992333561
 31
0.0
  0
MTEXT
  5
26F
330
267
100
AcDbEntity
  8
VERMASSUNG
100
AcDbMText
 10
44.4807268882
 20
104.5192339003
 30
0.0
 40
2.0
 41
0.0
 71
     1
 72
     1
  1
KM
  7
SLDTEXTSTYLE0
 11
7.273661547324616E-16
 21
1.0
 31
0.0
 73
     1
 44
1.0
  0
MTEXT
  5
270
330
267
100
AcDbEntity
  8
VERMASSUNG
100
AcDbMText
 10
44.6807268395
 20
107.9192337125
 30
0.0
 40
2.0
 41
0.0
 71
     1
 72
     1
  1
%%c
  7
SLDTEXTSTYLE0
 11
7.273661547324616E-16
 21
1.0
 31
0.0
 73
     1
 44
1.0
  0
MTEXT
  5
271
330
267
100
AcDbEntity
  8
VERMASSUNG
100
AcDbMText
 10
44.4807268882
 20
111.5292337269
 30
0.0
 40
2.0
 41
0.0
 71
     1
 72
     1
  1
62.95
  7
SLDTEXTSTYLE0
 11
7.273661547324616E-16
 21
1.0
 31
0.0
 73
     1
 44
1.0
  0
MTEXT
  5
272
330
267
100
AcDbEntity
  8
VERMASSUNG
100
AcDbMText
 10
44.4807268882
 20
118.9167334393
 30
0.0
 40
2.0
 41
0.0
 71
     1
 72
     1
  1
XMZ
  7
SLDTEXTSTYLE0
 11
7.273661547324616E-16
 21
1.0
 31
0.0
 73
     1
 44
1.0
  0
ENDBLK
  5
269
330
267
100
AcDbEntity
  8
0
100
AcDbBlockEnd
  0
ENDSEC
  0
SECTION
  2
ENTITIES
  0
MTEXT
  5
78
330
1F
100
AcDbEntity
  8
KOPF_DÜNN
100
AcDbMText
 10
13.8892156294
 20
23.8442973028
 30
0.0
 40
3.0
 41
0.0
 71
     1
 72
     1
  1
KY6.S12.K01.120
  7
SLDTEXTSTYLE0
 73
     1
 44
1.0
  0
MTEXT
  5
79
330
1F
100
AcDbEntity
  8
VERMASSUNG
100
AcDbMText
 10
13.9329988022
 20
28.8834360957
 30
0.0
 40
3.0
 41
0.0
 71
     1
 72
     1
  1
Schrumpffutter_Heat shrink chuck
  7
SLDTEXTSTYLE0
 73
     1
 44
1.0
  0
MTEXT
  5
7A
330
1F
100
AcDbEntity
  8
VERMASSUNG
100
AcDbMText
 10
98.8601118557
 20
13.8365368761
 30
0.0
 40
2.0
 41
0.0
 71
     1
 72
     1
  1
Datum: 14.02.2018
  7
SLDTEXTSTYLE0
 73
     1
 44
1.0
  0
MTEXT
  5
7B
330
1F
100
AcDbEntity
  8
VERMASSUNG
100
AcDbMText
 10
13.933048693
 20
18.0482802738
 30
0.0
 40
2.0
 41
0.0
 71
     1
 72
     1
  1
KM63 XMZ / Ø12
  7
SLDTEXTSTYLE0
 73
     1
 44
1.0
  0
MTEXT
  5
7C
330
1F
100
AcDbEntity
  8
VERMASSUNG
100
AcDbMText
 10
13.9808475933
 20
13.9090974274
 30
0.0
 40
2.0
 41
0.0
 71
     1
 72
     1
  1
Gewicht: 1123g
  7
SLDTEXTSTYLE0
 73
     1
 44
1.0
  0
LINE
  5
7D
330
1F
100
AcDbEntity
  8
0
  6
Continuous
 62
     7
370
    25
100
AcDbLine
 10
347.1166742093
 20
113.8112967961
 30
0.0
 11
346.886310872
 21
115.2361708588
 31
0.0
  0
LINE
  5
7E
330
1F
100
AcDbEntity
  8
0
  6
Continuous
 62
     7
370
    25
100
AcDbLine
 10
346.886310872
 20
115.2361708588
 30
0.0
 11
345.5371520978
 21
115.7491074188
 31
0.0
  0
LINE
  5
7F
330
1F
100
AcDbEntity
  8
0
  6
Continuous
 62
     7
370
    25
100
AcDbLine
 10
345.5371520978
 20
115.7491074188
 30
0.0
 11
344.4183565735
 21
114.8371699161
 31
0.0
  0
LINE
  5
80
330
1F
100
AcDbEntity
  8
0
  6
Continuous
 62
     7
370
    25
100
AcDbLine
 10
344.4183565735
 20
114.8371699161
 30
0.0
 11
344.6487199109
 21
113.4122958534
 31
0.0
  0
LINE
  5
81
330
1F
100
AcDbEntity
  8
0
  6
Continuous
 62
     7
370
    25
100
AcDbLine
 10
344.6487199109
 20
113.4122958534
 30
0.0
 11
345.9978786851
 21
112.8993592935
 31
0.0
  0
LINE
  5
82
330
1F
100
AcDbEntity
  8
0
  6
Continuous
 62
     7
370
    25
100
AcDbLine
 10
345.9978786851
 20
112.8993592935
 30
0.0
 11
347.1166742093
 21
113.8112967961
 31
0.0
  0
ARC
  5
83
330
1F
100
AcDbEntity
  8
0
  6
Continuous
 62
     7
370
    25
100
AcDbCircle
 10
345.7675153914
 20
114.3242333561
 30
0.0
 40
1.249999999999975
100
AcDbArc
 50
189.18370128
 51
249.18370128
  0
ARC
  5
84
330
1F
100
AcDbEntity
  8
0
  6
Continuous
 62
     7
370
    25
100
AcDbCircle
 10
345.7675153914
 20
114.3242333561
 30
0.0
 40
1.249999999999975
100
AcDbArc
 50
129.18370128
 51
189.18370128
  0
ARC
  5
85
330
1F
100
AcDbEntity
  8
0
  6
Continuous
 62
     7
370
    25
100
AcDbCircle
 10
345.7675153914
 20
114.3242333561
 30
0.0
 40
1.250000000000033
100
AcDbArc
 50
309.18370128
 51
9.18370128
  0
ARC
  5
86
330
1F
100
AcDbEntity
  8
0
  6
Continuous
 62
     7
370
    25
100
AcDbCircle
 10
345.7675153914
 20
114.3242333561
 30
0.0
 40
1.250000000000033
100
AcDbArc
 50
9.18370128
 51
69.18370128
  0
ARC
  5
87
330
1F
100
AcDbEntity
  8
0
  6
Continuous
 62
     7
370
    25
100
AcDbCircle
 10
345.7675153914
 20
114.3242333561
 30
0.0
 40
1.25000000000003
100
AcDbArc
 50
249.18370128
 51
309.18370128
  0
ARC
  5
88
330
1F
100
AcDbEntity
  8
0
  6
Continuous
 62
     7
370
    25
100
AcDbCircle
 10
345.7675153914
 20
114.3242333561
 30
0.0
 40
1.250000000000017
100
AcDbArc
 50
69.18370128
 51
129.18370128
  0
SPLINE
  5
89
330
1F
100
AcDbEntity
  8
0
  6
Continuous
 62
     7
370
    25
100
AcDbSpline
210
0.0
220
0.0
230
1.0
 70
     8
 71
     3
 72
     8
 73
     4
 74
     0
 42
0.000000001
 43
0.00000001
 40
0.0
 40
0.0
 40
0.0
 40
0.0
 40
1.0
 40
1.0
 40
1.0
 40
1.0
 10
335.3783752818098
 20
109.954232484145
 30
0.0
 10
335.3095369116231
 20
109.8911378108261
 30
0.0
 10
335.2411055511669
 20
109.8274154326953
 30
0.0
 10
335.1730892765023
 20
109.7630700004219
 30
0.0
  0
SPLINE
  5
8A
330
1F
100
AcDbEntity
  8
0
  6
Continuous
 62
     7
370
    25
100
AcDbSpline
210
0.0
220
0.0
230
1.0
 70
     8
 71
     3
 72
     8
 73
     4
 74
     0
 42
0.000000001
 43
0.00000001
 40
0.0
 40
0.0
 40
0.0
 40
0.0
 40
1.0
 40
1.0
 40
1.0
 40
1.0
 10
335.6364025230706
 20
109.7849706542177
 30
0.0
 10
335.5496990889101
 20
109.8411315738869
 30
0.0
 10
335.4637010414262
 20
109.8975563102128
 30
0.0
 10
335.3783752818098
 20
109.954232484145
 30
0.0
  0
ARC
  5
8B
330
1F
100
AcDbEntity
  8
0
  6
Continuous
 62
     7
370
    25
100
AcDbCircle
 10
345.7675153914
 20
114.3242333561
 30
0.0
 40
11.10154736189901
100
AcDbArc
 50
204.1348482805
 51
335.8651517195
  0
SPLINE
  5
8C
330
1F
100
AcDbEntity
  8
0
  6
Continuous
 62
     7
370
    25
100
AcDbSpline
210
0.0
220
0.0
230
1.0
 70
     8
 71
     3
 72
     8
 73
     4
 74
     0
 42
0.000000001
 43
0.00000001
 40
0.0
 40
0.0
 40
0.0
 40
0.0
 40
1.0
 40
1.0
 40
1.0
 40
1.0
 10
356.1566555010755
 20
109.954232484145
 30
0.0
 10
356.0713297414592
 20
109.8975563102128
 30
0.0
 10
355.9853316939753
 20
109.8411315738869
 30
0.0
 10
355.8986282598149
 20
109.7849706542177
 30
0.0
  0
SPLINE
  5
8D
330
1F
100
AcDbEntity
  8
0
  6
Continuous
 62
     7
370
    25
100
AcDbSpline
210
0.0
220
0.0
230
1.0
 70
     8
 71
     3
 72
     8
 73
     4
 74
     0
 42
0.000000001
 43
0.00000001
 40
0.0
 40
0.0
 40
0.0
 40
0.0
 40
1.0
 40
1.0
 40
1.0
 40
1.0
 10
356.3619415063832
 20
109.7630700004219
 30
0.0
 10
356.2939252317184
 20
109.8274154326953
 30
0.0
 10
356.2254938712624
 20
109.8911378108261
 30
0.0
 10
356.1566555010755
 20
109.954232484145
 30
0.0
  0
ARC
  5
8E
330
1F
100
AcDbEntity
  8
0
  6
Continuous
 62
     7
370
    25
100
AcDbCircle
 10
345.7675153914
 20
114.3242333561
 30
0.0
 40
11.53456006379121
100
AcDbArc
 50
203.2930774359
 51
336.7074733161
  0
ARC
  5
8F
330
1F
100
AcDbEntity
  8
0
  6
Continuous
 62
     7
370
    25
100
AcDbCircle
 10
345.7675153914
 20
114.3242333561
 30
0.0
 40
11.10154736189904
100
AcDbArc
 50
29.4783538465
 51
150.5216461535
  0
SPLINE
  5
90
330
1F
100
AcDbEntity
  8
0
  6
Continuous
 62
     7
370
    25
100
AcDbSpline
210
0.0
220
0.0
230
1.0
 70
     8
 71
     3
 72
     8
 73
     4
 74
     0
 42
0.000000001
 43
0.00000001
 40
0.0
 40
0.0
 40
0.0
 40
0.0
 40
1.0
 40
1.0
 40
1.0
 40
1.0
 10
335.7915823421183
 20
119.6025326054991
 30
0.0
 10
335.8944782559421
 20
119.66450121459
 30
0.0
 10
335.9983179254971
 20
119.7260798667306
 30
0.0
 10
336.1031558137236
 20
119.7872460580021
 30
0.0
  0
SPLINE
  5
91
330
1F
100
AcDbEntity
  8
0
  6
Continuous
 62
     7
370
    25
100
AcDbSpline
210
0.0
220
0.0
230
1.0
 70
     8
 71
     3
 72
     8
 73
     4
 74
     0
 42
0.000000001
 43
0.00000001
 40
0.0
 40
0.0
 40
0.0
 40
0.0
 40
1.0
 40
1.0
 40
1.0
 40
1.0
 10
335.6030459610044
 20
119.7767224263687
 30
0.0
 10
335.665614269374
 20
119.7182719572611
 30
0.0
 10
335.7284608627378
 20
119.660207946728
 30
0.0
 10
335.7915823421207
 20
119.6025326054968
 30
0.0
  0
ARC
  5
92
330
1F
100
AcDbEntity
  8
0
  6
Continuous
 62
     7
370
    25
100
AcDbCircle
 10
345.7675153914
 20
114.3242333561
 30
0.0
 40
11.53456006379119
100
AcDbArc
 50
28.2102805322
 51
151.7902347364
  0
SPLINE
  5
93
330
1F
100
AcDbEntity
  8
0
  6
Continuous
 62
     7
370
    25
100
AcDbSpline
210
0.0
220
0.0
230
1.0
 70
     8
 71
     3
 72
     8
 73
     4
 74
     0
 42
0.000000001
 43
0.00000001
 40
0.0
 40
0.0
 40
0.0
 40
0.0
 40
1.0
 40
1.0
 40
1.0
 40
1.0
 10
355.7434484407651
 20
119.6025326054971
 30
0.0
 10
355.8065699201478
 20
119.6602079467282
 30
0.0
 10
355.8694165135115
 20
119.7182719572612
 30
0.0
 10
355.931984821881
 20
119.7767224263687
 30
0.0
  0
SPLINE
  5
94
330
1F
100
AcDbEntity
  8
0
  6
Continuous
 62
     7
370
    25
100
AcDbSpline
210
0.0
220
0.0
230
1.0
 70
     8
 71
     3
 72
     8
 73
     4
 74
     0
 42
0.000000001
 43
0.00000001
 40
0.0
 40
0.0
 40
0.0
 40
0.0
 40
1.0
 40
1.0
 40
1.0
 40
1.0
 10
355.4318749691618
 20
119.7872460580021
 30
0.0
 10
355.536712857388
 20
119.7260798667308
 30
0.0
 10
355.6405525269425
 20
119.6645012145904
 30
0.0
 10
355.743448440766
 20
119.6025326054997
 30
0.0
  0
SPLINE
  5
95
330
1F
100
AcDbEntity
  8
0
  6
Continuous
 62
     7
370
    25
100
AcDbSpline
210
0.0
220
0.0
230
1.0
 70
     8
 71
     3
 72
     8
 73
     4
 74
     0
 42
0.000000001
 43
0.00000001
 40
0.0000004028655191
 40
0.0000004028655191
 40
0.0000004028655191
 40
0.0000004028655191
 40
0.0015137684369673
 40
0.0015137684369673
 40
0.0015137684369673
 40
0.0015137684369673
 10
337.3439207343006
 20
110.0019579523254
 30
0.0
 10
337.1372492467494
 20
109.9296640106108
 30
0.0
 10
336.9306302782087
 20
109.857332524654
 30
0.0
 10
336.7240539034
 20
109.7849706542177
 30
0.0
  0
LINE
  5
96
330
1F
100
AcDbEntity
  8
0
  6
Continuous
 62
     7
370
    25
100
AcDbLine
 10
336.7240537483
 20
109.7849708527
 30
0.0
 11
335.6364021603
 21
109.7849708527
 31
0.0
  0
LINE
  5
97
330
1F
100
AcDbEntity
  8
0
  6
Continuous
 62
     7
370
    25
100
AcDbLine
 10
335.6014300663
 20
110.2179832302
 30
0.0
 11
335.3783755157
 21
109.9542326771
 31
0.0
  0
LINE
  5
98
330
1F
100
AcDbEntity
  8
0
  6
Continuous
 62
     7
370
    25
100
AcDbLine
 10
337.369040266
 20
110.2179832302
 30
0.0
 11
335.6016452018
 21
110.2179832302
 31
0.0
  0
LINE
  5
99
330
1F
100
AcDbEntity
  8
0
  6
Continuous
 62
     7
370
    25
100
AcDbLine
 10
337.3796973902
 20
110.0604025192
 30
0.0
 11
337.369040266
 21
110.2179832302
 31
0.0
  0
SPLINE
  5
9A
330
1F
100
AcDbEntity
  8
0
  6
Continuous
 62
     7
370
    25
100
AcDbSpline
210
0.0
220
0.0
230
1.0
 70
     8
 71
     3
 72
     8
 73
     4
 74
     0
 42
0.000000001
 43
0.00000001
 40
0.0006523765358269
 40
0.0006523765358269
 40
0.0006523765358269
 40
0.0006523765358269
 40
0.0009043636494504
 40
0.0009043636494504
 40
0.0009043636494504
 40
0.0009043636494504
 10
337.3807976093355
 20
110.0621960497741
 30
0.0
 10
337.3684806148181
 20
110.0421204687919
 30
0.0
 10
337.356188417414
 20
110.0220410802694
 30
0.0
 10
337.3439207343006
 20
110.0019579523254
 30
0.0
  0
LINE
  5
9B
330
1F
100
AcDbEntity
  8
0
  6
Continuous
 62
     7
370
    25
100
AcDbLine
 10
335.7915819216
 20
119.6025324531
 30
0.0
 11
335.9999904934
 21
119.3542334728
 31
0.0
  0
LINE
  5
9C
330
1F
100
AcDbEntity
  8
0
  6
Continuous
 62
     7
370
    25
100
AcDbLine
 10
337.2502044368
 20
119.7872458503
 30
0.0
 11
336.1031558889
 21
119.7872458503
 31
0.0
  0
SPLINE
  5
9D
330
1F
100
AcDbEntity
  8
0
  6
Continuous
 62
     7
370
    25
100
AcDbSpline
210
0.0
220
0.0
230
1.0
 70
     8
 71
     3
 72
     8
 73
     4
 74
     0
 42
0.000000001
 43
0.00000001
 40
0.0000004089325119
 40
0.0000004089325119
 40
0.0000004089325119
 40
0.0000004089325119
 40
0.0015399868451459
 40
0.0015399868451459
 40
0.0015399868451459
 40
0.0015399868451459
 10
337.2502039740139
 20
119.7872460580021
 30
0.0
 10
337.4619652328083
 20
119.7147911753486
 30
0.0
 10
337.6738855559985
 20
119.6424523053201
 30
0.0
 10
337.8860035392128
 20
119.5702587598943
 30
0.0
  0
LINE
  5
9E
330
1F
100
AcDbEntity
  8
0
  6
Continuous
 62
     7
370
    25
100
AcDbLine
 10
337.8860034573
 20
119.5702588662
 30
0.0
 11
337.8941562552
 21
119.5550461776
 31
0.0
  0
LINE
  5
9F
330
1F
100
AcDbEntity
  8
0
  6
Continuous
 62
     7
370
    25
100
AcDbLine
 10
337.8917860392
 20
119.3542334728
 30
0.0
 11
337.8941571865
 21
119.5550466433
 31
0.0
  0
LINE
  5
A0
330
1F
100
AcDbEntity
  8
0
  6
Continuous
 62
     7
370
    25
100
AcDbLine
 10
337.8917860392
 20
119.3542334728
 30
0.0
 11
335.9999904934
 21
119.3542334728
 31
0.0
  0
LINE
  5
A1
330
1F
100
AcDbEntity
  8
0
  6
Continuous
 62
     7
370
    25
100
AcDbLine
 10
356.1566552672
 20
109.9542326771
 30
0.0
 11
355.9336007166
 21
110.2179832302
 31
0.0
  0
LINE
  5
A2
330
1F
100
AcDbEntity
  8
0
  6
Continuous
 62
     7
370
    25
100
AcDbLine
 10
355.8986286226
 20
109.7849708527
 30
0.0
 11
354.8109770346
 21
109.7849708527
 31
0.0
  0
SPLINE
  5
A3
330
1F
100
AcDbEntity
  8
0
  6
Continuous
 62
     7
370
    25
100
AcDbSpline
210
0.0
220
0.0
230
1.0
 70
     8
 71
     3
 72
     8
 73
     4
 74
     0
 42
0.000000001
 43
0.00000001
 40
0.0000004024872366
 40
0.0000004024872366
 40
0.0000004024872366
 40
0.0000004024872366
 40
0.0015137680586847
 40
0.0015137680586847
 40
0.0015137680586847
 40
0.0015137680586847
 10
354.8109768794853
 20
109.7849706542177
 30
0.0
 10
354.6044005046767
 20
109.857332524654
 30
0.0
 10
354.3977815361361
 20
109.9296640106108
 30
0.0
 10
354.1911100485848
 20
110.0019579523254
 30
0.0
  0
SPLINE
  5
A4
330
1F
100
AcDbEntity
  8
0
  6
Continuous
 62
     7
370
    25
100
AcDbSpline
210
0.0
220
0.0
230
1.0
 70
     8
 71
     3
 72
     8
 73
     4
 74
     0
 42
0.000000001
 43
0.00000001
 40
0.0000002414707367
 40
0.0000002414707367
 40
0.0000002414707367
 40
0.0000002414707367
 40
0.0002447240690309
 40
0.0002447240690309
 40
0.0002447240690309
 40
0.0002447240690309
 10
354.1911100485848
 20
110.0019579523254
 30
0.0
 10
354.1792077132296
 20
110.021442978272
 30
0.0
 10
354.167282302018
 20
110.0409244840964
 30
0.0
 10
354.155333556723
 20
110.0604024076082
 30
0.0
  0
LINE
  5
A5
330
1F
100
AcDbEntity
  8
0
  6
Continuous
 62
     7
370
    25
100
AcDbLine
 10
354.1659905169
 20
110.2179832302
 30
0.0
 11
354.1553333927
 21
110.0604025192
 31
0.0
  0
LINE
  5
A6
330
1F
100
AcDbEntity
  8
0
  6
Continuous
 62
     7
370
    25
100
AcDbLine
 10
355.9336007166
 20
110.2179832302
 30
0.0
 11
354.1608822126
 21
110.2179832302
 31
0.0
  0
SPLINE
  5
A7
330
1F
100
AcDbEntity
  8
0
  6
Continuous
 62
     7
370
    25
100
AcDbSpline
210
0.0
220
0.0
230
1.0
 70
     8
 71
     3
 72
     8
 73
     4
 74
     0
 42
0.000000001
 43
0.00000001
 40
0.000000410413179
 40
0.000000410413179
 40
0.000000410413179
 40
0.000000410413179
 40
0.0015399883258131
 40
0.0015399883258131
 40
0.0015399883258131
 40
0.0015399883258131
 10
353.6490272436727
 20
119.5702587598943
 30
0.0
 10
353.8611452268869
 20
119.6424523053201
 30
0.0
 10
354.0730655500771
 20
119.7147911753486
 30
0.0
 10
354.2848268088716
 20
119.7872460580021
 30
0.0
  0
LINE
  5
A8
330
1F
100
AcDbEntity
  8
0
  6
Continuous
 62
     7
370
    25
100
AcDbLine
 10
355.4318748939
 20
119.7872458503
 30
0.0
 11
354.2848263461
 21
119.7872458503
 31
0.0
  0
LINE
  5
A9
330
1F
100
AcDbEntity
  8
0
  6
Continuous
 62
     7
370
    25
100
AcDbLine
 10
355.5350402895
 20
119.3542334728
 30
0.0
 11
355.7434488613
 21
119.6025324531
 31
0.0
  0
LINE
  5
AA
330
1F
100
AcDbEntity
  8
0
  6
Continuous
 62
     7
370
    25
100
AcDbLine
 10
355.5348502997
 20
119.3542334728
 30
0.0
 11
353.6432447437
 21
119.3542334728
 31
0.0
  0
LINE
  5
AB
330
1F
100
AcDbEntity
  8
0
  6
Continuous
 62
     7
370
    25
100
AcDbLine
 10
353.6408735964
 20
119.5550461776
 30
0.0
 11
353.6432447437
 21
119.3542334728
 31
0.0
  0
LINE
  5
AC
330
1F
100
AcDbEntity
  8
0
  6
Continuous
 62
     7
370
    25
100
AcDbLine
 10
353.6408745277
 20
119.5550461776
 30
0.0
 11
353.6490273255
 21
119.5702588662
 31
0.0
  0
ARC
  5
AD
330
1F
100
AcDbEntity
  8
0
  6
Continuous
 62
     7
370
    25
100
AcDbCircle
 10
345.7675153914
 20
114.3242333561
 30
0.0
 40
10.11875000000003
100
AcDbArc
 50
32.6761561262
 51
147.3238438738
  0
ARC
  5
AE
330
1F
100
AcDbEntity
  8
0
  6
Continuous
 62
     7
370
    25
100
AcDbCircle
 10
345.7675153914
 20
114.3242333561
 30
0.0
 40
10.11875000000005
100
AcDbArc
 50
206.6538426687
 51
333.3461573313
  0
ARC
  5
AF
330
1F
100
AcDbEntity
  8
0
  6
Continuous
 62
     7
370
    25
100
AcDbCircle
 10
345.7675153914
 20
114.3242333561
 30
0.0
 40
9.467788105676732
100
AcDbArc
 50
33.6481949792
 51
146.3518050208
  0
ARC
  5
B0
330
1F
100
AcDbEntity
  8
0
  6
Continuous
 62
     7
370
    25
100
AcDbCircle
 10
345.7675153914
 20
114.3242333561
 30
0.0
 40
9.467788105676709
100
AcDbArc
 50
207.1630537883
 51
332.8369462117
  0
SPLINE
  5
B1
330
1F
100
AcDbEntity
  8
0
  6
Continuous
 62
     7
370
    25
100
AcDbSpline
210
0.0
220
0.0
230
1.0
 70
     8
 71
     3
 72
     8
 73
     4
 74
     0
 42
0.000000001
 43
0.00000001
 40
0.0
 40
0.0
 40
0.0
 40
0.0
 40
1.0
 40
1.0
 40
1.0
 40
1.0
 10
335.1730892763122
 20
109.7630700005332
 30
0.0
 10
335.1198464513706
 20
109.763593726771
 30
0.0
 10
335.0665511657549
 20
109.7643918200334
 30
0.0
 10
335.0132056602654
 20
109.7654648679582
 30
0.0
  0
LINE
  5
B2
330
1F
100
AcDbEntity
  8
0
  6
Continuous
 62
     7
370
    25
100
AcDbLine
 10
335.4412928748
 20
110.2179832302
 30
0.0
 11
335.6014300663
 21
110.2179832302
 31
0.0
  0
LINE
  5
B3
330
1F
100
AcDbEntity
  8
0
  6
Continuous
 62
     7
370
    25
100
AcDbLine
 10
355.9336007166
 20
110.2179832302
 30
0.0
 11
356.093737908
 21
110.2179832302
 31
0.0
  0
SPLINE
  5
B4
330
1F
100
AcDbEntity
  8
0
  6
Continuous
 62
     7
370
    25
100
AcDbSpline
210
0.0
220
0.0
230
1.0
 70
     8
 71
     3
 72
     8
 73
     4
 74
     0
 42
0.000000001
 43
0.00000001
 40
0.0
 40
0.0
 40
0.0
 40
0.0
 40
1.0
 40
1.0
 40
1.0
 40
1.0
 10
356.52182512262
 20
109.7654648679582
 30
0.0
 10
356.4684796171305
 20
109.7643918200334
 30
0.0
 10
356.4151843315148
 20
109.763593726771
 30
0.0
 10
356.3619415065731
 20
109.7630700005332
 30
0.0
  0
LINE
  5
B5
330
1F
100
AcDbEntity
  8
0
  6
Continuous
 62
     7
370
    25
100
AcDbLine
 10
335.9999904934
 20
119.3542334728
 30
0.0
 11
335.8765734884
 21
119.3542334728
 31
0.0
  0
SPLINE
  5
B6
330
1F
100
AcDbEntity
  8
0
  6
Continuous
 62
     7
370
    25
100
AcDbSpline
210
0.0
220
0.0
230
1.0
 70
     8
 71
     3
 72
     8
 73
     4
 74
     0
 42
0.000000001
 43
0.00000001
 40
0.0
 40
0.0
 40
0.0
 40
0.0
 40
1.0
 40
1.0
 40
1.0
 40
1.0
 10
335.4798244667629
 20
119.7746788730462
 30
0.0
 10
335.5209398938048
 20
119.7755478106862
 30
0.0
 10
335.5620141884158
 20
119.7762288482691
 30
0.0
 10
335.603045960905
 20
119.7767224263305
 30
0.0
  0
SPLINE
  5
B7
330
1F
100
AcDbEntity
  8
0
  6
Continuous
 62
     7
370
    25
100
AcDbSpline
210
0.0
220
0.0
230
1.0
 70
     8
 71
     3
 72
     8
 73
     4
 74
     0
 42
0.000000001
 43
0.00000001
 40
0.0
 40
0.0
 40
0.0
 40
0.0
 40
1.0
 40
1.0
 40
1.0
 40
1.0
 10
355.9319848219804
 20
119.7767224263306
 30
0.0
 10
355.9730165944696
 20
119.7762288482691
 30
0.0
 10
356.0140908890806
 20
119.7755478106862
 30
0.0
 10
356.0552063161224
 20
119.7746788730463
 30
0.0
  0
LINE
  5
B8
330
1F
100
AcDbEntity
  8
0
  6
Continuous
 62
     7
370
    25
100
AcDbLine
 10
355.6584572944
 20
119.3542334728
 30
0.0
 11
355.5350402895
 21
119.3542334728
 31
0.0
  0
SPLINE
  5
B9
330
1F
100
AcDbEntity
  8
0
  6
Continuous
 62
     7
370
    25
100
AcDbSpline
210
0.0
220
0.0
230
1.0
 70
     8
 71
     3
 72
     9
 73
     5
 74
     0
 42
0.000000001
 43
0.00000001
 40
0.0
 40
0.0
 40
0.0
 40
0.0
 40
0.4897878789203994
 40
0.9999999999999999
 40
0.9999999999999999
 40
0.9999999999999999
 40
0.9999999999999999
 10
352.8731049560942
 20
119.5473502223476
 30
0.0
 10
352.9994600383154
 20
119.5486689481009
 30
0.0
 10
353.2574392322875
 20
119.5513613907072
 30
0.0
 10
353.5113339805769
 20
119.5538014685432
 30
0.0
 10
353.6408741586326
 20
119.5550464258315
 30
0.0
  0
ARC
  5
BA
330
1F
100
AcDbEntity
  8
0
  6
Continuous
 62
     7
370
    25
100
AcDbCircle
 10
345.7675153914
 20
114.3242333561
 30
0.0
 40
8.818750000000046
100
AcDbArc
 50
36.3185452201
 51
143.6814533294
  0
SPLINE
  5
BB
330
1F
100
AcDbEntity
  8
0
  6
Continuous
 62
     7
370
    25
100
AcDbSpline
210
0.0
220
0.0
230
1.0
 70
     8
 71
     3
 72
     9
 73
     5
 74
     0
 42
0.000000001
 43
0.00000001
 40
0.0
 40
0.0
 40
0.0
 40
0.0
 40
0.5102121239851395
 40
0.9999999999999999
 40
0.9999999999999999
 40
0.9999999999999999
 40
0.9999999999999999
 10
337.8941565231279
 20
119.5550466144358
 30
0.0
 10
338.0236967409788
 20
119.5538016557449
 30
0.0
 10
338.2775915658195
 20
119.5513615751739
 30
0.0
 10
338.5355708388293
 20
119.5486691294807
 30
0.0
 10
338.6619259590126
 20
119.5473504022234
 30
0.0
  0
SPLINE
  5
BC
330
1F
100
AcDbEntity
  8
0
  6
Continuous
 62
     7
370
    25
100
AcDbSpline
210
0.0
220
0.0
230
1.0
 70
     8
 71
     3
 72
     8
 73
     4
 74
     0
 42
0.000000001
 43
0.00000001
 40
0.0
 40
0.0
 40
0.0
 40
0.0
 40
1.0
 40
1.0
 40
1.0
 40
1.0
 10
338.661925705338
 20
119.5473499329462
 30
0.0
 10
338.6541646473926
 20
119.5367916977471
 30
0.0
 10
338.6464271222966
 20
119.5262161642208
 30
0.0
 10
338.6387132069272
 20
119.5156234374413
 30
0.0
  0
SPLINE
  5
BD
330
1F
100
AcDbEntity
  8
0
  6
Continuous
 62
     7
370
    25
100
AcDbSpline
210
0.0
220
0.0
230
1.0
 70
     8
 71
     3
 72
     8
 73
     4
 74
     0
 42
0.000000001
 43
0.00000001
 40
0.0
 40
0.0
 40
0.0
 40
0.0
 40
1.0
 40
1.0
 40
1.0
 40
1.0
 10
338.4671553741642
 20
119.3542336949781
 30
0.0
 10
338.5244157811986
 20
119.4081418719659
 30
0.0
 10
338.5816021723082
 20
119.461938797049
 30
0.0
 10
338.6387132069272
 20
119.5156234374413
 30
0.0
  0
LINE
  5
BE
330
1F
100
AcDbEntity
  8
0
  6
Continuous
 62
     7
370
    25
100
AcDbLine
 10
338.4671561945
 20
119.3542334728
 30
0.0
 11
337.8917860392
 21
119.3542334728
 31
0.0
  0
SPLINE
  5
BF
330
1F
100
AcDbEntity
  8
0
  6
Continuous
 62
     7
370
    25
100
AcDbSpline
210
0.0
220
0.0
230
1.0
 70
     8
 71
     3
 72
     8
 73
     4
 74
     0
 42
0.000000001
 43
0.00000001
 40
0.0
 40
0.0
 40
0.0
 40
0.0
 40
1.0
 40
1.0
 40
1.0
 40
1.0
 10
352.8964330077393
 20
119.5154649231425
 30
0.0
 10
352.8886808950386
 20
119.5261105998151
 30
0.0
 10
352.8809049363714
 20
119.5367389120093
 30
0.0
 10
352.873105209768
 20
119.5473497530717
 30
0.0
  0
LINE
  5
C0
330
1F
100
AcDbEntity
  8
0
  6
Continuous
 62
     7
370
    25
100
AcDbLine
 10
353.6432447437
 20
119.3542334728
 30
0.0
 11
353.0678461831
 21
119.3542334728
 31
0.0
  0
SPLINE
  5
C1
330
1F
100
AcDbEntity
  8
0
  6
Continuous
 62
     7
370
    25
100
AcDbSpline
210
0.0
220
0.0
230
1.0
 70
     8
 71
     3
 72
     8
 73
     4
 74
     0
 42
0.000000001
 43
0.00000001
 40
0.0
 40
0.0
 40
0.0
 40
0.0
 40
1.0
 40
1.0
 40
1.0
 40
1.0
 10
352.8964330077393
 20
119.5154649231425
 30
0.0
 10
352.9534961354254
 20
119.4618329727267
 30
0.0
 10
353.0106345151557
 20
119.4080888863618
 30
0.0
 10
353.0678468086295
 20
119.3542336951116
 30
0.0
  0
ARC
  5
C2
330
1F
100
AcDbEntity
  8
0
  6
Continuous
 62
     7
370
    25
100
AcDbCircle
 10
345.7675153914
 20
114.3242333561
 30
0.0
 40
8.818749999999996
100
AcDbArc
 50
209.2047569376
 51
330.7952430624
  0
SPLINE
  5
C3
330
1F
100
AcDbEntity
  8
0
  6
Continuous
 62
     7
370
    25
100
AcDbSpline
210
0.0
220
0.0
230
1.0
 70
    24
 71
     3
 72
     8
 73
     4
 74
     0
 42
0.000000001
 43
0.00000001
 40
0.0
 40
0.0
 40
0.0
 40
0.0
 40
0.000136040218399
 40
0.000136040218399
 40
0.000136040218399
 40
0.000136040218399
 10
353.508650788287
 20
110.0646929252587
 30
0.0
 10
353.4942117886029
 20
110.0502539255746
 30
0.0
 10
353.4797413362406
 20
110.0357834732124
 30
0.0
 10
353.4652397376892
 20
110.0212818746609
 30
0.0
  0
SPLINE
  5
C4
330
1F
100
AcDbEntity
  8
0
  6
Continuous
 62
     7
370
    25
100
AcDbSpline
210
0.0
220
0.0
230
1.0
 70
     8
 71
     3
 72
     9
 73
     5
 74
     0
 42
0.000000001
 43
0.00000001
 40
0.0
 40
0.0
 40
0.0
 40
0.0
 40
0.5086448740973026
 40
1.0
 40
1.0
 40
1.0
 40
1.0
 10
354.1553335170432
 20
110.0604023194736
 30
0.0
 10
354.0461674680454
 20
110.0610961683186
 30
0.0
 10
353.8315461191297
 20
110.0624602808465
 30
0.0
 10
353.6150348064523
 20
110.0639571007843
 30
0.0
 10
353.5086508631523
 20
110.0646925709333
 30
0.0
  0
SPLINE
  5
C5
330
1F
100
AcDbEntity
  8
0
  6
Continuous
 62
     7
370
    25
100
AcDbSpline
210
0.0
220
0.0
230
1.0
 70
     8
 71
     3
 72
     9
 73
     5
 74
     0
 42
0.000000001
 43
0.00000001
 40
0.0
 40
0.0
 40
0.0
 40
0.0
 40
0.4913551252639757
 40
1.0
 40
1.0
 40
1.0
 40
1.0
 10
338.0263799501975
 20
110.0646925404687
 30
0.0
 10
337.9199959988055
 20
110.0639570701399
 30
0.0
 10
337.7034846693778
 20
110.0624602498342
 30
0.0
 10
337.4888633040111
 20
110.0610961369799
 30
0.0
 10
337.3796972465084
 20
110.060402287968
 30
0.0
  0
SPLINE
  5
C6
330
1F
100
AcDbEntity
  8
0
  6
Continuous
 62
     7
370
    25
100
AcDbSpline
210
0.0
220
0.0
230
1.0
 70
    24
 71
     3
 72
     8
 73
     4
 74
     0
 42
0.000000001
 43
0.00000001
 40
0.0
 40
0.0
 40
0.0
 40
0.0
 40
0.0001360401227241
 40
0.0001360401227241
 40
0.0001360401227241
 40
0.0001360401227241
 10
338.0697910451962
 20
110.0212818746609
 30
0.0
 10
338.0552894568435
 20
110.0357834630136
 30
0.0
 10
338.0408190146363
 20
110.0502539052208
 30
0.0
 10
338.0263800250629
 20
110.0646928947942
 30
0.0
  0
LINE
  5
C7
330
1F
100
AcDbEntity
  8
0
  6
Continuous
 62
     7
370
    25
100
AcDbLine
 10
337.369040266
 20
110.2179832302
 30
0.0
 11
337.8730897385
 21
110.2179832302
 31
0.0
  0
SPLINE
  5
C8
330
1F
100
AcDbEntity
  8
0
  6
Continuous
 62
     7
370
    25
100
AcDbSpline
210
0.0
220
0.0
230
1.0
 70
     8
 71
     3
 72
     8
 73
     4
 74
     0
 42
0.000000001
 43
0.00000001
 40
0.0
 40
0.0
 40
0.0
 40
0.0
 40
1.0
 40
1.0
 40
1.0
 40
1.0
 10
338.0263802248949
 20
110.0646926952071
 30
0.0
 10
337.9753114622904
 20
110.1157351869511
 30
0.0
 10
337.9242145026545
 20
110.1668321589771
 30
0.0
 10
337.8730896611388
 20
110.2179832587183
 30
0.0
  0
SPLINE
  5
C9
330
1F
100
AcDbEntity
  8
0
  6
Continuous
 62
     7
370
    25
100
AcDbSpline
210
0.0
220
0.0
230
1.0
 70
     8
 71
     3
 72
     8
 73
     4
 74
     0
 42
0.000000001
 43
0.00000001
 40
0.0
 40
0.0
 40
0.0
 40
0.0
 40
1.0
 40
1.0
 40
1.0
 40
1.0
 10
353.6619411217466
 20
110.2179832587184
 30
0.0
 10
353.6108162904014
 20
110.1668321691631
 30
0.0
 10
353.5597193409204
 20
110.1157352072921
 30
0.0
 10
353.5086505884551
 20
110.0646927256716
 30
0.0
  0
LINE
  5
CA
330
1F
100
AcDbEntity
  8
0
  6
Continuous
 62
     7
370
    25
100
AcDbLine
 10
353.6619410444
 20
110.2179832302
 30
0.0
 11
354.1659905169
 21
110.2179832302
 31
0.0
  0
CIRCLE
  5
CB
330
1F
100
AcDbEntity
  8
0
  6
Continuous
 62
     7
370
    25
100
AcDbCircle
 10
345.7675153914
 20
114.3242333561
 30
0.0
 40
12.47086902276413
  0
SPLINE
  5
CC
330
1F
100
AcDbEntity
  8
0
  6
Continuous
 62
     7
370
    25
100
AcDbSpline
210
0.0
220
0.0
230
1.0
 70
     8
 71
     3
 72
    23
 73
    19
 74
     0
 42
0.000000001
 43
0.00000001
 40
0.0
 40
0.0
 40
0.0
 40
0.0
 40
0.0521036415675031
 40
0.1035646240925967
 40
0.1544751946736949
 40
0.2049306267473421
 40
0.2550287880844035
 40
0.3048696389141012
 40
0.3545546704609132
 40
0.4041862979523234
 40
0.4538672252126086
 40
0.5036997999421611
 40
0.5901870230746071
 40
0.674271637822954
 40
0.7565997087222995
 40
0.8378563983721267
 40
0.9187511781367398
 40
1.0
 40
1.0
 40
1.0
 40
1.0
 10
334.9282632447852
 20
118.8146440688598
 30
0.0
 10
334.9415575997349
 20
118.8438119620213
 30
0.0
 10
334.9679823338131
 20
118.9017879844253
 30
0.0
 10
335.007193340037
 20
118.9846872854373
 30
0.0
 10
335.0456352948427
 20
119.0638692664548
 30
0.0
 10
335.0832228763093
 20
119.1391240832568
 30
0.0
 10
335.1198787626168
 20
119.2105437375146
 30
0.0
 10
335.1555286266754
 20
119.2781403462962
 30
0.0
 10
335.1901023734367
 20
119.3419466677607
 30
0.0
 10
335.2235340673927
 20
119.4019902098298
 30
0.0
 10
335.2557609446176
 20
119.4582969065565
 30
0.0
 10
335.2942623815073
 20
119.5237018883802
 30
0.0
 10
335.3369238622207
 20
119.5932629662163
 30
0.0
 10
335.3804169043437
 20
119.6600224628808
 30
0.0
 10
335.4168294011717
 20
119.7117465109786
 30
0.0
 10
335.4457302076489
 20
119.7481948230304
 30
0.0
 10
335.4676476637472
 20
119.7707922199136
 30
0.0
 10
335.4757596282404
 20
119.773381437475
 30
0.0
 10
335.4798244667629
 20
119.7746788730462
 30
0.0
  0
SPLINE
  5
CD
330
1F
100
AcDbEntity
  8
0
  6
Continuous
 62
     7
370
    25
100
AcDbSpline
210
0.0
220
0.0
230
1.0
 70
     8
 71
     3
 72
     8
 73
     4
 74
     0
 42
0.000000001
 43
0.00000001
 40
0.0
 40
0.0
 40
0.0
 40
0.0
 40
1.0
 40
1.0
 40
1.0
 40
1.0
 10
334.8076253049224
 20
118.81243371145
 30
0.0
 10
334.8478143185154
 20
118.8131640216675
 30
0.0
 10
334.8879766206055
 20
118.813744547497
 30
0.0
 10
334.928111331081
 20
118.8141755124467
 30
0.0
  0
SPLINE
  5
CE
330
1F
100
AcDbEntity
  8
0
  6
Continuous
 62
     7
370
    25
100
AcDbSpline
210
0.0
220
0.0
230
1.0
 70
     8
 71
     3
 72
    18
 73
    14
 74
     0
 42
0.000000001
 43
0.00000001
 40
0.0
 40
0.0
 40
0.0
 40
0.0
 40
0.0923824559411628
 40
0.1844689291573508
 40
0.2764953615950219
 40
0.3686975365494161
 40
0.4613092840003458
 40
0.5545607518442569
 40
0.6486768051537182
 40
0.7438756050146744
 40
0.8403674044302629
 40
0.9203921078121001
 40
1.0
 40
1.0
 40
1.0
 40
1.0
 10
334.8605642937218
 20
119.0792507183318
 30
0.0
 10
334.8623999473746
 20
119.0790424061166
 30
0.0
 10
334.8660653734575
 20
119.0786264490944
 30
0.0
 10
334.8688607030766
 20
119.0718220256283
 30
0.0
 10
334.8696629981552
 20
119.0604886469761
 30
0.0
 10
334.868296861112
 20
119.0441882519496
 30
0.0
 10
334.8648353124831
 20
119.0230370131137
 30
0.0
 10
334.8592940067137
 20
118.9970013119972
 30
0.0
 10
334.8517095386448
 20
118.966076932346
 30
0.0
 10
334.8421325367079
 20
118.9302779009013
 30
0.0
 10
334.8312920606892
 20
118.8920269933702
 30
0.0
 10
334.8198034197502
 20
118.8528087799758
 30
0.0
 10
334.8117034348721
 20
118.8259538031263
 30
0.0
 10
334.8076640172294
 20
118.812561374756
 30
0.0
  0
LINE
  5
CF
330
1F
100
AcDbEntity
  8
0
  6
Continuous
 62
     7
370
    25
100
AcDbLine
 10
334.8078091222
 20
119.0785028517
 30
0.0
 11
334.8605638895
 21
119.0792507037
 31
0.0
  0
SPLINE
  5
D0
330
1F
100
AcDbEntity
  8
0
  6
Continuous
 62
     7
370
    25
100
AcDbSpline
210
0.0
220
0.0
230
1.0
 70
     8
 71
     3
 72
    25
 73
    21
 74
     0
 42
0.000000001
 43
0.00000001
 40
0.0
 40
0.0
 40
0.0
 40
0.0
 40
0.0280105225426465
 40
0.0559601148860768
 40
0.0839014045043132
 40
0.1118870776786367
 40
0.1399695827588937
 40
0.1682008401739883
 40
0.196631967042422
 40
0.2253130233141467
 40
0.2542927850735845
 40
0.3799486436587335
 40
0.5057850221667067
 40
0.6313085886338298
 40
0.7532068238012468
 40
0.8039473267955921
 40
0.8535894438554446
 40
0.9025339722394071
 40
0.9511970353791085
 40
1.0
 40
1.0
 40
1.0
 40
1.0
 10
333.896847526669
 20
116.5115710986442
 30
0.0
 10
333.90382659658
 20
116.548881112151
 30
0.0
 10
333.9177695551028
 20
116.6234199801446
 30
0.0
 10
333.9402914525457
 20
116.7347290256278
 30
0.0
 10
333.9639250646432
 20
116.8453912346422
 30
0.0
 10
333.9887746551312
 20
116.9553753675865
 30
0.0
 10
334.0147932796175
 20
117.064670511201
 30
0.0
 10
334.0419746609354
 20
117.1732614804032
 30
0.0
 10
334.0703003022679
 20
117.2811321903456
 30
0.0
 10
334.0997590831005
 20
117.3882771360706
 30
0.0
 10
334.1641673710126
 20
117.6124520225825
 30
0.0
 10
334.2692690630844
 20
117.9391174366185
 30
0.0
 10
334.4147318238806
 20
118.3250640419384
 30
0.0
 10
334.5539952319903
 20
118.6471438546285
 30
0.0
 10
334.6511435848579
 20
118.8429644386602
 30
0.0
 10
334.7114389910842
 20
118.9523118891436
 30
0.0
 10
334.7463275739655
 20
119.0102399135589
 30
0.0
 10
334.7742220758933
 20
119.0506938663239
 30
0.0
 10
334.7955871682649
 20
119.0753080817229
 30
0.0
 10
334.8037311158376
 20
119.0774370092305
 30
0.0
 10
334.8078089344826
 20
119.0785030009019
 30
0.0
  0
ARC
  5
D1
330
1F
100
AcDbEntity
  8
0
  6
Continuous
 62
     7
370
    25
100
AcDbCircle
 10
345.7675153914
 20
114.3242333561
 30
0.0
 40
12.07050959801141
100
AcDbArc
 50
169.5595567507
 51
190.4404432494
  0
SPLINE
  5
D2
330
1F
100
AcDbEntity
  8
0
  6
Continuous
 62
     7
370
    25
100
AcDbSpline
210
0.0
220
0.0
230
1.0
 70
     8
 71
     3
 72
    26
 73
    22
 74
     0
 42
0.000000001
 43
0.00000001
 40
0.0
 40
0.0
 40
0.0
 40
0.0
 40
0.0241259796963635
 40
0.0482159912272988
 40
0.0723203915124065
 40
0.0964895678710797
 40
0.1207736231963513
 40
0.1452220711242836
 40
0.1698835501657706
 40
0.1948055644472379
 40
0.2200342569517627
 40
0.2456142191611387
 40
0.3690971486901655
 40
0.4940698769485187
 40
0.6192566784762451
 40
0.7454656653603225
 40
0.7971495824713707
 40
0.8481710308405392
 40
0.8988013269235234
 40
0.9493179290492194
 40
1.0
 40
1.0
 40
1.0
 40
1.0
 10
334.8078089344826
 20
109.5699637113178
 30
0.0
 10
334.8058986197423
 20
109.5702506045072
 30
0.0
 10
334.80208083825
 20
109.570823963172
 30
0.0
 10
334.7941207130691
 20
109.5768826514184
 30
0.0
 10
334.7845416124937
 20
109.5867619121493
 30
0.0
 10
334.773194405625
 20
109.6008430032597
 30
0.0
 10
334.7601382223311
 20
109.6190385512838
 30
0.0
 10
334.7453823191038
 20
109.6413890940225
 30
0.0
 10
334.7289551388064
 20
109.6679033297146
 30
0.0
 10
334.7108869840862
 20
109.6985988404279
 30
0.0
 10
334.6912098376632
 20
109.7334999436678
 30
0.0
 10
334.6430104562349
 20
109.8222644787755
 30
0.0
 10
334.5546924167995
 20
109.9995447802243
 30
0.0
 10
334.4156328000327
 20
110.3206306870694
 30
0.0
 10
334.2699601201706
 20
110.7072133389599
 30
0.0
 10
334.1562215251611
 20
111.0609210430899
 30
0.0
 10
334.0765159066146
 20
111.3431747427026
 30
0.0
 10
334.0258663342603
 20
111.5376181734769
 30
0.0
 10
333.9788996643949
 20
111.734859550411
 30
0.0
 10
333.9353398423905
 20
111.9347625955062
 30
0.0
 10
333.909692277259
 20
112.0694445352384
 30
0.0
 10
333.896847526669
 20
112.1368956135756
 30
0.0
  0
LINE
  5
D3
330
1F
100
AcDbEntity
  8
0
  6
Continuous
 62
     7
370
    25
100
AcDbLine
 10
334.8605638895
 20
109.5692160085
 30
0.0
 11
334.8078091222
 21
109.5699638605
 31
0.0
  0
SPLINE
  5
D4
330
1F
100
AcDbEntity
  8
0
  6
Continuous
 62
     7
370
    25
100
AcDbSpline
210
0.0
220
0.0
230
1.0
 70
     8
 71
     3
 72
    14
 73
    10
 74
     0
 42
0.000000001
 43
0.00000001
 40
0.0
 40
0.0
 40
0.0
 40
0.0
 40
0.0789261963172865
 40
0.158232872055133
 40
0.330847539457262
 40
0.5000195457610529
 40
0.6670357883572423
 40
0.8332395193657144
 40
1.0
 40
1.0
 40
1.0
 40
1.0
 10
334.80756743687
 20
109.8362394711926
 30
0.0
 10
334.8115819834661
 20
109.822936346555
 30
0.0
 10
334.8196304295782
 20
109.7962659669225
 30
0.0
 10
334.8345311363877
 20
109.7454512276027
 30
0.0
 10
334.8504281179842
 20
109.6884114114158
 30
0.0
 10
334.863506612982
 20
109.6341081946878
 30
0.0
 10
334.8697392200993
 20
109.595941051965
 30
0.0
 10
334.8695496402623
 20
109.5725323232881
 30
0.0
 10
334.8635627461316
 20
109.5703226686096
 30
0.0
 10
334.8605642937218
 20
109.5692159938879
 30
0.0
  0
SPLINE
  5
D5
330
1F
100
AcDbEntity
  8
0
  6
Continuous
 62
     7
370
    25
100
AcDbSpline
210
0.0
220
0.0
230
1.0
 70
     8
 71
     3
 72
     8
 73
     4
 74
     0
 42
0.000000001
 43
0.00000001
 40
0.0
 40
0.0
 40
0.0
 40
0.0
 40
1.0
 40
1.0
 40
1.0
 40
1.0
 10
334.9548721280945
 20
109.8341783927421
 30
0.0
 10
334.9058042130658
 20
109.8346654459541
 30
0.0
 10
334.8566947755449
 20
109.8353765138289
 30
0.0
 10
334.8075454310197
 20
109.8363120070633
 30
0.0
  0
SPLINE
  5
D6
330
1F
100
AcDbEntity
  8
0
  6
Continuous
 62
     7
370
    25
100
AcDbSpline
210
0.0
220
0.0
230
1.0
 70
     8
 71
     3
 72
    13
 73
     9
 74
     0
 42
0.000000001
 43
0.00000001
 40
0.0
 40
0.0
 40
0.0
 40
0.0
 40
0.1667030582307992
 40
0.3329480818053035
 40
0.4990671507274896
 40
0.6653938523718403
 40
0.832261271055009
 40
1.0
 40
1.0
 40
1.0
 40
1.0
 10
335.0132056602654
 20
109.7654648679582
 30
0.0
 10
335.0113623464285
 20
109.765881977724
 30
0.0
 10
335.0076807834587
 20
109.7667150512014
 30
0.0
 10
335.0001635296642
 20
109.7727295300278
 30
0.0
 10
334.9912127255477
 20
109.78222426232
 30
0.0
 10
334.9806624371247
 20
109.7956338694296
 30
0.0
 10
334.9686892516076
 20
109.8125517730532
 30
0.0
 10
334.9594828440012
 20
109.8269645081927
 30
0.0
 10
334.9548676535124
 20
109.8341896410542
 30
0.0
  0
SPLINE
  5
D7
330
1F
100
AcDbEntity
  8
0
  6
Continuous
 62
     7
370
    25
100
AcDbSpline
210
0.0
220
0.0
230
1.0
 70
     8
 71
     3
 72
    13
 73
     9
 74
     0
 42
0.000000001
 43
0.00000001
 40
0.0
 40
0.0
 40
0.0
 40
0.0
 40
0.1686319999748085
 40
0.3360343310905433
 40
0.502536782590866
 40
0.6684737453788339
 40
0.834182263691515
 40
1.0
 40
1.0
 40
1.0
 40
1.0
 10
356.580164510491
 20
109.834193090867
 30
0.0
 10
356.5755272653929
 20
109.8269359308476
 30
0.0
 10
356.5662865901064
 20
109.8124745302053
 30
0.0
 10
356.5542712167393
 20
109.7954938335012
 30
0.0
 10
356.5437056629847
 20
109.7820610523217
 30
0.0
 10
356.5347663136918
 20
109.7725815837677
 30
0.0
 10
356.5272854331032
 20
109.7666163580699
 30
0.0
 10
356.5236456258137
 20
109.7658487822855
 30
0.0
 10
356.52182512262
 20
109.7654648679582
 30
0.0
  0
SPLINE
  5
D8
330
1F
100
AcDbEntity
  8
0
  6
Continuous
 62
     7
370
    25
100
AcDbSpline
210
0.0
220
0.0
230
1.0
 70
     8
 71
     3
 72
     8
 73
     4
 74
     0
 42
0.000000001
 43
0.00000001
 40
0.0
 40
0.0
 40
0.0
 40
0.0
 40
1.0
 40
1.0
 40
1.0
 40
1.0
 10
356.7274901224635
 20
109.8363121118097
 30
0.0
 10
356.6783391928552
 20
109.8353765815477
 30
0.0
 10
356.6292281727759
 20
109.8346654910357
 30
0.0
 10
356.5801586778682
 20
109.8341784295377
 30
0.0
  0
SPLINE
  5
D9
330
1F
100
AcDbEntity
  8
0
  6
Continuous
 62
     7
370
    25
100
AcDbSpline
210
0.0
220
0.0
230
1.0
 70
     8
 71
     3
 72
    18
 73
    14
 74
     0
 42
0.000000001
 43
0.00000001
 40
0.0
 40
0.0
 40
0.0
 40
0.0
 40
0.0923325137111192
 40
0.1843692047063016
 40
0.2763458873810836
 40
0.3684982175655623
 40
0.4610598988303626
 40
0.554260954653301
 40
0.6483261285442131
 40
0.74347346365053
 40
0.8399130993119804
 40
0.9201660718299768
 40
1.0
 40
1.0
 40
1.0
 40
1.0
 10
356.6744664891635
 20
109.5692159938879
 30
0.0
 10
356.672630835511
 20
109.5694243061037
 30
0.0
 10
356.6689654094285
 20
109.5698402631271
 30
0.0
 10
356.6661700798062
 20
109.5766446865843
 30
0.0
 10
356.6653677847394
 20
109.5879780652702
 30
0.0
 10
356.6667339217386
 20
109.6042784601705
 30
0.0
 10
356.6701954705327
 20
109.6254296994807
 30
0.0
 10
356.6757367756791
 20
109.6514653988083
 30
0.0
 10
356.6833212461063
 20
109.6823897852309
 30
0.0
 10
356.6928982390868
 20
109.718188790959
 30
0.0
 10
356.7037495861126
 20
109.7564780360727
 30
0.0
 10
356.7152643477446
 20
109.7957836604893
 30
0.0
 10
356.7233960565656
 20
109.822740738383
 30
0.0
 10
356.7274512681734
 20
109.8361839958324
 30
0.0
  0
LINE
  5
DA
330
1F
100
AcDbEntity
  8
0
  6
Continuous
 62
     7
370
    25
100
AcDbLine
 10
356.7272216606
 20
109.5699638605
 30
0.0
 11
356.6744668934
 21
109.5692160085
 31
0.0
  0
SPLINE
  5
DB
330
1F
100
AcDbEntity
  8
0
  6
Continuous
 62
     7
370
    25
100
AcDbSpline
210
0.0
220
0.0
230
1.0
 70
     8
 71
     3
 72
    25
 73
    21
 74
     0
 42
0.000000001
 43
0.00000001
 40
0.0
 40
0.0
 40
0.0
 40
0.0
 40
0.0280105225422753
 40
0.0559601148854256
 40
0.0839014045034749
 40
0.1118870776777086
 40
0.1399695827579646
 40
0.1682008401731476
 40
0.1966319670417595
 40
0.2253130233137476
 40
0.2542927850735311
 40
0.3799486436564626
 40
0.5057850221666382
 40
0.631308588631066
 40
0.7532068238011618
 40
0.8039473267946936
 40
0.8535894438541253
 40
0.9025339722380873
 40
0.9511970353782256
 40
1.0
 40
1.0
 40
1.0
 40
1.0
 10
357.6381832562164
 20
112.1368956135756
 30
0.0
 10
357.6312041863055
 20
112.0995856000693
 30
0.0
 10
357.6172612277829
 20
112.0250467320766
 30
0.0
 10
357.5947393303402
 20
111.9137376865945
 30
0.0
 10
357.5711057182428
 20
111.8030754775808
 30
0.0
 10
357.546256127755
 20
111.6930913446369
 30
0.0
 10
357.5202375032688
 20
111.5837962010223
 30
0.0
 10
357.4930561219508
 20
111.4752052318198
 30
0.0
 10
357.4647304806182
 20
111.3673345218767
 30
0.0
 10
357.4352716997853
 20
111.2601895761506
 30
0.0
 10
357.3708634118738
 20
111.0360146896401
 30
0.0
 10
357.2657617198019
 20
110.7093492756041
 30
0.0
 10
357.1202989590067
 20
110.323402670286
 30
0.0
 10
356.981035550896
 20
110.0013228575934
 30
0.0
 10
356.8838871980288
 20
109.8055022735623
 30
0.0
 10
356.8235917918012
 20
109.6961548230758
 30
0.0
 10
356.7887032089201
 20
109.6382267986606
 30
0.0
 10
356.7608087069923
 20
109.5977728458957
 30
0.0
 10
356.7394436146205
 20
109.5731586304968
 30
0.0
 10
356.7312996670478
 20
109.5710297029892
 30
0.0
 10
356.7272218484027
 20
109.5699637113178
 30
0.0
  0
ARC
  5
DC
330
1F
100
AcDbEntity
  8
0
  6
Continuous
 62
     7
370
    25
100
AcDbCircle
 10
345.7675153914
 20
114.3242333561
 30
0.0
 40
12.07050959801147
100
AcDbArc
 50
349.5595567507
 51
10.4404432493
  0
SPLINE
  5
DD
330
1F
100
AcDbEntity
  8
0
  6
Continuous
 62
     7
370
    25
100
AcDbSpline
210
0.0
220
0.0
230
1.0
 70
     8
 71
     3
 72
    26
 73
    22
 74
     0
 42
0.000000001
 43
0.00000001
 40
0.0
 40
0.0
 40
0.0
 40
0.0
 40
0.0241259796962591
 40
0.0482159912271133
 40
0.0723203915121637
 40
0.0964895678708023
 40
0.1207736231960627
 40
0.1452220711240065
 40
0.1698835501655268
 40
0.1948055644470484
 40
0.220034256951649
 40
0.2456142191611191
 40
0.3690971486898426
 40
0.4940698769485092
 40
0.6192566784753767
 40
0.7454656653602836
 40
0.7971495824708205
 40
0.848171030839725
 40
0.8988013269227118
 40
0.9493179290486752
 40
1.0
 40
1.0
 40
1.0
 40
1.0
 10
356.7272218484027
 20
119.0785030009019
 30
0.0
 10
356.7291321631432
 20
119.0782161077125
 30
0.0
 10
356.7329499446353
 20
119.0776427490478
 30
0.0
 10
356.7409100698162
 20
119.0715840608013
 30
0.0
 10
356.7504891703916
 20
119.0617048000705
 30
0.0
 10
356.7618363772604
 20
119.0476237089601
 30
0.0
 10
356.7748925605542
 20
119.0294281609359
 30
0.0
 10
356.7896484637816
 20
119.0070776181972
 30
0.0
 10
356.8060756440789
 20
118.9805633825052
 30
0.0
 10
356.8241437987992
 20
118.9498678717919
 30
0.0
 10
356.8438209452222
 20
118.9149667685519
 30
0.0
 10
356.8920203266503
 20
118.8262022334447
 30
0.0
 10
356.9803383660857
 20
118.6489219319959
 30
0.0
 10
357.1193979828522
 20
118.3278360251515
 30
0.0
 10
357.2650706627145
 20
117.9412533732603
 30
0.0
 10
357.3788092577238
 20
117.5875456691314
 30
0.0
 10
357.4585148762703
 20
117.305291969519
 30
0.0
 10
357.5091644486244
 20
117.1108485387457
 30
0.0
 10
357.5561311184898
 20
116.9136071618116
 30
0.0
 10
357.5996909404945
 20
116.7137041167154
 30
0.0
 10
357.6253385056262
 20
116.5790221769821
 30
0.0
 10
357.6381832562164
 20
116.5115710986442
 30
0.0
  0
LINE
  5
DE
330
1F
100
AcDbEntity
  8
0
  6
Continuous
 62
     7
370
    25
100
AcDbLine
 10
356.6744668934
 20
119.0792507037
 30
0.0
 11
356.7272216606
 21
119.0785028517
 31
0.0
  0
SPLINE
  5
DF
330
1F
100
AcDbEntity
  8
0
  6
Continuous
 62
     7
370
    25
100
AcDbSpline
210
0.0
220
0.0
230
1.0
 70
     8
 71
     3
 72
    14
 73
    10
 74
     0
 42
0.000000001
 43
0.00000001
 40
0.0
 40
0.0
 40
0.0
 40
0.0
 40
0.0786889129232242
 40
0.1577561817122941
 40
0.3304686003115578
 40
0.4997364082435315
 40
0.6668472316653192
 40
0.8331450833767118
 40
1.0
 40
1.0
 40
1.0
 40
1.0
 10
356.7273747759403
 20
118.8125192091143
 30
0.0
 10
356.7233767669857
 20
118.8257691136301
 30
0.0
 10
356.715361525655
 20
118.8523326314984
 30
0.0
 10
356.7004888523655
 20
118.9030541592672
 30
0.0
 10
356.6846026876033
 20
118.960055238291
 30
0.0
 10
356.671524163959
 20
119.0143585339001
 30
0.0
 10
356.6652915643539
 20
119.0525256559374
 30
0.0
 10
356.6654811422303
 20
119.0759343900129
 30
0.0
 10
356.6714680366227
 20
119.078144043971
 30
0.0
 10
356.6744664891635
 20
119.0792507183318
 30
0.0
  0
SPLINE
  5
E0
330
1F
100
AcDbEntity
  8
0
  6
Continuous
 62
     7
370
    25
100
AcDbSpline
210
0.0
220
0.0
230
1.0
 70
     8
 71
     3
 72
     8
 73
     4
 74
     0
 42
0.000000001
 43
0.00000001
 40
0.0
 40
0.0
 40
0.0
 40
0.0
 40
1.0
 40
1.0
 40
1.0
 40
1.0
 10
356.6069194352575
 20
118.8141755490796
 30
0.0
 10
356.6470525537642
 20
118.8137445951323
 30
0.0
 10
356.6872132616927
 20
118.8131640921198
 30
0.0
 10
356.7274006790357
 20
118.8124338165603
 30
0.0
  0
SPLINE
  5
E1
330
1F
100
AcDbEntity
  8
0
  6
Continuous
 62
     7
370
    25
100
AcDbSpline
210
0.0
220
0.0
230
1.0
 70
     8
 71
     3
 72
    23
 73
    19
 74
     0
 42
0.000000001
 43
0.00000001
 40
0.0
 40
0.0
 40
0.0
 40
0.0
 40
0.0441308420121292
 40
0.0880968635211716
 40
0.1320155028408941
 40
0.1760048571434164
 40
0.2201827305793597
 40
0.2646656976937351
 40
0.3095682184569769
 40
0.355001836559425
 40
0.401074485474427
 40
0.4478899182339682
 40
0.4955472680213688
 40
0.5953670562452651
 40
0.6949121173401501
 40
0.7950007648984784
 40
0.8964386255170008
 40
1.0
 40
1.0
 40
1.0
 40
1.0
 10
356.0552063161224
 20
119.7746788730463
 30
0.0
 10
356.0571907062293
 20
119.7743960158163
 30
0.0
 10
356.0611520751142
 20
119.7738313577758
 30
0.0
 10
356.0700123793446
 20
119.767412004597
 30
0.0
 10
356.080984857467
 20
119.7568907550904
 30
0.0
 10
356.0942642554874
 20
119.7418592187807
 30
0.0
 10
356.1097749791538
 20
119.7224069737183
 30
0.0
 10
356.1275064409068
 20
119.6984869957662
 30
0.0
 10
356.1474230876099
 20
119.6700859050523
 30
0.0
 10
356.1694886216221
 20
119.6371781652517
 30
0.0
 10
356.1936595453162
 20
119.5997381825955
 30
0.0
 10
356.2198865553635
 20
119.5577381109656
 30
0.0
 10
356.2582231355945
 20
119.4944610024425
 30
0.0
 10
356.310555914973
 20
119.4044021400793
 30
0.0
 10
356.3789565261812
 20
119.2800560205125
 30
0.0
 10
356.4516416009766
 20
119.140342942532
 30
0.0
 10
356.5280018368766
 20
118.9860069273037
 30
0.0
 10
356.5802906515268
 20
118.8722842730759
 30
0.0
 10
356.6067058794303
 20
118.8148339397815
 30
0.0
  0
SPLINE
  5
E2
330
1F
100
AcDbEntity
  8
0
  6
Continuous
 62
     7
370
    25
100
AcDbSpline
210
0.0
220
0.0
230
1.0
 70
    11
 71
     3
 72
    39
 73
    35
 74
     0
 42
0.000000001
 43
0.00000001
 40
0.0
 40
0.0
 40
0.0
 40
0.0
 40
0.0310664058348413
 40
0.0621048158426138
 40
0.0931361551796939
 40
0.1235538293503726
 40
0.1538561545809849
 40
0.1850588072749156
 40
0.2160250992946587
 40
0.2471867223797568
 40
0.2784462884304475
 40
0.3100516090231247
 40
0.3419834369138969
 40
0.3734259894013238
 40
0.4048604886787081
 40
0.436874065183343
 40
0.4685120685926471
 40
0.499805535863323
 40
0.5309508213226204
 40
0.5618649784438111
 40
0.5930416446590877
 40
0.623374245013332
 40
0.6540913579072549
 40
0.6849496782718453
 40
0.7158160645166705
 40
0.7471731804043553
 40
0.7784514311866318
 40
0.810129591156098
 40
0.8419598919688388
 40
0.8735175891922303
 40
0.9050808037886594
 40
0.9370235169792582
 40
0.9687441590030581
 40
1.0
 40
1.0
 40
1.0
 40
1.0
 10
348.67164195624
 20
102.8926031723565
 30
0.0
 10
348.8613537851948
 20
102.931371749104
 30
0.0
 10
349.2050946356435
 20
103.007802694887
 30
0.0
 10
349.5880516228512
 20
103.0959422348802
 30
0.0
 10
349.8324920895662
 20
103.1428917215252
 30
0.0
 10
349.9134810263825
 20
103.1309827968114
 30
0.0
 10
349.8327585809008
 20
103.059024890096
 30
0.0
 10
349.5928963872811
 20
102.9345046238986
 30
0.0
 10
349.2162466531839
 20
102.7771356340734
 30
0.0
 10
348.710003716356
 20
102.6051115493784
 30
0.0
 10
348.0927293226727
 20
102.4401871417928
 30
0.0
 10
347.3802535085328
 20
102.3024745657143
 30
0.0
 10
346.6047882687602
 20
102.2108417532056
 30
0.0
 10
345.794323835146
 20
102.1775091751101
 30
0.0
 10
344.9818193621835
 20
102.2067566206634
 30
0.0
 10
344.2023063720463
 20
102.295085577651
 30
0.0
 10
343.4839780727109
 20
102.4305910772858
 30
0.0
 10
342.8606059653109
 20
102.5943675987771
 30
0.0
 10
342.3475073707153
 20
102.7663737429224
 30
0.0
 10
341.9623052608538
 20
102.9251857573935
 30
0.0
 10
341.7128806556128
 20
103.052444722559
 30
0.0
 10
341.6222786156664
 20
103.128051679514
 30
0.0
 10
341.6904901866256
 20
103.1448210761939
 30
0.0
 10
341.9227060530284
 20
103.1020407339786
 30
0.0
 10
342.2999230902126
 20
103.0149140490688
 30
0.0
 10
342.8116279579802
 20
102.9001849937618
 30
0.0
 10
343.4350990887271
 20
102.7807628487092
 30
0.0
 10
344.1516437918599
 20
102.6761373986599
 30
0.0
 10
344.9299749044708
 20
102.6054889057331
 30
0.0
 10
345.7418063913208
 20
102.579410081303
 30
0.0
 10
346.5555809133179
 20
102.6024356529938
 30
0.0
 10
347.3379547574834
 20
102.6706680911314
 30
0.0
 10
348.0599677922173
 20
102.7739152708412
 30
0.0
 10
348.4807733120663
 20
102.8535981945377
 30
0.0
 10
348.67164195624
 20
102.8926031723564
 30
0.0
  0
SPLINE
  5
E3
330
1F
100
AcDbEntity
  8
0
  6
Continuous
 62
     7
370
    25
100
AcDbSpline
210
0.0
220
0.0
230
1.0
 70
    11
 71
     3
 72
    39
 73
    35
 74
     0
 42
0.000000001
 43
0.00000001
 40
0.0
 40
0.0
 40
0.0
 40
0.0
 40
0.0312651429934057
 40
0.0629601069329321
 40
0.0948697276489808
 40
0.1264264963751833
 40
0.1579651393672472
 40
0.1898765439016956
 40
0.221552335268876
 40
0.2527844076550827
 40
0.2838418966734154
 40
0.3148645781100674
 40
0.3459127639308091
 40
0.3763475365526575
 40
0.4066751324671412
 40
0.4379141187435632
 40
0.4688932367345488
 40
0.5000738678969536
 40
0.5313369410958942
 40
0.5629183719104849
 40
0.5948445736343699
 40
0.6262809966135365
 40
0.6577486436587271
 40
0.6897584692806508
 40
0.7214430019610059
 40
0.7527623343195418
 40
0.7839279690572818
 40
0.8148885765585865
 40
0.8460375004982862
 40
0.8763409566916784
 40
0.906758919146387
 40
0.9378312724751761
 40
0.9689189660506093
 40
1.0
 40
1.0
 40
1.0
 40
1.0
 10
348.6715377064533
 20
125.755895592299
 30
0.0
 10
348.4804637701716
 20
125.7949595501797
 30
0.0
 10
348.059529207732
 20
125.8746785447398
 30
0.0
 10
347.3381398025683
 20
125.9777939600902
 30
0.0
 10
346.5564837542779
 20
126.0459948325142
 30
0.0
 10
345.7433960345671
 20
126.069051725156
 30
0.0
 10
344.931115817715
 20
126.0430674515099
 30
0.0
 10
344.1524853926656
 20
125.9724772862717
 30
0.0
 10
343.4358096027541
 20
125.8678617240325
 30
0.0
 10
342.8139343330925
 20
125.7486893990161
 30
0.0
 10
342.3044233996067
 20
125.6347522312898
 30
0.0
 10
341.9293040533624
 20
125.5486379523434
 30
0.0
 10
341.6933434785115
 20
125.5045822310075
 30
0.0
 10
341.6219429353299
 20
125.5201120317187
 30
0.0
 10
341.7125393651277
 20
125.5956209139026
 30
0.0
 10
341.9615156454872
 20
125.7227944417468
 30
0.0
 10
342.34643046533
 20
125.8816451203591
 30
0.0
 10
342.8592157721521
 20
126.0536693815691
 30
0.0
 10
343.481674895077
 20
126.2173424611038
 30
0.0
 10
344.1981750398835
 20
126.352744034484
 30
0.0
 10
344.9762740739936
 20
126.4412617019668
 30
0.0
 10
345.7879967626405
 20
126.4709691104496
 30
0.0
 10
346.5994389503418
 20
126.4380826657995
 30
0.0
 10
347.3765648418239
 20
126.3466017577548
 30
0.0
 10
348.0910029309944
 20
126.2087175677933
 30
0.0
 10
348.7092258892299
 20
126.0435897429434
 30
0.0
 10
349.2155932499558
 20
125.8715392055908
 30
0.0
 10
349.5921457713694
 20
125.7142556838806
 30
0.0
 10
349.8318415828008
 20
125.5898518863966
 30
0.0
 10
349.9133082909951
 20
125.5176637129603
 30
0.0
 10
349.8332490485033
 20
125.5053912045822
 30
0.0
 10
349.5889030425495
 20
125.5522866150883
 30
0.0
 10
349.2059296091006
 20
125.6404201632339
 30
0.0
 10
348.8614864778907
 20
125.7170616678438
 30
0.0
 10
348.6715377064532
 20
125.755895592299
 30
0.0
  0
SPLINE
  5
E4
330
1F
100
AcDbEntity
  8
0
  6
Continuous
 62
     7
370
    25
100
AcDbSpline
210
0.0
220
0.0
230
1.0
 70
     8
 71
     3
 72
    23
 73
    19
 74
     0
 42
0.000000001
 43
0.00000001
 40
0.0
 40
0.0
 40
0.0
 40
0.0
 40
0.0449850911516383
 40
0.0909520670767777
 40
0.1379394291255006
 40
0.1859832248910951
 40
0.2351171761689533
 40
0.2853728096402591
 40
0.3367795876576951
 40
0.3893650370792399
 40
0.4431548745925064
 40
0.498173127394291
 40
0.5575107590849617
 40
0.6265492281305397
 40
0.7053073138942775
 40
0.7937970253739629
 40
0.8920262115920568
 40
1.0
 40
1.0
 40
1.0
 40
1.0
 10
335.8765736798854
 20
119.3542333561099
 30
0.0
 10
335.8744109905199
 20
119.3538044544503
 30
0.0
 10
335.8700384069993
 20
119.3529372895405
 30
0.0
 10
335.8597574478079
 20
119.3458437219395
 30
0.0
 10
335.8466971697779
 20
119.3342309803605
 30
0.0
 10
335.8305780082238
 20
119.3174416101879
 30
0.0
 10
335.8114775805678
 20
119.2953696235732
 30
0.0
 10
335.7893752278119
 20
119.2677721498099
 30
0.0
 10
335.7642747492762
 20
119.2344637186005
 30
0.0
 10
335.7361836178982
 20
119.1952633801938
 30
0.0
 10
335.7050677170462
 20
119.1500213347205
 30
0.0
 10
335.670428786164
 20
119.0976254023313
 30
0.0
 10
335.6297072778852
 20
119.0348429341121
 30
0.0
 10
335.5809863568605
 20
118.9570859348535
 30
0.0
 10
335.5232120185426
 20
118.8598013772749
 30
0.0
 10
335.4563013688975
 20
118.7400565435559
 30
0.0
 10
335.3803574046041
 20
118.5961363386516
 30
0.0
 10
335.3259962399189
 20
118.4854021337586
 30
0.0
 10
335.2975311758044
 20
118.4274185298348
 30
0.0
  0
LINE
  5
E5
330
1F
100
AcDbEntity
  8
0
  6
Continuous
 62
     7
370
    25
100
AcDbLine
 10
335.2975311283
 20
118.4279446967
 30
0.0
 11
334.9281918782
 21
118.8140295923
 31
0.0
  0
LINE
  5
E6
330
1F
100
AcDbEntity
  8
0
  6
Continuous
 62
     7
370
    25
100
AcDbLine
 10
356.6068063084
 20
118.8139699876
 30
0.0
 11
356.2375397015
 21
118.4279619262
 31
0.0
  0
SPLINE
  5
E7
330
1F
100
AcDbEntity
  8
0
  6
Continuous
 62
     7
370
    25
100
AcDbSpline
210
0.0
220
0.0
230
1.0
 70
     8
 71
     3
 72
    26
 73
    22
 74
     0
 42
0.000000001
 43
0.00000001
 40
0.0
 40
0.0
 40
0.0
 40
0.0
 40
0.0509383868653979
 40
0.0998291548270505
 40
0.1466728126490638
 40
0.1914699456369332
 40
0.2342212299774179
 40
0.274927450668867
 40
0.3135895241747119
 40
0.3502085273716571
 40
0.3847857350077695
 40
0.4173226688482998
 40
0.4478211631571791
 40
0.4762834534603437
 40
0.5027122992246547
 40
0.593906700502561
 40
0.6816015993191188
 40
0.7659159552051488
 40
0.846983628966416
 40
0.9249552229440475
 40
1.0
 40
1.0
 40
1.0
 40
1.0
 10
356.2375400917493
 20
118.427227799585
 30
0.0
 10
356.2240822275512
 20
118.4548485807494
 30
0.0
 10
356.1977074777535
 20
118.5089798442026
 30
0.0
 10
356.1593352979746
 20
118.5852878812778
 30
0.0
 10
356.1228691154823
 20
118.6560400608696
 30
0.0
 10
356.0883328658585
 20
118.7212118875577
 30
0.0
 10
356.0557204140057
 20
118.7810701328094
 30
0.0
 10
356.0250331302128
 20
118.8358352923508
 30
0.0
 10
355.9962705139116
 20
118.8857596836628
 30
0.0
 10
355.9694323494393
 20
118.9311019142579
 30
0.0
 10
355.944518769011
 20
118.9721278531987
 30
0.0
 10
355.9215281222224
 20
119.0091052381458
 30
0.0
 10
355.9004646167327
 20
119.0423013541291
 30
0.0
 10
355.8813122463534
 20
119.0719770863964
 30
0.0
 10
355.8496411694086
 20
119.1206474114461
 30
0.0
 10
355.8081712239721
 20
119.1825427293649
 30
0.0
 10
355.7611817078283
 20
119.2478833367886
 30
0.0
 10
355.7225631381133
 20
119.2970017280804
 30
0.0
 10
355.6925146783921
 20
119.3304780165926
 30
0.0
 10
355.6702245674228
 20
119.3505954488306
 30
0.0
 10
355.6623292519895
 20
119.3530362826802
 30
0.0
 10
355.6584571029999
 20
119.3542333561099
 30
0.0
  0
SPLINE
  5
E8
330
1F
100
AcDbEntity
  8
0
  6
Continuous
 62
     7
370
    25
100
AcDbSpline
210
0.0
220
0.0
230
1.0
 70
     8
 71
     3
 72
     8
 73
     4
 74
     0
 42
0.000000001
 43
0.00000001
 40
0.0
 40
0.0
 40
0.0
 40
0.0
 40
1.0
 40
1.0
 40
1.0
 40
1.0
 10
353.5091958432431
 20
118.5472316825926
 30
0.0
 10
353.5727888235831
 20
118.4815629047458
 30
0.0
 10
353.6367452500184
 20
118.4172206070856
 30
0.0
 10
353.7009441697258
 20
118.3554833561099
 30
0.0
  0
SPLINE
  5
E9
330
1F
100
AcDbEntity
  8
0
  6
Continuous
 62
     7
370
    25
100
AcDbSpline
210
0.0
220
0.0
230
1.0
 70
     8
 71
     3
 72
    25
 73
    21
 74
     0
 42
0.000000001
 43
0.00000001
 40
0.0
 40
0.0
 40
0.0
 40
0.0
 40
0.0367725003254103
 40
0.074208401060063
 40
0.1123590542807964
 40
0.1512729822568881
 40
0.190995910016845
 40
0.2315708273504481
 40
0.2730380740418892
 40
0.3154354426077851
 40
0.3587982934432034
 40
0.4031596779810961
 40
0.4485504661847858
 40
0.494999475376923
 40
0.5532504315673752
 40
0.621829488573267
 40
0.7007739996560722
 40
0.7901076726660372
 40
0.8898461547533933
 40
1.0
 40
1.0
 40
1.0
 40
1.0
 10
353.0672746559316
 20
119.3542333561095
 30
0.0
 10
353.0674984299964
 20
119.3539086684758
 30
0.0
 10
353.0679500151593
 20
119.353253435627
 30
0.0
 10
353.0726670550316
 20
119.3478910638392
 30
0.0
 10
353.0803196641143
 20
119.3391354701388
 30
0.0
 10
353.0912126432512
 20
119.3265112520469
 30
0.0
 10
353.105261229667
 20
119.3099549139165
 30
0.0
 10
353.1224881272763
 20
119.2892977365387
 30
0.0
 10
353.1428866800577
 20
119.2644100005709
 30
0.0
 10
353.1664574933499
 20
119.2351624543775
 30
0.0
 10
353.1932028419096
 20
119.201439519181
 30
0.0
 10
353.2231106953419
 20
119.1631337040556
 30
0.0
 10
353.2562267876864
 20
119.1201628087176
 30
0.0
 10
353.2951527092604
 20
119.0687415270469
 30
0.0
 10
353.343980788977
 20
119.0045252953578
 30
0.0
 10
353.4059013935781
 20
118.9216307662632
 30
0.0
 10
353.4802859518991
 20
118.8176850160487
 30
0.0
 10
353.5672603798876
 20
118.6895988057915
 30
0.0
 10
353.6666852298702
 20
118.5355090258852
 30
0.0
 10
353.7381044055996
 20
118.4174447900147
 30
0.0
 10
353.7755859892806
 20
118.3554833561099
 30
0.0
  0
LINE
  5
EA
330
1F
100
AcDbEntity
  8
0
  6
Continuous
 62
     7
370
    25
100
AcDbLine
 10
353.7755856815
 20
118.3554831438
 30
0.0
 11
353.7009439025
 21
118.3554831438
 31
0.0
  0
SPLINE
  5
EB
330
1F
100
AcDbEntity
  8
0
  6
Continuous
 62
     7
370
    25
100
AcDbSpline
210
0.0
220
0.0
230
1.0
 70
     8
 71
     3
 72
    23
 73
    19
 74
     0
 42
0.000000001
 43
0.00000001
 40
0.0
 40
0.0
 40
0.0
 40
0.0
 40
0.0511129009857221
 40
0.1016896331838983
 40
0.1518293139104713
 40
0.201633670189439
 40
0.2512064936754081
 40
0.3006530343006331
 40
0.3500793489716449
 40
0.3995916247932065
 40
0.4492954981442684
 40
0.4992953912354716
 40
0.5872572780521574
 40
0.6724255494349275
 40
0.7555067762540824
 40
0.8372616735271673
 40
0.9184882400167564
 40
1.0
 40
1.0
 40
1.0
 40
1.0
 10
353.5092585193685
 20
118.5474743986877
 30
0.0
 10
353.4932429354679
 20
118.5766030009186
 30
0.0
 10
353.461379769405
 20
118.6345546495025
 30
0.0
 10
353.4143359309862
 20
118.7173124847207
 30
0.0
 10
353.3683574068112
 20
118.7964013432049
 30
0.0
 10
353.3235767400076
 20
118.8716183311391
 30
0.0
 10
353.2800929755717
 20
118.9430813861848
 30
0.0
 10
353.2380070119871
 20
119.0108227903731
 30
0.0
 10
353.1974125475897
 20
119.0748963021181
 30
0.0
 10
353.1583976412394
 20
119.1353499011893
 30
0.0
 10
353.121047818752
 20
119.1922274061176
 30
0.0
 10
353.0765195621599
 20
119.2589418791781
 30
0.0
 10
353.0278793016188
 20
119.3302621630426
 30
0.0
 10
352.9800402018629
 20
119.3988424155016
 30
0.0
 10
352.942388689782
 20
119.4518587435438
 30
0.0
 10
352.9155659883946
 20
119.4891313996713
 30
0.0
 10
352.898837157571
 20
119.5121687992513
 30
0.0
 10
352.8969887476071
 20
119.5147035245166
 30
0.0
 10
352.8960629229867
 20
119.51597310816
 30
0.0
  0
SPLINE
  5
EC
330
1F
100
AcDbEntity
  8
0
  6
Continuous
 62
     7
370
    25
100
AcDbSpline
210
0.0
220
0.0
230
1.0
 70
     8
 71
     3
 72
     8
 73
     4
 74
     0
 42
0.000000001
 43
0.00000001
 40
0.0
 40
0.0
 40
0.0
 40
0.0
 40
1.0
 40
1.0
 40
1.0
 40
1.0
 10
356.1714080385147
 20
118.3554833561097
 30
0.0
 10
356.1932934101579
 20
118.3798043723074
 30
0.0
 10
356.2151787818011
 20
118.4038289706299
 30
0.0
 10
356.2370641534442
 20
118.4275358227184
 30
0.0
  0
LINE
  5
ED
330
1F
100
AcDbEntity
  8
0
  6
Continuous
 62
     7
370
    25
100
AcDbLine
 10
356.1712481606
 20
118.3554831438
 30
0.0
 11
353.7755856815
 21
118.3554831438
 31
0.0
  0
SPLINE
  5
EE
330
1F
100
AcDbEntity
  8
0
  6
Continuous
 62
     7
370
    25
100
AcDbSpline
210
0.0
220
0.0
230
1.0
 70
     8
 71
     3
 72
     8
 73
     4
 74
     0
 42
0.000000001
 43
0.00000001
 40
0.0
 40
0.0
 40
0.0
 40
0.0
 40
1.0
 40
1.0
 40
1.0
 40
1.0
 10
335.2978724036164
 20
118.4276393901985
 30
0.0
 10
335.319789176104
 20
118.4038989416394
 30
0.0
 10
335.3417059485915
 20
118.3798397898528
 30
0.0
 10
335.3636227210791
 20
118.3554833561099
 30
0.0
  0
SPLINE
  5
EF
330
1F
100
AcDbEntity
  8
0
  6
Continuous
 62
     7
370
    25
100
AcDbSpline
210
0.0
220
0.0
230
1.0
 70
     8
 71
     3
 72
    26
 73
    22
 74
     0
 42
0.000000001
 43
0.00000001
 40
0.0
 40
0.0
 40
0.0
 40
0.0
 40
0.0524616379932503
 40
0.1026498591890872
 40
0.150565513457809
 40
0.1962095861957063
 40
0.2395832262568645
 40
0.2806877815599511
 40
0.3195248450380211
 40
0.3560963147430692
 40
0.3904044736547445
 40
0.4224520974433627
 40
0.4522426027417772
 40
0.4797802555366611
 40
0.5050704712281336
 40
0.5966394156799991
 40
0.6841917884819224
 40
0.7679874773571101
 40
0.8483228539139507
 40
0.925534163520116
 40
1.0
 40
1.0
 40
1.0
 40
1.0
 10
337.7592672355266
 20
118.3554982481276
 30
0.0
 10
337.7771287198149
 20
118.3852717081687
 30
0.0
 10
337.8120776637907
 20
118.443528400062
 30
0.0
 10
337.8628424972727
 20
118.5257273804266
 30
0.0
 10
337.9109124549145
 20
118.6018082493274
 30
0.0
 10
337.9562564276794
 20
118.6717595977937
 30
0.0
 10
337.9988824071847
 20
118.7358667597457
 30
0.0
 10
338.0387887056938
 20
118.7943745992159
 30
0.0
 10
338.0759760348091
 20
118.8475631768379
 30
0.0
 10
338.1104448574
 20
118.895721217075
 30
0.0
 10
338.1421949460322
 20
118.9391458903513
 30
0.0
 10
338.1712293506334
 20
118.9781359814482
 30
0.0
 10
338.1975406398345
 20
119.0129900799747
 30
0.0
 10
338.2211572693786
 20
119.0439950744252
 30
0.0
 10
338.2608029483845
 20
119.0962382930581
 30
0.0
 10
338.3123412451836
 20
119.1637676263154
 30
0.0
 10
338.3691673821647
 20
119.2359610725239
 30
0.0
 10
338.4133248101277
 20
119.2904450286464
 30
0.0
 10
338.4445024330697
 20
119.3277098198148
 30
0.0
 10
338.4639619997089
 20
119.3501741720895
 30
0.0
 10
338.4661035973893
 20
119.3528967215167
 30
0.0
 10
338.467155013946
 20
119.3542333561099
 30
0.0
  0
LINE
  5
F0
330
1F
100
AcDbEntity
  8
0
  6
Continuous
 62
     7
370
    25
100
AcDbLine
 10
337.7592672187
 20
118.3554831438
 30
0.0
 11
335.3636224348
 21
118.3554831438
 31
0.0
  0
LINE
  5
F1
330
1F
100
AcDbEntity
  8
0
  6
Continuous
 62
     7
370
    25
100
AcDbLine
 10
337.8340868804
 20
118.3554831438
 30
0.0
 11
337.7589673329
 21
118.3554831438
 31
0.0
  0
SPLINE
  5
F2
330
1F
100
AcDbEntity
  8
0
  6
Continuous
 62
     7
370
    25
100
AcDbSpline
210
0.0
220
0.0
230
1.0
 70
     8
 71
     3
 72
     8
 73
     4
 74
     0
 42
0.000000001
 43
0.00000001
 40
0.0
 40
0.0
 40
0.0
 40
0.0
 40
1.0
 40
1.0
 40
1.0
 40
1.0
 10
337.8340866131596
 20
118.3554833561098
 30
0.0
 10
337.8979954158195
 20
118.4174522195409
 30
0.0
 10
337.9617703351714
 20
118.4814282846576
 30
0.0
 10
338.0251304010524
 20
118.5469629410033
 30
0.0
  0
SPLINE
  5
F3
330
1F
100
AcDbEntity
  8
0
  6
Continuous
 62
     7
370
    25
100
AcDbSpline
210
0.0
220
0.0
230
1.0
 70
     8
 71
     3
 72
    24
 73
    20
 74
     0
 42
0.000000001
 43
0.00000001
 40
0.0
 40
0.0
 40
0.0
 40
0.0
 40
0.0410257106287842
 40
0.0818520099077639
 40
0.1225800578354648
 40
0.1633117464058233
 40
0.2041489402806705
 40
0.2451927184749161
 40
0.2865426449235763
 40
0.3282960933646444
 40
0.370547647549383
 40
0.4133885920102291
 40
0.4569065022351533
 40
0.5011849368587563
 40
0.6001856774947433
 40
0.6987388860447942
 40
0.7976800645453981
 40
0.8978349910029445
 40
1.0
 40
1.0
 40
1.0
 40
1.0
 10
338.6387132069272
 20
119.5156234374413
 30
0.0
 10
338.6385184434861
 20
119.5153560872838
 30
0.0
 10
338.6381298632797
 20
119.5148226864625
 30
0.0
 10
338.6340750756053
 20
119.5092509404634
 30
0.0
 10
338.6274811166255
 20
119.5001701913096
 30
0.0
 10
338.6181168557156
 20
119.4872327309488
 30
0.0
 10
338.6060687419455
 20
119.470514288043
 30
0.0
 10
338.5913461724851
 20
119.4499722772712
 30
0.0
 10
338.5739871796378
 20
119.4255909032244
 30
0.0
 10
338.5540300084845
 20
119.3973421591526
 30
0.0
 10
338.531520958789
 20
119.3651966117515
 30
0.0
 10
338.5065117230275
 20
119.3291197717853
 30
0.0
 10
338.4790623535027
 20
119.2890761792659
 30
0.0
 10
338.4371392404355
 20
119.2271557359247
 30
0.0
 10
338.3779330652243
 20
119.1378432448281
 30
0.0
 10
338.298153472104
 20
119.0132986527995
 30
0.0
 10
338.2121726871176
 20
118.8735138603097
 30
0.0
 10
338.1208878998956
 20
118.7191010413236
 30
0.0
 10
338.0576835458376
 20
118.6050550196727
 30
0.0
 10
338.025767395872
 20
118.5474654756574
 30
0.0
  0
LINE
  5
F4
330
1F
100
AcDbEntity
  8
0
  6
Continuous
 62
     7
370
    25
100
AcDbLine
 10
334.95487427
 20
109.8341782123
 30
0.0
 11
335.3791121918
 21
110.2829713851
 31
0.0
  0
SPLINE
  5
F5
330
1F
100
AcDbEntity
  8
0
  6
Continuous
 62
     7
370
    25
100
AcDbSpline
210
0.0
220
0.0
230
1.0
 70
     8
 71
     3
 72
    13
 73
     9
 74
     0
 42
0.000000001
 43
0.00000001
 40
0.0
 40
0.0
 40
0.0
 40
0.0
 40
0.170632084649598
 40
0.3395984165075754
 40
0.5069574111411415
 40
0.6727691830249297
 40
0.8370955447763889
 40
1.0
 40
1.0
 40
1.0
 40
1.0
 10
335.3791119043204
 20
110.2829506145806
 30
0.0
 10
335.3841173747292
 20
110.2759992414992
 30
0.0
 10
335.3940794509015
 20
110.2621643563671
 30
0.0
 10
335.4069532787934
 20
110.2460365979102
 30
0.0
 10
335.4182195912894
 20
110.2333678677512
 30
0.0
 10
335.4276969547246
 20
110.2245114299122
 30
0.0
 10
335.4355791874194
 20
110.2189994014324
 30
0.0
 10
335.4393940936528
 20
110.2183210553516
 30
0.0
 10
335.4412932583691
 20
110.2179833561099
 30
0.0
  0
SPLINE
  5
F6
330
1F
100
AcDbEntity
  8
0
  6
Continuous
 62
     7
370
    25
100
AcDbSpline
210
0.0
220
0.0
230
1.0
 70
     8
 71
     3
 72
    13
 73
     9
 74
     0
 42
0.000000001
 43
0.00000001
 40
0.0
 40
0.0
 40
0.0
 40
0.0
 40
0.1621004456571512
 40
0.325943455157606
 40
0.4915935308260523
 40
0.6591130873964648
 40
0.8285624736043361
 40
1.0
 40
1.0
 40
1.0
 40
1.0
 10
356.0937375245163
 20
110.2179833561099
 30
0.0
 10
356.0956146308585
 20
110.2183178392105
 30
0.0
 10
356.0993890222514
 20
110.2189904010722
 30
0.0
 10
356.1072360994303
 20
110.2244636854678
 30
0.0
 10
356.1167021592054
 20
110.2332831501282
 30
0.0
 10
356.1279830740078
 20
110.2459359071221
 30
0.0
 10
356.1408976925055
 20
110.2620879085186
 30
0.0
 10
356.1508934067512
 20
110.2759737084616
 30
0.0
 10
356.1559204126628
 20
110.2829571012122
 30
0.0
  0
LINE
  5
F7
330
1F
100
AcDbEntity
  8
0
  6
Continuous
 62
     7
370
    25
100
AcDbLine
 10
356.1559334922
 20
110.2829574153
 30
0.0
 11
356.5801555816
 21
109.8341782123
 31
0.0
  0
LINE
  5
F8
330
1F
100
AcDbEntity
  8
0
  6
Continuous
 62
     7
370
    25
100
AcDbLine
 10
353.7009439025
 20
110.2929835685
 30
0.0
 11
353.7096657384
 21
110.2929835685
 31
0.0
  0
SPLINE
  5
F9
330
1F
100
AcDbEntity
  8
0
  6
Continuous
 62
     7
370
    25
100
AcDbSpline
210
0.0
220
0.0
230
1.0
 70
     8
 71
     3
 72
     8
 73
     4
 74
     0
 42
0.000000001
 43
0.00000001
 40
0.0
 40
0.0
 40
0.0
 40
0.0
 40
1.0
 40
1.0
 40
1.0
 40
1.0
 10
356.1559334536557
 20
110.2829577142795
 30
0.0
 10
356.1537499694146
 20
110.2858063797958
 30
0.0
 10
356.1515664851735
 20
110.2887471711933
 30
0.0
 10
356.1493830009323
 20
110.2917796684699
 30
0.0
  0
LINE
  5
FA
330
1F
100
AcDbEntity
  8
0
  6
Continuous
 62
     7
370
    25
100
AcDbLine
 10
356.1484801177
 20
110.2929835685
 30
0.0
 11
353.7096694637
 21
110.2929835685
 31
0.0
  0
SPLINE
  5
FB
330
1F
100
AcDbEntity
  8
0
  6
Continuous
 62
     7
370
    25
100
AcDbSpline
210
0.0
220
0.0
230
1.0
 70
     8
 71
     3
 72
     8
 73
     4
 74
     0
 42
0.000000001
 43
0.00000001
 40
0.0
 40
0.0
 40
0.0
 40
0.0
 40
1.0
 40
1.0
 40
1.0
 40
1.0
 10
335.3865505483625
 20
110.2929833561175
 30
0.0
 10
335.3840646296759
 20
110.2895216568055
 30
0.0
 10
335.3815787109895
 20
110.2861775048966
 30
0.0
 10
335.3790927923029
 20
110.2829515129562
 30
0.0
  0
LINE
  5
FC
330
1F
100
AcDbEntity
  8
0
  6
Continuous
 62
     7
370
    25
100
AcDbLine
 10
337.8238544393
 20
110.2929835685
 30
0.0
 11
335.3867667321
 21
110.2929835685
 31
0.0
  0
LINE
  5
FD
330
1F
100
AcDbEntity
  8
0
  6
Continuous
 62
     7
370
    25
100
AcDbLine
 10
337.8253641132
 20
110.2929835685
 30
0.0
 11
337.8340868804
 21
110.2929835685
 31
0.0
  0
SPLINE
  5
FE
330
1F
100
AcDbEntity
  8
0
  6
Continuous
 62
     7
370
    25
100
AcDbSpline
210
0.0
220
0.0
230
1.0
 70
     8
 71
     3
 72
    14
 73
    10
 74
     0
 42
0.000000001
 43
0.00000001
 40
0.0
 40
0.0
 40
0.0
 40
0.0
 40
0.0310276388071746
 40
0.0622853718672815
 40
0.1248003166904892
 40
0.2498289731753984
 40
0.499889260361071
 40
0.7606803621682141
 40
1.0
 40
1.0
 40
1.0
 40
1.0
 10
334.8074213969835
 20
109.8362451814945
 30
0.0
 10
334.8117506904487
 20
109.8410291037726
 30
0.0
 10
334.8204413824822
 20
109.8506324248609
 30
0.0
 10
334.8378421611443
 20
109.8699267388587
 30
0.0
 10
334.8683183209893
 20
109.9036916853123
 30
0.0
 10
334.9291397138086
 20
109.9711104441741
 30
0.0
 10
335.0170300562219
 20
110.068577119041
 30
0.0
 10
335.1198677363054
 20
110.1827216309379
 30
0.0
 10
335.1870738477471
 20
110.2575064439445
 30
0.0
 10
335.219234209394
 20
110.2932934665887
 30
0.0
  0
LINE
  5
FF
330
1F
100
AcDbEntity
  8
0
  6
Continuous
 62
     7
370
    25
100
AcDbLine
 10
335.2189060825
 20
110.2929835685
 30
0.0
 11
335.3865506652
 21
110.2929835685
 31
0.0
  0
LINE
  5
100
330
1F
100
AcDbEntity
  8
0
  6
Continuous
 62
     7
370
    25
100
AcDbLine
 10
356.1484801177
 20
110.2929835685
 30
0.0
 11
356.3161321509
 21
110.2929835685
 31
0.0
  0
SPLINE
  5
101
330
1F
100
AcDbEntity
  8
0
  6
Continuous
 62
     7
370
    25
100
AcDbSpline
210
0.0
220
0.0
230
1.0
 70
     8
 71
     3
 72
    11
 73
     7
 74
     0
 42
0.000000001
 43
0.00000001
 40
0.0
 40
0.0
 40
0.0
 40
0.0
 40
0.2392913844325938
 40
0.5001130135003002
 40
0.7515028526498353
 40
0.9999999999999999
 40
0.9999999999999999
 40
0.9999999999999999
 40
0.9999999999999999
 10
356.315828644113
 20
110.2932701586214
 30
0.0
 10
356.3479851970928
 20
110.2574934400441
 30
0.0
 10
356.4151915892183
 20
110.1827209922885
 30
0.0
 10
356.5182196789658
 20
110.0682622789657
 30
0.0
 10
356.6233103435828
 20
109.9521030928458
 30
0.0
 10
356.6929851636626
 20
109.8747151515502
 30
0.0
 10
356.7276209803563
 20
109.8362450909752
 30
0.0
  0
LINE
  5
102
330
1F
100
AcDbEntity
  8
0
  6
Continuous
 62
     7
370
    25
100
AcDbLine
 10
335.3636224348
 20
118.3554831438
 30
0.0
 11
335.2190504375
 21
118.3554831438
 31
0.0
  0
SPLINE
  5
103
330
1F
100
AcDbEntity
  8
0
  6
Continuous
 62
     7
370
    25
100
AcDbSpline
210
0.0
220
0.0
230
1.0
 70
     8
 71
     3
 72
    11
 73
     7
 74
     0
 42
0.000000001
 43
0.00000001
 40
0.0
 40
0.0
 40
0.0
 40
0.0
 40
0.2392845094479873
 40
0.5001120454076898
 40
0.7515010915036774
 40
1.0
 40
1.0
 40
1.0
 40
1.0
 10
335.219353047233
 20
118.3551975699132
 30
0.0
 10
335.1871919174631
 20
118.3909954189751
 30
0.0
 10
335.1199741588669
 20
118.4658140336728
 30
0.0
 10
335.0169295103688
 20
118.580342297928
 30
0.0
 10
334.911821281482
 20
118.6965732916023
 30
0.0
 10
334.8421357648547
 20
118.7740077872934
 30
0.0
 10
334.8074944524149
 20
118.8125011886294
 30
0.0
  0
SPLINE
  5
104
330
1F
100
AcDbEntity
  8
0
  6
Continuous
 62
     7
370
    25
100
AcDbSpline
210
0.0
220
0.0
230
1.0
 70
     8
 71
     3
 72
    14
 73
    10
 74
     0
 42
0.000000001
 43
0.00000001
 40
0.0
 40
0.0
 40
0.0
 40
0.0
 40
0.031029414748255
 40
0.0622870907562092
 40
0.1248019217225762
 40
0.249830351143087
 40
0.4998901825554788
 40
0.7606872170552411
 40
1.0
 40
1.0
 40
1.0
 40
1.0
 10
356.7275247151453
 20
118.8125010803533
 30
0.0
 10
356.7231945188296
 20
118.8077138937833
 30
0.0
 10
356.7145022720346
 20
118.7981043047281
 30
0.0
 10
356.6970986436871
 20
118.7787983110222
 30
0.0
 10
356.666617908152
 20
118.7450130953702
 30
0.0
 10
356.6057872864298
 20
118.6775539644227
 30
0.0
 10
356.5178823832632
 20
118.5800274587124
 30
0.0
 10
356.4150281386462
 20
118.4658134519379
 30
0.0
 10
356.3478106804998
 20
118.3909824918329
 30
0.0
 10
356.3156457510975
 20
118.3551743459247
 30
0.0
  0
LINE
  5
105
330
1F
100
AcDbEntity
  8
0
  6
Continuous
 62
     7
370
    25
100
AcDbLine
 10
356.3159728948
 20
118.3554831438
 30
0.0
 11
356.1714083481
 21
118.3554831438
 31
0.0
  0
LINE
  5
106
330
1F
100
AcDbEntity
  8
0
  6
Continuous
 62
     7
370
    25
100
AcDbLine
 10
333.8968471217
 20
112.1368956298
 30
0.0
 11
334.3369100768
 21
112.2179833252
 31
0.0
  0
SPLINE
  5
107
330
1F
100
AcDbEntity
  8
0
  6
Continuous
 62
     7
370
    25
100
AcDbSpline
210
0.0
220
0.0
230
1.0
 70
     8
 71
     3
 72
    25
 73
    21
 74
     0
 42
0.000000001
 43
0.00000001
 40
0.0
 40
0.0
 40
0.0
 40
0.0
 40
0.0274788704223154
 40
0.0560416006850518
 40
0.0856947086352136
 40
0.116444016653826
 40
0.1482947438681133
 40
0.1812515840470034
 40
0.2153187716748716
 40
0.2505001382254911
 40
0.333051455250936
 40
0.5015081958163736
 40
0.5771663066143947
 40
0.648898130302521
 40
0.716747770006283
 40
0.7807674423488066
 40
0.84101941313403
 40
0.8975784849924567
 40
0.9505352047788314
 40
1.0
 40
1.0
 40
1.0
 40
1.0
 10
334.3369101840315
 20
112.2179833561099
 30
0.0
 10
334.3436183513749
 20
112.1888011515924
 30
0.0
 10
334.3572992789316
 20
112.1292856974436
 30
0.0
 10
334.3800640075856
 20
112.038895200385
 30
0.0
 10
334.404941644826
 20
111.9457635912638
 30
0.0
 10
334.4320808828434
 20
111.8501775469889
 30
0.0
 10
334.4614422898748
 20
111.7524240773757
 30
0.0
 10
334.4930274601628
 20
111.6528434013182
 30
0.0
 10
334.5268743300276
 20
111.5518342617396
 30
0.0
 10
334.5785755599604
 20
111.4050674544885
 30
0.0
 10
334.682934572974
 20
111.1408010415742
 30
0.0
 10
334.8038078006579
 20
110.8708314117457
 30
0.0
 10
334.917300847115
 20
110.6534217370294
 30
0.0
 10
334.9885738147308
 20
110.5237181662989
 30
0.0
 10
335.0506483868567
 20
110.4198430889741
 30
0.0
 10
335.103232399024
 20
110.3399824551556
 30
0.0
 10
335.1464789449515
 20
110.281963829005
 30
0.0
 10
335.1800857571716
 20
110.2438602703526
 30
0.0
 10
335.2050327400443
 20
110.2218577393579
 30
0.0
 10
335.2139922769063
 20
110.2192451260066
 30
0.0
 10
335.2183193136243
 20
110.2179833561099
 30
0.0
  0
LINE
  5
108
330
1F
100
AcDbEntity
  8
0
  6
Continuous
 62
     7
370
    25
100
AcDbLine
 10
357.6381836611
 20
116.5115710825
 30
0.0
 11
357.1981207061
 21
116.430483387
 31
0.0
  0
SPLINE
  5
109
330
1F
100
AcDbEntity
  8
0
  6
Continuous
 62
     7
370
    25
100
AcDbSpline
210
0.0
220
0.0
230
1.0
 70
     8
 71
     3
 72
    25
 73
    21
 74
     0
 42
0.000000001
 43
0.00000001
 40
0.0
 40
0.0
 40
0.0
 40
0.0
 40
0.0274788704223041
 40
0.0560416006850305
 40
0.0856947086351823
 40
0.1164440166537841
 40
0.1482947438680617
 40
0.1812515840469434
 40
0.2153187716748025
 40
0.2505001382254136
 40
0.3330514552861967
 40
0.5015081958164245
 40
0.5771663066128696
 40
0.6488981302998588
 40
0.7167477700029257
 40
0.7807674423452041
 40
0.8410194131306359
 40
0.8975784849897311
 40
0.950535204777236
 40
1.0
 40
1.0
 40
1.0
 40
1.0
 10
357.1981205988539
 20
116.4304833561099
 30
0.0
 10
357.1914124315105
 20
116.4596655606274
 30
0.0
 10
357.1777315039537
 20
116.5191810147761
 30
0.0
 10
357.1549667752998
 20
116.6095715118348
 30
0.0
 10
357.1300891380595
 20
116.7027031209559
 30
0.0
 10
357.1029499000419
 20
116.7982891652308
 30
0.0
 10
357.0735884930107
 20
116.8960426348441
 30
0.0
 10
357.0420033227226
 20
116.9956233109015
 30
0.0
 10
357.0081564528579
 20
117.0966324504801
 30
0.0
 10
356.9564552229126
 20
117.2433992577653
 30
0.0
 10
356.8520962099016
 20
117.5076656706778
 30
0.0
 10
356.7312229822159
 20
117.7776353004969
 30
0.0
 10
356.6177299357706
 20
117.9950449751872
 30
0.0
 10
356.546456968155
 20
118.1247485459161
 30
0.0
 10
356.4843823960293
 20
118.2286236232408
 30
0.0
 10
356.431798383862
 20
118.3084842570601
 30
0.0
 10
356.3885518379345
 20
118.366502883212
 30
0.0
 10
356.3549450257142
 20
118.4046064418658
 30
0.0
 10
356.3299980428415
 20
118.4266089728616
 30
0.0
 10
356.3210385059792
 20
118.4292215862131
 30
0.0
 10
356.3167114692611
 20
118.4304833561099
 30
0.0
  0
SPLINE
  5
10A
330
1F
100
AcDbEntity
  8
0
  6
Continuous
 62
     7
370
    25
100
AcDbSpline
210
0.0
220
0.0
230
1.0
 70
     8
 71
     3
 72
    25
 73
    21
 74
     0
 42
0.000000001
 43
0.00000001
 40
0.0
 40
0.0
 40
0.0
 40
0.0
 40
0.0288821753110086
 40
0.0583636594013118
 40
0.0884647204314734
 40
0.1192044006626603
 40
0.150600580009491
 40
0.1826700399677263
 40
0.2154285269580574
 40
0.248890814337993
 40
0.361059447124065
 40
0.4984670131067773
 40
0.5822693905007604
 40
0.666112764278331
 40
0.7499972937224478
 40
0.8007709755049082
 40
0.8511237700832938
 40
0.9010896024531745
 40
0.9507031914125761
 40
1.0
 40
1.0
 40
1.0
 40
1.0
 10
335.2183193136243
 20
118.4304833561099
 30
0.0
 10
335.2160290452466
 20
118.430055114134
 30
0.0
 10
335.2114009851336
 20
118.4291897441072
 30
0.0
 10
335.2010907220462
 20
118.4221148114055
 30
0.0
 10
335.1882546528154
 20
118.4105462702451
 30
0.0
 10
335.1726410940727
 20
118.3938406941327
 30
0.0
 10
335.1543196506601
 20
118.3719037831165
 30
0.0
 10
335.1332720648289
 20
118.3445061476318
 30
0.0
 10
335.1095004928369
 20
118.3114716669497
 30
0.0
 10
335.0624439634004
 20
118.2424810008219
 30
0.0
 10
334.9747495455435
 20
118.1024550314002
 30
0.0
 10
334.8571978910101
 20
117.8831597301957
 30
0.0
 10
334.7456757266687
 20
117.6462296694245
 30
0.0
 10
334.6542164093206
 20
117.4303877955146
 30
0.0
 10
334.5733347581431
 20
117.2288261746328
 30
0.0
 10
334.507189856275
 20
117.0499580942407
 30
0.0
 10
334.4578392954479
 20
116.8985818930968
 30
0.0
 10
334.412872278583
 20
116.7443377379738
 30
0.0
 10
334.3721145646638
 20
116.5881818828982
 30
0.0
 10
334.3486198954466
 20
116.4829371759502
 30
0.0
 10
334.3369101840315
 20
116.4304833561099
 30
0.0
  0
LINE
  5
10B
330
1F
100
AcDbEntity
  8
0
  6
Continuous
 62
     7
370
    25
100
AcDbLine
 10
333.8968471217
 20
116.5115710825
 30
0.0
 11
334.3369100768
 21
116.430483387
 31
0.0
  0
SPLINE
  5
10C
330
1F
100
AcDbEntity
  8
0
  6
Continuous
 62
     7
370
    25
100
AcDbSpline
210
0.0
220
0.0
230
1.0
 70
     8
 71
     3
 72
    25
 73
    21
 74
     0
 42
0.000000001
 43
0.00000001
 40
0.0
 40
0.0
 40
0.0
 40
0.0
 40
0.0288821753116583
 40
0.0583636594024247
 40
0.088464720432864
 40
0.1192044006641432
 40
0.1506005800108822
 40
0.1826700399688414
 40
0.2154285269587146
 40
0.2488908143380118
 40
0.3610594471217245
 40
0.498467013106778
 40
0.5822693905006526
 40
0.6661127642782239
 40
0.7499972937224496
 40
0.8007709755032478
 40
0.8511237700807983
 40
0.901089602450676
 40
0.9507031914109089
 40
1.0
 40
1.0
 40
1.0
 40
1.0
 10
356.3167114692611
 20
110.2179833561099
 30
0.0
 10
356.3190017376389
 20
110.2184115980858
 30
0.0
 10
356.3236297977519
 20
110.2192769681126
 30
0.0
 10
356.3339400608393
 20
110.2263519008145
 30
0.0
 10
356.3467761300703
 20
110.2379204419752
 30
0.0
 10
356.3623896888129
 20
110.254626018088
 30
0.0
 10
356.3807111322255
 20
110.2765629291043
 30
0.0
 10
356.4017587180566
 20
110.303960564589
 30
0.0
 10
356.4255302900486
 20
110.3369950452708
 30
0.0
 10
356.4725868194848
 20
110.4059857113973
 30
0.0
 10
356.5602812373426
 20
110.5460116808179
 30
0.0
 10
356.6778328918746
 20
110.765306982022
 30
0.0
 10
356.7893550562155
 20
111.0022370427954
 30
0.0
 10
356.8808143735636
 20
111.2180789167053
 30
0.0
 10
356.9616960247415
 20
111.4196405375854
 30
0.0
 10
357.0278409266095
 20
111.5985086179749
 30
0.0
 10
357.077191487436
 20
111.749884819116
 30
0.0
 10
357.1221585043009
 20
111.9041289742389
 30
0.0
 10
357.1629162182207
 20
112.0602848293171
 30
0.0
 10
357.1864108874385
 20
112.1655295362678
 30
0.0
 10
357.1981205988539
 20
112.2179833561099
 30
0.0
  0
LINE
  5
10D
330
1F
100
AcDbEntity
  8
0
  6
Continuous
 62
     7
370
    25
100
AcDbLine
 10
357.6381836611
 20
112.1368956298
 30
0.0
 11
357.1981207061
 21
112.2179833252
 31
0.0
  0
SPLINE
  5
10E
330
1F
100
AcDbEntity
  8
0
  6
Continuous
 62
     7
370
    25
100
AcDbSpline
210
0.0
220
0.0
230
1.0
 70
     8
 71
     3
 72
    12
 73
     8
 74
     0
 42
0.000000001
 43
0.00000001
 40
0.0
 40
0.0
 40
0.0
 40
0.0
 40
0.2971540265968837
 40
0.5953109213084592
 40
0.7630993176302537
 40
0.9170814912125203
 40
1.0
 40
1.0
 40
1.0
 40
1.0
 10
336.8696576509212
 20
116.4304833870298
 30
0.0
 10
336.9519864809331
 20
116.6918193985816
 30
0.0
 10
337.1169219933536
 20
117.2153734072205
 30
0.0
 10
337.3832121472866
 20
117.7716871069231
 30
0.0
 10
337.5760224754188
 20
118.109878939151
 30
0.0
 10
337.6774812953262
 20
118.2847559732882
 30
0.0
 10
337.7105953151113
 20
118.337145934279
 30
0.0
 10
337.7221856791114
 20
118.3554831437683
 30
0.0
  0
SPLINE
  5
10F
330
1F
100
AcDbEntity
  8
0
  6
Continuous
 62
     7
370
    25
100
AcDbSpline
210
0.0
220
0.0
230
1.0
 70
     8
 71
     3
 72
    12
 73
     8
 74
     0
 42
0.000000001
 43
0.00000001
 40
0.0
 40
0.0
 40
0.0
 40
0.0
 40
0.2971540265968837
 40
0.5953109213084592
 40
0.7630993176302537
 40
0.9170814912125203
 40
1.0
 40
1.0
 40
1.0
 40
1.0
 10
354.6653731319641
 20
112.21798332519
 30
0.0
 10
354.5830443019523
 20
111.9566473136381
 30
0.0
 10
354.4181087895318
 20
111.4330933049992
 30
0.0
 10
354.1518186355988
 20
110.8767796052966
 30
0.0
 10
353.9590083074666
 20
110.5385877730687
 30
0.0
 10
353.8575494875592
 20
110.3637107389316
 30
0.0
 10
353.8244354677741
 20
110.3113207779408
 30
0.0
 10
353.812845103774
 20
110.2929835684514
 30
0.0
  0
SPLINE
  5
110
330
1F
100
AcDbEntity
  8
0
  6
Continuous
 62
     7
370
    25
100
AcDbSpline
210
0.0
220
0.0
230
1.0
 70
     8
 71
     3
 72
    11
 73
     7
 74
     0
 42
0.000000001
 43
0.00000001
 40
0.0
 40
0.0
 40
0.0
 40
0.0
 40
0.1078686449390932
 40
0.4034673949314601
 40
0.7028907467952099
 40
1.0
 40
1.0
 40
1.0
 40
1.0
 10
337.7211165207957
 20
110.2929835684514
 30
0.0
 10
337.7046706365483
 20
110.3189481360547
 30
0.0
 10
337.6431571348404
 20
110.4160649252506
 30
0.0
 10
337.427648532378
 20
110.7917418329438
 30
0.0
 10
337.1158804729921
 20
111.4310048525641
 30
0.0
 10
336.9515193924122
 20
111.9563364650687
 30
0.0
 10
336.8696576509212
 20
112.21798332519
 30
0.0
  0
LINE
  5
111
330
1F
100
AcDbEntity
  8
0
  6
Continuous
 62
     7
370
    25
100
AcDbLine
 10
337.1859180335
 20
116.3556199532
 30
0.0
 11
336.8696576509
 21
116.430483387
 31
0.0
  0
SPLINE
  5
112
330
1F
100
AcDbEntity
  8
0
  6
Continuous
 62
     7
370
    25
100
AcDbSpline
210
0.0
220
0.0
230
1.0
 70
     8
 71
     3
 72
    25
 73
    21
 74
     0
 42
0.000000001
 43
0.00000001
 40
0.0
 40
0.0
 40
0.0
 40
0.0
 40
0.0278144320063462
 40
0.0555680196245754
 40
0.083331625367772
 40
0.111176035216759
 40
0.1391714221532265
 40
0.1673868326284763
 40
0.1958897140434718
 40
0.2247454979318961
 40
0.254017249222145
 40
0.3796724410016501
 40
0.5056484635002454
 40
0.629752729069345
 40
0.7535891720571729
 40
0.8038564806093713
 40
0.853339684343451
 40
0.9023264398358534
 40
0.9511131859219439
 40
1.0
 40
1.0
 40
1.0
 40
1.0
 10
338.0535393021542
 20
118.5979816472924
 30
0.0
 10
338.0533915508395
 20
118.5977151047388
 30
0.0
 10
338.0530963714177
 20
118.5971826026966
 30
0.0
 10
338.049471672402
 20
118.5906351540005
 30
0.0
 10
338.0435257767317
 20
118.5798659107143
 30
0.0
 10
338.0350510538165
 20
118.56445517479
 30
0.0
 10
338.0241360669774
 20
118.5444987985362
 30
0.0
 10
338.010799998739
 20
118.5199487020657
 30
0.0
 10
337.9950922340521
 20
118.4907920783098
 30
0.0
 10
337.9770606458942
 20
118.4569961068764
 30
0.0
 10
337.9346431011458
 20
118.3765893488186
 30
0.0
 10
337.8541220613923
 20
118.2196008991479
 30
0.0
 10
337.7206957145178
 20
117.9378151614006
 30
0.0
 10
337.5766187378347
 20
117.5999430517736
 30
0.0
 10
337.4609409863833
 20
117.2912621380353
 30
0.0
 10
337.378429511166
 20
117.0452314182803
 30
0.0
 10
337.3255078866409
 20
116.8764055270071
 30
0.0
 10
337.2756507522635
 20
116.7050899559953
 30
0.0
 10
337.2286327590329
 20
116.5314076057745
 30
0.0
 10
337.2001657483044
 20
116.4142559174711
 30
0.0
 10
337.1859176605056
 20
116.3556200615097
 30
0.0
  0
LINE
  5
113
330
1F
100
AcDbEntity
  8
0
  6
Continuous
 62
     7
370
    25
100
AcDbLine
 10
337.1859180335
 20
112.292846759
 30
0.0
 11
336.8696576509
 21
112.2179833252
 31
0.0
  0
SPLINE
  5
114
330
1F
100
AcDbEntity
  8
0
  6
Continuous
 62
     7
370
    25
100
AcDbSpline
210
0.0
220
0.0
230
1.0
 70
     8
 71
     3
 72
    25
 73
    21
 74
     0
 42
0.000000001
 43
0.00000001
 40
0.0
 40
0.0
 40
0.0
 40
0.0
 40
0.0269872354797669
 40
0.0539362690259618
 40
0.0809037148829035
 40
0.1079460716545392
 40
0.1351193706855853
 40
0.162478838835575
 40
0.190078585418252
 40
0.2179713214290535
 40
0.2462081170984584
 40
0.3700050494705653
 40
0.4947542611659071
 40
0.6210439034695193
 40
0.7446557472315123
 40
0.7967060293738726
 40
0.8478613449329371
 40
0.8985210411990388
 40
0.9490962115257747
 40
1.0
 40
1.0
 40
1.0
 40
1.0
 10
337.1859176605056
 20
112.29284665071
 30
0.0
 10
337.1936984052297
 20
112.2604502456823
 30
0.0
 10
337.2092488806007
 20
112.195703294541
 30
0.0
 10
337.2339342865739
 20
112.0990567581123
 30
0.0
 10
337.2595542435729
 20
112.002962669621
 30
0.0
 10
337.2861971072004
 20
111.9074503989043
 30
0.0
 10
337.3138222924849
 20
111.8125256715116
 30
0.0
 10
337.3424240715441
 20
111.7181995153759
 30
0.0
 10
337.3719861611856
 20
111.6244831709267
 30
0.0
 10
337.4024993082328
 20
111.5313790870364
 30
0.0
 10
337.469233512822
 20
111.3351138449234
 30
0.0
 10
337.5764166889178
 20
111.0490407293201
 30
0.0
 10
337.7201967792266
 20
110.7117508333267
 30
0.0
 10
337.8534452354384
 20
110.4302416565032
 30
0.0
 10
337.9411164116516
 20
110.2592507263248
 30
0.0
 10
337.991991447444
 20
110.1633379079423
 30
0.0
 10
338.0196606020954
 20
110.1121207044877
 30
0.0
 10
338.0393595202129
 20
110.0761379104026
 30
0.0
 10
338.0516070289164
 20
110.0539680220806
 30
0.0
 10
338.0528938220724
 20
110.051648554347
 30
0.0
 10
338.0535393021542
 20
110.0504850649274
 30
0.0
  0
LINE
  5
115
330
1F
100
AcDbEntity
  8
0
  6
Continuous
 62
     7
370
    25
100
AcDbLine
 10
354.3491127494
 20
112.292846759
 30
0.0
 11
354.665373132
 21
112.2179833252
 31
0.0
  0
SPLINE
  5
116
330
1F
100
AcDbEntity
  8
0
  6
Continuous
 62
     7
370
    25
100
AcDbSpline
210
0.0
220
0.0
230
1.0
 70
     8
 71
     3
 72
    25
 73
    21
 74
     0
 42
0.000000001
 43
0.00000001
 40
0.0
 40
0.0
 40
0.0
 40
0.0
 40
0.0278144320057649
 40
0.0555680196235595
 40
0.083331625366468
 40
0.1111760352153128
 40
0.1391714221517827
 40
0.1673868326271739
 40
0.195889714042447
 40
0.2247454979312803
 40
0.2540172492220635
 40
0.3796724409988544
 40
0.505648463500191
 40
0.6297527290689083
 40
0.7535891720572004
 40
0.803856480609888
 40
0.85333968434422
 40
0.902326439836625
 40
0.9511131859224594
 40
1.0
 40
1.0
 40
1.0
 40
1.0
 10
353.4814914807312
 20
110.0504850649274
 30
0.0
 10
353.4816392320459
 20
110.0507516074809
 30
0.0
 10
353.4819344114677
 20
110.0512841095232
 30
0.0
 10
353.4855591104835
 20
110.0578315582193
 30
0.0
 10
353.4915050061538
 20
110.0686008015055
 30
0.0
 10
353.4999797290689
 20
110.0840115374299
 30
0.0
 10
353.510894715908
 20
110.1039679136836
 30
0.0
 10
353.5242307841464
 20
110.1285180101541
 30
0.0
 10
353.5399385488334
 20
110.15767463391
 30
0.0
 10
353.5579701369912
 20
110.1914706053435
 30
0.0
 10
353.6003876817383
 20
110.2718773633987
 30
0.0
 10
353.6809087214921
 20
110.4288658130699
 30
0.0
 10
353.8143350683665
 20
110.7106515508167
 30
0.0
 10
353.9584120450501
 20
111.0485236604446
 30
0.0
 10
354.0740897965021
 20
111.3572045741844
 30
0.0
 10
354.1566012717199
 20
111.603235293941
 30
0.0
 10
354.2095228962452
 20
111.7720611852151
 30
0.0
 10
354.2593800306226
 20
111.9433767562269
 30
0.0
 10
354.3063980238528
 20
112.1170591064468
 30
0.0
 10
354.3348650345811
 20
112.2342107947493
 30
0.0
 10
354.3491131223798
 20
112.29284665071
 30
0.0
  0
SPLINE
  5
117
330
1F
100
AcDbEntity
  8
0
  6
Continuous
 62
     7
370
    25
100
AcDbSpline
210
0.0
220
0.0
230
1.0
 70
     8
 71
     3
 72
    11
 73
     7
 74
     0
 42
0.000000001
 43
0.00000001
 40
0.0
 40
0.0
 40
0.0
 40
0.0
 40
0.1078686449390932
 40
0.4034673949314601
 40
0.7028907467952099
 40
1.0
 40
1.0
 40
1.0
 40
1.0
 10
353.8139142620896
 20
118.3554831437683
 30
0.0
 10
353.8303601463372
 20
118.3295185761651
 30
0.0
 10
353.891873648045
 20
118.2324017869691
 30
0.0
 10
354.1073822505074
 20
117.856724879276
 30
0.0
 10
354.4191503098932
 20
117.2174618596556
 30
0.0
 10
354.5835113904732
 20
116.692130247151
 30
0.0
 10
354.6653731319641
 20
116.4304833870298
 30
0.0
  0
LINE
  5
118
330
1F
100
AcDbEntity
  8
0
  6
Continuous
 62
     7
370
    25
100
AcDbLine
 10
354.3491127494
 20
116.3556199532
 30
0.0
 11
354.665373132
 21
116.430483387
 31
0.0
  0
SPLINE
  5
119
330
1F
100
AcDbEntity
  8
0
  6
Continuous
 62
     7
370
    25
100
AcDbSpline
210
0.0
220
0.0
230
1.0
 70
     8
 71
     3
 72
    12
 73
     8
 74
     0
 42
0.000000001
 43
0.00000001
 40
0.0
 40
0.0
 40
0.0
 40
0.0
 40
0.1404141540052139
 40
0.2845308631549995
 40
0.5710083094680874
 40
0.8589424285223366
 40
0.9999999999999999
 40
0.9999999999999999
 40
0.9999999999999999
 40
0.9999999999999999
 10
354.349112749431
 20
116.3556199531919
 30
0.0
 10
354.3123418761002
 20
116.5011660120173
 30
0.0
 10
354.2378305250051
 20
116.7960960070721
 30
0.0
 10
354.0574870410483
 20
117.3543465769574
 30
0.0
 10
353.8112656602406
 20
117.9622029119888
 30
0.0
 10
353.5930906198795
 20
118.3929900515812
 30
0.0
 10
353.5301547757737
 20
118.5088655484732
 30
0.0
 10
353.5094607214962
 20
118.5469667903996
 30
0.0
  0
ARC
  5
11A
330
1F
100
AcDbEntity
  8
0
  6
Continuous
 62
     7
370
    25
100
AcDbCircle
 10
345.7675153914
 20
114.3242333561
 30
0.0
 40
11.62303852141066
100
AcDbArc
 50
169.5595567507
 51
190.4404432494
  0
ARC
  5
11B
330
1F
100
AcDbEntity
  8
0
  6
Continuous
 62
     7
370
    25
100
AcDbCircle
 10
345.7675153914
 20
114.3242333561
 30
0.0
 40
9.143750000000006
100
AcDbArc
 50
166.6824039243
 51
193.3175960757
  0
ARC
  5
11C
330
1F
100
AcDbEntity
  8
0
  6
Continuous
 62
     7
370
    25
100
AcDbCircle
 10
345.7675153914
 20
114.3242333561
 30
0.0
 40
8.81874999999997
100
AcDbArc
 50
166.6824039243
 51
193.3175960757
  0
ARC
  5
11D
330
1F
100
AcDbEntity
  8
0
  6
Continuous
 62
     7
370
    25
100
AcDbCircle
 10
345.7675153914
 20
114.3242333561
 30
0.0
 40
9.143750000000061
100
AcDbArc
 50
346.6824039243
 51
13.3175960757
  0
ARC
  5
11E
330
1F
100
AcDbEntity
  8
0
  6
Continuous
 62
     7
370
    25
100
AcDbCircle
 10
345.7675153914
 20
114.3242333561
 30
0.0
 40
8.818750000000026
100
AcDbArc
 50
346.6824039243
 51
13.3175960757
  0
ARC
  5
11F
330
1F
100
AcDbEntity
  8
0
  6
Continuous
 62
     7
370
    25
100
AcDbCircle
 10
345.7675153914
 20
114.3242333561
 30
0.0
 40
11.6230385214107
100
AcDbArc
 50
349.5595567507
 51
10.4404432493
  0
CIRCLE
  5
120
330
1F
100
AcDbEntity
  8
0
  6
Continuous
 62
     7
370
    25
100
AcDbCircle
 10
345.7675153914
 20
114.3242333561
 30
0.0
 40
7.774999999999977
  0
CIRCLE
  5
121
330
1F
100
AcDbEntity
  8
0
  6
Continuous
 62
     7
370
    25
100
AcDbCircle
 10
345.7675153914
 20
114.3242333561
 30
0.0
 40
2.615470053837839
  0
CIRCLE
  5
122
330
1F
100
AcDbEntity
  8
0
  6
Continuous
 62
     7
370
    25
100
AcDbCircle
 10
345.7675153914
 20
114.3242333561
 30
0.0
 40
2.5
  0
CIRCLE
  5
123
330
1F
100
AcDbEntity
  8
0
  6
Continuous
 62
     7
370
    25
100
AcDbCircle
 10
345.7675153914
 20
114.3242333561
 30
0.0
 40
15.73749999999995
  0
CIRCLE
  5
124
330
1F
100
AcDbEntity
  8
0
  6
Continuous
 62
     7
370
    25
100
AcDbCircle
 10
345.7675153914
 20
114.3242333561
 30
0.0
 40
13.42499999999995
  0
CIRCLE
  5
125
330
1F
100
AcDbEntity
  8
0
  6
Continuous
 62
     7
370
    25
100
AcDbCircle
 10
345.7675153914
 20
114.3242333561
 30
0.0
 40
2.0
  0
LINE
  5
126
330
1F
100
AcDbEntity
  8
0
  6
CENTER
 62
     7
370
    18
100
AcDbLine
 10
345.7675153914
 20
114.3242333561
 30
0.0
 11
345.7675153914
 21
133.8271849562
 31
0.0
  0
LINE
  5
127
330
1F
100
AcDbEntity
  8
0
  6
CENTER
 62
     7
370
    18
100
AcDbLine
 10
345.7675153914
 20
114.3242333561
 30
0.0
 11
365.2820153914
 21
114.3242333561
 31
0.0
  0
LINE
  5
128
330
1F
100
AcDbEntity
  8
0
  6
Continuous
 62
     7
370
    18
100
AcDbLine
 10
357.7675153914
 20
131.8271849562
 30
0.0
 11
345.7675153914
 21
131.8271849562
 31
0.0
  0
SOLID
  5
129
330
1F
100
AcDbEntity
  8
0
  6
Continuous
 62
     7
370
    18
100
AcDbTrace
 10
345.7675153914
 20
131.8271849562
 30
0.0
 11
351.7675153914
 21
130.3271849562
 31
0.0
 12
351.7675153914
 22
133.3271849562
 32
0.0
 13
351.7675153914
 23
133.3271849562
 33
0.0
  0
LINE
  5
12A
330
1F
100
AcDbEntity
  8
0
  6
Continuous
 62
     7
370
    18
100
AcDbLine
 10
375.2820153914
 20
114.3242333561
 30
0.0
 11
363.2820153914
 21
114.3242333561
 31
0.0
  0
SOLID
  5
12B
330
1F
100
AcDbEntity
  8
0
  6
Continuous
 62
     7
370
    18
100
AcDbTrace
 10
363.2820153914
 20
114.3242333561
 30
0.0
 11
369.2820153914
 21
112.8242333561
 31
0.0
 12
369.2820153914
 22
115.8242333561
 32
0.0
 13
369.2820153914
 23
115.8242333561
 33
0.0
  0
MTEXT
  5
12C
330
1F
100
AcDbEntity
  8
0
  6
Continuous
 62
     7
100
AcDbMText
 10
354.6201346475
 20
138.4734781728
 30
0.0
 40
3.5
 41
0.0
 71
     1
 72
     1
  1
A
  7
SLDTEXTSTYLE0
 73
     1
 44
1.0
  0
MTEXT
  5
12D
330
1F
100
AcDbEntity
  8
0
  6
Continuous
 62
     7
100
AcDbMText
 10
372.1346346475
 20
112.111017715
 30
0.0
 40
3.5
 41
0.0
 71
     1
 72
     1
  1
A
  7
SLDTEXTSTYLE0
 73
     1
 44
1.0
  0
LINE
  5
12E
330
1F
100
AcDbEntity
  8
0
  6
Continuous
 62
     7
370
    25
100
AcDbLine
 10
111.9530967293
 20
82.8492333561
 30
0.0
 11
118.3188989247
 21
82.8492333561
 31
0.0
  0
ARC
  5
12F
330
1F
100
AcDbEntity
  8
0
  6
Continuous
 62
     7
370
    25
100
AcDbCircle
 10
111.9530967293
 20
83.0492333561
 30
0.0
 40
0.2000000000000171
100
AcDbArc
 50
180.0
 51
270.0
  0
LINE
  5
130
330
1F
100
AcDbEntity
  8
0
  6
Continuous
 62
     7
370
    25
100
AcDbLine
 10
124.9872945338
 20
82.8492333561
 30
0.0
 11
129.7530967293
 21
82.8492333561
 31
0.0
  0
LINE
  5
131
330
1F
100
AcDbEntity
  8
0
  6
Continuous
 62
     7
370
    25
100
AcDbLine
 10
118.3188989247
 20
82.8492333561
 30
0.0
 11
119.7780967293
 21
85.3766380919
 31
0.0
  0
LINE
  5
132
330
1F
100
AcDbEntity
  8
0
  6
Continuous
 62
     7
370
    25
100
AcDbLine
 10
123.5280967293
 20
85.3766380919
 30
0.0
 11
124.9872945338
 21
82.8492333561
 31
0.0
  0
ARC
  5
133
330
1F
100
AcDbEntity
  8
0
  6
Continuous
 62
     7
370
    25
100
AcDbCircle
 10
120.7780967293
 20
85.4742333561
 30
0.0
 40
1.000000000000014
100
AcDbArc
 50
90.0
 51
180.0
  0
ARC
  5
134
330
1F
100
AcDbEntity
  8
0
  6
Continuous
 62
     7
370
    25
100
AcDbCircle
 10
122.5280967293
 20
85.4742333561
 30
0.0
 40
1.000000000000014
100
AcDbArc
 50
0.0
 51
90.0
  0
LINE
  5
135
330
1F
100
AcDbEntity
  8
0
  6
Continuous
 62
     7
370
    25
100
AcDbLine
 10
120.7780967293
 20
86.4742333561
 30
0.0
 11
122.5280967293
 21
86.4742333561
 31
0.0
  0
ARC
  5
136
330
1F
100
AcDbEntity
  8
0
  6
Continuous
 62
     7
370
    25
100
AcDbCircle
 10
111.3241618547
 20
88.7742333561
 30
0.0
 40
0.8000000000000139
100
AcDbArc
 50
57.576802718
 51
107.5
  0
LINE
  5
137
330
1F
100
AcDbEntity
  8
0
  6
Continuous
 62
     7
370
    25
100
AcDbLine
 10
110.5929146892
 20
89.3824953106
 30
0.0
 11
111.0835972151
 21
89.5372069167
 31
0.0
  0
LINE
  5
138
330
1F
100
AcDbEntity
  8
0
  6
Continuous
 62
     7
370
    25
100
AcDbLine
 10
97.2666512612
 20
90.0517128354
 30
0.0
 11
110.5929146892
 21
89.3824953106
 31
0.0
  0
LINE
  5
139
330
1F
100
AcDbEntity
  8
0
  6
Continuous
 62
     7
370
    25
100
AcDbLine
 10
73.3030967293
 20
91.2551132285
 30
0.0
 11
81.3579335928
 21
90.8506158976
 31
0.0
  0
LINE
  5
13A
330
1F
100
AcDbEntity
  8
0
  6
Continuous
 62
     7
370
    25
100
AcDbLine
 10
71.8030967293
 20
92.1211386323
 30
0.0
 11
73.3030967293
 21
91.2551132285
 31
0.0
  0
ARC
  5
13B
330
1F
100
AcDbEntity
  8
0
  6
Continuous
 62
     7
370
    25
100
AcDbCircle
 10
132.7530967293
 20
95.3242333561
 30
0.0
 40
3.0
100
AcDbArc
 50
90.0
 51
180.0
  0
LINE
  5
13C
330
1F
100
AcDbEntity
  8
0
  6
Continuous
 62
     7
370
    25
100
AcDbLine
 10
132.7530967293
 20
98.3242333561
 30
0.0
 11
180.9282777846
 21
98.3242333561
 31
0.0
  0
LINE
  5
13D
330
1F
100
AcDbEntity
  8
0
  6
Continuous
 62
     7
370
    25
100
AcDbLine
 10
180.9282777846
 20
98.3242333561
 30
0.0
 11
229.9100149207
 21
102.179179672
 31
0.0
  0
ARC
  5
13E
330
1F
100
AcDbEntity
  8
0
  6
Continuous
 62
     7
370
    25
100
AcDbCircle
 10
229.7530967293
 20
104.1730143394
 30
0.0
 40
2.000000000000002
100
AcDbArc
 50
274.5
 51
0.0
  0
LINE
  5
13F
330
1F
100
AcDbEntity
  8
0
  6
Continuous
 62
     7
370
    25
100
AcDbLine
 10
185.2530967293
 20
119.3242333561
 30
0.0
 11
169.7530967293
 21
119.3242333561
 31
0.0
  0
LINE
  5
140
330
1F
100
AcDbEntity
  8
0
  6
Continuous
 62
     7
370
    25
100
AcDbLine
 10
185.7530967293
 20
118.8242333561
 30
0.0
 11
185.2530967293
 21
119.3242333561
 31
0.0
  0
LINE
  5
141
330
1F
100
AcDbEntity
  8
0
  6
Continuous
 62
     7
370
    25
100
AcDbLine
 10
169.7530967293
 20
119.3242333561
 30
0.0
 11
169.2530967293
 21
118.8242333561
 31
0.0
  0
LINE
  5
142
330
1F
100
AcDbEntity
  8
0
  6
Continuous
 62
     7
370
    25
100
AcDbLine
 10
187.2530967293
 20
118.4958751387
 30
0.0
 11
189.2530967293
 21
118.4958751387
 31
0.0
  0
LINE
  5
143
330
1F
100
AcDbEntity
  8
0
  6
Continuous
 62
     7
370
    25
100
AcDbLine
 10
187.2530967293
 20
118.8242333561
 30
0.0
 11
185.7530967293
 21
118.8242333561
 31
0.0
  0
LINE
  5
144
330
1F
100
AcDbEntity
  8
0
  6
Continuous
 62
     7
370
    25
100
AcDbLine
 10
183.2530967293
 20
116.2620439771
 30
0.0
 11
183.2530967293
 21
116.8242333561
 31
0.0
  0
LINE
  5
145
330
1F
100
AcDbEntity
  8
0
  6
Continuous
 62
     7
370
    25
100
AcDbLine
 10
183.2530967293
 20
114.3242333561
 30
0.0
 11
183.2530967293
 21
116.2620439771
 31
0.0
  0
LINE
  5
146
330
1F
100
AcDbEntity
  8
0
  6
Continuous
 62
     7
370
    25
100
AcDbLine
 10
175.2530967292
 20
116.2620439771
 30
0.0
 11
175.2530967292
 21
114.3242333561
 31
0.0
  0
LINE
  5
147
330
1F
100
AcDbEntity
  8
0
  6
Continuous
 62
     7
370
    25
100
AcDbLine
 10
175.2530967292
 20
116.8242333561
 30
0.0
 11
175.2530967292
 21
116.2620439771
 31
0.0
  0
LINE
  5
148
330
1F
100
AcDbEntity
  8
0
  6
Continuous
 62
     7
370
    25
100
AcDbLine
 10
175.2530967292
 20
116.8242333561
 30
0.0
 11
183.2530967293
 21
116.8242333561
 31
0.0
  0
LINE
  5
149
330
1F
100
AcDbEntity
  8
0
  6
Continuous
 62
     7
370
    25
100
AcDbLine
 10
187.2530967293
 20
116.9988178696
 30
0.0
 11
187.2530967293
 21
118.8242333561
 31
0.0
  0
LINE
  5
14A
330
1F
100
AcDbEntity
  8
0
  6
Continuous
 62
     7
370
    25
100
AcDbLine
 10
183.2530967293
 20
116.9988178696
 30
0.0
 11
187.2530967293
 21
116.9988178696
 31
0.0
  0
LINE
  5
14B
330
1F
100
AcDbEntity
  8
0
  6
Continuous
 62
     7
370
    25
100
AcDbLine
 10
183.2530967293
 20
116.8242333561
 30
0.0
 11
183.2530967293
 21
116.9988178696
 31
0.0
  0
LINE
  5
14C
330
1F
100
AcDbEntity
  8
0
  6
Continuous
 62
     7
370
    25
100
AcDbLine
 10
175.2530967292
 20
116.9988178696
 30
0.0
 11
175.2530967292
 21
116.8242333561
 31
0.0
  0
LINE
  5
14D
330
1F
100
AcDbEntity
  8
0
  6
Continuous
 62
     7
370
    25
100
AcDbLine
 10
169.2530967292
 20
116.9988178696
 30
0.0
 11
175.2530967292
 21
116.9988178696
 31
0.0
  0
LINE
  5
14E
330
1F
100
AcDbEntity
  8
0
  6
Continuous
 62
     7
370
    25
100
AcDbLine
 10
169.2530967293
 20
118.8242333561
 30
0.0
 11
169.2530967292
 21
116.9988178696
 31
0.0
  0
LINE
  5
14F
330
1F
100
AcDbEntity
  8
0
  6
Continuous
 62
     7
370
    25
100
AcDbLine
 10
175.2530967292
 20
115.3501064798
 30
0.0
 11
169.2530967292
 21
115.3501064798
 31
0.0
  0
LINE
  5
150
330
1F
100
AcDbEntity
  8
0
  6
Continuous
 62
     7
370
    25
100
AcDbLine
 10
169.2530967292
 20
116.9988178696
 30
0.0
 11
169.2530967292
 21
115.3501064798
 31
0.0
  0
LINE
  5
151
330
1F
100
AcDbEntity
  8
0
  6
Continuous
 62
     7
370
    25
100
AcDbLine
 10
189.2530967293
 20
116.4444314766
 30
0.0
 11
189.2530967293
 21
115.3501064798
 31
0.0
  0
LINE
  5
152
330
1F
100
AcDbEntity
  8
0
  6
Continuous
 62
     7
370
    25
100
AcDbLine
 10
183.2530967293
 20
115.3501064798
 30
0.0
 11
189.2530967293
 21
115.3501064798
 31
0.0
  0
LINE
  5
153
330
1F
100
AcDbEntity
  8
0
  6
Continuous
 62
     7
370
    25
100
AcDbLine
 10
189.2530967293
 20
116.4444314766
 30
0.0
 11
187.2530967293
 21
116.4444314766
 31
0.0
  0
LINE
  5
154
330
1F
100
AcDbEntity
  8
0
  6
Continuous
 62
     7
370
    25
100
AcDbLine
 10
187.2530967293
 20
116.4444314766
 30
0.0
 11
187.2530967293
 21
116.9988178696
 31
0.0
  0
LINE
  5
155
330
1F
100
AcDbEntity
  8
0
  6
Continuous
 62
     7
370
    25
100
AcDbLine
 10
189.2530967293
 20
118.4958751387
 30
0.0
 11
189.2530967293
 21
116.4444314766
 31
0.0
  0
LINE
  5
156
330
1F
100
AcDbEntity
  8
0
  6
Continuous
 62
     7
370
    25
100
AcDbLine
 10
189.2530967293
 20
115.3501064798
 30
0.0
 11
189.2530967293
 21
114.3242333561
 31
0.0
  0
LINE
  5
157
330
1F
100
AcDbEntity
  8
0
  6
Continuous
 62
     7
370
    25
100
AcDbLine
 10
169.2530967292
 20
115.3501064798
 30
0.0
 11
169.2530967292
 21
114.3242333561
 31
0.0
  0
SPLINE
  5
158
330
1F
100
AcDbEntity
  8
0
  6
Continuous
 62
     7
370
    25
100
AcDbSpline
210
0.0
220
0.0
230
1.0
 70
     8
 71
     3
 72
    14
 73
    10
 74
     0
 42
0.000000001
 43
0.00000001
 40
0.0
 40
0.0
 40
0.0
 40
0.0
 40
0.25
 40
0.25
 40
0.5
 40
0.5
 40
0.75
 40
0.75
 40
1.0
 40
1.0
 40
1.0
 40
1.0
 10
118.318898924707
 20
111.0293352705933
 30
0.0
 10
118.122023039182
 20
111.2568318385225
 30
0.0
 10
117.9459147177925
 20
111.4984186135936
 30
0.0
 10
117.6361783240193
 20
112.0105758479677
 30
0.0
 10
117.5016203225258
 20
112.2841086510759
 30
0.0
 10
117.2863781698167
 20
112.8442137856133
 30
0.0
 10
117.2047349322977
 20
113.1311862810233
 30
0.0
 10
117.0942119100277
 20
113.7192252660676
 30
0.0
 10
117.0655967292771
 20
114.0236687218383
 30
0.0
 10
117.0655967292771
 20
114.32423335611
 30
0.0
  0
LINE
  5
159
330
1F
100
AcDbEntity
  8
0
  6
Continuous
 62
     7
370
    25
100
AcDbLine
 10
118.3188989247
 20
82.8492333561
 30
0.0
 11
118.3188989247
 21
111.0293352706
 31
0.0
  0
LINE
  5
15A
330
1F
100
AcDbEntity
  8
0
  6
Continuous
 62
     7
370
    25
100
AcDbLine
 10
118.3188989247
 20
145.7992333561
 30
0.0
 11
111.9530967293
 21
145.7992333561
 31
0.0
  0
LINE
  5
15B
330
1F
100
AcDbEntity
  8
0
  6
Continuous
 62
     7
370
    25
100
AcDbLine
 10
111.7530967293
 20
83.0492333561
 30
0.0
 11
111.7530967293
 21
114.3242333561
 31
0.0
  0
LINE
  5
15C
330
1F
100
AcDbEntity
  8
0
  6
Continuous
 62
     7
370
    25
100
AcDbLine
 10
111.7530967293
 20
114.3242333561
 30
0.0
 11
111.9530967293
 21
114.3242333561
 31
0.0
  0
ARC
  5
15D
330
1F
100
AcDbEntity
  8
0
  6
Continuous
 62
     7
370
    25
100
AcDbCircle
 10
111.9530967293
 20
145.5992333561
 30
0.0
 40
0.2000000000000028
100
AcDbArc
 50
90.0
 51
179.9999999999
  0
LINE
  5
15E
330
1F
100
AcDbEntity
  8
0
  6
Continuous
 62
     7
370
    25
100
AcDbLine
 10
124.9872945338
 20
82.8492333561
 30
0.0
 11
124.9872945338
 21
109.4345260764
 31
0.0
  0
SPLINE
  5
15F
330
1F
100
AcDbEntity
  8
0
  6
Continuous
 62
     7
370
    25
100
AcDbSpline
210
0.0
220
0.0
230
1.0
 70
     8
 71
     3
 72
    20
 73
    16
 74
     0
 42
0.000000001
 43
0.00000001
 40
0.0
 40
0.0
 40
0.0
 40
0.0
 40
0.1249999999999996
 40
0.1249999999999996
 40
0.2499999999999992
 40
0.2499999999999992
 40
0.3749999999999989
 40
0.3749999999999989
 40
0.4999999999999987
 40
0.4999999999999987
 40
0.7499999999999994
 40
0.7499999999999994
 40
0.8749999999999997
 40
0.8749999999999997
 40
1.0
 40
1.0
 40
1.0
 40
1.0
 10
128.5405967292771
 20
114.3242333561102
 30
0.0
 10
128.5405967292771
 20
114.0575652686289
 30
0.0
 10
128.5185497002334
 20
113.7892530933549
 30
0.0
 10
128.4295436625286
 20
113.2564100581215
 30
0.0
 10
128.3636646943291
 20
112.9971198481356
 30
0.0
 10
128.1914897866219
 20
112.4919928821141
 30
0.0
 10
128.084783215715
 20
112.2454126661929
 30
0.0
 10
127.8321063128388
 20
111.7689960154531
 30
0.0
 10
127.6886490486441
 20
111.5435759536883
 30
0.0
 10
127.2103268563636
 20
110.9029682720746
 30
0.0
 10
126.822299873398
 20
110.5202025569715
 30
0.0
 10
126.1804952249526
 20
110.0443003087998
 30
0.0
 10
125.9556905973054
 20
109.9007046726481
 30
0.0
 10
125.4843815396832
 20
109.6433732872576
 30
0.0
 10
125.2386849397943
 20
109.5303209087357
 30
0.0
 10
124.9872945338472
 20
109.434526076425
 30
0.0
  0
LINE
  5
160
330
1F
100
AcDbEntity
  8
0
  6
Continuous
 62
     7
370
    25
100
AcDbLine
 10
129.7530967293
 20
145.7992333561
 30
0.0
 11
124.9872945338
 21
145.7992333561
 31
0.0
  0
LINE
  5
161
330
1F
100
AcDbEntity
  8
0
  6
Continuous
 62
     7
370
    25
100
AcDbLine
 10
129.7530967293
 20
82.8492333561
 30
0.0
 11
129.7530967293
 21
114.3242333561
 31
0.0
  0
SPLINE
  5
162
330
1F
100
AcDbEntity
  8
0
  6
Continuous
 62
     7
370
    25
100
AcDbSpline
210
0.0
220
0.0
230
1.0
 70
     8
 71
     3
 72
     8
 73
     4
 74
     0
 42
0.000000001
 43
0.00000001
 40
0.0
 40
0.0
 40
0.0
 40
0.0
 40
1.0
 40
1.0
 40
1.0
 40
1.0
 10
124.9872945338468
 20
109.4345260764239
 30
0.0
 10
124.6388931291665
 20
109.8725014028378
 30
0.0
 10
124.2943247439336
 20
110.3155845414226
 30
0.0
 10
123.9559404446128
 20
110.7689756132711
 30
0.0
  0
ARC
  5
163
330
1F
100
AcDbEntity
  8
0
  6
Continuous
 62
     7
370
    25
100
AcDbCircle
 10
122.8030967293
 20
114.3242333561
 30
0.0
 40
3.737499999999993
100
AcDbArc
 50
287.9660359156
 51
0.0
  0
ARC
  5
164
330
1F
100
AcDbEntity
  8
0
  6
Continuous
 62
     7
370
    25
100
AcDbCircle
 10
122.8030967293
 20
114.3242333561
 30
0.0
 40
3.737500000000011
100
AcDbArc
 50
180.0
 51
206.113804444
  0
SPLINE
  5
165
330
1F
100
AcDbEntity
  8
0
  6
Continuous
 62
     7
370
    25
100
AcDbSpline
210
0.0
220
0.0
230
1.0
 70
     8
 71
     3
 72
    10
 73
     6
 74
     0
 42
0.000000001
 43
0.00000001
 40
0.0
 40
0.0
 40
0.0
 40
0.0
 40
0.5
 40
0.5
 40
1.0
 40
1.0
 40
1.0
 40
1.0
 10
119.4471149218238
 20
112.6791520942744
 30
0.0
 10
119.2702297754004
 20
112.3807017789179
 30
0.0
 10
119.084680400523
 20
112.1017090747904
 30
0.0
 10
118.7067314604755
 20
111.5563897806647
 30
0.0
 10
118.5139449182963
 20
111.2910543948433
 30
0.0
 10
118.318898924707
 20
111.0293352705933
 30
0.0
  0
SPLINE
  5
166
330
1F
100
AcDbEntity
  8
0
  6
Continuous
 62
     7
370
    25
100
AcDbSpline
210
0.0
220
0.0
230
1.0
 70
     8
 71
     3
 72
     8
 73
     4
 74
     0
 42
0.000000001
 43
0.00000001
 40
0.0
 40
0.0
 40
0.0
 40
0.0
 40
1.0
 40
1.0
 40
1.0
 40
1.0
 10
119.7780967292772
 20
112.1291749855877
 30
0.0
 10
119.6597999698472
 20
112.2921992140461
 30
0.0
 10
119.5483714876758
 20
112.4725877130686
 30
0.0
 10
119.4471149218238
 20
112.6791520942744
 30
0.0
  0
LINE
  5
167
330
1F
100
AcDbEntity
  8
0
  6
Continuous
 62
     7
370
    25
100
AcDbLine
 10
119.7780967293
 20
85.3766380919
 30
0.0
 11
119.7780967293
 21
112.1291749856
 31
0.0
  0
SPLINE
  5
168
330
1F
100
AcDbEntity
  8
0
  6
Continuous
 62
     7
370
    25
100
AcDbSpline
210
0.0
220
0.0
230
1.0
 70
     8
 71
     3
 72
     8
 73
     4
 74
     0
 42
0.000000001
 43
0.00000001
 40
0.0
 40
0.0
 40
0.0
 40
0.0
 40
1.0
 40
1.0
 40
1.0
 40
1.0
 10
123.9559404446131
 20
110.7689756132719
 30
0.0
 10
123.8144023563312
 20
110.7230798421749
 30
0.0
 10
123.6717918875943
 20
110.6861389912376
 30
0.0
 10
123.5280967292773
 20
110.657725310297
 30
0.0
  0
LINE
  5
169
330
1F
100
AcDbEntity
  8
0
  6
Continuous
 62
     7
370
    25
100
AcDbLine
 10
123.5280967293
 20
85.3766380919
 30
0.0
 11
123.5280967293
 21
110.6577253103
 31
0.0
  0
SPLINE
  5
16A
330
1F
100
AcDbEntity
  8
0
  6
Continuous
 62
     7
370
    25
100
AcDbSpline
210
0.0
220
0.0
230
1.0
 70
     8
 71
     3
 72
    14
 73
    10
 74
     0
 42
0.000000001
 43
0.00000001
 40
0.0
 40
0.0
 40
0.0
 40
0.0
 40
0.25
 40
0.25
 40
0.5
 40
0.5
 40
0.75
 40
0.75
 40
1.0
 40
1.0
 40
1.0
 40
1.0
 10
120.7780967292771
 20
111.182851295615
 30
0.0
 10
120.6437486429206
 20
111.2694548572426
 30
0.0
 10
120.5205719690647
 20
111.360923254566
 30
0.0
 10
120.2918253641466
 20
111.5521146411969
 30
0.0
 10
120.1899034001794
 20
111.6489764933379
 30
0.0
 10
120.0104799977507
 20
111.8368511080731
 30
0.0
 10
119.9340387095679
 20
111.9270864594244
 30
0.0
 10
119.8167487367178
 20
112.0748928234018
 30
0.0
 10
119.7780967292771
 20
112.1291749855878
 30
0.0
 10
119.7780967292771
 20
112.1291749855878
 30
0.0
  0
SPLINE
  5
16B
330
1F
100
AcDbEntity
  8
0
  6
Continuous
 62
     7
370
    25
100
AcDbSpline
210
0.0
220
0.0
230
1.0
 70
     8
 71
     3
 72
    14
 73
    10
 74
     0
 42
0.000000001
 43
0.00000001
 40
0.0
 40
0.0
 40
0.0
 40
0.0
 40
0.25
 40
0.25
 40
0.5
 40
0.5
 40
0.75
 40
0.75
 40
1.0
 40
1.0
 40
1.0
 40
1.0
 10
123.5280967292772
 20
110.6577253102975
 30
0.0
 10
123.5280967292774
 20
110.6577253102976
 30
0.0
 10
123.5021802067063
 20
110.6523485793092
 30
0.0
 10
123.4027353601287
 20
110.6348039917087
 30
0.0
 10
123.3304369677165
 20
110.6229545880624
 30
0.0
 10
123.1457330731926
 20
110.6013107700621
 30
0.0
 10
123.0361558113167
 20
110.5920215093778
 30
0.0
 10
122.7928256330985
 20
110.5847659730202
 30
0.0
 10
122.6612893741784
 20
110.5870373791795
 30
0.0
 10
122.5280967292771
 20
110.5968641431127
 30
0.0
  0
SPLINE
  5
16C
330
1F
100
AcDbEntity
  8
0
  6
Continuous
 62
     7
370
    25
100
AcDbSpline
210
0.0
220
0.0
230
1.0
 70
     8
 71
     3
 72
    10
 73
     6
 74
     0
 42
0.000000001
 43
0.00000001
 40
0.0
 40
0.0
 40
0.0
 40
0.0
 40
0.5
 40
0.5
 40
1.0
 40
1.0
 40
1.0
 40
1.0
 10
122.5280967292771
 20
110.5968641431128
 30
0.0
 10
122.215632826989
 20
110.6199172854818
 30
0.0
 10
121.9127438449912
 20
110.6811519878882
 30
0.0
 10
121.3254006601872
 20
110.8773239518121
 30
0.0
 10
121.0409329996152
 20
111.013421586912
 30
0.0
 10
120.7780967292771
 20
111.182851295615
 30
0.0
  0
LINE
  5
16D
330
1F
100
AcDbEntity
  8
0
  6
Continuous
 62
     7
370
    25
100
AcDbLine
 10
111.7530967293
 20
141.1742333561
 30
0.0
 11
112.0871354153
 21
140.1147979957
 31
0.0
  0
LINE
  5
16E
330
1F
100
AcDbEntity
  8
0
  6
Continuous
 62
     7
370
    25
100
AcDbLine
 10
111.7530967293
 20
141.1742333561
 30
0.0
 11
111.7530967293
 21
139.1989446228
 31
0.0
  0
ARC
  5
16F
330
1F
100
AcDbEntity
  8
0
  6
Continuous
 62
     7
370
    25
100
AcDbCircle
 10
111.3241618547
 20
139.8742333561
 30
0.0
 40
0.799999999999991
100
AcDbArc
 50
252.5
 51
17.5
  0
LINE
  5
170
330
1F
100
AcDbEntity
  8
0
  6
Continuous
 62
     7
370
    25
100
AcDbLine
 10
110.5929146892
 20
89.3824953106
 30
0.0
 11
110.5929146892
 21
114.3242333561
 31
0.0
  0
LINE
  5
171
330
1F
100
AcDbEntity
  8
0
  6
Continuous
 62
     7
370
    25
100
AcDbLine
 10
111.0835972151
 20
139.1112597955
 30
0.0
 11
110.5929146892
 21
139.2659714016
 31
0.0
  0
SPLINE
  5
172
330
1F
100
AcDbEntity
  8
0
  6
Continuous
 62
     7
370
    25
100
AcDbSpline
210
0.0
220
0.0
230
1.0
 70
     8
 71
     3
 72
    22
 73
    18
 74
     0
 42
0.000000001
 43
0.00000001
 40
0.0
 40
0.0
 40
0.0
 40
0.0
 40
0.0016445471980102
 40
0.0768294870796014
 40
0.1514593100030145
 40
0.2250437077752777
 40
0.2982167779920973
 40
0.371307839724042
 40
0.4444589911202457
 40
0.5161649089031316
 40
0.5876183127519716
 40
0.6612190000115756
 40
0.7342074239846615
 40
0.8076706235403185
 40
0.8813280608505051
 40
0.9557355653715427
 40
1.0
 40
1.0
 40
1.0
 40
1.0
 10
81.51281384798638
 20
137.7485245041408
 30
0.0
 10
81.51399249018371
 20
137.7481608704227
 30
0.0
 10
81.56905596028693
 20
137.7311727340643
 30
0.0
 10
81.96550114772232
 20
137.6138988834349
 30
0.0
 10
82.68157452724681
 20
137.4132843355532
 30
0.0
 10
83.69125018779111
 20
137.1726705208731
 30
0.0
 10
84.90722914573371
 20
136.9453978317558
 30
0.0
 10
86.31142992708368
 20
136.7730088235224
 30
0.0
 10
87.8284899696054
 20
136.6849389514348
 30
0.0
 10
89.40280297766807
 20
136.7159922562699
 30
0.0
 10
90.96856639361674
 20
136.8669944072117
 30
0.0
 10
92.45864096169093
 20
137.1214119252127
 30
0.0
 10
93.82950922477383
 20
137.4388473807769
 30
0.0
 10
95.01847812920035
 20
137.783894160426
 30
0.0
 10
95.98462647964553
 20
138.1074870749801
 30
0.0
 10
96.64171542323858
 20
138.352982018978
 30
0.0
 10
96.85754506011816
 20
138.4363377660455
 30
0.0
 10
96.93804915334363
 20
138.4674293201518
 30
0.0
  0
SPLINE
  5
173
330
1F
100
AcDbEntity
  8
0
  6
Continuous
 62
     7
370
    25
100
AcDbSpline
210
0.0
220
0.0
230
1.0
 70
     8
 71
     3
 72
     9
 73
     5
 74
     0
 42
0.000000001
 43
0.00000001
 40
0.0
 40
0.0
 40
0.0
 40
0.0
 40
0.0362226197549592
 40
1.0
 40
1.0
 40
1.0
 40
1.0
 10
97.1089639568616
 20
138.5329849868475
 30
0.0
 10
97.11450663097385
 20
138.5351105380062
 30
0.0
 10
97.2675235620997
 20
138.59379075421
 30
0.0
 10
97.2695186225713
 20
138.5954221379067
 30
0.0
 10
97.27144141672605
 20
138.5969944286121
 30
0.0
  0
LINE
  5
174
330
1F
100
AcDbEntity
  8
0
  6
Continuous
 62
     7
370
    25
100
AcDbLine
 10
81.353530844
 20
137.7976297177
 30
0.0
 11
73.3030967293
 21
137.3933534837
 31
0.0
  0
LINE
  5
175
330
1F
100
AcDbEntity
  8
0
  6
Continuous
 62
     7
370
    25
100
AcDbLine
 10
73.3030967293
 20
91.2551132285
 30
0.0
 11
73.3030967293
 21
105.2021103215
 31
0.0
  0
SPLINE
  5
176
330
1F
100
AcDbEntity
  8
0
  6
Continuous
 62
     7
370
    25
100
AcDbSpline
210
0.0
220
0.0
230
1.0
 70
     8
 71
     3
 72
     8
 73
     4
 74
     0
 42
0.000000001
 43
0.00000001
 40
0.0
 40
0.0
 40
0.0
 40
0.0
 40
1.0
 40
1.0
 40
1.0
 40
1.0
 10
79.12127118222409
 20
105.2066963798067
 30
0.0
 10
77.18187969791268
 20
105.2045502839571
 30
0.0
 10
75.24248821360126
 20
105.2029540974324
 30
0.0
 10
73.30309672928985
 20
105.2019066449567
 30
0.0
  0
SPLINE
  5
177
330
1F
100
AcDbEntity
  8
0
  6
Continuous
 62
     7
370
    25
100
AcDbSpline
210
0.0
220
0.0
230
1.0
 70
     8
 71
     3
 72
    13
 73
     9
 74
     0
 42
0.000000001
 43
0.00000001
 40
0.0
 40
0.0
 40
0.0
 40
0.0
 40
0.1686319999748085
 40
0.3360343310905433
 40
0.502536782590866
 40
0.6684737453788339
 40
0.834182263691515
 40
1.0
 40
1.0
 40
1.0
 40
1.0
 10
80.20476623169107
 20
105.3441528256244
 30
0.0
 10
80.14527633563134
 20
105.3296385055855
 30
0.0
 10
80.02673034535626
 20
105.300715704301
 30
0.0
 10
79.8468536497704
 20
105.2667543108927
 30
0.0
 10
79.66646336214237
 20
105.2398887485337
 30
0.0
 10
79.48535119010855
 20
105.2209298114258
 30
0.0
 10
79.30359035294109
 20
105.2089993600301
 30
0.0
 10
79.18205758504645
 20
105.2074642084613
 30
0.0
 10
79.12127118222408
 20
105.2066963798067
 30
0.0
  0
SPLINE
  5
178
330
1F
100
AcDbEntity
  8
0
  6
Continuous
 62
     7
370
    25
100
AcDbSpline
210
0.0
220
0.0
230
1.0
 70
     8
 71
     3
 72
     8
 73
     4
 74
     0
 42
0.000000001
 43
0.00000001
 40
0.0
 40
0.0
 40
0.0
 40
0.0
 40
1.0
 40
1.0
 40
1.0
 40
1.0
 10
85.59695964818393
 20
105.3483908675098
 30
0.0
 10
83.7995649767461
 20
105.3465198069858
 30
0.0
 10
82.00217030530827
 20
105.3450976259617
 30
0.0
 10
80.20477563387044
 20
105.3441235029657
 30
0.0
  0
SPLINE
  5
179
330
1F
100
AcDbEntity
  8
0
  6
Continuous
 62
     7
370
    25
100
AcDbSpline
210
0.0
220
0.0
230
1.0
 70
     8
 71
     3
 72
    18
 73
    14
 74
     0
 42
0.000000001
 43
0.00000001
 40
0.0
 40
0.0
 40
0.0
 40
0.0
 40
0.0923325137111192
 40
0.1843692047063016
 40
0.2763458873810836
 40
0.3684982175655623
 40
0.4610598988303626
 40
0.554260954653301
 40
0.6483261285442131
 40
0.74347346365053
 40
0.8399130993119804
 40
0.9201660718299768
 40
1.0
 40
1.0
 40
1.0
 40
1.0
 10
87.79328129678622
 20
104.8141986316662
 30
0.0
 10
87.72295099327317
 20
104.8146152560978
 30
0.0
 10
87.58251571642123
 20
104.8154471701444
 30
0.0
 10
87.3721531899186
 20
104.829056017059
 30
0.0
 10
87.16270952700225
 20
104.8517227744307
 30
0.0
 10
86.95415985662974
 20
104.8843235642314
 30
0.0
 10
86.74651623935446
 20
104.9266260428516
 30
0.0
 10
86.53977805181488
 20
104.9786974415068
 30
0.0
 10
86.33395595985002
 20
105.0405462143522
 30
0.0
 10
86.12902428105788
 20
105.1121442258084
 30
0.0
 10
85.93754353566219
 20
105.1887227160358
 30
0.0
 10
85.75982038360756
 20
105.2673339648689
 30
0.0
 10
85.65148638904354
 20
105.3212481206562
 30
0.0
 10
85.59746117959027
 20
105.3481346355552
 30
0.0
  0
LINE
  5
17A
330
1F
100
AcDbEntity
  8
0
  6
Continuous
 62
     7
370
    25
100
AcDbLine
 10
89.7081545761
 20
104.8156940665
 30
0.0
 11
87.7932812968
 21
104.8141986317
 31
0.0
  0
SPLINE
  5
17B
330
1F
100
AcDbEntity
  8
0
  6
Continuous
 62
     7
370
    25
100
AcDbSpline
210
0.0
220
0.0
230
1.0
 70
     8
 71
     3
 72
    25
 73
    21
 74
     0
 42
0.000000001
 43
0.00000001
 40
0.0
 40
0.0
 40
0.0
 40
0.0
 40
0.0280105225422753
 40
0.0559601148854256
 40
0.0839014045034749
 40
0.1118870776777086
 40
0.1399695827579646
 40
0.1682008401731476
 40
0.1966319670417595
 40
0.2253130233137476
 40
0.2542927850735311
 40
0.3799486436564626
 40
0.5057850221666382
 40
0.631308588631066
 40
0.7532068238011618
 40
0.8039473267946936
 40
0.8535894438541253
 40
0.9025339722380873
 40
0.9511970353782256
 40
1.0
 40
1.0
 40
1.0
 40
1.0
 10
94.64803888247856
 20
109.9495578710415
 30
0.0
 10
94.64807610421238
 20
109.874937844029
 30
0.0
 10
94.64815046671302
 20
109.7258601080435
 30
0.0
 10
94.63573441606644
 20
109.5032420170793
 30
0.0
 10
94.61412985571266
 20
109.2819175990519
 30
0.0
 10
94.58244438605264
 20
109.061949333164
 30
0.0
 10
94.54091824773269
 20
108.8433590459349
 30
0.0
 10
94.48948749200281
 20
108.6261771075299
 30
0.0
 10
94.42817361729158
 20
108.4104356876437
 30
0.0
 10
94.3569632817921
 20
108.1961457961915
 30
0.0
 10
94.18612667459098
 20
107.7477960231705
 30
0.0
 10
93.84839444115492
 20
107.0944651950984
 30
0.0
 10
93.23683977696021
 20
106.3225719844623
 30
0.0
 10
92.50060494180771
 20
105.678412359077
 30
0.0
 10
91.81411887016343
 20
105.286771191015
 30
0.0
 10
91.26541472401462
 20
105.0680762900419
 30
0.0
 10
90.88337854551303
 20
104.9522202412115
 30
0.0
 10
90.49621244680847
 20
104.8713123356816
 30
0.0
 10
90.10398577801834
 20
104.8220839048839
 30
0.0
 10
89.84022450989958
 20
104.8178260498687
 30
0.0
 10
89.70815457607569
 20
104.8156940665259
 30
0.0
  0
LINE
  5
17C
330
1F
100
AcDbEntity
  8
0
  6
Continuous
 62
     7
370
    25
100
AcDbLine
 10
94.6480388825
 20
114.3242333561
 30
0.0
 11
94.6480388825
 21
109.949557871
 31
0.0
  0
LINE
  5
17D
330
1F
100
AcDbEntity
  8
0
  6
Continuous
 62
     7
370
    25
100
AcDbLine
 10
110.5929146892
 20
139.2659714016
 30
0.0
 11
97.2714414167
 21
138.5969944286
 31
0.0
  0
SPLINE
  5
17E
330
1F
100
AcDbEntity
  8
0
  6
Continuous
 62
     7
370
    25
100
AcDbSpline
210
0.0
220
0.0
230
1.0
 70
     8
 71
     3
 72
    20
 73
    16
 74
     0
 42
0.000000001
 43
0.00000001
 40
0.0
 40
0.0
 40
0.0
 40
0.0
 40
0.0829621378684852
 40
0.1658495135106162
 40
0.2487180070857354
 40
0.329947721639852
 40
0.410869399444573
 40
0.4941953814850556
 40
0.5768901676626219
 40
0.6601065810557769
 40
0.7435845489350845
 40
0.8279858465401877
 40
0.9132590745392873
 40
0.9972257035811793
 40
1.0
 40
1.0
 40
1.0
 40
1.0
 10
83.66551282400407
 20
91.46097298860323
 30
0.0
 10
84.05125866007538
 20
91.53789141520737
 30
0.0
 10
84.82240271319255
 20
91.69165895254496
 30
0.0
 10
86.2301508643624
 20
91.86757417393049
 30
0.0
 10
87.73800223223701
 20
91.96157046125953
 30
0.0
 10
89.31049120725484
 20
91.93772607939292
 30
0.0
 10
90.87778823846695
 20
91.79382103449235
 30
0.0
 10
92.37356426524842
 20
91.54476343169331
 30
0.0
 10
93.75381814092113
 20
91.23008273915467
 30
0.0
 10
94.95141232397674
 20
90.88582138717413
 30
0.0
 10
95.93827435379897
 20
90.5567741613544
 30
0.0
 10
96.68551259999697
 20
90.27831325314662
 30
0.0
 10
97.13271402936257
 20
90.10645745811505
 30
0.0
 10
97.31946864151247
 20
90.0326067865165
 30
0.0
 10
97.26837042761433
 20
90.0527580775897
 30
0.0
 10
97.26673611726922
 20
90.05340259059624
 30
0.0
  0
SPLINE
  5
17F
330
1F
100
AcDbEntity
  8
0
  6
Continuous
 62
     7
370
    25
100
AcDbSpline
210
0.0
220
0.0
230
1.0
 70
     8
 71
     3
 72
    11
 73
     7
 74
     0
 42
0.000000001
 43
0.00000001
 40
0.0
 40
0.0
 40
0.0
 40
0.0
 40
0.2435512231731394
 40
0.498115392340354
 40
0.7509097881719452
 40
0.9999999999999999
 40
0.9999999999999999
 40
0.9999999999999999
 40
0.9999999999999999
 10
81.3580187062605
 20
90.8523107792201
 30
0.0
 10
81.38396962778577
 20
90.86054631575826
 30
0.0
 10
81.4370449245909
 20
90.87738978490773
 30
0.0
 10
81.91473990825337
 20
91.01829122704525
 30
0.0
 10
82.62607935652012
 20
91.22358177749345
 30
0.0
 10
83.3207440036948
 20
91.38223289569066
 30
0.0
 10
83.66551282400408
 20
91.46097298860323
 30
0.0
  0
LINE
  5
180
330
1F
100
AcDbEntity
  8
0
  6
Continuous
 62
     7
370
    25
100
AcDbLine
 10
94.6480388825
 20
109.949557871
 30
0.0
 11
93.7530967293
 21
110.1117333561
 31
0.0
  0
LINE
  5
181
330
1F
100
AcDbEntity
  8
0
  6
Continuous
 62
     7
370
    25
100
AcDbLine
 10
93.7530967293
 20
110.1117333561
 30
0.0
 11
93.7530967293
 21
114.3242333561
 31
0.0
  0
SPLINE
  5
182
330
1F
100
AcDbEntity
  8
0
  6
Continuous
 62
     7
370
    25
100
AcDbSpline
210
0.0
220
0.0
230
1.0
 70
     8
 71
     3
 72
    25
 73
    21
 74
     0
 42
0.000000001
 43
0.00000001
 40
0.0
 40
0.0
 40
0.0
 40
0.0
 40
0.0288821753116583
 40
0.0583636594024247
 40
0.088464720432864
 40
0.1192044006641432
 40
0.1506005800108822
 40
0.1826700399688414
 40
0.2154285269587146
 40
0.2488908143380118
 40
0.3610594471217245
 40
0.498467013106778
 40
0.5822693905006526
 40
0.6661127642782239
 40
0.7499972937224496
 40
0.8007709755032478
 40
0.8511237700807983
 40
0.901089602450676
 40
0.9507031914109089
 40
1.0
 40
1.0
 40
1.0
 40
1.0
 10
89.75309672927712
 20
106.1117333561101
 30
0.0
 10
89.81589718251584
 20
106.1125898400619
 30
0.0
 10
89.94280120631575
 20
106.1143205801156
 30
0.0
 10
90.13415561403022
 20
106.1284704455194
 30
0.0
 10
90.32806042670883
 20
106.1516075278408
 30
0.0
 10
90.52396114743725
 20
106.1850186800662
 30
0.0
 10
90.72129881544139
 20
106.228892502099
 30
0.0
 10
90.91945215722654
 20
106.2836877730683
 30
0.0
 10
91.11776790123473
 20
106.3497567344318
 30
0.0
 10
91.4690888887373
 20
106.4877380666849
 30
0.0
 10
91.99420065905976
 20
106.767790005526
 30
0.0
 10
92.5311924875453
 20
107.2063806079344
 30
0.0
 10
92.94325221758372
 20
107.6802407294811
 30
0.0
 10
93.23017080563619
 20
108.1119244773009
 30
0.0
 10
93.42859749284341
 20
108.515047719061
 30
0.0
 10
93.56068336689172
 20
108.87278387984
 30
0.0
 10
93.6463172466895
 20
109.1755362821224
 30
0.0
 10
93.70739945804254
 20
109.4840245923681
 30
0.0
 10
93.74590040140805
 20
109.7963363025244
 30
0.0
 10
93.75070308050152
 20
110.0068257164258
 30
0.0
 10
93.7530967292771
 20
110.1117333561101
 30
0.0
  0
SPLINE
  5
183
330
1F
100
AcDbEntity
  8
0
  6
Continuous
 62
     7
370
    25
100
AcDbSpline
210
0.0
220
0.0
230
1.0
 70
     8
 71
     3
 72
    13
 73
     9
 74
     0
 42
0.000000001
 43
0.00000001
 40
0.0
 40
0.0
 40
0.0
 40
0.0
 40
0.1722587823678385
 40
0.3421398271425444
 40
0.5097456258111679
 40
0.6751828993453325
 40
0.8385626190248169
 40
1.0
 40
1.0
 40
1.0
 40
1.0
 10
86.75311509818737
 20
106.2617281788599
 30
0.0
 10
86.81397848785991
 20
106.2454644511603
 30
0.0
 10
86.93486515230532
 20
106.2131614886796
 30
0.0
 10
87.11792631027777
 20
106.175773833986
 30
0.0
 10
87.3000289932184
 20
106.1466408990759
 30
0.0
 10
87.48097044153505
 20
106.1264541834705
 30
0.0
 10
87.66030944523133
 20
106.1140073791698
 30
0.0
 10
87.77915567364471
 20
106.1124883359425
 30
0.0
 10
87.83822344998765
 20
106.1117333561101
 30
0.0
  0
LINE
  5
184
330
1F
100
AcDbEntity
  8
0
  6
Continuous
 62
     7
370
    25
100
AcDbLine
 10
87.7932812968
 20
104.8141986317
 30
0.0
 11
87.83822345
 21
106.1117333561
 31
0.0
  0
SPLINE
  5
185
330
1F
100
AcDbEntity
  8
0
  6
Continuous
 62
     7
370
    25
100
AcDbSpline
210
0.0
220
0.0
230
1.0
 70
     8
 71
     3
 72
    11
 73
     7
 74
     0
 42
0.000000001
 43
0.00000001
 40
0.0
 40
0.0
 40
0.0
 40
0.0
 40
0.2392913844325938
 40
0.5001130135003002
 40
0.7515028526498353
 40
0.9999999999999999
 40
0.9999999999999999
 40
0.9999999999999999
 40
0.9999999999999999
 10
86.42562423713116
 20
106.2623069611332
 30
0.0
 10
86.35679930118422
 20
106.1907535239785
 30
0.0
 10
86.21295690501103
 20
106.0412086284672
 30
0.0
 10
86.00520810664445
 20
105.8122912018217
 30
0.0
 10
85.79722190202334
 20
105.5799728295819
 30
0.0
 10
85.66422097825308
 20
105.4251969469907
 30
0.0
 10
85.59810533402863
 20
105.3482568258408
 30
0.0
  0
SPLINE
  5
186
330
1F
100
AcDbEntity
  8
0
  6
Continuous
 62
     7
370
    25
100
AcDbSpline
210
0.0
220
0.0
230
1.0
 70
    24
 71
     3
 72
     9
 73
     5
 74
     0
 42
0.000000001
 43
0.00000001
 40
0.0
 40
0.0
 40
0.0
 40
0.0
 40
0.509083966986604
 40
1.0
 40
1.0
 40
1.0
 40
1.0
 10
86.42785450545064
 20
106.2617333561101
 30
0.0
 10
86.482587905563
 20
106.2617333561101
 30
0.0
 10
86.59010140758181
 20
106.2617333561101
 30
0.0
 10
86.69949396795276
 20
106.2617333561101
 30
0.0
 10
86.75319652973126
 20
106.2617333561101
 30
0.0
  0
LINE
  5
187
330
1F
100
AcDbEntity
  8
0
  6
Continuous
 62
     7
370
    25
100
AcDbLine
 10
80.1792466409
 20
106.2416815823
 30
0.0
 11
80.2046611325
 21
105.3441234117
 31
0.0
  0
SPLINE
  5
188
330
1F
100
AcDbEntity
  8
0
  6
Continuous
 62
     7
370
    25
100
AcDbSpline
210
0.0
220
0.0
230
1.0
 70
     8
 71
     3
 72
     8
 73
     4
 74
     0
 42
0.000000001
 43
0.00000001
 40
0.0
 40
0.0
 40
0.0
 40
0.0
 40
1.0
 40
1.0
 40
1.0
 40
1.0
 10
80.17925783200533
 20
106.2416820724493
 30
0.0
 10
80.20106068848737
 20
106.2473794034819
 30
0.0
 10
80.22281539788487
 20
106.2532609862769
 30
0.0
 10
80.24451885320293
 20
106.25932598083
 30
0.0
  0
LINE
  5
189
330
1F
100
AcDbEntity
  8
0
  6
Continuous
 62
     7
370
    25
100
AcDbLine
 10
80.2530967293
 20
106.2617333561
 30
0.0
 11
86.4267697016
 21
106.2617333561
 31
0.0
  0
LINE
  5
18A
330
1F
100
AcDbEntity
  8
0
  6
Continuous
 62
     7
370
    25
100
AcDbLine
 10
87.83822345
 20
106.1117333561
 30
0.0
 11
89.7530967293
 21
106.1117333561
 31
0.0
  0
SPLINE
  5
18B
330
1F
100
AcDbEntity
  8
0
  6
Continuous
 62
     7
370
    25
100
AcDbSpline
210
0.0
220
0.0
230
1.0
 70
     8
 71
     3
 72
    13
 73
     9
 74
     0
 42
0.000000001
 43
0.00000001
 40
0.0
 40
0.0
 40
0.0
 40
0.0
 40
0.1621004456571512
 40
0.325943455157606
 40
0.4915935308260523
 40
0.6591130873964648
 40
0.8285624736043361
 40
1.0
 40
1.0
 40
1.0
 40
1.0
 10
79.16797000856657
 20
106.1117333561101
 30
0.0
 10
79.22352496663211
 20
106.1124023223113
 30
0.0
 10
79.33523209309686
 20
106.1137474460347
 30
0.0
 10
79.50307978249063
 20
106.124694014826
 30
0.0
 10
79.67186620135902
 20
106.1423329441467
 30
0.0
 10
79.84119055789085
 20
106.1676384581346
 30
0.0
 10
80.01093720606822
 20
106.1999424609275
 30
0.0
 10
80.12293010472587
 20
106.2277140608136
 30
0.0
 10
80.1792531397556
 20
106.2416808463148
 30
0.0
  0
LINE
  5
18C
330
1F
100
AcDbEntity
  8
0
  6
Continuous
 62
     7
370
    25
100
AcDbLine
 10
72.3894369077
 20
105.5842316122
 30
0.0
 11
73.3030967293
 21
106.1117333561
 31
0.0
  0
LINE
  5
18D
330
1F
100
AcDbEntity
  8
0
  6
Continuous
 62
     7
370
    25
100
AcDbLine
 10
73.3030967293
 20
106.1117333561
 30
0.0
 11
79.1679700086
 21
106.1117333561
 31
0.0
  0
SPLINE
  5
18E
330
1F
100
AcDbEntity
  8
0
  6
Continuous
 62
     7
370
    25
100
AcDbSpline
210
0.0
220
0.0
230
1.0
 70
     8
 71
     3
 72
     8
 73
     4
 74
     0
 42
0.000000001
 43
0.00000001
 40
0.0
 40
0.0
 40
0.0
 40
0.0
 40
1.0
 40
1.0
 40
1.0
 40
1.0
 10
73.30309672882615
 20
105.2019066447341
 30
0.0
 10
72.99854345512064
 20
105.3305975092808
 30
0.0
 10
72.69399018141509
 20
105.4580422655426
 30
0.0
 10
72.38943690770958
 20
105.5842316121803
 30
0.0
  0
LINE
  5
18F
330
1F
100
AcDbEntity
  8
0
  6
Continuous
 62
     7
370
    25
100
AcDbLine
 10
71.8030967293
 20
92.1211386323
 30
0.0
 11
71.8030967293
 21
105.2457079523
 31
0.0
  0
SPLINE
  5
190
330
1F
100
AcDbEntity
  8
0
  6
Continuous
 62
     7
370
    25
100
AcDbSpline
210
0.0
220
0.0
230
1.0
 70
    24
 71
     3
 72
     8
 73
     4
 74
     0
 42
0.000000001
 43
0.00000001
 40
0.0
 40
0.0
 40
0.0
 40
0.0
 40
1.0
 40
1.0
 40
1.0
 40
1.0
 10
72.38943690770957
 20
105.5842316121803
 30
0.0
 10
72.19310488205122
 20
105.4708792643159
 30
0.0
 10
71.997643861811
 20
105.3580297916641
 30
0.0
 10
71.80309672927709
 20
105.2457079523256
 30
0.0
  0
ARC
  5
191
330
1F
100
AcDbEntity
  8
0
  6
Continuous
 62
     7
370
    25
100
AcDbCircle
 10
132.7530967293
 20
133.3242333561
 30
0.0
 40
3.000000000000028
100
AcDbArc
 50
180.0
 51
270.0
  0
LINE
  5
192
330
1F
100
AcDbEntity
  8
0
  6
Continuous
 62
     7
370
    25
100
AcDbLine
 10
103.5283372029
 20
132.5742333561
 30
0.0
 11
104.9530967293
 21
132.5742333561
 31
0.0
  0
ARC
  5
193
330
1F
100
AcDbEntity
  8
0
  6
Continuous
 62
     7
370
    25
100
AcDbCircle
 10
104.9530967293
 20
131.7742333561
 30
0.0
 40
0.8000000000000114
100
AcDbArc
 50
0.0
 51
90.0
  0
ARC
  5
194
330
1F
100
AcDbEntity
  8
0
  6
Continuous
 62
     7
370
    25
100
AcDbCircle
 10
103.5283372029
 20
131.7742333561
 30
0.0
 40
0.8000000000000242
100
AcDbArc
 50
90.0
 51
120.0
  0
LINE
  5
195
330
1F
100
AcDbEntity
  8
0
  6
Continuous
 62
     7
370
    25
100
AcDbLine
 10
102.2530967293
 20
131.9617333561
 30
0.0
 11
102.2530967293
 21
114.3242333561
 31
0.0
  0
LINE
  5
196
330
1F
100
AcDbEntity
  8
0
  6
Continuous
 62
     7
370
    25
100
AcDbLine
 10
102.2530967293
 20
131.9617333561
 30
0.0
 11
103.1283372029
 21
132.4670536791
 31
0.0
  0
LINE
  5
197
330
1F
100
AcDbEntity
  8
0
  6
Continuous
 62
     7
370
    25
100
AcDbLine
 10
72.5547627791
 20
105.6796825485
 30
0.0
 11
72.4182940067
 21
105.6008922661
 31
0.0
  0
SPLINE
  5
198
330
1F
100
AcDbEntity
  8
0
  6
Continuous
 62
     7
370
    25
100
AcDbSpline
210
0.0
220
0.0
230
1.0
 70
     8
 71
     3
 72
    32
 73
    28
 74
     0
 42
0.000000001
 43
0.00000001
 40
0.0
 40
0.0
 40
0.0
 40
0.0
 40
0.1249999999999994
 40
0.1249999999999994
 40
0.1874999999999991
 40
0.1874999999999991
 40
0.2499999999999987
 40
0.2499999999999987
 40
0.3124999999999984
 40
0.3124999999999984
 40
0.3749999999999981
 40
0.3749999999999981
 40
0.4999999999999977
 40
0.4999999999999977
 40
0.5624999999999978
 40
0.5624999999999978
 40
0.6249999999999979
 40
0.6249999999999979
 40
0.7499999999999981
 40
0.7499999999999981
 40
0.8124999999999986
 40
0.8124999999999986
 40
0.874999999999999
 40
0.874999999999999
 40
0.9374999999999996
 40
0.9374999999999996
 40
1.0
 40
1.0
 40
1.0
 40
1.0
 10
86.22072706061773
 20
130.4969021103196
 30
0.0
 10
85.73665281666372
 20
130.4972615029392
 30
0.0
 10
85.25325524609684
 20
130.5122207091206
 30
0.0
 10
84.52934989636084
 20
130.5592047556292
 30
0.0
 10
84.288687462824
 20
130.5789813107537
 30
0.0
 10
83.81734135374838
 20
130.6259453942529
 30
0.0
 10
83.58550553745812
 20
130.6531992434373
 30
0.0
 10
83.12980245090182
 20
130.7148271720499
 30
0.0
 10
82.90593412796049
 20
130.7492022728454
 30
0.0
 10
82.46660653595269
 20
130.8245217164984
 30
0.0
 10
82.2498891432863
 20
130.8657396672467
 30
0.0
 10
81.62354716461347
 20
130.9959764864275
 30
0.0
 10
81.23915453026008
 20
131.0910163983266
 30
0.0
 10
80.71161278464024
 20
131.2372833602791
 30
0.0
 10
80.54397863310916
 20
131.2866519954697
 30
0.0
 10
80.2255738858686
 20
131.38505570297
 30
0.0
 10
80.07599301132944
 20
131.4337389676025
 30
0.0
 10
79.662972941781
 20
131.5733617707709
 30
0.0
 10
79.43142117062185
 20
131.6589484493514
 30
0.0
 10
79.14811165553218
 20
131.7679114972675
 30
0.0
 10
79.0645439737604
 20
131.800960149842
 30
0.0
 10
78.92261914143617
 20
131.8579635460823
 30
0.0
 10
78.86363102999364
 20
131.8821602516927
 30
0.0
 10
78.7689151262838
 20
131.9213625320717
 30
0.0
 10
78.73318715913703
 20
131.9363696985688
 30
0.0
 10
78.68522288141956
 20
131.9565786962957
 30
0.0
 10
78.6730965739861
 20
131.96173335611
 30
0.0
 10
78.6730965739861
 20
131.96173335611
 30
0.0
  0
SPLINE
  5
199
330
1F
100
AcDbEntity
  8
0
  6
Continuous
 62
     7
370
    25
100
AcDbSpline
210
0.0
220
0.0
230
1.0
 70
     8
 71
     3
 72
    31
 73
    27
 74
     0
 42
0.000000001
 43
0.00000001
 40
0.0
 40
0.0
 40
0.0
 40
0.0
 40
0.0161756722762516
 40
0.0323169137831901
 40
0.0484425619887068
 40
0.0645715089965098
 40
0.0807226353345217
 40
0.0969147439454888
 40
0.1131664955259477
 40
0.1294963463054467
 40
0.1459224892616117
 40
0.16246279963486
 40
0.1791347854483569
 40
0.1959555435640281
 40
0.2945755146277851
 40
0.3932797312250729
 40
0.492817622193321
 40
0.5924285912823334
 40
0.693902091744813
 40
0.7927115381487326
 40
0.8267756331435502
 40
0.860804332496487
 40
0.8949846314009902
 40
0.9295010594357855
 40
0.9645328322468291
 40
1.0
 40
1.0
 40
1.0
 40
1.0
 10
97.22904611936119
 20
131.96173335611
 30
0.0
 10
97.22831301891
 20
131.9613869646821
 30
0.0
 10
97.22684837845051
 20
131.9606949191386
 30
0.0
 10
97.21379199878542
 20
131.9551125570923
 30
0.0
 10
97.19277743826264
 20
131.946245794098
 30
0.0
 10
97.16303023292194
 20
131.9338046933831
 30
0.0
 10
97.12475792026632
 20
131.9179140348279
 30
0.0
 10
97.07790523934517
 20
131.8985882910007
 30
0.0
 10
97.0224875093082
 20
131.8758722014812
 30
0.0
 10
96.95850154547774
 20
131.8498031971066
 30
0.0
 10
96.88594806132717
 20
131.8204207497384
 30
0.0
 10
96.80483136384751
 20
131.7877665024036
 30
0.0
 10
96.71513770909753
 20
131.7518740553692
 30
0.0
 10
96.45809186244105
 20
131.6496361477024
 30
0.0
 10
95.93005587684817
 20
131.4431119342357
 30
0.0
 10
94.951421229602
 20
131.1060266208858
 30
0.0
 10
93.7655449266832
 20
130.762881761558
 30
0.0
 10
92.39507866160996
 20
130.4657698608974
 30
0.0
 10
90.90922138964538
 20
130.2557264331644
 30
0.0
 10
89.68906875588031
 20
130.1975010302959
 30
0.0
 10
88.8226447229355
 20
130.2111933715559
 30
0.0
 10
88.29439979445866
 20
130.236561457167
 30
0.0
 10
87.76962656325247
 20
130.2785840728845
 30
0.0
 10
87.24863732366
 20
130.3368680361125
 30
0.0
 10
86.73139637860154
 20
130.409491581358
 30
0.0
 10
86.39575926626769
 20
130.4683718990478
 30
0.0
 10
86.22690427820595
 20
130.4979938775931
 30
0.0
  0
LINE
  5
19A
330
1F
100
AcDbEntity
  8
0
  6
Continuous
 62
     7
370
    25
100
AcDbLine
 10
97.2290461194
 20
131.9617333561
 30
0.0
 11
102.2530967293
 21
131.9617333561
 31
0.0
  0
LINE
  5
19B
330
1F
100
AcDbEntity
  8
0
  6
Continuous
 62
     7
370
    25
100
AcDbLine
 10
94.4030967293
 20
118.3870067669
 30
0.0
 11
94.4030967293
 21
114.3242333561
 31
0.0
  0
SPLINE
  5
19C
330
1F
100
AcDbEntity
  8
0
  6
Continuous
 62
     7
370
    25
100
AcDbSpline
210
0.0
220
0.0
230
1.0
 70
     8
 71
     3
 72
    25
 73
    21
 74
     0
 42
0.000000001
 43
0.00000001
 40
0.0
 40
0.0
 40
0.0
 40
0.0
 40
0.0278144320063462
 40
0.0555680196245754
 40
0.083331625367772
 40
0.111176035216759
 40
0.1391714221532265
 40
0.1673868326284763
 40
0.1958897140434718
 40
0.2247454979318961
 40
0.254017249222145
 40
0.3796724410016501
 40
0.5056484635002454
 40
0.629752729069345
 40
0.7535891720571729
 40
0.8038564806093713
 40
0.853339684343451
 40
0.9023264398358534
 40
0.9511131859219439
 40
1.0
 40
1.0
 40
1.0
 40
1.0
 10
89.75309672927712
 20
122.8717299384751
 30
0.0
 10
89.82175208323942
 20
122.871196853368
 30
0.0
 10
89.9589126067921
 20
122.8701318492835
 30
0.0
 10
90.16415518937788
 20
122.8570369518913
 30
0.0
 10
90.36847620587496
 20
122.8354984653188
 30
0.0
 10
90.57187725796395
 20
122.8046769934702
 30
0.0
 10
90.77435288880983
 20
122.7647642409627
 30
0.0
 10
90.97590175305747
 20
122.7156640480218
 30
0.0
 10
91.17651577386016
 20
122.6573508005099
 30
0.0
 10
91.37621353819246
 20
122.5897588576431
 30
0.0
 10
91.79177835887174
 20
122.4289453415275
 30
0.0
 10
92.39455477541428
 20
122.1149684421862
 30
0.0
 10
93.08861133091918
 20
121.5513969666915
 30
0.0
 10
93.65538496031631
 20
120.8756527474374
 30
0.0
 10
93.99296276598758
 20
120.2582909199609
 30
0.0
 10
94.18142517527644
 20
119.7662294804509
 30
0.0
 10
94.28068639280092
 20
119.4285776979045
 30
0.0
 10
94.35103098150779
 20
119.085946555881
 30
0.0
 10
94.39502958002639
 20
118.7385818554394
 30
0.0
 10
94.40040584350668
 20
118.5042784788325
 30
0.0
 10
94.40309672927711
 20
118.3870067669098
 30
0.0
  0
LINE
  5
19D
330
1F
100
AcDbEntity
  8
0
  6
Continuous
 62
     7
370
    25
100
AcDbLine
 10
87.83822345
 20
122.8717299385
 30
0.0
 11
89.7530967293
 21
122.8717299385
 31
0.0
  0
SPLINE
  5
19E
330
1F
100
AcDbEntity
  8
0
  6
Continuous
 62
     7
370
    25
100
AcDbSpline
210
0.0
220
0.0
230
1.0
 70
     8
 71
     3
 72
    12
 73
     8
 74
     0
 42
0.000000001
 43
0.00000001
 40
0.0
 40
0.0
 40
0.0
 40
0.0
 40
0.1992838848975294
 40
0.3984605265796777
 40
0.5979968004971673
 40
0.7983570684833388
 40
1.0
 40
1.0
 40
1.0
 40
1.0
 10
86.83718960764867
 20
122.7695356257516
 30
0.0
 10
86.90264288494912
 20
122.7825579785163
 30
0.0
 10
87.03351421633108
 20
122.8085956761585
 30
0.0
 10
87.23236366795484
 20
122.8370262351325
 30
0.0
 10
87.4327701838259
 20
122.857457396114
 30
0.0
 10
87.63494110124314
 20
122.8698964731846
 30
0.0
 10
87.77031868489422
 20
122.8711174847592
 30
0.0
 10
87.83822344998765
 20
122.8717299384751
 30
0.0
  0
LINE
  5
19F
330
1F
100
AcDbEntity
  8
0
  6
Continuous
 62
     7
370
    25
100
AcDbLine
 10
81.4124266001
 20
122.7693717017
 30
0.0
 11
86.8364166186
 21
122.7693717017
 31
0.0
  0
SPLINE
  5
1A0
330
1F
100
AcDbEntity
  8
0
  6
Continuous
 62
     7
370
    25
100
AcDbSpline
210
0.0
220
0.0
230
1.0
 70
     8
 71
     3
 72
    24
 73
    20
 74
     0
 42
0.000000001
 43
0.00000001
 40
0.0
 40
0.0
 40
0.0
 40
0.0
 40
0.0410257106287842
 40
0.0818520099077639
 40
0.1225800578354648
 40
0.1633117464058233
 40
0.2041489402806705
 40
0.2451927184749161
 40
0.2865426449235763
 40
0.3282960933646444
 40
0.370547647549383
 40
0.4133885920102291
 40
0.4569065022351533
 40
0.5011849368587563
 40
0.6001856774947433
 40
0.6987388860447942
 40
0.7976800645453981
 40
0.8978349910029445
 40
1.0
 40
1.0
 40
1.0
 40
1.0
 10
77.64043969312698
 20
124.707013518773
 30
0.0
 10
77.7034787810815
 20
124.7064788184579
 30
0.0
 10
77.82925054646338
 20
124.7054120168152
 30
0.0
 10
78.0171887079742
 20
124.6942685248171
 30
0.0
 10
78.2037788007988
 20
124.6761070265094
 30
0.0
 10
78.38902058333393
 20
124.650232105788
 30
0.0
 10
78.57290976656184
 20
124.6167952199763
 30
0.0
 10
78.75544343253463
 20
124.5757111984327
 30
0.0
 10
78.93661883947395
 20
124.5269484503392
 30
0.0
 10
79.11643362345008
 20
124.4704509621955
 30
0.0
 10
79.29488682252965
 20
124.4061598673933
 30
0.0
 10
79.47197486067932
 20
124.3340061874609
 30
0.0
 10
79.64770698496507
 20
124.2539190024222
 30
0.0
 10
79.89272161856137
 20
124.1300781157397
 30
0.0
 10
80.19690469774359
 20
123.9514531335466
 30
0.0
 10
80.54421217918868
 20
123.7023639494893
 30
0.0
 10
80.8633864426611
 20
123.4227943645097
 30
0.0
 10
81.1572983449258
 20
123.1139687265375
 30
0.0
 10
81.32682243161764
 20
122.8858766832357
 30
0.0
 10
81.41242660010045
 20
122.7706975952051
 30
0.0
  0
LINE
  5
1A1
330
1F
100
AcDbEntity
  8
0
  6
Continuous
 62
     7
370
    25
100
AcDbLine
 10
74.8488979762
 20
124.7070135188
 30
0.0
 11
77.6404396931
 21
124.7070135188
 31
0.0
  0
SPLINE
  5
1A2
330
1F
100
AcDbEntity
  8
0
  6
Continuous
 62
     7
370
    25
100
AcDbSpline
210
0.0
220
0.0
230
1.0
 70
     8
 71
     3
 72
     8
 73
     4
 74
     0
 42
0.000000001
 43
0.00000001
 40
0.0
 40
0.0
 40
0.0
 40
0.0
 40
1.0
 40
1.0
 40
1.0
 40
1.0
 10
74.80309390451836
 20
124.7704665097827
 30
0.0
 10
74.81836192841604
 20
124.7493500393846
 30
0.0
 10
74.83362995231374
 20
124.7281989723319
 30
0.0
 10
74.84889797621142
 20
124.707013518773
 30
0.0
  0
LINE
  5
1A3
330
1F
100
AcDbEntity
  8
0
  6
Continuous
 62
     7
370
    25
100
AcDbLine
 10
74.8030967293
 20
131.9617333561
 30
0.0
 11
74.8030967293
 21
124.7704665098
 31
0.0
  0
LINE
  5
1A4
330
1F
100
AcDbEntity
  8
0
  6
Continuous
 62
     7
370
    25
100
AcDbLine
 10
74.8030967293
 20
131.9617333561
 30
0.0
 11
78.673096574
 21
131.9617333561
 31
0.0
  0
LINE
  5
1A5
330
1F
100
AcDbEntity
  8
0
  6
Continuous
 62
     7
370
    25
100
AcDbLine
 10
180.9282777846
 20
98.3242333561
 30
0.0
 11
180.9282777846
 21
114.3242333561
 31
0.0
  0
LINE
  5
1A6
330
1F
100
AcDbEntity
  8
0
  6
Continuous
 62
     7
370
    25
100
AcDbLine
 10
180.9282777846
 20
130.3242333561
 30
0.0
 11
132.7530967293
 21
130.3242333561
 31
0.0
  0
LINE
  5
1A7
330
1F
100
AcDbEntity
  8
0
  6
Continuous
 62
     7
370
    25
100
AcDbLine
 10
229.9100149207
 20
126.4692870403
 30
0.0
 11
180.9282777846
 21
130.3242333561
 31
0.0
  0
LINE
  5
1A8
330
1F
100
AcDbEntity
  8
0
  6
Continuous
 62
     7
370
    25
100
AcDbLine
 10
105.7530967293
 20
129.8742333561
 30
0.0
 11
109.4530967293
 21
129.8742333561
 31
0.0
  0
LINE
  5
1A9
330
1F
100
AcDbEntity
  8
0
  6
Continuous
 62
     7
370
    25
100
AcDbLine
 10
105.7530967293
 20
129.8742333561
 30
0.0
 11
105.7530967293
 21
114.3242333561
 31
0.0
  0
ARC
  5
1AA
330
1F
100
AcDbEntity
  8
0
  6
Continuous
 62
     7
370
    25
100
AcDbCircle
 10
109.4530967293
 20
128.6742333561
 30
0.0
 40
1.200000000000017
100
AcDbArc
 50
0.0
 51
90.0
  0
LINE
  5
1AB
330
1F
100
AcDbEntity
  8
0
  6
Continuous
 62
     7
370
    25
100
AcDbLine
 10
231.7530967293
 20
104.1730144267
 30
0.0
 11
231.7530967293
 21
114.3242333561
 31
0.0
  0
ARC
  5
1AC
330
1F
100
AcDbEntity
  8
0
  6
Continuous
 62
     7
370
    25
100
AcDbCircle
 10
229.7530967293
 20
124.4754523728
 30
0.0
 40
2.0
100
AcDbArc
 50
0.0
 51
85.5
  0
ARC
  5
1AD
330
1F
100
AcDbEntity
  8
0
  6
Continuous
 62
     7
370
    25
100
AcDbCircle
 10
231.2530967293
 20
121.3609276042
 30
0.0
 40
0.5000000000000014
100
AcDbArc
 50
280.0
 51
0.0
  0
LINE
  5
1AE
330
1F
100
AcDbEntity
  8
0
  6
Continuous
 62
     7
370
    25
100
AcDbLine
 10
231.7530967293
 20
121.3609276042
 30
0.0
 11
231.7530967293
 21
114.3242333561
 31
0.0
  0
LINE
  5
1AF
330
1F
100
AcDbEntity
  8
0
  6
Continuous
 62
     7
370
    25
100
AcDbLine
 10
228.2530967293
 20
120.3242333561
 30
0.0
 11
228.2530967293
 21
114.3242333561
 31
0.0
  0
LINE
  5
1B0
330
1F
100
AcDbEntity
  8
0
  6
Continuous
 62
     7
370
    25
100
AcDbLine
 10
228.2530967293
 20
120.3242333561
 30
0.0
 11
231.3399208181
 21
120.8685237277
 31
0.0
  0
LINE
  5
1B1
330
1F
100
AcDbEntity
  8
0
  6
Continuous
 62
     7
370
    25
100
AcDbLine
 10
185.6530967293
 20
120.6242333561
 30
0.0
 11
194.8583227112
 21
120.6242333561
 31
0.0
  0
ARC
  5
1B2
330
1F
100
AcDbEntity
  8
0
  6
Continuous
 62
     7
370
    25
100
AcDbCircle
 10
185.6530967293
 20
120.2242333561
 30
0.0
 40
0.4000000000000057
100
AcDbArc
 50
90.0
 51
180.0
  0
ARC
  5
1B3
330
1F
100
AcDbEntity
  8
0
  6
Continuous
 62
     7
370
    25
100
AcDbCircle
 10
194.8583227112
 20
120.2242333561
 30
0.0
 40
0.4000000000000074
100
AcDbArc
 50
70.0
 51
90.0
  0
LINE
  5
1B4
330
1F
100
AcDbEntity
  8
0
  6
Continuous
 62
     7
370
    25
100
AcDbLine
 10
195.7530967293
 20
120.3242333561
 30
0.0
 11
195.7530967293
 21
114.3242333561
 31
0.0
  0
LINE
  5
1B5
330
1F
100
AcDbEntity
  8
0
  6
Continuous
 62
     7
370
    25
100
AcDbLine
 10
194.9951307685
 20
120.6001104044
 30
0.0
 11
195.7530967293
 21
120.3242333561
 31
0.0
  0
LINE
  5
1B6
330
1F
100
AcDbEntity
  8
0
  6
Continuous
 62
     7
370
    25
100
AcDbLine
 10
195.7530967293
 20
120.3242333561
 30
0.0
 11
228.2530967293
 21
120.3242333561
 31
0.0
  0
LINE
  5
1B7
330
1F
100
AcDbEntity
  8
0
  6
Continuous
 62
     7
370
    25
100
AcDbLine
 10
114.4780967293
 20
120.0742333561
 30
0.0
 11
115.3030967293
 21
120.0742333561
 31
0.0
  0
LINE
  5
1B8
330
1F
100
AcDbEntity
  8
0
  6
Continuous
 62
     7
370
    25
100
AcDbLine
 10
111.0530967293
 20
119.3242333561
 30
0.0
 11
111.0530967293
 21
114.3242333561
 31
0.0
  0
LINE
  5
1B9
330
1F
100
AcDbEntity
  8
0
  6
Continuous
 62
     7
370
    25
100
AcDbLine
 10
110.6530967293
 20
119.5551734638
 30
0.0
 11
111.0530967293
 21
119.3242333561
 31
0.0
  0
LINE
  5
1BA
330
1F
100
AcDbEntity
  8
0
  6
Continuous
 62
     7
370
    25
100
AcDbLine
 10
110.6530967293
 20
119.5551734638
 30
0.0
 11
110.6530967293
 21
114.3242333561
 31
0.0
  0
LINE
  5
1BB
330
1F
100
AcDbEntity
  8
0
  6
Continuous
 62
     7
370
    25
100
AcDbLine
 10
184.7530967293
 20
118.8242333561
 30
0.0
 11
185.2530967293
 21
119.3242333561
 31
0.0
  0
LINE
  5
1BC
330
1F
100
AcDbEntity
  8
0
  6
Continuous
 62
     7
370
    25
100
AcDbLine
 10
111.0530967293
 20
119.3242333561
 30
0.0
 11
114.4780967293
 21
119.3242333561
 31
0.0
  0
LINE
  5
1BD
330
1F
100
AcDbEntity
  8
0
  6
Continuous
 62
     7
370
    25
100
AcDbLine
 10
114.4780967293
 20
119.3242333561
 30
0.0
 11
114.4780967293
 21
114.3242333561
 31
0.0
  0
LINE
  5
1BE
330
1F
100
AcDbEntity
  8
0
  6
Continuous
 62
     7
370
    25
100
AcDbLine
 10
121.7530967293
 20
118.8242333561
 30
0.0
 11
121.7530967293
 21
114.3242333561
 31
0.0
  0
LINE
  5
1BF
330
1F
100
AcDbEntity
  8
0
  6
Continuous
 62
     7
370
    25
100
AcDbLine
 10
121.4526664198
 20
118.3242333561
 30
0.0
 11
121.4526664198
 21
114.3242333561
 31
0.0
  0
LINE
  5
1C0
330
1F
100
AcDbEntity
  8
0
  6
Continuous
 62
     7
370
    25
100
AcDbLine
 10
121.4526664198
 20
118.3242333561
 30
0.0
 11
121.7530967293
 21
118.8242333561
 31
0.0
  0
LINE
  5
1C1
330
1F
100
AcDbEntity
  8
0
  6
Continuous
 62
     7
370
    25
100
AcDbLine
 10
121.7530967293
 20
118.8242333561
 30
0.0
 11
184.7530967293
 21
118.8242333561
 31
0.0
  0
LINE
  5
1C2
330
1F
100
AcDbEntity
  8
0
  6
Continuous
 62
     7
370
    25
100
AcDbLine
 10
115.3030967293
 20
118.3242333561
 30
0.0
 11
121.4526664198
 21
118.3242333561
 31
0.0
  0
LINE
  5
1C3
330
1F
100
AcDbEntity
  8
0
  6
Continuous
 62
     7
370
    25
100
AcDbLine
 10
115.3030967293
 20
118.3242333561
 30
0.0
 11
115.3030967293
 21
114.3242333561
 31
0.0
  0
SPLINE
  5
1C4
330
1F
100
AcDbEntity
  8
0
  6
Continuous
 62
     7
370
    25
100
AcDbSpline
210
0.0
220
0.0
230
1.0
 70
     8
 71
     3
 72
    37
 73
    33
 74
     0
 42
0.000000001
 43
0.00000001
 40
0.0
 40
0.0
 40
0.0
 40
0.0
 40
0.01148785481028
 40
0.0231559765621647
 40
0.0350076484354351
 40
0.04704600337953
 40
0.0592740307999904
 40
0.0716945830965773
 40
0.0843103820274639
 40
0.0971240248797982
 40
0.1101379904320495
 40
0.1233546446979371
 40
0.1811510010973216
 40
0.2483631736114412
 40
0.2888373415819245
 40
0.3232297457604618
 40
0.3515392131491938
 40
0.3737664266256183
 40
0.4399300285953848
 40
0.4987424063270025
 40
0.5023253005651624
 40
0.5613100074513716
 40
0.6252595444338138
 40
0.6818650083849794
 40
0.7483890016987903
 40
0.7860781471964686
 40
0.8194856599799786
 40
0.8486127715281727
 40
0.8734622727747426
 40
0.9389926156604154
 40
0.9981523731393562
 40
1.0
 40
1.0
 40
1.0
 40
1.0
 10
96.60309672927711
 20
137.7878856594633
 30
0.0
 10
96.60217027799858
 20
137.7874421424549
 30
0.0
 10
96.60030283760648
 20
137.7865481487874
 30
0.0
 10
96.58502977726673
 20
137.7793561713291
 30
0.0
 10
96.56012807480285
 20
137.7679049277367
 30
0.0
 10
96.52427380286699
 20
137.7517551689621
 30
0.0
 10
96.47730629202935
 20
137.7310274894085
 30
0.0
 10
96.41876338160849
 20
137.7056889704067
 30
0.0
 10
96.34828524203085
 20
137.6757485498523
 30
0.0
 10
96.26551067775335
 20
137.6412045758102
 30
0.0
 10
96.17009413263519
 20
137.6020548341956
 30
0.0
 10
95.94052529924672
 20
137.5093561630344
 30
0.0
 10
95.45610708527411
 20
137.3206332725199
 30
0.0
 10
94.67710711372871
 20
137.0425434725487
 30
0.0
 10
93.88588866230856
 20
136.7919566052193
 30
0.0
 10
93.25483816906576
 20
136.6169398438895
 30
0.0
 10
92.70180021272938
 20
136.4771052032905
 30
0.0
 10
91.90884228383295
 20
136.2966943579444
 30
0.0
 10
90.83850794349979
 20
136.1076280363023
 30
0.0
 10
89.85751766406452
 20
136.0023412285927
 30
0.0
 10
88.92955043494496
 20
135.9453084566396
 30
0.0
 10
87.95709494118451
 20
135.9307138582699
 30
0.0
 10
86.63096473575116
 20
136.0089070747611
 30
0.0
 10
85.36092925125742
 20
136.1693867963553
 30
0.0
 10
84.40115325058781
 20
136.3544983345689
 30
0.0
 10
83.70250160324296
 20
136.521987938299
 30
0.0
 10
83.25869346508786
 20
136.6356111445072
 30
0.0
 10
82.92615640315788
 20
136.7287949794158
 30
0.0
 10
82.53899799291466
 20
136.8434598436744
 30
0.0
 10
82.20175003080287
 20
136.9508056527345
 30
0.0
 10
82.10402596447383
 20
136.9883712260211
 30
0.0
 10
82.10312404420199
 20
136.9885026348376
 30
0.0
 10
82.1030967292771
 20
136.9885066145929
 30
0.0
  0
LINE
  5
1C5
330
1F
100
AcDbEntity
  8
0
  6
Continuous
 62
     7
370
    25
100
AcDbLine
 10
96.6030967293
 20
137.7878856595
 30
0.0
 11
96.6030967293
 21
132.4304593769
 31
0.0
  0
SPLINE
  5
1C6
330
1F
100
AcDbEntity
  8
0
  6
Continuous
 62
     7
370
    25
100
AcDbSpline
210
0.0
220
0.0
230
1.0
 70
     8
 71
     3
 72
    30
 73
    26
 74
     0
 42
0.000000001
 43
0.00000001
 40
0.0
 40
0.0
 40
0.0
 40
0.0
 40
0.0192411700742056
 40
0.0381353539376965
 40
0.056686888486129
 40
0.0749003554931372
 40
0.0927805967284128
 40
0.1103327298326408
 40
0.1275621649289922
 40
0.1444746219341851
 40
0.2455865830532027
 40
0.3577720192516871
 40
0.4505017408956528
 40
0.5720127868619955
 40
0.6168069840200028
 40
0.6590088499432838
 40
0.6986242498774753
 40
0.7356603299341621
 40
0.7701258931915144
 40
0.8073679165907881
 40
0.8483950324891437
 40
0.8881367798820078
 40
0.9266264622110469
 40
0.9639007443615105
 40
0.9999999999999999
 40
0.9999999999999999
 40
0.9999999999999999
 40
0.9999999999999999
 10
87.43227813866501
 20
130.7663680665181
 30
0.0
 10
87.51531061854465
 20
130.7552409611932
 30
0.0
 10
87.67987820961747
 20
130.7331874115271
 30
0.0
 10
87.92775972529802
 20
130.7051355222644
 30
0.0
 10
88.1730364007404
 20
130.6811839917385
 30
0.0
 10
88.41559423435167
 20
130.6616540395451
 30
0.0
 10
88.65502891146058
 20
130.6464617473685
 30
0.0
 10
88.89104210686766
 20
130.6356301861376
 30
0.0
 10
89.12336015217842
 20
130.6291496208845
 30
0.0
 10
89.73191092180242
 20
130.6235181292984
 30
0.0
 10
90.77022341902249
 20
130.683491528783
 30
0.0
 10
92.08557494712376
 20
130.8829140019579
 30
0.0
 10
93.36512016001534
 20
131.1883953626417
 30
0.0
 10
94.25656070410545
 20
131.4683381655607
 30
0.0
 10
94.87422557296648
 20
131.695787262076
 30
0.0
 10
95.21754865824981
 20
131.826065922576
 30
0.0
 10
95.5092397431453
 20
131.9421568605339
 30
0.0
 10
95.75378509897115
 20
132.0435250899373
 30
0.0
 10
95.96613977941051
 20
132.1348631424549
 30
0.0
 10
96.15720275403514
 20
132.218938226402
 30
0.0
 10
96.32245015820762
 20
132.2939311803673
 30
0.0
 10
96.45199070845173
 20
132.354919679913
 30
0.0
 10
96.54035707767427
 20
132.3981573416785
 30
0.0
 10
96.59350292293793
 20
132.4253874275573
 30
0.0
 10
96.59993311887912
 20
132.4287868736872
 30
0.0
 10
96.60309672927711
 20
132.4304593768617
 30
0.0
  0
SPLINE
  5
1C7
330
1F
100
AcDbEntity
  8
0
  6
Continuous
 62
     7
370
    25
100
AcDbSpline
210
0.0
220
0.0
230
1.0
 70
     8
 71
     3
 72
    38
 73
    34
 74
     0
 42
0.000000001
 43
0.00000001
 40
0.0
 40
0.0
 40
0.0
 40
0.0
 40
0.1250000000000007
 40
0.1250000000000007
 40
0.2500000000000015
 40
0.2500000000000015
 40
0.3125000000000018
 40
0.3125000000000018
 40
0.375000000000002
 40
0.375000000000002
 40
0.4375000000000022
 40
0.4375000000000022
 40
0.5000000000000024
 40
0.5000000000000024
 40
0.5625000000000027
 40
0.5625000000000027
 40
0.625000000000003
 40
0.625000000000003
 40
0.6875000000000032
 40
0.6875000000000032
 40
0.7187500000000031
 40
0.7187500000000031
 40
0.7500000000000029
 40
0.7500000000000029
 40
0.7812500000000028
 40
0.7812500000000028
 40
0.8125000000000027
 40
0.8125000000000027
 40
0.8750000000000018
 40
0.8750000000000018
 40
0.937500000000001
 40
0.937500000000001
 40
1.0
 40
1.0
 40
1.0
 40
1.0
 10
82.1030967292771
 20
136.860281241014
 30
0.0
 10
82.10309672927727
 20
136.8602812410139
 30
0.0
 10
82.16490248684076
 20
136.837637158352
 30
0.0
 10
82.41452503227633
 20
136.7450527692959
 30
0.0
 10
82.5982526632145
 20
136.6766651893431
 30
0.0
 10
82.95464149979959
 20
136.5408230901413
 30
0.0
 10
83.08780196130513
 20
136.4896301050848
 30
0.0
 10
83.37888097200154
 20
136.3759414999724
 30
0.0
 10
83.53537092351085
 20
136.314014892466
 30
0.0
 10
83.86875236479877
 20
136.1791297837755
 30
0.0
 10
84.04565612316189
 20
136.1061915294888
 30
0.0
 10
84.4188977706352
 20
135.947215594693
 30
0.0
 10
84.61664176151633
 20
135.8605758248164
 30
0.0
 10
85.02266519476944
 20
135.673658152264
 30
0.0
 10
85.23071858815644
 20
135.5736232384549
 30
0.0
 10
85.65301286089058
 20
135.3543596882759
 30
0.0
 10
85.86737816396564
 20
135.2353564966113
 30
0.0
 10
86.29522047554504
 20
134.9650826462874
 30
0.0
 10
86.51162212665166
 20
134.8118338207757
 30
0.0
 10
86.81025456953174
 20
134.5457652971925
 30
0.0
 10
86.90544715900144
 20
134.4509930509198
 30
0.0
 10
87.08307241085822
 20
134.2452361937299
 30
0.0
 10
87.16568672148658
 20
134.1333776519593
 30
0.0
 10
87.30776699650815
 20
133.8998621477369
 30
0.0
 10
87.36815254575308
 20
133.7773010817811
 30
0.0
 10
87.46760303790792
 20
133.520830318556
 30
0.0
 10
87.50689447693271
 20
133.3855903050062
 30
0.0
 10
87.59359106308573
 20
132.9773083020417
 30
0.0
 10
87.61229939008045
 20
132.7010481242568
 30
0.0
 10
87.60880336944874
 20
132.1443003456211
 30
0.0
 10
87.58632374924014
 20
131.8660701016304
 30
0.0
 10
87.52069610145801
 20
131.3146842814457
 30
0.0
 10
87.47719855776856
 20
131.0404306123432
 30
0.0
 10
87.42771901065852
 20
130.7670011403816
 30
0.0
  0
LINE
  5
1C8
330
1F
100
AcDbEntity
  8
0
  6
Continuous
 62
     7
370
    25
100
AcDbLine
 10
82.1030967293
 20
136.860281241
 30
0.0
 11
82.1030967293
 21
136.9885066145
 31
0.0
  0
SPLINE
  5
1C9
330
1F
100
AcDbEntity
  8
0
  6
Continuous
 62
     7
370
    25
100
AcDbSpline
210
0.0
220
0.0
230
1.0
 70
     8
 71
     3
 72
    14
 73
    10
 74
     0
 42
0.000000001
 43
0.00000001
 40
0.0
 40
0.0
 40
0.0
 40
0.0
 40
0.0003951392850831
 40
0.0003951392850831
 40
0.0003951392850831
 40
0.0008159035679249
 40
0.0008159035679249
 40
0.0008159035679249
 40
0.0012369936130997
 40
0.0012369936130997
 40
0.0012369936130997
 40
0.0012369936130997
 10
86.23098067900864
 20
130.4992063531103
 30
0.0
 10
86.35948991711534
 20
130.5280803208238
 30
0.0
 10
86.48805342484435
 20
130.5567685343001
 30
0.0
 10
86.61660380312775
 20
130.5852713783376
 30
0.0
 10
86.75348905079133
 20
130.6156222720283
 30
0.0
 10
86.89038469669116
 20
130.6457682370573
 30
0.0
 10
87.02720495804023
 20
130.6757200566258
 30
0.0
 10
87.16413094698513
 20
130.7056950214057
 30
0.0
 10
87.3010080189493
 20
130.7354810708509
 30
0.0
 10
87.43774486813643
 20
130.7651035440196
 30
0.0
  0
LINE
  5
1CA
330
1F
100
AcDbEntity
  8
0
  6
Continuous
 62
     7
370
    25
100
AcDbLine
 10
78.673096574
 20
131.9617333561
 30
0.0
 11
82.1030967293
 21
136.860281241
 31
0.0
  0
LINE
  5
1CB
330
1F
100
AcDbEntity
  8
0
  6
Continuous
 62
     7
370
    25
100
AcDbLine
 10
81.3535348809
 20
137.7976190658
 30
0.0
 11
82.1031248599
 21
136.988507728
 31
0.0
  0
LINE
  5
1CC
330
1F
100
AcDbEntity
  8
0
  6
Continuous
 62
     7
370
    25
100
AcDbLine
 10
96.6031096774
 20
137.7878859153
 30
0.0
 11
97.2714398233
 21
138.5969977377
 31
0.0
  0
LINE
  5
1CD
330
1F
100
AcDbEntity
  8
0
  6
Continuous
 62
     7
370
    25
100
AcDbLine
 10
72.5547627791
 20
133.2598095675
 30
0.0
 11
74.8030967293
 21
131.9617333561
 31
0.0
  0
LINE
  5
1CE
330
1F
100
AcDbEntity
  8
0
  6
Continuous
 62
     7
370
    25
100
AcDbLine
 10
71.8030967293
 20
134.5617333561
 30
0.0
 11
72.5547627791
 21
133.2598095675
 31
0.0
  0
LINE
  5
1CF
330
1F
100
AcDbEntity
  8
0
  6
Continuous
 62
     7
370
    25
100
AcDbLine
 10
71.8030967293
 20
136.5273280799
 30
0.0
 11
71.8030967293
 21
134.5617333561
 31
0.0
  0
LINE
  5
1D0
330
1F
100
AcDbEntity
  8
0
  6
Continuous
 62
     7
370
    25
100
AcDbLine
 10
73.3030967293
 20
137.3933534837
 30
0.0
 11
71.8030967293
 21
136.5273280799
 31
0.0
  0
LINE
  5
1D1
330
1F
100
AcDbEntity
  8
0
  6
Continuous
 62
     7
370
    25
100
AcDbLine
 10
122.5280967293
 20
142.1742333561
 30
0.0
 11
120.7780967293
 21
142.1742333561
 31
0.0
  0
ARC
  5
1D2
330
1F
100
AcDbEntity
  8
0
  6
Continuous
 62
     7
370
    25
100
AcDbCircle
 10
122.5280967293
 20
143.1742333561
 30
0.0
 40
1.0
100
AcDbArc
 50
270.0
 51
0.0
  0
LINE
  5
1D3
330
1F
100
AcDbEntity
  8
0
  6
Continuous
 62
     7
370
    25
100
AcDbLine
 10
123.5280967293
 20
143.2718286203
 30
0.0
 11
123.5280967293
 21
143.1742333561
 31
0.0
  0
LINE
  5
1D4
330
1F
100
AcDbEntity
  8
0
  6
Continuous
 62
     7
370
    25
100
AcDbLine
 10
124.9872945338
 20
145.7992333561
 30
0.0
 11
123.5280967293
 21
143.2718286203
 31
0.0
  0
LINE
  5
1D5
330
1F
100
AcDbEntity
  8
0
  6
Continuous
 62
     7
370
    25
100
AcDbLine
 10
97.2290458711
 20
131.9617346464
 30
0.0
 11
96.6030998575
 21
132.4304595017
 31
0.0
  0
LINE
  5
1D6
330
1F
100
AcDbEntity
  8
0
  6
Continuous
 62
     7
370
    25
100
AcDbLine
 10
119.7780967293
 20
143.2718286203
 30
0.0
 11
118.3188989247
 21
145.7992333561
 31
0.0
  0
LINE
  5
1D7
330
1F
100
AcDbEntity
  8
0
  6
Continuous
 62
     7
370
    25
100
AcDbLine
 10
119.7780967293
 20
143.1742333561
 30
0.0
 11
119.7780967293
 21
143.2718286203
 31
0.0
  0
ARC
  5
1D8
330
1F
100
AcDbEntity
  8
0
  6
Continuous
 62
     7
370
    25
100
AcDbCircle
 10
120.7780967293
 20
143.1742333561
 30
0.0
 40
1.000000000000028
100
AcDbArc
 50
180.0
 51
270.0
  0
LINE
  5
1D9
330
1F
100
AcDbEntity
  8
0
  6
Continuous
 62
     7
370
    25
100
AcDbLine
 10
115.3030967293
 20
120.0742333561
 30
0.0
 11
115.3030967293
 21
118.3242333561
 31
0.0
  0
LINE
  5
1DA
330
1F
100
AcDbEntity
  8
0
  6
Continuous
 62
     7
370
    25
100
AcDbLine
 10
114.4780967293
 20
119.3242333561
 30
0.0
 11
114.4780967293
 21
120.0742333561
 31
0.0
  0
LINE
  5
1DB
330
1F
100
AcDbEntity
  8
0
  6
Continuous
 62
     7
370
    25
100
AcDbLine
 10
185.2530967293
 20
119.3242333561
 30
0.0
 11
185.2530967293
 21
120.2242333561
 31
0.0
  0
LINE
  5
1DC
330
1F
100
AcDbEntity
  8
0
  6
Continuous
 62
     7
370
    25
100
AcDbLine
 10
231.7530967293
 20
121.3609276042
 30
0.0
 11
231.7530967293
 21
124.4754523728
 31
0.0
  0
LINE
  5
1DD
330
1F
100
AcDbEntity
  8
0
  6
Continuous
 62
     7
370
    25
100
AcDbLine
 10
110.6530967293
 20
128.6742333561
 30
0.0
 11
110.6530967293
 21
119.5551734638
 31
0.0
  0
LINE
  5
1DE
330
1F
100
AcDbEntity
  8
0
  6
Continuous
 62
     7
370
    25
100
AcDbLine
 10
105.7530967293
 20
131.7742333561
 30
0.0
 11
105.7530967293
 21
129.8742333561
 31
0.0
  0
LINE
  5
1DF
330
1F
100
AcDbEntity
  8
0
  6
Continuous
 62
     7
370
    25
100
AcDbLine
 10
111.7530967293
 20
145.5992333561
 30
0.0
 11
111.7530967293
 21
141.1742333561
 31
0.0
  0
LINE
  5
1E0
330
1F
100
AcDbEntity
  8
0
  6
Continuous
 62
     7
370
    25
100
AcDbLine
 10
129.7530967293
 20
133.3242333561
 30
0.0
 11
129.7530967293
 21
145.7992333561
 31
0.0
  0
SPLINE
  5
1E1
330
1F
100
AcDbEntity
  8
0
  6
Continuous
 62
     7
370
    25
100
AcDbSpline
210
0.0
220
0.0
230
1.0
 70
     8
 71
     3
 72
     9
 73
     5
 74
     0
 42
0.000000001
 43
0.00000001
 40
0.0
 40
0.0
 40
0.0
 40
0.0
 40
0.5102121239851395
 40
0.9999999999999999
 40
0.9999999999999999
 40
0.9999999999999999
 40
0.9999999999999999
 10
72.60746012594821
 20
124.7858598727619
 30
0.0
 10
72.98232218292699
 20
124.7833699553802
 30
0.0
 10
73.71704023323679
 20
124.7784897942381
 30
0.0
 10
74.44604082369352
 20
124.7731049028518
 30
0.0
 10
74.80309647450692
 20
124.7704674483371
 30
0.0
  0
LINE
  5
1E2
330
1F
100
AcDbEntity
  8
0
  6
Continuous
 62
     7
370
    25
100
AcDbLine
 10
72.5547627791
 20
124.8162841637
 30
0.0
 11
72.6074601278
 21
124.7858593352
 31
0.0
  0
LINE
  5
1E3
330
1F
100
AcDbEntity
  8
0
  6
Continuous
 62
     7
370
    25
100
AcDbLine
 10
72.5547627791
 20
133.2598095675
 30
0.0
 11
72.5547627791
 21
124.8162841637
 31
0.0
  0
SPLINE
  5
1E4
330
1F
100
AcDbEntity
  8
0
  6
Continuous
 62
     7
370
    25
100
AcDbSpline
210
0.0
220
0.0
230
1.0
 70
    24
 71
     3
 72
     8
 73
     4
 74
     0
 42
0.000000001
 43
0.00000001
 40
0.0000004089325119
 40
0.0000004089325119
 40
0.0000004089325119
 40
0.0000004089325119
 40
0.0015399868451459
 40
0.0015399868451459
 40
0.0015399868451459
 40
0.0015399868451459
 10
71.8030967292771
 20
125.2502587598945
 30
0.0
 10
72.05408780530156
 20
125.1053489945876
 30
0.0
 10
72.3046770018045
 20
124.9606712545306
 30
0.0
 10
72.55476277911666
 20
124.8162841636789
 30
0.0
  0
LINE
  5
1E5
330
1F
100
AcDbEntity
  8
0
  6
Continuous
 62
     7
370
    25
100
AcDbLine
 10
71.8030967293
 20
134.5617333561
 30
0.0
 11
71.8030967293
 21
125.2502587599
 31
0.0
  0
SPLINE
  5
1E6
330
1F
100
AcDbEntity
  8
0
  6
Continuous
 62
     7
370
    25
100
AcDbSpline
210
0.0
220
0.0
230
1.0
 70
     8
 71
     3
 72
     8
 73
     4
 74
     0
 42
0.000000001
 43
0.00000001
 40
0.0
 40
0.0
 40
0.0
 40
0.0
 40
1.0
 40
1.0
 40
1.0
 40
1.0
 10
74.93277847203387
 20
124.3842340338466
 30
0.0
 10
74.90483025191435
 20
124.4920503878221
 30
0.0
 10
74.87687016374564
 20
124.5996442379884
 30
0.0
 10
74.84889797621142
 20
124.707013518773
 30
0.0
  0
LINE
  5
1E7
330
1F
100
AcDbEntity
  8
0
  6
Continuous
 62
     7
370
    25
100
AcDbLine
 10
74.9327816106
 20
124.3842333561
 30
0.0
 11
73.3030959425
 21
124.3842333561
 31
0.0
  0
LINE
  5
1E8
330
1F
100
AcDbEntity
  8
0
  6
Continuous
 62
     7
370
    25
100
AcDbLine
 10
73.3030961424
 20
124.3842336949
 30
0.0
 11
72.6074596644
 21
124.7858596028
 31
0.0
  0
LINE
  5
1E9
330
1F
100
AcDbEntity
  8
0
  6
Continuous
 62
     7
370
    25
100
AcDbLine
 10
81.3570576265
 20
122.3867333561
 30
0.0
 11
81.1048859985
 21
122.3867333561
 31
0.0
  0
SPLINE
  5
1EA
330
1F
100
AcDbEntity
  8
0
  6
Continuous
 62
     7
370
    25
100
AcDbSpline
210
0.0
220
0.0
230
1.0
 70
     8
 71
     3
 72
    26
 73
    22
 74
     0
 42
0.000000001
 43
0.00000001
 40
0.0
 40
0.0
 40
0.0
 40
0.0
 40
0.0524616379932503
 40
0.1026498591890872
 40
0.150565513457809
 40
0.1962095861957063
 40
0.2395832262568645
 40
0.2806877815599511
 40
0.3195248450380211
 40
0.3560963147430692
 40
0.3904044736547445
 40
0.4224520974433627
 40
0.4522426027417772
 40
0.4797802555366611
 40
0.5050704712281336
 40
0.5966394156799991
 40
0.6841917884819224
 40
0.7679874773571101
 40
0.8483228539139507
 40
0.925534163520116
 40
1.0
 40
1.0
 40
1.0
 40
1.0
 10
81.1030795046077
 20
122.3867631401454
 30
0.0
 10
81.06744310557643
 20
122.4463100602276
 30
0.0
 10
80.99771460523799
 20
122.5628234440143
 30
0.0
 10
80.88423644447815
 20
122.7272214047435
 30
0.0
 10
80.76871089475311
 20
122.8793831425451
 30
0.0
 10
80.651589198743
 20
123.0192858394776
 30
0.0
 10
80.5342174982636
 20
123.1475001633817
 30
0.0
 10
80.41759653222996
 20
123.264515842322
 30
0.0
 10
80.30269361178493
 20
123.3708929975661
 30
0.0
 10
80.1903693860956
 20
123.4672090780403
 30
0.0
 10
80.08140041206074
 20
123.5540584245929
 30
0.0
 10
79.97648137122407
 20
123.6320386067867
 30
0.0
 10
79.87622404527534
 20
123.7017468038397
 30
0.0
 10
79.7811867026922
 20
123.7637567927408
 30
0.0
 10
79.61107979826143
 20
123.8682432300066
 30
0.0
 10
79.35816076685634
 20
124.003301896521
 30
0.0
 10
79.01217960979521
 20
124.1476887889381
 30
0.0
 10
78.66422106047087
 20
124.2566567011831
 30
0.0
 10
78.31808130009482
 20
124.3311862835198
 30
0.0
 10
77.9770165166607
 20
124.3761149880692
 30
0.0
 10
77.75126990514505
 20
124.3815600869237
 30
0.0
 10
77.64043969312698
 20
124.3842333561101
 30
0.0
  0
SPLINE
  5
1EB
330
1F
100
AcDbEntity
  8
0
  6
Continuous
 62
     7
370
    25
100
AcDbSpline
210
0.0
220
0.0
230
1.0
 70
     8
 71
     3
 72
     8
 73
     4
 74
     0
 42
0.000000001
 43
0.00000001
 40
0.0
 40
0.0
 40
0.0
 40
0.0
 40
1.0
 40
1.0
 40
1.0
 40
1.0
 10
81.3570576265096
 20
122.3867333561099
 30
0.0
 10
81.38606233293717
 20
122.5106710829722
 30
0.0
 10
81.40509485261863
 20
122.6386232132055
 30
0.0
 10
81.41334644481027
 20
122.769692525897
 30
0.0
  0
LINE
  5
1EC
330
1F
100
AcDbEntity
  8
0
  6
Continuous
 62
     7
370
    25
100
AcDbLine
 10
77.6404396931
 20
124.3842333561
 30
0.0
 11
74.9327816106
 21
124.3842333561
 31
0.0
  0
LINE
  5
1ED
330
1F
100
AcDbEntity
  8
0
  6
Continuous
 62
     7
370
    25
100
AcDbLine
 10
94.4030967293
 20
118.3870067669
 30
0.0
 11
93.7530967293
 21
118.5367333561
 31
0.0
  0
SPLINE
  5
1EE
330
1F
100
AcDbEntity
  8
0
  6
Continuous
 62
     7
370
    25
100
AcDbSpline
210
0.0
220
0.0
230
1.0
 70
     8
 71
     3
 72
    26
 73
    22
 74
     0
 42
0.000000001
 43
0.00000001
 40
0.0
 40
0.0
 40
0.0
 40
0.0
 40
0.0305951740572542
 40
0.0629166281868252
 40
0.0969720532897518
 40
0.1327680143285475
 40
0.1703101548822826
 40
0.2096033578521445
 40
0.2506518729756858
 40
0.3342141733898277
 40
0.4179517165474626
 40
0.5018670561020881
 40
0.5659795686746639
 40
0.6277136397870199
 40
0.687135819210908
 40
0.7443207393864881
 40
0.7993521466017559
 40
0.8523240127975756
 40
0.903341702807647
 40
0.9525231537633125
 40
1.0
 40
1.0
 40
1.0
 40
1.0
 10
93.7530967292771
 20
118.5367333561101
 30
0.0
 10
93.75218851743247
 20
118.6012685234973
 30
0.0
 10
93.750320849452
 20
118.7339801440906
 30
0.0
 10
93.7347282603904
 20
118.9367942356143
 30
0.0
 10
93.70808439920326
 20
119.1485072765146
 30
0.0
 10
93.66792997012485
 20
119.3682192698876
 30
0.0
 10
93.6130318534417
 20
119.5949661407588
 30
0.0
 10
93.54178888482991
 20
119.8275971445419
 30
0.0
 10
93.42337649054734
 20
120.1429954590186
 30
0.0
 10
93.23524559413946
 20
120.5274773575535
 30
0.0
 10
92.9512288309049
 20
120.957504972083
 30
0.0
 10
92.64181087435516
 20
121.3159916844239
 30
0.0
 10
92.32590126355359
 20
121.6077583407133
 30
0.0
 10
92.01915585543024
 20
121.8402174275505
 30
0.0
 10
91.70073674160814
 20
122.0370276621145
 30
0.0
 10
91.37476586545107
 20
122.1991283643727
 30
0.0
 10
91.04522703032585
 20
122.3275982478524
 30
0.0
 10
90.71566511547928
 20
122.4241820672254
 30
0.0
 10
90.38924679218005
 20
122.4900342965116
 30
0.0
 10
90.06872859987615
 20
122.529599244337
 30
0.0
 10
89.85706308634538
 20
122.5343834425524
 30
0.0
 10
89.75309672927712
 20
122.53673335611
 30
0.0
  0
SPLINE
  5
1EF
330
1F
100
AcDbEntity
  8
0
  6
Continuous
 62
     7
370
    25
100
AcDbSpline
210
0.0
220
0.0
230
1.0
 70
     8
 71
     3
 72
    13
 73
     9
 74
     0
 42
0.000000001
 43
0.00000001
 40
0.0
 40
0.0
 40
0.0
 40
0.0
 40
0.1604061687300809
 40
0.3231296684563272
 40
0.4883154213007764
 40
0.6561019685773533
 40
0.8266215117792448
 40
1.0
 40
1.0
 40
1.0
 40
1.0
 10
87.83822344998765
 20
122.53673335611
 30
0.0
 10
87.7791734984725
 20
122.535977786072
 30
0.0
 10
87.66022052174776
 20
122.5344557305438
 30
0.0
 10
87.48096688814194
 20
122.5220106714164
 30
0.0
 10
87.30003390645427
 20
122.5018264902857
 30
0.0
 10
87.11790541205549
 20
122.472691124145
 30
0.0
 10
86.93473840426115
 20
122.4352749723259
 30
0.0
 10
86.81399908938681
 20
122.4030090999688
 30
0.0
 10
86.75312755780193
 20
122.3867420450303
 30
0.0
  0
SPLINE
  5
1F0
330
1F
100
AcDbEntity
  8
0
  6
Continuous
 62
     7
370
    25
100
AcDbSpline
210
0.0
220
0.0
230
1.0
 70
    24
 71
     3
 72
    10
 73
     6
 74
     0
 42
0.000000001
 43
0.00000001
 40
0.0
 40
0.0
 40
0.0
 40
0.0
 40
0.3216623556917455
 40
0.6548175346390357
 40
1.0
 40
1.0
 40
1.0
 40
1.0
 10
86.75327556418189
 20
122.3867333561101
 30
0.0
 10
86.68472965632459
 20
122.3867333561101
 30
0.0
 10
86.54518873212733
 20
122.3867333561101
 30
0.0
 10
86.3355803167768
 20
122.3867333561101
 30
0.0
 10
86.19590332162295
 20
122.3867333561101
 30
0.0
 10
86.12482655042213
 20
122.3867333561101
 30
0.0
  0
SPLINE
  5
1F1
330
1F
100
AcDbEntity
  8
0
  6
Continuous
 62
     7
370
    25
100
AcDbSpline
210
0.0
220
0.0
230
1.0
 70
     8
 71
     3
 72
     8
 73
     4
 74
     0
 42
0.000000001
 43
0.00000001
 40
0.0
 40
0.0
 40
0.0
 40
0.0
 40
1.0
 40
1.0
 40
1.0
 40
1.0
 10
86.83942684567573
 20
122.765179705293
 30
0.0
 10
86.5701305156193
 20
122.6684903200997
 30
0.0
 10
86.3339698302055
 20
122.5404911507229
 30
0.0
 10
86.1247723140216
 20
122.3870145530782
 30
0.0
  0
LINE
  5
1F2
330
1F
100
AcDbEntity
  8
0
  6
Continuous
 62
     7
370
    25
100
AcDbLine
 10
86.1253180256
 20
106.2617333561
 30
0.0
 11
86.2447987339
 21
106.2617333561
 31
0.0
  0
LINE
  5
1F3
330
1F
100
AcDbEntity
  8
0
  6
Continuous
 62
     7
370
    25
100
AcDbLine
 10
89.7530967293
 20
122.5367333561
 30
0.0
 11
87.83822345
 21
122.5367333561
 31
0.0
  0
LINE
  5
1F4
330
1F
100
AcDbEntity
  8
0
  6
Continuous
 62
     7
370
    25
100
AcDbLine
 10
86.1251849112
 20
122.3867333561
 30
0.0
 11
81.3570576265
 21
122.3867333561
 31
0.0
  0
LINE
  5
1F5
330
1F
100
AcDbEntity
  8
0
  6
Continuous
 62
     7
370
    25
100
AcDbLine
 10
93.7530967293
 20
114.3242333561
 30
0.0
 11
93.7530967293
 21
118.5367333561
 31
0.0
  0
LINE
  5
1F6
330
1F
100
AcDbEntity
  8
VERMASSUNG
  6
CENTERX2
100
AcDbLine
 10
247.7480967293
 20
114.3242333561
 30
0.0
 11
55.8080967293
 21
114.3242333561
 31
0.0
  0
HATCH
  5
1F7
330
1F
100
AcDbEntity
  8
0
  6
Continuous
 62
     7
370
    18
100
AcDbHatch
 10
0.0
 20
0.0
 30
0.0
210
0.0
220
0.0
230
1.0
  2
ANSI31
 70
     0
 71
     0
 91
        1
 92
        0
 93
       50
 72
     2
 10
120.7780967292771
 20
143.1742333561101
 40
1.000000000000003
 50
90.0
 51
180.0
 73
     0
 72
     1
 10
119.7780967292771
 20
143.1742333561101
 11
119.7780967292771
 21
143.2718286203017
 72
     1
 10
119.7780967292771
 20
143.2718286203017
 11
118.318898924707
 21
145.7992333561101
 72
     1
 10
118.318898924707
 20
145.7992333561101
 11
111.9530967292771
 21
145.7992333561101
 72
     2
 10
111.9530967292771
 20
145.5992333561101
 40
0.2000000000000028
 50
90.0
 51
180.0
 73
     1
 72
     1
 10
111.7530967292771
 20
145.5992333561101
 11
111.7530967292771
 21
141.1742333561101
 72
     1
 10
111.7530967292771
 20
141.1742333561101
 11
112.0871354153057
 21
140.1147979957135
 72
     2
 10
111.3241618547072
 20
139.87423335611
 40
0.8000000000000049
 50
342.4999999999998
 51
467.5000000000012
 73
     0
 72
     1
 10
111.0835972151037
 20
139.1112597955115
 11
110.5929146892464
 21
139.2659714016384
 72
     1
 10
110.5929146892464
 20
139.2659714016384
 11
97.27144141672687
 21
138.5969944286122
 72
     1
 10
97.27143982332832
 20
138.5969977376806
 11
96.60310967739879
 21
137.7878859152895
 72
     1
 10
96.60310967739879
 20
137.7878859152895
 11
96.60309672927711
 21
132.4304593768616
 72
     1
 10
96.60309985751081
 20
132.4304595017421
 11
97.22904587105299
 21
131.9617346464021
 72
     1
 10
97.22904611936191
 20
131.96173335611
 11
102.2530967292771
 21
131.96173335611
 72
     1
 10
102.2530967292771
 20
131.96173335611
 11
103.1283372028579
 21
132.4670536791376
 72
     2
 10
103.528337202858
 20
131.77423335611
 40
0.7999999999999962
 50
240.0000000000013
 51
270.0000000000008
 73
     0
 72
     1
 10
103.528337202858
 20
132.5742333561101
 11
104.9530967292771
 21
132.5742333561101
 72
     2
 10
104.9530967292771
 20
131.77423335611
 40
0.7999999999999977
 50
270.0000000000008
 51
360.0000000000008
 73
     0
 72
     1
 10
105.7530967292771
 20
131.77423335611
 11
105.7530967292771
 21
129.8742333561101
 72
     1
 10
105.7530967292771
 20
129.8742333561101
 11
109.4530967292771
 21
129.8742333561101
 72
     2
 10
109.4530967292771
 20
128.6742333561101
 40
1.2
 50
270.0000000000008
 51
360.0000000000008
 73
     0
 72
     1
 10
110.6530967292771
 20
128.6742333561101
 11
110.6530967292771
 21
119.5551734637859
 72
     1
 10
110.6530967292771
 20
119.5551734637859
 11
111.0530967292771
 21
119.3242333561101
 72
     1
 10
111.0530967292771
 20
119.3242333561101
 11
114.4780967292771
 21
119.3242333561101
 72
     1
 10
114.4780967292771
 20
119.3242333561101
 11
114.4780967292771
 21
120.0742333561101
 72
     1
 10
114.4780967292771
 20
120.0742333561101
 11
115.3030967292771
 21
120.07423335611
 72
     1
 10
115.3030967292771
 20
120.07423335611
 11
115.3030967292771
 21
118.3242333561101
 72
     1
 10
115.3030967292771
 20
118.3242333561101
 11
121.4526664197633
 21
118.32423335611
 72
     1
 10
121.4526664197633
 20
118.32423335611
 11
121.7530967292771
 21
118.82423335611
 72
     1
 10
121.7530967292771
 20
118.82423335611
 11
184.7530967292771
 21
118.82423335611
 72
     1
 10
184.7530967292771
 20
118.82423335611
 11
185.2530967292771
 21
119.32423335611
 72
     1
 10
185.2530967292771
 20
119.32423335611
 11
185.2530967292771
 21
120.22423335611
 72
     2
 10
185.6530967292771
 20
120.22423335611
 40
0.3999999999999989
 50
180.0
 51
270.0000000000008
 73
     0
 72
     1
 10
185.6530967292771
 20
120.62423335611
 11
194.8583227111573
 21
120.62423335611
 72
     2
 10
194.8583227111573
 20
120.22423335611
 40
0.3999999999999995
 50
270.0000000000008
 51
290.0000000000031
 73
     0
 72
     1
 10
194.9951307684876
 20
120.6001104044244
 11
195.7530967292771
 21
120.32423335611
 72
     1
 10
195.7530967292771
 20
120.32423335611
 11
228.2530967292771
 21
120.32423335611
 72
     1
 10
228.2530967292771
 20
120.32423335611
 11
231.3399208181106
 21
120.8685237276721
 72
     2
 10
231.2530967292771
 20
121.3609276041782
 40
0.5000000000000011
 50
280.0000000000026
 51
360.0000000000008
 73
     1
 72
     1
 10
231.7530967292771
 20
121.3609276041782
 11
231.7530967292771
 21
124.4754523727936
 72
     2
 10
229.7530967292771
 20
124.4754523727936
 40
2.000000000000002
 50
0.0
 51
85.50000000000047
 73
     1
 72
     1
 10
229.9100149207328
 20
126.4692870402598
 11
180.9282777845783
 21
130.32423335611
 72
     1
 10
180.9282777845783
 20
130.32423335611
 11
132.7530967292771
 21
130.32423335611
 72
     2
 10
132.7530967292771
 20
133.3242333561101
 40
3.0
 50
90.0
 51
180.0
 73
     0
 72
     1
 10
129.7530967292771
 20
133.3242333561101
 11
129.7530967292771
 21
145.7992333561101
 72
     1
 10
129.7530967292771
 20
145.7992333561101
 11
124.9872945338472
 21
145.7992333561101
 72
     1
 10
124.9872945338472
 20
145.7992333561101
 11
123.5280967292771
 21
143.2718286203017
 72
     1
 10
123.5280967292771
 20
143.2718286203017
 11
123.5280967292771
 21
143.1742333561101
 72
     2
 10
122.5280967292771
 20
143.1742333561101
 40
1.000000000000003
 50
0.0
 51
90.0
 73
     0
 72
     1
 10
122.5280967292771
 20
142.1742333561101
 11
120.7780967292771
 21
142.1742333561101
 97
        0
 75
     0
 76
     1
 52
0.0
 41
1.0
 77
     0
 78
     1
 53
45.0
 43
0.0
 44
0.0
 45
-2.245064030267288
 46
2.245064030267288
 79
     0
 98
        1
 10
0.0
 20
0.0
  0
HATCH
  5
1F8
330
1F
100
AcDbEntity
  8
0
  6
Continuous
 62
     7
370
    18
100
AcDbHatch
 10
0.0
 20
0.0
 30
0.0
210
0.0
220
0.0
230
1.0
  2
ANSI31
 70
     0
 71
     0
 91
        1
 92
        0
 93
        9
 72
     1
 10
82.10312485986529
 20
136.988507727993
 11
81.35353488092959
 21
137.7976190657606
 72
     1
 10
81.35353488092959
 20
137.7976190657606
 11
73.30309672927713
 21
137.3933534836925
 72
     1
 10
73.30309672927713
 20
137.3933534836925
 11
71.80309672927712
 21
136.527328079908
 72
     1
 10
71.80309672927712
 20
136.527328079908
 11
71.80309672927712
 21
134.5617333561101
 72
     1
 10
71.80309672927712
 20
134.5617333561101
 11
72.55476277911666
 21
133.2598095674634
 72
     1
 10
72.55476277911666
 20
133.2598095674634
 11
74.80309672927713
 21
131.9617333561101
 72
     1
 10
74.80309672927713
 20
131.9617333561101
 11
78.67309657398607
 21
131.9617333561101
 72
     1
 10
78.67309657398607
 20
131.9617333561101
 11
82.10309672927713
 21
136.860281241014
 72
     1
 10
82.10309672927713
 20
136.860281241014
 11
82.10309672927713
 21
136.9885066144997
 97
        0
 75
     0
 76
     1
 52
0.0
 41
1.0
 77
     0
 78
     1
 53
45.0
 43
0.0
 44
0.0
 45
-2.245064030267288
 46
2.245064030267288
 79
     0
 98
        1
 10
0.0
 20
0.0
  0
HATCH
  5
1F9
330
1F
100
AcDbEntity
  8
0
  6
Continuous
 62
     7
370
    18
100
AcDbHatch
 10
0.0
 20
0.0
 30
0.0
210
0.0
220
0.0
230
1.0
  2
ANSI31
 70
     0
 71
     0
 91
        1
 92
        0
 93
       11
 72
     1
 10
185.7530967292771
 20
118.82423335611
 11
185.2530967292771
 21
119.32423335611
 72
     1
 10
185.2530967292771
 20
119.32423335611
 11
169.7530967292771
 21
119.32423335611
 72
     1
 10
169.7530967292771
 20
119.32423335611
 11
169.2530967292771
 21
118.82423335611
 72
     1
 10
169.2530967292771
 20
118.82423335611
 11
169.2530967292103
 21
116.9988178696169
 72
     1
 10
169.2530967292103
 20
116.9988178696169
 11
175.2530967292103
 21
116.9988178696169
 72
     1
 10
175.2530967292103
 20
116.9988178696169
 11
175.2530967292103
 21
116.82423335611
 72
     1
 10
175.2530967292103
 20
116.82423335611
 11
183.2530967292771
 21
116.82423335611
 72
     1
 10
183.2530967292771
 20
116.82423335611
 11
183.2530967292771
 21
116.9988178696169
 72
     1
 10
183.2530967292771
 20
116.9988178696169
 11
187.2530967292771
 21
116.9988178696169
 72
     1
 10
187.2530967292771
 20
116.9988178696169
 11
187.2530967292771
 21
118.82423335611
 72
     1
 10
187.2530967292771
 20
118.82423335611
 11
185.7530967292771
 21
118.82423335611
 97
        0
 75
     0
 76
     1
 52
0.0
 41
1.0
 77
     0
 78
     1
 53
45.0
 43
0.0
 44
0.0
 45
-2.245064030267288
 46
2.245064030267288
 79
     0
 98
        1
 10
0.0
 20
0.0
  0
POINT
  5
1FA
330
1F
100
AcDbEntity
  8
VERMASSUNG
100
AcDbPoint
 10
231.7530967293
 20
102.3242333561
 30
0.0
  0
POINT
  5
1FB
330
1F
100
AcDbEntity
  8
VERMASSUNG
100
AcDbPoint
 10
231.7530967293
 20
126.3242333561
 30
0.0
  0
DIMENSION
  5
1FC
330
1F
100
AcDbEntity
  8
VERMASSUNG
100
AcDbDimension
  2
_D
 10
268.8669782341
 20
102.3242333561
 30
0.0
 11
268.8669782341
 21
114.3242333561
 31
0.0
 70
   160
  1
%%c<>
 71
     2
 42
-1.0
  3
SLDDIMSTYLE0
100
AcDbAlignedDimension
 13
231.7530967293
 23
126.3242333561
 33
0.0
 14
231.7530967293
 24
102.3242333561
 34
0.0
 50
90.0
100
AcDbRotatedDimension
  0
DIMENSION
  5
208
330
1F
100
AcDbEntity
  8
VERMASSUNG
100
AcDbDimension
  2
_D_1
 10
55.8080967293
 20
114.3242333561
 30
0.0
 11
214.1915828815
 21
134.9891784239
 31
0.0
 70
   162
  1
<>
 71
     1
 42
-1.0
  3
SLDDIMSTYLE1
100
AcDb2LineAngularDimension
 13
229.9100149207
 23
126.4692870403
 33
0.0
 14
180.9282777846
 24
130.3242333561
 34
0.0
 15
247.7480967293
 25
114.3242333561
 35
0.0
 16
213.0725078024
 26
121.048933419
 36
0.0
  0
DIMENSION
  5
212
330
1F
100
AcDbEntity
  8
VERMASSUNG
100
AcDbDimension
  2
_D_2
 10
259.7530967293
 20
108.3242333561
 30
0.0
 11
259.7530967293
 21
114.3242333561
 31
0.0
 70
   160
  1
%%c<>
 71
     2
 42
-1.0
  3
SLDDIMSTYLE2
100
AcDbAlignedDimension
 13
228.2530967293
 23
120.3242333561
 33
0.0
 14
228.2530967293
 24
108.3242333561
 34
0.0
 50
90.0
100
AcDbRotatedDimension
  0
DIMENSION
  5
21C
330
1F
100
AcDbEntity
  8
VERMASSUNG
100
AcDbDimension
  2
_D_3
 10
277.7530967293
 20
98.3242333561
 30
0.0
 11
277.7530967293
 21
114.3242333561
 31
0.0
 70
   160
  1
%%c<>
 71
     2
 42
-1.0
  3
SLDDIMSTYLE0
100
AcDbAlignedDimension
 13
180.9282777846
 23
130.3242333561
 33
0.0
 14
180.9282777846
 24
98.3242333561
 34
0.0
 50
90.0
100
AcDbRotatedDimension
  0
DIMENSION
  5
227
330
1F
100
AcDbEntity
  8
VERMASSUNG
100
AcDbDimension
  2
_D_4
 10
231.7530967293
 20
83.9751938591
 30
0.0
 11
206.3406872569
 21
83.9751938591
 31
0.0
 70
   160
  1
<>
 71
     2
 42
-1.0
  3
SLDDIMSTYLE3
100
AcDbAlignedDimension
 13
180.9282777846
 23
98.3242333561
 33
0.0
 14
231.7530967293
 24
104.1730143394
 34
0.0
 50
0.0
100
AcDbRotatedDimension
  0
DIMENSION
  5
232
330
1F
100
AcDbEntity
  8
VERMASSUNG
100
AcDbDimension
  2
_D_5
 10
129.7530967293
 20
74.5001835772
 30
0.0
 11
180.7530967293
 21
74.5001835772
 31
0.0
 70
   160
  1
<>
 71
     2
 42
-1.0
  3
SLDDIMSTYLE0
100
AcDbAlignedDimension
 13
231.7530967293
 23
104.1730143394
 33
0.0
 14
129.7530967293
 24
82.8492333561
 34
0.0
 50
0.0
100
AcDbRotatedDimension
  0
DIMENSION
  5
23C
330
1F
100
AcDbEntity
  8
VERMASSUNG
100
AcDbDimension
  2
_D_6
 10
231.7530967293
 20
143.9796349444
 30
0.0
 11
213.7530967293
 21
143.9796349444
 31
0.0
 70
   160
  1
<> min.
 71
     2
 42
-1.0
  3
SLDDIMSTYLE0
100
AcDbAlignedDimension
 13
195.7530967293
 23
120.3242333561
 33
0.0
 14
231.7530967293
 24
124.4754523728
 34
0.0
 50
0.0
100
AcDbRotatedDimension
  0
DIMENSION
  5
247
330
1F
100
AcDbEntity
  8
VERMASSUNG
100
AcDbDimension
  2
_D_7
 10
231.7530967293
 20
152.6854245898
 30
0.0
 11
208.5030967293
 21
152.6854245898
 31
0.0
 70
   160
  1
<> max.
 71
     2
 42
-1.0
  3
SLDDIMSTYLE0
100
AcDbAlignedDimension
 13
185.2530967293
 23
120.2242333561
 33
0.0
 14
231.7530967293
 24
124.4754523728
 34
0.0
 50
0.0
100
AcDbRotatedDimension
  0
DIMENSION
  5
252
330
1F
100
AcDbEntity
  8
VERMASSUNG
100
AcDbDimension
  2
_D_8
 10
111.7530967293
 20
161.7992333561
 30
0.0
 11
171.7530967293
 21
161.7992333561
 31
0.0
 70
   160
  1
<>
 71
     2
 42
-1.0
  3
SLDDIMSTYLE0
100
AcDbAlignedDimension
 13
231.7530967293
 23
124.4754523728
 33
0.0
 14
111.7530967293
 24
145.5992333561
 34
0.0
 50
0.0
100
AcDbRotatedDimension
  0
DIMENSION
  5
25C
330
1F
100
AcDbEntity
  8
VERMASSUNG
100
AcDbDimension
  2
_D_9
 10
231.7530967293
 20
169.5460045358
 30
0.0
 11
151.7780967293
 21
169.5460045358
 31
0.0
 70
   160
  1
<>
 71
     2
 42
-1.0
  3
SLDDIMSTYLE0
100
AcDbAlignedDimension
 13
71.8030967293
 23
136.5273280799
 33
0.0
 14
231.7530967293
 24
124.4754523728
 34
0.0
 50
0.0
100
AcDbRotatedDimension
  0
DIMENSION
  5
266
330
1F
100
AcDbEntity
  8
VERMASSUNG
100
AcDbDimension
  2
_D_10
 10
47.2588621444
 20
145.7992333561
 30
0.0
 11
47.2588621444
 21
114.3242333561
 31
0.0
 70
   160
  1
KM%%c<> XMZ
 71
     2
 42
-1.0
  3
SLDDIMSTYLE0
100
AcDbAlignedDimension
 13
111.9530967293
 23
82.8492333561
 33
0.0
 14
118.3188989247
 24
145.7992333561
 34
0.0
 50
90.0
100
AcDbRotatedDimension
  0
LINE
  5
273
330
1F
100
AcDbEntity
  8
0
  6
Continuous
 62
     7
370
    25
100
AcDbLine
 10
260.9635409227
 20
20.7604437482
 30
0.0
 11
279.1897223146
 21
12.4608374687
 31
0.0
  0
LINE
  5
274
330
1F
100
AcDbEntity
  8
0
  6
Continuous
 62
     7
370
    25
100
AcDbLine
 10
285.2523442997
 20
22.9627447759
 30
0.0
 11
268.9504921926
 21
34.595747977
 31
0.0
  0
SPLINE
  5
275
330
1F
100
AcDbEntity
  8
0
  6
Continuous
 62
     7
370
    25
100
AcDbSpline
210
0.0
220
0.0
230
1.0
 70
     8
 71
     3
 72
    29
 73
    25
 74
     0
 42
0.000000001
 43
0.00000001
 40
0.0
 40
0.0
 40
0.0
 40
0.0
 40
0.014249252775265
 40
0.0572526113141314
 40
0.1006321404978276
 40
0.1452421415861411
 40
0.1914992327449861
 40
0.2392456352921261
 40
0.2879002626542535
 40
0.3368248545283166
 40
0.3856385519120107
 40
0.4342818443138546
 40
0.4827999076102951
 40
0.5312810452984918
 40
0.5798237670885429
 40
0.6285106451284389
 40
0.6774561039875185
 40
0.7267632766305064
 40
0.7764847106260334
 40
0.8265148559997305
 40
0.8762430887702057
 40
0.9197138471920933
 40
0.9664235234078136
 40
1.0
 40
1.0
 40
1.0
 40
1.0
 10
279.2298382118671
 20
12.45764837982132
 30
0.0
 10
279.2857893621602
 20
12.42900559234661
 30
0.0
 10
279.5105976037452
 20
12.31392065392167
 30
0.0
 10
279.9540777360275
 20
12.22477252312772
 30
0.0
 10
280.5401339788098
 20
12.19206188446627
 30
0.0
 10
281.152621660839
 20
12.27623458529698
 30
0.0
 10
281.7822940447106
 20
12.46800471082683
 30
0.0
 10
282.4216250203996
 20
12.77034137393665
 30
0.0
 10
283.0565467795657
 20
13.17809853519476
 30
0.0
 10
283.6715333666332
 20
13.68157562134224
 30
0.0
 10
284.252586750924
 20
14.26754491767064
 30
0.0
 10
284.7884558284505
 20
14.92228411734223
 30
0.0
 10
285.2698762405342
 20
15.6324324984748
 30
0.0
 10
285.6884848152921
 20
16.38456714390891
 30
0.0
 10
286.0365573752684
 20
17.1650312129258
 30
0.0
 10
286.3070565015465
 20
17.96020901955023
 30
0.0
 10
286.4935224983971
 20
18.75679193081699
 30
0.0
 10
286.5897917462307
 20
19.54186426832756
 30
0.0
 10
286.5896581190884
 20
20.30236918411681
 30
0.0
 10
286.4867833744311
 20
21.02212027449256
 30
0.0
 10
286.285497978792
 20
21.66061798695711
 30
0.0
 10
285.9872557894271
 20
22.21923474122012
 30
0.0
 10
285.6459260492319
 20
22.65902020204454
 30
0.0
 10
285.3597595710617
 20
22.86879837326628
 30
0.0
 10
285.2400818717361
 20
22.95652971434114
 30
0.0
  0
SPLINE
  5
276
330
1F
100
AcDbEntity
  8
0
  6
Continuous
 62
     7
370
    25
100
AcDbSpline
210
0.0
220
0.0
230
1.0
 70
     8
 71
     3
 72
    11
 73
     7
 74
     0
 42
0.000000001
 43
0.00000001
 40
0.0
 40
0.0
 40
0.0
 40
0.0
 40
0.2352731067704019
 40
0.5409488659452336
 40
0.8343493987225836
 40
1.0
 40
1.0
 40
1.0
 40
1.0
 10
280.730123443969
 20
14.83950225864469
 30
0.0
 10
280.6682554714703
 20
14.89900286462231
 30
0.0
 10
280.5260062785181
 20
15.03580891852484
 30
0.0
 10
280.3791950455323
 20
15.37255579508044
 30
0.0
 10
280.2989352776792
 20
15.7466236367645
 30
0.0
 10
280.2916650287668
 20
16.00557662776165
 30
0.0
 10
280.2890415277788
 20
16.09902094252103
 30
0.0
  0
SPLINE
  5
277
330
1F
100
AcDbEntity
  8
0
  6
Continuous
 62
     7
370
    25
100
AcDbSpline
210
0.0
220
0.0
230
1.0
 70
     8
 71
     3
 72
    16
 73
    12
 74
     0
 42
0.000000001
 43
0.00000001
 40
0.0
 40
0.0
 40
0.0
 40
0.0
 40
0.048210062155157
 40
0.1721979087942019
 40
0.2959842988989538
 40
0.4193670703889823
 40
0.5421844206401264
 40
0.6644110037345147
 40
0.7864082760517324
 40
0.9091090656029528
 40
0.9999999999999999
 40
0.9999999999999999
 40
0.9999999999999999
 40
0.9999999999999999
 10
280.9689870859096
 20
18.38317395346564
 30
0.0
 10
281.0075202345839
 20
18.45530166272003
 30
0.0
 10
281.1451539011739
 20
18.71292922311913
 30
0.0
 10
281.4420081194577
 20
19.11795160619756
 30
0.0
 10
281.8416955878126
 20
19.57377915322701
 30
0.0
 10
282.2700540030427
 20
19.95035233879072
 30
0.0
 10
282.7041345253825
 20
20.2365100963286
 30
0.0
 10
283.1272402014187
 20
20.42391335012277
 30
0.0
 10
283.5185796512617
 20
20.50568598791809
 30
0.0
 10
283.8393085344188
 20
20.5001290794529
 30
0.0
 10
284.0023001672352
 20
20.42943464161948
 30
0.0
 10
284.0716589491755
 20
20.39935162439119
 30
0.0
  0
SPLINE
  5
278
330
1F
100
AcDbEntity
  8
0
  6
Continuous
 62
     7
370
    25
100
AcDbSpline
210
0.0
220
0.0
230
1.0
 70
     8
 71
     3
 72
    12
 73
     8
 74
     0
 42
0.000000001
 43
0.00000001
 40
0.0
 40
0.0
 40
0.0
 40
0.0
 40
0.1255319927048393
 40
0.3667040788437238
 40
0.6087471422969006
 40
0.8514444422145516
 40
1.0
 40
1.0
 40
1.0
 40
1.0
 10
280.2890415277788
 20
16.09902094252103
 30
0.0
 10
280.2912489764423
 20
16.18675393865077
 30
0.0
 10
280.2976973758607
 20
16.44303958214883
 30
0.0
 10
280.3698020033922
 20
16.90492376291048
 30
0.0
 10
280.5345529740367
 20
17.47441012011827
 30
0.0
 10
280.7360387072251
 20
17.97767294373384
 30
0.0
 10
280.9048795704695
 20
18.2715798638686
 30
0.0
 10
280.9689870859096
 20
18.38317395346564
 30
0.0
  0
LINE
  5
279
330
1F
100
AcDbEntity
  8
0
  6
Continuous
 62
     7
370
    25
100
AcDbLine
 10
243.7022036261
 20
30.7108840275
 30
0.0
 11
260.7347032916
 21
20.8782312645
 31
0.0
  0
LINE
  5
27A
330
1F
100
AcDbEntity
  8
0
  6
Continuous
 62
     7
370
    25
100
AcDbLine
 10
268.7340533082
 20
34.7350130339
 30
0.0
 11
251.7015536427
 21
44.5676657969
 31
0.0
  0
LINE
  5
27B
330
1F
100
AcDbEntity
  8
0
  6
Continuous
 62
     7
370
    25
100
AcDbLine
 10
237.0881424825
 20
25.5948465754
 30
0.0
 11
238.7731076315
 21
24.6221368995
 31
0.0
  0
LINE
  5
27C
330
1F
100
AcDbEntity
  8
0
  6
Continuous
 62
     7
370
    25
100
AcDbLine
 10
254.509328946
 20
51.8810252934
 30
0.0
 11
252.824363797
 21
52.8537349692
 31
0.0
  0
LINE
  5
27D
330
1F
100
AcDbEntity
  8
0
  6
Continuous
 62
     7
370
    25
100
AcDbLine
 10
232.4798575511
 20
28.25515284
 30
0.0
 11
234.7305085275
 21
26.9558796872
 31
0.0
  0
LINE
  5
27E
330
1F
100
AcDbEntity
  8
0
  6
Continuous
 62
     7
370
    25
100
AcDbLine
 10
250.4667298421
 20
54.214768081
 30
0.0
 11
248.2160788656
 21
55.5140412338
 31
0.0
  0
LINE
  5
27F
330
1F
100
AcDbEntity
  8
0
  6
Continuous
 62
     7
370
    25
100
AcDbLine
 10
241.4386896754
 20
55.2939231415
 30
0.0
 11
232.2414774918
 21
59.8745757513
 31
0.0
  0
LINE
  5
280
330
1F
100
AcDbEntity
  8
0
  6
Continuous
 62
     7
370
    25
100
AcDbLine
 10
220.7151297021
 20
39.9081922957
 30
0.0
 11
229.2812297078
 21
34.2343026993
 31
0.0
  0
LINE
  5
281
330
1F
100
AcDbEntity
  8
0
  6
Continuous
 62
     7
370
    25
100
AcDbLine
 10
225.6945671438
 20
40.8546821613
 30
0.0
 11
225.6945671438
 21
40.4893634563
 31
0.0
  0
LINE
  5
282
330
1F
100
AcDbEntity
  8
0
  6
Continuous
 62
     7
370
    25
100
AcDbLine
 10
229.5925339042
 20
60.251544128
 30
0.0
 11
228.9529837954
 21
60.1643323726
 31
0.0
  0
LWPOLYLINE
  5
283
330
1F
100
AcDbEntity
  8
0
  6
Continuous
 62
     7
370
    25
100
AcDbPolyline
 90
       20
 70
   128
 43
0.0
 10
259.0775237817
 20
24.5409895468
 10
259.1259189005
 20
25.4215671932
 10
259.2702767958
 20
26.3429540609
 10
259.5081262792
 20
27.2893842753
 10
259.8353988628
 20
28.2446649211
 10
260.2464939548
 20
29.1924501839
 10
260.7343782999
 20
30.1165236625
 10
261.2907035293
 20
31.0010742155
 10
261.9059510408
 20
31.8309664827
 10
262.5695938357
 20
32.5920016134
 10
263.2702766312
 20
33.2711569858
 10
263.9960106243
 20
33.8568134715
 10
264.7343782999
 20
34.3389489546
 10
265.4727459755
 20
34.7093146438
 10
266.1984799687
 20
34.961572791
 10
266.8991627641
 20
35.0914085544
 10
267.562805559
 20
35.0965990851
 10
268.1780530705
 20
34.9770564744
 10
268.7343782999
 20
34.7348253592
 10
268.9504921926
 20
34.595747977
  0
LWPOLYLINE
  5
284
330
1F
100
AcDbEntity
  8
0
  6
Continuous
 62
     7
370
    25
100
AcDbPolyline
 90
        8
 70
   128
 43
0.0
 10
260.9635409227
 20
20.7604437482
 10
260.7343782999
 20
20.8784189392
 10
260.2464939548
 20
21.2391931431
 10
259.8353988628
 20
21.7123381157
 10
259.5081262792
 20
22.2897578795
 10
259.2702767958
 20
22.9615729256
 10
259.1259189005
 20
23.7162877153
 10
259.0775237817
 20
24.5409895468
  0
LINE
  5
285
330
1F
100
AcDbEntity
  8
0
  6
Continuous
 62
     7
370
    25
100
AcDbLine
 10
283.9767350267
 20
20.4470041813
 30
0.0
 11
284.0949119911
 21
20.4017869006
 31
0.0
  0
LWPOLYLINE
  5
286
330
1F
100
AcDbEntity
  8
0
  6
Continuous
 62
     7
370
    25
100
AcDbPolyline
 90
       15
 70
   128
 43
0.0
 10
283.2708969802
 20
20.4768755582
 10
283.2838953317
 20
20.4597617371
 10
283.4765026428
 20
20.0902074637
 10
283.5751117803
 20
19.6298158777
 10
283.5751117803
 20
19.1001143102
 10
283.4765026428
 20
18.5258710374
 10
283.2838953317
 20
17.9339370961
 10
283.0062957726
 20
17.3519905894
 10
282.6566842891
 20
16.8072425608
 10
282.2514083433
 20
16.3251651295
 10
281.8094181502
 20
15.9282994537
 10
281.3513807503
 20
15.6352026552
 10
280.8987133899
 20
15.4595795333
 10
280.4725823273
 20
15.4096420399
 10
280.3675792988
 20
15.4177990643
  0
LWPOLYLINE
  5
287
330
1F
100
AcDbEntity
  8
0
  6
Continuous
 62
     7
370
    25
100
AcDbPolyline
 90
       38
 70
   128
 43
0.0
 10
235.5131252903
 20
31.8274697495
 10
235.5620222201
 20
33.0590196044
 10
235.7082836382
 20
34.3362019752
 10
235.9506240659
 20
35.6477927404
 10
236.2869137701
 20
36.9822659538
 10
236.7141978618
 20
38.327893844
 10
237.2287206615
 20
39.6728508049
 10
237.8259606027
 20
41.0053177663
 10
238.5006697442
 20
42.3135852328
 10
239.2469178926
 20
43.5861551817
 10
240.0581479204
 20
44.8118444807
 10
240.9272297662
 20
45.9798822223
 10
241.8465266184
 20
47.0800034444
 10
242.807959124
 20
48.1025401898
 10
243.803078486
 20
49.0385062909
 10
244.823139892
 20
49.879676261
 10
245.8591783286
 20
50.6186579586
 10
246.902089418
 20
51.2489582653
 10
247.9427079494
 20
51.7650367855
 10
248.971888962
 20
52.1623579786
 10
249.9805878411
 20
52.437431313
 10
250.9599406598
 20
52.5878393962
 10
251.9013399121
 20
52.6122588796
 10
252.7965132912
 20
52.5104770395
 10
253.6375938245
 20
52.2833866372
 10
254.4171893497
 20
51.9329849615
 10
255.128449687
 20
51.4623502486
 10
255.7651239319
 20
50.8756184822
 10
256.3216170902
 20
50.1779468861
 10
256.7930388104
 20
49.3754660107
 10
257.1752455305
 20
48.4752276368
 10
257.4648786735
 20
47.4851433652
 10
257.6593936234
 20
46.4139144609
 10
257.7570807986
 20
45.2709550922
 10
257.7570807986
 20
44.066308773
 10
257.6593936234
 20
42.8105621925
 10
257.4648786735
 20
41.5147511075
 10
257.4176689348
 20
41.2678227802
  0
LWPOLYLINE
  5
288
330
1F
100
AcDbEntity
  8
0
  6
Continuous
 62
     7
370
    25
100
AcDbPolyline
 90
       21
 70
   128
 43
0.0
 10
249.4183192474
 20
27.4110408206
 10
248.971888962
 20
27.0317392955
 10
247.9427079494
 20
26.2407933844
 10
246.902089418
 20
25.5553993224
 10
245.8591783286
 20
24.9815801156
 10
244.823139892
 20
24.5243772958
 10
243.803078486
 20
24.1878094353
 10
242.807959124
 20
23.9748351769
 10
241.8465266184
 20
23.8873255794
 10
240.9272297662
 20
23.9260492484
 10
240.0581479204
 20
24.0906664493
 10
239.2469178926
 20
24.3797294949
 10
238.5006697442
 20
24.7906996713
 10
237.8259606027
 20
25.3199645445
 10
237.2287206615
 20
25.9628729475
 10
236.7141978618
 20
26.7137745287
 10
236.2869137701
 20
27.5660707075
 10
235.9506240659
 20
28.512272093
 10
235.7082836382
 20
29.5440625561
 10
235.5620222201
 20
30.652375088
 10
235.5131252903
 20
31.8274697495
  0
SPLINE
  5
289
330
1F
100
AcDbEntity
  8
0
  6
Continuous
 62
     7
370
    25
100
AcDbSpline
210
0.0
220
0.0
230
1.0
 70
     8
 71
     3
 72
    25
 73
    21
 74
     0
 42
0.000000001
 43
0.00000001
 40
0.0
 40
0.0
 40
0.0
 40
0.0
 40
0.1249999999999998
 40
0.1249999999999998
 40
0.2499999999999997
 40
0.2499999999999997
 40
0.3749999999999995
 40
0.3749999999999995
 40
0.4999999999999993
 40
0.4999999999999993
 40
0.5624999999999996
 40
0.5624999999999996
 40
0.6249999999999998
 40
0.6875000000000001
 40
0.6875000000000001
 40
0.7500000000000003
 40
0.7500000000000003
 40
0.8750000000000001
 40
0.8750000000000001
 40
1.0
 40
1.0
 40
1.0
 40
1.0
 10
240.3467144388602
 20
48.25928420396512
 30
0.0
 10
240.3758377371212
 20
48.14809868343593
 30
0.0
 10
240.3882267779805
 20
48.0328564710079
 30
0.0
 10
240.3812492928802
 20
47.79376090317211
 30
0.0
 10
240.3612317050282
 20
47.66898693329684
 30
0.0
 10
240.291009547315
 20
47.42261802408442
 30
0.0
 10
240.2403588927213
 20
47.2984068767233
 30
0.0
 10
240.1104441490661
 20
47.05477838141314
 30
0.0
 10
240.0327432010768
 20
46.93772128635498
 30
0.0
 10
239.8973696188507
 20
46.76906476850494
 30
0.0
 10
239.8487351215436
 20
46.71369774723277
 30
0.0
 10
239.7472957861615
 20
46.60797793583576
 30
0.0
 10
239.6414258034208
 20
46.50681697721532
 30
0.0
 10
239.5268340110933
 20
46.41464265553851
 30
0.0
 10
239.4077513418751
 20
46.3271058127984
 30
0.0
 10
239.3457933288177
 20
46.28560734328621
 30
0.0
 10
239.1579296252971
 20
46.17148702154811
 30
0.0
 10
239.0285521889431
 20
46.10787959043351
 30
0.0
 10
238.7608689358811
 20
46.00661128945928
 30
0.0
 10
238.624997249416
 20
45.97007038123449
 30
0.0
 10
238.4894799826884
 20
45.94890219688442
 30
0.0
  0
LWPOLYLINE
  5
28A
330
1F
100
AcDbEntity
  8
0
  6
Continuous
 62
     7
370
    25
100
AcDbPolyline
 90
       14
 70
   128
 43
0.0
 10
240.3467145506
 20
48.2592842365
 10
241.3487008854
 20
49.2980116141
 10
242.3845637376
 20
50.2421424042
 10
243.4445760755
 20
51.0828110927
 10
244.5187836283
 20
51.8121228937
 10
245.5970992229
 20
52.4232279812
 10
246.669397079
 20
52.9103903733
 10
247.7256076394
 20
53.269033551
 10
248.7558126064
 20
53.4957899984
 10
249.7503382906
 20
53.5885307567
 10
250.6998452136
 20
53.5463852119
 10
251.5954170122
 20
53.36974755
 10
252.4286437436
 20
53.0602784605
 10
252.824363797
 20
52.8537349692
  0
LWPOLYLINE
  5
28B
330
1F
100
AcDbEntity
  8
0
  6
Continuous
 62
     7
370
    25
100
AcDbPolyline
 90
       20
 70
   128
 43
0.0
 10
237.0881424825
 20
25.5948465754
 10
237.0467674481
 20
25.6189852685
 10
236.3317382606
 20
26.1249092353
 10
235.6963988855
 20
26.7518705041
 10
235.1466182713
 20
27.494073797
 10
234.6874770891
 20
28.3446623037
 10
234.3232176825
 20
29.2957766226
 10
234.0572052139
 20
30.3386285287
 10
233.8918980301
 20
31.4635823461
 10
233.8288239542
 20
32.6602439367
 10
233.8685644811
 20
33.9175556045
 10
234.01075346
 20
35.2239006834
 10
234.2540770946
 20
36.5672087426
 10
234.5962864554
 20
37.9350676227
 10
235.0342205289
 20
39.3148389171
 10
235.5638319004
 20
40.6937734651
 10
236.1802275842
 20
42.05913017
 10
236.8777124875
 20
43.3982934869
 10
237.6498414351
 20
44.6988901485
 10
238.4894797559
 20
45.9489017085
  0
LWPOLYLINE
  5
28C
330
1F
100
AcDbEntity
  8
0
  6
Continuous
 62
     7
370
    25
100
AcDbPolyline
 90
       12
 70
   128
 43
0.0
 10
238.6840931582
 20
48.3835607171
 10
239.5996721974
 20
49.3580426016
 10
240.5483849158
 20
50.2470177813
 10
241.5212879496
 20
51.0421073647
 10
242.5092100375
 20
51.7358161157
 10
243.5028382078
 20
52.3216050225
 10
244.4928058996
 20
52.7939505337
 10
245.4697807141
 20
53.1484012999
 10
246.4245531944
 20
53.381615737
 10
247.3481230127
 20
53.4913950506
 10
248.2317837167
 20
53.4767047825
 10
248.4846437344
 20
53.4484473501
  0
SPLINE
  5
28D
330
1F
100
AcDbEntity
  8
0
  6
Continuous
 62
     7
370
    25
100
AcDbSpline
210
0.0
220
0.0
230
1.0
 70
     8
 71
     3
 72
    26
 73
    22
 74
     0
 42
0.000000001
 43
0.00000001
 40
0.0
 40
0.0
 40
0.0
 40
0.0
 40
0.1250000000000009
 40
0.1250000000000009
 40
0.2500000000000019
 40
0.2500000000000019
 40
0.3125000000000011
 40
0.3125000000000011
 40
0.3750000000000004
 40
0.3750000000000004
 40
0.4375000000000002
 40
0.4375000000000002
 40
0.5000000000000001
 40
0.5000000000000001
 40
0.5625
 40
0.5625
 40
0.6249999999999999
 40
0.6249999999999999
 40
0.7500000000000001
 40
0.7500000000000001
 40
1.0
 40
1.0
 40
1.0
 40
1.0
 10
237.3398999532326
 20
46.71139743083994
 30
0.0
 10
237.3162623570006
 20
46.82097329041293
 30
0.0
 10
237.2986945781189
 20
46.93186254877746
 30
0.0
 10
237.2798819952494
 20
47.15719250864041
 30
0.0
 10
237.278702220482
 20
47.27286942195878
 30
0.0
 10
237.2948002237174
 20
47.44422493181834
 30
0.0
 10
237.3031189408176
 20
47.5010234439125
 30
0.0
 10
237.3268760900746
 20
47.61384965630959
 30
0.0
 10
237.3424984691236
 20
47.67030250997574
 30
0.0
 10
237.3813556815206
 20
47.77888562638434
 30
0.0
 10
237.404581638223
 20
47.83126558660988
 30
0.0
 10
237.4595802877014
 20
47.931722361882
 30
0.0
 10
237.4916585547241
 20
47.98000122965344
 30
0.0
 10
237.5620733032592
 20
48.06769820523718
 30
0.0
 10
237.6006517253858
 20
48.10768733321314
 30
0.0
 10
237.684359988982
 20
48.18016601732873
 30
0.0
 10
237.7294886989239
 20
48.21250264170535
 30
0.0
 10
237.868769341114
 20
48.29570240905899
 30
0.0
 10
237.9695584126757
 20
48.33453113169509
 30
0.0
 10
238.2726306839083
 20
48.40994741915026
 30
0.0
 10
238.4811547743934
 20
48.4098172727795
 30
0.0
 10
238.6840931940838
 20
48.38356104345328
 30
0.0
  0
LWPOLYLINE
  5
28E
330
1F
100
AcDbEntity
  8
0
  6
Continuous
 62
     7
370
    25
100
AcDbPolyline
 90
       17
 70
   128
 43
0.0
 10
234.4029213243
 20
29.0555461408
 10
234.3424972315
 20
29.1352779796
 10
233.8563392608
 20
29.9052044412
 10
233.464230007
 20
30.7805982809
 10
233.1701523471
 20
31.7525676028
 10
232.9770940977
 20
32.8112382763
 10
232.8870157457
 20
33.9458557463
 10
232.900832668
 20
35.1448942563
 10
233.0184045947
 20
36.3961735804
 10
233.2385369259
 20
37.6869824083
 10
233.5589939031
 20
39.0042084782
 10
233.9765196823
 20
40.3344709906
 10
234.4868732367
 20
41.6642559673
 10
235.0848698455
 20
42.9800554123
 10
235.7644350942
 20
44.2685024788
 10
236.5186661192
 20
45.5165094877
 10
237.3399000966
 20
46.7113971998
  0
LINE
  5
28F
330
1F
100
AcDbEntity
  8
0
  6
Continuous
 62
     7
370
    25
100
AcDbLine
 10
235.8645076823
 20
26.4674762557
 30
0.0
 11
235.9861429932
 21
26.5249608622
 31
0.0
  0
LWPOLYLINE
  5
290
330
1F
100
AcDbEntity
  8
0
  6
Continuous
 62
     7
370
    25
100
AcDbPolyline
 90
       38
 70
   128
 43
0.0
 10
235.8645076823
 20
26.4674762557
 10
235.0608298429
 20
26.7805661782
 10
234.3240291739
 20
27.2161356821
 10
233.6606430467
 20
27.7703206223
 10
233.0765568736
 20
28.4382036738
 10
232.5769540582
 20
29.2138599639
 10
232.1662659467
 20
30.090407268
 10
231.8481375829
 20
31.0600691307
 10
231.6253901714
 20
32.1142414102
 10
231.5000000044
 20
33.2435714632
 10
231.473081339
 20
34.4380404192
 10
231.5448705929
 20
35.6870492571
 10
231.7147329292
 20
36.9795175692
 10
231.9811602808
 20
38.3039778592
 10
232.3417891315
 20
39.6486785357
 10
232.7934189551
 20
41.0016893768
 10
233.3320438252
 20
42.3510060912
 10
233.9528846845
 20
43.6846571602
 10
234.6504334666
 20
44.9908106781
 10
235.4185005117
 20
46.2578766306
 10
236.2502712012
 20
47.4746144948
 10
237.1383672026
 20
48.6302279107
 10
238.0749077135
 20
49.7144646769
 10
239.0515842073
 20
50.7177055274
 10
240.0597310614
 20
51.6310482511
 10
241.0904035951
 20
52.4463900045
 10
242.1344575062
 20
53.1564967444
 10
243.1826296253
 20
53.7550688574
 10
244.225620234
 20
54.2367940044
 10
245.2541755471
 20
54.5974000603
 10
246.2591701133
 20
54.8336859523
 10
247.2316869107
 20
54.9435564914
 10
248.1630976892
 20
54.9260368133
 10
249.0451390323
 20
54.7812813068
 10
249.8699844678
 20
54.5105756985
 10
250.6303169076
 20
54.1163203156
 10
251.3193889048
 20
53.6020146811
 10
251.5567678582
 20
53.3804657646
  0
LWPOLYLINE
  5
291
330
1F
100
AcDbEntity
  8
0
  6
Continuous
 62
     7
370
    25
100
AcDbPolyline
 90
       16
 70
   128
 43
0.0
 10
229.648060849
 20
39.2380065207
 10
229.6573739855
 20
39.2808086809
 10
229.9936636897
 20
40.6152818943
 10
230.4209477814
 20
41.9609097845
 10
230.9354705811
 20
43.3058667454
 10
231.5327105223
 20
44.6383337068
 10
232.2074196638
 20
45.9466011733
 10
232.9536678122
 20
47.2191711221
 10
233.76489784
 20
48.4448604212
 10
234.6339796858
 20
49.6128981628
 10
235.553276538
 20
50.7130193849
 10
236.5147090436
 20
51.7355561303
 10
237.5098284056
 20
52.6715222314
 10
238.5298898116
 20
53.5126922015
 10
239.5659282482
 20
54.2516738991
 10
240.2897849265
 20
54.701143177
  0
LWPOLYLINE
  5
292
330
1F
100
AcDbEntity
  8
0
  6
Continuous
 62
     7
370
    25
100
AcDbPolyline
 90
       24
 70
   128
 43
0.0
 10
229.2198750916
 20
35.5421264308
 10
229.2684618469
 20
36.7658510566
 10
229.4137934002
 20
38.0349175695
 10
229.6545941508
 20
39.3381741861
 10
229.9887468781
 20
40.6641676784
 10
230.4133157908
 20
42.0012451786
 10
230.924568917
 20
43.3376563643
 10
231.5180143247
 20
44.6616566879
 10
232.1884356829
 20
45.9616100357
 10
232.9299423109
 20
47.2260936671
 10
233.7360172523
 20
48.4439955494
 10
234.5995772023
 20
49.6046113111
 10
235.5130324356
 20
50.6977419559
 10
236.468355953
 20
51.713780929
 10
237.4571522999
 20
52.6438002332
 10
238.4707316523
 20
53.4796251376
 10
239.5001868664
 20
54.213911357
 10
240.5364710225
 20
54.8402065472
 10
241.570477273
 20
55.3530055262
 10
242.5931185271
 20
55.7478023585
 10
243.5954081218
 20
56.0211278001
 10
244.5685373656
 20
56.1705788543
 10
245.5039550581
 20
56.1948441448
 10
246.2692058377
 20
56.1158589146
  0
LWPOLYLINE
  5
293
330
1F
100
AcDbEntity
  8
0
  6
Continuous
 62
     7
370
    25
100
AcDbPolyline
 90
        3
 70
   128
 43
0.0
 10
229.3722669006
 20
33.5175222704
 10
229.2684618469
 20
34.3744988786
 10
229.2390420295
 20
34.8017020771
  0
SPLINE
  5
294
330
1F
100
AcDbEntity
  8
0
  6
Continuous
 62
     7
370
    25
100
AcDbSpline
210
0.0
220
0.0
230
1.0
 70
     8
 71
     3
 72
    10
 73
     6
 74
     0
 42
0.000000001
 43
0.00000001
 40
0.0
 40
0.0
 40
0.0
 40
0.0
 40
0.5
 40
0.5
 40
1.0
 40
1.0
 40
1.0
 40
1.0
 10
238.0665880208639
 20
45.24834415002022
 30
0.0
 10
237.9626235300797
 20
45.3216825230906
 30
0.0
 10
237.8728152536523
 20
45.408918280884
 30
0.0
 10
237.7207728256537
 20
45.60984882208
 30
0.0
 10
237.6588672372927
 20
45.72401958827697
 30
0.0
 10
237.6144175327022
 20
45.84703727143707
 30
0.0
  0
SPLINE
  5
295
330
1F
100
AcDbEntity
  8
0
  6
Continuous
 62
     7
370
    25
100
AcDbSpline
210
0.0
220
0.0
230
1.0
 70
     8
 71
     3
 72
    14
 73
    10
 74
     0
 42
0.000000001
 43
0.00000001
 40
0.0
 40
0.0
 40
0.0
 40
0.0
 40
0.25
 40
0.25
 40
0.5
 40
0.5
 40
0.75
 40
0.75
 40
1.0
 40
1.0
 40
1.0
 40
1.0
 10
237.6144175327022
 20
45.84703727143707
 30
0.0
 10
237.5916967298371
 20
45.90991869109461
 30
0.0
 10
237.5697822194876
 20
45.97896512056803
 30
0.0
 10
237.5276711654248
 20
46.1266176371868
 30
0.0
 10
237.5081496115118
 20
46.2030174240451
 30
0.0
 10
237.4698033693381
 20
46.35734971544071
 30
0.0
 10
237.4514437764542
 20
46.43430231177236
 30
0.0
 10
237.4094403318726
 20
46.57969247928834
 30
0.0
 10
237.3856640108595
 20
46.64628338548137
 30
0.0
 10
237.3572025067573
 20
46.68677900071271
 30
0.0
  0
LINE
  5
296
330
1F
100
AcDbEntity
  8
0
  6
Continuous
 62
     7
370
    25
100
AcDbLine
 10
237.357202695
 20
46.6867793925
 30
0.0
 11
237.3399000966
 21
46.7113971998
 31
0.0
  0
LINE
  5
297
330
1F
100
AcDbEntity
  8
0
  6
Continuous
 62
     7
370
    25
100
AcDbLine
 10
238.6840931582
 20
48.3835607171
 30
0.0
 11
238.7013957566
 21
48.3589429097
 31
0.0
  0
SPLINE
  5
298
330
1F
100
AcDbEntity
  8
0
  6
Continuous
 62
     7
370
    25
100
AcDbSpline
210
0.0
220
0.0
230
1.0
 70
     8
 71
     3
 72
    16
 73
    12
 74
     0
 42
0.000000001
 43
0.00000001
 40
0.0
 40
0.0
 40
0.0
 40
0.0
 40
0.1250000000000001
 40
0.1250000000000001
 40
0.2500000000000003
 40
0.2500000000000003
 40
0.5000000000000002
 40
0.5000000000000002
 40
0.7500000000000001
 40
0.7500000000000001
 40
1.0
 40
1.0
 40
1.0
 40
1.0
 10
238.7013957476085
 20
48.35894261332599
 30
0.0
 10
238.7155481540126
 20
48.3388062775132
 30
0.0
 10
238.7372065584863
 20
48.32200885683577
 30
0.0
 10
238.7896244875216
 20
48.29516333550429
 30
0.0
 10
238.82021736666
 20
48.28493785094331
 30
0.0
 10
238.9192982155175
 20
48.26043741051061
 30
0.0
 10
238.9931807531334
 20
48.25217748810913
 30
0.0
 10
239.1462803455247
 20
48.2409915214042
 30
0.0
 10
239.2243643201723
 20
48.23839484965302
 30
0.0
 10
239.3837079539144
 20
48.23636584881931
 30
0.0
 10
239.462360848746
 20
48.23700343748154
 30
0.0
 10
239.5381133165386
 20
48.24009653829657
 30
0.0
  0
SPLINE
  5
299
330
1F
100
AcDbEntity
  8
0
  6
Continuous
 62
     7
370
    25
100
AcDbSpline
210
0.0
220
0.0
230
1.0
 70
     8
 71
     3
 72
    10
 73
     6
 74
     0
 42
0.000000001
 43
0.00000001
 40
0.0
 40
0.0
 40
0.0
 40
0.0
 40
0.5
 40
0.5
 40
1.0
 40
1.0
 40
1.0
 40
1.0
 10
239.5381133165386
 20
48.24009653829657
 30
0.0
 10
239.6863076564394
 20
48.24614756273034
 30
0.0
 10
239.82853212217
 20
48.2359853325172
 30
0.0
 10
240.1009235125107
 20
48.18493489657713
 30
0.0
 10
240.2310508423793
 20
48.14357379393257
 30
0.0
 10
240.3491261845646
 20
48.08779992598029
 30
0.0
  0
ARC
  5
29A
330
1F
100
AcDbEntity
  8
0
  6
Continuous
 62
     7
370
    25
100
AcDbCircle
 10
223.0191661349
 20
43.3517302316
 30
0.0
 40
4.143252031906271
100
AcDbArc
 50
211.7444095219
 51
236.2139194594
  0
SPLINE
  5
29B
330
1F
100
AcDbEntity
  8
0
  6
Continuous
 62
     7
370
    25
100
AcDbSpline
210
0.0
220
0.0
230
1.0
 70
     8
 71
     3
 72
     8
 73
     4
 74
     0
 42
0.000000001
 43
0.00000001
 40
0.0
 40
0.0
 40
0.0
 40
0.0
 40
1.0
 40
1.0
 40
1.0
 40
1.0
 10
220.9261725154278
 20
40.24709550674162
 30
0.0
 10
220.4493992236037
 20
40.55518831467427
 30
0.0
 10
219.9725968467588
 20
40.86341776024702
 30
0.0
 10
219.4957644022331
 20
41.17178291646692
 30
0.0
  0
SPLINE
  5
29C
330
1F
100
AcDbEntity
  8
0
  6
Continuous
 62
     7
370
    25
100
AcDbSpline
210
0.0
220
0.0
230
1.0
 70
     8
 71
     3
 72
    23
 73
    19
 74
     0
 42
0.000000001
 43
0.00000001
 40
0.0
 40
0.0
 40
0.0
 40
0.0
 40
0.0521036415675031
 40
0.1035646240925967
 40
0.1544751946736949
 40
0.2049306267473421
 40
0.2550287880844035
 40
0.3048696389141012
 40
0.3545546704609132
 40
0.4041862979523234
 40
0.4538672252126086
 40
0.5036997999421611
 40
0.5901870230746071
 40
0.674271637822954
 40
0.7565997087222995
 40
0.8378563983721267
 40
0.9187511781367398
 40
1.0
 40
1.0
 40
1.0
 40
1.0
 10
221.8067373189694
 20
40.07236480862153
 30
0.0
 10
221.8014683800293
 20
40.0624433463867
 30
0.0
 10
221.790995490529
 20
40.04272279565576
 30
0.0
 10
221.7717491947663
 20
40.01815496670352
 30
0.0
 10
221.7499534544336
 20
39.99746638444429
 30
0.0
 10
221.7253021632287
 20
39.98093544914732
 30
0.0
 10
221.6978056486898
 20
39.96841794957115
 30
0.0
 10
221.6673945946824
 20
39.95988332574876
 30
0.0
 10
221.6340242229098
 20
39.95527345310069
 30
0.0
 10
221.597648334638
 20
39.95453870996422
 30
0.0
 10
221.5582199630489
 20
39.9576337925155
 30
0.0
 10
221.5053715714989
 20
39.96616956799464
 30
0.0
 10
221.4368325777288
 20
39.9837660068417
 30
0.0
 10
221.3491113457744
 20
40.01540261492757
 30
0.0
 10
221.2543804262804
 20
40.05758227226028
 30
0.0
 10
221.1523461789505
 20
40.11031870798728
 30
0.0
 10
221.0434322657615
 20
40.17263526389809
 30
0.0
 10
220.9653159547754
 20
40.22223932214921
 30
0.0
 10
220.9261725154278
 20
40.24709550674162
 30
0.0
  0
SPLINE
  5
29D
330
1F
100
AcDbEntity
  8
0
  6
Continuous
 62
     7
370
    25
100
AcDbSpline
210
0.0
220
0.0
230
1.0
 70
     8
 71
     3
 72
     8
 73
     4
 74
     0
 42
0.000000001
 43
0.00000001
 40
0.0
 40
0.0
 40
0.0
 40
0.0
 40
1.0
 40
1.0
 40
1.0
 40
1.0
 10
223.2802403454233
 20
39.12504467206531
 30
0.0
 10
222.7888730333819
 20
39.4409192920328
 30
0.0
 10
222.2974868334557
 20
39.75690531332228
 30
0.0
 10
221.8060811233117
 20
40.07300219416496
 30
0.0
  0
SPLINE
  5
29E
330
1F
100
AcDbEntity
  8
0
  6
Continuous
 62
     7
370
    25
100
AcDbSpline
210
0.0
220
0.0
230
1.0
 70
     8
 71
     3
 72
    18
 73
    14
 74
     0
 42
0.000000001
 43
0.00000001
 40
0.0
 40
0.0
 40
0.0
 40
0.0
 40
0.0923824559411628
 40
0.1844689291573508
 40
0.2764953615950219
 40
0.3686975365494161
 40
0.4613092840003458
 40
0.5545607518442569
 40
0.6486768051537182
 40
0.7438756050146744
 40
0.8403674044302629
 40
0.9203921078121001
 40
1.0
 40
1.0
 40
1.0
 40
1.0
 10
224.0938044646229
 20
38.48073694752098
 30
0.0
 10
224.0702369504998
 20
38.49601092178652
 30
0.0
 10
224.0231774298485
 20
38.52650993426716
 30
0.0
 10
223.9507796418856
 20
38.57614250687807
 30
0.0
 10
223.8772974329901
 20
38.62847204954659
 30
0.0
 10
223.8025979852451
 20
38.68378973525446
 30
0.0
 10
223.726737195477
 20
38.74202805036804
 30
0.0
 10
223.6497259146902
 20
38.80322096200562
 30
0.0
 10
223.5715937826092
 20
38.86738467858717
 30
0.0
 10
223.4923675479654
 20
38.93453363845429
 30
0.0
 10
223.4170710635555
 20
39.00038454820046
 30
0.0
 10
223.3462437554334
 20
39.06391613500878
 30
0.0
 10
223.3023393846264
 20
39.10457688002227
 30
0.0
 10
223.280444517821
 20
39.12485416859082
 30
0.0
  0
LINE
  5
29F
330
1F
100
AcDbEntity
  8
0
  6
Continuous
 62
     7
370
    25
100
AcDbLine
 10
224.7335109965
 20
38.068983141
 30
0.0
 11
224.0938041541
 21
38.4807368086
 31
0.0
  0
SPLINE
  5
2A0
330
1F
100
AcDbEntity
  8
0
  6
Continuous
 62
     7
370
    25
100
AcDbSpline
210
0.0
220
0.0
230
1.0
 70
     8
 71
     3
 72
    25
 73
    21
 74
     0
 42
0.000000001
 43
0.00000001
 40
0.0
 40
0.0
 40
0.0
 40
0.0
 40
0.0280105225426465
 40
0.0559601148860768
 40
0.0839014045043132
 40
0.1118870776786367
 40
0.1399695827588937
 40
0.1682008401739883
 40
0.196631967042422
 40
0.2253130233141467
 40
0.2542927850735845
 40
0.3799486436587335
 40
0.5057850221667067
 40
0.6313085886338298
 40
0.7532068238012468
 40
0.8039473267955921
 40
0.8535894438554446
 40
0.9025339722394071
 40
0.9511970353791085
 40
1.0
 40
1.0
 40
1.0
 40
1.0
 10
225.8358765896132
 20
38.78488913139805
 30
0.0
 10
225.8408246971437
 20
38.75726527029057
 30
0.0
 10
225.8507101487793
 20
38.70207763718525
 30
0.0
 10
225.8622457983825
 20
38.62291692981533
 30
0.0
 10
225.8713189201953
 20
38.54661359071694
 30
0.0
 10
225.8776877289082
 20
38.47341782974733
 30
0.0
 10
225.8814039677183
 20
38.40327036153394
 30
0.0
 10
225.8824405887011
 20
38.33619407502117
 30
0.0
 10
225.8807921134742
 20
38.27219016579473
 30
0.0
 10
225.8764459616053
 20
38.21126131252789
 30
0.0
 10
225.8615896370377
 20
38.08937319103072
 30
0.0
 10
225.8165013799726
 20
37.93447231937557
 30
0.0
 10
225.7031418594801
 20
37.80352920103352
 30
0.0
 10
225.5413176374857
 20
37.74765280022351
 30
0.0
 10
225.3673024183539
 20
37.76752685260629
 30
0.0
 10
225.2159414976678
 20
37.81484465496177
 30
0.0
 10
225.1055412649695
 20
37.85976007869711
 30
0.0
 10
224.9883817695208
 20
37.9171358099883
 30
0.0
 10
224.8648161025869
 20
37.98581287444112
 30
0.0
 10
224.7773210524918
 20
38.04123312039431
 30
0.0
 10
224.7335107328102
 20
38.0689830181246
 30
0.0
  0
ARC
  5
2A1
330
1F
100
AcDbEntity
  8
0
  6
Continuous
 62
     7
370
    25
100
AcDbCircle
 10
237.028897754
 20
40.5709395
 30
0.0
 40
11.33462419218197
100
AcDbArc
 50
170.9338462887
 51
189.0661537113
  0
SPLINE
  5
2A2
330
1F
100
AcDbEntity
  8
0
  6
Continuous
 62
     7
370
    25
100
AcDbSpline
210
0.0
220
0.0
230
1.0
 70
     8
 71
     3
 72
    26
 73
    22
 74
     0
 42
0.000000001
 43
0.00000001
 40
0.0
 40
0.0
 40
0.0
 40
0.0
 40
0.0241259796963635
 40
0.0482159912272988
 40
0.0723203915124065
 40
0.0964895678710797
 40
0.1207736231963513
 40
0.1452220711242836
 40
0.1698835501657706
 40
0.1948055644472379
 40
0.2200342569517627
 40
0.2456142191611387
 40
0.3690971486901655
 40
0.4940698769485187
 40
0.6192566784762451
 40
0.7454656653603225
 40
0.7971495824713707
 40
0.8481710308405392
 40
0.8988013269235234
 40
0.9493179290492194
 40
1.0
 40
1.0
 40
1.0
 40
1.0
 10
224.7335107328102
 20
45.83309340948917
 30
0.0
 10
224.7552289621862
 20
45.81876188609409
 30
0.0
 10
224.7986330423623
 20
45.79012020542505
 30
0.0
 10
224.8619401597237
 20
45.74212790749624
 30
0.0
 10
224.9238017274417
 20
45.69052870961056
 30
0.0
 10
224.9841062425782
 20
45.63495391673732
 30
0.0
 10
225.0428960945181
 20
45.57549867611017
 30
0.0
 10
225.1001766129478
 20
45.51213436727277
 30
0.0
 10
225.155967752274
 20
45.44486558930885
 30
0.0
 10
225.2102889996959
 20
45.37369147534873
 30
0.0
 10
225.2631679749048
 20
45.29860233560044
 30
0.0
 10
225.3799627996411
 20
45.11934788689859
 30
0.0
 10
225.5418323575676
 20
44.8090424150552
 30
0.0
 10
225.7050172650995
 20
44.33912862692351
 30
0.0
 10
225.8165286702729
 20
43.84016559301347
 30
0.0
 10
225.8636625083814
 20
43.43128191995647
 30
0.0
 10
225.8787814479139
 20
43.12700996336576
 30
0.0
 10
225.8807345868965
 20
42.92576072167044
 30
0.0
 10
225.8742565612573
 20
42.73010080194785
 30
0.0
 10
225.8601296385702
 20
42.53946451405039
 30
0.0
 10
225.8439697468853
 20
42.41788124031157
 30
0.0
 10
225.8358765896132
 20
42.35699020371268
 30
0.0
  0
LINE
  5
2A3
330
1F
100
AcDbEntity
  8
0
  6
Continuous
 62
     7
370
    25
100
AcDbLine
 10
224.0938041541
 20
46.2460682598
 30
0.0
 11
224.7335109965
 21
45.8330932887
 31
0.0
  0
SPLINE
  5
2A4
330
1F
100
AcDbEntity
  8
0
  6
Continuous
 62
     7
370
    25
100
AcDbSpline
210
0.0
220
0.0
230
1.0
 70
     8
 71
     3
 72
    14
 73
    10
 74
     0
 42
0.000000001
 43
0.00000001
 40
0.0
 40
0.0
 40
0.0
 40
0.0
 40
0.0789261963172865
 40
0.158232872055133
 40
0.330847539457262
 40
0.5000195457610529
 40
0.6670357883572423
 40
0.8332395193657144
 40
1.0
 40
1.0
 40
1.0
 40
1.0
 10
223.2798517487716
 20
46.45465069277377
 30
0.0
 10
223.3015686301075
 20
46.45625385663234
 30
0.0
 10
223.3451070833231
 20
46.4594679127196
 30
0.0
 10
223.4366322019721
 20
46.46028895278749
 30
0.0
 10
223.5535405354051
 20
46.45235297100417
 30
0.0
 10
223.6943608737869
 20
46.42607730212636
 30
0.0
 10
223.831573181599
 20
46.38311970359411
 30
0.0
 10
223.9655038560154
 20
46.32476257878449
 30
0.0
 10
224.0509899479746
 20
46.2723290326345
 30
0.0
 10
224.0938044646229
 20
46.24606842248006
 30
0.0
  0
SPLINE
  5
2A5
330
1F
100
AcDbEntity
  8
0
  6
Continuous
 62
     7
370
    25
100
AcDbSpline
210
0.0
220
0.0
230
1.0
 70
     8
 71
     3
 72
     8
 73
     4
 74
     0
 42
0.000000001
 43
0.00000001
 40
0.0
 40
0.0
 40
0.0
 40
0.0
 40
1.0
 40
1.0
 40
1.0
 40
1.0
 10
221.4775481657672
 20
47.61704210418647
 30
0.0
 10
222.0783063894633
 20
47.22977462102757
 30
0.0
 10
222.6790352523237
 20
46.84230727110426
 30
0.0
 10
223.2797358966706
 20
46.45464037851464
 30
0.0
  0
SPLINE
  5
2A6
330
1F
100
AcDbEntity
  8
0
  6
Continuous
 62
     7
370
    25
100
AcDbSpline
210
0.0
220
0.0
230
1.0
 70
     8
 71
     3
 72
    13
 73
     9
 74
     0
 42
0.000000001
 43
0.00000001
 40
0.0
 40
0.0
 40
0.0
 40
0.0
 40
0.1667030582307992
 40
0.3329480818053035
 40
0.4990671507274896
 40
0.6653938523718403
 40
0.832261271055009
 40
1.0
 40
1.0
 40
1.0
 40
1.0
 10
221.1357196307328
 20
47.91810688327225
 30
0.0
 10
221.1560208131728
 20
47.90454177659302
 30
0.0
 10
221.1965673983614
 20
47.87744883483018
 30
0.0
 10
221.2557170353491
 20
47.83225426182246
 30
0.0
 10
221.3134885802516
 20
47.78384311333951
 30
0.0
 10
221.3697383177112
 20
47.73180799856905
 30
0.0
 10
221.4246655264573
 20
47.67651003136004
 30
0.0
 10
221.4598862360479
 20
47.63689277619967
 30
0.0
 10
221.4775424479888
 20
47.61703256719875
 30
0.0
  0
SPLINE
  5
2A7
330
1F
100
AcDbEntity
  8
0
  6
Continuous
 62
     7
370
    25
100
AcDbSpline
210
0.0
220
0.0
230
1.0
 70
     8
 71
     3
 72
     8
 73
     4
 74
     0
 42
0.000000001
 43
0.00000001
 40
0.0
 40
0.0
 40
0.0
 40
0.0
 40
1.0
 40
1.0
 40
1.0
 40
1.0
 10
219.1917391149421
 20
49.17282873565172
 30
0.0
 10
219.8397691873423
 20
48.75483341976697
 30
0.0
 10
220.4877621644442
 20
48.33659265734934
 30
0.0
 10
221.1357196307328
 20
47.91810688327225
 30
0.0
  0
LWPOLYLINE
  5
2A8
330
1F
100
AcDbEntity
  8
0
  6
Continuous
 62
     7
370
    25
100
AcDbPolyline
 90
       19
 70
   128
 43
0.0
 10
219.1917397652
 20
49.1728287861
 10
219.5946320269
 20
50.3397927716
 10
220.0845871652
 20
51.4997971963
 10
220.6555874004
 20
52.6385945923
 10
221.3006185751
 20
53.7421972832
 10
222.0117590573
 20
54.7970519017
 10
222.780274242
 20
55.7902015503
 10
223.5967252106
 20
56.7094481491
 10
224.4510841414
 20
57.5435023317
 10
225.3328574569
 20
58.2821184156
 10
226.2312151045
 20
58.9162260692
 10
227.1351232534
 20
59.4380358132
 10
228.0334799132
 20
59.8411393654
 10
228.9152513354
 20
60.1205861022
 10
229.7696073027
 20
60.2729429082
 10
230.5860546494
 20
60.2963393163
 10
231.3545652242
 20
60.1904873868
 10
232.0657004381
 20
59.9566874461
 10
232.2414774918
 20
59.8745757513
  0
SPLINE
  5
2A9
330
1F
100
AcDbEntity
  8
0
  6
Continuous
 62
     7
370
    25
100
AcDbSpline
210
0.0
220
0.0
230
1.0
 70
    11
 71
     3
 72
    39
 73
    35
 74
     0
 42
0.000000001
 43
0.00000001
 40
0.0
 40
0.0
 40
0.0
 40
0.0
 40
0.0310664058348413
 40
0.0621048158426138
 40
0.0931361551796939
 40
0.1235538293503726
 40
0.1538561545809849
 40
0.1850588072749156
 40
0.2160250992946587
 40
0.2471867223797568
 40
0.2784462884304475
 40
0.3100516090231247
 40
0.3419834369138969
 40
0.3734259894013238
 40
0.4048604886787081
 40
0.436874065183343
 40
0.4685120685926471
 40
0.499805535863323
 40
0.5309508213226204
 40
0.5618649784438111
 40
0.5930416446590877
 40
0.623374245013332
 40
0.6540913579072549
 40
0.6849496782718453
 40
0.7158160645166705
 40
0.7471731804043553
 40
0.7784514311866318
 40
0.810129591156098
 40
0.8419598919688388
 40
0.8735175891922303
 40
0.9050808037886594
 40
0.9370235169792582
 40
0.9687441590030581
 40
1.0
 40
1.0
 40
1.0
 40
1.0
 10
232.4003245961475
 20
58.17801911099313
 30
0.0
 10
232.6632102163456
 20
58.14948462370305
 30
0.0
 10
233.1900988268291
 20
58.06354213538143
 30
0.0
 10
233.9541108959051
 20
57.86316701530898
 30
0.0
 10
234.661261083956
 20
57.61616490908946
 30
0.0
 10
235.2741721485515
 20
57.33818303093636
 30
0.0
 10
235.7713034742219
 20
57.04404933360763
 30
0.0
 10
236.1304951952954
 20
56.74254280541541
 30
0.0
 10
236.3522144640542
 20
56.43554530051299
 30
0.0
 10
236.4174663414364
 20
56.1250400391113
 30
0.0
 10
236.3306191303224
 20
55.80589555436248
 30
0.0
 10
236.0882735425641
 20
55.47657558879028
 30
0.0
 10
235.7083356798377
 20
55.13763486723263
 30
0.0
 10
235.1945297266779
 20
54.799796402822
 30
0.0
 10
234.5686389157678
 20
54.47389850151115
 30
0.0
 10
233.855167929276
 20
54.17725160827167
 30
0.0
 10
233.0912654530117
 20
53.92114829983471
 30
0.0
 10
232.30547237011
 20
53.73212073184393
 30
0.0
 10
231.5239349150701
 20
53.62394480979068
 30
0.0
 10
230.7678219303176
 20
53.61628092642096
 30
0.0
 10
230.0654573439241
 20
53.71420296180711
 30
0.0
 10
229.4464369968814
 20
53.93585139530961
 30
0.0
 10
228.9373797318677
 20
54.27171948222134
 30
0.0
 10
228.5644361384338
 20
54.71153004840211
 30
0.0
 10
228.3358341871854
 20
55.22260468892475
 30
0.0
 10
228.2669878804661
 20
55.77378977668819
 30
0.0
 10
228.3516042936912
 20
56.33146170499994
 30
0.0
 10
228.5947130836261
 20
56.86154184591894
 30
0.0
 10
228.9768429264438
 20
57.33406619503166
 30
0.0
 10
229.4929785008541
 20
57.72018770592489
 30
0.0
 10
230.1199563613561
 20
58.00381189325802
 30
0.0
 10
230.8358637937199
 20
58.17354911198444
 30
0.0
 10
231.6043071859055
 20
58.23508794669576
 30
0.0
 10
232.1358359652779
 20
58.2067275944402
 30
0.0
 10
232.4003245961474
 20
58.17801911099313
 30
0.0
  0
LINE
  5
2AA
330
1F
100
AcDbEntity
  8
0
  6
Continuous
 62
     7
370
    25
100
AcDbLine
 10
223.1757871831
 20
41.7388924936
 30
0.0
 11
223.4865388606
 21
41.5725117931
 31
0.0
  0
LINE
  5
2AB
330
1F
100
AcDbEntity
  8
0
  6
Continuous
 62
     7
370
    25
100
AcDbLine
 10
222.1888291632
 20
42.3086512309
 30
0.0
 11
223.1757871831
 21
41.7388924936
 31
0.0
  0
ARC
  5
2AC
330
1F
100
AcDbEntity
  8
0
  6
Continuous
 62
     7
370
    25
100
AcDbCircle
 10
224.409799074
 20
45.9021319949
 30
0.0
 40
4.484274790565323
100
AcDbArc
 50
267.6840627222
 51
286.9866336569
  0
SPLINE
  5
2AD
330
1F
100
AcDbEntity
  8
0
  6
Continuous
 62
     7
370
    25
100
AcDbSpline
210
0.0
220
0.0
230
1.0
 70
     8
 71
     3
 72
    12
 73
     8
 74
     0
 42
0.000000001
 43
0.00000001
 40
0.0
 40
0.0
 40
0.0
 40
0.0
 40
0.1523598330305601
 40
0.3826801306822303
 40
0.6138741683107227
 40
0.8254372814239916
 40
1.0
 40
1.0
 40
1.0
 40
1.0
 10
233.7388305544468
 20
55.17552339565741
 30
0.0
 10
233.533863216065
 20
55.28766979539017
 30
0.0
 10
233.0190495261484
 20
55.5693463898812
 30
0.0
 10
232.0059741988591
 20
55.9855123623483
 30
0.0
 10
230.7985954179001
 20
56.26875399029581
 30
0.0
 10
229.6962649325491
 20
56.2997008330366
 30
0.0
 10
229.1313259000182
 20
56.09197345571491
 30
0.0
 10
228.8759239422759
 20
55.99806247454772
 30
0.0
  0
SPLINE
  5
2AE
330
1F
100
AcDbEntity
  8
0
  6
Continuous
 62
     7
370
    25
100
AcDbSpline
210
0.0
220
0.0
230
1.0
 70
     8
 71
     3
 72
    10
 73
     6
 74
     0
 42
0.000000001
 43
0.00000001
 40
0.0
 40
0.0
 40
0.0
 40
0.0
 40
0.3798174073072795
 40
0.9603711649033085
 40
1.0
 40
1.0
 40
1.0
 40
1.0
 10
234.8787106763063
 20
54.64729646813893
 30
0.0
 10
234.7490580590579
 20
54.7176250299763
 30
0.0
 10
234.4212304433035
 20
54.89545132639741
 30
0.0
 10
234.0133018982933
 20
55.06850417679982
 30
0.0
 10
233.7566691168614
 20
55.16770960904813
 30
0.0
 10
233.7402706266497
 20
55.17404870298851
 30
0.0
  0
SPLINE
  5
2AF
330
1F
100
AcDbEntity
  8
0
  6
Continuous
 62
     7
370
    25
100
AcDbSpline
210
0.0
220
0.0
230
1.0
 70
     8
 71
     3
 72
    24
 73
    20
 74
     0
 42
0.000000001
 43
0.00000001
 40
0.0
 40
0.0
 40
0.0
 40
0.0
 40
0.0618858212107145
 40
0.1150115607194259
 40
0.1593831488268445
 40
0.2428114970815824
 40
0.318331853291959
 40
0.3935543804326023
 40
0.4204843226990471
 40
0.4483397435477174
 40
0.4771286702554668
 40
0.5451537905345539
 40
0.6363475754294583
 40
0.6968782859867285
 40
0.7498596693403015
 40
0.7959701295389731
 40
0.8771179302751783
 40
0.9543004207779655
 40
1.0
 40
1.0
 40
1.0
 40
1.0
 10
232.3454460291452
 20
57.60416121103638
 30
0.0
 10
232.161489239809
 20
57.62305577600232
 30
0.0
 10
231.8196151718467
 20
57.65817033638683
 30
0.0
 10
231.35539719887
 20
57.65167978799956
 30
0.0
 10
230.845935586597
 20
57.60395559520225
 30
0.0
 10
230.3068404872224
 20
57.47933899703533
 30
0.0
 10
229.7640025024988
 20
57.23684871309234
 30
0.0
 10
229.4236094870037
 20
56.97947596246644
 30
0.0
 10
229.2169827784527
 20
56.76466886196761
 30
0.0
 10
229.0989987222416
 20
56.61816551066864
 30
0.0
 10
228.9468283180506
 20
56.38841468644818
 30
0.0
 10
228.780147679471
 20
56.01547199102117
 30
0.0
 10
228.7117860986337
 20
55.55291293832828
 30
0.0
 10
228.7621415622532
 20
55.12458024012646
 30
0.0
 10
228.8675707057684
 20
54.80465334648208
 30
0.0
 10
229.0497700324544
 20
54.46418783128887
 30
0.0
 10
229.3506484575249
 20
54.12823957443379
 30
0.0
 10
229.7403333521233
 20
53.85518027371877
 30
0.0
 10
230.0332523083178
 20
53.76122520279147
 30
0.0
 10
230.1421882423741
 20
53.72628351262652
 30
0.0
  0
SPLINE
  5
2B0
330
1F
100
AcDbEntity
  8
0
  6
Continuous
 62
     7
370
    25
100
AcDbSpline
210
0.0
220
0.0
230
1.0
 70
     8
 71
     3
 72
    22
 73
    18
 74
     0
 42
0.000000001
 43
0.00000001
 40
0.0
 40
0.0
 40
0.0
 40
0.0
 40
0.0114834662766631
 40
0.0705129490302074
 40
0.1365111498489265
 40
0.2095181088460596
 40
0.2722005662080079
 40
0.326136633712203
 40
0.3713257586344869
 40
0.4077706656115294
 40
0.5121571560731971
 40
0.6052135161672628
 40
0.6996579575918662
 40
0.7500000558373026
 40
0.8024654985564912
 40
0.8926083568347373
 40
1.0
 40
1.0
 40
1.0
 40
1.0
 10
235.6829051438473
 20
55.15842402696002
 30
0.0
 10
235.6947592140071
 20
55.16972300986953
 30
0.0
 10
235.7675478150135
 20
55.23910315927708
 30
0.0
 10
235.864169032225
 20
55.37078641069331
 30
0.0
 10
235.9623511329789
 20
55.55962109845056
 30
0.0
 10
235.9931020524096
 20
55.74556870094253
 30
0.0
 10
235.9638189172518
 20
55.91738753987472
 30
0.0
 10
235.8952979851693
 20
56.06419258724893
 30
0.0
 10
235.8074906106485
 20
56.18540382329332
 30
0.0
 10
235.6531979735466
 20
56.35098688202114
 30
0.0
 10
235.3853725216576
 20
56.56115117595977
 30
0.0
 10
234.9338021123953
 20
56.81659497035273
 30
0.0
 10
234.4862395395818
 20
57.02323167083021
 30
0.0
 10
234.077345761652
 20
57.18173588693512
 30
0.0
 10
233.65526616411
 20
57.32425263500485
 30
0.0
 10
233.0769535457061
 20
57.48750920379928
 30
0.0
 10
232.6030749520177
 20
57.56307765373173
 30
0.0
 10
232.3454460291452
 20
57.60416121103637
 30
0.0
  0
LINE
  5
2B1
330
1F
100
AcDbEntity
  8
0
  6
Continuous
 62
     7
370
    25
100
AcDbLine
 10
225.8358763073
 20
42.3569900229
 30
0.0
 11
225.8306382442
 21
42.6530734459
 31
0.0
  0
LINE
  5
2B2
330
1F
100
AcDbEntity
  8
0
  6
Continuous
 62
     7
370
    25
100
AcDbLine
 10
225.8306382442
 20
42.6530734459
 30
0.0
 11
225.8737380067
 21
43.3047351426
 31
0.0
  0
LINE
  5
2B3
330
1F
100
AcDbEntity
  8
0
  6
Continuous
 62
     7
370
    25
100
AcDbLine
 10
225.443553685
 20
45.0361961493
 30
0.0
 11
225.0396749237
 21
45.4623582328
 31
0.0
  0
SPLINE
  5
2B4
330
1F
100
AcDbEntity
  8
0
  6
Continuous
 62
     7
370
    25
100
AcDbSpline
210
0.0
220
0.0
230
1.0
 70
     8
 71
     3
 72
    19
 73
    15
 74
     0
 42
0.000000001
 43
0.00000001
 40
0.0
 40
0.0
 40
0.0
 40
0.0
 40
0.0210492621018804
 40
0.1455865440207667
 40
0.2712169722633744
 40
0.3929514297049947
 40
0.5136082229787104
 40
0.6366369099308349
 40
0.699422462668311
 40
0.7643939711952468
 40
0.8122544601557282
 40
0.8606584764820763
 40
0.9188817427801165
 40
1.0
 40
1.0
 40
1.0
 40
1.0
 10
228.7562014768028
 20
55.34941126357857
 30
0.0
 10
228.748732901817
 20
55.40417161048397
 30
0.0
 10
228.6970767432453
 20
55.78291978781912
 30
0.0
 10
228.9398476379049
 20
56.39307069663329
 30
0.0
 10
229.5241781053199
 20
57.08244439987286
 30
0.0
 10
230.4303044729601
 20
57.49974395010491
 30
0.0
 10
231.5046506014221
 20
57.62016990779355
 30
0.0
 10
232.4585844705179
 20
57.45947036420596
 30
0.0
 10
233.1932470130871
 20
57.16210426536416
 30
0.0
 10
233.6660502525595
 20
56.86444618795946
 30
0.0
 10
234.0230204226789
 20
56.4935343831821
 30
0.0
 10
234.2178685641872
 20
56.06121308787453
 30
0.0
 10
234.2468975944313
 20
55.55827175664938
 30
0.0
 10
234.184523992811
 20
55.22452674407419
 30
0.0
 10
234.1482129368369
 20
55.03023567352733
 30
0.0
  0
SPLINE
  5
2B5
330
1F
100
AcDbEntity
  8
0
  6
Continuous
 62
     7
370
    25
100
AcDbSpline
210
0.0
220
0.0
230
1.0
 70
     8
 71
     3
 72
    10
 73
     6
 74
     0
 42
0.000000001
 43
0.00000001
 40
0.0
 40
0.0
 40
0.0
 40
0.0
 40
0.2952118939789638
 40
0.9806889752106586
 40
1.0
 40
1.0
 40
1.0
 40
1.0
 10
234.1509407928251
 20
55.02899712010493
 30
0.0
 10
234.2337644177019
 20
54.99023194231148
 30
0.0
 10
234.5089031145507
 20
54.86145466992003
 30
0.0
 10
234.7838344286533
 20
54.72026967006064
 30
0.0
 10
234.9322994933277
 20
54.62628207566344
 30
0.0
 10
234.9363674004331
 20
54.62370683815618
 30
0.0
  0
ARC
  5
2B6
330
1F
100
AcDbEntity
  8
0
  6
Continuous
 62
     7
370
    25
100
AcDbCircle
 10
238.1610493582
 20
40.8157781278
 30
0.0
 40
12.46654291790722
100
AcDbArc
 50
171.5249863735
 51
179.8211981812
  0
SPLINE
  5
2B7
330
1F
100
AcDbEntity
  8
0
  6
Continuous
 62
     7
370
    25
100
AcDbSpline
210
0.0
220
0.0
230
1.0
 70
     8
 71
     3
 72
    14
 73
    10
 74
     0
 42
0.000000001
 43
0.00000001
 40
0.0
 40
0.0
 40
0.0
 40
0.0
 40
0.0003951393068452
 40
0.0003951393068452
 40
0.0003951393068452
 40
0.0008163352168663
 40
0.0008163352168663
 40
0.0008163352168663
 40
0.0012378579337219
 40
0.0012378579337219
 40
0.0012378579337219
 40
0.0012378579337219
 10
233.7428631299865
 20
55.17424444227308
 30
0.0
 10
233.7883249442178
 20
55.15980757964805
 30
0.0
 10
233.8332125488388
 20
55.14494171908243
 30
0.0
 10
233.8774962415139
 20
55.12965793147696
 30
0.0
 10
233.9246995337533
 20
55.11336649213928
 30
0.0
 10
233.9712253468124
 20
55.09659701405536
 30
0.0
 10
234.0170362560541
 20
55.07936820326008
 30
0.0
 10
234.0628826440432
 20
55.06212604942844
 30
0.0
 10
234.1080218796156
 20
55.04442034322393
 30
0.0
 10
234.152415437658
 20
55.02627748653315
 30
0.0
  0
LINE
  5
2B8
330
1F
100
AcDbEntity
  8
0
  6
Continuous
 62
     7
370
    25
100
AcDbLine
 10
225.0396749237
 20
45.4623582328
 30
0.0
 11
224.3997382493
 21
45.8745898729
 31
0.0
  0
LINE
  5
2B9
330
1F
100
AcDbEntity
  8
0
  6
Continuous
 62
     7
370
    25
100
AcDbLine
 10
224.0938041541
 20
46.2460682598
 30
0.0
 11
224.3997382493
 21
45.8745898729
 31
0.0
  0
SPLINE
  5
2BA
330
1F
100
AcDbEntity
  8
0
  6
Continuous
 62
     7
370
    25
100
AcDbSpline
210
0.0
220
0.0
230
1.0
 70
     8
 71
     3
 72
    13
 73
     9
 74
     0
 42
0.000000001
 43
0.00000001
 40
0.0
 40
0.0
 40
0.0
 40
0.0
 40
0.161854229885178
 40
0.3254858841554281
 40
0.4910085196607404
 40
0.6585318472791263
 40
0.8281616954204583
 40
0.9999999999999999
 40
0.9999999999999999
 40
0.9999999999999999
 40
0.9999999999999999
 10
224.3997386609649
 20
45.87458987684317
 30
0.0
 10
224.3801612689475
 20
45.88715285387633
 30
0.0
 10
224.3407914931018
 20
45.91241676999496
 30
0.0
 10
224.2792555533314
 20
45.9451104669098
 30
0.0
 10
224.215698894082
 20
45.97405654061669
 30
0.0
 10
224.1500807914253
 20
45.99856890808229
 30
0.0
 10
224.0826535223705
 20
46.01900397143579
 30
0.0
 10
224.036768922172
 20
46.02860062642557
 30
0.0
 10
224.013678241997
 20
46.03342998726036
 30
0.0
  0
SPLINE
  5
2BB
330
1F
100
AcDbEntity
  8
0
  6
Continuous
 62
     7
370
    25
100
AcDbSpline
210
0.0
220
0.0
230
1.0
 70
     8
 71
     3
 72
     9
 73
     5
 74
     0
 42
0.000000001
 43
0.00000001
 40
0.0
 40
0.0
 40
0.0
 40
0.0
 40
0.4907282259506175
 40
1.0
 40
1.0
 40
1.0
 40
1.0
 10
224.013672414705
 20
46.03340199022934
 30
0.0
 10
223.9895788922272
 20
46.04149752244747
 30
0.0
 10
223.940481405668
 20
46.05799449936875
 30
0.0
 10
223.8897807118478
 20
46.07278816838499
 30
0.0
 10
223.8639602795605
 20
46.08032216644959
 30
0.0
  0
SPLINE
  5
2BC
330
1F
100
AcDbEntity
  8
0
  6
Continuous
 62
     7
370
    25
100
AcDbSpline
210
0.0
220
0.0
230
1.0
 70
     8
 71
     3
 72
    14
 73
    10
 74
     0
 42
0.000000001
 43
0.00000001
 40
0.0
 40
0.0
 40
0.0
 40
0.0
 40
0.0310276388071746
 40
0.0622853718672815
 40
0.1248003166904892
 40
0.2498289731753984
 40
0.499889260361071
 40
0.7606803621682141
 40
1.0
 40
1.0
 40
1.0
 40
1.0
 10
223.2800195902722
 20
46.45442990909545
 30
0.0
 10
223.2860118296767
 20
46.45059886544181
 30
0.0
 10
223.2980407456359
 20
46.44290836794411
 30
0.0
 10
223.322100553685
 20
46.42747047843743
 30
0.0
 10
223.3643342263314
 20
46.40040002550659
 30
0.0
 10
223.4488968008435
 20
46.34618800071122
 30
0.0
 10
223.5721837703137
 20
46.26718481884518
 30
0.0
 10
223.7183154767677
 20
46.17357864416775
 30
0.0
 10
223.8166820933084
 20
46.11059556777528
 30
0.0
 10
223.8637537939927
 20
46.08045606898616
 30
0.0
  0
LINE
  5
2BD
330
1F
100
AcDbEntity
  8
0
  6
Continuous
 62
     7
370
    25
100
AcDbLine
 10
221.477519435
 20
47.6170605861
 30
0.0
 11
221.7684867892
 21
47.428982047
 31
0.0
  0
SPLINE
  5
2BE
330
1F
100
AcDbEntity
  8
0
  6
Continuous
 62
     7
370
    25
100
AcDbSpline
210
0.0
220
0.0
230
1.0
 70
     8
 71
     3
 72
     8
 73
     4
 74
     0
 42
0.000000001
 43
0.00000001
 40
0.0
 40
0.0
 40
0.0
 40
0.0
 40
1.0
 40
1.0
 40
1.0
 40
1.0
 10
221.7998750925674
 20
47.40875951678428
 30
0.0
 10
221.7894325867156
 20
47.41558494168168
 30
0.0
 10
221.7789666538258
 20
47.4223279084682
 30
0.0
 10
221.7684788890093
 20
47.42898699612119
 30
0.0
  0
SPLINE
  5
2BF
330
1F
100
AcDbEntity
  8
0
  6
Continuous
 62
     7
370
    25
100
AcDbSpline
210
0.0
220
0.0
230
1.0
 70
     8
 71
     3
 72
     8
 73
     4
 74
     0
 42
0.000000001
 43
0.00000001
 40
0.0
 40
0.0
 40
0.0
 40
0.0
 40
1.0
 40
1.0
 40
1.0
 40
1.0
 10
219.0138707137436
 20
49.28701516859335
 30
0.0
 10
219.0728704779136
 20
49.24827450167439
 30
0.0
 10
219.1321580414241
 20
49.2102125243751
 30
0.0
 10
219.1917391149125
 20
49.17282873591481
 30
0.0
  0
SPLINE
  5
2C0
330
1F
100
AcDbEntity
  8
0
  6
Continuous
 62
     7
370
    25
100
AcDbSpline
210
0.0
220
0.0
230
1.0
 70
     8
 71
     3
 72
     8
 73
     4
 74
     0
 42
0.000000001
 43
0.00000001
 40
0.0
 40
0.0
 40
0.0
 40
0.0
 40
1.0
 40
1.0
 40
1.0
 40
1.0
 10
218.989020967644
 20
49.65022534653167
 30
0.0
 10
218.9964951797346
 20
49.52926750581983
 30
0.0
 10
219.0047912836247
 20
49.40819566340917
 30
0.0
 10
219.0138707137436
 20
49.28701516859335
 30
0.0
  0
LWPOLYLINE
  5
2C1
330
1F
100
AcDbEntity
  8
0
  6
Continuous
 62
     7
370
    25
100
AcDbPolyline
 90
       15
 70
   128
 43
0.0
 10
218.9890213264
 20
49.6502246811
 10
219.4044726904
 20
50.8144760576
 10
219.9090040528
 20
51.9690216527
 10
220.4959562117
 20
53.0986224149
 10
221.1575813909
 20
54.1883667741
 10
221.8851453146
 20
55.223869493
 10
222.6690440989
 20
56.1914615822
 10
223.4989300341
 20
57.0783708975
 10
224.3638482322
 20
57.8728892396
 10
225.2523812601
 20
58.5645288527
 10
226.1528001932
 20
59.144159817
 10
227.0532191263
 20
59.6041304244
 10
227.9417521542
 20
59.9383692088
 10
228.8066703523
 20
60.1424641622
 10
228.9529837954
 20
60.1643323726
  0
SPLINE
  5
2C2
330
1F
100
AcDbEntity
  8
0
  6
Continuous
 62
     7
370
    25
100
AcDbSpline
210
0.0
220
0.0
230
1.0
 70
     8
 71
     3
 72
    10
 73
     6
 74
     0
 42
0.000000001
 43
0.00000001
 40
0.0
 40
0.0
 40
0.0
 40
0.0
 40
0.2409818396634726
 40
0.5031433556203718
 40
1.0
 40
1.0
 40
1.0
 40
1.0
 10
225.0396749236827
 20
38.75651660957785
 30
0.0
 10
225.1219207946857
 20
38.7048400876573
 30
0.0
 10
225.2936410520302
 20
38.59694524096592
 30
0.0
 10
225.5713624110571
 20
38.46722253050167
 30
0.0
 10
225.6923396581012
 20
38.49000047160666
 30
0.0
 10
225.7715318990166
 20
38.5049110125854
 30
0.0
  0
LINE
  5
2C3
330
1F
100
AcDbEntity
  8
0
  6
Continuous
 62
     7
370
    25
100
AcDbLine
 10
220.2565008675
 20
48.4855893425
 30
0.0
 11
219.4946221652
 21
48.9762237502
 31
0.0
  0
LINE
  5
2C4
330
1F
100
AcDbEntity
  8
0
  6
Continuous
 62
     7
370
    25
100
AcDbLine
 10
219.4946221652
 20
48.9762237502
 30
0.0
 11
219.0138708449
 21
49.2870151263
 31
0.0
  0
LINE
  5
2C5
330
1F
100
AcDbEntity
  8
0
  6
Continuous
 62
     7
370
    25
100
AcDbLine
 10
224.0938041541
 20
38.4807368086
 30
0.0
 11
224.3997382493
 21
39.1687482497
 31
0.0
  0
LINE
  5
2C6
330
1F
100
AcDbEntity
  8
0
  6
Continuous
 62
     7
370
    25
100
AcDbLine
 10
224.3997382493
 20
39.1687482497
 30
0.0
 11
225.0396749237
 21
38.7565166096
 31
0.0
  0
SPLINE
  5
2C7
330
1F
100
AcDbEntity
  8
0
  6
Continuous
 62
     7
370
    25
100
AcDbSpline
210
0.0
220
0.0
230
1.0
 70
     8
 71
     3
 72
    13
 73
     9
 74
     0
 42
0.000000001
 43
0.00000001
 40
0.0
 40
0.0
 40
0.0
 40
0.0
 40
0.172258782378417
 40
0.342139827159501
 40
0.5097456258302661
 40
0.6751828993623331
 40
0.8385626190354498
 40
1.0
 40
1.0
 40
1.0
 40
1.0
 10
224.0136667301917
 20
39.45005795509647
 30
0.0
 10
224.0368182541468
 20
39.43193836415902
 30
0.0
 10
224.0828017349025
 20
39.3959492922177
 30
0.0
 10
224.1503427476218
 20
39.34494930879603
 30
0.0
 10
224.21600236231
 20
39.29662462860427
 30
0.0
 10
224.2795264335578
 20
39.25119362269844
 30
0.0
 10
224.3409568122716
 20
39.20836805494555
 30
0.0
 10
224.3802229792379
 20
39.18190223777532
 30
0.0
 10
224.3997386609649
 20
39.16874845923145
 30
0.0
  0
SPLINE
  5
2C8
330
1F
100
AcDbEntity
  8
0
  6
Continuous
 62
     7
370
    25
100
AcDbSpline
210
0.0
220
0.0
230
1.0
 70
     8
 71
     3
 72
    11
 73
     7
 74
     0
 42
0.000000001
 43
0.00000001
 40
0.0
 40
0.0
 40
0.0
 40
0.0
 40
0.2392845094479873
 40
0.5001120454076898
 40
0.7515010915036774
 40
1.0
 40
1.0
 40
1.0
 40
1.0
 10
223.8642863187156
 20
39.49737194730935
 30
0.0
 10
223.8172170867111
 20
39.46905742459656
 30
0.0
 10
223.7188409321164
 20
39.40987919404036
 30
0.0
 10
223.5725437105326
 20
39.31669129358045
 30
0.0
 10
223.4247029668888
 20
39.22131937760799
 30
0.0
 10
223.3284165041698
 20
39.15678412234517
 30
0.0
 10
223.2805516163108
 20
39.12470305228734
 30
0.0
  0
SPLINE
  5
2C9
330
1F
100
AcDbEntity
  8
0
  6
Continuous
 62
     7
370
    25
100
AcDbSpline
210
0.0
220
0.0
230
1.0
 70
     8
 71
     3
 72
     9
 73
     5
 74
     0
 42
0.000000001
 43
0.00000001
 40
0.0
 40
0.0
 40
0.0
 40
0.0
 40
0.5090669353869915
 40
1.0
 40
1.0
 40
1.0
 40
1.0
 10
223.8648573222997
 20
39.49667299309758
 30
0.0
 10
223.8905058969237
 20
39.48918028493769
 30
0.0
 10
223.9408893982692
 20
39.47446177222543
 30
0.0
 10
223.9896969097645
 20
39.45806941437326
 30
0.0
 10
224.013658130959
 20
39.45002186389667
 30
0.0
  0
LINE
  5
2CA
330
1F
100
AcDbEntity
  8
0
  6
Continuous
 62
     7
370
    25
100
AcDbLine
 10
225.6947759024
 20
40.4205515603
 30
0.0
 11
224.0136599461
 21
39.4500639761
 31
0.0
  0
LINE
  5
2CB
330
1F
100
AcDbEntity
  8
0
  6
Continuous
 62
     7
370
    25
100
AcDbLine
 10
222.0071722948
 20
40.5738852748
 30
0.0
 11
221.8068766413
 21
40.0727278606
 31
0.0
  0
SPLINE
  5
2CC
330
1F
100
AcDbEntity
  8
0
  6
Continuous
 62
     7
370
    25
100
AcDbSpline
210
0.0
220
0.0
230
1.0
 70
     8
 71
     3
 72
     8
 73
     4
 74
     0
 42
0.000000001
 43
0.00000001
 40
0.0
 40
0.0
 40
0.0
 40
0.0
 40
1.0
 40
1.0
 40
1.0
 40
1.0
 10
222.0067291241596
 20
40.57466902695892
 30
0.0
 10
222.0329044587288
 20
40.59683640393719
 30
0.0
 10
222.0587254986942
 20
40.61946854502881
 30
0.0
 10
222.0841830524026
 20
40.64255326512009
 30
0.0
  0
LINE
  5
2CD
330
1F
100
AcDbEntity
  8
0
  6
Continuous
 62
     7
370
    25
100
AcDbLine
 10
222.0841831481
 20
40.6425531495
 30
0.0
 11
223.8644759074
 21
39.4967822644
 31
0.0
  0
LINE
  5
2CE
330
1F
100
AcDbEntity
  8
0
  6
Continuous
 62
     7
370
    25
100
AcDbLine
 10
225.6945671438
 20
40.5186014955
 30
0.0
 11
225.6065678169
 21
40.6260925639
 31
0.0
  0
LINE
  5
2CF
330
1F
100
AcDbEntity
  8
0
  6
Continuous
 62
     7
370
    25
100
AcDbLine
 10
223.7781598202
 20
41.6204650668
 30
0.0
 11
222.0841831481
 21
40.6425531495
 31
0.0
  0
LINE
  5
2D0
330
1F
100
AcDbEntity
  8
0
  6
Continuous
 62
     7
370
    25
100
AcDbLine
 10
223.9208539027
 20
41.5991729051
 30
0.0
 11
223.7785799716
 21
41.6199776893
 31
0.0
  0
LINE
  5
2D1
330
1F
100
AcDbEntity
  8
0
  6
Continuous
 62
     7
370
    25
100
AcDbLine
 10
225.6066415738
 20
40.6259883974
 30
0.0
 11
223.9208539027
 21
41.5991729051
 31
0.0
  0
LINE
  5
2D2
330
1F
100
AcDbEntity
  8
0
  6
Continuous
 62
     7
370
    25
100
AcDbLine
 10
225.6945671438
 20
40.5752243146
 30
0.0
 11
225.6065948172
 21
40.6260153708
 31
0.0
  0
SPLINE
  5
2D3
330
1F
100
AcDbEntity
  8
0
  6
Continuous
 62
     7
370
    25
100
AcDbSpline
210
0.0
220
0.0
230
1.0
 70
     8
 71
     3
 72
    19
 73
    15
 74
     0
 42
0.000000001
 43
0.00000001
 40
0.0
 40
0.0
 40
0.0
 40
0.0
 40
0.0637853009127854
 40
0.1289628367668835
 40
0.1955871994312377
 40
0.2637095015417503
 40
0.3333775579368785
 40
0.404636070956767
 40
0.4775268158870349
 40
0.5520888236349092
 40
0.6283585584292241
 40
0.7063700889344752
 40
0.8377041805690577
 40
0.9999999999999999
 40
0.9999999999999999
 40
0.9999999999999999
 40
0.9999999999999999
 10
221.2226600181982
 20
40.74315711431079
 30
0.0
 10
221.2433493872033
 20
40.72979797430047
 30
0.0
 10
221.2851797098581
 20
40.70278810575957
 30
0.0
 10
221.3456706834529
 20
40.66526614023304
 30
0.0
 10
221.4051548816321
 20
40.62974639914238
 30
0.0
 10
221.4632360411038
 20
40.59676627022587
 30
0.0
 10
221.519768158191
 20
40.56655983395553
 30
0.0
 10
221.5745132129448
 20
40.53944639399401
 30
0.0
 10
221.6272355905371
 20
40.51571477624402
 30
0.0
 10
221.6776772234681
 20
40.49567452279934
 30
0.0
 10
221.7255601419335
 20
40.47955466126103
 30
0.0
 10
221.7805242963036
 20
40.46527669157942
 30
0.0
 10
221.8433556102632
 20
40.45513813432471
 30
0.0
 10
221.8818631259212
 20
40.46161238563798
 30
0.0
 10
221.9031470911184
 20
40.46519084914762
 30
0.0
  0
LINE
  5
2D4
330
1F
100
AcDbEntity
  8
0
  6
Continuous
 62
     7
370
    25
100
AcDbLine
 10
221.9277827788
 20
40.4912613034
 30
0.0
 11
222.0065868488
 21
40.5746529072
 31
0.0
  0
SPLINE
  5
2D5
330
1F
100
AcDbEntity
  8
0
  6
Continuous
 62
     7
370
    25
100
AcDbSpline
210
0.0
220
0.0
230
1.0
 70
     8
 71
     3
 72
     9
 73
     5
 74
     0
 42
0.000000001
 43
0.00000001
 40
0.0
 40
0.0
 40
0.0
 40
0.0
 40
0.5232016984460688
 40
1.0
 40
1.0
 40
1.0
 40
1.0
 10
223.6119820405126
 20
41.52453284604368
 30
0.0
 10
223.542957877864
 20
41.54957501116017
 30
0.0
 10
223.411031389755
 20
41.5974383212199
 30
0.0
 10
223.1695939769364
 20
41.73503645190657
 30
0.0
 10
223.0544770285729
 20
41.80064300691497
 30
0.0
  0
LINE
  5
2D6
330
1F
100
AcDbEntity
  8
0
  6
Continuous
 62
     7
370
    25
100
AcDbLine
 10
219.3249758316
 20
41.5665325696
 30
0.0
 11
219.7764469459
 21
41.6787965424
 31
0.0
  0
LINE
  5
2D7
330
1F
100
AcDbEntity
  8
0
  6
Continuous
 62
     7
370
    25
100
AcDbLine
 10
219.7764469459
 20
41.6787965424
 30
0.0
 11
221.2226594177
 21
40.7431572094
 31
0.0
  0
SPLINE
  5
2D8
330
1F
100
AcDbEntity
  8
0
  6
Continuous
 62
     7
370
    25
100
AcDbSpline
210
0.0
220
0.0
230
1.0
 70
     8
 71
     3
 72
     8
 73
     4
 74
     0
 42
0.000000001
 43
0.00000001
 40
0.0
 40
0.0
 40
0.0
 40
0.0
 40
1.0
 40
1.0
 40
1.0
 40
1.0
 10
219.495764402215
 20
41.17178291652747
 30
0.0
 10
219.4386391332909
 20
41.30356910032311
 30
0.0
 10
219.3817106415733
 20
41.4351533219839
 30
0.0
 10
219.3249765236239
 20
41.56653238888526
 30
0.0
  0
LINE
  5
2D9
330
1F
100
AcDbEntity
  8
0
  6
Continuous
 62
     7
370
    25
100
AcDbLine
 10
221.114148405
 20
42.4510351572
 30
0.0
 11
219.7764469459
 21
41.6787965424
 31
0.0
  0
LINE
  5
2DA
330
1F
100
AcDbEntity
  8
0
  6
Continuous
 62
     7
370
    25
100
AcDbLine
 10
222.0971768898
 20
42.3532817543
 30
0.0
 11
221.114148405
 21
42.4510351572
 31
0.0
  0
LINE
  5
2DB
330
1F
100
AcDbEntity
  8
0
  6
Continuous
 62
     7
370
    25
100
AcDbLine
 10
223.0544770286
 20
41.8006430069
 30
0.0
 11
222.097175902
 21
42.353281184
 31
0.0
  0
SPLINE
  5
2DC
330
1F
100
AcDbEntity
  8
0
  6
Continuous
 62
     7
370
    25
100
AcDbSpline
210
0.0
220
0.0
230
1.0
 70
     8
 71
     3
 72
     8
 73
     4
 74
     0
 42
0.000000001
 43
0.00000001
 40
0.0
 40
0.0
 40
0.0
 40
0.0
 40
1.0
 40
1.0
 40
1.0
 40
1.0
 10
219.3249765236261
 20
41.56653238888016
 30
0.0
 10
219.321839185876
 20
41.60174869575266
 30
0.0
 10
219.319846781978
 20
41.63739295198037
 30
0.0
 10
219.319065384606
 20
41.67348985397524
 30
0.0
  0
LINE
  5
2DD
330
1F
100
AcDbEntity
  8
0
  6
Continuous
 62
     7
370
    25
100
AcDbLine
 10
220.1301518597
 20
42.1417195686
 30
0.0
 11
219.3190660531
 21
41.6734896991
 31
0.0
  0
SPLINE
  5
2DE
330
1F
100
AcDbEntity
  8
0
  6
Continuous
 62
     7
370
    25
100
AcDbSpline
210
0.0
220
0.0
230
1.0
 70
     8
 71
     3
 72
     8
 73
     4
 74
     0
 42
0.000000001
 43
0.00000001
 40
0.0000004089325119
 40
0.0000004089325119
 40
0.0000004089325119
 40
0.0000004089325119
 40
0.0015399868451459
 40
0.0015399868451459
 40
0.0015399868451459
 40
0.0015399868451459
 10
220.1301509170947
 20
42.14171956533135
 30
0.0
 10
220.368627485118
 20
42.23609595114771
 30
0.0
 10
220.6070744427867
 20
42.33052456307792
 30
0.0
 10
220.845483181637
 20
42.42501794604037
 30
0.0
  0
LINE
  5
2DF
330
1F
100
AcDbEntity
  8
0
  6
Continuous
 62
     7
370
    25
100
AcDbLine
 10
220.8454826606
 20
42.4250180932
 30
0.0
 11
220.8698791004
 21
42.4300121196
 31
0.0
  0
LINE
  5
2E0
330
1F
100
AcDbEntity
  8
0
  6
Continuous
 62
     7
370
    25
100
AcDbLine
 10
221.114148405
 20
42.4510351572
 30
0.0
 11
220.869879759
 21
42.4300121195
 31
0.0
  0
SPLINE
  5
2E1
330
1F
100
AcDbEntity
  8
0
  6
Continuous
 62
     7
370
    25
100
AcDbSpline
210
0.0
220
0.0
230
1.0
 70
     8
 71
     3
 72
     8
 73
     4
 74
     0
 42
0.000000001
 43
0.00000001
 40
0.0
 40
0.0
 40
0.0
 40
0.0
 40
1.0
 40
1.0
 40
1.0
 40
1.0
 10
222.097175096145
 20
42.35328193862734
 30
0.0
 10
222.1277831302683
 20
42.33834193082122
 30
0.0
 10
222.1583346312402
 20
42.32346497342785
 30
0.0
 10
222.1888285693547
 20
42.30865140974693
 30
0.0
  0
ARC
  5
2E2
330
1F
100
AcDbEntity
  8
0
  6
Continuous
 62
     7
370
    25
100
AcDbCircle
 10
222.9778585764
 20
47.7820018838
 30
0.0
 40
6.549762100196593
100
AcDbArc
 50
283.6682343678
 51
294.9135532271
  0
LWPOLYLINE
  5
2E3
330
1F
100
AcDbEntity
  8
0
  6
Continuous
 62
     7
370
    18
100
AcDbPolyline
 90
       18
 70
   128
 43
0.0
 10
277.7581114209
 20
15.3305209161
 10
277.8060709125
 20
16.0972283634
 10
277.9488782647
 20
16.9021818065
 10
278.1833434879
 20
17.7273999718
 10
278.5042291776
 20
18.5544489223
 10
278.9043667475
 20
19.3648534095
 10
279.3748179378
 20
20.1405104073
 10
279.9050738597
 20
20.8640934696
 10
280.4832894378
 20
21.5194386432
 10
281.0965481449
 20
22.0919064235
 10
281.7311508969
 20
22.5687089874
 10
282.3729217
 20
22.939195386
 10
283.007524452
 20
23.1950895637
 10
283.6207831591
 20
23.3306752152
 10
284.1989987372
 20
23.342923538
 10
284.7292546592
 20
23.2315609317
 10
285.1997058494
 20
22.9990753164
 10
285.2523442997
 20
22.9627447759
  0
ARC
  5
2E4
330
1F
100
AcDbEntity
  8
0
  6
Continuous
 62
     7
370
    18
100
AcDbCircle
 10
280.6743879456
 20
14.9934373334
 30
0.0
 40
2.935693122628542
100
AcDbArc
 50
173.406613572
 51
239.6202320841
  0
LWPOLYLINE
  5
2E5
330
1F
100
AcDbEntity
  8
0
  6
Continuous
 62
     7
370
    18
100
AcDbPolyline
 90
       39
 70
   128
 43
0.0
 10
279.1146656921
 20
15.3612903271
 10
279.1636146469
 20
16.0717007563
 10
279.3091272999
 20
16.8192488357
 10
279.5472339449
 20
17.5835432204
 10
279.8714396867
 20
18.3437357644
 10
280.2729012604
 20
19.0790908051
 10
280.7406677294
 20
19.7695493096
 10
281.2619794644
 20
20.3962780907
 10
281.8226165963
 20
20.942180663
 10
282.4072863634
 20
21.3923666729
 10
283.0000405464
 20
21.7345563791
 10
283.5847103135
 20
21.9594157134
 10
284.1453474454
 20
22.0608109956
 10
284.6666591805
 20
22.035975932
 10
285.1344256494
 20
21.8855890968
 10
285.5358872231
 20
21.6137517229
 10
285.8600929649
 20
21.2278791608
 10
286.09819961
 20
20.7384968568
 10
286.243712263
 20
20.1589541105
 10
286.2926612177
 20
19.5050589414
 10
286.243712263
 20
18.7946485122
 10
286.09819961
 20
18.0471004328
 10
285.8600929649
 20
17.2828060481
 10
285.5358872231
 20
16.5226135042
 10
285.1344256494
 20
15.7872584635
 10
284.6666591805
 20
15.096799959
 10
284.1453474454
 20
14.4700711778
 10
283.5847103135
 20
13.9241686055
 10
283.0000405464
 20
13.4739825956
 10
282.4072863634
 20
13.1317928895
 10
281.8226165963
 20
12.9069335551
 10
281.2619794644
 20
12.8055382729
 10
280.7406677294
 20
12.8303733365
 10
280.2729012604
 20
12.9807601717
 10
279.8714396867
 20
13.2525975457
 10
279.5472339449
 20
13.6384701077
 10
279.3091272999
 20
14.1278524118
 10
279.1636146469
 20
14.7073951581
 10
279.1146656921
 20
15.3612903271
  0
LWPOLYLINE
  5
2E6
330
1F
100
AcDbEntity
  8
0
  6
Continuous
 62
     7
370
    18
100
AcDbPolyline
 90
       33
 70
   128
 43
0.0
 10
280.2158163176
 20
15.9969710523
 10
280.2636195695
 20
16.5850371784
 10
280.40519248
 20
17.2056968807
 10
280.6350941544
 20
17.835098276
 10
280.9444898888
 20
18.4490540549
 10
281.3214896621
 20
19.0239701659
 10
281.7516055774
 20
19.5377527666
 10
282.2183085793
 20
19.9706578464
 10
282.7036634549
 20
20.306048683
 10
283.1890183306
 20
20.5310366578
 10
283.6557213324
 20
20.6369753943
 10
284.0858372478
 20
20.6197940591
 10
284.4628370211
 20
20.4801526213
 10
284.7722327555
 20
20.2234175536
 10
285.0021344298
 20
19.8594549815
 10
285.1437073404
 20
19.4022518824
 10
285.1915105923
 20
18.8693782162
 10
285.1437073404
 20
18.2813120901
 10
285.0021344298
 20
17.6606523878
 10
284.7722327555
 20
17.0312509925
 10
284.4628370211
 20
16.4172952136
 10
284.0858372478
 20
15.8423791026
 10
283.6557213324
 20
15.328596502
 10
283.1890183306
 20
14.8956914221
 10
282.7036634549
 20
14.5603005855
 10
282.2183085793
 20
14.3353126107
 10
281.7516055774
 20
14.2293738742
 10
281.3214896621
 20
14.2465552095
 10
280.9444898888
 20
14.3861966473
 10
280.6350941544
 20
14.6429317149
 10
280.40519248
 20
15.006894287
 10
280.2636195695
 20
15.4640973861
 10
280.2158163176
 20
15.9969710523
  0
LWPOLYLINE
  5
2E7
330
1F
100
AcDbEntity
  8
0
  6
Continuous
 62
     7
370
    18
100
AcDbPolyline
 90
       18
 70
   128
 43
0.0
 10
284.0949119911
 20
20.4017869006
 10
284.1057901586
 20
20.3968276618
 10
284.4294530951
 20
20.1685784805
 10
284.6713063645
 20
19.8244644844
 10
284.8207799981
 20
19.3795252468
 10
284.8713412344
 20
18.8532068447
 10
284.8207799981
 20
18.2685116816
 10
284.6713063645
 20
17.6509938601
 10
284.4294530951
 20
17.027642023
 10
284.1057901586
 20
16.4256995695
 10
283.7144631733
 20
15.8714740038
 10
283.272575034
 20
15.3891877913
 10
282.7994384844
 20
14.9999193056
 10
282.3157317399
 20
14.7206813457
 10
281.8425951904
 20
14.5636779991
 10
281.4007070511
 20
14.5357710257
 10
281.0093800658
 20
14.6381800713
 10
280.7227750751
 20
14.8305499879
  0
LWPOLYLINE
  5
2E8
330
1F
100
AcDbEntity
  8
0
  6
Continuous
 62
     7
370
    18
100
AcDbPolyline
 90
        8
 70
   128
 43
0.0
 10
242.0450241162
 20
34.3736423098
 10
242.093419235
 20
33.5489404783
 10
242.2377771303
 20
32.7942256886
 10
242.4756266137
 20
32.1224106425
 10
242.8028991972
 20
31.5449908787
 10
243.2139942893
 20
31.0718459061
 10
243.7018786344
 20
30.7110717022
 10
243.7022036261
 20
30.7108840275
  0
LWPOLYLINE
  5
2E9
330
1F
100
AcDbEntity
  8
0
  6
Continuous
 62
     7
370
    18
100
AcDbPolyline
 90
       19
 70
   128
 43
0.0
 10
251.7015536427
 20
44.5676657969
 10
251.145553405
 20
44.8097092374
 10
250.5303058935
 20
44.9292518481
 10
249.8666630986
 20
44.9240613174
 10
249.1659803031
 20
44.794225554
 10
248.44024631
 20
44.5419674068
 10
247.7018786344
 20
44.1716017176
 10
246.9635109588
 20
43.6894662345
 10
246.2377769657
 20
43.1038097488
 10
245.5370941702
 20
42.4246543764
 10
244.8734513753
 20
41.6636192457
 10
244.2582038638
 20
40.8337269785
 10
243.7018786344
 20
39.9491764255
 10
243.2139942893
 20
39.0251029469
 10
242.8028991972
 20
38.0773176841
 10
242.4756266137
 20
37.1220370383
 10
242.2377771303
 20
36.175606824
 10
242.093419235
 20
35.2542199562
 10
242.0450241162
 20
34.3736423098
  0
LWPOLYLINE
  5
2EA
330
1F
100
AcDbEntity
  8
0
  6
Continuous
 62
     7
370
    18
100
AcDbPolyline
 90
       26
 70
   128
 43
0.0
 10
239.9237040835
 20
34.37364269
 10
239.9726820142
 20
35.3369366858
 10
240.1189026026
 20
36.3427329537
 10
240.3602334815
 20
37.3763647408
 10
240.6931547306
 20
38.4227585772
 10
241.1128122183
 20
39.4666568007
 10
241.6130864198
 20
40.4928360889
 10
242.1866823082
 20
41.4863333078
 10
242.8252350513
 20
42.4326601428
 10
243.5194338175
 20
43.3180175377
 10
244.2591548021
 20
44.129494543
 10
245.0336118692
 20
44.8552590829
 10
245.8315113921
 20
45.4847268115
 10
246.6412182888
 20
46.0087185599
 10
247.4509251854
 20
46.4195944952
 10
248.2488247083
 20
46.7113619467
 10
249.0232817754
 20
46.8797665035
 10
249.76300276
 20
46.9223531678
 10
250.4572015262
 20
46.8385006078
 10
251.0957542693
 20
46.629431077
 10
251.6693501577
 20
46.2981935743
 10
252.1696243592
 20
45.8496185845
 10
252.5892818469
 20
45.2902465829
 10
252.922203096
 20
44.6282354389
 10
253.163533975
 20
43.8732383536
 10
253.2028392039
 20
43.7009922922
  0
LWPOLYLINE
  5
2EB
330
1F
100
AcDbEntity
  8
0
  6
Continuous
 62
     7
370
    18
100
AcDbPolyline
 90
       13
 70
   128
 43
0.0
 10
245.2034891873
 20
29.8442101425
 10
245.0336118692
 20
29.7918002462
 10
244.2591548021
 20
29.6233956894
 10
243.5194338175
 20
29.5808090251
 10
242.8252350513
 20
29.6646615851
 10
242.1866823082
 20
29.8737311159
 10
241.6130864198
 20
30.2049686186
 10
241.1128122183
 20
30.6535436084
 10
240.6931547306
 20
31.21291561
 10
240.3602334815
 20
31.874926754
 10
240.1189026026
 20
32.6299238393
 10
239.9726820142
 20
33.4668974092
 10
239.9237040835
 20
34.37364269
  0
ARC
  5
2EC
330
1F
100
AcDbEntity
  8
0
  6
Continuous
 62
     7
370
    18
100
AcDbCircle
 10
247.1751860008
 20
35.3382618922
 30
0.0
 40
17.95572678149935
100
AcDbArc
 50
167.4561534803
 51
179.6099872796
  0
LWPOLYLINE
  5
2ED
330
1F
100
AcDbEntity
  8
0
  6
Continuous
 62
     7
370
    18
100
AcDbPolyline
 90
       11
 70
   128
 43
0.0
 10
240.2897849265
 20
54.701143177
 10
240.6088393376
 20
54.8819742058
 10
241.649457869
 20
55.398052726
 10
242.6786388816
 20
55.7953739191
 10
243.6873377607
 20
56.0704472535
 10
244.6666905794
 20
56.2208553366
 10
245.6080898317
 20
56.24527482
 10
246.5032632108
 20
56.14349298
 10
247.3443437441
 20
55.9164025777
 10
248.1239392694
 20
55.566000902
 10
248.2160788656
 20
55.5140412338
  0
LWPOLYLINE
  5
2EE
330
1F
100
AcDbEntity
  8
0
  6
Continuous
 62
     7
370
    18
100
AcDbPolyline
 90
       10
 70
   128
 43
0.0
 10
232.4798575511
 20
28.25515284
 10
232.2074196638
 20
28.4237156118
 10
231.5327105223
 20
28.952980485
 10
230.9354705811
 20
29.595888888
 10
230.4209477814
 20
30.3467904691
 10
229.9936636897
 20
31.199086648
 10
229.6573739855
 20
32.1452880335
 10
229.4150335578
 20
33.1770784966
 10
229.2687721397
 20
34.2853910285
 10
229.2198752099
 20
35.46048569
  0
LWPOLYLINE
  5
2EF
330
1F
100
AcDbEntity
  8
0
  6
Continuous
 62
     7
370
    18
100
AcDbPolyline
 90
       13
 70
   128
 43
0.0
 10
233.8439566484
 20
32.1248490623
 10
233.8077426274
 20
32.3062567005
 10
233.6633620124
 20
33.3773300437
 10
233.6221588581
 20
34.5189730624
 10
233.684566487
 20
35.7191717213
 10
233.8499276715
 20
36.9652957559
 10
234.1165031956
 20
38.2442326321
 10
234.4814876597
 20
39.5425233705
 10
234.9410397737
 20
40.8465060455
 10
235.4903238453
 20
42.1424581775
 10
236.1235591707
 20
43.4167421676
 10
236.8340825967
 20
44.6559486384
 10
237.6144176675
 20
45.8470374934
  0
LWPOLYLINE
  5
2F0
330
1F
100
AcDbEntity
  8
0
  6
Continuous
 62
     7
370
    18
100
AcDbPolyline
 90
       16
 70
   128
 43
0.0
 10
234.3557524153
 20
29.1949213613
 10
233.8867304313
 20
29.9417486756
 10
233.4962313188
 20
30.8140891057
 10
233.2033772346
 20
31.7826035299
 10
233.0111408488
 20
32.8374594543
 10
232.9214740871
 20
33.9679482376
 10
232.9352870582
 20
35.1625930786
 10
233.0524394919
 20
36.409265938
 10
233.2717420571
 20
37.6953103536
 10
233.5909688732
 20
39.0076709073
 10
234.0068785841
 20
40.3330244032
 10
234.515249261
 20
41.657915607
 10
235.1109192321
 20
42.9688939356
 10
235.7878424002
 20
44.2526514753
 10
236.5391455363
 20
45.4961537768
 10
237.357202695
 20
46.6867793925
  0
ARC
  5
2F1
330
1F
100
AcDbEntity
  8
0
  6
Continuous
 62
     7
370
    18
100
AcDbCircle
 10
250.4403313002
 20
38.9039072921
 30
0.0
 40
14.35349360837084
100
AcDbArc
 50
109.931969941
 51
139.4246766989
  0
LWPOLYLINE
  5
2F2
330
1F
100
AcDbEntity
  8
0
  6
Continuous
 62
     7
370
    18
100
AcDbPolyline
 90
       12
 70
   128
 43
0.0
 10
238.7013957566
 20
48.3589429097
 10
239.6137403545
 20
49.3296784872
 10
240.5590688126
 20
50.2152208747
 10
241.5284739872
 20
51.007226539
 10
242.5128224834
 20
51.6982335106
 10
243.5028401011
 20
52.2817320043
 10
244.4891991337
 20
52.7522231801
 10
245.4626062009
 20
53.1052744115
 10
246.413890371
 20
53.3375602705
 10
247.3340884414
 20
53.4468912274
 10
248.2145311677
 20
53.4322383338
 10
248.3403592669
 20
53.4195959988
  0
LINE
  5
2F3
330
1F
100
AcDbEntity
  8
0
  6
Continuous
 62
     7
370
    18
100
AcDbLine
 10
224.7335109965
 20
45.8330932887
 30
0.0
 11
225.0396749237
 21
45.4623582328
 31
0.0
  0
LINE
  5
2F4
330
1F
100
AcDbEntity
  8
0
  6
Continuous
 62
     7
370
    18
100
AcDbLine
 10
224.7335109965
 20
38.068983141
 30
0.0
 11
225.0396749237
 21
38.7565166096
 31
0.0
  0
LINE
  5
2F5
330
1F
100
AcDbEntity
  8
0
  6
Continuous
 62
     7
370
    18
100
AcDbLine
 10
225.7755852405
 20
39.1813485927
 30
0.0
 11
225.0396821677
 21
38.7565207914
 31
0.0
  0
LINE
  5
2F6
330
1F
100
AcDbEntity
  8
0
  6
Continuous
 62
     7
370
    18
100
AcDbLine
 10
225.7090096834
 20
39.9245745604
 30
0.0
 11
224.3997382493
 21
39.1687482497
 31
0.0
  0
LINE
  5
2F7
330
1F
100
AcDbEntity
  8
0
  6
Continuous
 62
     7
370
    18
100
AcDbLine
 10
221.2226594177
 20
40.7431572094
 30
0.0
 11
220.9261721435
 21
40.2470955915
 31
0.0
  0
LINE
  5
2F8
330
1F
100
AcDbEntity
  8
0
  6
Continuous
 62
     7
370
    18
100
AcDbLine
 10
223.0544770286
 20
41.8006430069
 30
0.0
 11
221.2227200038
 21
40.743192185
 31
0.0
  0
LINE
  5
2F9
330
1F
100
AcDbEntity
  8
0
  6
Continuous
 62
     7
370
    18
100
AcDbLine
 10
223.0544770286
 20
41.8006430069
 30
0.0
 11
223.1757871831
 21
41.7388924936
 31
0.0
  0
OLE2FRAME
  5
2FA
330
1F
100
AcDbEntity
  8
0
100
AcDbOle2Frame
 70
     2
  3
Paintbrush-Bild
 10
13.8511154363
 20
38.264191557
 30
0.0
 11
51.6290888628
 21
31.9806341108
 31
0.0
 71
     2
 72
     0
 73
     1
 90
    12928
310
80552BED0767C5B32B40DDAF6807D121434000000000000000006FFBDDFB85D0
310
4940DDAF6807D121434000000000000000006FFBDDFB85D04940416F4BD60AFB
310
3F4000000000000000002BED0767C5B32B40416F4BD60AFB3F40000000000000
310
0000000000000100000000010000010000000100000000000100000000320000
310
D0CF11E0A1B11AE1000000000000000000000000000000003E000300FEFF0900
310
0600000000000000000000000100000001000000000000000010000002000000
310
01000000FEFFFFFF0000000000000000FFFFFFFFFFFFFFFFFFFFFFFFFFFFFFFF
310
FFFFFFFFFFFFFFFFFFFFFFFFFFFFFFFFFFFFFFFFFFFFFFFFFFFFFFFFFFFFFFFF
310
FFFFFFFFFFFFFFFFFFFFFFFFFFFFFFFFFFFFFFFFFFFFFFFFFFFFFFFFFFFFFFFF
310
FFFFFFFFFFFFFFFFFFFFFFFFFFFFFFFFFFFFFFFFFFFFFFFFFFFFFFFFFFFFFFFF
310
FFFFFFFFFFFFFFFFFFFFFFFFFFFFFFFFFFFFFFFFFFFFFFFFFFFFFFFFFFFFFFFF
310
FFFFFFFFFFFFFFFFFFFFFFFFFFFFFFFFFFFFFFFFFFFFFFFFFFFFFFFFFFFFFFFF
310
FFFFFFFFFFFFFFFFFFFFFFFFFFFFFFFFFFFFFFFFFFFFFFFFFFFFFFFFFFFFFFFF
310
FFFFFFFFFFFFFFFFFFFFFFFFFFFFFFFFFFFFFFFFFFFFFFFFFFFFFFFFFFFFFFFF
310
FFFFFFFFFFFFFFFFFFFFFFFFFFFFFFFFFFFFFFFFFFFFFFFFFFFFFFFFFFFFFFFF
310
FFFFFFFFFFFFFFFFFFFFFFFFFFFFFFFFFFFFFFFFFFFFFFFFFFFFFFFFFFFFFFFF
310
FFFFFFFFFFFFFFFFFFFFFFFFFFFFFFFFFFFFFFFFFFFFFFFFFFFFFFFFFFFFFFFF
310
FFFFFFFFFFFFFFFFFFFFFFFFFFFFFFFFFFFFFFFFFFFFFFFFFFFFFFFFFFFFFFFF
310
FFFFFFFFFFFFFFFFFFFFFFFFFFFFFFFFFFFFFFFFFFFFFFFFFFFFFFFFFFFFFFFF
310
FFFFFFFFFFFFFFFFFFFFFFFFFFFFFFFFFFFFFFFFFFFFFFFFFFFFFFFFFFFFFFFF
310
FDFFFFFFFEFFFFFFFEFFFFFFFEFFFFFF05000000060000000700000008000000
310
090000000A0000000B0000000C0000000D0000000E0000000F00000010000000
310
11000000120000001300000014000000150000001600000017000000FEFFFFFF
310
FFFFFFFFFFFFFFFFFFFFFFFFFFFFFFFFFFFFFFFFFFFFFFFFFFFFFFFFFFFFFFFF
310
FFFFFFFFFFFFFFFFFFFFFFFFFFFFFFFFFFFFFFFFFFFFFFFFFFFFFFFFFFFFFFFF
310
FFFFFFFFFFFFFFFFFFFFFFFFFFFFFFFFFFFFFFFFFFFFFFFFFFFFFFFFFFFFFFFF
310
FFFFFFFFFFFFFFFFFFFFFFFFFFFFFFFFFFFFFFFFFFFFFFFFFFFFFFFFFFFFFFFF
310
FFFFFFFFFFFFFFFFFFFFFFFFFFFFFFFFFFFFFFFFFFFFFFFFFFFFFFFFFFFFFFFF
310
FFFFFFFFFFFFFFFFFFFFFFFFFFFFFFFFFFFFFFFFFFFFFFFFFFFFFFFFFFFFFFFF
310
FFFFFFFFFFFFFFFFFFFFFFFFFFFFFFFFFFFFFFFFFFFFFFFFFFFFFFFFFFFFFFFF
310
FFFFFFFFFFFFFFFFFFFFFFFFFFFFFFFFFFFFFFFFFFFFFFFFFFFFFFFFFFFFFFFF
310
FFFFFFFFFFFFFFFFFFFFFFFFFFFFFFFFFFFFFFFFFFFFFFFFFFFFFFFFFFFFFFFF
310
FFFFFFFFFFFFFFFFFFFFFFFFFFFFFFFFFFFFFFFFFFFFFFFFFFFFFFFFFFFFFFFF
310
FFFFFFFFFFFFFFFFFFFFFFFFFFFFFFFFFFFFFFFFFFFFFFFFFFFFFFFFFFFFFFFF
310
FFFFFFFFFFFFFFFFFFFFFFFFFFFFFFFFFFFFFFFFFFFFFFFFFFFFFFFFFFFFFFFF
310
FFFFFFFFFFFFFFFFFFFFFFFFFFFFFFFFFFFFFFFFFFFFFFFFFFFFFFFFFFFFFFFF
310
52006F006F007400200045006E00740072007900000000000000000000000000
310
0000000000000000000000000000000000000000000000000000000000000000
310
16000500FFFFFFFFFFFFFFFF020000000A00030000000000C000000000000046
310
000000000000000000000000D0D9A0C6AAA5D30103000000C000000000000000
310
01004F006C006500000000000000000000000000000000000000000000000000
310
0000000000000000000000000000000000000000000000000000000000000000
310
0A000200FFFFFFFFFFFFFFFFFFFFFFFF00000000000000000000000000000000
310
0000000000000000000000000000000000000000000000001400000000000000
310
010043006F006D0070004F0062006A0000000000000000000000000000000000
310
0000000000000000000000000000000000000000000000000000000000000000
310
120002010100000003000000FFFFFFFF00000000000000000000000000000000
310
0000000000000000000000000000000000000000010000004D00000000000000
310
01004F006C006500310030004E00610074006900760065000000000000000000
310
0000000000000000000000000000000000000000000000000000000000000000
310
1A000200FFFFFFFFFFFFFFFFFFFFFFFF00000000000000000000000000000000
310
0000000000000000000000000000000000000000040000002426000000000000
310
FEFFFFFF02000000FEFFFFFFFFFFFFFFFFFFFFFFFFFFFFFFFFFFFFFFFFFFFFFF
310
FFFFFFFFFFFFFFFFFFFFFFFFFFFFFFFFFFFFFFFFFFFFFFFFFFFFFFFFFFFFFFFF
310
FFFFFFFFFFFFFFFFFFFFFFFFFFFFFFFFFFFFFFFFFFFFFFFFFFFFFFFFFFFFFFFF
310
FFFFFFFFFFFFFFFFFFFFFFFFFFFFFFFFFFFFFFFFFFFFFFFFFFFFFFFFFFFFFFFF
310
FFFFFFFFFFFFFFFFFFFFFFFFFFFFFFFFFFFFFFFFFFFFFFFFFFFFFFFFFFFFFFFF
310
FFFFFFFFFFFFFFFFFFFFFFFFFFFFFFFFFFFFFFFFFFFFFFFFFFFFFFFFFFFFFFFF
310
FFFFFFFFFFFFFFFFFFFFFFFFFFFFFFFFFFFFFFFFFFFFFFFFFFFFFFFFFFFFFFFF
310
FFFFFFFFFFFFFFFFFFFFFFFFFFFFFFFFFFFFFFFFFFFFFFFFFFFFFFFFFFFFFFFF
310
FFFFFFFFFFFFFFFFFFFFFFFFFFFFFFFFFFFFFFFFFFFFFFFFFFFFFFFFFFFFFFFF
310
FFFFFFFFFFFFFFFFFFFFFFFFFFFFFFFFFFFFFFFFFFFFFFFFFFFFFFFFFFFFFFFF
310
FFFFFFFFFFFFFFFFFFFFFFFFFFFFFFFFFFFFFFFFFFFFFFFFFFFFFFFFFFFFFFFF
310
FFFFFFFFFFFFFFFFFFFFFFFFFFFFFFFFFFFFFFFFFFFFFFFFFFFFFFFFFFFFFFFF
310
FFFFFFFFFFFFFFFFFFFFFFFFFFFFFFFFFFFFFFFFFFFFFFFFFFFFFFFFFFFFFFFF
310
FFFFFFFFFFFFFFFFFFFFFFFFFFFFFFFFFFFFFFFFFFFFFFFFFFFFFFFFFFFFFFFF
310
FFFFFFFFFFFFFFFFFFFFFFFFFFFFFFFFFFFFFFFFFFFFFFFFFFFFFFFFFFFFFFFF
310
FFFFFFFFFFFFFFFFFFFFFFFFFFFFFFFFFFFFFFFFFFFFFFFFFFFFFFFFFFFFFFFF
310
0100000200000000000000000000000000000000000000000000000000000000
310
0000000000000000000000000000000000000000000000000000000000000000
310
0100FEFF030A0000FFFFFFFF0A00030000000000C00000000000004607000000
310
5042727573680007000000504272757368000700000050427275736800F439B2
310
7100000000000000000000000000000000000000000000000000000000000000
310
0000000000000000000000000000000000000000000000000000000000000000
310
0000000000000000000000000000000000000000000000000000000000000000
310
0000000000000000000000000000000000000000000000000000000000000000
310
0000000000000000000000000000000000000000000000000000000000000000
310
0000000000000000000000000000000000000000000000000000000000000000
310
0000000000000000000000000000000000000000000000000000000000000000
310
0000000000000000000000000000000000000000000000000000000000000000
310
0000000000000000000000000000000000000000000000000000000000000000
310
0000000000000000000000000000000000000000000000000000000000000000
310
0000000000000000000000000000000000000000000000000000000000000000
310
0000000000000000000000000000000000000000000000000000000000000000
310
20260000424D0E260000000000003E00000028000000B40200006E0000000100
310
01000000000000000000130B0000130B00000200000002000000000000FFFFFF
310
FFFFFFFFFFFFFFFFFFFFFFFFFFFFFFFFFFFFFFFFFFFFFFFFFFFFFFFFFFFFFFFF
310
FFFFFFFFFFFFFFFFFFFFFFFFFFFFFFFFFFFFFFFFFFFFFFFFFFFFFFFFFFFFFFFF
310
FFFFFFFFFFFFFFFFFFFFFFFFFFFFFFFFFFFFFFFFFFFFFFFFF000FFFFFFFFFFFF
310
FFFFFFFFFFFFFFFFFFFFFFFFFFFFFFFFFFFFFFFFFFFFFFFFFFFFFFFFFFFFFFFF
310
FFFFFFFFFFFFFFFFFFFFFFFFFFFFFFFFFFFFFFFFFFFFFFFFFFFFFFFFFFFFFFFF
310
FFFFFFFFFFFFFFFFFFFFFFFFFFFFFFFFF000FFFFFFFFFFFFFFFFFFFFFFFFFFFF
310
FFFFFFFFFFFFFFFFFFFFFFFFFFFFFFFFFFFFFFFFFFFFFFFFFFFFFFFFFFFFFFFF
310
FFFFFFFFFFFFFFFFFFFFFFFFFFFFFFFFFFFFFFFFFFFFFFFFFFFFFFFFFFFFFFFF
310
FFFFFFFFFFFFFFFFF000FFFFFFFFFFFFFFFFFFFFFFFFFFFFFFFFFFFFFFFFFFFF
310
FFFFFFFFFFFFFFFFFFFFFFFFFFFFFFFFFFFFFFFFFFFFFFFFFFFFFFFFFFFFFFFF
310
FFFFFFFFFFFFFFFFFFFFFFFFFFFFFFFFFFFFFFFFFFFFFFFFFFFFFFFFFFFFFFFF
310
F000FFFFFFFFFFFFFFFFFFFFFFFFFFFFFFFFFFFFFFFFFFFFFFFFFFFFFFFFFFFF
310
FFFFFFFFFFFFFFFFFFFFFFFFFFFFFFFFFFFFFFFFFFFFFFFFFFFFFFFFFFFFFFFF
310
FFFFFFFFFFFFFFFFFFFFFFFFFFFFFFFFFFFFFFFFFFFFFFFFF000FFFFFFFFFFFF
310
FFFFFFFFFFFFFFFFFFFFFFFFFFFFFFFFFFFFFFFFFFFFFFFFFFFFFFFFFFFFFFFF
310
FFFFFFFFFFFFFFFFFFFFFFFFFFFFFFFFFFFFFFFFFFFFFFFFFFFFFFFFFFFFFFFF
310
FFFFFFFFFFFFFFFFFFFFFFFFFFFFFFFFF000FFFFFFFFFFFFFFFFFFFFFFFFFFFF
310
FFFFFFFFFFFFFFFFFFFFFFFFFFFFFFFFFFFFFFFFFFFFFFFFFFFFFFFFFFFFFFFF
310
FFFFFFFFFFFFFFFFFFFFFFFFFFFFFFFFFFFFFFFFFFFFFFFFFFFFFFFFFFFFFFFF
310
FFFFFFFFFFFFFFFFF000FFFFFFFFFFFFFFFFFFFFFFFFFFFFFFFFFFFFFFFFFFFF
310
FFFFFFFFFFFFFFFFFFFFFFFFFFFFFFFFFFFFFFFFFFFFFFFFFFFFFFFFFFFFFFFF
310
FFFFFFFFFFFFFFFFFFFFFFFFFFFFFFFFFFFFFFFFFFFFFFFFFFFFFFFFFFFFFFFF
310
F000FFFFFFFFFFFFFFFFFFFFFFFFFFFFFFFFFFFFFFFFFFFFFFFFFFFFFFFFFFFF
310
FFFFFFFFFFFFFFFFFFFFFFFFFFFFFFFFFFFFFFFFFFFFFFFFFFFFFFFFFFFFFFFF
310
FFFFFFFFFFFFFFFFFFFFFFFFFFFFFFFFFFFFFFFFFFFFFFFFF000FFFFFFFFFFFF
310
FFFFFFFFFFFFFFFFFFFFFFFFFFFFFFFFFFFFFFFFFFFFFFFFFFFFFFFFFFFFFFFF
310
FFFFFFFFFFFFFFFFFFFFFFFFFFFFFFFFFFFFFFFFFFFFFFFFFFFFFFFFFFFFFFFF
310
FFFFFFFFFFFFFFFFFFFFFFFFFFFFFFFFF000FFFFFFFFFFFFFFFFFFFFFFFFFFFF
310
FFFFFFFFFFFFFFFFFFFFFFFFFFFFFFFFFFFFFFFFFFFFFFFFFFFFFFFFFFFFFFFF
310
FFFFFFFFFFFFFFFFFFFFFFFFFFFFFFFFFFFFFFFFFFFFFFFFFFFFFFFFFFFFFFFF
310
FFFFFFFFFFFFFFFFF000FFFFFFFFFFFFFFFFFFFFFFFFFFFFFFFFFFFFFFFFFFFF
310
FFFFFFFFFFFFFFFFFFFFFFFFFFFFFFFFFFFFFFFFFFFFFFFFFFFFFFFFFFFFFFFF
310
FFFFFFFFFFFFFFFFFFFFFFFFFFFFFFFFFFFFFFFFFFFFFFFFFFFFFFFFFFFFFFFF
310
F000FFFFFFFFFFFFFFFFFFFFFFFFFFFFFFFFFFFFFFFFFFFFFFFFFFFFFFFFFFFF
310
FFFFFFFFFFFFFFFFFFFFFFFFFFFFFFFFFFFFFFFFFFFFFFFFFFFFFFFFFFFFFFFF
310
FFFFFFFFFFFFFFFFFFFFFFFFFFFFFFFFFFFFFFFFFFFFFFFFF000FFFFFFFFFFFF
310
FFFFFFFFFFFFFFFFFFFFFFFFFFFFFFFFFFFFFFFFFFFFFFFFFFFFFFFFFFFFFFFF
310
FFFFFFFFFFFFFFFFFFFFFFFFFFFFFFFFFFFFFFFFFFFFFFFFFFFFFFFFFFFFFFFF
310
FFFFFFFFFFFFFFFFFFFFFFFFFFFFFFFFF000FFFFFFFFFFFFFFFFFFFFFFFFFFFF
310
FFFFFFFFFFFFFFFFFFFFFFFFFFFFFFFFFFFFFFFFFFFFFFFFFFFFFFFFFFFFFFFF
310
FFFFFFFFFFFFFFFFFFFFFFFFFFFFFFFFFFFFFFFFFFFFFFFFFFFFFFFFFFFFFFFF
310
FFFFFFFFFFFFFFFFF000FFFFFFFFFFFFFFFFFFFFFFFFFFFFFFFFFFFFFFFFFFFF
310
FFFFFFFFFFFFFFFFFFFFFFFFFFFFFFFFFFFFFFFFFFFFFFFFFFFFFFFFFFFFFFFF
310
FFFFFFFFFFFFFFFFFFFFFFFFFFFFFFFFFFFFFFFFFFFFFFFFFFFFFFFFFFFFFFFF
310
F000FFFFFFFFFFFFFFFFFFFFFFFFFFFFFFFFFFFFFFFFFFFFFFFFFFFFFFFFFFFF
310
FFFFFFFFFFFFFFFFFFFFFFFFFFFFFFFFFFFFFFFFFFFFFFFFFFFFFFFFFFFFFFFF
310
FFFFFFFFFFFFFFFFFFFFFFFFFFFFFFFFFFFFFFFFFFFFFFFFF000FFFFFFFFFFFF
310
FFFFFFFFFFFFFFFFFFFFFFFFFFFFFFFFFFFFFFFFFFFFFFFFFFFFFFFFFFFFFFFF
310
FFFFFFFFFFFFFFFFFFFFFFFFFFFFFFFFFFFFFFFFFFFFFFFFFFFFFFFFFFFFFFFF
310
FFFFFFFFFFFFFFFFFFFFFFFFFFFFFFFFF000FFFFFFFFFFFFFFFFFFFFFFFFFFFF
310
FFFFFFFFFFFFFFFFFFFFFFFFFFFFFFFFFFFFFFFFFFFFFFFFFFFFFFFFFFFFFFFF
310
FFFFFFFFFFFFFFFFFFFFFFFFFFFFFFFFFFFFFFFFFFFFFFFFFFFFFFFFFFFFFFFF
310
FFFFFFFFFFFFFFFFF000FFFFF80003FFFFFFFFFFFFFFFFFFFFFFFFFFFFFFFFFF
310
FFFFF00007FFFFFFFFFF00007FFFFFF800000000000000007FFFFFFFFFFFFFFF
310
FFFFFFFC001FFFFFFFFFFFFFFC001FFFFFFFFFFFFFFFFFFFFFFFFFFE0007FFFF
310
F000FFFF8000007FFFFFFFF8000FFFFFC0007FFFFF80007FFFFF0000007FFFFF
310
FFF8000007FFFFF800000000000000007FFFFFF0001FFFFFFFFFFFC00001FFFF
310
FFFFFFFFC00001FFFFFFFF000000000003FFFFE000007FFFF000FFFE0000000F
310
FFFFFFF0000FFFFF80007FFFFF80007FFFFC0000001FFFFFFFC0000001FFFFF8
310
00000000000000007FFFFFF0001FFFFFFFFFFE0000003FFFFFFFFFFE0000003F
310
FFFFFF000000000003FFFF0000000FFFF000FFF800000003FFFFFFF00007FFFF
310
80007FFFFF80007FFFF000000007FFFFFF000000003FFFF80000000000000000
310
7FFFFFF0001FFFFFFFFFF80000000FFFFFFFFFF80000000FFFFFFF0000000000
310
03FFFC00000003FFF000FFE000000000FFFFFFF00007FFFF80003FFFFF80007F
310
FFC000000001FFFFFC000000001FFFF800000000000000007FFFFFF0001FFFFF
310
FFFFE000000003FFFFFFFFE000000003FFFFFF000000000003FFF000000000FF
310
F000FF80000000007FFFFFF00007FFFF80003FFFFF80007FFF8000000000FFFF
310
F80000000007FFF800000000000000007FFFFFF0001FFFFFFFFFC000000001FF
310
FFFFFFC000000001FFFFFF000000000003FFC0000000007FF000FF0000000000
310
3FFFFFE00007FFFF00003FFFFF80007FFE00000000003FFFF00000000003FFF8
310
00000000000000007FFFFFF0001FFFFFFFFF8000000000FFFFFFFF8000000000
310
FFFFFF000000000003FF80000000003FF000FE00000000001FFFFFE00003FFFF
310
00003FFFFF80007FFC00000000001FFFE00000000001FFF8000001FFFE000000
310
7FFFFFF0001FFFFFFFFE00000000003FFFFFFE00000000003FFFFF0000000000
310
03FF00000000001FF000FC00000000000FFFFFE00003FFFF00001FFFFF80007F
310
F800000000001FFFC00000000000FFF8000001FFFE0000007FFFFFF0001FFFFF
310
FFFC00000000001FFFFFFC00000000001FFFFF000000000003FE00000000000F
310
F000F8000000000007FFFFE00003FFFF00001FFFFF80007FF800000000000FFF
310
800000000000FFF8000001FFFE0000007FFFFFF0001FFFFFFFF800000000000F
310
FFFFF800000000000FFFFF000000000003FC000000000007F000F80000000000
310
03FFFFC00003FFFE00001FFFFF80007FF0000000000007FF0000000000007FF8
310
000001FFFE0000007FFFFFF0001FFFFFFFF0000000000007FFFFF00000000000
310
07FFFF000000000003F8000000000003F000F0000000000003FFFFC00001FFFE
310
00001FFFFF80007FE0000000000007FE0000000000003FF8000001FFFE000000
310
7FFFFFF0001FFFFFFFF0000000000007FFFFF0000000000007FFFF0000000000
310
03F800001F800003F000E00001FFF00001FFFFC00001FFFE00000FFFFF80007F
310
E00001FFE00003FE00001FFF00003FF8000001FFFE0000007FFFFFF0001FFFFF
310
FFE000003E000003FFFFE000003E000003FFFF000000000003F00001FFF80001
310
F000E00007FFFC0001FFFFC00001FFFE00000FFFFF80007FC0000FFFFC0003FC
310
0000FFFFC0001FF8000001FFFE0000007FFFFFF0001FFFFFFFC00003FFE00001
310
FFFFC00003FFE00001FFFF0001FFFFFFFFF00007FFFE0001F000E0000FFFFF00
310
00FFFF800001FFFC00000FFFFF80007FC0001FFFFE0001FC0001FFFFE0001FF8
310
000001FFFE0000007FFFFFF0001FFFFFFF80000FFFF80000FFFF80000FFFF800
310
00FFFF0003FFFFFFFFE0000FFFFF8000F000C0003FFFFF8000FFFF800000FFFC
310
000007FFFF80007F80003FFFFF0001FC0003FFFFF0001FF8000001FFFE000000
310
7FFFFFF0001FFFFFFF80003FFFFE0000FFFF80003FFFFE0000FFFF0003FFFFFF
310
FFE0003FFFFF8000F000C0003FFFFF8000FFFF800000FFFC000007FFFF80007F
310
80007FFFFF8001F80007FFFFF8000FF8000001FFFE0000007FFFFFF0001FFFFF
310
FF00007FFFFF00007FFF00007FFFFF00007FFF0003FFFFFFFFE0003FFFFFC000
310
F000C0007FFFFFC000FFFF000000FFFC000007FFFF80007F8000FFFFFF8000F8
310
000FFFFFF8000FF8000001FFFE0000007FFFFFF0001FFFFFFF0000FFFFFF8000
310
7FFF0000FFFFFF80007FFF0003FFFFFFFFC0007FFFFFC00070008000FFFFFFC0
310
00FFFF000000FFF8000007FFFF80007F8000FFFFFF8000F8000FFFFFF8000FF8
310
000001FFFE0000007FFFFFF0001FFFFFFE0001FFFFFFC0003FFE0001FFFFFFC0
310
003FFF0003FFFFFFFFC0007FFFFFE00070008000FFFFFFC0007FFF0000007FF8
310
000003FFFF80007F0001FFFFFF8000F8000FFFFFF8000FF8000001FFFE000000
310
7FFFFFF0001FFFFFFE0001FFFFFFC0003FFE0001FFFFFFC0003FFF0003FFFFFF
310
FFC000FFFFFFE00070008000FFFFFFC0007FFF0000007FF8000003FFFF80007F
310
0001FFFFFF8000F8001FFFFFF8000FF8000001FFFE0000007FFFFFF0001FFFFF
310
FE0003FFFFFFE0003FFE0003FFFFFFE0003FFF0003FFFFFFFFC000FFFFFFE000
310
70008000FFFFFFC0007FFE0000007FF8000003FFFF80007F0001FFFFFF8000F0
310
001FFFFFF8000FF8000001FFFE0000007FFFFFF0001FFFFFFC0003FFFFFFE000
310
1FFC0003FFFFFFE0001FFF0003FFFFFFFFC000FFFFFFC00070008000FFFFFF80
310
007FFE0000007FF0000003FFFF80007F0001FFFFFF0000F0001FFFFFF8000FF8
310
000001FFFE0000007FFFFFF0001FFFFFFC0007FFFFFFF0001FFC0007FFFFFFF0
310
001FFF0003FFFFFFFFC000FFFFFFC00070008001FFFFFF0000FFFE0000003FF0
310
000001FFFF80007F0001FFFFFF0000F8001FFFFFF0000FF8000001FFFE000000
310
7FFFFFF0001FFFFFFC0007FFFFFFF0001FFC0007FFFFFFF0001FFF0003FFFFFF
310
FFC001FFFFFF80007000FFFFFFFFFE0000FFFE0008003FF0008001FFFF80007F
310
FFFFFFFFFC0000FFFFFFFFFFE0000FF8000001FFFE0000007FFFFFF0001FFFFF
310
F8000FFFFFFFF8000FF8000FFFFFFFF8000FFF0003FFFFFFFFFFFFFFFFFF0000
310
7000FFFFFFFFFC0000FFFC0008003FF0008001FFFF80007FFFFFFFFFF80001FF
310
FFFFFFFF80000FF8000001FFFE0000007FFFFFF0001FFFFFF8000FFFFFFFF800
310
0FF8000FFFFFFFF8000FFF0003FFFFFFFFFFFFFFFFFE0000F000FFFFFFFFE000
310
00FFFC000C003FE000C001FFFF80007FFFFFFFFFC00001FFFFFFFFFE00001FF8
310
000001FFFE0000007FFFFFF0001FFFFFF8000FFFFFFFF8000FF8000FFFFFFFF8
310
000FFF0003FFFFFFFFFFFFFFFFF00000F000FFFFFFFE000001FFFC000C001FE0
310
00C000FFFF80007FFFFFFFFE000001FFFFFFFFE000001FF80FFFFFFFFFFFFFC0
310
7FFFFFF0001FFFFFF8000FFFFFFFF8000FF8000FFFFFFFF8000FFF0003FFFFFF
310
FFFFFFFFFF800000F000FFFFFFC0000001FFFC001C001FE001C000FFFF80007F
310
FFFFFF80000003FFFFFFF80000001FF80FFFFFFFFFFFFFC07FFFFFF0001FFFFF
310
F8001FFFFFFFFC000FF8001FFFFFFFFC000FFF0003FFFFFFFFFFFFFFF0000001
310
F000FFFFF800000001FFF8001C001FE001C000FFFF80007FFFFFF800000003FF
310
FFFF800000003FF80FFFFFFFFFFFFFC07FFFFFF0001FFFFFF8001FFFFFFFFC00
310
0FF8001FFFFFFFFC000FFF0003FFFFFFFFFFFFFE00000001F000FFFFC0000000
310
03FFF8001E001FC001E000FFFF80007FFFFF8000000007FFFFFC000000003FF8
310
0FFFFFFFFFFFFFC07FFFFFF0001FFFFFF8001FFFFFFFFC000FF8001FFFFFFFFC
310
000FFF0003FFFFFFFFFFFFE000000003F000FFFE0000000007FFF8001E000FC0
310
01E0007FFF80007FFFFE0000000007FFFFE0000000007FF80FFFFFFFFFFFFFC0
310
7FFFFFF0001FFFFFF0001FFFFFFFFC0007F0001FFFFFFFFC0007FF0003FFFFFF
310
FFFFFF0000000003F000FFF80000000007FFF8001E000FC003E0007FFF80007F
310
FFF0000000000FFFFF8000000000FFF80FFFFFFFFFFFFFC07FFFFFF0001FFFFF
310
F0001FFFFFFFFC0007F0001FFFFFFFFC0007FF0003FFFFFFFFFFFC0000000007
310
F000FFE0000000000FFFF0003E000FC003E0007FFF80007FFFC0000000001FFF
310
FE0000000001FFF80FFFFFFFFFFFFFC07FFFFFF0001FFFFFF0001FFFFFFFFC00
310
07F0001FFFFFFFFC0007FF0003FFFFFFFFFFF0000000000FF000FFC000000000
310
1FFFF0003F000F8003F0003FFF80007FFF80000000003FFFF80000000003FFF8
310
0FFFFFFFFFFFFFC07FFFFFF0001FFFFFF0001FFFFFFFFC0007F0001FFFFFFFFC
310
0007FF0003FFFFFFFFFFE0000000001FF000FF00000000007FFFF0003F000780
310
03F0003FFF80007FFF00000000007FFFF00000000007FFF80FFFFFFFFFFFFFC0
310
7FFFFFF0001FFFFFF0001FFFFFFFFC0007F0001FFFFFFFFC0007FF0003FFFFFF
310
FFFF80000000007FF000FE0000000000FFFFE0003F00078007F0003FFF80007F
310
FE0000000001FFFFE0000000001FFFF80FFFFFFFFFFFFFC07FFFFFF0001FFFFF
310
F0001FFFFFFFFC0007F0001FFFFFFFFC0007FF0003FFFFFFFFFF0000000000FF
310
F000FC0000000003FFFFE0007F00078007F0003FFF80007FFC0000000007FFFF
310
C0000000007FFFF80FFFFFFFFFFFFFC07FFFFFF0001FFFFFF8001FFFFFFFFC00
310
0FF8001FFFFFFFFC000FFF0003FFFFFFFFFE0000000003FFF000FC000000000F
310
FFFFE0007F80070007F8001FFF80007FF8000000001FFFFF8000000001FFFFF8
310
0FFFFFFFFFFFFFC07FFFFFF0001FFFFFF8001FFFFFFFFC000FF8001FFFFFFFFC
310
000FFF0003FFFFFFFFFC000000000FFFF000F8000000007FFFFFE0007F800700
310
07F8001FFF80007FF000000000FFFFFF800000000FFFFFF80FFFFFFFFFFFFFC0
310
7FFFFFF0001FFFFFF8000FFFFFFFF8000FF8000FFFFFFFF8000FFF0003FFFFFF
310
FFFC000000007FFFF000F800000007FFFFFFC0007F8003000FF8001FFF80007F
310
F000000007FFFFFF000000007FFFFFF80FFFFFFFFFFFFFC07FFFFFF0001FFFFF
310
F8000FFFFFFFF8000FF8000FFFFFFFF8000FFF0003FFFFFFFFF80000000FFFFF
310
F000F0000000FFFFFFFFC000FF8003000FF8001FFF80007FE0000000FFFFFFFF
310
0000000FFFFFFFF8000001FFFE0000007FFFFFF0001FFFFFF8000FFFFFFFF800
310
0FF8000FFFFFFFF8000FFF0003FFFFFFFFF8000000FFFFFFF000F000000FFFFF
310
FFFFC000FFC002000FF8000FFF80007FE000001FFFFFFFFE000001FFFFFFFFF8
310
000001FFFE0000007FFFFFF0001FFFFFF8000FFFFFFFF8000FF8000FFFFFFFF8
310
000FFF0003FFFFFFFFF000001FFFFFFFF000E00000FFFFFFFFFFC000FFC00200
310
0FFC000FFF80007FE00001FFFFFFFFFE00001FFFFFFFFFF8000001FFFE000000
310
7FFFFFF0001FFFFFFC000FFFFFFFF8001FFC000FFFFFFFF8001FFF0003FFFFFF
310
FFF00001FFFFFFFFF000E00007FFFFFFFFFF8000FFC000001FFC000FFF80007F
310
C0000FFFFFFFFFFE0000FFFFFFFFFFF8000001FFFE0000007FFFFFF0001FFFFF
310
FC0007FFFFFFF0001FFC0007FFFFFFF0001FFF0003FFFFFFFFF00007FFFFFFFF
310
F000E0001FFFFFFFFFFF8000FFC000001FFC000FFF80007FC0003FFFFFFFFFFE
310
0001FFFFFFFFFFF8000001FFFE0000007FFFFFF0001FFFFFFC0007FFFFFFF000
310
1FFC0007FFFFFFF0001FFF0003FFFFFFFFF0001FFFFFFFFFF000E0003FFFFF00
310
03FF8001FFE000001FFC0007FF80007FC0007FFFFF0007FC0003FFFFF0003FF8
310
000001FFFE0000007FFFFFF0001FFFFFFC0003FFFFFFE0001FFC0003FFFFFFE0
310
001FFF0003FFFFFFFFF0003FFFFFFFFFF000E0003FFFFF0001FF8001FFE00000
310
1FFE0007FF80007FC0007FFFFE0003FC0007FFFFE0003FF8000001FFFE000000
310
7FFFFFF0001FFFFFFE0003FFFFFFE0003FFE0003FFFFFFE0003FFF0003FFFFFF
310
FFF0003FFFFF8001F000E0003FFFFF0001FF0001FFE000001FFE0007FF80007F
310
C0007FFFFE0003FC0007FFFFE0003FF8000001FFFE0000007FFFFFF0001FFFFF
310
FE0001FFFFFFC0003FFE0001FFFFFFC0003FFF0003FFFFFFFFF0003FFFFF0001
310
F000E0003FFFFF0003FF0001FFE000003FFE0007FF80007FC0007FFFFE0003FC
310
0007FFFFE0003FF8000001FFFE0000007FFFFFF0001FFFFFFF0001FFFFFFC000
310
7FFF0001FFFFFFC0007FFF0003FFFFFFFFF0003FFFFF0001F000E0003FFFFE00
310
03FF0003FFF000003FFE0003FF80007FC0007FFFFC0003FE0007FFFFE0003FF8
310
000001FFFE0000007FFFFFF0001FFFFFFF0000FFFFFF80007FFF0000FFFFFF80
310
007FFF0003FFFFFFFFF0003FFFFF0001F000E0003FFFFE0003FF0003FFF00000
310
3FFF0003FF80007FC0007FFFFC0007FE0007FFFFC0003FF8000001FFFE000000
310
7FFFFFF0001FFFFFFF80007FFFFF0000FFFF80007FFFFF0000FFFF0003FFFFFF
310
FFF0003FFFFF0003F000E0003FFFFC0003FE0003FFF000003FFF0003FF80007F
310
E0003FFFF80007FE0003FFFFC0007FF8000001FFFE0000007FFFFFF0001FFFFF
310
FF80003FFFFE0000FFFF80003FFFFE0000FFFF0003FFFFFFFFF0001FFFFE0003
310
F000F0001FFFF80003FE0003FFF000007FFF0001FF80007FE0003FFFF00007FE
310
0001FFFF80007FF8000001FFFE0000007FFFFFF0001FFFFFFFC0000FFFF80001
310
FFFFC0000FFFF80001FFFF0003FFFFFFFFF0001FFFFC0003F000F0000FFFF000
310
07FE0007FFF800007FFF0001FF80007FE0001FFFE00007FF0000FFFE00007FF8
310
000001FFFE0000007FFFFFF0001FFFFFFFC00003FFE00001FFFFC00003FFE000
310
01FFFF0003FFFFFFFFF8000FFFF80003F000F00003FFC00007FC0007FFF80000
310
7FFF8001FF80007FF00007FF80000FFF00007FF80000FFF8000001FFFE000000
310
7F80000000000001FFE000003E000003FFFFE000003E000003FFFF0003FFFFFF
310
FFF80003FFE00007F000F800000000000FFC0007FFF800007FFF8001FF80007F
310
F000000000000FFF000000000000FFF8000001FFFE0000007F80000000000001
310
FFF0000000000007FFFFF0000000000007FFFF0003FFFFFFFFFC00007E000007
310
F000F800000000000FFC0007FFF80000FFFF8000FF80007FF800000000001FFF
310
800000000001FFF8000001FFFE0000007F80000000000001FFF800000000000F
310
FFFFF800000000000FFFFF0003FFFFFFFFFC00000000000FF000FC0000000000
310
1FFC0007FFFC0000FFFF8000FF80007FF800000000003FFFC00000000001FFF8
310
000001FFFE0000007F80000000000001FFF800000000000FFFFFF80000000000
310
0FFFFF0003FFFFFFFFFE00000000001FF000FE00000000003FF8000FFFFC0000
310
FFFF8000FF80007FFC00000000003FFFC00000000003FFF8000001FFFE000000
310
7F80000000000001FFFC00000000001FFFFFFC00000000001FFFFF0003FFFFFF
310
FFFF00000000001FF000FF00000000003FF8000FFFFC0000FFFFC000FF80007F
310
FE00000000007FFFE00000000007FFF8000001FFFE0000007F80000000000001
310
FFFE00000000003FFFFFFE00000000003FFFFF0003FFFFFFFFFF80000000003F
310
F000FF80000000007FF8000FFFFC0001FFFFC0007F80007FFF0000000000FFFF
310
F0000000000FFFF800000000000000007F80000000000001FFFF8000000000FF
310
FFFFFF8000000000FFFFFF0003FFFFFFFFFFC0000000007FF000FFC000000000
310
FFF8000FFFFE0001FFFFC0007F80007FFF8000000001FFFFF8000000001FFFF8
310
00000000000000007F80000000000001FFFFC000000001FFFFFFFFC000000001
310
FFFFFF0003FFFFFFFFFFE000000000FFF000FFE000000003FFF0001FFFFE0001
310
FFFFC0007F80007FFFC000000007FFFFFE000000003FFFF80000000000000000
310
7F80000000000001FFFFE000000003FFFFFFFFE000000003FFFFFF0003FFFFFF
310
FFFFF000000003FFF000FFF80000000FFFF0001FFFFE0001FFFFE0007F80007F
310
FFF00000000FFFFFFF00000000FFFFF800000000000000007F80000000000001
310
FFFFF80000000FFFFFFFFFF80000000FFFFFFF0003FFFFFFFFFFFC0000000FFF
310
F000FFFE0000003FFFF0001FFFFE0003FFFFE0003F80007FFFFC0000003FFFFF
310
FFC0000003FFFFF800000000000000007F80000000000001FFFFFE0000003FFF
310
FFFFFFFE0000003FFFFFFF0003FFFFFFFFFFFF0000003FFFF000FFFF800000FF
310
FFF0001FFFFF0003FFFFE0003F80007FFFFF000001FFFFFFFFF800001FFFFFF8
310
00000000000000007F80000000000001FFFFFFC00001FFFFFFFFFFFFC00001FF
310
FFFFFF0003FFFFFFFFFFFFC00000FFFFF000FFFFF8000FFFFFFFFFFFFFFFFFFF
310
FFFFFFFFFFFFFFFFFFFFF0001FFFFFFFFFFF0000FFFFFFF80000000000000000
310
7FFFFFFFFFFFFFFFFFFFFFFC001FFFFFFFFFFFFFFC001FFFFFFFFFFFFFFFFFFF
310
FFFFFFFC001FFFFFF000FFFFFFFFFFFFFFFFFFFFFFFFFFFFFFFFFFFFFFFFFFFF
310
FFFFFFFFFFFFFFFFFFFFFFFFFFFFFFFFFFFFFFFFFFFFFFFFFFFFFFFFFFFFFFFF
310
FFFFFFFFFFFFFFFFFFFFFFFFFFFFFFFFFFFFFFFFFFFFFFFFFFFFFFFFFFFFFFFF
310
F000FFFFFFFFFFFFFFFFFFFFFFFFFFFFFFFFFFFFFFFFFFFFFFFFFFFFFFFFFFFF
310
FFFFFFFFFFFFFFFFFFFFFFFFFFFFFFFFFFFFFFFFFFFFFFFFFFFFFFFFFFFFFFFF
310
FFFFFFFFFFFFFFFFFFFFFFFFFFFFFFFFFFFFFFFFFFFFFFFFF000FFFFFFFFFFFF
310
FFFFFFFFFFFFFFFFFFFFFFFFFFFFFFFFFFFFFFFFFFFFFFFFFFFFFFFFFFFFFFFF
310
FFFFFFFFFFFFFFFFFFFFFFFFFFFFFFFFFFFFFFFFFFFFFFFFFFFFFFFFFFFFFFFF
310
FFFFFFFFFFFFFFFFFFFFFFFFFFFFFFFFF000FFFFFFFFFFFFFFFFFFFFFFFFFFFF
310
FFFFFFFFFFFFFFFFFFFFFFFFFFFFFFFFFFFFFFFFFFFFFFFFFFFFFFFFFFFFFFFF
310
FFFFFFFFFFFFFFFFFFFFFFFFFFFFFFFFFFFFFFFFFFFFFFFFFFFFFFFFFFFFFFFF
310
FFFFFFFFFFFFFFFFF000FFFFFFFFFFFFFFFFFFFFFFFFFFFFFFFFFFFFFFFFFFFF
310
FFFFFFFFFFFFFFFFFFFFFFFFFFFFFFFFFFFFFFFFFFFFFFFFFFFFFFFFFFFFFFFF
310
FFFFFFFFFFFFFFFFFFFFFFFFFFFFFFFFFFFFFFFFFFFFFFFFFFFFFFFFFFFFFFFF
310
F000FFFFFFFFFFFFFFFFFFFFFFFFFFFFFFFFFFFFFFFFFFFFFFFFFFFFFFFFFFFF
310
FFFFFFFFFFFFFFFFFFFFFFFFFFFFFFFFFFFFFFFFFFFFFFFFFFFFFFFFFFFFFFFF
310
FFFFFFFFFFFFFFFFFFFFFFFFFFFFFFFFFFFFFFFFFFFFFFFFF000FFFFFFFFFFFF
310
FFFFFFFFFFFFFFFFFFFFFFFFFFFFFFFFFFFFFFFFFFFFFFFFFFFFFFFFFFFFFFFF
310
FFFFFFFFFFFFFFFFFFFFFFFFFFFFFFFFFFFFFFFFFFFFFFFFFFFFFFFFFFFFFFFF
310
FFFFFFFFFFFFFFFFFFFFFFFFFFFFFFFFF000FFFFFFFFFFFFFFFFFFFFFFFFFFFF
310
FFFFFFFFFFFFFFFFFFFFFFFFFFFFFFFFFFFFFFFFFFFFFFFFFFFFFFFFFFFFFFFF
310
FFFFFFFFFFFFFFFFFFFFFFFFFFFFFFFFFFFFFFFFFFFFFFFFFFFFFFFFFFFFFFFF
310
FFFFFFFFFFFFFFFFF000FFFFFFFFFFFFFFFFFFFFFFFFFFFFFFFFFFFFFFFFFFFF
310
FFFFFFFFFFFFFFFFFFFFFFFFFFFFFFFFFFFFFFFFFFFFFFFFFFFFFFFFFFFFFFFF
310
FFFFFFFFFFFFFFFFFFFFFFFFFFFFFFFFFFFFFFFFFFFFFFFFFFFFFFFFFFFFFFFF
310
F000FFFFFFFFFFFFFFFFFFFFFFFFFFFFFFFFFFFFFFFFFFFFFFFFFFFFFFFFFFFF
310
FFFFFFFFFFFFFFFFFFFFFFFFFFFFFFFFFFFFFFFFFFFFFFFFFFFFFFFFFFFFFFFF
310
FFFFFFFFFFFFFFFFFFFFFFFFFFFFFFFFFFFFFFFFFFFFFFFFF000FFFFFFFFFFFF
310
FFFFFFFFFFFFFFFFFFFFFFFFFFFFFFFFFFFFFFFFFFFFFFFFFFFFFFFFFFFFFFFF
310
FFFFFFFFFFFFFFFFFFFFFFFFFFFFFFFFFFFFFFFFFFFFFFFFFFFFFFFFFFFFFFFF
310
FFFFFFFFFFFFFFFFFFFFFFFFFFFFFFFFF000FFFFFFFFFFFFFFFFFFFFFFFFFFFF
310
FFFFFFFFFFFFFFFFFFFFFFFFFFFFFFFFFFFFFFFFFFFFFFFFFFFFFFFFFFFFFFFF
310
FFFFFFFFFFFFFFFFFFFFFFFFFFFFFFFFFFFFFFFFFFFFFFFFFFFFFFFFFFFFFFFF
310
FFFFFFFFFFFFFFFFF000FFFFFFFFFFFFFFFFFFFFFFFFFFFFFFFFFFFFFFFFFFFF
310
FFFFFFFFFFFFFFFFFFFFFFFFFFFFFFFFFFFFFFFFFFFFFFFFFFFFFFFFFFFFFFFF
310
FFFFFFFFFFFFFFFFFFFFFFFFFFFFFFFFFFFFFFFFFFFFFFFFFFFFFFFFFFFFFFFF
310
F000FFFFFFFFFFFFFFFFFFFFFFFFFFFFFFFFFFFFFFFFFFFFFFFFFFFFFFFFFFFF
310
FFFFFFFFFFFFFFFFFFFFFFFFFFFFFFFFFFFFFFFFFFFFFFFFFFFFFFFFFFFFFFFF
310
FFFFFFFFFFFFFFFFFFFFFFFFFFFFFFFFFFFFFFFFFFFFFFFFF000FFFFFFFFFFFF
310
FFFFFFFFFFFFFFFFFFFFFFFFFFFFFFFFFFFFFFFFFFFFFFFFFFFFFFFFFFFFFFFF
310
FFFFFFFFFFFFFFFFFFFFFFFFFFFFFFFFFFFFFFFFFFFFFFFFFFFFFFFFFFFFFFFF
310
FFFFFFFFFFFFFFFFFFFFFFFFFFFFFFFFF000FFFFFFFFFFFFFFFFFFFFFFFFFFFF
310
FFFFFFFFFFFFFFFFFFFFFFFFFFFFFFFFFFFFFFFFFFFFFFFFFFFFFFFFFFFFFFFF
310
FFFFFFFFFFFFFFFFFFFFFFFFFFFFFFFFFFFFFFFFFFFFFFFFFFFFFFFFFFFFFFFF
310
FFFFFFFFFFFFFFFFF000FFFFFFFFFFFFFFFFFFFFFFFFFFFFFFFFFFFFFFFFFFFF
310
FFFFFFFFFFFFFFFFFFFFFFFFFFFFFFFFFFFFFFFFFFFFFFFFFFFFFFFFFFFFFFFF
310
FFFFFFFFFFFFFFFFFFFFFFFFFFFFFFFFFFFFFFFFFFFFFFFFFFFFFFFFFFFFFFFF
310
F000FFFFFFFFFFFFFFFFFFFFFFFFFFFFFFFFFFFFFFFFFFFFFFFFFFFFFFFFFFFF
310
FFFFFFFFFFFFFFFFFFFFFFFFFFFFFFFFFFFFFFFFFFFFFFFFFFFFFFFFFFFFFFFF
310
FFFFFFFFFFFFFFFFFFFFFFFFFFFFFFFFFFFFFFFFFFFFFFFFF000FFFFFFFFFFFF
310
FFFFFFFFFFFFFFFFFFFFFFFFFFFFFFFFFFFFFFFFFFFFFFFFFFFFFFFFFFFFFFFF
310
FFFFFFFFFFFFFFFFFFFFFFFFFFFFFFFFFFFFFFFFFFFFFFFFFFFFFFFFFFFFFFFF
310
FFFFFFFFFFFFFFFFFFFFFFFFFFFFFFFFF000FFFFFFFFFFFFFFFFFFFFFFFFFFFF
310
FFFFFFFFFFFFFFFFFFFFFFFFFFFFFFFFFFFFFFFFFFFFFFFFFFFFFFFFFFFFFFFF
310
FFFFFFFFFFFFFFFFFFFFFFFFFFFFFFFFFFFFFFFFFFFFFFFFFFFFFFFFFFFFFFFF
310
FFFFFFFFFFFFFFFFF000FFFFFFFFFFFFFFFFFFFFFFFFFFFFFFFFFFFFFFFFFFFF
310
FFFFFFFFFFFFFFFFFFFFFFFFFFFFFFFFFFFFFFFFFFFFFFFFFFFFFFFFFFFFFFFF
310
FFFFFFFFFFFFFFFFFFFFFFFFFFFFFFFFFFFFFFFFFFFFFFFFFFFFFFFFFFFFFFFF
310
F000FFFFFFFFFFFFFFFFFFFFFFFFFFFFFFFFFFFFFFFFFFFFFFFFFFFFFFFFFFFF
310
FFFFFFFFFFFFFFFFFFFFFFFFFFFFFFFFFFFFFFFFFFFFFFFFFFFFFFFFFFFFFFFF
310
FFFFFFFFFFFFFFFFFFFFFFFFFFFFFFFFFFFFFFFFFFFFFFFFF000FFFFFFFFFFFF
310
FFFFFFFFFFFFFFFFFFFFFFFFFFFFFFFFFFFFFFFFFFFFFFFFFFFFFFFFFFFFFFFF
310
FFFFFFFFFFFFFFFFFFFFFFFFFFFFFFFFFFFFFFFFFFFFFFFFFFFFFFFFFFFFFFFF
310
FFFFFFFFFFFFFFFFFFFFFFFFFFFFFFFFF0000000000000000000000000000000
310
0000000000000000000000000000000000000000000000000000000000000000
310
0000000000000000000000000000000000000000000000000000000000000000
310
0000000000000000000000000000000000000000000000000000000000000000
310
0000000000000000000000000000000000000000000000000000000000000000
310
0000000000000000000000000000000000000000000000000000000000000000
310
0000000000000000000000000000000000000000000000000000000000000000
310
0000000000000000000000000000000000000000000000000000000000000000
310
0000000000000000000000000000000000000000000000000000000000000000
310
0000000000000000000000000000000000000000000000000000000000000000
310
0000000000000000000000000000000000000000000000000000000000000000
310
0000000000000000000000000000000000000000000000000000000000000000
310
0000000000000000000000000000000000000000000000000000000000000000
310
0000000000000000000000000000000000000000000000000000000000000000
310
0000000000000000000000000000000000000000000000000000000000000000
310
0000000000000000000000000000000000000000000000000000000000000000
  1
OLE
  0
ENDSEC
  0
SECTION
  2
OBJECTS
  0
DICTIONARY
  5
C
330
0
100
AcDbDictionary
281
     1
  3
ACAD_GROUP
350
D
  3
ACAD_LAYOUT
350
1A
  3
ACAD_MLINESTYLE
350
17
  3
ACAD_PLOTSETTINGS
350
19
  3
ACAD_PLOTSTYLENAME
350
E
  3
ACAD_SCALELIST
350
47
  0
DICTIONARY
  5
D
102
{ACAD_REACTORS
330
C
102
}
330
C
100
AcDbDictionary
281
     1
  0
DICTIONARY
  5
1A
102
{ACAD_REACTORS
330
C
102
}
330
C
100
AcDbDictionary
281
     1
  3
Layout1
350
1E
  3
Layout2
350
26
  3
Model
350
22
  0
DICTIONARY
  5
17
102
{ACAD_REACTORS
330
C
102
}
330
C
100
AcDbDictionary
281
     1
  3
Standard
350
18
  0
DICTIONARY
  5
19
102
{ACAD_REACTORS
330
C
102
}
330
C
100
AcDbDictionary
281
     1
  0
ACDBDICTIONARYWDFLT
  5
E
102
{ACAD_REACTORS
330
C
102
}
330
C
100
AcDbDictionary
281
     1
  3
Normal
350
F
100
AcDbDictionaryWithDefault
340
F
  0
DICTIONARY
  5
47
102
{ACAD_REACTORS
330
C
102
}
330
C
100
AcDbDictionary
281
     1
  3
A0
350
48
  3
A1
350
49
  3
A2
350
4A
  3
A3
350
4B
  3
A4
350
4C
  3
A5
350
4D
  3
A6
350
4E
  3
A7
350
4F
  3
A8
350
50
  3
A9
350
51
  3
B0
350
52
  3
B1
350
53
  3
B2
350
54
  3
B3
350
55
  3
B4
350
56
  3
B5
350
57
  3
B6
350
58
  3
B7
350
59
  3
B8
350
5A
  3
B9
350
5B
  3
C0
350
5C
  3
C1
350
5D
  3
C2
350
5E
  3
C3
350
5F
  3
C4
350
60
  3
C5
350
61
  3
C6
350
62
  3
C7
350
63
  3
C8
350
64
  3
C9
350
65
  3
D0
350
66
  3
D1
350
67
  3
D2
350
68
  0
LAYOUT
  5
1E
102
{ACAD_REACTORS
330
1A
102
}
330
1A
100
AcDbPlotSettings
  1

  2
none_device
  4

  6

 40
0.0
 41
0.0
 42
0.0
 43
0.0
 44
0.0
 45
0.0
 46
0.0
 47
0.0
 48
0.0
 49
0.0
140
0.0
141
0.0
142
1.0
143
1.0
 70
   688
 72
     1
 73
     0
 74
     5
  7

 75
    16
147
1.0
148
0.0
149
0.0
100
AcDbLayout
  1
Layout1
 70
     1
 71
     1
 10
0.0
 20
0.0
 11
420.0
 21
297.0
 12
0.0
 22
0.0
 32
0.0
 14
1.0000000000E+20
 24
1.0000000000E+20
 34
1.0000000000E+20
 15
-1.0000000000E+20
 25
-1.0000000000E+20
 35
-1.0000000000E+20
146
0.0
 13
0.0
 23
0.0
 33
0.0
 16
1.0
 26
0.0
 36
0.0
 17
0.0
 27
1.0
 37
0.0
 76
     0
330
1B
  0
LAYOUT
  5
26
102
{ACAD_REACTORS
330
1A
102
}
330
1A
100
AcDbPlotSettings
  1

  2
none_device
  4

  6

 40
0.0
 41
0.0
 42
0.0
 43
0.0
 44
0.0
 45
0.0
 46
0.0
 47
0.0
 48
0.0
 49
0.0
140
0.0
141
0.0
142
1.0
143
1.0
 70
   688
 72
     1
 73
     0
 74
     5
  7

 75
    16
147
1.0
148
0.0
149
0.0
100
AcDbLayout
  1
Layout2
 70
     1
 71
     2
 10
0.0
 20
0.0
 11
0.0
 21
0.0
 12
0.0
 22
0.0
 32
0.0
 14
0.0
 24
0.0
 34
0.0
 15
0.0
 25
0.0
 35
0.0
146
0.0
 13
0.0
 23
0.0
 33
0.0
 16
1.0
 26
0.0
 36
0.0
 17
0.0
 27
1.0
 37
0.0
 76
     0
330
23
  0
LAYOUT
  5
22
102
{ACAD_REACTORS
330
1A
102
}
330
1A
100
AcDbPlotSettings
  1

  2
none_device
  4
Letter_(8.50_x_11.00_Inches)
  6

 40
6.35
 41
6.35
 42
6.35000508
 43
6.35000508
 44
215.9
 45
279.4
 46
0.0
 47
0.0
 48
0.0
 49
0.0
140
0.0
141
0.0
142
1.0
143
1.0
 70
  1712
 72
     1
 73
     0
 74
     0
  7

 75
     0
147
1.0
148
0.0
149
0.0
100
AcDbLayout
  1
Model
 70
     1
 71
     0
 10
0.0
 20
0.0
 11
297.0
 21
210.0
 12
0.0
 22
0.0
 32
0.0
 14
0.0
 24
0.0
 34
0.0
 15
297.0
 25
210.0
 35
0.0
146
0.0
 13
0.0
 23
0.0
 33
0.0
 16
1.0
 26
0.0
 36
0.0
 17
0.0
 27
1.0
 37
0.0
 76
     0
330
1F
331
29
  0
MLINESTYLE
  5
18
102
{ACAD_REACTORS
330
17
102
}
330
17
100
AcDbMlineStyle
  2
Standard
 70
     0
  3

 62
   256
 51
90.0
 52
90.0
 71
     2
 49
0.5
 62
   256
  6
BYLAYER
 49
-0.5
 62
   256
  6
BYLAYER
  0
ACDBPLACEHOLDER
  5
F
102
{ACAD_REACTORS
330
E
102
}
330
E
  0
SCALE
  5
48
102
{ACAD_REACTORS
330
47
102
}
330
47
100
AcDbScale
 70
     0
300
1:1
140
1.0
141
1.0
290
     1
  0
SCALE
  5
49
102
{ACAD_REACTORS
330
47
102
}
330
47
100
AcDbScale
 70
     0
300
1:2
140
1.0
141
2.0
290
     0
  0
SCALE
  5
4A
102
{ACAD_REACTORS
330
47
102
}
330
47
100
AcDbScale
 70
     0
300
1:4
140
1.0
141
4.0
290
     0
  0
SCALE
  5
4B
102
{ACAD_REACTORS
330
47
102
}
330
47
100
AcDbScale
 70
     0
300
1:5
140
1.0
141
5.0
290
     0
  0
SCALE
  5
4C
102
{ACAD_REACTORS
330
47
102
}
330
47
100
AcDbScale
 70
     0
300
1:8
140
1.0
141
8.0
290
     0
  0
SCALE
  5
4D
102
{ACAD_REACTORS
330
47
102
}
330
47
100
AcDbScale
 70
     0
300
1:10
140
1.0
141
10.0
290
     0
  0
SCALE
  5
4E
102
{ACAD_REACTORS
330
47
102
}
330
47
100
AcDbScale
 70
     0
300
1:16
140
1.0
141
16.0
290
     0
  0
SCALE
  5
4F
102
{ACAD_REACTORS
330
47
102
}
330
47
100
AcDbScale
 70
     0
300
1:20
140
1.0
141
20.0
290
     0
  0
SCALE
  5
50
102
{ACAD_REACTORS
330
47
102
}
330
47
100
AcDbScale
 70
     0
300
1:30
140
1.0
141
30.0
290
     0
  0
SCALE
  5
51
102
{ACAD_REACTORS
330
47
102
}
330
47
100
AcDbScale
 70
     0
300
1:40
140
1.0
141
40.0
290
     0
  0
SCALE
  5
52
102
{ACAD_REACTORS
330
47
102
}
330
47
100
AcDbScale
 70
     0
300
1:50
140
1.0
141
50.0
290
     0
  0
SCALE
  5
53
102
{ACAD_REACTORS
330
47
102
}
330
47
100
AcDbScale
 70
     0
300
1:100
140
1.0
141
100.0
290
     0
  0
SCALE
  5
54
102
{ACAD_REACTORS
330
47
102
}
330
47
100
AcDbScale
 70
     0
300
2:1
140
2.0
141
1.0
290
     0
  0
SCALE
  5
55
102
{ACAD_REACTORS
330
47
102
}
330
47
100
AcDbScale
 70
     0
300
4:1
140
4.0
141
1.0
290
     0
  0
SCALE
  5
56
102
{ACAD_REACTORS
330
47
102
}
330
47
100
AcDbScale
 70
     0
300
8:1
140
8.0
141
1.0
290
     0
  0
SCALE
  5
57
102
{ACAD_REACTORS
330
47
102
}
330
47
100
AcDbScale
 70
     0
300
10:1
140
10.0
141
1.0
290
     0
  0
SCALE
  5
58
102
{ACAD_REACTORS
330
47
102
}
330
47
100
AcDbScale
 70
     0
300
100:1
140
100.0
141
1.0
290
     0
  0
SCALE
  5
59
102
{ACAD_REACTORS
330
47
102
}
330
47
100
AcDbScale
 70
     0
300
1/128" = 1'-0"
140
0.0078125
141
12.0
290
     0
  0
SCALE
  5
5A
102
{ACAD_REACTORS
330
47
102
}
330
47
100
AcDbScale
 70
     0
300
1/64" = 1'-0"
140
0.015625
141
12.0
290
     0
  0
SCALE
  5
5B
102
{ACAD_REACTORS
330
47
102
}
330
47
100
AcDbScale
 70
     0
300
1/32" = 1'-0"
140
0.03125
141
12.0
290
     0
  0
SCALE
  5
5C
102
{ACAD_REACTORS
330
47
102
}
330
47
100
AcDbScale
 70
     0
300
1/16" = 1'-0"
140
0.0625
141
12.0
290
     0
  0
SCALE
  5
5D
102
{ACAD_REACTORS
330
47
102
}
330
47
100
AcDbScale
 70
     0
300
3/32" = 1'-0"
140
0.09375
141
12.0
290
     0
  0
SCALE
  5
5E
102
{ACAD_REACTORS
330
47
102
}
330
47
100
AcDbScale
 70
     0
300
1/8" = 1'-0"
140
0.125
141
12.0
290
     0
  0
SCALE
  5
5F
102
{ACAD_REACTORS
330
47
102
}
330
47
100
AcDbScale
 70
     0
300
3/16" = 1'-0"
140
0.1875
141
12.0
290
     0
  0
SCALE
  5
60
102
{ACAD_REACTORS
330
47
102
}
330
47
100
AcDbScale
 70
     0
300
1/4" = 1'-0"
140
0.25
141
12.0
290
     0
  0
SCALE
  5
61
102
{ACAD_REACTORS
330
47
102
}
330
47
100
AcDbScale
 70
     0
300
3/8" = 1'-0"
140
0.375
141
12.0
290
     0
  0
SCALE
  5
62
102
{ACAD_REACTORS
330
47
102
}
330
47
100
AcDbScale
 70
     0
300
1/2" = 1'-0"
140
0.5
141
12.0
290
     0
  0
SCALE
  5
63
102
{ACAD_REACTORS
330
47
102
}
330
47
100
AcDbScale
 70
     0
300
3/4" = 1'-0"
140
0.75
141
12.0
290
     0
  0
SCALE
  5
64
102
{ACAD_REACTORS
330
47
102
}
330
47
100
AcDbScale
 70
     0
300
1" = 1'-0"
140
1.0
141
12.0
290
     0
  0
SCALE
  5
65
102
{ACAD_REACTORS
330
47
102
}
330
47
100
AcDbScale
 70
     0
300
1-1/2" = 1'-0"
140
1.5
141
12.0
290
     0
  0
SCALE
  5
66
102
{ACAD_REACTORS
330
47
102
}
330
47
100
AcDbScale
 70
     0
300
3" = 1'-0"
140
3.0
141
12.0
290
     0
  0
SCALE
  5
67
102
{ACAD_REACTORS
330
47
102
}
330
47
100
AcDbScale
 70
     0
300
6" = 1'-0"
140
6.0
141
12.0
290
     0
  0
SCALE
  5
68
102
{ACAD_REACTORS
330
47
102
}
330
47
100
AcDbScale
 70
     0
300
1'-0" = 1'-0"
140
12.0
141
12.0
290
     0
  0
ENDSEC
  0
EOF
