  0
SECTION
  2
HEADER
  9
$ACADVER
  1
AC1015
  9
$ACADMAINTVER
 70
     6
  9
$DWGCODEPAGE
  3
ANSI_1252
  9
$INSBASE
 10
0.0
 20
0.0
 30
0.0
  9
$EXTMIN
 10
0.0
 20
0.0
 30
0.0
  9
$EXTMAX
 10
297.0
 20
210.0
 30
0.0
  9
$LIMMIN
 10
0.0
 20
0.0
  9
$LIMMAX
 10
297.0
 20
210.0
  9
$ORTHOMODE
 70
     0
  9
$REGENMODE
 70
     1
  9
$FILLMODE
 70
     1
  9
$QTEXTMODE
 70
     0
  9
$MIRRTEXT
 70
     1
  9
$LTSCALE
 40
1.0
  9
$ATTMODE
 70
     1
  9
$TEXTSIZE
 40
2.0
  9
$TRACEWID
 40
1.0
  9
$TEXTSTYLE
  7
Standard
  9
$CLAYER
  8
0
  9
$CELTYPE
  6
ByLayer
  9
$CECOLOR
 62
   256
  9
$CELTSCALE
 40
1.0
  9
$DISPSILH
 70
     0
  9
$DIMSCALE
 40
1.0
  9
$DIMASZ
 40
3.0
  9
$DIMEXO
 40
0.0
  9
$DIMDLI
 40
3.75
  9
$DIMRND
 40
0.0
  9
$DIMDLE
 40
0.0
  9
$DIMEXE
 40
1.0
  9
$DIMTP
 40
0.0
  9
$DIMTM
 40
0.0
  9
$DIMTXT
 40
2.0
  9
$DIMCEN
 40
2.5
  9
$DIMTSZ
 40
0.0
  9
$DIMTOL
 70
     0
  9
$DIMLIM
 70
     0
  9
$DIMTIH
 70
     1
  9
$DIMTOH
 70
     1
  9
$DIMSE1
 70
     0
  9
$DIMSE2
 70
     0
  9
$DIMTAD
 70
     1
  9
$DIMZIN
 70
     0
  9
$DIMBLK
  1

  9
$DIMASO
 70
     1
  9
$DIMSHO
 70
     1
  9
$DIMPOST
  1

  9
$DIMAPOST
  1

  9
$DIMALT
 70
     0
  9
$DIMALTD
 70
     3
  9
$DIMALTF
 40
0.0393700787
  9
$DIMLFAC
 40
2.0
  9
$DIMTOFL
 70
     1
  9
$DIMTVP
 40
0.0
  9
$DIMTIX
 70
     0
  9
$DIMSOXD
 70
     0
  9
$DIMSAH
 70
     0
  9
$DIMBLK1
  1

  9
$DIMBLK2
  1

  9
$DIMSTYLE
  2
ISO-25
  9
$DIMCLRD
 70
     0
  9
$DIMCLRE
 70
     0
  9
$DIMCLRT
 70
     0
  9
$DIMTFAC
 40
1.0
  9
$DIMGAP
 40
1.524
  9
$DIMJUST
 70
     0
  9
$DIMSD1
 70
     0
  9
$DIMSD2
 70
     0
  9
$DIMTOLJ
 70
     0
  9
$DIMTZIN
 70
     0
  9
$DIMALTZ
 70
     0
  9
$DIMALTTZ
 70
     0
  9
$DIMUPT
 70
     0
  9
$DIMDEC
 70
     2
  9
$DIMTDEC
 70
     3
  9
$DIMALTU
 70
     2
  9
$DIMALTTD
 70
     3
  9
$DIMTXSTY
  7
Standard
  9
$DIMAUNIT
 70
     0
  9
$DIMADEC
 70
     2
  9
$DIMALTRND
 40
0.0
  9
$DIMAZIN
 70
     0
  9
$DIMDSEP
 70
    44
  9
$DIMATFIT
 70
     3
  9
$DIMFRAC
 70
     0
  9
$DIMLDRBLK
  1

  9
$DIMLUNIT
 70
     2
  9
$DIMLWD
 70
    -2
  9
$DIMLWE
 70
    -2
  9
$DIMTMOVE
 70
     0
  9
$LUNITS
 70
     2
  9
$LUPREC
 70
     2
  9
$SKETCHINC
 40
1.0
  9
$FILLETRAD
 40
10.0
  9
$AUNITS
 70
     0
  9
$AUPREC
 70
     2
  9
$MENU
  1
.
  9
$ELEVATION
 40
0.0
  9
$PELEVATION
 40
0.0
  9
$THICKNESS
 40
0.0
  9
$LIMCHECK
 70
     0
  9
$CHAMFERA
 40
0.0
  9
$CHAMFERB
 40
0.0
  9
$CHAMFERC
 40
0.0
  9
$CHAMFERD
 40
0.0
  9
$SKPOLY
 70
     0
  9
$TDCREATE
 40
2458169.63593147
  9
$TDUCREATE
 40
2458169.594264803
  9
$TDUPDATE
 40
2458169.635933715
  9
$TDUUPDATE
 40
2458169.594267048
  9
$TDINDWG
 40
0.0000000116
  9
$TDUSRTIMER
 40
0.0000000116
  9
$USRTIMER
 70
     1
  9
$ANGBASE
 50
0.0
  9
$ANGDIR
 70
     0
  9
$PDMODE
 70
     0
  9
$PDSIZE
 40
-1.0
  9
$PLINEWID
 40
0.0
  9
$SPLFRAME
 70
     0
  9
$SPLINETYPE
 70
     6
  9
$SPLINESEGS
 70
     8
  9
$HANDSEED
  5
245
  9
$SURFTAB1
 70
     6
  9
$SURFTAB2
 70
     6
  9
$SURFTYPE
 70
     6
  9
$SURFU
 70
     6
  9
$SURFV
 70
     6
  9
$UCSBASE
  2

  9
$UCSNAME
  2

  9
$UCSORG
 10
0.0
 20
0.0
 30
0.0
  9
$UCSXDIR
 10
1.0
 20
0.0
 30
0.0
  9
$UCSYDIR
 10
0.0
 20
1.0
 30
0.0
  9
$UCSORTHOREF
  2

  9
$UCSORTHOVIEW
 70
     0
  9
$UCSORGTOP
 10
0.0
 20
0.0
 30
0.0
  9
$UCSORGBOTTOM
 10
0.0
 20
0.0
 30
0.0
  9
$UCSORGLEFT
 10
0.0
 20
0.0
 30
0.0
  9
$UCSORGRIGHT
 10
0.0
 20
0.0
 30
0.0
  9
$UCSORGFRONT
 10
0.0
 20
0.0
 30
0.0
  9
$UCSORGBACK
 10
0.0
 20
0.0
 30
0.0
  9
$PUCSBASE
  2

  9
$PUCSNAME
  2

  9
$PUCSORG
 10
0.0
 20
0.0
 30
0.0
  9
$PUCSXDIR
 10
1.0
 20
0.0
 30
0.0
  9
$PUCSYDIR
 10
0.0
 20
1.0
 30
0.0
  9
$PUCSORTHOREF
  2

  9
$PUCSORTHOVIEW
 70
     0
  9
$PUCSORGTOP
 10
0.0
 20
0.0
 30
0.0
  9
$PUCSORGBOTTOM
 10
0.0
 20
0.0
 30
0.0
  9
$PUCSORGLEFT
 10
0.0
 20
0.0
 30
0.0
  9
$PUCSORGRIGHT
 10
0.0
 20
0.0
 30
0.0
  9
$PUCSORGFRONT
 10
0.0
 20
0.0
 30
0.0
  9
$PUCSORGBACK
 10
0.0
 20
0.0
 30
0.0
  9
$USERI1
 70
     0
  9
$USERI2
 70
     0
  9
$USERI3
 70
     0
  9
$USERI4
 70
     0
  9
$USERI5
 70
     0
  9
$USERR1
 40
0.0
  9
$USERR2
 40
0.0
  9
$USERR3
 40
0.0
  9
$USERR4
 40
0.0
  9
$USERR5
 40
0.0
  9
$WORLDVIEW
 70
     1
  9
$SHADEDGE
 70
     3
  9
$SHADEDIF
 70
    70
  9
$TILEMODE
 70
     1
  9
$MAXACTVP
 70
    64
  9
$PINSBASE
 10
0.0
 20
0.0
 30
0.0
  9
$PLIMCHECK
 70
     0
  9
$PEXTMIN
 10
1.0000000000E+20
 20
1.0000000000E+20
 30
1.0000000000E+20
  9
$PEXTMAX
 10
-1.0000000000E+20
 20
-1.0000000000E+20
 30
-1.0000000000E+20
  9
$PLIMMIN
 10
0.0
 20
0.0
  9
$PLIMMAX
 10
420.0
 20
297.0
  9
$UNITMODE
 70
     0
  9
$VISRETAIN
 70
     1
  9
$PLINEGEN
 70
     0
  9
$PSLTSCALE
 70
     1
  9
$TREEDEPTH
 70
  3020
  9
$CMLSTYLE
  2
Standard
  9
$CMLJUST
 70
     0
  9
$CMLSCALE
 40
20.0
  9
$PROXYGRAPHICS
 70
     1
  9
$MEASUREMENT
 70
     1
  9
$CELWEIGHT
370
    -1
  9
$ENDCAPS
280
     0
  9
$JOINSTYLE
280
     0
  9
$LWDISPLAY
290
     1
  9
$INSUNITS
 70
     4
  9
$HYPERLINKBASE
  1

  9
$STYLESHEET
  1

  9
$XEDIT
290
     1
  9
$CEPSNTYPE
380
     0
  9
$PSTYLEMODE
290
     1
  9
$FINGERPRINTGUID
  2
{F2D6E30B-31AF-4366-AE10-49F4B25D01CC}
  9
$VERSIONGUID
  2
{FAEB1C32-E019-11D5-929B-00C0DF256EC4}
  9
$EXTNAMES
290
     1
  9
$PSVPSCALE
 40
0.0
  9
$OLESTARTUP
290
     0
  0
ENDSEC
  0
SECTION
  2
CLASSES
  0
CLASS
  1
ACDBDICTIONARYWDFLT
  2
AcDbDictionaryWithDefault
  3
ObjectDBX Classes
 90
        0
280
     0
281
     0
  0
CLASS
  1
VISUALSTYLE
  2
AcDbVisualStyle
  3
ObjectDBX Classes
 90
     4095
280
     0
281
     0
  0
CLASS
  1
MATERIAL
  2
AcDbMaterial
  3
ObjectDBX Classes
 90
     1153
280
     0
281
     0
  0
CLASS
  1
SCALE
  2
AcDbScale
  3
ObjectDBX Classes
 90
     1153
280
     0
281
     0
  0
CLASS
  1
TABLESTYLE
  2
AcDbTableStyle
  3
ObjectDBX Classes
 90
     4095
280
     0
281
     0
  0
CLASS
  1
MLEADERSTYLE
  2
AcDbMLeaderStyle
  3
ACDB_MLEADERSTYLE_CLASS
 90
     4095
280
     0
281
     0
  0
CLASS
  1
SUN
  2
AcDbSun
  3
SCENEOE
 90
     1153
280
     0
281
     0
  0
CLASS
  1
ACDBPLACEHOLDER
  2
AcDbPlaceHolder
  3
ObjectDBX Classes
 90
        0
280
     0
281
     0
  0
CLASS
  1
LAYOUT
  2
AcDbLayout
  3
ObjectDBX Classes
 90
        0
280
     0
281
     0
  0
ENDSEC
  0
SECTION
  2
TABLES
  0
TABLE
  2
VPORT
  5
8
330
0
100
AcDbSymbolTable
 70
     1
  0
VPORT
  5
29
330
8
100
AcDbSymbolTableRecord
100
AcDbViewportTableRecord
  2
*Active
 70
     0
 10
0.0
 20
0.0
 11
1.0
 21
1.0
 12
148.5
 22
105.0
 13
0.0
 23
0.0
 14
10.0
 24
10.0
 15
10.0
 25
10.0
 16
0.0
 26
0.0
 36
1.0
 17
0.0
 27
0.0
 37
0.0
 40
210.0
 41
1.4142857143
 42
50.0
 43
0.0
 44
0.0
 50
0.0
 51
0.0
 71
     0
 72
  2000
 73
     1
 74
     3
 75
     0
 76
     0
 77
     0
 78
     0
281
     0
 65
     1
110
0.0
120
0.0
130
0.0
111
1.0
121
0.0
131
0.0
112
0.0
122
1.0
132
0.0
 79
     0
146
0.0
  0
ENDTAB
  0
TABLE
  2
LTYPE
  5
5
330
0
100
AcDbSymbolTable
 70
     6
  0
LTYPE
  5
14
330
5
100
AcDbSymbolTableRecord
100
AcDbLinetypeTableRecord
  2
ByBlock
 70
     0
  3

 72
    65
 73
     0
 40
0.0
  0
LTYPE
  5
15
330
5
100
AcDbSymbolTableRecord
100
AcDbLinetypeTableRecord
  2
ByLayer
 70
     0
  3

 72
    65
 73
     0
 40
0.0
  0
LTYPE
  5
16
330
5
100
AcDbSymbolTableRecord
100
AcDbLinetypeTableRecord
  2
Continuous
 70
     0
  3
Solid line
 72
    65
 73
     0
 40
0.0
  0
LTYPE
  5
6E
330
5
100
AcDbSymbolTableRecord
100
AcDbLinetypeTableRecord
  2
HIDDEN
 70
     0
  3
Hidden __ __ __ __ __ __ __ __ __ __ __ __ __ __
 72
    65
 73
     2
 40
1.905
 49
1.27
 74
     0
 49
-0.635
 74
     0
  0
LTYPE
  5
6F
330
5
100
AcDbSymbolTableRecord
100
AcDbLinetypeTableRecord
  2
PHANTOM
 70
     0
  3
Phantom ______  __  __  ______  __  __  ______
 72
    65
 73
     6
 40
12.7
 49
6.35
 74
     0
 49
-1.27
 74
     0
 49
1.27
 74
     0
 49
-1.27
 74
     0
 49
1.27
 74
     0
 49
-1.27
 74
     0
  0
LTYPE
  5
70
330
5
100
AcDbSymbolTableRecord
100
AcDbLinetypeTableRecord
  2
CENTER
 70
     0
  3
Center ____ _ ____ _ ____ _ ____ _ ____ _ ____
 72
    65
 73
     4
 40
10.16
 49
6.35
 74
     0
 49
-1.27
 74
     0
 49
1.27
 74
     0
 49
-1.27
 74
     0
  0
LTYPE
  5
71
330
5
100
AcDbSymbolTableRecord
100
AcDbLinetypeTableRecord
  2
CENTERX2
 70
     0
  3
Center (2x) ________  __  ________  __  _____
 72
    65
 73
     4
 40
20.32
 49
12.7
 74
     0
 49
-2.54
 74
     0
 49
2.54
 74
     0
 49
-2.54
 74
     0
  0
LTYPE
  5
72
330
5
100
AcDbSymbolTableRecord
100
AcDbLinetypeTableRecord
  2
DOT2
 70
     0
  3
Dot (.5x) ........................................
 72
    65
 73
     2
 40
0.635
 49
0.0
 74
     0
 49
-0.635
 74
     0
  0
ENDTAB
  0
TABLE
  2
LAYER
  5
2
330
0
100
AcDbSymbolTable
 70
     5
  0
LAYER
  5
10
330
2
100
AcDbSymbolTableRecord
100
AcDbLayerTableRecord
  2
0
 70
     0
 62
     7
  6
Continuous
370
    -3
390
F
  0
LAYER
  5
73
330
2
100
AcDbSymbolTableRecord
100
AcDbLayerTableRecord
  2
FORMAT
 70
     0
 62
     7
  6
Continuous
370
    -3
390
F
  0
LAYER
  5
74
330
2
100
AcDbSymbolTableRecord
100
AcDbLayerTableRecord
  2
VERMASSUNG
 70
     0
 62
     7
  6
Continuous
370
    -3
390
F
  0
LAYER
  5
75
330
2
100
AcDbSymbolTableRecord
100
AcDbLayerTableRecord
  2
KOPF_DÜNN
 70
     0
 62
     7
  6
Continuous
370
    -3
390
F
  0
LAYER
  5
76
330
2
100
AcDbSymbolTableRecord
100
AcDbLayerTableRecord
  2
KOPF_DICK
 70
     0
 62
     7
  6
Continuous
370
    25
390
F
  0
ENDTAB
  0
TABLE
  2
STYLE
  5
3
330
0
100
AcDbSymbolTable
 70
     2
  0
STYLE
  5
11
330
3
100
AcDbSymbolTableRecord
100
AcDbTextStyleTableRecord
  2
Standard
 70
     0
 40
0.0
 41
1.0
 50
0.0
 71
     0
 42
2.0
  3
txt
  4

  0
STYLE
  5
77
330
3
100
AcDbSymbolTableRecord
100
AcDbTextStyleTableRecord
  2
SLDTEXTSTYLE0
 70
     0
 40
0.0
 41
0.7
 50
0.0
 71
     0
 42
2.0
  3
TXT
  4

  0
ENDTAB
  0
TABLE
  2
VIEW
  5
6
330
0
100
AcDbSymbolTable
 70
     0
  0
ENDTAB
  0
TABLE
  2
UCS
  5
7
330
0
100
AcDbSymbolTable
 70
     0
  0
ENDTAB
  0
TABLE
  2
APPID
  5
9
330
0
100
AcDbSymbolTable
 70
     1
  0
APPID
  5
12
330
9
100
AcDbSymbolTableRecord
100
AcDbRegAppTableRecord
  2
ACAD
 70
     0
  0
ENDTAB
  0
TABLE
  2
DIMSTYLE
  5
A
330
0
100
AcDbSymbolTable
 70
     3
100
AcDbDimStyleTable
  0
DIMSTYLE
105
27
330
A
100
AcDbSymbolTableRecord
100
AcDbDimStyleTableRecord
  2
ISO-25
 70
     0
 41
2.5
 42
0.625
 43
3.75
 44
1.25
 73
     0
 74
     0
 77
     1
 78
     8
140
2.5
141
2.5
143
0.0393700787
147
0.625
171
     3
172
     1
178
     0
271
     2
272
     2
274
     3
278
    44
283
     0
284
     8
340
11
  0
DIMSTYLE
105
112
102
{ACAD_REACTORS
330
111
330
11D
330
134
330
13E
330
148
330
152
102
}
330
A
100
AcDbSymbolTableRecord
100
AcDbDimStyleTableRecord
  2
SLDDIMSTYLE0
 70
     0
 41
3.0
 44
0.0
 45
0.000000001
 73
     0
 74
     0
 77
     1
 78
    12
 79
     3
140
2.0
147
0.5
173
     1
178
     0
271
     2
272
     3
276
     2
284
    12
340
77
  0
DIMSTYLE
105
129
102
{ACAD_REACTORS
330
128
330
15C
102
}
330
A
100
AcDbSymbolTableRecord
100
AcDbDimStyleTableRecord
  2
SLDDIMSTYLE1
 70
     0
 41
3.0
 44
0.0
 45
0.000000001
 73
     0
 74
     0
 77
     1
 78
    12
 79
     3
140
2.0
147
0.5
173
     1
178
     0
271
     0
272
     3
276
     2
284
    12
340
77
  0
ENDTAB
  0
TABLE
  2
BLOCK_RECORD
  5
1
330
0
100
AcDbSymbolTable
 70
     9
  0
BLOCK_RECORD
  5
1F
330
1
100
AcDbSymbolTableRecord
100
AcDbBlockTableRecord
  2
*Model_Space
340
22
  0
BLOCK_RECORD
  5
1B
330
1
100
AcDbSymbolTableRecord
100
AcDbBlockTableRecord
  2
*Paper_Space
340
1E
  0
BLOCK_RECORD
  5
23
330
1
100
AcDbSymbolTableRecord
100
AcDbBlockTableRecord
  2
*Paper_Space0
340
26
  0
BLOCK_RECORD
  5
113
330
1
100
AcDbSymbolTableRecord
100
AcDbBlockTableRecord
  2
_D
340
0
  0
BLOCK_RECORD
  5
11E
330
1
100
AcDbSymbolTableRecord
100
AcDbBlockTableRecord
  2
_D_1
340
0
  0
BLOCK_RECORD
  5
12A
330
1
100
AcDbSymbolTableRecord
100
AcDbBlockTableRecord
  2
_D_2
340
0
  0
BLOCK_RECORD
  5
135
330
1
100
AcDbSymbolTableRecord
100
AcDbBlockTableRecord
  2
_D_3
340
0
  0
BLOCK_RECORD
  5
13F
330
1
100
AcDbSymbolTableRecord
100
AcDbBlockTableRecord
  2
_D_4
340
0
  0
BLOCK_RECORD
  5
149
330
1
100
AcDbSymbolTableRecord
100
AcDbBlockTableRecord
  2
_D_5
340
0
  0
BLOCK_RECORD
  5
153
330
1
100
AcDbSymbolTableRecord
100
AcDbBlockTableRecord
  2
_D_6
340
0
  0
BLOCK_RECORD
  5
15D
330
1
100
AcDbSymbolTableRecord
100
AcDbBlockTableRecord
  2
_D_7
340
0
  0
ENDTAB
  0
ENDSEC
  0
SECTION
  2
BLOCKS
  0
BLOCK
  5
20
330
1F
100
AcDbEntity
  8
0
100
AcDbBlockBegin
  2
*Model_Space
 70
     0
 10
0.0
 20
0.0
 30
0.0
  3
*Model_Space
  1

  0
ENDBLK
  5
21
330
1F
100
AcDbEntity
  8
0
100
AcDbBlockEnd
  0
BLOCK
  5
1C
330
1B
100
AcDbEntity
 67
     1
  8
0
100
AcDbBlockBegin
  2
*Paper_Space
 70
     0
 10
0.0
 20
0.0
 30
0.0
  3
*Paper_Space
  1

  0
ENDBLK
  5
1D
330
1B
100
AcDbEntity
 67
     1
  8
0
100
AcDbBlockEnd
  0
BLOCK
  5
24
330
23
100
AcDbEntity
  8
0
100
AcDbBlockBegin
  2
*Paper_Space0
 70
     0
 10
0.0
 20
0.0
 30
0.0
  3
*Paper_Space0
  1

  0
ENDBLK
  5
25
330
23
100
AcDbEntity
  8
0
100
AcDbBlockEnd
  0
BLOCK
  5
114
330
113
100
AcDbEntity
  8
0
100
AcDbBlockBegin
  2
_D
 70
     0
 10
0.0
 20
0.0
 30
0.0
  3
_D
  1

  0
SOLID
  5
116
330
113
100
AcDbEntity
  8
VERMASSUNG
100
AcDbTrace
 10
261.5944500191
 20
116.864363992
 30
0.0
 11
262.0444500191
 21
119.864363992
 31
0.0
 12
261.1444500191
 22
119.864363992
 32
0.0
 13
261.1444500191
 23
119.864363992
 33
0.0
  0
SOLID
  5
117
330
113
100
AcDbEntity
  8
VERMASSUNG
100
AcDbTrace
 10
261.5944500191
 20
143.864363992
 30
0.0
 11
261.1444500191
 21
140.864363992
 31
0.0
 12
262.0444500191
 22
140.864363992
 32
0.0
 13
262.0444500191
 23
140.864363992
 33
0.0
  0
LINE
  5
118
330
113
100
AcDbEntity
  8
VERMASSUNG
100
AcDbLine
 10
223.7944500191
 20
116.864363992
 30
0.0
 11
262.5944500191
 21
116.864363992
 31
0.0
  0
LINE
  5
119
330
113
100
AcDbEntity
  8
VERMASSUNG
100
AcDbLine
 10
223.7944500191
 20
143.864363992
 30
0.0
 11
262.5944500191
 21
143.864363992
 31
0.0
  0
LINE
  5
11A
330
113
100
AcDbEntity
  8
VERMASSUNG
100
AcDbLine
 10
261.5944500191
 20
116.864363992
 30
0.0
 11
261.5944500191
 21
143.864363992
 31
0.0
  0
MTEXT
  5
11B
330
113
100
AcDbEntity
  8
VERMASSUNG
100
AcDbMText
 10
259.0163147141
 20
127.1593640348
 30
0.0
 40
2.0
 41
0.0
 71
     1
 72
     1
  1
%%c
  7
SLDTEXTSTYLE0
 11
6.123233995736766E-17
 21
1.0
 31
0.0
 73
     1
 44
1.0
  0
MTEXT
  5
11C
330
113
100
AcDbEntity
  8
VERMASSUNG
100
AcDbMText
 10
258.8163147628
 20
130.7693640491
 30
0.0
 40
2.0
 41
0.0
 71
     1
 72
     1
  1
27
  7
SLDTEXTSTYLE0
 11
6.123233995736766E-17
 21
1.0
 31
0.0
 73
     1
 44
1.0
  0
ENDBLK
  5
115
330
113
100
AcDbEntity
  8
0
100
AcDbBlockEnd
  0
BLOCK
  5
11F
330
11E
100
AcDbEntity
  8
0
100
AcDbBlockBegin
  2
_D_1
 70
     0
 10
0.0
 20
0.0
 30
0.0
  3
_D_1
  1

  0
SOLID
  5
121
330
11E
100
AcDbEntity
  8
VERMASSUNG
100
AcDbTrace
 10
270.463281722
 20
159.364363992
 30
0.0
 11
270.013281722
 21
156.364363992
 31
0.0
 12
270.913281722
 22
156.364363992
 32
0.0
 13
270.913281722
 23
156.364363992
 33
0.0
  0
SOLID
  5
122
330
11E
100
AcDbEntity
  8
VERMASSUNG
100
AcDbTrace
 10
270.463281722
 20
101.364363992
 30
0.0
 11
270.913281722
 21
104.364363992
 31
0.0
 12
270.013281722
 22
104.364363992
 32
0.0
 13
270.013281722
 23
104.364363992
 33
0.0
  0
LINE
  5
123
330
11E
100
AcDbEntity
  8
VERMASSUNG
100
AcDbLine
 10
202.7944500191
 20
159.364363992
 30
0.0
 11
271.463281722
 21
159.364363992
 31
0.0
  0
LINE
  5
124
330
11E
100
AcDbEntity
  8
VERMASSUNG
100
AcDbLine
 10
202.7944500191
 20
101.364363992
 30
0.0
 11
271.463281722
 21
101.364363992
 31
0.0
  0
LINE
  5
125
330
11E
100
AcDbEntity
  8
VERMASSUNG
100
AcDbLine
 10
270.463281722
 20
159.364363992
 30
0.0
 11
270.463281722
 21
101.364363992
 31
0.0
  0
MTEXT
  5
126
330
11E
100
AcDbEntity
  8
VERMASSUNG
100
AcDbMText
 10
267.8851464171
 20
127.1593640348
 30
0.0
 40
2.0
 41
0.0
 71
     1
 72
     1
  1
%%c
  7
SLDTEXTSTYLE0
 11
-7.044195017643634E-15
 21
1.0
 31
0.0
 73
     1
 44
1.0
  0
MTEXT
  5
127
330
11E
100
AcDbEntity
  8
VERMASSUNG
100
AcDbMText
 10
267.6851464658
 20
130.7693640491
 30
0.0
 40
2.0
 41
0.0
 71
     1
 72
     1
  1
58
  7
SLDTEXTSTYLE0
 11
-7.044195017643634E-15
 21
1.0
 31
0.0
 73
     1
 44
1.0
  0
ENDBLK
  5
120
330
11E
100
AcDbEntity
  8
0
100
AcDbBlockEnd
  0
BLOCK
  5
12B
330
12A
100
AcDbEntity
  8
0
100
AcDbBlockBegin
  2
_D_2
 70
     0
 10
0.0
 20
0.0
 30
0.0
  3
_D_2
  1

  0
SOLID
  5
12D
330
12A
100
AcDbEntity
  8
VERMASSUNG
100
AcDbTrace
 10
43.6444250191
 20
98.889363992
 30
0.0
 11
44.0944250191
 21
101.889363992
 31
0.0
 12
43.1944250191
 22
101.889363992
 32
0.0
 13
43.1944250191
 23
101.889363992
 33
0.0
  0
SOLID
  5
12E
330
12A
100
AcDbEntity
  8
VERMASSUNG
100
AcDbTrace
 10
43.6444250191
 20
161.839363992
 30
0.0
 11
43.1944250191
 21
158.839363992
 31
0.0
 12
44.0944250191
 22
158.839363992
 32
0.0
 13
44.0944250191
 23
158.839363992
 33
0.0
  0
LINE
  5
12F
330
12A
100
AcDbEntity
  8
VERMASSUNG
100
AcDbLine
 10
93.7944500191
 20
98.889363992
 30
0.0
 11
42.6444250191
 21
98.889363992
 31
0.0
  0
LINE
  5
130
330
12A
100
AcDbEntity
  8
VERMASSUNG
100
AcDbLine
 10
93.7944500191
 20
161.839363992
 30
0.0
 11
42.6444250191
 21
161.839363992
 31
0.0
  0
LINE
  5
131
330
12A
100
AcDbEntity
  8
VERMASSUNG
100
AcDbLine
 10
43.6444250191
 20
98.889363992
 30
0.0
 11
43.6444250191
 21
161.839363992
 31
0.0
  0
MTEXT
  5
132
330
12A
100
AcDbEntity
  8
VERMASSUNG
100
AcDbMText
 10
41.0662897141
 20
127.1593640348
 30
0.0
 40
2.0
 41
0.0
 71
     1
 72
     1
  1
%%c
  7
SLDTEXTSTYLE0
 11
6.123233995736766E-17
 21
1.0
 31
0.0
 73
     1
 44
1.0
  0
MTEXT
  5
133
330
12A
100
AcDbEntity
  8
VERMASSUNG
100
AcDbMText
 10
40.8662897628
 20
130.7693640491
 30
0.0
 40
2.0
 41
0.0
 71
     1
 72
     1
  1
63
  7
SLDTEXTSTYLE0
 11
6.123233995736766E-17
 21
1.0
 31
0.0
 73
     1
 44
1.0
  0
ENDBLK
  5
12C
330
12A
100
AcDbEntity
  8
0
100
AcDbBlockEnd
  0
BLOCK
  5
136
330
135
100
AcDbEntity
  8
0
100
AcDbBlockBegin
  2
_D_3
 70
     0
 10
0.0
 20
0.0
 30
0.0
  3
_D_3
  1

  0
SOLID
  5
138
330
135
100
AcDbEntity
  8
VERMASSUNG
100
AcDbTrace
 10
93.5944500191
 20
179.5884614489
 30
0.0
 11
96.5944500191
 21
179.1384614489
 31
0.0
 12
96.5944500191
 22
180.0384614489
 32
0.0
 13
96.5944500191
 23
180.0384614489
 33
0.0
  0
SOLID
  5
139
330
135
100
AcDbEntity
  8
VERMASSUNG
100
AcDbTrace
 10
203.5944500191
 20
179.5884614489
 30
0.0
 11
200.5944500191
 21
180.0384614489
 31
0.0
 12
200.5944500191
 22
179.1384614489
 32
0.0
 13
200.5944500191
 23
179.1384614489
 33
0.0
  0
LINE
  5
13A
330
135
100
AcDbEntity
  8
VERMASSUNG
100
AcDbLine
 10
93.5944500191
 20
161.639363992
 30
0.0
 11
93.5944500191
 21
180.5884614489
 31
0.0
  0
LINE
  5
13B
330
135
100
AcDbEntity
  8
VERMASSUNG
100
AcDbLine
 10
203.5944500191
 20
158.564363992
 30
0.0
 11
203.5944500191
 21
180.5884614489
 31
0.0
  0
LINE
  5
13C
330
135
100
AcDbEntity
  8
VERMASSUNG
100
AcDbLine
 10
93.5944500191
 20
179.5884614489
 30
0.0
 11
203.5944500191
 21
179.5884614489
 31
0.0
  0
MTEXT
  5
13D
330
135
100
AcDbEntity
  8
VERMASSUNG
100
AcDbMText
 10
146.8944499965
 20
182.1665970449
 30
0.0
 40
2.0
 41
0.0
 71
     1
 72
     1
  1
110
  7
SLDTEXTSTYLE0
 73
     1
 44
1.0
  0
ENDBLK
  5
137
330
135
100
AcDbEntity
  8
0
100
AcDbBlockEnd
  0
BLOCK
  5
140
330
13F
100
AcDbEntity
  8
0
100
AcDbBlockBegin
  2
_D_4
 70
     0
 10
0.0
 20
0.0
 30
0.0
  3
_D_4
  1

  0
SOLID
  5
142
330
13F
100
AcDbEntity
  8
VERMASSUNG
100
AcDbTrace
 10
111.5944500191
 20
170.1281324711
 30
0.0
 11
114.5944500191
 21
169.6781324711
 31
0.0
 12
114.5944500191
 22
170.5781324711
 32
0.0
 13
114.5944500191
 23
170.5781324711
 33
0.0
  0
SOLID
  5
143
330
13F
100
AcDbEntity
  8
VERMASSUNG
100
AcDbTrace
 10
203.5944500191
 20
170.1281324711
 30
0.0
 11
200.5944500191
 21
170.5781324711
 31
0.0
 12
200.5944500191
 22
169.6781324711
 32
0.0
 13
200.5944500191
 23
169.6781324711
 33
0.0
  0
LINE
  5
144
330
13F
100
AcDbEntity
  8
VERMASSUNG
100
AcDbLine
 10
111.5944500191
 20
161.839363992
 30
0.0
 11
111.5944500191
 21
171.1281324711
 31
0.0
  0
LINE
  5
145
330
13F
100
AcDbEntity
  8
VERMASSUNG
100
AcDbLine
 10
203.5944500191
 20
158.564363992
 30
0.0
 11
203.5944500191
 21
171.1281324711
 31
0.0
  0
LINE
  5
146
330
13F
100
AcDbEntity
  8
VERMASSUNG
100
AcDbLine
 10
111.5944500191
 20
170.1281324711
 30
0.0
 11
203.5944500191
 21
170.1281324711
 31
0.0
  0
MTEXT
  5
147
330
13F
100
AcDbEntity
  8
VERMASSUNG
100
AcDbMText
 10
156.194450069
 20
172.7062680671
 30
0.0
 40
2.0
 41
0.0
 71
     1
 72
     1
  1
92
  7
SLDTEXTSTYLE0
 73
     1
 44
1.0
  0
ENDBLK
  5
141
330
13F
100
AcDbEntity
  8
0
100
AcDbBlockEnd
  0
BLOCK
  5
14A
330
149
100
AcDbEntity
  8
0
100
AcDbBlockBegin
  2
_D_5
 70
     0
 10
0.0
 20
0.0
 30
0.0
  3
_D_5
  1

  0
SOLID
  5
14C
330
149
100
AcDbEntity
  8
VERMASSUNG
100
AcDbTrace
 10
53.6444500191
 20
189.839363992
 30
0.0
 11
56.6444500191
 21
189.389363992
 31
0.0
 12
56.6444500191
 22
190.289363992
 32
0.0
 13
56.6444500191
 23
190.289363992
 33
0.0
  0
SOLID
  5
14D
330
149
100
AcDbEntity
  8
VERMASSUNG
100
AcDbTrace
 10
224.5944500191
 20
189.839363992
 30
0.0
 11
221.5944500191
 21
190.289363992
 31
0.0
 12
221.5944500191
 22
189.389363992
 32
0.0
 13
221.5944500191
 23
189.389363992
 33
0.0
  0
LINE
  5
14E
330
149
100
AcDbEntity
  8
VERMASSUNG
100
AcDbLine
 10
53.6444500191
 20
150.6265897287
 30
0.0
 11
53.6444500191
 21
190.839363992
 31
0.0
  0
LINE
  5
14F
330
149
100
AcDbEntity
  8
VERMASSUNG
100
AcDbLine
 10
224.5944500191
 20
139.5354318039
 30
0.0
 11
224.5944500191
 21
190.839363992
 31
0.0
  0
LINE
  5
150
330
149
100
AcDbEntity
  8
VERMASSUNG
100
AcDbLine
 10
53.6444500191
 20
189.839363992
 30
0.0
 11
224.5944500191
 21
189.839363992
 31
0.0
  0
MTEXT
  5
151
330
149
100
AcDbEntity
  8
VERMASSUNG
100
AcDbMText
 10
135.5194500809
 20
192.417499588
 30
0.0
 40
2.0
 41
0.0
 71
     1
 72
     1
  1
170.95
  7
SLDTEXTSTYLE0
 73
     1
 44
1.0
  0
ENDBLK
  5
14B
330
149
100
AcDbEntity
  8
0
100
AcDbBlockEnd
  0
BLOCK
  5
154
330
153
100
AcDbEntity
  8
0
100
AcDbBlockBegin
  2
_D_6
 70
     0
 10
0.0
 20
0.0
 30
0.0
  3
_D_6
  1

  0
SOLID
  5
156
330
153
100
AcDbEntity
  8
VERMASSUNG
100
AcDbTrace
 10
203.5944500191
 20
170.1281324711
 30
0.0
 11
206.5944500191
 21
169.6781324711
 31
0.0
 12
206.5944500191
 22
170.5781324711
 32
0.0
 13
206.5944500191
 23
170.5781324711
 33
0.0
  0
SOLID
  5
157
330
153
100
AcDbEntity
  8
VERMASSUNG
100
AcDbTrace
 10
224.5944500191
 20
170.1281324711
 30
0.0
 11
221.5944500191
 21
170.5781324711
 31
0.0
 12
221.5944500191
 22
169.6781324711
 32
0.0
 13
221.5944500191
 23
169.6781324711
 33
0.0
  0
LINE
  5
158
330
153
100
AcDbEntity
  8
VERMASSUNG
100
AcDbLine
 10
203.5944500191
 20
158.564363992
 30
0.0
 11
203.5944500191
 21
171.1281324711
 31
0.0
  0
LINE
  5
159
330
153
100
AcDbEntity
  8
VERMASSUNG
100
AcDbLine
 10
224.5944500191
 20
143.064363992
 30
0.0
 11
224.5944500191
 21
171.1281324711
 31
0.0
  0
LINE
  5
15A
330
153
100
AcDbEntity
  8
VERMASSUNG
100
AcDbLine
 10
203.5944500191
 20
170.1281324711
 30
0.0
 11
224.5944500191
 21
170.1281324711
 31
0.0
  0
MTEXT
  5
15B
330
153
100
AcDbEntity
  8
VERMASSUNG
100
AcDbMText
 10
212.8944499621
 20
172.7062680671
 30
0.0
 40
2.0
 41
0.0
 71
     1
 72
     1
  1
21
  7
SLDTEXTSTYLE0
 73
     1
 44
1.0
  0
ENDBLK
  5
155
330
153
100
AcDbEntity
  8
0
100
AcDbBlockEnd
  0
BLOCK
  5
15E
330
15D
100
AcDbEntity
  8
0
100
AcDbBlockBegin
  2
_D_7
 70
     0
 10
0.0
 20
0.0
 30
0.0
  3
_D_7
  1

  0
SOLID
  5
160
330
15D
100
AcDbEntity
  8
VERMASSUNG
100
AcDbTrace
 10
251.9022847799
 20
135.421863992
 30
0.0
 11
251.4522847799
 21
132.421863992
 31
0.0
 12
252.3522847799
 22
132.421863992
 32
0.0
 13
252.3522847799
 23
132.421863992
 33
0.0
  0
SOLID
  5
161
330
15D
100
AcDbEntity
  8
VERMASSUNG
100
AcDbTrace
 10
251.9022847799
 20
125.306863992
 30
0.0
 11
252.3522847799
 21
128.306863992
 31
0.0
 12
251.4522847799
 22
128.306863992
 32
0.0
 13
251.4522847799
 23
128.306863992
 33
0.0
  0
LINE
  5
162
330
15D
100
AcDbEntity
  8
VERMASSUNG
100
AcDbLine
 10
239.5944500191
 20
135.421863992
 30
0.0
 11
252.9022847799
 21
135.421863992
 31
0.0
  0
LINE
  5
163
330
15D
100
AcDbEntity
  8
VERMASSUNG
100
AcDbLine
 10
239.5944500191
 20
125.306863992
 30
0.0
 11
252.9022847799
 21
125.306863992
 31
0.0
  0
LINE
  5
164
330
15D
100
AcDbEntity
  8
VERMASSUNG
100
AcDbLine
 10
251.9022847799
 20
135.421863992
 30
0.0
 11
251.9022847799
 21
125.306863992
 31
0.0
  0
MTEXT
  5
165
330
15D
100
AcDbEntity
  8
VERMASSUNG
100
AcDbMText
 10
249.3241491839
 20
127.264363903
 30
0.0
 40
2.0
 41
0.0
 71
     1
 72
     1
  1
SW
  7
SLDTEXTSTYLE0
 11
-7.044195017643634E-15
 21
1.0
 31
0.0
 73
     1
 44
1.0
  0
MTEXT
  5
166
330
15D
100
AcDbEntity
  8
VERMASSUNG
100
AcDbMText
 10
249.3241491839
 20
131.064363967
 30
0.0
 40
2.0
 41
0.0
 71
     1
 72
     1
  1
10
  7
SLDTEXTSTYLE0
 11
-7.044195017643634E-15
 21
1.0
 31
0.0
 73
     1
 44
1.0
  0
ENDBLK
  5
15F
330
15D
100
AcDbEntity
  8
0
100
AcDbBlockEnd
  0
ENDSEC
  0
SECTION
  2
ENTITIES
  0
MTEXT
  5
78
330
1F
100
AcDbEntity
  8
KOPF_DÜNN
100
AcDbMText
 10
13.8892156294
 20
23.8442973028
 30
0.0
 40
3.0
 41
0.0
 71
     1
 72
     1
  1
KY6.D27.K21.110
  7
SLDTEXTSTYLE0
 73
     1
 44
1.0
  0
MTEXT
  5
79
330
1F
100
AcDbEntity
  8
VERMASSUNG
100
AcDbMText
 10
13.9329988022
 20
28.8834360957
 30
0.0
 40
3.0
 41
0.0
 71
     1
 72
     1
  1
Fräsdorn_Milling arbor
  7
SLDTEXTSTYLE0
 73
     1
 44
1.0
  0
MTEXT
  5
7A
330
1F
100
AcDbEntity
  8
VERMASSUNG
100
AcDbMText
 10
98.8601118557
 20
13.8365368761
 30
0.0
 40
2.0
 41
0.0
 71
     1
 72
     1
  1
Datum: 19.02.2018
  7
SLDTEXTSTYLE0
 73
     1
 44
1.0
  0
MTEXT
  5
7B
330
1F
100
AcDbEntity
  8
VERMASSUNG
100
AcDbMText
 10
13.933048693
 20
18.0482802738
 30
0.0
 40
2.0
 41
0.0
 71
     1
 72
     1
  1
KM63 XMZ / Ø27
  7
SLDTEXTSTYLE0
 73
     1
 44
1.0
  0
MTEXT
  5
7C
330
1F
100
AcDbEntity
  8
VERMASSUNG
100
AcDbMText
 10
13.9808475933
 20
13.9090974274
 30
0.0
 40
2.0
 41
0.0
 71
     1
 72
     1
  1
Gewicht: 2599g
  7
SLDTEXTSTYLE0
 73
     1
 44
1.0
  0
LINE
  5
7D
330
1F
100
AcDbEntity
  8
0
  6
Continuous
 62
     7
370
    25
100
AcDbLine
 10
203.594449423
 20
146.364364752
 30
0.0
 11
209.3944507462
 21
146.364364752
 31
0.0
  0
LINE
  5
7E
330
1F
100
AcDbEntity
  8
0
  6
Continuous
 62
     7
370
    25
100
AcDbLine
 10
209.3944507462
 20
158.3643648563
 30
0.0
 11
203.594449423
 21
158.3643648563
 31
0.0
  0
ARC
  5
7F
330
1F
100
AcDbEntity
  8
0
  6
Continuous
 62
     7
370
    25
100
AcDbCircle
 10
209.3944500191
 20
146.864363992
 30
0.0
 40
0.5
100
AcDbArc
 50
270.0
 51
0.0
  0
ARC
  5
80
330
1F
100
AcDbEntity
  8
0
  6
Continuous
 62
     7
370
    25
100
AcDbCircle
 10
209.3944500191
 20
157.864363992
 30
0.0
 40
0.5
100
AcDbArc
 50
0.0
 51
90.0
  0
LINE
  5
81
330
1F
100
AcDbEntity
  8
0
  6
Continuous
 62
     7
370
    25
100
AcDbLine
 10
203.594449423
 20
102.3643631277
 30
0.0
 11
209.3944507462
 21
102.3643631277
 31
0.0
  0
LINE
  5
82
330
1F
100
AcDbEntity
  8
0
  6
Continuous
 62
     7
370
    25
100
AcDbLine
 10
209.3944507462
 20
114.364363232
 30
0.0
 11
203.594449423
 21
114.364363232
 31
0.0
  0
ARC
  5
83
330
1F
100
AcDbEntity
  8
0
  6
Continuous
 62
     7
370
    25
100
AcDbCircle
 10
209.3944500191
 20
102.864363992
 30
0.0
 40
0.5
100
AcDbArc
 50
270.0
 51
0.0
  0
ARC
  5
84
330
1F
100
AcDbEntity
  8
0
  6
Continuous
 62
     7
370
    25
100
AcDbCircle
 10
209.3944500191
 20
113.864363992
 30
0.0
 40
0.5
100
AcDbArc
 50
0.0
 51
90.0
  0
LINE
  5
85
330
1F
100
AcDbEntity
  8
0
  6
Continuous
 62
     7
370
    25
100
AcDbLine
 10
238.9944526178
 20
139.3643636046
 30
0.0
 11
227.5944533569
 21
139.3643636046
 31
0.0
  0
LINE
  5
86
330
1F
100
AcDbEntity
  8
0
  6
Continuous
 62
     7
370
    25
100
AcDbLine
 10
227.5944533569
 20
121.3643643794
 30
0.0
 11
238.9944526178
 21
121.3643643794
 31
0.0
  0
ARC
  5
87
330
1F
100
AcDbEntity
  8
0
  6
Continuous
 62
     7
370
    25
100
AcDbCircle
 10
238.9944500191
 20
138.764363992
 30
0.0
 40
0.5999999999999943
100
AcDbArc
 50
0.0
 51
90.0
  0
ARC
  5
88
330
1F
100
AcDbEntity
  8
0
  6
Continuous
 62
     7
370
    25
100
AcDbCircle
 10
238.9944500191
 20
121.964363992
 30
0.0
 40
0.6000000000000085
100
AcDbArc
 50
270.0
 51
0.0
  0
ARC
  5
89
330
1F
100
AcDbEntity
  8
0
  6
Continuous
 62
     7
370
    25
100
AcDbCircle
 10
226.9944500191
 20
123.764363992
 30
0.0
 40
0.5999999999999943
100
AcDbArc
 50
0.0
 51
90.0
  0
ARC
  5
8A
330
1F
100
AcDbEntity
  8
0
  6
Continuous
 62
     7
370
    25
100
AcDbCircle
 10
226.9944500191
 20
136.964363992
 30
0.0
 40
0.5999999999999943
100
AcDbArc
 50
270.0
 51
0.0
  0
LINE
  5
8B
330
1F
100
AcDbEntity
  8
0
  6
Continuous
 62
     7
370
    25
100
AcDbLine
 10
226.9944432003
 20
136.3643640441
 30
0.0
 11
224.5944472772
 21
136.3643640441
 31
0.0
  0
LINE
  5
8C
330
1F
100
AcDbEntity
  8
0
  6
Continuous
 62
     7
370
    25
100
AcDbLine
 10
224.5944472772
 20
124.3643639398
 30
0.0
 11
226.9944432003
 21
124.3643639398
 31
0.0
  0
LINE
  5
8D
330
1F
100
AcDbEntity
  8
0
  6
Continuous
 62
     7
370
    25
100
AcDbLine
 10
93.794450014
 20
98.8893639085
 30
0.0
 11
100.160252284
 21
98.8893639085
 31
0.0
  0
LINE
  5
8E
330
1F
100
AcDbEntity
  8
0
  6
Continuous
 62
     7
370
    25
100
AcDbLine
 10
98.9549476465
 20
161.8393640754
 30
0.0
 11
93.794450014
 21
161.8393640754
 31
0.0
  0
LINE
  5
8F
330
1F
100
AcDbEntity
  8
0
  6
Continuous
 62
     7
370
    25
100
AcDbLine
 10
106.8286481125
 20
98.8893639085
 30
0.0
 11
111.5944492442
 21
98.8893639085
 31
0.0
  0
LINE
  5
90
330
1F
100
AcDbEntity
  8
0
  6
Continuous
 62
     7
370
    25
100
AcDbLine
 10
111.5944492442
 20
161.8393640754
 30
0.0
 11
110.3092967344
 21
161.8393640754
 31
0.0
  0
LINE
  5
91
330
1F
100
AcDbEntity
  8
0
  6
Continuous
 62
     7
370
    25
100
AcDbLine
 10
100.160252284
 20
98.8893639085
 30
0.0
 11
101.6194498909
 21
101.4167684851
 31
0.0
  0
ARC
  5
92
330
1F
100
AcDbEntity
  8
0
  6
Continuous
 62
     7
370
    25
100
AcDbCircle
 10
93.7944500191
 20
99.089363992
 30
0.0
 40
0.2000000000000171
100
AcDbArc
 50
180.0
 51
270.0
  0
ARC
  5
93
330
1F
100
AcDbEntity
  8
0
  6
Continuous
 62
     7
370
    25
100
AcDbCircle
 10
93.7944500191
 20
161.639363992
 30
0.0
 40
0.2000000000000171
100
AcDbArc
 50
90.0
 51
180.0
  0
ARC
  5
94
330
1F
100
AcDbEntity
  8
0
  6
Continuous
 62
     7
370
    25
100
AcDbCircle
 10
113.5944500191
 20
99.364363992
 30
0.0
 40
2.0
100
AcDbArc
 50
90.0
 51
180.0
  0
ARC
  5
95
330
1F
100
AcDbEntity
  8
0
  6
Continuous
 62
     7
370
    25
100
AcDbCircle
 10
113.5944500191
 20
161.364363992
 30
0.0
 40
2.0
100
AcDbArc
 50
180.0
 51
270.0
  0
ARC
  5
96
330
1F
100
AcDbEntity
  8
0
  6
Continuous
 62
     7
370
    25
100
AcDbCircle
 10
202.7944500191
 20
102.164363992
 30
0.0
 40
0.7999999999999972
100
AcDbArc
 50
270.0
 51
0.0
  0
ARC
  5
97
330
1F
100
AcDbEntity
  8
0
  6
Continuous
 62
     7
370
    25
100
AcDbCircle
 10
202.7944500191
 20
158.564363992
 30
0.0
 40
0.799999999999983
100
AcDbArc
 50
0.0
 51
90.0
  0
LINE
  5
98
330
1F
100
AcDbEntity
  8
0
  6
Continuous
 62
     7
370
    25
100
AcDbLine
 10
113.594449572
 20
101.3643648265
 30
0.0
 11
202.794450782
 21
101.3643648265
 31
0.0
  0
LINE
  5
99
330
1F
100
AcDbEntity
  8
0
  6
Continuous
 62
     7
370
    25
100
AcDbLine
 10
202.794450782
 20
159.3643631575
 30
0.0
 11
113.594449572
 21
159.3643631575
 31
0.0
  0
ARC
  5
9A
330
1F
100
AcDbEntity
  8
0
  6
Continuous
 62
     7
370
    25
100
AcDbCircle
 10
93.1655151445
 20
104.814363992
 30
0.0
 40
0.8000000000000004
100
AcDbArc
 50
57.576802718
 51
107.5
  0
ARC
  5
9B
330
1F
100
AcDbEntity
  8
0
  6
Continuous
 62
     7
370
    25
100
AcDbCircle
 10
93.1655151445
 20
155.914363992
 30
0.0
 40
0.7999999999999962
100
AcDbArc
 50
252.5
 51
302.423197282
  0
LINE
  5
9C
330
1F
100
AcDbEntity
  8
0
  6
Continuous
 62
     7
370
    25
100
AcDbLine
 10
105.3694500399
 20
101.4167684851
 30
0.0
 11
106.8286481125
 21
98.8893639085
 31
0.0
  0
LINE
  5
9D
330
1F
100
AcDbEntity
  8
0
  6
Continuous
 62
     7
370
    25
100
AcDbLine
 10
92.4342679603
 20
105.4226252971
 30
0.0
 11
92.9249505091
 21
105.5773384658
 31
0.0
  0
LINE
  5
9E
330
1F
100
AcDbEntity
  8
0
  6
Continuous
 62
     7
370
    25
100
AcDbLine
 10
92.9249505091
 20
155.1513895182
 30
0.0
 11
92.4342679603
 21
155.3061026869
 31
0.0
  0
LINE
  5
9F
330
1F
100
AcDbEntity
  8
0
  6
Continuous
 62
     7
370
    25
100
AcDbLine
 10
92.4342679603
 20
155.3061026869
 30
0.0
 11
76.4893921835
 21
154.5053832022
 31
0.0
  0
LINE
  5
A0
330
1F
100
AcDbEntity
  8
0
  6
Continuous
 62
     7
370
    25
100
AcDbLine
 10
76.4893921835
 20
106.2233447818
 30
0.0
 11
92.4342679603
 21
105.4226252971
 31
0.0
  0
ARC
  5
A1
330
1F
100
AcDbEntity
  8
0
  6
Continuous
 62
     7
370
    25
100
AcDbCircle
 10
102.6194500191
 20
101.514363992
 30
0.0
 40
1.0
100
AcDbArc
 50
90.0
 51
180.0
  0
ARC
  5
A2
330
1F
100
AcDbEntity
  8
0
  6
Continuous
 62
     7
370
    25
100
AcDbCircle
 10
104.3694500191
 20
101.514363992
 30
0.0
 40
1.0
100
AcDbArc
 50
0.0
 51
90.0
  0
LINE
  5
A3
330
1F
100
AcDbEntity
  8
0
  6
Continuous
 62
     7
370
    25
100
AcDbLine
 10
102.6194500548
 20
102.5143638042
 30
0.0
 11
104.369449876
 21
102.5143638042
 31
0.0
  0
ARC
  5
A4
330
1F
100
AcDbEntity
  8
0
  6
Continuous
 62
     7
370
    25
100
AcDbCircle
 10
203.9944500191
 20
116.614363992
 30
0.0
 40
0.6000000000000085
100
AcDbArc
 50
90.0
 51
131.8103148958
  0
ARC
  5
A5
330
1F
100
AcDbEntity
  8
0
  6
Continuous
 62
     7
370
    25
100
AcDbCircle
 10
203.9944500191
 20
144.114363992
 30
0.0
 40
0.6000000000000227
100
AcDbArc
 50
228.1896851042
 51
270.0
  0
LINE
  5
A6
330
1F
100
AcDbEntity
  8
0
  6
Continuous
 62
     7
370
    25
100
AcDbLine
 10
206.0944470388
 20
116.8643636418
 30
0.0
 11
223.7944486362
 21
116.8643636418
 31
0.0
  0
LINE
  5
A7
330
1F
100
AcDbEntity
  8
0
  6
Continuous
 62
     7
370
    25
100
AcDbLine
 10
223.7944486362
 20
143.8643643422
 30
0.0
 11
206.0944470388
 21
143.8643643422
 31
0.0
  0
LINE
  5
A8
330
1F
100
AcDbEntity
  8
0
  6
Continuous
 62
     7
370
    25
100
AcDbLine
 10
206.0944470388
 20
143.8643643422
 30
0.0
 11
204.8645349962
 21
143.5348083986
 31
0.0
  0
LINE
  5
A9
330
1F
100
AcDbEntity
  8
0
  6
Continuous
 62
     7
370
    25
100
AcDbLine
 10
204.8645349962
 20
117.1939195854
 30
0.0
 11
206.0944470388
 21
116.8643636418
 31
0.0
  0
ARC
  5
AA
330
1F
100
AcDbEntity
  8
0
  6
Continuous
 62
     7
370
    25
100
AcDbCircle
 10
223.7944500191
 20
117.664363992
 30
0.0
 40
0.8000000000000114
100
AcDbArc
 50
270.0
 51
0.0
  0
ARC
  5
AB
330
1F
100
AcDbEntity
  8
0
  6
Continuous
 62
     7
370
    25
100
AcDbCircle
 10
223.7944500191
 20
143.064363992
 30
0.0
 40
0.8000000000000114
100
AcDbArc
 50
0.0
 51
90.0
  0
ARC
  5
AC
330
1F
100
AcDbEntity
  8
0
  6
Continuous
 62
     7
370
    25
100
AcDbCircle
 10
204.7092407379
 20
116.614363992
 30
0.0
 40
0.6000000000000008
100
AcDbArc
 50
75.0
 51
90.0
  0
ARC
  5
AD
330
1F
100
AcDbEntity
  8
0
  6
Continuous
 62
     7
370
    25
100
AcDbCircle
 10
204.7092407379
 20
144.114363992
 30
0.0
 40
0.6000000000000227
100
AcDbArc
 50
270.0
 51
285.0
  0
LINE
  5
AE
330
1F
100
AcDbEntity
  8
0
  6
Continuous
 62
     7
370
    25
100
AcDbLine
 10
203.9944487435
 20
117.2143639786
 30
0.0
 11
204.7092425448
 21
117.2143639786
 31
0.0
  0
LINE
  5
AF
330
1F
100
AcDbEntity
  8
0
  6
Continuous
 62
     7
370
    25
100
AcDbLine
 10
204.7092425448
 20
143.5143640054
 30
0.0
 11
203.9944487435
 21
143.5143640054
 31
0.0
  0
LINE
  5
B0
330
1F
100
AcDbEntity
  8
0
  6
Continuous
 62
     7
370
    25
100
AcDbLine
 10
75.5944507939
 20
107.1182861713
 30
0.0
 11
76.4893921835
 21
106.2233447818
 31
0.0
  0
LINE
  5
B1
330
1F
100
AcDbEntity
  8
0
  6
Continuous
 62
     7
370
    25
100
AcDbLine
 10
76.4893921835
 20
154.5053832022
 30
0.0
 11
75.5944507939
 21
153.6104418127
 31
0.0
  0
LINE
  5
B2
330
1F
100
AcDbEntity
  8
0
  6
Continuous
 62
     7
370
    25
100
AcDbLine
 10
209.8944517595
 20
146.8643639026
 30
0.0
 11
209.8944517595
 21
157.864363843
 31
0.0
  0
LINE
  5
B3
330
1F
100
AcDbEntity
  8
0
  6
Continuous
 62
     7
370
    25
100
AcDbLine
 10
209.8944517595
 20
102.864364141
 30
0.0
 11
209.8944517595
 21
113.8643640814
 31
0.0
  0
LINE
  5
B4
330
1F
100
AcDbEntity
  8
0
  6
Continuous
 62
     7
370
    25
100
AcDbLine
 10
227.5944533569
 20
139.3643636046
 30
0.0
 11
227.5944533569
 21
121.3643643794
 31
0.0
  0
LINE
  5
B5
330
1F
100
AcDbEntity
  8
0
  6
Continuous
 62
     7
370
    25
100
AcDbLine
 10
239.5944478733
 20
138.7643636925
 30
0.0
 11
239.5944478733
 21
121.9644741876
 31
0.0
  0
SPLINE
  5
B6
330
1F
100
AcDbEntity
  8
0
  6
Continuous
 62
     7
370
    25
100
AcDbSpline
210
0.0
220
0.0
230
1.0
 70
     8
 71
     3
 72
    10
 73
     6
 74
     0
 42
0.000000001
 43
0.00000001
 40
0.0
 40
0.0
 40
0.0
 40
0.0
 40
0.4058355826442185
 40
0.8996340058832388
 40
1.0
 40
1.0
 40
1.0
 40
1.0
 10
100.1602522840205
 20
161.666428649206
 30
0.0
 10
99.87841627602187
 20
161.7028200183178
 30
0.0
 10
99.25365770944688
 20
161.7834904044884
 30
0.0
 10
98.85355003993737
 20
161.8475788641585
 30
0.0
 10
98.94029476531016
 20
161.8342920141934
 30
0.0
 10
98.95494764646917
 20
161.832047605295
 30
0.0
  0
LINE
  5
B7
330
1F
100
AcDbEntity
  8
0
  6
Continuous
 62
     7
370
    25
100
AcDbLine
 10
100.160252284
 20
98.8893639085
 30
0.0
 11
100.160252284
 21
161.6664286492
 31
0.0
  0
LINE
  5
B8
330
1F
100
AcDbEntity
  8
0
  6
Continuous
 62
     7
370
    25
100
AcDbLine
 10
111.5944492442
 20
98.8893639085
 30
0.0
 11
111.5944492442
 21
161.8393640754
 31
0.0
  0
SPLINE
  5
B9
330
1F
100
AcDbEntity
  8
0
  6
Continuous
 62
     7
370
    25
100
AcDbSpline
210
0.0
220
0.0
230
1.0
 70
     8
 71
     3
 72
    25
 73
    21
 74
     0
 42
0.000000001
 43
0.00000001
 40
0.0
 40
0.0
 40
0.0
 40
0.0
 40
0.1249999999999985
 40
0.1249999999999985
 40
0.2499999999999971
 40
0.2499999999999971
 40
0.3749999999999956
 40
0.3749999999999956
 40
0.4999999999999941
 40
0.4999999999999941
 40
0.562499999999995
 40
0.562499999999995
 40
0.624999999999996
 40
0.6874999999999969
 40
0.6874999999999969
 40
0.7499999999999978
 40
0.7499999999999978
 40
0.8749999999999989
 40
0.8749999999999989
 40
1.0
 40
1.0
 40
1.0
 40
1.0
 10
106.8286478236319
 20
117.3266199866827
 30
0.0
 10
107.0698953291874
 20
117.167745607891
 30
0.0
 10
107.2858243634318
 20
116.9868580728624
 30
0.0
 10
107.6689822752744
 20
116.5839648528996
 30
0.0
 10
107.8364340607596
 20
116.3598947789617
 30
0.0
 10
108.1041187171635
 20
115.8935918669236
 30
0.0
 10
108.2077906848843
 20
115.6466582138638
 30
0.0
 10
108.3469220561385
 20
115.1400724577508
 30
0.0
 10
108.3816612961292
 20
114.8855617488489
 30
0.0
 10
108.3820917293484
 20
114.5022370036871
 30
0.0
 10
108.3733569457589
 20
114.3734126558948
 30
0.0
 10
108.3385635425843
 20
114.1212922913587
 30
0.0
 10
108.2866706808552
 20
113.8737396222075
 30
0.0
 10
108.2012924685615
 20
113.6350033008088
 30
0.0
 10
108.098816715497
 20
113.4006624021695
 30
0.0
 10
108.0387553438458
 20
113.2854800490936
 30
0.0
 10
107.8374455213947
 20
112.9554310767519
 30
0.0
 10
107.6742220013149
 20
112.7527199465179
 30
0.0
 10
107.2888438010635
 20
112.3809755729683
 30
0.0
 10
107.0698943152377
 20
112.2156218953113
 30
0.0
 10
106.8286478236319
 20
112.0735676738332
 30
0.0
  0
LINE
  5
BA
330
1F
100
AcDbEntity
  8
0
  6
Continuous
 62
     7
370
    25
100
AcDbLine
 10
106.8286481125
 20
117.3266200138
 30
0.0
 11
106.8286481125
 21
161.4572312472
 31
0.0
  0
SPLINE
  5
BB
330
1F
100
AcDbEntity
  8
0
  6
Continuous
 62
     7
370
    25
100
AcDbSpline
210
0.0
220
0.0
230
1.0
 70
     8
 71
     3
 72
    12
 73
     8
 74
     0
 42
0.000000001
 43
0.00000001
 40
0.0
 40
0.0
 40
0.0
 40
0.0
 40
0.1144634680262505
 40
0.3661160526449659
 40
0.6247763889426796
 40
0.9030266255086999
 40
1.0
 40
1.0
 40
1.0
 40
1.0
 10
110.3092967343929
 20
161.8282329080294
 30
0.0
 10
110.3263150470271
 20
161.8308335035613
 30
0.0
 10
110.3807488113688
 20
161.8391516140212
 30
0.0
 10
109.8758425740819
 20
161.7618845354417
 30
0.0
 10
108.8821897476847
 20
161.6312357604821
 30
0.0
 10
107.7589066927954
 20
161.5175117503047
 30
0.0
 10
107.0196919277564
 20
161.4696108344974
 30
0.0
 10
106.8286481124762
 20
161.4572312472056
 30
0.0
  0
LINE
  5
BC
330
1F
100
AcDbEntity
  8
0
  6
Continuous
 62
     7
370
    25
100
AcDbLine
 10
106.8286481125
 20
98.8893639085
 30
0.0
 11
106.8286481125
 21
112.0735667435
 31
0.0
  0
SPLINE
  5
BD
330
1F
100
AcDbEntity
  8
0
  6
Continuous
 62
     7
370
    25
100
AcDbSpline
210
0.0
220
0.0
230
1.0
 70
     8
 71
     3
 72
    10
 73
     6
 74
     0
 42
0.000000001
 43
0.00000001
 40
0.0
 40
0.0
 40
0.0
 40
0.0
 40
0.5
 40
0.5
 40
1.0
 40
1.0
 40
1.0
 40
1.0
 10
101.2884682116086
 20
159.8393639919947
 30
0.0
 10
101.1115830651852
 20
160.1295575317372
 30
0.0
 10
100.9260336903078
 20
160.4319709176777
 30
0.0
 10
100.5480847502602
 20
161.0440050549781
 30
0.0
 10
100.355298208081
 20
161.354281894543
 30
0.0
 10
100.1602522144917
 20
161.6664289655082
 30
0.0
  0
SPLINE
  5
BE
330
1F
100
AcDbEntity
  8
0
  6
Continuous
 62
     7
370
    25
100
AcDbSpline
210
0.0
220
0.0
230
1.0
 70
     8
 71
     3
 72
     8
 73
     4
 74
     0
 42
0.000000001
 43
0.00000001
 40
0.0
 40
0.0
 40
0.0
 40
0.0
 40
1.0
 40
1.0
 40
1.0
 40
1.0
 10
101.6194500190619
 20
159.2286150706118
 30
0.0
 10
101.5011532596319
 20
159.4465003049426
 30
0.0
 10
101.3897247774606
 20
159.6521805959846
 30
0.0
 10
101.2884682116086
 20
159.8393639919947
 30
0.0
  0
LINE
  5
BF
330
1F
100
AcDbEntity
  8
0
  6
Continuous
 62
     7
370
    25
100
AcDbLine
 10
101.6194498909
 20
117.8332147909
 30
0.0
 11
101.6194498909
 21
159.2286154417
 31
0.0
  0
SPLINE
  5
C0
330
1F
100
AcDbEntity
  8
0
  6
Continuous
 62
     7
370
    25
100
AcDbSpline
210
0.0
220
0.0
230
1.0
 70
     8
 71
     3
 72
    26
 73
    22
 74
     0
 42
0.000000001
 43
0.00000001
 40
0.0
 40
0.0
 40
0.0
 40
0.0
 40
0.1250000000000014
 40
0.1250000000000014
 40
0.2500000000000027
 40
0.2500000000000027
 40
0.3125000000000025
 40
0.3125000000000025
 40
0.3750000000000023
 40
0.3750000000000023
 40
0.4375000000000021
 40
0.4375000000000021
 40
0.5000000000000018
 40
0.5000000000000018
 40
0.5625000000000016
 40
0.5625000000000016
 40
0.6250000000000013
 40
0.6250000000000013
 40
0.7500000000000006
 40
0.7500000000000006
 40
1.0
 40
1.0
 40
1.0
 40
1.0
 10
101.6194500190619
 20
114.031262141024
 30
0.0
 10
101.5275451083791
 20
114.0563098333603
 30
0.0
 10
101.4398483321541
 20
114.0943174272747
 30
0.0
 10
101.2756420613868
 20
114.2053136783674
 30
0.0
 10
101.1983716431201
 20
114.279247189681
 30
0.0
 10
101.098605536795
 20
114.4245453250113
 30
0.0
 10
101.0679926078927
 20
114.478687139003
 30
0.0
 10
101.0131237339896
 20
114.6007513782711
 30
0.0
 10
100.9887385130607
 20
114.6693233598552
 30
0.0
 10
100.9490591365623
 20
114.8189075298894
 30
0.0
 10
100.933593057325
 20
114.9000665350622
 30
0.0
 10
100.9124967222425
 20
115.0767225421537
 30
0.0
 10
100.9069836560825
 20
115.1729666488754
 30
0.0
 10
100.9069166984602
 20
115.3721965912365
 30
0.0
 10
100.9121850058096
 20
115.47604453946
 30
0.0
 10
100.9330275329777
 20
115.6919647356129
 30
0.0
 10
100.9487016461879
 20
115.803933889707
 30
0.0
 10
101.0080205763655
 20
116.138560105852
 30
0.0
 10
101.0650404118795
 20
116.366614814221
 30
0.0
 10
101.2638753005234
 20
117.02499775829
 30
0.0
 10
101.4351455057555
 20
117.4435227467489
 30
0.0
 10
101.6194500190619
 20
117.833214764348
 30
0.0
  0
LINE
  5
C1
330
1F
100
AcDbEntity
  8
0
  6
Continuous
 62
     7
370
    25
100
AcDbLine
 10
101.6194498909
 20
101.4167684851
 30
0.0
 11
101.6194498909
 21
114.0312626747
 31
0.0
  0
LINE
  5
C2
330
1F
100
AcDbEntity
  8
0
  6
Continuous
 62
     7
370
    25
100
AcDbLine
 10
93.5944500191
 20
99.0893635688
 30
0.0
 11
93.5944500191
 21
161.6393644152
 31
0.0
  0
SPLINE
  5
C3
330
1F
100
AcDbEntity
  8
0
  6
Continuous
 62
     7
370
    25
100
AcDbSpline
210
0.0
220
0.0
230
1.0
 70
     8
 71
     3
 72
     8
 73
     4
 74
     0
 42
0.000000001
 43
0.00000001
 40
0.0
 40
0.0
 40
0.0
 40
0.0
 40
1.0
 40
1.0
 40
1.0
 40
1.0
 10
105.7972937343978
 20
159.8393639919947
 30
0.0
 10
105.655755646116
 20
159.5868999919393
 30
0.0
 10
105.5131451773791
 20
159.3333563027968
 30
0.0
 10
105.3694500190621
 20
159.0788201130753
 30
0.0
  0
SPLINE
  5
C4
330
1F
100
AcDbEntity
  8
0
  6
Continuous
 62
     7
370
    25
100
AcDbSpline
210
0.0
220
0.0
230
1.0
 70
     8
 71
     3
 72
     8
 73
     4
 74
     0
 42
0.000000001
 43
0.00000001
 40
0.0
 40
0.0
 40
0.0
 40
0.0
 40
1.0
 40
1.0
 40
1.0
 40
1.0
 10
106.8286478236315
 20
161.4572311437862
 30
0.0
 10
106.4802464189512
 20
160.9152423981352
 30
0.0
 10
106.1356780337183
 20
160.3750232111417
 30
0.0
 10
105.7972937343975
 20
159.8393639919942
 30
0.0
  0
SPLINE
  5
C5
330
1F
100
AcDbEntity
  8
0
  6
Continuous
 62
     7
370
    25
100
AcDbSpline
210
0.0
220
0.0
230
1.0
 70
     8
 71
     3
 72
    10
 73
     6
 74
     0
 42
0.000000001
 43
0.00000001
 40
0.0
 40
0.0
 40
0.0
 40
0.0
 40
0.5
 40
0.5
 40
1.0
 40
1.0
 40
1.0
 40
1.0
 10
105.3694500190619
 20
119.1824250423071
 30
0.0
 10
105.6206429089334
 20
118.9169328937516
 30
0.0
 10
105.8679122206352
 20
118.6312465707091
 30
0.0
 10
106.354533571946
 20
118.0153738888188
 30
0.0
 10
106.5939168796627
 20
117.6854361615782
 30
0.0
 10
106.8286478236318
 20
117.3266199866829
 30
0.0
  0
LINE
  5
C6
330
1F
100
AcDbEntity
  8
0
  6
Continuous
 62
     7
370
    25
100
AcDbLine
 10
105.3694500399
 20
119.1824245987
 30
0.0
 11
105.3694500399
 21
159.0788196562
 31
0.0
  0
LINE
  5
C7
330
1F
100
AcDbEntity
  8
0
  6
Continuous
 62
     7
370
    25
100
AcDbLine
 10
203.594449423
 20
102.1643634675
 30
0.0
 11
203.594449423
 21
158.5643645165
 31
0.0
  0
SPLINE
  5
C8
330
1F
100
AcDbEntity
  8
0
  6
Continuous
 62
     7
370
    25
100
AcDbSpline
210
0.0
220
0.0
230
1.0
 70
     8
 71
     3
 72
    10
 73
     6
 74
     0
 42
0.000000001
 43
0.00000001
 40
0.0
 40
0.0
 40
0.0
 40
0.0
 40
0.5
 40
0.5
 40
1.0
 40
1.0
 40
1.0
 40
1.0
 10
106.8286478236318
 20
112.0735676738332
 30
0.0
 10
106.5939168796627
 20
112.139583330888
 30
0.0
 10
106.354533571946
 20
112.2409912719724
 30
0.0
 10
105.8679122206352
 20
112.4972370660509
 30
0.0
 10
105.6206429089334
 20
112.6523853477416
 30
0.0
 10
105.3694500190619
 20
112.8318468206016
 30
0.0
  0
LINE
  5
C9
330
1F
100
AcDbEntity
  8
0
  6
Continuous
 62
     7
370
    25
100
AcDbLine
 10
105.3694500399
 20
112.8318477211
 30
0.0
 11
105.3694500399
 21
112.8810420422
 31
0.0
  0
SPLINE
  5
CA
330
1F
100
AcDbEntity
  8
0
  6
Continuous
 62
     7
370
    25
100
AcDbSpline
210
0.0
220
0.0
230
1.0
 70
     8
 71
     3
 72
    14
 73
    10
 74
     0
 42
0.000000001
 43
0.00000001
 40
0.0
 40
0.0
 40
0.0
 40
0.0
 40
0.25
 40
0.25
 40
0.5
 40
0.5
 40
0.75
 40
0.75
 40
1.0
 40
1.0
 40
1.0
 40
1.0
 10
105.369450019062
 20
112.8810420083977
 30
0.0
 10
105.369450019062
 20
112.9469592881068
 30
0.0
 10
105.3435205807961
 20
113.0083487469011
 30
0.0
 10
105.2440783235197
 20
113.1157748091904
 30
0.0
 10
105.1717959377989
 20
113.161315983289
 30
0.0
 10
104.9870586010343
 20
113.2379529071688
 30
0.0
 10
104.8775119647123
 20
113.267878460994
 30
0.0
 10
104.634150719709
 20
113.3135206484206
 30
0.0
 10
104.5026396122633
 20
113.3287998990421
 30
0.0
 10
104.3694500190619
 20
113.336646382742
 30
0.0
  0
SPLINE
  5
CB
330
1F
100
AcDbEntity
  8
0
  6
Continuous
 62
     7
370
    25
100
AcDbSpline
210
0.0
220
0.0
230
1.0
 70
     8
 71
     3
 72
    10
 73
     6
 74
     0
 42
0.000000001
 43
0.00000001
 40
0.0
 40
0.0
 40
0.0
 40
0.0
 40
0.5
 40
0.5
 40
1.0
 40
1.0
 40
1.0
 40
1.0
 10
104.3694500190619
 20
113.3366463827419
 30
0.0
 10
104.0569861167737
 20
113.3550542992853
 30
0.0
 10
103.754097134776
 20
113.4039271162092
 30
0.0
 10
103.1667539499719
 20
113.5612293735496
 30
0.0
 10
102.8822862894
 20
113.670601588828
 30
0.0
 10
102.6194500190618
 20
113.8077151090155
 30
0.0
  0
SPLINE
  5
CC
330
1F
100
AcDbEntity
  8
0
  6
Continuous
 62
     7
370
    25
100
AcDbSpline
210
0.0
220
0.0
230
1.0
 70
     8
 71
     3
 72
    14
 73
    10
 74
     0
 42
0.000000001
 43
0.00000001
 40
0.0
 40
0.0
 40
0.0
 40
0.0
 40
0.25
 40
0.25
 40
0.5
 40
0.5
 40
0.75
 40
0.75
 40
1.0
 40
1.0
 40
1.0
 40
1.0
 10
102.6194500190619
 20
113.8077151090155
 30
0.0
 10
102.4850992705207
 20
113.8778017224368
 30
0.0
 10
102.3619203677273
 20
113.9389970297324
 30
0.0
 10
102.1331699468379
 20
114.0486394030589
 30
0.0
 10
102.0312468548448
 20
114.0953472024471
 30
0.0
 10
101.8518217904995
 20
114.1663127152961
 30
0.0
 10
101.7753805415951
 20
114.1908251936887
 30
0.0
 10
101.6580925671334
 20
114.1893094861628
 30
0.0
 10
101.6194500190619
 20
114.1607024429544
 30
0.0
 10
101.6194500190619
 20
114.0802011527407
 30
0.0
  0
LINE
  5
CD
330
1F
100
AcDbEntity
  8
0
  6
Continuous
 62
     7
370
    25
100
AcDbLine
 10
101.6194498909
 20
114.0802018134
 30
0.0
 11
101.6194498909
 21
114.0312626747
 31
0.0
  0
SPLINE
  5
CE
330
1F
100
AcDbEntity
  8
0
  6
Continuous
 62
     7
370
    25
100
AcDbSpline
210
0.0
220
0.0
230
1.0
 70
     8
 71
     3
 72
    16
 73
    12
 74
     0
 42
0.000000001
 43
0.00000001
 40
0.0
 40
0.0
 40
0.0
 40
0.0
 40
0.1250000000000001
 40
0.1250000000000001
 40
0.2500000000000003
 40
0.2500000000000003
 40
0.5000000000000002
 40
0.5000000000000002
 40
0.7500000000000001
 40
0.7500000000000001
 40
1.0
 40
1.0
 40
1.0
 40
1.0
 10
101.6194500190619
 20
117.8821537760647
 30
0.0
 10
101.6194500190619
 20
117.9221828262185
 30
0.0
 10
101.6292225827015
 20
117.973669481271
 30
0.0
 10
101.6634186281019
 20
118.087733728177
 30
0.0
 10
101.6876038198128
 20
118.1500782656452
 30
0.0
 10
101.7753204839091
 20
118.3426045620003
 30
0.0
 10
101.8520306497585
 20
118.4748657695888
 30
0.0
 10
102.0311127499994
 20
118.728814709255
 30
0.0
 10
102.1319955196193
 20
118.8487867715366
 30
0.0
 10
102.3608070178823
 20
119.0706671291054
 30
0.0
 10
102.4851046263172
 20
119.1688335018518
 30
0.0
 10
102.6194500190619
 20
119.2487484437783
 30
0.0
  0
SPLINE
  5
CF
330
1F
100
AcDbEntity
  8
0
  6
Continuous
 62
     7
370
    25
100
AcDbSpline
210
0.0
220
0.0
230
1.0
 70
     8
 71
     3
 72
    10
 73
     6
 74
     0
 42
0.000000001
 43
0.00000001
 40
0.0
 40
0.0
 40
0.0
 40
0.0
 40
0.5
 40
0.5
 40
1.0
 40
1.0
 40
1.0
 40
1.0
 10
102.6194500190618
 20
119.2487484437783
 30
0.0
 10
102.8822695334176
 20
119.4050858201317
 30
0.0
 10
103.1606223980253
 20
119.529004492199
 30
0.0
 10
103.7476189854107
 20
119.7124471018006
 30
0.0
 10
104.057002675289
 20
119.7711190813934
 30
0.0
 10
104.3694500190619
 20
119.7926392382212
 30
0.0
  0
SPLINE
  5
D0
330
1F
100
AcDbEntity
  8
0
  6
Continuous
 62
     7
370
    25
100
AcDbSpline
210
0.0
220
0.0
230
1.0
 70
     8
 71
     3
 72
    14
 73
    10
 74
     0
 42
0.000000001
 43
0.00000001
 40
0.0
 40
0.0
 40
0.0
 40
0.0
 40
0.25
 40
0.25
 40
0.5
 40
0.5
 40
0.75
 40
0.75
 40
1.0
 40
1.0
 40
1.0
 40
1.0
 10
104.3694500190619
 20
119.7926392382212
 30
0.0
 10
104.5026794700852
 20
119.8018155642078
 30
0.0
 10
104.6343808326954
 20
119.7904234322414
 30
0.0
 10
104.8774584909125
 20
119.7322627725816
 30
0.0
 10
104.9883644314611
 20
119.6854866506822
 30
0.0
 10
105.1710615045387
 20
119.5725275239511
 30
0.0
 10
105.2444490340204
 20
119.5055738180103
 30
0.0
 10
105.3432833129387
 20
119.3685419692155
 30
0.0
 10
105.3694500190619
 20
119.2977579940922
 30
0.0
 10
105.3694500190619
 20
119.2316202301043
 30
0.0
  0
LWPOLYLINE
  5
D1
330
1F
100
AcDbEntity
  8
0
  6
Continuous
 62
     7
370
    25
100
AcDbPolyline
 90
        3
 70
   128
 43
0.0
 10
104.6444498745
 20
117.8400944708
 10
105.5388920752
 20
117.9341487376
 10
106.2364340571
 20
118.1484050838
  0
ARC
  5
D2
330
1F
100
AcDbEntity
  8
0
  6
Continuous
 62
     7
370
    25
100
AcDbCircle
 10
104.59345805
 20
121.8590934881
 30
0.0
 40
4.0193224886511
100
AcDbArc
 50
230.8434184468
 51
270.7269122395
  0
SPLINE
  5
D3
330
1F
100
AcDbEntity
  8
0
  6
Continuous
 62
     7
370
    25
100
AcDbSpline
210
0.0
220
0.0
230
1.0
 70
     8
 71
     3
 72
    14
 73
    10
 74
     0
 42
0.000000001
 43
0.00000001
 40
0.0
 40
0.0
 40
0.0
 40
0.0
 40
0.25
 40
0.25
 40
0.5
 40
0.5
 40
0.75
 40
0.75
 40
1.0
 40
1.0
 40
1.0
 40
1.0
 10
105.369450019062
 20
158.9804297374822
 30
0.0
 10
105.3694500190621
 20
158.8485905605133
 30
0.0
 10
105.343533496491
 20
158.7165416235246
 30
0.0
 10
105.2440886499135
 20
158.4712753318115
 30
0.0
 10
105.1717902575012
 20
158.3596549152237
 30
0.0
 10
104.9870863629774
 20
158.1689156260281
 30
0.0
 10
104.8775091011014
 20
158.0929547591811
 30
0.0
 10
104.6341789228833
 20
157.9891124350116
 30
0.0
 10
104.5026426639631
 20
157.9624792275783
 30
0.0
 10
104.3694500190619
 20
157.9638063550205
 30
0.0
  0
SPLINE
  5
D4
330
1F
100
AcDbEntity
  8
0
  6
Continuous
 62
     7
370
    25
100
AcDbSpline
210
0.0
220
0.0
230
1.0
 70
     8
 71
     3
 72
    14
 73
    10
 74
     0
 42
0.000000001
 43
0.00000001
 40
0.0
 40
0.0
 40
0.0
 40
0.0
 40
0.25
 40
0.25
 40
0.5
 40
0.5
 40
0.75
 40
0.75
 40
1.0
 40
1.0
 40
1.0
 40
1.0
 10
102.6194500190619
 20
158.0366284231901
 30
0.0
 10
102.4851019327054
 20
158.0464597427609
 30
0.0
 10
102.3619252588494
 20
158.082499156151
 30
0.0
 10
102.1331786539314
 20
158.1943708524703
 30
0.0
 10
102.0312566899642
 20
158.2687256415606
 30
0.0
 10
101.8518332875355
 20
158.4522021084123
 30
0.0
 10
101.7753919993527
 20
158.5594676292724
 30
0.0
 10
101.6581020265026
 20
158.8184941190908
 30
0.0
 10
101.6194500190619
 20
158.969738824067
 30
0.0
 10
101.6194500190619
 20
159.1307370471784
 30
0.0
  0
SPLINE
  5
D5
330
1F
100
AcDbEntity
  8
0
  6
Continuous
 62
     7
370
    25
100
AcDbSpline
210
0.0
220
0.0
230
1.0
 70
     8
 71
     3
 72
    10
 73
     6
 74
     0
 42
0.000000001
 43
0.00000001
 40
0.0
 40
0.0
 40
0.0
 40
0.0
 40
0.5
 40
0.5
 40
1.0
 40
1.0
 40
1.0
 40
1.0
 10
104.3694500190619
 20
157.9638063550208
 30
0.0
 10
104.0569861167737
 20
157.9669197357913
 30
0.0
 10
103.754097134776
 20
157.9752357176977
 30
0.0
 10
103.1667539499719
 20
158.0004110115537
 30
0.0
 10
102.8822862894
 20
158.0173945997797
 30
0.0
 10
102.6194500190619
 20
158.0366284231901
 30
0.0
  0
LINE
  5
D6
330
1F
100
AcDbEntity
  8
0
  6
Continuous
 62
     7
370
    25
100
AcDbLine
 10
105.3694500399
 20
101.4167684851
 30
0.0
 11
105.3694500399
 21
112.8318477211
 31
0.0
  0
LINE
  5
D7
330
1F
100
AcDbEntity
  8
0
  6
Continuous
 62
     7
370
    25
100
AcDbLine
 10
92.4342679603
 20
105.4226252971
 30
0.0
 11
92.4342679603
 21
155.3061026869
 31
0.0
  0
LINE
  5
D8
330
1F
100
AcDbEntity
  8
0
  6
Continuous
 62
     7
370
    25
100
AcDbLine
 10
76.4893921835
 20
106.6230274526
 30
0.0
 11
76.4893921835
 21
106.2233447818
 31
0.0
  0
SPLINE
  5
D9
330
1F
100
AcDbEntity
  8
0
  6
Continuous
 62
     7
370
    25
100
AcDbSpline
210
0.0
220
0.0
230
1.0
 70
     8
 71
     3
 72
    26
 73
    22
 74
     0
 42
0.000000001
 43
0.00000001
 40
0.0
 40
0.0
 40
0.0
 40
0.0
 40
0.0241259796969038
 40
0.048215991228259
 40
0.0723203915136643
 40
0.0964895678725153
 40
0.1207736231978452
 40
0.1452220711257179
 40
0.1698835501670319
 40
0.1948055644482148
 40
0.2200342569523467
 40
0.2456142191612283
 40
0.369097148691835
 40
0.4940698769485373
 40
0.6192566784762581
 40
0.7454656653603327
 40
0.7971495824713788
 40
0.8481710308405456
 40
0.8988013269235281
 40
0.9493179290492212
 40
1.0
 40
1.0
 40
1.0
 40
1.0
 10
71.54950786586043
 20
108.4449510780746
 30
0.0
 10
71.61475692441142
 20
108.4411304485937
 30
0.0
 10
71.74515776509314
 20
108.4334948856092
 30
0.0
 10
71.94013758339284
 20
108.4175746352472
 30
0.0
 10
72.13426672065897
 20
108.3984164340962
 30
0.0
 10
72.32752806075462
 20
108.3757220203587
 30
0.0
 10
72.51992323922941
 20
108.3496096537709
 30
0.0
 10
72.71144881772992
 20
108.3200978473163
 30
0.0
 10
72.90210435011389
 20
108.2872434867216
 30
0.0
 10
73.09188434920986
 20
108.2511071772813
 30
0.0
 10
73.28080296986232
 20
108.2117528844355
 30
0.0
 10
73.7075473830327
 20
108.115354121577
 30
0.0
 10
74.34201971021082
 20
107.9387180427063
 30
0.0
 10
75.08169556255866
 20
107.6605988091737
 30
0.0
 10
75.68844280539065
 20
107.3692534494504
 30
0.0
 10
76.04923462160916
 20
107.1417762594316
 30
0.0
 10
76.25140867737345
 20
106.9823650223385
 30
0.0
 10
76.35823213335865
 20
106.8810658776299
 30
0.0
 10
76.43384284965691
 20
106.7871325378992
 30
0.0
 10
76.48100552234823
 20
106.7000128938904
 30
0.0
 10
76.48659357663647
 20
106.6487177636274
 30
0.0
 10
76.48939217226331
 20
106.6230282624473
 30
0.0
  0
LINE
  5
DA
330
1F
100
AcDbEntity
  8
0
  6
Continuous
 62
     7
370
    25
100
AcDbLine
 10
69.6346345169
 20
108.5504609881
 30
0.0
 11
71.5495082361
 21
108.4449514536
 31
0.0
  0
SPLINE
  5
DB
330
1F
100
AcDbEntity
  8
0
  6
Continuous
 62
     7
370
    25
100
AcDbSpline
210
0.0
220
0.0
230
1.0
 70
     8
 71
     3
 72
    14
 73
    10
 74
     0
 42
0.000000001
 43
0.00000001
 40
0.0
 40
0.0
 40
0.0
 40
0.0
 40
0.0789261963155847
 40
0.1582328720522156
 40
0.3308475394554963
 40
0.5000195457601538
 40
0.667035788356921
 40
0.8332395193656904
 40
1.0
 40
1.0
 40
1.0
 40
1.0
 10
67.4384223604986
 20
108.4444680828496
 30
0.0
 10
67.49181788354063
 20
108.4524971760415
 30
0.0
 10
67.59886633335938
 20
108.4685940682652
 30
0.0
 10
67.82793704792181
 20
108.498395481884
 30
0.0
 10
68.12680978612022
 20
108.5301894450772
 30
0.0
 10
68.49895286092136
 20
108.556346435073
 30
0.0
 10
68.87458265995299
 20
108.5688116493077
 30
0.0
 10
69.25377497198279
 20
108.568432489634
 30
0.0
 10
69.50753994153057
 20
108.5564587013725
 30
0.0
 10
69.63463458657097
 20
108.5504617965531
 30
0.0
  0
SPLINE
  5
DC
330
1F
100
AcDbEntity
  8
0
  6
Continuous
 62
     7
370
    25
100
AcDbSpline
210
0.0
220
0.0
230
1.0
 70
     8
 71
     3
 72
     8
 73
     4
 74
     0
 42
0.000000001
 43
0.00000001
 40
0.0
 40
0.0
 40
0.0
 40
0.0
 40
1.0
 40
1.0
 40
1.0
 40
1.0
 10
62.04612863685421
 20
108.7390774652982
 30
0.0
 10
63.84346532222726
 20
108.6409416352408
 30
0.0
 10
65.6408020076003
 20
108.5427227601993
 30
0.0
 10
67.43813869297333
 20
108.4444240711487
 30
0.0
  0
SPLINE
  5
DD
330
1F
100
AcDbEntity
  8
0
  6
Continuous
 62
     7
370
    25
100
AcDbSpline
210
0.0
220
0.0
230
1.0
 70
     8
 71
     3
 72
    13
 73
     9
 74
     0
 42
0.000000001
 43
0.00000001
 40
0.0
 40
0.0
 40
0.0
 40
0.0
 40
0.1667030582308044
 40
0.3329480818053134
 40
0.4990671507274983
 40
0.6653938523718556
 40
0.8322612710550201
 40
1.0
 40
1.0
 40
1.0
 40
1.0
 10
60.96262447200883
 20
108.8557445296401
 30
0.0
 10
61.02373151476016
 20
108.8520579019664
 30
0.0
 10
61.14577770206336
 20
108.8446947760266
 30
0.0
 10
61.32811264732706
 20
108.8296602684376
 30
0.0
 10
61.50941686020076
 20
108.8117586602046
 30
0.0
 10
61.6896157202374
 20
108.7906580833587
 30
0.0
 10
61.86891969837574
 20
108.7667117123245
 30
0.0
 10
61.98695172394714
 20
108.7482988971118
 30
0.0
 10
62.04612141369878
 20
108.7390685161341
 30
0.0
  0
SPLINE
  5
DE
330
1F
100
AcDbEntity
  8
0
  6
Continuous
 62
     7
370
    25
100
AcDbSpline
210
0.0
220
0.0
230
1.0
 70
     8
 71
     3
 72
     8
 73
     4
 74
     0
 42
0.000000001
 43
0.00000001
 40
0.0
 40
0.0
 40
0.0
 40
0.0
 40
1.0
 40
1.0
 40
1.0
 40
1.0
 10
55.14445001907461
 20
109.1755117617338
 30
0.0
 10
57.08384150338603
 20
109.0690261118504
 30
0.0
 10
59.02323298769743
 20
108.9624355406191
 30
0.0
 10
60.96262447200884
 20
108.8557445296401
 30
0.0
  0
LINE
  5
DF
330
1F
100
AcDbEntity
  8
0
  6
Continuous
 62
     7
370
    25
100
AcDbLine
 10
55.1444510741
 20
109.1755125461
 30
0.0
 11
55.1444510741
 21
151.5533029822
 31
0.0
  0
SPLINE
  5
E0
330
1F
100
AcDbEntity
  8
0
  6
Continuous
 62
     7
370
    25
100
AcDbSpline
210
0.0
220
0.0
230
1.0
 70
     8
 71
     3
 72
     8
 73
     4
 74
     0
 42
0.000000001
 43
0.00000001
 40
0.0
 40
0.0
 40
0.0
 40
0.0
 40
1.0
 40
1.0
 40
1.0
 40
1.0
 10
60.96262447200884
 20
151.8729834543493
 30
0.0
 10
59.02323298769743
 20
151.7662924433703
 30
0.0
 10
57.08384150338603
 20
151.659701872139
 30
0.0
 10
55.14445001907463
 20
151.5532162222556
 30
0.0
  0
SPLINE
  5
E1
330
1F
100
AcDbEntity
  8
0
  6
Continuous
 62
     7
370
    25
100
AcDbSpline
210
0.0
220
0.0
230
1.0
 70
     8
 71
     3
 72
    13
 73
     9
 74
     0
 42
0.000000001
 43
0.00000001
 40
0.0
 40
0.0
 40
0.0
 40
0.0
 40
0.1686319999748162
 40
0.3360343310905639
 40
0.5025367825908819
 40
0.6684737453788441
 40
0.8341822636915266
 40
1.0
 40
1.0
 40
1.0
 40
1.0
 10
62.04611952147582
 20
151.9896622300913
 30
0.0
 10
61.98662962541608
 20
151.980387739895
 30
0.0
 10
61.86808363514101
 20
151.9619063893221
 30
0.0
 10
61.68820693955512
 20
151.9378756425879
 30
0.0
 10
61.50781665192709
 20
151.9167445350788
 30
0.0
 10
61.32670447989329
 20
151.8988658364928
 30
0.0
 10
61.14494364272582
 20
151.8839040753157
 30
0.0
 10
61.02341087483121
 20
151.8766244607367
 30
0.0
 10
60.96262447200883
 20
151.8729834543493
 30
0.0
  0
SPLINE
  5
E2
330
1F
100
AcDbEntity
  8
0
  6
Continuous
 62
     7
370
    25
100
AcDbSpline
210
0.0
220
0.0
230
1.0
 70
     8
 71
     3
 72
     8
 73
     4
 74
     0
 42
0.000000001
 43
0.00000001
 40
0.0
 40
0.0
 40
0.0
 40
0.0
 40
1.0
 40
1.0
 40
1.0
 40
1.0
 10
67.4383129379691
 20
152.2843134540363
 30
0.0
 10
65.64091826653112
 20
152.1860115948197
 30
0.0
 10
63.84352359509315
 20
152.0877895546611
 30
0.0
 10
62.04612892365519
 20
151.9896505648455
 30
0.0
  0
SPLINE
  5
E3
330
1F
100
AcDbEntity
  8
0
  6
Continuous
 62
     7
370
    25
100
AcDbSpline
210
0.0
220
0.0
230
1.0
 70
     8
 71
     3
 72
    18
 73
    14
 74
     0
 42
0.000000001
 43
0.00000001
 40
0.0
 40
0.0
 40
0.0
 40
0.0
 40
0.0923325137111259
 40
0.1843692047063178
 40
0.2763458873811051
 40
0.3684982175655905
 40
0.461059898830402
 40
0.5542609546533457
 40
0.6483261285442697
 40
0.7434734636505935
 40
0.8399130993120554
 40
0.9201660718299485
 40
1.0
 40
1.0
 40
1.0
 40
1.0
 10
69.63463458657097
 20
152.1782661874363
 30
0.0
 10
69.56430428305792
 20
152.1745948801314
 30
0.0
 10
69.42386900620598
 20
152.1672640279664
 30
0.0
 10
69.21350647970337
 20
152.1616733687217
 30
0.0
 10
69.004062816787
 20
152.1600687785881
 30
0.0
 10
68.7955131464145
 20
152.1628010525866
 30
0.0
 10
68.58786952913923
 20
152.1697241501747
 30
0.0
 10
68.38113134159963
 20
152.1808067604675
 30
0.0
 10
68.1753092496348
 20
152.195975701322
 30
0.0
 10
67.97037757084263
 20
152.2151296872829
 30
0.0
 10
67.77889682544702
 20
152.2368323813345
 30
0.0
 10
67.60117367339247
 20
152.2598619045983
 30
0.0
 10
67.49283967882856
 20
152.2761253222406
 30
0.0
 10
67.43881446937529
 20
152.2842357454562
 30
0.0
  0
LINE
  5
E4
330
1F
100
AcDbEntity
  8
0
  6
Continuous
 62
     7
370
    25
100
AcDbLine
 10
71.5495082361
 20
152.2837765304
 30
0.0
 11
69.6346345169
 21
152.1782669959
 31
0.0
  0
SPLINE
  5
E5
330
1F
100
AcDbEntity
  8
0
  6
Continuous
 62
     7
370
    25
100
AcDbSpline
210
0.0
220
0.0
230
1.0
 70
     8
 71
     3
 72
    25
 73
    21
 74
     0
 42
0.000000001
 43
0.00000001
 40
0.0
 40
0.0
 40
0.0
 40
0.0
 40
0.0280105225426479
 40
0.0559601148860778
 40
0.0839014045043132
 40
0.1118870776786396
 40
0.1399695827588963
 40
0.1682008401739896
 40
0.1966319670424239
 40
0.2253130233141486
 40
0.2542927850735853
 40
0.3799486436570562
 40
0.5057850221666559
 40
0.6313085886326678
 40
0.753206823801271
 40
0.8039473267958359
 40
0.8535894438558028
 40
0.9025339722397656
 40
0.9511970353793487
 40
1.0
 40
1.0
 40
1.0
 40
1.0
 10
76.48939217226331
 20
154.1056997215421
 30
0.0
 10
76.48942939399714
 20
154.0917415817202
 30
0.0
 10
76.4895037564978
 20
154.0638556646746
 30
0.0
 10
76.47708770585129
 20
154.0188118697888
 30
0.0
 10
76.45548314549754
 20
153.9715446455937
 30
0.0
 10
76.42379767583752
 20
153.9218454646177
 30
0.0
 10
76.38227153751762
 20
153.8698082156452
 30
0.0
 10
76.33084078178773
 20
153.8154454530093
 30
0.0
 10
76.26952690707648
 20
153.7587941703444
 30
0.0
 10
76.19831657157702
 20
153.6998766086791
 30
0.0
 10
76.02747996437351
 20
153.5710600328562
 30
0.0
 10
75.6897477309366
 20
153.3608566487129
 30
0.0
 10
75.07819306674092
 20
153.0699311271212
 30
0.0
 10
74.34195823159232
 20
152.791404310899
 30
0.0
 10
73.65547215994296
 20
152.5971076051647
 30
0.0
 10
73.10676801379127
 20
152.4765167927117
 30
0.0
 10
72.72473183528541
 20
152.4067396269491
 30
0.0
 10
72.33756573658098
 20
152.3509506230934
 30
0.0
 10
71.94533906779549
 20
152.3082204383501
 30
0.0
 10
71.68157779968129
 20
152.2919325432049
 30
0.0
 10
71.54950786586043
 20
152.2837769059148
 30
0.0
  0
LINE
  5
E6
330
1F
100
AcDbEntity
  8
0
  6
Continuous
 62
     7
370
    25
100
AcDbLine
 10
76.4893921835
 20
154.5053832022
 30
0.0
 11
76.4893921835
 21
154.1057005314
 31
0.0
  0
SPLINE
  5
E7
330
1F
100
AcDbEntity
  8
0
  6
Continuous
 62
     7
370
    25
100
AcDbSpline
210
0.0
220
0.0
230
1.0
 70
    11
 71
     3
 72
    39
 73
    35
 74
     0
 42
0.000000001
 43
0.00000001
 40
0.0
 40
0.0
 40
0.0
 40
0.0
 40
0.0310664058347798
 40
0.0621048158425991
 40
0.0931361551792733
 40
0.1235538293503577
 40
0.1538561545807598
 40
0.1850588072749104
 40
0.2160250992947717
 40
0.247186722379756
 40
0.2784462884306427
 40
0.3100516090231226
 40
0.3419834369140484
 40
0.3734259894013217
 40
0.4048604886785525
 40
0.4368740651833295
 40
0.468512068592407
 40
0.4998055358633177
 40
0.5309508213228404
 40
0.561864978443814
 40
0.5930416446592908
 40
0.6233742450133256
 40
0.6540913579073041
 40
0.6849496782718417
 40
0.7158160645167227
 40
0.7471731804043494
 40
0.7784514311866261
 40
0.8101295911560916
 40
0.8419598919689909
 40
0.8735175891922292
 40
0.9050808037889628
 40
0.9370235169792575
 40
0.9687441590033682
 40
0.9999999999999999
 40
0.9999999999999999
 40
0.9999999999999999
 40
0.9999999999999999
 10
65.50686611378883
 20
136.1726171215894
 30
0.0
 10
65.87099527475355
 20
136.5520407794972
 30
0.0
 10
66.67377961147045
 20
137.2395224803907
 30
0.0
 10
68.0688180968525
 20
138.0054364548094
 30
0.0
 10
69.5800599365758
 20
138.4943173882401
 30
0.0
 10
71.15165634309825
 20
138.6562952618738
 30
0.0
 10
72.71920096015687
 20
138.4948503709153
 30
0.0
 10
74.21487295426554
 20
138.0151259836714
 30
0.0
 10
75.59528921630113
 20
137.2618265154777
 30
0.0
 10
76.79233526988574
 20
136.2493406418174
 30
0.0
 10
77.78124304962716
 20
135.0147918544515
 30
0.0
 10
78.52073784392967
 20
133.5898402261695
 30
0.0
 10
78.99704176681911
 20
132.0389097466271
 30
0.0
 10
79.16470793927513
 20
130.417980879401
 30
0.0
 10
79.01943033848757
 20
128.7929719334796
 30
0.0
 10
78.56045562785575
 20
127.233945953208
 30
0.0
 10
77.83646974200248
 20
125.7972893545324
 30
0.0
 10
76.86065548667973
 20
124.5505451397318
 30
0.0
 10
75.67633093903069
 20
123.5243479505349
 30
0.0
 10
74.30812468330114
 20
122.7539437308141
 30
0.0
 10
72.8203868461689
 20
122.2550945203375
 30
0.0
 10
71.25073698571636
 20
122.0738904404416
 30
0.0
 10
69.67448246738721
 20
122.21031358236
 30
0.0
 10
68.15520695891236
 20
122.6747453151667
 30
0.0
 10
66.75418892486442
 20
123.4291793895358
 30
0.0
 10
65.53605242796527
 20
124.4525891250704
 30
0.0
 10
64.52844152483677
 20
125.6995313865635
 30
0.0
 10
63.7829676142867
 20
127.1326207928316
 30
0.0
 10
63.30713180166295
 20
128.6892830180532
 30
0.0
 10
63.14332068667514
 20
130.3129459917588
 30
0.0
 10
63.28913282994048
 20
131.9404950357503
 30
0.0
 10
63.74927714211753
 20
133.5052427240858
 30
0.0
 10
64.47873720693877
 20
134.9492687935483
 30
0.0
 10
65.14051658440077
 20
135.7908798332466
 30
0.0
 10
65.50686611378883
 20
136.1726171215894
 30
0.0
  0
SPLINE
  5
E8
330
1F
100
AcDbEntity
  8
0
  6
Continuous
 62
     7
370
    25
100
AcDbSpline
210
0.0
220
0.0
230
1.0
 70
    11
 71
     3
 72
    47
 73
    43
 74
     0
 42
0.000000001
 43
0.00000001
 40
0.0
 40
0.0
 40
0.0
 40
0.0
 40
0.0185565231571564
 40
0.035175779134607
 40
0.0498587703163977
 40
0.0626072874024163
 40
0.0953681049684394
 40
0.1250235944851125
 40
0.1545621306648851
 40
0.187325415667866
 40
0.214037648789779
 40
0.2498478283714602
 40
0.2676842772503708
 40
0.2839032654384537
 40
0.2985082395935219
 40
0.311504112535417
 40
0.3429211892384783
 40
0.3729479206117491
 40
0.4028496296254227
 40
0.4364008870238722
 40
0.4619504140689453
 40
0.4999311490763327
 40
0.5173446591947486
 40
0.5335937024374298
 40
0.5486836298429361
 40
0.5626211828729782
 40
0.5950895091111661
 40
0.6250625446193601
 40
0.6549914305494098
 40
0.6874537010179621
 40
0.7162620319992257
 40
0.7500327075718594
 40
0.7698580256218077
 40
0.7869169820502812
 40
0.8012094712348541
 40
0.8127363282889571
 40
0.8457518306190162
 40
0.8751838152098743
 40
0.9050548231038161
 40
0.9375234850660229
 40
0.9660340097891252
 40
1.0
 40
1.0
 40
1.0
 40
1.0
 10
66.05067903416312
 20
135.4735831157859
 30
0.0
 10
65.8525804065522
 20
135.2741978266734
 30
0.0
 10
65.49963442656117
 20
134.874868798571
 30
0.0
 10
65.06372743066497
 20
134.2562145039961
 30
0.0
 10
64.73379069365738
 20
133.6738539332452
 30
0.0
 10
64.35257496166562
 20
132.8413256282574
 30
0.0
 10
64.0261691431246
 20
131.732039525092
 30
0.0
 10
63.90181608429499
 20
130.3208621964672
 30
0.0
 10
64.0431854522015
 20
128.9113721972969
 30
0.0
 10
64.44468320643044
 20
127.6033045985757
 30
0.0
 10
65.12163259692674
 20
126.3186412976633
 30
0.0
 10
65.89481495461449
 20
125.3651535157519
 30
0.0
 10
66.6900766555786
 20
124.665849548221
 30
0.0
 10
67.2942167733411
 20
124.2393505083023
 30
0.0
 10
67.87393196796545
 20
123.9091989801932
 30
0.0
 10
68.69173323540245
 20
123.5332383381043
 30
0.0
 10
69.79139566476368
 20
123.2042365038801
 30
0.0
 10
71.19376339342381
 20
123.070658487376
 30
0.0
 10
72.62123607682807
 20
123.2066583663836
 30
0.0
 10
73.91841306058352
 20
123.6011465162271
 30
0.0
 10
75.21281608374062
 20
124.2729403231766
 30
0.0
 10
76.16481276420151
 20
125.0354943131295
 30
0.0
 10
76.87428549282077
 20
125.8375334330578
 30
0.0
 10
77.29989027276014
 20
126.4333290380445
 30
0.0
 10
77.64055290067814
 20
127.0245986583439
 30
0.0
 10
78.03021828754812
 20
127.8691614893884
 30
0.0
 10
78.36193024910506
 20
128.9928133942548
 30
0.0
 10
78.48817141060283
 20
130.4107055544075
 30
0.0
 10
78.34384329933269
 20
131.8265307459794
 30
0.0
 10
77.9315649502642
 20
133.1616887213363
 30
0.0
 10
77.2522487692824
 20
134.4306570549192
 30
0.0
 10
76.46589841104664
 20
135.3909795471594
 30
0.0
 10
75.67205073732573
 20
136.0863871540258
 30
0.0
 10
75.04232651528761
 20
136.5224610300507
 30
0.0
 10
74.48109059592194
 20
136.8353101785221
 30
0.0
 10
73.67748213636916
 20
137.2025121792991
 30
0.0
 10
72.59733374187759
 20
137.5252221172248
 30
0.0
 10
71.18780542180212
 20
137.6571663497378
 30
0.0
 10
69.77860049496823
 20
137.5233563287174
 30
0.0
 10
68.43788764514623
 20
137.1186023366124
 30
0.0
 10
67.15361917996499
 20
136.440346988083
 30
0.0
 10
66.41328015233788
 20
135.8385393482026
 30
0.0
 10
66.05067903416314
 20
135.4735831157859
 30
0.0
  0
SPLINE
  5
E9
330
1F
100
AcDbEntity
  8
0
  6
Continuous
 62
     7
370
    25
100
AcDbSpline
210
0.0
220
0.0
230
1.0
 70
     8
 71
     3
 72
     8
 73
     4
 74
     0
 42
0.000000001
 43
0.00000001
 40
0.0
 40
0.0
 40
0.0
 40
0.0
 40
1.0
 40
1.0
 40
1.0
 40
1.0
 10
54.23079019748267
 20
109.5860837727342
 30
0.0
 10
54.5353434711921
 20
109.4484070323589
 30
0.0
 10
54.8398967449015
 20
109.3115443114449
 30
0.0
 10
55.14445001861092
 20
109.1755117621138
 30
0.0
  0
SPLINE
  5
EA
330
1F
100
AcDbEntity
  8
0
  6
Continuous
 62
     7
370
    25
100
AcDbSpline
210
0.0
220
0.0
230
1.0
 70
     8
 71
     3
 72
     8
 73
     4
 74
     0
 42
0.000000001
 43
0.00000001
 40
0.0
 40
0.0
 40
0.0
 40
0.0
 40
1.0
 40
1.0
 40
1.0
 40
1.0
 10
53.64445001906187
 20
110.1021382552503
 30
0.0
 10
53.8389971515946
 20
109.9287313869305
 30
0.0
 10
54.03445817183364
 20
109.7567352919638
 30
0.0
 10
54.2307901974908
 20
109.586083772732
 30
0.0
  0
LINE
  5
EB
330
1F
100
AcDbEntity
  8
0
  6
Continuous
 62
     7
370
    25
100
AcDbLine
 10
53.6444517595
 20
110.1021375296
 30
0.0
 11
53.6444517595
 21
150.6265904544
 31
0.0
  0
SPLINE
  5
EC
330
1F
100
AcDbEntity
  8
0
  6
Continuous
 62
     7
370
    25
100
AcDbSpline
210
0.0
220
0.0
230
1.0
 70
     8
 71
     3
 72
     8
 73
     4
 74
     0
 42
0.000000001
 43
0.00000001
 40
0.0
 40
0.0
 40
0.0
 40
0.0
 40
1.0
 40
1.0
 40
1.0
 40
1.0
 10
54.23079019749433
 20
151.1426442112605
 30
0.0
 10
54.03445817183597
 20
150.9719926920276
 30
0.0
 10
53.83899715159576
 20
150.7999965970599
 30
0.0
 10
53.64445001906187
 20
150.626589728739
 30
0.0
  0
SPLINE
  5
ED
330
1F
100
AcDbEntity
  8
0
  6
Continuous
 62
     7
370
    25
100
AcDbSpline
210
0.0
220
0.0
230
1.0
 70
     8
 71
     3
 72
     8
 73
     4
 74
     0
 42
0.000000001
 43
0.00000001
 40
0.0
 40
0.0
 40
0.0
 40
0.0
 40
1.0
 40
1.0
 40
1.0
 40
1.0
 10
55.14445001861095
 20
151.5532162218757
 30
0.0
 10
54.8398967449054
 20
151.4171836725462
 30
0.0
 10
54.53534347119987
 20
151.280320951634
 30
0.0
 10
54.23079019749433
 20
151.1426442112605
 30
0.0
  0
SPLINE
  5
EE
330
1F
100
AcDbEntity
  8
0
  6
Continuous
 62
     7
370
    25
100
AcDbSpline
210
0.0
220
0.0
230
1.0
 70
     8
 71
     3
 72
     9
 73
     5
 74
     0
 42
0.000000001
 43
0.00000001
 40
0.0
 40
0.0
 40
0.0
 40
0.0
 40
0.8959546455136717
 40
0.9999999999999999
 40
0.9999999999999999
 40
0.9999999999999999
 40
0.9999999999999999
 10
69.26919471448689
 20
123.3746651349257
 30
0.0
 10
69.37322712638688
 20
123.3475662886967
 30
0.0
 10
69.48934060648423
 20
123.3173205096668
 30
0.0
 10
69.44000459534361
 20
123.3298914328835
 30
0.0
 10
69.43487141257553
 20
123.3311993790458
 30
0.0
  0
LINE
  5
EF
330
1F
100
AcDbEntity
  8
0
  6
Continuous
 62
     7
370
    25
100
AcDbLine
 10
206.0944470388
 20
116.8643636418
 30
0.0
 11
206.0944470388
 21
143.8643643422
 31
0.0
  0
LINE
  5
F0
330
1F
100
AcDbEntity
  8
0
  6
Continuous
 62
     7
370
    25
100
AcDbLine
 10
224.5944472772
 20
117.6643641455
 30
0.0
 11
224.5944472772
 21
143.0643638385
 31
0.0
  0
LINE
  5
F1
330
1F
100
AcDbEntity
  8
0
  6
Continuous
 62
     7
370
    25
100
AcDbLine
 10
76.4893921835
 20
154.1057005314
 30
0.0
 11
75.8934090657
 21
153.5195838449
 31
0.0
  0
LINE
  5
F2
330
1F
100
AcDbEntity
  8
0
  6
Continuous
 62
     7
370
    25
100
AcDbLine
 10
76.4893921835
 20
106.6230274526
 30
0.0
 11
75.8962086213
 21
107.2063911495
 31
0.0
  0
LINE
  5
F3
330
1F
100
AcDbEntity
  8
0
  6
Continuous
 62
     7
370
    25
100
AcDbLine
 10
75.5944507939
 20
107.1182861713
 30
0.0
 11
75.5944507939
 21
107.5031533627
 31
0.0
  0
LINE
  5
F4
330
1F
100
AcDbEntity
  8
0
  6
Continuous
 62
     7
370
    25
100
AcDbLine
 10
75.5944507939
 20
153.2255746213
 30
0.0
 11
75.5944507939
 21
153.6104418127
 31
0.0
  0
SPLINE
  5
F5
330
1F
100
AcDbEntity
  8
0
  6
Continuous
 62
     7
370
    25
100
AcDbSpline
210
0.0
220
0.0
230
1.0
 70
     8
 71
     3
 72
     9
 73
     5
 74
     0
 42
0.000000001
 43
0.00000001
 40
0.0
 40
0.0
 40
0.0
 40
0.0
 40
0.7785869072975132
 40
1.0
 40
1.0
 40
1.0
 40
1.0
 10
66.24021332687168
 20
135.6275067453871
 30
0.0
 10
66.08781884622769
 20
135.4996826804355
 30
0.0
 10
65.89208670738019
 20
135.3355082462733
 30
0.0
 10
65.73656811198597
 20
135.1257486526149
 30
0.0
 10
65.70213425880699
 20
135.079305132259
 30
0.0
  0
SPLINE
  5
F6
330
1F
100
AcDbEntity
  8
0
  6
Continuous
 62
     7
370
    25
100
AcDbSpline
210
0.0
220
0.0
230
1.0
 70
     8
 71
     3
 72
     9
 73
     5
 74
     0
 42
0.000000001
 43
0.00000001
 40
0.0
 40
0.0
 40
0.0
 40
0.0
 40
0.4260717682333453
 40
1.0
 40
1.0
 40
1.0
 40
1.0
 10
68.55744447535305
 20
123.6187591937969
 30
0.0
 10
68.69688198485005
 20
123.5645765819907
 30
0.0
 10
69.02414494825915
 20
123.4374087763629
 30
0.0
 10
69.18227711264693
 20
123.3980003356592
 30
0.0
 10
69.27303362613945
 20
123.3753827189694
 30
0.0
  0
LINE
  5
F7
330
1F
100
AcDbEntity
  8
0
  6
HIDDEN
 62
     7
370
    18
100
AcDbLine
 10
227.5944533569
 20
121.3643643794
 30
0.0
 11
227.5944533569
 21
139.3643636046
 31
0.0
  0
LINE
  5
F8
330
1F
100
AcDbEntity
  8
0
  6
HIDDEN
 62
     7
370
    18
100
AcDbLine
 10
239.5944478733
 20
138.7643636925
 30
0.0
 11
239.5944478733
 21
121.9643642915
 31
0.0
  0
LINE
  5
F9
330
1F
100
AcDbEntity
  8
0
  6
HIDDEN
 62
     7
370
    18
100
AcDbLine
 10
227.5944533569
 20
123.7643640278
 30
0.0
 11
227.5944533569
 21
136.9377942545
 31
0.0
  0
LINE
  5
FA
330
1F
100
AcDbEntity
  8
0
  6
HIDDEN
 62
     7
370
    18
100
AcDbLine
 10
198.5584529859
 20
124.3643639398
 30
0.0
 11
198.5584529859
 21
136.3643640441
 31
0.0
  0
LINE
  5
FB
330
1F
100
AcDbEntity
  8
0
  6
HIDDEN
 62
     7
370
    18
100
AcDbLine
 10
197.5944521648
 20
125.3283638296
 30
0.0
 11
197.5944521648
 21
135.4003641544
 31
0.0
  0
LINE
  5
FC
330
1F
100
AcDbEntity
  8
0
  6
HIDDEN
 62
     7
370
    18
100
AcDbLine
 10
239.5944478733
 20
130.364363992
 30
0.0
 11
239.5944478733
 21
125.3068637823
 31
0.0
  0
LINE
  5
FD
330
1F
100
AcDbEntity
  8
0
  6
HIDDEN
 62
     7
370
    18
100
AcDbLine
 10
233.5944506151
 20
130.364363992
 30
0.0
 11
233.5944506151
 21
127.8356138872
 31
0.0
  0
LINE
  5
FE
330
1F
100
AcDbEntity
  8
0
  6
HIDDEN
 62
     7
370
    18
100
AcDbLine
 10
233.5944506151
 20
130.364363992
 30
0.0
 11
233.5944506151
 21
132.8931140968
 31
0.0
  0
LINE
  5
FF
330
1F
100
AcDbEntity
  8
0
  6
HIDDEN
 62
     7
370
    18
100
AcDbLine
 10
233.5944506151
 20
130.364363992
 30
0.0
 11
239.5944478733
 21
130.364363992
 31
0.0
  0
LINE
  5
100
330
1F
100
AcDbEntity
  8
0
  6
HIDDEN
 62
     7
370
    18
100
AcDbLine
 10
239.5944478733
 20
130.364363992
 30
0.0
 11
239.5944478733
 21
135.4218642017
 31
0.0
  0
LINE
  5
101
330
1F
100
AcDbEntity
  8
0
  6
HIDDEN
 62
     7
370
    18
100
AcDbLine
 10
233.5944506151
 20
132.8931140968
 30
0.0
 11
233.5944506151
 21
135.4218642017
 31
0.0
  0
LINE
  5
102
330
1F
100
AcDbEntity
  8
0
  6
HIDDEN
 62
     7
370
    18
100
AcDbLine
 10
233.5944506151
 20
127.8356138872
 30
0.0
 11
233.5944506151
 21
132.8931140968
 31
0.0
  0
LINE
  5
103
330
1F
100
AcDbEntity
  8
0
  6
HIDDEN
 62
     7
370
    18
100
AcDbLine
 10
233.5944506151
 20
125.3068637823
 30
0.0
 11
233.5944506151
 21
127.8356138872
 31
0.0
  0
LINE
  5
104
330
1F
100
AcDbEntity
  8
0
  6
HIDDEN
 62
     7
370
    18
100
AcDbLine
 10
233.5944506151
 20
127.8356138872
 30
0.0
 11
233.5944506151
 21
125.3068637823
 31
0.0
  0
LINE
  5
105
330
1F
100
AcDbEntity
  8
0
  6
HIDDEN
 62
     7
370
    18
100
AcDbLine
 10
233.5944506151
 20
135.4218642017
 30
0.0
 11
233.5944506151
 21
132.8931140968
 31
0.0
  0
LINE
  5
106
330
1F
100
AcDbEntity
  8
0
  6
HIDDEN
 62
     7
370
    18
100
AcDbLine
 10
233.5944506151
 20
132.8931140968
 30
0.0
 11
233.5944506151
 21
127.8356138872
 31
0.0
  0
LINE
  5
107
330
1F
100
AcDbEntity
  8
0
  6
HIDDEN
 62
     7
370
    18
100
AcDbLine
 10
233.5944506151
 20
127.8356138872
 30
0.0
 11
233.5944506151
 21
125.3068637823
 31
0.0
  0
LINE
  5
108
330
1F
100
AcDbEntity
  8
0
  6
HIDDEN
 62
     7
370
    18
100
AcDbLine
 10
233.5944506151
 20
132.8931140968
 30
0.0
 11
233.5944506151
 21
135.4218642017
 31
0.0
  0
LINE
  5
109
330
1F
100
AcDbEntity
  8
0
  6
HIDDEN
 62
     7
370
    18
100
AcDbLine
 10
233.5944506151
 20
125.3068637823
 30
0.0
 11
239.5944478733
 21
125.3068637823
 31
0.0
  0
LINE
  5
10A
330
1F
100
AcDbEntity
  8
0
  6
HIDDEN
 62
     7
370
    18
100
AcDbLine
 10
233.5944506151
 20
135.4218642017
 30
0.0
 11
239.5944478733
 21
135.4218642017
 31
0.0
  0
LINE
  5
10B
330
1F
100
AcDbEntity
  8
0
  6
HIDDEN
 62
     7
370
    18
100
AcDbLine
 10
224.5944472772
 20
136.3643640441
 30
0.0
 11
198.5584529859
 21
136.3643640441
 31
0.0
  0
LINE
  5
10C
330
1F
100
AcDbEntity
  8
0
  6
HIDDEN
 62
     7
370
    18
100
AcDbLine
 10
198.5584529859
 20
124.3643639398
 30
0.0
 11
224.5944472772
 21
124.3643639398
 31
0.0
  0
LINE
  5
10D
330
1F
100
AcDbEntity
  8
0
  6
HIDDEN
 62
     7
370
    18
100
AcDbLine
 10
198.5584529859
 20
136.3643640441
 30
0.0
 11
197.5944521648
 21
135.4003641544
 31
0.0
  0
LINE
  5
10E
330
1F
100
AcDbEntity
  8
0
  6
HIDDEN
 62
     7
370
    18
100
AcDbLine
 10
197.5944521648
 20
125.3283638296
 30
0.0
 11
198.5584529859
 21
124.3643639398
 31
0.0
  0
LINE
  5
10F
330
1F
100
AcDbEntity
  8
0
  6
HIDDEN
 62
     7
370
    18
100
AcDbLine
 10
233.5944506151
 20
135.4218642017
 30
0.0
 11
230.6745084745
 21
130.364363992
 31
0.0
  0
LINE
  5
110
330
1F
100
AcDbEntity
  8
0
  6
HIDDEN
 62
     7
370
    18
100
AcDbLine
 10
230.6745084745
 20
130.364363992
 30
0.0
 11
233.5944506151
 21
125.3068637823
 31
0.0
  0
DIMENSION
  5
111
330
1F
100
AcDbEntity
  8
VERMASSUNG
100
AcDbDimension
  2
_D
 10
261.5944500191
 20
143.864363992
 30
0.0
 11
261.5944500191
 21
130.364363992
 31
0.0
 70
   160
  1
%%c<>
 71
     2
 42
-1.0
  3
SLDDIMSTYLE0
100
AcDbAlignedDimension
 13
223.7944500191
 23
116.864363992
 33
0.0
 14
223.7944500191
 24
143.864363992
 34
0.0
 50
90.0
100
AcDbRotatedDimension
  0
DIMENSION
  5
11D
330
1F
100
AcDbEntity
  8
VERMASSUNG
100
AcDbDimension
  2
_D_1
 10
270.463281722
 20
101.364363992
 30
0.0
 11
270.463281722
 21
130.364363992
 31
0.0
 70
   160
  1
%%c<>
 71
     2
 42
-1.0
  3
SLDDIMSTYLE0
100
AcDbAlignedDimension
 13
202.7944500191
 23
159.364363992
 33
0.0
 14
202.7944500191
 24
101.364363992
 34
0.0
 50
90.0
100
AcDbRotatedDimension
  0
DIMENSION
  5
128
330
1F
100
AcDbEntity
  8
VERMASSUNG
100
AcDbDimension
  2
_D_2
 10
43.6444250191
 20
161.839363992
 30
0.0
 11
43.6444250191
 21
130.364363992
 31
0.0
 70
   160
  1
%%c<>
 71
     2
 42
-1.0
  3
SLDDIMSTYLE1
100
AcDbAlignedDimension
 13
93.7944500191
 23
98.889363992
 33
0.0
 14
93.7944500191
 24
161.839363992
 34
0.0
 50
90.0
100
AcDbRotatedDimension
  0
DIMENSION
  5
134
330
1F
100
AcDbEntity
  8
VERMASSUNG
100
AcDbDimension
  2
_D_3
 10
203.5944500191
 20
179.5884614489
 30
0.0
 11
148.5944500191
 21
179.5884614489
 31
0.0
 70
   160
  1
<>
 71
     2
 42
-1.0
  3
SLDDIMSTYLE0
100
AcDbAlignedDimension
 13
93.5944500191
 23
161.639363992
 33
0.0
 14
203.5944500191
 24
158.564363992
 34
0.0
100
AcDbRotatedDimension
  0
DIMENSION
  5
13E
330
1F
100
AcDbEntity
  8
VERMASSUNG
100
AcDbDimension
  2
_D_4
 10
203.5944500191
 20
170.1281324711
 30
0.0
 11
157.5944500191
 21
170.1281324711
 31
0.0
 70
   160
  1
<>
 71
     2
 42
-1.0
  3
SLDDIMSTYLE0
100
AcDbAlignedDimension
 13
111.5944500191
 23
161.839363992
 33
0.0
 14
203.5944500191
 24
158.564363992
 34
0.0
100
AcDbRotatedDimension
  0
DIMENSION
  5
148
330
1F
100
AcDbEntity
  8
VERMASSUNG
100
AcDbDimension
  2
_D_5
 10
224.5944500191
 20
189.839363992
 30
0.0
 11
139.1194500191
 21
189.839363992
 31
0.0
 70
   160
  1
<>
 71
     2
 42
-1.0
  3
SLDDIMSTYLE0
100
AcDbAlignedDimension
 13
53.6444500191
 23
150.6265897287
 33
0.0
 14
224.5944500191
 24
139.5354318039
 34
0.0
100
AcDbRotatedDimension
  0
DIMENSION
  5
152
330
1F
100
AcDbEntity
  8
VERMASSUNG
100
AcDbDimension
  2
_D_6
 10
224.5944500191
 20
170.1281324711
 30
0.0
 11
214.0944500191
 21
170.1281324711
 31
0.0
 70
   160
  1
<>
 71
     2
 42
-1.0
  3
SLDDIMSTYLE0
100
AcDbAlignedDimension
 13
203.5944500191
 23
158.564363992
 33
0.0
 14
224.5944500191
 24
143.064363992
 34
0.0
100
AcDbRotatedDimension
  0
DIMENSION
  5
15C
330
1F
100
AcDbEntity
  8
VERMASSUNG
100
AcDbDimension
  2
_D_7
 10
251.9022847799
 20
125.306863992
 30
0.0
 11
251.9022847799
 21
130.364363992
 31
0.0
 70
   160
  1
SW<>
 71
     2
 42
-1.0
  3
SLDDIMSTYLE1
100
AcDbAlignedDimension
 13
239.5944500191
 23
135.421863992
 33
0.0
 14
239.5944500191
 24
125.306863992
 34
0.0
 50
90.0
100
AcDbRotatedDimension
  0
LINE
  5
167
330
1F
100
AcDbEntity
  8
VERMASSUNG
  6
CENTERX2
370
    18
100
AcDbLine
 10
243.8015570993
 20
130.364363992
 30
0.0
 11
47.8995900839
 21
130.364363992
 31
0.0
  0
SPLINE
  5
168
330
1F
100
AcDbEntity
  8
0
  6
Continuous
 62
     7
370
    25
100
AcDbSpline
210
0.0
220
0.0
230
1.0
 70
     8
 71
     3
 72
    14
 73
    10
 74
     0
 42
0.000000001
 43
0.00000001
 40
0.0
 40
0.0
 40
0.0
 40
0.0
 40
0.0800906894156906
 40
0.2332634493260111
 40
0.3871278396646604
 40
0.542004048279494
 40
0.697726498235067
 40
0.8518083653159252
 40
1.0
 40
1.0
 40
1.0
 40
1.0
 10
273.9127086222579
 20
37.39993448977164
 30
0.0
 10
273.959883701524
 20
37.49917423780786
 30
0.0
 10
274.0972807172336
 20
37.78820915692342
 30
0.0
 10
274.2350166927581
 20
38.28236970697267
 30
0.0
 10
274.3199182616607
 20
38.85070106591044
 30
0.0
 10
274.3010881409193
 20
39.38333732391257
 30
0.0
 10
274.1772646569899
 20
39.85186594310493
 30
0.0
 10
273.9547533749884
 20
40.24283201495852
 30
0.0
 10
273.7282314600608
 20
40.40799881359363
 30
0.0
 10
273.6171775546775
 20
40.48897295701792
 30
0.0
  0
SPLINE
  5
169
330
1F
100
AcDbEntity
  8
0
  6
Continuous
 62
     7
370
    25
100
AcDbSpline
210
0.0
220
0.0
230
1.0
 70
     8
 71
     3
 72
    10
 73
     6
 74
     0
 42
0.000000001
 43
0.00000001
 40
0.0
 40
0.0
 40
0.0
 40
0.0
 40
0.4035234829056865
 40
0.8075919219549074
 40
0.9999999999999999
 40
0.9999999999999999
 40
0.9999999999999999
 40
0.9999999999999999
 10
273.0717861396899
 20
36.11208154280873
 30
0.0
 10
273.2041165188323
 20
36.26777674987581
 30
0.0
 10
273.4689559885333
 20
36.57937742949194
 30
0.0
 10
273.7516431806038
 20
37.02693285556023
 30
0.0
 10
273.8734249396266
 20
37.30895980476893
 30
0.0
 10
273.9127086222579
 20
37.39993448977165
 30
0.0
  0
LINE
  5
16A
330
1F
100
AcDbEntity
  8
0
  6
Continuous
 62
     7
370
    25
100
AcDbLine
 10
273.612972748
 20
40.4916730703
 30
0.0
 11
271.5623626147
 21
41.6754651025
 31
0.0
  0
SPLINE
  5
16B
330
1F
100
AcDbEntity
  8
0
  6
Continuous
 62
     7
370
    25
100
AcDbSpline
210
0.0
220
0.0
230
1.0
 70
     8
 71
     3
 72
    12
 73
     8
 74
     0
 42
0.000000001
 43
0.00000001
 40
0.0
 40
0.0
 40
0.0
 40
0.0
 40
0.0194727792595075
 40
0.2564293230517556
 40
0.4931245483098073
 40
0.736927923089461
 40
1.0
 40
1.0
 40
1.0
 40
1.0
 10
255.102506911573
 20
26.29571912740918
 30
0.0
 10
255.1111822142431
 20
26.28926378021885
 30
0.0
 10
255.2254238415573
 20
26.20425586799324
 30
0.0
 10
255.5089457118196
 20
26.15099740661944
 30
0.0
 10
255.9245250830692
 20
26.15146795366164
 30
0.0
 10
256.3787894296652
 20
26.27701517874663
 30
0.0
 10
256.6848675069778
 20
26.4578417856892
 30
0.0
 10
256.8437242739152
 20
26.55169212089569
 30
0.0
  0
SPLINE
  5
16C
330
1F
100
AcDbEntity
  8
0
  6
Continuous
 62
     7
370
    25
100
AcDbSpline
210
0.0
220
0.0
230
1.0
 70
     8
 71
     3
 72
    14
 73
    10
 74
     0
 42
0.000000001
 43
0.00000001
 40
0.0
 40
0.0
 40
0.0
 40
0.0
 40
0.0800906894156906
 40
0.2332634493260111
 40
0.3871278396646604
 40
0.542004048279494
 40
0.697726498235067
 40
0.8518083653159252
 40
1.0
 40
1.0
 40
1.0
 40
1.0
 10
258.3563595204475
 20
28.41944530838357
 30
0.0
 10
258.4035345997136
 20
28.51868505641979
 30
0.0
 10
258.5409316154232
 20
28.80771997553535
 30
0.0
 10
258.6786675909477
 20
29.30188052558461
 30
0.0
 10
258.7635691598503
 20
29.87021188452238
 30
0.0
 10
258.7447390391089
 20
30.4028481425245
 30
0.0
 10
258.6209155551795
 20
30.87137676171687
 30
0.0
 10
258.398404273178
 20
31.26234283357045
 30
0.0
 10
258.1718823582505
 20
31.42750963220557
 30
0.0
 10
258.0608284528672
 20
31.50848377562986
 30
0.0
  0
SPLINE
  5
16D
330
1F
100
AcDbEntity
  8
0
  6
Continuous
 62
     7
370
    25
100
AcDbSpline
210
0.0
220
0.0
230
1.0
 70
     8
 71
     3
 72
    12
 73
     8
 74
     0
 42
0.000000001
 43
0.00000001
 40
0.0
 40
0.0
 40
0.0
 40
0.0
 40
0.1324239563654253
 40
0.3824897606139677
 40
0.6321024810906006
 40
0.881325664125478
 40
1.0
 40
1.0
 40
1.0
 40
1.0
 10
256.8437242739152
 20
26.55169212089569
 30
0.0
 10
256.9238254532857
 20
26.6082707715601
 30
0.0
 10
257.1551875252492
 20
26.77169101018193
 30
0.0
 10
257.5216838719164
 20
27.11747828653115
 30
0.0
 10
257.9101840669076
 20
27.60176876700154
 30
0.0
 10
258.1955133235476
 20
28.04608630569828
 30
0.0
 10
258.3171293113687
 20
28.32838346160634
 30
0.0
 10
258.3563595204475
 20
28.41944530838358
 30
0.0
  0
LINE
  5
16E
330
1F
100
AcDbEntity
  8
0
  6
Continuous
 62
     7
370
    25
100
AcDbLine
 10
253.0062576683
 20
27.4986829001
 30
0.0
 11
255.0568678015
 21
26.3148908679
 31
0.0
  0
LINE
  5
16F
330
1F
100
AcDbEntity
  8
0
  6
Continuous
 62
     7
370
    25
100
AcDbLine
 10
258.0566236462
 20
31.5111838889
 30
0.0
 11
256.0060135129
 21
32.6949759211
 31
0.0
  0
SPLINE
  5
170
330
1F
100
AcDbEntity
  8
0
  6
Continuous
 62
     7
370
    25
100
AcDbSpline
210
0.0
220
0.0
230
1.0
 70
     8
 71
     3
 72
    21
 73
    17
 74
     0
 42
0.000000001
 43
0.00000001
 40
0.0
 40
0.0
 40
0.0
 40
0.0
 40
0.0289729967520877
 40
0.1013013685983382
 40
0.1745326037269407
 40
0.2495477166167702
 40
0.3259790338367594
 40
0.4030168689841616
 40
0.4800552938803841
 40
0.5569542170840354
 40
0.6337401639221956
 40
0.7104881345414208
 40
0.7872830622895617
 40
0.8641961893937594
 40
0.9413257941926652
 40
1.0
 40
1.0
 40
1.0
 40
1.0
 10
272.7454445733952
 20
23.38539848114321
 30
0.0
 10
272.8022261152558
 20
23.35700757133089
 30
0.0
 10
273.0007574563812
 20
23.2577414151804
 30
0.0
 10
273.3984928999924
 20
23.213522786036
 30
0.0
 10
273.9164720394224
 20
23.25113472830827
 30
0.0
 10
274.4635282311926
 20
23.4159567938997
 30
0.0
 10
275.0224760228493
 20
23.69635932337318
 30
0.0
 10
275.5772687994
 20
24.08761094511417
 30
0.0
 10
276.1094818625744
 20
24.57604171422738
 30
0.0
 10
276.6030186248544
 20
25.14589070231828
 30
0.0
 10
277.0438954816959
 20
25.77986547179113
 30
0.0
 10
277.4195968676871
 20
26.45943362308625
 30
0.0
 10
277.7198682312412
 20
27.16544852300056
 30
0.0
 10
277.9336376346242
 20
27.87697537631654
 30
0.0
 10
278.0513207466878
 20
28.52151084827882
 30
0.0
 10
278.0643297333564
 20
28.90893225219216
 30
0.0
 10
278.0699502822772
 20
29.07631815311719
 30
0.0
  0
SPLINE
  5
171
330
1F
100
AcDbEntity
  8
0
  6
Continuous
 62
     7
370
    25
100
AcDbSpline
210
0.0
220
0.0
230
1.0
 70
     8
 71
     3
 72
    13
 73
     9
 74
     0
 42
0.000000001
 43
0.00000001
 40
0.0
 40
0.0
 40
0.0
 40
0.0
 40
0.1121154445484988
 40
0.3249457968795099
 40
0.5376060929018609
 40
0.7470569496886572
 40
0.9508236501632175
 40
1.0
 40
1.0
 40
1.0
 40
1.0
 10
278.0699502822772
 20
29.07631815311719
 30
0.0
 10
278.0671579957217
 20
29.18975242651014
 30
0.0
 10
278.0590650716509
 20
29.5185206038969
 30
0.0
 10
277.9678425821749
 20
30.01949307977562
 30
0.0
 10
277.7641195732322
 20
30.54241160120254
 30
0.0
 10
277.45661881656
 20
30.95755731810296
 30
0.0
 10
277.1755871787778
 20
31.21233798545275
 30
0.0
 10
276.9860478521353
 20
31.2848937981555
 30
0.0
 10
276.9491982441966
 20
31.2989998588825
 30
0.0
  0
LINE
  5
172
330
1F
100
AcDbEntity
  8
0
  6
Continuous
 62
     7
370
    25
100
AcDbLine
 10
277.0499185108
 20
31.2590815154
 30
0.0
 11
273.0194101193
 21
33.5858444833
 31
0.0
  0
LINE
  5
173
330
1F
100
AcDbEntity
  8
0
  6
Continuous
 62
     7
370
    25
100
AcDbLine
 10
268.5197756938
 20
25.7914045716
 30
0.0
 11
272.5502840853
 21
23.4646416038
 31
0.0
  0
LINE
  5
174
330
1F
100
AcDbEntity
  8
0
  6
Continuous
 62
     7
370
    25
100
AcDbLine
 10
270.5922845723
 20
33.2549902449
 30
0.0
 11
270.3918025506
 21
33.3707260524
 31
0.0
  0
LINE
  5
175
330
1F
100
AcDbEntity
  8
0
  6
Continuous
 62
     7
370
    25
100
AcDbLine
 10
267.3807404846
 20
28.180959594
 30
0.0
 11
267.5925283983
 21
28.0586970338
 31
0.0
  0
SPLINE
  5
176
330
1F
100
AcDbEntity
  8
0
  6
Continuous
 62
     7
370
    25
100
AcDbSpline
210
0.0
220
0.0
230
1.0
 70
     8
 71
     3
 72
    17
 73
    13
 74
     0
 42
0.000000001
 43
0.00000001
 40
0.0
 40
0.0
 40
0.0
 40
0.0
 40
0.0316447688624616
 40
0.1509622546323136
 40
0.2710588850870496
 40
0.3917879768805197
 40
0.5129353325183258
 40
0.6343041463642753
 40
0.7557504873653408
 40
0.8771707029835263
 40
0.9985316145769015
 40
0.9999999999999999
 40
0.9999999999999999
 40
0.9999999999999999
 40
0.9999999999999999
 10
257.2038993874881
 20
21.49960214821642
 30
0.0
 10
257.2807836280224
 20
21.4918958102157
 30
0.0
 10
257.6475620471409
 20
21.45513250931746
 30
0.0
 10
258.3447645850837
 20
21.51173165423559
 30
0.0
 10
259.2880141804573
 20
21.67281195038403
 30
0.0
 10
260.2601445304458
 20
21.96474470143223
 30
0.0
 10
261.2478753467781
 20
22.37253891186437
 30
0.0
 10
262.2423206870866
 20
22.89647547927564
 30
0.0
 10
263.2349263106735
 20
23.52683165202568
 30
0.0
 10
264.211585966916
 20
24.27073121101844
 30
0.0
 10
264.8623965048541
 20
24.80804509318927
 30
0.0
 10
265.1755173426817
 20
25.11813026338551
 30
0.0
 10
265.1792606033296
 20
25.1218372335864
 30
0.0
  0
SPLINE
  5
177
330
1F
100
AcDbEntity
  8
0
  6
Continuous
 62
     7
370
    25
100
AcDbSpline
210
0.0
220
0.0
230
1.0
 70
     8
 71
     3
 72
    13
 73
     9
 74
     0
 42
0.000000001
 43
0.00000001
 40
0.0
 40
0.0
 40
0.0
 40
0.0
 40
0.0416848154388442
 40
0.2605295273934948
 40
0.4793272320082504
 40
0.697812527614767
 40
0.9156104349183712
 40
1.0
 40
1.0
 40
1.0
 40
1.0
 10
272.3445738787708
 20
41.22390468433995
 30
0.0
 10
272.3429959895552
 20
41.2960537558371
 30
0.0
 10
272.3331342034994
 20
41.74698446768375
 30
0.0
 10
272.2205271269945
 20
42.51969560300913
 30
0.0
 10
272.0035689173439
 20
43.52827380719579
 30
0.0
 10
271.6773109064796
 20
44.44542032662122
 30
0.0
 10
271.3622301603656
 20
45.1249904756105
 30
0.0
 10
271.1247663017792
 20
45.46063236582525
 30
0.0
 10
271.0584516012043
 20
45.55436448818897
 30
0.0
  0
LINE
  5
178
330
1F
100
AcDbEntity
  8
0
  6
Continuous
 62
     7
370
    25
100
AcDbLine
 10
223.2150943146
 20
40.3985483529
 30
0.0
 11
254.7520571833
 21
22.1926472123
 31
0.0
  0
LINE
  5
179
330
1F
100
AcDbEntity
  8
0
  6
Continuous
 62
     7
370
    25
100
AcDbLine
 10
269.2508786357
 20
47.3080634803
 30
0.0
 11
237.713915767
 21
65.5139646209
 31
0.0
  0
SPLINE
  5
17A
330
1F
100
AcDbEntity
  8
0
  6
Continuous
 62
     7
370
    25
100
AcDbSpline
210
0.0
220
0.0
230
1.0
 70
     8
 71
     3
 72
    14
 73
    10
 74
     0
 42
0.000000001
 43
0.00000001
 40
0.0
 40
0.0
 40
0.0
 40
0.0
 40
0.1019459229910607
 40
0.2744089885863166
 40
0.4484885811353726
 40
0.6256864368312604
 40
0.8058315024351955
 40
0.9877832026715802
 40
1.0
 40
1.0
 40
1.0
 40
1.0
 10
266.2390954634244
 20
24.53809814385132
 30
0.0
 10
266.3414042591295
 20
24.48757433701229
 30
0.0
 10
266.6167899962855
 20
24.35157883736446
 30
0.0
 10
267.1275271569256
 20
24.26361279812063
 30
0.0
 10
267.748529758072
 20
24.26399771079912
 30
0.0
 10
268.4044746915772
 20
24.38788299452274
 30
0.0
 10
269.0802337392273
 20
24.64209569480301
 30
0.0
 10
269.5545149413659
 20
24.86803173389339
 30
0.0
 10
269.7948950464952
 20
25.0359946911583
 30
0.0
 10
269.8100194104522
 20
25.04656267429317
 30
0.0
  0
SPLINE
  5
17B
330
1F
100
AcDbEntity
  8
0
  6
Continuous
 62
     7
370
    25
100
AcDbSpline
210
0.0
220
0.0
230
1.0
 70
     8
 71
     3
 72
    14
 73
    10
 74
     0
 42
0.000000001
 43
0.00000001
 40
0.0
 40
0.0
 40
0.0
 40
0.0
 40
0.0937407899438879
 40
0.2665084835731245
 40
0.439318108218439
 40
0.6111402947241747
 40
0.7805412587687511
 40
0.946483133709448
 40
1.0
 40
1.0
 40
1.0
 40
1.0
 10
274.300743461241
 20
32.84614637629493
 30
0.0
 10
274.3072540739052
 20
32.99360191540006
 30
0.0
 10
274.3257639830846
 20
33.41282338926315
 30
0.0
 10
274.2468670639772
 20
34.04861686321311
 30
0.0
 10
274.0704009428084
 20
34.73797763097054
 30
0.0
 10
273.7910104281232
 20
35.34325092665393
 30
0.0
 10
273.4146876003256
 20
35.84014066890102
 30
0.0
 10
273.070633477122
 20
36.16389422204956
 30
0.0
 10
272.8356957739213
 20
36.2780056227609
 30
0.0
 10
272.7784042321114
 20
36.30583265092956
 30
0.0
  0
LINE
  5
17C
330
1F
100
AcDbEntity
  8
0
  6
Continuous
 62
     7
370
    25
100
AcDbLine
 10
259.7934669559
 20
28.2309893892
 30
0.0
 11
266.0513625342
 21
24.6183831684
 31
0.0
  0
LINE
  5
17D
330
1F
100
AcDbEntity
  8
0
  6
Continuous
 62
     7
370
    25
100
AcDbLine
 10
272.8008141724
 20
36.310043226
 30
0.0
 11
266.5429185942
 21
39.9226494468
 31
0.0
  0
SPLINE
  5
17E
330
1F
100
AcDbEntity
  8
0
  6
Continuous
 62
     7
370
    25
100
AcDbSpline
210
0.0
220
0.0
230
1.0
 70
     8
 71
     3
 72
    23
 73
    19
 74
     0
 42
0.000000001
 43
0.00000001
 40
0.0
 40
0.0
 40
0.0
 40
0.0
 40
0.0293791724835089
 40
0.0956572878956671
 40
0.1663767430128667
 40
0.2150845894273916
 40
0.2506694641870739
 40
0.3192281797923672
 40
0.3881688145054866
 40
0.4574232803632811
 40
0.526865630820813
 40
0.5963271417154209
 40
0.6655733610692988
 40
0.7344233120270982
 40
0.8027390292455595
 40
0.8705483069108908
 40
0.9382738826510899
 40
1.0
 40
1.0
 40
1.0
 40
1.0
 10
267.6115720237782
 20
27.81773696333151
 30
0.0
 10
267.5810410919902
 20
27.84577415797095
 30
0.0
 10
267.4816337266736
 20
27.93706202528295
 30
0.0
 10
267.3549094599547
 20
28.20248976025846
 30
0.0
 10
267.2623571575606
 20
28.57153349077648
 30
0.0
 10
267.2399870724732
 20
28.93801569332701
 30
0.0
 10
267.2562592181049
 20
29.32776906522794
 30
0.0
 10
267.3304254173324
 20
29.80349519449512
 30
0.0
 10
267.5049915329582
 20
30.3977125811575
 30
0.0
 10
267.7607510684948
 20
30.99581315156426
 30
0.0
 10
268.0879895703011
 20
31.57189874466743
 30
0.0
 10
268.4729240543075
 20
32.10107817066378
 30
0.0
 10
268.8982310047402
 20
32.56074915367961
 30
0.0
 10
269.3436116289945
 20
32.93175988545818
 30
0.0
 10
269.7875290571292
 20
33.20108788907466
 30
0.0
 10
270.2052583502888
 20
33.35920299188822
 30
0.0
 10
270.569669164591
 20
33.41499760700133
 30
0.0
 10
270.7563961538396
 20
33.37668408656301
 30
0.0
 10
270.8454327031155
 20
33.3584151493078
 30
0.0
  0
LINE
  5
17F
330
1F
100
AcDbEntity
  8
0
  6
Continuous
 62
     7
370
    25
100
AcDbLine
 10
265.8422204876
 20
40.1859554139
 30
0.0
 11
265.3421038429
 21
40.2878496655
 31
0.0
  0
LINE
  5
180
330
1F
100
AcDbEntity
  8
0
  6
Continuous
 62
     7
370
    25
100
AcDbLine
 10
258.8767064878
 20
29.0882392895
 30
0.0
 11
259.2150436069
 21
28.7061044524
 31
0.0
  0
LINE
  5
181
330
1F
100
AcDbEntity
  8
0
  6
Continuous
 62
     7
370
    25
100
AcDbLine
 10
220.2043223374
 20
40.7077260886
 30
0.0
 11
221.8892874864
 21
39.7350164128
 31
0.0
  0
LINE
  5
182
330
1F
100
AcDbEntity
  8
0
  6
Continuous
 62
     7
370
    25
100
AcDbLine
 10
237.625508801
 20
66.9939048066
 30
0.0
 11
235.9405436519
 21
67.9666144824
 31
0.0
  0
LINE
  5
183
330
1F
100
AcDbEntity
  8
0
  6
Continuous
 62
     7
370
    25
100
AcDbLine
 10
215.596037406
 20
43.3680323533
 30
0.0
 11
217.8466883824
 21
42.0687592004
 31
0.0
  0
LINE
  5
184
330
1F
100
AcDbEntity
  8
0
  6
Continuous
 62
     7
370
    25
100
AcDbLine
 10
233.582909697
 20
69.3276475942
 30
0.0
 11
231.3322587206
 21
70.6269207471
 31
0.0
  0
LINE
  5
185
330
1F
100
AcDbEntity
  8
0
  6
Continuous
 62
     7
370
    25
100
AcDbLine
 10
224.5548695303
 20
70.4068026547
 30
0.0
 11
215.3576573467
 21
74.9874552646
 31
0.0
  0
LINE
  5
186
330
1F
100
AcDbEntity
  8
0
  6
Continuous
 62
     7
370
    25
100
AcDbLine
 10
203.8313095571
 20
55.0210718089
 30
0.0
 11
212.3974095627
 21
49.3471822125
 31
0.0
  0
LINE
  5
187
330
1F
100
AcDbEntity
  8
0
  6
Continuous
 62
     7
370
    25
100
AcDbLine
 10
208.8107469988
 20
55.9675616746
 30
0.0
 11
208.8107469988
 21
55.6022429696
 31
0.0
  0
LINE
  5
188
330
1F
100
AcDbEntity
  8
0
  6
Continuous
 62
     7
370
    25
100
AcDbLine
 10
212.7087137591
 20
75.3644236413
 30
0.0
 11
212.0691636503
 21
75.2772118858
 31
0.0
  0
LWPOLYLINE
  5
189
330
1F
100
AcDbEntity
  8
0
  6
Continuous
 62
     7
370
    25
100
AcDbPolyline
 90
       10
 70
   128
 43
0.0
 10
268.1393714101
 20
39.001036211
 10
268.3078422417
 20
39.4410400113
 10
268.6171138405
 20
40.0359342292
 10
268.9988628721
 20
40.5827596311
 10
269.4339454478
 20
41.0540955314
 10
269.9005466223
 20
41.4263080299
 10
270.3752669919
 20
41.6807318594
 10
270.8343041241
 20
41.8046102071
 10
271.2546385956
 20
41.7917307301
 10
271.5623626147
 20
41.6754651025
  0
LINE
  5
18A
330
1F
100
AcDbEntity
  8
0
  6
Continuous
 62
     7
370
    25
100
AcDbLine
 10
272.3681418696
 20
36.6561303585
 30
0.0
 11
272.287715146
 21
36.6062486878
 31
0.0
  0
LWPOLYLINE
  5
18B
330
1F
100
AcDbEntity
  8
0
  6
Continuous
 62
     7
370
    25
100
AcDbPolyline
 90
       17
 70
   128
 43
0.0
 10
271.2645668126
 20
37.1995793229
 10
271.2645872275
 20
37.2070035635
 10
271.3222243599
 20
37.6243066486
 10
271.4847208758
 20
38.0597248954
 10
271.7344679535
 20
38.4660741035
 10
272.044402048
 20
38.799320355
 10
272.3809360723
 20
39.0233506127
 10
272.7076024657
 20
39.1138884293
 10
272.9890011681
 20
39.0611222122
 10
273.1946382762
 20
38.8707699391
 10
273.3022299608
 20
38.563459427
 10
273.3001166915
 20
38.172492321
 10
273.1885276417
 20
37.740236055
 10
272.9795556643
 20
37.3135326061
 10
272.6958454706
 20
36.9386214591
 10
272.3681418696
 20
36.6561303585
 10
272.3681418696
 20
36.6561303585
  0
SPLINE
  5
18C
330
1F
100
AcDbEntity
  8
0
  6
Continuous
 62
     7
370
    25
100
AcDbSpline
210
0.0
220
0.0
230
1.0
 70
     8
 71
     3
 72
    10
 73
     6
 74
     0
 42
0.000000001
 43
0.00000001
 40
0.0
 40
0.0
 40
0.0
 40
0.0
 40
0.1951034899863835
 40
0.6997114154030897
 40
1.0
 40
1.0
 40
1.0
 40
1.0
 10
272.8614839023327
 20
37.15415520245252
 30
0.0
 10
272.7984367301065
 20
37.13721042122435
 30
0.0
 10
272.5723268531452
 20
37.0764403301425
 30
0.0
 10
272.2564237956537
 20
36.95327215655779
 30
0.0
 10
272.1095449423981
 20
36.79848528313076
 30
0.0
 10
272.0547477822631
 20
36.74073782049759
 30
0.0
  0
SPLINE
  5
18D
330
1F
100
AcDbEntity
  8
0
  6
Continuous
 62
     7
370
    25
100
AcDbSpline
210
0.0
220
0.0
230
1.0
 70
     8
 71
     3
 72
    10
 73
     6
 74
     0
 42
0.000000001
 43
0.00000001
 40
0.0
 40
0.0
 40
0.0
 40
0.0
 40
0.4391255165658932
 40
0.7513738882262793
 40
1.0
 40
1.0
 40
1.0
 40
1.0
 10
273.3028305534151
 20
38.47162213523278
 30
0.0
 10
273.1791091489795
 20
38.31796020404972
 30
0.0
 10
272.9674133371885
 20
38.05503409670734
 30
0.0
 10
272.856299820143
 20
37.55932196949951
 30
0.0
 10
272.8598916883114
 20
37.27859617075714
 30
0.0
 10
272.8614839023327
 20
37.15415520245252
 30
0.0
  0
SPLINE
  5
18E
330
1F
100
AcDbEntity
  8
0
  6
Continuous
 62
     7
370
    25
100
AcDbSpline
210
0.0
220
0.0
230
1.0
 70
     8
 71
     3
 72
    10
 73
     6
 74
     0
 42
0.000000001
 43
0.00000001
 40
0.0
 40
0.0
 40
0.0
 40
0.0
 40
0.439125810015406
 40
0.7513739970491627
 40
1.0
 40
1.0
 40
1.0
 40
1.0
 10
272.7265349617568
 20
39.11164611555895
 30
0.0
 10
272.7485002682939
 20
39.05496767285472
 30
0.0
 10
272.7860843951949
 20
38.95798701931556
 30
0.0
 10
273.0373389657387
 20
38.70350252098916
 30
0.0
 10
273.2212887417674
 20
38.5428407636858
 30
0.0
 10
273.3028305534151
 20
38.47162213523278
 30
0.0
  0
SPLINE
  5
18F
330
1F
100
AcDbEntity
  8
0
  6
Continuous
 62
     7
370
    25
100
AcDbSpline
210
0.0
220
0.0
230
1.0
 70
     8
 71
     3
 72
     9
 73
     5
 74
     0
 42
0.000000001
 43
0.00000001
 40
0.0
 40
0.0
 40
0.0
 40
0.0
 40
0.6910329426549541
 40
1.0
 40
1.0
 40
1.0
 40
1.0
 10
272.1584606397363
 20
38.8901099653388
 30
0.0
 10
272.2799708237771
 20
38.95218101547349
 30
0.0
 10
272.4558093063449
 20
39.04200459160606
 30
0.0
 10
272.6626331938468
 20
39.09520801147985
 30
0.0
 10
272.7265349617568
 20
39.11164611555895
 30
0.0
  0
SPLINE
  5
190
330
1F
100
AcDbEntity
  8
0
  6
Continuous
 62
     7
370
    25
100
AcDbSpline
210
0.0
220
0.0
230
1.0
 70
     8
 71
     3
 72
     9
 73
     5
 74
     0
 42
0.000000001
 43
0.00000001
 40
0.0
 40
0.0
 40
0.0
 40
0.0
 40
0.8744793350463886
 40
0.9999999999999999
 40
0.9999999999999999
 40
0.9999999999999999
 40
0.9999999999999999
 10
271.7108907430535
 20
37.8183784949141
 30
0.0
 10
271.7372643667476
 20
38.0856548610049
 30
0.0
 10
271.7674235970885
 20
38.39129543520626
 30
0.0
 10
271.8979299465387
 20
38.63714727764944
 30
0.0
 10
271.9143111903023
 20
38.66800676439298
 30
0.0
  0
SPLINE
  5
191
330
1F
100
AcDbEntity
  8
0
  6
Continuous
 62
     7
370
    25
100
AcDbSpline
210
0.0
220
0.0
230
1.0
 70
     8
 71
     3
 72
     9
 73
     5
 74
     0
 42
0.000000001
 43
0.00000001
 40
0.0
 40
0.0
 40
0.0
 40
0.0
 40
0.6698660834098443
 40
1.0
 40
1.0
 40
1.0
 40
1.0
 10
271.3257238654026
 20
37.62430524744835
 30
0.0
 10
271.4044002981786
 20
37.67387040185273
 30
0.0
 10
271.5218512853603
 20
37.74786303356216
 30
0.0
 10
271.66397190595
 20
37.80087683951991
 30
0.0
 10
271.7108907430535
 20
37.8183784949141
 30
0.0
  0
LINE
  5
192
330
1F
100
AcDbEntity
  8
0
  6
Continuous
 62
     7
370
    25
100
AcDbLine
 10
272.3953693923
 20
38.9954883127
 30
0.0
 11
273.3028305534
 21
38.4716221352
 31
0.0
  0
LINE
  5
193
330
1F
100
AcDbEntity
  8
0
  6
Continuous
 62
     7
370
    25
100
AcDbLine
 10
271.7108907431
 20
37.8183784949
 30
0.0
 11
272.8614839023
 21
37.1541552025
 31
0.0
  0
LINE
  5
194
330
1F
100
AcDbEntity
  8
0
  6
Continuous
 62
     7
370
    25
100
AcDbLine
 10
255.093886564
 20
26.2945495747
 30
0.0
 11
255.0568678015
 21
26.3148908679
 31
0.0
  0
LWPOLYLINE
  5
195
330
1F
100
AcDbEntity
  8
0
  6
Continuous
 62
     7
370
    25
100
AcDbPolyline
 90
       16
 70
   128
 43
0.0
 10
253.0062576683
 20
27.4986829001
 10
252.9534272522
 20
27.5314092447
 10
252.6707312171
 20
27.8090415137
 10
252.4800707282
 20
28.2013933788
 10
252.3910052177
 20
28.6887901146
 10
252.4080015929
 20
29.2467920803
 10
252.5302063802
 20
29.8474179694
 10
252.7514931399
 20
30.4605508299
 10
253.0607647386
 20
31.0554450478
 10
253.4425137703
 20
31.6022704497
 10
253.877596346
 20
32.07360635
 10
254.3441968619
 20
32.4458184683
 10
254.8189178901
 20
32.700242678
 10
255.2779543638
 20
32.8241206455
 10
255.6982888352
 20
32.8112411685
 10
256.0060135129
 20
32.6949759211
  0
LWPOLYLINE
  5
196
330
1F
100
AcDbEntity
  8
0
  6
Continuous
 62
     7
370
    25
100
AcDbPolyline
 90
       20
 70
   128
 43
0.0
 10
256.8117927678
 20
27.6756411771
 10
256.4756077721
 20
27.5161825512
 10
256.1673714053
 20
27.4970357368
 10
255.920486362
 20
27.620275802
 10
255.7617066713
 20
27.8725479815
 10
255.7082381256
 20
28.2265143821
 10
255.7658752581
 20
28.6438174672
 10
255.928371774
 20
29.079235714
 10
256.1781188517
 20
29.4855849221
 10
256.4880529462
 20
29.8188311736
 10
256.8245869705
 20
30.0428614313
 10
257.1512533639
 20
30.1333992479
 10
257.4326520663
 20
30.0806330308
 10
257.6382891744
 20
29.8902807577
 10
257.7458802005
 20
29.5829698654
 10
257.7437675897
 20
29.1920031396
 10
257.6321785399
 20
28.7597468736
 10
257.4232065624
 20
28.3330434247
 10
257.1394963688
 20
27.9581322777
 10
256.8117927678
 20
27.6756411771
  0
SPLINE
  5
197
330
1F
100
AcDbEntity
  8
0
  6
Continuous
 62
     7
370
    25
100
AcDbSpline
210
0.0
220
0.0
230
1.0
 70
     8
 71
     3
 72
    11
 73
     7
 74
     0
 42
0.000000001
 43
0.00000001
 40
0.0
 40
0.0
 40
0.0
 40
0.0
 40
0.1346860728725886
 40
0.4830333920713927
 40
0.8157584203997595
 40
1.0
 40
1.0
 40
1.0
 40
1.0
 10
257.3051348005223
 20
28.17366602106446
 30
0.0
 10
257.2417989071519
 20
28.1568279206527
 30
0.0
 10
257.014653287994
 20
28.09644034987823
 30
0.0
 10
256.6584193244261
 20
27.94458785822367
 30
0.0
 10
256.4074973240577
 20
27.70612013663504
 30
0.0
 10
256.3190236609426
 20
27.551373148428
 30
0.0
 10
256.2874925577817
 20
27.49622291414133
 30
0.0
  0
SPLINE
  5
198
330
1F
100
AcDbEntity
  8
0
  6
Continuous
 62
     7
370
    25
100
AcDbSpline
210
0.0
220
0.0
230
1.0
 70
     8
 71
     3
 72
    10
 73
     6
 74
     0
 42
0.000000001
 43
0.00000001
 40
0.0
 40
0.0
 40
0.0
 40
0.0
 40
0.4391255165658932
 40
0.7513738882262793
 40
1.0
 40
1.0
 40
1.0
 40
1.0
 10
257.7464814516047
 20
29.49113295384472
 30
0.0
 10
257.6227600471691
 20
29.33747102266165
 30
0.0
 10
257.4110642353781
 20
29.07454491531927
 30
0.0
 10
257.2999507183327
 20
28.57883278811144
 30
0.0
 10
257.303542586501
 20
28.29810698936907
 30
0.0
 10
257.3051348005223
 20
28.17366602106446
 30
0.0
  0
SPLINE
  5
199
330
1F
100
AcDbEntity
  8
0
  6
Continuous
 62
     7
370
    25
100
AcDbSpline
210
0.0
220
0.0
230
1.0
 70
     8
 71
     3
 72
    10
 73
     6
 74
     0
 42
0.000000001
 43
0.00000001
 40
0.0
 40
0.0
 40
0.0
 40
0.0
 40
0.439125810015406
 40
0.7513739970491627
 40
1.0
 40
1.0
 40
1.0
 40
1.0
 10
257.1701858599465
 20
30.13115693417088
 30
0.0
 10
257.1921511664835
 20
30.07447849146664
 30
0.0
 10
257.2297352933846
 20
29.9774978379275
 30
0.0
 10
257.4809898639283
 20
29.7230133396011
 30
0.0
 10
257.6649396399571
 20
29.56235158229774
 30
0.0
 10
257.7464814516047
 20
29.49113295384472
 30
0.0
  0
SPLINE
  5
19A
330
1F
100
AcDbEntity
  8
0
  6
Continuous
 62
     7
370
    25
100
AcDbSpline
210
0.0
220
0.0
230
1.0
 70
     8
 71
     3
 72
     9
 73
     5
 74
     0
 42
0.000000001
 43
0.00000001
 40
0.0
 40
0.0
 40
0.0
 40
0.0
 40
0.6910329426549541
 40
1.0
 40
1.0
 40
1.0
 40
1.0
 10
256.602111537926
 20
29.90962078395073
 30
0.0
 10
256.7236217219667
 20
29.97169183408542
 30
0.0
 10
256.8994602045345
 20
30.06151541021799
 30
0.0
 10
257.1062840920364
 20
30.11471883009178
 30
0.0
 10
257.1701858599465
 20
30.13115693417088
 30
0.0
  0
LINE
  5
19B
330
1F
100
AcDbEntity
  8
0
  6
Continuous
 62
     7
370
    25
100
AcDbLine
 10
255.7111969661
 20
28.1362468945
 30
0.0
 11
255.7223823446
 21
28.2611410511
 31
0.0
  0
SPLINE
  5
19C
330
1F
100
AcDbEntity
  8
0
  6
Continuous
 62
     7
370
    25
100
AcDbSpline
210
0.0
220
0.0
230
1.0
 70
     8
 71
     3
 72
    10
 73
     6
 74
     0
 42
0.000000001
 43
0.00000001
 40
0.0
 40
0.0
 40
0.0
 40
0.0
 40
0.439125810015406
 40
0.7513739970491627
 40
1.0
 40
1.0
 40
1.0
 40
1.0
 10
256.2874925577817
 20
27.49622291414133
 30
0.0
 10
256.144451450394
 20
27.62279692890756
 30
0.0
 10
255.8996984293943
 20
27.83937363933622
 30
0.0
 10
255.7405319600875
 20
28.04069680838928
 30
0.0
 10
255.720206775336
 20
28.10690009975324
 30
0.0
 10
255.7111969661235
 20
28.13624689446749
 30
0.0
  0
SPLINE
  5
19D
330
1F
100
AcDbEntity
  8
0
  6
Continuous
 62
     7
370
    25
100
AcDbSpline
210
0.0
220
0.0
230
1.0
 70
     8
 71
     3
 72
     9
 73
     5
 74
     0
 42
0.000000001
 43
0.00000001
 40
0.0
 40
0.0
 40
0.0
 40
0.0
 40
0.8744797214824858
 40
1.0
 40
1.0
 40
1.0
 40
1.0
 10
256.1545416412431
 20
28.83788931352604
 30
0.0
 10
256.18091575229
 20
29.10516573806009
 30
0.0
 10
256.2110755266097
 20
29.41080624402969
 30
0.0
 10
256.3415804194502
 20
29.65665784180813
 30
0.0
 10
256.3579614299474
 20
29.68751720283527
 30
0.0
  0
SPLINE
  5
19E
330
1F
100
AcDbEntity
  8
0
  6
Continuous
 62
     7
370
    25
100
AcDbSpline
210
0.0
220
0.0
230
1.0
 70
     8
 71
     3
 72
     9
 73
     5
 74
     0
 42
0.000000001
 43
0.00000001
 40
0.0
 40
0.0
 40
0.0
 40
0.0
 40
0.6698667167127972
 40
1.0
 40
1.0
 40
1.0
 40
1.0
 10
255.7693741050477
 20
28.64381568589064
 30
0.0
 10
255.848050737803
 20
28.69338097688341
 30
0.0
 10
255.9655019124807
 20
28.76737374254282
 30
0.0
 10
256.1076228045279
 20
28.82038765616278
 30
0.0
 10
256.1545416412431
 20
28.83788931352604
 30
0.0
  0
LINE
  5
19F
330
1F
100
AcDbEntity
  8
0
  6
Continuous
 62
     7
370
    25
100
AcDbLine
 10
256.8390202905
 20
30.0149991313
 30
0.0
 11
257.7464814516
 21
29.4911329538
 31
0.0
  0
LINE
  5
1A0
330
1F
100
AcDbEntity
  8
0
  6
Continuous
 62
     7
370
    25
100
AcDbLine
 10
256.1545416412
 20
28.8378893135
 30
0.0
 11
257.3051348005
 21
28.1736660211
 31
0.0
  0
LINE
  5
1A1
330
1F
100
AcDbEntity
  8
0
  6
Continuous
 62
     7
370
    25
100
AcDbLine
 10
272.7165555429
 20
23.3818960996
 30
0.0
 11
272.5502840853
 21
23.4646416038
 31
0.0
  0
LINE
  5
1A2
330
1F
100
AcDbEntity
  8
0
  6
Continuous
 62
     7
370
    25
100
AcDbLine
 10
276.9665434834
 20
31.3037710964
 30
0.0
 11
277.0499185108
 21
31.2590815154
 31
0.0
  0
LWPOLYLINE
  5
1A3
330
1F
100
AcDbEntity
  8
0
  6
Continuous
 62
     7
370
    25
100
AcDbPolyline
 90
       19
 70
   128
 43
0.0
 10
273.0194101193
 20
33.5858444833
 10
272.6871645369
 20
33.7278765143
 10
272.1879235918
 20
33.7966273796
 10
271.6403831814
 20
33.725485647
 10
271.0631890263
 20
33.5168731741
 10
270.4759967868
 20
33.1778943096
 10
269.8988026318
 20
32.7200925961
 10
269.3512622214
 20
32.1590576271
 10
268.8520212763
 20
31.5138954359
 10
268.418080946
 20
30.8065754358
 10
268.0642184754
 20
30.061185138
 10
267.8024844059
 20
29.3031077582
 10
267.6417916434
 20
28.5581587019
 10
267.5876125282
 20
27.8517063549
 10
267.6417916434
 20
27.2078078829
 10
267.8024844059
 20
26.6483907409
 10
268.0642184754
 20
26.1925050855
 10
268.418080946
 20
25.8556756998
 10
268.5197756938
 20
25.7914045716
  0
LINE
  5
1A4
330
1F
100
AcDbEntity
  8
0
  6
Continuous
 62
     7
370
    25
100
AcDbLine
 10
275.0122316549
 20
29.6236587507
 30
0.0
 11
273.2241353079
 21
27.3992839817
 31
0.0
  0
LINE
  5
1A5
330
1F
100
AcDbEntity
  8
0
  6
Continuous
 62
     7
370
    25
100
AcDbLine
 10
273.2241353079
 20
27.3992839817
 30
0.0
 11
273.2241353079
 21
25.0150265423
 31
0.0
  0
LINE
  5
1A6
330
1F
100
AcDbEntity
  8
0
  6
Continuous
 62
     7
370
    25
100
AcDbLine
 10
275.0122316549
 20
24.8551438717
 30
0.0
 11
273.2241353079
 21
25.0150265423
 31
0.0
  0
LINE
  5
1A7
330
1F
100
AcDbEntity
  8
0
  6
Continuous
 62
     7
370
    25
100
AcDbLine
 10
276.800328002
 20
27.0795186406
 30
0.0
 11
275.0122316549
 21
24.8551438717
 31
0.0
  0
LINE
  5
1A8
330
1F
100
AcDbEntity
  8
0
  6
Continuous
 62
     7
370
    25
100
AcDbLine
 10
276.800328002
 20
27.0795186406
 30
0.0
 11
276.800328002
 21
29.4637760801
 31
0.0
  0
LINE
  5
1A9
330
1F
100
AcDbEntity
  8
0
  6
Continuous
 62
     7
370
    25
100
AcDbLine
 10
275.0122316549
 20
29.6236587507
 30
0.0
 11
276.800328002
 21
29.4637760801
 31
0.0
  0
ARC
  5
1AA
330
1F
100
AcDbEntity
  8
0
  6
Continuous
 62
     7
370
    25
100
AcDbCircle
 10
270.6823154401
 20
29.7427322583
 30
0.0
 40
4.016582236067785
100
AcDbArc
 50
320.575219483
 51
352.0264209578
  0
ARC
  5
1AB
330
1F
100
AcDbEntity
  8
0
  6
Continuous
 62
     7
370
    25
100
AcDbCircle
 10
270.9718909174
 20
29.4272469599
 30
0.0
 40
3.593041167572796
100
AcDbArc
 50
308.8170289619
 51
321.5288581364
  0
LINE
  5
1AC
330
1F
100
AcDbEntity
  8
0
  6
Continuous
 62
     7
370
    25
100
AcDbLine
 10
273.2241358018
 20
25.8873896358
 30
0.0
 11
275.0122316549
 21
24.8551438717
 31
0.0
  0
LINE
  5
1AD
330
1F
100
AcDbEntity
  8
0
  6
Continuous
 62
     7
370
    25
100
AcDbLine
 10
274.6790086278
 20
28.3041302487
 30
0.0
 11
276.800328002
 21
27.0795186406
 31
0.0
  0
LINE
  5
1AE
330
1F
100
AcDbEntity
  8
0
  6
Continuous
 62
     7
370
    25
100
AcDbLine
 10
274.6790086278
 20
28.3041302487
 30
0.0
 11
274.6790086278
 21
29.2091307332
 31
0.0
  0
LINE
  5
1AF
330
1F
100
AcDbEntity
  8
0
  6
Continuous
 62
     7
370
    25
100
AcDbLine
 10
273.7849604543
 20
27.1919428168
 30
0.0
 11
273.2241363574
 21
26.4942828935
 31
0.0
  0
LINE
  5
1B0
330
1F
100
AcDbEntity
  8
0
  6
Continuous
 62
     7
370
    25
100
AcDbLine
 10
274.6790086278
 20
28.3041302487
 30
0.0
 11
273.7849604543
 21
27.1919428168
 31
0.0
  0
ARC
  5
1B1
330
1F
100
AcDbEntity
  8
0
  6
Continuous
 62
     7
370
    25
100
AcDbCircle
 10
266.6980802607
 20
42.8863366739
 30
0.0
 40
5.096736375825698
100
AcDbArc
 50
32.7717325819
 51
87.4002826003
  0
ARC
  5
1B2
330
1F
100
AcDbEntity
  8
0
  6
Continuous
 62
     7
370
    25
100
AcDbCircle
 10
257.3046415066
 20
26.6133285832
 30
0.0
 40
5.095820867155521
100
AcDbArc
 50
212.9599315683
 51
267.552540064
  0
LINE
  5
1B3
330
1F
100
AcDbEntity
  8
0
  6
Continuous
 62
     7
370
    25
100
AcDbLine
 10
223.2150943146
 20
40.3985483529
 30
0.0
 11
223.2548394513
 21
40.3758535515
 31
0.0
  0
LWPOLYLINE
  5
1B4
330
1F
100
AcDbEntity
  8
0
  6
Continuous
 62
     7
370
    25
100
AcDbPolyline
 90
       22
 70
   128
 43
0.0
 10
256.9353669984
 20
32.1584717392
 10
256.9573360432
 20
32.3763992833
 10
257.1133705911
 20
33.3141711296
 10
257.3700518132
 20
34.2767187286
 10
257.7223833324
 20
35.2453066445
 10
258.1635077247
 20
36.2010832657
 10
258.6848388869
 20
37.1254448631
 10
259.2762296357
 20
38.0004004073
 10
259.9261691073
 20
38.808918796
 10
260.6220071554
 20
39.5352641021
 10
261.3502000714
 20
40.1652982622
 10
262.0965743928
 20
40.6867588472
 10
262.846602772
 20
41.0894958841
 10
263.5856867794
 20
41.3656708575
 10
264.2994408601
 20
41.5099080862
 10
264.9739728531
 20
41.519400009
 10
265.5961535212
 20
41.3939623999
 10
266.1538728894
 20
41.1360363405
 10
266.6362758393
 20
40.7506420945
 10
267.033972514
 20
40.2452809885
 10
267.3392227107
 20
39.6297895758
 10
267.4135862151
 20
39.4200235484
  0
ARC
  5
1B5
330
1F
100
AcDbEntity
  8
0
  6
Continuous
 62
     7
370
    25
100
AcDbCircle
 10
259.9285357392
 20
30.6394994965
 30
0.0
 40
3.002634705132887
100
AcDbArc
 50
235.7255425888
 51
284.1809152813
  0
LINE
  5
1B6
330
1F
100
AcDbEntity
  8
0
  6
Continuous
 62
     7
370
    25
100
AcDbLine
 10
266.2127467684
 20
24.5337296461
 30
0.0
 11
266.0513625342
 21
24.6183831684
 31
0.0
  0
ARC
  5
1B7
330
1F
100
AcDbEntity
  8
0
  6
Continuous
 62
     7
370
    25
100
AcDbCircle
 10
261.1437138851
 20
30.461417977
 30
0.0
 40
2.607293319696979
100
AcDbArc
 50
198.5530388883
 51
238.8103126357
  0
LWPOLYLINE
  5
1B8
330
1F
100
AcDbEntity
  8
0
  6
Continuous
 62
     7
370
    25
100
AcDbPolyline
 90
       18
 70
   128
 43
0.0
 10
258.3996894442
 20
31.0856068694
 10
258.3952386711
 20
31.306882907
 10
258.4468445237
 20
32.1596755982
 10
258.6042718932
 20
33.0554380128
 10
258.8639922983
 20
33.9740929294
 10
259.2201848639
 20
34.8950504109
 10
259.6648660551
 20
35.7976686311
 10
260.1880688007
 20
36.6617166003
 10
260.7780663987
 20
37.4678281401
 10
261.421634946
 20
38.1979353226
 10
262.1043497661
 20
38.8356743875
 10
262.8109091246
 20
39.3667509474
 10
263.5254764255
 20
39.7792618697
 10
264.232035784
 20
40.0639613808
 10
264.9147506041
 20
40.2144680689
 10
265.5583191514
 20
40.2274093149
 10
266.1483167494
 20
40.1024945021
 10
266.5429185942
 20
39.9226494468
  0
LWPOLYLINE
  5
1B9
330
1F
100
AcDbEntity
  8
0
  6
Continuous
 62
     7
370
    25
100
AcDbPolyline
 90
       17
 70
   128
 43
0.0
 10
267.9513926791
 20
32.1732344463
 10
267.8948760601
 20
32.4687086704
 10
267.7339305812
 20
32.6539471523
 10
267.4930585431
 20
32.700748393
 10
267.2089306676
 20
32.6019881674
 10
266.9248026275
 20
32.3727012356
 10
266.6839304248
 20
32.0477949643
 10
266.5229851105
 20
31.6767328829
 10
266.4664684915
 20
31.3160059595
 10
266.5229851105
 20
31.0205319255
 10
266.6839304248
 20
30.8352935387
 10
266.9248026275
 20
30.7884922029
 10
267.2089306676
 20
30.8872525236
 10
267.4930585431
 20
31.1165393603
 10
267.7339305812
 20
31.4414457267
 10
267.8948760601
 20
31.8125077131
 10
267.9513926791
 20
32.1732344463
  0
ARC
  5
1BA
330
1F
100
AcDbEntity
  8
0
  6
Continuous
 62
     7
370
    25
100
AcDbCircle
 10
268.6812157009
 20
30.9030510192
 30
0.0
 40
11.45898438546681
100
AcDbArc
 50
136.997994283
 51
166.6473046497
  0
LWPOLYLINE
  5
1BB
330
1F
100
AcDbEntity
  8
0
  6
Continuous
 62
     7
370
    25
100
AcDbPolyline
 90
        3
 70
   128
 43
0.0
 10
258.8767064878
 20
29.0882392895
 10
258.7511720995
 20
29.2420031671
 10
258.654931088
 20
29.3786612956
  0
LINE
  5
1BC
330
1F
100
AcDbEntity
  8
0
  6
Continuous
 62
     7
370
    25
100
AcDbLine
 10
258.0805973005
 20
31.4275753639
 30
0.0
 11
258.0817132041
 21
31.8869896657
 31
0.0
  0
LINE
  5
1BD
330
1F
100
AcDbEntity
  8
0
  6
Continuous
 62
     7
370
    25
100
AcDbLine
 10
265.2181079792
 20
40.309828887
 30
0.0
 11
265.3421038429
 21
40.2878496655
 31
0.0
  0
LWPOLYLINE
  5
1BE
330
1F
100
AcDbEntity
  8
0
  6
Continuous
 62
     7
370
    25
100
AcDbPolyline
 90
       30
 70
   128
 43
0.0
 10
218.6293051453
 20
46.9403492628
 10
218.6828895948
 20
48.2308336013
 10
218.8431286201
 20
49.5707581723
 10
219.1084772758
 20
50.9472178754
 10
219.4763810677
 20
52.3469567512
 10
219.9432963679
 20
53.7564947868
 10
220.5047272929
 20
55.162257381
 10
221.1552658753
 20
56.5507061402
 10
221.8886480397
 20
57.9084700529
 10
222.6978108963
 20
59.2224724817
 10
223.5749612293
 20
60.4800585344
 10
224.5116515592
 20
61.6691180619
 10
225.4988614724
 20
62.778198769
 10
226.5270832326
 20
63.7966202762
 10
227.5864149647
 20
64.7145743019
 10
228.6666543325
 20
65.523221327
 10
229.7573981437
 20
66.2147716708
 10
230.8481419549
 20
66.7825673255
 10
231.9283813227
 20
67.2211381266
 10
232.9877130548
 20
67.5262624849
 10
234.015934815
 20
67.6950005526
 10
235.0031447282
 20
67.7257281498
 10
235.9398350581
 20
67.6181482572
 10
236.8169853911
 20
67.3732984223
 10
237.6261482477
 20
66.9935355419
 10
238.3595304121
 20
66.4825166528
 10
239.0100689945
 20
65.8451637533
 10
239.5714999195
 20
65.0876155075
 10
240.0384152197
 20
64.2171664026
 10
240.0656071809
 20
64.1563625615
  0
LWPOLYLINE
  5
1BF
330
1F
100
AcDbEntity
  8
0
  6
Continuous
 62
     7
370
    25
100
AcDbPolyline
 90
       14
 70
   128
 43
0.0
 10
225.5667857285
 20
39.0409451529
 10
225.4988614724
 20
39.0339206668
 10
224.5116515592
 20
39.0031930696
 10
223.5749612293
 20
39.1107729622
 10
222.6978108963
 20
39.3556227971
 10
221.8886480397
 20
39.7353856775
 10
221.1552658753
 20
40.2464045667
 10
220.5047272929
 20
40.8837574661
 10
219.9432963679
 20
41.6413057119
 10
219.4763810677
 20
42.5117548168
 10
219.1084772758
 20
43.486721016
 10
218.8431286201
 20
44.5568156824
 10
218.6828895948
 20
45.7117322128
 10
218.6293051453
 20
46.9403492628
  0
SPLINE
  5
1C0
330
1F
100
AcDbEntity
  8
0
  6
Continuous
 62
     7
370
    25
100
AcDbSpline
210
0.0
220
0.0
230
1.0
 70
     8
 71
     3
 72
    25
 73
    21
 74
     0
 42
0.000000001
 43
0.00000001
 40
0.0
 40
0.0
 40
0.0
 40
0.0
 40
0.1249999999999985
 40
0.1249999999999985
 40
0.2499999999999971
 40
0.2499999999999971
 40
0.3749999999999956
 40
0.3749999999999956
 40
0.4999999999999941
 40
0.4999999999999941
 40
0.562499999999995
 40
0.562499999999995
 40
0.624999999999996
 40
0.6874999999999969
 40
0.6874999999999969
 40
0.7499999999999978
 40
0.7499999999999978
 40
0.8749999999999989
 40
0.8749999999999989
 40
1.0
 40
1.0
 40
1.0
 40
1.0
 10
223.462894293791
 20
63.37216371722197
 30
0.0
 10
223.4920175920521
 20
63.2609781966928
 30
0.0
 10
223.5044066329113
 20
63.14573598426476
 30
0.0
 10
223.497429147811
 20
62.90664041642896
 30
0.0
 10
223.477411559959
 20
62.7818664465537
 30
0.0
 10
223.4071894022458
 20
62.53549753734128
 30
0.0
 10
223.3565387476521
 20
62.41128638998016
 30
0.0
 10
223.2266240039969
 20
62.16765789466999
 30
0.0
 10
223.1489230560076
 20
62.05060079961182
 30
0.0
 10
223.0135494737815
 20
61.88194428176179
 30
0.0
 10
222.9649149764744
 20
61.82657726048962
 30
0.0
 10
222.8634756410924
 20
61.72085744909261
 30
0.0
 10
222.7576056583516
 20
61.61969649047217
 30
0.0
 10
222.6430138660241
 20
61.52752216879536
 30
0.0
 10
222.523931196806
 20
61.43998532605525
 30
0.0
 10
222.4619731837485
 20
61.39848685654306
 30
0.0
 10
222.274109480228
 20
61.28436653480496
 30
0.0
 10
222.1447320438739
 20
61.22075910369036
 30
0.0
 10
221.8770487908119
 20
61.11949080271614
 30
0.0
 10
221.7411771043469
 20
61.08294989449133
 30
0.0
 10
221.6056598376192
 20
61.06178171014126
 30
0.0
  0
LWPOLYLINE
  5
1C1
330
1F
100
AcDbEntity
  8
0
  6
Continuous
 62
     7
370
    25
100
AcDbPolyline
 90
       14
 70
   128
 43
0.0
 10
223.4628944055
 20
63.3721637497
 10
224.4648807404
 20
64.4108911273
 10
225.5007435926
 20
65.3550219175
 10
226.5607559304
 20
66.195690606
 10
227.6349634832
 20
66.925002407
 10
228.7132790778
 20
67.5361074945
 10
229.7855769339
 20
68.0232698865
 10
230.8417874943
 20
68.3819130642
 10
231.8719924614
 20
68.6086695116
 10
232.8665181455
 20
68.70141027
 10
233.8160250685
 20
68.6592647252
 10
234.7115968671
 20
68.4826270633
 10
235.5448235986
 20
68.1731579738
 10
235.9405436519
 20
67.9666144824
  0
LWPOLYLINE
  5
1C2
330
1F
100
AcDbEntity
  8
0
  6
Continuous
 62
     7
370
    25
100
AcDbPolyline
 90
       19
 70
   128
 43
0.0
 10
220.2043223374
 20
40.7077260886
 10
220.1212416794
 20
40.7567114968
 10
219.3732760468
 20
41.3015712123
 10
218.714859955
 20
41.9806202708
 10
218.152771144
 20
42.7868678615
 10
217.6927962445
 20
43.7120156504
 10
217.3396701913
 20
44.7465399166
 10
217.0970274917
 20
45.8797900362
 10
216.9673666635
 20
47.1001015098
 10
216.9520225765
 20
48.3949120305
 10
217.0511526227
 20
49.7508924752
 10
217.2637367168
 20
51.1540845482
 10
217.5875858568
 20
52.5900430821
 10
218.0193671489
 20
54.0439870822
 10
218.5546354177
 20
55.5009487745
 10
219.1878806213
 20
56.9459312073
 10
219.9125838276
 20
58.3640580566
 10
220.7212850445
 20
59.7407321767
 10
221.6056596108
 20
61.0617812217
  0
LWPOLYLINE
  5
1C3
330
1F
100
AcDbEntity
  8
0
  6
Continuous
 62
     7
370
    25
100
AcDbPolyline
 90
       36
 70
   128
 43
0.0
 10
218.9806875372
 20
41.580355769
 10
218.1385243568
 20
41.9123430032
 10
217.3704638971
 20
42.3791681837
 10
216.6840194925
 20
42.9762674481
 10
216.0859050042
 20
43.6977994309
 10
215.5819702831
 20
44.5367068681
 10
215.1771438763
 20
45.4847842826
 10
214.8753869289
 20
46.5327593591
 10
214.6796490619
 20
47.670380971
 10
214.5918466397
 20
48.886522915
 10
214.6128370874
 20
50.1692894986
 10
214.7424149389
 20
51.506133935
 10
214.9793138133
 20
52.8839813006
 10
215.3212162924
 20
54.2893542242
 10
215.7647776287
 20
55.7085070823
 10
216.305660648
 20
57.1275591727
 10
216.9385732866
 20
58.532630643
 10
217.6573265433
 20
59.9099793687
 10
218.454889797
 20
61.2461321281
 10
219.3234612707
 20
62.5280207182
 10
220.2545470575
 20
63.7431074239
 10
221.2390391575
 20
64.8795068747
 10
222.267308333
 20
65.9261050485
 10
223.3292972922
 20
66.8726632563
 10
224.4146189772
 20
67.7099250726
 10
225.5126576094
 20
68.4297005241
 10
226.6126733568
 20
69.0249493262
 10
227.7039070428
 20
69.4898496954
 10
228.7756852661
 20
69.8198544712
 10
229.8175250683
 20
70.011735569
 10
230.8192364608
 20
70.0636165523
 10
231.7710212893
 20
69.9749901611
 10
232.6635703686
 20
69.7467226758
 10
233.4881537034
 20
69.3810466839
 10
234.2367060991
 20
68.8815397795
 10
234.6729477131
 20
68.4933452778
  0
LWPOLYLINE
  5
1C4
330
1F
100
AcDbEntity
  8
0
  6
Continuous
 62
     7
370
    25
100
AcDbPolyline
 90
       11
 70
   128
 43
0.0
 10
221.8002730131
 20
63.4964402303
 10
222.7650354489
 20
64.5199183064
 10
223.7659939605
 20
65.4481494767
 10
224.7926948122
 20
66.2714395807
 10
225.83441443
 20
66.9811888845
 10
226.8802730411
 20
67.5699858205
 10
227.9193474091
 20
68.031679673
 10
228.9407851731
 20
68.3614488661
 10
229.9339180356
 20
68.5558495751
 10
230.8883735914
 20
68.6128506264
 10
231.6008235893
 20
68.5613268634
  0
SPLINE
  5
1C5
330
1F
100
AcDbEntity
  8
0
  6
Continuous
 62
     7
370
    25
100
AcDbSpline
210
0.0
220
0.0
230
1.0
 70
     8
 71
     3
 72
    26
 73
    22
 74
     0
 42
0.000000001
 43
0.00000001
 40
0.0
 40
0.0
 40
0.0
 40
0.0
 40
0.1250000000000014
 40
0.1250000000000014
 40
0.2500000000000027
 40
0.2500000000000027
 40
0.3125000000000025
 40
0.3125000000000025
 40
0.3750000000000023
 40
0.3750000000000023
 40
0.4375000000000021
 40
0.4375000000000021
 40
0.5000000000000018
 40
0.5000000000000018
 40
0.5625000000000016
 40
0.5625000000000016
 40
0.6250000000000013
 40
0.6250000000000013
 40
0.7500000000000006
 40
0.7500000000000006
 40
1.0
 40
1.0
 40
1.0
 40
1.0
 10
220.4560798081635
 20
61.82427694409679
 30
0.0
 10
220.4324422119314
 20
61.93385280366979
 30
0.0
 10
220.4148744330497
 20
62.04474206203432
 30
0.0
 10
220.3960618501802
 20
62.27007202189726
 30
0.0
 10
220.3948820754128
 20
62.38574893521563
 30
0.0
 10
220.4109800786482
 20
62.55710444507519
 30
0.0
 10
220.4192987957485
 20
62.61390295716936
 30
0.0
 10
220.4430559450054
 20
62.72672916956644
 30
0.0
 10
220.4586783240544
 20
62.78318202323259
 30
0.0
 10
220.4975355364514
 20
62.89176513964119
 30
0.0
 10
220.5207614931539
 20
62.94414509986673
 30
0.0
 10
220.5757601426323
 20
63.04460187513886
 30
0.0
 10
220.6078384096549
 20
63.09288074291028
 30
0.0
 10
220.67825315819
 20
63.18057771849403
 30
0.0
 10
220.7168315803166
 20
63.22056684646999
 30
0.0
 10
220.8005398439129
 20
63.29304553058558
 30
0.0
 10
220.8456685538547
 20
63.3253821549622
 30
0.0
 10
220.9849491960448
 20
63.40858192231584
 30
0.0
 10
221.0857382676065
 20
63.44741064495194
 30
0.0
 10
221.3888105388392
 20
63.5228269324071
 30
0.0
 10
221.5973346293242
 20
63.52269678603635
 30
0.0
 10
221.8002730490146
 20
63.49644055671014
 30
0.0
  0
LWPOLYLINE
  5
1C6
330
1F
100
AcDbEntity
  8
0
  6
Continuous
 62
     7
370
    25
100
AcDbPolyline
 90
       16
 70
   128
 43
0.0
 10
217.5191011792
 20
44.168425654
 10
217.3427528381
 20
44.4097195861
 10
216.8539778116
 20
45.2510305646
 10
216.4713232812
 20
46.2072055889
 10
216.1991191772
 20
47.2674230559
 10
216.0404468293
 20
48.4196846634
 10
215.9971007712
 20
49.6509490172
 10
216.0695729358
 20
50.9472822522
 10
216.2570427765
 20
52.2940130725
 10
216.5573878044
 20
53.6758993869
 10
216.9672092714
 20
55.0773024048
 10
217.4818697069
 20
56.4823617769
 10
218.0955442848
 20
57.8751763906
 10
218.8012873362
 20
59.2399817412
 10
219.5911120334
 20
60.5613339573
 10
220.4560799515
 20
61.8242767131
  0
LINE
  5
1C7
330
1F
100
AcDbEntity
  8
0
  6
Continuous
 62
     7
370
    25
100
AcDbLine
 10
218.9806875372
 20
41.580355769
 30
0.0
 11
219.1016055285
 21
41.6375017058
 31
0.0
  0
LWPOLYLINE
  5
1C8
330
1F
100
AcDbEntity
  8
0
  6
Continuous
 62
     7
370
    25
100
AcDbPolyline
 90
       25
 70
   128
 43
0.0
 10
212.3433385671
 20
51.0424074797
 10
212.3896395144
 20
51.8638495418
 10
212.5498785397
 20
53.2037741128
 10
212.8152271954
 20
54.5802338159
 10
213.1831309873
 20
55.9799726917
 10
213.6500462875
 20
57.3895107273
 10
214.2114772125
 20
58.7952733215
 10
214.8620157949
 20
60.1837220807
 10
215.5953979593
 20
61.5414859934
 10
216.4045608159
 20
62.8554884222
 10
217.2817111489
 20
64.1130744749
 10
218.2184014788
 20
65.3021340024
 10
219.205611392
 20
66.4112147095
 10
220.2338331522
 20
67.4296362167
 10
221.2931648843
 20
68.3475902423
 10
222.3734042521
 20
69.1562372675
 10
223.4641480633
 20
69.8477876113
 10
224.5548918745
 20
70.415583266
 10
225.6351312423
 20
70.8541540671
 10
226.6944629744
 20
71.1592784254
 10
227.7226847346
 20
71.3280164931
 10
228.7098946478
 20
71.3587440903
 10
229.6465849777
 20
71.2511641977
 10
230.5237353107
 20
71.0063143628
 10
231.3322587206
 20
70.6269207471
  0
LWPOLYLINE
  5
1C9
330
1F
100
AcDbEntity
  8
0
  6
Continuous
 62
     7
370
    25
100
AcDbPolyline
 90
        9
 70
   128
 43
0.0
 10
215.596037406
 20
43.3680323533
 10
215.5953979593
 20
43.368401618
 10
214.8620157949
 20
43.8794205072
 10
214.2114772125
 20
44.5167734066
 10
213.6500462875
 20
45.2743216524
 10
213.1831309873
 20
46.1447707573
 10
212.8152271954
 20
47.1197369565
 10
212.5498785397
 20
48.1898316229
 10
212.4269770124
 20
48.9865360194
  0
LWPOLYLINE
  5
1CA
330
1F
100
AcDbEntity
  8
0
  6
Continuous
 62
     7
370
    25
100
AcDbPolyline
 90
       22
 70
   128
 43
0.0
 10
212.3360549465
 20
50.6550059441
 10
212.3892995871
 20
51.9372906234
 10
212.5485198441
 20
53.2687007672
 10
212.8121819673
 20
54.6364137843
 10
213.1777479262
 20
56.0272585055
 10
213.6416971419
 20
57.4278404678
 10
214.1995600727
 20
58.8246706194
 10
214.8459649713
 20
60.2042964958
 10
215.5746872747
 20
61.5534326338
 10
216.3787082158
 20
62.8590856625
 10
217.2502846281
 20
64.1086805337
 10
218.181023362
 20
65.29018409
 10
219.1619603095
 20
66.3922183662
 10
220.1836486497
 20
67.4041685671
 10
221.2362490691
 20
68.3162891432
 10
222.3096244274
 20
69.119797224
 10
223.393437387
 20
69.8069540734
 10
224.4772503465
 20
70.3711410315
 10
225.5506257049
 20
70.8069257603
 10
226.6032261243
 20
71.11011176
 10
227.6249144645
 20
71.2777778079
 10
228.1089571902
 20
71.3098471168
  0
ARC
  5
1CB
330
1F
100
AcDbEntity
  8
0
  6
Continuous
 62
     7
370
    25
100
AcDbCircle
 10
223.8658546968
 20
50.4572879052
 30
0.0
 40
11.52268414850318
100
AcDbArc
 50
183.5197986855
 51
193.4334903353
  0
SPLINE
  5
1CC
330
1F
100
AcDbEntity
  8
0
  6
Continuous
 62
     7
370
    25
100
AcDbSpline
210
0.0
220
0.0
230
1.0
 70
     8
 71
     3
 72
    10
 73
     6
 74
     0
 42
0.000000001
 43
0.00000001
 40
0.0
 40
0.0
 40
0.0
 40
0.0
 40
0.5
 40
0.5
 40
1.0
 40
1.0
 40
1.0
 40
1.0
 10
221.1827678757948
 20
60.36122366327707
 30
0.0
 10
221.0788033850105
 20
60.43456203634745
 30
0.0
 10
220.9889951085831
 20
60.52179779414085
 30
0.0
 10
220.8369526805845
 20
60.72272833533685
 30
0.0
 10
220.7750470922235
 20
60.83689910153382
 30
0.0
 10
220.730597387633
 20
60.95991678469392
 30
0.0
  0
SPLINE
  5
1CD
330
1F
100
AcDbEntity
  8
0
  6
Continuous
 62
     7
370
    25
100
AcDbSpline
210
0.0
220
0.0
230
1.0
 70
     8
 71
     3
 72
    14
 73
    10
 74
     0
 42
0.000000001
 43
0.00000001
 40
0.0
 40
0.0
 40
0.0
 40
0.0
 40
0.25
 40
0.25
 40
0.5
 40
0.5
 40
0.75
 40
0.75
 40
1.0
 40
1.0
 40
1.0
 40
1.0
 10
220.730597387633
 20
60.95991678469392
 30
0.0
 10
220.7078765847679
 20
61.02279820435146
 30
0.0
 10
220.6859620744185
 20
61.09184463382488
 30
0.0
 10
220.6438510203557
 20
61.23949715044365
 30
0.0
 10
220.6243294664426
 20
61.31589693730195
 30
0.0
 10
220.5859832242689
 20
61.47022922869756
 30
0.0
 10
220.567623631385
 20
61.54718182502921
 30
0.0
 10
220.5256201868034
 20
61.69257199254518
 30
0.0
 10
220.5018438657904
 20
61.75916289873822
 30
0.0
 10
220.4733823616882
 20
61.79965851396955
 30
0.0
  0
LINE
  5
1CE
330
1F
100
AcDbEntity
  8
0
  6
Continuous
 62
     7
370
    25
100
AcDbLine
 10
220.4733825499
 20
61.7996589057
 30
0.0
 11
220.4560799515
 21
61.8242767131
 31
0.0
  0
LINE
  5
1CF
330
1F
100
AcDbEntity
  8
0
  6
Continuous
 62
     7
370
    25
100
AcDbLine
 10
221.8002730131
 20
63.4964402303
 30
0.0
 11
221.8175756115
 21
63.471822423
 31
0.0
  0
SPLINE
  5
1D0
330
1F
100
AcDbEntity
  8
0
  6
Continuous
 62
     7
370
    25
100
AcDbSpline
210
0.0
220
0.0
230
1.0
 70
     8
 71
     3
 72
    16
 73
    12
 74
     0
 42
0.000000001
 43
0.00000001
 40
0.0
 40
0.0
 40
0.0
 40
0.0
 40
0.1250000000000001
 40
0.1250000000000001
 40
0.2500000000000003
 40
0.2500000000000003
 40
0.5000000000000002
 40
0.5000000000000002
 40
0.7500000000000001
 40
0.7500000000000001
 40
1.0
 40
1.0
 40
1.0
 40
1.0
 10
221.8175756025394
 20
63.47182212658284
 30
0.0
 10
221.8317280089435
 20
63.45168579077006
 30
0.0
 10
221.8533864134172
 20
63.43488837009263
 30
0.0
 10
221.9058043424525
 20
63.40804284876114
 30
0.0
 10
221.9363972215908
 20
63.39781736420015
 30
0.0
 10
222.0354780704483
 20
63.37331692376746
 30
0.0
 10
222.1093606080642
 20
63.36505700136597
 30
0.0
 10
222.2624602004555
 20
63.35387103466105
 30
0.0
 10
222.3405441751032
 20
63.35127436290987
 30
0.0
 10
222.4998878088453
 20
63.34924536207616
 30
0.0
 10
222.5785407036768
 20
63.34988295073839
 30
0.0
 10
222.6542931714694
 20
63.35297605155342
 30
0.0
  0
SPLINE
  5
1D1
330
1F
100
AcDbEntity
  8
0
  6
Continuous
 62
     7
370
    25
100
AcDbSpline
210
0.0
220
0.0
230
1.0
 70
     8
 71
     3
 72
    10
 73
     6
 74
     0
 42
0.000000001
 43
0.00000001
 40
0.0
 40
0.0
 40
0.0
 40
0.0
 40
0.5
 40
0.5
 40
1.0
 40
1.0
 40
1.0
 40
1.0
 10
222.6542931714694
 20
63.35297605155342
 30
0.0
 10
222.8024875113702
 20
63.35902707598719
 30
0.0
 10
222.9447119771008
 20
63.34886484577405
 30
0.0
 10
223.2171033674416
 20
63.29781440983397
 30
0.0
 10
223.3472306973101
 20
63.25645330718943
 30
0.0
 10
223.4653060394954
 20
63.20067943923714
 30
0.0
  0
ARC
  5
1D2
330
1F
100
AcDbEntity
  8
0
  6
Continuous
 62
     7
370
    25
100
AcDbCircle
 10
206.1353459899
 20
58.4646097448
 30
0.0
 40
4.143252031906948
100
AcDbArc
 50
211.7444095219
 51
236.2139194594
  0
SPLINE
  5
1D3
330
1F
100
AcDbEntity
  8
0
  6
Continuous
 62
     7
370
    25
100
AcDbSpline
210
0.0
220
0.0
230
1.0
 70
     8
 71
     3
 72
     8
 73
     4
 74
     0
 42
0.000000001
 43
0.00000001
 40
0.0
 40
0.0
 40
0.0
 40
0.0
 40
1.0
 40
1.0
 40
1.0
 40
1.0
 10
204.0423523703587
 20
55.35997501999847
 30
0.0
 10
203.5655790785345
 20
55.66806782793111
 30
0.0
 10
203.0887767016896
 20
55.97629727350387
 30
0.0
 10
202.6119442571639
 20
56.28466242972378
 30
0.0
  0
SPLINE
  5
1D4
330
1F
100
AcDbEntity
  8
0
  6
Continuous
 62
     7
370
    25
100
AcDbSpline
210
0.0
220
0.0
230
1.0
 70
     8
 71
     3
 72
    23
 73
    19
 74
     0
 42
0.000000001
 43
0.00000001
 40
0.0
 40
0.0
 40
0.0
 40
0.0
 40
0.0521036415684141
 40
0.1035646240942128
 40
0.1544751946758079
 40
0.2049306267497427
 40
0.2550287880868969
 40
0.3048696389164994
 40
0.3545546704630395
 40
0.4041862979540088
 40
0.4538672252136959
 40
0.5036997999425104
 40
0.590187023076665
 40
0.6742716378260809
 40
0.7565997087257926
 40
0.8378563983752378
 40
0.9187511781386904
 40
1.0
 40
1.0
 40
1.0
 40
1.0
 10
204.9229171739003
 20
55.18524432187837
 30
0.0
 10
204.9176482349602
 20
55.17532285964323
 30
0.0
 10
204.90717534546
 20
55.15560230891171
 30
0.0
 10
204.8879290496974
 20
55.13103447995878
 30
0.0
 10
204.8661333093648
 20
55.11034589769906
 30
0.0
 10
204.84148201816
 20
55.09381496240181
 30
0.0
 10
204.8139855036211
 20
55.08129746282556
 30
0.0
 10
204.7835744496138
 20
55.0727628390033
 30
0.0
 10
204.7502040778412
 20
55.06815296635552
 30
0.0
 10
204.7138281895692
 20
55.06741822321953
 30
0.0
 10
204.67439981798
 20
55.07051330577147
 30
0.0
 10
204.6215514264288
 20
55.07904908125188
 30
0.0
 10
204.5530124326568
 20
55.09664552010044
 30
0.0
 10
204.4652912007008
 20
55.12828212818732
 30
0.0
 10
204.3705602812064
 20
55.17046178552037
 30
0.0
 10
204.2685260338771
 20
55.22319822124693
 30
0.0
 10
204.1596121206898
 20
55.28551477715658
 30
0.0
 10
204.0814958097053
 20
55.33511883540668
 30
0.0
 10
204.0423523703587
 20
55.35997501999846
 30
0.0
  0
SPLINE
  5
1D5
330
1F
100
AcDbEntity
  8
0
  6
Continuous
 62
     7
370
    25
100
AcDbSpline
210
0.0
220
0.0
230
1.0
 70
     8
 71
     3
 72
     8
 73
     4
 74
     0
 42
0.000000001
 43
0.00000001
 40
0.0
 40
0.0
 40
0.0
 40
0.0
 40
1.0
 40
1.0
 40
1.0
 40
1.0
 10
206.3964202003525
 20
54.23792418532322
 30
0.0
 10
205.9050528883116
 20
54.55379880529036
 30
0.0
 10
205.4136666883859
 20
54.86978482657948
 30
0.0
 10
204.9222609782425
 20
55.18588170742181
 30
0.0
  0
SPLINE
  5
1D6
330
1F
100
AcDbEntity
  8
0
  6
Continuous
 62
     7
370
    25
100
AcDbSpline
210
0.0
220
0.0
230
1.0
 70
     8
 71
     3
 72
    18
 73
    14
 74
     0
 42
0.000000001
 43
0.00000001
 40
0.0
 40
0.0
 40
0.0
 40
0.0
 40
0.0923824559397059
 40
0.1844689291547896
 40
0.2764953615916986
 40
0.3686975365456813
 40
0.4613092839965452
 40
0.5545607518407201
 40
0.648676805150765
 40
0.7438756050126222
 40
0.840367404429405
 40
0.9203921078117897
 40
1.0
 40
1.0
 40
1.0
 40
1.0
 10
207.2099843195537
 20
53.59361646077783
 30
0.0
 10
207.186416805431
 20
53.60889043504314
 30
0.0
 10
207.1393572847802
 20
53.63938944752339
 30
0.0
 10
207.0669594968182
 20
53.68902202013381
 30
0.0
 10
206.9934772879232
 20
53.74135156280201
 30
0.0
 10
206.9187778401785
 20
53.7966692485097
 30
0.0
 10
206.8429170504104
 20
53.85490756362328
 30
0.0
 10
206.7659057696234
 20
53.91610047526104
 30
0.0
 10
206.6877736375418
 20
53.98026419184291
 30
0.0
 10
206.6085474028972
 20
54.04741315171054
 30
0.0
 10
206.5332509184865
 20
54.11326406145716
 30
0.0
 10
206.4624236103638
 20
54.17679564826579
 30
0.0
 10
206.4185192395564
 20
54.21745639327942
 30
0.0
 10
206.396624372751
 20
54.23773368184801
 30
0.0
  0
LINE
  5
1D7
330
1F
100
AcDbEntity
  8
0
  6
Continuous
 62
     7
370
    25
100
AcDbLine
 10
207.8496908514
 20
53.1818626543
 30
0.0
 11
207.2099840091
 21
53.5936163219
 31
0.0
  0
SPLINE
  5
1D8
330
1F
100
AcDbEntity
  8
0
  6
Continuous
 62
     7
370
    25
100
AcDbSpline
210
0.0
220
0.0
230
1.0
 70
     8
 71
     3
 72
    25
 73
    21
 74
     0
 42
0.000000001
 43
0.00000001
 40
0.0
 40
0.0
 40
0.0
 40
0.0
 40
0.0280105225426455
 40
0.0559601148860777
 40
0.0839014045043132
 40
0.1118870776786386
 40
0.1399695827588948
 40
0.1682008401739887
 40
0.196631967042423
 40
0.2253130233141507
 40
0.2542927850735879
 40
0.3799486436587393
 40
0.5057850221667148
 40
0.6313085886345164
 40
0.7532068238012837
 40
0.8039473267959832
 40
0.8535894438560202
 40
0.9025339722399832
 40
0.9511970353794942
 40
1.0
 40
1.0
 40
1.0
 40
1.0
 10
208.952056444544
 20
53.8977686446549
 30
0.0
 10
208.9570045520746
 20
53.87014478354742
 30
0.0
 10
208.9668900037101
 20
53.8149571504421
 30
0.0
 10
208.9784256533133
 20
53.73579644307218
 30
0.0
 10
208.9874987751261
 20
53.65949310397379
 30
0.0
 10
208.993867583839
 20
53.58629734300418
 30
0.0
 10
208.9975838226491
 20
53.5161498747908
 30
0.0
 10
208.9986204436319
 20
53.44907358827802
 30
0.0
 10
208.9969719684051
 20
53.38506967905158
 30
0.0
 10
208.9926258165362
 20
53.32414082578475
 30
0.0
 10
208.9777694919685
 20
53.20225270428758
 30
0.0
 10
208.9326812349035
 20
53.04735183263239
 30
0.0
 10
208.8193217144106
 20
52.91640871429028
 30
0.0
 10
208.6574974924167
 20
52.86053231347979
 30
0.0
 10
208.4834822732843
 20
52.88040636586301
 30
0.0
 10
208.3321213525977
 20
52.92772416821932
 30
0.0
 10
208.2217211198989
 20
52.97263959195495
 30
0.0
 10
208.1045616244502
 20
53.03001532324611
 30
0.0
 10
207.9809959575168
 20
53.09869238769856
 30
0.0
 10
207.8935009074223
 20
53.15411263365139
 30
0.0
 10
207.849690587741
 20
53.18186253138145
 30
0.0
  0
ARC
  5
1D9
330
1F
100
AcDbEntity
  8
0
  6
Continuous
 62
     7
370
    25
100
AcDbCircle
 10
220.1450776089
 20
55.6838190132
 30
0.0
 40
11.33462419218116
100
AcDbArc
 50
170.9338462887
 51
189.0661537113
  0
SPLINE
  5
1DA
330
1F
100
AcDbEntity
  8
0
  6
Continuous
 62
     7
370
    25
100
AcDbSpline
210
0.0
220
0.0
230
1.0
 70
     8
 71
     3
 72
    26
 73
    22
 74
     0
 42
0.000000001
 43
0.00000001
 40
0.0
 40
0.0
 40
0.0
 40
0.0
 40
0.0241259796969038
 40
0.048215991228259
 40
0.0723203915136643
 40
0.0964895678725153
 40
0.1207736231978452
 40
0.1452220711257179
 40
0.1698835501670319
 40
0.1948055644482148
 40
0.2200342569523467
 40
0.2456142191612283
 40
0.369097148691835
 40
0.4940698769485373
 40
0.6192566784762581
 40
0.7454656653603327
 40
0.7971495824713788
 40
0.8481710308405456
 40
0.8988013269235281
 40
0.9493179290492212
 40
1.0
 40
1.0
 40
1.0
 40
1.0
 10
207.849690587741
 20
60.94597292274602
 30
0.0
 10
207.8714088171176
 20
60.93164139935063
 30
0.0
 10
207.9148128972945
 20
60.90299971868104
 30
0.0
 10
207.9781200146571
 20
60.8550074207515
 30
0.0
 10
208.0399815823758
 20
60.80340822286532
 30
0.0
 10
208.1002860975128
 20
60.74783342999176
 30
0.0
 10
208.1590759494529
 20
60.68837818936451
 30
0.0
 10
208.2163564678825
 20
60.62501388052723
 30
0.0
 10
208.2721476072082
 20
60.55774510256362
 30
0.0
 10
208.3264688546292
 20
60.48657098860401
 30
0.0
 10
208.3793478298371
 20
60.41148184885648
 30
0.0
 10
208.4961426545726
 20
60.23222740015237
 30
0.0
 10
208.6580122124982
 20
59.92192192830933
 30
0.0
 10
208.8211971200311
 20
59.45200814017835
 30
0.0
 10
208.9327085252036
 20
58.95304510627027
 30
0.0
 10
208.9798423633122
 20
58.54416143321333
 30
0.0
 10
208.9949613028447
 20
58.23988947662261
 30
0.0
 10
208.9969144418273
 20
58.03864023492729
 30
0.0
 10
208.9904364161882
 20
57.8429803152047
 30
0.0
 10
208.976309493501
 20
57.65234402730724
 30
0.0
 10
208.9601496018161
 20
57.53076075356842
 30
0.0
 10
208.952056444544
 20
57.46986971696953
 30
0.0
  0
LINE
  5
1DB
330
1F
100
AcDbEntity
  8
0
  6
Continuous
 62
     7
370
    25
100
AcDbLine
 10
207.2099840091
 20
61.358947773
 30
0.0
 11
207.8496908514
 21
60.945972802
 31
0.0
  0
SPLINE
  5
1DC
330
1F
100
AcDbEntity
  8
0
  6
Continuous
 62
     7
370
    25
100
AcDbSpline
210
0.0
220
0.0
230
1.0
 70
     8
 71
     3
 72
    14
 73
    10
 74
     0
 42
0.000000001
 43
0.00000001
 40
0.0
 40
0.0
 40
0.0
 40
0.0
 40
0.0789261963155847
 40
0.1582328720522156
 40
0.3308475394554963
 40
0.5000195457601538
 40
0.667035788356921
 40
0.8332395193656904
 40
1.0
 40
1.0
 40
1.0
 40
1.0
 10
206.396031603702
 20
61.56753020603119
 30
0.0
 10
206.4177484850374
 20
61.56913336988961
 30
0.0
 10
206.4612869382523
 20
61.57234742597655
 30
0.0
 10
206.5528120569009
 20
61.57316846604432
 30
0.0
 10
206.6697203903342
 20
61.56523248426106
 30
0.0
 10
206.8105407287166
 20
61.53895681538324
 30
0.0
 10
206.9477530365293
 20
61.495999216851
 30
0.0
 10
207.0816837109461
 20
61.43764209204139
 30
0.0
 10
207.1671698029054
 20
61.38520854589136
 30
0.0
 10
207.2099843195537
 20
61.3589479357369
 30
0.0
  0
SPLINE
  5
1DD
330
1F
100
AcDbEntity
  8
0
  6
Continuous
 62
     7
370
    25
100
AcDbSpline
210
0.0
220
0.0
230
1.0
 70
     8
 71
     3
 72
     8
 73
     4
 74
     0
 42
0.000000001
 43
0.00000001
 40
0.0
 40
0.0
 40
0.0
 40
0.0
 40
1.0
 40
1.0
 40
1.0
 40
1.0
 10
204.593728020698
 20
62.72992161744331
 30
0.0
 10
205.1944862443939
 20
62.34265413428459
 30
0.0
 10
205.795215107254
 20
61.95518678436147
 30
0.0
 10
206.3959157516006
 20
61.56751989177202
 30
0.0
  0
SPLINE
  5
1DE
330
1F
100
AcDbEntity
  8
0
  6
Continuous
 62
     7
370
    25
100
AcDbSpline
210
0.0
220
0.0
230
1.0
 70
     8
 71
     3
 72
    13
 73
     9
 74
     0
 42
0.000000001
 43
0.00000001
 40
0.0
 40
0.0
 40
0.0
 40
0.0
 40
0.1667030582308044
 40
0.3329480818053134
 40
0.4990671507274983
 40
0.6653938523718556
 40
0.8322612710550201
 40
1.0
 40
1.0
 40
1.0
 40
1.0
 10
204.2518994856636
 20
63.0309863965291
 30
0.0
 10
204.2722006681036
 20
63.01742128984987
 30
0.0
 10
204.3127472532923
 20
62.99032834808702
 30
0.0
 10
204.3718968902799
 20
62.94513377507931
 30
0.0
 10
204.4296684351824
 20
62.89672262659634
 30
0.0
 10
204.485918172642
 20
62.84468751182588
 30
0.0
 10
204.5408453813882
 20
62.78938954461688
 30
0.0
 10
204.5760660909787
 20
62.74977228945649
 30
0.0
 10
204.5937223029196
 20
62.72991208045558
 30
0.0
  0
SPLINE
  5
1DF
330
1F
100
AcDbEntity
  8
0
  6
Continuous
 62
     7
370
    25
100
AcDbSpline
210
0.0
220
0.0
230
1.0
 70
     8
 71
     3
 72
     8
 73
     4
 74
     0
 42
0.000000001
 43
0.00000001
 40
0.0
 40
0.0
 40
0.0
 40
0.0
 40
1.0
 40
1.0
 40
1.0
 40
1.0
 10
202.3079189698729
 20
64.28570824890858
 30
0.0
 10
202.9559490422732
 20
63.86771293302382
 30
0.0
 10
203.6039420193751
 20
63.44947217060618
 30
0.0
 10
204.2518994856636
 20
63.0309863965291
 30
0.0
  0
LWPOLYLINE
  5
1E0
330
1F
100
AcDbEntity
  8
0
  6
Continuous
 62
     7
370
    25
100
AcDbPolyline
 90
       18
 70
   128
 43
0.0
 10
202.3079196202
 20
64.2857082994
 10
202.7332880059
 20
65.5109569948
 10
203.2543284206
 20
66.727744168
 10
203.863985877
 20
67.9195950524
 10
204.5540061783
 20
69.0703722592
 10
205.3150465535
 20
70.1644944004
 10
206.1368020982
 20
71.1871471047
 10
207.0081473614
 20
72.1244849078
 10
207.9172840243
 20
72.9638161257
 10
208.8519027378
 20
73.6937761301
 10
209.799349092
 20
74.3044817166
 10
210.7467949184
 20
74.7876634552
 10
211.6814121501
 20
75.1367805069
 10
212.5905461789
 20
75.3471047306
 10
213.4618874909
 20
75.4157885874
 10
214.283638755
 20
75.3419030429
 10
215.0446735326
 20
75.1264470588
 10
215.3576573467
 20
74.9874552646
  0
SPLINE
  5
1E1
330
1F
100
AcDbEntity
  8
0
  6
Continuous
 62
     7
370
    25
100
AcDbSpline
210
0.0
220
0.0
230
1.0
 70
    11
 71
     3
 72
    39
 73
    35
 74
     0
 42
0.000000001
 43
0.00000001
 40
0.0
 40
0.0
 40
0.0
 40
0.0
 40
0.0310664058347798
 40
0.0621048158425991
 40
0.0931361551792733
 40
0.1235538293503577
 40
0.1538561545807598
 40
0.1850588072749104
 40
0.2160250992947717
 40
0.247186722379756
 40
0.2784462884306427
 40
0.3100516090231226
 40
0.3419834369140484
 40
0.3734259894013217
 40
0.4048604886785525
 40
0.4368740651833295
 40
0.468512068592407
 40
0.4998055358633177
 40
0.5309508213228404
 40
0.561864978443814
 40
0.5930416446592908
 40
0.6233742450133256
 40
0.6540913579073041
 40
0.6849496782718417
 40
0.7158160645167227
 40
0.7471731804043494
 40
0.7784514311866261
 40
0.8101295911560916
 40
0.8419598919689909
 40
0.8735175891922292
 40
0.9050808037889628
 40
0.9370235169792575
 40
0.9687441590033682
 40
0.9999999999999999
 40
0.9999999999999999
 40
0.9999999999999999
 40
0.9999999999999999
 10
215.5165044510783
 20
73.29089862424999
 30
0.0
 10
215.7793900712758
 20
73.26236413695977
 30
0.0
 10
216.306278681759
 20
73.1764216486373
 30
0.0
 10
217.0702907508324
 20
72.97604652856711
 30
0.0
 10
217.7774409388838
 20
72.72904442234746
 30
0.0
 10
218.3903520034783
 20
72.45106254419514
 30
0.0
 10
218.8874833291533
 20
72.15692884686526
 30
0.0
 10
219.2466750502255
 20
71.85542231867261
 30
0.0
 10
219.4683943189863
 20
71.5484248137694
 30
0.0
 10
219.533646196367
 20
71.23791955236713
 30
0.0
 10
219.4467989852526
 20
70.91877506761871
 30
0.0
 10
219.2044533974938
 20
70.58945510204586
 30
0.0
 10
218.8245155347676
 20
70.250514380489
 30
0.0
 10
218.310709581609
 20
69.91267591607858
 30
0.0
 10
217.6848187706983
 20
69.58677801476959
 30
0.0
 10
216.9713477842099
 20
69.29013112152961
 30
0.0
 10
216.2074453079448
 20
69.03402781309099
 30
0.0
 10
215.4216522250409
 20
68.84500024510122
 30
0.0
 10
214.6401147699989
 20
68.73682432304606
 30
0.0
 10
213.8840017852451
 20
68.72916043967803
 30
0.0
 10
213.1816371988543
 20
68.82708247506564
 30
0.0
 10
212.5626168518106
 20
69.04873090856708
 30
0.0
 10
212.0535595867979
 20
69.38459899547823
 30
0.0
 10
211.6806159933642
 20
69.82440956165952
 30
0.0
 10
211.4520140421166
 20
70.3354842021821
 30
0.0
 10
211.3831677353969
 20
70.88666928994536
 30
0.0
 10
211.467784148622
 20
71.44434121825682
 30
0.0
 10
211.7108929385576
 20
71.97442135917659
 30
0.0
 10
212.0930227813743
 20
72.44694570828959
 30
0.0
 10
212.6091583557879
 20
72.83306721918332
 30
0.0
 10
213.2361362162891
 20
73.11669140651563
 30
0.0
 10
213.9520436486554
 20
73.28642862524204
 30
0.0
 10
214.7204870408389
 20
73.34796745995257
 30
0.0
 10
215.2520158202114
 20
73.31960710769694
 30
0.0
 10
215.5165044510783
 20
73.29089862424999
 30
0.0
  0
LINE
  5
1E2
330
1F
100
AcDbEntity
  8
0
  6
Continuous
 62
     7
370
    25
100
AcDbLine
 10
206.291967038
 20
56.8517720069
 30
0.0
 11
206.6027187156
 21
56.6853913064
 31
0.0
  0
LINE
  5
1E3
330
1F
100
AcDbEntity
  8
0
  6
Continuous
 62
     7
370
    25
100
AcDbLine
 10
205.3050090181
 20
57.4215307441
 30
0.0
 11
206.291967038
 21
56.8517720069
 31
0.0
  0
ARC
  5
1E4
330
1F
100
AcDbEntity
  8
0
  6
Continuous
 62
     7
370
    25
100
AcDbCircle
 10
207.5129492806
 20
61.116228328
 30
0.0
 40
4.584914333880812
100
AcDbArc
 50
267.8978691887
 51
286.7728271903
  0
SPLINE
  5
1E5
330
1F
100
AcDbEntity
  8
0
  6
Continuous
 62
     7
370
    25
100
AcDbSpline
210
0.0
220
0.0
230
1.0
 70
     8
 71
     3
 72
    12
 73
     8
 74
     0
 42
0.000000001
 43
0.00000001
 40
0.0
 40
0.0
 40
0.0
 40
0.0
 40
0.1427340617478052
 40
0.374476004195105
 40
0.607135784882394
 40
0.8192243157844539
 40
1.0
 40
1.0
 40
1.0
 40
1.0
 10
216.8550104093777
 20
70.28840290891428
 30
0.0
 10
216.6637077893969
 20
70.39338032591654
 30
0.0
 10
216.161807683387
 20
70.66879828269822
 30
0.0
 10
215.1669993175034
 20
71.08350070156364
 30
0.0
 10
213.9554734942164
 20
71.37654844610358
 30
0.0
 10
212.8375784058279
 20
71.41590526539525
 30
0.0
 10
212.2593838873396
 20
71.2099918468773
 30
0.0
 10
211.9933288340482
 20
71.11524119846155
 30
0.0
  0
SPLINE
  5
1E6
330
1F
100
AcDbEntity
  8
0
  6
Continuous
 62
     7
370
    25
100
AcDbSpline
210
0.0
220
0.0
230
1.0
 70
     8
 71
     3
 72
    10
 73
     6
 74
     0
 42
0.000000001
 43
0.00000001
 40
0.0
 40
0.0
 40
0.0
 40
0.0
 40
0.3798174073072795
 40
0.9603711649033085
 40
1.0
 40
1.0
 40
1.0
 40
1.0
 10
217.9948905312371
 20
69.76017598139578
 30
0.0
 10
217.8652379139888
 20
69.83050454323315
 30
0.0
 10
217.5374102982343
 20
70.00833083965426
 30
0.0
 10
217.1294817532241
 20
70.18138369005668
 30
0.0
 10
216.8728489717922
 20
70.28058912230499
 30
0.0
 10
216.8564504815805
 20
70.28692821624536
 30
0.0
  0
SPLINE
  5
1E7
330
1F
100
AcDbEntity
  8
0
  6
Continuous
 62
     7
370
    25
100
AcDbSpline
210
0.0
220
0.0
230
1.0
 70
     8
 71
     3
 72
    24
 73
    20
 74
     0
 42
0.000000001
 43
0.00000001
 40
0.0
 40
0.0
 40
0.0
 40
0.0
 40
0.0607455363021093
 40
0.1128924008789682
 40
0.1564464147617924
 40
0.2383375435920547
 40
0.3124663900705661
 40
0.3863028951659728
 40
0.4127366364261891
 40
0.4400788037477157
 40
0.4683372764998164
 40
0.5351089914504651
 40
0.6246224739006434
 40
0.6840378683094764
 40
0.7360430365835176
 40
0.7813038827532446
 40
0.860956484577393
 40
0.9367168394858374
 40
0.9999999999999999
 40
0.9999999999999999
 40
0.9999999999999999
 40
0.9999999999999999
 10
215.461625884076
 20
72.71704072429321
 30
0.0
 10
215.2776690947385
 20
72.73593528925754
 30
0.0
 10
214.9357950267737
 20
72.77104984963901
 30
0.0
 10
214.4715770538128
 20
72.764559301271
 30
0.0
 10
213.9621154414772
 20
72.71683510839779
 30
0.0
 10
213.4230203425219
 20
72.59221851073859
 30
0.0
 10
212.8801823562227
 20
72.34972822488758
 30
0.0
 10
212.5397893452094
 20
72.09235547968918
 30
0.0
 10
212.3331626293924
 20
71.87754837039122
 30
0.0
 10
212.2151785933818
 20
71.73104504355476
 30
0.0
 10
212.0630080738541
 20
71.50129407966297
 30
0.0
 10
211.8963286411515
 20
71.12835284453861
 30
0.0
 10
211.8279612251547
 20
70.66578672553793
 30
0.0
 10
211.8783319531215
 20
70.2374725122765
 30
0.0
 10
211.9837181129904
 20
69.91749356595511
 30
0.0
 10
212.1660871317471
 20
69.57723354581158
 30
0.0
 10
212.4658822959774
 20
69.23997347315247
 30
0.0
 10
212.8954195371885
 20
68.94663553687433
 30
0.0
 10
213.2348253071483
 20
68.8404348164677
 30
0.0
 10
213.3892997517459
 20
68.79209946464793
 30
0.0
  0
SPLINE
  5
1E8
330
1F
100
AcDbEntity
  8
0
  6
Continuous
 62
     7
370
    25
100
AcDbSpline
210
0.0
220
0.0
230
1.0
 70
     8
 71
     3
 72
    21
 73
    17
 74
     0
 42
0.000000001
 43
0.00000001
 40
0.0
 40
0.0
 40
0.0
 40
0.0
 40
0.0245423523327843
 40
0.0827957964584195
 40
0.1479263435078914
 40
0.2199735072019808
 40
0.3004980423205718
 40
0.3656935767785109
 40
0.4155564841318308
 40
0.5185706442756413
 40
0.6104036270565917
 40
0.7036064425797317
 40
0.753286712006312
 40
0.8050624110875557
 40
0.894020194776107
 40
1.0
 40
1.0
 40
1.0
 40
1.0
 10
218.758339203708
 20
70.2318336319964
 30
0.0
 10
218.784355412869
 20
70.25632391393141
 30
0.0
 10
218.8721233957058
 20
70.33894404629714
 30
0.0
 10
218.9812002607375
 20
70.4837080607486
 30
0.0
 10
219.078256274804
 20
70.67252134187075
 30
0.0
 10
219.1122901087338
 20
70.87573248851803
 30
0.0
 10
219.0684758627981
 20
71.07596052369786
 30
0.0
 10
218.9618761158096
 20
71.25475496278085
 30
0.0
 10
218.7854712644418
 20
71.4511827333108
 30
0.0
 10
218.5015621260799
 20
71.6740397058689
 30
0.0
 10
218.0499793916453
 20
71.92947210153474
 30
0.0
 10
217.6024197384469
 20
72.13611150216886
 30
0.0
 10
217.1935255472673
 20
72.29461533608664
 30
0.0
 10
216.771446053217
 20
72.43713217986888
 30
0.0
 10
216.1931333879993
 20
72.60038870536837
 30
0.0
 10
215.7192548024977
 20
72.67595716287228
 30
0.0
 10
215.461625884076
 20
72.71704072429321
 30
0.0
  0
LINE
  5
1E9
330
1F
100
AcDbEntity
  8
0
  6
Continuous
 62
     7
370
    25
100
AcDbLine
 10
208.9520561622
 20
57.4698695362
 30
0.0
 11
208.9468180992
 21
57.7659529591
 31
0.0
  0
LINE
  5
1EA
330
1F
100
AcDbEntity
  8
0
  6
Continuous
 62
     7
370
    25
100
AcDbLine
 10
208.9468180992
 20
57.7659529591
 30
0.0
 11
208.9899198372
 21
58.4176386096
 31
0.0
  0
LINE
  5
1EB
330
1F
100
AcDbEntity
  8
0
  6
Continuous
 62
     7
370
    25
100
AcDbLine
 10
208.5597335399
 20
60.1490756626
 30
0.0
 11
208.1558547786
 21
60.5752377461
 31
0.0
  0
SPLINE
  5
1EC
330
1F
100
AcDbEntity
  8
0
  6
Continuous
 62
     7
370
    25
100
AcDbSpline
210
0.0
220
0.0
230
1.0
 70
     8
 71
     3
 72
    19
 73
    15
 74
     0
 42
0.000000001
 43
0.00000001
 40
0.0
 40
0.0
 40
0.0
 40
0.0
 40
0.0210492621018804
 40
0.1455865440207667
 40
0.2712169722633744
 40
0.3929514297049947
 40
0.5136082229787104
 40
0.6366369099308349
 40
0.699422462668311
 40
0.7643939711952468
 40
0.8122544601557282
 40
0.8606584764820763
 40
0.9188817427801165
 40
1.0
 40
1.0
 40
1.0
 40
1.0
 10
211.8723813317337
 20
70.46229077683542
 30
0.0
 10
211.8649127567478
 20
70.51705112374081
 30
0.0
 10
211.8132565981761
 20
70.89579930107597
 30
0.0
 10
212.0560274928357
 20
71.50595020989014
 30
0.0
 10
212.6403579602507
 20
72.1953239131297
 30
0.0
 10
213.5464843278909
 20
72.61262346336176
 30
0.0
 10
214.620830456353
 20
72.73304942105041
 30
0.0
 10
215.5747643254487
 20
72.5723498774628
 30
0.0
 10
216.3094268680179
 20
72.27498377862102
 30
0.0
 10
216.7822301074903
 20
71.97732570121632
 30
0.0
 10
217.1392002776097
 20
71.60641389643897
 30
0.0
 10
217.334048419118
 20
71.17409260113138
 30
0.0
 10
217.3630774493622
 20
70.67115126990622
 30
0.0
 10
217.3007038477418
 20
70.33740625733104
 30
0.0
 10
217.2643927917677
 20
70.14311518678417
 30
0.0
  0
SPLINE
  5
1ED
330
1F
100
AcDbEntity
  8
0
  6
Continuous
 62
     7
370
    25
100
AcDbSpline
210
0.0
220
0.0
230
1.0
 70
     8
 71
     3
 72
    10
 73
     6
 74
     0
 42
0.000000001
 43
0.00000001
 40
0.0
 40
0.0
 40
0.0
 40
0.0
 40
0.270154837807337
 40
0.8974498536172053
 40
1.0
 40
1.0
 40
1.0
 40
1.0
 10
217.2671206477559
 20
70.1418766333618
 30
0.0
 10
217.3500709444143
 20
70.1030962314817
 30
0.0
 10
217.6256304428034
 20
69.97426838492903
 30
0.0
 10
217.9218578276644
 20
69.82049363430788
 30
0.0
 10
218.0879822729698
 20
69.71437387995971
 30
0.0
 10
218.1113243283349
 20
69.69946305105208
 30
0.0
  0
ARC
  5
1EE
330
1F
100
AcDbEntity
  8
0
  6
Continuous
 62
     7
370
    25
100
AcDbCircle
 10
221.2772292131
 20
55.928657641
 30
0.0
 40
12.46654291791702
100
AcDbArc
 50
171.5249863735
 51
179.8211981812
  0
SPLINE
  5
1EF
330
1F
100
AcDbEntity
  8
0
  6
Continuous
 62
     7
370
    25
100
AcDbSpline
210
0.0
220
0.0
230
1.0
 70
     8
 71
     3
 72
    14
 73
    10
 74
     0
 42
0.000000001
 43
0.00000001
 40
0.0
 40
0.0
 40
0.0
 40
0.0
 40
0.0003951393068452
 40
0.0003951393068452
 40
0.0003951393068452
 40
0.0008163352168296
 40
0.0008163352168296
 40
0.0008163352168296
 40
0.0012378579336484
 40
0.0012378579336484
 40
0.0012378579336484
 40
0.0012378579336484
 10
216.8590429849176
 20
70.28712395552984
 30
0.0
 10
216.9045047991475
 20
70.27268709290547
 30
0.0
 10
216.9493924037672
 20
70.25782123234056
 30
0.0
 10
216.993676096441
 20
70.24253744473579
 30
0.0
 10
217.0408793886748
 20
70.22624600540026
 30
0.0
 10
217.0874052017286
 20
70.2094765273186
 30
0.0
 10
217.133216110965
 20
70.19224771652563
 30
0.0
 10
217.1790624989489
 20
70.17500556269633
 30
0.0
 10
217.2242017345162
 20
70.15729985649426
 30
0.0
 10
217.2685952925536
 20
70.13915699980596
 30
0.0
  0
LINE
  5
1F0
330
1F
100
AcDbEntity
  8
0
  6
Continuous
 62
     7
370
    25
100
AcDbLine
 10
208.1558547786
 20
60.5752377461
 30
0.0
 11
207.5159181042
 21
60.9874693862
 31
0.0
  0
LINE
  5
1F1
330
1F
100
AcDbEntity
  8
0
  6
Continuous
 62
     7
370
    25
100
AcDbLine
 10
207.2099840091
 20
61.358947773
 30
0.0
 11
207.5159181042
 21
60.9874693862
 31
0.0
  0
SPLINE
  5
1F2
330
1F
100
AcDbEntity
  8
0
  6
Continuous
 62
     7
370
    25
100
AcDbSpline
210
0.0
220
0.0
230
1.0
 70
     8
 71
     3
 72
    13
 73
     9
 74
     0
 42
0.000000001
 43
0.00000001
 40
0.0
 40
0.0
 40
0.0
 40
0.0
 40
0.1618542299052077
 40
0.3254858841874489
 40
0.4910085196967187
 40
0.6585318473110602
 40
0.828161695440384
 40
1.0
 40
1.0
 40
1.0
 40
1.0
 10
207.5159185158958
 20
60.98746939010002
 30
0.0
 10
207.4963411238759
 20
61.00003236713472
 30
0.0
 10
207.4569713480264
 20
61.02529628325579
 30
0.0
 10
207.3954354082518
 20
61.05798998017262
 30
0.0
 10
207.3318787490011
 20
61.08693605387957
 30
0.0
 10
207.2662606463458
 20
61.11144842134378
 30
0.0
 10
207.1988333772954
 20
61.13188348469495
 30
0.0
 10
207.1529487771005
 20
61.14148013968326
 30
0.0
 10
207.1298580969278
 20
61.14630950051721
 30
0.0
  0
SPLINE
  5
1F3
330
1F
100
AcDbEntity
  8
0
  6
Continuous
 62
     7
370
    25
100
AcDbSpline
210
0.0
220
0.0
230
1.0
 70
     8
 71
     3
 72
     9
 73
     5
 74
     0
 42
0.000000001
 43
0.00000001
 40
0.0
 40
0.0
 40
0.0
 40
0.0
 40
0.4907282259505859
 40
1.0
 40
1.0
 40
1.0
 40
1.0
 10
207.1298522696359
 20
61.1462815034862
 30
0.0
 10
207.1057587471581
 20
61.15437703570432
 30
0.0
 10
207.0566612605988
 20
61.17087401262561
 30
0.0
 10
207.0059605667786
 20
61.18566768164184
 30
0.0
 10
206.9801401344913
 20
61.19320167970643
 30
0.0
  0
SPLINE
  5
1F4
330
1F
100
AcDbEntity
  8
0
  6
Continuous
 62
     7
370
    25
100
AcDbSpline
210
0.0
220
0.0
230
1.0
 70
     8
 71
     3
 72
    14
 73
    10
 74
     0
 42
0.000000001
 43
0.00000001
 40
0.0
 40
0.0
 40
0.0
 40
0.0
 40
0.0310276388063898
 40
0.0622853718665477
 40
0.1248003166898006
 40
0.2498289731748368
 40
0.4998892603607338
 40
0.7606803622944698
 40
1.0
 40
1.0
 40
1.0
 40
1.0
 10
206.3961994452029
 20
61.56730942235227
 30
0.0
 10
206.4021916846072
 20
61.56347837869876
 30
0.0
 10
206.4142206005664
 20
61.55578788120117
 30
0.0
 10
206.4382804086154
 20
61.54034999169455
 30
0.0
 10
206.4805140812617
 20
61.5132795387637
 30
0.0
 10
206.5650766557741
 20
61.45906751396834
 30
0.0
 10
206.6883636252676
 20
61.38006433208606
 30
0.0
 10
206.8344953317275
 20
61.28645815741048
 30
0.0
 10
206.9328619482654
 20
61.22347508101679
 30
0.0
 10
206.9799336489235
 20
61.193335582243
 30
0.0
  0
LINE
  5
1F5
330
1F
100
AcDbEntity
  8
0
  6
Continuous
 62
     7
370
    25
100
AcDbLine
 10
204.59369929
 20
62.7299400994
 30
0.0
 11
204.8846666441
 21
62.5418615602
 31
0.0
  0
SPLINE
  5
1F6
330
1F
100
AcDbEntity
  8
0
  6
Continuous
 62
     7
370
    25
100
AcDbSpline
210
0.0
220
0.0
230
1.0
 70
     8
 71
     3
 72
     8
 73
     4
 74
     0
 42
0.000000001
 43
0.00000001
 40
0.0
 40
0.0
 40
0.0
 40
0.0
 40
1.0
 40
1.0
 40
1.0
 40
1.0
 10
204.9160549474983
 20
62.52163903004113
 30
0.0
 10
204.9056124416464
 20
62.52846445493852
 30
0.0
 10
204.8951465087567
 20
62.53520742172504
 30
0.0
 10
204.8846587439401
 20
62.54186650937801
 30
0.0
  0
SPLINE
  5
1F7
330
1F
100
AcDbEntity
  8
0
  6
Continuous
 62
     7
370
    25
100
AcDbSpline
210
0.0
220
0.0
230
1.0
 70
     8
 71
     3
 72
     8
 73
     4
 74
     0
 42
0.000000001
 43
0.00000001
 40
0.0
 40
0.0
 40
0.0
 40
0.0
 40
1.0
 40
1.0
 40
1.0
 40
1.0
 10
202.1300505686722
 20
64.39989468185166
 30
0.0
 10
202.1890503328429
 20
64.3611540149322
 30
0.0
 10
202.2483378963541
 20
64.32309203763242
 30
0.0
 10
202.3079189698433
 20
64.28570824917165
 30
0.0
  0
SPLINE
  5
1F8
330
1F
100
AcDbEntity
  8
0
  6
Continuous
 62
     7
370
    25
100
AcDbSpline
210
0.0
220
0.0
230
1.0
 70
     8
 71
     3
 72
     8
 73
     4
 74
     0
 42
0.000000001
 43
0.00000001
 40
0.0
 40
0.0
 40
0.0
 40
0.0
 40
1.0
 40
1.0
 40
1.0
 40
1.0
 10
202.1052008225749
 20
64.76310485978853
 30
0.0
 10
202.1126750346654
 20
64.6421470190774
 30
0.0
 10
202.1209711385554
 20
64.52107517666747
 30
0.0
 10
202.1300505686742
 20
64.39989468185237
 30
0.0
  0
LWPOLYLINE
  5
1F9
330
1F
100
AcDbEntity
  8
0
  6
Continuous
 62
     7
370
    25
100
AcDbPolyline
 90
       14
 70
   128
 43
0.0
 10
202.1052011814
 20
64.7631041944
 10
202.545039107
 20
65.9884971607
 10
203.0832128742
 20
67.2022435363
 10
203.711851559
 20
68.3865929545
 10
204.4217625386
 20
69.5242244544
 10
205.202562871
 20
70.5985017931
 10
206.0428333945
 20
71.5937118369
 10
206.9302856686
 20
72.4953012396
 10
207.8519407687
 20
73.290083842
 10
208.7943196883
 20
73.966437281
 10
209.7436404079
 20
74.5144684672
 10
210.6860193275
 20
74.926162569
 10
211.6076744277
 20
75.1955002949
 10
212.0691636503
 20
75.2772118858
  0
SPLINE
  5
1FA
330
1F
100
AcDbEntity
  8
0
  6
Continuous
 62
     7
370
    25
100
AcDbSpline
210
0.0
220
0.0
230
1.0
 70
     8
 71
     3
 72
    10
 73
     6
 74
     0
 42
0.000000001
 43
0.00000001
 40
0.0
 40
0.0
 40
0.0
 40
0.0
 40
0.2409818396634726
 40
0.5031433556203718
 40
1.0
 40
1.0
 40
1.0
 40
1.0
 10
208.1558547786136
 20
53.8693961228347
 30
0.0
 10
208.2381006496165
 20
53.81771960091415
 30
0.0
 10
208.409820906961
 20
53.70982475422277
 30
0.0
 10
208.6875422659879
 20
53.58010204375852
 30
0.0
 10
208.808519513032
 20
53.60287998486351
 30
0.0
 10
208.8877117539474
 20
53.61779052584225
 30
0.0
  0
LINE
  5
1FB
330
1F
100
AcDbEntity
  8
0
  6
Continuous
 62
     7
370
    25
100
AcDbLine
 10
203.3726807225
 20
63.5984688558
 30
0.0
 11
202.6108020201
 21
64.0891032635
 31
0.0
  0
LINE
  5
1FC
330
1F
100
AcDbEntity
  8
0
  6
Continuous
 62
     7
370
    25
100
AcDbLine
 10
202.6108020201
 20
64.0891032635
 30
0.0
 11
202.1300506998
 21
64.3998946395
 31
0.0
  0
LINE
  5
1FD
330
1F
100
AcDbEntity
  8
0
  6
Continuous
 62
     7
370
    25
100
AcDbLine
 10
207.2099840091
 20
53.5936163219
 30
0.0
 11
207.5159181042
 21
54.281627763
 31
0.0
  0
LINE
  5
1FE
330
1F
100
AcDbEntity
  8
0
  6
Continuous
 62
     7
370
    25
100
AcDbLine
 10
207.5159181042
 20
54.281627763
 30
0.0
 11
208.1558547786
 21
53.8693961228
 31
0.0
  0
SPLINE
  5
1FF
330
1F
100
AcDbEntity
  8
0
  6
Continuous
 62
     7
370
    25
100
AcDbSpline
210
0.0
220
0.0
230
1.0
 70
     8
 71
     3
 72
    13
 73
     9
 74
     0
 42
0.000000001
 43
0.00000001
 40
0.0
 40
0.0
 40
0.0
 40
0.0
 40
0.1722587823584898
 40
0.3421398271275632
 40
0.5097456257942847
 40
0.675182899330312
 40
0.838562619015417
 40
1.0
 40
1.0
 40
1.0
 40
1.0
 10
207.1298465851225
 20
54.56293746835332
 30
0.0
 10
207.1529981090753
 20
54.54481787741818
 30
0.0
 10
207.1989815898274
 20
54.50882880548065
 30
0.0
 10
207.2665226025424
 20
54.45782882206237
 30
0.0
 10
207.332182217229
 20
54.40950414187119
 30
0.0
 10
207.3957062884782
 20
54.36407313596352
 30
0.0
 10
207.4571366671962
 20
54.32124756820681
 30
0.0
 10
207.4964028341663
 20
54.29478175103386
 30
0.0
 10
207.5159185158958
 20
54.2816279724883
 30
0.0
  0
SPLINE
  5
200
330
1F
100
AcDbEntity
  8
0
  6
Continuous
 62
     7
370
    25
100
AcDbSpline
210
0.0
220
0.0
230
1.0
 70
     8
 71
     3
 72
    11
 73
     7
 74
     0
 42
0.000000001
 43
0.00000001
 40
0.0
 40
0.0
 40
0.0
 40
0.0
 40
0.2392845095215635
 40
0.5001120454085677
 40
0.751501091501476
 40
1.0
 40
1.0
 40
1.0
 40
1.0
 10
206.9804661736464
 20
54.6102514605662
 30
0.0
 10
206.9333969416267
 20
54.5819369378459
 30
0.0
 10
206.8350207870305
 20
54.52275870729212
 30
0.0
 10
206.6887235654486
 20
54.42957080682942
 30
0.0
 10
206.5408828218249
 20
54.33419889085676
 30
0.0
 10
206.4445963591025
 20
54.26966363559972
 30
0.0
 10
206.3967314712413
 20
54.23758256554442
 30
0.0
  0
SPLINE
  5
201
330
1F
100
AcDbEntity
  8
0
  6
Continuous
 62
     7
370
    25
100
AcDbSpline
210
0.0
220
0.0
230
1.0
 70
     8
 71
     3
 72
     9
 73
     5
 74
     0
 42
0.000000001
 43
0.00000001
 40
0.0
 40
0.0
 40
0.0
 40
0.0
 40
0.5090669353869889
 40
1.0
 40
1.0
 40
1.0
 40
1.0
 10
206.9810371772305
 20
54.60955250635443
 30
0.0
 10
207.0066857518545
 20
54.60205979819455
 30
0.0
 10
207.0570692532
 20
54.58734128548228
 30
0.0
 10
207.1058767646953
 20
54.57094892763011
 30
0.0
 10
207.1298379858898
 20
54.56290137715352
 30
0.0
  0
LINE
  5
202
330
1F
100
AcDbEntity
  8
0
  6
Continuous
 62
     7
370
    25
100
AcDbLine
 10
208.8109557574
 20
55.5334310736
 30
0.0
 11
207.129839801
 21
54.5629434894
 31
0.0
  0
LINE
  5
203
330
1F
100
AcDbEntity
  8
0
  6
Continuous
 62
     7
370
    25
100
AcDbLine
 10
205.1233521498
 20
55.6867647881
 30
0.0
 11
204.9230564962
 21
55.1856073738
 31
0.0
  0
SPLINE
  5
204
330
1F
100
AcDbEntity
  8
0
  6
Continuous
 62
     7
370
    25
100
AcDbSpline
210
0.0
220
0.0
230
1.0
 70
     8
 71
     3
 72
     8
 73
     4
 74
     0
 42
0.000000001
 43
0.00000001
 40
0.0
 40
0.0
 40
0.0
 40
0.0
 40
1.0
 40
1.0
 40
1.0
 40
1.0
 10
205.1229089790904
 20
55.68754854021577
 30
0.0
 10
205.1490843136596
 20
55.70971591719403
 30
0.0
 10
205.1749053536251
 20
55.73234805828564
 30
0.0
 10
205.2003629073334
 20
55.75543277837694
 30
0.0
  0
LINE
  5
205
330
1F
100
AcDbEntity
  8
0
  6
Continuous
 62
     7
370
    25
100
AcDbLine
 10
205.2003630031
 20
55.7554326627
 30
0.0
 11
206.9806557623
 21
54.6096617776
 31
0.0
  0
LINE
  5
206
330
1F
100
AcDbEntity
  8
0
  6
Continuous
 62
     7
370
    25
100
AcDbLine
 10
208.8107469988
 20
55.6314810088
 30
0.0
 11
208.7227476718
 21
55.7389720771
 31
0.0
  0
LINE
  5
207
330
1F
100
AcDbEntity
  8
0
  6
Continuous
 62
     7
370
    25
100
AcDbLine
 10
206.8943396751
 20
56.7333445801
 30
0.0
 11
205.2003630031
 21
55.7554326627
 31
0.0
  0
LINE
  5
208
330
1F
100
AcDbEntity
  8
0
  6
Continuous
 62
     7
370
    25
100
AcDbLine
 10
207.0370337577
 20
56.7120524184
 30
0.0
 11
206.8947598265
 21
56.7328572026
 31
0.0
  0
LINE
  5
209
330
1F
100
AcDbEntity
  8
0
  6
Continuous
 62
     7
370
    25
100
AcDbLine
 10
208.7228214288
 20
55.7388679107
 30
0.0
 11
207.0370337577
 21
56.7120524184
 31
0.0
  0
LINE
  5
20A
330
1F
100
AcDbEntity
  8
0
  6
Continuous
 62
     7
370
    25
100
AcDbLine
 10
208.8739501494
 20
55.651612941
 30
0.0
 11
208.7227746721
 21
55.738894884
 31
0.0
  0
SPLINE
  5
20B
330
1F
100
AcDbEntity
  8
0
  6
Continuous
 62
     7
370
    25
100
AcDbSpline
210
0.0
220
0.0
230
1.0
 70
     8
 71
     3
 72
    23
 73
    19
 74
     0
 42
0.000000001
 43
0.00000001
 40
0.0
 40
0.0
 40
0.0
 40
0.0
 40
0.0449850911494033
 40
0.0909520670728087
 40
0.1379394291202935
 40
0.185983224885145
 40
0.2351171761627572
 40
0.2853728096343075
 40
0.3367795876524736
 40
0.389365037075235
 40
0.4431548745901956
 40
0.4981731273941489
 40
0.5575107591070662
 40
0.6265492281659761
 40
0.705307313934154
 40
0.7937970254093993
 40
0.8920262116141965
 40
1.0
 40
1.0
 40
1.0
 40
1.0
 10
204.338839873129
 20
55.85603662756764
 30
0.0
 10
204.3595292420457
 20
55.84267748768922
 30
0.0
 10
204.4013595645219
 20
55.8156676194148
 30
0.0
 10
204.4618505394718
 20
55.77814565185071
 30
0.0
 10
204.5213347323169
 20
55.74262591876833
 30
0.0
 10
204.5794159123922
 20
55.70964575890991
 30
0.0
 10
204.6359479499354
 20
55.6794394420892
 30
0.0
 10
204.6906933117999
 20
55.65232554094311
 30
0.0
 10
204.7434145035556
 20
55.62859570395103
 30
0.0
 10
204.7938607154579
 20
55.60854857432037
 30
0.0
 10
204.8417259535291
 20
55.59245526322643
 30
0.0
 10
204.8876767946317
 20
55.5804323203165
 30
0.0
 10
204.9327143570307
 20
55.57245176685509
 30
0.0
 10
204.9777461886767
 20
55.57017105196636
 30
0.0
 10
205.0223710090204
 20
55.57667906470532
 30
0.0
 10
205.0638758469676
 20
55.59586897837389
 30
0.0
 10
205.1003309335187
 20
55.63033935732417
 30
0.0
 10
205.1150563613567
 20
55.6678766505171
 30
0.0
 10
205.1227670174829
 20
55.68753225325434
 30
0.0
  0
SPLINE
  5
20C
330
1F
100
AcDbEntity
  8
0
  6
Continuous
 62
     7
370
    25
100
AcDbSpline
210
0.0
220
0.0
230
1.0
 70
     8
 71
     3
 72
     9
 73
     5
 74
     0
 42
0.000000001
 43
0.00000001
 40
0.0
 40
0.0
 40
0.0
 40
0.0
 40
0.5232016984460688
 40
1.0
 40
1.0
 40
1.0
 40
1.0
 10
206.7281618954434
 20
56.63741235930053
 30
0.0
 10
206.6591377327948
 20
56.66245452441702
 30
0.0
 10
206.5272112446858
 20
56.71031783447675
 30
0.0
 10
206.2857738318672
 20
56.84791596516342
 30
0.0
 10
206.1706568835037
 20
56.91352252017182
 30
0.0
  0
LINE
  5
20D
330
1F
100
AcDbEntity
  8
0
  6
Continuous
 62
     7
370
    25
100
AcDbLine
 10
202.4411556865
 20
56.6794120828
 30
0.0
 11
202.8926268008
 21
56.7916760557
 31
0.0
  0
LINE
  5
20E
330
1F
100
AcDbEntity
  8
0
  6
Continuous
 62
     7
370
    25
100
AcDbLine
 10
202.8926268008
 20
56.7916760557
 30
0.0
 11
204.3388392727
 21
55.8560367226
 31
0.0
  0
SPLINE
  5
20F
330
1F
100
AcDbEntity
  8
0
  6
Continuous
 62
     7
370
    25
100
AcDbSpline
210
0.0
220
0.0
230
1.0
 70
     8
 71
     3
 72
     8
 73
     4
 74
     0
 42
0.000000001
 43
0.00000001
 40
0.0
 40
0.0
 40
0.0
 40
0.0
 40
1.0
 40
1.0
 40
1.0
 40
1.0
 10
202.6119442571458
 20
56.28466242978432
 30
0.0
 10
202.5548189882225
 20
56.41644861357825
 30
0.0
 10
202.4978904965056
 20
56.54803283523734
 30
0.0
 10
202.4411563785569
 20
56.679411902137
 30
0.0
  0
LINE
  5
210
330
1F
100
AcDbEntity
  8
0
  6
Continuous
 62
     7
370
    25
100
AcDbLine
 10
204.2303282599
 20
57.5639146704
 30
0.0
 11
202.8926268008
 21
56.7916760557
 31
0.0
  0
LINE
  5
211
330
1F
100
AcDbEntity
  8
0
  6
Continuous
 62
     7
370
    25
100
AcDbLine
 10
205.2133567448
 20
57.4661612676
 30
0.0
 11
204.2303282599
 21
57.5639146704
 31
0.0
  0
LINE
  5
212
330
1F
100
AcDbEntity
  8
0
  6
Continuous
 62
     7
370
    25
100
AcDbLine
 10
206.1706568835
 20
56.9135225202
 30
0.0
 11
205.2133557569
 21
57.4661606973
 31
0.0
  0
SPLINE
  5
213
330
1F
100
AcDbEntity
  8
0
  6
Continuous
 62
     7
370
    25
100
AcDbSpline
210
0.0
220
0.0
230
1.0
 70
     8
 71
     3
 72
     8
 73
     4
 74
     0
 42
0.000000001
 43
0.00000001
 40
0.0
 40
0.0
 40
0.0
 40
0.0
 40
1.0
 40
1.0
 40
1.0
 40
1.0
 10
202.4411563785569
 20
56.679411902137
 30
0.0
 10
202.4380190408068
 20
56.71462820900951
 30
0.0
 10
202.4360266369088
 20
56.75027246523721
 30
0.0
 10
202.4352452395368
 20
56.78636936723208
 30
0.0
  0
LINE
  5
214
330
1F
100
AcDbEntity
  8
0
  6
Continuous
 62
     7
370
    25
100
AcDbLine
 10
203.2463317146
 20
57.2545990819
 30
0.0
 11
202.4352459081
 21
56.7863692123
 31
0.0
  0
SPLINE
  5
215
330
1F
100
AcDbEntity
  8
0
  6
Continuous
 62
     7
370
    25
100
AcDbSpline
210
0.0
220
0.0
230
1.0
 70
     8
 71
     3
 72
     8
 73
     4
 74
     0
 42
0.000000001
 43
0.00000001
 40
0.0000004089325119
 40
0.0000004089325119
 40
0.0000004089325119
 40
0.0000004089325119
 40
0.0015399868451459
 40
0.0015399868451459
 40
0.0015399868451459
 40
0.0015399868451459
 10
203.2463307720255
 20
57.2545990785882
 30
0.0
 10
203.4848073400488
 20
57.34897546440456
 30
0.0
 10
203.7232542977175
 20
57.44340407633477
 30
0.0
 10
203.9616630365678
 20
57.53789745929723
 30
0.0
  0
LINE
  5
216
330
1F
100
AcDbEntity
  8
0
  6
Continuous
 62
     7
370
    25
100
AcDbLine
 10
203.9616625155
 20
57.5378976064
 30
0.0
 11
203.9860589554
 21
57.5428916328
 31
0.0
  0
LINE
  5
217
330
1F
100
AcDbEntity
  8
0
  6
Continuous
 62
     7
370
    25
100
AcDbLine
 10
204.2303282599
 20
57.5639146704
 30
0.0
 11
203.9860596139
 21
57.5428916328
 31
0.0
  0
SPLINE
  5
218
330
1F
100
AcDbEntity
  8
0
  6
Continuous
 62
     7
370
    25
100
AcDbSpline
210
0.0
220
0.0
230
1.0
 70
     8
 71
     3
 72
     8
 73
     4
 74
     0
 42
0.000000001
 43
0.00000001
 40
0.0
 40
0.0
 40
0.0
 40
0.0
 40
1.0
 40
1.0
 40
1.0
 40
1.0
 10
205.2133549510758
 20
57.46616145188419
 30
0.0
 10
205.2439629851991
 20
57.45122144407808
 30
0.0
 10
205.274514486171
 20
57.4363444866847
 30
0.0
 10
205.3050084242856
 20
57.42153092300378
 30
0.0
  0
LWPOLYLINE
  5
219
330
1F
100
AcDbEntity
  8
0
  6
Continuous
 62
     7
370
    25
100
AcDbPolyline
 90
        3
 70
   128
 43
0.0
 10
208.8531280833
 20
56.9546113812
 10
208.2263213459
 20
56.7016732468
 10
207.6417437338
 20
56.5306067436
  0
LWPOLYLINE
  5
21A
330
1F
100
AcDbEntity
  8
0
  6
Continuous
 62
     7
370
    18
100
AcDbPolyline
 90
       19
 70
   128
 43
0.0
 10
270.5006314757
 20
37.6379103323
 10
270.5365399321
 20
37.7503141197
 10
270.7777213214
 20
38.3302953954
 10
271.1004232769
 20
38.8812287499
 10
271.4872483696
 20
39.373413086
 10
271.9173431292
 20
39.780314673
 10
272.3675208622
 20
40.0799974731
 10
272.8135128862
 20
40.2563054478
 10
273.2312750828
 20
40.2997339265
 10
273.5982865469
 20
40.207941656
 10
273.8947599917
 20
39.9858765436
 10
274.1047145175
 20
39.6455112957
 10
274.2168297444
 20
39.2051940449
 10
274.2250622093
 20
38.6886629221
 10
274.1289687118
 20
38.1237645517
 10
273.9337280459
 20
37.5409518019
 10
273.6498677041
 20
36.9716455364
 10
273.292688968
 20
36.4465358887
 10
273.0304532522
 20
36.1427445433
  0
LWPOLYLINE
  5
21B
330
1F
100
AcDbEntity
  8
0
  6
Continuous
 62
     7
370
    18
100
AcDbPolyline
 90
       10
 70
   128
 43
0.0
 10
270.1899815433
 20
37.8172441788
 10
270.358452375
 20
38.2572479791
 10
270.6677239737
 20
38.852142197
 10
271.0494730054
 20
39.3989675989
 10
271.4845555811
 20
39.8703034991
 10
271.9511567555
 20
40.2425159976
 10
272.4258771252
 20
40.4969398272
 10
272.8849142574
 20
40.6208181749
 10
273.3052487288
 20
40.6079386979
 10
273.6166757438
 20
40.4895249855
  0
LWPOLYLINE
  5
21C
330
1F
100
AcDbEntity
  8
0
  6
Continuous
 62
     7
370
    18
100
AcDbPolyline
 90
       28
 70
   128
 43
0.0
 10
256.881966612
 20
26.6577460771
 10
256.4308306968
 20
26.4181302395
 10
255.9960135146
 20
26.3075139932
 10
255.6009559569
 20
26.3318607799
 10
255.2669546948
 20
26.4898575633
 10
255.0120169693
 20
26.7729872755
 10
254.8498859456
 20
27.1659858989
 10
254.789302485
 20
27.6476670233
 10
254.8335323098
 20
28.1920629021
 10
254.9801908303
 20
28.7698249383
 10
255.2213722196
 20
29.349806214
 10
255.5440735165
 20
29.9007391884
 10
255.9308992678
 20
30.3929239046
 10
256.3609940274
 20
30.7998254917
 10
256.8111717603
 20
31.0995082917
 10
257.2571637844
 20
31.2758162664
 10
257.674925981
 20
31.3192447451
 10
258.0419367866
 20
31.2274520944
 10
258.3384108899
 20
31.0053873622
 10
258.5483654157
 20
30.6650221144
 10
258.6604806426
 20
30.2247048635
 10
258.6687131075
 20
29.7081737407
 10
258.57261961
 20
29.1432753703
 10
258.3773789441
 20
28.5604626205
 10
258.0935186022
 20
27.991156355
 10
257.7363398662
 20
27.4660467073
 10
257.3250992358
 20
27.0134435238
 10
256.881966612
 20
26.6577460771
  0
LWPOLYLINE
  5
21D
330
1F
100
AcDbEntity
  8
0
  6
Continuous
 62
     7
370
    18
100
AcDbPolyline
 90
       16
 70
   128
 43
0.0
 10
255.0568678015
 20
26.3148908679
 10
255.0040373855
 20
26.3476172125
 10
254.7213413504
 20
26.6252494815
 10
254.5306808615
 20
27.0176013466
 10
254.441615351
 20
27.5049980824
 10
254.4586117262
 20
28.0630000481
 10
254.5808165134
 20
28.6636259372
 10
254.8021032732
 20
29.2767587977
 10
255.1113748719
 20
29.8716530156
 10
255.4931239036
 20
30.4184784175
 10
255.9282064793
 20
30.8898143177
 10
256.3948069952
 20
31.2620264361
 10
256.8695280234
 20
31.5164506458
 10
257.328564497
 20
31.6403286133
 10
257.7488989685
 20
31.6274491363
 10
258.060326642
 20
31.5090358041
  0
LWPOLYLINE
  5
21E
330
1F
100
AcDbEntity
  8
0
  6
Continuous
 62
     7
370
    18
100
AcDbPolyline
 90
       34
 70
   128
 43
0.0
 10
277.98208003
 20
28.9538582849
 10
277.9284109575
 20
29.5719075297
 10
277.7693438122
 20
30.1056540486
 10
277.5106271936
 20
30.5358064974
 10
277.1616121045
 20
30.8468185686
 10
276.7349128004
 20
31.0274489619
 10
276.2459513234
 20
31.0711695098
 10
275.7123999625
 20
30.9763999757
 10
275.1535427323
 20
30.7465653029
 10
274.5895781602
 20
30.3899731622
 10
274.0408893717
 20
29.9195106433
 10
273.5273074674
 20
29.352182129
 10
273.067394471
 20
28.708492306
 10
272.6777730337
 20
28.0117055964
 10
272.3725249772
 20
27.2870058791
 10
272.1626828978
 20
26.5605855976
 10
272.0558307587
 20
25.8586993783
 10
272.0558307587
 20
25.2067154253
 10
272.1626828978
 20
24.6281980598
 10
272.3725249772
 20
24.1440562862
 10
272.6777730337
 20
23.7717884731
 10
273.067394471
 20
23.5248490998
 10
273.5273074674
 20
23.4121635197
 10
274.0408893717
 20
23.4378040503
 10
274.5895781602
 20
23.6008441222
 10
275.1535427323
 20
23.8953916165
 10
275.7123999625
 20
24.3107997673
 10
276.2459513234
 20
24.8320555221
 10
276.7349128004
 20
25.4403189747
 10
277.1616121045
 20
26.113605898
 10
277.5106271936
 20
26.8275822137
 10
277.7693438122
 20
27.5564425122
 10
277.9284109575
 20
28.2738440479
 10
277.98208003
 20
28.9538582849
  0
LWPOLYLINE
  5
21F
330
1F
100
AcDbEntity
  8
0
  6
Continuous
 62
     7
370
    18
100
AcDbPolyline
 90
       19
 70
   128
 43
0.0
 10
272.5502840853
 20
23.4646416038
 10
272.4485893374
 20
23.5289127319
 10
272.0947268669
 20
23.8657421176
 10
271.8329927974
 20
24.3216277731
 10
271.6723000349
 20
24.881044915
 10
271.6181209197
 20
25.5249433871
 10
271.6723000349
 20
26.231395734
 10
271.8329927974
 20
26.9763447904
 10
272.0947268669
 20
27.7344221702
 10
272.4485893374
 20
28.4798124679
 10
272.8825296677
 20
29.187132468
 10
273.3817706129
 20
29.8322946593
 10
273.9293110232
 20
30.3933296282
 10
274.5065051783
 20
30.8511313418
 10
275.0936974178
 20
31.1901102063
 10
275.6708915729
 20
31.3987226791
 10
276.2184319832
 20
31.4698644117
 10
276.7176729283
 20
31.4011135465
 10
276.9665434834
 20
31.3037710964
  0
LWPOLYLINE
  5
220
330
1F
100
AcDbEntity
  8
0
  6
Continuous
 62
     7
370
    18
100
AcDbPolyline
 90
       31
 70
   128
 43
0.0
 10
252.3141043413
 20
28.8313967059
 10
252.3669479283
 20
30.0457040252
 10
252.5249176092
 20
31.3081507585
 10
252.786339364
 20
32.6053548172
 10
253.1484420374
 20
33.9235657712
 10
253.6073876319
 20
35.248810285
 10
254.1583101622
 20
36.5670396435
 10
254.7953703141
 20
37.8642808889
 10
255.5118153723
 20
39.1267835847
 10
256.300050343
 20
40.3411639164
 10
257.1517199427
 20
41.4945489818
 10
258.057796514
 20
42.5747142366
 10
259.0086751852
 20
43.5702076305
 10
259.9942761095
 20
44.4704778312
 10
261.0041521369
 20
45.2659812493
 10
262.027598153
 20
45.9482854628
 10
263.0537653984
 20
46.5101587865
 10
264.0717760968
 20
46.9456440499
 10
265.0708394819
 20
47.2501248182
 10
266.0403648409
 20
47.4203746805
 10
266.9700749282
 20
47.4545885018
 10
267.8501149545
 20
47.3524035155
 10
268.6711559784
 20
47.1149019752
 10
269.4244946756
 20
46.7446033506
 10
270.1021455354
 20
46.2454308586
 10
270.6969258128
 20
45.6226779949
 10
271.2025299443
 20
44.8829442679
 10
271.6135993531
 20
44.0340724541
 10
271.9257751331
 20
43.0850592383
 10
272.1357494153
 20
42.045965665
 10
272.2187411698
 20
41.2965462233
  0
LWPOLYLINE
  5
221
330
1F
100
AcDbEntity
  8
0
  6
Continuous
 62
     7
370
    18
100
AcDbPolyline
 90
       20
 70
   128
 43
0.0
 10
265.0997459638
 20
25.1677400241
 10
265.0708394819
 20
25.1412814796
 10
264.0717760968
 20
24.2922682162
 10
263.0537653984
 20
23.5523833458
 10
262.027598153
 20
22.9294691867
 10
261.0041521369
 20
22.4301277821
 10
259.9942761095
 20
22.0596531576
 10
259.0086751852
 20
21.821972753
 10
258.057796514
 20
21.7196050017
 10
257.1517199427
 20
21.7536365148
 10
256.300050343
 20
21.923704791
 10
255.5118153723
 20
22.2280083971
 10
254.7953703141
 20
22.6633212359
 10
254.1583101622
 20
23.2250284862
 10
253.6073876319
 20
23.9071762305
 10
253.1484420374
 20
24.7025334398
 10
252.786339364
 20
25.6026695462
 10
252.5249176092
 20
26.5980424714
 10
252.3669479283
 20
27.6781012934
 10
252.3141043413
 20
28.8313967059
  0
LWPOLYLINE
  5
222
330
1F
100
AcDbEntity
  8
0
  6
Continuous
 62
     7
370
    18
100
AcDbPolyline
 90
       22
 70
   128
 43
0.0
 10
251.7484198773
 20
28.8313967059
 10
251.8010244126
 20
30.0595815448
 10
251.9582999876
 20
31.3359005172
 10
252.2186318513
 20
32.6472561321
 10
252.579348947
 20
33.9801928196
 10
253.0367495961
 20
35.3210319106
 10
253.5861410104
 20
36.6560155509
 10
254.2218840733
 20
37.9714441504
 10
254.9374565601
 20
39.2538204851
 10
255.7255156994
 20
40.489984673
 10
256.5779742353
 20
41.667252762
 10
257.4860853799
 20
42.7735440988
 10
258.4405303989
 20
43.7975064172
 10
259.4315154185
 20
44.7286333204
 10
260.4488715237
 20
45.5573692156
 10
261.4821595492
 20
46.2752101128
 10
262.5207762698
 20
46.8747907832
 10
263.5540642953
 20
47.3499588463
 10
264.5714204005
 20
47.6958373077
 10
265.5624054201
 20
47.9088773539
 10
266.5168504391
 20
47.9868937982
 10
266.9292583396
 20
47.9778274556
  0
ARC
  5
223
330
1F
100
AcDbEntity
  8
0
  6
Continuous
 62
     7
370
    18
100
AcDbCircle
 10
260.8674924318
 20
28.511847505
 30
0.0
 40
9.12466963491081
100
AcDbArc
 50
177.993070899
 51
210.7904277101
  0
LWPOLYLINE
  5
224
330
1F
100
AcDbEntity
  8
0
  6
Continuous
 62
     7
370
    18
100
AcDbPolyline
 90
        9
 70
   128
 43
0.0
 10
220.2114570086
 20
47.0372978465
 10
220.2640615439
 20
45.8698489112
 10
220.4213371189
 20
44.7751164526
 10
220.6816689826
 20
43.7643336096
 10
221.0423860783
 20
42.8478720159
 10
221.4997867274
 20
42.0351364733
 10
222.0491781417
 20
41.3344666582
 10
222.6849212046
 20
40.7530513752
 10
223.2150943146
 20
40.3985483529
  0
LWPOLYLINE
  5
225
330
1F
100
AcDbEntity
  8
0
  6
Continuous
 62
     7
370
    18
100
AcDbPolyline
 90
       25
 70
   128
 43
0.0
 10
237.713915767
 20
65.5139646209
 10
237.5285163902
 20
65.6156555258
 10
236.7404572509
 20
65.9419459987
 10
235.8879987149
 20
66.1349864119
 10
234.9798875704
 20
66.1927949388
 10
234.0254425514
 20
66.1147784945
 10
233.0344575318
 20
65.9017384484
 10
232.0171014266
 20
65.5558599869
 10
230.9838134011
 20
65.0806919238
 10
229.9451966804
 20
64.4811112534
 10
228.911908655
 20
63.7632703562
 10
227.8945525498
 20
62.934534461
 10
226.9035675302
 20
62.0034075578
 10
225.9491225112
 20
60.9794452394
 10
225.0410113666
 20
59.8731539026
 10
224.1885528307
 20
58.6958858136
 10
223.4004936914
 20
57.4597216257
 10
222.6849212046
 20
56.177345291
 10
222.0491781417
 20
54.8619166915
 10
221.4997867274
 20
53.5269330512
 10
221.0423860783
 20
52.1860939602
 10
220.6816689826
 20
50.8531572727
 10
220.4213371189
 20
49.5418016578
 10
220.2640615439
 20
48.2654826854
 10
220.2114570086
 20
47.0372978465
  0
LWPOLYLINE
  5
226
330
1F
100
AcDbEntity
  8
0
  6
Continuous
 62
     7
370
    18
100
AcDbPolyline
 90
       22
 70
   128
 43
0.0
 10
265.218802579
 20
27.7088361285
 10
265.271424895
 20
28.5307061183
 10
265.4280587184
 20
29.3940687057
 10
265.6850323344
 20
30.2786873671
 10
266.036323024
 20
31.1638275063
 10
266.4736963468
 20
32.0287420918
 10
266.986900905
 20
32.8531582398
 10
267.5639073955
 20
33.6177523864
 10
268.1911914542
 20
34.3046029258
 10
268.8540500873
 20
34.8976109075
 10
269.5369464084
 20
35.3828766169
 10
270.2238738657
 20
35.7490261896
 10
270.8987314266
 20
35.9874764905
 10
271.5457011094
 20
36.0926393701
 10
272.1496185273
 20
36.062049262
 10
272.6963281837
 20
35.8964238031
 10
273.1730159551
 20
35.5996447428
 10
273.5685081521
 20
35.1786678479
 10
273.8735354315
 20
34.6433613744
 10
274.0809476463
 20
34.0062718249
 10
274.1858837502
 20
33.2823323899
 10
274.1990470671
 20
32.9048545892
  0
LWPOLYLINE
  5
227
330
1F
100
AcDbEntity
  8
0
  6
Continuous
 62
     7
370
    18
100
AcDbPolyline
 90
       12
 70
   128
 43
0.0
 10
269.699412655
 20
25.1104145821
 10
269.5369464084
 20
25.0204183834
 10
268.8540500873
 20
24.7172287832
 10
268.1911914542
 20
24.5449164775
 10
267.5639073955
 20
24.5075202587
 10
266.986900905
 20
24.6059168918
 10
266.4736963468
 20
24.8377996693
 10
266.036323024
 20
25.1977337651
 10
265.6850323344
 20
25.6772823073
 10
265.4280587184
 20
26.2652055472
 10
265.271424895
 20
26.9477225715
 10
265.218802579
 20
27.7088361285
  0
LWPOLYLINE
  5
228
330
1F
100
AcDbEntity
  8
0
  6
Continuous
 62
     7
370
    18
100
AcDbPolyline
 90
       17
 70
   128
 43
0.0
 10
264.6531174565
 20
27.7088357483
 10
264.7064276222
 20
28.5610798922
 10
264.8651671417
 20
29.4558369469
 10
265.1257904113
 20
30.3731195235
 10
265.4824749097
 20
31.2924368304
 10
265.9272532362
 20
32.1932531247
 10
266.4501896006
 20
33.0554453994
 10
267.0396029049
 20
33.8597538414
 10
267.682326375
 20
34.5882115641
 10
268.3640024234
 20
35.2245460089
 10
269.0694038137
 20
35.7545422974
 10
269.7827728929
 20
36.166361501
 10
270.4881742832
 20
36.4508043219
 10
271.1698503316
 20
36.6015162899
 10
271.8125738017
 20
36.6151312903
 10
272.4019871061
 20
36.4913449641
 10
272.7865807207
 20
36.3181908301
  0
ARC
  5
229
330
1F
100
AcDbEntity
  8
0
  6
Continuous
 62
     7
370
    18
100
AcDbCircle
 10
267.9729761161
 20
27.3493359129
 30
0.0
 40
3.339266633727349
100
AcDbArc
 50
173.8196545108
 51
234.8681640392
  0
LWPOLYLINE
  5
22A
330
1F
100
AcDbEntity
  8
0
  6
Continuous
 62
     7
370
    18
100
AcDbPolyline
 90
       12
 70
   128
 43
0.0
 10
267.1279907731
 20
28.810987013
 10
267.1808228356
 20
29.4414311728
 10
267.3371558688
 20
30.1070633606
 10
267.5905896433
 20
30.7806326089
 10
267.9307484612
 20
31.4345627503
 10
268.3437063287
 20
32.0420819972
 10
268.8125566795
 20
32.578318288
 10
269.3181046289
 20
33.0213181235
 10
269.8396530387
 20
33.3529450334
 10
270.3558496836
 20
33.5596220592
 10
270.8455613662
 20
33.6328880815
 10
271.2249879584
 20
33.5881288481
  0
ARC
  5
22B
330
1F
100
AcDbEntity
  8
0
  6
Continuous
 62
     7
370
    18
100
AcDbCircle
 10
269.0911485647
 20
28.6540196602
 30
0.0
 40
1.969423079109825
100
AcDbArc
 50
175.4285515893
 51
221.6885644859
  0
LWPOLYLINE
  5
22C
330
1F
100
AcDbEntity
  8
0
  6
Continuous
 62
     7
370
    18
100
AcDbPolyline
 90
        3
 70
   128
 43
0.0
 10
257.326056101
 20
31.9329317842
 10
257.3769016639
 20
32.6556729413
 10
257.5320033835
 20
33.549442496
  0
LWPOLYLINE
  5
22D
330
1F
100
AcDbEntity
  8
0
  6
Continuous
 62
     7
370
    18
100
AcDbPolyline
 90
       12
 70
   128
 43
0.0
 10
260.300918634
 20
38.7183529466
 10
260.3028163946
 20
38.7203804478
 10
260.9785960825
 20
39.3767233671
 10
261.6807417522
 20
39.9318278554
 10
262.3942883708
 20
40.3738631203
 10
263.1040279025
 20
40.6934075388
 10
263.7948334358
 20
40.8836506006
 10
264.4519818294
 20
40.9405377229
 10
265.0614667472
 20
40.8628562834
 10
265.610298728
 20
40.6522624584
 10
266.0867793871
 20
40.3132436963
 10
266.3611178339
 20
40.0168583412
  0
ARC
  5
22E
330
1F
100
AcDbEntity
  8
0
  6
Continuous
 62
     7
370
    18
100
AcDbCircle
 10
259.9391957269
 20
30.6807751751
 30
0.0
 40
2.361006611967402
100
AcDbArc
 50
232.7429175763
 51
262.2538492952
  0
LWPOLYLINE
  5
22F
330
1F
100
AcDbEntity
  8
0
  6
Continuous
 62
     7
370
    18
100
AcDbPolyline
 90
       16
 70
   128
 43
0.0
 10
258.0817132041
 20
31.8869896657
 10
258.0851679286
 20
31.9648333411
 10
258.1799025195
 20
32.8239265332
 10
258.3784260298
 20
33.7172991394
 10
258.6762136002
 20
34.624588408
 10
259.066477283
 20
35.5251139975
 10
259.5403221178
 20
36.3983495678
 10
260.0869473159
 20
37.2243912062
 10
260.6938932153
 20
37.9844106405
 10
261.3473254423
 20
38.6610837329
 10
262.0323501896
 20
39.2389876972
 10
262.7333532022
 20
39.7049496444
 10
263.4343562149
 20
40.0483485479
 10
264.1193809622
 20
40.2613573218
 10
264.7728131892
 20
40.33912102
 10
265.2181079792
 20
40.309828887
  0
LWPOLYLINE
  5
230
330
1F
100
AcDbEntity
  8
0
  6
Continuous
 62
     7
370
    18
100
AcDbPolyline
 90
       17
 70
   128
 43
0.0
 10
257.7765041665
 20
31.8214916584
 10
257.8309911512
 20
32.6724830194
 10
257.9931748585
 20
33.5664372725
 10
258.2592541693
 20
34.4824006945
 10
258.6229920087
 20
35.3989041972
 10
259.0758628594
 20
36.2944651237
 10
259.6072516425
 20
37.1480930326
 10
260.2047033057
 20
37.9397790326
 10
260.8542140648
 20
38.6509669568
 10
261.54055977
 20
39.2649870335
 10
262.2476531464
 20
39.7674472891
 10
262.9589205425
 20
40.1465700531
 10
263.6576904719
 20
40.3934698711
 10
264.3275842536
 20
40.502358864
 10
264.9529002521
 20
40.4706848946
 10
265.5189816538
 20
40.2991906467
 10
265.7129641704
 20
40.1997044689
  0
LWPOLYLINE
  5
231
330
1F
100
AcDbEntity
  8
0
  6
Continuous
 62
     7
370
    18
100
AcDbPolyline
 90
        3
 70
   128
 43
0.0
 10
259.1384983446
 20
28.8111621887
 10
259.0758628594
 20
28.8487258072
 10
258.6324589152
 20
29.211394333
  0
LINE
  5
232
330
1F
100
AcDbEntity
  8
0
  6
Continuous
 62
     7
370
    18
100
AcDbLine
 10
257.7783365665
 20
31.6718358472
 30
0.0
 11
257.7765041665
 21
31.8214916584
 31
0.0
  0
LWPOLYLINE
  5
233
330
1F
100
AcDbEntity
  8
0
  6
Continuous
 62
     7
370
    18
100
AcDbPolyline
 90
        3
 70
   128
 43
0.0
 10
258.9817463125
 20
28.9696021278
 10
258.7491902098
 20
29.2214082695
 10
258.6493123863
 20
29.354777357
  0
LWPOLYLINE
  5
234
330
1F
100
AcDbEntity
  8
0
  6
Continuous
 62
     7
370
    18
100
AcDbPolyline
 90
       17
 70
   128
 43
0.0
 10
258.0310543386
 20
31.5259449828
 10
258.0341330341
 20
31.9251342774
 10
258.120470524
 20
32.7867269959
 10
258.3125811279
 20
33.684818876
 10
258.6060058409
 20
34.5985681159
 10
258.9939359713
 20
35.5067707973
 10
259.4673688864
 20
36.3883503952
 10
260.0153182529
 20
37.2228496826
 10
260.6250682349
 20
37.9909031442
 10
261.2824691803
 20
38.6746867626
 10
261.9722652472
 20
39.25833339
 10
262.6784490295
 20
39.728298308
 10
263.3846328118
 20
40.07367583
 10
264.0744288787
 20
40.2864507891
 10
264.7318298242
 20
40.3616861462
 10
265.3415798061
 20
40.2976350286
 10
265.4973698694
 20
40.2562155824
  0
LWPOLYLINE
  5
235
330
1F
100
AcDbEntity
  8
0
  6
Continuous
 62
     7
370
    18
100
AcDbPolyline
 90
       29
 70
   128
 43
0.0
 10
218.7972432144
 20
47.0372978465
 10
218.8500189713
 20
48.3083070914
 10
219.0078391626
 20
49.6280101355
 10
219.2691838677
 20
50.9836974099
 10
219.6315354709
 20
52.3623122883
 10
220.0914043448
 20
53.7505785566
 10
220.6443624362
 20
55.1351261719
 10
221.2850834371
 20
56.5026212973
 10
222.0073981025
 20
57.8398948154
 10
222.8043495682
 20
59.134067419
 10
223.6682624981
 20
60.3726747008
 10
224.5908168408
 20
61.5437895811
 10
225.5631285016
 20
62.6361327572
 10
226.5758329776
 20
63.6391848643
 10
227.6191778833
 20
64.543286277
 10
228.683115064
 20
65.3397290698
 10
229.7573981437
 20
66.0208429871
 10
230.8316812233
 20
66.5800699122
 10
231.8956184041
 20
67.0120228412
 10
232.9389633097
 20
67.3125418154
 10
233.9516677858
 20
67.4787334083
 10
234.9239794466
 20
67.5089973803
 10
235.8465337893
 20
67.4030410716
 10
236.7104467191
 20
67.1618864273
 10
237.5073981849
 20
66.7878544004
 10
238.2297128503
 20
66.2845476435
 10
238.8704338512
 20
65.6568132394
 10
239.4233919426
 20
64.910697447
 10
239.7456441121
 20
64.3410728989
  0
LWPOLYLINE
  5
236
330
1F
100
AcDbEntity
  8
0
  6
Continuous
 62
     7
370
    18
100
AcDbPolyline
 90
       13
 70
   128
 43
0.0
 10
225.2468226597
 20
39.2256558705
 10
224.5908168408
 20
39.2199238391
 10
223.6682624981
 20
39.3258801478
 10
222.8043495682
 20
39.5670347921
 10
222.0073981025
 20
39.941066819
 10
221.2850834371
 20
40.444373576
 10
220.6443624362
 20
41.07210798
 10
220.0914043448
 20
41.8182237724
 10
219.6315354709
 20
42.6755367406
 10
219.2691838677
 20
43.635789363
 10
219.0078391626
 20
44.6897344637
 10
218.8500189713
 20
45.8272221934
 10
218.7972432144
 20
47.0372978465
  0
LINE
  5
237
330
1F
100
AcDbEntity
  8
0
  6
Continuous
 62
     7
370
    18
100
AcDbLine
 10
212.3360550649
 20
50.5733652033
 30
0.0
 11
212.3433385671
 21
51.0424074797
 31
0.0
  0
LWPOLYLINE
  5
238
330
1F
100
AcDbEntity
  8
0
  6
Continuous
 62
     7
370
    18
100
AcDbPolyline
 90
        3
 70
   128
 43
0.0
 10
212.4269770124
 20
48.9865360194
 10
212.3896395144
 20
49.3447481533
 10
212.3360550649
 20
50.5733652033
  0
LWPOLYLINE
  5
239
330
1F
100
AcDbEntity
  8
0
  6
Continuous
 62
     7
370
    18
100
AcDbPolyline
 90
       12
 70
   128
 43
0.0
 10
216.9601365034
 20
47.2377285755
 10
216.8520489347
 20
47.850878844
 10
216.7472475032
 20
49.0193802623
 10
216.7584875408
 20
50.2607468064
 10
216.8856366803
 20
51.5603351579
 10
217.1271940985
 20
52.902814098
 10
217.4803109321
 20
54.2723478247
 10
217.9408218869
 20
55.6527805046
 10
218.5032939708
 20
57.0278282851
 10
219.1610930064
 20
58.381270355
 10
219.9064580466
 20
59.6971407636
 10
220.7305975224
 20
60.9599170067
  0
LWPOLYLINE
  5
23A
330
1F
100
AcDbEntity
  8
0
  6
Continuous
 62
     7
370
    18
100
AcDbPolyline
 90
       16
 70
   128
 43
0.0
 10
217.4719322703
 20
44.3078008746
 10
217.3716359417
 20
44.4483385047
 10
216.8848543294
 20
45.286769043
 10
216.5037763546
 20
46.2395872362
 10
216.2327121911
 20
47.29601578
 10
216.0747273636
 20
48.4441066593
 10
216.031609162
 20
49.6708745885
 10
216.1038455676
 20
50.9624448527
 10
216.2906186682
 20
52.3042088701
 10
216.5898165116
 20
53.6809914454
 10
216.9980554961
 20
55.0772208025
 10
217.5107172491
 20
56.4771046517
 10
218.1220046032
 20
57.8648110799
 10
218.8250028411
 20
59.2246432608
 10
219.6117620135
 20
60.5412234796
 10
220.4733825499
 20
61.7996589057
  0
ARC
  5
23B
330
1F
100
AcDbEntity
  8
0
  6
Continuous
 62
     7
370
    18
100
AcDbCircle
 10
233.472614295
 20
54.1380472531
 30
0.0
 40
14.21094567369464
100
AcDbArc
 50
109.7806436426
 51
139.5760029973
  0
LWPOLYLINE
  5
23C
330
1F
100
AcDbEntity
  8
0
  6
Continuous
 62
     7
370
    18
100
AcDbPolyline
 90
       11
 70
   128
 43
0.0
 10
221.8175756115
 20
63.471822423
 10
222.7789287624
 20
64.4913658037
 10
223.7763143407
 20
65.4160111564
 10
224.7993205931
 20
66.2361052865
 10
225.8372685619
 20
66.9430886653
 10
226.8793235434
 20
67.5295810665
 10
227.9146076996
 20
67.9894595032
 10
228.9323141505
 20
68.3179248525
 10
229.9218189266
 20
68.5115459522
 10
230.8727934161
 20
68.5683039821
 10
231.4565391218
 20
68.5324755121
  0
LINE
  5
23D
330
1F
100
AcDbEntity
  8
0
  6
Continuous
 62
     7
370
    18
100
AcDbLine
 10
207.8496908514
 20
60.945972802
 30
0.0
 11
208.1558547786
 21
60.5752377461
 31
0.0
  0
LINE
  5
23E
330
1F
100
AcDbEntity
  8
0
  6
Continuous
 62
     7
370
    18
100
AcDbLine
 10
207.8496908514
 20
53.1818626543
 30
0.0
 11
208.1558547786
 21
53.8693961228
 31
0.0
  0
LINE
  5
23F
330
1F
100
AcDbEntity
  8
0
  6
Continuous
 62
     7
370
    18
100
AcDbLine
 10
208.8917650954
 20
54.2942281059
 30
0.0
 11
208.1558620226
 21
53.8694003047
 31
0.0
  0
LINE
  5
240
330
1F
100
AcDbEntity
  8
0
  6
Continuous
 62
     7
370
    18
100
AcDbLine
 10
208.8251895384
 20
55.0374540736
 30
0.0
 11
207.5159181042
 21
54.281627763
 31
0.0
  0
LINE
  5
241
330
1F
100
AcDbEntity
  8
0
  6
Continuous
 62
     7
370
    18
100
AcDbLine
 10
204.3388392727
 20
55.8560367226
 30
0.0
 11
204.0423519985
 21
55.3599751048
 31
0.0
  0
LINE
  5
242
330
1F
100
AcDbEntity
  8
0
  6
Continuous
 62
     7
370
    18
100
AcDbLine
 10
206.1706568835
 20
56.9135225202
 30
0.0
 11
204.3388998588
 21
55.8560716983
 31
0.0
  0
LINE
  5
243
330
1F
100
AcDbEntity
  8
0
  6
Continuous
 62
     7
370
    18
100
AcDbLine
 10
206.1706568835
 20
56.9135225202
 30
0.0
 11
206.291967038
 21
56.8517720069
 31
0.0
  0
OLE2FRAME
  5
244
330
1F
100
AcDbEntity
  8
0
100
AcDbOle2Frame
 70
     2
  3
Paintbrush-Bild
 10
13.8511154363
 20
38.264191557
 30
0.0
 11
51.6290888628
 21
31.9806341108
 31
0.0
 71
     2
 72
     0
 73
     1
 90
    12928
310
80552BED0767C5B32B40DDAF6807D121434000000000000000006FFBDDFB85D0
310
4940DDAF6807D121434000000000000000006FFBDDFB85D04940416F4BD60AFB
310
3F4000000000000000002BED0767C5B32B40416F4BD60AFB3F40000000000000
310
0000000000000100000000010000010000000100000000000100000000320000
310
D0CF11E0A1B11AE1000000000000000000000000000000003E000300FEFF0900
310
0600000000000000000000000100000001000000000000000010000002000000
310
01000000FEFFFFFF0000000000000000FFFFFFFFFFFFFFFFFFFFFFFFFFFFFFFF
310
FFFFFFFFFFFFFFFFFFFFFFFFFFFFFFFFFFFFFFFFFFFFFFFFFFFFFFFFFFFFFFFF
310
FFFFFFFFFFFFFFFFFFFFFFFFFFFFFFFFFFFFFFFFFFFFFFFFFFFFFFFFFFFFFFFF
310
FFFFFFFFFFFFFFFFFFFFFFFFFFFFFFFFFFFFFFFFFFFFFFFFFFFFFFFFFFFFFFFF
310
FFFFFFFFFFFFFFFFFFFFFFFFFFFFFFFFFFFFFFFFFFFFFFFFFFFFFFFFFFFFFFFF
310
FFFFFFFFFFFFFFFFFFFFFFFFFFFFFFFFFFFFFFFFFFFFFFFFFFFFFFFFFFFFFFFF
310
FFFFFFFFFFFFFFFFFFFFFFFFFFFFFFFFFFFFFFFFFFFFFFFFFFFFFFFFFFFFFFFF
310
FFFFFFFFFFFFFFFFFFFFFFFFFFFFFFFFFFFFFFFFFFFFFFFFFFFFFFFFFFFFFFFF
310
FFFFFFFFFFFFFFFFFFFFFFFFFFFFFFFFFFFFFFFFFFFFFFFFFFFFFFFFFFFFFFFF
310
FFFFFFFFFFFFFFFFFFFFFFFFFFFFFFFFFFFFFFFFFFFFFFFFFFFFFFFFFFFFFFFF
310
FFFFFFFFFFFFFFFFFFFFFFFFFFFFFFFFFFFFFFFFFFFFFFFFFFFFFFFFFFFFFFFF
310
FFFFFFFFFFFFFFFFFFFFFFFFFFFFFFFFFFFFFFFFFFFFFFFFFFFFFFFFFFFFFFFF
310
FFFFFFFFFFFFFFFFFFFFFFFFFFFFFFFFFFFFFFFFFFFFFFFFFFFFFFFFFFFFFFFF
310
FFFFFFFFFFFFFFFFFFFFFFFFFFFFFFFFFFFFFFFFFFFFFFFFFFFFFFFFFFFFFFFF
310
FDFFFFFFFEFFFFFFFEFFFFFFFEFFFFFF05000000060000000700000008000000
310
090000000A0000000B0000000C0000000D0000000E0000000F00000010000000
310
11000000120000001300000014000000150000001600000017000000FEFFFFFF
310
FFFFFFFFFFFFFFFFFFFFFFFFFFFFFFFFFFFFFFFFFFFFFFFFFFFFFFFFFFFFFFFF
310
FFFFFFFFFFFFFFFFFFFFFFFFFFFFFFFFFFFFFFFFFFFFFFFFFFFFFFFFFFFFFFFF
310
FFFFFFFFFFFFFFFFFFFFFFFFFFFFFFFFFFFFFFFFFFFFFFFFFFFFFFFFFFFFFFFF
310
FFFFFFFFFFFFFFFFFFFFFFFFFFFFFFFFFFFFFFFFFFFFFFFFFFFFFFFFFFFFFFFF
310
FFFFFFFFFFFFFFFFFFFFFFFFFFFFFFFFFFFFFFFFFFFFFFFFFFFFFFFFFFFFFFFF
310
FFFFFFFFFFFFFFFFFFFFFFFFFFFFFFFFFFFFFFFFFFFFFFFFFFFFFFFFFFFFFFFF
310
FFFFFFFFFFFFFFFFFFFFFFFFFFFFFFFFFFFFFFFFFFFFFFFFFFFFFFFFFFFFFFFF
310
FFFFFFFFFFFFFFFFFFFFFFFFFFFFFFFFFFFFFFFFFFFFFFFFFFFFFFFFFFFFFFFF
310
FFFFFFFFFFFFFFFFFFFFFFFFFFFFFFFFFFFFFFFFFFFFFFFFFFFFFFFFFFFFFFFF
310
FFFFFFFFFFFFFFFFFFFFFFFFFFFFFFFFFFFFFFFFFFFFFFFFFFFFFFFFFFFFFFFF
310
FFFFFFFFFFFFFFFFFFFFFFFFFFFFFFFFFFFFFFFFFFFFFFFFFFFFFFFFFFFFFFFF
310
FFFFFFFFFFFFFFFFFFFFFFFFFFFFFFFFFFFFFFFFFFFFFFFFFFFFFFFFFFFFFFFF
310
FFFFFFFFFFFFFFFFFFFFFFFFFFFFFFFFFFFFFFFFFFFFFFFFFFFFFFFFFFFFFFFF
310
52006F006F007400200045006E00740072007900000000000000000000000000
310
0000000000000000000000000000000000000000000000000000000000000000
310
16000500FFFFFFFFFFFFFFFF020000000A00030000000000C000000000000046
310
000000000000000000000000F04A84218CA9D30103000000C000000000000000
310
01004F006C006500000000000000000000000000000000000000000000000000
310
0000000000000000000000000000000000000000000000000000000000000000
310
0A000200FFFFFFFFFFFFFFFFFFFFFFFF00000000000000000000000000000000
310
0000000000000000000000000000000000000000000000001400000000000000
310
010043006F006D0070004F0062006A0000000000000000000000000000000000
310
0000000000000000000000000000000000000000000000000000000000000000
310
120002010100000003000000FFFFFFFF00000000000000000000000000000000
310
0000000000000000000000000000000000000000010000004D00000000000000
310
01004F006C006500310030004E00610074006900760065000000000000000000
310
0000000000000000000000000000000000000000000000000000000000000000
310
1A000200FFFFFFFFFFFFFFFFFFFFFFFF00000000000000000000000000000000
310
0000000000000000000000000000000000000000040000002426000000000000
310
FEFFFFFF02000000FEFFFFFFFFFFFFFFFFFFFFFFFFFFFFFFFFFFFFFFFFFFFFFF
310
FFFFFFFFFFFFFFFFFFFFFFFFFFFFFFFFFFFFFFFFFFFFFFFFFFFFFFFFFFFFFFFF
310
FFFFFFFFFFFFFFFFFFFFFFFFFFFFFFFFFFFFFFFFFFFFFFFFFFFFFFFFFFFFFFFF
310
FFFFFFFFFFFFFFFFFFFFFFFFFFFFFFFFFFFFFFFFFFFFFFFFFFFFFFFFFFFFFFFF
310
FFFFFFFFFFFFFFFFFFFFFFFFFFFFFFFFFFFFFFFFFFFFFFFFFFFFFFFFFFFFFFFF
310
FFFFFFFFFFFFFFFFFFFFFFFFFFFFFFFFFFFFFFFFFFFFFFFFFFFFFFFFFFFFFFFF
310
FFFFFFFFFFFFFFFFFFFFFFFFFFFFFFFFFFFFFFFFFFFFFFFFFFFFFFFFFFFFFFFF
310
FFFFFFFFFFFFFFFFFFFFFFFFFFFFFFFFFFFFFFFFFFFFFFFFFFFFFFFFFFFFFFFF
310
FFFFFFFFFFFFFFFFFFFFFFFFFFFFFFFFFFFFFFFFFFFFFFFFFFFFFFFFFFFFFFFF
310
FFFFFFFFFFFFFFFFFFFFFFFFFFFFFFFFFFFFFFFFFFFFFFFFFFFFFFFFFFFFFFFF
310
FFFFFFFFFFFFFFFFFFFFFFFFFFFFFFFFFFFFFFFFFFFFFFFFFFFFFFFFFFFFFFFF
310
FFFFFFFFFFFFFFFFFFFFFFFFFFFFFFFFFFFFFFFFFFFFFFFFFFFFFFFFFFFFFFFF
310
FFFFFFFFFFFFFFFFFFFFFFFFFFFFFFFFFFFFFFFFFFFFFFFFFFFFFFFFFFFFFFFF
310
FFFFFFFFFFFFFFFFFFFFFFFFFFFFFFFFFFFFFFFFFFFFFFFFFFFFFFFFFFFFFFFF
310
FFFFFFFFFFFFFFFFFFFFFFFFFFFFFFFFFFFFFFFFFFFFFFFFFFFFFFFFFFFFFFFF
310
FFFFFFFFFFFFFFFFFFFFFFFFFFFFFFFFFFFFFFFFFFFFFFFFFFFFFFFFFFFFFFFF
310
0100000200000000000000000000000000000000000000000000000000000000
310
0000000000000000000000000000000000000000000000000000000000000000
310
0100FEFF030A0000FFFFFFFF0A00030000000000C00000000000004607000000
310
5042727573680007000000504272757368000700000050427275736800F439B2
310
7100000000000000000000000000000000000000000000000000000000000000
310
0000000000000000000000000000000000000000000000000000000000000000
310
0000000000000000000000000000000000000000000000000000000000000000
310
0000000000000000000000000000000000000000000000000000000000000000
310
0000000000000000000000000000000000000000000000000000000000000000
310
0000000000000000000000000000000000000000000000000000000000000000
310
0000000000000000000000000000000000000000000000000000000000000000
310
0000000000000000000000000000000000000000000000000000000000000000
310
0000000000000000000000000000000000000000000000000000000000000000
310
0000000000000000000000000000000000000000000000000000000000000000
310
0000000000000000000000000000000000000000000000000000000000000000
310
0000000000000000000000000000000000000000000000000000000000000000
310
20260000424D0E260000000000003E00000028000000B40200006E0000000100
310
01000000000000000000130B0000130B00000200000002000000000000FFFFFF
310
FFFFFFFFFFFFFFFFFFFFFFFFFFFFFFFFFFFFFFFFFFFFFFFFFFFFFFFFFFFFFFFF
310
FFFFFFFFFFFFFFFFFFFFFFFFFFFFFFFFFFFFFFFFFFFFFFFFFFFFFFFFFFFFFFFF
310
FFFFFFFFFFFFFFFFFFFFFFFFFFFFFFFFFFFFFFFFFFFFFFFFF000FFFFFFFFFFFF
310
FFFFFFFFFFFFFFFFFFFFFFFFFFFFFFFFFFFFFFFFFFFFFFFFFFFFFFFFFFFFFFFF
310
FFFFFFFFFFFFFFFFFFFFFFFFFFFFFFFFFFFFFFFFFFFFFFFFFFFFFFFFFFFFFFFF
310
FFFFFFFFFFFFFFFFFFFFFFFFFFFFFFFFF000FFFFFFFFFFFFFFFFFFFFFFFFFFFF
310
FFFFFFFFFFFFFFFFFFFFFFFFFFFFFFFFFFFFFFFFFFFFFFFFFFFFFFFFFFFFFFFF
310
FFFFFFFFFFFFFFFFFFFFFFFFFFFFFFFFFFFFFFFFFFFFFFFFFFFFFFFFFFFFFFFF
310
FFFFFFFFFFFFFFFFF000FFFFFFFFFFFFFFFFFFFFFFFFFFFFFFFFFFFFFFFFFFFF
310
FFFFFFFFFFFFFFFFFFFFFFFFFFFFFFFFFFFFFFFFFFFFFFFFFFFFFFFFFFFFFFFF
310
FFFFFFFFFFFFFFFFFFFFFFFFFFFFFFFFFFFFFFFFFFFFFFFFFFFFFFFFFFFFFFFF
310
F000FFFFFFFFFFFFFFFFFFFFFFFFFFFFFFFFFFFFFFFFFFFFFFFFFFFFFFFFFFFF
310
FFFFFFFFFFFFFFFFFFFFFFFFFFFFFFFFFFFFFFFFFFFFFFFFFFFFFFFFFFFFFFFF
310
FFFFFFFFFFFFFFFFFFFFFFFFFFFFFFFFFFFFFFFFFFFFFFFFF000FFFFFFFFFFFF
310
FFFFFFFFFFFFFFFFFFFFFFFFFFFFFFFFFFFFFFFFFFFFFFFFFFFFFFFFFFFFFFFF
310
FFFFFFFFFFFFFFFFFFFFFFFFFFFFFFFFFFFFFFFFFFFFFFFFFFFFFFFFFFFFFFFF
310
FFFFFFFFFFFFFFFFFFFFFFFFFFFFFFFFF000FFFFFFFFFFFFFFFFFFFFFFFFFFFF
310
FFFFFFFFFFFFFFFFFFFFFFFFFFFFFFFFFFFFFFFFFFFFFFFFFFFFFFFFFFFFFFFF
310
FFFFFFFFFFFFFFFFFFFFFFFFFFFFFFFFFFFFFFFFFFFFFFFFFFFFFFFFFFFFFFFF
310
FFFFFFFFFFFFFFFFF000FFFFFFFFFFFFFFFFFFFFFFFFFFFFFFFFFFFFFFFFFFFF
310
FFFFFFFFFFFFFFFFFFFFFFFFFFFFFFFFFFFFFFFFFFFFFFFFFFFFFFFFFFFFFFFF
310
FFFFFFFFFFFFFFFFFFFFFFFFFFFFFFFFFFFFFFFFFFFFFFFFFFFFFFFFFFFFFFFF
310
F000FFFFFFFFFFFFFFFFFFFFFFFFFFFFFFFFFFFFFFFFFFFFFFFFFFFFFFFFFFFF
310
FFFFFFFFFFFFFFFFFFFFFFFFFFFFFFFFFFFFFFFFFFFFFFFFFFFFFFFFFFFFFFFF
310
FFFFFFFFFFFFFFFFFFFFFFFFFFFFFFFFFFFFFFFFFFFFFFFFF000FFFFFFFFFFFF
310
FFFFFFFFFFFFFFFFFFFFFFFFFFFFFFFFFFFFFFFFFFFFFFFFFFFFFFFFFFFFFFFF
310
FFFFFFFFFFFFFFFFFFFFFFFFFFFFFFFFFFFFFFFFFFFFFFFFFFFFFFFFFFFFFFFF
310
FFFFFFFFFFFFFFFFFFFFFFFFFFFFFFFFF000FFFFFFFFFFFFFFFFFFFFFFFFFFFF
310
FFFFFFFFFFFFFFFFFFFFFFFFFFFFFFFFFFFFFFFFFFFFFFFFFFFFFFFFFFFFFFFF
310
FFFFFFFFFFFFFFFFFFFFFFFFFFFFFFFFFFFFFFFFFFFFFFFFFFFFFFFFFFFFFFFF
310
FFFFFFFFFFFFFFFFF000FFFFFFFFFFFFFFFFFFFFFFFFFFFFFFFFFFFFFFFFFFFF
310
FFFFFFFFFFFFFFFFFFFFFFFFFFFFFFFFFFFFFFFFFFFFFFFFFFFFFFFFFFFFFFFF
310
FFFFFFFFFFFFFFFFFFFFFFFFFFFFFFFFFFFFFFFFFFFFFFFFFFFFFFFFFFFFFFFF
310
F000FFFFFFFFFFFFFFFFFFFFFFFFFFFFFFFFFFFFFFFFFFFFFFFFFFFFFFFFFFFF
310
FFFFFFFFFFFFFFFFFFFFFFFFFFFFFFFFFFFFFFFFFFFFFFFFFFFFFFFFFFFFFFFF
310
FFFFFFFFFFFFFFFFFFFFFFFFFFFFFFFFFFFFFFFFFFFFFFFFF000FFFFFFFFFFFF
310
FFFFFFFFFFFFFFFFFFFFFFFFFFFFFFFFFFFFFFFFFFFFFFFFFFFFFFFFFFFFFFFF
310
FFFFFFFFFFFFFFFFFFFFFFFFFFFFFFFFFFFFFFFFFFFFFFFFFFFFFFFFFFFFFFFF
310
FFFFFFFFFFFFFFFFFFFFFFFFFFFFFFFFF000FFFFFFFFFFFFFFFFFFFFFFFFFFFF
310
FFFFFFFFFFFFFFFFFFFFFFFFFFFFFFFFFFFFFFFFFFFFFFFFFFFFFFFFFFFFFFFF
310
FFFFFFFFFFFFFFFFFFFFFFFFFFFFFFFFFFFFFFFFFFFFFFFFFFFFFFFFFFFFFFFF
310
FFFFFFFFFFFFFFFFF000FFFFFFFFFFFFFFFFFFFFFFFFFFFFFFFFFFFFFFFFFFFF
310
FFFFFFFFFFFFFFFFFFFFFFFFFFFFFFFFFFFFFFFFFFFFFFFFFFFFFFFFFFFFFFFF
310
FFFFFFFFFFFFFFFFFFFFFFFFFFFFFFFFFFFFFFFFFFFFFFFFFFFFFFFFFFFFFFFF
310
F000FFFFFFFFFFFFFFFFFFFFFFFFFFFFFFFFFFFFFFFFFFFFFFFFFFFFFFFFFFFF
310
FFFFFFFFFFFFFFFFFFFFFFFFFFFFFFFFFFFFFFFFFFFFFFFFFFFFFFFFFFFFFFFF
310
FFFFFFFFFFFFFFFFFFFFFFFFFFFFFFFFFFFFFFFFFFFFFFFFF000FFFFFFFFFFFF
310
FFFFFFFFFFFFFFFFFFFFFFFFFFFFFFFFFFFFFFFFFFFFFFFFFFFFFFFFFFFFFFFF
310
FFFFFFFFFFFFFFFFFFFFFFFFFFFFFFFFFFFFFFFFFFFFFFFFFFFFFFFFFFFFFFFF
310
FFFFFFFFFFFFFFFFFFFFFFFFFFFFFFFFF000FFFFFFFFFFFFFFFFFFFFFFFFFFFF
310
FFFFFFFFFFFFFFFFFFFFFFFFFFFFFFFFFFFFFFFFFFFFFFFFFFFFFFFFFFFFFFFF
310
FFFFFFFFFFFFFFFFFFFFFFFFFFFFFFFFFFFFFFFFFFFFFFFFFFFFFFFFFFFFFFFF
310
FFFFFFFFFFFFFFFFF000FFFFF80003FFFFFFFFFFFFFFFFFFFFFFFFFFFFFFFFFF
310
FFFFF00007FFFFFFFFFF00007FFFFFF800000000000000007FFFFFFFFFFFFFFF
310
FFFFFFFC001FFFFFFFFFFFFFFC001FFFFFFFFFFFFFFFFFFFFFFFFFFE0007FFFF
310
F000FFFF8000007FFFFFFFF8000FFFFFC0007FFFFF80007FFFFF0000007FFFFF
310
FFF8000007FFFFF800000000000000007FFFFFF0001FFFFFFFFFFFC00001FFFF
310
FFFFFFFFC00001FFFFFFFF000000000003FFFFE000007FFFF000FFFE0000000F
310
FFFFFFF0000FFFFF80007FFFFF80007FFFFC0000001FFFFFFFC0000001FFFFF8
310
00000000000000007FFFFFF0001FFFFFFFFFFE0000003FFFFFFFFFFE0000003F
310
FFFFFF000000000003FFFF0000000FFFF000FFF800000003FFFFFFF00007FFFF
310
80007FFFFF80007FFFF000000007FFFFFF000000003FFFF80000000000000000
310
7FFFFFF0001FFFFFFFFFF80000000FFFFFFFFFF80000000FFFFFFF0000000000
310
03FFFC00000003FFF000FFE000000000FFFFFFF00007FFFF80003FFFFF80007F
310
FFC000000001FFFFFC000000001FFFF800000000000000007FFFFFF0001FFFFF
310
FFFFE000000003FFFFFFFFE000000003FFFFFF000000000003FFF000000000FF
310
F000FF80000000007FFFFFF00007FFFF80003FFFFF80007FFF8000000000FFFF
310
F80000000007FFF800000000000000007FFFFFF0001FFFFFFFFFC000000001FF
310
FFFFFFC000000001FFFFFF000000000003FFC0000000007FF000FF0000000000
310
3FFFFFE00007FFFF00003FFFFF80007FFE00000000003FFFF00000000003FFF8
310
00000000000000007FFFFFF0001FFFFFFFFF8000000000FFFFFFFF8000000000
310
FFFFFF000000000003FF80000000003FF000FE00000000001FFFFFE00003FFFF
310
00003FFFFF80007FFC00000000001FFFE00000000001FFF8000001FFFE000000
310
7FFFFFF0001FFFFFFFFE00000000003FFFFFFE00000000003FFFFF0000000000
310
03FF00000000001FF000FC00000000000FFFFFE00003FFFF00001FFFFF80007F
310
F800000000001FFFC00000000000FFF8000001FFFE0000007FFFFFF0001FFFFF
310
FFFC00000000001FFFFFFC00000000001FFFFF000000000003FE00000000000F
310
F000F8000000000007FFFFE00003FFFF00001FFFFF80007FF800000000000FFF
310
800000000000FFF8000001FFFE0000007FFFFFF0001FFFFFFFF800000000000F
310
FFFFF800000000000FFFFF000000000003FC000000000007F000F80000000000
310
03FFFFC00003FFFE00001FFFFF80007FF0000000000007FF0000000000007FF8
310
000001FFFE0000007FFFFFF0001FFFFFFFF0000000000007FFFFF00000000000
310
07FFFF000000000003F8000000000003F000F0000000000003FFFFC00001FFFE
310
00001FFFFF80007FE0000000000007FE0000000000003FF8000001FFFE000000
310
7FFFFFF0001FFFFFFFF0000000000007FFFFF0000000000007FFFF0000000000
310
03F800001F800003F000E00001FFF00001FFFFC00001FFFE00000FFFFF80007F
310
E00001FFE00003FE00001FFF00003FF8000001FFFE0000007FFFFFF0001FFFFF
310
FFE000003E000003FFFFE000003E000003FFFF000000000003F00001FFF80001
310
F000E00007FFFC0001FFFFC00001FFFE00000FFFFF80007FC0000FFFFC0003FC
310
0000FFFFC0001FF8000001FFFE0000007FFFFFF0001FFFFFFFC00003FFE00001
310
FFFFC00003FFE00001FFFF0001FFFFFFFFF00007FFFE0001F000E0000FFFFF00
310
00FFFF800001FFFC00000FFFFF80007FC0001FFFFE0001FC0001FFFFE0001FF8
310
000001FFFE0000007FFFFFF0001FFFFFFF80000FFFF80000FFFF80000FFFF800
310
00FFFF0003FFFFFFFFE0000FFFFF8000F000C0003FFFFF8000FFFF800000FFFC
310
000007FFFF80007F80003FFFFF0001FC0003FFFFF0001FF8000001FFFE000000
310
7FFFFFF0001FFFFFFF80003FFFFE0000FFFF80003FFFFE0000FFFF0003FFFFFF
310
FFE0003FFFFF8000F000C0003FFFFF8000FFFF800000FFFC000007FFFF80007F
310
80007FFFFF8001F80007FFFFF8000FF8000001FFFE0000007FFFFFF0001FFFFF
310
FF00007FFFFF00007FFF00007FFFFF00007FFF0003FFFFFFFFE0003FFFFFC000
310
F000C0007FFFFFC000FFFF000000FFFC000007FFFF80007F8000FFFFFF8000F8
310
000FFFFFF8000FF8000001FFFE0000007FFFFFF0001FFFFFFF0000FFFFFF8000
310
7FFF0000FFFFFF80007FFF0003FFFFFFFFC0007FFFFFC00070008000FFFFFFC0
310
00FFFF000000FFF8000007FFFF80007F8000FFFFFF8000F8000FFFFFF8000FF8
310
000001FFFE0000007FFFFFF0001FFFFFFE0001FFFFFFC0003FFE0001FFFFFFC0
310
003FFF0003FFFFFFFFC0007FFFFFE00070008000FFFFFFC0007FFF0000007FF8
310
000003FFFF80007F0001FFFFFF8000F8000FFFFFF8000FF8000001FFFE000000
310
7FFFFFF0001FFFFFFE0001FFFFFFC0003FFE0001FFFFFFC0003FFF0003FFFFFF
310
FFC000FFFFFFE00070008000FFFFFFC0007FFF0000007FF8000003FFFF80007F
310
0001FFFFFF8000F8001FFFFFF8000FF8000001FFFE0000007FFFFFF0001FFFFF
310
FE0003FFFFFFE0003FFE0003FFFFFFE0003FFF0003FFFFFFFFC000FFFFFFE000
310
70008000FFFFFFC0007FFE0000007FF8000003FFFF80007F0001FFFFFF8000F0
310
001FFFFFF8000FF8000001FFFE0000007FFFFFF0001FFFFFFC0003FFFFFFE000
310
1FFC0003FFFFFFE0001FFF0003FFFFFFFFC000FFFFFFC00070008000FFFFFF80
310
007FFE0000007FF0000003FFFF80007F0001FFFFFF0000F0001FFFFFF8000FF8
310
000001FFFE0000007FFFFFF0001FFFFFFC0007FFFFFFF0001FFC0007FFFFFFF0
310
001FFF0003FFFFFFFFC000FFFFFFC00070008001FFFFFF0000FFFE0000003FF0
310
000001FFFF80007F0001FFFFFF0000F8001FFFFFF0000FF8000001FFFE000000
310
7FFFFFF0001FFFFFFC0007FFFFFFF0001FFC0007FFFFFFF0001FFF0003FFFFFF
310
FFC001FFFFFF80007000FFFFFFFFFE0000FFFE0008003FF0008001FFFF80007F
310
FFFFFFFFFC0000FFFFFFFFFFE0000FF8000001FFFE0000007FFFFFF0001FFFFF
310
F8000FFFFFFFF8000FF8000FFFFFFFF8000FFF0003FFFFFFFFFFFFFFFFFF0000
310
7000FFFFFFFFFC0000FFFC0008003FF0008001FFFF80007FFFFFFFFFF80001FF
310
FFFFFFFF80000FF8000001FFFE0000007FFFFFF0001FFFFFF8000FFFFFFFF800
310
0FF8000FFFFFFFF8000FFF0003FFFFFFFFFFFFFFFFFE0000F000FFFFFFFFE000
310
00FFFC000C003FE000C001FFFF80007FFFFFFFFFC00001FFFFFFFFFE00001FF8
310
000001FFFE0000007FFFFFF0001FFFFFF8000FFFFFFFF8000FF8000FFFFFFFF8
310
000FFF0003FFFFFFFFFFFFFFFFF00000F000FFFFFFFE000001FFFC000C001FE0
310
00C000FFFF80007FFFFFFFFE000001FFFFFFFFE000001FF80FFFFFFFFFFFFFC0
310
7FFFFFF0001FFFFFF8000FFFFFFFF8000FF8000FFFFFFFF8000FFF0003FFFFFF
310
FFFFFFFFFF800000F000FFFFFFC0000001FFFC001C001FE001C000FFFF80007F
310
FFFFFF80000003FFFFFFF80000001FF80FFFFFFFFFFFFFC07FFFFFF0001FFFFF
310
F8001FFFFFFFFC000FF8001FFFFFFFFC000FFF0003FFFFFFFFFFFFFFF0000001
310
F000FFFFF800000001FFF8001C001FE001C000FFFF80007FFFFFF800000003FF
310
FFFF800000003FF80FFFFFFFFFFFFFC07FFFFFF0001FFFFFF8001FFFFFFFFC00
310
0FF8001FFFFFFFFC000FFF0003FFFFFFFFFFFFFE00000001F000FFFFC0000000
310
03FFF8001E001FC001E000FFFF80007FFFFF8000000007FFFFFC000000003FF8
310
0FFFFFFFFFFFFFC07FFFFFF0001FFFFFF8001FFFFFFFFC000FF8001FFFFFFFFC
310
000FFF0003FFFFFFFFFFFFE000000003F000FFFE0000000007FFF8001E000FC0
310
01E0007FFF80007FFFFE0000000007FFFFE0000000007FF80FFFFFFFFFFFFFC0
310
7FFFFFF0001FFFFFF0001FFFFFFFFC0007F0001FFFFFFFFC0007FF0003FFFFFF
310
FFFFFF0000000003F000FFF80000000007FFF8001E000FC003E0007FFF80007F
310
FFF0000000000FFFFF8000000000FFF80FFFFFFFFFFFFFC07FFFFFF0001FFFFF
310
F0001FFFFFFFFC0007F0001FFFFFFFFC0007FF0003FFFFFFFFFFFC0000000007
310
F000FFE0000000000FFFF0003E000FC003E0007FFF80007FFFC0000000001FFF
310
FE0000000001FFF80FFFFFFFFFFFFFC07FFFFFF0001FFFFFF0001FFFFFFFFC00
310
07F0001FFFFFFFFC0007FF0003FFFFFFFFFFF0000000000FF000FFC000000000
310
1FFFF0003F000F8003F0003FFF80007FFF80000000003FFFF80000000003FFF8
310
0FFFFFFFFFFFFFC07FFFFFF0001FFFFFF0001FFFFFFFFC0007F0001FFFFFFFFC
310
0007FF0003FFFFFFFFFFE0000000001FF000FF00000000007FFFF0003F000780
310
03F0003FFF80007FFF00000000007FFFF00000000007FFF80FFFFFFFFFFFFFC0
310
7FFFFFF0001FFFFFF0001FFFFFFFFC0007F0001FFFFFFFFC0007FF0003FFFFFF
310
FFFF80000000007FF000FE0000000000FFFFE0003F00078007F0003FFF80007F
310
FE0000000001FFFFE0000000001FFFF80FFFFFFFFFFFFFC07FFFFFF0001FFFFF
310
F0001FFFFFFFFC0007F0001FFFFFFFFC0007FF0003FFFFFFFFFF0000000000FF
310
F000FC0000000003FFFFE0007F00078007F0003FFF80007FFC0000000007FFFF
310
C0000000007FFFF80FFFFFFFFFFFFFC07FFFFFF0001FFFFFF8001FFFFFFFFC00
310
0FF8001FFFFFFFFC000FFF0003FFFFFFFFFE0000000003FFF000FC000000000F
310
FFFFE0007F80070007F8001FFF80007FF8000000001FFFFF8000000001FFFFF8
310
0FFFFFFFFFFFFFC07FFFFFF0001FFFFFF8001FFFFFFFFC000FF8001FFFFFFFFC
310
000FFF0003FFFFFFFFFC000000000FFFF000F8000000007FFFFFE0007F800700
310
07F8001FFF80007FF000000000FFFFFF800000000FFFFFF80FFFFFFFFFFFFFC0
310
7FFFFFF0001FFFFFF8000FFFFFFFF8000FF8000FFFFFFFF8000FFF0003FFFFFF
310
FFFC000000007FFFF000F800000007FFFFFFC0007F8003000FF8001FFF80007F
310
F000000007FFFFFF000000007FFFFFF80FFFFFFFFFFFFFC07FFFFFF0001FFFFF
310
F8000FFFFFFFF8000FF8000FFFFFFFF8000FFF0003FFFFFFFFF80000000FFFFF
310
F000F0000000FFFFFFFFC000FF8003000FF8001FFF80007FE0000000FFFFFFFF
310
0000000FFFFFFFF8000001FFFE0000007FFFFFF0001FFFFFF8000FFFFFFFF800
310
0FF8000FFFFFFFF8000FFF0003FFFFFFFFF8000000FFFFFFF000F000000FFFFF
310
FFFFC000FFC002000FF8000FFF80007FE000001FFFFFFFFE000001FFFFFFFFF8
310
000001FFFE0000007FFFFFF0001FFFFFF8000FFFFFFFF8000FF8000FFFFFFFF8
310
000FFF0003FFFFFFFFF000001FFFFFFFF000E00000FFFFFFFFFFC000FFC00200
310
0FFC000FFF80007FE00001FFFFFFFFFE00001FFFFFFFFFF8000001FFFE000000
310
7FFFFFF0001FFFFFFC000FFFFFFFF8001FFC000FFFFFFFF8001FFF0003FFFFFF
310
FFF00001FFFFFFFFF000E00007FFFFFFFFFF8000FFC000001FFC000FFF80007F
310
C0000FFFFFFFFFFE0000FFFFFFFFFFF8000001FFFE0000007FFFFFF0001FFFFF
310
FC0007FFFFFFF0001FFC0007FFFFFFF0001FFF0003FFFFFFFFF00007FFFFFFFF
310
F000E0001FFFFFFFFFFF8000FFC000001FFC000FFF80007FC0003FFFFFFFFFFE
310
0001FFFFFFFFFFF8000001FFFE0000007FFFFFF0001FFFFFFC0007FFFFFFF000
310
1FFC0007FFFFFFF0001FFF0003FFFFFFFFF0001FFFFFFFFFF000E0003FFFFF00
310
03FF8001FFE000001FFC0007FF80007FC0007FFFFF0007FC0003FFFFF0003FF8
310
000001FFFE0000007FFFFFF0001FFFFFFC0003FFFFFFE0001FFC0003FFFFFFE0
310
001FFF0003FFFFFFFFF0003FFFFFFFFFF000E0003FFFFF0001FF8001FFE00000
310
1FFE0007FF80007FC0007FFFFE0003FC0007FFFFE0003FF8000001FFFE000000
310
7FFFFFF0001FFFFFFE0003FFFFFFE0003FFE0003FFFFFFE0003FFF0003FFFFFF
310
FFF0003FFFFF8001F000E0003FFFFF0001FF0001FFE000001FFE0007FF80007F
310
C0007FFFFE0003FC0007FFFFE0003FF8000001FFFE0000007FFFFFF0001FFFFF
310
FE0001FFFFFFC0003FFE0001FFFFFFC0003FFF0003FFFFFFFFF0003FFFFF0001
310
F000E0003FFFFF0003FF0001FFE000003FFE0007FF80007FC0007FFFFE0003FC
310
0007FFFFE0003FF8000001FFFE0000007FFFFFF0001FFFFFFF0001FFFFFFC000
310
7FFF0001FFFFFFC0007FFF0003FFFFFFFFF0003FFFFF0001F000E0003FFFFE00
310
03FF0003FFF000003FFE0003FF80007FC0007FFFFC0003FE0007FFFFE0003FF8
310
000001FFFE0000007FFFFFF0001FFFFFFF0000FFFFFF80007FFF0000FFFFFF80
310
007FFF0003FFFFFFFFF0003FFFFF0001F000E0003FFFFE0003FF0003FFF00000
310
3FFF0003FF80007FC0007FFFFC0007FE0007FFFFC0003FF8000001FFFE000000
310
7FFFFFF0001FFFFFFF80007FFFFF0000FFFF80007FFFFF0000FFFF0003FFFFFF
310
FFF0003FFFFF0003F000E0003FFFFC0003FE0003FFF000003FFF0003FF80007F
310
E0003FFFF80007FE0003FFFFC0007FF8000001FFFE0000007FFFFFF0001FFFFF
310
FF80003FFFFE0000FFFF80003FFFFE0000FFFF0003FFFFFFFFF0001FFFFE0003
310
F000F0001FFFF80003FE0003FFF000007FFF0001FF80007FE0003FFFF00007FE
310
0001FFFF80007FF8000001FFFE0000007FFFFFF0001FFFFFFFC0000FFFF80001
310
FFFFC0000FFFF80001FFFF0003FFFFFFFFF0001FFFFC0003F000F0000FFFF000
310
07FE0007FFF800007FFF0001FF80007FE0001FFFE00007FF0000FFFE00007FF8
310
000001FFFE0000007FFFFFF0001FFFFFFFC00003FFE00001FFFFC00003FFE000
310
01FFFF0003FFFFFFFFF8000FFFF80003F000F00003FFC00007FC0007FFF80000
310
7FFF8001FF80007FF00007FF80000FFF00007FF80000FFF8000001FFFE000000
310
7F80000000000001FFE000003E000003FFFFE000003E000003FFFF0003FFFFFF
310
FFF80003FFE00007F000F800000000000FFC0007FFF800007FFF8001FF80007F
310
F000000000000FFF000000000000FFF8000001FFFE0000007F80000000000001
310
FFF0000000000007FFFFF0000000000007FFFF0003FFFFFFFFFC00007E000007
310
F000F800000000000FFC0007FFF80000FFFF8000FF80007FF800000000001FFF
310
800000000001FFF8000001FFFE0000007F80000000000001FFF800000000000F
310
FFFFF800000000000FFFFF0003FFFFFFFFFC00000000000FF000FC0000000000
310
1FFC0007FFFC0000FFFF8000FF80007FF800000000003FFFC00000000001FFF8
310
000001FFFE0000007F80000000000001FFF800000000000FFFFFF80000000000
310
0FFFFF0003FFFFFFFFFE00000000001FF000FE00000000003FF8000FFFFC0000
310
FFFF8000FF80007FFC00000000003FFFC00000000003FFF8000001FFFE000000
310
7F80000000000001FFFC00000000001FFFFFFC00000000001FFFFF0003FFFFFF
310
FFFF00000000001FF000FF00000000003FF8000FFFFC0000FFFFC000FF80007F
310
FE00000000007FFFE00000000007FFF8000001FFFE0000007F80000000000001
310
FFFE00000000003FFFFFFE00000000003FFFFF0003FFFFFFFFFF80000000003F
310
F000FF80000000007FF8000FFFFC0001FFFFC0007F80007FFF0000000000FFFF
310
F0000000000FFFF800000000000000007F80000000000001FFFF8000000000FF
310
FFFFFF8000000000FFFFFF0003FFFFFFFFFFC0000000007FF000FFC000000000
310
FFF8000FFFFE0001FFFFC0007F80007FFF8000000001FFFFF8000000001FFFF8
310
00000000000000007F80000000000001FFFFC000000001FFFFFFFFC000000001
310
FFFFFF0003FFFFFFFFFFE000000000FFF000FFE000000003FFF0001FFFFE0001
310
FFFFC0007F80007FFFC000000007FFFFFE000000003FFFF80000000000000000
310
7F80000000000001FFFFE000000003FFFFFFFFE000000003FFFFFF0003FFFFFF
310
FFFFF000000003FFF000FFF80000000FFFF0001FFFFE0001FFFFE0007F80007F
310
FFF00000000FFFFFFF00000000FFFFF800000000000000007F80000000000001
310
FFFFF80000000FFFFFFFFFF80000000FFFFFFF0003FFFFFFFFFFFC0000000FFF
310
F000FFFE0000003FFFF0001FFFFE0003FFFFE0003F80007FFFFC0000003FFFFF
310
FFC0000003FFFFF800000000000000007F80000000000001FFFFFE0000003FFF
310
FFFFFFFE0000003FFFFFFF0003FFFFFFFFFFFF0000003FFFF000FFFF800000FF
310
FFF0001FFFFF0003FFFFE0003F80007FFFFF000001FFFFFFFFF800001FFFFFF8
310
00000000000000007F80000000000001FFFFFFC00001FFFFFFFFFFFFC00001FF
310
FFFFFF0003FFFFFFFFFFFFC00000FFFFF000FFFFF8000FFFFFFFFFFFFFFFFFFF
310
FFFFFFFFFFFFFFFFFFFFF0001FFFFFFFFFFF0000FFFFFFF80000000000000000
310
7FFFFFFFFFFFFFFFFFFFFFFC001FFFFFFFFFFFFFFC001FFFFFFFFFFFFFFFFFFF
310
FFFFFFFC001FFFFFF000FFFFFFFFFFFFFFFFFFFFFFFFFFFFFFFFFFFFFFFFFFFF
310
FFFFFFFFFFFFFFFFFFFFFFFFFFFFFFFFFFFFFFFFFFFFFFFFFFFFFFFFFFFFFFFF
310
FFFFFFFFFFFFFFFFFFFFFFFFFFFFFFFFFFFFFFFFFFFFFFFFFFFFFFFFFFFFFFFF
310
F000FFFFFFFFFFFFFFFFFFFFFFFFFFFFFFFFFFFFFFFFFFFFFFFFFFFFFFFFFFFF
310
FFFFFFFFFFFFFFFFFFFFFFFFFFFFFFFFFFFFFFFFFFFFFFFFFFFFFFFFFFFFFFFF
310
FFFFFFFFFFFFFFFFFFFFFFFFFFFFFFFFFFFFFFFFFFFFFFFFF000FFFFFFFFFFFF
310
FFFFFFFFFFFFFFFFFFFFFFFFFFFFFFFFFFFFFFFFFFFFFFFFFFFFFFFFFFFFFFFF
310
FFFFFFFFFFFFFFFFFFFFFFFFFFFFFFFFFFFFFFFFFFFFFFFFFFFFFFFFFFFFFFFF
310
FFFFFFFFFFFFFFFFFFFFFFFFFFFFFFFFF000FFFFFFFFFFFFFFFFFFFFFFFFFFFF
310
FFFFFFFFFFFFFFFFFFFFFFFFFFFFFFFFFFFFFFFFFFFFFFFFFFFFFFFFFFFFFFFF
310
FFFFFFFFFFFFFFFFFFFFFFFFFFFFFFFFFFFFFFFFFFFFFFFFFFFFFFFFFFFFFFFF
310
FFFFFFFFFFFFFFFFF000FFFFFFFFFFFFFFFFFFFFFFFFFFFFFFFFFFFFFFFFFFFF
310
FFFFFFFFFFFFFFFFFFFFFFFFFFFFFFFFFFFFFFFFFFFFFFFFFFFFFFFFFFFFFFFF
310
FFFFFFFFFFFFFFFFFFFFFFFFFFFFFFFFFFFFFFFFFFFFFFFFFFFFFFFFFFFFFFFF
310
F000FFFFFFFFFFFFFFFFFFFFFFFFFFFFFFFFFFFFFFFFFFFFFFFFFFFFFFFFFFFF
310
FFFFFFFFFFFFFFFFFFFFFFFFFFFFFFFFFFFFFFFFFFFFFFFFFFFFFFFFFFFFFFFF
310
FFFFFFFFFFFFFFFFFFFFFFFFFFFFFFFFFFFFFFFFFFFFFFFFF000FFFFFFFFFFFF
310
FFFFFFFFFFFFFFFFFFFFFFFFFFFFFFFFFFFFFFFFFFFFFFFFFFFFFFFFFFFFFFFF
310
FFFFFFFFFFFFFFFFFFFFFFFFFFFFFFFFFFFFFFFFFFFFFFFFFFFFFFFFFFFFFFFF
310
FFFFFFFFFFFFFFFFFFFFFFFFFFFFFFFFF000FFFFFFFFFFFFFFFFFFFFFFFFFFFF
310
FFFFFFFFFFFFFFFFFFFFFFFFFFFFFFFFFFFFFFFFFFFFFFFFFFFFFFFFFFFFFFFF
310
FFFFFFFFFFFFFFFFFFFFFFFFFFFFFFFFFFFFFFFFFFFFFFFFFFFFFFFFFFFFFFFF
310
FFFFFFFFFFFFFFFFF000FFFFFFFFFFFFFFFFFFFFFFFFFFFFFFFFFFFFFFFFFFFF
310
FFFFFFFFFFFFFFFFFFFFFFFFFFFFFFFFFFFFFFFFFFFFFFFFFFFFFFFFFFFFFFFF
310
FFFFFFFFFFFFFFFFFFFFFFFFFFFFFFFFFFFFFFFFFFFFFFFFFFFFFFFFFFFFFFFF
310
F000FFFFFFFFFFFFFFFFFFFFFFFFFFFFFFFFFFFFFFFFFFFFFFFFFFFFFFFFFFFF
310
FFFFFFFFFFFFFFFFFFFFFFFFFFFFFFFFFFFFFFFFFFFFFFFFFFFFFFFFFFFFFFFF
310
FFFFFFFFFFFFFFFFFFFFFFFFFFFFFFFFFFFFFFFFFFFFFFFFF000FFFFFFFFFFFF
310
FFFFFFFFFFFFFFFFFFFFFFFFFFFFFFFFFFFFFFFFFFFFFFFFFFFFFFFFFFFFFFFF
310
FFFFFFFFFFFFFFFFFFFFFFFFFFFFFFFFFFFFFFFFFFFFFFFFFFFFFFFFFFFFFFFF
310
FFFFFFFFFFFFFFFFFFFFFFFFFFFFFFFFF000FFFFFFFFFFFFFFFFFFFFFFFFFFFF
310
FFFFFFFFFFFFFFFFFFFFFFFFFFFFFFFFFFFFFFFFFFFFFFFFFFFFFFFFFFFFFFFF
310
FFFFFFFFFFFFFFFFFFFFFFFFFFFFFFFFFFFFFFFFFFFFFFFFFFFFFFFFFFFFFFFF
310
FFFFFFFFFFFFFFFFF000FFFFFFFFFFFFFFFFFFFFFFFFFFFFFFFFFFFFFFFFFFFF
310
FFFFFFFFFFFFFFFFFFFFFFFFFFFFFFFFFFFFFFFFFFFFFFFFFFFFFFFFFFFFFFFF
310
FFFFFFFFFFFFFFFFFFFFFFFFFFFFFFFFFFFFFFFFFFFFFFFFFFFFFFFFFFFFFFFF
310
F000FFFFFFFFFFFFFFFFFFFFFFFFFFFFFFFFFFFFFFFFFFFFFFFFFFFFFFFFFFFF
310
FFFFFFFFFFFFFFFFFFFFFFFFFFFFFFFFFFFFFFFFFFFFFFFFFFFFFFFFFFFFFFFF
310
FFFFFFFFFFFFFFFFFFFFFFFFFFFFFFFFFFFFFFFFFFFFFFFFF000FFFFFFFFFFFF
310
FFFFFFFFFFFFFFFFFFFFFFFFFFFFFFFFFFFFFFFFFFFFFFFFFFFFFFFFFFFFFFFF
310
FFFFFFFFFFFFFFFFFFFFFFFFFFFFFFFFFFFFFFFFFFFFFFFFFFFFFFFFFFFFFFFF
310
FFFFFFFFFFFFFFFFFFFFFFFFFFFFFFFFF000FFFFFFFFFFFFFFFFFFFFFFFFFFFF
310
FFFFFFFFFFFFFFFFFFFFFFFFFFFFFFFFFFFFFFFFFFFFFFFFFFFFFFFFFFFFFFFF
310
FFFFFFFFFFFFFFFFFFFFFFFFFFFFFFFFFFFFFFFFFFFFFFFFFFFFFFFFFFFFFFFF
310
FFFFFFFFFFFFFFFFF000FFFFFFFFFFFFFFFFFFFFFFFFFFFFFFFFFFFFFFFFFFFF
310
FFFFFFFFFFFFFFFFFFFFFFFFFFFFFFFFFFFFFFFFFFFFFFFFFFFFFFFFFFFFFFFF
310
FFFFFFFFFFFFFFFFFFFFFFFFFFFFFFFFFFFFFFFFFFFFFFFFFFFFFFFFFFFFFFFF
310
F000FFFFFFFFFFFFFFFFFFFFFFFFFFFFFFFFFFFFFFFFFFFFFFFFFFFFFFFFFFFF
310
FFFFFFFFFFFFFFFFFFFFFFFFFFFFFFFFFFFFFFFFFFFFFFFFFFFFFFFFFFFFFFFF
310
FFFFFFFFFFFFFFFFFFFFFFFFFFFFFFFFFFFFFFFFFFFFFFFFF000FFFFFFFFFFFF
310
FFFFFFFFFFFFFFFFFFFFFFFFFFFFFFFFFFFFFFFFFFFFFFFFFFFFFFFFFFFFFFFF
310
FFFFFFFFFFFFFFFFFFFFFFFFFFFFFFFFFFFFFFFFFFFFFFFFFFFFFFFFFFFFFFFF
310
FFFFFFFFFFFFFFFFFFFFFFFFFFFFFFFFF000FFFFFFFFFFFFFFFFFFFFFFFFFFFF
310
FFFFFFFFFFFFFFFFFFFFFFFFFFFFFFFFFFFFFFFFFFFFFFFFFFFFFFFFFFFFFFFF
310
FFFFFFFFFFFFFFFFFFFFFFFFFFFFFFFFFFFFFFFFFFFFFFFFFFFFFFFFFFFFFFFF
310
FFFFFFFFFFFFFFFFF000FFFFFFFFFFFFFFFFFFFFFFFFFFFFFFFFFFFFFFFFFFFF
310
FFFFFFFFFFFFFFFFFFFFFFFFFFFFFFFFFFFFFFFFFFFFFFFFFFFFFFFFFFFFFFFF
310
FFFFFFFFFFFFFFFFFFFFFFFFFFFFFFFFFFFFFFFFFFFFFFFFFFFFFFFFFFFFFFFF
310
F000FFFFFFFFFFFFFFFFFFFFFFFFFFFFFFFFFFFFFFFFFFFFFFFFFFFFFFFFFFFF
310
FFFFFFFFFFFFFFFFFFFFFFFFFFFFFFFFFFFFFFFFFFFFFFFFFFFFFFFFFFFFFFFF
310
FFFFFFFFFFFFFFFFFFFFFFFFFFFFFFFFFFFFFFFFFFFFFFFFF000FFFFFFFFFFFF
310
FFFFFFFFFFFFFFFFFFFFFFFFFFFFFFFFFFFFFFFFFFFFFFFFFFFFFFFFFFFFFFFF
310
FFFFFFFFFFFFFFFFFFFFFFFFFFFFFFFFFFFFFFFFFFFFFFFFFFFFFFFFFFFFFFFF
310
FFFFFFFFFFFFFFFFFFFFFFFFFFFFFFFFF0000000000000000000000000000000
310
0000000000000000000000000000000000000000000000000000000000000000
310
0000000000000000000000000000000000000000000000000000000000000000
310
0000000000000000000000000000000000000000000000000000000000000000
310
0000000000000000000000000000000000000000000000000000000000000000
310
0000000000000000000000000000000000000000000000000000000000000000
310
0000000000000000000000000000000000000000000000000000000000000000
310
0000000000000000000000000000000000000000000000000000000000000000
310
0000000000000000000000000000000000000000000000000000000000000000
310
0000000000000000000000000000000000000000000000000000000000000000
310
0000000000000000000000000000000000000000000000000000000000000000
310
0000000000000000000000000000000000000000000000000000000000000000
310
0000000000000000000000000000000000000000000000000000000000000000
310
0000000000000000000000000000000000000000000000000000000000000000
310
0000000000000000000000000000000000000000000000000000000000000000
310
0000000000000000000000000000000000000000000000000000000000000000
  1
OLE
  0
ENDSEC
  0
SECTION
  2
OBJECTS
  0
DICTIONARY
  5
C
330
0
100
AcDbDictionary
281
     1
  3
ACAD_GROUP
350
D
  3
ACAD_LAYOUT
350
1A
  3
ACAD_MLINESTYLE
350
17
  3
ACAD_PLOTSETTINGS
350
19
  3
ACAD_PLOTSTYLENAME
350
E
  3
ACAD_SCALELIST
350
47
  0
DICTIONARY
  5
D
102
{ACAD_REACTORS
330
C
102
}
330
C
100
AcDbDictionary
281
     1
  0
DICTIONARY
  5
1A
102
{ACAD_REACTORS
330
C
102
}
330
C
100
AcDbDictionary
281
     1
  3
Layout1
350
1E
  3
Layout2
350
26
  3
Model
350
22
  0
DICTIONARY
  5
17
102
{ACAD_REACTORS
330
C
102
}
330
C
100
AcDbDictionary
281
     1
  3
Standard
350
18
  0
DICTIONARY
  5
19
102
{ACAD_REACTORS
330
C
102
}
330
C
100
AcDbDictionary
281
     1
  0
ACDBDICTIONARYWDFLT
  5
E
102
{ACAD_REACTORS
330
C
102
}
330
C
100
AcDbDictionary
281
     1
  3
Normal
350
F
100
AcDbDictionaryWithDefault
340
F
  0
DICTIONARY
  5
47
102
{ACAD_REACTORS
330
C
102
}
330
C
100
AcDbDictionary
281
     1
  3
A0
350
48
  3
A1
350
49
  3
A2
350
4A
  3
A3
350
4B
  3
A4
350
4C
  3
A5
350
4D
  3
A6
350
4E
  3
A7
350
4F
  3
A8
350
50
  3
A9
350
51
  3
B0
350
52
  3
B1
350
53
  3
B2
350
54
  3
B3
350
55
  3
B4
350
56
  3
B5
350
57
  3
B6
350
58
  3
B7
350
59
  3
B8
350
5A
  3
B9
350
5B
  3
C0
350
5C
  3
C1
350
5D
  3
C2
350
5E
  3
C3
350
5F
  3
C4
350
60
  3
C5
350
61
  3
C6
350
62
  3
C7
350
63
  3
C8
350
64
  3
C9
350
65
  3
D0
350
66
  3
D1
350
67
  3
D2
350
68
  0
LAYOUT
  5
1E
102
{ACAD_REACTORS
330
1A
102
}
330
1A
100
AcDbPlotSettings
  1

  2
none_device
  4

  6

 40
0.0
 41
0.0
 42
0.0
 43
0.0
 44
0.0
 45
0.0
 46
0.0
 47
0.0
 48
0.0
 49
0.0
140
0.0
141
0.0
142
1.0
143
1.0
 70
   688
 72
     1
 73
     0
 74
     5
  7

 75
    16
147
1.0
148
0.0
149
0.0
100
AcDbLayout
  1
Layout1
 70
     1
 71
     1
 10
0.0
 20
0.0
 11
420.0
 21
297.0
 12
0.0
 22
0.0
 32
0.0
 14
1.0000000000E+20
 24
1.0000000000E+20
 34
1.0000000000E+20
 15
-1.0000000000E+20
 25
-1.0000000000E+20
 35
-1.0000000000E+20
146
0.0
 13
0.0
 23
0.0
 33
0.0
 16
1.0
 26
0.0
 36
0.0
 17
0.0
 27
1.0
 37
0.0
 76
     0
330
1B
  0
LAYOUT
  5
26
102
{ACAD_REACTORS
330
1A
102
}
330
1A
100
AcDbPlotSettings
  1

  2
none_device
  4

  6

 40
0.0
 41
0.0
 42
0.0
 43
0.0
 44
0.0
 45
0.0
 46
0.0
 47
0.0
 48
0.0
 49
0.0
140
0.0
141
0.0
142
1.0
143
1.0
 70
   688
 72
     1
 73
     0
 74
     5
  7

 75
    16
147
1.0
148
0.0
149
0.0
100
AcDbLayout
  1
Layout2
 70
     1
 71
     2
 10
0.0
 20
0.0
 11
0.0
 21
0.0
 12
0.0
 22
0.0
 32
0.0
 14
0.0
 24
0.0
 34
0.0
 15
0.0
 25
0.0
 35
0.0
146
0.0
 13
0.0
 23
0.0
 33
0.0
 16
1.0
 26
0.0
 36
0.0
 17
0.0
 27
1.0
 37
0.0
 76
     0
330
23
  0
LAYOUT
  5
22
102
{ACAD_REACTORS
330
1A
102
}
330
1A
100
AcDbPlotSettings
  1

  2
none_device
  4
Letter_(8.50_x_11.00_Inches)
  6

 40
6.35
 41
6.35
 42
6.35000508
 43
6.35000508
 44
215.9
 45
279.4
 46
0.0
 47
0.0
 48
0.0
 49
0.0
140
0.0
141
0.0
142
1.0
143
1.0
 70
  1712
 72
     1
 73
     0
 74
     0
  7

 75
     0
147
1.0
148
0.0
149
0.0
100
AcDbLayout
  1
Model
 70
     1
 71
     0
 10
0.0
 20
0.0
 11
297.0
 21
210.0
 12
0.0
 22
0.0
 32
0.0
 14
0.0
 24
0.0
 34
0.0
 15
297.0
 25
210.0
 35
0.0
146
0.0
 13
0.0
 23
0.0
 33
0.0
 16
1.0
 26
0.0
 36
0.0
 17
0.0
 27
1.0
 37
0.0
 76
     0
330
1F
331
29
  0
MLINESTYLE
  5
18
102
{ACAD_REACTORS
330
17
102
}
330
17
100
AcDbMlineStyle
  2
Standard
 70
     0
  3

 62
   256
 51
90.0
 52
90.0
 71
     2
 49
0.5
 62
   256
  6
BYLAYER
 49
-0.5
 62
   256
  6
BYLAYER
  0
ACDBPLACEHOLDER
  5
F
102
{ACAD_REACTORS
330
E
102
}
330
E
  0
SCALE
  5
48
102
{ACAD_REACTORS
330
47
102
}
330
47
100
AcDbScale
 70
     0
300
1:1
140
1.0
141
1.0
290
     1
  0
SCALE
  5
49
102
{ACAD_REACTORS
330
47
102
}
330
47
100
AcDbScale
 70
     0
300
1:2
140
1.0
141
2.0
290
     0
  0
SCALE
  5
4A
102
{ACAD_REACTORS
330
47
102
}
330
47
100
AcDbScale
 70
     0
300
1:4
140
1.0
141
4.0
290
     0
  0
SCALE
  5
4B
102
{ACAD_REACTORS
330
47
102
}
330
47
100
AcDbScale
 70
     0
300
1:5
140
1.0
141
5.0
290
     0
  0
SCALE
  5
4C
102
{ACAD_REACTORS
330
47
102
}
330
47
100
AcDbScale
 70
     0
300
1:8
140
1.0
141
8.0
290
     0
  0
SCALE
  5
4D
102
{ACAD_REACTORS
330
47
102
}
330
47
100
AcDbScale
 70
     0
300
1:10
140
1.0
141
10.0
290
     0
  0
SCALE
  5
4E
102
{ACAD_REACTORS
330
47
102
}
330
47
100
AcDbScale
 70
     0
300
1:16
140
1.0
141
16.0
290
     0
  0
SCALE
  5
4F
102
{ACAD_REACTORS
330
47
102
}
330
47
100
AcDbScale
 70
     0
300
1:20
140
1.0
141
20.0
290
     0
  0
SCALE
  5
50
102
{ACAD_REACTORS
330
47
102
}
330
47
100
AcDbScale
 70
     0
300
1:30
140
1.0
141
30.0
290
     0
  0
SCALE
  5
51
102
{ACAD_REACTORS
330
47
102
}
330
47
100
AcDbScale
 70
     0
300
1:40
140
1.0
141
40.0
290
     0
  0
SCALE
  5
52
102
{ACAD_REACTORS
330
47
102
}
330
47
100
AcDbScale
 70
     0
300
1:50
140
1.0
141
50.0
290
     0
  0
SCALE
  5
53
102
{ACAD_REACTORS
330
47
102
}
330
47
100
AcDbScale
 70
     0
300
1:100
140
1.0
141
100.0
290
     0
  0
SCALE
  5
54
102
{ACAD_REACTORS
330
47
102
}
330
47
100
AcDbScale
 70
     0
300
2:1
140
2.0
141
1.0
290
     0
  0
SCALE
  5
55
102
{ACAD_REACTORS
330
47
102
}
330
47
100
AcDbScale
 70
     0
300
4:1
140
4.0
141
1.0
290
     0
  0
SCALE
  5
56
102
{ACAD_REACTORS
330
47
102
}
330
47
100
AcDbScale
 70
     0
300
8:1
140
8.0
141
1.0
290
     0
  0
SCALE
  5
57
102
{ACAD_REACTORS
330
47
102
}
330
47
100
AcDbScale
 70
     0
300
10:1
140
10.0
141
1.0
290
     0
  0
SCALE
  5
58
102
{ACAD_REACTORS
330
47
102
}
330
47
100
AcDbScale
 70
     0
300
100:1
140
100.0
141
1.0
290
     0
  0
SCALE
  5
59
102
{ACAD_REACTORS
330
47
102
}
330
47
100
AcDbScale
 70
     0
300
1/128" = 1'-0"
140
0.0078125
141
12.0
290
     0
  0
SCALE
  5
5A
102
{ACAD_REACTORS
330
47
102
}
330
47
100
AcDbScale
 70
     0
300
1/64" = 1'-0"
140
0.015625
141
12.0
290
     0
  0
SCALE
  5
5B
102
{ACAD_REACTORS
330
47
102
}
330
47
100
AcDbScale
 70
     0
300
1/32" = 1'-0"
140
0.03125
141
12.0
290
     0
  0
SCALE
  5
5C
102
{ACAD_REACTORS
330
47
102
}
330
47
100
AcDbScale
 70
     0
300
1/16" = 1'-0"
140
0.0625
141
12.0
290
     0
  0
SCALE
  5
5D
102
{ACAD_REACTORS
330
47
102
}
330
47
100
AcDbScale
 70
     0
300
3/32" = 1'-0"
140
0.09375
141
12.0
290
     0
  0
SCALE
  5
5E
102
{ACAD_REACTORS
330
47
102
}
330
47
100
AcDbScale
 70
     0
300
1/8" = 1'-0"
140
0.125
141
12.0
290
     0
  0
SCALE
  5
5F
102
{ACAD_REACTORS
330
47
102
}
330
47
100
AcDbScale
 70
     0
300
3/16" = 1'-0"
140
0.1875
141
12.0
290
     0
  0
SCALE
  5
60
102
{ACAD_REACTORS
330
47
102
}
330
47
100
AcDbScale
 70
     0
300
1/4" = 1'-0"
140
0.25
141
12.0
290
     0
  0
SCALE
  5
61
102
{ACAD_REACTORS
330
47
102
}
330
47
100
AcDbScale
 70
     0
300
3/8" = 1'-0"
140
0.375
141
12.0
290
     0
  0
SCALE
  5
62
102
{ACAD_REACTORS
330
47
102
}
330
47
100
AcDbScale
 70
     0
300
1/2" = 1'-0"
140
0.5
141
12.0
290
     0
  0
SCALE
  5
63
102
{ACAD_REACTORS
330
47
102
}
330
47
100
AcDbScale
 70
     0
300
3/4" = 1'-0"
140
0.75
141
12.0
290
     0
  0
SCALE
  5
64
102
{ACAD_REACTORS
330
47
102
}
330
47
100
AcDbScale
 70
     0
300
1" = 1'-0"
140
1.0
141
12.0
290
     0
  0
SCALE
  5
65
102
{ACAD_REACTORS
330
47
102
}
330
47
100
AcDbScale
 70
     0
300
1-1/2" = 1'-0"
140
1.5
141
12.0
290
     0
  0
SCALE
  5
66
102
{ACAD_REACTORS
330
47
102
}
330
47
100
AcDbScale
 70
     0
300
3" = 1'-0"
140
3.0
141
12.0
290
     0
  0
SCALE
  5
67
102
{ACAD_REACTORS
330
47
102
}
330
47
100
AcDbScale
 70
     0
300
6" = 1'-0"
140
6.0
141
12.0
290
     0
  0
SCALE
  5
68
102
{ACAD_REACTORS
330
47
102
}
330
47
100
AcDbScale
 70
     0
300
1'-0" = 1'-0"
140
12.0
141
12.0
290
     0
  0
ENDSEC
  0
EOF
