  0
SECTION
  2
HEADER
  9
$ACADVER
  1
AC1015
  9
$ACADMAINTVER
 70
     6
  9
$DWGCODEPAGE
  3
ANSI_1252
  9
$INSBASE
 10
0.0
 20
0.0
 30
0.0
  9
$EXTMIN
 10
0.0
 20
0.0
 30
0.0
  9
$EXTMAX
 10
297.0
 20
210.0
 30
0.0
  9
$LIMMIN
 10
0.0
 20
0.0
  9
$LIMMAX
 10
297.0
 20
210.0
  9
$ORTHOMODE
 70
     0
  9
$REGENMODE
 70
     1
  9
$FILLMODE
 70
     1
  9
$QTEXTMODE
 70
     0
  9
$MIRRTEXT
 70
     1
  9
$LTSCALE
 40
1.0
  9
$ATTMODE
 70
     1
  9
$TEXTSIZE
 40
2.0
  9
$TRACEWID
 40
1.0
  9
$TEXTSTYLE
  7
Standard
  9
$CLAYER
  8
0
  9
$CELTYPE
  6
ByLayer
  9
$CECOLOR
 62
   256
  9
$CELTSCALE
 40
1.0
  9
$DISPSILH
 70
     0
  9
$DIMSCALE
 40
1.0
  9
$DIMASZ
 40
3.0
  9
$DIMEXO
 40
0.0
  9
$DIMDLI
 40
3.75
  9
$DIMRND
 40
0.0
  9
$DIMDLE
 40
0.0
  9
$DIMEXE
 40
1.0
  9
$DIMTP
 40
0.0
  9
$DIMTM
 40
0.0
  9
$DIMTXT
 40
2.0
  9
$DIMCEN
 40
2.5
  9
$DIMTSZ
 40
0.0
  9
$DIMTOL
 70
     0
  9
$DIMLIM
 70
     0
  9
$DIMTIH
 70
     1
  9
$DIMTOH
 70
     1
  9
$DIMSE1
 70
     0
  9
$DIMSE2
 70
     0
  9
$DIMTAD
 70
     1
  9
$DIMZIN
 70
     0
  9
$DIMBLK
  1

  9
$DIMASO
 70
     1
  9
$DIMSHO
 70
     1
  9
$DIMPOST
  1

  9
$DIMAPOST
  1

  9
$DIMALT
 70
     0
  9
$DIMALTD
 70
     3
  9
$DIMALTF
 40
0.0393700787
  9
$DIMLFAC
 40
2.0
  9
$DIMTOFL
 70
     1
  9
$DIMTVP
 40
0.0
  9
$DIMTIX
 70
     0
  9
$DIMSOXD
 70
     0
  9
$DIMSAH
 70
     0
  9
$DIMBLK1
  1

  9
$DIMBLK2
  1

  9
$DIMSTYLE
  2
ISO-25
  9
$DIMCLRD
 70
     0
  9
$DIMCLRE
 70
     0
  9
$DIMCLRT
 70
     0
  9
$DIMTFAC
 40
1.0
  9
$DIMGAP
 40
1.524
  9
$DIMJUST
 70
     0
  9
$DIMSD1
 70
     0
  9
$DIMSD2
 70
     0
  9
$DIMTOLJ
 70
     0
  9
$DIMTZIN
 70
     0
  9
$DIMALTZ
 70
     0
  9
$DIMALTTZ
 70
     0
  9
$DIMUPT
 70
     0
  9
$DIMDEC
 70
     2
  9
$DIMTDEC
 70
     3
  9
$DIMALTU
 70
     2
  9
$DIMALTTD
 70
     3
  9
$DIMTXSTY
  7
Standard
  9
$DIMAUNIT
 70
     0
  9
$DIMADEC
 70
     2
  9
$DIMALTRND
 40
0.0
  9
$DIMAZIN
 70
     0
  9
$DIMDSEP
 70
    44
  9
$DIMATFIT
 70
     3
  9
$DIMFRAC
 70
     0
  9
$DIMLDRBLK
  1

  9
$DIMLUNIT
 70
     2
  9
$DIMLWD
 70
    -2
  9
$DIMLWE
 70
    -2
  9
$DIMTMOVE
 70
     0
  9
$LUNITS
 70
     2
  9
$LUPREC
 70
     2
  9
$SKETCHINC
 40
1.0
  9
$FILLETRAD
 40
10.0
  9
$AUNITS
 70
     0
  9
$AUPREC
 70
     2
  9
$MENU
  1
.
  9
$ELEVATION
 40
0.0
  9
$PELEVATION
 40
0.0
  9
$THICKNESS
 40
0.0
  9
$LIMCHECK
 70
     0
  9
$CHAMFERA
 40
0.0
  9
$CHAMFERB
 40
0.0
  9
$CHAMFERC
 40
0.0
  9
$CHAMFERD
 40
0.0
  9
$SKPOLY
 70
     0
  9
$TDCREATE
 40
2458169.615947141
  9
$TDUCREATE
 40
2458169.574280474
  9
$TDUPDATE
 40
2458169.615950243
  9
$TDUUPDATE
 40
2458169.574283577
  9
$TDINDWG
 40
0.0000000116
  9
$TDUSRTIMER
 40
0.0000000116
  9
$USRTIMER
 70
     1
  9
$ANGBASE
 50
0.0
  9
$ANGDIR
 70
     0
  9
$PDMODE
 70
     0
  9
$PDSIZE
 40
-1.0
  9
$PLINEWID
 40
0.0
  9
$SPLFRAME
 70
     0
  9
$SPLINETYPE
 70
     6
  9
$SPLINESEGS
 70
     8
  9
$HANDSEED
  5
247
  9
$SURFTAB1
 70
     6
  9
$SURFTAB2
 70
     6
  9
$SURFTYPE
 70
     6
  9
$SURFU
 70
     6
  9
$SURFV
 70
     6
  9
$UCSBASE
  2

  9
$UCSNAME
  2

  9
$UCSORG
 10
0.0
 20
0.0
 30
0.0
  9
$UCSXDIR
 10
1.0
 20
0.0
 30
0.0
  9
$UCSYDIR
 10
0.0
 20
1.0
 30
0.0
  9
$UCSORTHOREF
  2

  9
$UCSORTHOVIEW
 70
     0
  9
$UCSORGTOP
 10
0.0
 20
0.0
 30
0.0
  9
$UCSORGBOTTOM
 10
0.0
 20
0.0
 30
0.0
  9
$UCSORGLEFT
 10
0.0
 20
0.0
 30
0.0
  9
$UCSORGRIGHT
 10
0.0
 20
0.0
 30
0.0
  9
$UCSORGFRONT
 10
0.0
 20
0.0
 30
0.0
  9
$UCSORGBACK
 10
0.0
 20
0.0
 30
0.0
  9
$PUCSBASE
  2

  9
$PUCSNAME
  2

  9
$PUCSORG
 10
0.0
 20
0.0
 30
0.0
  9
$PUCSXDIR
 10
1.0
 20
0.0
 30
0.0
  9
$PUCSYDIR
 10
0.0
 20
1.0
 30
0.0
  9
$PUCSORTHOREF
  2

  9
$PUCSORTHOVIEW
 70
     0
  9
$PUCSORGTOP
 10
0.0
 20
0.0
 30
0.0
  9
$PUCSORGBOTTOM
 10
0.0
 20
0.0
 30
0.0
  9
$PUCSORGLEFT
 10
0.0
 20
0.0
 30
0.0
  9
$PUCSORGRIGHT
 10
0.0
 20
0.0
 30
0.0
  9
$PUCSORGFRONT
 10
0.0
 20
0.0
 30
0.0
  9
$PUCSORGBACK
 10
0.0
 20
0.0
 30
0.0
  9
$USERI1
 70
     0
  9
$USERI2
 70
     0
  9
$USERI3
 70
     0
  9
$USERI4
 70
     0
  9
$USERI5
 70
     0
  9
$USERR1
 40
0.0
  9
$USERR2
 40
0.0
  9
$USERR3
 40
0.0
  9
$USERR4
 40
0.0
  9
$USERR5
 40
0.0
  9
$WORLDVIEW
 70
     1
  9
$SHADEDGE
 70
     3
  9
$SHADEDIF
 70
    70
  9
$TILEMODE
 70
     1
  9
$MAXACTVP
 70
    64
  9
$PINSBASE
 10
0.0
 20
0.0
 30
0.0
  9
$PLIMCHECK
 70
     0
  9
$PEXTMIN
 10
1.0000000000E+20
 20
1.0000000000E+20
 30
1.0000000000E+20
  9
$PEXTMAX
 10
-1.0000000000E+20
 20
-1.0000000000E+20
 30
-1.0000000000E+20
  9
$PLIMMIN
 10
0.0
 20
0.0
  9
$PLIMMAX
 10
420.0
 20
297.0
  9
$UNITMODE
 70
     0
  9
$VISRETAIN
 70
     1
  9
$PLINEGEN
 70
     0
  9
$PSLTSCALE
 70
     1
  9
$TREEDEPTH
 70
  3020
  9
$CMLSTYLE
  2
Standard
  9
$CMLJUST
 70
     0
  9
$CMLSCALE
 40
20.0
  9
$PROXYGRAPHICS
 70
     1
  9
$MEASUREMENT
 70
     1
  9
$CELWEIGHT
370
    -1
  9
$ENDCAPS
280
     0
  9
$JOINSTYLE
280
     0
  9
$LWDISPLAY
290
     1
  9
$INSUNITS
 70
     4
  9
$HYPERLINKBASE
  1

  9
$STYLESHEET
  1

  9
$XEDIT
290
     1
  9
$CEPSNTYPE
380
     0
  9
$PSTYLEMODE
290
     1
  9
$FINGERPRINTGUID
  2
{54997831-DD33-4D3B-96B4-2A96A741C8EB}
  9
$VERSIONGUID
  2
{FAEB1C32-E019-11D5-929B-00C0DF256EC4}
  9
$EXTNAMES
290
     1
  9
$PSVPSCALE
 40
0.0
  9
$OLESTARTUP
290
     0
  0
ENDSEC
  0
SECTION
  2
CLASSES
  0
CLASS
  1
ACDBDICTIONARYWDFLT
  2
AcDbDictionaryWithDefault
  3
ObjectDBX Classes
 90
        0
280
     0
281
     0
  0
CLASS
  1
VISUALSTYLE
  2
AcDbVisualStyle
  3
ObjectDBX Classes
 90
     4095
280
     0
281
     0
  0
CLASS
  1
MATERIAL
  2
AcDbMaterial
  3
ObjectDBX Classes
 90
     1153
280
     0
281
     0
  0
CLASS
  1
SCALE
  2
AcDbScale
  3
ObjectDBX Classes
 90
     1153
280
     0
281
     0
  0
CLASS
  1
TABLESTYLE
  2
AcDbTableStyle
  3
ObjectDBX Classes
 90
     4095
280
     0
281
     0
  0
CLASS
  1
MLEADERSTYLE
  2
AcDbMLeaderStyle
  3
ACDB_MLEADERSTYLE_CLASS
 90
     4095
280
     0
281
     0
  0
CLASS
  1
SUN
  2
AcDbSun
  3
SCENEOE
 90
     1153
280
     0
281
     0
  0
CLASS
  1
ACDBPLACEHOLDER
  2
AcDbPlaceHolder
  3
ObjectDBX Classes
 90
        0
280
     0
281
     0
  0
CLASS
  1
LAYOUT
  2
AcDbLayout
  3
ObjectDBX Classes
 90
        0
280
     0
281
     0
  0
ENDSEC
  0
SECTION
  2
TABLES
  0
TABLE
  2
VPORT
  5
8
330
0
100
AcDbSymbolTable
 70
     1
  0
VPORT
  5
29
330
8
100
AcDbSymbolTableRecord
100
AcDbViewportTableRecord
  2
*Active
 70
     0
 10
0.0
 20
0.0
 11
1.0
 21
1.0
 12
148.5
 22
105.0
 13
0.0
 23
0.0
 14
10.0
 24
10.0
 15
10.0
 25
10.0
 16
0.0
 26
0.0
 36
1.0
 17
0.0
 27
0.0
 37
0.0
 40
210.0
 41
1.4142857143
 42
50.0
 43
0.0
 44
0.0
 50
0.0
 51
0.0
 71
     0
 72
  2000
 73
     1
 74
     3
 75
     0
 76
     0
 77
     0
 78
     0
281
     0
 65
     1
110
0.0
120
0.0
130
0.0
111
1.0
121
0.0
131
0.0
112
0.0
122
1.0
132
0.0
 79
     0
146
0.0
  0
ENDTAB
  0
TABLE
  2
LTYPE
  5
5
330
0
100
AcDbSymbolTable
 70
     6
  0
LTYPE
  5
14
330
5
100
AcDbSymbolTableRecord
100
AcDbLinetypeTableRecord
  2
ByBlock
 70
     0
  3

 72
    65
 73
     0
 40
0.0
  0
LTYPE
  5
15
330
5
100
AcDbSymbolTableRecord
100
AcDbLinetypeTableRecord
  2
ByLayer
 70
     0
  3

 72
    65
 73
     0
 40
0.0
  0
LTYPE
  5
16
330
5
100
AcDbSymbolTableRecord
100
AcDbLinetypeTableRecord
  2
Continuous
 70
     0
  3
Solid line
 72
    65
 73
     0
 40
0.0
  0
LTYPE
  5
6E
330
5
100
AcDbSymbolTableRecord
100
AcDbLinetypeTableRecord
  2
HIDDEN
 70
     0
  3
Hidden __ __ __ __ __ __ __ __ __ __ __ __ __ __
 72
    65
 73
     2
 40
1.905
 49
1.27
 74
     0
 49
-0.635
 74
     0
  0
LTYPE
  5
6F
330
5
100
AcDbSymbolTableRecord
100
AcDbLinetypeTableRecord
  2
PHANTOM
 70
     0
  3
Phantom ______  __  __  ______  __  __  ______
 72
    65
 73
     6
 40
12.7
 49
6.35
 74
     0
 49
-1.27
 74
     0
 49
1.27
 74
     0
 49
-1.27
 74
     0
 49
1.27
 74
     0
 49
-1.27
 74
     0
  0
LTYPE
  5
70
330
5
100
AcDbSymbolTableRecord
100
AcDbLinetypeTableRecord
  2
CENTER
 70
     0
  3
Center ____ _ ____ _ ____ _ ____ _ ____ _ ____
 72
    65
 73
     4
 40
10.16
 49
6.35
 74
     0
 49
-1.27
 74
     0
 49
1.27
 74
     0
 49
-1.27
 74
     0
  0
LTYPE
  5
71
330
5
100
AcDbSymbolTableRecord
100
AcDbLinetypeTableRecord
  2
CENTERX2
 70
     0
  3
Center (2x) ________  __  ________  __  _____
 72
    65
 73
     4
 40
20.32
 49
12.7
 74
     0
 49
-2.54
 74
     0
 49
2.54
 74
     0
 49
-2.54
 74
     0
  0
LTYPE
  5
72
330
5
100
AcDbSymbolTableRecord
100
AcDbLinetypeTableRecord
  2
DOT2
 70
     0
  3
Dot (.5x) ........................................
 72
    65
 73
     2
 40
0.635
 49
0.0
 74
     0
 49
-0.635
 74
     0
  0
ENDTAB
  0
TABLE
  2
LAYER
  5
2
330
0
100
AcDbSymbolTable
 70
     5
  0
LAYER
  5
10
330
2
100
AcDbSymbolTableRecord
100
AcDbLayerTableRecord
  2
0
 70
     0
 62
     7
  6
Continuous
370
    -3
390
F
  0
LAYER
  5
73
330
2
100
AcDbSymbolTableRecord
100
AcDbLayerTableRecord
  2
FORMAT
 70
     0
 62
     7
  6
Continuous
370
    -3
390
F
  0
LAYER
  5
74
330
2
100
AcDbSymbolTableRecord
100
AcDbLayerTableRecord
  2
VERMASSUNG
 70
     0
 62
     7
  6
Continuous
370
    -3
390
F
  0
LAYER
  5
75
330
2
100
AcDbSymbolTableRecord
100
AcDbLayerTableRecord
  2
KOPF_DÜNN
 70
     0
 62
     7
  6
Continuous
370
    -3
390
F
  0
LAYER
  5
76
330
2
100
AcDbSymbolTableRecord
100
AcDbLayerTableRecord
  2
KOPF_DICK
 70
     0
 62
     7
  6
Continuous
370
    25
390
F
  0
ENDTAB
  0
TABLE
  2
STYLE
  5
3
330
0
100
AcDbSymbolTable
 70
     2
  0
STYLE
  5
11
330
3
100
AcDbSymbolTableRecord
100
AcDbTextStyleTableRecord
  2
Standard
 70
     0
 40
0.0
 41
1.0
 50
0.0
 71
     0
 42
2.0
  3
txt
  4

  0
STYLE
  5
77
330
3
100
AcDbSymbolTableRecord
100
AcDbTextStyleTableRecord
  2
SLDTEXTSTYLE0
 70
     0
 40
0.0
 41
0.7
 50
0.0
 71
     0
 42
2.0
  3
TXT
  4

  0
ENDTAB
  0
TABLE
  2
VIEW
  5
6
330
0
100
AcDbSymbolTable
 70
     0
  0
ENDTAB
  0
TABLE
  2
UCS
  5
7
330
0
100
AcDbSymbolTable
 70
     0
  0
ENDTAB
  0
TABLE
  2
APPID
  5
9
330
0
100
AcDbSymbolTable
 70
     1
  0
APPID
  5
12
330
9
100
AcDbSymbolTableRecord
100
AcDbRegAppTableRecord
  2
ACAD
 70
     0
  0
ENDTAB
  0
TABLE
  2
DIMSTYLE
  5
A
330
0
100
AcDbSymbolTable
 70
     4
100
AcDbDimStyleTable
  0
DIMSTYLE
105
27
330
A
100
AcDbSymbolTableRecord
100
AcDbDimStyleTableRecord
  2
ISO-25
 70
     0
 41
2.5
 42
0.625
 43
3.75
 44
1.25
 73
     0
 74
     0
 77
     1
 78
     8
140
2.5
141
2.5
143
0.0393700787
147
0.625
171
     3
172
     1
178
     0
271
     2
272
     2
274
     3
278
    44
283
     0
284
     8
340
11
  0
DIMSTYLE
105
112
102
{ACAD_REACTORS
330
111
102
}
330
A
100
AcDbSymbolTableRecord
100
AcDbDimStyleTableRecord
  2
SLDDIMSTYLE0
 70
     0
 41
3.0
 44
0.0
 45
0.000000001
 73
     0
 74
     0
 77
     1
 78
    12
 79
     3
140
2.0
147
0.5
173
     1
178
     0
271
     0
272
     3
276
     2
284
    12
340
77
  0
DIMSTYLE
105
11D
102
{ACAD_REACTORS
330
11C
330
128
330
133
330
13D
330
147
330
151
102
}
330
A
100
AcDbSymbolTableRecord
100
AcDbDimStyleTableRecord
  2
SLDDIMSTYLE1
 70
     0
 41
3.0
 44
0.0
 45
0.000000001
 73
     0
 74
     0
 77
     1
 78
    12
 79
     3
140
2.0
147
0.5
173
     1
178
     0
271
     2
272
     3
276
     2
284
    12
340
77
  0
DIMSTYLE
105
15C
102
{ACAD_REACTORS
330
15B
102
}
330
A
100
AcDbSymbolTableRecord
100
AcDbDimStyleTableRecord
  2
SLDDIMSTYLE2
 70
     0
 41
3.0
 44
0.0
 45
0.000000001
 73
     0
 74
     0
 77
     1
 78
    12
 79
     3
140
2.0
147
0.5
173
     1
178
     0
271
     1
272
     3
276
     2
284
    12
340
77
  0
ENDTAB
  0
TABLE
  2
BLOCK_RECORD
  5
1
330
0
100
AcDbSymbolTable
 70
     9
  0
BLOCK_RECORD
  5
1F
330
1
100
AcDbSymbolTableRecord
100
AcDbBlockTableRecord
  2
*Model_Space
340
22
  0
BLOCK_RECORD
  5
1B
330
1
100
AcDbSymbolTableRecord
100
AcDbBlockTableRecord
  2
*Paper_Space
340
1E
  0
BLOCK_RECORD
  5
23
330
1
100
AcDbSymbolTableRecord
100
AcDbBlockTableRecord
  2
*Paper_Space0
340
26
  0
BLOCK_RECORD
  5
113
330
1
100
AcDbSymbolTableRecord
100
AcDbBlockTableRecord
  2
_D
340
0
  0
BLOCK_RECORD
  5
11E
330
1
100
AcDbSymbolTableRecord
100
AcDbBlockTableRecord
  2
_D_1
340
0
  0
BLOCK_RECORD
  5
129
330
1
100
AcDbSymbolTableRecord
100
AcDbBlockTableRecord
  2
_D_2
340
0
  0
BLOCK_RECORD
  5
134
330
1
100
AcDbSymbolTableRecord
100
AcDbBlockTableRecord
  2
_D_3
340
0
  0
BLOCK_RECORD
  5
13E
330
1
100
AcDbSymbolTableRecord
100
AcDbBlockTableRecord
  2
_D_4
340
0
  0
BLOCK_RECORD
  5
148
330
1
100
AcDbSymbolTableRecord
100
AcDbBlockTableRecord
  2
_D_5
340
0
  0
BLOCK_RECORD
  5
152
330
1
100
AcDbSymbolTableRecord
100
AcDbBlockTableRecord
  2
_D_6
340
0
  0
BLOCK_RECORD
  5
15D
330
1
100
AcDbSymbolTableRecord
100
AcDbBlockTableRecord
  2
_D_7
340
0
  0
ENDTAB
  0
ENDSEC
  0
SECTION
  2
BLOCKS
  0
BLOCK
  5
20
330
1F
100
AcDbEntity
  8
0
100
AcDbBlockBegin
  2
*Model_Space
 70
     0
 10
0.0
 20
0.0
 30
0.0
  3
*Model_Space
  1

  0
ENDBLK
  5
21
330
1F
100
AcDbEntity
  8
0
100
AcDbBlockEnd
  0
BLOCK
  5
1C
330
1B
100
AcDbEntity
 67
     1
  8
0
100
AcDbBlockBegin
  2
*Paper_Space
 70
     0
 10
0.0
 20
0.0
 30
0.0
  3
*Paper_Space
  1

  0
ENDBLK
  5
1D
330
1B
100
AcDbEntity
 67
     1
  8
0
100
AcDbBlockEnd
  0
BLOCK
  5
24
330
23
100
AcDbEntity
  8
0
100
AcDbBlockBegin
  2
*Paper_Space0
 70
     0
 10
0.0
 20
0.0
 30
0.0
  3
*Paper_Space0
  1

  0
ENDBLK
  5
25
330
23
100
AcDbEntity
  8
0
100
AcDbBlockEnd
  0
BLOCK
  5
114
330
113
100
AcDbEntity
  8
0
100
AcDbBlockBegin
  2
_D
 70
     0
 10
0.0
 20
0.0
 30
0.0
  3
_D
  1

  0
SOLID
  5
116
330
113
100
AcDbEntity
  8
VERMASSUNG
100
AcDbTrace
 10
215.6417188817
 20
126.0899411947
 30
0.0
 11
215.1917188817
 21
123.0899411947
 31
0.0
 12
216.0917188817
 22
123.0899411947
 32
0.0
 13
216.0917188817
 23
123.0899411947
 33
0.0
  0
SOLID
  5
117
330
113
100
AcDbEntity
  8
VERMASSUNG
100
AcDbTrace
 10
215.6417188817
 20
115.9749411947
 30
0.0
 11
216.0917188817
 21
118.9749411947
 31
0.0
 12
215.1917188817
 22
118.9749411947
 32
0.0
 13
215.1917188817
 23
118.9749411947
 33
0.0
  0
LINE
  5
118
330
113
100
AcDbEntity
  8
VERMASSUNG
100
AcDbLine
 10
204.0252642762
 20
126.0899411947
 30
0.0
 11
216.6417188817
 21
126.0899411947
 31
0.0
  0
LINE
  5
119
330
113
100
AcDbEntity
  8
VERMASSUNG
100
AcDbLine
 10
204.0252642762
 20
115.9749411947
 30
0.0
 11
216.6417188817
 21
115.9749411947
 31
0.0
  0
LINE
  5
11A
330
113
100
AcDbEntity
  8
VERMASSUNG
100
AcDbLine
 10
215.6417188817
 20
126.0899411947
 30
0.0
 11
215.6417188817
 21
115.9749411947
 31
0.0
  0
MTEXT
  5
11B
330
113
100
AcDbEntity
  8
VERMASSUNG
100
AcDbMText
 10
213.0635832857
 20
119.8324411377
 30
0.0
 40
2.0
 41
0.0
 71
     1
 72
     1
  1
10
  7
SLDTEXTSTYLE0
 11
-7.044195017643634E-15
 21
1.0
 31
0.0
 73
     1
 44
1.0
  0
ENDBLK
  5
115
330
113
100
AcDbEntity
  8
0
100
AcDbBlockEnd
  0
BLOCK
  5
11F
330
11E
100
AcDbEntity
  8
0
100
AcDbBlockBegin
  2
_D_1
 70
     0
 10
0.0
 20
0.0
 30
0.0
  3
_D_1
  1

  0
SOLID
  5
121
330
11E
100
AcDbEntity
  8
VERMASSUNG
100
AcDbTrace
 10
226.0252642762
 20
134.5324411947
 30
0.0
 11
225.5752642762
 21
131.5324411947
 31
0.0
 12
226.4752642762
 22
131.5324411947
 32
0.0
 13
226.4752642762
 23
131.5324411947
 33
0.0
  0
SOLID
  5
122
330
11E
100
AcDbEntity
  8
VERMASSUNG
100
AcDbTrace
 10
226.0252642762
 20
107.5324411947
 30
0.0
 11
226.4752642762
 21
110.5324411947
 31
0.0
 12
225.5752642762
 22
110.5324411947
 32
0.0
 13
225.5752642762
 23
110.5324411947
 33
0.0
  0
LINE
  5
123
330
11E
100
AcDbEntity
  8
VERMASSUNG
100
AcDbLine
 10
188.2252642762
 20
134.5324411947
 30
0.0
 11
227.0252642762
 21
134.5324411947
 31
0.0
  0
LINE
  5
124
330
11E
100
AcDbEntity
  8
VERMASSUNG
100
AcDbLine
 10
188.2252642762
 20
107.5324411947
 30
0.0
 11
227.0252642762
 21
107.5324411947
 31
0.0
  0
LINE
  5
125
330
11E
100
AcDbEntity
  8
VERMASSUNG
100
AcDbLine
 10
226.0252642762
 20
134.5324411947
 30
0.0
 11
226.0252642762
 21
107.5324411947
 31
0.0
  0
MTEXT
  5
126
330
11E
100
AcDbEntity
  8
VERMASSUNG
100
AcDbMText
 10
223.4471289713
 20
117.8274412375
 30
0.0
 40
2.0
 41
0.0
 71
     1
 72
     1
  1
%%c
  7
SLDTEXTSTYLE0
 11
-7.044195017643634E-15
 21
1.0
 31
0.0
 73
     1
 44
1.0
  0
MTEXT
  5
127
330
11E
100
AcDbEntity
  8
VERMASSUNG
100
AcDbMText
 10
223.24712902
 20
121.4374412518
 30
0.0
 40
2.0
 41
0.0
 71
     1
 72
     1
  1
27
  7
SLDTEXTSTYLE0
 11
-7.044195017643634E-15
 21
1.0
 31
0.0
 73
     1
 44
1.0
  0
ENDBLK
  5
120
330
11E
100
AcDbEntity
  8
0
100
AcDbBlockEnd
  0
BLOCK
  5
12A
330
129
100
AcDbEntity
  8
0
100
AcDbBlockBegin
  2
_D_2
 70
     0
 10
0.0
 20
0.0
 30
0.0
  3
_D_2
  1

  0
SOLID
  5
12C
330
129
100
AcDbEntity
  8
VERMASSUNG
100
AcDbTrace
 10
236.9764218174
 20
150.0324411947
 30
0.0
 11
236.5264218174
 21
147.0324411947
 31
0.0
 12
237.4264218174
 22
147.0324411947
 32
0.0
 13
237.4264218174
 23
147.0324411947
 33
0.0
  0
SOLID
  5
12D
330
129
100
AcDbEntity
  8
VERMASSUNG
100
AcDbTrace
 10
236.9764218174
 20
92.0324411947
 30
0.0
 11
237.4264218174
 21
95.0324411947
 31
0.0
 12
236.5264218174
 22
95.0324411947
 32
0.0
 13
236.5264218174
 23
95.0324411947
 33
0.0
  0
LINE
  5
12E
330
129
100
AcDbEntity
  8
VERMASSUNG
100
AcDbLine
 10
167.2252642762
 20
150.0324411947
 30
0.0
 11
237.9764218174
 21
150.0324411947
 31
0.0
  0
LINE
  5
12F
330
129
100
AcDbEntity
  8
VERMASSUNG
100
AcDbLine
 10
167.2252642762
 20
92.0324411947
 30
0.0
 11
237.9764218174
 21
92.0324411947
 31
0.0
  0
LINE
  5
130
330
129
100
AcDbEntity
  8
VERMASSUNG
100
AcDbLine
 10
236.9764218174
 20
150.0324411947
 30
0.0
 11
236.9764218174
 21
92.0324411947
 31
0.0
  0
MTEXT
  5
131
330
129
100
AcDbEntity
  8
VERMASSUNG
100
AcDbMText
 10
234.3982865125
 20
117.8274412375
 30
0.0
 40
2.0
 41
0.0
 71
     1
 72
     1
  1
%%c
  7
SLDTEXTSTYLE0
 11
-7.044195017643634E-15
 21
1.0
 31
0.0
 73
     1
 44
1.0
  0
MTEXT
  5
132
330
129
100
AcDbEntity
  8
VERMASSUNG
100
AcDbMText
 10
234.1982865612
 20
121.4374412518
 30
0.0
 40
2.0
 41
0.0
 71
     1
 72
     1
  1
58
  7
SLDTEXTSTYLE0
 11
-7.044195017643634E-15
 21
1.0
 31
0.0
 73
     1
 44
1.0
  0
ENDBLK
  5
12B
330
129
100
AcDbEntity
  8
0
100
AcDbBlockEnd
  0
BLOCK
  5
135
330
134
100
AcDbEntity
  8
0
100
AcDbBlockBegin
  2
_D_3
 70
     0
 10
0.0
 20
0.0
 30
0.0
  3
_D_3
  1

  0
SOLID
  5
137
330
134
100
AcDbEntity
  8
VERMASSUNG
100
AcDbTrace
 10
96.0752642762
 20
176.4283756517
 30
0.0
 11
99.0752642762
 21
175.9783756517
 31
0.0
 12
99.0752642762
 22
176.8783756517
 32
0.0
 13
99.0752642762
 23
176.8783756517
 33
0.0
  0
SOLID
  5
138
330
134
100
AcDbEntity
  8
VERMASSUNG
100
AcDbTrace
 10
189.0252642762
 20
176.4283756517
 30
0.0
 11
186.0252642762
 21
176.8783756517
 31
0.0
 12
186.0252642762
 22
175.9783756517
 32
0.0
 13
186.0252642762
 23
175.9783756517
 33
0.0
  0
LINE
  5
139
330
134
100
AcDbEntity
  8
VERMASSUNG
100
AcDbLine
 10
96.0752642762
 20
141.2946669315
 30
0.0
 11
96.0752642762
 21
177.4283756517
 31
0.0
  0
LINE
  5
13A
330
134
100
AcDbEntity
  8
VERMASSUNG
100
AcDbLine
 10
189.0252642762
 20
133.7324411947
 30
0.0
 11
189.0252642762
 21
177.4283756517
 31
0.0
  0
LINE
  5
13B
330
134
100
AcDbEntity
  8
VERMASSUNG
100
AcDbLine
 10
96.0752642762
 20
176.4283756517
 30
0.0
 11
189.0252642762
 21
176.4283756517
 31
0.0
  0
MTEXT
  5
13C
330
134
100
AcDbEntity
  8
VERMASSUNG
100
AcDbMText
 10
139.45026442
 20
179.0065112476
 30
0.0
 40
2.0
 41
0.0
 71
     1
 72
     1
  1
92.95
  7
SLDTEXTSTYLE0
 73
     1
 44
1.0
  0
ENDBLK
  5
136
330
134
100
AcDbEntity
  8
0
100
AcDbBlockEnd
  0
BLOCK
  5
13F
330
13E
100
AcDbEntity
  8
0
100
AcDbBlockBegin
  2
_D_4
 70
     0
 10
0.0
 20
0.0
 30
0.0
  3
_D_4
  1

  0
SOLID
  5
141
330
13E
100
AcDbEntity
  8
VERMASSUNG
100
AcDbTrace
 10
136.0252642762
 20
167.3250938257
 30
0.0
 11
139.0252642762
 21
166.8750938257
 31
0.0
 12
139.0252642762
 22
167.7750938257
 32
0.0
 13
139.0252642762
 23
167.7750938257
 33
0.0
  0
SOLID
  5
142
330
13E
100
AcDbEntity
  8
VERMASSUNG
100
AcDbTrace
 10
168.0252642762
 20
167.3250938257
 30
0.0
 11
165.0252642762
 21
167.7750938257
 31
0.0
 12
165.0252642762
 22
166.8750938257
 32
0.0
 13
165.0252642762
 23
166.8750938257
 33
0.0
  0
LINE
  5
143
330
13E
100
AcDbEntity
  8
VERMASSUNG
100
AcDbLine
 10
136.0252642762
 20
152.3074411947
 30
0.0
 11
136.0252642762
 21
168.3250938257
 31
0.0
  0
LINE
  5
144
330
13E
100
AcDbEntity
  8
VERMASSUNG
100
AcDbLine
 10
168.0252642762
 20
149.2324411947
 30
0.0
 11
168.0252642762
 21
168.3250938257
 31
0.0
  0
LINE
  5
145
330
13E
100
AcDbEntity
  8
VERMASSUNG
100
AcDbLine
 10
136.0252642762
 20
167.3250938257
 30
0.0
 11
168.0252642762
 21
167.3250938257
 31
0.0
  0
MTEXT
  5
146
330
13E
100
AcDbEntity
  8
VERMASSUNG
100
AcDbMText
 10
150.6252643261
 20
169.9032294217
 30
0.0
 40
2.0
 41
0.0
 71
     1
 72
     1
  1
32
  7
SLDTEXTSTYLE0
 73
     1
 44
1.0
  0
ENDBLK
  5
140
330
13E
100
AcDbEntity
  8
0
100
AcDbBlockEnd
  0
BLOCK
  5
149
330
148
100
AcDbEntity
  8
0
100
AcDbBlockBegin
  2
_D_5
 70
     0
 10
0.0
 20
0.0
 30
0.0
  3
_D_5
  1

  0
SOLID
  5
14B
330
148
100
AcDbEntity
  8
VERMASSUNG
100
AcDbTrace
 10
154.0252642762
 20
159.9922877203
 30
0.0
 11
157.0252642762
 21
159.5422877203
 31
0.0
 12
157.0252642762
 22
160.4422877203
 32
0.0
 13
157.0252642762
 23
160.4422877203
 33
0.0
  0
SOLID
  5
14C
330
148
100
AcDbEntity
  8
VERMASSUNG
100
AcDbTrace
 10
168.0252642762
 20
159.9922877203
 30
0.0
 11
165.0252642762
 21
160.4422877203
 31
0.0
 12
165.0252642762
 22
159.5422877203
 32
0.0
 13
165.0252642762
 23
159.5422877203
 33
0.0
  0
LINE
  5
14D
330
148
100
AcDbEntity
  8
VERMASSUNG
100
AcDbLine
 10
154.0252642762
 20
152.5074411947
 30
0.0
 11
154.0252642762
 21
160.9922877203
 31
0.0
  0
LINE
  5
14E
330
148
100
AcDbEntity
  8
VERMASSUNG
100
AcDbLine
 10
168.0252642762
 20
149.2324411947
 30
0.0
 11
168.0252642762
 21
160.9922877203
 31
0.0
  0
LINE
  5
14F
330
148
100
AcDbEntity
  8
VERMASSUNG
100
AcDbLine
 10
154.0252642762
 20
159.9922877203
 30
0.0
 11
168.0252642762
 21
159.9922877203
 31
0.0
  0
MTEXT
  5
150
330
148
100
AcDbEntity
  8
VERMASSUNG
100
AcDbMText
 10
159.7252642727
 20
162.5704233162
 30
0.0
 40
2.0
 41
0.0
 71
     1
 72
     1
  1
14
  7
SLDTEXTSTYLE0
 73
     1
 44
1.0
  0
ENDBLK
  5
14A
330
148
100
AcDbEntity
  8
0
100
AcDbBlockEnd
  0
BLOCK
  5
153
330
152
100
AcDbEntity
  8
0
100
AcDbBlockBegin
  2
_D_6
 70
     0
 10
0.0
 20
0.0
 30
0.0
  3
_D_6
  1

  0
SOLID
  5
155
330
152
100
AcDbEntity
  8
VERMASSUNG
100
AcDbTrace
 10
168.0252642762
 20
159.9922877203
 30
0.0
 11
171.0252642762
 21
159.5422877203
 31
0.0
 12
171.0252642762
 22
160.4422877203
 32
0.0
 13
171.0252642762
 23
160.4422877203
 33
0.0
  0
SOLID
  5
156
330
152
100
AcDbEntity
  8
VERMASSUNG
100
AcDbTrace
 10
189.0252642762
 20
159.9922877203
 30
0.0
 11
186.0252642762
 21
160.4422877203
 31
0.0
 12
186.0252642762
 22
159.5422877203
 32
0.0
 13
186.0252642762
 23
159.5422877203
 33
0.0
  0
LINE
  5
157
330
152
100
AcDbEntity
  8
VERMASSUNG
100
AcDbLine
 10
168.0252642762
 20
149.2324411947
 30
0.0
 11
168.0252642762
 21
160.9922877203
 31
0.0
  0
LINE
  5
158
330
152
100
AcDbEntity
  8
VERMASSUNG
100
AcDbLine
 10
189.0252642762
 20
133.7324411947
 30
0.0
 11
189.0252642762
 21
160.9922877203
 31
0.0
  0
LINE
  5
159
330
152
100
AcDbEntity
  8
VERMASSUNG
100
AcDbLine
 10
168.0252642762
 20
159.9922877203
 30
0.0
 11
189.0252642762
 21
159.9922877203
 31
0.0
  0
MTEXT
  5
15A
330
152
100
AcDbEntity
  8
VERMASSUNG
100
AcDbMText
 10
177.3252642192
 20
162.5704233162
 30
0.0
 40
2.0
 41
0.0
 71
     1
 72
     1
  1
21
  7
SLDTEXTSTYLE0
 73
     1
 44
1.0
  0
ENDBLK
  5
154
330
152
100
AcDbEntity
  8
0
100
AcDbBlockEnd
  0
BLOCK
  5
15E
330
15D
100
AcDbEntity
  8
0
100
AcDbBlockBegin
  2
_D_7
 70
     0
 10
0.0
 20
0.0
 30
0.0
  3
_D_7
  1

  0
SOLID
  5
160
330
15D
100
AcDbEntity
  8
VERMASSUNG
100
AcDbTrace
 10
86.0752392762
 20
89.5574411947
 30
0.0
 11
86.5252392762
 21
92.5574411947
 31
0.0
 12
85.6252392762
 22
92.5574411947
 32
0.0
 13
85.6252392762
 23
92.5574411947
 33
0.0
  0
SOLID
  5
161
330
15D
100
AcDbEntity
  8
VERMASSUNG
100
AcDbTrace
 10
86.0752392762
 20
152.5074411947
 30
0.0
 11
85.6252392762
 21
149.5074411947
 31
0.0
 12
86.5252392762
 22
149.5074411947
 32
0.0
 13
86.5252392762
 23
149.5074411947
 33
0.0
  0
LINE
  5
162
330
15D
100
AcDbEntity
  8
VERMASSUNG
100
AcDbLine
 10
136.2252642762
 20
89.5574411947
 30
0.0
 11
85.0752392762
 21
89.5574411947
 31
0.0
  0
LINE
  5
163
330
15D
100
AcDbEntity
  8
VERMASSUNG
100
AcDbLine
 10
136.2252642762
 20
152.5074411947
 30
0.0
 11
85.0752392762
 21
152.5074411947
 31
0.0
  0
LINE
  5
164
330
15D
100
AcDbEntity
  8
VERMASSUNG
100
AcDbLine
 10
86.0752392762
 20
89.5574411947
 30
0.0
 11
86.0752392762
 21
152.5074411947
 31
0.0
  0
MTEXT
  5
165
330
15D
100
AcDbEntity
  8
VERMASSUNG
100
AcDbMText
 10
83.29710402
 20
112.9274425764
 30
0.0
 40
2.0
 41
0.0
 71
     1
 72
     1
  1
KM
  7
SLDTEXTSTYLE0
 11
6.123233995736766E-17
 21
1.0
 31
0.0
 73
     1
 44
1.0
  0
MTEXT
  5
166
330
15D
100
AcDbEntity
  8
VERMASSUNG
100
AcDbMText
 10
83.4971039713
 20
116.3274423886
 30
0.0
 40
2.0
 41
0.0
 71
     1
 72
     1
  1
%%c
  7
SLDTEXTSTYLE0
 11
6.123233995736766E-17
 21
1.0
 31
0.0
 73
     1
 44
1.0
  0
MTEXT
  5
167
330
15D
100
AcDbEntity
  8
VERMASSUNG
100
AcDbMText
 10
83.29710402
 20
119.9374424029
 30
0.0
 40
2.0
 41
0.0
 71
     1
 72
     1
  1
63
  7
SLDTEXTSTYLE0
 11
6.123233995736766E-17
 21
1.0
 31
0.0
 73
     1
 44
1.0
  0
MTEXT
  5
168
330
15D
100
AcDbEntity
  8
VERMASSUNG
100
AcDbMText
 10
83.29710402
 20
123.9249423031
 30
0.0
 40
2.0
 41
0.0
 71
     1
 72
     1
  1
XMZ
  7
SLDTEXTSTYLE0
 11
6.123233995736766E-17
 21
1.0
 31
0.0
 73
     1
 44
1.0
  0
ENDBLK
  5
15F
330
15D
100
AcDbEntity
  8
0
100
AcDbBlockEnd
  0
ENDSEC
  0
SECTION
  2
ENTITIES
  0
MTEXT
  5
78
330
1F
100
AcDbEntity
  8
KOPF_DÜNN
100
AcDbMText
 10
13.8892156294
 20
23.8442973028
 30
0.0
 40
3.0
 41
0.0
 71
     1
 72
     1
  1
KY6.D27.K21.032
  7
SLDTEXTSTYLE0
 73
     1
 44
1.0
  0
MTEXT
  5
79
330
1F
100
AcDbEntity
  8
VERMASSUNG
100
AcDbMText
 10
13.9329988022
 20
28.8834360957
 30
0.0
 40
3.0
 41
0.0
 71
     1
 72
     1
  1
Fräsdorn_Milling arbor
  7
SLDTEXTSTYLE0
 73
     1
 44
1.0
  0
MTEXT
  5
7A
330
1F
100
AcDbEntity
  8
VERMASSUNG
100
AcDbMText
 10
98.8601118557
 20
13.8365368761
 30
0.0
 40
2.0
 41
0.0
 71
     1
 72
     1
  1
Datum: 19.02.2018
  7
SLDTEXTSTYLE0
 73
     1
 44
1.0
  0
MTEXT
  5
7B
330
1F
100
AcDbEntity
  8
VERMASSUNG
100
AcDbMText
 10
13.933048693
 20
18.0482802738
 30
0.0
 40
2.0
 41
0.0
 71
     1
 72
     1
  1
KM63 XMZ / Ø27
  7
SLDTEXTSTYLE0
 73
     1
 44
1.0
  0
MTEXT
  5
7C
330
1F
100
AcDbEntity
  8
VERMASSUNG
100
AcDbMText
 10
13.9808475933
 20
13.9090974274
 30
0.0
 40
2.0
 41
0.0
 71
     1
 72
     1
  1
Gewicht: 1013g
  7
SLDTEXTSTYLE0
 73
     1
 44
1.0
  0
ARC
  5
7D
330
1F
100
AcDbEntity
  8
0
  6
Continuous
 62
     7
370
    25
100
AcDbCircle
 10
173.8252642762
 20
137.5324411947
 30
0.0
 40
0.5
100
AcDbArc
 50
270.0
 51
0.0
  0
ARC
  5
7E
330
1F
100
AcDbEntity
  8
0
  6
Continuous
 62
     7
370
    25
100
AcDbCircle
 10
173.8252642762
 20
148.5324411947
 30
0.0
 40
0.5
100
AcDbArc
 50
0.0
 51
90.0
  0
LINE
  5
7F
330
1F
100
AcDbEntity
  8
0
  6
Continuous
 62
     7
370
    25
100
AcDbLine
 10
168.0252657961
 20
137.0324419547
 30
0.0
 11
173.8252633941
 21
137.0324419547
 31
0.0
  0
LINE
  5
80
330
1F
100
AcDbEntity
  8
0
  6
Continuous
 62
     7
370
    25
100
AcDbLine
 10
173.8252633941
 20
149.032442059
 30
0.0
 11
168.0252657961
 21
149.032442059
 31
0.0
  0
ARC
  5
81
330
1F
100
AcDbEntity
  8
0
  6
Continuous
 62
     7
370
    25
100
AcDbCircle
 10
173.8252642762
 20
93.5324411947
 30
0.0
 40
0.5
100
AcDbArc
 50
270.0
 51
0.0
  0
ARC
  5
82
330
1F
100
AcDbEntity
  8
0
  6
Continuous
 62
     7
370
    25
100
AcDbCircle
 10
173.8252642762
 20
104.5324411947
 30
0.0
 40
0.5
100
AcDbArc
 50
0.0
 51
90.0
  0
LINE
  5
83
330
1F
100
AcDbEntity
  8
0
  6
Continuous
 62
     7
370
    25
100
AcDbLine
 10
168.0252657961
 20
93.0324403305
 30
0.0
 11
173.8252633941
 21
93.0324403305
 31
0.0
  0
LINE
  5
84
330
1F
100
AcDbEntity
  8
0
  6
Continuous
 62
     7
370
    25
100
AcDbLine
 10
173.8252633941
 20
105.0324404348
 30
0.0
 11
168.0252657961
 21
105.0324404348
 31
0.0
  0
LINE
  5
85
330
1F
100
AcDbEntity
  8
0
  6
Continuous
 62
     7
370
    25
100
AcDbLine
 10
203.4252652657
 20
130.0324408073
 30
0.0
 11
192.0252660048
 21
130.0324408073
 31
0.0
  0
LINE
  5
86
330
1F
100
AcDbEntity
  8
0
  6
Continuous
 62
     7
370
    25
100
AcDbLine
 10
192.0252660048
 20
112.0324415822
 30
0.0
 11
203.4252652657
 21
112.0324415822
 31
0.0
  0
ARC
  5
87
330
1F
100
AcDbEntity
  8
0
  6
Continuous
 62
     7
370
    25
100
AcDbCircle
 10
203.4252642762
 20
129.4324411947
 30
0.0
 40
0.5999999999999943
100
AcDbArc
 50
0.0
 51
90.0
  0
ARC
  5
88
330
1F
100
AcDbEntity
  8
0
  6
Continuous
 62
     7
370
    25
100
AcDbCircle
 10
203.4252642762
 20
112.6324411947
 30
0.0
 40
0.5999999999999943
100
AcDbArc
 50
270.0
 51
0.0
  0
ARC
  5
89
330
1F
100
AcDbEntity
  8
0
  6
Continuous
 62
     7
370
    25
100
AcDbCircle
 10
191.4252642762
 20
114.4324411947
 30
0.0
 40
0.6000000000000085
100
AcDbArc
 50
0.0
 51
90.0
  0
ARC
  5
8A
330
1F
100
AcDbEntity
  8
0
  6
Continuous
 62
     7
370
    25
100
AcDbCircle
 10
191.4252642762
 20
127.6324411947
 30
0.0
 40
0.6000000000000227
100
AcDbArc
 50
270.0
 51
0.0
  0
LINE
  5
8B
330
1F
100
AcDbEntity
  8
0
  6
Continuous
 62
     7
370
    25
100
AcDbLine
 10
191.4252632987
 20
127.0324412469
 30
0.0
 11
189.0252636504
 21
127.0324412469
 31
0.0
  0
LINE
  5
8C
330
1F
100
AcDbEntity
  8
0
  6
Continuous
 62
     7
370
    25
100
AcDbLine
 10
189.0252636504
 20
115.0324411426
 30
0.0
 11
191.4252632987
 21
115.0324411426
 31
0.0
  0
LINE
  5
8D
330
1F
100
AcDbEntity
  8
0
  6
Continuous
 62
     7
370
    25
100
AcDbLine
 10
149.2594623696
 20
89.5574411113
 30
0.0
 11
154.0252635014
 21
89.5574411113
 31
0.0
  0
LINE
  5
8E
330
1F
100
AcDbEntity
  8
0
  6
Continuous
 62
     7
370
    25
100
AcDbLine
 10
154.0252635014
 20
152.5074412782
 30
0.0
 11
152.8032881897
 21
152.5074412782
 31
0.0
  0
LINE
  5
8F
330
1F
100
AcDbEntity
  8
0
  6
Continuous
 62
     7
370
    25
100
AcDbLine
 10
136.2252642712
 20
89.5574411113
 30
0.0
 11
142.5910665412
 21
89.5574411113
 31
0.0
  0
LINE
  5
90
330
1F
100
AcDbEntity
  8
0
  6
Continuous
 62
     7
370
    25
100
AcDbLine
 10
141.3546706308
 20
152.5074412782
 30
0.0
 11
136.2252642712
 21
152.5074412782
 31
0.0
  0
LINE
  5
91
330
1F
100
AcDbEntity
  8
0
  6
Continuous
 62
     7
370
    25
100
AcDbLine
 10
142.5910665412
 20
89.5574411113
 30
0.0
 11
144.0502641481
 21
92.0848456878
 31
0.0
  0
ARC
  5
92
330
1F
100
AcDbEntity
  8
0
  6
Continuous
 62
     7
370
    25
100
AcDbCircle
 10
136.2252642762
 20
89.7574411947
 30
0.0
 40
0.2000000000000171
100
AcDbArc
 50
180.0
 51
270.0
  0
ARC
  5
93
330
1F
100
AcDbEntity
  8
0
  6
Continuous
 62
     7
370
    25
100
AcDbCircle
 10
136.2252642762
 20
152.3074411947
 30
0.0
 40
0.2000000000000455
100
AcDbArc
 50
90.0
 51
180.0
  0
ARC
  5
94
330
1F
100
AcDbEntity
  8
0
  6
Continuous
 62
     7
370
    25
100
AcDbCircle
 10
156.0252642762
 20
90.0324411947
 30
0.0
 40
2.0
100
AcDbArc
 50
90.0
 51
180.0
  0
ARC
  5
95
330
1F
100
AcDbEntity
  8
0
  6
Continuous
 62
     7
370
    25
100
AcDbCircle
 10
156.0252642762
 20
152.0324411947
 30
0.0
 40
2.0
100
AcDbArc
 50
180.0
 51
270.0
  0
ARC
  5
96
330
1F
100
AcDbEntity
  8
0
  6
Continuous
 62
     7
370
    25
100
AcDbCircle
 10
167.2252642762
 20
92.8324411947
 30
0.0
 40
0.7999999999999972
100
AcDbArc
 50
270.0
 51
0.0
  0
ARC
  5
97
330
1F
100
AcDbEntity
  8
0
  6
Continuous
 62
     7
370
    25
100
AcDbCircle
 10
167.2252642762
 20
149.2324411947
 30
0.0
 40
0.8000000000000114
100
AcDbArc
 50
0.0
 51
90.0
  0
LINE
  5
98
330
1F
100
AcDbEntity
  8
0
  6
Continuous
 62
     7
370
    25
100
AcDbLine
 10
156.0252638292
 20
92.0324420292
 30
0.0
 11
167.2252634298
 21
92.0324420292
 31
0.0
  0
LINE
  5
99
330
1F
100
AcDbEntity
  8
0
  6
Continuous
 62
     7
370
    25
100
AcDbLine
 10
167.2252634298
 20
150.0324403603
 30
0.0
 11
156.0252638292
 21
150.0324403603
 31
0.0
  0
ARC
  5
9A
330
1F
100
AcDbEntity
  8
0
  6
Continuous
 62
     7
370
    25
100
AcDbCircle
 10
135.5963294017
 20
95.4824411947
 30
0.0
 40
0.8000000000000047
100
AcDbArc
 50
57.576802718
 51
107.5
  0
ARC
  5
9B
330
1F
100
AcDbEntity
  8
0
  6
Continuous
 62
     7
370
    25
100
AcDbCircle
 10
135.5963294017
 20
146.5824411947
 30
0.0
 40
0.8000000000000203
100
AcDbArc
 50
252.5
 51
302.423197282
  0
LINE
  5
9C
330
1F
100
AcDbEntity
  8
0
  6
Continuous
 62
     7
370
    25
100
AcDbLine
 10
147.8002642971
 20
92.0848456878
 30
0.0
 11
149.2594623696
 21
89.5574411113
 31
0.0
  0
LINE
  5
9D
330
1F
100
AcDbEntity
  8
0
  6
Continuous
 62
     7
370
    25
100
AcDbLine
 10
134.8650822174
 20
145.9741798896
 30
0.0
 11
118.9202064407
 21
145.1734604049
 31
0.0
  0
LINE
  5
9E
330
1F
100
AcDbEntity
  8
0
  6
Continuous
 62
     7
370
    25
100
AcDbLine
 10
118.9202064407
 20
96.8914219845
 30
0.0
 11
134.8650822174
 21
96.0907024998
 31
0.0
  0
LINE
  5
9F
330
1F
100
AcDbEntity
  8
0
  6
Continuous
 62
     7
370
    25
100
AcDbLine
 10
134.8650822174
 20
96.0907024998
 30
0.0
 11
135.3557647663
 21
96.2454156686
 31
0.0
  0
LINE
  5
A0
330
1F
100
AcDbEntity
  8
0
  6
Continuous
 62
     7
370
    25
100
AcDbLine
 10
135.3557647663
 20
145.8194667209
 30
0.0
 11
134.8650822174
 21
145.9741798896
 31
0.0
  0
ARC
  5
A1
330
1F
100
AcDbEntity
  8
0
  6
Continuous
 62
     7
370
    25
100
AcDbCircle
 10
145.0502642762
 20
92.1824411947
 30
0.0
 40
1.0
100
AcDbArc
 50
90.0
 51
180.0
  0
ARC
  5
A2
330
1F
100
AcDbEntity
  8
0
  6
Continuous
 62
     7
370
    25
100
AcDbCircle
 10
146.8002642762
 20
92.1824411947
 30
0.0
 40
1.0
100
AcDbArc
 50
0.0
 51
90.0
  0
LINE
  5
A3
330
1F
100
AcDbEntity
  8
0
  6
Continuous
 62
     7
370
    25
100
AcDbLine
 10
145.050264312
 20
93.182441007
 30
0.0
 11
146.8002641332
 21
93.182441007
 31
0.0
  0
ARC
  5
A4
330
1F
100
AcDbEntity
  8
0
  6
Continuous
 62
     7
370
    25
100
AcDbCircle
 10
168.4252642762
 20
107.2824411947
 30
0.0
 40
0.6000000000000085
100
AcDbArc
 50
90.0
 51
131.8103148958
  0
ARC
  5
A5
330
1F
100
AcDbEntity
  8
0
  6
Continuous
 62
     7
370
    25
100
AcDbCircle
 10
168.4252642762
 20
134.7824411947
 30
0.0
 40
0.6000000000000227
100
AcDbArc
 50
228.1896851042
 51
270.0
  0
ARC
  5
A6
330
1F
100
AcDbEntity
  8
0
  6
Continuous
 62
     7
370
    25
100
AcDbCircle
 10
188.2252642762
 20
108.3324411947
 30
0.0
 40
0.8000000000000114
100
AcDbArc
 50
270.0
 51
0.0
  0
ARC
  5
A7
330
1F
100
AcDbEntity
  8
0
  6
Continuous
 62
     7
370
    25
100
AcDbCircle
 10
188.2252642762
 20
133.7324411947
 30
0.0
 40
0.8000000000000114
100
AcDbArc
 50
0.0
 51
90.0
  0
LINE
  5
A8
330
1F
100
AcDbEntity
  8
0
  6
Continuous
 62
     7
370
    25
100
AcDbLine
 10
170.525263412
 20
107.5324408446
 30
0.0
 11
188.2252650094
 21
107.5324408446
 31
0.0
  0
LINE
  5
A9
330
1F
100
AcDbEntity
  8
0
  6
Continuous
 62
     7
370
    25
100
AcDbLine
 10
188.2252650094
 20
134.5324415449
 30
0.0
 11
170.525263412
 21
134.5324415449
 31
0.0
  0
LINE
  5
AA
330
1F
100
AcDbEntity
  8
0
  6
Continuous
 62
     7
370
    25
100
AcDbLine
 10
170.525263412
 20
134.5324415449
 30
0.0
 11
169.2953476441
 21
134.2028856013
 31
0.0
  0
LINE
  5
AB
330
1F
100
AcDbEntity
  8
0
  6
Continuous
 62
     7
370
    25
100
AcDbLine
 10
169.2953476441
 20
107.8619967882
 30
0.0
 11
170.525263412
 21
107.5324408446
 31
0.0
  0
ARC
  5
AC
330
1F
100
AcDbEntity
  8
0
  6
Continuous
 62
     7
370
    25
100
AcDbCircle
 10
169.140054995
 20
107.2824411947
 30
0.0
 40
0.6000000000000085
100
AcDbArc
 50
75.0
 51
90.0
  0
ARC
  5
AD
330
1F
100
AcDbEntity
  8
0
  6
Continuous
 62
     7
370
    25
100
AcDbCircle
 10
169.140054995
 20
134.7824411947
 30
0.0
 40
0.6000000000000227
100
AcDbArc
 50
270.0
 51
285.0
  0
LINE
  5
AE
330
1F
100
AcDbEntity
  8
0
  6
Continuous
 62
     7
370
    25
100
AcDbLine
 10
168.4252651167
 20
107.8824411813
 30
0.0
 11
169.1400551927
 21
107.8824411813
 31
0.0
  0
LINE
  5
AF
330
1F
100
AcDbEntity
  8
0
  6
Continuous
 62
     7
370
    25
100
AcDbLine
 10
169.1400551927
 20
134.1824412081
 30
0.0
 11
168.4252651167
 21
134.1824412081
 31
0.0
  0
LINE
  5
B0
330
1F
100
AcDbEntity
  8
0
  6
Continuous
 62
     7
370
    25
100
AcDbLine
 10
118.0252650511
 20
97.7863633741
 30
0.0
 11
118.9202064407
 21
96.8914219845
 31
0.0
  0
LINE
  5
B1
330
1F
100
AcDbEntity
  8
0
  6
Continuous
 62
     7
370
    25
100
AcDbLine
 10
118.9202064407
 20
145.1734604049
 30
0.0
 11
118.0252650511
 21
144.2785190154
 31
0.0
  0
LINE
  5
B2
330
1F
100
AcDbEntity
  8
0
  6
Continuous
 62
     7
370
    25
100
AcDbLine
 10
174.3252644074
 20
137.5324411053
 30
0.0
 11
174.3252644074
 21
148.5324410457
 31
0.0
  0
LINE
  5
B3
330
1F
100
AcDbEntity
  8
0
  6
Continuous
 62
     7
370
    25
100
AcDbLine
 10
174.3252644074
 20
93.5324413437
 30
0.0
 11
174.3252644074
 21
104.5324412841
 31
0.0
  0
LINE
  5
B4
330
1F
100
AcDbEntity
  8
0
  6
Continuous
 62
     7
370
    25
100
AcDbLine
 10
192.0252660048
 20
130.0324408073
 30
0.0
 11
192.0252660048
 21
112.0324415822
 31
0.0
  0
LINE
  5
B5
330
1F
100
AcDbEntity
  8
0
  6
Continuous
 62
     7
370
    25
100
AcDbLine
 10
204.0252679717
 20
129.4324408952
 30
0.0
 11
204.0252679717
 21
112.6324414942
 31
0.0
  0
SPLINE
  5
B6
330
1F
100
AcDbEntity
  8
0
  6
Continuous
 62
     7
370
    25
100
AcDbSpline
210
0.0
220
0.0
230
1.0
 70
     8
 71
     3
 72
    25
 73
    21
 74
     0
 42
0.000000001
 43
0.00000001
 40
0.0
 40
0.0
 40
0.0
 40
0.0
 40
0.1249999999999985
 40
0.1249999999999985
 40
0.2499999999999971
 40
0.2499999999999971
 40
0.3749999999999956
 40
0.3749999999999956
 40
0.4999999999999941
 40
0.4999999999999941
 40
0.562499999999995
 40
0.562499999999995
 40
0.624999999999996
 40
0.6874999999999969
 40
0.6874999999999969
 40
0.7499999999999978
 40
0.7499999999999978
 40
0.8749999999999989
 40
0.8749999999999989
 40
1.0
 40
1.0
 40
1.0
 40
1.0
 10
149.2594620807998
 20
107.9946971894181
 30
0.0
 10
149.5007095863552
 20
107.8358228106264
 30
0.0
 10
149.7166386205997
 20
107.6549352755979
 30
0.0
 10
150.0997965324423
 20
107.2520420556351
 30
0.0
 10
150.2672483179275
 20
107.0279719816972
 30
0.0
 10
150.5349329743314
 20
106.561669069659
 30
0.0
 10
150.6386049420522
 20
106.3147354165992
 30
0.0
 10
150.7777363133064
 20
105.8081496604863
 30
0.0
 10
150.812475553297
 20
105.5536389515843
 30
0.0
 10
150.8129059865163
 20
105.1703142064225
 30
0.0
 10
150.8041712029268
 20
105.0414898586302
 30
0.0
 10
150.7693777997522
 20
104.7893694940942
 30
0.0
 10
150.7174849380231
 20
104.541816824943
 30
0.0
 10
150.6321067257294
 20
104.3030805035442
 30
0.0
 10
150.5296309726648
 20
104.0687396049049
 30
0.0
 10
150.4695696010137
 20
103.953557251829
 30
0.0
 10
150.2682597785626
 20
103.6235082794873
 30
0.0
 10
150.1050362584828
 20
103.4207971492533
 30
0.0
 10
149.7196580582314
 20
103.0490527757038
 30
0.0
 10
149.5007085724056
 20
102.8836990980467
 30
0.0
 10
149.2594620807998
 20
102.7416448765686
 30
0.0
  0
LINE
  5
B7
330
1F
100
AcDbEntity
  8
0
  6
Continuous
 62
     7
370
    25
100
AcDbLine
 10
149.2594623696
 20
107.9946972165
 30
0.0
 11
149.2594623696
 21
152.1253084499
 31
0.0
  0
SPLINE
  5
B8
330
1F
100
AcDbEntity
  8
0
  6
Continuous
 62
     7
370
    25
100
AcDbSpline
210
0.0
220
0.0
230
1.0
 70
     8
 71
     3
 72
    13
 73
     9
 74
     0
 42
0.000000001
 43
0.00000001
 40
0.0
 40
0.0
 40
0.0
 40
0.0
 40
0.1145529409484925
 40
0.365939457357804
 40
0.6243263162635535
 40
0.7620068070533838
 40
0.9031291538898404
 40
1.0
 40
1.0
 40
1.0
 40
1.0
 10
152.8032881897324
 20
152.5059846896699
 30
0.0
 10
152.7956544686436
 20
152.5048071754253
 30
0.0
 10
152.7712685407944
 20
152.5010456052714
 30
0.0
 10
152.3211825318611
 20
152.4323156159429
 30
0.0
 10
151.4888585443565
 20
152.322020263954
 30
0.0
 10
150.6077226829617
 20
152.228565417693
 30
0.0
 10
149.9207994078112
 20
152.1680864987801
 30
0.0
 10
149.4507766673265
 20
152.1376834598037
 30
0.0
 10
149.259462369644
 20
152.125308449941
 30
0.0
  0
LINE
  5
B9
330
1F
100
AcDbEntity
  8
0
  6
Continuous
 62
     7
370
    25
100
AcDbLine
 10
149.2594623696
 20
89.5574411113
 30
0.0
 11
149.2594623696
 21
102.7416439462
 31
0.0
  0
LINE
  5
BA
330
1F
100
AcDbEntity
  8
0
  6
Continuous
 62
     7
370
    25
100
AcDbLine
 10
154.0252635014
 20
89.5574411113
 30
0.0
 11
154.0252635014
 21
152.5074412782
 31
0.0
  0
SPLINE
  5
BB
330
1F
100
AcDbEntity
  8
0
  6
Continuous
 62
     7
370
    25
100
AcDbSpline
210
0.0
220
0.0
230
1.0
 70
     8
 71
     3
 72
    11
 73
     7
 74
     0
 42
0.000000001
 43
0.00000001
 40
0.0
 40
0.0
 40
0.0
 40
0.0
 40
0.4051838670643448
 40
0.6486322391308984
 40
0.900236933056225
 40
1.0
 40
1.0
 40
1.0
 40
1.0
 10
142.5910665411884
 20
152.3345058519414
 30
0.0
 10
142.299555318495
 20
152.3722040896682
 30
0.0
 10
141.8328941493883
 20
152.4325527223154
 30
0.0
 10
141.4801199009113
 20
152.4857083336705
 30
0.0
 10
141.33734215914
 20
152.5074882416257
 30
0.0
 10
141.3508386127477
 20
152.5054235294067
 30
0.0
 10
141.3546706308061
 20
152.504837300258
 30
0.0
  0
LINE
  5
BC
330
1F
100
AcDbEntity
  8
0
  6
Continuous
 62
     7
370
    25
100
AcDbLine
 10
142.5910665412
 20
89.5574411113
 30
0.0
 11
142.5910665412
 21
152.3345058519
 31
0.0
  0
SPLINE
  5
BD
330
1F
100
AcDbEntity
  8
0
  6
Continuous
 62
     7
370
    25
100
AcDbSpline
210
0.0
220
0.0
230
1.0
 70
     8
 71
     3
 72
    10
 73
     6
 74
     0
 42
0.000000001
 43
0.00000001
 40
0.0
 40
0.0
 40
0.0
 40
0.0
 40
0.5
 40
0.5
 40
1.0
 40
1.0
 40
1.0
 40
1.0
 10
143.7192824687765
 20
150.5074411947301
 30
0.0
 10
143.5423973223531
 20
150.7976347344727
 30
0.0
 10
143.3568479474757
 20
151.1000481204132
 30
0.0
 10
142.9788990074281
 20
151.7120822577135
 30
0.0
 10
142.7861124652489
 20
152.0223590972785
 30
0.0
 10
142.5910664716596
 20
152.3345061682436
 30
0.0
  0
SPLINE
  5
BE
330
1F
100
AcDbEntity
  8
0
  6
Continuous
 62
     7
370
    25
100
AcDbSpline
210
0.0
220
0.0
230
1.0
 70
     8
 71
     3
 72
     8
 73
     4
 74
     0
 42
0.000000001
 43
0.00000001
 40
0.0
 40
0.0
 40
0.0
 40
0.0
 40
1.0
 40
1.0
 40
1.0
 40
1.0
 10
144.0502642762298
 20
149.8966922733472
 30
0.0
 10
143.9319675167998
 20
150.114577507678
 30
0.0
 10
143.8205390346284
 20
150.3202577987201
 30
0.0
 10
143.7192824687765
 20
150.5074411947301
 30
0.0
  0
LINE
  5
BF
330
1F
100
AcDbEntity
  8
0
  6
Continuous
 62
     7
370
    25
100
AcDbLine
 10
144.0502641481
 20
108.5012919936
 30
0.0
 11
144.0502641481
 21
149.8966926444
 31
0.0
  0
SPLINE
  5
C0
330
1F
100
AcDbEntity
  8
0
  6
Continuous
 62
     7
370
    25
100
AcDbSpline
210
0.0
220
0.0
230
1.0
 70
     8
 71
     3
 72
    26
 73
    22
 74
     0
 42
0.000000001
 43
0.00000001
 40
0.0
 40
0.0
 40
0.0
 40
0.0
 40
0.1250000000000014
 40
0.1250000000000014
 40
0.2500000000000027
 40
0.2500000000000027
 40
0.3125000000000025
 40
0.3125000000000025
 40
0.3750000000000023
 40
0.3750000000000023
 40
0.4375000000000021
 40
0.4375000000000021
 40
0.5000000000000018
 40
0.5000000000000018
 40
0.5625000000000016
 40
0.5625000000000016
 40
0.6250000000000013
 40
0.6250000000000013
 40
0.7500000000000006
 40
0.7500000000000006
 40
1.0
 40
1.0
 40
1.0
 40
1.0
 10
144.0502642762298
 20
104.6993393437594
 30
0.0
 10
143.958359365547
 20
104.7243870360958
 30
0.0
 10
143.870662589322
 20
104.7623946300101
 30
0.0
 10
143.7064563185547
 20
104.8733908811029
 30
0.0
 10
143.629185900288
 20
104.9473243924164
 30
0.0
 10
143.5294197939629
 20
105.0926225277468
 30
0.0
 10
143.4988068650605
 20
105.1467643417384
 30
0.0
 10
143.4439379911575
 20
105.2688285810065
 30
0.0
 10
143.4195527702286
 20
105.3374005625907
 30
0.0
 10
143.3798733937302
 20
105.4869847326249
 30
0.0
 10
143.3644073144928
 20
105.5681437377976
 30
0.0
 10
143.3433109794104
 20
105.7447997448891
 30
0.0
 10
143.3377979132503
 20
105.8410438516109
 30
0.0
 10
143.337730955628
 20
106.0402737939719
 30
0.0
 10
143.3429992629775
 20
106.1441217421954
 30
0.0
 10
143.3638417901456
 20
106.3600419383483
 30
0.0
 10
143.3795159033558
 20
106.4720110924425
 30
0.0
 10
143.4388348335334
 20
106.8066373085874
 30
0.0
 10
143.4958546690474
 20
107.0346920169564
 30
0.0
 10
143.6946895576912
 20
107.6930749610255
 30
0.0
 10
143.8659597629234
 20
108.1115999494843
 30
0.0
 10
144.0502642762297
 20
108.5012919670834
 30
0.0
  0
LINE
  5
C1
330
1F
100
AcDbEntity
  8
0
  6
Continuous
 62
     7
370
    25
100
AcDbLine
 10
144.0502641481
 20
92.0848456878
 30
0.0
 11
144.0502641481
 21
104.6993398774
 31
0.0
  0
LINE
  5
C2
330
1F
100
AcDbEntity
  8
0
  6
Continuous
 62
     7
370
    25
100
AcDbLine
 10
136.0252642762
 20
89.7574407715
 30
0.0
 11
136.0252642762
 21
152.3074416179
 31
0.0
  0
SPLINE
  5
C3
330
1F
100
AcDbEntity
  8
0
  6
Continuous
 62
     7
370
    25
100
AcDbSpline
210
0.0
220
0.0
230
1.0
 70
     8
 71
     3
 72
     8
 73
     4
 74
     0
 42
0.000000001
 43
0.00000001
 40
0.0
 40
0.0
 40
0.0
 40
0.0
 40
1.0
 40
1.0
 40
1.0
 40
1.0
 10
148.2281079915657
 20
150.5074411947301
 30
0.0
 10
148.0865699032839
 20
150.2549771946747
 30
0.0
 10
147.943959434547
 20
150.0014335055322
 30
0.0
 10
147.80026427623
 20
149.7468973158107
 30
0.0
  0
SPLINE
  5
C4
330
1F
100
AcDbEntity
  8
0
  6
Continuous
 62
     7
370
    25
100
AcDbSpline
210
0.0
220
0.0
230
1.0
 70
     8
 71
     3
 72
     8
 73
     4
 74
     0
 42
0.000000001
 43
0.00000001
 40
0.0
 40
0.0
 40
0.0
 40
0.0
 40
1.0
 40
1.0
 40
1.0
 40
1.0
 10
149.2594620807994
 20
152.1253083465216
 30
0.0
 10
148.9110606761191
 20
151.5833196008706
 30
0.0
 10
148.5664922908862
 20
151.0431004138771
 30
0.0
 10
148.2281079915654
 20
150.5074411947297
 30
0.0
  0
SPLINE
  5
C5
330
1F
100
AcDbEntity
  8
0
  6
Continuous
 62
     7
370
    25
100
AcDbSpline
210
0.0
220
0.0
230
1.0
 70
     8
 71
     3
 72
    10
 73
     6
 74
     0
 42
0.000000001
 43
0.00000001
 40
0.0
 40
0.0
 40
0.0
 40
0.0
 40
0.5
 40
0.5
 40
1.0
 40
1.0
 40
1.0
 40
1.0
 10
147.8002642762297
 20
109.8505022450425
 30
0.0
 10
148.0514571661012
 20
109.585010096487
 30
0.0
 10
148.2987264778031
 20
109.2993237734445
 30
0.0
 10
148.7853478291139
 20
108.6834510915542
 30
0.0
 10
149.0247311368306
 20
108.3535133643136
 30
0.0
 10
149.2594620807997
 20
107.9946971894183
 30
0.0
  0
LINE
  5
C6
330
1F
100
AcDbEntity
  8
0
  6
Continuous
 62
     7
370
    25
100
AcDbLine
 10
147.8002642971
 20
109.8505018014
 30
0.0
 11
147.8002642971
 21
149.7468968589
 31
0.0
  0
LINE
  5
C7
330
1F
100
AcDbEntity
  8
0
  6
Continuous
 62
     7
370
    25
100
AcDbLine
 10
168.0252657961
 20
92.8324406702
 30
0.0
 11
168.0252657961
 21
149.2324417193
 31
0.0
  0
SPLINE
  5
C8
330
1F
100
AcDbEntity
  8
0
  6
Continuous
 62
     7
370
    25
100
AcDbSpline
210
0.0
220
0.0
230
1.0
 70
     8
 71
     3
 72
    10
 73
     6
 74
     0
 42
0.000000001
 43
0.00000001
 40
0.0
 40
0.0
 40
0.0
 40
0.0
 40
0.5
 40
0.5
 40
1.0
 40
1.0
 40
1.0
 40
1.0
 10
149.2594620807997
 20
102.7416448765687
 30
0.0
 10
149.0247311368306
 20
102.8076605336234
 30
0.0
 10
148.7853478291139
 20
102.9090684747078
 30
0.0
 10
148.2987264778031
 20
103.1653142687863
 30
0.0
 10
148.0514571661012
 20
103.3204625504771
 30
0.0
 10
147.8002642762297
 20
103.4999240233371
 30
0.0
  0
LINE
  5
C9
330
1F
100
AcDbEntity
  8
0
  6
Continuous
 62
     7
370
    25
100
AcDbLine
 10
147.8002642971
 20
103.4999249239
 30
0.0
 11
147.8002642971
 21
103.5491192449
 31
0.0
  0
SPLINE
  5
CA
330
1F
100
AcDbEntity
  8
0
  6
Continuous
 62
     7
370
    25
100
AcDbSpline
210
0.0
220
0.0
230
1.0
 70
     8
 71
     3
 72
    14
 73
    10
 74
     0
 42
0.000000001
 43
0.00000001
 40
0.0
 40
0.0
 40
0.0
 40
0.0
 40
0.25
 40
0.25
 40
0.5
 40
0.5
 40
0.75
 40
0.75
 40
1.0
 40
1.0
 40
1.0
 40
1.0
 10
147.8002642762299
 20
103.5491192111331
 30
0.0
 10
147.8002642762299
 20
103.6150364908422
 30
0.0
 10
147.7743348379639
 20
103.6764259496365
 30
0.0
 10
147.6748925806876
 20
103.7838520119259
 30
0.0
 10
147.6026101949668
 20
103.8293931860244
 30
0.0
 10
147.4178728582022
 20
103.9060301099042
 30
0.0
 10
147.3083262218802
 20
103.9359556637294
 30
0.0
 10
147.0649649768769
 20
103.981597851156
 30
0.0
 10
146.9334538694311
 20
103.9968771017775
 30
0.0
 10
146.8002642762297
 20
104.0047235854774
 30
0.0
  0
SPLINE
  5
CB
330
1F
100
AcDbEntity
  8
0
  6
Continuous
 62
     7
370
    25
100
AcDbSpline
210
0.0
220
0.0
230
1.0
 70
     8
 71
     3
 72
    10
 73
     6
 74
     0
 42
0.000000001
 43
0.00000001
 40
0.0
 40
0.0
 40
0.0
 40
0.0
 40
0.5
 40
0.5
 40
1.0
 40
1.0
 40
1.0
 40
1.0
 10
146.8002642762297
 20
104.0047235854773
 30
0.0
 10
146.4878003739416
 20
104.0231315020207
 30
0.0
 10
146.1849113919438
 20
104.0720043189446
 30
0.0
 10
145.5975682071398
 20
104.229306576285
 30
0.0
 10
145.3131005465678
 20
104.3386787915635
 30
0.0
 10
145.0502642762297
 20
104.4757923117509
 30
0.0
  0
SPLINE
  5
CC
330
1F
100
AcDbEntity
  8
0
  6
Continuous
 62
     7
370
    25
100
AcDbSpline
210
0.0
220
0.0
230
1.0
 70
     8
 71
     3
 72
    14
 73
    10
 74
     0
 42
0.000000001
 43
0.00000001
 40
0.0
 40
0.0
 40
0.0
 40
0.0
 40
0.25
 40
0.25
 40
0.5
 40
0.5
 40
0.75
 40
0.75
 40
1.0
 40
1.0
 40
1.0
 40
1.0
 10
145.0502642762297
 20
104.4757923117509
 30
0.0
 10
144.9159135276886
 20
104.5458789251723
 30
0.0
 10
144.7927346248952
 20
104.6070742324679
 30
0.0
 10
144.5639842040058
 20
104.7167166057944
 30
0.0
 10
144.4620611120127
 20
104.7634244051825
 30
0.0
 10
144.2826360476674
 20
104.8343899180315
 30
0.0
 10
144.206194798763
 20
104.8589023964241
 30
0.0
 10
144.0889068243013
 20
104.8573866888983
 30
0.0
 10
144.0502642762297
 20
104.8287796456898
 30
0.0
 10
144.0502642762297
 20
104.7482783554762
 30
0.0
  0
LINE
  5
CD
330
1F
100
AcDbEntity
  8
0
  6
Continuous
 62
     7
370
    25
100
AcDbLine
 10
144.0502641481
 20
104.7482790161
 30
0.0
 11
144.0502641481
 21
104.6993398774
 31
0.0
  0
SPLINE
  5
CE
330
1F
100
AcDbEntity
  8
0
  6
Continuous
 62
     7
370
    25
100
AcDbSpline
210
0.0
220
0.0
230
1.0
 70
     8
 71
     3
 72
    16
 73
    12
 74
     0
 42
0.000000001
 43
0.00000001
 40
0.0
 40
0.0
 40
0.0
 40
0.0
 40
0.1250000000000001
 40
0.1250000000000001
 40
0.2500000000000003
 40
0.2500000000000003
 40
0.5000000000000002
 40
0.5000000000000002
 40
0.7500000000000001
 40
0.7500000000000001
 40
1.0
 40
1.0
 40
1.0
 40
1.0
 10
144.0502642762297
 20
108.5502309788001
 30
0.0
 10
144.0502642762297
 20
108.590260028954
 30
0.0
 10
144.0600368398694
 20
108.6417466840065
 30
0.0
 10
144.0942328852698
 20
108.7558109309125
 30
0.0
 10
144.1184180769807
 20
108.8181554683806
 30
0.0
 10
144.206134741077
 20
109.0106817647357
 30
0.0
 10
144.2828449069264
 20
109.1429429723242
 30
0.0
 10
144.4619270071673
 20
109.3968919119905
 30
0.0
 10
144.5628097767872
 20
109.516863974272
 30
0.0
 10
144.7916212750501
 20
109.7387443318408
 30
0.0
 10
144.9159188834851
 20
109.8369107045873
 30
0.0
 10
145.0502642762297
 20
109.9168256465137
 30
0.0
  0
SPLINE
  5
CF
330
1F
100
AcDbEntity
  8
0
  6
Continuous
 62
     7
370
    25
100
AcDbSpline
210
0.0
220
0.0
230
1.0
 70
     8
 71
     3
 72
    10
 73
     6
 74
     0
 42
0.000000001
 43
0.00000001
 40
0.0
 40
0.0
 40
0.0
 40
0.0
 40
0.5
 40
0.5
 40
1.0
 40
1.0
 40
1.0
 40
1.0
 10
145.0502642762297
 20
109.9168256465137
 30
0.0
 10
145.3130837905855
 20
110.0731630228672
 30
0.0
 10
145.5914366551931
 20
110.1970816949344
 30
0.0
 10
146.1784332425786
 20
110.3805243045361
 30
0.0
 10
146.4878169324569
 20
110.4391962841288
 30
0.0
 10
146.8002642762297
 20
110.4607164409566
 30
0.0
  0
SPLINE
  5
D0
330
1F
100
AcDbEntity
  8
0
  6
Continuous
 62
     7
370
    25
100
AcDbSpline
210
0.0
220
0.0
230
1.0
 70
     8
 71
     3
 72
    14
 73
    10
 74
     0
 42
0.000000001
 43
0.00000001
 40
0.0
 40
0.0
 40
0.0
 40
0.0
 40
0.25
 40
0.25
 40
0.5
 40
0.5
 40
0.75
 40
0.75
 40
1.0
 40
1.0
 40
1.0
 40
1.0
 10
146.8002642762297
 20
110.4607164409566
 30
0.0
 10
146.9334937272531
 20
110.4698927669432
 30
0.0
 10
147.0651950898632
 20
110.4585006349768
 30
0.0
 10
147.3082727480803
 20
110.4003399753171
 30
0.0
 10
147.419178688629
 20
110.3535638534176
 30
0.0
 10
147.6018757617066
 20
110.2406047266865
 30
0.0
 10
147.6752632911883
 20
110.1736510207457
 30
0.0
 10
147.7740975701065
 20
110.036619171951
 30
0.0
 10
147.8002642762297
 20
109.9658351968277
 30
0.0
 10
147.8002642762297
 20
109.8996974328398
 30
0.0
  0
ARC
  5
D1
330
1F
100
AcDbEntity
  8
0
  6
Continuous
 62
     7
370
    25
100
AcDbCircle
 10
147.0864348082
 20
112.7148159918
 30
0.0
 40
4.206659150049769
100
AcDbArc
 50
269.8478523343
 51
292.0664486149
  0
ARC
  5
D2
330
1F
100
AcDbEntity
  8
0
  6
Continuous
 62
     7
370
    25
100
AcDbCircle
 10
147.0365791632
 20
112.5629082601
 30
0.0
 40
4.054921123014978
100
AcDbArc
 50
231.1270520729
 51
270.5466244545
  0
SPLINE
  5
D3
330
1F
100
AcDbEntity
  8
0
  6
Continuous
 62
     7
370
    25
100
AcDbSpline
210
0.0
220
0.0
230
1.0
 70
     8
 71
     3
 72
    14
 73
    10
 74
     0
 42
0.000000001
 43
0.00000001
 40
0.0
 40
0.0
 40
0.0
 40
0.0
 40
0.25
 40
0.25
 40
0.5
 40
0.5
 40
0.75
 40
0.75
 40
1.0
 40
1.0
 40
1.0
 40
1.0
 10
147.8002642762299
 20
149.6485069402176
 30
0.0
 10
147.80026427623
 20
149.5166677632487
 30
0.0
 10
147.7743477536589
 20
149.3846188262601
 30
0.0
 10
147.6749029070814
 20
149.1393525345469
 30
0.0
 10
147.6026045146691
 20
149.0277321179591
 30
0.0
 10
147.4179006201452
 20
148.8369928287635
 30
0.0
 10
147.3083233582693
 20
148.7610319619165
 30
0.0
 10
147.0649931800511
 20
148.6571896377471
 30
0.0
 10
146.933456921131
 20
148.6305564303138
 30
0.0
 10
146.8002642762297
 20
148.6318835577559
 30
0.0
  0
SPLINE
  5
D4
330
1F
100
AcDbEntity
  8
0
  6
Continuous
 62
     7
370
    25
100
AcDbSpline
210
0.0
220
0.0
230
1.0
 70
     8
 71
     3
 72
    14
 73
    10
 74
     0
 42
0.000000001
 43
0.00000001
 40
0.0
 40
0.0
 40
0.0
 40
0.0
 40
0.25
 40
0.25
 40
0.5
 40
0.5
 40
0.75
 40
0.75
 40
1.0
 40
1.0
 40
1.0
 40
1.0
 10
145.0502642762297
 20
148.7047056259255
 30
0.0
 10
144.9159161898733
 20
148.7145369454963
 30
0.0
 10
144.7927395160173
 20
148.7505763588864
 30
0.0
 10
144.5639929110993
 20
148.8624480552057
 30
0.0
 10
144.4620709471321
 20
148.936802844296
 30
0.0
 10
144.2826475447034
 20
149.1202793111478
 30
0.0
 10
144.2062062565206
 20
149.2275448320078
 30
0.0
 10
144.0889162836705
 20
149.4865713218262
 30
0.0
 10
144.0502642762297
 20
149.6378160268024
 30
0.0
 10
144.0502642762297
 20
149.7988142499138
 30
0.0
  0
SPLINE
  5
D5
330
1F
100
AcDbEntity
  8
0
  6
Continuous
 62
     7
370
    25
100
AcDbSpline
210
0.0
220
0.0
230
1.0
 70
     8
 71
     3
 72
    10
 73
     6
 74
     0
 42
0.000000001
 43
0.00000001
 40
0.0
 40
0.0
 40
0.0
 40
0.0
 40
0.5
 40
0.5
 40
1.0
 40
1.0
 40
1.0
 40
1.0
 10
146.8002642762297
 20
148.6318835577562
 30
0.0
 10
146.4878003739416
 20
148.6349969385267
 30
0.0
 10
146.1849113919438
 20
148.6433129204332
 30
0.0
 10
145.5975682071398
 20
148.6684882142891
 30
0.0
 10
145.3131005465679
 20
148.6854718025151
 30
0.0
 10
145.0502642762297
 20
148.7047056259255
 30
0.0
  0
LINE
  5
D6
330
1F
100
AcDbEntity
  8
0
  6
Continuous
 62
     7
370
    25
100
AcDbLine
 10
147.8002642971
 20
92.0848456878
 30
0.0
 11
147.8002642971
 21
103.4999249239
 31
0.0
  0
LINE
  5
D7
330
1F
100
AcDbEntity
  8
0
  6
Continuous
 62
     7
370
    25
100
AcDbLine
 10
134.8650822174
 20
96.0907024998
 30
0.0
 11
134.8650822174
 21
145.9741798896
 31
0.0
  0
LINE
  5
D8
330
1F
100
AcDbEntity
  8
0
  6
Continuous
 62
     7
370
    25
100
AcDbLine
 10
118.9202064407
 20
97.2911046553
 30
0.0
 11
118.9202064407
 21
96.8914219845
 31
0.0
  0
SPLINE
  5
D9
330
1F
100
AcDbEntity
  8
0
  6
Continuous
 62
     7
370
    25
100
AcDbSpline
210
0.0
220
0.0
230
1.0
 70
     8
 71
     3
 72
    26
 73
    22
 74
     0
 42
0.000000001
 43
0.00000001
 40
0.0
 40
0.0
 40
0.0
 40
0.0
 40
0.0241259796962598
 40
0.0482159912271152
 40
0.0723203915121662
 40
0.0964895678708055
 40
0.1207736231960662
 40
0.1452220711240098
 40
0.1698835501655305
 40
0.1948055644470524
 40
0.2200342569516537
 40
0.2456142191611247
 40
0.3690971486898494
 40
0.4940698769485197
 40
0.61925667847697
 40
0.7454656653603504
 40
0.7971495824718304
 40
0.8481710308412217
 40
0.8988013269242071
 40
0.9493179290496759
 40
1.0
 40
1.0
 40
1.0
 40
1.0
 10
113.9803221230283
 20
99.11302828081001
 30
0.0
 10
114.0455711815776
 20
99.10920765132919
 30
0.0
 10
114.1759720222562
 20
99.10157208834482
 30
0.0
 10
114.3709518405518
 20
99.08565183798306
 30
0.0
 10
114.565080977815
 20
99.06649363683219
 30
0.0
 10
114.7583423179089
 20
99.04379922309484
 30
0.0
 10
114.9507374963831
 20
99.01768685650703
 30
0.0
 10
115.1422630748842
 20
98.98817505005236
 30
0.0
 10
115.3329186072699
 20
98.95532068945761
 30
0.0
 10
115.5226986063687
 20
98.91918438001714
 30
0.0
 10
115.7116172270252
 20
98.87983008717109
 30
0.0
 10
116.138361640196
 20
98.78343132431493
 30
0.0
 10
116.7728339673772
 20
98.60679524544416
 30
0.0
 10
117.5125098197237
 20
98.3286760119098
 30
0.0
 10
118.119257062561
 20
98.03733065218552
 30
0.0
 10
118.4800488787789
 20
97.8098534621662
 30
0.0
 10
118.682222934541
 20
97.6504422250731
 30
0.0
 10
118.7890463905263
 20
97.54914308036416
 30
0.0
 10
118.8646571068247
 20
97.45520974063352
 30
0.0
 10
118.911819779516
 20
97.36809009662524
 30
0.0
 10
118.9174078338043
 20
97.31679496636258
 30
0.0
 10
118.9202064294312
 20
97.29110546518275
 30
0.0
  0
LINE
  5
DA
330
1F
100
AcDbEntity
  8
0
  6
Continuous
 62
     7
370
    25
100
AcDbLine
 10
112.0654487741
 20
99.2185381908
 30
0.0
 11
113.9803224933
 21
99.1130286563
 31
0.0
  0
SPLINE
  5
DB
330
1F
100
AcDbEntity
  8
0
  6
Continuous
 62
     7
370
    25
100
AcDbSpline
210
0.0
220
0.0
230
1.0
 70
     8
 71
     3
 72
    14
 73
    10
 74
     0
 42
0.000000001
 43
0.00000001
 40
0.0
 40
0.0
 40
0.0
 40
0.0
 40
0.078926196316659
 40
0.1582328720536178
 40
0.3308475394596652
 40
0.5000195457656534
 40
0.6670357883622096
 40
0.833239519369157
 40
1.0
 40
1.0
 40
1.0
 40
1.0
 10
109.8692366176643
 20
99.11254528558544
 30
0.0
 10
109.9226321407071
 20
99.12057437877739
 30
0.0
 10
110.0296805905269
 20
99.13667127100126
 30
0.0
 10
110.2587513050933
 20
99.1664726846196
 30
0.0
 10
110.5576240432959
 20
99.19826664781208
 30
0.0
 10
110.9297671181003
 20
99.22442363780767
 30
0.0
 10
111.3053969171315
 20
99.23688885204237
 30
0.0
 10
111.6845892291572
 20
99.23650969236897
 30
0.0
 10
111.938354198701
 20
99.22453590410774
 30
0.0
 10
112.0654488437388
 20
99.21853899928847
 30
0.0
  0
SPLINE
  5
DC
330
1F
100
AcDbEntity
  8
0
  6
Continuous
 62
     7
370
    25
100
AcDbSpline
210
0.0
220
0.0
230
1.0
 70
     8
 71
     3
 72
     8
 73
     4
 74
     0
 42
0.000000001
 43
0.00000001
 40
0.0
 40
0.0
 40
0.0
 40
0.0
 40
1.0
 40
1.0
 40
1.0
 40
1.0
 10
104.4769428940221
 20
99.40715466803367
 30
0.0
 10
106.2742795793939
 20
99.30901883797634
 30
0.0
 10
108.0716162647658
 20
99.21079996293481
 30
0.0
 10
109.8689529501376
 20
99.11250127388432
 30
0.0
  0
SPLINE
  5
DD
330
1F
100
AcDbEntity
  8
0
  6
Continuous
 62
     7
370
    25
100
AcDbSpline
210
0.0
220
0.0
230
1.0
 70
     8
 71
     3
 72
    13
 73
     9
 74
     0
 42
0.000000001
 43
0.00000001
 40
0.0
 40
0.0
 40
0.0
 40
0.0
 40
0.1667030582308044
 40
0.3329480818053134
 40
0.4990671507274983
 40
0.6653938523718556
 40
0.8322612710550201
 40
1.0
 40
1.0
 40
1.0
 40
1.0
 10
103.3934387291767
 20
99.52382173237554
 30
0.0
 10
103.454545771928
 20
99.52013510470181
 30
0.0
 10
103.5765919592313
 20
99.51277197876203
 30
0.0
 10
103.7589269044949
 20
99.49773747117302
 30
0.0
 10
103.9402311173686
 20
99.47983586294004
 30
0.0
 10
104.1204299774053
 20
99.45873528609411
 30
0.0
 10
104.2997339555436
 20
99.43478891505991
 30
0.0
 10
104.417765981115
 20
99.41637609984721
 30
0.0
 10
104.4769356708667
 20
99.40714571886956
 30
0.0
  0
SPLINE
  5
DE
330
1F
100
AcDbEntity
  8
0
  6
Continuous
 62
     7
370
    25
100
AcDbSpline
210
0.0
220
0.0
230
1.0
 70
     8
 71
     3
 72
     8
 73
     4
 74
     0
 42
0.000000001
 43
0.00000001
 40
0.0
 40
0.0
 40
0.0
 40
0.0
 40
1.0
 40
1.0
 40
1.0
 40
1.0
 10
97.57526427624249
 20
99.84358896446918
 30
0.0
 10
99.51465576055391
 20
99.73710331458587
 30
0.0
 10
101.4540472448653
 20
99.63051274335449
 30
0.0
 10
103.3934387291767
 20
99.52382173237554
 30
0.0
  0
LINE
  5
DF
330
1F
100
AcDbEntity
  8
0
  6
Continuous
 62
     7
370
    25
100
AcDbLine
 10
97.5752653312
 20
99.8435897488
 30
0.0
 11
97.5752653312
 21
142.221380185
 31
0.0
  0
SPLINE
  5
E0
330
1F
100
AcDbEntity
  8
0
  6
Continuous
 62
     7
370
    25
100
AcDbSpline
210
0.0
220
0.0
230
1.0
 70
     8
 71
     3
 72
     8
 73
     4
 74
     0
 42
0.000000001
 43
0.00000001
 40
0.0
 40
0.0
 40
0.0
 40
0.0
 40
1.0
 40
1.0
 40
1.0
 40
1.0
 10
103.3934387291767
 20
142.5410606570847
 30
0.0
 10
101.4540472448653
 20
142.4343696461058
 30
0.0
 10
99.51465576055391
 20
142.3277790748744
 30
0.0
 10
97.5752642762425
 20
142.2212934249911
 30
0.0
  0
SPLINE
  5
E1
330
1F
100
AcDbEntity
  8
0
  6
Continuous
 62
     7
370
    25
100
AcDbSpline
210
0.0
220
0.0
230
1.0
 70
     8
 71
     3
 72
    13
 73
     9
 74
     0
 42
0.000000001
 43
0.00000001
 40
0.0
 40
0.0
 40
0.0
 40
0.0
 40
0.1686319999748096
 40
0.3360343310905499
 40
0.5025367825908726
 40
0.6684737453788339
 40
0.8341822636915153
 40
1.0
 40
1.0
 40
1.0
 40
1.0
 10
104.4769337786437
 20
142.6577394328267
 30
0.0
 10
104.417443882584
 20
142.6484649426304
 30
0.0
 10
104.2988978923089
 20
142.6299835920575
 30
0.0
 10
104.119021196723
 20
142.6059528453233
 30
0.0
 10
103.938630909095
 20
142.5848217378142
 30
0.0
 10
103.7575187370612
 20
142.5669430392282
 30
0.0
 10
103.5757578998937
 20
142.5519812780511
 30
0.0
 10
103.4542251319991
 20
142.5447016634722
 30
0.0
 10
103.3934387291767
 20
142.5410606570847
 30
0.0
  0
SPLINE
  5
E2
330
1F
100
AcDbEntity
  8
0
  6
Continuous
 62
     7
370
    25
100
AcDbSpline
210
0.0
220
0.0
230
1.0
 70
     8
 71
     3
 72
     8
 73
     4
 74
     0
 42
0.000000001
 43
0.00000001
 40
0.0
 40
0.0
 40
0.0
 40
0.0
 40
1.0
 40
1.0
 40
1.0
 40
1.0
 10
109.8691271951378
 20
142.9523906567718
 30
0.0
 10
108.0717325236996
 20
142.8540887975552
 30
0.0
 10
106.2743378522613
 20
142.7558667573965
 30
0.0
 10
104.4769431808231
 20
142.657727767581
 30
0.0
  0
SPLINE
  5
E3
330
1F
100
AcDbEntity
  8
0
  6
Continuous
 62
     7
370
    25
100
AcDbSpline
210
0.0
220
0.0
230
1.0
 70
     8
 71
     3
 72
    18
 73
    14
 74
     0
 42
0.000000001
 43
0.00000001
 40
0.0
 40
0.0
 40
0.0
 40
0.0
 40
0.0923325137116434
 40
0.1843692047072183
 40
0.2763458873822689
 40
0.3684982175668856
 40
0.4610598988317042
 40
0.5542609546545366
 40
0.6483261285452273
 40
0.7434734636512035
 40
0.8399130993122093
 40
0.9201660718301385
 40
1.0
 40
1.0
 40
1.0
 40
1.0
 10
112.0654488437388
 20
142.8463433901718
 30
0.0
 10
111.9951185402254
 20
142.8426720828668
 30
0.0
 10
111.8546832633728
 20
142.8353412307017
 30
0.0
 10
111.6443207368693
 20
142.8297505714571
 30
0.0
 10
111.4348770739524
 20
142.8281459813234
 30
0.0
 10
111.2263274035796
 20
142.8308782553218
 30
0.0
 10
111.0186837863043
 20
142.8378013529099
 30
0.0
 10
110.811945598765
 20
142.8488839632028
 30
0.0
 10
110.6061235068007
 20
142.8640529040573
 30
0.0
 10
110.4011918280094
 20
142.8832068900182
 30
0.0
 10
110.2097110826145
 20
142.9049095840699
 30
0.0
 10
110.0319879305606
 20
142.9279391073339
 30
0.0
 10
109.9236539359968
 20
142.9442025249761
 30
0.0
 10
109.8696287265437
 20
142.9523129481917
 30
0.0
  0
LINE
  5
E4
330
1F
100
AcDbEntity
  8
0
  6
Continuous
 62
     7
370
    25
100
AcDbLine
 10
113.9803224933
 20
142.9518537331
 30
0.0
 11
112.0654487741
 21
142.8463441987
 31
0.0
  0
SPLINE
  5
E5
330
1F
100
AcDbEntity
  8
0
  6
Continuous
 62
     7
370
    25
100
AcDbSpline
210
0.0
220
0.0
230
1.0
 70
     8
 71
     3
 72
    25
 73
    21
 74
     0
 42
0.000000001
 43
0.00000001
 40
0.0
 40
0.0
 40
0.0
 40
0.0
 40
0.0280105225422755
 40
0.0559601148854263
 40
0.0839014045034761
 40
0.11188707767771
 40
0.1399695827579659
 40
0.1682008401731492
 40
0.1966319670417615
 40
0.2253130233137498
 40
0.2542927850735331
 40
0.379948643656268
 40
0.5057850221666358
 40
0.6313085886312407
 40
0.7532068238011801
 40
0.8039473267948986
 40
0.8535894438544271
 40
0.9025339722383898
 40
0.9511970353784284
 40
1.0
 40
1.0
 40
1.0
 40
1.0
 10
118.9202064294312
 20
144.7737769242775
 30
0.0
 10
118.920243651165
 20
144.7598187844558
 30
0.0
 10
118.9203180136656
 20
144.7319328674105
 30
0.0
 10
118.9079019630191
 20
144.6868890725252
 30
0.0
 10
118.8862974026653
 20
144.6396218483305
 30
0.0
 10
118.8546119330052
 20
144.5899226673547
 30
0.0
 10
118.8130857946853
 20
144.5378854183822
 30
0.0
 10
118.7616550389554
 20
144.4835226557464
 30
0.0
 10
118.7003411642442
 20
144.426871373081
 30
0.0
 10
118.6291308287447
 20
144.3679538114153
 30
0.0
 10
118.4582942215438
 20
144.2391372355924
 30
0.0
 10
118.1205619881075
 20
144.0289338514487
 30
0.0
 10
117.5090073239128
 20
143.7380083298582
 30
0.0
 10
116.7727724887608
 20
143.4594815136363
 30
0.0
 10
116.0862864171154
 20
143.2651848079021
 30
0.0
 10
115.5375822709658
 20
143.1445939954473
 30
0.0
 10
115.1555460924634
 20
143.0748168296849
 30
0.0
 10
114.7683799937589
 20
143.0190278258292
 30
0.0
 10
114.3761533249696
 20
142.9762976410858
 30
0.0
 10
114.1123920568517
 20
142.9600097459404
 30
0.0
 10
113.9803221230283
 20
142.9518541086502
 30
0.0
  0
LINE
  5
E6
330
1F
100
AcDbEntity
  8
0
  6
Continuous
 62
     7
370
    25
100
AcDbLine
 10
118.9202064407
 20
145.1734604049
 30
0.0
 11
118.9202064407
 21
144.7737777341
 31
0.0
  0
SPLINE
  5
E7
330
1F
100
AcDbEntity
  8
0
  6
Continuous
 62
     7
370
    25
100
AcDbSpline
210
0.0
220
0.0
230
1.0
 70
    11
 71
     3
 72
    39
 73
    35
 74
     0
 42
0.000000001
 43
0.00000001
 40
0.0
 40
0.0
 40
0.0
 40
0.0
 40
0.0310664058347798
 40
0.0621048158425991
 40
0.0931361551792733
 40
0.1235538293503577
 40
0.1538561545807598
 40
0.1850588072749104
 40
0.2160250992947717
 40
0.247186722379756
 40
0.2784462884306427
 40
0.3100516090231226
 40
0.3419834369140484
 40
0.3734259894013217
 40
0.4048604886785525
 40
0.4368740651833295
 40
0.468512068592407
 40
0.4998055358633177
 40
0.5309508213228404
 40
0.561864978443814
 40
0.5930416446592908
 40
0.6233742450133256
 40
0.6540913579073041
 40
0.6849496782718417
 40
0.7158160645167227
 40
0.7471731804043494
 40
0.7784514311866261
 40
0.8101295911560916
 40
0.8419598919689909
 40
0.8735175891922292
 40
0.9050808037889628
 40
0.9370235169792575
 40
0.9687441590033682
 40
0.9999999999999999
 40
0.9999999999999999
 40
0.9999999999999999
 40
0.9999999999999999
 10
107.9376803709567
 20
126.8406943243249
 30
0.0
 10
108.3018095319214
 20
127.2201179822327
 30
0.0
 10
109.1045938686383
 20
127.9075996831262
 30
0.0
 10
110.4996323540204
 20
128.6735136575448
 30
0.0
 10
112.0108741937437
 20
129.1623945909756
 30
0.0
 10
113.5824706002661
 20
129.3243724646092
 30
0.0
 10
115.1500152173247
 20
129.1629275736508
 30
0.0
 10
116.6456872114334
 20
128.6832031864068
 30
0.0
 10
118.026103473469
 20
127.9299037182132
 30
0.0
 10
119.2231495270536
 20
126.9174178445528
 30
0.0
 10
120.212057306795
 20
125.6828690571869
 30
0.0
 10
120.9515521010976
 20
124.2579174289049
 30
0.0
 10
121.427856023987
 20
122.7069869493626
 30
0.0
 10
121.595522196443
 20
121.0860580821365
 30
0.0
 10
121.4502445956554
 20
119.4610491362151
 30
0.0
 10
120.9912698850236
 20
117.9020231559435
 30
0.0
 10
120.2672839991704
 20
116.4653665572678
 30
0.0
 10
119.2914697438476
 20
115.2186223424673
 30
0.0
 10
118.1071451961986
 20
114.1924251532703
 30
0.0
 10
116.738938940469
 20
113.4220209335495
 30
0.0
 10
115.2512011033368
 20
112.9231717230729
 30
0.0
 10
113.6815512428842
 20
112.7419676431771
 30
0.0
 10
112.1052967245551
 20
112.8783907850955
 30
0.0
 10
110.5860212160802
 20
113.3428225179021
 30
0.0
 10
109.1850031820323
 20
114.0972565922713
 30
0.0
 10
107.9668666851332
 20
115.1206663278058
 30
0.0
 10
106.9592557820046
 20
116.367608589299
 30
0.0
 10
106.2137818714546
 20
117.800697995567
 30
0.0
 10
105.7379460588308
 20
119.3573602207886
 30
0.0
 10
105.574134943843
 20
120.9810231944942
 30
0.0
 10
105.7199470871084
 20
122.6085722384857
 30
0.0
 10
106.1800913992854
 20
124.1733199268213
 30
0.0
 10
106.9095514641067
 20
125.6173459962837
 30
0.0
 10
107.5713308415687
 20
126.4589570359821
 30
0.0
 10
107.9376803709567
 20
126.8406943243249
 30
0.0
  0
SPLINE
  5
E8
330
1F
100
AcDbEntity
  8
0
  6
Continuous
 62
     7
370
    25
100
AcDbSpline
210
0.0
220
0.0
230
1.0
 70
    11
 71
     3
 72
    47
 73
    43
 74
     0
 42
0.000000001
 43
0.00000001
 40
0.0
 40
0.0
 40
0.0
 40
0.0
 40
0.0185565231571564
 40
0.035175779134607
 40
0.0498587703163977
 40
0.0626072874024163
 40
0.0953681049684394
 40
0.1250235944851125
 40
0.1545621306648851
 40
0.187325415667866
 40
0.214037648789779
 40
0.2498478283714602
 40
0.2676842772503708
 40
0.2839032654384537
 40
0.2985082395935219
 40
0.311504112535417
 40
0.3429211892384783
 40
0.3729479206117491
 40
0.4028496296254227
 40
0.4364008870238722
 40
0.4619504140689453
 40
0.4999311490763327
 40
0.5173446591947486
 40
0.5335937024374298
 40
0.5486836298429361
 40
0.5626211828729782
 40
0.5950895091111661
 40
0.6250625446193601
 40
0.6549914305494098
 40
0.6874537010179621
 40
0.7162620319992257
 40
0.7500327075718594
 40
0.7698580256218077
 40
0.7869169820502812
 40
0.8012094712348541
 40
0.8127363282889571
 40
0.8457518306190162
 40
0.8751838152098743
 40
0.9050548231038161
 40
0.9375234850660229
 40
0.9660340097891252
 40
1.0
 40
1.0
 40
1.0
 40
1.0
 10
108.481493291331
 20
126.1416603185213
 30
0.0
 10
108.2833946637201
 20
125.9422750294088
 30
0.0
 10
107.9304486837291
 20
125.5429460013065
 30
0.0
 10
107.4945416878329
 20
124.9242917067315
 30
0.0
 10
107.1646049508253
 20
124.3419311359807
 30
0.0
 10
106.7833892188335
 20
123.5094028309928
 30
0.0
 10
106.4569834002925
 20
122.4001167278274
 30
0.0
 10
106.3326303414629
 20
120.9889393992026
 30
0.0
 10
106.4739997093694
 20
119.5794494000324
 30
0.0
 10
106.8754974635983
 20
118.2713818013111
 30
0.0
 10
107.5524468540946
 20
116.9867185003987
 30
0.0
 10
108.3256292117824
 20
116.0332307184874
 30
0.0
 10
109.1208909127465
 20
115.3339267509564
 30
0.0
 10
109.725031030509
 20
114.9074277110378
 30
0.0
 10
110.3047462251333
 20
114.5772761829286
 30
0.0
 10
111.1225474925703
 20
114.2013155408398
 30
0.0
 10
112.2222099219316
 20
113.8723137066155
 30
0.0
 10
113.6245776505917
 20
113.7387356901115
 30
0.0
 10
115.052050333996
 20
113.8747355691191
 30
0.0
 10
116.3492273177514
 20
114.2692237189625
 30
0.0
 10
117.6436303409085
 20
114.941017525912
 30
0.0
 10
118.5956270213694
 20
115.703571515865
 30
0.0
 10
119.3050997499887
 20
116.5056106357932
 30
0.0
 10
119.730704529928
 20
117.1014062407799
 30
0.0
 10
120.071367157846
 20
117.6926758610794
 30
0.0
 10
120.461032544716
 20
118.5372386921238
 30
0.0
 10
120.7927445062729
 20
119.6608905969902
 30
0.0
 10
120.9189856677707
 20
121.0787827571429
 30
0.0
 10
120.7746575565006
 20
122.4946079487148
 30
0.0
 10
120.3623792074321
 20
123.8297659240718
 30
0.0
 10
119.6830630264503
 20
125.0987342576546
 30
0.0
 10
118.8967126682145
 20
126.0590567498948
 30
0.0
 10
118.1028649944936
 20
126.7544643567612
 30
0.0
 10
117.4731407724555
 20
127.1905382327861
 30
0.0
 10
116.9119048530898
 20
127.5033873812575
 30
0.0
 10
116.108296393537
 20
127.8705893820345
 30
0.0
 10
115.0281479990455
 20
128.1932993199603
 30
0.0
 10
113.61861967897
 20
128.3252435524732
 30
0.0
 10
112.2094147521361
 20
128.1914335314528
 30
0.0
 10
110.8687019023141
 20
127.7866795393479
 30
0.0
 10
109.5844334371329
 20
127.1084241908185
 30
0.0
 10
108.8440944095057
 20
126.506616550938
 30
0.0
 10
108.481493291331
 20
126.1416603185214
 30
0.0
  0
SPLINE
  5
E9
330
1F
100
AcDbEntity
  8
0
  6
Continuous
 62
     7
370
    25
100
AcDbSpline
210
0.0
220
0.0
230
1.0
 70
     8
 71
     3
 72
     8
 73
     4
 74
     0
 42
0.000000001
 43
0.00000001
 40
0.0
 40
0.0
 40
0.0
 40
0.0
 40
1.0
 40
1.0
 40
1.0
 40
1.0
 10
96.66160445465056
 20
100.2541609754696
 30
0.0
 10
96.96615772835997
 20
100.1164842350943
 30
0.0
 10
97.27071100206938
 20
99.97962151418034
 30
0.0
 10
97.57526427577879
 20
99.84358896484919
 30
0.0
  0
SPLINE
  5
EA
330
1F
100
AcDbEntity
  8
0
  6
Continuous
 62
     7
370
    25
100
AcDbSpline
210
0.0
220
0.0
230
1.0
 70
     8
 71
     3
 72
     8
 73
     4
 74
     0
 42
0.000000001
 43
0.00000001
 40
0.0
 40
0.0
 40
0.0
 40
0.0
 40
1.0
 40
1.0
 40
1.0
 40
1.0
 10
96.07526427622976
 20
100.7702154579858
 30
0.0
 10
96.26981140876248
 20
100.596808589666
 30
0.0
 10
96.46527242900152
 20
100.4248124946993
 30
0.0
 10
96.66160445465869
 20
100.2541609754674
 30
0.0
  0
LINE
  5
EB
330
1F
100
AcDbEntity
  8
0
  6
Continuous
 62
     7
370
    25
100
AcDbLine
 10
96.0752660167
 20
100.7702147324
 30
0.0
 11
96.0752660167
 21
141.2946676571
 31
0.0
  0
SPLINE
  5
EC
330
1F
100
AcDbEntity
  8
0
  6
Continuous
 62
     7
370
    25
100
AcDbSpline
210
0.0
220
0.0
230
1.0
 70
     8
 71
     3
 72
     8
 73
     4
 74
     0
 42
0.000000001
 43
0.00000001
 40
0.0
 40
0.0
 40
0.0
 40
0.0
 40
1.0
 40
1.0
 40
1.0
 40
1.0
 10
96.66160445466221
 20
141.8107214139959
 30
0.0
 10
96.46527242900385
 20
141.6400698947631
 30
0.0
 10
96.26981140876364
 20
141.4680737997953
 30
0.0
 10
96.07526427622976
 20
141.2946669314745
 30
0.0
  0
SPLINE
  5
ED
330
1F
100
AcDbEntity
  8
0
  6
Continuous
 62
     7
370
    25
100
AcDbSpline
210
0.0
220
0.0
230
1.0
 70
     8
 71
     3
 72
     8
 73
     4
 74
     0
 42
0.000000001
 43
0.00000001
 40
0.0
 40
0.0
 40
0.0
 40
0.0
 40
1.0
 40
1.0
 40
1.0
 40
1.0
 10
97.57526427577882
 20
142.2212934246111
 30
0.0
 10
97.27071100207328
 20
142.0852608752816
 30
0.0
 10
96.96615772836775
 20
141.9483981543694
 30
0.0
 10
96.66160445466221
 20
141.8107214139959
 30
0.0
  0
SPLINE
  5
EE
330
1F
100
AcDbEntity
  8
0
  6
Continuous
 62
     7
370
    25
100
AcDbSpline
210
0.0
220
0.0
230
1.0
 70
     8
 71
     3
 72
     9
 73
     5
 74
     0
 42
0.000000001
 43
0.00000001
 40
0.0
 40
0.0
 40
0.0
 40
0.0
 40
0.8959546455136717
 40
0.9999999999999999
 40
0.9999999999999999
 40
0.9999999999999999
 40
0.9999999999999999
 10
111.7000089716548
 20
114.0427423376611
 30
0.0
 10
111.8040413835548
 20
114.0156434914321
 30
0.0
 10
111.9201548636521
 20
113.9853977124022
 30
0.0
 10
111.8708188525115
 20
113.9979686356189
 30
0.0
 10
111.8656856697434
 20
113.9992765817812
 30
0.0
  0
LINE
  5
EF
330
1F
100
AcDbEntity
  8
0
  6
Continuous
 62
     7
370
    25
100
AcDbLine
 10
189.0252636504
 20
108.3324413482
 30
0.0
 11
189.0252636504
 21
133.7324410412
 31
0.0
  0
LINE
  5
F0
330
1F
100
AcDbEntity
  8
0
  6
Continuous
 62
     7
370
    25
100
AcDbLine
 10
170.525263412
 20
107.5324408446
 30
0.0
 11
170.525263412
 21
134.5324415449
 31
0.0
  0
LINE
  5
F1
330
1F
100
AcDbEntity
  8
0
  6
Continuous
 62
     7
370
    25
100
AcDbLine
 10
118.9202064407
 20
144.7737777341
 30
0.0
 11
118.2743957024
 21
144.1386585791
 31
0.0
  0
LINE
  5
F2
330
1F
100
AcDbEntity
  8
0
  6
Continuous
 62
     7
370
    25
100
AcDbLine
 10
118.9202064407
 20
97.2911046553
 30
0.0
 11
118.2768953722
 21
97.9237669814
 31
0.0
  0
LINE
  5
F3
330
1F
100
AcDbEntity
  8
0
  6
Continuous
 62
     7
370
    25
100
AcDbLine
 10
118.0252650511
 20
97.7863633741
 30
0.0
 11
118.0252650511
 21
98.1712305654
 31
0.0
  0
LINE
  5
F4
330
1F
100
AcDbEntity
  8
0
  6
Continuous
 62
     7
370
    25
100
AcDbLine
 10
118.0252650511
 20
143.8936518241
 30
0.0
 11
118.0252650511
 21
144.2785190154
 31
0.0
  0
SPLINE
  5
F5
330
1F
100
AcDbEntity
  8
0
  6
Continuous
 62
     7
370
    25
100
AcDbSpline
210
0.0
220
0.0
230
1.0
 70
     8
 71
     3
 72
     9
 73
     5
 74
     0
 42
0.000000001
 43
0.00000001
 40
0.0
 40
0.0
 40
0.0
 40
0.0
 40
0.7785869072975132
 40
1.0
 40
1.0
 40
1.0
 40
1.0
 10
108.6710275840396
 20
126.2955839481226
 30
0.0
 10
108.5186331033956
 20
126.1677598831709
 30
0.0
 10
108.3229009645481
 20
126.0035854490087
 30
0.0
 10
108.1673823691539
 20
125.7938258553503
 30
0.0
 10
108.1329485159749
 20
125.7473823349944
 30
0.0
  0
SPLINE
  5
F6
330
1F
100
AcDbEntity
  8
0
  6
Continuous
 62
     7
370
    25
100
AcDbSpline
210
0.0
220
0.0
230
1.0
 70
     8
 71
     3
 72
     9
 73
     5
 74
     0
 42
0.000000001
 43
0.00000001
 40
0.0
 40
0.0
 40
0.0
 40
0.0
 40
0.4260717682333453
 40
1.0
 40
1.0
 40
1.0
 40
1.0
 10
110.9882587325209
 20
114.2868363965324
 30
0.0
 10
111.1276962420179
 20
114.2326537847262
 30
0.0
 10
111.454959205427
 20
114.1054859790983
 30
0.0
 10
111.6130913698148
 20
114.0660775383946
 30
0.0
 10
111.7038478833073
 20
114.0434599217049
 30
0.0
  0
LINE
  5
F7
330
1F
100
AcDbEntity
  8
0
  6
HIDDEN
 62
     7
370
    18
100
AcDbLine
 10
192.0252660048
 20
112.0324415822
 30
0.0
 11
192.0252660048
 21
130.0324408073
 31
0.0
  0
LINE
  5
F8
330
1F
100
AcDbEntity
  8
0
  6
HIDDEN
 62
     7
370
    18
100
AcDbLine
 10
204.0252679717
 20
129.4324408952
 30
0.0
 11
204.0252679717
 21
112.6324414942
 31
0.0
  0
LINE
  5
F9
330
1F
100
AcDbEntity
  8
0
  6
HIDDEN
 62
     7
370
    18
100
AcDbLine
 10
192.0252660048
 20
114.4324412305
 30
0.0
 11
192.0252660048
 21
127.61483404
 31
0.0
  0
LINE
  5
FA
330
1F
100
AcDbEntity
  8
0
  6
HIDDEN
 62
     7
370
    18
100
AcDbLine
 10
162.9892637711
 20
115.0324411426
 30
0.0
 11
162.9892637711
 21
127.0324412469
 31
0.0
  0
LINE
  5
FB
330
1F
100
AcDbEntity
  8
0
  6
HIDDEN
 62
     7
370
    18
100
AcDbLine
 10
162.0252648127
 20
115.9964410324
 30
0.0
 11
162.0252648127
 21
126.0684413571
 31
0.0
  0
LINE
  5
FC
330
1F
100
AcDbEntity
  8
0
  6
HIDDEN
 62
     7
370
    18
100
AcDbLine
 10
204.0252679717
 20
121.0324411947
 30
0.0
 11
204.0252679717
 21
115.9749409851
 31
0.0
  0
LINE
  5
FD
330
1F
100
AcDbEntity
  8
0
  6
HIDDEN
 62
     7
370
    18
100
AcDbLine
 10
198.025263263
 20
121.0324411947
 30
0.0
 11
198.025263263
 21
118.5036910899
 31
0.0
  0
LINE
  5
FE
330
1F
100
AcDbEntity
  8
0
  6
HIDDEN
 62
     7
370
    18
100
AcDbLine
 10
198.025263263
 20
121.0324411947
 30
0.0
 11
198.025263263
 21
123.5611912996
 31
0.0
  0
LINE
  5
FF
330
1F
100
AcDbEntity
  8
0
  6
HIDDEN
 62
     7
370
    18
100
AcDbLine
 10
198.025263263
 20
121.0324411947
 30
0.0
 11
204.0252679717
 21
121.0324411947
 31
0.0
  0
LINE
  5
100
330
1F
100
AcDbEntity
  8
0
  6
HIDDEN
 62
     7
370
    18
100
AcDbLine
 10
204.0252679717
 20
121.0324411947
 30
0.0
 11
204.0252679717
 21
126.0899414044
 31
0.0
  0
LINE
  5
101
330
1F
100
AcDbEntity
  8
0
  6
HIDDEN
 62
     7
370
    18
100
AcDbLine
 10
198.025263263
 20
123.5611912996
 30
0.0
 11
198.025263263
 21
126.0899414044
 31
0.0
  0
LINE
  5
102
330
1F
100
AcDbEntity
  8
0
  6
HIDDEN
 62
     7
370
    18
100
AcDbLine
 10
198.025263263
 20
118.5036910899
 30
0.0
 11
198.025263263
 21
123.5611912996
 31
0.0
  0
LINE
  5
103
330
1F
100
AcDbEntity
  8
0
  6
HIDDEN
 62
     7
370
    18
100
AcDbLine
 10
198.025263263
 20
115.9749409851
 30
0.0
 11
198.025263263
 21
118.5036910899
 31
0.0
  0
LINE
  5
104
330
1F
100
AcDbEntity
  8
0
  6
HIDDEN
 62
     7
370
    18
100
AcDbLine
 10
198.025263263
 20
118.5036910899
 30
0.0
 11
198.025263263
 21
115.9749409851
 31
0.0
  0
LINE
  5
105
330
1F
100
AcDbEntity
  8
0
  6
HIDDEN
 62
     7
370
    18
100
AcDbLine
 10
198.025263263
 20
126.0899414044
 30
0.0
 11
198.025263263
 21
123.5611912996
 31
0.0
  0
LINE
  5
106
330
1F
100
AcDbEntity
  8
0
  6
HIDDEN
 62
     7
370
    18
100
AcDbLine
 10
198.025263263
 20
123.5611912996
 30
0.0
 11
198.025263263
 21
118.5036910899
 31
0.0
  0
LINE
  5
107
330
1F
100
AcDbEntity
  8
0
  6
HIDDEN
 62
     7
370
    18
100
AcDbLine
 10
198.025263263
 20
118.5036910899
 30
0.0
 11
198.025263263
 21
115.9749409851
 31
0.0
  0
LINE
  5
108
330
1F
100
AcDbEntity
  8
0
  6
HIDDEN
 62
     7
370
    18
100
AcDbLine
 10
198.025263263
 20
123.5611912996
 30
0.0
 11
198.025263263
 21
126.0899414044
 31
0.0
  0
LINE
  5
109
330
1F
100
AcDbEntity
  8
0
  6
HIDDEN
 62
     7
370
    18
100
AcDbLine
 10
198.025263263
 20
115.9749409851
 30
0.0
 11
204.0252679717
 21
115.9749409851
 31
0.0
  0
LINE
  5
10A
330
1F
100
AcDbEntity
  8
0
  6
HIDDEN
 62
     7
370
    18
100
AcDbLine
 10
198.025263263
 20
126.0899414044
 30
0.0
 11
204.0252679717
 21
126.0899414044
 31
0.0
  0
LINE
  5
10B
330
1F
100
AcDbEntity
  8
0
  6
HIDDEN
 62
     7
370
    18
100
AcDbLine
 10
189.0252636504
 20
127.0324412469
 30
0.0
 11
162.9892637711
 21
127.0324412469
 31
0.0
  0
LINE
  5
10C
330
1F
100
AcDbEntity
  8
0
  6
HIDDEN
 62
     7
370
    18
100
AcDbLine
 10
162.9892637711
 20
115.0324411426
 30
0.0
 11
189.0252636504
 21
115.0324411426
 31
0.0
  0
LINE
  5
10D
330
1F
100
AcDbEntity
  8
0
  6
HIDDEN
 62
     7
370
    18
100
AcDbLine
 10
162.9892637711
 20
127.0324412469
 30
0.0
 11
162.0252648127
 21
126.0684413571
 31
0.0
  0
LINE
  5
10E
330
1F
100
AcDbEntity
  8
0
  6
HIDDEN
 62
     7
370
    18
100
AcDbLine
 10
162.0252648127
 20
115.9964410324
 30
0.0
 11
162.9892637711
 21
115.0324411426
 31
0.0
  0
LINE
  5
10F
330
1F
100
AcDbEntity
  8
0
  6
HIDDEN
 62
     7
370
    18
100
AcDbLine
 10
198.025263263
 20
126.0899414044
 30
0.0
 11
195.1053136718
 21
121.0324411947
 31
0.0
  0
LINE
  5
110
330
1F
100
AcDbEntity
  8
0
  6
HIDDEN
 62
     7
370
    18
100
AcDbLine
 10
195.1053136718
 20
121.0324411947
 30
0.0
 11
198.025263263
 21
115.9749409851
 31
0.0
  0
DIMENSION
  5
111
330
1F
100
AcDbEntity
  8
VERMASSUNG
100
AcDbDimension
  2
_D
 10
215.6417188817
 20
115.9749411947
 30
0.0
 11
215.6417188817
 21
121.0324411947
 31
0.0
 70
   160
  1
<>
 71
     2
 42
-1.0
  3
SLDDIMSTYLE0
100
AcDbAlignedDimension
 13
204.0252642762
 23
126.0899411947
 33
0.0
 14
204.0252642762
 24
115.9749411947
 34
0.0
 50
90.0
100
AcDbRotatedDimension
  0
DIMENSION
  5
11C
330
1F
100
AcDbEntity
  8
VERMASSUNG
100
AcDbDimension
  2
_D_1
 10
226.0252642762
 20
107.5324411947
 30
0.0
 11
226.0252642762
 21
121.0324411947
 31
0.0
 70
   160
  1
%%c<>
 71
     2
 42
-1.0
  3
SLDDIMSTYLE1
100
AcDbAlignedDimension
 13
188.2252642762
 23
134.5324411947
 33
0.0
 14
188.2252642762
 24
107.5324411947
 34
0.0
 50
90.0
100
AcDbRotatedDimension
  0
DIMENSION
  5
128
330
1F
100
AcDbEntity
  8
VERMASSUNG
100
AcDbDimension
  2
_D_2
 10
236.9764218174
 20
92.0324411947
 30
0.0
 11
236.9764218174
 21
121.0324411947
 31
0.0
 70
   160
  1
%%c<>
 71
     2
 42
-1.0
  3
SLDDIMSTYLE1
100
AcDbAlignedDimension
 13
167.2252642762
 23
150.0324411947
 33
0.0
 14
167.2252642762
 24
92.0324411947
 34
0.0
 50
90.0
100
AcDbRotatedDimension
  0
DIMENSION
  5
133
330
1F
100
AcDbEntity
  8
VERMASSUNG
100
AcDbDimension
  2
_D_3
 10
189.0252642762
 20
176.4283756517
 30
0.0
 11
142.5502642762
 21
176.4283756517
 31
0.0
 70
   160
  1
<>
 71
     2
 42
-1.0
  3
SLDDIMSTYLE1
100
AcDbAlignedDimension
 13
96.0752642762
 23
141.2946669315
 33
0.0
 14
189.0252642762
 24
133.7324411947
 34
0.0
100
AcDbRotatedDimension
  0
DIMENSION
  5
13D
330
1F
100
AcDbEntity
  8
VERMASSUNG
100
AcDbDimension
  2
_D_4
 10
168.0252642762
 20
167.3250938257
 30
0.0
 11
152.0252642762
 21
167.3250938257
 31
0.0
 70
   160
  1
<>
 71
     2
 42
-1.0
  3
SLDDIMSTYLE1
100
AcDbAlignedDimension
 13
136.0252642762
 23
152.3074411947
 33
0.0
 14
168.0252642762
 24
149.2324411947
 34
0.0
100
AcDbRotatedDimension
  0
DIMENSION
  5
147
330
1F
100
AcDbEntity
  8
VERMASSUNG
100
AcDbDimension
  2
_D_5
 10
168.0252642762
 20
159.9922877203
 30
0.0
 11
161.0252642762
 21
159.9922877203
 31
0.0
 70
   160
  1
<>
 71
     2
 42
-1.0
  3
SLDDIMSTYLE1
100
AcDbAlignedDimension
 13
154.0252642762
 23
152.5074411947
 33
0.0
 14
168.0252642762
 24
149.2324411947
 34
0.0
100
AcDbRotatedDimension
  0
DIMENSION
  5
151
330
1F
100
AcDbEntity
  8
VERMASSUNG
100
AcDbDimension
  2
_D_6
 10
189.0252642762
 20
159.9922877203
 30
0.0
 11
178.5252642762
 21
159.9922877203
 31
0.0
 70
   160
  1
<>
 71
     2
 42
-1.0
  3
SLDDIMSTYLE1
100
AcDbAlignedDimension
 13
168.0252642762
 23
149.2324411947
 33
0.0
 14
189.0252642762
 24
133.7324411947
 34
0.0
100
AcDbRotatedDimension
  0
DIMENSION
  5
15B
330
1F
100
AcDbEntity
  8
VERMASSUNG
100
AcDbDimension
  2
_D_7
 10
86.0752392762
 20
152.5074411947
 30
0.0
 11
86.0752392762
 21
121.0324411947
 31
0.0
 70
   160
  1
KM%%c<> XMZ
 71
     2
 42
-1.0
  3
SLDDIMSTYLE2
100
AcDbAlignedDimension
 13
136.2252642762
 23
89.5574411947
 33
0.0
 14
136.2252642762
 24
152.5074411947
 34
0.0
 50
90.0
100
AcDbRotatedDimension
  0
LINE
  5
169
330
1F
100
AcDbEntity
  8
VERMASSUNG
  6
CENTERX2
370
    18
100
AcDbLine
 10
205.4252642762
 20
121.0324411947
 30
0.0
 11
94.0752642762
 21
121.0324411947
 31
0.0
  0
SPLINE
  5
16A
330
1F
100
AcDbEntity
  8
0
  6
Continuous
 62
     7
370
    25
100
AcDbSpline
210
0.0
220
0.0
230
1.0
 70
     8
 71
     3
 72
    19
 73
    15
 74
     0
 42
0.000000001
 43
0.00000001
 40
0.0
 40
0.0
 40
0.0
 40
0.0
 40
0.0661996688460166
 40
0.1565211133660752
 40
0.2467875682953147
 40
0.3371350364112979
 40
0.4276816608381767
 40
0.5185876977032505
 40
0.6099809485592538
 40
0.7018344287506428
 40
0.793373241199209
 40
0.8830415313856882
 40
0.9696060257759037
 40
0.9999999999999999
 40
0.9999999999999999
 40
0.9999999999999999
 40
0.9999999999999999
 10
261.3502013996775
 20
40.62555630006001
 30
0.0
 10
261.4355279882216
 20
40.71874096326084
 30
0.0
 10
261.6372723907459
 20
40.93906483326031
 30
0.0
 10
261.9137952745731
 20
41.34505254758064
 30
0.0
 10
262.1738938951437
 20
41.81683330012097
 30
0.0
 10
262.3772281373992
 20
42.30898511109622
 30
0.0
 10
262.5184811482183
 20
42.80428214449379
 30
0.0
 10
262.5919444156501
 20
43.28877724982046
 30
0.0
 10
262.5936453269888
 20
43.7483906273245
 30
0.0
 10
262.5201924044803
 20
44.16813958434784
 30
0.0
 10
262.3715634051808
 20
44.53457660151857
 30
0.0
 10
262.1480942185061
 20
44.82297782463059
 30
0.0
 10
261.931377996299
 20
45.00145470396711
 30
0.0
 10
261.7825191128242
 20
45.04953878988216
 30
0.0
 10
261.7438351840676
 20
45.06203439182708
 30
0.0
  0
LINE
  5
16B
330
1F
100
AcDbEntity
  8
0
  6
Continuous
 62
     7
370
    25
100
AcDbLine
 10
261.8950666376
 20
45.0005246694
 30
0.0
 11
259.8444578214
 21
46.1843159413
 31
0.0
  0
SPLINE
  5
16C
330
1F
100
AcDbEntity
  8
0
  6
Continuous
 62
     7
370
    25
100
AcDbSpline
210
0.0
220
0.0
230
1.0
 70
     8
 71
     3
 72
    13
 73
     9
 74
     0
 42
0.000000001
 43
0.00000001
 40
0.0
 40
0.0
 40
0.0
 40
0.0
 40
0.0937905345988694
 40
0.3006369926086327
 40
0.5100177521821624
 40
0.7255917300685394
 40
0.9386896955605554
 40
1.0
 40
1.0
 40
1.0
 40
1.0
 10
243.4310025057592
 20
30.78925703850941
 30
0.0
 10
243.4755610006198
 20
30.76527488485255
 30
0.0
 10
243.6183891862929
 20
30.68840228163608
 30
0.0
 10
243.9023445299053
 20
30.65153751756345
 30
0.0
 10
244.2640631006271
 20
30.67514739763331
 30
0.0
 10
244.6408566635669
 20
30.78909170162565
 30
0.0
 10
244.9305867264762
 20
30.93414703326178
 30
0.0
 10
245.0901652734694
 20
31.03746001669672
 30
0.0
 10
245.1258194806134
 20
31.0605429597455
 30
0.0
  0
SPLINE
  5
16D
330
1F
100
AcDbEntity
  8
0
  6
Continuous
 62
     7
370
    25
100
AcDbSpline
210
0.0
220
0.0
230
1.0
 70
     8
 71
     3
 72
    21
 73
    17
 74
     0
 42
0.000000001
 43
0.00000001
 40
0.0
 40
0.0
 40
0.0
 40
0.0
 40
0.0413352965800222
 40
0.1192952732817432
 40
0.1971024632033513
 40
0.2747623922486368
 40
0.352375040299426
 40
0.4300573448793782
 40
0.5079108874754544
 40
0.5860734590579085
 40
0.6646549455964565
 40
0.7436321646051711
 40
0.8223387644806424
 40
0.8994371002136093
 40
0.9738667390209493
 40
1.0
 40
1.0
 40
1.0
 40
1.0
 10
245.1258194806134
 20
31.06054295974551
 30
0.0
 10
245.1941938669312
 20
31.10841264001071
 30
0.0
 10
245.39152500463
 20
31.24656639870192
 30
0.0
 10
245.7059184883764
 20
31.53039955937346
 30
0.0
 10
246.0512354601946
 20
31.92290413735506
 30
0.0
 10
246.3581063964658
 20
32.36341487441779
 30
0.0
 10
246.6173677719175
 20
32.83665205966081
 30
0.0
 10
246.820926590826
 20
33.32841319130316
 30
0.0
 10
246.9621192570606
 20
33.82381526246395
 30
0.0
 10
247.0355986956212
 20
34.30828199152949
 30
0.0
 10
247.03729557823
 20
34.76790333965956
 30
0.0
 10
246.9638424757863
 20
35.18764909281282
 30
0.0
 10
246.8152144693907
 20
35.55408784676008
 30
0.0
 10
246.5917450621064
 20
35.84248854531172
 30
0.0
 10
246.3750288984484
 20
36.02096552968278
 30
0.0
 10
246.2261700118306
 20
36.06904960995937
 30
0.0
 10
246.1874860822572
 20
36.08154521043902
 30
0.0
  0
LINE
  5
16E
330
1F
100
AcDbEntity
  8
0
  6
Continuous
 62
     7
370
    25
100
AcDbLine
 10
241.288352875
 20
32.007533739
 30
0.0
 11
243.3389616911
 21
30.8237424671
 31
0.0
  0
LINE
  5
16F
330
1F
100
AcDbEntity
  8
0
  6
Continuous
 62
     7
370
    25
100
AcDbLine
 10
246.3387175358
 20
36.0200354881
 30
0.0
 11
244.2881087196
 21
37.2038267599
 31
0.0
  0
SPLINE
  5
170
330
1F
100
AcDbEntity
  8
0
  6
Continuous
 62
     7
370
    25
100
AcDbSpline
210
0.0
220
0.0
230
1.0
 70
     8
 71
     3
 72
    24
 73
    20
 74
     0
 42
0.000000001
 43
0.00000001
 40
0.0
 40
0.0
 40
0.0
 40
0.0
 40
0.0464734961485154
 40
0.1063729695029516
 40
0.1668271333550057
 40
0.2284989263783071
 40
0.2913565998731097
 40
0.3549394866361702
 40
0.4187821229671728
 40
0.4825737449932489
 40
0.5462570760930501
 40
0.6098453207865442
 40
0.6733802087956913
 40
0.7369138014123019
 40
0.8004911485115489
 40
0.8641627296220726
 40
0.9279861995081389
 40
0.9886190500497964
 40
1.0
 40
1.0
 40
1.0
 40
1.0
 10
260.8614775749657
 20
27.96680986060101
 30
0.0
 10
260.954051847586
 20
27.91793114563071
 30
0.0
 10
261.1659446702548
 20
27.80605288193683
 30
0.0
 10
261.5454921263811
 20
27.73379509405736
 30
0.0
 10
261.9786153581136
 20
27.73338685719115
 30
0.0
 10
262.4355400735224
 20
27.82315019175783
 30
0.0
 10
262.9073974235364
 20
27.99925458551802
 30
0.0
 10
263.384808547415
 20
28.26002545182754
 30
0.0
 10
263.856233583683
 20
28.59922972122192
 30
0.0
 10
264.3108207436005
 20
29.00856175228179
 30
0.0
 10
264.7388076386374
 20
29.47833293005572
 30
0.0
 10
265.131555584421
 20
29.99823245039581
 30
0.0
 10
265.4811483668091
 20
30.55723576366026
 30
0.0
 10
265.780456205264
 20
31.1437024590374
 30
0.0
 10
266.0231471106421
 20
31.74554715062537
 30
0.0
 10
266.2040598670293
 20
32.35064234206514
 30
0.0
 10
266.3162692315498
 20
32.93600055464577
 30
0.0
 10
266.3502770719273
 20
33.34390182122664
 30
0.0
 10
266.3518030143065
 20
33.55224371998831
 30
0.0
 10
266.3520441718864
 20
33.58516975230631
 30
0.0
  0
SPLINE
  5
171
330
1F
100
AcDbEntity
  8
0
  6
Continuous
 62
     7
370
    25
100
AcDbSpline
210
0.0
220
0.0
230
1.0
 70
     8
 71
     3
 72
    13
 73
     9
 74
     0
 42
0.000000001
 43
0.00000001
 40
0.0
 40
0.0
 40
0.0
 40
0.0
 40
0.1030512637681574
 40
0.2983763866312705
 40
0.4936932399129533
 40
0.6871235524789512
 40
0.8767291487929176
 40
1.0
 40
1.0
 40
1.0
 40
1.0
 10
266.3520441718864
 20
33.58516975230631
 30
0.0
 10
266.3500167663224
 20
33.68195166696909
 30
0.0
 10
266.3441465816756
 20
33.96217567327828
 30
0.0
 10
266.278253229054
 20
34.395508690456
 30
0.0
 10
266.1305162395271
 20
34.85991278257866
 30
0.0
 10
265.9076783848736
 20
35.2555358381998
 30
0.0
 10
265.6579408112343
 20
35.55083614085418
 30
0.0
 10
265.4618452604229
 20
35.67454317785758
 30
0.0
 10
265.3845851609237
 20
35.72328277418239
 30
0.0
  0
LINE
  5
172
330
1F
100
AcDbEntity
  8
0
  6
Continuous
 62
     7
370
    25
100
AcDbLine
 10
265.3320124004
 20
35.7679331146
 30
0.0
 11
261.3015040089
 21
38.0946960824
 31
0.0
  0
LINE
  5
173
330
1F
100
AcDbEntity
  8
0
  6
Continuous
 62
     7
370
    25
100
AcDbLine
 10
256.8018695834
 20
30.3002561708
 30
0.0
 11
260.8323779749
 21
27.973493203
 31
0.0
  0
LINE
  5
174
330
1F
100
AcDbEntity
  8
0
  6
Continuous
 62
     7
370
    25
100
AcDbLine
 10
258.8743771448
 20
37.7638426044
 30
0.0
 11
258.6664720094
 21
37.8838636843
 31
0.0
  0
LINE
  5
175
330
1F
100
AcDbEntity
  8
0
  6
Continuous
 62
     7
370
    25
100
AcDbLine
 10
255.6605992741
 20
32.691101489
 30
0.0
 11
255.8746209709
 21
32.5675493933
 31
0.0
  0
SPLINE
  5
176
330
1F
100
AcDbEntity
  8
0
  6
Continuous
 62
     7
370
    25
100
AcDbSpline
210
0.0
220
0.0
230
1.0
 70
     8
 71
     3
 72
    19
 73
    15
 74
     0
 42
0.000000001
 43
0.00000001
 40
0.0
 40
0.0
 40
0.0
 40
0.0
 40
0.0350392345092005
 40
0.1260202180928647
 40
0.2175073753360859
 40
0.3095053996736258
 40
0.4019349978369135
 40
0.4946780919209479
 40
0.5876166274569092
 40
0.6806543874282743
 40
0.7737196922618477
 40
0.8667638362172206
 40
0.9597685320306425
 40
1.0
 40
1.0
 40
1.0
 40
1.0
 10
244.6839025299871
 20
26.10410504054841
 30
0.0
 10
244.7744344349744
 20
26.08385840307209
 30
0.0
 10
245.1000365941161
 20
26.01104044040389
 30
0.0
 10
245.6966167044341
 20
25.97743009326583
 30
0.0
 10
246.4679208968107
 20
26.00262315066511
 30
0.0
 10
247.2673497352216
 20
26.12210885808803
 30
0.0
 10
248.0867847914114
 20
26.32826044196982
 30
0.0
 10
248.9212660957035
 20
26.6218182009207
 30
0.0
 10
249.764692072258
 20
27.00013026562457
 30
0.0
 10
250.6110773311269
 20
27.46089631520183
 30
0.0
 10
251.4549994217419
 20
27.99939854427432
 30
0.0
 10
252.2892116636102
 20
28.61650738193284
 30
0.0
 10
252.9582730629981
 20
29.16277638172675
 30
0.0
 10
253.3398021033191
 20
29.52498272361137
 30
0.0
 10
253.4550071116986
 20
29.6343531259714
 30
0.0
  0
SPLINE
  5
177
330
1F
100
AcDbEntity
  8
0
  6
Continuous
 62
     7
370
    25
100
AcDbSpline
210
0.0
220
0.0
230
1.0
 70
     8
 71
     3
 72
    15
 73
    11
 74
     0
 42
0.000000001
 43
0.00000001
 40
0.0
 40
0.0
 40
0.0
 40
0.0
 40
0.0536863441360504
 40
0.2097260061049349
 40
0.3657216783292334
 40
0.5215412072127352
 40
0.6770002134769404
 40
0.8318760748192147
 40
0.9859536998053561
 40
0.9999999999999999
 40
0.9999999999999999
 40
0.9999999999999999
 40
0.9999999999999999
 10
260.6261883479783
 20
45.7330325622107
 30
0.0
 10
260.6223190245094
 20
45.84307917117491
 30
0.0
 10
260.6072034905594
 20
46.27297686964678
 30
0.0
 10
260.5089167604356
 20
46.9784296383306
 30
0.0
 10
260.3313774905968
 20
47.84162732879234
 30
0.0
 10
260.0796098285437
 20
48.644752247525
 30
0.0
 10
259.7633555388659
 20
49.38819795477332
 30
0.0
 10
259.375203265549
 20
50.05492714666277
 30
0.0
 10
259.0770100153308
 20
50.49067693452456
 30
0.0
 10
258.8922376558713
 20
50.68020975027773
 30
0.0
 10
258.8768004239256
 20
50.69604470549866
 30
0.0
  0
LINE
  5
178
330
1F
100
AcDbEntity
  8
0
  6
Continuous
 62
     7
370
    25
100
AcDbLine
 10
239.0743532395
 20
28.9874414431
 30
0.0
 11
243.0341510729
 21
26.7014988115
 31
0.0
  0
LINE
  5
179
330
1F
100
AcDbEntity
  8
0
  6
Continuous
 62
     7
370
    25
100
AcDbLine
 10
257.5329725253
 20
51.8169150794
 30
0.0
 11
253.5731746918
 21
54.102857711
 31
0.0
  0
LINE
  5
17A
330
1F
100
AcDbEntity
  8
0
  6
Continuous
 62
     7
370
    25
100
AcDbLine
 10
236.0635812623
 20
29.2966191788
 30
0.0
 11
237.7485464113
 21
28.323909503
 31
0.0
  0
LINE
  5
17B
330
1F
100
AcDbEntity
  8
0
  6
Continuous
 62
     7
370
    25
100
AcDbLine
 10
253.4847677258
 20
55.5827978968
 30
0.0
 11
251.7998025768
 21
56.5555075726
 31
0.0
  0
SPLINE
  5
17C
330
1F
100
AcDbEntity
  8
0
  6
Continuous
 62
     7
370
    25
100
AcDbSpline
210
0.0
220
0.0
230
1.0
 70
     8
 71
     3
 72
    16
 73
    12
 74
     0
 42
0.000000001
 43
0.00000001
 40
0.0
 40
0.0
 40
0.0
 40
0.0
 40
0.0186011633738136
 40
0.1537214088504845
 40
0.2885420255813647
 40
0.4243034105735399
 40
0.5620232352818161
 40
0.7018869857769382
 40
0.8434089758272886
 40
0.9858701861821658
 40
1.0
 40
1.0
 40
1.0
 40
1.0
 10
254.2569078687183
 20
29.18008835683808
 30
0.0
 10
254.2750628130422
 20
29.16648986775375
 30
0.0
 10
254.4250966342063
 20
29.05411093433581
 30
0.0
 10
254.7555658080794
 20
28.92209182863022
 30
0.0
 10
255.2393609134069
 20
28.79438246183228
 30
0.0
 10
255.7597489277529
 20
28.76246029762083
 30
0.0
 10
256.3051761873721
 20
28.81695809763992
 30
0.0
 10
256.8721057489797
 20
28.95824051649606
 30
0.0
 10
257.4513171603443
 20
29.19446932727764
 30
0.0
 10
257.861471042632
 20
29.39769973130673
 30
0.0
 10
258.0729285020539
 20
29.54241632890394
 30
0.0
 10
258.0920091265521
 20
29.55547466728062
 30
0.0
  0
SPLINE
  5
17D
330
1F
100
AcDbEntity
  8
0
  6
Continuous
 62
     7
370
    25
100
AcDbSpline
210
0.0
220
0.0
230
1.0
 70
     8
 71
     3
 72
    15
 73
    11
 74
     0
 42
0.000000001
 43
0.00000001
 40
0.0
 40
0.0
 40
0.0
 40
0.0
 40
0.0979115887199344
 40
0.2389637242086536
 40
0.3800238747501478
 40
0.5205140770502746
 40
0.6596224797441104
 40
0.7965579673186889
 40
0.9311019537055973
 40
1.0
 40
1.0
 40
1.0
 40
1.0
 10
262.5873592467143
 20
37.35238753180057
 30
0.0
 10
262.5921249255691
 20
37.51177543619598
 30
0.0
 10
262.6037560754912
 20
37.90077869644421
 30
0.0
 10
262.5389321375148
 20
38.47640682637793
 30
0.0
 10
262.4036802441469
 20
39.07374457217103
 30
0.0
 10
262.1932813436122
 20
39.61141384100367
 30
0.0
 10
261.9148629115308
 20
40.08246574688611
 30
0.0
 10
261.5701803480838
 20
40.47167568703853
 30
0.0
 10
261.2406872359348
 20
40.74274448071984
 30
0.0
 10
261.0116485854525
 20
40.84889863811807
 30
0.0
 10
260.9340819423346
 20
40.88484899682405
 30
0.0
  0
LINE
  5
17E
330
1F
100
AcDbEntity
  8
0
  6
Continuous
 62
     7
370
    25
100
AcDbLine
 10
248.0755621626
 20
32.7398402281
 30
0.0
 11
254.3334577409
 21
29.1272340072
 31
0.0
  0
LINE
  5
17F
330
1F
100
AcDbEntity
  8
0
  6
Continuous
 62
     7
370
    25
100
AcDbLine
 10
261.0829093791
 20
40.8188940648
 30
0.0
 11
254.8250138009
 21
44.4315002857
 31
0.0
  0
LINE
  5
180
330
1F
100
AcDbEntity
  8
0
  6
Continuous
 62
     7
370
    25
100
AcDbLine
 10
231.4552963309
 20
31.9569254435
 30
0.0
 11
233.7059473073
 21
30.6576522906
 31
0.0
  0
LINE
  5
181
330
1F
100
AcDbEntity
  8
0
  6
Continuous
 62
     7
370
    25
100
AcDbLine
 10
249.4421686218
 20
57.9165406844
 30
0.0
 11
247.1915176454
 21
59.2158138373
 31
0.0
  0
SPLINE
  5
182
330
1F
100
AcDbEntity
  8
0
  6
Continuous
 62
     7
370
    25
100
AcDbSpline
210
0.0
220
0.0
230
1.0
 70
     8
 71
     3
 72
    26
 73
    22
 74
     0
 42
0.000000001
 43
0.00000001
 40
0.0
 40
0.0
 40
0.0
 40
0.0
 40
0.0329815991674766
 40
0.0900938324651889
 40
0.1509424026899319
 40
0.2064051466594575
 40
0.2190950586096434
 40
0.2496774931235812
 40
0.3085025007821189
 40
0.3676068009430712
 40
0.4269645711064021
 40
0.4865107239935839
 40
0.5461464574835657
 40
0.6057548782956738
 40
0.6651957875767499
 40
0.7243595288772521
 40
0.7831545913992367
 40
0.8415555570564555
 40
0.8997226861258538
 40
0.9580412105199599
 40
1.0
 40
1.0
 40
1.0
 40
1.0
 10
255.8982666699563
 20
32.31690940717412
 30
0.0
 10
255.8649489205764
 20
32.34955920518357
 30
0.0
 10
255.7739368469802
 20
32.43874667656564
 30
0.0
 10
255.6566536133057
 20
32.66930017598929
 30
0.0
 10
255.5601927386613
 20
32.99544467326817
 30
0.0
 10
255.5298052484489
 20
33.28726078759038
 30
0.0
 10
255.5260955134453
 20
33.52601747388009
 30
0.0
 10
255.535320359024
 20
33.78301994989711
 30
0.0
 10
255.5888516751768
 20
34.18223196780775
 30
0.0
 10
255.7154029162184
 20
34.6819035852121
 30
0.0
 10
255.9024990482206
 20
35.19139015519961
 30
0.0
 10
256.1453642975951
 20
35.69469912725406
 30
0.0
 10
256.4369619760075
 20
36.17608709436927
 30
0.0
 10
256.7681824846052
 20
36.62044986209338
 30
0.0
 10
257.128118868942
 20
37.01403857101151
 30
0.0
 10
257.5044622221603
 20
37.3451574090255
 30
0.0
 10
257.8836697289069
 20
37.60448914915537
 30
0.0
 10
258.2523892726533
 20
37.78702140716496
 30
0.0
 10
258.5947120344405
 20
37.88812444589841
 30
0.0
 10
258.875739478504
 20
37.91808398050338
 30
0.0
 10
259.0187031898058
 20
37.88838142820593
 30
0.0
 10
259.0785231434328
 20
37.87595306239996
 30
0.0
  0
LINE
  5
183
330
1F
100
AcDbEntity
  8
0
  6
Continuous
 62
     7
370
    25
100
AcDbLine
 10
254.1243156943
 20
44.6948062528
 30
0.0
 11
253.6241977325
 21
44.7967012647
 31
0.0
  0
LINE
  5
184
330
1F
100
AcDbEntity
  8
0
  6
Continuous
 62
     7
370
    25
100
AcDbLine
 10
247.1588003774
 20
33.5970908886
 30
0.0
 11
247.4971388136
 21
33.2149552912
 31
0.0
  0
LINE
  5
185
330
1F
100
AcDbEntity
  8
0
  6
Continuous
 62
     7
370
    25
100
AcDbLine
 10
240.4141284552
 20
58.9956957449
 30
0.0
 11
231.2169162716
 21
63.5763483548
 31
0.0
  0
LINE
  5
186
330
1F
100
AcDbEntity
  8
0
  6
Continuous
 62
     7
370
    25
100
AcDbLine
 10
219.6905684819
 20
43.6099648991
 30
0.0
 11
228.2566684876
 21
37.9360753027
 31
0.0
  0
LINE
  5
187
330
1F
100
AcDbEntity
  8
0
  6
Continuous
 62
     7
370
    25
100
AcDbLine
 10
224.6700059236
 20
44.5564547648
 30
0.0
 11
224.6700059236
 21
44.1911360598
 31
0.0
  0
LINE
  5
188
330
1F
100
AcDbEntity
  8
0
  6
Continuous
 62
     7
370
    25
100
AcDbLine
 10
228.5679726839
 20
63.9533167315
 30
0.0
 11
227.9284225752
 21
63.866104976
 31
0.0
  0
LWPOLYLINE
  5
189
330
1F
100
AcDbEntity
  8
0
  6
Continuous
 62
     7
370
    25
100
AcDbPolyline
 90
        3
 70
   128
 43
0.0
 10
261.7690785121
 20
45.0619518546
 10
261.8876501094
 20
45.0047638053
 10
261.8950666376
 20
45.0005246694
  0
LWPOLYLINE
  5
18A
330
1F
100
AcDbEntity
  8
0
  6
Continuous
 62
     7
370
    25
100
AcDbPolyline
 90
       13
 70
   128
 43
0.0
 10
256.4214666168
 20
43.5098870499
 10
256.4318544978
 20
43.5412664813
 10
256.6400243681
 20
44.0603054572
 10
256.909801077
 20
44.5622077999
 10
257.2314348733
 20
45.0288335819
 10
257.593299812
 20
45.4433174927
 10
257.9823191751
 20
45.7906798303
 10
258.3844304029
 20
46.0583647708
 10
258.7851020525
 20
46.2366984986
 10
259.1698520714
 20
46.3192353581
 10
259.524774634
 20
46.3029918376
 10
259.8370412932
 20
46.1885550772
 10
259.8444578214
 20
46.1843159413
  0
LINE
  5
18B
330
1F
100
AcDbEntity
  8
0
  6
Continuous
 62
     7
370
    25
100
AcDbLine
 10
260.6502357592
 20
41.1649819576
 30
0.0
 11
260.5698090356
 21
41.1151002869
 31
0.0
  0
LWPOLYLINE
  5
18C
330
1F
100
AcDbEntity
  8
0
  6
Continuous
 62
     7
370
    25
100
AcDbPolyline
 90
       19
 70
   128
 43
0.0
 10
259.5466607022
 20
41.7084309221
 10
259.5824690598
 20
42.0392729077
 10
259.691630056
 20
42.3990672929
 10
259.8660811303
 20
42.751538259
 10
260.092885176
 20
43.0705454188
 10
260.3552196735
 20
43.3324285956
 10
260.6336292424
 20
43.5177654914
 10
260.9074658782
 20
43.6128107758
 10
261.1564200684
 20
43.6105150575
 10
261.362027542
 20
43.511048559
 10
261.5090403594
 20
43.3217886784
 10
261.5865543407
 20
43.0567714944
 10
261.5888203923
 20
42.7356519712
 10
261.5156719026
 20
42.3822468956
 10
261.3725326439
 20
42.0227659913
 10
261.1700190125
 20
41.6838704952
 10
260.9231504328
 20
41.3906947204
 10
260.6502357592
 20
41.1649819576
 10
260.6502357592
 20
41.1649819576
  0
SPLINE
  5
18D
330
1F
100
AcDbEntity
  8
0
  6
Continuous
 62
     7
370
    25
100
AcDbSpline
210
0.0
220
0.0
230
1.0
 70
     8
 71
     3
 72
    10
 73
     6
 74
     0
 42
0.000000001
 43
0.00000001
 40
0.0
 40
0.0
 40
0.0
 40
0.0
 40
0.1951035638022303
 40
0.6997113017913027
 40
1.0
 40
1.0
 40
1.0
 40
1.0
 10
261.1435777919419
 20
41.66300680164164
 30
0.0
 10
261.0805305931148
 20
41.64606204499964
 30
0.0
 10
260.8544207430135
 20
41.58529207495165
 30
0.0
 10
260.5385191316989
 20
41.46212273780493
 30
0.0
 10
260.391640203
 20
41.30733607175652
 30
0.0
 10
260.3368429889613
 20
41.2495886593474
 30
0.0
  0
SPLINE
  5
18E
330
1F
100
AcDbEntity
  8
0
  6
Continuous
 62
     7
370
    25
100
AcDbSpline
210
0.0
220
0.0
230
1.0
 70
     8
 71
     3
 72
    10
 73
     6
 74
     0
 42
0.000000001
 43
0.00000001
 40
0.0
 40
0.0
 40
0.0
 40
0.0
 40
0.4391256583338976
 40
0.7513742679555836
 40
1.0
 40
1.0
 40
1.0
 40
1.0
 10
261.5849244430243
 20
42.98047373442191
 30
0.0
 10
261.4612027228857
 20
42.82681190951109
 30
0.0
 10
261.2495063322625
 20
42.5638859360138
 30
0.0
 10
261.1383958537449
 20
42.06817294195882
 30
0.0
 10
261.1419862378216
 20
41.78744746756306
 30
0.0
 10
261.1435777919419
 20
41.66300680164164
 30
0.0
  0
SPLINE
  5
18F
330
1F
100
AcDbEntity
  8
0
  6
Continuous
 62
     7
370
    25
100
AcDbSpline
210
0.0
220
0.0
230
1.0
 70
     8
 71
     3
 72
    10
 73
     6
 74
     0
 42
0.000000001
 43
0.00000001
 40
0.0
 40
0.0
 40
0.0
 40
0.0
 40
0.4391259517835167
 40
0.7513743767785631
 40
1.0
 40
1.0
 40
1.0
 40
1.0
 10
261.008628851366
 20
43.62049771474806
 30
0.0
 10
261.0305938913773
 20
43.56381941105377
 30
0.0
 10
261.068177569095
 20
43.46683897766741
 30
0.0
 10
261.3194346038887
 20
43.21235323019718
 30
0.0
 10
261.5033832404234
 20
43.05169202663812
 30
0.0
 10
261.5849244430243
 20
42.98047373442191
 30
0.0
  0
SPLINE
  5
190
330
1F
100
AcDbEntity
  8
0
  6
Continuous
 62
     7
370
    25
100
AcDbSpline
210
0.0
220
0.0
230
1.0
 70
     8
 71
     3
 72
     9
 73
     5
 74
     0
 42
0.000000001
 43
0.00000001
 40
0.0
 40
0.0
 40
0.0
 40
0.0
 40
0.6910331277680143
 40
0.9999999999999999
 40
0.9999999999999999
 40
0.9999999999999999
 40
0.9999999999999999
 10
260.4405532122565
 20
43.39896232486723
 30
0.0
 10
260.5620639435435
 20
43.46103302375256
 30
0.0
 10
260.7379031709326
 20
43.55085606752736
 30
0.0
 10
260.9447271067988
 20
43.60405958909697
 30
0.0
 10
261.008628851366
 20
43.62049771474806
 30
0.0
  0
SPLINE
  5
191
330
1F
100
AcDbEntity
  8
0
  6
Continuous
 62
     7
370
    25
100
AcDbSpline
210
0.0
220
0.0
230
1.0
 70
     8
 71
     3
 72
     9
 73
     5
 74
     0
 42
0.000000001
 43
0.00000001
 40
0.0
 40
0.0
 40
0.0
 40
0.0
 40
0.8744796063314776
 40
1.0
 40
1.0
 40
1.0
 40
1.0
 10
259.9929846326627
 20
42.32723009410322
 30
0.0
 10
260.0193600974136
 20
42.59450509392234
 30
0.0
 10
260.0495214237156
 20
42.90014401092394
 30
0.0
 10
260.1800243066684
 20
43.14599859891256
 30
0.0
 10
260.1964050799115
 20
43.1768583635821
 30
0.0
  0
SPLINE
  5
192
330
1F
100
AcDbEntity
  8
0
  6
Continuous
 62
     7
370
    25
100
AcDbSpline
210
0.0
220
0.0
230
1.0
 70
     8
 71
     3
 72
     9
 73
     5
 74
     0
 42
0.000000001
 43
0.00000001
 40
0.0
 40
0.0
 40
0.0
 40
0.0
 40
0.6698660834098443
 40
1.0
 40
1.0
 40
1.0
 40
1.0
 10
259.6078177550118
 20
42.13315684663748
 30
0.0
 10
259.6864941877878
 20
42.18272200104185
 30
0.0
 10
259.8039451749695
 20
42.25671463275128
 30
0.0
 10
259.9460657955592
 20
42.30972843870903
 30
0.0
 10
259.9929846326627
 20
42.32723009410322
 30
0.0
  0
LINE
  5
193
330
1F
100
AcDbEntity
  8
0
  6
Continuous
 62
     7
370
    25
100
AcDbLine
 10
260.6774632819
 20
43.5043399119
 30
0.0
 11
261.584924443
 21
42.9804737344
 31
0.0
  0
LINE
  5
194
330
1F
100
AcDbEntity
  8
0
  6
Continuous
 62
     7
370
    25
100
AcDbLine
 10
259.9929846327
 20
42.3272300941
 30
0.0
 11
261.1435777919
 21
41.6630068016
 31
0.0
  0
LINE
  5
195
330
1F
100
AcDbEntity
  8
0
  6
Continuous
 62
     7
370
    25
100
AcDbLine
 10
243.4129491666
 20
30.7850496366
 30
0.0
 11
243.3389616911
 21
30.8237424671
 31
0.0
  0
LWPOLYLINE
  5
196
330
1F
100
AcDbEntity
  8
0
  6
Continuous
 62
     7
370
    25
100
AcDbPolyline
 90
        3
 70
   128
 43
0.0
 10
246.2127294103
 20
36.0814626732
 10
246.3313010075
 20
36.0242746239
 10
246.3387175358
 20
36.0200354881
  0
LWPOLYLINE
  5
197
330
1F
100
AcDbEntity
  8
0
  6
Continuous
 62
     7
370
    25
100
AcDbPolyline
 90
       19
 70
   128
 43
0.0
 10
241.288352875
 20
32.007533739
 10
241.1592300776
 20
32.0961779
 10
240.9315119722
 20
32.3490771334
 10
240.7709008693
 20
32.6835360364
 10
240.6832018386
 20
33.0874665778
 10
240.6715831378
 20
33.546268785
 10
240.7364662355
 20
34.043361224
 10
240.8755047375
 20
34.5607769197
 10
241.0836746077
 20
35.0798158957
 10
241.3534519752
 20
35.5817186185
 10
241.6750851129
 20
36.0483440204
 10
242.0369507102
 20
36.4628283113
 10
242.4259694147
 20
36.8101902687
 10
242.8280813011
 20
37.0778755894
 10
243.2287529506
 20
37.2562093172
 10
243.6135029696
 20
37.3387461768
 10
243.9684255322
 20
37.3225026562
 10
244.2806921914
 20
37.2080658958
 10
244.2881087196
 20
37.2038267599
  0
LWPOLYLINE
  5
198
330
1F
100
AcDbEntity
  8
0
  6
Continuous
 62
     7
370
    25
100
AcDbPolyline
 90
       24
 70
   128
 43
0.0
 10
245.0938866574
 20
32.1844927763
 10
244.8151675726
 20
32.0429837624
 10
244.55131513
 20
31.996173227
 10
244.3218973212
 20
32.0475325581
 10
244.1439296192
 20
32.1932530443
 10
244.030610573
 20
32.4225269366
 10
243.9903458447
 20
32.7183507958
 10
244.026119958
 20
33.0587837264
 10
244.1352809542
 20
33.4185781116
 10
244.3097320285
 20
33.7710490776
 10
244.5365354156
 20
34.0900558573
 10
244.7988705716
 20
34.3519394142
 10
245.0772801406
 20
34.53727631
 10
245.3511167764
 20
34.6323215944
 10
245.6000709666
 20
34.6300258761
 10
245.8056784401
 20
34.5305593776
 10
245.9526912576
 20
34.341299497
 10
246.0302052389
 20
34.076282313
 10
246.0324712905
 20
33.7551627899
 10
245.9593228008
 20
33.4017577142
 10
245.8161835421
 20
33.0422768099
 10
245.6136699107
 20
32.7033813138
 10
245.366801331
 20
32.410205539
 10
245.0938866574
 20
32.1844927763
  0
SPLINE
  5
199
330
1F
100
AcDbEntity
  8
0
  6
Continuous
 62
     7
370
    25
100
AcDbSpline
210
0.0
220
0.0
230
1.0
 70
     8
 71
     3
 72
    11
 73
     7
 74
     0
 42
0.000000001
 43
0.00000001
 40
0.0
 40
0.0
 40
0.0
 40
0.0
 40
0.1346861361801511
 40
0.4830333579344514
 40
0.8157583337992292
 40
1.0
 40
1.0
 40
1.0
 40
1.0
 10
245.5872286901315
 20
32.68251762025358
 30
0.0
 10
245.5238927598547
 20
32.66567954792725
 30
0.0
 10
245.296747131157
 20
32.60529211052945
 30
0.0
 10
244.9405155395191
 20
32.45343807325655
 30
0.0
 10
244.6895908665234
 20
32.21497182052708
 30
0.0
 10
244.6011174687319
 20
32.06022478629937
 30
0.0
 10
244.5695864473909
 20
32.00507451333045
 30
0.0
  0
SPLINE
  5
19A
330
1F
100
AcDbEntity
  8
0
  6
Continuous
 62
     7
370
    25
100
AcDbSpline
210
0.0
220
0.0
230
1.0
 70
     8
 71
     3
 72
    10
 73
     6
 74
     0
 42
0.000000001
 43
0.00000001
 40
0.0
 40
0.0
 40
0.0
 40
0.0
 40
0.4391256583338976
 40
0.7513742679555836
 40
1.0
 40
1.0
 40
1.0
 40
1.0
 10
246.0285753412139
 20
33.99998455303384
 30
0.0
 10
245.9048536210753
 20
33.84632272812303
 30
0.0
 10
245.6931572304521
 20
33.58339675462573
 30
0.0
 10
245.5820467519345
 20
33.08768376057075
 30
0.0
 10
245.5856371360113
 20
32.80695828617498
 30
0.0
 10
245.5872286901315
 20
32.68251762025358
 30
0.0
  0
SPLINE
  5
19B
330
1F
100
AcDbEntity
  8
0
  6
Continuous
 62
     7
370
    25
100
AcDbSpline
210
0.0
220
0.0
230
1.0
 70
     8
 71
     3
 72
    10
 73
     6
 74
     0
 42
0.000000001
 43
0.00000001
 40
0.0
 40
0.0
 40
0.0
 40
0.0
 40
0.4391259517835167
 40
0.7513743767785631
 40
1.0
 40
1.0
 40
1.0
 40
1.0
 10
245.4522797495557
 20
34.64000853336
 30
0.0
 10
245.4742447895669
 20
34.58333022966571
 30
0.0
 10
245.5118284672847
 20
34.48634979627934
 30
0.0
 10
245.7630855020783
 20
34.23186404880911
 30
0.0
 10
245.947034138613
 20
34.07120284525006
 30
0.0
 10
246.0285753412139
 20
33.99998455303384
 30
0.0
  0
SPLINE
  5
19C
330
1F
100
AcDbEntity
  8
0
  6
Continuous
 62
     7
370
    25
100
AcDbSpline
210
0.0
220
0.0
230
1.0
 70
     8
 71
     3
 72
     9
 73
     5
 74
     0
 42
0.000000001
 43
0.00000001
 40
0.0
 40
0.0
 40
0.0
 40
0.0
 40
0.6910331277680143
 40
0.9999999999999999
 40
0.9999999999999999
 40
0.9999999999999999
 40
0.9999999999999999
 10
244.8842041104461
 20
34.41847314347916
 30
0.0
 10
245.0057148417331
 20
34.4805438423645
 30
0.0
 10
245.1815540691222
 20
34.57036688613929
 30
0.0
 10
245.3883780049884
 20
34.6235704077089
 30
0.0
 10
245.4522797495557
 20
34.64000853336
 30
0.0
  0
LINE
  5
19D
330
1F
100
AcDbEntity
  8
0
  6
Continuous
 62
     7
370
    25
100
AcDbLine
 10
243.9932908557
 20
32.6450984937
 30
0.0
 11
244.0044762342
 21
32.7699926503
 31
0.0
  0
SPLINE
  5
19E
330
1F
100
AcDbEntity
  8
0
  6
Continuous
 62
     7
370
    25
100
AcDbSpline
210
0.0
220
0.0
230
1.0
 70
     8
 71
     3
 72
    10
 73
     6
 74
     0
 42
0.000000001
 43
0.00000001
 40
0.0
 40
0.0
 40
0.0
 40
0.0
 40
0.4391259517835167
 40
0.7513743767785631
 40
1.0
 40
1.0
 40
1.0
 40
1.0
 10
244.5695864473909
 20
32.00507451333046
 30
0.0
 10
244.4265450177783
 20
32.13164872896532
 30
0.0
 10
244.181791400753
 20
32.34822582262741
 30
0.0
 10
244.0226280461295
 20
32.54954702017468
 30
0.0
 10
244.00230133159
 20
32.61575129873808
 30
0.0
 10
243.9932908557327
 20
32.6450984936566
 30
0.0
  0
SPLINE
  5
19F
330
1F
100
AcDbEntity
  8
0
  6
Continuous
 62
     7
370
    25
100
AcDbSpline
210
0.0
220
0.0
230
1.0
 70
     8
 71
     3
 72
     9
 73
     5
 74
     0
 42
0.000000001
 43
0.00000001
 40
0.0
 40
0.0
 40
0.0
 40
0.0
 40
0.8744799927690391
 40
1.0
 40
1.0
 40
1.0
 40
1.0
 10
244.4366355308523
 20
33.34674091271516
 30
0.0
 10
244.4630114829619
 20
33.6140159709726
 30
0.0
 10
244.4931733532479
 20
33.91965481973702
 30
0.0
 10
244.6236747795798
 20
34.16550916307131
 30
0.0
 10
244.6400553195566
 20
34.19636880202438
 30
0.0
  0
SPLINE
  5
1A0
330
1F
100
AcDbEntity
  8
0
  6
Continuous
 62
     7
370
    25
100
AcDbSpline
210
0.0
220
0.0
230
1.0
 70
     8
 71
     3
 72
     9
 73
     5
 74
     0
 42
0.000000001
 43
0.00000001
 40
0.0
 40
0.0
 40
0.0
 40
0.0
 40
0.6698667167127972
 40
1.0
 40
1.0
 40
1.0
 40
1.0
 10
244.0514679946569
 20
33.15266728507976
 30
0.0
 10
244.1301446274123
 20
33.20223257607252
 30
0.0
 10
244.2475958020899
 20
33.27622534173194
 30
0.0
 10
244.3897166941371
 20
33.32923925535189
 30
0.0
 10
244.4366355308523
 20
33.34674091271516
 30
0.0
  0
LINE
  5
1A1
330
1F
100
AcDbEntity
  8
0
  6
Continuous
 62
     7
370
    25
100
AcDbLine
 10
245.1211141801
 20
34.5238507305
 30
0.0
 11
246.0285753412
 21
33.999984553
 31
0.0
  0
LINE
  5
1A2
330
1F
100
AcDbEntity
  8
0
  6
Continuous
 62
     7
370
    25
100
AcDbLine
 10
244.4366355309
 20
33.3467409127
 30
0.0
 11
245.5872286901
 21
32.6825176203
 31
0.0
  0
LWPOLYLINE
  5
1A3
330
1F
100
AcDbEntity
  8
0
  6
Continuous
 62
     7
370
    25
100
AcDbPolyline
 90
        3
 70
   128
 43
0.0
 10
265.3320124004
 20
35.7679331146
 10
265.3321951465
 20
35.7678273931
 10
265.3831691256
 20
35.7370265246
  0
LWPOLYLINE
  5
1A4
330
1F
100
AcDbEntity
  8
0
  6
Continuous
 62
     7
370
    25
100
AcDbPolyline
 90
       22
 70
   128
 43
0.0
 10
261.3015040089
 20
38.0946960824
 10
260.9220080227
 20
38.2498688782
 10
260.4962757912
 20
38.3053640614
 10
260.0349728543
 20
38.259708993
 10
259.5494581993
 20
38.1140289001
 10
259.0516867962
 20
37.8719096219
 10
258.5539153931
 20
37.5393142713
 10
258.0684007381
 20
37.1244310754
 10
257.6070978012
 20
36.6374771098
 10
257.1813655697
 20
36.0904419548
 10
256.8016868373
 20
35.4967957041
 10
256.4774104666
 20
34.8711559536
 10
256.2165213097
 20
34.2289279817
 10
256.0254436329
 20
33.5859255818
 10
255.9088815842
 20
32.95798134
 10
255.8697064178
 20
32.3605579541
 10
255.9088815842
 20
31.8083652526
 10
256.0254436329
 20
31.3150006875
 10
256.2165213097
 20
30.8926118773
 10
256.4774104666
 20
30.5516001145
 10
256.8016868373
 20
30.3003618923
 10
256.8018695834
 20
30.3002561708
  0
LINE
  5
1A5
330
1F
100
AcDbEntity
  8
0
  6
Continuous
 62
     7
370
    25
100
AcDbLine
 10
263.2943281787
 20
34.1325088292
 30
0.0
 11
261.5062318317
 21
31.9081340603
 31
0.0
  0
LINE
  5
1A6
330
1F
100
AcDbEntity
  8
0
  6
Continuous
 62
     7
370
    25
100
AcDbLine
 10
261.5062318317
 20
31.9081340603
 30
0.0
 11
261.5062318317
 21
29.5238766208
 31
0.0
  0
LINE
  5
1A7
330
1F
100
AcDbEntity
  8
0
  6
Continuous
 62
     7
370
    25
100
AcDbLine
 10
263.2943281787
 20
29.3639939502
 30
0.0
 11
261.5062318317
 21
29.5238766208
 31
0.0
  0
LINE
  5
1A8
330
1F
100
AcDbEntity
  8
0
  6
Continuous
 62
     7
370
    25
100
AcDbLine
 10
265.0824245258
 20
31.5883687191
 30
0.0
 11
263.2943281787
 21
29.3639939502
 31
0.0
  0
LINE
  5
1A9
330
1F
100
AcDbEntity
  8
0
  6
Continuous
 62
     7
370
    25
100
AcDbLine
 10
265.0824245258
 20
31.5883687191
 30
0.0
 11
265.0824245258
 21
33.9726261586
 31
0.0
  0
LINE
  5
1AA
330
1F
100
AcDbEntity
  8
0
  6
Continuous
 62
     7
370
    25
100
AcDbLine
 10
263.2943281787
 20
34.1325088292
 30
0.0
 11
265.0824245258
 21
33.9726261586
 31
0.0
  0
ARC
  5
1AB
330
1F
100
AcDbEntity
  8
0
  6
Continuous
 62
     7
370
    25
100
AcDbCircle
 10
258.9644093297
 20
34.2515838575
 30
0.0
 40
4.016582236067884
100
AcDbArc
 50
320.575219483
 51
352.0264209578
  0
ARC
  5
1AC
330
1F
100
AcDbEntity
  8
0
  6
Continuous
 62
     7
370
    25
100
AcDbCircle
 10
259.253984807
 20
33.9360985591
 30
0.0
 40
3.593041167572474
100
AcDbArc
 50
308.8170289619
 51
321.5288581364
  0
LINE
  5
1AD
330
1F
100
AcDbEntity
  8
0
  6
Continuous
 62
     7
370
    25
100
AcDbLine
 10
261.5062296914
 20
30.3962412349
 30
0.0
 11
263.2943281787
 21
29.3639939502
 31
0.0
  0
LINE
  5
1AE
330
1F
100
AcDbEntity
  8
0
  6
Continuous
 62
     7
370
    25
100
AcDbLine
 10
262.9611025174
 20
32.8129818479
 30
0.0
 11
265.0824245258
 21
31.5883687191
 31
0.0
  0
LINE
  5
1AF
330
1F
100
AcDbEntity
  8
0
  6
Continuous
 62
     7
370
    25
100
AcDbLine
 10
262.9611025174
 20
32.8129818479
 30
0.0
 11
262.9611025174
 21
33.7179823324
 31
0.0
  0
LINE
  5
1B0
330
1F
100
AcDbEntity
  8
0
  6
Continuous
 62
     7
370
    25
100
AcDbLine
 10
262.0670543439
 20
31.7007944159
 30
0.0
 11
261.5062302471
 21
31.0031344927
 31
0.0
  0
LINE
  5
1B1
330
1F
100
AcDbEntity
  8
0
  6
Continuous
 62
     7
370
    25
100
AcDbLine
 10
262.9611025174
 20
32.8129818479
 30
0.0
 11
262.0670543439
 21
31.7007944159
 31
0.0
  0
ARC
  5
1B2
330
1F
100
AcDbEntity
  8
0
  6
Continuous
 62
     7
370
    25
100
AcDbCircle
 10
255.0571619583
 20
47.5272197279
 30
0.0
 40
4.951279152139997
100
AcDbArc
 50
40.6793245286
 51
78.3519583733
  0
ARC
  5
1B3
330
1F
100
AcDbEntity
  8
0
  6
Continuous
 62
     7
370
    25
100
AcDbCircle
 10
245.5218040075
 20
31.0106795908
 30
0.0
 40
4.972973808332653
100
AcDbArc
 50
220.7311147363
 51
259.3082526333
  0
LWPOLYLINE
  5
1B4
330
1F
100
AcDbEntity
  8
0
  6
Continuous
 62
     7
370
    25
100
AcDbPolyline
 90
        3
 70
   128
 43
0.0
 10
238.9960661269
 20
29.0336221946
 10
238.9961833478
 20
29.0335514606
 10
239.0743532395
 20
28.9874414431
  0
LINE
  5
1B5
330
1F
100
AcDbEntity
  8
0
  6
Continuous
 62
     7
370
    25
100
AcDbLine
 10
253.5731746918
 20
54.102857711
 30
0.0
 11
253.5216956091
 21
54.1321574732
 31
0.0
  0
LWPOLYLINE
  5
1B6
330
1F
100
AcDbEntity
  8
0
  6
Continuous
 62
     7
370
    25
100
AcDbPolyline
 90
       25
 70
   128
 43
0.0
 10
245.2174622051
 20
36.6673225781
 10
245.2248369157
 20
36.7469978171
 10
245.3375777599
 20
37.5364630245
 10
245.5237199749
 20
38.3478196339
 10
245.7806504561
 20
39.1696781525
 10
246.1047623553
 20
39.9905010807
 10
246.4915057885
 20
40.7987661217
 10
246.9354520441
 20
41.5831272982
 10
247.430368986
 20
42.3325735022
 10
247.9693089697
 20
43.0365840014
 10
248.5447064713
 20
43.6852764348
 10
249.1484842777
 20
44.269544542
 10
249.7721664273
 20
44.7811861001
 10
250.4069980337
 20
45.2130192457
 10
251.0440673538
 20
45.5589818405
 10
251.6744313429
 20
45.8142172609
 10
252.289241087
 20
45.9751426262
 10
252.8798661132
 20
46.0394988882
 10
253.438015017
 20
46.0063824444
 10
253.9558529298
 20
45.8762581974
 10
254.4261103433
 20
45.6509531761
 10
254.8421860075
 20
45.3336300047
 10
255.198239291
 20
44.928742882
 10
255.4892715117
 20
44.4419757867
 10
255.6956814218
 20
43.9288743873
  0
ARC
  5
1B7
330
1F
100
AcDbEntity
  8
0
  6
Continuous
 62
     7
370
    25
100
AcDbCircle
 10
248.20220405
 20
35.0988013356
 30
0.0
 40
2.956729818589876
100
AcDbArc
 50
235.1496660362
 51
284.5744648891
  0
LWPOLYLINE
  5
1B8
330
1F
100
AcDbEntity
  8
0
  6
Continuous
 62
     7
370
    25
100
AcDbPolyline
 90
       35
 70
   128
 43
0.0
 10
234.4885640701
 20
35.529242353
 10
234.526572625
 20
36.6123544854
 10
234.6403368473
 20
37.7319505114
 10
234.8290809716
 20
38.880383479
 10
235.0915149093
 20
40.0498076235
 10
235.4258461022
 20
41.2322348307
 10
235.8297913765
 20
42.4195882484
 10
236.3005907722
 20
43.6037574185
 10
236.8350279578
 20
44.7766516979
 10
237.4294532798
 20
45.9302603328
 10
238.0798048355
 20
47.0567022668
 10
238.7816407424
 20
48.1482839336
 10
239.5301667963
 20
49.1975471628
 10
240.320270387
 20
50.1973260221
 10
241.1465530959
 20
51.1407899699
 10
242.0033711965
 20
52.0214938524
 10
242.8848717099
 20
52.8334222919
 10
243.7850332344
 20
53.5710292273
 10
244.6977064461
 20
54.2292749824
 10
245.6166570686
 20
54.803664761
 10
246.5356076911
 20
55.2902727872
 10
247.4482809027
 20
55.6857770925
 10
248.3484424272
 20
55.9874745311
 10
249.2299429406
 20
56.1933049208
 10
250.0867610412
 20
56.3018621603
 10
250.9130437501
 20
56.3124039215
 10
251.7031473408
 20
56.2248592506
 10
252.4516733948
 20
56.0398258076
 10
253.1535093016
 20
55.7585666307
 10
253.8038608574
 20
55.38300462
 10
254.3982861793
 20
54.9157048534
 10
254.932723365
 20
54.3598586143
 10
255.4035227606
 20
53.7192628561
 10
255.8074680349
 20
52.9982947249
 10
255.9248661058
 20
52.7452556517
  0
LWPOLYLINE
  5
1B9
330
1F
100
AcDbEntity
  8
0
  6
Continuous
 62
     7
370
    25
100
AcDbPolyline
 90
       16
 70
   128
 43
0.0
 10
241.4260446534
 20
27.6298382431
 10
241.1465530959
 20
27.6048452395
 10
240.320270387
 20
27.5943034783
 10
239.5301667963
 20
27.6818481492
 10
238.7816407424
 20
27.8668815922
 10
238.0798048355
 20
28.1481407691
 10
237.4294532798
 20
28.5237027798
 10
236.8350279578
 20
28.9910025464
 10
236.3005907722
 20
29.5468487855
 10
235.8297913765
 20
30.1874445437
 10
235.4258461022
 20
30.9084126749
 10
235.0915149093
 20
31.7048293033
 10
234.8290809716
 20
32.5712536729
 10
234.6403368473
 20
33.5017673131
 10
234.526572625
 20
34.4900139638
 10
234.4885640701
 20
35.529242353
  0
SPLINE
  5
1BA
330
1F
100
AcDbEntity
  8
0
  6
Continuous
 62
     7
370
    25
100
AcDbSpline
210
0.0
220
0.0
230
1.0
 70
     8
 71
     3
 72
    25
 73
    21
 74
     0
 42
0.000000001
 43
0.00000001
 40
0.0
 40
0.0
 40
0.0
 40
0.0
 40
0.1249999999999985
 40
0.1249999999999985
 40
0.2499999999999971
 40
0.2499999999999971
 40
0.3749999999999956
 40
0.3749999999999956
 40
0.4999999999999941
 40
0.4999999999999941
 40
0.562499999999995
 40
0.562499999999995
 40
0.624999999999996
 40
0.6874999999999969
 40
0.6874999999999969
 40
0.7499999999999978
 40
0.7499999999999978
 40
0.8749999999999989
 40
0.8749999999999989
 40
1.0
 40
1.0
 40
1.0
 40
1.0
 10
239.322153218658
 20
51.96105680740167
 30
0.0
 10
239.351276516919
 20
51.84987128687248
 30
0.0
 10
239.3636655577783
 20
51.73462907444444
 30
0.0
 10
239.356688072678
 20
51.49553350660864
 30
0.0
 10
239.336670484826
 20
51.37075953673338
 30
0.0
 10
239.2664483271127
 20
51.12439062752096
 30
0.0
 10
239.215797672519
 20
51.00017948015984
 30
0.0
 10
239.0858829288639
 20
50.75655098484968
 30
0.0
 10
239.0081819808746
 20
50.63949388979151
 30
0.0
 10
238.8728083986484
 20
50.47083737194148
 30
0.0
 10
238.8241739013414
 20
50.41547035066932
 30
0.0
 10
238.7227345659593
 20
50.3097505392723
 30
0.0
 10
238.6168645832186
 20
50.20858958065185
 30
0.0
 10
238.5022727908911
 20
50.11641525897505
 30
0.0
 10
238.3831901216729
 20
50.02887841623493
 30
0.0
 10
238.3212321086155
 20
49.98737994672275
 30
0.0
 10
238.1333684050949
 20
49.87325962498464
 30
0.0
 10
238.0039909687409
 20
49.80965219387005
 30
0.0
 10
237.7363077156789
 20
49.70838389289582
 30
0.0
 10
237.6004360292138
 20
49.67184298467102
 30
0.0
 10
237.4649187624862
 20
49.65067480032096
 30
0.0
  0
LWPOLYLINE
  5
1BB
330
1F
100
AcDbEntity
  8
0
  6
Continuous
 62
     7
370
    25
100
AcDbPolyline
 90
       16
 70
   128
 43
0.0
 10
239.3221533304
 20
51.9610568399
 10
240.185296751
 20
52.8635013827
 10
241.0746854752
 20
53.6963297392
 10
241.9840885194
 20
54.4537083179
 10
242.9071355357
 20
55.1303306835
 10
243.8373599463
 20
55.7214553864
 10
244.7682452063
 20
56.2229440761
 10
245.6932699963
 20
56.6312830281
 10
246.6059542386
 20
56.9436097074
 10
247.499904042
 20
57.1577379555
 10
248.3688571423
 20
57.2721674914
 10
249.206725954
 20
57.2860958376
 10
250.0076408699
 20
57.1994265857
 10
250.7659910908
 20
57.0127655907
 10
251.4764638088
 20
56.7274215375
 10
251.7998025768
 20
56.5555075726
  0
LWPOLYLINE
  5
1BC
330
1F
100
AcDbEntity
  8
0
  6
Continuous
 62
     7
370
    25
100
AcDbPolyline
 90
       22
 70
   128
 43
0.0
 10
236.0635812623
 20
29.2966191788
 10
235.4945467824
 20
29.6764815815
 10
234.9217236959
 20
30.1828758591
 10
234.4110066249
 20
30.7771099404
 10
233.9659154897
 20
31.4550865013
 10
233.5895191078
 20
32.2121333501
 10
233.284411486
 20
33.0430311866
 10
233.0526960154
 20
33.9420533377
 10
232.8959696665
 20
34.9030024514
 10
232.8153131108
 20
35.9192548895
 10
232.8112815013
 20
36.9838051207
 10
232.8839038141
 20
38.0893158161
 10
233.032678238
 20
39.2281660439
 10
233.2565807366
 20
40.3925064974
 10
233.5540663642
 20
41.5743105405
 10
233.9230857306
 20
42.7654322871
 10
234.3610948781
 20
43.9576616384
 10
234.8650737217
 20
45.1427790342
 10
235.4315497562
 20
46.3126174291
 10
236.0566171541
 20
47.4591121002
 10
236.7359677173
 20
48.5743599611
 10
237.4649185357
 20
49.6506743119
  0
LINE
  5
1BD
330
1F
100
AcDbEntity
  8
0
  6
Continuous
 62
     7
370
    25
100
AcDbLine
 10
260.9548876682
 20
40.8873941259
 30
0.0
 11
261.0829093791
 21
40.8188940648
 31
0.0
  0
LWPOLYLINE
  5
1BE
330
1F
100
AcDbEntity
  8
0
  6
Continuous
 62
     7
370
    25
100
AcDbPolyline
 90
        3
 70
   128
 43
0.0
 10
254.3334577409
 20
29.1272340072
 10
254.2795229457
 20
29.1593811729
 10
254.262394203
 20
29.1700231769
  0
ARC
  5
1BF
330
1F
100
AcDbEntity
  8
0
  6
Continuous
 62
     7
370
    25
100
AcDbCircle
 10
249.4191254604
 20
34.9600277548
 30
0.0
 40
2.595071287887687
100
AcDbArc
 50
200.0939492674
 51
238.8194530619
  0
LWPOLYLINE
  5
1C0
330
1F
100
AcDbEntity
  8
0
  6
Continuous
 62
     7
370
    25
100
AcDbPolyline
 90
       21
 70
   128
 43
0.0
 10
246.6798672985
 20
35.6516230838
 10
246.682414878
 20
36.0879007263
 10
246.7487856277
 20
36.8217787601
 10
246.8909423379
 20
37.5840899255
 10
247.1065932737
 20
38.3625460462
 10
247.392262308
 20
39.1445988602
 10
247.7433445683
 20
39.9176420359
 10
248.1541808523
 20
40.669214589
 10
248.6181485073
 20
41.3872012561
 10
249.1277687724
 20
42.0600290639
 10
249.6748269635
 20
42.6768515408
 10
250.2505045112
 20
43.227726842
 10
250.8455219881
 20
43.7037744635
 10
251.4502879817
 20
44.0973208801
 10
252.0550539754
 20
44.4020224171
 10
252.6500714523
 20
44.6129673514
 10
253.225749
 20
44.726755199
 10
253.7728071911
 20
44.7415526652
 10
254.2824274562
 20
44.6571198911
 10
254.7463951112
 20
44.4748188761
 10
254.8250138009
 20
44.4315002857
  0
LWPOLYLINE
  5
1C1
330
1F
100
AcDbEntity
  8
0
  6
Continuous
 62
     7
370
    25
100
AcDbPolyline
 90
       20
 70
   128
 43
0.0
 10
256.2334878858
 20
36.6820852852
 10
256.1932592128
 20
36.9372487898
 10
256.0769327584
 20
37.1183144175
 10
255.8971140524
 20
37.2056606626
 10
255.6732894268
 20
37.1898223062
 10
255.4297137343
 20
37.0725160988
 10
255.1927822619
 20
36.8664534577
 10
254.9881698491
 20
36.5939645824
 10
254.8380496894
 20
36.2845780675
 10
254.7586898078
 20
35.9718206251
 10
254.7586898078
 20
35.689584519
 10
254.8380496894
 20
35.4684540455
 10
254.9881698491
 20
35.3323925777
 10
255.1927822619
 20
35.2961441657
 10
255.4297137343
 20
35.3636369699
 10
255.6732894268
 20
35.5275570809
 10
255.8971140524
 20
35.7701413268
 10
256.0769327584
 20
36.0651018305
 10
256.1932592128
 20
36.3804749335
 10
256.2334878858
 20
36.6820852852
  0
LWPOLYLINE
  5
1C2
330
1F
100
AcDbEntity
  8
0
  6
Continuous
 62
     7
370
    25
100
AcDbPolyline
 90
       43
 70
   128
 43
0.0
 10
234.8399464621
 20
30.1692488592
 10
234.1332116426
 20
30.4364365102
 10
233.4770299923
 20
30.7977263201
 10
232.8758598575
 20
31.2506630966
 10
232.3337855312
 20
31.7921696233
 10
231.8544895943
 20
32.4185671959
 10
231.441229208
 20
33.1255999582
 10
231.0968110888
 20
33.9084641832
 10
230.8235763627
 20
34.7618417341
 10
230.6233801493
 20
35.6799335271
 10
230.4975830018
 20
36.6565026882
 10
230.4470410279
 20
37.6849150133
 10
230.4720960122
 20
38.7581825888
 10
230.5725773918
 20
39.86901334
 10
230.747803573
 20
41.0098610081
 10
230.9965839074
 20
42.1729744017
 10
231.3172279113
 20
43.3504511391
 10
231.7075571193
 20
44.5342917354
 10
232.1649195729
 20
45.7164522629
 10
232.6862082589
 20
46.8889021448
 10
233.2678808664
 20
48.0436751043
 10
233.9059861285
 20
49.1729258165
 10
234.5961888466
 20
50.2689819977
 10
235.3337988668
 20
51.3243968751
 10
236.1138059824
 20
52.3320005141
 10
236.9309098979
 20
53.2849467746
 10
237.7795597417
 20
54.176761216
 10
238.6539892981
 20
55.0013842508
 10
239.5482581664
 20
55.7532146765
 10
240.4562902856
 20
56.4271448439
 10
241.3719165342
 20
57.0185936142
 10
242.2889161775
 20
57.523544735
 10
243.2010590138
 20
57.9385666078
 10
244.1021479336
 20
58.2608406594
 10
244.9860610249
 20
58.4881757627
 10
245.8467925262
 20
58.6190288366
 10
246.6784953857
 20
58.6525096425
 10
247.4755183035
 20
58.5883922828
 10
248.2324467268
 20
58.4271107296
 10
248.9441370937
 20
58.1697611022
 10
249.6057556874
 20
57.818092919
 10
250.2128059662
 20
57.3744944554
 10
250.532206638
 20
57.082238368
  0
LWPOLYLINE
  5
1C3
330
1F
100
AcDbEntity
  8
0
  6
Continuous
 62
     7
370
    25
100
AcDbPolyline
 90
       13
 70
   128
 43
0.0
 10
237.659531938
 20
52.0853333205
 10
238.4903750676
 20
52.9746264071
 10
239.3492656078
 20
53.7939078876
 10
240.2295109354
 20
54.5367932586
 10
241.1242523916
 20
55.1974949477
 10
242.0265184134
 20
55.7708651536
 10
242.9292787655
 20
56.2524362788
 10
243.8254994774
 20
56.6384549255
 10
244.7081972247
 20
56.9259148105
 10
245.5704940864
 20
57.1125754475
 10
246.4056717559
 20
57.1969820359
 10
247.2072224965
 20
57.1784773859
 10
247.4600825142
 20
57.1502199535
  0
SPLINE
  5
1C4
330
1F
100
AcDbEntity
  8
0
  6
Continuous
 62
     7
370
    25
100
AcDbSpline
210
0.0
220
0.0
230
1.0
 70
     8
 71
     3
 72
    26
 73
    22
 74
     0
 42
0.000000001
 43
0.00000001
 40
0.0
 40
0.0
 40
0.0
 40
0.0
 40
0.1250000000000014
 40
0.1250000000000014
 40
0.2500000000000027
 40
0.2500000000000027
 40
0.3125000000000025
 40
0.3125000000000025
 40
0.3750000000000023
 40
0.3750000000000023
 40
0.4375000000000021
 40
0.4375000000000021
 40
0.5000000000000018
 40
0.5000000000000018
 40
0.5625000000000016
 40
0.5625000000000016
 40
0.6250000000000013
 40
0.6250000000000013
 40
0.7500000000000006
 40
0.7500000000000006
 40
1.0
 40
1.0
 40
1.0
 40
1.0
 10
236.3153387330304
 20
50.41317003427648
 30
0.0
 10
236.2917011367984
 20
50.52274589384947
 30
0.0
 10
236.2741333579167
 20
50.633635152214
 30
0.0
 10
236.2553207750472
 20
50.85896511207694
 30
0.0
 10
236.2541410002798
 20
50.97464202539531
 30
0.0
 10
236.2702390035152
 20
51.14599753525487
 30
0.0
 10
236.2785577206154
 20
51.20279604734904
 30
0.0
 10
236.3023148698724
 20
51.31562225974613
 30
0.0
 10
236.3179372489214
 20
51.37207511341228
 30
0.0
 10
236.3567944613184
 20
51.48065822982088
 30
0.0
 10
236.3800204180209
 20
51.53303819004643
 30
0.0
 10
236.4350190674992
 20
51.63349496531853
 30
0.0
 10
236.4670973345219
 20
51.68177383308997
 30
0.0
 10
236.537512083057
 20
51.76947080867372
 30
0.0
 10
236.5760905051836
 20
51.80945993664967
 30
0.0
 10
236.6597987687798
 20
51.88193862076527
 30
0.0
 10
236.7049274787217
 20
51.91427524514189
 30
0.0
 10
236.8442081209118
 20
51.99747501249553
 30
0.0
 10
236.9449971924734
 20
52.03630373513161
 30
0.0
 10
237.2480694637061
 20
52.11172002258679
 30
0.0
 10
237.4565935541912
 20
52.11158987621604
 30
0.0
 10
237.6595319738816
 20
52.08533364688981
 30
0.0
  0
LWPOLYLINE
  5
1C5
330
1F
100
AcDbEntity
  8
0
  6
Continuous
 62
     7
370
    25
100
AcDbPolyline
 90
       19
 70
   128
 43
0.0
 10
233.3783601041
 20
32.7573187442
 10
233.1533295188
 20
33.0700889688
 10
232.7533605362
 20
33.7585416152
 10
232.4241488683
 20
34.5245274603
 10
232.1681890817
 20
35.3622418471
 10
231.9874205899
 20
36.2653352988
 10
231.8832144826
 20
37.2269648515
 10
231.8563596961
 20
38.2398421073
 10
231.9070603792
 20
39.2962915526
 10
232.0349312834
 20
40.388306262
 10
232.2390043483
 20
41.5076109218
 10
232.5177319942
 20
42.6457224285
 10
232.8690029275
 20
43.7940161903
 10
233.2901546527
 20
44.9437900999
 10
233.7779952046
 20
46.0863295521
 10
234.3288275143
 20
47.2129770237
 10
234.9384777267
 20
48.3151932885
 10
235.6023248351
 20
49.3846254754
 10
236.3153388764
 20
50.4131698032
  0
LINE
  5
1C6
330
1F
100
AcDbEntity
  8
0
  6
Continuous
 62
     7
370
    25
100
AcDbLine
 10
234.8399464621
 20
30.1692488592
 30
0.0
 11
234.9547365321
 21
30.223498851
 31
0.0
  0
LWPOLYLINE
  5
1C7
330
1F
100
AcDbEntity
  8
0
  6
Continuous
 62
     7
370
    25
100
AcDbPolyline
 90
       27
 70
   128
 43
0.0
 10
228.1953138714
 20
39.2438990343
 10
228.2330807404
 20
40.320128715
 10
228.3461225394
 20
41.4326109636
 10
228.5336667956
 20
42.5737460716
 10
228.7944332986
 20
43.7357393193
 10
229.1266406855
 20
44.9106537327
 10
229.5280189533
 20
46.0904624586
 10
229.9958265813
 20
47.2671059885
 10
230.5268683114
 20
48.4325480502
 10
231.1175155635
 20
49.5788265575
 10
231.7637347525
 20
50.6981110223
 10
232.4611116545
 20
51.7827557847
 10
233.2048817
 20
52.8253524821
 10
233.9899638888
 20
53.8187777648
 10
234.8109963516
 20
54.7562465258
 10
235.6623702648
 20
55.6313550529
 10
236.5382693633
 20
56.4381243724
 10
237.4327109348
 20
57.1710436858
 10
238.3395849212
 20
57.8251073916
 10
239.2526963118
 20
58.3958471636
 10
240.1658077025
 20
58.8793633628
 10
241.0726816889
 20
59.2723540744
 10
241.9671232604
 20
59.5721350179
 10
242.8430223589
 20
59.7766572716
 10
243.6943962721
 20
59.8845241414
 10
244.5154287349
 20
59.8949992844
 10
245.2842639721
 20
59.8108657644
  0
LWPOLYLINE
  5
1C8
330
1F
100
AcDbEntity
  8
0
  6
Continuous
 62
     7
370
    25
100
AcDbPolyline
 90
        3
 70
   128
 43
0.0
 10
228.294812044
 20
37.5922599265
 10
228.2330807404
 20
38.2112740523
 10
228.1953138714
 20
39.2438990343
  0
SPLINE
  5
1C9
330
1F
100
AcDbEntity
  8
0
  6
Continuous
 62
     7
370
    25
100
AcDbSpline
210
0.0
220
0.0
230
1.0
 70
     8
 71
     3
 72
    10
 73
     6
 74
     0
 42
0.000000001
 43
0.00000001
 40
0.0
 40
0.0
 40
0.0
 40
0.0
 40
0.5
 40
0.5
 40
1.0
 40
1.0
 40
1.0
 40
1.0
 10
237.0420268006617
 20
48.95011675345675
 30
0.0
 10
236.9380623098775
 20
49.02345512652714
 30
0.0
 10
236.8482540334501
 20
49.11069088432054
 30
0.0
 10
236.6962116054514
 20
49.31162142551654
 30
0.0
 10
236.6343060170905
 20
49.42579219171351
 30
0.0
 10
236.5898563125
 20
49.54880987487361
 30
0.0
  0
SPLINE
  5
1CA
330
1F
100
AcDbEntity
  8
0
  6
Continuous
 62
     7
370
    25
100
AcDbSpline
210
0.0
220
0.0
230
1.0
 70
     8
 71
     3
 72
    14
 73
    10
 74
     0
 42
0.000000001
 43
0.00000001
 40
0.0
 40
0.0
 40
0.0
 40
0.0
 40
0.25
 40
0.25
 40
0.5
 40
0.5
 40
0.75
 40
0.75
 40
1.0
 40
1.0
 40
1.0
 40
1.0
 10
236.5898563125
 20
49.5488098748736
 30
0.0
 10
236.5671355096349
 20
49.61169129453115
 30
0.0
 10
236.5452209992854
 20
49.68073772400457
 30
0.0
 10
236.5031099452226
 20
49.82839024062334
 30
0.0
 10
236.4835883913096
 20
49.90479002748165
 30
0.0
 10
236.4452421491358
 20
50.05912231887724
 30
0.0
 10
236.426882556252
 20
50.13607491520889
 30
0.0
 10
236.3848791116703
 20
50.28146508272487
 30
0.0
 10
236.3611027906573
 20
50.3480559889179
 30
0.0
 10
236.3326412865551
 20
50.38855160414925
 30
0.0
  0
LINE
  5
1CB
330
1F
100
AcDbEntity
  8
0
  6
Continuous
 62
     7
370
    25
100
AcDbLine
 10
236.3326414748
 20
50.3885519959
 30
0.0
 11
236.3153388764
 21
50.4131698032
 31
0.0
  0
LINE
  5
1CC
330
1F
100
AcDbEntity
  8
0
  6
Continuous
 62
     7
370
    25
100
AcDbLine
 10
237.659531938
 20
52.0853333205
 30
0.0
 11
237.6768345364
 21
52.0607155132
 31
0.0
  0
SPLINE
  5
1CD
330
1F
100
AcDbEntity
  8
0
  6
Continuous
 62
     7
370
    25
100
AcDbSpline
210
0.0
220
0.0
230
1.0
 70
     8
 71
     3
 72
    16
 73
    12
 74
     0
 42
0.000000001
 43
0.00000001
 40
0.0
 40
0.0
 40
0.0
 40
0.0
 40
0.1250000000000001
 40
0.1250000000000001
 40
0.2500000000000003
 40
0.2500000000000003
 40
0.5000000000000002
 40
0.5000000000000002
 40
0.7500000000000001
 40
0.7500000000000001
 40
1.0
 40
1.0
 40
1.0
 40
1.0
 10
237.6768345274063
 20
52.06071521676253
 30
0.0
 10
237.6909869338104
 20
52.04057888094974
 30
0.0
 10
237.7126453382841
 20
52.02378146027232
 30
0.0
 10
237.7650632673194
 20
51.99693593894083
 30
0.0
 10
237.7956561464578
 20
51.98671045437985
 30
0.0
 10
237.8947369953153
 20
51.96221001394716
 30
0.0
 10
237.9686195329312
 20
51.95395009154566
 30
0.0
 10
238.1217191253225
 20
51.94276412484074
 30
0.0
 10
238.1998030999701
 20
51.94016745308956
 30
0.0
 10
238.3591467337123
 20
51.93813845225585
 30
0.0
 10
238.4377996285438
 20
51.93877604091807
 30
0.0
 10
238.5135520963364
 20
51.94186914173311
 30
0.0
  0
SPLINE
  5
1CE
330
1F
100
AcDbEntity
  8
0
  6
Continuous
 62
     7
370
    25
100
AcDbSpline
210
0.0
220
0.0
230
1.0
 70
     8
 71
     3
 72
    10
 73
     6
 74
     0
 42
0.000000001
 43
0.00000001
 40
0.0
 40
0.0
 40
0.0
 40
0.0
 40
0.5
 40
0.5
 40
1.0
 40
1.0
 40
1.0
 40
1.0
 10
238.5135520963364
 20
51.94186914173311
 30
0.0
 10
238.6617464362372
 20
51.94792016616687
 30
0.0
 10
238.8039709019677
 20
51.93775793595375
 30
0.0
 10
239.0763622923085
 20
51.88670750001366
 30
0.0
 10
239.2064896221771
 20
51.84534639736911
 30
0.0
 10
239.3245649643624
 20
51.78957252941683
 30
0.0
  0
LINE
  5
1CF
330
1F
100
AcDbEntity
  8
0
  6
Continuous
 62
     7
370
    25
100
AcDbLine
 10
247.1588003774
 20
33.5970908886
 30
0.0
 11
247.1196801995
 21
33.6423780333
 31
0.0
  0
LWPOLYLINE
  5
1D0
330
1F
100
AcDbEntity
  8
0
  6
Continuous
 62
     7
370
    25
100
AcDbPolyline
 90
        3
 70
   128
 43
0.0
 10
253.4663979561
 20
44.8235623128
 10
253.5624374529
 20
44.8084611546
 10
253.6241977325
 20
44.7967012647
  0
LINE
  5
1D1
330
1F
100
AcDbEntity
  8
0
  6
Continuous
 62
     7
370
    25
100
AcDbLine
 10
253.8431104393
 20
44.7885160788
 30
0.0
 11
253.960238507
 21
44.7282353623
 31
0.0
  0
LWPOLYLINE
  5
1D2
330
1F
100
AcDbEntity
  8
0
  6
Continuous
 62
     7
370
    25
100
AcDbPolyline
 90
        3
 70
   128
 43
0.0
 10
247.3861378441
 20
33.3403251826
 10
247.3680571754
 20
33.3513267847
 10
247.286910004
 20
33.403734855
  0
ARC
  5
1D3
330
1F
100
AcDbEntity
  8
0
  6
Continuous
 62
     7
370
    25
100
AcDbCircle
 10
222.0128706973
 20
47.0711290641
 30
0.0
 40
4.168062494307898
100
AcDbArc
 50
211.8183542798
 51
236.1399747015
  0
SPLINE
  5
1D4
330
1F
100
AcDbEntity
  8
0
  6
Continuous
 62
     7
370
    25
100
AcDbSpline
210
0.0
220
0.0
230
1.0
 70
     8
 71
     3
 72
     8
 73
     4
 74
     0
 42
0.000000001
 43
0.00000001
 40
0.0
 40
0.0
 40
0.0
 40
0.0
 40
1.0
 40
1.0
 40
1.0
 40
1.0
 10
219.9016112952256
 20
43.94886811017816
 30
0.0
 10
219.4248380034014
 20
44.2569609181108
 30
0.0
 10
218.9480356265566
 20
44.56519036368356
 30
0.0
 10
218.4712031820309
 20
44.87355551990347
 30
0.0
  0
SPLINE
  5
1D5
330
1F
100
AcDbEntity
  8
0
  6
Continuous
 62
     7
370
    25
100
AcDbSpline
210
0.0
220
0.0
230
1.0
 70
     8
 71
     3
 72
    23
 73
    19
 74
     0
 42
0.000000001
 43
0.00000001
 40
0.0
 40
0.0
 40
0.0
 40
0.0
 40
0.0521036415684141
 40
0.1035646240942128
 40
0.1544751946758079
 40
0.2049306267497427
 40
0.2550287880868969
 40
0.3048696389164994
 40
0.3545546704630395
 40
0.4041862979540088
 40
0.4538672252136959
 40
0.5036997999425104
 40
0.590187023076665
 40
0.6742716378260809
 40
0.7565997087257926
 40
0.8378563983752378
 40
0.9187511781386904
 40
1.0
 40
1.0
 40
1.0
 40
1.0
 10
220.7821760987673
 20
43.77413741205806
 30
0.0
 10
220.7769071598272
 20
43.76421594982292
 30
0.0
 10
220.766434270327
 20
43.7444953990914
 30
0.0
 10
220.7471879745644
 20
43.71992757013847
 30
0.0
 10
220.7253922342318
 20
43.69923898787874
 30
0.0
 10
220.7007409430269
 20
43.6827080525815
 30
0.0
 10
220.6732444284881
 20
43.67019055300525
 30
0.0
 10
220.6428333744807
 20
43.66165592918299
 30
0.0
 10
220.6094630027081
 20
43.65704605653521
 30
0.0
 10
220.5730871144362
 20
43.65631131339923
 30
0.0
 10
220.5336587428469
 20
43.65940639595116
 30
0.0
 10
220.4808103512957
 20
43.66794217143156
 30
0.0
 10
220.4122713575238
 20
43.68553861028013
 30
0.0
 10
220.3245501255678
 20
43.71717521836702
 30
0.0
 10
220.2298192060733
 20
43.75935487570005
 30
0.0
 10
220.127784958744
 20
43.81209131142662
 30
0.0
 10
220.0188710455567
 20
43.87440786733626
 30
0.0
 10
219.9407547345723
 20
43.92401192558637
 30
0.0
 10
219.9016112952256
 20
43.94886811017815
 30
0.0
  0
SPLINE
  5
1D6
330
1F
100
AcDbEntity
  8
0
  6
Continuous
 62
     7
370
    25
100
AcDbSpline
210
0.0
220
0.0
230
1.0
 70
     8
 71
     3
 72
     8
 73
     4
 74
     0
 42
0.000000001
 43
0.00000001
 40
0.0
 40
0.0
 40
0.0
 40
0.0
 40
1.0
 40
1.0
 40
1.0
 40
1.0
 10
222.2556791252235
 20
42.8268172755003
 30
0.0
 10
221.7643118131813
 20
43.14269189546831
 30
0.0
 10
221.2729256132542
 20
43.4586779167583
 30
0.0
 10
220.7815199031095
 20
43.77477479760151
 30
0.0
  0
SPLINE
  5
1D7
330
1F
100
AcDbEntity
  8
0
  6
Continuous
 62
     7
370
    25
100
AcDbSpline
210
0.0
220
0.0
230
1.0
 70
     8
 71
     3
 72
    18
 73
    14
 74
     0
 42
0.000000001
 43
0.00000001
 40
0.0
 40
0.0
 40
0.0
 40
0.0
 40
0.0923824559446601
 40
0.1844689291634853
 40
0.2764953616029266
 40
0.3686975365582463
 40
0.4613092840092579
 40
0.5545607518524319
 40
0.6486768051603578
 40
0.7438756050190171
 40
0.8403674044315731
 40
0.9203921078132351
 40
1.0
 40
1.0
 40
1.0
 40
1.0
 10
223.0692432444207
 20
42.18250955095752
 30
0.0
 10
223.0456757302968
 20
42.19778352522361
 30
0.0
 10
222.9986162096438
 20
42.2282825377052
 30
0.0
 10
222.9262184216791
 20
42.27791511031735
 30
0.0
 10
222.8527362127822
 20
42.33024465298669
 30
0.0
 10
222.7780367650366
 20
42.38556233869496
 30
0.0
 10
222.7021759752685
 20
42.44380065380853
 30
0.0
 10
222.6251646944824
 20
42.5049935654457
 30
0.0
 10
222.5470325624027
 20
42.56915728202642
 30
0.0
 10
222.4678063277607
 20
42.63630624189229
 30
0.0
 10
222.3925098433525
 20
42.70215715163769
 30
0.0
 10
222.3216825352318
 20
42.76568873844538
 30
0.0
 10
222.2777781644251
 20
42.80634948345858
 30
0.0
 10
222.2558832976201
 20
42.82662677202686
 30
0.0
  0
LINE
  5
1D8
330
1F
100
AcDbEntity
  8
0
  6
Continuous
 62
     7
370
    25
100
AcDbLine
 10
223.7089497763
 20
41.7707557445
 30
0.0
 11
223.0692429339
 21
42.1825094121
 31
0.0
  0
SPLINE
  5
1D9
330
1F
100
AcDbEntity
  8
0
  6
Continuous
 62
     7
370
    25
100
AcDbSpline
210
0.0
220
0.0
230
1.0
 70
     8
 71
     3
 72
    25
 73
    21
 74
     0
 42
0.000000001
 43
0.00000001
 40
0.0
 40
0.0
 40
0.0
 40
0.0
 40
0.0280105225423018
 40
0.0559601148854737
 40
0.083901404503538
 40
0.1118870776777776
 40
0.139969582758033
 40
0.1682008401732104
 40
0.1966319670418095
 40
0.2253130233137777
 40
0.2542927850735364
 40
0.3799486436554947
 40
0.5057850221666093
 40
0.6313085886305885
 40
0.7532068238011894
 40
0.8039473267949828
 40
0.8535894438545498
 40
0.9025339722385113
 40
0.9511970353785095
 40
1.0
 40
1.0
 40
1.0
 40
1.0
 10
224.8113153694109
 20
42.48666173483459
 30
0.0
 10
224.8162634769415
 20
42.45903787372745
 30
0.0
 10
224.8261489285769
 20
42.40385024062272
 30
0.0
 10
224.8376845781799
 20
42.32468953325356
 30
0.0
 10
224.8467576999925
 20
42.24838619415568
 30
0.0
 10
224.8531265087054
 20
42.1751904331863
 30
0.0
 10
224.8568427475155
 20
42.1050429649729
 30
0.0
 10
224.8578793684983
 20
42.03796667845986
 30
0.0
 10
224.8562308932716
 20
41.97396276923292
 30
0.0
 10
224.8518847414028
 20
41.91303391596539
 30
0.0
 10
224.8370284168363
 20
41.79114579446904
 30
0.0
 10
224.7919401597698
 20
41.63624492281494
 30
0.0
 10
224.6785806392802
 20
41.50530180447161
 30
0.0
 10
224.5167564172862
 20
41.44942540365885
 30
0.0
 10
224.3427411981537
 20
41.4692994560428
 30
0.0
 10
224.1913802774672
 20
41.51661725839718
 30
0.0
 10
224.0809800447695
 20
41.56153268213216
 30
0.0
 10
223.9638205493208
 20
41.61890841342334
 30
0.0
 10
223.840254882386
 20
41.68758547787675
 30
0.0
 10
223.7527598322901
 20
41.74300572383049
 30
0.0
 10
223.7089495126079
 20
41.77075562156114
 30
0.0
  0
ARC
  5
1DA
330
1F
100
AcDbEntity
  8
0
  6
Continuous
 62
     7
370
    25
100
AcDbCircle
 10
236.0043365338
 20
44.2727121034
 30
0.0
 40
11.33462419218393
100
AcDbArc
 50
170.9338462887
 51
189.0661537113
  0
SPLINE
  5
1DB
330
1F
100
AcDbEntity
  8
0
  6
Continuous
 62
     7
370
    25
100
AcDbSpline
210
0.0
220
0.0
230
1.0
 70
     8
 71
     3
 72
    26
 73
    22
 74
     0
 42
0.000000001
 43
0.00000001
 40
0.0
 40
0.0
 40
0.0
 40
0.0
 40
0.0241259796962598
 40
0.0482159912271152
 40
0.0723203915121662
 40
0.0964895678708055
 40
0.1207736231960662
 40
0.1452220711240098
 40
0.1698835501655305
 40
0.1948055644470524
 40
0.2200342569516537
 40
0.2456142191611247
 40
0.3690971486898494
 40
0.4940698769485197
 40
0.61925667847697
 40
0.7454656653603504
 40
0.7971495824718304
 40
0.8481710308412217
 40
0.8988013269242071
 40
0.9493179290496759
 40
1.0
 40
1.0
 40
1.0
 40
1.0
 10
223.708949512608
 20
49.5348660129257
 30
0.0
 10
223.7306677419839
 20
49.52053448953068
 30
0.0
 10
223.7740718221599
 20
49.49189280886173
 30
0.0
 10
223.837378939521
 20
49.44390051093306
 30
0.0
 10
223.8992405072388
 20
49.39230131304748
 30
0.0
 10
223.9595450223752
 20
49.3367265201743
 30
0.0
 10
224.0183348743151
 20
49.27727127954717
 30
0.0
 10
224.0756153927449
 20
49.21390697070976
 30
0.0
 10
224.1314065320711
 20
49.14663819274576
 30
0.0
 10
224.1857277794931
 20
49.07546407878555
 30
0.0
 10
224.2386067547023
 20
49.00037493903711
 30
0.0
 10
224.3554015794388
 20
48.82112049033572
 30
0.0
 10
224.5172711373655
 20
48.51081501849225
 30
0.0
 10
224.6804560448973
 20
48.04090123035949
 30
0.0
 10
224.7919674500714
 20
47.54193819644915
 30
0.0
 10
224.8391012881796
 20
47.13305452339144
 30
0.0
 10
224.8542202277113
 20
46.82878256680092
 30
0.0
 10
224.8561733666938
 20
46.62753332510479
 30
0.0
 10
224.8496953410547
 20
46.43187340538222
 30
0.0
 10
224.8355684183678
 20
46.24123711748557
 30
0.0
 10
224.8194085266829
 20
46.11965384374757
 30
0.0
 10
224.8113153694109
 20
46.05876280714923
 30
0.0
  0
LINE
  5
1DC
330
1F
100
AcDbEntity
  8
0
  6
Continuous
 62
     7
370
    25
100
AcDbLine
 10
223.0692429339
 20
49.9478408632
 30
0.0
 11
223.7089497763
 21
49.5348658922
 31
0.0
  0
SPLINE
  5
1DD
330
1F
100
AcDbEntity
  8
0
  6
Continuous
 62
     7
370
    25
100
AcDbSpline
210
0.0
220
0.0
230
1.0
 70
     8
 71
     3
 72
    14
 73
    10
 74
     0
 42
0.000000001
 43
0.00000001
 40
0.0
 40
0.0
 40
0.0
 40
0.0
 40
0.078926196316659
 40
0.1582328720536178
 40
0.3308475394596652
 40
0.5000195457656534
 40
0.6670357883622096
 40
0.833239519369157
 40
1.0
 40
1.0
 40
1.0
 40
1.0
 10
222.2552905285683
 20
50.15642329621169
 30
0.0
 10
222.2770074099041
 20
50.1580264600701
 30
0.0
 10
222.3205458631193
 20
50.161240516157
 30
0.0
 10
222.4120709817691
 20
50.16206155622367
 30
0.0
 10
222.5289793152037
 20
50.15412557443894
 30
0.0
 10
222.6697996535872
 20
50.12784990556042
 30
0.0
 10
222.8070119613998
 20
50.08489230702824
 30
0.0
 10
222.9409426358152
 20
50.0265351822196
 30
0.0
 10
223.0264287277733
 20
49.97410163607045
 30
0.0
 10
223.0692432444207
 20
49.94784102591659
 30
0.0
  0
SPLINE
  5
1DE
330
1F
100
AcDbEntity
  8
0
  6
Continuous
 62
     7
370
    25
100
AcDbSpline
210
0.0
220
0.0
230
1.0
 70
     8
 71
     3
 72
     8
 73
     4
 74
     0
 42
0.000000001
 43
0.00000001
 40
0.0
 40
0.0
 40
0.0
 40
0.0
 40
1.0
 40
1.0
 40
1.0
 40
1.0
 10
220.452986945565
 20
51.318814707623
 30
0.0
 10
221.0537451692604
 20
50.93154722446454
 30
0.0
 10
221.6544740321201
 20
50.54407987454167
 30
0.0
 10
222.2551746764664
 20
50.15641298195249
 30
0.0
  0
SPLINE
  5
1DF
330
1F
100
AcDbEntity
  8
0
  6
Continuous
 62
     7
370
    25
100
AcDbSpline
210
0.0
220
0.0
230
1.0
 70
     8
 71
     3
 72
    13
 73
     9
 74
     0
 42
0.000000001
 43
0.00000001
 40
0.0
 40
0.0
 40
0.0
 40
0.0
 40
0.1667030582308044
 40
0.3329480818053134
 40
0.4990671507274983
 40
0.6653938523718556
 40
0.8322612710550201
 40
1.0
 40
1.0
 40
1.0
 40
1.0
 10
220.1111584105306
 20
51.61987948670879
 30
0.0
 10
220.1314595929706
 20
51.60631438002956
 30
0.0
 10
220.1720061781593
 20
51.57922143826671
 30
0.0
 10
220.2311558151468
 20
51.53402686525899
 30
0.0
 10
220.2889273600493
 20
51.48561571677604
 30
0.0
 10
220.345177097509
 20
51.43358060200558
 30
0.0
 10
220.4001043062551
 20
51.37828263479656
 30
0.0
 10
220.4353250158457
 20
51.33866537963619
 30
0.0
 10
220.4529812277866
 20
51.31880517063527
 30
0.0
  0
SPLINE
  5
1E0
330
1F
100
AcDbEntity
  8
0
  6
Continuous
 62
     7
370
    25
100
AcDbSpline
210
0.0
220
0.0
230
1.0
 70
     8
 71
     3
 72
     8
 73
     4
 74
     0
 42
0.000000001
 43
0.00000001
 40
0.0
 40
0.0
 40
0.0
 40
0.0
 40
1.0
 40
1.0
 40
1.0
 40
1.0
 10
218.1671778947399
 20
52.87460133908825
 30
0.0
 10
218.8152079671401
 20
52.4566060232035
 30
0.0
 10
219.463200944242
 20
52.03836526078587
 30
0.0
 10
220.1111584105306
 20
51.61987948670878
 30
0.0
  0
LWPOLYLINE
  5
1E1
330
1F
100
AcDbEntity
  8
0
  6
Continuous
 62
     7
370
    25
100
AcDbPolyline
 90
       21
 70
   128
 43
0.0
 10
218.167178545
 20
52.8746013896
 10
218.5148360446
 20
53.8957814565
 10
218.929686816
 20
54.9130034731
 10
219.4078276658
 20
55.9166985208
 10
219.9447627108
 20
56.8974270153
 10
220.5354402559
 20
57.8459638751
 10
221.1743054784
 20
58.7533874906
 10
221.8553485009
 20
59.6111622297
 10
222.5721639904
 20
60.4112207525
 10
223.3180099328
 20
61.146038246
 10
224.0858705242
 20
61.80870143
 10
224.868523754
 20
62.392978751
 10
225.6586080168
 20
62.8933748067
 10
226.4486919166
 20
63.3051820492
 10
227.2313439939
 20
63.624527122
 10
227.9992027743
 20
63.8484067351
 10
228.7450460825
 20
63.9747155116
 10
229.4618586086
 20
64.0022652212
 10
230.1428976799
 20
63.9307961331
 10
230.7817582925
 20
63.760980337
 10
231.2169162716
 20
63.5763483548
  0
SPLINE
  5
1E2
330
1F
100
AcDbEntity
  8
0
  6
Continuous
 62
     7
370
    25
100
AcDbSpline
210
0.0
220
0.0
230
1.0
 70
    11
 71
     3
 72
    39
 73
    35
 74
     0
 42
0.000000001
 43
0.00000001
 40
0.0
 40
0.0
 40
0.0
 40
0.0
 40
0.0310664058347798
 40
0.0621048158425991
 40
0.0931361551792733
 40
0.1235538293503577
 40
0.1538561545807598
 40
0.1850588072749104
 40
0.2160250992947717
 40
0.247186722379756
 40
0.2784462884306427
 40
0.3100516090231226
 40
0.3419834369140484
 40
0.3734259894013217
 40
0.4048604886785525
 40
0.4368740651833295
 40
0.468512068592407
 40
0.4998055358633177
 40
0.5309508213228404
 40
0.561864978443814
 40
0.5930416446592908
 40
0.6233742450133256
 40
0.6540913579073041
 40
0.6849496782718417
 40
0.7158160645167227
 40
0.7471731804043494
 40
0.7784514311866261
 40
0.8101295911560916
 40
0.8419598919689909
 40
0.8735175891922292
 40
0.9050808037889628
 40
0.9370235169792575
 40
0.9687441590033682
 40
0.9999999999999999
 40
0.9999999999999999
 40
0.9999999999999999
 40
0.9999999999999999
 10
231.3757633759452
 20
61.87979171442968
 30
0.0
 10
231.6386489961428
 20
61.85125722713946
 30
0.0
 10
232.165537606626
 20
61.76531473881698
 30
0.0
 10
232.9295496756994
 20
61.56493961874681
 30
0.0
 10
233.6366998637508
 20
61.31793751252715
 30
0.0
 10
234.2496109283453
 20
61.03995563437482
 30
0.0
 10
234.7467422540203
 20
60.74582193704494
 30
0.0
 10
235.1059339750924
 20
60.44431540885229
 30
0.0
 10
235.3276532438532
 20
60.13731790394908
 30
0.0
 10
235.392905121234
 20
59.82681264254683
 30
0.0
 10
235.3060579101196
 20
59.50766815779838
 30
0.0
 10
235.0637123223608
 20
59.17834819222556
 30
0.0
 10
234.6837744596346
 20
58.83940747066868
 30
0.0
 10
234.1699685064759
 20
58.50156900625827
 30
0.0
 10
233.5440776955653
 20
58.17567110494928
 30
0.0
 10
232.8306067090768
 20
57.8790242117093
 30
0.0
 10
232.0667042328117
 20
57.62292090327066
 30
0.0
 10
231.2809111499078
 20
57.43389333528091
 30
0.0
 10
230.4993736948658
 20
57.32571741322575
 30
0.0
 10
229.7432607101121
 20
57.31805352985772
 30
0.0
 10
229.0408961237212
 20
57.41597556524533
 30
0.0
 10
228.4218757766775
 20
57.63762399874678
 30
0.0
 10
227.9128185116649
 20
57.97349208565792
 30
0.0
 10
227.5398749182312
 20
58.41330265183921
 30
0.0
 10
227.3112729669835
 20
58.92437729236179
 30
0.0
 10
227.2424266602638
 20
59.47556238012504
 30
0.0
 10
227.3270430734889
 20
60.03323430843652
 30
0.0
 10
227.5701518634245
 20
60.56331444935628
 30
0.0
 10
227.9522817062413
 20
61.03583879846929
 30
0.0
 10
228.4684172806548
 20
61.42196030936301
 30
0.0
 10
229.095395141156
 20
61.70558449669531
 30
0.0
 10
229.8113025735224
 20
61.87532171542173
 30
0.0
 10
230.5797459657059
 20
61.93686055013227
 30
0.0
 10
231.1112747450784
 20
61.90850019787663
 30
0.0
 10
231.3757633759452
 20
61.87979171442968
 30
0.0
  0
LINE
  5
1E3
330
1F
100
AcDbEntity
  8
0
  6
Continuous
 62
     7
370
    25
100
AcDbLine
 10
222.1512259629
 20
45.440665097
 30
0.0
 11
222.4652710215
 21
45.2725208699
 31
0.0
  0
LINE
  5
1E4
330
1F
100
AcDbEntity
  8
0
  6
Continuous
 62
     7
370
    25
100
AcDbLine
 10
221.164267943
 20
46.0104238343
 30
0.0
 11
222.1512259629
 21
45.440665097
 31
0.0
  0
ARC
  5
1E5
330
1F
100
AcDbEntity
  8
0
  6
Continuous
 62
     7
370
    25
100
AcDbCircle
 10
223.3880937433
 20
49.5817194979
 30
0.0
 40
4.462224792521943
100
AcDbArc
 50
267.6359113829
 51
287.0347849962
  0
SPLINE
  5
1E6
330
1F
100
AcDbEntity
  8
0
  6
Continuous
 62
     7
370
    25
100
AcDbSpline
210
0.0
220
0.0
230
1.0
 70
     8
 71
     3
 72
    14
 73
    10
 74
     0
 42
0.000000001
 43
0.00000001
 40
0.0
 40
0.0
 40
0.0
 40
0.0
 40
0.1424814678233564
 40
0.2585850570480377
 40
0.3746002206183403
 40
0.4912307545857427
 40
0.6078310296800051
 40
0.8195442312899875
 40
0.9999999999999999
 40
0.9999999999999999
 40
0.9999999999999999
 40
0.9999999999999999
 10
232.7142693342446
 20
58.87729599909396
 30
0.0
 10
232.5231186600077
 20
58.98248166246181
 30
0.0
 10
232.1762054174826
 20
59.1733797573378
 30
0.0
 10
231.5940498376069
 20
59.43333425184604
 30
0.0
 10
231.014483677756
 20
59.65018050426122
 30
0.0
 10
230.4017066269052
 20
59.82553062855685
 30
0.0
 10
229.6096645554637
 20
59.97122792084133
 30
0.0
 10
228.6963310500569
 20
60.00518329709821
 30
0.0
 10
228.1184832639798
 20
59.79900624672764
 30
0.0
 10
227.8525877589151
 20
59.70413428864123
 30
0.0
  0
SPLINE
  5
1E7
330
1F
100
AcDbEntity
  8
0
  6
Continuous
 62
     7
370
    25
100
AcDbSpline
210
0.0
220
0.0
230
1.0
 70
     8
 71
     3
 72
    10
 73
     6
 74
     0
 42
0.000000001
 43
0.00000001
 40
0.0
 40
0.0
 40
0.0
 40
0.0
 40
0.3798174073072795
 40
0.9603711649033085
 40
1.0
 40
1.0
 40
1.0
 40
1.0
 10
233.8541494561041
 20
58.34906907157546
 30
0.0
 10
233.7244968388557
 20
58.41939763341284
 30
0.0
 10
233.3966692231013
 20
58.59722392983395
 30
0.0
 10
232.9887406780911
 20
58.77027678023636
 30
0.0
 10
232.7321078966592
 20
58.86948221248467
 30
0.0
 10
232.7157094064474
 20
58.87582130642505
 30
0.0
  0
SPLINE
  5
1E8
330
1F
100
AcDbEntity
  8
0
  6
Continuous
 62
     7
370
    25
100
AcDbSpline
210
0.0
220
0.0
230
1.0
 70
     8
 71
     3
 72
    24
 73
    20
 74
     0
 42
0.000000001
 43
0.00000001
 40
0.0
 40
0.0
 40
0.0
 40
0.0
 40
0.0618858212107145
 40
0.1150115607194259
 40
0.1593831488268445
 40
0.2428114970815824
 40
0.318331853291959
 40
0.3935543804326023
 40
0.4204843226990471
 40
0.4483397435477174
 40
0.4771286702554668
 40
0.5451537905345539
 40
0.6363475754294583
 40
0.6968782859867285
 40
0.7498596693403015
 40
0.7959701295389731
 40
0.8771179302751783
 40
0.9543004207779655
 40
1.0
 40
1.0
 40
1.0
 40
1.0
 10
231.320884808943
 20
61.30593381447292
 30
0.0
 10
231.1369280196068
 20
61.32482837943887
 30
0.0
 10
230.7950539516445
 20
61.35994293982337
 30
0.0
 10
230.3308359786677
 20
61.35345239143609
 30
0.0
 10
229.8213743663948
 20
61.30572819863879
 30
0.0
 10
229.2822792670202
 20
61.18111160047188
 30
0.0
 10
228.7394412822966
 20
60.93862131652889
 30
0.0
 10
228.3990482668015
 20
60.68124856590298
 30
0.0
 10
228.1924215582505
 20
60.46644146540415
 30
0.0
 10
228.0744375020394
 20
60.31993811410517
 30
0.0
 10
227.9222670978484
 20
60.09018728988472
 30
0.0
 10
227.7555864592688
 20
59.7172445944577
 30
0.0
 10
227.6872248784315
 20
59.25468554176481
 30
0.0
 10
227.737580342051
 20
58.82635284356299
 30
0.0
 10
227.8430094855662
 20
58.50642594991861
 30
0.0
 10
228.0252088122522
 20
58.16596043472541
 30
0.0
 10
228.3260872373227
 20
57.83001217787033
 30
0.0
 10
228.7157721319211
 20
57.55695287715532
 30
0.0
 10
229.0086910881156
 20
57.46299780622802
 30
0.0
 10
229.1176270221718
 20
57.42805611606305
 30
0.0
  0
SPLINE
  5
1E9
330
1F
100
AcDbEntity
  8
0
  6
Continuous
 62
     7
370
    25
100
AcDbSpline
210
0.0
220
0.0
230
1.0
 70
     8
 71
     3
 72
    22
 73
    18
 74
     0
 42
0.000000001
 43
0.00000001
 40
0.0
 40
0.0
 40
0.0
 40
0.0
 40
0.0348562931077237
 40
0.0924900623539491
 40
0.1569277788850789
 40
0.2282085360920659
 40
0.2894089077515647
 40
0.3420696922203051
 40
0.3861903498429299
 40
0.4217735408338573
 40
0.5236918810098915
 40
0.6145479843395962
 40
0.7067593487247504
 40
0.7559111409869668
 40
0.8071360726317764
 40
0.8951475619903156
 40
1.0
 40
1.0
 40
1.0
 40
1.0
 10
234.5846287563273
 20
58.78878972670319
 30
0.0
 10
234.6222646462029
 20
58.82396294911478
 30
0.0
 10
234.7221302799518
 20
58.9172939732711
 30
0.0
 10
234.8409543286869
 20
59.07263921287142
 30
0.0
 10
234.9373653972052
 20
59.26136841767375
 30
0.0
 10
234.9686415523471
 20
59.44734730328624
 30
0.0
 10
234.9392362281736
 20
59.61915886462168
 30
0.0
 10
234.8707412049654
 20
59.76596545513247
 30
0.0
 10
234.782928557951
 20
59.8871763771463
 30
0.0
 10
234.6286374059968
 20
60.05275952432976
 30
0.0
 10
234.3608110880407
 20
60.2629237666853
 30
0.0
 10
233.9092409485743
 20
60.51836757714734
 30
0.0
 10
233.461678311851
 20
60.72500427381833
 30
0.0
 10
233.0527845429671
 20
60.88350849046203
 30
0.0
 10
232.6307049431597
 20
61.02602523839683
 30
0.0
 10
232.0523923257806
 20
61.18928180725229
 30
0.0
 10
231.5785137319129
 20
61.26485025717407
 30
0.0
 10
231.320884808943
 20
61.30593381447292
 30
0.0
  0
LINE
  5
1EA
330
1F
100
AcDbEntity
  8
0
  6
Continuous
 62
     7
370
    25
100
AcDbLine
 10
224.8113150871
 20
46.0587626264
 30
0.0
 11
224.806077024
 21
46.3548460493
 31
0.0
  0
LINE
  5
1EB
330
1F
100
AcDbEntity
  8
0
  6
Continuous
 62
     7
370
    25
100
AcDbLine
 10
224.806077024
 20
46.3548460493
 30
0.0
 11
224.8491734937
 21
47.0064560362
 31
0.0
  0
LINE
  5
1EC
330
1F
100
AcDbEntity
  8
0
  6
Continuous
 62
     7
370
    25
100
AcDbLine
 10
224.326528206
 20
48.8355342668
 30
0.0
 11
224.0151137035
 21
49.1641308363
 31
0.0
  0
SPLINE
  5
1ED
330
1F
100
AcDbEntity
  8
0
  6
Continuous
 62
     7
370
    25
100
AcDbSpline
210
0.0
220
0.0
230
1.0
 70
     8
 71
     3
 72
    20
 73
    16
 74
     0
 42
0.000000001
 43
0.00000001
 40
0.0
 40
0.0
 40
0.0
 40
0.0
 40
0.0210391959657383
 40
0.1455169219140406
 40
0.2075834715392927
 40
0.2715654894294255
 40
0.3932417312615932
 40
0.5138408242842656
 40
0.6368106767030822
 40
0.6995662042587467
 40
0.764506642240453
 40
0.8123442434533559
 40
0.8607251121075525
 40
0.9189205349913032
 40
1.0
 40
1.0
 40
1.0
 40
1.0
 10
227.7316402566007
 20
59.05118386701511
 30
0.0
 10
227.724139540928
 20
59.1059480423783
 30
0.0
 10
227.6722610823306
 20
59.48472269911856
 30
0.0
 10
227.8644243170796
 20
59.95119613703365
 30
0.0
 10
228.1989588164666
 20
60.44294925797909
 30
0.0
 10
228.6557282438506
 20
60.85196099683949
 30
0.0
 10
229.4042819982191
 20
61.20222226323637
 30
0.0
 10
230.4804964635129
 20
61.32174591172388
 30
0.0
 10
231.4339711612174
 20
61.16126812395903
 30
0.0
 10
232.1686962134414
 20
60.86387183621565
 30
0.0
 10
232.6414870181219
 20
60.56621976416657
 30
0.0
 10
232.9984596740234
 20
60.19530675888622
 30
0.0
 10
233.1933071902046
 20
59.76298576557893
 30
0.0
 10
233.222336434845
 20
59.26004433081162
 30
0.0
 10
233.1599627949124
 20
58.92629933673923
 30
0.0
 10
233.1236517166347
 20
58.73200827696386
 30
0.0
  0
SPLINE
  5
1EE
330
1F
100
AcDbEntity
  8
0
  6
Continuous
 62
     7
370
    25
100
AcDbSpline
210
0.0
220
0.0
230
1.0
 70
     8
 71
     3
 72
    10
 73
     6
 74
     0
 42
0.000000001
 43
0.00000001
 40
0.0
 40
0.0
 40
0.0
 40
0.0
 40
0.2949615514206781
 40
0.9798573414183078
 40
1.0
 40
1.0
 40
1.0
 40
1.0
 10
233.1263795726229
 20
58.73076972354148
 30
0.0
 10
233.2092045439192
 20
58.69200444704416
 30
0.0
 10
233.4843477135511
 20
58.56322684676012
 30
0.0
 10
233.7594714428294
 20
58.42192501933459
 30
0.0
 10
233.9080978510854
 20
58.3278281692982
 30
0.0
 10
233.9123440464578
 20
58.32513986098294
 30
0.0
  0
ARC
  5
1EF
330
1F
100
AcDbEntity
  8
0
  6
Continuous
 62
     7
370
    25
100
AcDbCircle
 10
237.136488138
 20
44.5175507312
 30
0.0
 40
12.46654291792015
100
AcDbArc
 50
171.5249863735
 51
179.8211981812
  0
SPLINE
  5
1F0
330
1F
100
AcDbEntity
  8
0
  6
Continuous
 62
     7
370
    25
100
AcDbSpline
210
0.0
220
0.0
230
1.0
 70
     8
 71
     3
 72
    14
 73
    10
 74
     0
 42
0.000000001
 43
0.00000001
 40
0.0
 40
0.0
 40
0.0
 40
0.0
 40
0.0003951393068452
 40
0.0003951393068452
 40
0.0003951393068452
 40
0.0008163352168296
 40
0.0008163352168296
 40
0.0008163352168296
 40
0.0012378579336484
 40
0.0012378579336484
 40
0.0012378579336484
 40
0.0012378579336484
 10
232.7183019097846
 20
58.87601704570952
 30
0.0
 10
232.7637637240144
 20
58.86158018308517
 30
0.0
 10
232.8086513286342
 20
58.84671432252026
 30
0.0
 10
232.852935021308
 20
58.83143053491547
 30
0.0
 10
232.9001383135418
 20
58.81513909557994
 30
0.0
 10
232.9466641265956
 20
58.79836961749828
 30
0.0
 10
232.9924750358319
 20
58.78114080670532
 30
0.0
 10
233.0383214238158
 20
58.76389865287602
 30
0.0
 10
233.0834606593831
 20
58.74619294667394
 30
0.0
 10
233.1278542174205
 20
58.72805008998566
 30
0.0
  0
LINE
  5
1F1
330
1F
100
AcDbEntity
  8
0
  6
Continuous
 62
     7
370
    25
100
AcDbLine
 10
224.0151137035
 20
49.1641308363
 30
0.0
 11
223.3751770291
 21
49.5763624764
 31
0.0
  0
LINE
  5
1F2
330
1F
100
AcDbEntity
  8
0
  6
Continuous
 62
     7
370
    25
100
AcDbLine
 10
223.0692429339
 20
49.9478408632
 30
0.0
 11
223.3751770291
 21
49.5763624764
 31
0.0
  0
SPLINE
  5
1F3
330
1F
100
AcDbEntity
  8
0
  6
Continuous
 62
     7
370
    25
100
AcDbSpline
210
0.0
220
0.0
230
1.0
 70
     8
 71
     3
 72
    13
 73
     9
 74
     0
 42
0.000000001
 43
0.00000001
 40
0.0
 40
0.0
 40
0.0
 40
0.0
 40
0.1618542298859756
 40
0.3254858841567037
 40
0.4910085196621721
 40
0.6585318472803979
 40
0.8281616954212528
 40
1.0
 40
1.0
 40
1.0
 40
1.0
 10
223.3751774407627
 20
49.57636248027971
 30
0.0
 10
223.3556000487452
 20
49.58892545731293
 30
0.0
 10
223.3162302728993
 20
49.61418937343164
 30
0.0
 10
223.2546943331288
 20
49.64688307034658
 30
0.0
 10
223.1911376738794
 20
49.67582914405346
 30
0.0
 10
223.1255195712226
 20
49.70034151151901
 30
0.0
 10
223.058092302168
 20
49.72077657487242
 30
0.0
 10
223.0122077019697
 20
49.73037322986214
 30
0.0
 10
222.9891170217948
 20
49.73520259069689
 30
0.0
  0
SPLINE
  5
1F4
330
1F
100
AcDbEntity
  8
0
  6
Continuous
 62
     7
370
    25
100
AcDbSpline
210
0.0
220
0.0
230
1.0
 70
     8
 71
     3
 72
     9
 73
     5
 74
     0
 42
0.000000001
 43
0.00000001
 40
0.0
 40
0.0
 40
0.0
 40
0.0
 40
0.490728225950606
 40
1.0
 40
1.0
 40
1.0
 40
1.0
 10
222.9891111945028
 20
49.73517459366588
 30
0.0
 10
222.965017672025
 20
49.743270125884
 30
0.0
 10
222.9159201854658
 20
49.75976710280528
 30
0.0
 10
222.8652194916456
 20
49.77456077182151
 30
0.0
 10
222.8393990593583
 20
49.78209476988611
 30
0.0
  0
SPLINE
  5
1F5
330
1F
100
AcDbEntity
  8
0
  6
Continuous
 62
     7
370
    25
100
AcDbSpline
210
0.0
220
0.0
230
1.0
 70
     8
 71
     3
 72
    14
 73
    10
 74
     0
 42
0.000000001
 43
0.00000001
 40
0.0
 40
0.0
 40
0.0
 40
0.0
 40
0.0310276388052996
 40
0.0622853718654635
 40
0.1248003166887939
 40
0.2498289731739472
 40
0.4998892603600953
 40
0.7606803621655176
 40
1.0
 40
1.0
 40
1.0
 40
1.0
 10
222.2554583700696
 20
50.15620251253195
 30
0.0
 10
222.2614506094739
 20
50.15237146887858
 30
0.0
 10
222.273479525433
 20
50.14468097138116
 30
0.0
 10
222.2975393334817
 20
50.12924308187465
 30
0.0
 10
222.3397730061281
 20
50.10217262894378
 30
0.0
 10
222.4243355806404
 20
50.04796060414829
 30
0.0
 10
222.5476225501105
 20
49.96895742228239
 30
0.0
 10
222.6937542565647
 20
49.87535124760471
 30
0.0
 10
222.7921208731057
 20
49.81236817121214
 30
0.0
 10
222.8391925737904
 20
49.78222867242268
 30
0.0
  0
LINE
  5
1F6
330
1F
100
AcDbEntity
  8
0
  6
Continuous
 62
     7
370
    25
100
AcDbLine
 10
220.4529582148
 20
51.3188331895
 30
0.0
 11
220.743925569
 21
51.1307546504
 31
0.0
  0
SPLINE
  5
1F7
330
1F
100
AcDbEntity
  8
0
  6
Continuous
 62
     7
370
    25
100
AcDbSpline
210
0.0
220
0.0
230
1.0
 70
     8
 71
     3
 72
     8
 73
     4
 74
     0
 42
0.000000001
 43
0.00000001
 40
0.0
 40
0.0
 40
0.0
 40
0.0
 40
1.0
 40
1.0
 40
1.0
 40
1.0
 10
220.7753138723652
 20
51.1105321202208
 30
0.0
 10
220.7648713665134
 20
51.11735754511822
 30
0.0
 10
220.7544054336236
 20
51.12410051190474
 30
0.0
 10
220.7439176688071
 20
51.13075959955772
 30
0.0
  0
SPLINE
  5
1F8
330
1F
100
AcDbEntity
  8
0
  6
Continuous
 62
     7
370
    25
100
AcDbSpline
210
0.0
220
0.0
230
1.0
 70
     8
 71
     3
 72
     8
 73
     4
 74
     0
 42
0.000000001
 43
0.00000001
 40
0.0
 40
0.0
 40
0.0
 40
0.0
 40
1.0
 40
1.0
 40
1.0
 40
1.0
 10
217.9893094935391
 20
52.98878777203134
 30
0.0
 10
218.0483092577099
 20
52.95004710511188
 30
0.0
 10
218.1075968212211
 20
52.9119851278121
 30
0.0
 10
218.1671778947103
 20
52.87460133935134
 30
0.0
  0
SPLINE
  5
1F9
330
1F
100
AcDbEntity
  8
0
  6
Continuous
 62
     7
370
    25
100
AcDbSpline
210
0.0
220
0.0
230
1.0
 70
     8
 71
     3
 72
     8
 73
     4
 74
     0
 42
0.000000001
 43
0.00000001
 40
0.0
 40
0.0
 40
0.0
 40
0.0
 40
1.0
 40
1.0
 40
1.0
 40
1.0
 10
217.9644597474418
 20
53.35199794996822
 30
0.0
 10
217.9719339595324
 20
53.23104010925709
 30
0.0
 10
217.9802300634224
 20
53.10996826684716
 30
0.0
 10
217.9893094935412
 20
52.98878777203206
 30
0.0
  0
LWPOLYLINE
  5
1FA
330
1F
100
AcDbEntity
  8
0
  6
Continuous
 62
     7
370
    25
100
AcDbPolyline
 90
       17
 70
   128
 43
0.0
 10
217.9644601062
 20
53.3519972845
 10
218.3205410486
 20
54.3646118478
 10
218.7445897111
 20
55.3713998307
 10
219.2323742867
 20
56.362310212
 10
219.7790231924
 20
57.3274488761
 10
220.3790790699
 20
58.2571797493
 10
221.0265514691
 20
59.1422213738
 10
221.7149751292
 20
59.9737364466
 10
222.4374773152
 20
60.7434227837
 10
223.1868443305
 20
61.4435965845
 10
223.9555943685
 20
62.0672671879
 10
224.7360522167
 20
62.6082075746
 10
225.5204257293
 20
63.0610167651
 10
226.3008835774
 20
63.4211738295
 10
227.0696336155
 20
63.6850831274
 10
227.8190006308
 20
63.8501100661
 10
227.9284225752
 20
63.866104976
  0
SPLINE
  5
1FB
330
1F
100
AcDbEntity
  8
0
  6
Continuous
 62
     7
370
    25
100
AcDbSpline
210
0.0
220
0.0
230
1.0
 70
     8
 71
     3
 72
    10
 73
     6
 74
     0
 42
0.000000001
 43
0.00000001
 40
0.0
 40
0.0
 40
0.0
 40
0.0
 40
0.2409818396634726
 40
0.5031433556203718
 40
1.0
 40
1.0
 40
1.0
 40
1.0
 10
224.0151137034805
 20
42.45828921301439
 30
0.0
 10
224.0973595744835
 20
42.40661269109384
 30
0.0
 10
224.269079831828
 20
42.29871784440246
 30
0.0
 10
224.5468011908549
 20
42.16899513393821
 30
0.0
 10
224.6677784378989
 20
42.19177307504319
 30
0.0
 10
224.7469706788144
 20
42.20668361602193
 30
0.0
  0
LINE
  5
1FC
330
1F
100
AcDbEntity
  8
0
  6
Continuous
 62
     7
370
    25
100
AcDbLine
 10
219.2319396473
 20
52.187361946
 30
0.0
 11
218.470060945
 21
52.6779963536
 31
0.0
  0
LINE
  5
1FD
330
1F
100
AcDbEntity
  8
0
  6
Continuous
 62
     7
370
    25
100
AcDbLine
 10
218.470060945
 20
52.6779963536
 30
0.0
 11
217.9893096247
 21
52.9887877297
 31
0.0
  0
LINE
  5
1FE
330
1F
100
AcDbEntity
  8
0
  6
Continuous
 62
     7
370
    25
100
AcDbLine
 10
223.0692429339
 20
42.1825094121
 30
0.0
 11
223.3751770291
 21
42.8705208531
 31
0.0
  0
LINE
  5
1FF
330
1F
100
AcDbEntity
  8
0
  6
Continuous
 62
     7
370
    25
100
AcDbLine
 10
223.3751770291
 20
42.8705208531
 30
0.0
 11
224.0151137035
 21
42.458289213
 31
0.0
  0
SPLINE
  5
200
330
1F
100
AcDbEntity
  8
0
  6
Continuous
 62
     7
370
    25
100
AcDbSpline
210
0.0
220
0.0
230
1.0
 70
     8
 71
     3
 72
    13
 73
     9
 74
     0
 42
0.000000001
 43
0.00000001
 40
0.0
 40
0.0
 40
0.0
 40
0.0
 40
0.1722587823377741
 40
0.3421398270943555
 40
0.5097456257568693
 40
0.6751828992970145
 40
0.8385626189945911
 40
0.9999999999999999
 40
0.9999999999999999
 40
0.9999999999999999
 40
0.9999999999999999
 10
222.9891055099895
 20
43.151830558533
 30
0.0
 10
223.0122570339399
 20
43.13371096760027
 30
0.0
 10
223.0582405146883
 20
43.0977218956667
 30
0.0
 10
223.1257815273987
 20
43.04672191225193
 30
0.0
 10
223.1914411420837
 20
42.99839723206134
 30
0.0
 10
223.2549652133342
 20
42.95296622615177
 30
0.0
 10
223.3163955920567
 20
42.91014065839109
 30
0.0
 10
223.3556617590308
 20
42.8836748412153
 30
0.0
 10
223.3751774407627
 20
42.87052106266799
 30
0.0
  0
SPLINE
  5
201
330
1F
100
AcDbEntity
  8
0
  6
Continuous
 62
     7
370
    25
100
AcDbSpline
210
0.0
220
0.0
230
1.0
 70
     8
 71
     3
 72
    11
 73
     7
 74
     0
 42
0.000000001
 43
0.00000001
 40
0.0
 40
0.0
 40
0.0
 40
0.0
 40
0.2392845094558733
 40
0.500112045406579
 40
0.7515010915028812
 40
1.0
 40
1.0
 40
1.0
 40
1.0
 10
222.8397250985134
 20
43.19914455074588
 30
0.0
 10
222.7926558665072
 20
43.17083002803229
 30
0.0
 10
222.6942797119127
 20
43.11165179747653
 30
0.0
 10
222.5479824903292
 20
43.01846389701642
 30
0.0
 10
222.4001417466876
 20
42.92309198104384
 30
0.0
 10
222.3038552839682
 20
42.85855672578127
 30
0.0
 10
222.2559903961089
 20
42.82647565572353
 30
0.0
  0
SPLINE
  5
202
330
1F
100
AcDbEntity
  8
0
  6
Continuous
 62
     7
370
    25
100
AcDbSpline
210
0.0
220
0.0
230
1.0
 70
     8
 71
     3
 72
     9
 73
     5
 74
     0
 42
0.000000001
 43
0.00000001
 40
0.0
 40
0.0
 40
0.0
 40
0.0
 40
0.5090669353869929
 40
0.9999999999999999
 40
0.9999999999999999
 40
0.9999999999999999
 40
0.9999999999999999
 10
222.8402961020975
 20
43.1984455965341
 30
0.0
 10
222.8659446767215
 20
43.19095288837422
 30
0.0
 10
222.916328178067
 20
43.17623437566196
 30
0.0
 10
222.9651356895623
 20
43.15984201780979
 30
0.0
 10
222.9890969107568
 20
43.1517944673332
 30
0.0
  0
LINE
  5
203
330
1F
100
AcDbEntity
  8
0
  6
Continuous
 62
     7
370
    25
100
AcDbLine
 10
224.6702146822
 20
44.1223241638
 30
0.0
 11
222.9890987259
 21
43.1518365796
 31
0.0
  0
LINE
  5
204
330
1F
100
AcDbEntity
  8
0
  6
Continuous
 62
     7
370
    25
100
AcDbLine
 10
220.9826110746
 20
44.2756578782
 30
0.0
 11
220.7823154211
 21
43.774500464
 31
0.0
  0
SPLINE
  5
205
330
1F
100
AcDbEntity
  8
0
  6
Continuous
 62
     7
370
    25
100
AcDbSpline
210
0.0
220
0.0
230
1.0
 70
     8
 71
     3
 72
     8
 73
     4
 74
     0
 42
0.000000001
 43
0.00000001
 40
0.0
 40
0.0
 40
0.0
 40
0.0
 40
1.0
 40
1.0
 40
1.0
 40
1.0
 10
220.9821679039573
 20
44.27644163039545
 30
0.0
 10
221.0083432385265
 20
44.29860900737372
 30
0.0
 10
221.034164278492
 20
44.32124114846534
 30
0.0
 10
221.0596218322004
 20
44.34432586855662
 30
0.0
  0
LINE
  5
206
330
1F
100
AcDbEntity
  8
0
  6
Continuous
 62
     7
370
    25
100
AcDbLine
 10
221.0596219279
 20
44.3443257529
 30
0.0
 11
222.8399146872
 21
43.1985548678
 31
0.0
  0
LINE
  5
207
330
1F
100
AcDbEntity
  8
0
  6
Continuous
 62
     7
370
    25
100
AcDbLine
 10
224.6700059236
 20
44.220374099
 30
0.0
 11
224.5820065967
 21
44.3278651673
 31
0.0
  0
LINE
  5
208
330
1F
100
AcDbEntity
  8
0
  6
Continuous
 62
     7
370
    25
100
AcDbLine
 10
222.7535986
 20
45.3222376703
 30
0.0
 11
221.0596219279
 21
44.3443257529
 31
0.0
  0
LINE
  5
209
330
1F
100
AcDbEntity
  8
0
  6
Continuous
 62
     7
370
    25
100
AcDbLine
 10
222.8962926825
 20
45.3009455086
 30
0.0
 11
222.7540187514
 21
45.3217502928
 31
0.0
  0
LINE
  5
20A
330
1F
100
AcDbEntity
  8
0
  6
Continuous
 62
     7
370
    25
100
AcDbLine
 10
224.5820803536
 20
44.3277610008
 30
0.0
 11
222.8962926825
 21
45.3009455086
 31
0.0
  0
LINE
  5
20B
330
1F
100
AcDbEntity
  8
0
  6
Continuous
 62
     7
370
    25
100
AcDbLine
 10
224.6700059236
 20
44.276996918
 30
0.0
 11
224.582033597
 21
44.3277879742
 31
0.0
  0
SPLINE
  5
20C
330
1F
100
AcDbEntity
  8
0
  6
Continuous
 62
     7
370
    25
100
AcDbSpline
210
0.0
220
0.0
230
1.0
 70
     8
 71
     3
 72
    19
 73
    15
 74
     0
 42
0.000000001
 43
0.00000001
 40
0.0
 40
0.0
 40
0.0
 40
0.0
 40
0.0637853009096207
 40
0.1289628367612647
 40
0.1955871994238681
 40
0.2637095015333318
 40
0.3333775579281162
 40
0.4046360709483539
 40
0.4775268158796641
 40
0.552088823629269
 40
0.6283585584259888
 40
0.7063700889343203
 40
0.8377041805959083
 40
1.0
 40
1.0
 40
1.0
 40
1.0
 10
220.198098797996
 20
44.44492971774733
 30
0.0
 10
220.218788167
 20
44.43157057773765
 30
0.0
 10
220.260618489653
 20
44.40456070919787
 30
0.0
 10
220.3211094632453
 20
44.36703874367242
 30
0.0
 10
220.3805936614229
 20
44.33151900258222
 30
0.0
 10
220.4386748208936
 20
44.29853887366564
 30
0.0
 10
220.4952069379806
 20
44.26833243739486
 30
0.0
 10
220.5499519927349
 20
44.24121899743263
 30
0.0
 10
220.6026743703283
 20
44.21748737968186
 30
0.0
 10
220.653116003261
 20
44.19744712623642
 30
0.0
 10
220.7009989217287
 20
44.18132726469761
 30
0.0
 10
220.7559630761059
 20
44.16704929501459
 30
0.0
 10
220.8187943900695
 20
44.15691073776319
 30
0.0
 10
220.8573019057288
 20
44.16338498907801
 30
0.0
 10
220.8785858709231
 20
44.16696345258793
 30
0.0
  0
LINE
  5
20D
330
1F
100
AcDbEntity
  8
0
  6
Continuous
 62
     7
370
    25
100
AcDbLine
 10
220.9032215586
 20
44.1930339069
 30
0.0
 11
220.9709028118
 21
44.2646545741
 31
0.0
  0
SPLINE
  5
20E
330
1F
100
AcDbEntity
  8
0
  6
Continuous
 62
     7
370
    25
100
AcDbSpline
210
0.0
220
0.0
230
1.0
 70
     8
 71
     3
 72
     9
 73
     5
 74
     0
 42
0.000000001
 43
0.00000001
 40
0.0
 40
0.0
 40
0.0
 40
0.0
 40
0.5232016984460688
 40
1.0
 40
1.0
 40
1.0
 40
1.0
 10
222.5874208203104
 20
45.22630544948021
 30
0.0
 10
222.5183966576618
 20
45.25134761459671
 30
0.0
 10
222.3864701695528
 20
45.29921092465644
 30
0.0
 10
222.1450327567342
 20
45.4368090553431
 30
0.0
 10
222.0299158083707
 20
45.50241561035151
 30
0.0
  0
LINE
  5
20F
330
1F
100
AcDbEntity
  8
0
  6
Continuous
 62
     7
370
    25
100
AcDbLine
 10
218.3004146114
 20
45.268305173
 30
0.0
 11
218.7518857257
 21
45.3805691458
 31
0.0
  0
LINE
  5
210
330
1F
100
AcDbEntity
  8
0
  6
Continuous
 62
     7
370
    25
100
AcDbLine
 10
218.7518857257
 20
45.3805691458
 30
0.0
 11
220.1980981975
 21
44.4449298128
 31
0.0
  0
SPLINE
  5
211
330
1F
100
AcDbEntity
  8
0
  6
Continuous
 62
     7
370
    25
100
AcDbSpline
210
0.0
220
0.0
230
1.0
 70
     8
 71
     3
 72
     8
 73
     4
 74
     0
 42
0.000000001
 43
0.00000001
 40
0.0
 40
0.0
 40
0.0
 40
0.0
 40
1.0
 40
1.0
 40
1.0
 40
1.0
 10
218.4712031820127
 20
44.87355551996401
 30
0.0
 10
218.4140779130894
 20
45.00534170375793
 30
0.0
 10
218.3571494213726
 20
45.13692592541702
 30
0.0
 10
218.3004153034239
 20
45.26830499231668
 30
0.0
  0
LINE
  5
212
330
1F
100
AcDbEntity
  8
0
  6
Continuous
 62
     7
370
    25
100
AcDbLine
 10
220.0895871848
 20
46.1528077606
 30
0.0
 11
218.7518857257
 21
45.3805691458
 31
0.0
  0
LINE
  5
213
330
1F
100
AcDbEntity
  8
0
  6
Continuous
 62
     7
370
    25
100
AcDbLine
 10
221.0726156696
 20
46.0550543577
 30
0.0
 11
220.0895871848
 21
46.1528077606
 31
0.0
  0
LINE
  5
214
330
1F
100
AcDbEntity
  8
0
  6
Continuous
 62
     7
370
    25
100
AcDbLine
 10
222.0299158084
 20
45.5024156104
 30
0.0
 11
221.0726146818
 21
46.0550537875
 31
0.0
  0
SPLINE
  5
215
330
1F
100
AcDbEntity
  8
0
  6
Continuous
 62
     7
370
    25
100
AcDbSpline
210
0.0
220
0.0
230
1.0
 70
     8
 71
     3
 72
     8
 73
     4
 74
     0
 42
0.000000001
 43
0.00000001
 40
0.0
 40
0.0
 40
0.0
 40
0.0
 40
1.0
 40
1.0
 40
1.0
 40
1.0
 10
218.3004153034239
 20
45.26830499231668
 30
0.0
 10
218.2972779656738
 20
45.3035212991892
 30
0.0
 10
218.2952855617758
 20
45.33916555541689
 30
0.0
 10
218.2945041644038
 20
45.37526245741177
 30
0.0
  0
LINE
  5
216
330
1F
100
AcDbEntity
  8
0
  6
Continuous
 62
     7
370
    25
100
AcDbLine
 10
219.1055906395
 20
45.8434921721
 30
0.0
 11
218.2945048329
 21
45.3752623025
 31
0.0
  0
SPLINE
  5
217
330
1F
100
AcDbEntity
  8
0
  6
Continuous
 62
     7
370
    25
100
AcDbSpline
210
0.0
220
0.0
230
1.0
 70
     8
 71
     3
 72
     8
 73
     4
 74
     0
 42
0.000000001
 43
0.00000001
 40
0.0000004089325119
 40
0.0000004089325119
 40
0.0000004089325119
 40
0.0000004089325119
 40
0.0015399868451459
 40
0.0015399868451459
 40
0.0015399868451459
 40
0.0015399868451459
 10
219.1055896968925
 20
45.84349216876789
 30
0.0
 10
219.3440662649158
 20
45.93786855458425
 30
0.0
 10
219.5825132225845
 20
46.03229716651445
 30
0.0
 10
219.8209219614348
 20
46.12679054947692
 30
0.0
  0
LINE
  5
218
330
1F
100
AcDbEntity
  8
0
  6
Continuous
 62
     7
370
    25
100
AcDbLine
 10
219.8209214404
 20
46.1267906966
 30
0.0
 11
219.8453178802
 21
46.131784723
 31
0.0
  0
LINE
  5
219
330
1F
100
AcDbEntity
  8
0
  6
Continuous
 62
     7
370
    25
100
AcDbLine
 10
220.0895871848
 20
46.1528077606
 30
0.0
 11
219.8453185388
 21
46.131784723
 31
0.0
  0
SPLINE
  5
21A
330
1F
100
AcDbEntity
  8
0
  6
Continuous
 62
     7
370
    25
100
AcDbSpline
210
0.0
220
0.0
230
1.0
 70
     8
 71
     3
 72
     8
 73
     4
 74
     0
 42
0.000000001
 43
0.00000001
 40
0.0
 40
0.0
 40
0.0
 40
0.0
 40
1.0
 40
1.0
 40
1.0
 40
1.0
 10
221.0726138759428
 20
46.05505454206388
 30
0.0
 10
221.103221910066
 20
46.04011453425776
 30
0.0
 10
221.133773411038
 20
46.02523757686438
 30
0.0
 10
221.1642673491525
 20
46.01042401318346
 30
0.0
  0
ARC
  5
21B
330
1F
100
AcDbEntity
  8
0
  6
Continuous
 62
     7
370
    25
100
AcDbCircle
 10
221.9281100121
 20
51.5557349136
 30
0.0
 40
6.625640594023392
100
AcDbArc
 50
283.7328304029
 51
294.8489571919
  0
LWPOLYLINE
  5
21C
330
1F
100
AcDbEntity
  8
0
  6
Continuous
 62
     7
370
    18
100
AcDbPolyline
 90
       21
 70
   128
 43
0.0
 10
258.7827253653
 20
42.1467619315
 10
258.9478916207
 20
42.5976817262
 10
259.1964065616
 20
43.0933870556
 10
259.5012375948
 20
43.556624651
 10
259.8499039845
 20
43.9684291684
 10
260.2281317787
 20
44.3119413445
 10
260.6204359617
 20
44.5730976807
 10
261.0107559501
 20
44.7412066254
 10
261.3831115029
 20
44.8093855877
 10
261.7222592904
 20
44.7748435782
 10
262.0143132429
 20
44.6389943646
 10
262.2473181437
 20
44.4074001437
 10
262.4117329997
 20
44.0895416461
 10
262.5008281447
 20
43.6984328058
 10
262.5109552422
 20
43.2500852259
 10
262.4417000675
 20
42.7628545235
 10
262.2958976549
 20
42.2566878968
 10
262.0795170518
 20
41.7523077086
 10
261.8014169988
 20
41.2703632597
 10
261.4729837305
 20
40.8305862581
 10
261.3080203069
 20
40.6468374004
  0
LWPOLYLINE
  5
21D
330
1F
100
AcDbEntity
  8
0
  6
Continuous
 62
     7
370
    18
100
AcDbPolyline
 90
       12
 70
   128
 43
0.0
 10
258.4720754329
 20
42.326095778
 10
258.482463314
 20
42.3574752094
 10
258.6906331842
 20
42.8765141854
 10
258.9604098932
 20
43.378416528
 10
259.2820436894
 20
43.8450423101
 10
259.6439086282
 20
44.2595262208
 10
260.0329279912
 20
44.6068885584
 10
260.4350392191
 20
44.8745734989
 10
260.8357108686
 20
45.0529072267
 10
261.2204608876
 20
45.1354440863
 10
261.5753834502
 20
45.1192005657
 10
261.7690785121
 20
45.0619518546
  0
LWPOLYLINE
  5
21E
330
1F
100
AcDbEntity
  8
0
  6
Continuous
 62
     7
370
    18
100
AcDbPolyline
 90
       32
 70
   128
 43
0.0
 10
245.1640605016
 20
31.1665976763
 10
244.7707303063
 20
30.9508581813
 10
244.3874257925
 20
30.8321049014
 10
244.0298394174
 20
30.8151997143
 10
243.7126106254
 20
30.9008344083
 10
243.4487272312
 20
31.0855036467
 10
243.2489926576
 20
31.3616468445
 10
243.1215840516
 20
31.7179586682
 10
243.0717170858
 20
32.1398514708
 10
243.1014339067
 20
32.6100532315
 10
243.2095175241
 20
33.1093136652
 10
243.3915425188
 20
33.6171925448
 10
243.6400574598
 20
34.1128978742
 10
243.9448884929
 20
34.5761354696
 10
244.2935548827
 20
34.9879399871
 10
244.6717826769
 20
35.3314521631
 10
245.0640868599
 20
35.5926084993
 10
245.4544068483
 20
35.760717444
 10
245.8267624011
 20
35.8288964063
 10
246.1659101885
 20
35.7943543968
 10
246.4579641411
 20
35.6585051832
 10
246.6909683833
 20
35.4269105821
 10
246.8553838979
 20
35.1090524647
 10
246.9444790429
 20
34.7179436244
 10
246.9546061404
 20
34.2695960445
 10
246.8853509657
 20
33.7823653421
 10
246.7395485531
 20
33.2761987154
 10
246.5231679499
 20
32.7718185272
 10
246.2450678969
 20
32.2898740783
 10
245.9166346287
 20
31.8500970767
 10
245.5513129898
 20
31.4704909802
 10
245.1640605016
 20
31.1665976763
  0
LWPOLYLINE
  5
21F
330
1F
100
AcDbEntity
  8
0
  6
Continuous
 62
     7
370
    18
100
AcDbPolyline
 90
       18
 70
   128
 43
0.0
 10
243.3389616911
 20
30.8237424671
 10
243.2098388938
 20
30.9123866281
 10
242.9821207884
 20
31.1652858615
 10
242.8215096855
 20
31.4997447645
 10
242.7338106548
 20
31.903675306
 10
242.722191954
 20
32.3624775131
 10
242.7870750517
 20
32.8595699521
 10
242.9261135536
 20
33.3769856479
 10
243.1342834239
 20
33.8960246238
 10
243.4040607914
 20
34.3979273467
 10
243.7256939291
 20
34.8645527485
 10
244.0875595264
 20
35.2790370394
 10
244.4765782309
 20
35.6263989968
 10
244.8786901173
 20
35.8940843175
 10
245.2793617668
 20
36.0724180453
 10
245.6641117858
 20
36.1549549049
 10
246.0190343484
 20
36.1387113843
 10
246.2127294103
 20
36.0814626732
  0
LWPOLYLINE
  5
220
330
1F
100
AcDbEntity
  8
0
  6
Continuous
 62
     7
370
    18
100
AcDbPolyline
 90
       40
 70
   128
 43
0.0
 10
266.2641765538
 20
33.4627083634
 10
266.2257178838
 20
33.9906325356
 10
266.1113375931
 20
34.4604801513
 10
265.9239984735
 20
34.8600825759
 10
265.6685520223
 20
35.1790900244
 10
265.3516144716
 20
35.4092406825
 10
264.981394414
 20
35.544573652
 10
264.5674800929
 20
35.5815837251
 10
264.1205918721
 20
35.5193126158
 10
263.652303836
 20
35.3593732254
 10
263.1747444398
 20
35.1059074415
 10
262.7002821784
 20
34.7654797737
 10
262.2412053689
 20
34.3469080859
 10
261.8094039912
 20
33.8610322075
 10
261.4160612835
 20
33.3204366549
 10
261.0713646
 20
32.739122115
 10
260.7842416641
 20
32.1321446301
 10
260.5621285956
 20
31.5152244567
 10
260.4107781101
 20
30.9043396162
 10
260.3341100293
 20
30.3153116227
 10
260.3341100293
 20
29.7633960311
 10
260.4107781101
 20
29.2628871196
 10
260.5621285956
 20
28.82674783
 10
260.7842416641
 20
28.4662739469
 10
261.0713646
 20
28.1908015476
 10
261.4160612835
 20
28.0074653272
 10
261.8094039912
 20
27.9210135982
 10
262.2412053689
 20
27.9336849786
 10
262.7002821784
 20
28.0451520929
 10
263.1747444398
 20
28.2525268918
 10
263.652303836
 20
28.5504394503
 10
264.1205918721
 20
28.9311739179
 10
264.5674800929
 20
29.3848689657
 10
264.981394414
 20
29.8997743416
 10
265.3516144716
 20
30.4625542911
 10
265.6685520223
 20
31.0586332562
 10
265.9239984735
 20
31.6725728995
 10
266.1113375931
 20
32.2884724676
 10
266.2257178838
 20
32.890380756
 10
266.2641765538
 20
33.4627083634
  0
LWPOLYLINE
  5
221
330
1F
100
AcDbEntity
  8
0
  6
Continuous
 62
     7
370
    18
100
AcDbPolyline
 90
       22
 70
   128
 43
0.0
 10
260.8542752383
 20
27.9610959834
 10
260.8321952288
 20
27.9735989244
 10
260.5079188581
 20
28.2248371466
 10
260.2470297011
 20
28.5658489095
 10
260.0559520243
 20
28.9882377196
 10
259.9393899757
 20
29.4816022847
 10
259.9002148093
 20
30.0337949863
 10
259.9393899757
 20
30.6312183722
 10
260.0559520243
 20
31.259162614
 10
260.2470297011
 20
31.9021650139
 10
260.5079188581
 20
32.5443929858
 10
260.8321952288
 20
33.1700327362
 10
261.2118739611
 20
33.763678987
 10
261.6376061927
 20
34.3107141419
 10
262.0989091296
 20
34.7976681075
 10
262.5844237846
 20
35.2125513034
 10
263.0821951876
 20
35.5451466541
 10
263.5799665907
 20
35.7872659323
 10
264.0654812457
 20
35.9329460251
 10
264.5267841826
 20
35.9786010936
 10
264.9525164141
 20
35.9231059104
 10
265.3320124004
 20
35.7679331146
  0
LWPOLYLINE
  5
222
330
1F
100
AcDbEntity
  8
0
  6
Continuous
 62
     7
370
    18
100
AcDbPolyline
 90
       37
 70
   128
 43
0.0
 10
240.596199548
 20
33.3402475447
 10
240.6341396142
 20
34.3655935916
 10
240.7476693947
 20
35.4269398931
 10
240.9359261961
 20
36.516209654
 10
241.1974770256
 20
37.6251128224
 10
241.5303304446
 20
38.7452092077
 10
241.931953691
 20
39.8679748287
 10
242.3992911182
 20
40.9848646507
 10
242.9287846102
 20
42.0873789337
 10
243.5164051917
 20
43.1671263476
 10
244.1576806871
 20
44.2158893699
 10
244.8477306229
 20
45.2256862597
 10
245.5813024481
 20
46.188832272
 10
246.3528143395
 20
47.0979963078
 10
247.1563940558
 20
47.9462598465
 10
247.9859261879
 20
48.7271677973
 10
248.8350972697
 20
49.4347758341
 10
249.6974446747
 20
50.0636983947
 10
250.5664053482
 20
50.6091505019
 10
251.4353660217
 20
51.0669790329
 10
252.2977134267
 20
51.4337015932
 10
253.1468845085
 20
51.7065256184
 10
253.9764166406
 20
51.8833750809
 10
254.7799963569
 20
51.9629049339
 10
255.5515082483
 20
51.9445095674
 10
256.2850800735
 20
51.8283275564
 10
256.9751300093
 20
51.6152453639
 10
257.6164055047
 20
51.3068832687
 10
258.2040260862
 20
50.905588137
 10
258.7335195782
 20
50.4144140271
 10
259.2008570054
 20
49.8371005133
 10
259.6024802518
 20
49.1780392223
 10
259.9353336708
 20
48.4422472145
 10
260.1968845003
 20
47.635324206
 10
260.3851413017
 20
46.7634111215
 10
260.4986710822
 20
45.8331435143
 10
260.5008363765
 20
45.8053970621
  0
LWPOLYLINE
  5
223
330
1F
100
AcDbEntity
  8
0
  6
Continuous
 62
     7
370
    18
100
AcDbPolyline
 90
       23
 70
   128
 43
0.0
 10
253.3818411705
 20
29.6765908629
 10
253.1468845085
 20
29.4646818829
 10
252.2977134267
 20
28.7570738462
 10
251.4353660217
 20
28.1281512856
 10
250.5664053482
 20
27.5826991784
 10
249.6974446747
 20
27.1248706474
 10
248.8350972697
 20
26.7581480871
 10
247.9859261879
 20
26.4853240619
 10
247.1563940558
 20
26.3084745994
 10
246.3528143395
 20
26.2289447463
 10
245.5813024481
 20
26.2473401128
 10
244.8477306229
 20
26.3635221239
 10
244.1576806871
 20
26.5766043164
 10
243.5164051917
 20
26.8849664116
 10
242.9287846102
 20
27.2862615433
 10
242.3992911182
 20
27.7774356531
 10
241.931953691
 20
28.354749167
 10
241.5303304446
 20
29.013810458
 10
241.1974770256
 20
29.7496024658
 10
240.9359261961
 20
30.5565254743
 10
240.7476693947
 20
31.4284385588
 10
240.6341396142
 20
32.3587061659
 10
240.596199548
 20
33.3402475447
  0
LWPOLYLINE
  5
224
330
1F
100
AcDbEntity
  8
0
  6
Continuous
 62
     7
370
    18
100
AcDbPolyline
 90
       27
 70
   128
 43
0.0
 10
240.0305137669
 20
33.3402483051
 10
240.0684683211
 20
34.3799686201
 10
240.1820527607
 20
35.4558137119
 10
240.3704241489
 20
36.5598170503
 10
240.6321896639
 20
37.6838060713
 10
240.9654105508
 20
38.8194588312
 10
241.3676199018
 20
39.9583675035
 10
241.83583912
 20
41.0920995947
 10
242.3666029444
 20
42.2122614405
 10
242.9559811813
 20
43.310560562
 10
243.5996096561
 20
44.3788645981
 10
244.2927244581
 20
45.4092644215
 10
245.0301928912
 20
46.3941307895
 10
245.8065556214
 20
47.3261736567
 10
246.6160645431
 20
48.1984906506
 10
247.4527262427
 20
49.004624863
 10
248.3103464506
 20
49.7386072414
 10
249.1825756452
 20
50.3950042089
 10
250.0629562213
 20
50.9689547796
 10
250.944970029
 20
51.4562109303
 10
251.8220870644
 20
51.8531649486
 10
252.6878132966
 20
52.1568778033
 10
253.5357394
 20
52.3651004326
 10
254.3595874699
 20
52.4762915871
 10
255.1532580669
 20
52.4896282578
 10
255.9108753277
 20
52.4050111853
 10
256.0568213031
 20
52.376533745
  0
ARC
  5
225
330
1F
100
AcDbEntity
  8
0
  6
Continuous
 62
     7
370
    18
100
AcDbCircle
 10
248.6355733899
 20
32.9462783131
 30
0.0
 40
8.61407356999486
100
AcDbArc
 50
177.3786276069
 51
216.9703152538
  0
LWPOLYLINE
  5
226
330
1F
100
AcDbEntity
  8
0
  6
Continuous
 62
     7
370
    18
100
AcDbPolyline
 90
       10
 70
   128
 43
0.0
 10
236.0707159335
 20
35.6261909367
 10
236.1086704876
 20
34.6302920171
 10
236.2222549273
 20
33.6855887279
 10
236.4106263154
 20
32.7990743649
 10
236.6723918305
 20
31.9773133744
 10
237.0056127173
 20
31.2263892613
 10
237.4078220683
 20
30.551861621
 10
237.8760412866
 20
29.9587239324
 10
238.406805111
 20
29.4513689542
 10
238.9960661269
 20
29.0336221946
  0
LWPOLYLINE
  5
227
330
1F
100
AcDbEntity
  8
0
  6
Continuous
 62
     7
370
    18
100
AcDbPolyline
 90
       29
 70
   128
 43
0.0
 10
253.5216956091
 20
54.1321574732
 10
253.3360229364
 20
54.2310867828
 10
252.6670319368
 20
54.5090101491
 10
251.9510774943
 20
54.6909538169
 10
251.1934602334
 20
54.7755708894
 10
250.3997896364
 20
54.7622342187
 10
249.5759415666
 20
54.6510430641
 10
248.7280154632
 20
54.4428204349
 10
247.862289231
 20
54.1391075802
 10
246.9851721956
 20
53.7421535619
 10
246.1031583879
 20
53.2548974112
 10
245.2227778117
 20
52.6809468405
 10
244.3505486171
 20
52.024549873
 10
243.4929284093
 20
51.2905674946
 10
242.6562667097
 20
50.4844332822
 10
241.846757788
 20
49.6121162883
 10
241.0703950577
 20
48.6800734211
 10
240.3329266246
 20
47.6952070531
 10
239.6398118227
 20
46.6648072297
 10
238.9961833478
 20
45.5965031936
 10
238.406805111
 20
44.4982040721
 10
237.8760412866
 20
43.3780422263
 10
237.4078220683
 20
42.2443101351
 10
237.0056127173
 20
41.1054014628
 10
236.6723918305
 20
39.9697487029
 10
236.4106263154
 20
38.8457596819
 10
236.2222549273
 20
37.7417563435
 10
236.1086704876
 20
36.6659112517
 10
236.0707159335
 20
35.6261909367
  0
LWPOLYLINE
  5
228
330
1F
100
AcDbEntity
  8
0
  6
Continuous
 62
     7
370
    18
100
AcDbPolyline
 90
       34
 70
   128
 43
0.0
 10
234.6565021393
 20
35.6261909367
 10
234.6949407237
 20
36.7074398947
 10
234.8099877907
 20
37.8254854065
 10
235.0008353062
 20
38.9724845141
 10
235.2661457663
 20
40.1403927862
 10
235.6040574657
 20
41.3210173604
 10
236.0121996441
 20
42.5060772084
 10
236.4877109257
 20
43.6872607393
 10
237.027255124
 20
44.8562811218
 10
237.6270475837
 20
46.0049401605
 10
238.2828815225
 20
47.1251803855
 10
238.990157007
 20
48.2091439851
 10
239.7439125629
 20
49.2492275562
 10
240.5388607363
 20
50.2381360945
 10
241.3694262893
 20
51.16893242
 10
242.2297827496
 20
52.0350879351
 10
243.1138960384
 20
52.830527583
 10
244.0155644774
 20
53.5496719539
 10
244.9284632405
 20
54.187475875
 10
245.8461892377
 20
54.7394664885
 10
246.7623052171
 20
55.2017717531
 10
247.6703854101
 20
55.5711490757
 10
248.5640599419
 20
55.845007147
 10
249.437060786
 20
56.0214256258
 10
250.283264137
 20
56.0991659125
 10
251.0967345332
 20
56.0776836923
 10
251.871766345
 20
55.9571300723
 10
252.602922629
 20
55.7383496765
 10
253.2850759576
 20
55.4228776001
 10
253.9134400293
 20
55.0129257183
 10
254.4836085229
 20
54.5113708955
 10
254.9915820975
 20
53.921731028
 10
255.4337967102
 20
53.2481407067
 10
255.604903037
 20
52.9299659891
  0
LWPOLYLINE
  5
229
330
1F
100
AcDbEntity
  8
0
  6
Continuous
 62
     7
370
    18
100
AcDbPolyline
 90
       15
 70
   128
 43
0.0
 10
241.1060815846
 20
27.8145489607
 10
240.5388607363
 20
27.8058724511
 10
239.7439125629
 20
27.8769533648
 10
238.990157007
 20
28.0467692954
 10
238.2828815225
 20
28.3141300024
 10
237.6270475837
 20
28.6771604793
 10
237.027255124
 20
29.1333138845
 10
236.4877109257
 20
29.6793897954
 10
236.0121996441
 20
30.3115596866
 10
235.6040574657
 20
31.0253886058
 10
235.2661457663
 20
31.8158686364
 10
235.0008353062
 20
32.6774559714
 10
234.8099877907
 20
33.6041072278
 10
234.6949407237
 20
34.5893222236
 10
234.6565021393
 20
35.6261909367
  0
LWPOLYLINE
  5
22A
330
1F
100
AcDbEntity
  8
0
  6
Continuous
 62
     7
370
    18
100
AcDbPolyline
 90
       25
 70
   128
 43
0.0
 10
253.5008977857
 20
32.2176869673
 10
253.5393113454
 20
32.9166453862
 10
253.6538951264
 20
33.6479960842
 10
253.8426883123
 20
34.3992250204
 10
254.1024607424
 20
35.1574789166
 10
254.4287675704
 20
35.9097835522
 10
254.8160256562
 20
36.6432670956
 10
255.257609054
 20
37.3453791089
 10
255.7459617889
 20
38.0041062231
 10
256.2727282481
 20
38.6081776413
 10
256.8288950976
 20
39.1472573322
 10
257.4049464927
 20
39.6121218451
 10
257.991025792
 20
39.9948167838
 10
258.5771050913
 20
40.2887946007
 10
259.1531564864
 20
40.4890248717
 10
259.7093233359
 20
40.5920817569
 10
260.2360897951
 20
40.5962019468
 10
260.72444253
 20
40.5013148987
 10
261.1660259279
 20
40.3090442242
 10
261.5532840136
 20
40.0226793494
 10
261.8795908417
 20
39.6471205582
 10
262.1393632717
 20
39.1887935257
 10
262.3281564576
 20
38.6555405621
 10
262.4427402386
 20
38.0564854816
 10
262.4811422737
 20
37.413705428
  0
LWPOLYLINE
  5
22B
330
1F
100
AcDbEntity
  8
0
  6
Continuous
 62
     7
370
    18
100
AcDbPolyline
 90
       13
 70
   128
 43
0.0
 10
257.9815078617
 20
29.619265421
 10
257.4049464927
 20
29.3307707813
 10
256.8288950976
 20
29.1305405104
 10
256.2727282481
 20
29.0274836251
 10
255.7459617889
 20
29.0233634352
 10
255.257609054
 20
29.1182504834
 10
254.8160256562
 20
29.3105211578
 10
254.4287675704
 20
29.5968860327
 10
254.1024607424
 20
29.9724448238
 10
253.8426883123
 20
30.4307718563
 10
253.6538951264
 20
30.9640248199
 10
253.5393113454
 20
31.5630799004
 10
253.5008977857
 20
32.2176869673
  0
LWPOLYLINE
  5
22C
330
1F
100
AcDbEntity
  8
0
  6
Continuous
 62
     7
370
    18
100
AcDbPolyline
 90
       20
 70
   128
 43
0.0
 10
252.9352126632
 20
32.2176865871
 10
252.9743986956
 20
32.9451224152
 10
253.0913133948
 20
33.705857038
 10
253.2840371036
 20
34.4873992723
 10
253.5494048571
 20
35.2769158432
 10
253.8830597248
 20
36.0614432636
 10
254.2795229457
 20
36.828099616
 10
254.7322848073
 20
37.5642962382
 10
255.2339110006
 20
38.2579447492
 10
255.776164451
 20
38.897656089
 10
256.350141719
 20
39.4729253457
 10
256.9464179627
 20
39.9743070762
 10
257.5552023126
 20
40.3935685011
 10
258.1664986393
 20
40.7238252798
 10
258.7702694899
 20
40.9596551607
 10
259.3566008059
 20
41.0971850859
 10
259.9158652841
 20
41.13415698
 10
260.438879686
 20
41.0699641899
 10
260.9170559326
 20
40.9056603822
 10
260.9548876682
 20
40.8873941259
  0
ARC
  5
22D
330
1F
100
AcDbEntity
  8
0
  6
Continuous
 62
     7
370
    18
100
AcDbCircle
 10
256.3764388733
 20
31.9034459636
 30
0.0
 40
3.455544095846151
100
AcDbArc
 50
174.7824222671
 51
232.2814303596
  0
LWPOLYLINE
  5
22E
330
1F
100
AcDbEntity
  8
0
  6
Continuous
 62
     7
370
    18
100
AcDbPolyline
 90
       14
 70
   128
 43
0.0
 10
255.4100859798
 20
33.3198378518
 10
255.4492963784
 20
33.8600100233
 10
255.5657357731
 20
34.4290405035
 10
255.7558664629
 20
35.0096396926
 10
256.0139112015
 20
35.5841662016
 10
256.3320296871
 20
36.1351635799
 10
256.7005558859
 20
36.6458897658
 10
257.1082924009
 20
37.1008269487
 10
257.5428503225
 20
37.4861518123
 10
257.991025792
 20
37.7901567247
 10
258.4392012615
 20
38.0036041951
 10
258.8737591831
 20
38.1200092281
 10
259.2814956981
 20
38.135834605
 10
259.5070831651
 20
38.096979687
  0
ARC
  5
22F
330
1F
100
AcDbEntity
  8
0
  6
Continuous
 62
     7
370
    18
100
AcDbCircle
 10
257.4289262633
 20
33.1815649024
 30
0.0
 40
2.023569988605304
100
AcDbArc
 50
176.0818579778
 51
221.0352580974
  0
LWPOLYLINE
  5
230
330
1F
100
AcDbEntity
  8
0
  6
Continuous
 62
     7
370
    18
100
AcDbPolyline
 90
       30
 70
   128
 43
0.0
 10
228.1953139897
 20
39.1622582934
 10
228.2333225446
 20
40.2453704259
 10
228.3470867669
 20
41.3649664518
 10
228.5358308912
 20
42.5133994195
 10
228.7982648289
 20
43.682823564
 10
229.1325960218
 20
44.8652507712
 10
229.5365412961
 20
46.0526041889
 10
230.0073406918
 20
47.236773359
 10
230.5417778774
 20
48.4096676384
 10
231.1362031994
 20
49.5632762733
 10
231.7865547551
 20
50.6897182073
 10
232.488390662
 20
51.7812998741
 10
233.2369167159
 20
52.8305631033
 10
234.0270203066
 20
53.8303419626
 10
234.8533030155
 20
54.7738059104
 10
235.7101211161
 20
55.6545097929
 10
236.5916216295
 20
56.4664382324
 10
237.491783154
 20
57.2040451677
 10
238.4044563657
 20
57.8622909229
 10
239.3234069882
 20
58.4366807015
 10
240.2423576107
 20
58.9232887277
 10
241.1550308223
 20
59.318793033
 10
242.0551923468
 20
59.6204904716
 10
242.9366928602
 20
59.8263208613
 10
243.7935109609
 20
59.9348781008
 10
244.6197936697
 20
59.945419862
 10
245.4098972604
 20
59.8578751911
 10
246.1584233144
 20
59.6728417481
 10
246.8602592212
 20
59.3915825712
 10
247.1915176454
 20
59.2158138373
  0
LWPOLYLINE
  5
231
330
1F
100
AcDbEntity
  8
0
  6
Continuous
 62
     7
370
    18
100
AcDbPolyline
 90
       11
 70
   128
 43
0.0
 10
231.4552963309
 20
31.9569254435
 10
231.1362031994
 20
32.1567187202
 10
230.5417778774
 20
32.6240184869
 10
230.0073406918
 20
33.179864726
 10
229.5365412961
 20
33.8204604842
 10
229.1325960218
 20
34.5414286154
 10
228.7982648289
 20
35.3378452438
 10
228.5358308912
 20
36.2042696134
 10
228.3470867669
 20
37.1347832536
 10
228.2333225446
 20
38.1230299043
 10
228.1953139897
 20
39.1622582934
  0
LWPOLYLINE
  5
232
330
1F
100
AcDbEntity
  8
0
  6
Continuous
 62
     7
370
    18
100
AcDbPolyline
 90
       22
 70
   128
 43
0.0
 10
245.6081513077
 20
36.4417826231
 10
245.6454423783
 20
37.0422294536
 10
245.7605325799
 20
37.8053646012
 10
245.9503313633
 20
38.5894773794
 10
246.2118459729
 20
39.3822023246
 10
246.5409519444
 20
40.1710374336
 10
246.9324589593
 20
40.9435422107
 10
247.3801931628
 20
41.6875338592
 10
247.8770929822
 20
42.3912794796
 10
248.4153222318
 20
43.0436803758
 10
248.9863929313
 20
43.634447521
 10
249.5812987438
 20
44.1542645215
 10
250.1906576326
 20
44.5949334695
 10
250.8048597047
 20
44.9495047784
 10
251.4142185935
 20
45.212386628
 10
252.009124406
 20
45.3794332583
 10
252.5801951056
 20
45.4480103082
 10
253.1184243551
 20
45.4170356761
 10
253.6153241745
 20
45.2869983755
 10
254.0630583781
 20
45.059949635
 10
254.454565393
 20
44.7394692357
 10
254.6432130406
 20
44.5257091801
  0
ARC
  5
233
330
1F
100
AcDbEntity
  8
0
  6
Continuous
 62
     7
370
    18
100
AcDbCircle
 10
248.2323828069
 20
35.2163351242
 30
0.0
 40
2.388978443555263
100
AcDbArc
 50
232.8556578972
 51
262.0765953018
  0
LWPOLYLINE
  5
234
330
1F
100
AcDbEntity
  8
0
  6
Continuous
 62
     7
370
    18
100
AcDbPolyline
 90
       15
 70
   128
 43
0.0
 10
232.8193954282
 20
35.8266216657
 10
232.8121547314
 20
35.8614469827
 10
232.6695706258
 20
36.7653729804
 10
232.602569649
 20
37.7235840884
 10
232.6116700755
 20
38.7286702125
 10
232.6968014412
 20
39.7728589534
 10
232.8573058599
 20
40.8480754927
 10
233.0919419754
 20
41.9460052356
 10
233.3988954975
 20
43.0581575941
 10
233.7757917146
 20
44.1759315755
 10
234.219717226
 20
45.2906844123
 10
234.7272383805
 20
46.3937946785
 10
235.2944309115
 20
47.4767318697
 10
235.9169075953
 20
48.5311210394
 10
236.5898564473
 20
49.5488100969
  0
LWPOLYLINE
  5
235
330
1F
100
AcDbEntity
  8
0
  6
Continuous
 62
     7
370
    18
100
AcDbPolyline
 90
       19
 70
   128
 43
0.0
 10
233.3311911951
 20
32.8966939647
 10
233.1824108443
 20
33.1084668022
 10
232.7840724179
 20
33.7945622407
 10
232.456214059
 20
34.5578696086
 10
232.2013184803
 20
35.3926068735
 10
232.0213165343
 20
36.2924528866
 10
231.9175714081
 20
37.2505921565
 10
231.8908680869
 20
38.2597676787
 10
231.9414100608
 20
39.3123369482
 10
232.0688133984
 20
40.400327522
 10
232.2721139905
 20
41.5154998989
 10
232.5497715016
 20
42.6494072869
 10
232.8996838576
 20
43.7934631165
 10
233.3191997582
 20
44.9390014013
 10
233.8051430434
 20
46.0773466984
 10
234.3538324492
 20
47.1998779855
 10
234.9611132185
 20
48.2980929169
 10
235.6223854179
 20
49.3636743613
 10
236.3326414748
 20
50.3885519959
  0
LWPOLYLINE
  5
236
330
1F
100
AcDbEntity
  8
0
  6
Continuous
 62
     7
370
    18
100
AcDbPolyline
 90
        3
 70
   128
 43
0.0
 10
247.1196801995
 20
33.6423780333
 10
247.0488682256
 20
33.7303485611
 10
246.9390506605
 20
33.8844410049
  0
LWPOLYLINE
  5
237
330
1F
100
AcDbEntity
  8
0
  6
Continuous
 62
     7
370
    18
100
AcDbPolyline
 90
       19
 70
   128
 43
0.0
 10
246.3624004427
 20
35.9448427242
 10
246.3621531592
 20
35.9523012368
 10
246.378581869
 20
36.6526072269
 10
246.4716029272
 20
37.3889902677
 10
246.6396802785
 20
38.1492870061
 10
246.8800374994
 20
38.920938468
 10
247.188704225
 20
39.6911985272
 10
247.5605820037
 20
40.4473437871
 10
247.9895279324
 20
41.176884221
 10
248.4684567308
 20
41.8677686781
 10
248.9894569743
 20
42.5085854438
 10
249.5439231326
 20
43.0887491118
 10
250.1226961687
 20
43.5986768081
 10
250.7162158685
 20
44.0299449504
 10
251.3146783152
 20
44.375429967
 10
251.908198015
 20
44.6294250839
 10
252.4869710511
 20
44.7877345112
 10
253.0414372094
 20
44.8477438431
 10
253.4663979561
 20
44.8235623128
  0
LWPOLYLINE
  5
238
330
1F
100
AcDbEntity
  8
0
  6
Continuous
 62
     7
370
    18
100
AcDbPolyline
 90
       20
 70
   128
 43
0.0
 10
246.0585993731
 20
36.3303424973
 10
246.0967696006
 20
37.0389189409
 10
246.2106530195
 20
37.7799307678
 10
246.3983800219
 20
38.541210652
 10
246.6568679609
 20
39.3102582988
 10
246.9818725172
 20
40.0744460497
 10
247.3680571754
 20
40.8212260073
 10
247.8090808104
 20
41.5383363025
 10
248.2977017375
 20
42.2140016568
 10
248.8258967444
 20
42.8371271942
 10
249.3849931291
 20
43.3974822706
 10
249.9658102874
 20
43.8858654811
 10
250.5588114039
 20
44.2942572492
 10
251.1542593015
 20
44.6159516216
 10
251.7423768372
 20
44.8456674951
 10
252.3135069703
 20
44.9796315152
 10
252.8582719449
 20
45.0156452558
 10
253.3677267507
 20
44.953116395
 10
253.8335058969
 20
44.7930723429
 10
253.8431104393
 20
44.7885160788
  0
LWPOLYLINE
  5
239
330
1F
100
AcDbEntity
  8
0
  6
Continuous
 62
     7
370
    18
100
AcDbPolyline
 90
        3
 70
   128
 43
0.0
 10
247.286910004
 20
33.403734855
 10
246.9818725172
 20
33.6522274268
 10
246.9091013734
 20
33.726001437
  0
LINE
  5
23A
330
1F
100
AcDbEntity
  8
0
  6
Continuous
 62
     7
370
    18
100
AcDbLine
 10
246.0604317732
 20
36.1806866861
 30
0.0
 11
246.0585993731
 21
36.3303424973
 31
0.0
  0
LWPOLYLINE
  5
23B
330
1F
100
AcDbEntity
  8
0
  6
Continuous
 62
     7
370
    18
100
AcDbPolyline
 90
        3
 70
   128
 43
0.0
 10
247.2638402021
 20
33.478453727
 10
247.0474921968
 20
33.7102359303
 10
246.9365287643
 20
33.8563379178
  0
LWPOLYLINE
  5
23C
330
1F
100
AcDbEntity
  8
0
  6
Continuous
 62
     7
370
    18
100
AcDbPolyline
 90
       19
 70
   128
 43
0.0
 10
246.3131482282
 20
36.034796582
 10
246.3256006463
 20
36.6132323981
 10
246.4117013894
 20
37.3520306054
 10
246.5743016261
 20
38.1163300789
 10
246.8106667502
 20
38.8932772086
 10
247.116821787
 20
39.6698059991
 10
247.4876179064
 20
40.4328569339
 10
247.9168196797
 20
41.1695983571
 10
248.3972083066
 20
41.8676389181
 10
248.9207055862
 20
42.5152405846
 10
249.4785076017
 20
43.1015117874
 10
250.0612333866
 20
43.6165936253
 10
250.6590831606
 20
44.0518230759
 10
251.2620026777
 20
44.3998811046
 10
251.8598524517
 20
44.6549143103
 10
252.4425782366
 20
44.8126333427
 10
253.0003802521
 20
44.8703866385
 10
253.5238775317
 20
44.8272020657
 10
253.779463759
 20
44.7650671815
  0
ARC
  5
23D
330
1F
100
AcDbEntity
  8
0
  6
Continuous
 62
     7
370
    18
100
AcDbCircle
 10
249.5605539798
 20
42.3964162772
 30
0.0
 40
14.59972304561306
100
AcDbArc
 50
110.1861656722
 51
139.1704809678
  0
LWPOLYLINE
  5
23E
330
1F
100
AcDbEntity
  8
0
  6
Continuous
 62
     7
370
    18
100
AcDbPolyline
 90
       13
 70
   128
 43
0.0
 10
237.6768345364
 20
52.0607155132
 10
238.5047441795
 20
52.9465904042
 10
239.3605742987
 20
53.7627096919
 10
240.2376599297
 20
54.5027170073
 10
241.1291706489
 20
55.1608486825
 10
242.0281635862
 20
55.7319810849
 10
242.9276378372
 20
56.2116650704
 10
243.8205885463
 20
56.5961648092
 10
244.7000617305
 20
56.8824879147
 10
245.5592086091
 20
57.0684023578
 10
246.3913378762
 20
57.1524620809
 10
247.1899699475
 20
57.1340109372
 10
247.3157980467
 20
57.1213686022
  0
LINE
  5
23F
330
1F
100
AcDbEntity
  8
0
  6
Continuous
 62
     7
370
    18
100
AcDbLine
 10
223.7089497763
 20
49.5348658922
 30
0.0
 11
224.0151137035
 21
49.1641308363
 31
0.0
  0
LINE
  5
240
330
1F
100
AcDbEntity
  8
0
  6
Continuous
 62
     7
370
    18
100
AcDbLine
 10
223.7089497763
 20
41.7707557445
 30
0.0
 11
224.0151137035
 21
42.458289213
 31
0.0
  0
LINE
  5
241
330
1F
100
AcDbEntity
  8
0
  6
Continuous
 62
     7
370
    18
100
AcDbLine
 10
224.7510240203
 20
42.8831211961
 30
0.0
 11
224.0151209475
 21
42.4582933949
 31
0.0
  0
LINE
  5
242
330
1F
100
AcDbEntity
  8
0
  6
Continuous
 62
     7
370
    18
100
AcDbLine
 10
224.6844484632
 20
43.6263471638
 30
0.0
 11
223.3751770291
 21
42.8705208531
 31
0.0
  0
LINE
  5
243
330
1F
100
AcDbEntity
  8
0
  6
Continuous
 62
     7
370
    18
100
AcDbLine
 10
220.1980981975
 20
44.4449298128
 30
0.0
 11
219.9016109233
 21
43.948868195
 31
0.0
  0
LINE
  5
244
330
1F
100
AcDbEntity
  8
0
  6
Continuous
 62
     7
370
    18
100
AcDbLine
 10
222.0299158084
 20
45.5024156104
 30
0.0
 11
220.1981587836
 21
44.4449647884
 31
0.0
  0
LINE
  5
245
330
1F
100
AcDbEntity
  8
0
  6
Continuous
 62
     7
370
    18
100
AcDbLine
 10
222.0299158084
 20
45.5024156104
 30
0.0
 11
222.1512259629
 21
45.440665097
 31
0.0
  0
OLE2FRAME
  5
246
330
1F
100
AcDbEntity
  8
0
100
AcDbOle2Frame
 70
     2
  3
Paintbrush-Bild
 10
13.8511154363
 20
38.264191557
 30
0.0
 11
51.6290888628
 21
31.9806341108
 31
0.0
 71
     2
 72
     0
 73
     1
 90
    12928
310
80552BED0767C5B32B40DDAF6807D121434000000000000000006FFBDDFB85D0
310
4940DDAF6807D121434000000000000000006FFBDDFB85D04940416F4BD60AFB
310
3F4000000000000000002BED0767C5B32B40416F4BD60AFB3F40000000000000
310
0000000000000100000000010000010000000100000000000100000000320000
310
D0CF11E0A1B11AE1000000000000000000000000000000003E000300FEFF0900
310
0600000000000000000000000100000001000000000000000010000002000000
310
01000000FEFFFFFF0000000000000000FFFFFFFFFFFFFFFFFFFFFFFFFFFFFFFF
310
FFFFFFFFFFFFFFFFFFFFFFFFFFFFFFFFFFFFFFFFFFFFFFFFFFFFFFFFFFFFFFFF
310
FFFFFFFFFFFFFFFFFFFFFFFFFFFFFFFFFFFFFFFFFFFFFFFFFFFFFFFFFFFFFFFF
310
FFFFFFFFFFFFFFFFFFFFFFFFFFFFFFFFFFFFFFFFFFFFFFFFFFFFFFFFFFFFFFFF
310
FFFFFFFFFFFFFFFFFFFFFFFFFFFFFFFFFFFFFFFFFFFFFFFFFFFFFFFFFFFFFFFF
310
FFFFFFFFFFFFFFFFFFFFFFFFFFFFFFFFFFFFFFFFFFFFFFFFFFFFFFFFFFFFFFFF
310
FFFFFFFFFFFFFFFFFFFFFFFFFFFFFFFFFFFFFFFFFFFFFFFFFFFFFFFFFFFFFFFF
310
FFFFFFFFFFFFFFFFFFFFFFFFFFFFFFFFFFFFFFFFFFFFFFFFFFFFFFFFFFFFFFFF
310
FFFFFFFFFFFFFFFFFFFFFFFFFFFFFFFFFFFFFFFFFFFFFFFFFFFFFFFFFFFFFFFF
310
FFFFFFFFFFFFFFFFFFFFFFFFFFFFFFFFFFFFFFFFFFFFFFFFFFFFFFFFFFFFFFFF
310
FFFFFFFFFFFFFFFFFFFFFFFFFFFFFFFFFFFFFFFFFFFFFFFFFFFFFFFFFFFFFFFF
310
FFFFFFFFFFFFFFFFFFFFFFFFFFFFFFFFFFFFFFFFFFFFFFFFFFFFFFFFFFFFFFFF
310
FFFFFFFFFFFFFFFFFFFFFFFFFFFFFFFFFFFFFFFFFFFFFFFFFFFFFFFFFFFFFFFF
310
FFFFFFFFFFFFFFFFFFFFFFFFFFFFFFFFFFFFFFFFFFFFFFFFFFFFFFFFFFFFFFFF
310
FDFFFFFFFEFFFFFFFEFFFFFFFEFFFFFF05000000060000000700000008000000
310
090000000A0000000B0000000C0000000D0000000E0000000F00000010000000
310
11000000120000001300000014000000150000001600000017000000FEFFFFFF
310
FFFFFFFFFFFFFFFFFFFFFFFFFFFFFFFFFFFFFFFFFFFFFFFFFFFFFFFFFFFFFFFF
310
FFFFFFFFFFFFFFFFFFFFFFFFFFFFFFFFFFFFFFFFFFFFFFFFFFFFFFFFFFFFFFFF
310
FFFFFFFFFFFFFFFFFFFFFFFFFFFFFFFFFFFFFFFFFFFFFFFFFFFFFFFFFFFFFFFF
310
FFFFFFFFFFFFFFFFFFFFFFFFFFFFFFFFFFFFFFFFFFFFFFFFFFFFFFFFFFFFFFFF
310
FFFFFFFFFFFFFFFFFFFFFFFFFFFFFFFFFFFFFFFFFFFFFFFFFFFFFFFFFFFFFFFF
310
FFFFFFFFFFFFFFFFFFFFFFFFFFFFFFFFFFFFFFFFFFFFFFFFFFFFFFFFFFFFFFFF
310
FFFFFFFFFFFFFFFFFFFFFFFFFFFFFFFFFFFFFFFFFFFFFFFFFFFFFFFFFFFFFFFF
310
FFFFFFFFFFFFFFFFFFFFFFFFFFFFFFFFFFFFFFFFFFFFFFFFFFFFFFFFFFFFFFFF
310
FFFFFFFFFFFFFFFFFFFFFFFFFFFFFFFFFFFFFFFFFFFFFFFFFFFFFFFFFFFFFFFF
310
FFFFFFFFFFFFFFFFFFFFFFFFFFFFFFFFFFFFFFFFFFFFFFFFFFFFFFFFFFFFFFFF
310
FFFFFFFFFFFFFFFFFFFFFFFFFFFFFFFFFFFFFFFFFFFFFFFFFFFFFFFFFFFFFFFF
310
FFFFFFFFFFFFFFFFFFFFFFFFFFFFFFFFFFFFFFFFFFFFFFFFFFFFFFFFFFFFFFFF
310
FFFFFFFFFFFFFFFFFFFFFFFFFFFFFFFFFFFFFFFFFFFFFFFFFFFFFFFFFFFFFFFF
310
52006F006F007400200045006E00740072007900000000000000000000000000
310
0000000000000000000000000000000000000000000000000000000000000000
310
16000500FFFFFFFFFFFFFFFF020000000A00030000000000C000000000000046
310
0000000000000000000000003050661C88A9D30103000000C000000000000000
310
01004F006C006500000000000000000000000000000000000000000000000000
310
0000000000000000000000000000000000000000000000000000000000000000
310
0A000200FFFFFFFFFFFFFFFFFFFFFFFF00000000000000000000000000000000
310
0000000000000000000000000000000000000000000000001400000000000000
310
010043006F006D0070004F0062006A0000000000000000000000000000000000
310
0000000000000000000000000000000000000000000000000000000000000000
310
120002010100000003000000FFFFFFFF00000000000000000000000000000000
310
0000000000000000000000000000000000000000010000004D00000000000000
310
01004F006C006500310030004E00610074006900760065000000000000000000
310
0000000000000000000000000000000000000000000000000000000000000000
310
1A000200FFFFFFFFFFFFFFFFFFFFFFFF00000000000000000000000000000000
310
0000000000000000000000000000000000000000040000002426000000000000
310
FEFFFFFF02000000FEFFFFFFFFFFFFFFFFFFFFFFFFFFFFFFFFFFFFFFFFFFFFFF
310
FFFFFFFFFFFFFFFFFFFFFFFFFFFFFFFFFFFFFFFFFFFFFFFFFFFFFFFFFFFFFFFF
310
FFFFFFFFFFFFFFFFFFFFFFFFFFFFFFFFFFFFFFFFFFFFFFFFFFFFFFFFFFFFFFFF
310
FFFFFFFFFFFFFFFFFFFFFFFFFFFFFFFFFFFFFFFFFFFFFFFFFFFFFFFFFFFFFFFF
310
FFFFFFFFFFFFFFFFFFFFFFFFFFFFFFFFFFFFFFFFFFFFFFFFFFFFFFFFFFFFFFFF
310
FFFFFFFFFFFFFFFFFFFFFFFFFFFFFFFFFFFFFFFFFFFFFFFFFFFFFFFFFFFFFFFF
310
FFFFFFFFFFFFFFFFFFFFFFFFFFFFFFFFFFFFFFFFFFFFFFFFFFFFFFFFFFFFFFFF
310
FFFFFFFFFFFFFFFFFFFFFFFFFFFFFFFFFFFFFFFFFFFFFFFFFFFFFFFFFFFFFFFF
310
FFFFFFFFFFFFFFFFFFFFFFFFFFFFFFFFFFFFFFFFFFFFFFFFFFFFFFFFFFFFFFFF
310
FFFFFFFFFFFFFFFFFFFFFFFFFFFFFFFFFFFFFFFFFFFFFFFFFFFFFFFFFFFFFFFF
310
FFFFFFFFFFFFFFFFFFFFFFFFFFFFFFFFFFFFFFFFFFFFFFFFFFFFFFFFFFFFFFFF
310
FFFFFFFFFFFFFFFFFFFFFFFFFFFFFFFFFFFFFFFFFFFFFFFFFFFFFFFFFFFFFFFF
310
FFFFFFFFFFFFFFFFFFFFFFFFFFFFFFFFFFFFFFFFFFFFFFFFFFFFFFFFFFFFFFFF
310
FFFFFFFFFFFFFFFFFFFFFFFFFFFFFFFFFFFFFFFFFFFFFFFFFFFFFFFFFFFFFFFF
310
FFFFFFFFFFFFFFFFFFFFFFFFFFFFFFFFFFFFFFFFFFFFFFFFFFFFFFFFFFFFFFFF
310
FFFFFFFFFFFFFFFFFFFFFFFFFFFFFFFFFFFFFFFFFFFFFFFFFFFFFFFFFFFFFFFF
310
0100000200000000000000000000000000000000000000000000000000000000
310
0000000000000000000000000000000000000000000000000000000000000000
310
0100FEFF030A0000FFFFFFFF0A00030000000000C00000000000004607000000
310
5042727573680007000000504272757368000700000050427275736800F439B2
310
7100000000000000000000000000000000000000000000000000000000000000
310
0000000000000000000000000000000000000000000000000000000000000000
310
0000000000000000000000000000000000000000000000000000000000000000
310
0000000000000000000000000000000000000000000000000000000000000000
310
0000000000000000000000000000000000000000000000000000000000000000
310
0000000000000000000000000000000000000000000000000000000000000000
310
0000000000000000000000000000000000000000000000000000000000000000
310
0000000000000000000000000000000000000000000000000000000000000000
310
0000000000000000000000000000000000000000000000000000000000000000
310
0000000000000000000000000000000000000000000000000000000000000000
310
0000000000000000000000000000000000000000000000000000000000000000
310
0000000000000000000000000000000000000000000000000000000000000000
310
20260000424D0E260000000000003E00000028000000B40200006E0000000100
310
01000000000000000000130B0000130B00000200000002000000000000FFFFFF
310
FFFFFFFFFFFFFFFFFFFFFFFFFFFFFFFFFFFFFFFFFFFFFFFFFFFFFFFFFFFFFFFF
310
FFFFFFFFFFFFFFFFFFFFFFFFFFFFFFFFFFFFFFFFFFFFFFFFFFFFFFFFFFFFFFFF
310
FFFFFFFFFFFFFFFFFFFFFFFFFFFFFFFFFFFFFFFFFFFFFFFFF000FFFFFFFFFFFF
310
FFFFFFFFFFFFFFFFFFFFFFFFFFFFFFFFFFFFFFFFFFFFFFFFFFFFFFFFFFFFFFFF
310
FFFFFFFFFFFFFFFFFFFFFFFFFFFFFFFFFFFFFFFFFFFFFFFFFFFFFFFFFFFFFFFF
310
FFFFFFFFFFFFFFFFFFFFFFFFFFFFFFFFF000FFFFFFFFFFFFFFFFFFFFFFFFFFFF
310
FFFFFFFFFFFFFFFFFFFFFFFFFFFFFFFFFFFFFFFFFFFFFFFFFFFFFFFFFFFFFFFF
310
FFFFFFFFFFFFFFFFFFFFFFFFFFFFFFFFFFFFFFFFFFFFFFFFFFFFFFFFFFFFFFFF
310
FFFFFFFFFFFFFFFFF000FFFFFFFFFFFFFFFFFFFFFFFFFFFFFFFFFFFFFFFFFFFF
310
FFFFFFFFFFFFFFFFFFFFFFFFFFFFFFFFFFFFFFFFFFFFFFFFFFFFFFFFFFFFFFFF
310
FFFFFFFFFFFFFFFFFFFFFFFFFFFFFFFFFFFFFFFFFFFFFFFFFFFFFFFFFFFFFFFF
310
F000FFFFFFFFFFFFFFFFFFFFFFFFFFFFFFFFFFFFFFFFFFFFFFFFFFFFFFFFFFFF
310
FFFFFFFFFFFFFFFFFFFFFFFFFFFFFFFFFFFFFFFFFFFFFFFFFFFFFFFFFFFFFFFF
310
FFFFFFFFFFFFFFFFFFFFFFFFFFFFFFFFFFFFFFFFFFFFFFFFF000FFFFFFFFFFFF
310
FFFFFFFFFFFFFFFFFFFFFFFFFFFFFFFFFFFFFFFFFFFFFFFFFFFFFFFFFFFFFFFF
310
FFFFFFFFFFFFFFFFFFFFFFFFFFFFFFFFFFFFFFFFFFFFFFFFFFFFFFFFFFFFFFFF
310
FFFFFFFFFFFFFFFFFFFFFFFFFFFFFFFFF000FFFFFFFFFFFFFFFFFFFFFFFFFFFF
310
FFFFFFFFFFFFFFFFFFFFFFFFFFFFFFFFFFFFFFFFFFFFFFFFFFFFFFFFFFFFFFFF
310
FFFFFFFFFFFFFFFFFFFFFFFFFFFFFFFFFFFFFFFFFFFFFFFFFFFFFFFFFFFFFFFF
310
FFFFFFFFFFFFFFFFF000FFFFFFFFFFFFFFFFFFFFFFFFFFFFFFFFFFFFFFFFFFFF
310
FFFFFFFFFFFFFFFFFFFFFFFFFFFFFFFFFFFFFFFFFFFFFFFFFFFFFFFFFFFFFFFF
310
FFFFFFFFFFFFFFFFFFFFFFFFFFFFFFFFFFFFFFFFFFFFFFFFFFFFFFFFFFFFFFFF
310
F000FFFFFFFFFFFFFFFFFFFFFFFFFFFFFFFFFFFFFFFFFFFFFFFFFFFFFFFFFFFF
310
FFFFFFFFFFFFFFFFFFFFFFFFFFFFFFFFFFFFFFFFFFFFFFFFFFFFFFFFFFFFFFFF
310
FFFFFFFFFFFFFFFFFFFFFFFFFFFFFFFFFFFFFFFFFFFFFFFFF000FFFFFFFFFFFF
310
FFFFFFFFFFFFFFFFFFFFFFFFFFFFFFFFFFFFFFFFFFFFFFFFFFFFFFFFFFFFFFFF
310
FFFFFFFFFFFFFFFFFFFFFFFFFFFFFFFFFFFFFFFFFFFFFFFFFFFFFFFFFFFFFFFF
310
FFFFFFFFFFFFFFFFFFFFFFFFFFFFFFFFF000FFFFFFFFFFFFFFFFFFFFFFFFFFFF
310
FFFFFFFFFFFFFFFFFFFFFFFFFFFFFFFFFFFFFFFFFFFFFFFFFFFFFFFFFFFFFFFF
310
FFFFFFFFFFFFFFFFFFFFFFFFFFFFFFFFFFFFFFFFFFFFFFFFFFFFFFFFFFFFFFFF
310
FFFFFFFFFFFFFFFFF000FFFFFFFFFFFFFFFFFFFFFFFFFFFFFFFFFFFFFFFFFFFF
310
FFFFFFFFFFFFFFFFFFFFFFFFFFFFFFFFFFFFFFFFFFFFFFFFFFFFFFFFFFFFFFFF
310
FFFFFFFFFFFFFFFFFFFFFFFFFFFFFFFFFFFFFFFFFFFFFFFFFFFFFFFFFFFFFFFF
310
F000FFFFFFFFFFFFFFFFFFFFFFFFFFFFFFFFFFFFFFFFFFFFFFFFFFFFFFFFFFFF
310
FFFFFFFFFFFFFFFFFFFFFFFFFFFFFFFFFFFFFFFFFFFFFFFFFFFFFFFFFFFFFFFF
310
FFFFFFFFFFFFFFFFFFFFFFFFFFFFFFFFFFFFFFFFFFFFFFFFF000FFFFFFFFFFFF
310
FFFFFFFFFFFFFFFFFFFFFFFFFFFFFFFFFFFFFFFFFFFFFFFFFFFFFFFFFFFFFFFF
310
FFFFFFFFFFFFFFFFFFFFFFFFFFFFFFFFFFFFFFFFFFFFFFFFFFFFFFFFFFFFFFFF
310
FFFFFFFFFFFFFFFFFFFFFFFFFFFFFFFFF000FFFFFFFFFFFFFFFFFFFFFFFFFFFF
310
FFFFFFFFFFFFFFFFFFFFFFFFFFFFFFFFFFFFFFFFFFFFFFFFFFFFFFFFFFFFFFFF
310
FFFFFFFFFFFFFFFFFFFFFFFFFFFFFFFFFFFFFFFFFFFFFFFFFFFFFFFFFFFFFFFF
310
FFFFFFFFFFFFFFFFF000FFFFFFFFFFFFFFFFFFFFFFFFFFFFFFFFFFFFFFFFFFFF
310
FFFFFFFFFFFFFFFFFFFFFFFFFFFFFFFFFFFFFFFFFFFFFFFFFFFFFFFFFFFFFFFF
310
FFFFFFFFFFFFFFFFFFFFFFFFFFFFFFFFFFFFFFFFFFFFFFFFFFFFFFFFFFFFFFFF
310
F000FFFFFFFFFFFFFFFFFFFFFFFFFFFFFFFFFFFFFFFFFFFFFFFFFFFFFFFFFFFF
310
FFFFFFFFFFFFFFFFFFFFFFFFFFFFFFFFFFFFFFFFFFFFFFFFFFFFFFFFFFFFFFFF
310
FFFFFFFFFFFFFFFFFFFFFFFFFFFFFFFFFFFFFFFFFFFFFFFFF000FFFFFFFFFFFF
310
FFFFFFFFFFFFFFFFFFFFFFFFFFFFFFFFFFFFFFFFFFFFFFFFFFFFFFFFFFFFFFFF
310
FFFFFFFFFFFFFFFFFFFFFFFFFFFFFFFFFFFFFFFFFFFFFFFFFFFFFFFFFFFFFFFF
310
FFFFFFFFFFFFFFFFFFFFFFFFFFFFFFFFF000FFFFFFFFFFFFFFFFFFFFFFFFFFFF
310
FFFFFFFFFFFFFFFFFFFFFFFFFFFFFFFFFFFFFFFFFFFFFFFFFFFFFFFFFFFFFFFF
310
FFFFFFFFFFFFFFFFFFFFFFFFFFFFFFFFFFFFFFFFFFFFFFFFFFFFFFFFFFFFFFFF
310
FFFFFFFFFFFFFFFFF000FFFFF80003FFFFFFFFFFFFFFFFFFFFFFFFFFFFFFFFFF
310
FFFFF00007FFFFFFFFFF00007FFFFFF800000000000000007FFFFFFFFFFFFFFF
310
FFFFFFFC001FFFFFFFFFFFFFFC001FFFFFFFFFFFFFFFFFFFFFFFFFFE0007FFFF
310
F000FFFF8000007FFFFFFFF8000FFFFFC0007FFFFF80007FFFFF0000007FFFFF
310
FFF8000007FFFFF800000000000000007FFFFFF0001FFFFFFFFFFFC00001FFFF
310
FFFFFFFFC00001FFFFFFFF000000000003FFFFE000007FFFF000FFFE0000000F
310
FFFFFFF0000FFFFF80007FFFFF80007FFFFC0000001FFFFFFFC0000001FFFFF8
310
00000000000000007FFFFFF0001FFFFFFFFFFE0000003FFFFFFFFFFE0000003F
310
FFFFFF000000000003FFFF0000000FFFF000FFF800000003FFFFFFF00007FFFF
310
80007FFFFF80007FFFF000000007FFFFFF000000003FFFF80000000000000000
310
7FFFFFF0001FFFFFFFFFF80000000FFFFFFFFFF80000000FFFFFFF0000000000
310
03FFFC00000003FFF000FFE000000000FFFFFFF00007FFFF80003FFFFF80007F
310
FFC000000001FFFFFC000000001FFFF800000000000000007FFFFFF0001FFFFF
310
FFFFE000000003FFFFFFFFE000000003FFFFFF000000000003FFF000000000FF
310
F000FF80000000007FFFFFF00007FFFF80003FFFFF80007FFF8000000000FFFF
310
F80000000007FFF800000000000000007FFFFFF0001FFFFFFFFFC000000001FF
310
FFFFFFC000000001FFFFFF000000000003FFC0000000007FF000FF0000000000
310
3FFFFFE00007FFFF00003FFFFF80007FFE00000000003FFFF00000000003FFF8
310
00000000000000007FFFFFF0001FFFFFFFFF8000000000FFFFFFFF8000000000
310
FFFFFF000000000003FF80000000003FF000FE00000000001FFFFFE00003FFFF
310
00003FFFFF80007FFC00000000001FFFE00000000001FFF8000001FFFE000000
310
7FFFFFF0001FFFFFFFFE00000000003FFFFFFE00000000003FFFFF0000000000
310
03FF00000000001FF000FC00000000000FFFFFE00003FFFF00001FFFFF80007F
310
F800000000001FFFC00000000000FFF8000001FFFE0000007FFFFFF0001FFFFF
310
FFFC00000000001FFFFFFC00000000001FFFFF000000000003FE00000000000F
310
F000F8000000000007FFFFE00003FFFF00001FFFFF80007FF800000000000FFF
310
800000000000FFF8000001FFFE0000007FFFFFF0001FFFFFFFF800000000000F
310
FFFFF800000000000FFFFF000000000003FC000000000007F000F80000000000
310
03FFFFC00003FFFE00001FFFFF80007FF0000000000007FF0000000000007FF8
310
000001FFFE0000007FFFFFF0001FFFFFFFF0000000000007FFFFF00000000000
310
07FFFF000000000003F8000000000003F000F0000000000003FFFFC00001FFFE
310
00001FFFFF80007FE0000000000007FE0000000000003FF8000001FFFE000000
310
7FFFFFF0001FFFFFFFF0000000000007FFFFF0000000000007FFFF0000000000
310
03F800001F800003F000E00001FFF00001FFFFC00001FFFE00000FFFFF80007F
310
E00001FFE00003FE00001FFF00003FF8000001FFFE0000007FFFFFF0001FFFFF
310
FFE000003E000003FFFFE000003E000003FFFF000000000003F00001FFF80001
310
F000E00007FFFC0001FFFFC00001FFFE00000FFFFF80007FC0000FFFFC0003FC
310
0000FFFFC0001FF8000001FFFE0000007FFFFFF0001FFFFFFFC00003FFE00001
310
FFFFC00003FFE00001FFFF0001FFFFFFFFF00007FFFE0001F000E0000FFFFF00
310
00FFFF800001FFFC00000FFFFF80007FC0001FFFFE0001FC0001FFFFE0001FF8
310
000001FFFE0000007FFFFFF0001FFFFFFF80000FFFF80000FFFF80000FFFF800
310
00FFFF0003FFFFFFFFE0000FFFFF8000F000C0003FFFFF8000FFFF800000FFFC
310
000007FFFF80007F80003FFFFF0001FC0003FFFFF0001FF8000001FFFE000000
310
7FFFFFF0001FFFFFFF80003FFFFE0000FFFF80003FFFFE0000FFFF0003FFFFFF
310
FFE0003FFFFF8000F000C0003FFFFF8000FFFF800000FFFC000007FFFF80007F
310
80007FFFFF8001F80007FFFFF8000FF8000001FFFE0000007FFFFFF0001FFFFF
310
FF00007FFFFF00007FFF00007FFFFF00007FFF0003FFFFFFFFE0003FFFFFC000
310
F000C0007FFFFFC000FFFF000000FFFC000007FFFF80007F8000FFFFFF8000F8
310
000FFFFFF8000FF8000001FFFE0000007FFFFFF0001FFFFFFF0000FFFFFF8000
310
7FFF0000FFFFFF80007FFF0003FFFFFFFFC0007FFFFFC00070008000FFFFFFC0
310
00FFFF000000FFF8000007FFFF80007F8000FFFFFF8000F8000FFFFFF8000FF8
310
000001FFFE0000007FFFFFF0001FFFFFFE0001FFFFFFC0003FFE0001FFFFFFC0
310
003FFF0003FFFFFFFFC0007FFFFFE00070008000FFFFFFC0007FFF0000007FF8
310
000003FFFF80007F0001FFFFFF8000F8000FFFFFF8000FF8000001FFFE000000
310
7FFFFFF0001FFFFFFE0001FFFFFFC0003FFE0001FFFFFFC0003FFF0003FFFFFF
310
FFC000FFFFFFE00070008000FFFFFFC0007FFF0000007FF8000003FFFF80007F
310
0001FFFFFF8000F8001FFFFFF8000FF8000001FFFE0000007FFFFFF0001FFFFF
310
FE0003FFFFFFE0003FFE0003FFFFFFE0003FFF0003FFFFFFFFC000FFFFFFE000
310
70008000FFFFFFC0007FFE0000007FF8000003FFFF80007F0001FFFFFF8000F0
310
001FFFFFF8000FF8000001FFFE0000007FFFFFF0001FFFFFFC0003FFFFFFE000
310
1FFC0003FFFFFFE0001FFF0003FFFFFFFFC000FFFFFFC00070008000FFFFFF80
310
007FFE0000007FF0000003FFFF80007F0001FFFFFF0000F0001FFFFFF8000FF8
310
000001FFFE0000007FFFFFF0001FFFFFFC0007FFFFFFF0001FFC0007FFFFFFF0
310
001FFF0003FFFFFFFFC000FFFFFFC00070008001FFFFFF0000FFFE0000003FF0
310
000001FFFF80007F0001FFFFFF0000F8001FFFFFF0000FF8000001FFFE000000
310
7FFFFFF0001FFFFFFC0007FFFFFFF0001FFC0007FFFFFFF0001FFF0003FFFFFF
310
FFC001FFFFFF80007000FFFFFFFFFE0000FFFE0008003FF0008001FFFF80007F
310
FFFFFFFFFC0000FFFFFFFFFFE0000FF8000001FFFE0000007FFFFFF0001FFFFF
310
F8000FFFFFFFF8000FF8000FFFFFFFF8000FFF0003FFFFFFFFFFFFFFFFFF0000
310
7000FFFFFFFFFC0000FFFC0008003FF0008001FFFF80007FFFFFFFFFF80001FF
310
FFFFFFFF80000FF8000001FFFE0000007FFFFFF0001FFFFFF8000FFFFFFFF800
310
0FF8000FFFFFFFF8000FFF0003FFFFFFFFFFFFFFFFFE0000F000FFFFFFFFE000
310
00FFFC000C003FE000C001FFFF80007FFFFFFFFFC00001FFFFFFFFFE00001FF8
310
000001FFFE0000007FFFFFF0001FFFFFF8000FFFFFFFF8000FF8000FFFFFFFF8
310
000FFF0003FFFFFFFFFFFFFFFFF00000F000FFFFFFFE000001FFFC000C001FE0
310
00C000FFFF80007FFFFFFFFE000001FFFFFFFFE000001FF80FFFFFFFFFFFFFC0
310
7FFFFFF0001FFFFFF8000FFFFFFFF8000FF8000FFFFFFFF8000FFF0003FFFFFF
310
FFFFFFFFFF800000F000FFFFFFC0000001FFFC001C001FE001C000FFFF80007F
310
FFFFFF80000003FFFFFFF80000001FF80FFFFFFFFFFFFFC07FFFFFF0001FFFFF
310
F8001FFFFFFFFC000FF8001FFFFFFFFC000FFF0003FFFFFFFFFFFFFFF0000001
310
F000FFFFF800000001FFF8001C001FE001C000FFFF80007FFFFFF800000003FF
310
FFFF800000003FF80FFFFFFFFFFFFFC07FFFFFF0001FFFFFF8001FFFFFFFFC00
310
0FF8001FFFFFFFFC000FFF0003FFFFFFFFFFFFFE00000001F000FFFFC0000000
310
03FFF8001E001FC001E000FFFF80007FFFFF8000000007FFFFFC000000003FF8
310
0FFFFFFFFFFFFFC07FFFFFF0001FFFFFF8001FFFFFFFFC000FF8001FFFFFFFFC
310
000FFF0003FFFFFFFFFFFFE000000003F000FFFE0000000007FFF8001E000FC0
310
01E0007FFF80007FFFFE0000000007FFFFE0000000007FF80FFFFFFFFFFFFFC0
310
7FFFFFF0001FFFFFF0001FFFFFFFFC0007F0001FFFFFFFFC0007FF0003FFFFFF
310
FFFFFF0000000003F000FFF80000000007FFF8001E000FC003E0007FFF80007F
310
FFF0000000000FFFFF8000000000FFF80FFFFFFFFFFFFFC07FFFFFF0001FFFFF
310
F0001FFFFFFFFC0007F0001FFFFFFFFC0007FF0003FFFFFFFFFFFC0000000007
310
F000FFE0000000000FFFF0003E000FC003E0007FFF80007FFFC0000000001FFF
310
FE0000000001FFF80FFFFFFFFFFFFFC07FFFFFF0001FFFFFF0001FFFFFFFFC00
310
07F0001FFFFFFFFC0007FF0003FFFFFFFFFFF0000000000FF000FFC000000000
310
1FFFF0003F000F8003F0003FFF80007FFF80000000003FFFF80000000003FFF8
310
0FFFFFFFFFFFFFC07FFFFFF0001FFFFFF0001FFFFFFFFC0007F0001FFFFFFFFC
310
0007FF0003FFFFFFFFFFE0000000001FF000FF00000000007FFFF0003F000780
310
03F0003FFF80007FFF00000000007FFFF00000000007FFF80FFFFFFFFFFFFFC0
310
7FFFFFF0001FFFFFF0001FFFFFFFFC0007F0001FFFFFFFFC0007FF0003FFFFFF
310
FFFF80000000007FF000FE0000000000FFFFE0003F00078007F0003FFF80007F
310
FE0000000001FFFFE0000000001FFFF80FFFFFFFFFFFFFC07FFFFFF0001FFFFF
310
F0001FFFFFFFFC0007F0001FFFFFFFFC0007FF0003FFFFFFFFFF0000000000FF
310
F000FC0000000003FFFFE0007F00078007F0003FFF80007FFC0000000007FFFF
310
C0000000007FFFF80FFFFFFFFFFFFFC07FFFFFF0001FFFFFF8001FFFFFFFFC00
310
0FF8001FFFFFFFFC000FFF0003FFFFFFFFFE0000000003FFF000FC000000000F
310
FFFFE0007F80070007F8001FFF80007FF8000000001FFFFF8000000001FFFFF8
310
0FFFFFFFFFFFFFC07FFFFFF0001FFFFFF8001FFFFFFFFC000FF8001FFFFFFFFC
310
000FFF0003FFFFFFFFFC000000000FFFF000F8000000007FFFFFE0007F800700
310
07F8001FFF80007FF000000000FFFFFF800000000FFFFFF80FFFFFFFFFFFFFC0
310
7FFFFFF0001FFFFFF8000FFFFFFFF8000FF8000FFFFFFFF8000FFF0003FFFFFF
310
FFFC000000007FFFF000F800000007FFFFFFC0007F8003000FF8001FFF80007F
310
F000000007FFFFFF000000007FFFFFF80FFFFFFFFFFFFFC07FFFFFF0001FFFFF
310
F8000FFFFFFFF8000FF8000FFFFFFFF8000FFF0003FFFFFFFFF80000000FFFFF
310
F000F0000000FFFFFFFFC000FF8003000FF8001FFF80007FE0000000FFFFFFFF
310
0000000FFFFFFFF8000001FFFE0000007FFFFFF0001FFFFFF8000FFFFFFFF800
310
0FF8000FFFFFFFF8000FFF0003FFFFFFFFF8000000FFFFFFF000F000000FFFFF
310
FFFFC000FFC002000FF8000FFF80007FE000001FFFFFFFFE000001FFFFFFFFF8
310
000001FFFE0000007FFFFFF0001FFFFFF8000FFFFFFFF8000FF8000FFFFFFFF8
310
000FFF0003FFFFFFFFF000001FFFFFFFF000E00000FFFFFFFFFFC000FFC00200
310
0FFC000FFF80007FE00001FFFFFFFFFE00001FFFFFFFFFF8000001FFFE000000
310
7FFFFFF0001FFFFFFC000FFFFFFFF8001FFC000FFFFFFFF8001FFF0003FFFFFF
310
FFF00001FFFFFFFFF000E00007FFFFFFFFFF8000FFC000001FFC000FFF80007F
310
C0000FFFFFFFFFFE0000FFFFFFFFFFF8000001FFFE0000007FFFFFF0001FFFFF
310
FC0007FFFFFFF0001FFC0007FFFFFFF0001FFF0003FFFFFFFFF00007FFFFFFFF
310
F000E0001FFFFFFFFFFF8000FFC000001FFC000FFF80007FC0003FFFFFFFFFFE
310
0001FFFFFFFFFFF8000001FFFE0000007FFFFFF0001FFFFFFC0007FFFFFFF000
310
1FFC0007FFFFFFF0001FFF0003FFFFFFFFF0001FFFFFFFFFF000E0003FFFFF00
310
03FF8001FFE000001FFC0007FF80007FC0007FFFFF0007FC0003FFFFF0003FF8
310
000001FFFE0000007FFFFFF0001FFFFFFC0003FFFFFFE0001FFC0003FFFFFFE0
310
001FFF0003FFFFFFFFF0003FFFFFFFFFF000E0003FFFFF0001FF8001FFE00000
310
1FFE0007FF80007FC0007FFFFE0003FC0007FFFFE0003FF8000001FFFE000000
310
7FFFFFF0001FFFFFFE0003FFFFFFE0003FFE0003FFFFFFE0003FFF0003FFFFFF
310
FFF0003FFFFF8001F000E0003FFFFF0001FF0001FFE000001FFE0007FF80007F
310
C0007FFFFE0003FC0007FFFFE0003FF8000001FFFE0000007FFFFFF0001FFFFF
310
FE0001FFFFFFC0003FFE0001FFFFFFC0003FFF0003FFFFFFFFF0003FFFFF0001
310
F000E0003FFFFF0003FF0001FFE000003FFE0007FF80007FC0007FFFFE0003FC
310
0007FFFFE0003FF8000001FFFE0000007FFFFFF0001FFFFFFF0001FFFFFFC000
310
7FFF0001FFFFFFC0007FFF0003FFFFFFFFF0003FFFFF0001F000E0003FFFFE00
310
03FF0003FFF000003FFE0003FF80007FC0007FFFFC0003FE0007FFFFE0003FF8
310
000001FFFE0000007FFFFFF0001FFFFFFF0000FFFFFF80007FFF0000FFFFFF80
310
007FFF0003FFFFFFFFF0003FFFFF0001F000E0003FFFFE0003FF0003FFF00000
310
3FFF0003FF80007FC0007FFFFC0007FE0007FFFFC0003FF8000001FFFE000000
310
7FFFFFF0001FFFFFFF80007FFFFF0000FFFF80007FFFFF0000FFFF0003FFFFFF
310
FFF0003FFFFF0003F000E0003FFFFC0003FE0003FFF000003FFF0003FF80007F
310
E0003FFFF80007FE0003FFFFC0007FF8000001FFFE0000007FFFFFF0001FFFFF
310
FF80003FFFFE0000FFFF80003FFFFE0000FFFF0003FFFFFFFFF0001FFFFE0003
310
F000F0001FFFF80003FE0003FFF000007FFF0001FF80007FE0003FFFF00007FE
310
0001FFFF80007FF8000001FFFE0000007FFFFFF0001FFFFFFFC0000FFFF80001
310
FFFFC0000FFFF80001FFFF0003FFFFFFFFF0001FFFFC0003F000F0000FFFF000
310
07FE0007FFF800007FFF0001FF80007FE0001FFFE00007FF0000FFFE00007FF8
310
000001FFFE0000007FFFFFF0001FFFFFFFC00003FFE00001FFFFC00003FFE000
310
01FFFF0003FFFFFFFFF8000FFFF80003F000F00003FFC00007FC0007FFF80000
310
7FFF8001FF80007FF00007FF80000FFF00007FF80000FFF8000001FFFE000000
310
7F80000000000001FFE000003E000003FFFFE000003E000003FFFF0003FFFFFF
310
FFF80003FFE00007F000F800000000000FFC0007FFF800007FFF8001FF80007F
310
F000000000000FFF000000000000FFF8000001FFFE0000007F80000000000001
310
FFF0000000000007FFFFF0000000000007FFFF0003FFFFFFFFFC00007E000007
310
F000F800000000000FFC0007FFF80000FFFF8000FF80007FF800000000001FFF
310
800000000001FFF8000001FFFE0000007F80000000000001FFF800000000000F
310
FFFFF800000000000FFFFF0003FFFFFFFFFC00000000000FF000FC0000000000
310
1FFC0007FFFC0000FFFF8000FF80007FF800000000003FFFC00000000001FFF8
310
000001FFFE0000007F80000000000001FFF800000000000FFFFFF80000000000
310
0FFFFF0003FFFFFFFFFE00000000001FF000FE00000000003FF8000FFFFC0000
310
FFFF8000FF80007FFC00000000003FFFC00000000003FFF8000001FFFE000000
310
7F80000000000001FFFC00000000001FFFFFFC00000000001FFFFF0003FFFFFF
310
FFFF00000000001FF000FF00000000003FF8000FFFFC0000FFFFC000FF80007F
310
FE00000000007FFFE00000000007FFF8000001FFFE0000007F80000000000001
310
FFFE00000000003FFFFFFE00000000003FFFFF0003FFFFFFFFFF80000000003F
310
F000FF80000000007FF8000FFFFC0001FFFFC0007F80007FFF0000000000FFFF
310
F0000000000FFFF800000000000000007F80000000000001FFFF8000000000FF
310
FFFFFF8000000000FFFFFF0003FFFFFFFFFFC0000000007FF000FFC000000000
310
FFF8000FFFFE0001FFFFC0007F80007FFF8000000001FFFFF8000000001FFFF8
310
00000000000000007F80000000000001FFFFC000000001FFFFFFFFC000000001
310
FFFFFF0003FFFFFFFFFFE000000000FFF000FFE000000003FFF0001FFFFE0001
310
FFFFC0007F80007FFFC000000007FFFFFE000000003FFFF80000000000000000
310
7F80000000000001FFFFE000000003FFFFFFFFE000000003FFFFFF0003FFFFFF
310
FFFFF000000003FFF000FFF80000000FFFF0001FFFFE0001FFFFE0007F80007F
310
FFF00000000FFFFFFF00000000FFFFF800000000000000007F80000000000001
310
FFFFF80000000FFFFFFFFFF80000000FFFFFFF0003FFFFFFFFFFFC0000000FFF
310
F000FFFE0000003FFFF0001FFFFE0003FFFFE0003F80007FFFFC0000003FFFFF
310
FFC0000003FFFFF800000000000000007F80000000000001FFFFFE0000003FFF
310
FFFFFFFE0000003FFFFFFF0003FFFFFFFFFFFF0000003FFFF000FFFF800000FF
310
FFF0001FFFFF0003FFFFE0003F80007FFFFF000001FFFFFFFFF800001FFFFFF8
310
00000000000000007F80000000000001FFFFFFC00001FFFFFFFFFFFFC00001FF
310
FFFFFF0003FFFFFFFFFFFFC00000FFFFF000FFFFF8000FFFFFFFFFFFFFFFFFFF
310
FFFFFFFFFFFFFFFFFFFFF0001FFFFFFFFFFF0000FFFFFFF80000000000000000
310
7FFFFFFFFFFFFFFFFFFFFFFC001FFFFFFFFFFFFFFC001FFFFFFFFFFFFFFFFFFF
310
FFFFFFFC001FFFFFF000FFFFFFFFFFFFFFFFFFFFFFFFFFFFFFFFFFFFFFFFFFFF
310
FFFFFFFFFFFFFFFFFFFFFFFFFFFFFFFFFFFFFFFFFFFFFFFFFFFFFFFFFFFFFFFF
310
FFFFFFFFFFFFFFFFFFFFFFFFFFFFFFFFFFFFFFFFFFFFFFFFFFFFFFFFFFFFFFFF
310
F000FFFFFFFFFFFFFFFFFFFFFFFFFFFFFFFFFFFFFFFFFFFFFFFFFFFFFFFFFFFF
310
FFFFFFFFFFFFFFFFFFFFFFFFFFFFFFFFFFFFFFFFFFFFFFFFFFFFFFFFFFFFFFFF
310
FFFFFFFFFFFFFFFFFFFFFFFFFFFFFFFFFFFFFFFFFFFFFFFFF000FFFFFFFFFFFF
310
FFFFFFFFFFFFFFFFFFFFFFFFFFFFFFFFFFFFFFFFFFFFFFFFFFFFFFFFFFFFFFFF
310
FFFFFFFFFFFFFFFFFFFFFFFFFFFFFFFFFFFFFFFFFFFFFFFFFFFFFFFFFFFFFFFF
310
FFFFFFFFFFFFFFFFFFFFFFFFFFFFFFFFF000FFFFFFFFFFFFFFFFFFFFFFFFFFFF
310
FFFFFFFFFFFFFFFFFFFFFFFFFFFFFFFFFFFFFFFFFFFFFFFFFFFFFFFFFFFFFFFF
310
FFFFFFFFFFFFFFFFFFFFFFFFFFFFFFFFFFFFFFFFFFFFFFFFFFFFFFFFFFFFFFFF
310
FFFFFFFFFFFFFFFFF000FFFFFFFFFFFFFFFFFFFFFFFFFFFFFFFFFFFFFFFFFFFF
310
FFFFFFFFFFFFFFFFFFFFFFFFFFFFFFFFFFFFFFFFFFFFFFFFFFFFFFFFFFFFFFFF
310
FFFFFFFFFFFFFFFFFFFFFFFFFFFFFFFFFFFFFFFFFFFFFFFFFFFFFFFFFFFFFFFF
310
F000FFFFFFFFFFFFFFFFFFFFFFFFFFFFFFFFFFFFFFFFFFFFFFFFFFFFFFFFFFFF
310
FFFFFFFFFFFFFFFFFFFFFFFFFFFFFFFFFFFFFFFFFFFFFFFFFFFFFFFFFFFFFFFF
310
FFFFFFFFFFFFFFFFFFFFFFFFFFFFFFFFFFFFFFFFFFFFFFFFF000FFFFFFFFFFFF
310
FFFFFFFFFFFFFFFFFFFFFFFFFFFFFFFFFFFFFFFFFFFFFFFFFFFFFFFFFFFFFFFF
310
FFFFFFFFFFFFFFFFFFFFFFFFFFFFFFFFFFFFFFFFFFFFFFFFFFFFFFFFFFFFFFFF
310
FFFFFFFFFFFFFFFFFFFFFFFFFFFFFFFFF000FFFFFFFFFFFFFFFFFFFFFFFFFFFF
310
FFFFFFFFFFFFFFFFFFFFFFFFFFFFFFFFFFFFFFFFFFFFFFFFFFFFFFFFFFFFFFFF
310
FFFFFFFFFFFFFFFFFFFFFFFFFFFFFFFFFFFFFFFFFFFFFFFFFFFFFFFFFFFFFFFF
310
FFFFFFFFFFFFFFFFF000FFFFFFFFFFFFFFFFFFFFFFFFFFFFFFFFFFFFFFFFFFFF
310
FFFFFFFFFFFFFFFFFFFFFFFFFFFFFFFFFFFFFFFFFFFFFFFFFFFFFFFFFFFFFFFF
310
FFFFFFFFFFFFFFFFFFFFFFFFFFFFFFFFFFFFFFFFFFFFFFFFFFFFFFFFFFFFFFFF
310
F000FFFFFFFFFFFFFFFFFFFFFFFFFFFFFFFFFFFFFFFFFFFFFFFFFFFFFFFFFFFF
310
FFFFFFFFFFFFFFFFFFFFFFFFFFFFFFFFFFFFFFFFFFFFFFFFFFFFFFFFFFFFFFFF
310
FFFFFFFFFFFFFFFFFFFFFFFFFFFFFFFFFFFFFFFFFFFFFFFFF000FFFFFFFFFFFF
310
FFFFFFFFFFFFFFFFFFFFFFFFFFFFFFFFFFFFFFFFFFFFFFFFFFFFFFFFFFFFFFFF
310
FFFFFFFFFFFFFFFFFFFFFFFFFFFFFFFFFFFFFFFFFFFFFFFFFFFFFFFFFFFFFFFF
310
FFFFFFFFFFFFFFFFFFFFFFFFFFFFFFFFF000FFFFFFFFFFFFFFFFFFFFFFFFFFFF
310
FFFFFFFFFFFFFFFFFFFFFFFFFFFFFFFFFFFFFFFFFFFFFFFFFFFFFFFFFFFFFFFF
310
FFFFFFFFFFFFFFFFFFFFFFFFFFFFFFFFFFFFFFFFFFFFFFFFFFFFFFFFFFFFFFFF
310
FFFFFFFFFFFFFFFFF000FFFFFFFFFFFFFFFFFFFFFFFFFFFFFFFFFFFFFFFFFFFF
310
FFFFFFFFFFFFFFFFFFFFFFFFFFFFFFFFFFFFFFFFFFFFFFFFFFFFFFFFFFFFFFFF
310
FFFFFFFFFFFFFFFFFFFFFFFFFFFFFFFFFFFFFFFFFFFFFFFFFFFFFFFFFFFFFFFF
310
F000FFFFFFFFFFFFFFFFFFFFFFFFFFFFFFFFFFFFFFFFFFFFFFFFFFFFFFFFFFFF
310
FFFFFFFFFFFFFFFFFFFFFFFFFFFFFFFFFFFFFFFFFFFFFFFFFFFFFFFFFFFFFFFF
310
FFFFFFFFFFFFFFFFFFFFFFFFFFFFFFFFFFFFFFFFFFFFFFFFF000FFFFFFFFFFFF
310
FFFFFFFFFFFFFFFFFFFFFFFFFFFFFFFFFFFFFFFFFFFFFFFFFFFFFFFFFFFFFFFF
310
FFFFFFFFFFFFFFFFFFFFFFFFFFFFFFFFFFFFFFFFFFFFFFFFFFFFFFFFFFFFFFFF
310
FFFFFFFFFFFFFFFFFFFFFFFFFFFFFFFFF000FFFFFFFFFFFFFFFFFFFFFFFFFFFF
310
FFFFFFFFFFFFFFFFFFFFFFFFFFFFFFFFFFFFFFFFFFFFFFFFFFFFFFFFFFFFFFFF
310
FFFFFFFFFFFFFFFFFFFFFFFFFFFFFFFFFFFFFFFFFFFFFFFFFFFFFFFFFFFFFFFF
310
FFFFFFFFFFFFFFFFF000FFFFFFFFFFFFFFFFFFFFFFFFFFFFFFFFFFFFFFFFFFFF
310
FFFFFFFFFFFFFFFFFFFFFFFFFFFFFFFFFFFFFFFFFFFFFFFFFFFFFFFFFFFFFFFF
310
FFFFFFFFFFFFFFFFFFFFFFFFFFFFFFFFFFFFFFFFFFFFFFFFFFFFFFFFFFFFFFFF
310
F000FFFFFFFFFFFFFFFFFFFFFFFFFFFFFFFFFFFFFFFFFFFFFFFFFFFFFFFFFFFF
310
FFFFFFFFFFFFFFFFFFFFFFFFFFFFFFFFFFFFFFFFFFFFFFFFFFFFFFFFFFFFFFFF
310
FFFFFFFFFFFFFFFFFFFFFFFFFFFFFFFFFFFFFFFFFFFFFFFFF000FFFFFFFFFFFF
310
FFFFFFFFFFFFFFFFFFFFFFFFFFFFFFFFFFFFFFFFFFFFFFFFFFFFFFFFFFFFFFFF
310
FFFFFFFFFFFFFFFFFFFFFFFFFFFFFFFFFFFFFFFFFFFFFFFFFFFFFFFFFFFFFFFF
310
FFFFFFFFFFFFFFFFFFFFFFFFFFFFFFFFF000FFFFFFFFFFFFFFFFFFFFFFFFFFFF
310
FFFFFFFFFFFFFFFFFFFFFFFFFFFFFFFFFFFFFFFFFFFFFFFFFFFFFFFFFFFFFFFF
310
FFFFFFFFFFFFFFFFFFFFFFFFFFFFFFFFFFFFFFFFFFFFFFFFFFFFFFFFFFFFFFFF
310
FFFFFFFFFFFFFFFFF000FFFFFFFFFFFFFFFFFFFFFFFFFFFFFFFFFFFFFFFFFFFF
310
FFFFFFFFFFFFFFFFFFFFFFFFFFFFFFFFFFFFFFFFFFFFFFFFFFFFFFFFFFFFFFFF
310
FFFFFFFFFFFFFFFFFFFFFFFFFFFFFFFFFFFFFFFFFFFFFFFFFFFFFFFFFFFFFFFF
310
F000FFFFFFFFFFFFFFFFFFFFFFFFFFFFFFFFFFFFFFFFFFFFFFFFFFFFFFFFFFFF
310
FFFFFFFFFFFFFFFFFFFFFFFFFFFFFFFFFFFFFFFFFFFFFFFFFFFFFFFFFFFFFFFF
310
FFFFFFFFFFFFFFFFFFFFFFFFFFFFFFFFFFFFFFFFFFFFFFFFF000FFFFFFFFFFFF
310
FFFFFFFFFFFFFFFFFFFFFFFFFFFFFFFFFFFFFFFFFFFFFFFFFFFFFFFFFFFFFFFF
310
FFFFFFFFFFFFFFFFFFFFFFFFFFFFFFFFFFFFFFFFFFFFFFFFFFFFFFFFFFFFFFFF
310
FFFFFFFFFFFFFFFFFFFFFFFFFFFFFFFFF0000000000000000000000000000000
310
0000000000000000000000000000000000000000000000000000000000000000
310
0000000000000000000000000000000000000000000000000000000000000000
310
0000000000000000000000000000000000000000000000000000000000000000
310
0000000000000000000000000000000000000000000000000000000000000000
310
0000000000000000000000000000000000000000000000000000000000000000
310
0000000000000000000000000000000000000000000000000000000000000000
310
0000000000000000000000000000000000000000000000000000000000000000
310
0000000000000000000000000000000000000000000000000000000000000000
310
0000000000000000000000000000000000000000000000000000000000000000
310
0000000000000000000000000000000000000000000000000000000000000000
310
0000000000000000000000000000000000000000000000000000000000000000
310
0000000000000000000000000000000000000000000000000000000000000000
310
0000000000000000000000000000000000000000000000000000000000000000
310
0000000000000000000000000000000000000000000000000000000000000000
310
0000000000000000000000000000000000000000000000000000000000000000
  1
OLE
  0
ENDSEC
  0
SECTION
  2
OBJECTS
  0
DICTIONARY
  5
C
330
0
100
AcDbDictionary
281
     1
  3
ACAD_GROUP
350
D
  3
ACAD_LAYOUT
350
1A
  3
ACAD_MLINESTYLE
350
17
  3
ACAD_PLOTSETTINGS
350
19
  3
ACAD_PLOTSTYLENAME
350
E
  3
ACAD_SCALELIST
350
47
  0
DICTIONARY
  5
D
102
{ACAD_REACTORS
330
C
102
}
330
C
100
AcDbDictionary
281
     1
  0
DICTIONARY
  5
1A
102
{ACAD_REACTORS
330
C
102
}
330
C
100
AcDbDictionary
281
     1
  3
Layout1
350
1E
  3
Layout2
350
26
  3
Model
350
22
  0
DICTIONARY
  5
17
102
{ACAD_REACTORS
330
C
102
}
330
C
100
AcDbDictionary
281
     1
  3
Standard
350
18
  0
DICTIONARY
  5
19
102
{ACAD_REACTORS
330
C
102
}
330
C
100
AcDbDictionary
281
     1
  0
ACDBDICTIONARYWDFLT
  5
E
102
{ACAD_REACTORS
330
C
102
}
330
C
100
AcDbDictionary
281
     1
  3
Normal
350
F
100
AcDbDictionaryWithDefault
340
F
  0
DICTIONARY
  5
47
102
{ACAD_REACTORS
330
C
102
}
330
C
100
AcDbDictionary
281
     1
  3
A0
350
48
  3
A1
350
49
  3
A2
350
4A
  3
A3
350
4B
  3
A4
350
4C
  3
A5
350
4D
  3
A6
350
4E
  3
A7
350
4F
  3
A8
350
50
  3
A9
350
51
  3
B0
350
52
  3
B1
350
53
  3
B2
350
54
  3
B3
350
55
  3
B4
350
56
  3
B5
350
57
  3
B6
350
58
  3
B7
350
59
  3
B8
350
5A
  3
B9
350
5B
  3
C0
350
5C
  3
C1
350
5D
  3
C2
350
5E
  3
C3
350
5F
  3
C4
350
60
  3
C5
350
61
  3
C6
350
62
  3
C7
350
63
  3
C8
350
64
  3
C9
350
65
  3
D0
350
66
  3
D1
350
67
  3
D2
350
68
  0
LAYOUT
  5
1E
102
{ACAD_REACTORS
330
1A
102
}
330
1A
100
AcDbPlotSettings
  1

  2
none_device
  4

  6

 40
0.0
 41
0.0
 42
0.0
 43
0.0
 44
0.0
 45
0.0
 46
0.0
 47
0.0
 48
0.0
 49
0.0
140
0.0
141
0.0
142
1.0
143
1.0
 70
   688
 72
     1
 73
     0
 74
     5
  7

 75
    16
147
1.0
148
0.0
149
0.0
100
AcDbLayout
  1
Layout1
 70
     1
 71
     1
 10
0.0
 20
0.0
 11
420.0
 21
297.0
 12
0.0
 22
0.0
 32
0.0
 14
1.0000000000E+20
 24
1.0000000000E+20
 34
1.0000000000E+20
 15
-1.0000000000E+20
 25
-1.0000000000E+20
 35
-1.0000000000E+20
146
0.0
 13
0.0
 23
0.0
 33
0.0
 16
1.0
 26
0.0
 36
0.0
 17
0.0
 27
1.0
 37
0.0
 76
     0
330
1B
  0
LAYOUT
  5
26
102
{ACAD_REACTORS
330
1A
102
}
330
1A
100
AcDbPlotSettings
  1

  2
none_device
  4

  6

 40
0.0
 41
0.0
 42
0.0
 43
0.0
 44
0.0
 45
0.0
 46
0.0
 47
0.0
 48
0.0
 49
0.0
140
0.0
141
0.0
142
1.0
143
1.0
 70
   688
 72
     1
 73
     0
 74
     5
  7

 75
    16
147
1.0
148
0.0
149
0.0
100
AcDbLayout
  1
Layout2
 70
     1
 71
     2
 10
0.0
 20
0.0
 11
0.0
 21
0.0
 12
0.0
 22
0.0
 32
0.0
 14
0.0
 24
0.0
 34
0.0
 15
0.0
 25
0.0
 35
0.0
146
0.0
 13
0.0
 23
0.0
 33
0.0
 16
1.0
 26
0.0
 36
0.0
 17
0.0
 27
1.0
 37
0.0
 76
     0
330
23
  0
LAYOUT
  5
22
102
{ACAD_REACTORS
330
1A
102
}
330
1A
100
AcDbPlotSettings
  1

  2
none_device
  4
Letter_(8.50_x_11.00_Inches)
  6

 40
6.35
 41
6.35
 42
6.35000508
 43
6.35000508
 44
215.9
 45
279.4
 46
0.0
 47
0.0
 48
0.0
 49
0.0
140
0.0
141
0.0
142
1.0
143
1.0
 70
  1712
 72
     1
 73
     0
 74
     0
  7

 75
     0
147
1.0
148
0.0
149
0.0
100
AcDbLayout
  1
Model
 70
     1
 71
     0
 10
0.0
 20
0.0
 11
297.0
 21
210.0
 12
0.0
 22
0.0
 32
0.0
 14
0.0
 24
0.0
 34
0.0
 15
297.0
 25
210.0
 35
0.0
146
0.0
 13
0.0
 23
0.0
 33
0.0
 16
1.0
 26
0.0
 36
0.0
 17
0.0
 27
1.0
 37
0.0
 76
     0
330
1F
331
29
  0
MLINESTYLE
  5
18
102
{ACAD_REACTORS
330
17
102
}
330
17
100
AcDbMlineStyle
  2
Standard
 70
     0
  3

 62
   256
 51
90.0
 52
90.0
 71
     2
 49
0.5
 62
   256
  6
BYLAYER
 49
-0.5
 62
   256
  6
BYLAYER
  0
ACDBPLACEHOLDER
  5
F
102
{ACAD_REACTORS
330
E
102
}
330
E
  0
SCALE
  5
48
102
{ACAD_REACTORS
330
47
102
}
330
47
100
AcDbScale
 70
     0
300
1:1
140
1.0
141
1.0
290
     1
  0
SCALE
  5
49
102
{ACAD_REACTORS
330
47
102
}
330
47
100
AcDbScale
 70
     0
300
1:2
140
1.0
141
2.0
290
     0
  0
SCALE
  5
4A
102
{ACAD_REACTORS
330
47
102
}
330
47
100
AcDbScale
 70
     0
300
1:4
140
1.0
141
4.0
290
     0
  0
SCALE
  5
4B
102
{ACAD_REACTORS
330
47
102
}
330
47
100
AcDbScale
 70
     0
300
1:5
140
1.0
141
5.0
290
     0
  0
SCALE
  5
4C
102
{ACAD_REACTORS
330
47
102
}
330
47
100
AcDbScale
 70
     0
300
1:8
140
1.0
141
8.0
290
     0
  0
SCALE
  5
4D
102
{ACAD_REACTORS
330
47
102
}
330
47
100
AcDbScale
 70
     0
300
1:10
140
1.0
141
10.0
290
     0
  0
SCALE
  5
4E
102
{ACAD_REACTORS
330
47
102
}
330
47
100
AcDbScale
 70
     0
300
1:16
140
1.0
141
16.0
290
     0
  0
SCALE
  5
4F
102
{ACAD_REACTORS
330
47
102
}
330
47
100
AcDbScale
 70
     0
300
1:20
140
1.0
141
20.0
290
     0
  0
SCALE
  5
50
102
{ACAD_REACTORS
330
47
102
}
330
47
100
AcDbScale
 70
     0
300
1:30
140
1.0
141
30.0
290
     0
  0
SCALE
  5
51
102
{ACAD_REACTORS
330
47
102
}
330
47
100
AcDbScale
 70
     0
300
1:40
140
1.0
141
40.0
290
     0
  0
SCALE
  5
52
102
{ACAD_REACTORS
330
47
102
}
330
47
100
AcDbScale
 70
     0
300
1:50
140
1.0
141
50.0
290
     0
  0
SCALE
  5
53
102
{ACAD_REACTORS
330
47
102
}
330
47
100
AcDbScale
 70
     0
300
1:100
140
1.0
141
100.0
290
     0
  0
SCALE
  5
54
102
{ACAD_REACTORS
330
47
102
}
330
47
100
AcDbScale
 70
     0
300
2:1
140
2.0
141
1.0
290
     0
  0
SCALE
  5
55
102
{ACAD_REACTORS
330
47
102
}
330
47
100
AcDbScale
 70
     0
300
4:1
140
4.0
141
1.0
290
     0
  0
SCALE
  5
56
102
{ACAD_REACTORS
330
47
102
}
330
47
100
AcDbScale
 70
     0
300
8:1
140
8.0
141
1.0
290
     0
  0
SCALE
  5
57
102
{ACAD_REACTORS
330
47
102
}
330
47
100
AcDbScale
 70
     0
300
10:1
140
10.0
141
1.0
290
     0
  0
SCALE
  5
58
102
{ACAD_REACTORS
330
47
102
}
330
47
100
AcDbScale
 70
     0
300
100:1
140
100.0
141
1.0
290
     0
  0
SCALE
  5
59
102
{ACAD_REACTORS
330
47
102
}
330
47
100
AcDbScale
 70
     0
300
1/128" = 1'-0"
140
0.0078125
141
12.0
290
     0
  0
SCALE
  5
5A
102
{ACAD_REACTORS
330
47
102
}
330
47
100
AcDbScale
 70
     0
300
1/64" = 1'-0"
140
0.015625
141
12.0
290
     0
  0
SCALE
  5
5B
102
{ACAD_REACTORS
330
47
102
}
330
47
100
AcDbScale
 70
     0
300
1/32" = 1'-0"
140
0.03125
141
12.0
290
     0
  0
SCALE
  5
5C
102
{ACAD_REACTORS
330
47
102
}
330
47
100
AcDbScale
 70
     0
300
1/16" = 1'-0"
140
0.0625
141
12.0
290
     0
  0
SCALE
  5
5D
102
{ACAD_REACTORS
330
47
102
}
330
47
100
AcDbScale
 70
     0
300
3/32" = 1'-0"
140
0.09375
141
12.0
290
     0
  0
SCALE
  5
5E
102
{ACAD_REACTORS
330
47
102
}
330
47
100
AcDbScale
 70
     0
300
1/8" = 1'-0"
140
0.125
141
12.0
290
     0
  0
SCALE
  5
5F
102
{ACAD_REACTORS
330
47
102
}
330
47
100
AcDbScale
 70
     0
300
3/16" = 1'-0"
140
0.1875
141
12.0
290
     0
  0
SCALE
  5
60
102
{ACAD_REACTORS
330
47
102
}
330
47
100
AcDbScale
 70
     0
300
1/4" = 1'-0"
140
0.25
141
12.0
290
     0
  0
SCALE
  5
61
102
{ACAD_REACTORS
330
47
102
}
330
47
100
AcDbScale
 70
     0
300
3/8" = 1'-0"
140
0.375
141
12.0
290
     0
  0
SCALE
  5
62
102
{ACAD_REACTORS
330
47
102
}
330
47
100
AcDbScale
 70
     0
300
1/2" = 1'-0"
140
0.5
141
12.0
290
     0
  0
SCALE
  5
63
102
{ACAD_REACTORS
330
47
102
}
330
47
100
AcDbScale
 70
     0
300
3/4" = 1'-0"
140
0.75
141
12.0
290
     0
  0
SCALE
  5
64
102
{ACAD_REACTORS
330
47
102
}
330
47
100
AcDbScale
 70
     0
300
1" = 1'-0"
140
1.0
141
12.0
290
     0
  0
SCALE
  5
65
102
{ACAD_REACTORS
330
47
102
}
330
47
100
AcDbScale
 70
     0
300
1-1/2" = 1'-0"
140
1.5
141
12.0
290
     0
  0
SCALE
  5
66
102
{ACAD_REACTORS
330
47
102
}
330
47
100
AcDbScale
 70
     0
300
3" = 1'-0"
140
3.0
141
12.0
290
     0
  0
SCALE
  5
67
102
{ACAD_REACTORS
330
47
102
}
330
47
100
AcDbScale
 70
     0
300
6" = 1'-0"
140
6.0
141
12.0
290
     0
  0
SCALE
  5
68
102
{ACAD_REACTORS
330
47
102
}
330
47
100
AcDbScale
 70
     0
300
1'-0" = 1'-0"
140
12.0
141
12.0
290
     0
  0
ENDSEC
  0
EOF
