  0
SECTION
  2
HEADER
  9
$ACADVER
  1
AC1015
  9
$ACADMAINTVER
 70
     6
  9
$DWGCODEPAGE
  3
ANSI_1252
  9
$INSBASE
 10
0.0
 20
0.0
 30
0.0
  9
$EXTMIN
 10
0.0
 20
0.0
 30
0.0
  9
$EXTMAX
 10
297.0
 20
210.0
 30
0.0
  9
$LIMMIN
 10
0.0
 20
0.0
  9
$LIMMAX
 10
297.0
 20
210.0
  9
$ORTHOMODE
 70
     0
  9
$REGENMODE
 70
     1
  9
$FILLMODE
 70
     1
  9
$QTEXTMODE
 70
     0
  9
$MIRRTEXT
 70
     1
  9
$LTSCALE
 40
1.0
  9
$ATTMODE
 70
     1
  9
$TEXTSIZE
 40
2.0
  9
$TRACEWID
 40
1.0
  9
$TEXTSTYLE
  7
Standard
  9
$CLAYER
  8
0
  9
$CELTYPE
  6
ByLayer
  9
$CECOLOR
 62
   256
  9
$CELTSCALE
 40
1.0
  9
$DISPSILH
 70
     0
  9
$DIMSCALE
 40
1.0
  9
$DIMASZ
 40
3.0
  9
$DIMEXO
 40
0.0
  9
$DIMDLI
 40
3.75
  9
$DIMRND
 40
0.0
  9
$DIMDLE
 40
0.0
  9
$DIMEXE
 40
1.0
  9
$DIMTP
 40
0.0
  9
$DIMTM
 40
0.0
  9
$DIMTXT
 40
2.0
  9
$DIMCEN
 40
2.5
  9
$DIMTSZ
 40
0.0
  9
$DIMTOL
 70
     0
  9
$DIMLIM
 70
     0
  9
$DIMTIH
 70
     1
  9
$DIMTOH
 70
     1
  9
$DIMSE1
 70
     0
  9
$DIMSE2
 70
     0
  9
$DIMTAD
 70
     1
  9
$DIMZIN
 70
     0
  9
$DIMBLK
  1

  9
$DIMASO
 70
     1
  9
$DIMSHO
 70
     1
  9
$DIMPOST
  1

  9
$DIMAPOST
  1

  9
$DIMALT
 70
     0
  9
$DIMALTD
 70
     3
  9
$DIMALTF
 40
0.0393700787
  9
$DIMLFAC
 40
2.0
  9
$DIMTOFL
 70
     1
  9
$DIMTVP
 40
0.0
  9
$DIMTIX
 70
     0
  9
$DIMSOXD
 70
     0
  9
$DIMSAH
 70
     0
  9
$DIMBLK1
  1

  9
$DIMBLK2
  1

  9
$DIMSTYLE
  2
ISO-25
  9
$DIMCLRD
 70
     0
  9
$DIMCLRE
 70
     0
  9
$DIMCLRT
 70
     0
  9
$DIMTFAC
 40
1.0
  9
$DIMGAP
 40
1.524
  9
$DIMJUST
 70
     0
  9
$DIMSD1
 70
     0
  9
$DIMSD2
 70
     0
  9
$DIMTOLJ
 70
     0
  9
$DIMTZIN
 70
     0
  9
$DIMALTZ
 70
     0
  9
$DIMALTTZ
 70
     0
  9
$DIMUPT
 70
     0
  9
$DIMDEC
 70
     2
  9
$DIMTDEC
 70
     3
  9
$DIMALTU
 70
     2
  9
$DIMALTTD
 70
     3
  9
$DIMTXSTY
  7
Standard
  9
$DIMAUNIT
 70
     0
  9
$DIMADEC
 70
     2
  9
$DIMALTRND
 40
0.0
  9
$DIMAZIN
 70
     0
  9
$DIMDSEP
 70
    44
  9
$DIMATFIT
 70
     3
  9
$DIMFRAC
 70
     0
  9
$DIMLDRBLK
  1

  9
$DIMLUNIT
 70
     2
  9
$DIMLWD
 70
    -2
  9
$DIMLWE
 70
    -2
  9
$DIMTMOVE
 70
     0
  9
$LUNITS
 70
     2
  9
$LUPREC
 70
     2
  9
$SKETCHINC
 40
1.0
  9
$FILLETRAD
 40
10.0
  9
$AUNITS
 70
     0
  9
$AUPREC
 70
     2
  9
$MENU
  1
.
  9
$ELEVATION
 40
0.0
  9
$PELEVATION
 40
0.0
  9
$THICKNESS
 40
0.0
  9
$LIMCHECK
 70
     0
  9
$CHAMFERA
 40
0.0
  9
$CHAMFERB
 40
0.0
  9
$CHAMFERC
 40
0.0
  9
$CHAMFERD
 40
0.0
  9
$SKPOLY
 70
     0
  9
$TDCREATE
 40
2458169.576450903
  9
$TDUCREATE
 40
2458169.534784236
  9
$TDUPDATE
 40
2458169.57645287
  9
$TDUUPDATE
 40
2458169.534786204
  9
$TDINDWG
 40
0.0000000116
  9
$TDUSRTIMER
 40
0.0000000116
  9
$USRTIMER
 70
     1
  9
$ANGBASE
 50
0.0
  9
$ANGDIR
 70
     0
  9
$PDMODE
 70
     0
  9
$PDSIZE
 40
-1.0
  9
$PLINEWID
 40
0.0
  9
$SPLFRAME
 70
     0
  9
$SPLINETYPE
 70
     6
  9
$SPLINESEGS
 70
     8
  9
$HANDSEED
  5
25E
  9
$SURFTAB1
 70
     6
  9
$SURFTAB2
 70
     6
  9
$SURFTYPE
 70
     6
  9
$SURFU
 70
     6
  9
$SURFV
 70
     6
  9
$UCSBASE
  2

  9
$UCSNAME
  2

  9
$UCSORG
 10
0.0
 20
0.0
 30
0.0
  9
$UCSXDIR
 10
1.0
 20
0.0
 30
0.0
  9
$UCSYDIR
 10
0.0
 20
1.0
 30
0.0
  9
$UCSORTHOREF
  2

  9
$UCSORTHOVIEW
 70
     0
  9
$UCSORGTOP
 10
0.0
 20
0.0
 30
0.0
  9
$UCSORGBOTTOM
 10
0.0
 20
0.0
 30
0.0
  9
$UCSORGLEFT
 10
0.0
 20
0.0
 30
0.0
  9
$UCSORGRIGHT
 10
0.0
 20
0.0
 30
0.0
  9
$UCSORGFRONT
 10
0.0
 20
0.0
 30
0.0
  9
$UCSORGBACK
 10
0.0
 20
0.0
 30
0.0
  9
$PUCSBASE
  2

  9
$PUCSNAME
  2

  9
$PUCSORG
 10
0.0
 20
0.0
 30
0.0
  9
$PUCSXDIR
 10
1.0
 20
0.0
 30
0.0
  9
$PUCSYDIR
 10
0.0
 20
1.0
 30
0.0
  9
$PUCSORTHOREF
  2

  9
$PUCSORTHOVIEW
 70
     0
  9
$PUCSORGTOP
 10
0.0
 20
0.0
 30
0.0
  9
$PUCSORGBOTTOM
 10
0.0
 20
0.0
 30
0.0
  9
$PUCSORGLEFT
 10
0.0
 20
0.0
 30
0.0
  9
$PUCSORGRIGHT
 10
0.0
 20
0.0
 30
0.0
  9
$PUCSORGFRONT
 10
0.0
 20
0.0
 30
0.0
  9
$PUCSORGBACK
 10
0.0
 20
0.0
 30
0.0
  9
$USERI1
 70
     0
  9
$USERI2
 70
     0
  9
$USERI3
 70
     0
  9
$USERI4
 70
     0
  9
$USERI5
 70
     0
  9
$USERR1
 40
0.0
  9
$USERR2
 40
0.0
  9
$USERR3
 40
0.0
  9
$USERR4
 40
0.0
  9
$USERR5
 40
0.0
  9
$WORLDVIEW
 70
     1
  9
$SHADEDGE
 70
     3
  9
$SHADEDIF
 70
    70
  9
$TILEMODE
 70
     1
  9
$MAXACTVP
 70
    64
  9
$PINSBASE
 10
0.0
 20
0.0
 30
0.0
  9
$PLIMCHECK
 70
     0
  9
$PEXTMIN
 10
1.0000000000E+20
 20
1.0000000000E+20
 30
1.0000000000E+20
  9
$PEXTMAX
 10
-1.0000000000E+20
 20
-1.0000000000E+20
 30
-1.0000000000E+20
  9
$PLIMMIN
 10
0.0
 20
0.0
  9
$PLIMMAX
 10
420.0
 20
297.0
  9
$UNITMODE
 70
     0
  9
$VISRETAIN
 70
     1
  9
$PLINEGEN
 70
     0
  9
$PSLTSCALE
 70
     1
  9
$TREEDEPTH
 70
  3020
  9
$CMLSTYLE
  2
Standard
  9
$CMLJUST
 70
     0
  9
$CMLSCALE
 40
20.0
  9
$PROXYGRAPHICS
 70
     1
  9
$MEASUREMENT
 70
     1
  9
$CELWEIGHT
370
    -1
  9
$ENDCAPS
280
     0
  9
$JOINSTYLE
280
     0
  9
$LWDISPLAY
290
     1
  9
$INSUNITS
 70
     4
  9
$HYPERLINKBASE
  1

  9
$STYLESHEET
  1

  9
$XEDIT
290
     1
  9
$CEPSNTYPE
380
     0
  9
$PSTYLEMODE
290
     1
  9
$FINGERPRINTGUID
  2
{0AFE8BFE-73D1-4CE6-9466-6D5314E9B84C}
  9
$VERSIONGUID
  2
{FAEB1C32-E019-11D5-929B-00C0DF256EC4}
  9
$EXTNAMES
290
     1
  9
$PSVPSCALE
 40
0.0
  9
$OLESTARTUP
290
     0
  0
ENDSEC
  0
SECTION
  2
CLASSES
  0
CLASS
  1
ACDBDICTIONARYWDFLT
  2
AcDbDictionaryWithDefault
  3
ObjectDBX Classes
 90
        0
280
     0
281
     0
  0
CLASS
  1
VISUALSTYLE
  2
AcDbVisualStyle
  3
ObjectDBX Classes
 90
     4095
280
     0
281
     0
  0
CLASS
  1
MATERIAL
  2
AcDbMaterial
  3
ObjectDBX Classes
 90
     1153
280
     0
281
     0
  0
CLASS
  1
SCALE
  2
AcDbScale
  3
ObjectDBX Classes
 90
     1153
280
     0
281
     0
  0
CLASS
  1
TABLESTYLE
  2
AcDbTableStyle
  3
ObjectDBX Classes
 90
     4095
280
     0
281
     0
  0
CLASS
  1
MLEADERSTYLE
  2
AcDbMLeaderStyle
  3
ACDB_MLEADERSTYLE_CLASS
 90
     4095
280
     0
281
     0
  0
CLASS
  1
SUN
  2
AcDbSun
  3
SCENEOE
 90
     1153
280
     0
281
     0
  0
CLASS
  1
ACDBPLACEHOLDER
  2
AcDbPlaceHolder
  3
ObjectDBX Classes
 90
        0
280
     0
281
     0
  0
CLASS
  1
LAYOUT
  2
AcDbLayout
  3
ObjectDBX Classes
 90
        0
280
     0
281
     0
  0
ENDSEC
  0
SECTION
  2
TABLES
  0
TABLE
  2
VPORT
  5
8
330
0
100
AcDbSymbolTable
 70
     1
  0
VPORT
  5
29
330
8
100
AcDbSymbolTableRecord
100
AcDbViewportTableRecord
  2
*Active
 70
     0
 10
0.0
 20
0.0
 11
1.0
 21
1.0
 12
148.5
 22
105.0
 13
0.0
 23
0.0
 14
10.0
 24
10.0
 15
10.0
 25
10.0
 16
0.0
 26
0.0
 36
1.0
 17
0.0
 27
0.0
 37
0.0
 40
210.0
 41
1.4142857143
 42
50.0
 43
0.0
 44
0.0
 50
0.0
 51
0.0
 71
     0
 72
  2000
 73
     1
 74
     3
 75
     0
 76
     0
 77
     0
 78
     0
281
     0
 65
     1
110
0.0
120
0.0
130
0.0
111
1.0
121
0.0
131
0.0
112
0.0
122
1.0
132
0.0
 79
     0
146
0.0
  0
ENDTAB
  0
TABLE
  2
LTYPE
  5
5
330
0
100
AcDbSymbolTable
 70
     6
  0
LTYPE
  5
14
330
5
100
AcDbSymbolTableRecord
100
AcDbLinetypeTableRecord
  2
ByBlock
 70
     0
  3

 72
    65
 73
     0
 40
0.0
  0
LTYPE
  5
15
330
5
100
AcDbSymbolTableRecord
100
AcDbLinetypeTableRecord
  2
ByLayer
 70
     0
  3

 72
    65
 73
     0
 40
0.0
  0
LTYPE
  5
16
330
5
100
AcDbSymbolTableRecord
100
AcDbLinetypeTableRecord
  2
Continuous
 70
     0
  3
Solid line
 72
    65
 73
     0
 40
0.0
  0
LTYPE
  5
6E
330
5
100
AcDbSymbolTableRecord
100
AcDbLinetypeTableRecord
  2
HIDDEN
 70
     0
  3
Hidden __ __ __ __ __ __ __ __ __ __ __ __ __ __
 72
    65
 73
     2
 40
1.905
 49
1.27
 74
     0
 49
-0.635
 74
     0
  0
LTYPE
  5
6F
330
5
100
AcDbSymbolTableRecord
100
AcDbLinetypeTableRecord
  2
PHANTOM
 70
     0
  3
Phantom ______  __  __  ______  __  __  ______
 72
    65
 73
     6
 40
12.7
 49
6.35
 74
     0
 49
-1.27
 74
     0
 49
1.27
 74
     0
 49
-1.27
 74
     0
 49
1.27
 74
     0
 49
-1.27
 74
     0
  0
LTYPE
  5
70
330
5
100
AcDbSymbolTableRecord
100
AcDbLinetypeTableRecord
  2
CENTER
 70
     0
  3
Center ____ _ ____ _ ____ _ ____ _ ____ _ ____
 72
    65
 73
     4
 40
10.16
 49
6.35
 74
     0
 49
-1.27
 74
     0
 49
1.27
 74
     0
 49
-1.27
 74
     0
  0
LTYPE
  5
71
330
5
100
AcDbSymbolTableRecord
100
AcDbLinetypeTableRecord
  2
CENTERX2
 70
     0
  3
Center (2x) ________  __  ________  __  _____
 72
    65
 73
     4
 40
20.32
 49
12.7
 74
     0
 49
-2.54
 74
     0
 49
2.54
 74
     0
 49
-2.54
 74
     0
  0
LTYPE
  5
72
330
5
100
AcDbSymbolTableRecord
100
AcDbLinetypeTableRecord
  2
DOT2
 70
     0
  3
Dot (.5x) ........................................
 72
    65
 73
     2
 40
0.635
 49
0.0
 74
     0
 49
-0.635
 74
     0
  0
ENDTAB
  0
TABLE
  2
LAYER
  5
2
330
0
100
AcDbSymbolTable
 70
     5
  0
LAYER
  5
10
330
2
100
AcDbSymbolTableRecord
100
AcDbLayerTableRecord
  2
0
 70
     0
 62
     7
  6
Continuous
370
    -3
390
F
  0
LAYER
  5
73
330
2
100
AcDbSymbolTableRecord
100
AcDbLayerTableRecord
  2
FORMAT
 70
     0
 62
     7
  6
Continuous
370
    -3
390
F
  0
LAYER
  5
74
330
2
100
AcDbSymbolTableRecord
100
AcDbLayerTableRecord
  2
VERMASSUNG
 70
     0
 62
     7
  6
Continuous
370
    -3
390
F
  0
LAYER
  5
75
330
2
100
AcDbSymbolTableRecord
100
AcDbLayerTableRecord
  2
KOPF_DÜNN
 70
     0
 62
     7
  6
Continuous
370
    -3
390
F
  0
LAYER
  5
76
330
2
100
AcDbSymbolTableRecord
100
AcDbLayerTableRecord
  2
KOPF_DICK
 70
     0
 62
     7
  6
Continuous
370
    25
390
F
  0
ENDTAB
  0
TABLE
  2
STYLE
  5
3
330
0
100
AcDbSymbolTable
 70
     2
  0
STYLE
  5
11
330
3
100
AcDbSymbolTableRecord
100
AcDbTextStyleTableRecord
  2
Standard
 70
     0
 40
0.0
 41
1.0
 50
0.0
 71
     0
 42
2.0
  3
txt
  4

  0
STYLE
  5
77
330
3
100
AcDbSymbolTableRecord
100
AcDbTextStyleTableRecord
  2
SLDTEXTSTYLE0
 70
     0
 40
0.0
 41
0.7
 50
0.0
 71
     0
 42
2.0
  3
TXT
  4

  0
ENDTAB
  0
TABLE
  2
VIEW
  5
6
330
0
100
AcDbSymbolTable
 70
     0
  0
ENDTAB
  0
TABLE
  2
UCS
  5
7
330
0
100
AcDbSymbolTable
 70
     0
  0
ENDTAB
  0
TABLE
  2
APPID
  5
9
330
0
100
AcDbSymbolTable
 70
     1
  0
APPID
  5
12
330
9
100
AcDbSymbolTableRecord
100
AcDbRegAppTableRecord
  2
ACAD
 70
     0
  0
ENDTAB
  0
TABLE
  2
DIMSTYLE
  5
A
330
0
100
AcDbSymbolTable
 70
     4
100
AcDbDimStyleTable
  0
DIMSTYLE
105
27
330
A
100
AcDbSymbolTableRecord
100
AcDbDimStyleTableRecord
  2
ISO-25
 70
     0
 41
2.5
 42
0.625
 43
3.75
 44
1.25
 73
     0
 74
     0
 77
     1
 78
     8
140
2.5
141
2.5
143
0.0393700787
147
0.625
171
     3
172
     1
178
     0
271
     2
272
     2
274
     3
278
    44
283
     0
284
     8
340
11
  0
DIMSTYLE
105
112
102
{ACAD_REACTORS
330
111
330
11D
330
128
330
132
330
13C
330
146
102
}
330
A
100
AcDbSymbolTableRecord
100
AcDbDimStyleTableRecord
  2
SLDDIMSTYLE0
 70
     0
 41
3.0
 44
0.0
 45
0.000000001
 73
     0
 74
     0
 77
     1
 78
    12
 79
     3
140
2.0
147
0.5
173
     1
178
     0
271
     2
272
     3
276
     2
284
    12
340
77
  0
DIMSTYLE
105
151
102
{ACAD_REACTORS
330
150
102
}
330
A
100
AcDbSymbolTableRecord
100
AcDbDimStyleTableRecord
  2
SLDDIMSTYLE1
 70
     0
 41
3.0
 44
0.0
 45
0.000000001
 73
     0
 74
     0
 77
     1
 78
    12
 79
     3
140
2.0
147
0.5
173
     1
178
     0
271
     1
272
     3
276
     2
284
    12
340
77
  0
DIMSTYLE
105
15F
102
{ACAD_REACTORS
330
15E
102
}
330
A
100
AcDbSymbolTableRecord
100
AcDbDimStyleTableRecord
  2
SLDDIMSTYLE2
 70
     0
 41
3.0
 44
0.0
 45
0.000000001
 73
     0
 74
     0
 77
     1
 78
    12
 79
     3
140
2.0
147
0.5
173
     1
178
     0
271
     0
272
     3
276
     2
284
    12
340
77
  0
ENDTAB
  0
TABLE
  2
BLOCK_RECORD
  5
1
330
0
100
AcDbSymbolTable
 70
     9
  0
BLOCK_RECORD
  5
1F
330
1
100
AcDbSymbolTableRecord
100
AcDbBlockTableRecord
  2
*Model_Space
340
22
  0
BLOCK_RECORD
  5
1B
330
1
100
AcDbSymbolTableRecord
100
AcDbBlockTableRecord
  2
*Paper_Space
340
1E
  0
BLOCK_RECORD
  5
23
330
1
100
AcDbSymbolTableRecord
100
AcDbBlockTableRecord
  2
*Paper_Space0
340
26
  0
BLOCK_RECORD
  5
113
330
1
100
AcDbSymbolTableRecord
100
AcDbBlockTableRecord
  2
_D
340
0
  0
BLOCK_RECORD
  5
11E
330
1
100
AcDbSymbolTableRecord
100
AcDbBlockTableRecord
  2
_D_1
340
0
  0
BLOCK_RECORD
  5
129
330
1
100
AcDbSymbolTableRecord
100
AcDbBlockTableRecord
  2
_D_2
340
0
  0
BLOCK_RECORD
  5
133
330
1
100
AcDbSymbolTableRecord
100
AcDbBlockTableRecord
  2
_D_3
340
0
  0
BLOCK_RECORD
  5
13D
330
1
100
AcDbSymbolTableRecord
100
AcDbBlockTableRecord
  2
_D_4
340
0
  0
BLOCK_RECORD
  5
147
330
1
100
AcDbSymbolTableRecord
100
AcDbBlockTableRecord
  2
_D_5
340
0
  0
BLOCK_RECORD
  5
152
330
1
100
AcDbSymbolTableRecord
100
AcDbBlockTableRecord
  2
_D_6
340
0
  0
BLOCK_RECORD
  5
160
330
1
100
AcDbSymbolTableRecord
100
AcDbBlockTableRecord
  2
_D_7
340
0
  0
ENDTAB
  0
ENDSEC
  0
SECTION
  2
BLOCKS
  0
BLOCK
  5
20
330
1F
100
AcDbEntity
  8
0
100
AcDbBlockBegin
  2
*Model_Space
 70
     0
 10
0.0
 20
0.0
 30
0.0
  3
*Model_Space
  1

  0
ENDBLK
  5
21
330
1F
100
AcDbEntity
  8
0
100
AcDbBlockEnd
  0
BLOCK
  5
1C
330
1B
100
AcDbEntity
 67
     1
  8
0
100
AcDbBlockBegin
  2
*Paper_Space
 70
     0
 10
0.0
 20
0.0
 30
0.0
  3
*Paper_Space
  1

  0
ENDBLK
  5
1D
330
1B
100
AcDbEntity
 67
     1
  8
0
100
AcDbBlockEnd
  0
BLOCK
  5
24
330
23
100
AcDbEntity
  8
0
100
AcDbBlockBegin
  2
*Paper_Space0
 70
     0
 10
0.0
 20
0.0
 30
0.0
  3
*Paper_Space0
  1

  0
ENDBLK
  5
25
330
23
100
AcDbEntity
  8
0
100
AcDbBlockEnd
  0
BLOCK
  5
114
330
113
100
AcDbEntity
  8
0
100
AcDbBlockBegin
  2
_D
 70
     0
 10
0.0
 20
0.0
 30
0.0
  3
_D
  1

  0
SOLID
  5
116
330
113
100
AcDbEntity
  8
VERMASSUNG
100
AcDbTrace
 10
244.7534864207
 20
105.5554735463
 30
0.0
 11
245.2034864207
 21
108.5554735463
 31
0.0
 12
244.3034864207
 22
108.5554735463
 32
0.0
 13
244.3034864207
 23
108.5554735463
 33
0.0
  0
SOLID
  5
117
330
113
100
AcDbEntity
  8
VERMASSUNG
100
AcDbTrace
 10
244.7534864207
 20
127.5554735463
 30
0.0
 11
244.3034864207
 21
124.5554735463
 31
0.0
 12
245.2034864207
 22
124.5554735463
 32
0.0
 13
245.2034864207
 23
124.5554735463
 33
0.0
  0
LINE
  5
118
330
113
100
AcDbEntity
  8
VERMASSUNG
100
AcDbLine
 10
206.9083228401
 20
105.5554735463
 30
0.0
 11
245.7534864207
 21
105.5554735463
 31
0.0
  0
LINE
  5
119
330
113
100
AcDbEntity
  8
VERMASSUNG
100
AcDbLine
 10
206.9083228401
 20
127.5554735463
 30
0.0
 11
245.7534864207
 21
127.5554735463
 31
0.0
  0
LINE
  5
11A
330
113
100
AcDbEntity
  8
VERMASSUNG
100
AcDbLine
 10
244.7534864207
 20
105.5554735463
 30
0.0
 11
244.7534864207
 21
127.5554735463
 31
0.0
  0
MTEXT
  5
11B
330
113
100
AcDbEntity
  8
VERMASSUNG
100
AcDbMText
 10
242.1753511158
 20
113.350473589
 30
0.0
 40
2.0
 41
0.0
 71
     1
 72
     1
  1
%%c
  7
SLDTEXTSTYLE0
 11
6.123233995736766E-17
 21
1.0
 31
0.0
 73
     1
 44
1.0
  0
MTEXT
  5
11C
330
113
100
AcDbEntity
  8
VERMASSUNG
100
AcDbMText
 10
241.9753511645
 20
116.9604736033
 30
0.0
 40
2.0
 41
0.0
 71
     1
 72
     1
  1
22
  7
SLDTEXTSTYLE0
 11
6.123233995736766E-17
 21
1.0
 31
0.0
 73
     1
 44
1.0
  0
ENDBLK
  5
115
330
113
100
AcDbEntity
  8
0
100
AcDbBlockEnd
  0
BLOCK
  5
11F
330
11E
100
AcDbEntity
  8
0
100
AcDbBlockBegin
  2
_D_1
 70
     0
 10
0.0
 20
0.0
 30
0.0
  3
_D_1
  1

  0
SOLID
  5
121
330
11E
100
AcDbEntity
  8
VERMASSUNG
100
AcDbTrace
 10
256.4734857659
 20
140.5554735463
 30
0.0
 11
256.0234857659
 21
137.5554735463
 31
0.0
 12
256.9234857659
 22
137.5554735463
 32
0.0
 13
256.9234857659
 23
137.5554735463
 33
0.0
  0
SOLID
  5
122
330
11E
100
AcDbEntity
  8
VERMASSUNG
100
AcDbTrace
 10
256.4734857659
 20
92.5554735463
 30
0.0
 11
256.9234857659
 21
95.5554735463
 31
0.0
 12
256.0234857659
 22
95.5554735463
 32
0.0
 13
256.0234857659
 23
95.5554735463
 33
0.0
  0
LINE
  5
123
330
11E
100
AcDbEntity
  8
VERMASSUNG
100
AcDbLine
 10
187.9083228401
 20
140.5554735463
 30
0.0
 11
257.4734857659
 21
140.5554735463
 31
0.0
  0
LINE
  5
124
330
11E
100
AcDbEntity
  8
VERMASSUNG
100
AcDbLine
 10
187.9083228401
 20
92.5554735463
 30
0.0
 11
257.4734857659
 21
92.5554735463
 31
0.0
  0
LINE
  5
125
330
11E
100
AcDbEntity
  8
VERMASSUNG
100
AcDbLine
 10
256.4734857659
 20
140.5554735463
 30
0.0
 11
256.4734857659
 21
92.5554735463
 31
0.0
  0
MTEXT
  5
126
330
11E
100
AcDbEntity
  8
VERMASSUNG
100
AcDbMText
 10
253.895350461
 20
113.2504735261
 30
0.0
 40
2.0
 41
0.0
 71
     1
 72
     1
  1
%%c
  7
SLDTEXTSTYLE0
 11
-7.044195017643634E-15
 21
1.0
 31
0.0
 73
     1
 44
1.0
  0
MTEXT
  5
127
330
11E
100
AcDbEntity
  8
VERMASSUNG
100
AcDbMText
 10
253.6953505097
 20
116.8604735404
 30
0.0
 40
2.0
 41
0.0
 71
     1
 72
     1
  1
48
  7
SLDTEXTSTYLE0
 11
-7.044195017643634E-15
 21
1.0
 31
0.0
 73
     1
 44
1.0
  0
ENDBLK
  5
120
330
11E
100
AcDbEntity
  8
0
100
AcDbBlockEnd
  0
BLOCK
  5
12A
330
129
100
AcDbEntity
  8
0
100
AcDbBlockBegin
  2
_D_2
 70
     0
 10
0.0
 20
0.0
 30
0.0
  3
_D_2
  1

  0
SOLID
  5
12C
330
129
100
AcDbEntity
  8
VERMASSUNG
100
AcDbTrace
 10
143.7083228401
 20
154.7022003105
 30
0.0
 11
146.7083228401
 21
154.2522003105
 31
0.0
 12
146.7083228401
 22
155.1522003105
 32
0.0
 13
146.7083228401
 23
155.1522003105
 33
0.0
  0
SOLID
  5
12D
330
129
100
AcDbEntity
  8
VERMASSUNG
100
AcDbTrace
 10
188.7083228401
 20
154.7022003105
 30
0.0
 11
185.7083228401
 21
155.1522003105
 31
0.0
 12
185.7083228401
 22
154.2522003105
 32
0.0
 13
185.7083228401
 23
154.2522003105
 33
0.0
  0
LINE
  5
12E
330
129
100
AcDbEntity
  8
VERMASSUNG
100
AcDbLine
 10
143.7083228401
 20
148.0304735463
 30
0.0
 11
143.7083228401
 21
155.7022003105
 31
0.0
  0
LINE
  5
12F
330
129
100
AcDbEntity
  8
VERMASSUNG
100
AcDbLine
 10
188.7083228401
 20
139.7554735463
 30
0.0
 11
188.7083228401
 21
155.7022003105
 31
0.0
  0
LINE
  5
130
330
129
100
AcDbEntity
  8
VERMASSUNG
100
AcDbLine
 10
143.7083228401
 20
154.7022003105
 30
0.0
 11
188.7083228401
 21
154.7022003105
 31
0.0
  0
MTEXT
  5
131
330
129
100
AcDbEntity
  8
VERMASSUNG
100
AcDbMText
 10
164.708322827
 20
157.2803359064
 30
0.0
 40
2.0
 41
0.0
 71
     1
 72
     1
  1
45
  7
SLDTEXTSTYLE0
 73
     1
 44
1.0
  0
ENDBLK
  5
12B
330
129
100
AcDbEntity
  8
0
100
AcDbBlockEnd
  0
BLOCK
  5
134
330
133
100
AcDbEntity
  8
0
100
AcDbBlockBegin
  2
_D_3
 70
     0
 10
0.0
 20
0.0
 30
0.0
  3
_D_3
  1

  0
SOLID
  5
136
330
133
100
AcDbEntity
  8
VERMASSUNG
100
AcDbTrace
 10
188.7083228401
 20
154.7022003105
 30
0.0
 11
191.7083228401
 21
154.2522003105
 31
0.0
 12
191.7083228401
 22
155.1522003105
 32
0.0
 13
191.7083228401
 23
155.1522003105
 33
0.0
  0
SOLID
  5
137
330
133
100
AcDbEntity
  8
VERMASSUNG
100
AcDbTrace
 10
207.7083228401
 20
154.7022003105
 30
0.0
 11
204.7083228401
 21
155.1522003105
 31
0.0
 12
204.7083228401
 22
154.2522003105
 32
0.0
 13
204.7083228401
 23
154.2522003105
 33
0.0
  0
LINE
  5
138
330
133
100
AcDbEntity
  8
VERMASSUNG
100
AcDbLine
 10
188.7083228401
 20
139.7554735463
 30
0.0
 11
188.7083228401
 21
155.7022003105
 31
0.0
  0
LINE
  5
139
330
133
100
AcDbEntity
  8
VERMASSUNG
100
AcDbLine
 10
207.7083228401
 20
126.7554735463
 30
0.0
 11
207.7083228401
 21
155.7022003105
 31
0.0
  0
LINE
  5
13A
330
133
100
AcDbEntity
  8
VERMASSUNG
100
AcDbLine
 10
188.7083228401
 20
154.7022003105
 30
0.0
 11
207.7083228401
 21
154.7022003105
 31
0.0
  0
MTEXT
  5
13B
330
133
100
AcDbEntity
  8
VERMASSUNG
100
AcDbMText
 10
197.0083227831
 20
157.2803359064
 30
0.0
 40
2.0
 41
0.0
 71
     1
 72
     1
  1
19
  7
SLDTEXTSTYLE0
 73
     1
 44
1.0
  0
ENDBLK
  5
135
330
133
100
AcDbEntity
  8
0
100
AcDbBlockEnd
  0
BLOCK
  5
13E
330
13D
100
AcDbEntity
  8
0
100
AcDbBlockBegin
  2
_D_4
 70
     0
 10
0.0
 20
0.0
 30
0.0
  3
_D_4
  1

  0
SOLID
  5
140
330
13D
100
AcDbEntity
  8
VERMASSUNG
100
AcDbTrace
 10
125.7083228401
 20
162.6698293282
 30
0.0
 11
128.7083228401
 21
162.2198293282
 31
0.0
 12
128.7083228401
 22
163.1198293282
 32
0.0
 13
128.7083228401
 23
163.1198293282
 33
0.0
  0
SOLID
  5
141
330
13D
100
AcDbEntity
  8
VERMASSUNG
100
AcDbTrace
 10
188.7083228401
 20
162.6698293282
 30
0.0
 11
185.7083228401
 21
163.1198293282
 31
0.0
 12
185.7083228401
 22
162.2198293282
 32
0.0
 13
185.7083228401
 23
162.2198293282
 33
0.0
  0
LINE
  5
142
330
13D
100
AcDbEntity
  8
VERMASSUNG
100
AcDbLine
 10
125.7083228401
 20
147.8304735463
 30
0.0
 11
125.7083228401
 21
163.6698293282
 31
0.0
  0
LINE
  5
143
330
13D
100
AcDbEntity
  8
VERMASSUNG
100
AcDbLine
 10
188.7083228401
 20
139.7554735463
 30
0.0
 11
188.7083228401
 21
163.6698293282
 31
0.0
  0
LINE
  5
144
330
13D
100
AcDbEntity
  8
VERMASSUNG
100
AcDbLine
 10
125.7083228401
 20
162.6698293282
 30
0.0
 11
188.7083228401
 21
162.6698293282
 31
0.0
  0
MTEXT
  5
145
330
13D
100
AcDbEntity
  8
VERMASSUNG
100
AcDbMText
 10
155.80832289
 20
165.2479649242
 30
0.0
 40
2.0
 41
0.0
 71
     1
 72
     1
  1
63
  7
SLDTEXTSTYLE0
 73
     1
 44
1.0
  0
ENDBLK
  5
13F
330
13D
100
AcDbEntity
  8
0
100
AcDbBlockEnd
  0
BLOCK
  5
148
330
147
100
AcDbEntity
  8
0
100
AcDbBlockBegin
  2
_D_5
 70
     0
 10
0.0
 20
0.0
 30
0.0
  3
_D_5
  1

  0
SOLID
  5
14A
330
147
100
AcDbEntity
  8
VERMASSUNG
100
AcDbTrace
 10
85.7583228401
 20
170.0304735463
 30
0.0
 11
88.7583228401
 21
169.5804735463
 31
0.0
 12
88.7583228401
 22
170.4804735463
 32
0.0
 13
88.7583228401
 23
170.4804735463
 33
0.0
  0
SOLID
  5
14B
330
147
100
AcDbEntity
  8
VERMASSUNG
100
AcDbTrace
 10
207.7083228401
 20
170.0304735463
 30
0.0
 11
204.7083228401
 21
170.4804735463
 31
0.0
 12
204.7083228401
 22
169.5804735463
 32
0.0
 13
204.7083228401
 23
169.5804735463
 33
0.0
  0
LINE
  5
14C
330
147
100
AcDbEntity
  8
VERMASSUNG
100
AcDbLine
 10
85.7583228401
 20
136.817699283
 30
0.0
 11
85.7583228401
 21
171.0304735463
 31
0.0
  0
LINE
  5
14D
330
147
100
AcDbEntity
  8
VERMASSUNG
100
AcDbLine
 10
207.7083228401
 20
122.6054735463
 30
0.0
 11
207.7083228401
 21
171.0304735463
 31
0.0
  0
LINE
  5
14E
330
147
100
AcDbEntity
  8
VERMASSUNG
100
AcDbLine
 10
85.7583228401
 20
170.0304735463
 30
0.0
 11
207.7083228401
 21
170.0304735463
 31
0.0
  0
MTEXT
  5
14F
330
147
100
AcDbEntity
  8
VERMASSUNG
100
AcDbMText
 10
143.333322795
 20
172.6086091422
 30
0.0
 40
2.0
 41
0.0
 71
     1
 72
     1
  1
121.95
  7
SLDTEXTSTYLE0
 73
     1
 44
1.0
  0
ENDBLK
  5
149
330
147
100
AcDbEntity
  8
0
100
AcDbBlockEnd
  0
BLOCK
  5
153
330
152
100
AcDbEntity
  8
0
100
AcDbBlockBegin
  2
_D_6
 70
     0
 10
0.0
 20
0.0
 30
0.0
  3
_D_6
  1

  0
SOLID
  5
155
330
152
100
AcDbEntity
  8
VERMASSUNG
100
AcDbTrace
 10
75.7582978401
 20
148.0304735463
 30
0.0
 11
75.3082978401
 21
145.0304735463
 31
0.0
 12
76.2082978401
 22
145.0304735463
 32
0.0
 13
76.2082978401
 23
145.0304735463
 33
0.0
  0
SOLID
  5
156
330
152
100
AcDbEntity
  8
VERMASSUNG
100
AcDbTrace
 10
75.7582978401
 20
85.0804735463
 30
0.0
 11
76.2082978401
 21
88.0804735463
 31
0.0
 12
75.3082978401
 22
88.0804735463
 32
0.0
 13
75.3082978401
 23
88.0804735463
 33
0.0
  0
LINE
  5
157
330
152
100
AcDbEntity
  8
VERMASSUNG
100
AcDbLine
 10
125.9083228401
 20
148.0304735463
 30
0.0
 11
74.7582978401
 21
148.0304735463
 31
0.0
  0
LINE
  5
158
330
152
100
AcDbEntity
  8
VERMASSUNG
100
AcDbLine
 10
125.9083228401
 20
85.0804735463
 30
0.0
 11
74.7582978401
 21
85.0804735463
 31
0.0
  0
LINE
  5
159
330
152
100
AcDbEntity
  8
VERMASSUNG
100
AcDbLine
 10
75.7582978401
 20
148.0304735463
 30
0.0
 11
75.7582978401
 21
85.0804735463
 31
0.0
  0
MTEXT
  5
15A
330
152
100
AcDbEntity
  8
VERMASSUNG
100
AcDbMText
 10
72.9801625839
 20
108.4504749279
 30
0.0
 40
2.0
 41
0.0
 71
     1
 72
     1
  1
KM
  7
SLDTEXTSTYLE0
 11
-7.044195017643634E-15
 21
1.0
 31
0.0
 73
     1
 44
1.0
  0
MTEXT
  5
15B
330
152
100
AcDbEntity
  8
VERMASSUNG
100
AcDbMText
 10
73.1801625351
 20
111.8504747401
 30
0.0
 40
2.0
 41
0.0
 71
     1
 72
     1
  1
%%c
  7
SLDTEXTSTYLE0
 11
-7.044195017643634E-15
 21
1.0
 31
0.0
 73
     1
 44
1.0
  0
MTEXT
  5
15C
330
152
100
AcDbEntity
  8
VERMASSUNG
100
AcDbMText
 10
72.9801625839
 20
115.4604747544
 30
0.0
 40
2.0
 41
0.0
 71
     1
 72
     1
  1
63
  7
SLDTEXTSTYLE0
 11
-7.044195017643634E-15
 21
1.0
 31
0.0
 73
     1
 44
1.0
  0
MTEXT
  5
15D
330
152
100
AcDbEntity
  8
VERMASSUNG
100
AcDbMText
 10
72.9801625839
 20
119.4479746546
 30
0.0
 40
2.0
 41
0.0
 71
     1
 72
     1
  1
XMZ
  7
SLDTEXTSTYLE0
 11
-7.044195017643634E-15
 21
1.0
 31
0.0
 73
     1
 44
1.0
  0
ENDBLK
  5
154
330
152
100
AcDbEntity
  8
0
100
AcDbBlockEnd
  0
BLOCK
  5
161
330
160
100
AcDbEntity
  8
0
100
AcDbBlockBegin
  2
_D_7
 70
     0
 10
0.0
 20
0.0
 30
0.0
  3
_D_7
  1

  0
SOLID
  5
163
330
160
100
AcDbEntity
  8
VERMASSUNG
100
AcDbTrace
 10
233.5767983035
 20
112.4979735463
 30
0.0
 11
234.0267983035
 21
115.4979735463
 31
0.0
 12
233.1267983035
 22
115.4979735463
 32
0.0
 13
233.1267983035
 23
115.4979735463
 33
0.0
  0
SOLID
  5
164
330
160
100
AcDbEntity
  8
VERMASSUNG
100
AcDbTrace
 10
233.5767983035
 20
120.6129735463
 30
0.0
 11
233.1267983035
 21
117.6129735463
 31
0.0
 12
234.0267983035
 22
117.6129735463
 32
0.0
 13
234.0267983035
 23
117.6129735463
 33
0.0
  0
LINE
  5
165
330
160
100
AcDbEntity
  8
VERMASSUNG
100
AcDbLine
 10
220.7083228401
 20
112.4979735463
 30
0.0
 11
234.5767983035
 21
112.4979735463
 31
0.0
  0
LINE
  5
166
330
160
100
AcDbEntity
  8
VERMASSUNG
100
AcDbLine
 10
220.7083228401
 20
120.6129735463
 30
0.0
 11
234.5767983035
 21
120.6129735463
 31
0.0
  0
LINE
  5
167
330
160
100
AcDbEntity
  8
VERMASSUNG
100
AcDbLine
 10
233.5767983035
 20
112.4979735463
 30
0.0
 11
233.5767983035
 21
120.6129735463
 31
0.0
  0
MTEXT
  5
168
330
160
100
AcDbEntity
  8
VERMASSUNG
100
AcDbMText
 10
230.9986627076
 20
113.9554735392
 30
0.0
 40
2.0
 41
0.0
 71
     1
 72
     1
  1
SW
  7
SLDTEXTSTYLE0
 11
6.123233995736766E-17
 21
1.0
 31
0.0
 73
     1
 44
1.0
  0
MTEXT
  5
169
330
160
100
AcDbEntity
  8
VERMASSUNG
100
AcDbMText
 10
230.9986627076
 20
117.7554736032
 30
0.0
 40
2.0
 41
0.0
 71
     1
 72
     1
  1
8
  7
SLDTEXTSTYLE0
 11
6.123233995736766E-17
 21
1.0
 31
0.0
 73
     1
 44
1.0
  0
ENDBLK
  5
162
330
160
100
AcDbEntity
  8
0
100
AcDbBlockEnd
  0
ENDSEC
  0
SECTION
  2
ENTITIES
  0
MTEXT
  5
78
330
1F
100
AcDbEntity
  8
KOPF_DÜNN
100
AcDbMText
 10
13.8892156294
 20
23.8442973028
 30
0.0
 40
3.0
 41
0.0
 71
     1
 72
     1
  1
KY6.D22.K21.063
  7
SLDTEXTSTYLE0
 73
     1
 44
1.0
  0
MTEXT
  5
79
330
1F
100
AcDbEntity
  8
VERMASSUNG
100
AcDbMText
 10
13.9329988022
 20
28.8834360957
 30
0.0
 40
3.0
 41
0.0
 71
     1
 72
     1
  1
Fräsdorn_Milling arbor
  7
SLDTEXTSTYLE0
 73
     1
 44
1.0
  0
MTEXT
  5
7A
330
1F
100
AcDbEntity
  8
VERMASSUNG
100
AcDbMText
 10
98.8601118557
 20
13.8365368761
 30
0.0
 40
2.0
 41
0.0
 71
     1
 72
     1
  1
Datum: 19.02.2018
  7
SLDTEXTSTYLE0
 73
     1
 44
1.0
  0
MTEXT
  5
7B
330
1F
100
AcDbEntity
  8
VERMASSUNG
100
AcDbMText
 10
13.933048693
 20
18.0482802738
 30
0.0
 40
2.0
 41
0.0
 71
     1
 72
     1
  1
KM63 XMZ / Ø22
  7
SLDTEXTSTYLE0
 73
     1
 44
1.0
  0
MTEXT
  5
7C
330
1F
100
AcDbEntity
  8
VERMASSUNG
100
AcDbMText
 10
13.9808475933
 20
13.9090974274
 30
0.0
 40
2.0
 41
0.0
 71
     1
 72
     1
  1
Gewicht: 1304g
  7
SLDTEXTSTYLE0
 73
     1
 44
1.0
  0
ARC
  5
7D
330
1F
100
AcDbEntity
  8
0
  6
Continuous
 62
     7
370
    25
100
AcDbCircle
 10
193.8083228401
 20
94.5554735463
 30
0.0
 40
0.5
100
AcDbArc
 50
270.0
 51
0.0
  0
ARC
  5
7E
330
1F
100
AcDbEntity
  8
0
  6
Continuous
 62
     7
370
    25
100
AcDbCircle
 10
193.8083228401
 20
103.5554735463
 30
0.0
 40
0.5
100
AcDbArc
 50
360.0
 51
90.0
  0
LINE
  5
7F
330
1F
100
AcDbEntity
  8
0
  6
Continuous
 62
     7
370
    25
100
AcDbLine
 10
188.7083238533
 20
94.0554726522
 30
0.0
 11
193.8083207777
 21
94.0554726522
 31
0.0
  0
LINE
  5
80
330
1F
100
AcDbEntity
  8
0
  6
Continuous
 62
     7
370
    25
100
AcDbLine
 10
193.8083207777
 20
104.05547336
 30
0.0
 11
188.7083238533
 21
104.05547336
 31
0.0
  0
LINE
  5
81
330
1F
100
AcDbEntity
  8
0
  6
Continuous
 62
     7
370
    25
100
AcDbLine
 10
188.7083238533
 20
129.0554737325
 30
0.0
 11
193.8083207777
 21
129.0554737325
 31
0.0
  0
LINE
  5
82
330
1F
100
AcDbEntity
  8
0
  6
Continuous
 62
     7
370
    25
100
AcDbLine
 10
193.8083207777
 20
139.0554744403
 30
0.0
 11
188.7083238533
 21
139.0554744403
 31
0.0
  0
ARC
  5
83
330
1F
100
AcDbEntity
  8
0
  6
Continuous
 62
     7
370
    25
100
AcDbCircle
 10
193.8083228401
 20
129.5554735463
 30
0.0
 40
0.5
100
AcDbArc
 50
270.0
 51
0.0
  0
ARC
  5
84
330
1F
100
AcDbEntity
  8
0
  6
Continuous
 62
     7
370
    25
100
AcDbCircle
 10
193.8083228401
 20
138.5554735463
 30
0.0
 40
0.5
100
AcDbArc
 50
0.0
 51
90.0
  0
LINE
  5
85
330
1F
100
AcDbEntity
  8
0
  6
Continuous
 62
     7
370
    25
100
AcDbLine
 10
219.2083260587
 20
124.5554739262
 30
0.0
 11
210.7083237341
 21
124.5554739262
 31
0.0
  0
LINE
  5
86
330
1F
100
AcDbEntity
  8
0
  6
Continuous
 62
     7
370
    25
100
AcDbLine
 10
210.7083237341
 20
108.5554731663
 30
0.0
 11
219.2083260587
 21
108.5554731663
 31
0.0
  0
ARC
  5
87
330
1F
100
AcDbEntity
  8
0
  6
Continuous
 62
     7
370
    25
100
AcDbCircle
 10
219.2083228401
 20
123.0554735463
 30
0.0
 40
1.5
100
AcDbArc
 50
0.0
 51
90.0
  0
ARC
  5
88
330
1F
100
AcDbEntity
  8
0
  6
Continuous
 62
     7
370
    25
100
AcDbCircle
 10
219.2083228401
 20
110.0554735463
 30
0.0
 40
1.5
100
AcDbArc
 50
270.0
 51
0.0
  0
ARC
  5
89
330
1F
100
AcDbEntity
  8
0
  6
Continuous
 62
     7
370
    25
100
AcDbCircle
 10
210.3083228401
 20
111.1554735463
 30
0.0
 40
0.4000000000000057
100
AcDbArc
 50
0.0
 51
90.0
  0
ARC
  5
8A
330
1F
100
AcDbEntity
  8
0
  6
Continuous
 62
     7
370
    25
100
AcDbCircle
 10
210.3083228401
 20
121.9554735463
 30
0.0
 40
0.4000000000000057
100
AcDbArc
 50
270.0
 51
0.0
  0
LINE
  5
8B
330
1F
100
AcDbEntity
  8
0
  6
Continuous
 62
     7
370
    25
100
AcDbLine
 10
210.3083244136
 20
121.5554734345
 30
0.0
 11
207.708325105
 21
121.5554734345
 31
0.0
  0
LINE
  5
8C
330
1F
100
AcDbEntity
  8
0
  6
Continuous
 62
     7
370
    25
100
AcDbLine
 10
207.708325105
 20
111.555473658
 30
0.0
 11
210.3083244136
 21
111.555473658
 31
0.0
  0
ARC
  5
8D
330
1F
100
AcDbEntity
  8
0
  6
Continuous
 62
     7
370
    25
100
AcDbCircle
 10
125.9083228401
 20
85.2804735463
 30
0.0
 40
0.2000000000000028
100
AcDbArc
 50
180.0
 51
270.0
  0
ARC
  5
8E
330
1F
100
AcDbEntity
  8
0
  6
Continuous
 62
     7
370
    25
100
AcDbCircle
 10
125.9083228401
 20
147.8304735463
 30
0.0
 40
0.2000000000000171
100
AcDbArc
 50
90.0
 51
180.0
  0
LINE
  5
8F
330
1F
100
AcDbEntity
  8
0
  6
Continuous
 62
     7
370
    25
100
AcDbLine
 10
132.274125105
 20
85.0804734628
 30
0.0
 11
133.7333227119
 21
87.6078780393
 31
0.0
  0
LINE
  5
90
330
1F
100
AcDbEntity
  8
0
  6
Continuous
 62
     7
370
    25
100
AcDbLine
 10
125.908322835
 20
85.0804734628
 30
0.0
 11
132.274125105
 21
85.0804734628
 31
0.0
  0
LINE
  5
91
330
1F
100
AcDbEntity
  8
0
  6
Continuous
 62
     7
370
    25
100
AcDbLine
 10
131.0688204675
 20
148.0304736297
 30
0.0
 11
125.908322835
 21
148.0304736297
 31
0.0
  0
LINE
  5
92
330
1F
100
AcDbEntity
  8
0
  6
Continuous
 62
     7
370
    25
100
AcDbLine
 10
138.9425209335
 20
85.0804734628
 30
0.0
 11
143.7083220652
 21
85.0804734628
 31
0.0
  0
LINE
  5
93
330
1F
100
AcDbEntity
  8
0
  6
Continuous
 62
     7
370
    25
100
AcDbLine
 10
143.7083220652
 20
148.0304736297
 30
0.0
 11
142.4231695554
 21
148.0304736297
 31
0.0
  0
ARC
  5
94
330
1F
100
AcDbEntity
  8
0
  6
Continuous
 62
     7
370
    25
100
AcDbCircle
 10
146.7083228401
 20
89.5554735463
 30
0.0
 40
3.0
100
AcDbArc
 50
90.0
 51
180.0
  0
ARC
  5
95
330
1F
100
AcDbEntity
  8
0
  6
Continuous
 62
     7
370
    25
100
AcDbCircle
 10
146.7083228401
 20
143.5554735463
 30
0.0
 40
3.000000000000028
100
AcDbArc
 50
180.0
 51
270.0
  0
ARC
  5
96
330
1F
100
AcDbEntity
  8
0
  6
Continuous
 62
     7
370
    25
100
AcDbCircle
 10
125.2793879655
 20
91.0054735463
 30
0.0
 40
0.8000000000000004
100
AcDbArc
 50
57.576802718
 51
107.5
  0
ARC
  5
97
330
1F
100
AcDbEntity
  8
0
  6
Continuous
 62
     7
370
    25
100
AcDbCircle
 10
125.2793879655
 20
142.1054735463
 30
0.0
 40
0.7999999999999962
100
AcDbArc
 50
252.5
 51
302.423197282
  0
LINE
  5
98
330
1F
100
AcDbEntity
  8
0
  6
Continuous
 62
     7
370
    25
100
AcDbLine
 10
137.4833228609
 20
87.6078780393
 30
0.0
 11
138.9425209335
 21
85.0804734628
 31
0.0
  0
LINE
  5
99
330
1F
100
AcDbEntity
  8
0
  6
Continuous
 62
     7
370
    25
100
AcDbLine
 10
124.5481407813
 20
141.4972122412
 30
0.0
 11
108.6032650045
 21
140.6964927565
 31
0.0
  0
LINE
  5
9A
330
1F
100
AcDbEntity
  8
0
  6
Continuous
 62
     7
370
    25
100
AcDbLine
 10
108.6032650045
 20
92.414454336
 30
0.0
 11
124.5481407813
 21
91.6137348513
 31
0.0
  0
LINE
  5
9B
330
1F
100
AcDbEntity
  8
0
  6
Continuous
 62
     7
370
    25
100
AcDbLine
 10
124.5481407813
 20
91.6137348513
 30
0.0
 11
125.0388233301
 21
91.7684480201
 31
0.0
  0
LINE
  5
9C
330
1F
100
AcDbEntity
  8
0
  6
Continuous
 62
     7
370
    25
100
AcDbLine
 10
125.0388233301
 20
141.3424990724
 30
0.0
 11
124.5481407813
 21
141.4972122412
 31
0.0
  0
LINE
  5
9D
330
1F
100
AcDbEntity
  8
0
  6
Continuous
 62
     7
370
    25
100
AcDbLine
 10
146.7083225569
 20
92.5554733376
 30
0.0
 11
187.908321487
 21
92.5554733376
 31
0.0
  0
LINE
  5
9E
330
1F
100
AcDbEntity
  8
0
  6
Continuous
 62
     7
370
    25
100
AcDbLine
 10
187.908321487
 20
140.5554737549
 30
0.0
 11
146.7083225569
 21
140.5554737549
 31
0.0
  0
ARC
  5
9F
330
1F
100
AcDbEntity
  8
0
  6
Continuous
 62
     7
370
    25
100
AcDbCircle
 10
187.9083228401
 20
93.3554735463
 30
0.0
 40
0.7999999999999972
100
AcDbArc
 50
270.0
 51
0.0
  0
ARC
  5
A0
330
1F
100
AcDbEntity
  8
0
  6
Continuous
 62
     7
370
    25
100
AcDbCircle
 10
187.9083228401
 20
139.7554735463
 30
0.0
 40
0.799999999999983
100
AcDbArc
 50
0.0
 51
90.0
  0
ARC
  5
A1
330
1F
100
AcDbEntity
  8
0
  6
Continuous
 62
     7
370
    25
100
AcDbCircle
 10
134.7333228401
 20
87.7054735463
 30
0.0
 40
1.0
100
AcDbArc
 50
90.0
 51
180.0
  0
ARC
  5
A2
330
1F
100
AcDbEntity
  8
0
  6
Continuous
 62
     7
370
    25
100
AcDbCircle
 10
136.4833228401
 20
87.7054735463
 30
0.0
 40
1.0
100
AcDbArc
 50
0.0
 51
90.0
  0
LINE
  5
A3
330
1F
100
AcDbEntity
  8
0
  6
Continuous
 62
     7
370
    25
100
AcDbLine
 10
134.7333228758
 20
88.7054733585
 30
0.0
 11
136.483322697
 21
88.7054733585
 31
0.0
  0
ARC
  5
A4
330
1F
100
AcDbEntity
  8
0
  6
Continuous
 62
     7
370
    25
100
AcDbCircle
 10
189.1083228401
 20
105.3054735463
 30
0.0
 40
0.5999999999999842
100
AcDbArc
 50
90.0
 51
131.8103148958
  0
ARC
  5
A5
330
1F
100
AcDbEntity
  8
0
  6
Continuous
 62
     7
370
    25
100
AcDbCircle
 10
189.1083228401
 20
127.8054735463
 30
0.0
 40
0.6000000000000227
100
AcDbArc
 50
228.1896851042
 51
270.0
  0
LINE
  5
A6
330
1F
100
AcDbEntity
  8
0
  6
Continuous
 62
     7
370
    25
100
AcDbLine
 10
191.2083214692
 20
127.5554734866
 30
0.0
 11
189.978401976
 21
127.2259184744
 31
0.0
  0
LINE
  5
A7
330
1F
100
AcDbEntity
  8
0
  6
Continuous
 62
     7
370
    25
100
AcDbLine
 10
189.978401976
 20
105.8850286181
 30
0.0
 11
191.2083214692
 21
105.5554736059
 31
0.0
  0
LINE
  5
A8
330
1F
100
AcDbEntity
  8
0
  6
Continuous
 62
     7
370
    25
100
AcDbLine
 10
191.2083214692
 20
105.5554736059
 30
0.0
 11
206.908326464
 21
105.5554736059
 31
0.0
  0
LINE
  5
A9
330
1F
100
AcDbEntity
  8
0
  6
Continuous
 62
     7
370
    25
100
AcDbLine
 10
206.908326464
 20
127.5554734866
 30
0.0
 11
191.2083214692
 21
127.5554734866
 31
0.0
  0
ARC
  5
AA
330
1F
100
AcDbEntity
  8
0
  6
Continuous
 62
     7
370
    25
100
AcDbCircle
 10
206.9083228401
 20
106.3554735463
 30
0.0
 40
0.8000000000000114
100
AcDbArc
 50
270.0
 51
0.0
  0
ARC
  5
AB
330
1F
100
AcDbEntity
  8
0
  6
Continuous
 62
     7
370
    25
100
AcDbCircle
 10
206.9083228401
 20
126.7554735463
 30
0.0
 40
0.8000000000000114
100
AcDbArc
 50
0.0
 51
90.0
  0
ARC
  5
AC
330
1F
100
AcDbEntity
  8
0
  6
Continuous
 62
     7
370
    25
100
AcDbCircle
 10
189.8231135589
 20
105.3054735463
 30
0.0
 40
0.5999999999999943
100
AcDbArc
 50
75.0
 51
90.0
  0
ARC
  5
AD
330
1F
100
AcDbEntity
  8
0
  6
Continuous
 62
     7
370
    25
100
AcDbCircle
 10
189.8231135589
 20
127.8054735463
 30
0.0
 40
0.6000000000000227
100
AcDbArc
 50
270.0
 51
285.0
  0
LINE
  5
AE
330
1F
100
AcDbEntity
  8
0
  6
Continuous
 62
     7
370
    25
100
AcDbLine
 10
189.1083231739
 20
105.9054739426
 30
0.0
 11
189.8231169752
 21
105.9054739426
 31
0.0
  0
LINE
  5
AF
330
1F
100
AcDbEntity
  8
0
  6
Continuous
 62
     7
370
    25
100
AcDbLine
 10
189.8231169752
 20
127.2054731499
 30
0.0
 11
189.1083231739
 21
127.2054731499
 31
0.0
  0
LINE
  5
B0
330
1F
100
AcDbEntity
  8
0
  6
Continuous
 62
     7
370
    25
100
AcDbLine
 10
107.7083236149
 20
93.3093957256
 30
0.0
 11
108.6032650045
 21
92.414454336
 31
0.0
  0
LINE
  5
B1
330
1F
100
AcDbEntity
  8
0
  6
Continuous
 62
     7
370
    25
100
AcDbLine
 10
108.6032650045
 20
140.6964927565
 30
0.0
 11
107.7083236149
 21
139.8015513669
 31
0.0
  0
LINE
  5
B2
330
1F
100
AcDbEntity
  8
0
  6
Continuous
 62
     7
370
    25
100
AcDbLine
 10
194.308321791
 20
94.5554736655
 30
0.0
 11
194.308321791
 21
103.555473278
 31
0.0
  0
LINE
  5
B3
330
1F
100
AcDbEntity
  8
0
  6
Continuous
 62
     7
370
    25
100
AcDbLine
 10
194.308321791
 20
129.5554738145
 30
0.0
 11
194.308321791
 21
138.555473427
 31
0.0
  0
LINE
  5
B4
330
1F
100
AcDbEntity
  8
0
  6
Continuous
 62
     7
370
    25
100
AcDbLine
 10
210.7083237341
 20
124.5554739262
 30
0.0
 11
210.7083237341
 21
108.5554731663
 31
0.0
  0
LINE
  5
B5
330
1F
100
AcDbEntity
  8
0
  6
Continuous
 62
     7
370
    25
100
AcDbLine
 10
220.708321648
 20
123.0554736804
 30
0.0
 11
220.708321648
 21
110.0554734121
 31
0.0
  0
LINE
  5
B6
330
1F
100
AcDbEntity
  8
0
  6
Continuous
 62
     7
370
    25
100
AcDbLine
 10
125.7083228401
 20
85.2804731231
 30
0.0
 11
125.7083228401
 21
147.8304739694
 31
0.0
  0
LINE
  5
B7
330
1F
100
AcDbEntity
  8
0
  6
Continuous
 62
     7
370
    25
100
AcDbLine
 10
132.274125105
 20
85.0804734628
 30
0.0
 11
132.274125105
 21
147.8575382035
 31
0.0
  0
SPLINE
  5
B8
330
1F
100
AcDbEntity
  8
0
  6
Continuous
 62
     7
370
    25
100
AcDbSpline
210
0.0
220
0.0
230
1.0
 70
     8
 71
     3
 72
    10
 73
     6
 74
     0
 42
0.000000001
 43
0.00000001
 40
0.0
 40
0.0
 40
0.0
 40
0.0
 40
0.5
 40
0.5
 40
1.0
 40
1.0
 40
1.0
 40
1.0
 10
133.4023410326167
 20
146.0304735462509
 30
0.0
 10
133.2254558861933
 20
146.3206670859934
 30
0.0
 10
133.0399065113159
 20
146.6230804719339
 30
0.0
 10
132.6619575712683
 20
147.2351146092343
 30
0.0
 10
132.4691710290891
 20
147.5453914487993
 30
0.0
 10
132.2741250354998
 20
147.8575385197644
 30
0.0
  0
SPLINE
  5
B9
330
1F
100
AcDbEntity
  8
0
  6
Continuous
 62
     7
370
    25
100
AcDbSpline
210
0.0
220
0.0
230
1.0
 70
     8
 71
     3
 72
     8
 73
     4
 74
     0
 42
0.000000001
 43
0.00000001
 40
0.0
 40
0.0
 40
0.0
 40
0.0
 40
1.0
 40
1.0
 40
1.0
 40
1.0
 10
133.73332284007
 20
145.419724624868
 30
0.0
 10
133.61502608064
 20
145.6376098591988
 30
0.0
 10
133.5035975984686
 20
145.8432901502409
 30
0.0
 10
133.4023410326167
 20
146.0304735462509
 30
0.0
  0
LINE
  5
BA
330
1F
100
AcDbEntity
  8
0
  6
Continuous
 62
     7
370
    25
100
AcDbLine
 10
133.7333227119
 20
104.0243243452
 30
0.0
 11
133.7333227119
 21
145.419724996
 31
0.0
  0
SPLINE
  5
BB
330
1F
100
AcDbEntity
  8
0
  6
Continuous
 62
     7
370
    25
100
AcDbSpline
210
0.0
220
0.0
230
1.0
 70
     8
 71
     3
 72
    26
 73
    22
 74
     0
 42
0.000000001
 43
0.00000001
 40
0.0
 40
0.0
 40
0.0
 40
0.0
 40
0.1250000000000014
 40
0.1250000000000014
 40
0.2500000000000027
 40
0.2500000000000027
 40
0.3125000000000025
 40
0.3125000000000025
 40
0.3750000000000023
 40
0.3750000000000023
 40
0.4375000000000021
 40
0.4375000000000021
 40
0.5000000000000018
 40
0.5000000000000018
 40
0.5625000000000016
 40
0.5625000000000016
 40
0.6250000000000013
 40
0.6250000000000013
 40
0.7500000000000006
 40
0.7500000000000006
 40
1.0
 40
1.0
 40
1.0
 40
1.0
 10
133.73332284007
 20
100.2223716952802
 30
0.0
 10
133.6414179293872
 20
100.2474193876166
 30
0.0
 10
133.5537211531622
 20
100.2854269815309
 30
0.0
 10
133.3895148823949
 20
100.3964232326237
 30
0.0
 10
133.3122444641282
 20
100.4703567439372
 30
0.0
 10
133.2124783578031
 20
100.6156548792675
 30
0.0
 10
133.1818654289007
 20
100.6697966932592
 30
0.0
 10
133.1269965549977
 20
100.7918609325273
 30
0.0
 10
133.1026113340688
 20
100.8604329141114
 30
0.0
 10
133.0629319575704
 20
101.0100170841457
 30
0.0
 10
133.047465878333
 20
101.0911760893184
 30
0.0
 10
133.0263695432506
 20
101.2678320964099
 30
0.0
 10
133.0208564770905
 20
101.3640762031316
 30
0.0
 10
133.0207895194683
 20
101.5633061454927
 30
0.0
 10
133.0260578268177
 20
101.6671540937162
 30
0.0
 10
133.0469003539858
 20
101.8830742898691
 30
0.0
 10
133.062574467196
 20
101.9950434439633
 30
0.0
 10
133.1218933973736
 20
102.3296696601082
 30
0.0
 10
133.1789132328876
 20
102.5577243684772
 30
0.0
 10
133.3777481215315
 20
103.2161073125462
 30
0.0
 10
133.5490183267636
 20
103.6346323010051
 30
0.0
 10
133.7333228400699
 20
104.0243243186042
 30
0.0
  0
LINE
  5
BC
330
1F
100
AcDbEntity
  8
0
  6
Continuous
 62
     7
370
    25
100
AcDbLine
 10
133.7333227119
 20
87.6078780393
 30
0.0
 11
133.7333227119
 21
100.222372229
 31
0.0
  0
SPLINE
  5
BD
330
1F
100
AcDbEntity
  8
0
  6
Continuous
 62
     7
370
    25
100
AcDbSpline
210
0.0
220
0.0
230
1.0
 70
     8
 71
     3
 72
    11
 73
     7
 74
     0
 42
0.000000001
 43
0.00000001
 40
0.0
 40
0.0
 40
0.0
 40
0.0
 40
0.4050049547784818
 40
0.6483458302039385
 40
0.8998394259968291
 40
0.9999999999999999
 40
0.9999999999999999
 40
0.9999999999999999
 40
0.9999999999999999
 10
132.2741251050286
 20
147.8575382034622
 30
0.0
 10
131.9812840368974
 20
147.8954380007016
 30
0.0
 10
131.5124940055776
 20
147.9561092967334
 30
0.0
 10
131.1709548174295
 20
148.0075620535918
 30
0.0
 10
130.9973409507685
 20
148.0340157770442
 30
0.0
 10
131.0529745272522
 20
148.0255643527115
 30
0.0
 10
131.0688204674773
 20
148.0231571595512
 30
0.0
  0
LINE
  5
BE
330
1F
100
AcDbEntity
  8
0
  6
Continuous
 62
     7
370
    25
100
AcDbLine
 10
143.7083220652
 20
85.0804734628
 30
0.0
 11
143.7083220652
 21
148.0304736297
 31
0.0
  0
SPLINE
  5
BF
330
1F
100
AcDbEntity
  8
0
  6
Continuous
 62
     7
370
    25
100
AcDbSpline
210
0.0
220
0.0
230
1.0
 70
     8
 71
     3
 72
    25
 73
    21
 74
     0
 42
0.000000001
 43
0.00000001
 40
0.0
 40
0.0
 40
0.0
 40
0.0
 40
0.1249999999999985
 40
0.1249999999999985
 40
0.2499999999999971
 40
0.2499999999999971
 40
0.3749999999999956
 40
0.3749999999999956
 40
0.4999999999999941
 40
0.4999999999999941
 40
0.562499999999995
 40
0.562499999999995
 40
0.624999999999996
 40
0.6874999999999969
 40
0.6874999999999969
 40
0.7499999999999978
 40
0.7499999999999978
 40
0.8749999999999989
 40
0.8749999999999989
 40
1.0
 40
1.0
 40
1.0
 40
1.0
 10
138.94252064464
 20
103.5177295409389
 30
0.0
 10
139.1837681501954
 20
103.3588551621472
 30
0.0
 10
139.3996971844399
 20
103.1779676271186
 30
0.0
 10
139.7828550962825
 20
102.7750744071558
 30
0.0
 10
139.9503068817677
 20
102.5510043332179
 30
0.0
 10
140.2179915381716
 20
102.0847014211798
 30
0.0
 10
140.3216635058924
 20
101.83776776812
 30
0.0
 10
140.4607948771466
 20
101.331182012007
 30
0.0
 10
140.4955341171373
 20
101.0766713031051
 30
0.0
 10
140.4959645503565
 20
100.6933465579433
 30
0.0
 10
140.487229766767
 20
100.564522210151
 30
0.0
 10
140.4524363635924
 20
100.3124018456149
 30
0.0
 10
140.4005435018633
 20
100.0648491764637
 30
0.0
 10
140.3151652895696
 20
99.82611285506502
 30
0.0
 10
140.212689536505
 20
99.5917719564257
 30
0.0
 10
140.1526281648539
 20
99.4765896033498
 30
0.0
 10
139.9513183424028
 20
99.1465406310081
 30
0.0
 10
139.788094822323
 20
98.94382950077409
 30
0.0
 10
139.4027166220716
 20
98.57208512722453
 30
0.0
 10
139.1837671362458
 20
98.40673144956752
 30
0.0
 10
138.94252064464
 20
98.2646772280894
 30
0.0
  0
LINE
  5
C0
330
1F
100
AcDbEntity
  8
0
  6
Continuous
 62
     7
370
    25
100
AcDbLine
 10
138.9425209335
 20
103.517729568
 30
0.0
 11
138.9425209335
 21
147.6483408015
 31
0.0
  0
SPLINE
  5
C1
330
1F
100
AcDbEntity
  8
0
  6
Continuous
 62
     7
370
    25
100
AcDbSpline
210
0.0
220
0.0
230
1.0
 70
     8
 71
     3
 72
    12
 73
     8
 74
     0
 42
0.000000001
 43
0.00000001
 40
0.0
 40
0.0
 40
0.0
 40
0.0
 40
0.1144634680262505
 40
0.3661160526449659
 40
0.6247763889426796
 40
0.9030266255086999
 40
1.0
 40
1.0
 40
1.0
 40
1.0
 10
142.423169555401
 20
148.0193424622856
 30
0.0
 10
142.4401878680351
 20
148.0219430578175
 30
0.0
 10
142.4946216323769
 20
148.0302611682774
 30
0.0
 10
141.98971539509
 20
147.9529940896979
 30
0.0
 10
140.9960625686928
 20
147.8223453147383
 30
0.0
 10
139.8727795138035
 20
147.7086213045609
 30
0.0
 10
139.1335647487645
 20
147.6607203887536
 30
0.0
 10
138.9425209334842
 20
147.6483408014618
 30
0.0
  0
LINE
  5
C2
330
1F
100
AcDbEntity
  8
0
  6
Continuous
 62
     7
370
    25
100
AcDbLine
 10
138.9425209335
 20
85.0804734628
 30
0.0
 11
138.9425209335
 21
98.2646762978
 31
0.0
  0
SPLINE
  5
C3
330
1F
100
AcDbEntity
  8
0
  6
Continuous
 62
     7
370
    25
100
AcDbSpline
210
0.0
220
0.0
230
1.0
 70
     8
 71
     3
 72
     8
 73
     4
 74
     0
 42
0.000000001
 43
0.00000001
 40
0.0
 40
0.0
 40
0.0
 40
0.0
 40
1.0
 40
1.0
 40
1.0
 40
1.0
 10
137.9111665554059
 20
146.0304735462509
 30
0.0
 10
137.7696284671241
 20
145.7780095461955
 30
0.0
 10
137.6270179983872
 20
145.524465857053
 30
0.0
 10
137.4833228400702
 20
145.2699296673315
 30
0.0
  0
SPLINE
  5
C4
330
1F
100
AcDbEntity
  8
0
  6
Continuous
 62
     7
370
    25
100
AcDbSpline
210
0.0
220
0.0
230
1.0
 70
     8
 71
     3
 72
     8
 73
     4
 74
     0
 42
0.000000001
 43
0.00000001
 40
0.0
 40
0.0
 40
0.0
 40
0.0
 40
1.0
 40
1.0
 40
1.0
 40
1.0
 10
138.9425206446396
 20
147.6483406980424
 30
0.0
 10
138.5941192399593
 20
147.1063519523914
 30
0.0
 10
138.2495508547264
 20
146.5661327653979
 30
0.0
 10
137.9111665554056
 20
146.0304735462504
 30
0.0
  0
SPLINE
  5
C5
330
1F
100
AcDbEntity
  8
0
  6
Continuous
 62
     7
370
    25
100
AcDbSpline
210
0.0
220
0.0
230
1.0
 70
     8
 71
     3
 72
    10
 73
     6
 74
     0
 42
0.000000001
 43
0.00000001
 40
0.0
 40
0.0
 40
0.0
 40
0.0
 40
0.5
 40
0.5
 40
1.0
 40
1.0
 40
1.0
 40
1.0
 10
137.4833228400699
 20
105.3735345965633
 30
0.0
 10
137.7345157299414
 20
105.1080424480078
 30
0.0
 10
137.9817850416433
 20
104.8223561249653
 30
0.0
 10
138.4684063929541
 20
104.206483443075
 30
0.0
 10
138.7077897006708
 20
103.8765457158344
 30
0.0
 10
138.9425206446399
 20
103.5177295409391
 30
0.0
  0
LINE
  5
C6
330
1F
100
AcDbEntity
  8
0
  6
Continuous
 62
     7
370
    25
100
AcDbLine
 10
137.4833228609
 20
105.373534153
 30
0.0
 11
137.4833228609
 21
145.2699292104
 31
0.0
  0
SPLINE
  5
C7
330
1F
100
AcDbEntity
  8
0
  6
Continuous
 62
     7
370
    25
100
AcDbSpline
210
0.0
220
0.0
230
1.0
 70
     8
 71
     3
 72
    10
 73
     6
 74
     0
 42
0.000000001
 43
0.00000001
 40
0.0
 40
0.0
 40
0.0
 40
0.0
 40
0.5
 40
0.5
 40
1.0
 40
1.0
 40
1.0
 40
1.0
 10
138.9425206446399
 20
98.26467722808943
 30
0.0
 10
138.7077897006708
 20
98.33069288514419
 30
0.0
 10
138.4684063929541
 20
98.43210082622859
 30
0.0
 10
137.9817850416433
 20
98.6883466203071
 30
0.0
 10
137.7345157299414
 20
98.84349490199784
 30
0.0
 10
137.4833228400699
 20
99.02295637485784
 30
0.0
  0
LINE
  5
C8
330
1F
100
AcDbEntity
  8
0
  6
Continuous
 62
     7
370
    25
100
AcDbLine
 10
137.4833228609
 20
99.0229572754
 30
0.0
 11
137.4833228609
 21
99.0721515964
 31
0.0
  0
SPLINE
  5
C9
330
1F
100
AcDbEntity
  8
0
  6
Continuous
 62
     7
370
    25
100
AcDbSpline
210
0.0
220
0.0
230
1.0
 70
     8
 71
     3
 72
    14
 73
    10
 74
     0
 42
0.000000001
 43
0.00000001
 40
0.0
 40
0.0
 40
0.0
 40
0.0
 40
0.25
 40
0.25
 40
0.5
 40
0.5
 40
0.75
 40
0.75
 40
1.0
 40
1.0
 40
1.0
 40
1.0
 10
137.4833228400701
 20
99.0721515626539
 30
0.0
 10
137.4833228400701
 20
99.138068842363
 30
0.0
 10
137.4573934018042
 20
99.19945830115728
 30
0.0
 10
137.3579511445278
 20
99.30688436344663
 30
0.0
 10
137.285668758807
 20
99.35242553754517
 30
0.0
 10
137.1009314220424
 20
99.42906246142498
 30
0.0
 10
136.9913847857204
 20
99.4589880152502
 30
0.0
 10
136.7480235407171
 20
99.50463020267682
 30
0.0
 10
136.6165124332713
 20
99.51990945329831
 30
0.0
 10
136.4833228400699
 20
99.52775593699818
 30
0.0
  0
SPLINE
  5
CA
330
1F
100
AcDbEntity
  8
0
  6
Continuous
 62
     7
370
    25
100
AcDbSpline
210
0.0
220
0.0
230
1.0
 70
     8
 71
     3
 72
    10
 73
     6
 74
     0
 42
0.000000001
 43
0.00000001
 40
0.0
 40
0.0
 40
0.0
 40
0.0
 40
0.5
 40
0.5
 40
1.0
 40
1.0
 40
1.0
 40
1.0
 10
136.4833228400699
 20
99.52775593699809
 30
0.0
 10
136.1708589377818
 20
99.5461638535415
 30
0.0
 10
135.867969955784
 20
99.59503667046539
 30
0.0
 10
135.28062677098
 20
99.75233892780581
 30
0.0
 10
134.996159110408
 20
99.86171114308426
 30
0.0
 10
134.7333228400699
 20
99.99882466327173
 30
0.0
  0
SPLINE
  5
CB
330
1F
100
AcDbEntity
  8
0
  6
Continuous
 62
     7
370
    25
100
AcDbSpline
210
0.0
220
0.0
230
1.0
 70
     8
 71
     3
 72
    14
 73
    10
 74
     0
 42
0.000000001
 43
0.00000001
 40
0.0
 40
0.0
 40
0.0
 40
0.0
 40
0.25
 40
0.25
 40
0.5
 40
0.5
 40
0.75
 40
0.75
 40
1.0
 40
1.0
 40
1.0
 40
1.0
 10
134.7333228400699
 20
99.99882466327172
 30
0.0
 10
134.5989720915288
 20
100.0689112766931
 30
0.0
 10
134.4757931887354
 20
100.1301065839886
 30
0.0
 10
134.247042767846
 20
100.2397489573151
 30
0.0
 10
134.1451196758529
 20
100.2864567567033
 30
0.0
 10
133.9656946115076
 20
100.3574222695523
 30
0.0
 10
133.8892533626032
 20
100.3819347479449
 30
0.0
 10
133.7719653881415
 20
100.380419040419
 30
0.0
 10
133.7333228400699
 20
100.3518119972106
 30
0.0
 10
133.7333228400699
 20
100.2713107069969
 30
0.0
  0
LINE
  5
CC
330
1F
100
AcDbEntity
  8
0
  6
Continuous
 62
     7
370
    25
100
AcDbLine
 10
133.7333227119
 20
100.2713113676
 30
0.0
 11
133.7333227119
 21
100.222372229
 31
0.0
  0
SPLINE
  5
CD
330
1F
100
AcDbEntity
  8
0
  6
Continuous
 62
     7
370
    25
100
AcDbSpline
210
0.0
220
0.0
230
1.0
 70
     8
 71
     3
 72
    16
 73
    12
 74
     0
 42
0.000000001
 43
0.00000001
 40
0.0
 40
0.0
 40
0.0
 40
0.0
 40
0.1250000000000001
 40
0.1250000000000001
 40
0.2500000000000003
 40
0.2500000000000003
 40
0.5000000000000002
 40
0.5000000000000002
 40
0.7500000000000001
 40
0.7500000000000001
 40
1.0
 40
1.0
 40
1.0
 40
1.0
 10
133.7333228400699
 20
104.0732633303209
 30
0.0
 10
133.7333228400699
 20
104.1132923804747
 30
0.0
 10
133.7430954037096
 20
104.1647790355272
 30
0.0
 10
133.77729144911
 20
104.2788432824333
 30
0.0
 10
133.8014766408209
 20
104.3411878199014
 30
0.0
 10
133.8891933049172
 20
104.5337141162565
 30
0.0
 10
133.9659034707666
 20
104.665975323845
 30
0.0
 10
134.1449855710075
 20
104.9199242635112
 30
0.0
 10
134.2458683406273
 20
105.0398963257928
 30
0.0
 10
134.4746798388904
 20
105.2617766833616
 30
0.0
 10
134.5989774473253
 20
105.3599430561081
 30
0.0
 10
134.7333228400699
 20
105.4398579980345
 30
0.0
  0
SPLINE
  5
CE
330
1F
100
AcDbEntity
  8
0
  6
Continuous
 62
     7
370
    25
100
AcDbSpline
210
0.0
220
0.0
230
1.0
 70
     8
 71
     3
 72
    10
 73
     6
 74
     0
 42
0.000000001
 43
0.00000001
 40
0.0
 40
0.0
 40
0.0
 40
0.0
 40
0.5
 40
0.5
 40
1.0
 40
1.0
 40
1.0
 40
1.0
 10
134.7333228400699
 20
105.4398579980345
 30
0.0
 10
134.9961423544257
 20
105.596195374388
 30
0.0
 10
135.2744952190334
 20
105.7201140464552
 30
0.0
 10
135.8614918064188
 20
105.9035566560568
 30
0.0
 10
136.1708754962971
 20
105.9622286356496
 30
0.0
 10
136.4833228400699
 20
105.9837487924774
 30
0.0
  0
SPLINE
  5
CF
330
1F
100
AcDbEntity
  8
0
  6
Continuous
 62
     7
370
    25
100
AcDbSpline
210
0.0
220
0.0
230
1.0
 70
     8
 71
     3
 72
    14
 73
    10
 74
     0
 42
0.000000001
 43
0.00000001
 40
0.0
 40
0.0
 40
0.0
 40
0.0
 40
0.25
 40
0.25
 40
0.5
 40
0.5
 40
0.75
 40
0.75
 40
1.0
 40
1.0
 40
1.0
 40
1.0
 10
136.4833228400699
 20
105.9837487924774
 30
0.0
 10
136.6165522910933
 20
105.992925118464
 30
0.0
 10
136.7482536537034
 20
105.9815329864976
 30
0.0
 10
136.9913313119205
 20
105.9233723268378
 30
0.0
 10
137.1022372524692
 20
105.8765962049384
 30
0.0
 10
137.2849343255468
 20
105.7636370782073
 30
0.0
 10
137.3583218550284
 20
105.6966833722665
 30
0.0
 10
137.4571561339467
 20
105.5596515234717
 30
0.0
 10
137.4833228400699
 20
105.4888675483484
 30
0.0
 10
137.4833228400699
 20
105.4227297843605
 30
0.0
  0
ARC
  5
D0
330
1F
100
AcDbEntity
  8
0
  6
Continuous
 62
     7
370
    25
100
AcDbCircle
 10
136.7705527428
 20
108.2323714168
 30
0.0
 40
4.201185193262733
100
AcDbArc
 50
269.8332063334
 51
292.0877293833
  0
ARC
  5
D1
330
1F
100
AcDbEntity
  8
0
  6
Continuous
 62
     7
370
    25
100
AcDbCircle
 10
136.716075322
 20
108.0752927668
 30
0.0
 40
4.0443094085523
100
AcDbArc
 50
230.971800757
 51
270.5985299293
  0
SPLINE
  5
D2
330
1F
100
AcDbEntity
  8
0
  6
Continuous
 62
     7
370
    25
100
AcDbSpline
210
0.0
220
0.0
230
1.0
 70
     8
 71
     3
 72
    14
 73
    10
 74
     0
 42
0.000000001
 43
0.00000001
 40
0.0
 40
0.0
 40
0.0
 40
0.0
 40
0.25
 40
0.25
 40
0.5
 40
0.5
 40
0.75
 40
0.75
 40
1.0
 40
1.0
 40
1.0
 40
1.0
 10
137.4833228400701
 20
145.1715392917384
 30
0.0
 10
137.4833228400702
 20
145.0397001147695
 30
0.0
 10
137.4574063174991
 20
144.9076511777808
 30
0.0
 10
137.3579614709216
 20
144.6623848860677
 30
0.0
 10
137.2856630785093
 20
144.5507644694799
 30
0.0
 10
137.1009591839854
 20
144.3600251802843
 30
0.0
 10
136.9913819221095
 20
144.2840643134373
 30
0.0
 10
136.7480517438914
 20
144.1802219892678
 30
0.0
 10
136.6165154849712
 20
144.1535887818345
 30
0.0
 10
136.4833228400699
 20
144.1549159092767
 30
0.0
  0
SPLINE
  5
D3
330
1F
100
AcDbEntity
  8
0
  6
Continuous
 62
     7
370
    25
100
AcDbSpline
210
0.0
220
0.0
230
1.0
 70
     8
 71
     3
 72
    14
 73
    10
 74
     0
 42
0.000000001
 43
0.00000001
 40
0.0
 40
0.0
 40
0.0
 40
0.0
 40
0.25
 40
0.25
 40
0.5
 40
0.5
 40
0.75
 40
0.75
 40
1.0
 40
1.0
 40
1.0
 40
1.0
 10
134.7333228400699
 20
144.2277379774463
 30
0.0
 10
134.5989747537135
 20
144.2375692970171
 30
0.0
 10
134.4757980798575
 20
144.2736087104072
 30
0.0
 10
134.2470514749395
 20
144.3854804067265
 30
0.0
 10
134.1451295109723
 20
144.4598351958168
 30
0.0
 10
133.9657061085435
 20
144.6433116626686
 30
0.0
 10
133.8892648203608
 20
144.7505771835286
 30
0.0
 10
133.7719748475106
 20
145.009603673347
 30
0.0
 10
133.7333228400699
 20
145.1608483783232
 30
0.0
 10
133.7333228400699
 20
145.3218466014346
 30
0.0
  0
SPLINE
  5
D4
330
1F
100
AcDbEntity
  8
0
  6
Continuous
 62
     7
370
    25
100
AcDbSpline
210
0.0
220
0.0
230
1.0
 70
     8
 71
     3
 72
    10
 73
     6
 74
     0
 42
0.000000001
 43
0.00000001
 40
0.0
 40
0.0
 40
0.0
 40
0.0
 40
0.5
 40
0.5
 40
1.0
 40
1.0
 40
1.0
 40
1.0
 10
136.4833228400699
 20
144.154915909277
 30
0.0
 10
136.1708589377818
 20
144.1580292900475
 30
0.0
 10
135.867969955784
 20
144.1663452719539
 30
0.0
 10
135.28062677098
 20
144.1915205658099
 30
0.0
 10
134.9961591104081
 20
144.2085041540359
 30
0.0
 10
134.7333228400699
 20
144.2277379774463
 30
0.0
  0
LINE
  5
D5
330
1F
100
AcDbEntity
  8
0
  6
Continuous
 62
     7
370
    25
100
AcDbLine
 10
137.4833228609
 20
87.6078780393
 30
0.0
 11
137.4833228609
 21
99.0229572754
 31
0.0
  0
LINE
  5
D6
330
1F
100
AcDbEntity
  8
0
  6
Continuous
 62
     7
370
    25
100
AcDbLine
 10
124.5481407813
 20
91.6137348513
 30
0.0
 11
124.5481407813
 21
141.4972122412
 31
0.0
  0
LINE
  5
D7
330
1F
100
AcDbEntity
  8
0
  6
Continuous
 62
     7
370
    25
100
AcDbLine
 10
108.6032650045
 20
92.8141370069
 30
0.0
 11
108.6032650045
 21
92.414454336
 31
0.0
  0
SPLINE
  5
D8
330
1F
100
AcDbEntity
  8
0
  6
Continuous
 62
     7
370
    25
100
AcDbSpline
210
0.0
220
0.0
230
1.0
 70
     8
 71
     3
 72
    26
 73
    22
 74
     0
 42
0.000000001
 43
0.00000001
 40
0.0
 40
0.0
 40
0.0
 40
0.0
 40
0.0241259796969038
 40
0.048215991228259
 40
0.0723203915136643
 40
0.0964895678725153
 40
0.1207736231978452
 40
0.1452220711257179
 40
0.1698835501670319
 40
0.1948055644482148
 40
0.2200342569523467
 40
0.2456142191612283
 40
0.369097148691835
 40
0.4940698769485373
 40
0.6192566784762581
 40
0.7454656653603327
 40
0.7971495824713788
 40
0.8481710308405456
 40
0.8988013269235281
 40
0.9493179290492212
 40
1.0
 40
1.0
 40
1.0
 40
1.0
 10
103.6633806868685
 20
94.6360606323308
 30
0.0
 10
103.7286297454195
 20
94.63224000284988
 30
0.0
 10
103.8590305861012
 20
94.62460443986537
 30
0.0
 10
104.0540104044009
 20
94.60868418950338
 30
0.0
 10
104.248139541667
 20
94.58952598835238
 30
0.0
 10
104.4414008817627
 20
94.56683157461492
 30
0.0
 10
104.6337960602375
 20
94.54071920802708
 30
0.0
 10
104.825321638738
 20
94.51120740157248
 30
0.0
 10
105.015977171122
 20
94.47835304097782
 30
0.0
 10
105.205757170218
 20
94.4422167315375
 30
0.0
 10
105.3946757908704
 20
94.40286243869171
 30
0.0
 10
105.8214202040408
 20
94.30646367583323
 30
0.0
 10
106.4558925312189
 20
94.12982759696254
 30
0.0
 10
107.1955683835668
 20
93.8517083634299
 30
0.0
 10
107.8023156263987
 20
93.56036300370657
 30
0.0
 10
108.1631074426172
 20
93.33288581368777
 30
0.0
 10
108.3652814983815
 20
93.17347457659467
 30
0.0
 10
108.4721049543667
 20
93.0721754318861
 30
0.0
 10
108.547715670665
 20
92.97824209215536
 30
0.0
 10
108.5948783433563
 20
92.89112244814659
 30
0.0
 10
108.6004663976446
 20
92.83982731788359
 30
0.0
 10
108.6032649932714
 20
92.81413781670354
 30
0.0
  0
LINE
  5
D9
330
1F
100
AcDbEntity
  8
0
  6
Continuous
 62
     7
370
    25
100
AcDbLine
 10
101.7485073379
 20
94.7415705423
 30
0.0
 11
103.6633810571
 21
94.6360610078
 31
0.0
  0
SPLINE
  5
DA
330
1F
100
AcDbEntity
  8
0
  6
Continuous
 62
     7
370
    25
100
AcDbSpline
210
0.0
220
0.0
230
1.0
 70
     8
 71
     3
 72
    14
 73
    10
 74
     0
 42
0.000000001
 43
0.00000001
 40
0.0
 40
0.0
 40
0.0
 40
0.0
 40
0.0789261963155847
 40
0.1582328720522156
 40
0.3308475394554963
 40
0.5000195457601538
 40
0.667035788356921
 40
0.8332395193656904
 40
1.0
 40
1.0
 40
1.0
 40
1.0
 10
99.55229518150668
 20
94.63557763710581
 30
0.0
 10
99.60569070454872
 20
94.64360673029768
 30
0.0
 10
99.71273915436745
 20
94.65970362252143
 30
0.0
 10
99.9418098689299
 20
94.68950503614019
 30
0.0
 10
100.2406826071283
 20
94.72129899933336
 30
0.0
 10
100.6128256819295
 20
94.74745598932918
 30
0.0
 10
100.9884554809611
 20
94.75992120356388
 30
0.0
 10
101.3676477929909
 20
94.75954204389018
 30
0.0
 10
101.6214127625387
 20
94.74756825562869
 30
0.0
 10
101.7485074075791
 20
94.74157135080925
 30
0.0
  0
SPLINE
  5
DB
330
1F
100
AcDbEntity
  8
0
  6
Continuous
 62
     7
370
    25
100
AcDbSpline
210
0.0
220
0.0
230
1.0
 70
     8
 71
     3
 72
     8
 73
     4
 74
     0
 42
0.000000001
 43
0.00000001
 40
0.0
 40
0.0
 40
0.0
 40
0.0
 40
1.0
 40
1.0
 40
1.0
 40
1.0
 10
94.1600014578623
 20
94.93018701955444
 30
0.0
 10
95.95733814323535
 20
94.83205118949704
 30
0.0
 10
97.75467482860837
 20
94.73383231445547
 30
0.0
 10
99.55201151398141
 20
94.63553362540489
 30
0.0
  0
SPLINE
  5
DC
330
1F
100
AcDbEntity
  8
0
  6
Continuous
 62
     7
370
    25
100
AcDbSpline
210
0.0
220
0.0
230
1.0
 70
     8
 71
     3
 72
    13
 73
     9
 74
     0
 42
0.000000001
 43
0.00000001
 40
0.0
 40
0.0
 40
0.0
 40
0.0
 40
0.1667030582308044
 40
0.3329480818053134
 40
0.4990671507274983
 40
0.6653938523718556
 40
0.8322612710550201
 40
1.0
 40
1.0
 40
1.0
 40
1.0
 10
93.07649729301691
 20
95.04685408389632
 30
0.0
 10
93.13760433576824
 20
95.04316745622259
 30
0.0
 10
93.25965052307144
 20
95.0358043302828
 30
0.0
 10
93.44198546833513
 20
95.02076982269381
 30
0.0
 10
93.62328968120883
 20
95.00286821446082
 30
0.0
 10
93.80348854124549
 20
94.98176763761488
 30
0.0
 10
93.98279251938382
 20
94.95782126658067
 30
0.0
 10
94.10082454495522
 20
94.939408451368
 30
0.0
 10
94.15999423470686
 20
94.93017807039034
 30
0.0
  0
SPLINE
  5
DD
330
1F
100
AcDbEntity
  8
0
  6
Continuous
 62
     7
370
    25
100
AcDbSpline
210
0.0
220
0.0
230
1.0
 70
     8
 71
     3
 72
     8
 73
     4
 74
     0
 42
0.000000001
 43
0.00000001
 40
0.0
 40
0.0
 40
0.0
 40
0.0
 40
1.0
 40
1.0
 40
1.0
 40
1.0
 10
87.2583228400827
 20
95.36662131598997
 30
0.0
 10
89.19771432439411
 20
95.26013566610663
 30
0.0
 10
91.13710580870551
 20
95.15354509487527
 30
0.0
 10
93.07649729301693
 20
95.0468540838963
 30
0.0
  0
LINE
  5
DE
330
1F
100
AcDbEntity
  8
0
  6
Continuous
 62
     7
370
    25
100
AcDbLine
 10
87.2583238951
 20
95.3666221003
 30
0.0
 11
87.2583238951
 21
137.7444125365
 31
0.0
  0
SPLINE
  5
DF
330
1F
100
AcDbEntity
  8
0
  6
Continuous
 62
     7
370
    25
100
AcDbSpline
210
0.0
220
0.0
230
1.0
 70
     8
 71
     3
 72
     8
 73
     4
 74
     0
 42
0.000000001
 43
0.00000001
 40
0.0
 40
0.0
 40
0.0
 40
0.0
 40
1.0
 40
1.0
 40
1.0
 40
1.0
 10
93.07649729301693
 20
138.0640930086055
 30
0.0
 10
91.13710580870551
 20
137.9574019976265
 30
0.0
 10
89.19771432439411
 20
137.8508114263952
 30
0.0
 10
87.25832284008271
 20
137.7443257765118
 30
0.0
  0
SPLINE
  5
E0
330
1F
100
AcDbEntity
  8
0
  6
Continuous
 62
     7
370
    25
100
AcDbSpline
210
0.0
220
0.0
230
1.0
 70
     8
 71
     3
 72
    13
 73
     9
 74
     0
 42
0.000000001
 43
0.00000001
 40
0.0
 40
0.0
 40
0.0
 40
0.0
 40
0.1686319999748162
 40
0.3360343310905639
 40
0.5025367825908819
 40
0.6684737453788441
 40
0.8341822636915266
 40
1.0
 40
1.0
 40
1.0
 40
1.0
 10
94.1599923424839
 20
138.1807717843475
 30
0.0
 10
94.10050244642416
 20
138.1714972941512
 30
0.0
 10
93.98195645614909
 20
138.1530159435783
 30
0.0
 10
93.8020797605632
 20
138.1289851968441
 30
0.0
 10
93.62168947293517
 20
138.107854089335
 30
0.0
 10
93.44057730090137
 20
138.089975390749
 30
0.0
 10
93.25881646373391
 20
138.0750136295719
 30
0.0
 10
93.13728369583929
 20
138.0677340149929
 30
0.0
 10
93.07649729301691
 20
138.0640930086055
 30
0.0
  0
SPLINE
  5
E1
330
1F
100
AcDbEntity
  8
0
  6
Continuous
 62
     7
370
    25
100
AcDbSpline
210
0.0
220
0.0
230
1.0
 70
     8
 71
     3
 72
     8
 73
     4
 74
     0
 42
0.000000001
 43
0.00000001
 40
0.0
 40
0.0
 40
0.0
 40
0.0
 40
1.0
 40
1.0
 40
1.0
 40
1.0
 10
99.55218575897719
 20
138.4754230082925
 30
0.0
 10
97.7547910875392
 20
138.3771211490759
 30
0.0
 10
95.95739641610123
 20
138.2788991089173
 30
0.0
 10
94.16000174466326
 20
138.1807601191017
 30
0.0
  0
SPLINE
  5
E2
330
1F
100
AcDbEntity
  8
0
  6
Continuous
 62
     7
370
    25
100
AcDbSpline
210
0.0
220
0.0
230
1.0
 70
     8
 71
     3
 72
    18
 73
    14
 74
     0
 42
0.000000001
 43
0.00000001
 40
0.0
 40
0.0
 40
0.0
 40
0.0
 40
0.0923325137111259
 40
0.1843692047063178
 40
0.2763458873811051
 40
0.3684982175655905
 40
0.461059898830402
 40
0.5542609546533457
 40
0.6483261285442697
 40
0.7434734636505935
 40
0.8399130993120554
 40
0.9201660718299485
 40
1.0
 40
1.0
 40
1.0
 40
1.0
 10
101.7485074075791
 20
138.3693757416926
 30
0.0
 10
101.678177104066
 20
138.3657044343876
 30
0.0
 10
101.5377418272141
 20
138.3583735822226
 30
0.0
 10
101.3273793007115
 20
138.3527829229779
 30
0.0
 10
101.1179356377951
 20
138.3511783328443
 30
0.0
 10
100.9093859674226
 20
138.3539106068428
 30
0.0
 10
100.7017423501473
 20
138.3608337044309
 30
0.0
 10
100.4950041626077
 20
138.3719163147237
 30
0.0
 10
100.2891820706429
 20
138.3870852555782
 30
0.0
 10
100.0842503918507
 20
138.4062392415391
 30
0.0
 10
99.89276964645511
 20
138.4279419355907
 30
0.0
 10
99.71504649440055
 20
138.4509714588546
 30
0.0
 10
99.60671249983665
 20
138.4672348764968
 30
0.0
 10
99.55268729038337
 20
138.4753452997124
 30
0.0
  0
LINE
  5
E3
330
1F
100
AcDbEntity
  8
0
  6
Continuous
 62
     7
370
    25
100
AcDbLine
 10
103.6633810571
 20
138.4748860847
 30
0.0
 11
101.7485073379
 21
138.3693765502
 31
0.0
  0
SPLINE
  5
E4
330
1F
100
AcDbEntity
  8
0
  6
Continuous
 62
     7
370
    25
100
AcDbSpline
210
0.0
220
0.0
230
1.0
 70
     8
 71
     3
 72
    25
 73
    21
 74
     0
 42
0.000000001
 43
0.00000001
 40
0.0
 40
0.0
 40
0.0
 40
0.0
 40
0.0280105225426479
 40
0.0559601148860778
 40
0.0839014045043132
 40
0.1118870776786396
 40
0.1399695827588963
 40
0.1682008401739896
 40
0.1966319670424239
 40
0.2253130233141486
 40
0.2542927850735853
 40
0.3799486436570562
 40
0.5057850221666559
 40
0.6313085886326678
 40
0.753206823801271
 40
0.8039473267958359
 40
0.8535894438558028
 40
0.9025339722397656
 40
0.9511970353793487
 40
1.0
 40
1.0
 40
1.0
 40
1.0
 10
108.6032649932714
 20
140.2968092757983
 30
0.0
 10
108.6033022150052
 20
140.2828511359764
 30
0.0
 10
108.6033765775059
 20
140.2549652189308
 30
0.0
 10
108.5909605268594
 20
140.209921424045
 30
0.0
 10
108.5693559665056
 20
140.1626541998499
 30
0.0
 10
108.5376704968456
 20
140.1129550188739
 30
0.0
 10
108.4961443585257
 20
140.0609177699014
 30
0.0
 10
108.4447136027958
 20
140.0065550072655
 30
0.0
 10
108.3833997280846
 20
139.9499037246006
 30
0.0
 10
108.3121893925851
 20
139.8909861629353
 30
0.0
 10
108.1413527853816
 20
139.7621695871124
 30
0.0
 10
107.8036205519447
 20
139.5519662029691
 30
0.0
 10
107.192065887749
 20
139.2610406813774
 30
0.0
 10
106.4558310526004
 20
138.9825138651552
 30
0.0
 10
105.769344980951
 20
138.788217159421
 30
0.0
 10
105.2206408347993
 20
138.6676263469679
 30
0.0
 10
104.8386046562935
 20
138.5978491812053
 30
0.0
 10
104.4514385575891
 20
138.5420601773496
 30
0.0
 10
104.0592118888036
 20
138.4993299926063
 30
0.0
 10
103.7954506206894
 20
138.4830420974611
 30
0.0
 10
103.6633806868685
 20
138.474886460171
 30
0.0
  0
LINE
  5
E5
330
1F
100
AcDbEntity
  8
0
  6
Continuous
 62
     7
370
    25
100
AcDbLine
 10
108.6032650045
 20
140.6964927565
 30
0.0
 11
108.6032650045
 21
140.2968100856
 31
0.0
  0
SPLINE
  5
E6
330
1F
100
AcDbEntity
  8
0
  6
Continuous
 62
     7
370
    25
100
AcDbSpline
210
0.0
220
0.0
230
1.0
 70
    11
 71
     3
 72
    39
 73
    35
 74
     0
 42
0.000000001
 43
0.00000001
 40
0.0
 40
0.0
 40
0.0
 40
0.0
 40
0.0310664058347798
 40
0.0621048158425991
 40
0.0931361551792733
 40
0.1235538293503577
 40
0.1538561545807598
 40
0.1850588072749104
 40
0.2160250992947717
 40
0.247186722379756
 40
0.2784462884306427
 40
0.3100516090231226
 40
0.3419834369140484
 40
0.3734259894013217
 40
0.4048604886785525
 40
0.4368740651833295
 40
0.468512068592407
 40
0.4998055358633177
 40
0.5309508213228404
 40
0.561864978443814
 40
0.5930416446592908
 40
0.6233742450133256
 40
0.6540913579073041
 40
0.6849496782718417
 40
0.7158160645167227
 40
0.7471731804043494
 40
0.7784514311866261
 40
0.8101295911560916
 40
0.8419598919689909
 40
0.8735175891922292
 40
0.9050808037889628
 40
0.9370235169792575
 40
0.9687441590033682
 40
0.9999999999999999
 40
0.9999999999999999
 40
0.9999999999999999
 40
0.9999999999999999
 10
97.6207389347969
 20
122.3637266758456
 30
0.0
 10
97.98486809576164
 20
122.7431503337534
 30
0.0
 10
98.78765243247852
 20
123.4306320346469
 30
0.0
 10
100.1826909178606
 20
124.1965460090656
 30
0.0
 10
101.6939327575839
 20
124.6854269424963
 30
0.0
 10
103.2655291641063
 20
124.84740481613
 30
0.0
 10
104.833073781165
 20
124.6859599251716
 30
0.0
 10
106.3287457752736
 20
124.2062355379276
 30
0.0
 10
107.7091620373092
 20
123.452936069734
 30
0.0
 10
108.9062080908938
 20
122.4404501960736
 30
0.0
 10
109.8951158706353
 20
121.2059014087077
 30
0.0
 10
110.6346106649378
 20
119.7809497804257
 30
0.0
 10
111.1109145878272
 20
118.2300193008833
 30
0.0
 10
111.2785807602832
 20
116.6090904336572
 30
0.0
 10
111.1333031594957
 20
114.9840814877358
 30
0.0
 10
110.6743284488638
 20
113.4250555074642
 30
0.0
 10
109.9503425630106
 20
111.9883989087886
 30
0.0
 10
108.9745283076878
 20
110.741654693988
 30
0.0
 10
107.7902037600388
 20
109.7154575047911
 30
0.0
 10
106.4219975043092
 20
108.9450532850703
 30
0.0
 10
104.934259667177
 20
108.4462040745937
 30
0.0
 10
103.3646098067244
 20
108.2649999946978
 30
0.0
 10
101.7883552883953
 20
108.4014231366162
 30
0.0
 10
100.2690797799204
 20
108.8658548694229
 30
0.0
 10
98.86806174587251
 20
109.620288943792
 30
0.0
 10
97.64992524897336
 20
110.6436986793266
 30
0.0
 10
96.64231434584485
 20
111.8906409408197
 30
0.0
 10
95.89684043529478
 20
113.3237303470878
 30
0.0
 10
95.42100462267103
 20
114.8803925723094
 30
0.0
 10
95.25719350768321
 20
116.504055546015
 30
0.0
 10
95.40300565094856
 20
118.1316045900065
 30
0.0
 10
95.86314996312562
 20
119.696352278342
 30
0.0
 10
96.59261002794686
 20
121.1403783478045
 30
0.0
 10
97.25438940540886
 20
121.9819893875028
 30
0.0
 10
97.6207389347969
 20
122.3637266758456
 30
0.0
  0
SPLINE
  5
E7
330
1F
100
AcDbEntity
  8
0
  6
Continuous
 62
     7
370
    25
100
AcDbSpline
210
0.0
220
0.0
230
1.0
 70
    11
 71
     3
 72
    47
 73
    43
 74
     0
 42
0.000000001
 43
0.00000001
 40
0.0
 40
0.0
 40
0.0
 40
0.0
 40
0.0185565231571564
 40
0.035175779134607
 40
0.0498587703163977
 40
0.0626072874024163
 40
0.0953681049684394
 40
0.1250235944851125
 40
0.1545621306648851
 40
0.187325415667866
 40
0.214037648789779
 40
0.2498478283714602
 40
0.2676842772503708
 40
0.2839032654384537
 40
0.2985082395935219
 40
0.311504112535417
 40
0.3429211892384783
 40
0.3729479206117491
 40
0.4028496296254227
 40
0.4364008870238722
 40
0.4619504140689453
 40
0.4999311490763327
 40
0.5173446591947486
 40
0.5335937024374298
 40
0.5486836298429361
 40
0.5626211828729782
 40
0.5950895091111661
 40
0.6250625446193601
 40
0.6549914305494098
 40
0.6874537010179621
 40
0.7162620319992257
 40
0.7500327075718594
 40
0.7698580256218077
 40
0.7869169820502812
 40
0.8012094712348541
 40
0.8127363282889571
 40
0.8457518306190162
 40
0.8751838152098743
 40
0.9050548231038161
 40
0.9375234850660229
 40
0.9660340097891252
 40
1.0
 40
1.0
 40
1.0
 40
1.0
 10
98.1645518551712
 20
121.6646926700421
 30
0.0
 10
97.9664532275603
 20
121.4653073809296
 30
0.0
 10
97.61350724756926
 20
121.0659783528273
 30
0.0
 10
97.17760025167304
 20
120.4473240582523
 30
0.0
 10
96.84766351466547
 20
119.8649634875014
 30
0.0
 10
96.4664477826737
 20
119.0324351825135
 30
0.0
 10
96.14004196413269
 20
117.9231490793482
 30
0.0
 10
96.01568890530307
 20
116.5119717507234
 30
0.0
 10
96.15705827320959
 20
115.1024817515532
 30
0.0
 10
96.55855602743853
 20
113.7944141528319
 30
0.0
 10
97.23550541793483
 20
112.5097508519195
 30
0.0
 10
98.00868777562258
 20
111.5562630700082
 30
0.0
 10
98.80394947658668
 20
110.8569591024772
 30
0.0
 10
99.40808959434919
 20
110.4304600625585
 30
0.0
 10
99.98780478897352
 20
110.1003085344494
 30
0.0
 10
100.8056060564105
 20
109.7243478923605
 30
0.0
 10
101.9052684857718
 20
109.3953460581363
 30
0.0
 10
103.3076362144319
 20
109.2617680416323
 30
0.0
 10
104.7351088978361
 20
109.3977679206399
 30
0.0
 10
106.0322858815916
 20
109.7922560704833
 30
0.0
 10
107.3266889047487
 20
110.4640498774328
 30
0.0
 10
108.2786855852096
 20
111.2266038673857
 30
0.0
 10
108.9881583138288
 20
112.028642987314
 30
0.0
 10
109.4137630937682
 20
112.6244385923007
 30
0.0
 10
109.7544257216862
 20
113.2157082126002
 30
0.0
 10
110.1440911085562
 20
114.0602710436446
 30
0.0
 10
110.4758030701131
 20
115.183922948511
 30
0.0
 10
110.6020442316109
 20
116.6018151086636
 30
0.0
 10
110.4577161203408
 20
118.0176403002356
 30
0.0
 10
110.0454377712723
 20
119.3527982755925
 30
0.0
 10
109.3661215902905
 20
120.6217666091754
 30
0.0
 10
108.5797712320547
 20
121.5820891014156
 30
0.0
 10
107.7859235583338
 20
122.277496708282
 30
0.0
 10
107.1561993362957
 20
122.7135705843069
 30
0.0
 10
106.59496341693
 20
123.0264197327783
 30
0.0
 10
105.7913549573773
 20
123.3936217335553
 30
0.0
 10
104.7112065628857
 20
123.716331671481
 30
0.0
 10
103.3016782428102
 20
123.848275903994
 30
0.0
 10
101.8924733159763
 20
123.7144658829736
 30
0.0
 10
100.5517604661543
 20
123.3097118908686
 30
0.0
 10
99.26749200097306
 20
122.6314565423393
 30
0.0
 10
98.52715297334595
 20
122.0296489024588
 30
0.0
 10
98.16455185517123
 20
121.6646926700421
 30
0.0
  0
LINE
  5
E8
330
1F
100
AcDbEntity
  8
0
  6
Continuous
 62
     7
370
    25
100
AcDbLine
 10
188.7083238533
 20
93.3554738413
 30
0.0
 11
188.7083238533
 21
139.7554732512
 31
0.0
  0
SPLINE
  5
E9
330
1F
100
AcDbEntity
  8
0
  6
Continuous
 62
     7
370
    25
100
AcDbSpline
210
0.0
220
0.0
230
1.0
 70
     8
 71
     3
 72
     8
 73
     4
 74
     0
 42
0.000000001
 43
0.00000001
 40
0.0
 40
0.0
 40
0.0
 40
0.0
 40
1.0
 40
1.0
 40
1.0
 40
1.0
 10
86.34466301849075
 20
95.77719332699039
 30
0.0
 10
86.64921629220018
 20
95.63951658661507
 30
0.0
 10
86.95376956590958
 20
95.50265386570112
 30
0.0
 10
87.258322839619
 20
95.36662131636997
 30
0.0
  0
SPLINE
  5
EA
330
1F
100
AcDbEntity
  8
0
  6
Continuous
 62
     7
370
    25
100
AcDbSpline
210
0.0
220
0.0
230
1.0
 70
     8
 71
     3
 72
     8
 73
     4
 74
     0
 42
0.000000001
 43
0.00000001
 40
0.0
 40
0.0
 40
0.0
 40
0.0
 40
1.0
 40
1.0
 40
1.0
 40
1.0
 10
85.75832284006995
 20
96.29324780950654
 30
0.0
 10
85.95286997260268
 20
96.11984094118674
 30
0.0
 10
86.14833099284172
 20
95.94784484622004
 30
0.0
 10
86.34466301849889
 20
95.7771933269882
 30
0.0
  0
LINE
  5
EB
330
1F
100
AcDbEntity
  8
0
  6
Continuous
 62
     7
370
    25
100
AcDbLine
 10
85.7583245805
 20
96.2932470839
 30
0.0
 11
85.7583245805
 21
136.8177000086
 31
0.0
  0
SPLINE
  5
EC
330
1F
100
AcDbEntity
  8
0
  6
Continuous
 62
     7
370
    25
100
AcDbSpline
210
0.0
220
0.0
230
1.0
 70
     8
 71
     3
 72
     8
 73
     4
 74
     0
 42
0.000000001
 43
0.00000001
 40
0.0
 40
0.0
 40
0.0
 40
0.0
 40
1.0
 40
1.0
 40
1.0
 40
1.0
 10
86.34466301850242
 20
137.3337537655167
 30
0.0
 10
86.14833099284405
 20
137.1631022462838
 30
0.0
 10
85.95286997260385
 20
136.9911061513161
 30
0.0
 10
85.75832284006995
 20
136.8176992829952
 30
0.0
  0
SPLINE
  5
ED
330
1F
100
AcDbEntity
  8
0
  6
Continuous
 62
     7
370
    25
100
AcDbSpline
210
0.0
220
0.0
230
1.0
 70
     8
 71
     3
 72
     8
 73
     4
 74
     0
 42
0.000000001
 43
0.00000001
 40
0.0
 40
0.0
 40
0.0
 40
0.0
 40
1.0
 40
1.0
 40
1.0
 40
1.0
 10
87.25832283961903
 20
137.7443257761319
 30
0.0
 10
86.95376956591349
 20
137.6082932268024
 30
0.0
 10
86.64921629220795
 20
137.4714305058902
 30
0.0
 10
86.34466301850242
 20
137.3337537655167
 30
0.0
  0
SPLINE
  5
EE
330
1F
100
AcDbEntity
  8
0
  6
Continuous
 62
     7
370
    25
100
AcDbSpline
210
0.0
220
0.0
230
1.0
 70
     8
 71
     3
 72
     9
 73
     5
 74
     0
 42
0.000000001
 43
0.00000001
 40
0.0
 40
0.0
 40
0.0
 40
0.0
 40
0.8959546455136717
 40
0.9999999999999999
 40
0.9999999999999999
 40
0.9999999999999999
 40
0.9999999999999999
 10
101.383067535495
 20
109.5657746891819
 30
0.0
 10
101.487099947395
 20
109.5386758429529
 30
0.0
 10
101.6032134274923
 20
109.508430063923
 30
0.0
 10
101.5538774163517
 20
109.5210009871397
 30
0.0
 10
101.5487442335836
 20
109.522308933302
 30
0.0
  0
LINE
  5
EF
330
1F
100
AcDbEntity
  8
0
  6
Continuous
 62
     7
370
    25
100
AcDbLine
 10
191.2083214692
 20
105.5554736059
 30
0.0
 11
191.2083214692
 21
127.5554734866
 31
0.0
  0
LINE
  5
F0
330
1F
100
AcDbEntity
  8
0
  6
Continuous
 62
     7
370
    25
100
AcDbLine
 10
207.708325105
 20
106.3554731782
 30
0.0
 11
207.708325105
 21
126.7554739143
 31
0.0
  0
LINE
  5
F1
330
1F
100
AcDbEntity
  8
0
  6
Continuous
 62
     7
370
    25
100
AcDbLine
 10
108.6032650045
 20
140.2968100856
 30
0.0
 11
107.9574542663
 21
139.6616909306
 31
0.0
  0
LINE
  5
F2
330
1F
100
AcDbEntity
  8
0
  6
Continuous
 62
     7
370
    25
100
AcDbLine
 10
108.6032650045
 20
92.8141370069
 30
0.0
 11
107.9599539361
 21
93.446799333
 31
0.0
  0
LINE
  5
F3
330
1F
100
AcDbEntity
  8
0
  6
Continuous
 62
     7
370
    25
100
AcDbLine
 10
107.7083236149
 20
93.3093957256
 30
0.0
 11
107.7083236149
 21
93.6942629169
 31
0.0
  0
LINE
  5
F4
330
1F
100
AcDbEntity
  8
0
  6
Continuous
 62
     7
370
    25
100
AcDbLine
 10
107.7083236149
 20
139.4166841756
 30
0.0
 11
107.7083236149
 21
139.8015513669
 31
0.0
  0
SPLINE
  5
F5
330
1F
100
AcDbEntity
  8
0
  6
Continuous
 62
     7
370
    25
100
AcDbSpline
210
0.0
220
0.0
230
1.0
 70
     8
 71
     3
 72
     9
 73
     5
 74
     0
 42
0.000000001
 43
0.00000001
 40
0.0
 40
0.0
 40
0.0
 40
0.0
 40
0.7785869072975132
 40
1.0
 40
1.0
 40
1.0
 40
1.0
 10
98.35408614787977
 20
121.8186162996434
 30
0.0
 10
98.20169166723578
 20
121.6907922346917
 30
0.0
 10
98.00595952838827
 20
121.5266178005295
 30
0.0
 10
97.85044093299405
 20
121.3168582068711
 30
0.0
 10
97.81600707981508
 20
121.2704146865152
 30
0.0
  0
SPLINE
  5
F6
330
1F
100
AcDbEntity
  8
0
  6
Continuous
 62
     7
370
    25
100
AcDbSpline
210
0.0
220
0.0
230
1.0
 70
     8
 71
     3
 72
     9
 73
     5
 74
     0
 42
0.000000001
 43
0.00000001
 40
0.0
 40
0.0
 40
0.0
 40
0.0
 40
0.4260717682333453
 40
1.0
 40
1.0
 40
1.0
 40
1.0
 10
100.6713172963611
 20
109.8098687480531
 30
0.0
 10
100.8107548058581
 20
109.755686136247
 30
0.0
 10
101.1380177692672
 20
109.6285183306191
 30
0.0
 10
101.296149933655
 20
109.5891098899154
 30
0.0
 10
101.3869064471475
 20
109.5664922732256
 30
0.0
  0
LINE
  5
F7
330
1F
100
AcDbEntity
  8
0
  6
HIDDEN
 62
     7
370
    18
100
AcDbLine
 10
210.7083237341
 20
108.5554731663
 30
0.0
 11
210.7083237341
 21
124.5554739262
 31
0.0
  0
LINE
  5
F8
330
1F
100
AcDbEntity
  8
0
  6
HIDDEN
 62
     7
370
    18
100
AcDbLine
 10
220.708321648
 20
110.0554734121
 30
0.0
 11
220.708321648
 21
123.0554736804
 31
0.0
  0
LINE
  5
F9
330
1F
100
AcDbEntity
  8
0
  6
HIDDEN
 62
     7
370
    18
100
AcDbLine
 10
210.7083237341
 20
111.1554734062
 30
0.0
 11
210.7083237341
 21
121.9554736863
 31
0.0
  0
LINE
  5
FA
330
1F
100
AcDbEntity
  8
0
  6
HIDDEN
 62
     7
370
    18
100
AcDbLine
 10
193.5363224319
 20
111.555473658
 30
0.0
 11
193.5363224319
 21
121.5554734345
 31
0.0
  0
LINE
  5
FB
330
1F
100
AcDbEntity
  8
0
  6
HIDDEN
 62
     7
370
    18
100
AcDbLine
 10
192.708324509
 20
112.3834734436
 30
0.0
 11
192.708324509
 21
120.7274736489
 31
0.0
  0
LINE
  5
FC
330
1F
100
AcDbEntity
  8
0
  6
HIDDEN
 62
     7
370
    18
100
AcDbLine
 10
220.708321648
 20
116.5554735463
 30
0.0
 11
220.708321648
 21
112.4979735005
 31
0.0
  0
LINE
  5
FD
330
1F
100
AcDbEntity
  8
0
  6
HIDDEN
 62
     7
370
    18
100
AcDbLine
 10
215.7083264163
 20
116.5554735463
 30
0.0
 11
215.7083264163
 21
114.5267235234
 31
0.0
  0
LINE
  5
FE
330
1F
100
AcDbEntity
  8
0
  6
HIDDEN
 62
     7
370
    18
100
AcDbLine
 10
215.7083264163
 20
116.5554735463
 30
0.0
 11
215.7083264163
 21
118.5842235691
 31
0.0
  0
LINE
  5
FF
330
1F
100
AcDbEntity
  8
0
  6
HIDDEN
 62
     7
370
    18
100
AcDbLine
 10
215.7083264163
 20
116.5554735463
 30
0.0
 11
220.708321648
 21
116.5554735463
 31
0.0
  0
LINE
  5
100
330
1F
100
AcDbEntity
  8
0
  6
HIDDEN
 62
     7
370
    18
100
AcDbLine
 10
220.708321648
 20
116.5554735463
 30
0.0
 11
220.708321648
 21
120.612973592
 31
0.0
  0
LINE
  5
101
330
1F
100
AcDbEntity
  8
0
  6
HIDDEN
 62
     7
370
    18
100
AcDbLine
 10
215.7083264163
 20
118.5842235691
 30
0.0
 11
215.7083264163
 21
120.612973592
 31
0.0
  0
LINE
  5
102
330
1F
100
AcDbEntity
  8
0
  6
HIDDEN
 62
     7
370
    18
100
AcDbLine
 10
215.7083264163
 20
114.5267235234
 30
0.0
 11
215.7083264163
 21
118.5842235691
 31
0.0
  0
LINE
  5
103
330
1F
100
AcDbEntity
  8
0
  6
HIDDEN
 62
     7
370
    18
100
AcDbLine
 10
215.7083264163
 20
112.4979735005
 30
0.0
 11
215.7083264163
 21
114.5267235234
 31
0.0
  0
LINE
  5
104
330
1F
100
AcDbEntity
  8
0
  6
HIDDEN
 62
     7
370
    18
100
AcDbLine
 10
215.7083264163
 20
114.5267235234
 30
0.0
 11
215.7083264163
 21
112.4979735005
 31
0.0
  0
LINE
  5
105
330
1F
100
AcDbEntity
  8
0
  6
HIDDEN
 62
     7
370
    18
100
AcDbLine
 10
215.7083264163
 20
120.612973592
 30
0.0
 11
215.7083264163
 21
118.5842235691
 31
0.0
  0
LINE
  5
106
330
1F
100
AcDbEntity
  8
0
  6
HIDDEN
 62
     7
370
    18
100
AcDbLine
 10
215.7083264163
 20
118.5842235691
 30
0.0
 11
215.7083264163
 21
114.5267235234
 31
0.0
  0
LINE
  5
107
330
1F
100
AcDbEntity
  8
0
  6
HIDDEN
 62
     7
370
    18
100
AcDbLine
 10
215.7083264163
 20
114.5267235234
 30
0.0
 11
215.7083264163
 21
112.4979735005
 31
0.0
  0
LINE
  5
108
330
1F
100
AcDbEntity
  8
0
  6
HIDDEN
 62
     7
370
    18
100
AcDbLine
 10
215.7083264163
 20
118.5842235691
 30
0.0
 11
215.7083264163
 21
120.612973592
 31
0.0
  0
LINE
  5
109
330
1F
100
AcDbEntity
  8
0
  6
HIDDEN
 62
     7
370
    18
100
AcDbLine
 10
215.7083264163
 20
120.612973592
 30
0.0
 11
220.708321648
 21
120.612973592
 31
0.0
  0
LINE
  5
10A
330
1F
100
AcDbEntity
  8
0
  6
HIDDEN
 62
     7
370
    18
100
AcDbLine
 10
215.7083264163
 20
112.4979735005
 30
0.0
 11
220.708321648
 21
112.4979735005
 31
0.0
  0
LINE
  5
10B
330
1F
100
AcDbEntity
  8
0
  6
HIDDEN
 62
     7
370
    18
100
AcDbLine
 10
207.708325105
 20
121.5554734345
 30
0.0
 11
193.5363224319
 21
121.5554734345
 31
0.0
  0
LINE
  5
10C
330
1F
100
AcDbEntity
  8
0
  6
HIDDEN
 62
     7
370
    18
100
AcDbLine
 10
193.5363224319
 20
111.555473658
 30
0.0
 11
207.708325105
 21
111.555473658
 31
0.0
  0
LINE
  5
10D
330
1F
100
AcDbEntity
  8
0
  6
HIDDEN
 62
     7
370
    18
100
AcDbLine
 10
193.5363224319
 20
121.5554734345
 30
0.0
 11
192.708324509
 21
120.7274736489
 31
0.0
  0
LINE
  5
10E
330
1F
100
AcDbEntity
  8
0
  6
HIDDEN
 62
     7
370
    18
100
AcDbLine
 10
192.708324509
 20
112.3834734436
 30
0.0
 11
193.5363224319
 21
111.555473658
 31
0.0
  0
LINE
  5
10F
330
1F
100
AcDbEntity
  8
0
  6
HIDDEN
 62
     7
370
    18
100
AcDbLine
 10
215.7083264163
 20
120.612973592
 30
0.0
 11
213.3657223156
 21
116.5554735463
 31
0.0
  0
LINE
  5
110
330
1F
100
AcDbEntity
  8
0
  6
HIDDEN
 62
     7
370
    18
100
AcDbLine
 10
213.3657223156
 20
116.5554735463
 30
0.0
 11
215.7083264163
 21
112.4979735005
 31
0.0
  0
DIMENSION
  5
111
330
1F
100
AcDbEntity
  8
VERMASSUNG
100
AcDbDimension
  2
_D
 10
244.7534864207
 20
127.5554735463
 30
0.0
 11
244.7534864207
 21
116.5554735463
 31
0.0
 70
   160
  1
%%c<>
 71
     2
 42
-1.0
  3
SLDDIMSTYLE0
100
AcDbAlignedDimension
 13
206.9083228401
 23
105.5554735463
 33
0.0
 14
206.9083228401
 24
127.5554735463
 34
0.0
 50
90.0
100
AcDbRotatedDimension
  0
DIMENSION
  5
11D
330
1F
100
AcDbEntity
  8
VERMASSUNG
100
AcDbDimension
  2
_D_1
 10
256.4734857659
 20
92.5554735463
 30
0.0
 11
256.4734857659
 21
116.5554735463
 31
0.0
 70
   160
  1
%%c<>
 71
     2
 42
-1.0
  3
SLDDIMSTYLE0
100
AcDbAlignedDimension
 13
187.9083228401
 23
140.5554735463
 33
0.0
 14
187.9083228401
 24
92.5554735463
 34
0.0
 50
90.0
100
AcDbRotatedDimension
  0
DIMENSION
  5
128
330
1F
100
AcDbEntity
  8
VERMASSUNG
100
AcDbDimension
  2
_D_2
 10
188.7083228401
 20
154.7022003105
 30
0.0
 11
166.2083228401
 21
154.7022003105
 31
0.0
 70
   160
  1
<>
 71
     2
 42
-1.0
  3
SLDDIMSTYLE0
100
AcDbAlignedDimension
 13
143.7083228401
 23
148.0304735463
 33
0.0
 14
188.7083228401
 24
139.7554735463
 34
0.0
100
AcDbRotatedDimension
  0
DIMENSION
  5
132
330
1F
100
AcDbEntity
  8
VERMASSUNG
100
AcDbDimension
  2
_D_3
 10
207.7083228401
 20
154.7022003105
 30
0.0
 11
198.2083228401
 21
154.7022003105
 31
0.0
 70
   160
  1
<>
 71
     2
 42
-1.0
  3
SLDDIMSTYLE0
100
AcDbAlignedDimension
 13
188.7083228401
 23
139.7554735463
 33
0.0
 14
207.7083228401
 24
126.7554735463
 34
0.0
100
AcDbRotatedDimension
  0
DIMENSION
  5
13C
330
1F
100
AcDbEntity
  8
VERMASSUNG
100
AcDbDimension
  2
_D_4
 10
188.7083228401
 20
162.6698293282
 30
0.0
 11
157.2083228401
 21
162.6698293282
 31
0.0
 70
   160
  1
<>
 71
     2
 42
-1.0
  3
SLDDIMSTYLE0
100
AcDbAlignedDimension
 13
125.7083228401
 23
147.8304735463
 33
0.0
 14
188.7083228401
 24
139.7554735463
 34
0.0
100
AcDbRotatedDimension
  0
DIMENSION
  5
146
330
1F
100
AcDbEntity
  8
VERMASSUNG
100
AcDbDimension
  2
_D_5
 10
207.7083228401
 20
170.0304735463
 30
0.0
 11
146.7333228401
 21
170.0304735463
 31
0.0
 70
   160
  1
<>
 71
     2
 42
-1.0
  3
SLDDIMSTYLE0
100
AcDbAlignedDimension
 13
85.7583228401
 23
136.817699283
 33
0.0
 14
207.7083228401
 24
122.6054735463
 34
0.0
100
AcDbRotatedDimension
  0
DIMENSION
  5
150
330
1F
100
AcDbEntity
  8
VERMASSUNG
100
AcDbDimension
  2
_D_6
 10
75.7582978401
 20
85.0804735463
 30
0.0
 11
75.7582978401
 21
116.5554735463
 31
0.0
 70
   160
  1
KM%%c<> XMZ
 71
     2
 42
-1.0
  3
SLDDIMSTYLE1
100
AcDbAlignedDimension
 13
125.9083228401
 23
148.0304735463
 33
0.0
 14
125.9083228401
 24
85.0804735463
 34
0.0
 50
90.0
100
AcDbRotatedDimension
  0
DIMENSION
  5
15E
330
1F
100
AcDbEntity
  8
VERMASSUNG
100
AcDbDimension
  2
_D_7
 10
233.5767983035
 20
120.6129735463
 30
0.0
 11
233.5767983035
 21
116.5554735463
 31
0.0
 70
   160
  1
SW<>
 71
     2
 42
-1.0
  3
SLDDIMSTYLE2
100
AcDbAlignedDimension
 13
220.7083228401
 23
112.4979735463
 33
0.0
 14
220.7083228401
 24
120.6129735463
 34
0.0
 50
90.0
100
AcDbRotatedDimension
  0
LINE
  5
16A
330
1F
100
AcDbEntity
  8
VERMASSUNG
  6
CENTERX2
370
    18
100
AcDbLine
 10
224.3547719763
 20
116.5554735463
 30
0.0
 11
81.5030742398
 21
116.5554735463
 31
0.0
  0
SPLINE
  5
16B
330
1F
100
AcDbEntity
  8
0
  6
Continuous
 62
     7
370
    25
100
AcDbSpline
210
0.0
220
0.0
230
1.0
 70
     8
 71
     3
 72
    12
 73
     8
 74
     0
 42
0.000000001
 43
0.00000001
 40
0.0
 40
0.0
 40
0.0
 40
0.0
 40
0.1894262549885349
 40
0.4231259387359465
 40
0.6628119273393202
 40
0.9118974233501438
 40
1.0
 40
1.0
 40
1.0
 40
1.0
 10
252.7782122288073
 20
29.19028512489115
 30
0.0
 10
252.8594833664022
 20
29.15254698835675
 30
0.0
 10
253.0410206426847
 20
29.06825041369115
 30
0.0
 10
253.3691907011247
 20
29.05739040440606
 30
0.0
 10
253.7337066540713
 20
29.13290702431182
 30
0.0
 10
254.0280980634625
 20
29.26633496469506
 30
0.0
 10
254.1961376428673
 20
29.37368650556124
 30
0.0
 10
254.2400440592713
 20
29.40173597742722
 30
0.0
  0
SPLINE
  5
16C
330
1F
100
AcDbEntity
  8
0
  6
Continuous
 62
     7
370
    25
100
AcDbSpline
210
0.0
220
0.0
230
1.0
 70
     8
 71
     3
 72
    19
 73
    15
 74
     0
 42
0.000000001
 43
0.00000001
 40
0.0
 40
0.0
 40
0.0
 40
0.0
 40
0.0503275429813446
 40
0.1450876992925516
 40
0.2396236523161329
 40
0.3339888421369999
 40
0.4284077823359499
 40
0.5230820432858325
 40
0.6182808772817259
 40
0.7142414443436568
 40
0.810796121895789
 40
0.896442814649681
 40
0.9879694582526677
 40
1.0
 40
1.0
 40
1.0
 40
1.0
 10
254.2400440592713
 20
29.40173597742722
 30
0.0
 10
254.3070177361778
 20
29.44903844395179
 30
0.0
 10
254.5000940542313
 20
29.5854052449589
 30
0.0
 10
254.8041896835761
 20
29.87351865543255
 30
0.0
 10
255.1293288084092
 20
30.27526040210315
 30
0.0
 10
255.40507709628
 20
30.72503998796367
 30
0.0
 10
255.6200249623113
 20
31.20214741309738
 30
0.0
 10
255.7645929368759
 20
31.68736721216746
 30
0.0
 10
255.8314143746476
 20
32.16162624024174
 30
0.0
 10
255.814064485076
 20
32.60537896686942
 30
0.0
 10
255.7132547758367
 20
32.98935592864642
 30
0.0
 10
255.5266103663428
 20
33.29681705313519
 30
0.0
 10
255.3555424042978
 20
33.48157309435777
 30
0.0
 10
255.2329697286335
 20
33.52993720946452
 30
0.0
 10
255.2187301016422
 20
33.53555581047125
 30
0.0
  0
LINE
  5
16D
330
1F
100
AcDbEntity
  8
0
  6
Continuous
 62
     7
370
    25
100
AcDbLine
 10
250.9270330802
 20
30.2473822338
 30
0.0
 11
252.7301542848
 21
29.2064625189
 31
0.0
  0
LINE
  5
16E
330
1F
100
AcDbEntity
  8
0
  6
Continuous
 62
     7
370
    25
100
AcDbLine
 10
255.2299510415
 20
33.5367067031
 30
0.0
 11
253.4268298369
 21
34.5776264179
 31
0.0
  0
SPLINE
  5
16F
330
1F
100
AcDbEntity
  8
0
  6
Continuous
 62
     7
370
    25
100
AcDbSpline
210
0.0
220
0.0
230
1.0
 70
     8
 71
     3
 72
    17
 73
    13
 74
     0
 42
0.000000001
 43
0.00000001
 40
0.0
 40
0.0
 40
0.0
 40
0.0
 40
0.0716523966938799
 40
0.1868634347245973
 40
0.3021400212591205
 40
0.4177283711218411
 40
0.5339571341432177
 40
0.6511159023127087
 40
0.7690000219469504
 40
0.8735665248947301
 40
0.9853117695855623
 40
1.0
 40
1.0
 40
1.0
 40
1.0
 10
267.2953813897435
 20
37.17906103487412
 30
0.0
 10
267.3637280893623
 20
37.26002248935068
 30
0.0
 10
267.5419705436577
 20
37.47116316519471
 30
0.0
 10
267.7783663228772
 20
37.87007158588004
 30
0.0
 10
267.9946837500576
 20
38.34532589652157
 30
0.0
 10
268.1388837290208
 20
38.83104425776573
 30
0.0
 10
268.2058048601268
 20
39.30516888238437
 30
0.0
 10
268.1884268563653
 20
39.74895740224869
 30
0.0
 10
268.087624655362
 20
40.13292509718557
 30
0.0
 10
267.9009781813934
 20
40.44038776189012
 30
0.0
 10
267.729911548753
 20
40.62514507974928
 30
0.0
 10
267.6073385680228
 20
40.67350829150844
 30
0.0
 10
267.5930988250904
 20
40.67912681933352
 30
0.0
  0
LINE
  5
170
330
1F
100
AcDbEntity
  8
0
  6
Continuous
 62
     7
370
    25
100
AcDbLine
 10
267.604319765
 20
40.6802777119
 30
0.0
 11
265.8011985603
 21
41.7211974268
 31
0.0
  0
SPLINE
  5
171
330
1F
100
AcDbEntity
  8
0
  6
Continuous
 62
     7
370
    25
100
AcDbSpline
210
0.0
220
0.0
230
1.0
 70
     8
 71
     3
 72
    22
 73
    18
 74
     0
 42
0.000000001
 43
0.00000001
 40
0.0
 40
0.0
 40
0.0
 40
0.0
 40
0.0331786119264731
 40
0.0978833285492619
 40
0.1624771981719625
 40
0.22892115035103
 40
0.2983598274414718
 40
0.370620603908062
 40
0.4444757551186595
 40
0.5185617304094977
 40
0.5923805498619745
 40
0.6659661551341065
 40
0.7395170279373341
 40
0.8132574224052035
 40
0.8874115809789127
 40
0.9622582097161284
 40
1.0
 40
1.0
 40
1.0
 40
1.0
 10
267.1271611342631
 20
26.32363636593892
 30
0.0
 10
267.1913249492532
 20
26.28186326518381
 30
0.0
 10
267.3806206255632
 20
26.15862453070044
 30
0.0
 10
267.7494420771973
 20
26.06119848580958
 30
0.0
 10
268.2044232497975
 20
26.02709683292285
 30
0.0
 10
268.6787466271712
 20
26.09531291433685
 30
0.0
 10
269.1654823113674
 20
26.25930454497761
 30
0.0
 10
269.6577401719476
 20
26.52124019153431
 30
0.0
 10
270.1409809158777
 20
26.87558866172355
 30
0.0
 10
270.5990399865249
 20
27.3107455655008
 30
0.0
 10
271.0178964928658
 20
27.81157860971459
 30
0.0
 10
271.3869568266381
 20
28.36326869339231
 30
0.0
 10
271.6972237436744
 20
28.95139313687842
 30
0.0
 10
271.9410905132423
 20
29.56178193929413
 30
0.0
 10
272.1097891351268
 20
30.17983264525028
 30
0.0
 10
272.1864073796101
 20
30.69048561001471
 30
0.0
 10
272.1932853581501
 20
30.98658360030656
 30
0.0
 10
272.1955909880353
 20
31.08584130682944
 30
0.0
  0
SPLINE
  5
172
330
1F
100
AcDbEntity
  8
0
  6
Continuous
 62
     7
370
    25
100
AcDbSpline
210
0.0
220
0.0
230
1.0
 70
     8
 71
     3
 72
    13
 73
     9
 74
     0
 42
0.000000001
 43
0.00000001
 40
0.0
 40
0.0
 40
0.0
 40
0.0
 40
0.1191926446782153
 40
0.3411730191597005
 40
0.5370509991503112
 40
0.7244989116255979
 40
0.9061544013853924
 40
1.0
 40
1.0
 40
1.0
 40
1.0
 10
272.1955909880353
 20
31.08584130682944
 30
0.0
 10
272.1929113822172
 20
31.19144163189468
 30
0.0
 10
272.1852413686051
 20
31.49370845233495
 30
0.0
 10
272.1023544242987
 20
31.94247613628126
 30
0.0
 10
271.9262369853549
 20
32.40673438208101
 30
0.0
 10
271.678434256403
 20
32.78418097871525
 30
0.0
 10
271.4231445453488
 20
33.05485828240541
 30
0.0
 10
271.2322473533574
 20
33.15947995245492
 30
0.0
 10
271.1672208906236
 20
33.19511786340399
 30
0.0
  0
LINE
  5
173
330
1F
100
AcDbEntity
  8
0
  6
Continuous
 62
     7
370
    25
100
AcDbLine
 10
271.1473325172
 20
33.2233729698
 30
0.0
 11
268.1421278753
 21
34.9582406819
 31
0.0
  0
LINE
  5
174
330
1F
100
AcDbEntity
  8
0
  6
Continuous
 62
     7
370
    25
100
AcDbLine
 10
264.142452867
 20
28.0298497972
 30
0.0
 11
267.1476575089
 21
26.2949820851
 31
0.0
  0
LINE
  5
175
330
1F
100
AcDbEntity
  8
0
  6
Continuous
 62
     7
370
    25
100
AcDbLine
 10
265.8308113312
 20
34.5605313291
 30
0.0
 11
265.7157214588
 21
34.6269712983
 31
0.0
  0
LINE
  5
176
330
1F
100
AcDbEntity
  8
0
  6
Continuous
 62
     7
370
    25
100
AcDbLine
 10
263.2240432388
 20
30.2920403827
 30
0.0
 11
263.3310145745
 21
30.230287145
 31
0.0
  0
SPLINE
  5
177
330
1F
100
AcDbEntity
  8
0
  6
Continuous
 62
     7
370
    25
100
AcDbSpline
210
0.0
220
0.0
230
1.0
 70
     8
 71
     3
 72
    17
 73
    13
 74
     0
 42
0.000000001
 43
0.00000001
 40
0.0
 40
0.0
 40
0.0
 40
0.0
 40
0.0928046264407104
 40
0.2029168933321315
 40
0.3138857065985646
 40
0.425562729837856
 40
0.5377167659928115
 40
0.6501286607114932
 40
0.7626364603754923
 40
0.875118778283262
 40
0.9875364561377689
 40
1.0
 40
1.0
 40
1.0
 40
1.0
 10
253.6922532373689
 20
25.21446199158971
 30
0.0
 10
253.8941676012032
 20
25.19049521286071
 30
0.0
 10
254.3356524387567
 20
25.13809196024947
 30
0.0
 10
255.0562265747276
 20
25.17977295100997
 30
0.0
 10
255.8394146821856
 20
25.31428156843731
 30
0.0
 10
256.6449264314019
 20
25.55199821482966
 30
0.0
 10
257.4638293492688
 20
25.88722400930344
 30
0.0
 10
258.2881631748509
 20
26.3183079460055
 30
0.0
 10
259.1107368756801
 20
26.83810837320618
 30
0.0
 10
259.9204144859551
 20
27.45056843508631
 30
0.0
 10
260.4850458236619
 20
27.91853778451452
 30
0.0
 10
260.7693798900963
 20
28.20055178519662
 30
0.0
 10
260.7977573359589
 20
28.2286976811043
 30
0.0
  0
SPLINE
  5
178
330
1F
100
AcDbEntity
  8
0
  6
Continuous
 62
     7
370
    25
100
AcDbSpline
210
0.0
220
0.0
230
1.0
 70
     8
 71
     3
 72
    13
 73
     9
 74
     0
 42
0.000000001
 43
0.00000001
 40
0.0
 40
0.0
 40
0.0
 40
0.0
 40
0.0841536142685821
 40
0.2681749382257262
 40
0.4521451610017372
 40
0.6357946973947285
 40
0.8187443350673491
 40
1.0
 40
1.0
 40
1.0
 40
1.0
 10
266.6684562377671
 20
41.220540144456
 30
0.0
 10
266.6661996121753
 20
41.36473753751558
 30
0.0
 10
266.659008353262
 20
41.82425585187629
 30
0.0
 10
266.560965222073
 20
42.54818477344116
 30
0.0
 10
266.3782986533507
 20
43.3844368798067
 30
0.0
 10
266.1104234687345
 20
44.15059231584351
 30
0.0
 10
265.7723940673208
 20
44.84881689082297
 30
0.0
 10
265.484171441022
 20
45.24589181918208
 30
0.0
 10
265.3407304109087
 20
45.44350585624574
 30
0.0
  0
LINE
  5
179
330
1F
100
AcDbEntity
  8
0
  6
Continuous
 62
     7
370
    25
100
AcDbLine
 10
237.5153606091
 20
34.1639888469
 30
0.0
 11
252.0817599233
 21
25.7549855135
 31
0.0
  0
LINE
  5
17A
330
1F
100
AcDbEntity
  8
0
  6
Continuous
 62
     7
370
    25
100
AcDbLine
 10
264.080784619
 20
46.5401583577
 30
0.0
 11
249.5143853048
 21
54.9491616911
 31
0.0
  0
SPLINE
  5
17B
330
1F
100
AcDbEntity
  8
0
  6
Continuous
 62
     7
370
    25
100
AcDbSpline
210
0.0
220
0.0
230
1.0
 70
     8
 71
     3
 72
    13
 73
     9
 74
     0
 42
0.000000001
 43
0.00000001
 40
0.0
 40
0.0
 40
0.0
 40
0.0
 40
0.1147698768796721
 40
0.3111878460790744
 40
0.509790803270767
 40
0.7125798031359495
 40
0.9194056268921885
 40
1.0
 40
1.0
 40
1.0
 40
1.0
 10
262.2247587473957
 20
27.43034755829651
 30
0.0
 10
262.3090772260134
 20
27.38962049836838
 30
0.0
 10
262.5376989380782
 20
27.27919286351558
 30
0.0
 10
262.9606584573285
 20
27.20988073638392
 30
0.0
 10
263.4748331557884
 20
27.21139497402402
 30
0.0
 10
264.0162394146546
 20
27.32296474342202
 30
0.0
 10
264.4591657190946
 20
27.47217182576164
 30
0.0
 10
264.7176202344763
 20
27.61572286425477
 30
0.0
 10
264.790092454144
 20
27.6559754494334
 30
0.0
  0
SPLINE
  5
17C
330
1F
100
AcDbEntity
  8
0
  6
Continuous
 62
     7
370
    25
100
AcDbSpline
210
0.0
220
0.0
230
1.0
 70
     8
 71
     3
 72
    13
 73
     9
 74
     0
 42
0.000000001
 43
0.00000001
 40
0.0
 40
0.0
 40
0.0
 40
0.0
 40
0.0226991753127531
 40
0.2237835794707729
 40
0.4246660680028488
 40
0.623718199280031
 40
0.8189188898762408
 40
1.0
 40
1.0
 40
1.0
 40
1.0
 10
268.79557673052
 20
34.58101253816087
 30
0.0
 10
268.7958137171665
 20
34.60594037571739
 30
0.0
 10
268.7981500892733
 20
34.85169559105026
 30
0.0
 10
268.7231362543498
 20
35.27736398792015
 30
0.0
 10
268.5636409160059
 20
35.83965270255978
 30
0.0
 10
268.3110099541736
 20
36.32325174526465
 30
0.0
 10
267.9938771355527
 20
36.72358650437151
 30
0.0
 10
267.7281824704351
 20
36.90946338386173
 30
0.0
 10
267.6003200948926
 20
36.99891440599468
 30
0.0
  0
LINE
  5
17D
330
1F
100
AcDbEntity
  8
0
  6
Continuous
 62
     7
370
    25
100
AcDbLine
 10
256.4982219885
 20
30.7107665494
 30
0.0
 11
262.0490119867
 21
27.506363691
 31
0.0
  0
LINE
  5
17E
330
1F
100
AcDbEntity
  8
0
  6
Continuous
 62
     7
370
    25
100
AcDbLine
 10
267.5485649174
 20
37.0329010862
 30
0.0
 11
261.9977749191
 21
40.2373039446
 31
0.0
  0
SPLINE
  5
17F
330
1F
100
AcDbEntity
  8
0
  6
Continuous
 62
     7
370
    25
100
AcDbSpline
210
0.0
220
0.0
230
1.0
 70
     8
 71
     3
 72
    23
 73
    19
 74
     0
 42
0.000000001
 43
0.00000001
 40
0.0
 40
0.0
 40
0.0
 40
0.0
 40
0.0358114779493073
 40
0.1018275260712667
 40
0.1723844533697373
 40
0.216931286181478
 40
0.2523763798597036
 40
0.3207362260695181
 40
0.3895602546877581
 40
0.4587796491750449
 40
0.5282343174267544
 40
0.5977157679266447
 40
0.6669366023658811
 40
0.7356758699926572
 40
0.8037656119484826
 40
0.8712357173991706
 40
0.938601164864459
 40
0.9999999999999999
 40
0.9999999999999999
 40
0.9999999999999999
 40
0.9999999999999999
 10
263.3503695268562
 20
30.11696099622792
 30
0.0
 10
263.3224365790801
 20
30.14307323229249
 30
0.0
 10
263.2430111230312
 20
30.21732161719321
 30
0.0
 10
263.1409606757738
 20
30.43430700909944
 30
0.0
 10
263.0721258758851
 20
30.72569712581938
 30
0.0
 10
263.0559692528233
 20
31.01360847283497
 30
0.0
 10
263.0687402072096
 20
31.32004460206254
 30
0.0
 10
263.1287752623319
 20
31.70599418578415
 30
0.0
 10
263.2707791024982
 20
32.18995829375024
 30
0.0
 10
263.4794110003095
 20
32.67833357062435
 30
0.0
 10
263.7467536464457
 20
33.14930631471631
 30
0.0
 10
264.0612102397467
 20
33.581842330958
 30
0.0
 10
264.4080785350824
 20
33.95686256546103
 30
0.0
 10
264.7699351977789
 20
34.25839625628356
 30
0.0
 10
265.1282427213166
 20
34.47579397774054
 30
0.0
 10
265.4616595067686
 20
34.60211617353003
 30
0.0
 10
265.7473789428101
 20
34.64543648112554
 30
0.0
 10
265.8886002514119
 20
34.61649710346467
 30
0.0
 10
265.9559389859533
 20
34.60269790354653
 30
0.0
  0
LINE
  5
180
330
1F
100
AcDbEntity
  8
0
  6
Continuous
 62
     7
370
    25
100
AcDbLine
 10
261.4268359285
 20
40.4518498784
 30
0.0
 11
260.9267166496
 21
40.5537456506
 31
0.0
  0
LINE
  5
181
330
1F
100
AcDbEntity
  8
0
  6
Continuous
 62
     7
370
    25
100
AcDbLine
 10
255.6885739492
 20
31.4800334846
 30
0.0
 11
256.0269140318
 21
31.0978971268
 31
0.0
  0
LINE
  5
182
330
1F
100
AcDbEntity
  8
0
  6
Continuous
 62
     7
370
    25
100
AcDbLine
 10
255.8432533772
 20
31.2909389686
 30
0.0
 11
255.869321203
 21
31.2758903331
 31
0.0
  0
LINE
  5
183
330
1F
100
AcDbEntity
  8
0
  6
Continuous
 62
     7
370
    25
100
AcDbLine
 10
261.1938883211
 20
40.4993107114
 30
0.0
 11
261.1678204953
 21
40.5143593469
 31
0.0
  0
LINE
  5
184
330
1F
100
AcDbEntity
  8
0
  6
Continuous
 62
     7
370
    25
100
AcDbLine
 10
232.9011368051
 20
32.5121469321
 30
0.0
 11
234.5861019541
 21
31.5394372563
 31
0.0
  0
LINE
  5
185
330
1F
100
AcDbEntity
  8
0
  6
Continuous
 62
     7
370
    25
100
AcDbLine
 10
250.3223232686
 20
58.7983256501
 30
0.0
 11
248.6373581196
 21
59.771035326
 31
0.0
  0
LINE
  5
186
330
1F
100
AcDbEntity
  8
0
  6
Continuous
 62
     7
370
    25
100
AcDbLine
 10
228.2928518737
 20
35.1724531968
 30
0.0
 11
230.5435028501
 21
33.8731800439
 31
0.0
  0
LINE
  5
187
330
1F
100
AcDbEntity
  8
0
  6
Continuous
 62
     7
370
    25
100
AcDbLine
 10
246.2797241646
 20
61.1320684378
 30
0.0
 11
244.0290731882
 21
62.4313415906
 31
0.0
  0
LINE
  5
188
330
1F
100
AcDbEntity
  8
0
  6
Continuous
 62
     7
370
    25
100
AcDbLine
 10
237.251683998
 20
62.2112234983
 30
0.0
 11
228.0544718143
 21
66.7918761081
 31
0.0
  0
LINE
  5
189
330
1F
100
AcDbEntity
  8
0
  6
Continuous
 62
     7
370
    25
100
AcDbLine
 10
216.5281240247
 20
46.8254926524
 30
0.0
 11
225.0942240304
 21
41.1516030561
 31
0.0
  0
LINE
  5
18A
330
1F
100
AcDbEntity
  8
0
  6
Continuous
 62
     7
370
    25
100
AcDbLine
 10
221.5075614664
 20
47.7719825181
 30
0.0
 11
221.5075614664
 21
47.4066638131
 31
0.0
  0
LINE
  5
18B
330
1F
100
AcDbEntity
  8
0
  6
Continuous
 62
     7
370
    25
100
AcDbLine
 10
225.4055282267
 20
67.1688444848
 30
0.0
 11
224.765978118
 21
67.0816327293
 31
0.0
  0
LINE
  5
18C
330
1F
100
AcDbEntity
  8
0
  6
Continuous
 62
     7
370
    25
100
AcDbLine
 10
252.7665428201
 20
29.1866449587
 30
0.0
 11
252.7301542848
 21
29.2064625189
 31
0.0
  0
LWPOLYLINE
  5
18D
330
1F
100
AcDbEntity
  8
0
  6
Continuous
 62
     7
370
    25
100
AcDbPolyline
 90
       16
 70
   128
 43
0.0
 10
250.9270330802
 20
30.2473822338
 10
250.8830080627
 20
30.2746542827
 10
250.647428253
 20
30.5060146176
 10
250.4885438537
 20
30.8329741489
 10
250.4143232535
 20
31.2391384973
 10
250.4284865702
 20
31.7041399552
 10
250.5303238929
 20
32.2046615374
 10
250.714729526
 20
32.715605572
 10
250.9724561876
 20
33.2113509119
 10
251.2905799416
 20
33.6670385251
 10
251.6531488645
 20
34.0598183786
 10
252.0419825179
 20
34.3699952389
 10
252.4375833748
 20
34.5820154771
 10
252.8201140988
 20
34.6852472117
 10
253.1703929347
 20
34.6745142508
 10
253.4268298369
 20
34.5776264179
  0
ARC
  5
18E
330
1F
100
AcDbEntity
  8
0
  6
Continuous
 62
     7
370
    25
100
AcDbCircle
 10
254.6911268006
 20
31.1688314707
 30
0.0
 40
1.165480488223182
100
AcDbArc
 50
99.277222279
 51
148.0260749033
  0
LINE
  5
18F
330
1F
100
AcDbEntity
  8
0
  6
Continuous
 62
     7
370
    25
100
AcDbLine
 10
253.6957932434
 20
31.7815525412
 30
0.0
 11
253.7024623236
 21
31.7859921632
 31
0.0
  0
LINE
  5
190
330
1F
100
AcDbEntity
  8
0
  6
Continuous
 62
     7
370
    25
100
AcDbLine
 10
253.6957932434
 20
31.7815525412
 30
0.0
 11
253.6929009159
 21
31.7729183268
 31
0.0
  0
ARC
  5
191
330
1F
100
AcDbEntity
  8
0
  6
Continuous
 62
     7
370
    25
100
AcDbCircle
 10
255.0353596558
 20
30.7466757576
 30
0.0
 40
1.689783796630371
100
AcDbArc
 50
142.6038960436
 51
180.3547590349
  0
LINE
  5
192
330
1F
100
AcDbEntity
  8
0
  6
Continuous
 62
     7
370
    25
100
AcDbLine
 10
253.3427159225
 20
30.7275789653
 30
0.0
 11
253.34560825
 21
30.7362131678
 31
0.0
  0
LINE
  5
193
330
1F
100
AcDbEntity
  8
0
  6
Continuous
 62
     7
370
    25
100
AcDbLine
 10
253.3427159225
 20
30.7275789653
 30
0.0
 11
253.3464926753
 21
30.7233843847
 31
0.0
  0
ARC
  5
194
330
1F
100
AcDbEntity
  8
0
  6
Continuous
 62
     7
370
    25
100
AcDbCircle
 10
253.8169455083
 20
30.6910141339
 30
0.0
 40
0.4715651611633362
100
AcDbArc
 50
176.0638771522
 51
267.9376940593
  0
LINE
  5
195
330
1F
100
AcDbEntity
  8
0
  6
Continuous
 62
     7
370
    25
100
AcDbLine
 10
253.8037523958
 20
30.2155598202
 30
0.0
 11
253.7999756431
 21
30.2197544126
 31
0.0
  0
LINE
  5
196
330
1F
100
AcDbEntity
  8
0
  6
Continuous
 62
     7
370
    25
100
AcDbLine
 10
253.8037523958
 20
30.2155598202
 30
0.0
 11
253.8104214761
 21
30.2199994422
 31
0.0
  0
ARC
  5
197
330
1F
100
AcDbEntity
  8
0
  6
Continuous
 62
     7
370
    25
100
AcDbCircle
 10
253.6225331602
 20
31.3702345176
 30
0.0
 40
1.165479621383841
100
AcDbArc
 50
279.2772029711
 51
328.0260942111
  0
LINE
  5
198
330
1F
100
AcDbEntity
  8
0
  6
Continuous
 62
     7
370
    25
100
AcDbLine
 10
254.61786619
 20
30.7575142392
 30
0.0
 11
254.6111971098
 21
30.7530746172
 31
0.0
  0
LINE
  5
199
330
1F
100
AcDbEntity
  8
0
  6
Continuous
 62
     7
370
    25
100
AcDbLine
 10
254.61786619
 20
30.7575142392
 30
0.0
 11
254.6207585175
 21
30.7661484536
 31
0.0
  0
ARC
  5
19A
330
1F
100
AcDbEntity
  8
0
  6
Continuous
 62
     7
370
    25
100
AcDbCircle
 10
253.2783020381
 20
31.7923902656
 30
0.0
 40
1.689781540844039
100
AcDbArc
 50
322.6038698927
 51
0.3547851858
  0
LINE
  5
19B
330
1F
100
AcDbEntity
  8
0
  6
Continuous
 62
     7
370
    25
100
AcDbLine
 10
254.9709438402
 20
31.8114880052
 30
0.0
 11
254.9680511834
 21
31.8028536126
 31
0.0
  0
LINE
  5
19C
330
1F
100
AcDbEntity
  8
0
  6
Continuous
 62
     7
370
    25
100
AcDbLine
 10
254.9709438402
 20
31.8114880052
 30
0.0
 11
254.9671667581
 21
31.8156823957
 31
0.0
  0
ARC
  5
19D
330
1F
100
AcDbEntity
  8
0
  6
Continuous
 62
     7
370
    25
100
AcDbCircle
 10
254.4967131261
 20
31.8480523049
 30
0.0
 40
0.4715659348959631
100
AcDbArc
 50
356.0639252204
 51
87.9375202287
  0
LINE
  5
19E
330
1F
100
AcDbEntity
  8
0
  6
Continuous
 62
     7
370
    25
100
AcDbLine
 10
254.5099070376
 20
32.3235069602
 30
0.0
 11
254.5136844489
 21
32.319312748
 31
0.0
  0
LINE
  5
19F
330
1F
100
AcDbEntity
  8
0
  6
Continuous
 62
     7
370
    25
100
AcDbLine
 10
254.5099070376
 20
32.3235069602
 30
0.0
 11
254.5032379573
 21
32.3190673382
 31
0.0
  0
LINE
  5
1A0
330
1F
100
AcDbEntity
  8
0
  6
Continuous
 62
     7
370
    25
100
AcDbLine
 10
253.34560825
 20
30.7362131678
 30
0.0
 11
253.3539684725
 21
30.8262470535
 31
0.0
  0
SPLINE
  5
1A1
330
1F
100
AcDbEntity
  8
0
  6
Continuous
 62
     7
370
    25
100
AcDbSpline
210
0.0
220
0.0
230
1.0
 70
     8
 71
     3
 72
     9
 73
     5
 74
     0
 42
0.000000001
 43
0.00000001
 40
0.0
 40
0.0
 40
0.0
 40
0.0
 40
0.6300988480138432
 40
0.9999999999999999
 40
0.9999999999999999
 40
0.9999999999999999
 40
0.9999999999999999
 10
254.1420164165355
 20
32.1813910744725
 30
0.0
 10
254.212280859267
 20
32.21689359465049
 30
0.0
 10
254.3237942241192
 20
32.2732379607605
 30
0.0
 10
254.4547845024705
 20
32.30669247489038
 30
0.0
 10
254.5032379573317
 20
32.31906733820617
 30
0.0
  0
SPLINE
  5
1A2
330
1F
100
AcDbEntity
  8
0
  6
Continuous
 62
     7
370
    25
100
AcDbSpline
210
0.0
220
0.0
230
1.0
 70
     8
 71
     3
 72
    10
 73
     6
 74
     0
 42
0.000000001
 43
0.00000001
 40
0.0
 40
0.0
 40
0.0
 40
0.0
 40
0.4395945088268223
 40
0.7571243700517856
 40
1.0
 40
1.0
 40
1.0
 40
1.0
 10
253.7999756430789
 20
30.21975441261518
 30
0.0
 10
253.6879542014064
 20
30.31910634457265
 30
0.0
 10
253.4950169336392
 20
30.49022260600522
 30
0.0
 10
253.3704934708526
 20
30.64810350650652
 30
0.0
 10
253.3537494228604
 20
30.70062287542182
 30
0.0
 10
253.3464926752589
 20
30.72338438474087
 30
0.0
  0
LINE
  5
1A3
330
1F
100
AcDbEntity
  8
0
  6
Continuous
 62
     7
370
    25
100
AcDbLine
 10
253.6229345132
 20
31.3318760706
 30
0.0
 11
253.7204557352
 21
31.8049803659
 31
0.0
  0
SPLINE
  5
1A4
330
1F
100
AcDbEntity
  8
0
  6
Continuous
 62
     7
370
    25
100
AcDbSpline
210
0.0
220
0.0
230
1.0
 70
     8
 71
     3
 72
     9
 73
     5
 74
     0
 42
0.000000001
 43
0.00000001
 40
0.0
 40
0.0
 40
0.0
 40
0.0
 40
0.4929537939151219
 40
1.0
 40
1.0
 40
1.0
 40
1.0
 10
253.4313876234164
 20
31.24162446753109
 30
0.0
 10
253.4599514945153
 20
31.25894605672222
 30
0.0
 10
253.5178958119169
 20
31.29408441939423
 30
0.0
 10
253.5875942065947
 20
31.31916105677053
 30
0.0
 10
253.6229345131864
 20
31.33187607061355
 30
0.0
  0
SPLINE
  5
1A5
330
1F
100
AcDbEntity
  8
0
  6
Continuous
 62
     7
370
    25
100
AcDbSpline
210
0.0
220
0.0
230
1.0
 70
     8
 71
     3
 72
    10
 73
     6
 74
     0
 42
0.000000001
 43
0.00000001
 40
0.0
 40
0.0
 40
0.0
 40
0.0
 40
0.4395942693341096
 40
0.7571242662574004
 40
1.0
 40
1.0
 40
1.0
 40
1.0
 10
254.5136844488618
 20
32.31931274795608
 30
0.0
 10
254.5317359554254
 20
32.27420816177263
 30
0.0
 10
254.5628265191914
 20
32.19652339856879
 30
0.0
 10
254.7608070291824
 20
31.99623687061201
 30
0.0
 10
254.9047729736352
 20
31.87027384651239
 30
0.0
 10
254.9671667581373
 20
31.81568239566073
 30
0.0
  0
LINE
  5
1A6
330
1F
100
AcDbEntity
  8
0
  6
Continuous
 62
     7
370
    25
100
AcDbLine
 10
254.2481912427
 20
32.2287241986
 30
0.0
 11
254.9709438402
 21
31.8114880052
 31
0.0
  0
SPLINE
  5
1A7
330
1F
100
AcDbEntity
  8
0
  6
Continuous
 62
     7
370
    25
100
AcDbSpline
210
0.0
220
0.0
230
1.0
 70
     8
 71
     3
 72
    10
 73
     6
 74
     0
 42
0.000000001
 43
0.00000001
 40
0.0
 40
0.0
 40
0.0
 40
0.0
 40
0.4395940771852915
 40
0.757124220445678
 40
1.0
 40
1.0
 40
1.0
 40
1.0
 10
254.9680511834115
 20
31.80285361263579
 30
0.0
 10
254.8712594905121
 20
31.68129797132659
 30
0.0
 10
254.7045526606537
 20
31.47193955422442
 30
0.0
 10
254.61778813179
 20
31.08209901104095
 30
0.0
 10
254.6198604082306
 20
30.86167750363414
 30
0.0
 10
254.6207585175037
 20
30.76614845359648
 30
0.0
  0
LINE
  5
1A8
330
1F
100
AcDbEntity
  8
0
  6
Continuous
 62
     7
370
    25
100
AcDbLine
 10
253.6229345132
 20
31.3318760706
 30
0.0
 11
254.61786619
 21
30.7575142392
 31
0.0
  0
SPLINE
  5
1A9
330
1F
100
AcDbEntity
  8
0
  6
Continuous
 62
     7
370
    25
100
AcDbSpline
210
0.0
220
0.0
230
1.0
 70
     8
 71
     3
 72
    11
 73
     7
 74
     0
 42
0.000000001
 43
0.00000001
 40
0.0
 40
0.0
 40
0.0
 40
0.0
 40
0.1297155552179268
 40
0.4834722312375623
 40
0.8215897637450646
 40
1.0
 40
1.0
 40
1.0
 40
1.0
 10
254.6111971097923
 20
30.75307461722682
 30
0.0
 10
254.5633291638121
 20
30.74020503324971
 30
0.0
 10
254.384917078932
 20
30.69223787564816
 30
0.0
 10
254.1031620873502
 20
30.57181639128646
 30
0.0
 10
253.9049787805167
 20
30.3832751284018
 30
0.0
 10
253.8346970098605
 20
30.26191692769839
 30
0.0
 10
253.8104214760645
 20
30.21999944219544
 30
0.0
  0
LWPOLYLINE
  5
1AA
330
1F
100
AcDbEntity
  8
0
  6
Continuous
 62
     7
370
    25
100
AcDbPolyline
 90
       10
 70
   128
 43
0.0
 10
263.0172428119
 20
39.6848805708
 10
263.0890982495
 20
39.8591765808
 10
263.3468245818
 20
40.3549217307
 10
263.6649483358
 20
40.8106093439
 10
264.0275175879
 20
41.2033893874
 10
264.4163512414
 20
41.5135662478
 10
264.8119520982
 20
41.7255864859
 10
265.1944828222
 20
41.8288182205
 10
265.5447613289
 20
41.8180850696
 10
265.8011985603
 20
41.7211974268
  0
ARC
  5
1AB
330
1F
100
AcDbEntity
  8
0
  6
Continuous
 62
     7
370
    25
100
AcDbCircle
 10
267.0654949967
 20
38.3124032717
 30
0.0
 40
1.165479621383934
100
AcDbArc
 50
99.2772029711
 51
148.0260942111
  0
LINE
  5
1AC
330
1F
100
AcDbEntity
  8
0
  6
Continuous
 62
     7
370
    25
100
AcDbLine
 10
266.0701619668
 20
38.9251235501
 30
0.0
 11
266.0768310471
 21
38.929563172
 31
0.0
  0
LINE
  5
1AD
330
1F
100
AcDbEntity
  8
0
  6
Continuous
 62
     7
370
    25
100
AcDbLine
 10
266.0701619668
 20
38.9251235501
 30
0.0
 11
266.0672696393
 21
38.9164893357
 31
0.0
  0
ARC
  5
1AE
330
1F
100
AcDbEntity
  8
0
  6
Continuous
 62
     7
370
    25
100
AcDbCircle
 10
267.5385397957
 20
37.8282745946
 30
0.0
 40
1.829985572527937
100
AcDbArc
 50
143.5117763822
 51
171.9451439779
  0
ARC
  5
1AF
330
1F
100
AcDbEntity
  8
0
  6
Continuous
 62
     7
370
    25
100
AcDbCircle
 10
265.6543602653
 20
38.8599486159
 30
0.0
 40
1.643186208035984
100
AcDbArc
 50
307.2584049049
 51
324.1092964196
  0
LINE
  5
1B0
330
1F
100
AcDbEntity
  8
0
  6
Continuous
 62
     7
370
    25
100
AcDbLine
 10
266.9922349135
 20
37.9010852481
 30
0.0
 11
266.9855658332
 21
37.8966456261
 31
0.0
  0
LINE
  5
1B1
330
1F
100
AcDbEntity
  8
0
  6
Continuous
 62
     7
370
    25
100
AcDbLine
 10
266.9922349135
 20
37.9010852481
 30
0.0
 11
266.995127241
 21
37.9097194625
 31
0.0
  0
ARC
  5
1B2
330
1F
100
AcDbEntity
  8
0
  6
Continuous
 62
     7
370
    25
100
AcDbCircle
 10
265.652668501
 20
38.9359620317
 30
0.0
 40
1.689783796630971
100
AcDbArc
 50
322.6038960436
 51
0.3547590349
  0
LINE
  5
1B3
330
1F
100
AcDbEntity
  8
0
  6
Continuous
 62
     7
370
    25
100
AcDbLine
 10
267.3453122343
 20
38.955058824
 30
0.0
 11
267.3424199069
 21
38.9464246215
 31
0.0
  0
LINE
  5
1B4
330
1F
100
AcDbEntity
  8
0
  6
Continuous
 62
     7
370
    25
100
AcDbLine
 10
267.3453122343
 20
38.955058824
 30
0.0
 11
267.3415354816
 21
38.9592534045
 31
0.0
  0
ARC
  5
1B5
330
1F
100
AcDbEntity
  8
0
  6
Continuous
 62
     7
370
    25
100
AcDbCircle
 10
266.8710826486
 20
38.9916236554
 30
0.0
 40
0.4715651611635142
100
AcDbArc
 50
356.0638771522
 51
87.9376940593
  0
LINE
  5
1B6
330
1F
100
AcDbEntity
  8
0
  6
Continuous
 62
     7
370
    25
100
AcDbLine
 10
266.884275761
 20
39.4670779691
 30
0.0
 11
266.8880525138
 21
39.4628833766
 31
0.0
  0
LINE
  5
1B7
330
1F
100
AcDbEntity
  8
0
  6
Continuous
 62
     7
370
    25
100
AcDbLine
 10
266.884275761
 20
39.4670779691
 30
0.0
 11
266.8776066808
 21
39.4626383471
 31
0.0
  0
SPLINE
  5
1B8
330
1F
100
AcDbEntity
  8
0
  6
Continuous
 62
     7
370
    25
100
AcDbSpline
210
0.0
220
0.0
230
1.0
 70
     8
 71
     3
 72
     9
 73
     5
 74
     0
 42
0.000000001
 43
0.00000001
 40
0.0
 40
0.0
 40
0.0
 40
0.0
 40
0.6300996591387057
 40
1.0
 40
1.0
 40
1.0
 40
1.0
 10
266.5163844814392
 20
39.32496170316511
 30
0.0
 10
266.5866491206903
 20
39.36046436882825
 30
0.0
 10
266.6981626538781
 20
39.41680889329867
 30
0.0
 10
266.8291532241768
 20
39.4502634829522
 30
0.0
 10
266.8776066807798
 20
39.46263834706842
 30
0.0
  0
LINE
  5
1B9
330
1F
100
AcDbEntity
  8
0
  6
Continuous
 62
     7
370
    25
100
AcDbLine
 10
265.9973032366
 20
38.4754470795
 30
0.0
 11
266.0948244586
 21
38.9485513748
 31
0.0
  0
SPLINE
  5
1BA
330
1F
100
AcDbEntity
  8
0
  6
Continuous
 62
     7
370
    25
100
AcDbSpline
210
0.0
220
0.0
230
1.0
 70
     8
 71
     3
 72
     9
 73
     5
 74
     0
 42
0.000000001
 43
0.00000001
 40
0.0
 40
0.0
 40
0.0
 40
0.0
 40
0.4929537939151219
 40
1.0
 40
1.0
 40
1.0
 40
1.0
 10
265.8057563468646
 20
38.38519547639335
 30
0.0
 10
265.8343202179635
 20
38.40251706558448
 30
0.0
 10
265.892264535365
 20
38.43765542825648
 30
0.0
 10
265.9619629300429
 20
38.4627320656328
 30
0.0
 10
265.9973032366345
 20
38.47544707947582
 30
0.0
  0
SPLINE
  5
1BB
330
1F
100
AcDbEntity
  8
0
  6
Continuous
 62
     7
370
    25
100
AcDbSpline
210
0.0
220
0.0
230
1.0
 70
     8
 71
     3
 72
    10
 73
     6
 74
     0
 42
0.000000001
 43
0.00000001
 40
0.0
 40
0.0
 40
0.0
 40
0.0
 40
0.4395945088268223
 40
0.7571243700517856
 40
1.0
 40
1.0
 40
1.0
 40
1.0
 10
266.8880525137654
 20
39.46288337664869
 30
0.0
 10
266.9061042802276
 20
39.41777898349874
 30
0.0
 10
266.9371952789472
 20
39.34009458443431
 30
0.0
 10
267.1351757336557
 20
39.13980786512972
 30
0.0
 10
267.2791416913462
 20
39.0138448510375
 30
0.0
 10
267.3415354815855
 20
38.95925340452299
 30
0.0
  0
LINE
  5
1BC
330
1F
100
AcDbEntity
  8
0
  6
Continuous
 62
     7
370
    25
100
AcDbLine
 10
266.6225596368
 20
39.3722950174
 30
0.0
 11
267.3453122343
 21
38.955058824
 31
0.0
  0
SPLINE
  5
1BD
330
1F
100
AcDbEntity
  8
0
  6
Continuous
 62
     7
370
    25
100
AcDbSpline
210
0.0
220
0.0
230
1.0
 70
     8
 71
     3
 72
    10
 73
     6
 74
     0
 42
0.000000001
 43
0.00000001
 40
0.0
 40
0.0
 40
0.0
 40
0.0
 40
0.439594409722516
 40
0.7571242175429957
 40
1.0
 40
1.0
 40
1.0
 40
1.0
 10
267.3424199068597
 20
38.94642462149805
 30
0.0
 10
267.2456278249895
 20
38.82486885861433
 30
0.0
 10
267.078920451944
 20
38.61551039129607
 30
0.0
 10
266.9921569942136
 20
38.22566989209349
 30
0.0
 10
266.9942291733194
 20
38.00524851419554
 30
0.0
 10
266.9951272409519
 20
37.90971946245875
 30
0.0
  0
LINE
  5
1BE
330
1F
100
AcDbEntity
  8
0
  6
Continuous
 62
     7
370
    25
100
AcDbLine
 10
265.9973032366
 20
38.4754470795
 30
0.0
 11
266.9922349135
 21
37.9010852481
 31
0.0
  0
SPLINE
  5
1BF
330
1F
100
AcDbEntity
  8
0
  6
Continuous
 62
     7
370
    25
100
AcDbSpline
210
0.0
220
0.0
230
1.0
 70
     8
 71
     3
 72
    10
 73
     6
 74
     0
 42
0.000000001
 43
0.00000001
 40
0.0
 40
0.0
 40
0.0
 40
0.0
 40
0.2399935670793499
 40
0.8944973882552475
 40
1.0
 40
1.0
 40
1.0
 40
1.0
 10
266.9855658332405
 20
37.89664562608908
 30
0.0
 10
266.938153349119
 20
37.88357170190201
 30
0.0
 10
266.7614388490871
 20
37.83484293311918
 30
0.0
 10
266.5567592504171
 20
37.76429068807122
 30
0.0
 10
266.4667560686429
 20
37.67677695166677
 30
0.0
 10
266.4542620023677
 20
37.66462846534576
 30
0.0
  0
LWPOLYLINE
  5
1C0
330
1F
100
AcDbEntity
  8
0
  6
Continuous
 62
     7
370
    25
100
AcDbPolyline
 90
       19
 70
   128
 43
0.0
 10
268.1421278753
 20
34.9582406819
 10
267.9057858003
 20
35.0656788124
 10
267.482593328
 20
35.1439544213
 10
267.0163224136
 20
35.1049191256
 10
266.52195939
 20
34.9498273287
 10
266.0153934646
 20
34.6836636154
 10
265.5129061317
 20
34.3149831686
 10
265.0306477323
 20
33.8556354495
 10
264.5841184182
 20
33.320384145
 10
264.1876700146
 20
32.7264329063
 10
263.8540447814
 20
32.0928718158
 10
263.5939656343
 20
31.440063828
 10
263.4157916432
 20
30.7889907554
 10
263.3252496759
 20
30.1605788826
 10
263.3252496759
 20
29.5750256408
 10
263.4157916432
 20
29.0511512984
 10
263.5939656343
 20
28.6057935372
 10
263.8540447814
 20
28.253266541
 10
264.142452867
 20
28.0298497972
  0
LINE
  5
1C1
330
1F
100
AcDbEntity
  8
0
  6
Continuous
 62
     7
370
    25
100
AcDbLine
 10
269.6778235395
 20
31.3658528675
 30
0.0
 11
268.243280641
 21
29.5812951389
 31
0.0
  0
LINE
  5
1C2
330
1F
100
AcDbEntity
  8
0
  6
Continuous
 62
     7
370
    25
100
AcDbLine
 10
268.243280641
 20
29.5812951389
 30
0.0
 11
268.243280641
 21
27.6684676572
 31
0.0
  0
LINE
  5
1C3
330
1F
100
AcDbEntity
  8
0
  6
Continuous
 62
     7
370
    25
100
AcDbLine
 10
269.6778235395
 20
27.5401979041
 30
0.0
 11
268.243280641
 21
27.6684676572
 31
0.0
  0
LINE
  5
1C4
330
1F
100
AcDbEntity
  8
0
  6
Continuous
 62
     7
370
    25
100
AcDbLine
 10
271.112366438
 20
29.3247556327
 30
0.0
 11
269.6778235395
 21
27.5401979041
 31
0.0
  0
LINE
  5
1C5
330
1F
100
AcDbEntity
  8
0
  6
Continuous
 62
     7
370
    25
100
AcDbLine
 10
271.112366438
 20
29.3247556327
 30
0.0
 11
271.112366438
 21
31.2375831144
 31
0.0
  0
LINE
  5
1C6
330
1F
100
AcDbEntity
  8
0
  6
Continuous
 62
     7
370
    25
100
AcDbLine
 10
269.6778235395
 20
31.3658528675
 30
0.0
 11
271.112366438
 21
31.2375831144
 31
0.0
  0
ARC
  5
1C7
330
1F
100
AcDbEntity
  8
0
  6
Continuous
 62
     7
370
    25
100
AcDbCircle
 10
266.0911573857
 20
31.5259472136
 30
0.0
 40
3.275566879657139
100
AcDbArc
 50
320.7388720639
 51
349.0713768258
  0
ARC
  5
1C8
330
1F
100
AcDbEntity
  8
0
  6
Continuous
 62
     7
370
    25
100
AcDbCircle
 10
266.3391469127
 20
31.2748107121
 30
0.0
 40
2.924863400671225
100
AcDbArc
 50
310.6183139769
 51
321.4736014978
  0
LINE
  5
1C9
330
1F
100
AcDbEntity
  8
0
  6
Continuous
 62
     7
370
    25
100
AcDbLine
 10
268.2432817935
 20
28.3683412266
 30
0.0
 11
269.6778235395
 21
27.5401979041
 31
0.0
  0
LINE
  5
1CA
330
1F
100
AcDbEntity
  8
0
  6
Continuous
 62
     7
370
    25
100
AcDbLine
 10
269.3446011709
 20
30.3452647993
 30
0.0
 11
271.112366438
 21
29.3247556327
 31
0.0
  0
LINE
  5
1CB
330
1F
100
AcDbEntity
  8
0
  6
Continuous
 62
     7
370
    25
100
AcDbLine
 10
269.3446011709
 20
30.3452647993
 30
0.0
 11
269.3446011709
 21
30.9513243032
 31
0.0
  0
LINE
  5
1CC
330
1F
100
AcDbEntity
  8
0
  6
Continuous
 62
     7
370
    25
100
AcDbLine
 10
268.6273297217
 20
29.4529859825
 30
0.0
 11
268.2432823491
 21
28.9752346745
 31
0.0
  0
LINE
  5
1CD
330
1F
100
AcDbEntity
  8
0
  6
Continuous
 62
     7
370
    25
100
AcDbLine
 10
269.3446011709
 20
30.3452647993
 30
0.0
 11
268.6273297217
 21
29.4529859825
 31
0.0
  0
ARC
  5
1CE
330
1F
100
AcDbEntity
  8
0
  6
Continuous
 62
     7
370
    25
100
AcDbCircle
 10
262.0136898339
 20
42.9589989157
 30
0.0
 40
4.132358459085375
100
AcDbArc
 50
38.0733464848
 51
81.5142795678
  0
ARC
  5
1CF
330
1F
100
AcDbEntity
  8
0
  6
Continuous
 62
     7
370
    25
100
AcDbCircle
 10
254.1607454595
 20
29.3558324754
 30
0.0
 40
4.153811040550055
100
AcDbArc
 50
218.3955669494
 51
262.1844543575
  0
LINE
  5
1D0
330
1F
100
AcDbEntity
  8
0
  6
Continuous
 62
     7
370
    25
100
AcDbLine
 10
249.5143853048
 20
54.9491616911
 30
0.0
 11
249.4729832701
 21
54.9727349826
 31
0.0
  0
LWPOLYLINE
  5
1D1
330
1F
100
AcDbEntity
  8
0
  6
Continuous
 62
     7
370
    25
100
AcDbPolyline
 90
       21
 70
   128
 43
0.0
 10
253.931005256
 20
34.2865723947
 10
254.042819528
 20
34.9205390926
 10
254.257325255
 20
35.7249293868
 10
254.551764785
 20
36.5343677379
 10
254.9204074639
 20
37.3330992232
 10
255.3560781199
 20
38.105577993
 10
255.8502965107
 20
38.8367683052
 10
256.3934437706
 20
39.512438144
 10
256.9749477908
 20
40.1194367709
 10
257.583490496
 20
40.6459493657
 10
258.2072271607
 20
41.0817281981
 10
258.8340174551
 20
41.418291028
 10
259.451661657
 20
41.6490871251
 10
260.0481380982
 20
41.7696244581
 10
260.6118368858
 20
41.7775570903
 10
261.1317864216
 20
41.6727303938
 10
261.5978660287
 20
41.4571840244
 10
262.0010049153
 20
41.1351146871
 10
262.3333555356
 20
40.712790093
 10
262.5884493362
 20
40.1984305024
 10
262.7083867547
 20
39.8270765683
  0
ARC
  5
1D2
330
1F
100
AcDbEntity
  8
0
  6
Continuous
 62
     7
370
    25
100
AcDbCircle
 10
256.406903015
 20
32.8024609695
 30
0.0
 40
2.627300007269903
100
AcDbArc
 50
243.3615417494
 51
287.7720005402
  0
LINE
  5
1D3
330
1F
100
AcDbEntity
  8
0
  6
Continuous
 62
     7
370
    25
100
AcDbLine
 10
267.5485649174
 20
37.0329010862
 30
0.0
 11
267.594953945
 21
37.0052022909
 31
0.0
  0
LINE
  5
1D4
330
1F
100
AcDbEntity
  8
0
  6
Continuous
 62
     7
370
    25
100
AcDbLine
 10
262.197362802
 20
27.4295003378
 30
0.0
 11
262.0490119867
 21
27.506363691
 31
0.0
  0
ARC
  5
1D5
330
1F
100
AcDbEntity
  8
0
  6
Continuous
 62
     7
370
    25
100
AcDbCircle
 10
257.5256289093
 20
32.4472545837
 30
0.0
 40
2.017660941355532
100
AcDbArc
 50
206.0658121002
 51
239.3889822493
  0
LWPOLYLINE
  5
1D6
330
1F
100
AcDbEntity
  8
0
  6
Continuous
 62
     7
370
    25
100
AcDbPolyline
 90
       18
 70
   128
 43
0.0
 10
255.3607169074
 20
33.3667987373
 10
255.3629437756
 20
33.4357031085
 10
255.4349487029
 20
34.1565239648
 10
255.5954883537
 20
34.907935877
 10
255.8408353664
 20
35.6724920371
 10
256.1652930015
 20
36.4324402587
 10
256.5613278391
 20
37.1701355628
 10
257.0197439639
 20
37.8684491955
 10
257.5298979793
 20
38.5111669955
 10
258.0799442338
 20
39.0833657523
 10
258.6571114503
 20
39.5717601656
 10
259.2479984538
 20
39.965009688
 10
259.8388854573
 20
40.2539837783
 10
260.4160526737
 20
40.4319724487
 10
260.9660989283
 20
40.4948435795
 10
261.4762529437
 20
40.4411370684
 10
261.9346690684
 20
40.2720994273
 10
261.9977749191
 20
40.2373039446
  0
LWPOLYLINE
  5
1D7
330
1F
100
AcDbEntity
  8
0
  6
Continuous
 62
     7
370
    25
100
AcDbPolyline
 90
       17
 70
   128
 43
0.0
 10
263.6337436982
 20
33.6161162947
 10
263.5893378774
 20
33.8482744778
 10
263.4628807036
 20
33.9938188838
 10
263.273624067
 20
34.0305914299
 10
263.0503806069
 20
33.9529941166
 10
262.8271373114
 20
33.7728401123
 10
262.6378806748
 20
33.5175565047
 10
262.511423501
 20
33.2260077536
 10
262.4670175155
 20
32.9425796061
 10
262.511423501
 20
32.7104213279
 10
262.6378806748
 20
32.5648769219
 10
262.8271373114
 20
32.5281043758
 10
263.0503806069
 20
32.6057017842
 10
263.273624067
 20
32.7858556934
 10
263.4628807036
 20
33.041139301
 10
263.5893378774
 20
33.3326880521
 10
263.6337436982
 20
33.6161162947
  0
LWPOLYLINE
  5
1D8
330
1F
100
AcDbEntity
  8
0
  6
Continuous
 62
     7
370
    25
100
AcDbPolyline
 90
       36
 70
   128
 43
0.0
 10
231.3261196129
 20
38.7447701063
 10
231.36966521
 20
39.9056203234
 10
231.4999635092
 20
41.1076631389
 10
231.7159931082
 20
42.341490297
 10
232.0160641816
 20
43.5974460736
 10
232.3978277012
 20
44.8656999952
 10
232.8582958506
 20
46.1363264004
 10
233.3938650743
 20
47.3993821947
 10
234.0003443949
 20
48.644980613
 10
234.6729857066
 20
49.8633737272
 10
235.4065265803
 20
51.0450262066
 10
236.1952245077
 20
52.1806898403
 10
237.0329079391
 20
53.2614771072
 10
237.9130200761
 20
54.278928283
 10
238.8286735309
 20
55.2250810166
 10
239.7727016929
 20
56.0925311634
 10
240.7377161866
 20
56.8744880077
 10
241.7161645768
 20
57.5648326707
 10
242.700389246
 20
58.158161986
 10
243.6826872198
 20
58.6498336821
 10
244.6553707936
 20
59.0359975794
 10
245.6108271723
 20
59.3136330613
 10
246.5415790771
 20
59.480566571
 10
247.4403415238
 20
59.5354914612
 10
248.3000805986
 20
59.4779783503
 10
249.1140679522
 20
59.3084769228
 10
249.8759334837
 20
59.0283144042
 10
250.5797134139
 20
58.6396830079
 10
251.2199003352
 20
58.1456239616
 10
251.7914840409
 20
57.5500046893
 10
252.2899903796
 20
56.8574861077
 10
252.7115187923
 20
56.0734884017
 10
253.0527699709
 20
55.2041472955
 10
253.3110728589
 20
54.256266521
 10
253.4844063832
 20
53.2372649637
 10
253.5450346248
 20
52.6223167563
  0
LWPOLYLINE
  5
1D9
330
1F
100
AcDbEntity
  8
0
  6
Continuous
 62
     7
370
    25
100
AcDbPolyline
 90
       18
 70
   128
 43
0.0
 10
241.5460103407
 20
31.8371436744
 10
240.7377161866
 20
31.4814503111
 10
239.7727016929
 20
31.1492251369
 10
238.8286735309
 20
30.9267235682
 10
237.9130200761
 20
30.8156853259
 10
237.0329079391
 20
30.8169806577
 10
236.1952245077
 20
30.9305992216
 10
235.4065265803
 20
31.1556516112
 10
234.6729857066
 20
31.4903758252
 10
234.0003443949
 20
31.9321538116
 10
233.3938650743
 20
32.4775261111
 10
232.8582958506
 20
33.1222268418
 10
232.3978277012
 20
33.861208038
 10
232.0160641816
 20
34.688687182
 10
231.7159931082
 20
35.5981882717
 10
231.4999635092
 20
36.582592964
 10
231.36966521
 20
37.6341965654
 10
231.3261196129
 20
38.7447701063
  0
SPLINE
  5
1DA
330
1F
100
AcDbEntity
  8
0
  6
Continuous
 62
     7
370
    25
100
AcDbSpline
210
0.0
220
0.0
230
1.0
 70
     8
 71
     3
 72
    25
 73
    21
 74
     0
 42
0.000000001
 43
0.00000001
 40
0.0
 40
0.0
 40
0.0
 40
0.0
 40
0.1249999999999985
 40
0.1249999999999985
 40
0.2499999999999971
 40
0.2499999999999971
 40
0.3749999999999956
 40
0.3749999999999956
 40
0.4999999999999941
 40
0.4999999999999941
 40
0.562499999999995
 40
0.562499999999995
 40
0.624999999999996
 40
0.6874999999999969
 40
0.6874999999999969
 40
0.7499999999999978
 40
0.7499999999999978
 40
0.8749999999999989
 40
0.8749999999999989
 40
1.0
 40
1.0
 40
1.0
 40
1.0
 10
236.1597087614385
 20
55.17658456074317
 30
0.0
 10
236.1888320596996
 20
55.06539904021399
 30
0.0
 10
236.2012211005588
 20
54.95015682778596
 30
0.0
 10
236.1942436154585
 20
54.71106125995016
 30
0.0
 10
236.1742260276065
 20
54.58628729007489
 30
0.0
 10
236.1040038698933
 20
54.33991838086246
 30
0.0
 10
236.0533532152996
 20
54.21570723350136
 30
0.0
 10
235.9234384716444
 20
53.97207873819119
 30
0.0
 10
235.8457375236551
 20
53.85502164313302
 30
0.0
 10
235.710363941429
 20
53.68636512528299
 30
0.0
 10
235.6617294441219
 20
53.63099810401083
 30
0.0
 10
235.5602901087399
 20
53.52527829261381
 30
0.0
 10
235.4544201259991
 20
53.42411733399336
 30
0.0
 10
235.3398283336716
 20
53.33194301231656
 30
0.0
 10
235.2207456644534
 20
53.24440616957644
 30
0.0
 10
235.158787651396
 20
53.20290770006426
 30
0.0
 10
234.9709239478755
 20
53.08878737832615
 30
0.0
 10
234.8415465115214
 20
53.02517994721156
 30
0.0
 10
234.5738632584594
 20
52.92391164623733
 30
0.0
 10
234.4379915719944
 20
52.88737073801253
 30
0.0
 10
234.3024743052667
 20
52.86620255366246
 30
0.0
  0
LWPOLYLINE
  5
1DB
330
1F
100
AcDbEntity
  8
0
  6
Continuous
 62
     7
370
    25
100
AcDbPolyline
 90
       15
 70
   128
 43
0.0
 10
236.1597088731
 20
55.1765845933
 10
237.11071168
 20
56.1655450289
 10
238.092722549
 20
57.069547348
 10
239.0974183006
 20
57.8809288619
 10
240.1162838309
 20
58.5928126718
 10
241.1406835223
 20
59.1991671449
 10
242.1619350829
 20
59.6948515824
 10
243.1713828917
 20
60.0756638846
 10
244.1604714677
 20
60.3383784003
 10
245.1208173748
 20
60.4807669043
 10
246.0442814968
 20
60.5016235909
 10
246.923037032
 20
60.4007716265
 10
247.749635513
 20
60.1790655196
 10
248.5170716725
 20
59.8383837007
 10
248.6373581196
 20
59.771035326
  0
LWPOLYLINE
  5
1DC
330
1F
100
AcDbEntity
  8
0
  6
Continuous
 62
     7
370
    25
100
AcDbPolyline
 90
       21
 70
   128
 43
0.0
 10
232.9011368051
 20
32.5121469321
 10
232.897489127
 20
32.5142548973
 10
232.2127529869
 20
32.9860844702
 10
231.5993740954
 20
33.5676254124
 10
231.0624680264
 20
34.2540281524
 10
230.6065128825
 20
35.0395678854
 10
230.2353097826
 20
35.9176932473
 10
229.951955203
 20
36.8810816405
 10
229.7588120013
 20
37.9216983625
 10
229.657490319
 20
39.0308650977
 10
229.6488370441
 20
40.199332874
 10
229.7329226411
 20
41.4173561155
 10
229.9090464185
 20
42.6747775275
 10
230.1757391635
 20
43.9611102745
 10
230.5307776299
 20
45.2656278559
 10
230.9711996845
 20
46.5774500366
 10
231.4933339417
 20
47.8856375223
 10
232.092824788
 20
49.1792811209
 10
232.7646732121
 20
50.4475903332
 10
233.5032763174
 20
51.6799906879
 10
234.3024740785
 20
52.8662020652
  0
LWPOLYLINE
  5
1DD
330
1F
100
AcDbEntity
  8
0
  6
Continuous
 62
     7
370
    25
100
AcDbPolyline
 90
       40
 70
   128
 43
0.0
 10
231.6775020049
 20
33.3847766125
 10
230.9089555393
 20
33.680952445
 10
230.2010649743
 20
34.0888710868
 10
229.55955372
 20
34.6052342537
 10
228.989607156
 20
35.2258680387
 10
228.4958337766
 20
35.9457537148
 10
228.0822256787
 20
36.7590722255
 10
227.7521262928
 20
37.6592479148
 10
227.5082040413
 20
38.6390029025
 10
227.3524319233
 20
39.6904171625
 10
227.2860690762
 20
40.8049899799
 10
227.309651555
 20
41.9737103421
 10
227.4229883819
 20
43.187129563
 10
227.62516418
 20
44.4354378048
 10
227.9145437834
 20
45.7085430228
 10
228.2887880418
 20
46.9961525713
 10
228.7448709434
 20
48.2878567577
 10
229.2791059558
 20
49.5732128712
 10
229.8871730273
 20
50.8418292116
 10
230.56415744
 20
52.0834491166
 10
231.3045847136
 20
53.2880353699
 10
232.1024699955
 20
54.4458485243
 10
232.9513615251
 20
55.5475282674
 10
233.8443972688
 20
56.5841687017
 10
234.7743569445
 20
57.5473886825
 10
235.7337224434
 20
58.4294001595
 10
236.7147375931
 20
59.2230738553
 10
237.709471295
 20
59.9219924451
 10
238.7098815682
 20
60.5205057787
 10
239.7078804161
 20
61.0137736508
 10
240.6953995983
 20
61.3978098543
 10
241.6644552504
 20
61.6695095978
 10
242.6072127508
 20
61.8266755462
 10
243.5160509285
 20
61.8680373958
 10
244.3836217438
 20
61.7932612325
 10
245.2029110393
 20
61.6029503812
 10
245.9672955035
 20
61.2986448306
 10
246.6705953548
 20
60.8828037368
 10
247.3071253784
 20
60.3587892597
 10
247.3697621808
 20
60.2977661213
  0
LWPOLYLINE
  5
1DE
330
1F
100
AcDbEntity
  8
0
  6
Continuous
 62
     7
370
    25
100
AcDbPolyline
 90
       12
 70
   128
 43
0.0
 10
234.4970874807
 20
55.3008610738
 10
235.3682467051
 20
56.2308077654
 10
236.2698408932
 20
57.0835735532
 10
237.1941607937
 20
57.8518661313
 10
238.1333025555
 20
58.529115842
 10
239.0792357118
 20
59.1095316523
 10
240.0238714737
 20
59.5881512257
 10
240.9591323504
 20
59.9608803522
 10
241.8770210699
 20
60.224533496
 10
242.7696886872
 20
60.3768548627
 10
243.6295018482
 20
60.4165427808
 10
244.297638057
 20
60.3657477069
  0
SPLINE
  5
1DF
330
1F
100
AcDbEntity
  8
0
  6
Continuous
 62
     7
370
    25
100
AcDbSpline
210
0.0
220
0.0
230
1.0
 70
     8
 71
     3
 72
    26
 73
    22
 74
     0
 42
0.000000001
 43
0.00000001
 40
0.0
 40
0.0
 40
0.0
 40
0.0
 40
0.1250000000000014
 40
0.1250000000000014
 40
0.2500000000000027
 40
0.2500000000000027
 40
0.3125000000000025
 40
0.3125000000000025
 40
0.3750000000000023
 40
0.3750000000000023
 40
0.4375000000000021
 40
0.4375000000000021
 40
0.5000000000000018
 40
0.5000000000000018
 40
0.5625000000000016
 40
0.5625000000000016
 40
0.6250000000000013
 40
0.6250000000000013
 40
0.7500000000000006
 40
0.7500000000000006
 40
1.0
 40
1.0
 40
1.0
 40
1.0
 10
233.152894275811
 20
53.62869778761799
 30
0.0
 10
233.1292566795789
 20
53.73827364719099
 30
0.0
 10
233.1116889006972
 20
53.84916290555551
 30
0.0
 10
233.0928763178277
 20
54.07449286541846
 30
0.0
 10
233.0916965430603
 20
54.19016977873683
 30
0.0
 10
233.1077945462957
 20
54.36152528859639
 30
0.0
 10
233.1161132633959
 20
54.41832380069055
 30
0.0
 10
233.1398704126529
 20
54.53115001308763
 30
0.0
 10
233.1554927917019
 20
54.58760286675379
 30
0.0
 10
233.1943500040989
 20
54.69618598316239
 30
0.0
 10
233.2175759608014
 20
54.74856594338794
 30
0.0
 10
233.2725746102798
 20
54.84902271866004
 30
0.0
 10
233.3046528773024
 20
54.89730158643148
 30
0.0
 10
233.3750676258375
 20
54.98499856201524
 30
0.0
 10
233.4136460479641
 20
55.02498768999119
 30
0.0
 10
233.4973543115603
 20
55.09746637410678
 30
0.0
 10
233.5424830215022
 20
55.1298029984834
 30
0.0
 10
233.6817636636924
 20
55.21300276583705
 30
0.0
 10
233.782552735254
 20
55.25183148847313
 30
0.0
 10
234.0856250064867
 20
55.32724777592831
 30
0.0
 10
234.2941490969717
 20
55.32711762955756
 30
0.0
 10
234.4970875166621
 20
55.30086140023133
 30
0.0
  0
LWPOLYLINE
  5
1E0
330
1F
100
AcDbEntity
  8
0
  6
Continuous
 62
     7
370
    25
100
AcDbPolyline
 90
       17
 70
   128
 43
0.0
 10
230.2159156469
 20
35.9728464975
 10
229.7822331368
 20
36.6198110717
 10
229.3847264521
 20
37.4247158311
 10
229.0747146493
 20
38.319291488
 10
228.8550406651
 20
39.2953359931
 10
228.7277183285
 20
40.3439000303
 10
228.6939152389
 20
41.4553698607
 10
228.7539415708
 20
42.6195548246
 10
228.907246781
 20
43.825780784
 10
229.1524242184
 20
45.0629873657
 10
229.4872275877
 20
46.3198322864
 10
229.9085860959
 20
47.5847908291
 10
230.4126373794
 20
48.8462655366
 10
230.9947584557
 20
50.0926898219
 10
231.6496131388
 20
51.3126363296
 10
232.3711974784
 20
52.4949188337
 10
233.1528944192
 20
53.6286975566
  0
LINE
  5
1E1
330
1F
100
AcDbEntity
  8
0
  6
Continuous
 62
     7
370
    25
100
AcDbLine
 10
231.6775020049
 20
33.3847766125
 30
0.0
 11
231.7976055412
 21
33.4415373041
 31
0.0
  0
LWPOLYLINE
  5
1E2
330
1F
100
AcDbEntity
  8
0
  6
Continuous
 62
     7
370
    25
100
AcDbPolyline
 90
       27
 70
   128
 43
0.0
 10
225.0328694142
 20
42.4594267876
 10
225.0761390811
 20
43.6129011109
 10
225.2056089314
 20
44.8073057248
 10
225.4202661235
 20
46.0332930194
 10
225.7184300521
 20
47.2812675367
 10
226.0977674937
 20
48.5414626805
 10
226.5553097299
 20
49.8040155257
 10
227.0874762541
 20
51.0590453337
 10
227.6901011137
 20
52.2967288357
 10
228.3584691301
 20
53.5073804584
 10
229.0873481672
 20
54.6815241844
 10
229.8710352295
 20
55.8099718757
 10
230.7033953164
 20
56.8838913314
 10
231.5779154226
 20
57.894877006
 10
232.4877503074
 20
58.8350182561
 10
233.4257797875
 20
59.6969552296
 10
234.3846624087
 20
60.4739440699
 10
235.3568935624
 20
61.1599018732
 10
236.3348642197
 20
61.749461127
 10
237.310920488
 20
62.2380086548
 10
238.2774233747
 20
62.621719356
 10
239.226808467
 20
62.8975898979
 10
240.1516459835
 20
63.0634627366
 10
241.0446975322
 20
63.1180391103
 10
241.8989739803
 20
63.0608911539
 10
242.7077891254
 20
62.8924670272
 10
243.4125226281
 20
62.6376017245
  0
ARC
  5
1E3
330
1F
100
AcDbEntity
  8
0
  6
Continuous
 62
     7
370
    25
100
AcDbCircle
 10
236.3139597045
 20
42.2485382433
 30
0.0
 40
11.27601583793464
100
AcDbArc
 50
181.5409780447
 51
195.916187217
  0
SPLINE
  5
1E4
330
1F
100
AcDbEntity
  8
0
  6
Continuous
 62
     7
370
    25
100
AcDbSpline
210
0.0
220
0.0
230
1.0
 70
     8
 71
     3
 72
    10
 73
     6
 74
     0
 42
0.000000001
 43
0.00000001
 40
0.0
 40
0.0
 40
0.0
 40
0.0
 40
0.5
 40
0.5
 40
1.0
 40
1.0
 40
1.0
 40
1.0
 10
233.8795823434423
 20
52.16564450679827
 30
0.0
 10
233.775617852658
 20
52.23898287986864
 30
0.0
 10
233.6858095762306
 20
52.32621863766206
 30
0.0
 10
233.533767148232
 20
52.52714917885805
 30
0.0
 10
233.471861559871
 20
52.64131994505502
 30
0.0
 10
233.4274118552806
 20
52.76433762821512
 30
0.0
  0
SPLINE
  5
1E5
330
1F
100
AcDbEntity
  8
0
  6
Continuous
 62
     7
370
    25
100
AcDbSpline
210
0.0
220
0.0
230
1.0
 70
     8
 71
     3
 72
    14
 73
    10
 74
     0
 42
0.000000001
 43
0.00000001
 40
0.0
 40
0.0
 40
0.0
 40
0.0
 40
0.25
 40
0.25
 40
0.5
 40
0.5
 40
0.75
 40
0.75
 40
1.0
 40
1.0
 40
1.0
 40
1.0
 10
233.4274118552806
 20
52.76433762821512
 30
0.0
 10
233.4046910524154
 20
52.82721904787266
 30
0.0
 10
233.382776542066
 20
52.89626547734608
 30
0.0
 10
233.3406654880032
 20
53.04391799396485
 30
0.0
 10
233.3211439340901
 20
53.12031778082316
 30
0.0
 10
233.2827976919164
 20
53.27465007221876
 30
0.0
 10
233.2644380990326
 20
53.35160266855041
 30
0.0
 10
233.2224346544509
 20
53.49699283606638
 30
0.0
 10
233.1986583334378
 20
53.56358374225942
 30
0.0
 10
233.1701968293357
 20
53.60407935749076
 30
0.0
  0
LINE
  5
1E6
330
1F
100
AcDbEntity
  8
0
  6
Continuous
 62
     7
370
    25
100
AcDbLine
 10
233.1701970176
 20
53.6040797492
 30
0.0
 11
233.1528944192
 21
53.6286975566
 31
0.0
  0
LINE
  5
1E7
330
1F
100
AcDbEntity
  8
0
  6
Continuous
 62
     7
370
    25
100
AcDbLine
 10
234.4970874807
 20
55.3008610738
 30
0.0
 11
234.5143900791
 21
55.2762432665
 31
0.0
  0
SPLINE
  5
1E8
330
1F
100
AcDbEntity
  8
0
  6
Continuous
 62
     7
370
    25
100
AcDbSpline
210
0.0
220
0.0
230
1.0
 70
     8
 71
     3
 72
    16
 73
    12
 74
     0
 42
0.000000001
 43
0.00000001
 40
0.0
 40
0.0
 40
0.0
 40
0.0
 40
0.1250000000000001
 40
0.1250000000000001
 40
0.2500000000000003
 40
0.2500000000000003
 40
0.5000000000000002
 40
0.5000000000000002
 40
0.7500000000000001
 40
0.7500000000000001
 40
1.0
 40
1.0
 40
1.0
 40
1.0
 10
234.5143900701868
 20
55.27624297010404
 30
0.0
 10
234.528542476591
 20
55.25610663429125
 30
0.0
 10
234.5502008810647
 20
55.23930921361384
 30
0.0
 10
234.6026188101
 20
55.21246369228235
 30
0.0
 10
234.6332116892383
 20
55.20223820772136
 30
0.0
 10
234.7322925380958
 20
55.17773776728867
 30
0.0
 10
234.8061750757117
 20
55.16947784488717
 30
0.0
 10
234.959274668103
 20
55.15829187818225
 30
0.0
 10
235.0373586427507
 20
55.15569520643107
 30
0.0
 10
235.1967022764928
 20
55.15366620559735
 30
0.0
 10
235.2753551713243
 20
55.15430379425959
 30
0.0
 10
235.3511076391169
 20
55.15739689507463
 30
0.0
  0
SPLINE
  5
1E9
330
1F
100
AcDbEntity
  8
0
  6
Continuous
 62
     7
370
    25
100
AcDbSpline
210
0.0
220
0.0
230
1.0
 70
     8
 71
     3
 72
    10
 73
     6
 74
     0
 42
0.000000001
 43
0.00000001
 40
0.0
 40
0.0
 40
0.0
 40
0.0
 40
0.5
 40
0.5
 40
1.0
 40
1.0
 40
1.0
 40
1.0
 10
235.3511076391169
 20
55.15739689507463
 30
0.0
 10
235.4993019790177
 20
55.16344791950839
 30
0.0
 10
235.6415264447483
 20
55.15328568929526
 30
0.0
 10
235.9139178350891
 20
55.10223525335517
 30
0.0
 10
236.0440451649576
 20
55.06087415071062
 30
0.0
 10
236.1621205071429
 20
55.00510028275834
 30
0.0
  0
LINE
  5
1EA
330
1F
100
AcDbEntity
  8
0
  6
Continuous
 62
     7
370
    25
100
AcDbLine
 10
236.3173235986
 20
55.0335188903
 30
0.0
 11
236.2999304503
 21
55.0582661749
 31
0.0
  0
ARC
  5
1EB
330
1F
100
AcDbEntity
  8
0
  6
Continuous
 62
     7
370
    25
100
AcDbCircle
 10
218.8386502059
 20
50.2752931063
 30
0.0
 40
4.152066281423619
100
AcDbArc
 50
211.7707829633
 51
236.187546018
  0
SPLINE
  5
1EC
330
1F
100
AcDbEntity
  8
0
  6
Continuous
 62
     7
370
    25
100
AcDbSpline
210
0.0
220
0.0
230
1.0
 70
     8
 71
     3
 72
     8
 73
     4
 74
     0
 42
0.000000001
 43
0.00000001
 40
0.0
 40
0.0
 40
0.0
 40
0.0
 40
1.0
 40
1.0
 40
1.0
 40
1.0
 10
216.7391668380062
 20
47.16439586351967
 30
0.0
 10
216.262393546182
 20
47.47248867145231
 30
0.0
 10
215.7855911693371
 20
47.78071811702507
 30
0.0
 10
215.3087587248114
 20
48.08908327324499
 30
0.0
  0
SPLINE
  5
1ED
330
1F
100
AcDbEntity
  8
0
  6
Continuous
 62
     7
370
    25
100
AcDbSpline
210
0.0
220
0.0
230
1.0
 70
     8
 71
     3
 72
    23
 73
    19
 74
     0
 42
0.000000001
 43
0.00000001
 40
0.0
 40
0.0
 40
0.0
 40
0.0
 40
0.0521036415684141
 40
0.1035646240942128
 40
0.1544751946758079
 40
0.2049306267497427
 40
0.2550287880868969
 40
0.3048696389164994
 40
0.3545546704630395
 40
0.4041862979540088
 40
0.4538672252136959
 40
0.5036997999425104
 40
0.590187023076665
 40
0.6742716378260809
 40
0.7565997087257926
 40
0.8378563983752378
 40
0.9187511781386904
 40
1.0
 40
1.0
 40
1.0
 40
1.0
 10
217.6197316415478
 20
46.98966516539957
 30
0.0
 10
217.6144627026077
 20
46.97974370316443
 30
0.0
 10
217.6039898131075
 20
46.96002315243291
 30
0.0
 10
217.5847435173449
 20
46.93545532347997
 30
0.0
 10
217.5629477770123
 20
46.91476674122026
 30
0.0
 10
217.5382964858075
 20
46.89823580592301
 30
0.0
 10
217.5107999712686
 20
46.88571830634676
 30
0.0
 10
217.4803889172613
 20
46.8771836825245
 30
0.0
 10
217.4470185454886
 20
46.87257380987671
 30
0.0
 10
217.4106426572167
 20
46.87183906674073
 30
0.0
 10
217.3712142856275
 20
46.87493414929267
 30
0.0
 10
217.3183658940763
 20
46.88346992477307
 30
0.0
 10
217.2498269003043
 20
46.90106636362164
 30
0.0
 10
217.1621056683483
 20
46.93270297170852
 30
0.0
 10
217.0673747488539
 20
46.97488262904157
 30
0.0
 10
216.9653405015245
 20
47.02761906476812
 30
0.0
 10
216.8564265883373
 20
47.08993562067777
 30
0.0
 10
216.7783102773528
 20
47.13953967892788
 30
0.0
 10
216.7391668380062
 20
47.16439586351967
 30
0.0
  0
SPLINE
  5
1EE
330
1F
100
AcDbEntity
  8
0
  6
Continuous
 62
     7
370
    25
100
AcDbSpline
210
0.0
220
0.0
230
1.0
 70
     8
 71
     3
 72
     8
 73
     4
 74
     0
 42
0.000000001
 43
0.00000001
 40
0.0
 40
0.0
 40
0.0
 40
0.0
 40
1.0
 40
1.0
 40
1.0
 40
1.0
 10
219.093234668
 20
46.04234502884442
 30
0.0
 10
218.6018673559591
 20
46.35821964881156
 30
0.0
 10
218.1104811560334
 20
46.67420567010068
 30
0.0
 10
217.61907544589
 20
46.99030255094302
 30
0.0
  0
SPLINE
  5
1EF
330
1F
100
AcDbEntity
  8
0
  6
Continuous
 62
     7
370
    25
100
AcDbSpline
210
0.0
220
0.0
230
1.0
 70
     8
 71
     3
 72
    18
 73
    14
 74
     0
 42
0.000000001
 43
0.00000001
 40
0.0
 40
0.0
 40
0.0
 40
0.0
 40
0.0923824559397059
 40
0.1844689291547896
 40
0.2764953615916986
 40
0.3686975365456813
 40
0.4613092839965452
 40
0.5545607518407201
 40
0.648676805150765
 40
0.7438756050126222
 40
0.840367404429405
 40
0.9203921078117897
 40
1.0
 40
1.0
 40
1.0
 40
1.0
 10
219.9067987872012
 20
45.39803730429902
 30
0.0
 10
219.8832312730785
 20
45.41331127856434
 30
0.0
 10
219.8361717524277
 20
45.44381029104458
 30
0.0
 10
219.7637739644657
 20
45.49344286365501
 30
0.0
 10
219.6902917555707
 20
45.5457724063232
 30
0.0
 10
219.615592307826
 20
45.6010900920309
 30
0.0
 10
219.5397315180579
 20
45.65932840714449
 30
0.0
 10
219.4627202372709
 20
45.72052131878224
 30
0.0
 10
219.3845881051893
 20
45.78468503536412
 30
0.0
 10
219.3053618705447
 20
45.85183399523174
 30
0.0
 10
219.230065386134
 20
45.91768490497837
 30
0.0
 10
219.1592380780113
 20
45.98121649178699
 30
0.0
 10
219.1153337072039
 20
46.02187723680062
 30
0.0
 10
219.0934388403985
 20
46.04215452536921
 30
0.0
  0
LINE
  5
1F0
330
1F
100
AcDbEntity
  8
0
  6
Continuous
 62
     7
370
    25
100
AcDbLine
 10
220.5465053191
 20
44.9862834978
 30
0.0
 11
219.9067984767
 21
45.3980371654
 31
0.0
  0
SPLINE
  5
1F1
330
1F
100
AcDbEntity
  8
0
  6
Continuous
 62
     7
370
    25
100
AcDbSpline
210
0.0
220
0.0
230
1.0
 70
     8
 71
     3
 72
    25
 73
    21
 74
     0
 42
0.000000001
 43
0.00000001
 40
0.0
 40
0.0
 40
0.0
 40
0.0
 40
0.0280105225426455
 40
0.0559601148860777
 40
0.0839014045043132
 40
0.1118870776786386
 40
0.1399695827588948
 40
0.1682008401739887
 40
0.196631967042423
 40
0.2253130233141507
 40
0.2542927850735879
 40
0.3799486436587393
 40
0.5057850221667148
 40
0.6313085886345164
 40
0.7532068238012837
 40
0.8039473267959832
 40
0.8535894438560202
 40
0.9025339722399832
 40
0.9511970353794942
 40
1.0
 40
1.0
 40
1.0
 40
1.0
 10
221.6488709121915
 20
45.7021894881761
 30
0.0
 10
221.6538190197221
 20
45.67456562706862
 30
0.0
 10
221.6637044713576
 20
45.6193779939633
 30
0.0
 10
221.6752401209608
 20
45.54021728659338
 30
0.0
 10
221.6843132427736
 20
45.46391394749499
 30
0.0
 10
221.6906820514865
 20
45.39071818652538
 30
0.0
 10
221.6943982902966
 20
45.320570718312
 30
0.0
 10
221.6954349112795
 20
45.25349443179922
 30
0.0
 10
221.6937864360526
 20
45.18949052257278
 30
0.0
 10
221.6894402841837
 20
45.12856166930594
 30
0.0
 10
221.674583959616
 20
45.00667354780878
 30
0.0
 10
221.629495702551
 20
44.85177267615358
 30
0.0
 10
221.5161361820581
 20
44.72082955781149
 30
0.0
 10
221.3543119600642
 20
44.66495315700098
 30
0.0
 10
221.1802967409318
 20
44.68482720938421
 30
0.0
 10
221.0289358202452
 20
44.73214501174053
 30
0.0
 10
220.9185355875464
 20
44.77706043547615
 30
0.0
 10
220.8013760920977
 20
44.83443616676731
 30
0.0
 10
220.6778104251643
 20
44.90311323121976
 30
0.0
 10
220.5903153750698
 20
44.95853347717259
 30
0.0
 10
220.5465050553885
 20
44.98628337490265
 30
0.0
  0
ARC
  5
1F2
330
1F
100
AcDbEntity
  8
0
  6
Continuous
 62
     7
370
    25
100
AcDbCircle
 10
232.8418920766
 20
47.4882398568
 30
0.0
 40
11.33462419218118
100
AcDbArc
 50
170.9338462887
 51
189.0661537113
  0
SPLINE
  5
1F3
330
1F
100
AcDbEntity
  8
0
  6
Continuous
 62
     7
370
    25
100
AcDbSpline
210
0.0
220
0.0
230
1.0
 70
     8
 71
     3
 72
    26
 73
    22
 74
     0
 42
0.000000001
 43
0.00000001
 40
0.0
 40
0.0
 40
0.0
 40
0.0
 40
0.0241259796969038
 40
0.048215991228259
 40
0.0723203915136643
 40
0.0964895678725153
 40
0.1207736231978452
 40
0.1452220711257179
 40
0.1698835501670319
 40
0.1948055644482148
 40
0.2200342569523467
 40
0.2456142191612283
 40
0.369097148691835
 40
0.4940698769485373
 40
0.6192566784762581
 40
0.7454656653603327
 40
0.7971495824713788
 40
0.8481710308405456
 40
0.8988013269235281
 40
0.9493179290492212
 40
1.0
 40
1.0
 40
1.0
 40
1.0
 10
220.5465050553885
 20
52.75039376626722
 30
0.0
 10
220.5682232847651
 20
52.73606224287182
 30
0.0
 10
220.611627364942
 20
52.70742056220224
 30
0.0
 10
220.6749344823046
 20
52.6594282642727
 30
0.0
 10
220.7367960500233
 20
52.60782906638651
 30
0.0
 10
220.7971005651603
 20
52.55225427351297
 30
0.0
 10
220.8558904171004
 20
52.49279903288571
 30
0.0
 10
220.91317093553
 20
52.42943472404843
 30
0.0
 10
220.9689620748557
 20
52.36216594608481
 30
0.0
 10
221.0232833222767
 20
52.2909918321252
 30
0.0
 10
221.0761622974846
 20
52.21590269237768
 30
0.0
 10
221.1929571222201
 20
52.03664824367358
 30
0.0
 10
221.3548266801457
 20
51.72634277183052
 30
0.0
 10
221.5180115876786
 20
51.25642898369954
 30
0.0
 10
221.6295229928511
 20
50.75746594979147
 30
0.0
 10
221.6766568309597
 20
50.34858227673452
 30
0.0
 10
221.6917757704922
 20
50.0443103201438
 30
0.0
 10
221.6937289094748
 20
49.84306107844849
 30
0.0
 10
221.6872508838357
 20
49.6474011587259
 30
0.0
 10
221.6731239611485
 20
49.45676487082843
 30
0.0
 10
221.6569640694636
 20
49.33518159708962
 30
0.0
 10
221.6488709121915
 20
49.27429056049073
 30
0.0
  0
LINE
  5
1F4
330
1F
100
AcDbEntity
  8
0
  6
Continuous
 62
     7
370
    25
100
AcDbLine
 10
219.9067984767
 20
53.1633686166
 30
0.0
 11
220.5465053191
 21
52.7503936455
 31
0.0
  0
SPLINE
  5
1F5
330
1F
100
AcDbEntity
  8
0
  6
Continuous
 62
     7
370
    25
100
AcDbSpline
210
0.0
220
0.0
230
1.0
 70
     8
 71
     3
 72
    14
 73
    10
 74
     0
 42
0.000000001
 43
0.00000001
 40
0.0
 40
0.0
 40
0.0
 40
0.0
 40
0.0789261963155847
 40
0.1582328720522156
 40
0.3308475394554963
 40
0.5000195457601538
 40
0.667035788356921
 40
0.8332395193656904
 40
1.0
 40
1.0
 40
1.0
 40
1.0
 10
219.0928460713495
 20
53.37195104955239
 30
0.0
 10
219.1145629526849
 20
53.3735542134108
 30
0.0
 10
219.1581014058998
 20
53.37676826949774
 30
0.0
 10
219.2496265245484
 20
53.37758930956551
 30
0.0
 10
219.3665348579817
 20
53.36965332778226
 30
0.0
 10
219.5073551963641
 20
53.34337765890444
 30
0.0
 10
219.6445675041768
 20
53.3004200603722
 30
0.0
 10
219.7784981785936
 20
53.24206293556259
 30
0.0
 10
219.8639842705529
 20
53.18962938941255
 30
0.0
 10
219.9067987872012
 20
53.16336877925811
 30
0.0
  0
SPLINE
  5
1F6
330
1F
100
AcDbEntity
  8
0
  6
Continuous
 62
     7
370
    25
100
AcDbSpline
210
0.0
220
0.0
230
1.0
 70
     8
 71
     3
 72
     8
 73
     4
 74
     0
 42
0.000000001
 43
0.00000001
 40
0.0
 40
0.0
 40
0.0
 40
0.0
 40
1.0
 40
1.0
 40
1.0
 40
1.0
 10
217.2905424883455
 20
54.53434246096452
 30
0.0
 10
217.8913007120414
 20
54.14707497780579
 30
0.0
 10
218.4920295749015
 20
53.75960762788267
 30
0.0
 10
219.0927302192481
 20
53.37194073529322
 30
0.0
  0
SPLINE
  5
1F7
330
1F
100
AcDbEntity
  8
0
  6
Continuous
 62
     7
370
    25
100
AcDbSpline
210
0.0
220
0.0
230
1.0
 70
     8
 71
     3
 72
    13
 73
     9
 74
     0
 42
0.000000001
 43
0.00000001
 40
0.0
 40
0.0
 40
0.0
 40
0.0
 40
0.1667030582308044
 40
0.3329480818053134
 40
0.4990671507274983
 40
0.6653938523718556
 40
0.8322612710550201
 40
1.0
 40
1.0
 40
1.0
 40
1.0
 10
216.9487139533111
 20
54.8354072400503
 30
0.0
 10
216.9690151357511
 20
54.82184213337106
 30
0.0
 10
217.0095617209398
 20
54.79474919160822
 30
0.0
 10
217.0687113579274
 20
54.74955461860051
 30
0.0
 10
217.1264829028299
 20
54.70114347011755
 30
0.0
 10
217.1827326402895
 20
54.64910835534709
 30
0.0
 10
217.2376598490357
 20
54.59381038813807
 30
0.0
 10
217.2728805586262
 20
54.5541931329777
 30
0.0
 10
217.2905367705671
 20
54.53433292397678
 30
0.0
  0
SPLINE
  5
1F8
330
1F
100
AcDbEntity
  8
0
  6
Continuous
 62
     7
370
    25
100
AcDbSpline
210
0.0
220
0.0
230
1.0
 70
     8
 71
     3
 72
     8
 73
     4
 74
     0
 42
0.000000001
 43
0.00000001
 40
0.0
 40
0.0
 40
0.0
 40
0.0
 40
1.0
 40
1.0
 40
1.0
 40
1.0
 10
215.0047334375204
 20
56.09012909242977
 30
0.0
 10
215.6527635099207
 20
55.67213377654501
 30
0.0
 10
216.3007564870226
 20
55.25389301412738
 30
0.0
 10
216.9487139533111
 20
54.83540724005029
 30
0.0
  0
LWPOLYLINE
  5
1F9
330
1F
100
AcDbEntity
  8
0
  6
Continuous
 62
     7
370
    25
100
AcDbPolyline
 90
       20
 70
   128
 43
0.0
 10
215.0047340878
 20
56.0901291429
 10
215.3873826913
 20
57.204091905
 10
215.8495933495
 20
58.312306087
 10
216.3861925367
 20
59.4023686443
 10
216.9911736686
 20
60.4620785134
 10
217.6577665783
 20
61.4795767208
 10
218.3785109443
 20
62.4434743235
 10
219.1453395965
 20
63.3429841519
 10
219.9496702181
 20
64.1680376273
 10
220.7825009997
 20
64.909402339
 10
221.6345106552
 20
65.558779327
 10
222.4961635596
 20
66.1089025601
 10
223.3578160186
 20
66.5536132119
 10
224.2098244394
 20
66.8879350345
 10
225.0426530807
 20
67.1081259146
 10
225.8469809035
 20
67.2117220666
 10
226.6138056044
 20
67.1975631083
 10
227.3345450313
 20
67.0658080214
 10
228.0011330019
 20
66.8179319101
 10
228.0544718143
 20
66.7918761081
  0
SPLINE
  5
1FA
330
1F
100
AcDbEntity
  8
0
  6
Continuous
 62
     7
370
    25
100
AcDbSpline
210
0.0
220
0.0
230
1.0
 70
    11
 71
     3
 72
    39
 73
    35
 74
     0
 42
0.000000001
 43
0.00000001
 40
0.0
 40
0.0
 40
0.0
 40
0.0
 40
0.0310664058347798
 40
0.0621048158425991
 40
0.0931361551792733
 40
0.1235538293503577
 40
0.1538561545807598
 40
0.1850588072749104
 40
0.2160250992947717
 40
0.247186722379756
 40
0.2784462884306427
 40
0.3100516090231226
 40
0.3419834369140484
 40
0.3734259894013217
 40
0.4048604886785525
 40
0.4368740651833295
 40
0.468512068592407
 40
0.4998055358633177
 40
0.5309508213228404
 40
0.561864978443814
 40
0.5930416446592908
 40
0.6233742450133256
 40
0.6540913579073041
 40
0.6849496782718417
 40
0.7158160645167227
 40
0.7471731804043494
 40
0.7784514311866261
 40
0.8101295911560916
 40
0.8419598919689909
 40
0.8735175891922292
 40
0.9050808037889628
 40
0.9370235169792575
 40
0.9687441590033682
 40
0.9999999999999999
 40
0.9999999999999999
 40
0.9999999999999999
 40
0.9999999999999999
 10
228.2133189187257
 20
65.09531946777119
 30
0.0
 10
228.4762045389234
 20
65.06678498048097
 30
0.0
 10
229.0030931494065
 20
64.98084249215849
 30
0.0
 10
229.7671052184799
 20
64.78046737208831
 30
0.0
 10
230.4742554065313
 20
64.53346526586866
 30
0.0
 10
231.0871664711258
 20
64.25548338771634
 30
0.0
 10
231.5842977968009
 20
63.96134969038644
 30
0.0
 10
231.943489517873
 20
63.65984316219381
 30
0.0
 10
232.1652087866338
 20
63.3528456572906
 30
0.0
 10
232.2304606640145
 20
63.04234039588834
 30
0.0
 10
232.1436134529001
 20
62.7231959111399
 30
0.0
 10
231.9012678651413
 20
62.39387594556707
 30
0.0
 10
231.5213300024151
 20
62.05493522401019
 30
0.0
 10
231.0075240492564
 20
61.71709675959978
 30
0.0
 10
230.3816332383458
 20
61.39119885829079
 30
0.0
 10
229.6681622518574
 20
61.09455196505081
 30
0.0
 10
228.9042597755923
 20
60.83844865661217
 30
0.0
 10
228.1184666926884
 20
60.64942108862242
 30
0.0
 10
227.3369292376464
 20
60.54124516656726
 30
0.0
 10
226.5808162528926
 20
60.53358128319923
 30
0.0
 10
225.8784516665018
 20
60.63150331858684
 30
0.0
 10
225.259431319458
 20
60.85315175208829
 30
0.0
 10
224.7503740544454
 20
61.18901983899944
 30
0.0
 10
224.3774304610118
 20
61.62883040518072
 30
0.0
 10
224.1488285097641
 20
62.13990504570329
 30
0.0
 10
224.0799822030444
 20
62.69109013346655
 30
0.0
 10
224.1645986162695
 20
63.24876206177802
 30
0.0
 10
224.4077074062051
 20
63.77884220269777
 30
0.0
 10
224.7898372490218
 20
64.25136655181079
 30
0.0
 10
225.3059728234354
 20
64.63748806270453
 30
0.0
 10
225.9329506839366
 20
64.92111225003683
 30
0.0
 10
226.648858116303
 20
65.09084946876324
 30
0.0
 10
227.4173015084864
 20
65.15238830347378
 30
0.0
 10
227.9488302878589
 20
65.12402795121815
 30
0.0
 10
228.2133189187258
 20
65.09531946777119
 30
0.0
  0
LINE
  5
1FB
330
1F
100
AcDbEntity
  8
0
  6
Continuous
 62
     7
370
    25
100
AcDbLine
 10
218.9887815057
 20
48.6561928504
 30
0.0
 11
219.3028265643
 21
48.4880486232
 31
0.0
  0
LINE
  5
1FC
330
1F
100
AcDbEntity
  8
0
  6
Continuous
 62
     7
370
    25
100
AcDbLine
 10
218.0018234858
 20
49.2259515876
 30
0.0
 11
218.9887815057
 21
48.6561928504
 31
0.0
  0
ARC
  5
1FD
330
1F
100
AcDbEntity
  8
0
  6
Continuous
 62
     7
370
    25
100
AcDbCircle
 10
220.2227933966
 20
52.8194323517
 30
0.0
 40
4.484274790565665
100
AcDbArc
 50
267.6840627222
 51
286.9866336569
  0
SPLINE
  5
1FE
330
1F
100
AcDbEntity
  8
0
  6
Continuous
 62
     7
370
    25
100
AcDbSpline
210
0.0
220
0.0
230
1.0
 70
     8
 71
     3
 72
    13
 73
     9
 74
     0
 42
0.000000001
 43
0.00000001
 40
0.0
 40
0.0
 40
0.0
 40
0.0
 40
0.142593677630432
 40
0.3741076934871868
 40
0.4908300786259419
 40
0.6075221810614941
 40
0.8194021152148097
 40
1.0
 40
1.0
 40
1.0
 40
1.0
 10
229.5518248770252
 20
62.09282375243546
 30
0.0
 10
229.3605734291897
 20
62.19784827743551
 30
0.0
 10
228.858807578033
 20
62.47338982640368
 30
0.0
 10
228.0525672369622
 20
62.80786590077255
 30
0.0
 10
227.2395972090137
 20
63.04104796475811
 30
0.0
 10
226.447046132093
 20
63.18676108318902
 30
0.0
 10
225.5339311524022
 20
63.22070966498077
 30
0.0
 10
224.9560528491688
 20
63.01453356345849
 30
0.0
 10
224.6901433016957
 20
62.91966204198274
 30
0.0
  0
SPLINE
  5
1FF
330
1F
100
AcDbEntity
  8
0
  6
Continuous
 62
     7
370
    25
100
AcDbSpline
210
0.0
220
0.0
230
1.0
 70
     8
 71
     3
 72
    10
 73
     6
 74
     0
 42
0.000000001
 43
0.00000001
 40
0.0
 40
0.0
 40
0.0
 40
0.0
 40
0.3798174073072795
 40
0.9603711649033085
 40
1.0
 40
1.0
 40
1.0
 40
1.0
 10
230.6917049988846
 20
61.56459682491698
 30
0.0
 10
230.5620523816363
 20
61.63492538675435
 30
0.0
 10
230.2342247658818
 20
61.81275168317546
 30
0.0
 10
229.8262962208716
 20
61.98580453357788
 30
0.0
 10
229.5696634394398
 20
62.08500996582619
 30
0.0
 10
229.553264949228
 20
62.09134905976656
 30
0.0
  0
SPLINE
  5
200
330
1F
100
AcDbEntity
  8
0
  6
Continuous
 62
     7
370
    25
100
AcDbSpline
210
0.0
220
0.0
230
1.0
 70
     8
 71
     3
 72
    24
 73
    20
 74
     0
 42
0.000000001
 43
0.00000001
 40
0.0
 40
0.0
 40
0.0
 40
0.0
 40
0.0618858212107145
 40
0.1150115607194259
 40
0.1593831488268445
 40
0.2428114970815824
 40
0.318331853291959
 40
0.3935543804326023
 40
0.4204843226990471
 40
0.4483397435477174
 40
0.4771286702554668
 40
0.5451537905345539
 40
0.6363475754294583
 40
0.6968782859867285
 40
0.7498596693403015
 40
0.7959701295389731
 40
0.8771179302751783
 40
0.9543004207779655
 40
1.0
 40
1.0
 40
1.0
 40
1.0
 10
228.1584403517235
 20
64.52146156781443
 30
0.0
 10
227.9744835623873
 20
64.54035613278037
 30
0.0
 10
227.6326094944251
 20
64.57547069316489
 30
0.0
 10
227.1683915214483
 20
64.5689801447776
 30
0.0
 10
226.6589299091753
 20
64.5212559519803
 30
0.0
 10
226.1198348098008
 20
64.39663935381338
 30
0.0
 10
225.5769968250771
 20
64.1541490698704
 30
0.0
 10
225.236603809582
 20
63.89677631924449
 30
0.0
 10
225.0299771010311
 20
63.68196921874566
 30
0.0
 10
224.91199304482
 20
63.53546586744668
 30
0.0
 10
224.7598226406289
 20
63.30571504322623
 30
0.0
 10
224.5931420020493
 20
62.9327723477992
 30
0.0
 10
224.5247804212121
 20
62.47021329510633
 30
0.0
 10
224.5751358848315
 20
62.04188059690451
 30
0.0
 10
224.6805650283467
 20
61.72195370326012
 30
0.0
 10
224.8627643550327
 20
61.38148818806692
 30
0.0
 10
225.1636427801032
 20
61.04553993121184
 30
0.0
 10
225.5533276747017
 20
60.77248063049682
 30
0.0
 10
225.8462466308961
 20
60.67852555956953
 30
0.0
 10
225.9551825649524
 20
60.64358386940457
 30
0.0
  0
SPLINE
  5
201
330
1F
100
AcDbEntity
  8
0
  6
Continuous
 62
     7
370
    25
100
AcDbSpline
210
0.0
220
0.0
230
1.0
 70
     8
 71
     3
 72
    22
 73
    18
 74
     0
 42
0.000000001
 43
0.00000001
 40
0.0
 40
0.0
 40
0.0
 40
0.0
 40
0.0114834662766631
 40
0.0705129490302074
 40
0.1365111498489265
 40
0.2095181088460596
 40
0.2722005662080079
 40
0.326136633712203
 40
0.3713257586344869
 40
0.4077706656115294
 40
0.5121571560731971
 40
0.6052135161672628
 40
0.6996579575918662
 40
0.7500000558373026
 40
0.8024654985564912
 40
0.8926083568347373
 40
1.0
 40
1.0
 40
1.0
 40
1.0
 10
231.4958994664256
 20
62.07572438373807
 30
0.0
 10
231.5077535365855
 20
62.08702336664758
 30
0.0
 10
231.5805421375918
 20
62.15640351605513
 30
0.0
 10
231.6771633548034
 20
62.28808676747136
 30
0.0
 10
231.7753454555572
 20
62.47692145522861
 30
0.0
 10
231.8060963749879
 20
62.66286905772059
 30
0.0
 10
231.7768132398302
 20
62.83468789665278
 30
0.0
 10
231.7082923077476
 20
62.98149294402698
 30
0.0
 10
231.6204849332268
 20
63.10270418007137
 30
0.0
 10
231.4661922961249
 20
63.26828723879918
 30
0.0
 10
231.1983668442359
 20
63.47845153273781
 30
0.0
 10
230.7467964349736
 20
63.73389532713078
 30
0.0
 10
230.2992338621602
 20
63.94053202760824
 30
0.0
 10
229.8903400842303
 20
64.09903624371317
 30
0.0
 10
229.4682604866883
 20
64.2415529917829
 30
0.0
 10
228.8899478682845
 20
64.40480956057733
 30
0.0
 10
228.416069274596
 20
64.4803780105098
 30
0.0
 10
228.1584403517235
 20
64.52146156781443
 30
0.0
  0
LINE
  5
202
330
1F
100
AcDbEntity
  8
0
  6
Continuous
 62
     7
370
    25
100
AcDbLine
 10
221.6488706298
 20
49.2742903797
 30
0.0
 11
221.6436325668
 21
49.5703738026
 31
0.0
  0
LINE
  5
203
330
1F
100
AcDbEntity
  8
0
  6
Continuous
 62
     7
370
    25
100
AcDbLine
 10
221.6436325668
 20
49.5703738026
 30
0.0
 11
221.6867310121
 21
50.2220119257
 31
0.0
  0
LINE
  5
204
330
1F
100
AcDbEntity
  8
0
  6
Continuous
 62
     7
370
    25
100
AcDbLine
 10
221.1640837488
 20
52.0510620201
 30
0.0
 11
220.8526692463
 21
52.3796585896
 31
0.0
  0
SPLINE
  5
205
330
1F
100
AcDbEntity
  8
0
  6
Continuous
 62
     7
370
    25
100
AcDbSpline
210
0.0
220
0.0
230
1.0
 70
     8
 71
     3
 72
    19
 73
    15
 74
     0
 42
0.000000001
 43
0.00000001
 40
0.0
 40
0.0
 40
0.0
 40
0.0
 40
0.0210492621018804
 40
0.1455865440207667
 40
0.2712169722633744
 40
0.3929514297049947
 40
0.5136082229787104
 40
0.6366369099308349
 40
0.699422462668311
 40
0.7643939711952468
 40
0.8122544601557282
 40
0.8606584764820763
 40
0.9188817427801165
 40
1.0
 40
1.0
 40
1.0
 40
1.0
 10
224.5691957993812
 20
62.26671162035662
 30
0.0
 10
224.5617272243953
 20
62.32147196726202
 30
0.0
 10
224.5100710658236
 20
62.70022014459717
 30
0.0
 10
224.7528419604833
 20
63.31037105341134
 30
0.0
 10
225.3371724278982
 20
63.99974475665091
 30
0.0
 10
226.2432987955384
 20
64.41704430688296
 30
0.0
 10
227.3176449240005
 20
64.5374702645716
 30
0.0
 10
228.2715787930962
 20
64.37677072098401
 30
0.0
 10
229.0062413356654
 20
64.0794046221422
 30
0.0
 10
229.4790445751378
 20
63.78174654473751
 30
0.0
 10
229.8360147452572
 20
63.41083473996015
 30
0.0
 10
230.0308628867655
 20
62.97851344465258
 30
0.0
 10
230.0598919170097
 20
62.47557211342743
 30
0.0
 10
229.9975183153893
 20
62.14182710085224
 30
0.0
 10
229.9612072594152
 20
61.94753603030538
 30
0.0
  0
SPLINE
  5
206
330
1F
100
AcDbEntity
  8
0
  6
Continuous
 62
     7
370
    25
100
AcDbSpline
210
0.0
220
0.0
230
1.0
 70
     8
 71
     3
 72
    10
 73
     6
 74
     0
 42
0.000000001
 43
0.00000001
 40
0.0
 40
0.0
 40
0.0
 40
0.0
 40
0.2950970674811367
 40
0.9803075235050266
 40
1.0
 40
1.0
 40
1.0
 40
1.0
 10
229.9639351154034
 20
61.94629747688299
 30
0.0
 10
230.0467593717869
 20
61.90753225876463
 30
0.0
 10
230.3219001664905
 20
61.77875485241453
 30
0.0
 10
230.5969192732055
 20
61.63751614064207
 30
0.0
 10
230.745458685956
 20
61.54347859224424
 30
0.0
 10
230.7496083479297
 20
61.54085151818051
 30
0.0
  0
ARC
  5
207
330
1F
100
AcDbEntity
  8
0
  6
Continuous
 62
     7
370
    25
100
AcDbCircle
 10
233.9740436808
 20
47.7330784845
 30
0.0
 40
12.46654291792709
100
AcDbArc
 50
171.5249863735
 51
179.8211981812
  0
SPLINE
  5
208
330
1F
100
AcDbEntity
  8
0
  6
Continuous
 62
     7
370
    25
100
AcDbSpline
210
0.0
220
0.0
230
1.0
 70
     8
 71
     3
 72
    14
 73
    10
 74
     0
 42
0.000000001
 43
0.00000001
 40
0.0
 40
0.0
 40
0.0
 40
0.0
 40
0.0003951393068452
 40
0.0003951393068452
 40
0.0003951393068452
 40
0.0008163352168296
 40
0.0008163352168296
 40
0.0008163352168296
 40
0.0012378579336484
 40
0.0012378579336484
 40
0.0012378579336484
 40
0.0012378579336484
 10
229.5558574525651
 20
62.09154479905103
 30
0.0
 10
229.601319266795
 20
62.07710793642668
 30
0.0
 10
229.6462068714147
 20
62.06224207586177
 30
0.0
 10
229.6904905640885
 20
62.04695828825698
 30
0.0
 10
229.7376938563223
 20
62.03066684892145
 30
0.0
 10
229.7842196693761
 20
62.01389737083979
 30
0.0
 10
229.8300305786125
 20
61.99666856004684
 30
0.0
 10
229.8758769665964
 20
61.97942640621753
 30
0.0
 10
229.9210162021637
 20
61.96172070001546
 30
0.0
 10
229.9654097602011
 20
61.94357784332717
 30
0.0
  0
LINE
  5
209
330
1F
100
AcDbEntity
  8
0
  6
Continuous
 62
     7
370
    25
100
AcDbLine
 10
220.8526692463
 20
52.3796585896
 30
0.0
 11
220.2127325719
 21
52.7918902297
 31
0.0
  0
LINE
  5
20A
330
1F
100
AcDbEntity
  8
0
  6
Continuous
 62
     7
370
    25
100
AcDbLine
 10
219.9067984767
 20
53.1633686166
 30
0.0
 11
220.2127325719
 21
52.7918902297
 31
0.0
  0
SPLINE
  5
20B
330
1F
100
AcDbEntity
  8
0
  6
Continuous
 62
     7
370
    25
100
AcDbSpline
210
0.0
220
0.0
230
1.0
 70
     8
 71
     3
 72
    13
 73
     9
 74
     0
 42
0.000000001
 43
0.00000001
 40
0.0
 40
0.0
 40
0.0
 40
0.0
 40
0.1618542299052077
 40
0.3254858841874489
 40
0.4910085196967187
 40
0.6585318473110602
 40
0.828161695440384
 40
1.0
 40
1.0
 40
1.0
 40
1.0
 10
220.2127329835433
 20
52.79189023362122
 30
0.0
 10
220.1931555915234
 20
52.80445321065592
 30
0.0
 10
220.1537858156739
 20
52.82971712677699
 30
0.0
 10
220.0922498758993
 20
52.86241082369382
 30
0.0
 10
220.0286932166486
 20
52.89135689740077
 30
0.0
 10
219.9630751139933
 20
52.91586926486497
 30
0.0
 10
219.8956478449429
 20
52.93630432821615
 30
0.0
 10
219.849763244748
 20
52.94590098320447
 30
0.0
 10
219.8266725645753
 20
52.95073034403841
 30
0.0
  0
SPLINE
  5
20C
330
1F
100
AcDbEntity
  8
0
  6
Continuous
 62
     7
370
    25
100
AcDbSpline
210
0.0
220
0.0
230
1.0
 70
     8
 71
     3
 72
     9
 73
     5
 74
     0
 42
0.000000001
 43
0.00000001
 40
0.0
 40
0.0
 40
0.0
 40
0.0
 40
0.4907282259505859
 40
1.0
 40
1.0
 40
1.0
 40
1.0
 10
219.8266667372834
 20
52.9507023470074
 30
0.0
 10
219.8025732148056
 20
52.95879787922553
 30
0.0
 10
219.7534757282463
 20
52.97529485614681
 30
0.0
 10
219.7027750344261
 20
52.99008852516305
 30
0.0
 10
219.6769546021388
 20
52.99762252322763
 30
0.0
  0
SPLINE
  5
20D
330
1F
100
AcDbEntity
  8
0
  6
Continuous
 62
     7
370
    25
100
AcDbSpline
210
0.0
220
0.0
230
1.0
 70
     8
 71
     3
 72
    14
 73
    10
 74
     0
 42
0.000000001
 43
0.00000001
 40
0.0
 40
0.0
 40
0.0
 40
0.0
 40
0.0310276388063898
 40
0.0622853718665477
 40
0.1248003166898006
 40
0.2498289731748368
 40
0.4998892603607338
 40
0.7606803622944698
 40
1.0
 40
1.0
 40
1.0
 40
1.0
 10
219.0930139128504
 20
53.37173026587347
 30
0.0
 10
219.0990061522548
 20
53.36789922221995
 30
0.0
 10
219.1110350682139
 20
53.36020872472236
 30
0.0
 10
219.1350948762629
 20
53.34477083521575
 30
0.0
 10
219.1773285489092
 20
53.3177003822849
 30
0.0
 10
219.2618911234216
 20
53.26348835748953
 30
0.0
 10
219.3851780929151
 20
53.18448517560726
 30
0.0
 10
219.531309799375
 20
53.09087900093168
 30
0.0
 10
219.6296764159129
 20
53.02789592453799
 30
0.0
 10
219.676748116571
 20
52.99775642576419
 30
0.0
  0
LINE
  5
20E
330
1F
100
AcDbEntity
  8
0
  6
Continuous
 62
     7
370
    25
100
AcDbLine
 10
217.2905137576
 20
54.5343609429
 30
0.0
 11
217.5814811118
 21
54.3462824037
 31
0.0
  0
SPLINE
  5
20F
330
1F
100
AcDbEntity
  8
0
  6
Continuous
 62
     7
370
    25
100
AcDbSpline
210
0.0
220
0.0
230
1.0
 70
     8
 71
     3
 72
     8
 73
     4
 74
     0
 42
0.000000001
 43
0.00000001
 40
0.0
 40
0.0
 40
0.0
 40
0.0
 40
1.0
 40
1.0
 40
1.0
 40
1.0
 10
217.6128694151457
 20
54.32605987356233
 30
0.0
 10
217.6024269092939
 20
54.33288529845973
 30
0.0
 10
217.5919609764042
 20
54.33962826524624
 30
0.0
 10
217.5814732115876
 20
54.34628735289922
 30
0.0
  0
SPLINE
  5
210
330
1F
100
AcDbEntity
  8
0
  6
Continuous
 62
     7
370
    25
100
AcDbSpline
210
0.0
220
0.0
230
1.0
 70
     8
 71
     3
 72
     8
 73
     4
 74
     0
 42
0.000000001
 43
0.00000001
 40
0.0
 40
0.0
 40
0.0
 40
0.0
 40
1.0
 40
1.0
 40
1.0
 40
1.0
 10
214.8268650363196
 20
56.20431552537286
 30
0.0
 10
214.8858648004904
 20
56.16557485845339
 30
0.0
 10
214.9451523640017
 20
56.12751288115361
 30
0.0
 10
215.0047334374908
 20
56.09012909269286
 30
0.0
  0
SPLINE
  5
211
330
1F
100
AcDbEntity
  8
0
  6
Continuous
 62
     7
370
    25
100
AcDbSpline
210
0.0
220
0.0
230
1.0
 70
     8
 71
     3
 72
     8
 73
     4
 74
     0
 42
0.000000001
 43
0.00000001
 40
0.0
 40
0.0
 40
0.0
 40
0.0
 40
1.0
 40
1.0
 40
1.0
 40
1.0
 10
214.8020152902224
 20
56.56752570330973
 30
0.0
 10
214.8094895023129
 20
56.44656786259861
 30
0.0
 10
214.8177856062029
 20
56.32549602018867
 30
0.0
 10
214.8268650363217
 20
56.20431552537357
 30
0.0
  0
LWPOLYLINE
  5
212
330
1F
100
AcDbEntity
  8
0
  6
Continuous
 62
     7
370
    25
100
AcDbPolyline
 90
       15
 70
   128
 43
0.0
 10
214.802015649
 20
56.5675250379
 10
215.1956151891
 20
57.6764338768
 10
215.6702835337
 20
58.7772023383
 10
216.2203367853
 20
59.8566487119
 10
216.8391881816
 20
60.9018472674
 10
217.5194274506
 20
61.9002831918
 10
218.2529097138
 20
62.8400001113
 10
219.0308513045
 20
63.7097462807
 10
219.8439372753
 20
64.4991062284
 10
220.6824310458
 20
65.1986279344
 10
221.5362923227
 20
65.79993501
 10
222.3952967088
 20
66.2958276867
 10
223.2491579857
 20
66.6803678571
 10
224.0876517562
 20
66.9489504518
 10
224.765978118
 20
67.0816327293
  0
SPLINE
  5
213
330
1F
100
AcDbEntity
  8
0
  6
Continuous
 62
     7
370
    25
100
AcDbSpline
210
0.0
220
0.0
230
1.0
 70
     8
 71
     3
 72
    10
 73
     6
 74
     0
 42
0.000000001
 43
0.00000001
 40
0.0
 40
0.0
 40
0.0
 40
0.0
 40
0.2409818396634726
 40
0.5031433556203718
 40
1.0
 40
1.0
 40
1.0
 40
1.0
 10
220.8526692462611
 20
45.6738169663559
 30
0.0
 10
220.934915117264
 20
45.62214044443535
 30
0.0
 10
221.1066353746085
 20
45.51424559774397
 30
0.0
 10
221.3843567336354
 20
45.38452288727972
 30
0.0
 10
221.5053339806795
 20
45.40730082838471
 30
0.0
 10
221.5845262215949
 20
45.42221136936344
 30
0.0
  0
LINE
  5
214
330
1F
100
AcDbEntity
  8
0
  6
Continuous
 62
     7
370
    25
100
AcDbLine
 10
216.0694951901
 20
55.4028896993
 30
0.0
 11
215.3076164877
 21
55.893524107
 31
0.0
  0
LINE
  5
215
330
1F
100
AcDbEntity
  8
0
  6
Continuous
 62
     7
370
    25
100
AcDbLine
 10
215.3076164877
 20
55.893524107
 30
0.0
 11
214.8268651675
 21
56.2043154831
 31
0.0
  0
LINE
  5
216
330
1F
100
AcDbEntity
  8
0
  6
Continuous
 62
     7
370
    25
100
AcDbLine
 10
219.9067984767
 20
45.3980371654
 30
0.0
 11
220.2127325719
 21
46.0860486065
 31
0.0
  0
LINE
  5
217
330
1F
100
AcDbEntity
  8
0
  6
Continuous
 62
     7
370
    25
100
AcDbLine
 10
220.2127325719
 20
46.0860486065
 30
0.0
 11
220.8526692463
 21
45.6738169664
 31
0.0
  0
SPLINE
  5
218
330
1F
100
AcDbEntity
  8
0
  6
Continuous
 62
     7
370
    25
100
AcDbSpline
210
0.0
220
0.0
230
1.0
 70
     8
 71
     3
 72
    13
 73
     9
 74
     0
 42
0.000000001
 43
0.00000001
 40
0.0
 40
0.0
 40
0.0
 40
0.0
 40
0.1722587823584898
 40
0.3421398271275632
 40
0.5097456257942847
 40
0.675182899330312
 40
0.838562619015417
 40
1.0
 40
1.0
 40
1.0
 40
1.0
 10
219.82666105277
 20
46.36735831187452
 30
0.0
 10
219.8498125767229
 20
46.34923872093938
 30
0.0
 10
219.8957960574749
 20
46.31324964900185
 30
0.0
 10
219.9633370701898
 20
46.26224966558357
 30
0.0
 10
220.0289966848765
 20
46.21392498539238
 30
0.0
 10
220.0925207561257
 20
46.16849397948473
 30
0.0
 10
220.1539511348437
 20
46.12566841172801
 30
0.0
 10
220.1932173018138
 20
46.09920259455506
 30
0.0
 10
220.2127329835433
 20
46.0860488160095
 30
0.0
  0
SPLINE
  5
219
330
1F
100
AcDbEntity
  8
0
  6
Continuous
 62
     7
370
    25
100
AcDbSpline
210
0.0
220
0.0
230
1.0
 70
     8
 71
     3
 72
    11
 73
     7
 74
     0
 42
0.000000001
 43
0.00000001
 40
0.0
 40
0.0
 40
0.0
 40
0.0
 40
0.2392845095215635
 40
0.5001120454085677
 40
0.751501091501476
 40
1.0
 40
1.0
 40
1.0
 40
1.0
 10
219.6772806412939
 20
46.4146723040874
 30
0.0
 10
219.6302114092742
 20
46.3863577813671
 30
0.0
 10
219.531835254678
 20
46.32717955081332
 30
0.0
 10
219.3855380330961
 20
46.23399165035062
 30
0.0
 10
219.2376972894724
 20
46.13861973437797
 30
0.0
 10
219.14141082675
 20
46.07408447912092
 30
0.0
 10
219.0935459388888
 20
46.04200340906562
 30
0.0
  0
SPLINE
  5
21A
330
1F
100
AcDbEntity
  8
0
  6
Continuous
 62
     7
370
    25
100
AcDbSpline
210
0.0
220
0.0
230
1.0
 70
     8
 71
     3
 72
     9
 73
     5
 74
     0
 42
0.000000001
 43
0.00000001
 40
0.0
 40
0.0
 40
0.0
 40
0.0
 40
0.5090669353869889
 40
1.0
 40
1.0
 40
1.0
 40
1.0
 10
219.677851644878
 20
46.41397334987563
 30
0.0
 10
219.703500219502
 20
46.40648064171575
 30
0.0
 10
219.7538837208475
 20
46.39176212900347
 30
0.0
 10
219.8026912323428
 20
46.37536977115131
 30
0.0
 10
219.8266524535373
 20
46.36732222067471
 30
0.0
  0
LINE
  5
21B
330
1F
100
AcDbEntity
  8
0
  6
Continuous
 62
     7
370
    25
100
AcDbLine
 10
221.507770225
 20
47.3378519171
 30
0.0
 11
219.8266542686
 21
46.3673643329
 31
0.0
  0
LINE
  5
21C
330
1F
100
AcDbEntity
  8
0
  6
Continuous
 62
     7
370
    25
100
AcDbLine
 10
217.8201666174
 20
47.4911856316
 30
0.0
 11
217.6198709639
 21
46.9900282173
 31
0.0
  0
SPLINE
  5
21D
330
1F
100
AcDbEntity
  8
0
  6
Continuous
 62
     7
370
    25
100
AcDbSpline
210
0.0
220
0.0
230
1.0
 70
     8
 71
     3
 72
     8
 73
     4
 74
     0
 42
0.000000001
 43
0.00000001
 40
0.0
 40
0.0
 40
0.0
 40
0.0
 40
1.0
 40
1.0
 40
1.0
 40
1.0
 10
217.8197234467379
 20
47.49196938373696
 30
0.0
 10
217.8458987813071
 20
47.51413676071523
 30
0.0
 10
217.8717198212726
 20
47.53676890180684
 30
0.0
 10
217.8971773749809
 20
47.55985362189813
 30
0.0
  0
LINE
  5
21E
330
1F
100
AcDbEntity
  8
0
  6
Continuous
 62
     7
370
    25
100
AcDbLine
 10
217.8971774707
 20
47.5598535063
 30
0.0
 11
219.67747023
 21
46.4140826212
 31
0.0
  0
LINE
  5
21F
330
1F
100
AcDbEntity
  8
0
  6
Continuous
 62
     7
370
    25
100
AcDbLine
 10
221.5075614664
 20
47.4359018523
 30
0.0
 11
221.4195621394
 21
47.5433929207
 31
0.0
  0
LINE
  5
220
330
1F
100
AcDbEntity
  8
0
  6
Continuous
 62
     7
370
    25
100
AcDbLine
 10
219.5911541428
 20
48.5377654236
 30
0.0
 11
217.8971774707
 21
47.5598535063
 31
0.0
  0
LINE
  5
221
330
1F
100
AcDbEntity
  8
0
  6
Continuous
 62
     7
370
    25
100
AcDbLine
 10
219.7338482253
 20
48.5164732619
 30
0.0
 11
219.5915742942
 21
48.5372780461
 31
0.0
  0
LINE
  5
222
330
1F
100
AcDbEntity
  8
0
  6
Continuous
 62
     7
370
    25
100
AcDbLine
 10
221.4196358964
 20
47.5432887542
 30
0.0
 11
219.7338482253
 21
48.5164732619
 31
0.0
  0
LINE
  5
223
330
1F
100
AcDbEntity
  8
0
  6
Continuous
 62
     7
370
    25
100
AcDbLine
 10
221.5075614664
 20
47.4925246714
 30
0.0
 11
221.4195891398
 21
47.5433157276
 31
0.0
  0
SPLINE
  5
224
330
1F
100
AcDbEntity
  8
0
  6
Continuous
 62
     7
370
    25
100
AcDbSpline
210
0.0
220
0.0
230
1.0
 70
     8
 71
     3
 72
    19
 73
    15
 74
     0
 42
0.000000001
 43
0.00000001
 40
0.0
 40
0.0
 40
0.0
 40
0.0
 40
0.0637853009096226
 40
0.1289628367612685
 40
0.1955871994238738
 40
0.2637095015333396
 40
0.333377557928126
 40
0.4046360709483682
 40
0.4775268158796784
 40
0.5520888236292854
 40
0.6283585584260098
 40
0.7063700889343436
 40
0.837704180588121
 40
1.0
 40
1.0
 40
1.0
 40
1.0
 10
217.0356543407765
 20
47.66045747108884
 30
0.0
 10
217.0563437097806
 20
47.64709833107916
 30
0.0
 10
217.0981740324335
 20
47.62008846253939
 30
0.0
 10
217.1586650060258
 20
47.58256649701394
 30
0.0
 10
217.2181492042035
 20
47.54704675592373
 30
0.0
 10
217.2762303636741
 20
47.51406662700715
 30
0.0
 10
217.3327624807611
 20
47.48386019073637
 30
0.0
 10
217.3875075355154
 20
47.45674675077415
 30
0.0
 10
217.4402299131088
 20
47.43301513302337
 30
0.0
 10
217.4906715460415
 20
47.41297487957793
 30
0.0
 10
217.5385544645092
 20
47.39685501803911
 30
0.0
 10
217.5935186188851
 20
47.38257704835656
 30
0.0
 10
217.6563499328481
 20
47.37243849110435
 30
0.0
 10
217.6948574485069
 20
47.37891274241876
 30
0.0
 10
217.7161414137021
 20
47.3824912059286
 30
0.0
  0
LINE
  5
225
330
1F
100
AcDbEntity
  8
0
  6
Continuous
 62
     7
370
    25
100
AcDbLine
 10
217.7407771013
 20
47.4085616602
 30
0.0
 11
217.8195811713
 21
47.4919532639
 31
0.0
  0
SPLINE
  5
226
330
1F
100
AcDbEntity
  8
0
  6
Continuous
 62
     7
370
    25
100
AcDbSpline
210
0.0
220
0.0
230
1.0
 70
     8
 71
     3
 72
     9
 73
     5
 74
     0
 42
0.000000001
 43
0.00000001
 40
0.0
 40
0.0
 40
0.0
 40
0.0
 40
0.5232016984460688
 40
1.0
 40
1.0
 40
1.0
 40
1.0
 10
219.4249763630909
 20
48.44183320282172
 30
0.0
 10
219.3559522004423
 20
48.46687536793822
 30
0.0
 10
219.2240257123333
 20
48.51473867799795
 30
0.0
 10
218.9825882995147
 20
48.65233680868462
 30
0.0
 10
218.8674713511512
 20
48.71794336369301
 30
0.0
  0
LINE
  5
227
330
1F
100
AcDbEntity
  8
0
  6
Continuous
 62
     7
370
    25
100
AcDbLine
 10
215.1379701541
 20
48.4838329263
 30
0.0
 11
215.5894412685
 21
48.5960968992
 31
0.0
  0
LINE
  5
228
330
1F
100
AcDbEntity
  8
0
  6
Continuous
 62
     7
370
    25
100
AcDbLine
 10
215.5894412685
 20
48.5960968992
 30
0.0
 11
217.0356537403
 21
47.6604575662
 31
0.0
  0
SPLINE
  5
229
330
1F
100
AcDbEntity
  8
0
  6
Continuous
 62
     7
370
    25
100
AcDbSpline
210
0.0
220
0.0
230
1.0
 70
     8
 71
     3
 72
     8
 73
     4
 74
     0
 42
0.000000001
 43
0.00000001
 40
0.0
 40
0.0
 40
0.0
 40
0.0
 40
1.0
 40
1.0
 40
1.0
 40
1.0
 10
215.3087587247933
 20
48.08908327330551
 30
0.0
 10
215.25163345587
 20
48.22086945709945
 30
0.0
 10
215.1947049641531
 20
48.35245367875853
 30
0.0
 10
215.1379708462044
 20
48.48383274565819
 30
0.0
  0
LINE
  5
22A
330
1F
100
AcDbEntity
  8
0
  6
Continuous
 62
     7
370
    25
100
AcDbLine
 10
216.9271427275
 20
49.3683355139
 30
0.0
 11
215.5894412685
 21
48.5960968992
 31
0.0
  0
LINE
  5
22B
330
1F
100
AcDbEntity
  8
0
  6
Continuous
 62
     7
370
    25
100
AcDbLine
 10
217.9101712124
 20
49.2705821111
 30
0.0
 11
216.9271427275
 21
49.3683355139
 31
0.0
  0
LINE
  5
22C
330
1F
100
AcDbEntity
  8
0
  6
Continuous
 62
     7
370
    25
100
AcDbLine
 10
218.8674713512
 20
48.7179433637
 30
0.0
 11
217.9101702246
 21
49.2705815408
 31
0.0
  0
SPLINE
  5
22D
330
1F
100
AcDbEntity
  8
0
  6
Continuous
 62
     7
370
    25
100
AcDbSpline
210
0.0
220
0.0
230
1.0
 70
     8
 71
     3
 72
     8
 73
     4
 74
     0
 42
0.000000001
 43
0.00000001
 40
0.0
 40
0.0
 40
0.0
 40
0.0
 40
1.0
 40
1.0
 40
1.0
 40
1.0
 10
215.1379708462044
 20
48.48383274565819
 30
0.0
 10
215.1348335084543
 20
48.51904905253071
 30
0.0
 10
215.1328411045563
 20
48.55469330875841
 30
0.0
 10
215.1320597071843
 20
48.59079021075328
 30
0.0
  0
LINE
  5
22E
330
1F
100
AcDbEntity
  8
0
  6
Continuous
 62
     7
370
    25
100
AcDbLine
 10
215.9431461823
 20
49.0590199254
 30
0.0
 11
215.1320603757
 21
48.5907900559
 31
0.0
  0
SPLINE
  5
22F
330
1F
100
AcDbEntity
  8
0
  6
Continuous
 62
     7
370
    25
100
AcDbSpline
210
0.0
220
0.0
230
1.0
 70
     8
 71
     3
 72
     8
 73
     4
 74
     0
 42
0.000000001
 43
0.00000001
 40
0.0000004089325119
 40
0.0000004089325119
 40
0.0000004089325119
 40
0.0000004089325119
 40
0.0015399868451459
 40
0.0015399868451459
 40
0.0015399868451459
 40
0.0015399868451459
 10
215.9431452396731
 20
49.05901992210941
 30
0.0
 10
216.1816218076963
 20
49.15339630792575
 30
0.0
 10
216.420068765365
 20
49.24782491985597
 30
0.0
 10
216.6584775042153
 20
49.34231830281843
 30
0.0
  0
LINE
  5
230
330
1F
100
AcDbEntity
  8
0
  6
Continuous
 62
     7
370
    25
100
AcDbLine
 10
216.6584769832
 20
49.3423184499
 30
0.0
 11
216.682873423
 21
49.3473124764
 31
0.0
  0
LINE
  5
231
330
1F
100
AcDbEntity
  8
0
  6
Continuous
 62
     7
370
    25
100
AcDbLine
 10
216.9271427275
 20
49.3683355139
 30
0.0
 11
216.6828740816
 21
49.3473124763
 31
0.0
  0
SPLINE
  5
232
330
1F
100
AcDbEntity
  8
0
  6
Continuous
 62
     7
370
    25
100
AcDbSpline
210
0.0
220
0.0
230
1.0
 70
     8
 71
     3
 72
     8
 73
     4
 74
     0
 42
0.000000001
 43
0.00000001
 40
0.0
 40
0.0
 40
0.0
 40
0.0
 40
1.0
 40
1.0
 40
1.0
 40
1.0
 10
217.9101694187233
 20
49.2705822954054
 30
0.0
 10
217.9407774528466
 20
49.25564228759927
 30
0.0
 10
217.9713289538185
 20
49.2407653302059
 30
0.0
 10
218.0018228919331
 20
49.22595176652497
 30
0.0
  0
LWPOLYLINE
  5
233
330
1F
100
AcDbEntity
  8
0
  6
Continuous
 62
     7
370
    25
100
AcDbPolyline
 90
        3
 70
   128
 43
0.0
 10
221.549942551
 20
48.7590322248
 10
221.0754128711
 20
48.561069919
 10
220.3385582015
 20
48.3350275871
  0
LWPOLYLINE
  5
234
330
1F
100
AcDbEntity
  8
0
  6
Continuous
 62
     7
370
    18
100
AcDbPolyline
 90
       27
 70
   128
 43
0.0
 10
254.2782837632
 20
29.5077916445
 10
253.8951162267
 20
29.3062598747
 10
253.5271590927
 20
29.2188269101
 10
253.1957959599
 20
29.250573488
 10
252.9202846453
 20
29.3996546295
 10
252.7166370002
 20
29.657406447
 10
252.5966877279
 20
30.0088489685
 10
252.5674088391
 20
30.4335582514
 10
252.6305006957
 20
30.9068510197
 10
252.7822978389
 20
31.4012218766
 10
253.0139770896
 20
31.8879391639
 10
253.3120751636
 20
32.3387171114
 10
253.6592670722
 20
32.7273577824
 10
254.0353756702
 20
33.031275136
 10
254.4185432067
 20
33.2328069057
 10
254.7865003407
 20
33.3202398703
 10
255.1178634735
 20
33.2884932924
 10
255.3933747881
 20
33.1394121509
 10
255.5970224332
 20
32.8816603334
 10
255.7169713762
 20
32.5302176219
 10
255.7462509236
 20
32.1055087191
 10
255.6831587377
 20
31.6322157607
 10
255.5313619237
 20
31.1378450938
 10
255.2996823438
 20
30.6511276165
 10
255.0015842698
 20
30.200349669
 10
254.6543923612
 20
29.811708998
 10
254.2782837632
 20
29.5077916445
  0
LWPOLYLINE
  5
235
330
1F
100
AcDbEntity
  8
0
  6
Continuous
 62
     7
370
    18
100
AcDbPolyline
 90
       16
 70
   128
 43
0.0
 10
252.7301542848
 20
29.2064625189
 10
252.6861292673
 20
29.2337345678
 10
252.4505494576
 20
29.4650949028
 10
252.2916650583
 20
29.792054434
 10
252.2174444581
 20
30.1982187825
 10
252.2316077748
 20
30.6632202404
 10
252.3334450976
 20
31.1637418226
 10
252.5178507307
 20
31.6746858571
 10
252.7755773922
 20
32.1704311971
 10
253.0937011462
 20
32.6261188102
 10
253.4562700691
 20
33.0188986637
 10
253.8451037226
 20
33.3290755241
 10
254.2407045794
 20
33.5410957622
 10
254.6232353034
 20
33.6443274968
 10
254.9735141394
 20
33.633594536
 10
255.2226981616
 20
33.5408454424
  0
LWPOLYLINE
  5
236
330
1F
100
AcDbEntity
  8
0
  6
Continuous
 62
     7
370
    18
100
AcDbPolyline
 90
       18
 70
   128
 43
0.0
 10
265.1164713105
 20
38.4369190074
 10
265.1566662331
 20
38.5447926954
 10
265.388345813
 20
39.0315101727
 10
265.6864438871
 20
39.4822881203
 10
266.0336357957
 20
39.8709287913
 10
266.4097443936
 20
40.1748461448
 10
266.7929119302
 20
40.3763779146
 10
267.1608690642
 20
40.4638108792
 10
267.492232197
 20
40.4320643013
 10
267.7677435115
 20
40.2829831597
 10
267.9713911566
 20
40.0252313423
 10
268.0913404289
 20
39.6737888208
 10
268.1206193178
 20
39.2490795379
 10
268.0575274612
 20
38.7757867696
 10
267.9057303179
 20
38.2814159126
 10
267.6740510673
 20
37.7946986254
 10
267.3759529932
 20
37.3439206778
 10
267.2592997362
 20
37.1998901612
  0
LWPOLYLINE
  5
237
330
1F
100
AcDbEntity
  8
0
  6
Continuous
 62
     7
370
    18
100
AcDbPolyline
 90
       10
 70
   128
 43
0.0
 10
264.8090884174
 20
38.6143670747
 10
264.8922194541
 20
38.818256866
 10
265.1499457864
 20
39.3140020159
 10
265.4680695404
 20
39.769689629
 10
265.8306387926
 20
40.1624696726
 10
266.219472446
 20
40.472646533
 10
266.6150733029
 20
40.6846667711
 10
266.9976040268
 20
40.7878985057
 10
267.3478825336
 20
40.7771653548
 10
267.5970665558
 20
40.6844162612
  0
LWPOLYLINE
  5
238
330
1F
100
AcDbEntity
  8
0
  6
Continuous
 62
     7
370
    18
100
AcDbPolyline
 90
       33
 70
   128
 43
0.0
 10
271.9759206258
 20
30.7796885949
 10
271.9317632409
 20
31.2719195026
 10
271.80098832
 20
31.6942513706
 10
271.588621381
 20
32.0304542611
 10
271.3028236013
 20
32.2676080468
 10
270.9545778568
 20
32.3965987851
 10
270.5572671715
 20
32.4124697114
 10
270.1261600232
 20
32.3146109038
 10
269.6778235395
 20
32.1067830792
 10
269.2294870559
 20
31.796972618
 10
268.7983799075
 20
31.397085707
 10
268.4010692222
 20
30.9224896277
 10
268.0528234778
 20
30.3914229112
 10
267.767025698
 20
29.8242940328
 10
267.554658759
 20
29.2428974936
 10
267.4238838381
 20
28.6695761158
 10
267.3797264532
 20
28.1263621767
 10
267.4238838381
 20
27.634131269
 10
267.554658759
 20
27.211799401
 10
267.767025698
 20
26.8755965105
 10
268.0528234778
 20
26.6384427248
 10
268.4010692222
 20
26.5094519865
 10
268.7983799075
 20
26.4935810602
 10
269.2294870559
 20
26.5914398678
 10
269.6778235395
 20
26.7992676924
 10
270.1261600232
 20
27.1090781536
 10
270.5572671715
 20
27.5089650646
 10
270.9545778568
 20
27.9835611439
 10
271.3028236013
 20
28.5146278604
 10
271.588621381
 20
29.0817567388
 10
271.80098832
 20
29.663153278
 10
271.9317632409
 20
30.2364746558
 10
271.9759206258
 20
30.7796885949
  0
LWPOLYLINE
  5
239
330
1F
100
AcDbEntity
  8
0
  6
Continuous
 62
     7
370
    18
100
AcDbPolyline
 90
       19
 70
   128
 43
0.0
 10
267.1274219179
 20
26.3069026237
 10
266.8592494233
 20
26.5183988289
 10
266.5991702762
 20
26.8709258251
 10
266.4209962851
 20
27.3162835863
 10
266.3304543178
 20
27.8401579288
 10
266.3304543178
 20
28.4257111706
 10
266.4209962851
 20
29.0541230433
 10
266.5991702762
 20
29.7051961159
 10
266.8592494233
 20
30.3580041037
 10
267.1928746565
 20
30.9915651942
 10
267.5893230602
 20
31.585516433
 10
268.0358523742
 20
32.1207677374
 10
268.5181107736
 20
32.5801154566
 10
269.0205981065
 20
32.9487959033
 10
269.5271640319
 20
33.2149596166
 10
270.0215270555
 20
33.3700514136
 10
270.4877979699
 20
33.4090867092
 10
270.9109904422
 20
33.3308111003
 10
271.167121615
 20
33.2117205363
  0
LWPOLYLINE
  5
23A
330
1F
100
AcDbEntity
  8
0
  6
Continuous
 62
     7
370
    18
100
AcDbPolyline
 90
       31
 70
   128
 43
0.0
 10
250.1616772628
 20
31.2491228419
 10
250.2051510785
 20
32.2481271707
 10
250.335112203
 20
33.2867358961
 10
250.5501823026
 20
34.3539392608
 10
250.8480828133
 20
35.4384249276
 10
251.2256546971
 20
36.5286967052
 10
251.6788959791
 20
37.6131978342
 10
252.2030019185
 20
38.6804317074
 10
252.7924176924
 20
39.71908658
 10
253.4408950305
 20
40.7181511557
 10
254.1415593866
 20
41.6670354929
 10
254.8869840252
 20
42.555681836
 10
255.6692670706
 20
43.3746691714
 10
256.4801161304
 20
44.115316833
 10
257.3109362109
 20
44.7697740379
 10
258.1529201438
 20
45.3311025075
 10
258.9971427987
 20
45.7933521483
 10
259.8346552555
 20
46.1516237809
 10
260.6565795522
 20
46.4021192749
 10
261.4542032272
 20
46.5421824379
 10
262.2190710631
 20
46.570329925
 10
262.9430755537
 20
46.4862623991
 10
263.6185420214
 20
46.290871843
 10
264.2383104409
 20
45.9862287184
 10
264.7958105138
 20
45.5755625671
 10
265.2851327908
 20
45.0632262631
 10
265.701091234
 20
44.4546515187
 10
266.0392755709
 20
43.7562882338
 10
266.2961013435
 20
42.975540231
 10
266.468846129
 20
42.120683123
 10
266.5512932673
 20
41.288177268
  0
LWPOLYLINE
  5
23B
330
1F
100
AcDbEntity
  8
0
  6
Continuous
 62
     7
370
    18
100
AcDbPolyline
 90
       20
 70
   128
 43
0.0
 10
260.7213676548
 20
28.2727960263
 10
260.6565795522
 20
28.2132826713
 10
259.8346552555
 20
27.5148045718
 10
258.9971427987
 20
26.9061049044
 10
258.1529201438
 20
26.3936358153
 10
257.3109362109
 20
25.9828303285
 10
256.4801161304
 20
25.6780430865
 10
255.6692670706
 20
25.4825043509
 10
254.8869840252
 20
25.3982869074
 10
254.1415593866
 20
25.4262842822
 10
253.4408950305
 20
25.5661987732
 10
252.7924176924
 20
25.8165473512
 10
252.2030019185
 20
26.1746772567
 10
251.6788959791
 20
26.6367912925
 10
251.2256546971
 20
27.1979911761
 10
250.8480828133
 20
27.8523277358
 10
250.5501823026
 20
28.5928647941
 10
250.335112203
 20
29.4117535073
 10
250.2051510785
 20
30.3003123123
 10
250.1616772628
 20
31.2491228419
  0
LWPOLYLINE
  5
23C
330
1F
100
AcDbEntity
  8
0
  6
Continuous
 62
     7
370
    18
100
AcDbPolyline
 90
       23
 70
   128
 43
0.0
 10
249.5959908232
 20
31.2491232221
 10
249.6395258835
 20
32.2655522214
 10
249.7696852299
 20
33.3218164051
 10
249.9851320169
 20
34.4070761653
 10
250.2836568278
 20
35.5101961563
 10
250.662195455
 20
36.6198562248
 10
251.1168638029
 20
37.7246703244
 10
251.6429960838
 20
38.8133011518
 10
252.2351942082
 20
39.8745776332
 10
252.8873807983
 20
40.8976103203
 10
253.5928637246
 20
41.8719008904
 10
254.3444039367
 20
42.7874520268
 10
255.1342895492
 20
43.6348695047
 10
255.9544150316
 20
44.4054573358
 10
256.7963650082
 20
45.0913072106
 10
257.6514998279
 20
45.6853828776
 10
258.5110447144
 20
46.1815875786
 10
259.3661795341
 20
46.5748295588
 10
260.2081295107
 20
46.8610744354
 10
261.0282549931
 20
47.0373833309
 10
261.8181406056
 20
47.1019483691
 10
262.5696808177
 20
47.0541070919
 10
262.6234727088
 20
47.0461190852
  0
ARC
  5
23D
330
1F
100
AcDbEntity
  8
0
  6
Continuous
 62
     7
370
    18
100
AcDbCircle
 10
256.6494798679
 20
30.8854070453
 30
0.0
 40
7.062860409361972
100
AcDbArc
 50
177.0481331239
 51
215.5800478197
  0
LWPOLYLINE
  5
23E
330
1F
100
AcDbEntity
  8
0
  6
Continuous
 62
     7
370
    18
100
AcDbPolyline
 90
        9
 70
   128
 43
0.0
 10
235.029591509
 20
39.6581265555
 10
235.0731265693
 20
38.6919620669
 10
235.2032859157
 20
37.7859766658
 10
235.4187327027
 20
36.9494664711
 10
235.7172575137
 20
36.1910158903
 10
236.0957961408
 20
35.5184072178
 10
236.5504644888
 20
34.9385420189
 10
237.0765967696
 20
34.4573705929
 10
237.5153606091
 20
34.1639888469
  0
LWPOLYLINE
  5
23F
330
1F
100
AcDbEntity
  8
0
  6
Continuous
 62
     7
370
    18
100
AcDbPolyline
 90
       25
 70
   128
 43
0.0
 10
249.4729832701
 20
54.9727349826
 10
249.3609510199
 20
55.0333190259
 10
248.7087644299
 20
55.3033531042
 10
248.0032815035
 20
55.4631104253
 10
247.2517412914
 20
55.5109517025
 10
246.4618556789
 20
55.4463866643
 10
245.6417301966
 20
55.2700777688
 10
244.7997802199
 20
54.9838328922
 10
243.9446454002
 20
54.590590912
 10
243.0851005137
 20
54.094386211
 10
242.229965694
 20
53.500310544
 10
241.3880157174
 20
52.8144606692
 10
240.567890235
 20
52.0438728381
 10
239.7780046225
 20
51.1964553602
 10
239.0264644104
 20
50.2809042238
 10
238.3209814841
 20
49.3066136537
 10
237.6687948941
 20
48.2835809666
 10
237.0765967696
 20
47.2223044852
 10
236.5504644888
 20
46.1336736578
 10
236.0957961408
 20
45.0288595582
 10
235.7172575137
 20
43.9191994897
 10
235.4187327027
 20
42.8160794987
 10
235.2032859157
 20
41.7308197385
 10
235.0731265693
 20
40.6745555549
 10
235.029591509
 20
39.6581265555
  0
LWPOLYLINE
  5
240
330
1F
100
AcDbEntity
  8
0
  6
Continuous
 62
     7
370
    18
100
AcDbPolyline
 90
       21
 70
   128
 43
0.0
 10
261.4753859699
 20
30.0245102834
 10
261.5197850406
 20
30.7015904787
 10
261.6518884104
 20
31.4132603692
 10
261.8684431985
 20
32.1419963907
 10
262.1641174996
 20
32.8698548285
 10
262.5316306099
 20
33.5789133011
 10
262.961933305
 20
34.2517123346
 10
263.4444299328
 20
34.8716854785
 10
263.9672398566
 20
35.4235666998
 10
264.5174897249
 20
35.8937672828
 10
265.0816306841
 20
36.2707093345
 10
265.6457716432
 20
36.54511057
 10
266.1960215115
 20
36.710214962
 10
266.7188314353
 20
36.7619572303
 10
267.2013280631
 20
36.6990628351
 10
267.6316307582
 20
36.5230807183
 10
267.9991438686
 20
36.238343851
 10
268.2948181696
 20
35.8518636947
 10
268.5113729577
 20
35.3731565096
 10
268.6434763275
 20
34.8140099233
 10
268.6635260443
 20
34.6572440828
  0
LWPOLYLINE
  5
241
330
1F
100
AcDbEntity
  8
0
  6
Continuous
 62
     7
370
    18
100
AcDbPolyline
 90
       11
 70
   128
 43
0.0
 10
264.6638509537
 20
27.7288530555
 10
264.5174897249
 20
27.6675915173
 10
263.9672398566
 20
27.5024871253
 10
263.4444299328
 20
27.4507448569
 10
262.961933305
 20
27.5136392521
 10
262.5316306099
 20
27.6896213689
 10
262.1641174996
 20
27.9743582362
 10
261.8684431985
 20
28.3608383925
 10
261.6518884104
 20
28.8395455776
 10
261.5197850406
 20
29.3986921639
 10
261.4753859699
 20
30.0245102834
  0
LWPOLYLINE
  5
242
330
1F
100
AcDbEntity
  8
0
  6
Continuous
 62
     7
370
    18
100
AcDbPolyline
 90
       17
 70
   128
 43
0.0
 10
260.9097011766
 20
30.0245100933
 10
260.9531391016
 20
30.7189312617
 10
261.0824825113
 20
31.4479925795
 10
261.2948417125
 20
32.1954078645
 10
261.5854738675
 20
32.9444814087
 10
261.9478857275
 20
33.6784796455
 10
262.3739821341
 20
34.3810068038
 10
262.8542448143
 20
35.0363693436
 10
263.3779452549
 20
35.6299273649
 10
263.9333851536
 20
36.1484222015
 10
264.5081565852
 20
36.5802711004
 10
265.0894203189
 20
36.9158275114
 10
265.6641917505
 20
37.1475955819
 10
266.2196316492
 20
37.2703980018
 10
266.7433320898
 20
37.281491639
 10
267.22359477
 20
37.1806285869
 10
267.5485649174
 20
37.0329010862
  0
ARC
  5
243
330
1F
100
AcDbEntity
  8
0
  6
Continuous
 62
     7
370
    18
100
AcDbCircle
 10
263.6147672744
 20
29.7315826588
 30
0.0
 40
2.720880202273397
100
AcDbArc
 50
173.8196112299
 51
234.8682100174
  0
LWPOLYLINE
  5
244
330
1F
100
AcDbEntity
  8
0
  6
Continuous
 62
     7
370
    18
100
AcDbPolyline
 90
       12
 70
   128
 43
0.0
 10
262.9426326826
 20
30.8715337812
 10
262.9864181544
 20
31.3940251889
 10
263.1159816827
 20
31.9456791439
 10
263.3260193498
 20
32.5039112514
 10
263.6079318816
 20
33.0458670815
 10
263.9501777093
 20
33.5493588833
 10
264.3387454754
 20
33.993774104
 10
264.7577269672
 20
34.3609176426
 10
265.1899691582
 20
34.6357592764
 10
265.6177759695
 20
34.8070463852
 10
266.0236329162
 20
34.8677667684
 10
266.2914236196
 20
34.8417574793
  0
ARC
  5
245
330
1F
100
AcDbEntity
  8
0
  6
Continuous
 62
     7
370
    18
100
AcDbCircle
 10
264.6781163018
 20
30.7729968071
 30
0.0
 40
1.738278725634662
100
AcDbArc
 50
176.7503596051
 51
218.5051404473
  0
LWPOLYLINE
  5
246
330
1F
100
AcDbEntity
  8
0
  6
Continuous
 62
     7
370
    18
100
AcDbPolyline
 90
       19
 70
   128
 43
0.0
 10
254.3003331504
 20
34.0733636151
 10
254.3332251437
 20
34.4262025012
 10
254.466490186
 20
35.1773679686
 10
254.6852879768
 20
35.9474438732
 10
254.9847314573
 20
36.719228005
 10
255.3581311324
 20
37.4754801572
 10
255.7971463713
 20
38.1993067639
 10
256.2919697998
 20
38.874539023
 10
256.8315480778
 20
39.4860928592
 10
257.4038280297
 20
40.0203074027
 10
257.9960257425
 20
40.465249386
 10
258.5949125389
 20
40.8109793744
 10
259.1871102518
 20
41.0497743167
 10
259.7593902036
 20
41.1763001414
 10
260.2989684816
 20
41.1877301243
 10
260.7937919102
 20
41.0838088352
 10
261.2328071491
 20
40.8668584341
 10
261.6062068242
 20
40.5417243702
 10
261.7561198716
 20
40.3541985956
  0
LWPOLYLINE
  5
247
330
1F
100
AcDbEntity
  8
0
  6
Continuous
 62
     7
370
    18
100
AcDbPolyline
 90
        3
 70
   128
 43
0.0
 10
256.2761466217
 20
30.8615778143
 10
255.7971463713
 20
30.9640285944
 10
255.5446994257
 20
31.0713677599
  0
LWPOLYLINE
  5
248
330
1F
100
AcDbEntity
  8
0
  6
Continuous
 62
     7
370
    18
100
AcDbPolyline
 90
       16
 70
   128
 43
0.0
 10
255.0415338845
 20
33.6454779058
 10
255.0619118858
 20
34.0220918303
 10
255.1678967218
 20
34.742890867
 10
255.3603280368
 20
35.4869818522
 10
255.634642776
 20
36.2367189105
 10
255.9843355074
 20
36.9743223644
 10
256.40111318
 20
37.6822996841
 10
256.8750920285
 20
38.3438613466
 10
257.3950318507
 20
38.9433192017
 10
257.9486022238
 20
39.4664561268
 10
258.5226753307
 20
39.9008669363
 10
259.1036371629
 20
40.2362490632
 10
259.6777102698
 20
40.4646489546
 10
260.2312806429
 20
40.5806507779
 10
260.7512204651
 20
40.5815026636
 10
260.9267166496
 20
40.5537456506
  0
LWPOLYLINE
  5
249
330
1F
100
AcDbEntity
  8
0
  6
Continuous
 62
     7
370
    18
100
AcDbPolyline
 90
       17
 70
   128
 43
0.0
 10
254.7409919518
 20
33.8189767999
 10
254.7843215462
 20
34.4181684901
 10
254.9156718703
 20
35.1421694045
 10
255.1311657433
 20
35.8839954684
 10
255.4257517995
 20
36.6262585063
 10
255.7925255291
 20
37.3515608208
 10
256.2228899627
 20
38.04290212
 10
256.7067576802
 20
38.684077221
 10
257.2327872281
 20
39.2600583498
 10
257.7886490068
 20
39.7573448349
 10
258.3613139809
 20
40.1642801572
 10
258.9373594285
 20
40.4713265555
 10
259.5032833146
 20
40.6712871945
 10
260.0458208447
 20
40.7594748396
 10
260.5522555654
 20
40.7338226287
 10
261.0107168004
 20
40.5949318237
 10
261.1678204953
 20
40.5143593469
  0
LWPOLYLINE
  5
24A
330
1F
100
AcDbEntity
  8
0
  6
Continuous
 62
     7
370
    18
100
AcDbPolyline
 90
        3
 70
   128
 43
0.0
 10
255.8432533772
 20
31.2909389686
 10
255.7925255291
 20
31.3213611985
 10
255.6539901551
 20
31.4169676151
  0
LINE
  5
24B
330
1F
100
AcDbEntity
  8
0
  6
Continuous
 62
     7
370
    18
100
AcDbLine
 10
255.778818913
 20
31.3781081233
 30
0.0
 11
255.6785601214
 21
31.4772085072
 31
0.0
  0
LWPOLYLINE
  5
24C
330
1F
100
AcDbEntity
  8
0
  6
Continuous
 62
     7
370
    18
100
AcDbPolyline
 90
       17
 70
   128
 43
0.0
 10
254.9937097238
 20
33.6730859355
 10
254.9980854228
 20
33.8139262704
 10
255.0711927535
 20
34.5102686022
 10
255.229140044
 20
35.2352930755
 10
255.4682924577
 20
35.9723164023
 10
255.7831471967
 20
36.7043795409
 10
256.1664596131
 20
37.4146381574
 10
256.6094093261
 20
38.0867485457
 10
257.1018042072
 20
38.7052460332
 10
257.6323140803
 20
39.2558981467
 10
258.1887320411
 20
39.7260347474
 10
258.7582547083
 20
40.1048379548
 10
259.3277773755
 20
40.3835916224
 10
259.8841953362
 20
40.5558815248
 10
260.4147052094
 20
40.6177430731
 10
260.9071000904
 20
40.5677526143
 10
261.0601114251
 20
40.5265667008
  0
LWPOLYLINE
  5
24D
330
1F
100
AcDbEntity
  8
0
  6
Continuous
 62
     7
370
    18
100
AcDbPolyline
 90
       31
 70
   128
 43
0.0
 10
232.9082708177
 20
39.6581265555
 10
232.9514957036
 20
40.7309111124
 10
233.0807785272
 20
41.8438866132
 10
233.294949055
 20
42.9869739926
 10
233.5920665563
 20
44.1498204908
 10
233.9694415353
 20
45.3218960406
 10
234.4236554876
 20
46.4925860413
 10
234.9505958025
 20
47.6512885052
 10
235.5454900082
 20
48.7875091121
 10
236.2029505519
 20
49.8909596847
 10
236.9170235328
 20
50.9516463982
 10
237.6812417145
 20
51.9599627417
 10
238.4886851114
 20
52.9067784864
 10
239.3320409159
 20
53.7835183885
 10
240.2036716582
 20
54.5822433617
 10
241.0956834474
 20
55.29571877
 10
241.9999984122
 20
55.9174843836
 10
242.9084268105
 20
56.4419089352
 10
243.8127417752
 20
56.8642431556
 10
244.7047535645
 20
57.1806626373
 10
245.5763843068
 20
57.3883010981
 10
246.4197401113
 20
57.4852790817
 10
247.2271835082
 20
57.4707176394
 10
247.9914016899
 20
57.3447488273
 10
248.7054746708
 20
57.1085132286
 10
249.3629352145
 20
56.7641504421
 10
249.9578294202
 20
56.3147800651
 10
250.4847697351
 20
55.7644699388
 10
250.9389836873
 20
55.1182042046
 10
251.3163586664
 20
54.3818365314
 10
251.5463052864
 20
53.7761591141
  0
LWPOLYLINE
  5
24E
330
1F
100
AcDbEntity
  8
0
  6
Continuous
 62
     7
370
    18
100
AcDbPolyline
 90
       15
 70
   128
 43
0.0
 10
239.5472805907
 20
32.9909862698
 10
239.3320409159
 20
32.9494618084
 10
238.4886851114
 20
32.8524838247
 10
237.6812417145
 20
32.867045267
 10
236.9170235328
 20
32.9930140791
 10
236.2029505519
 20
33.2292496779
 10
235.5454900082
 20
33.5736124644
 10
234.9505958025
 20
34.0229828414
 10
234.4236554876
 20
34.5732929677
 10
233.9694415353
 20
35.2195587018
 10
233.5920665563
 20
35.9559263751
 10
233.294949055
 20
36.7757283082
 10
233.0807785272
 20
37.6715396596
 10
232.9514957036
 20
38.6352483895
 10
232.9082708177
 20
39.6581265555
  0
LWPOLYLINE
  5
24F
330
1F
100
AcDbEntity
  8
0
  6
Continuous
 62
     7
370
    18
100
AcDbPolyline
 90
       28
 70
   128
 43
0.0
 10
225.0328695325
 20
42.3777860468
 10
225.0764151296
 20
43.5386362639
 10
225.2067134288
 20
44.7406790794
 10
225.4227430278
 20
45.9745062375
 10
225.7228141012
 20
47.2304620141
 10
226.1045776208
 20
48.4987159357
 10
226.5650457702
 20
49.7693423409
 10
227.1006149939
 20
51.0323981352
 10
227.7070943145
 20
52.2779965535
 10
228.3797356262
 20
53.4963896677
 10
229.1132764999
 20
54.6780421471
 10
229.9019744273
 20
55.8137057808
 10
230.7396578587
 20
56.8944930477
 10
231.6197699957
 20
57.9119442234
 10
232.5354234505
 20
58.8580969571
 10
233.4794516125
 20
59.7255471039
 10
234.4444661063
 20
60.5075039482
 10
235.4229144964
 20
61.1978486112
 10
236.4071391656
 20
61.7911779265
 10
237.3894371394
 20
62.2828496226
 10
238.3621207132
 20
62.6690135199
 10
239.317577092
 20
62.9466490018
 10
240.2483289967
 20
63.1135825114
 10
241.1470914434
 20
63.1685074017
 10
242.0068305182
 20
63.1109942908
 10
242.8208178718
 20
62.9414928633
 10
243.5826834033
 20
62.6613303447
 10
244.0290731882
 20
62.4313415906
  0
LWPOLYLINE
  5
250
330
1F
100
AcDbEntity
  8
0
  6
Continuous
 62
     7
370
    18
100
AcDbPolyline
 90
       10
 70
   128
 43
0.0
 10
228.2928518737
 20
35.1724531968
 10
227.7070943145
 20
35.5651697521
 10
227.1006149939
 20
36.1105420515
 10
226.5650457702
 20
36.7552427823
 10
226.1045776208
 20
37.4942239785
 10
225.7228141012
 20
38.3217031225
 10
225.4227430278
 20
39.2312042122
 10
225.2067134288
 20
40.2156089044
 10
225.0764151296
 20
41.2672125059
 10
225.0328695325
 20
42.3777860468
  0
LWPOLYLINE
  5
251
330
1F
100
AcDbEntity
  8
0
  6
Continuous
 62
     7
370
    18
100
AcDbPolyline
 90
       13
 70
   128
 43
0.0
 10
229.656950971
 20
39.042149419
 10
229.5246355499
 20
39.8343817512
 10
229.4417564065
 20
40.8874446516
 10
229.4518136982
 20
41.9982497143
 10
229.5547139118
 20
43.1563058396
 10
229.7494843769
 20
44.3506740027
 10
230.0342857788
 20
45.5700730993
 10
230.4064279632
 20
46.8029854108
 10
230.8623956195
 20
48.0377651583
 10
231.3978818665
 20
49.2627487659
 10
232.0078290825
 20
50.4663670259
 10
232.6864756616
 20
51.6372492772
 10
233.4274119901
 20
52.7643378502
  0
LWPOLYLINE
  5
252
330
1F
100
AcDbEntity
  8
0
  6
Continuous
 62
     7
370
    18
100
AcDbPolyline
 90
       17
 70
   128
 43
0.0
 10
230.1687467379
 20
36.1122217181
 10
229.8121633261
 20
36.6570519334
 10
229.4162845635
 20
37.4591664017
 10
229.107556264
 20
38.3505797433
 10
228.8888075347
 20
39.3231233707
 10
228.7620429853
 20
40.3678864669
 10
228.7284236296
 20
41.475295432
 10
228.7882583251
 20
42.635203737
 10
228.9409985041
 20
43.8369830376
 10
229.185244101
 20
45.069621226
 10
229.5187580402
 20
46.321824022
 10
229.938483358
 20
47.5821172781
 10
230.440574813
 20
48.8389537261
 10
231.0204311548
 20
50.0808158268
 10
231.6727399049
 20
51.2963252724
 10
232.3915241132
 20
52.4743448842
 10
233.1701970176
 20
53.6040797492
  0
LINE
  5
253
330
1F
100
AcDbEntity
  8
0
  6
Continuous
 62
     7
370
    18
100
AcDbLine
 10
236.1621204631
 20
55.0051003167
 30
0.0
 11
236.2041543713
 21
55.0491509383
 31
0.0
  0
ARC
  5
254
330
1F
100
AcDbEntity
  8
0
  6
Continuous
 62
     7
370
    18
100
AcDbCircle
 10
246.2533256228
 20
45.8212076488
 30
0.0
 40
14.35349360837151
100
AcDbArc
 50
109.931969941
 51
139.4246766989
  0
LWPOLYLINE
  5
255
330
1F
100
AcDbEntity
  8
0
  6
Continuous
 62
     7
370
    18
100
AcDbPolyline
 90
       12
 70
   128
 43
0.0
 10
234.5143900791
 20
55.2762432665
 10
235.3824725836
 20
56.2026153107
 10
236.2808524159
 20
57.052088976
 10
237.201851935
 20
57.8174023721
 10
238.1375998053
 20
58.4920167794
 10
239.0800985595
 20
59.0701655385
 10
240.0212933543
 20
59.5469074301
 10
240.9531402539
 20
59.9181683755
 10
241.8676753355
 20
60.1807752469
 10
242.7570824989
 20
60.3324843667
 10
243.6137603296
 20
60.3719980528
 10
244.1533535894
 20
60.3368963556
  0
LINE
  5
256
330
1F
100
AcDbEntity
  8
0
  6
Continuous
 62
     7
370
    18
100
AcDbLine
 10
220.5465053191
 20
52.7503936455
 30
0.0
 11
220.8526692463
 21
52.3796585896
 31
0.0
  0
LINE
  5
257
330
1F
100
AcDbEntity
  8
0
  6
Continuous
 62
     7
370
    18
100
AcDbLine
 10
220.5465053191
 20
44.9862834978
 30
0.0
 11
220.8526692463
 21
45.6738169664
 31
0.0
  0
LINE
  5
258
330
1F
100
AcDbEntity
  8
0
  6
Continuous
 62
     7
370
    18
100
AcDbLine
 10
221.588579563
 20
46.0986489494
 30
0.0
 11
220.8526764903
 21
45.6738211482
 31
0.0
  0
LINE
  5
259
330
1F
100
AcDbEntity
  8
0
  6
Continuous
 62
     7
370
    18
100
AcDbLine
 10
221.522004006
 20
46.8418749172
 30
0.0
 11
220.2127325719
 21
46.0860486065
 31
0.0
  0
LINE
  5
25A
330
1F
100
AcDbEntity
  8
0
  6
Continuous
 62
     7
370
    18
100
AcDbLine
 10
217.0356537403
 20
47.6604575662
 30
0.0
 11
216.7391664661
 21
47.1643959483
 31
0.0
  0
LINE
  5
25B
330
1F
100
AcDbEntity
  8
0
  6
Continuous
 62
     7
370
    18
100
AcDbLine
 10
218.8674713512
 20
48.7179433637
 30
0.0
 11
217.0357143264
 21
47.6604925418
 31
0.0
  0
LINE
  5
25C
330
1F
100
AcDbEntity
  8
0
  6
Continuous
 62
     7
370
    18
100
AcDbLine
 10
218.8674713512
 20
48.7179433637
 30
0.0
 11
218.9887815057
 21
48.6561928504
 31
0.0
  0
OLE2FRAME
  5
25D
330
1F
100
AcDbEntity
  8
0
100
AcDbOle2Frame
 70
     2
  3
Paintbrush-Bild
 10
13.8511154363
 20
38.264191557
 30
0.0
 11
51.6290888628
 21
31.9806341108
 31
0.0
 71
     2
 72
     0
 73
     1
 90
    12928
310
80552BED0767C5B32B40DDAF6807D121434000000000000000006FFBDDFB85D0
310
4940DDAF6807D121434000000000000000006FFBDDFB85D04940416F4BD60AFB
310
3F4000000000000000002BED0767C5B32B40416F4BD60AFB3F40000000000000
310
0000000000000100000000010000010000000100000000000100000000320000
310
D0CF11E0A1B11AE1000000000000000000000000000000003E000300FEFF0900
310
0600000000000000000000000100000001000000000000000010000002000000
310
01000000FEFFFFFF0000000000000000FFFFFFFFFFFFFFFFFFFFFFFFFFFFFFFF
310
FFFFFFFFFFFFFFFFFFFFFFFFFFFFFFFFFFFFFFFFFFFFFFFFFFFFFFFFFFFFFFFF
310
FFFFFFFFFFFFFFFFFFFFFFFFFFFFFFFFFFFFFFFFFFFFFFFFFFFFFFFFFFFFFFFF
310
FFFFFFFFFFFFFFFFFFFFFFFFFFFFFFFFFFFFFFFFFFFFFFFFFFFFFFFFFFFFFFFF
310
FFFFFFFFFFFFFFFFFFFFFFFFFFFFFFFFFFFFFFFFFFFFFFFFFFFFFFFFFFFFFFFF
310
FFFFFFFFFFFFFFFFFFFFFFFFFFFFFFFFFFFFFFFFFFFFFFFFFFFFFFFFFFFFFFFF
310
FFFFFFFFFFFFFFFFFFFFFFFFFFFFFFFFFFFFFFFFFFFFFFFFFFFFFFFFFFFFFFFF
310
FFFFFFFFFFFFFFFFFFFFFFFFFFFFFFFFFFFFFFFFFFFFFFFFFFFFFFFFFFFFFFFF
310
FFFFFFFFFFFFFFFFFFFFFFFFFFFFFFFFFFFFFFFFFFFFFFFFFFFFFFFFFFFFFFFF
310
FFFFFFFFFFFFFFFFFFFFFFFFFFFFFFFFFFFFFFFFFFFFFFFFFFFFFFFFFFFFFFFF
310
FFFFFFFFFFFFFFFFFFFFFFFFFFFFFFFFFFFFFFFFFFFFFFFFFFFFFFFFFFFFFFFF
310
FFFFFFFFFFFFFFFFFFFFFFFFFFFFFFFFFFFFFFFFFFFFFFFFFFFFFFFFFFFFFFFF
310
FFFFFFFFFFFFFFFFFFFFFFFFFFFFFFFFFFFFFFFFFFFFFFFFFFFFFFFFFFFFFFFF
310
FFFFFFFFFFFFFFFFFFFFFFFFFFFFFFFFFFFFFFFFFFFFFFFFFFFFFFFFFFFFFFFF
310
FDFFFFFFFEFFFFFFFEFFFFFFFEFFFFFF05000000060000000700000008000000
310
090000000A0000000B0000000C0000000D0000000E0000000F00000010000000
310
11000000120000001300000014000000150000001600000017000000FEFFFFFF
310
FFFFFFFFFFFFFFFFFFFFFFFFFFFFFFFFFFFFFFFFFFFFFFFFFFFFFFFFFFFFFFFF
310
FFFFFFFFFFFFFFFFFFFFFFFFFFFFFFFFFFFFFFFFFFFFFFFFFFFFFFFFFFFFFFFF
310
FFFFFFFFFFFFFFFFFFFFFFFFFFFFFFFFFFFFFFFFFFFFFFFFFFFFFFFFFFFFFFFF
310
FFFFFFFFFFFFFFFFFFFFFFFFFFFFFFFFFFFFFFFFFFFFFFFFFFFFFFFFFFFFFFFF
310
FFFFFFFFFFFFFFFFFFFFFFFFFFFFFFFFFFFFFFFFFFFFFFFFFFFFFFFFFFFFFFFF
310
FFFFFFFFFFFFFFFFFFFFFFFFFFFFFFFFFFFFFFFFFFFFFFFFFFFFFFFFFFFFFFFF
310
FFFFFFFFFFFFFFFFFFFFFFFFFFFFFFFFFFFFFFFFFFFFFFFFFFFFFFFFFFFFFFFF
310
FFFFFFFFFFFFFFFFFFFFFFFFFFFFFFFFFFFFFFFFFFFFFFFFFFFFFFFFFFFFFFFF
310
FFFFFFFFFFFFFFFFFFFFFFFFFFFFFFFFFFFFFFFFFFFFFFFFFFFFFFFFFFFFFFFF
310
FFFFFFFFFFFFFFFFFFFFFFFFFFFFFFFFFFFFFFFFFFFFFFFFFFFFFFFFFFFFFFFF
310
FFFFFFFFFFFFFFFFFFFFFFFFFFFFFFFFFFFFFFFFFFFFFFFFFFFFFFFFFFFFFFFF
310
FFFFFFFFFFFFFFFFFFFFFFFFFFFFFFFFFFFFFFFFFFFFFFFFFFFFFFFFFFFFFFFF
310
FFFFFFFFFFFFFFFFFFFFFFFFFFFFFFFFFFFFFFFFFFFFFFFFFFFFFFFFFFFFFFFF
310
52006F006F007400200045006E00740072007900000000000000000000000000
310
0000000000000000000000000000000000000000000000000000000000000000
310
16000500FFFFFFFFFFFFFFFF020000000A00030000000000C000000000000046
310
00000000000000000000000060FF582A80A9D30103000000C000000000000000
310
01004F006C006500000000000000000000000000000000000000000000000000
310
0000000000000000000000000000000000000000000000000000000000000000
310
0A000200FFFFFFFFFFFFFFFFFFFFFFFF00000000000000000000000000000000
310
0000000000000000000000000000000000000000000000001400000000000000
310
010043006F006D0070004F0062006A0000000000000000000000000000000000
310
0000000000000000000000000000000000000000000000000000000000000000
310
120002010100000003000000FFFFFFFF00000000000000000000000000000000
310
0000000000000000000000000000000000000000010000004D00000000000000
310
01004F006C006500310030004E00610074006900760065000000000000000000
310
0000000000000000000000000000000000000000000000000000000000000000
310
1A000200FFFFFFFFFFFFFFFFFFFFFFFF00000000000000000000000000000000
310
0000000000000000000000000000000000000000040000002426000000000000
310
FEFFFFFF02000000FEFFFFFFFFFFFFFFFFFFFFFFFFFFFFFFFFFFFFFFFFFFFFFF
310
FFFFFFFFFFFFFFFFFFFFFFFFFFFFFFFFFFFFFFFFFFFFFFFFFFFFFFFFFFFFFFFF
310
FFFFFFFFFFFFFFFFFFFFFFFFFFFFFFFFFFFFFFFFFFFFFFFFFFFFFFFFFFFFFFFF
310
FFFFFFFFFFFFFFFFFFFFFFFFFFFFFFFFFFFFFFFFFFFFFFFFFFFFFFFFFFFFFFFF
310
FFFFFFFFFFFFFFFFFFFFFFFFFFFFFFFFFFFFFFFFFFFFFFFFFFFFFFFFFFFFFFFF
310
FFFFFFFFFFFFFFFFFFFFFFFFFFFFFFFFFFFFFFFFFFFFFFFFFFFFFFFFFFFFFFFF
310
FFFFFFFFFFFFFFFFFFFFFFFFFFFFFFFFFFFFFFFFFFFFFFFFFFFFFFFFFFFFFFFF
310
FFFFFFFFFFFFFFFFFFFFFFFFFFFFFFFFFFFFFFFFFFFFFFFFFFFFFFFFFFFFFFFF
310
FFFFFFFFFFFFFFFFFFFFFFFFFFFFFFFFFFFFFFFFFFFFFFFFFFFFFFFFFFFFFFFF
310
FFFFFFFFFFFFFFFFFFFFFFFFFFFFFFFFFFFFFFFFFFFFFFFFFFFFFFFFFFFFFFFF
310
FFFFFFFFFFFFFFFFFFFFFFFFFFFFFFFFFFFFFFFFFFFFFFFFFFFFFFFFFFFFFFFF
310
FFFFFFFFFFFFFFFFFFFFFFFFFFFFFFFFFFFFFFFFFFFFFFFFFFFFFFFFFFFFFFFF
310
FFFFFFFFFFFFFFFFFFFFFFFFFFFFFFFFFFFFFFFFFFFFFFFFFFFFFFFFFFFFFFFF
310
FFFFFFFFFFFFFFFFFFFFFFFFFFFFFFFFFFFFFFFFFFFFFFFFFFFFFFFFFFFFFFFF
310
FFFFFFFFFFFFFFFFFFFFFFFFFFFFFFFFFFFFFFFFFFFFFFFFFFFFFFFFFFFFFFFF
310
FFFFFFFFFFFFFFFFFFFFFFFFFFFFFFFFFFFFFFFFFFFFFFFFFFFFFFFFFFFFFFFF
310
0100000200000000000000000000000000000000000000000000000000000000
310
0000000000000000000000000000000000000000000000000000000000000000
310
0100FEFF030A0000FFFFFFFF0A00030000000000C00000000000004607000000
310
5042727573680007000000504272757368000700000050427275736800F439B2
310
7100000000000000000000000000000000000000000000000000000000000000
310
0000000000000000000000000000000000000000000000000000000000000000
310
0000000000000000000000000000000000000000000000000000000000000000
310
0000000000000000000000000000000000000000000000000000000000000000
310
0000000000000000000000000000000000000000000000000000000000000000
310
0000000000000000000000000000000000000000000000000000000000000000
310
0000000000000000000000000000000000000000000000000000000000000000
310
0000000000000000000000000000000000000000000000000000000000000000
310
0000000000000000000000000000000000000000000000000000000000000000
310
0000000000000000000000000000000000000000000000000000000000000000
310
0000000000000000000000000000000000000000000000000000000000000000
310
0000000000000000000000000000000000000000000000000000000000000000
310
20260000424D0E260000000000003E00000028000000B40200006E0000000100
310
01000000000000000000130B0000130B00000200000002000000000000FFFFFF
310
FFFFFFFFFFFFFFFFFFFFFFFFFFFFFFFFFFFFFFFFFFFFFFFFFFFFFFFFFFFFFFFF
310
FFFFFFFFFFFFFFFFFFFFFFFFFFFFFFFFFFFFFFFFFFFFFFFFFFFFFFFFFFFFFFFF
310
FFFFFFFFFFFFFFFFFFFFFFFFFFFFFFFFFFFFFFFFFFFFFFFFF000FFFFFFFFFFFF
310
FFFFFFFFFFFFFFFFFFFFFFFFFFFFFFFFFFFFFFFFFFFFFFFFFFFFFFFFFFFFFFFF
310
FFFFFFFFFFFFFFFFFFFFFFFFFFFFFFFFFFFFFFFFFFFFFFFFFFFFFFFFFFFFFFFF
310
FFFFFFFFFFFFFFFFFFFFFFFFFFFFFFFFF000FFFFFFFFFFFFFFFFFFFFFFFFFFFF
310
FFFFFFFFFFFFFFFFFFFFFFFFFFFFFFFFFFFFFFFFFFFFFFFFFFFFFFFFFFFFFFFF
310
FFFFFFFFFFFFFFFFFFFFFFFFFFFFFFFFFFFFFFFFFFFFFFFFFFFFFFFFFFFFFFFF
310
FFFFFFFFFFFFFFFFF000FFFFFFFFFFFFFFFFFFFFFFFFFFFFFFFFFFFFFFFFFFFF
310
FFFFFFFFFFFFFFFFFFFFFFFFFFFFFFFFFFFFFFFFFFFFFFFFFFFFFFFFFFFFFFFF
310
FFFFFFFFFFFFFFFFFFFFFFFFFFFFFFFFFFFFFFFFFFFFFFFFFFFFFFFFFFFFFFFF
310
F000FFFFFFFFFFFFFFFFFFFFFFFFFFFFFFFFFFFFFFFFFFFFFFFFFFFFFFFFFFFF
310
FFFFFFFFFFFFFFFFFFFFFFFFFFFFFFFFFFFFFFFFFFFFFFFFFFFFFFFFFFFFFFFF
310
FFFFFFFFFFFFFFFFFFFFFFFFFFFFFFFFFFFFFFFFFFFFFFFFF000FFFFFFFFFFFF
310
FFFFFFFFFFFFFFFFFFFFFFFFFFFFFFFFFFFFFFFFFFFFFFFFFFFFFFFFFFFFFFFF
310
FFFFFFFFFFFFFFFFFFFFFFFFFFFFFFFFFFFFFFFFFFFFFFFFFFFFFFFFFFFFFFFF
310
FFFFFFFFFFFFFFFFFFFFFFFFFFFFFFFFF000FFFFFFFFFFFFFFFFFFFFFFFFFFFF
310
FFFFFFFFFFFFFFFFFFFFFFFFFFFFFFFFFFFFFFFFFFFFFFFFFFFFFFFFFFFFFFFF
310
FFFFFFFFFFFFFFFFFFFFFFFFFFFFFFFFFFFFFFFFFFFFFFFFFFFFFFFFFFFFFFFF
310
FFFFFFFFFFFFFFFFF000FFFFFFFFFFFFFFFFFFFFFFFFFFFFFFFFFFFFFFFFFFFF
310
FFFFFFFFFFFFFFFFFFFFFFFFFFFFFFFFFFFFFFFFFFFFFFFFFFFFFFFFFFFFFFFF
310
FFFFFFFFFFFFFFFFFFFFFFFFFFFFFFFFFFFFFFFFFFFFFFFFFFFFFFFFFFFFFFFF
310
F000FFFFFFFFFFFFFFFFFFFFFFFFFFFFFFFFFFFFFFFFFFFFFFFFFFFFFFFFFFFF
310
FFFFFFFFFFFFFFFFFFFFFFFFFFFFFFFFFFFFFFFFFFFFFFFFFFFFFFFFFFFFFFFF
310
FFFFFFFFFFFFFFFFFFFFFFFFFFFFFFFFFFFFFFFFFFFFFFFFF000FFFFFFFFFFFF
310
FFFFFFFFFFFFFFFFFFFFFFFFFFFFFFFFFFFFFFFFFFFFFFFFFFFFFFFFFFFFFFFF
310
FFFFFFFFFFFFFFFFFFFFFFFFFFFFFFFFFFFFFFFFFFFFFFFFFFFFFFFFFFFFFFFF
310
FFFFFFFFFFFFFFFFFFFFFFFFFFFFFFFFF000FFFFFFFFFFFFFFFFFFFFFFFFFFFF
310
FFFFFFFFFFFFFFFFFFFFFFFFFFFFFFFFFFFFFFFFFFFFFFFFFFFFFFFFFFFFFFFF
310
FFFFFFFFFFFFFFFFFFFFFFFFFFFFFFFFFFFFFFFFFFFFFFFFFFFFFFFFFFFFFFFF
310
FFFFFFFFFFFFFFFFF000FFFFFFFFFFFFFFFFFFFFFFFFFFFFFFFFFFFFFFFFFFFF
310
FFFFFFFFFFFFFFFFFFFFFFFFFFFFFFFFFFFFFFFFFFFFFFFFFFFFFFFFFFFFFFFF
310
FFFFFFFFFFFFFFFFFFFFFFFFFFFFFFFFFFFFFFFFFFFFFFFFFFFFFFFFFFFFFFFF
310
F000FFFFFFFFFFFFFFFFFFFFFFFFFFFFFFFFFFFFFFFFFFFFFFFFFFFFFFFFFFFF
310
FFFFFFFFFFFFFFFFFFFFFFFFFFFFFFFFFFFFFFFFFFFFFFFFFFFFFFFFFFFFFFFF
310
FFFFFFFFFFFFFFFFFFFFFFFFFFFFFFFFFFFFFFFFFFFFFFFFF000FFFFFFFFFFFF
310
FFFFFFFFFFFFFFFFFFFFFFFFFFFFFFFFFFFFFFFFFFFFFFFFFFFFFFFFFFFFFFFF
310
FFFFFFFFFFFFFFFFFFFFFFFFFFFFFFFFFFFFFFFFFFFFFFFFFFFFFFFFFFFFFFFF
310
FFFFFFFFFFFFFFFFFFFFFFFFFFFFFFFFF000FFFFFFFFFFFFFFFFFFFFFFFFFFFF
310
FFFFFFFFFFFFFFFFFFFFFFFFFFFFFFFFFFFFFFFFFFFFFFFFFFFFFFFFFFFFFFFF
310
FFFFFFFFFFFFFFFFFFFFFFFFFFFFFFFFFFFFFFFFFFFFFFFFFFFFFFFFFFFFFFFF
310
FFFFFFFFFFFFFFFFF000FFFFFFFFFFFFFFFFFFFFFFFFFFFFFFFFFFFFFFFFFFFF
310
FFFFFFFFFFFFFFFFFFFFFFFFFFFFFFFFFFFFFFFFFFFFFFFFFFFFFFFFFFFFFFFF
310
FFFFFFFFFFFFFFFFFFFFFFFFFFFFFFFFFFFFFFFFFFFFFFFFFFFFFFFFFFFFFFFF
310
F000FFFFFFFFFFFFFFFFFFFFFFFFFFFFFFFFFFFFFFFFFFFFFFFFFFFFFFFFFFFF
310
FFFFFFFFFFFFFFFFFFFFFFFFFFFFFFFFFFFFFFFFFFFFFFFFFFFFFFFFFFFFFFFF
310
FFFFFFFFFFFFFFFFFFFFFFFFFFFFFFFFFFFFFFFFFFFFFFFFF000FFFFFFFFFFFF
310
FFFFFFFFFFFFFFFFFFFFFFFFFFFFFFFFFFFFFFFFFFFFFFFFFFFFFFFFFFFFFFFF
310
FFFFFFFFFFFFFFFFFFFFFFFFFFFFFFFFFFFFFFFFFFFFFFFFFFFFFFFFFFFFFFFF
310
FFFFFFFFFFFFFFFFFFFFFFFFFFFFFFFFF000FFFFFFFFFFFFFFFFFFFFFFFFFFFF
310
FFFFFFFFFFFFFFFFFFFFFFFFFFFFFFFFFFFFFFFFFFFFFFFFFFFFFFFFFFFFFFFF
310
FFFFFFFFFFFFFFFFFFFFFFFFFFFFFFFFFFFFFFFFFFFFFFFFFFFFFFFFFFFFFFFF
310
FFFFFFFFFFFFFFFFF000FFFFF80003FFFFFFFFFFFFFFFFFFFFFFFFFFFFFFFFFF
310
FFFFF00007FFFFFFFFFF00007FFFFFF800000000000000007FFFFFFFFFFFFFFF
310
FFFFFFFC001FFFFFFFFFFFFFFC001FFFFFFFFFFFFFFFFFFFFFFFFFFE0007FFFF
310
F000FFFF8000007FFFFFFFF8000FFFFFC0007FFFFF80007FFFFF0000007FFFFF
310
FFF8000007FFFFF800000000000000007FFFFFF0001FFFFFFFFFFFC00001FFFF
310
FFFFFFFFC00001FFFFFFFF000000000003FFFFE000007FFFF000FFFE0000000F
310
FFFFFFF0000FFFFF80007FFFFF80007FFFFC0000001FFFFFFFC0000001FFFFF8
310
00000000000000007FFFFFF0001FFFFFFFFFFE0000003FFFFFFFFFFE0000003F
310
FFFFFF000000000003FFFF0000000FFFF000FFF800000003FFFFFFF00007FFFF
310
80007FFFFF80007FFFF000000007FFFFFF000000003FFFF80000000000000000
310
7FFFFFF0001FFFFFFFFFF80000000FFFFFFFFFF80000000FFFFFFF0000000000
310
03FFFC00000003FFF000FFE000000000FFFFFFF00007FFFF80003FFFFF80007F
310
FFC000000001FFFFFC000000001FFFF800000000000000007FFFFFF0001FFFFF
310
FFFFE000000003FFFFFFFFE000000003FFFFFF000000000003FFF000000000FF
310
F000FF80000000007FFFFFF00007FFFF80003FFFFF80007FFF8000000000FFFF
310
F80000000007FFF800000000000000007FFFFFF0001FFFFFFFFFC000000001FF
310
FFFFFFC000000001FFFFFF000000000003FFC0000000007FF000FF0000000000
310
3FFFFFE00007FFFF00003FFFFF80007FFE00000000003FFFF00000000003FFF8
310
00000000000000007FFFFFF0001FFFFFFFFF8000000000FFFFFFFF8000000000
310
FFFFFF000000000003FF80000000003FF000FE00000000001FFFFFE00003FFFF
310
00003FFFFF80007FFC00000000001FFFE00000000001FFF8000001FFFE000000
310
7FFFFFF0001FFFFFFFFE00000000003FFFFFFE00000000003FFFFF0000000000
310
03FF00000000001FF000FC00000000000FFFFFE00003FFFF00001FFFFF80007F
310
F800000000001FFFC00000000000FFF8000001FFFE0000007FFFFFF0001FFFFF
310
FFFC00000000001FFFFFFC00000000001FFFFF000000000003FE00000000000F
310
F000F8000000000007FFFFE00003FFFF00001FFFFF80007FF800000000000FFF
310
800000000000FFF8000001FFFE0000007FFFFFF0001FFFFFFFF800000000000F
310
FFFFF800000000000FFFFF000000000003FC000000000007F000F80000000000
310
03FFFFC00003FFFE00001FFFFF80007FF0000000000007FF0000000000007FF8
310
000001FFFE0000007FFFFFF0001FFFFFFFF0000000000007FFFFF00000000000
310
07FFFF000000000003F8000000000003F000F0000000000003FFFFC00001FFFE
310
00001FFFFF80007FE0000000000007FE0000000000003FF8000001FFFE000000
310
7FFFFFF0001FFFFFFFF0000000000007FFFFF0000000000007FFFF0000000000
310
03F800001F800003F000E00001FFF00001FFFFC00001FFFE00000FFFFF80007F
310
E00001FFE00003FE00001FFF00003FF8000001FFFE0000007FFFFFF0001FFFFF
310
FFE000003E000003FFFFE000003E000003FFFF000000000003F00001FFF80001
310
F000E00007FFFC0001FFFFC00001FFFE00000FFFFF80007FC0000FFFFC0003FC
310
0000FFFFC0001FF8000001FFFE0000007FFFFFF0001FFFFFFFC00003FFE00001
310
FFFFC00003FFE00001FFFF0001FFFFFFFFF00007FFFE0001F000E0000FFFFF00
310
00FFFF800001FFFC00000FFFFF80007FC0001FFFFE0001FC0001FFFFE0001FF8
310
000001FFFE0000007FFFFFF0001FFFFFFF80000FFFF80000FFFF80000FFFF800
310
00FFFF0003FFFFFFFFE0000FFFFF8000F000C0003FFFFF8000FFFF800000FFFC
310
000007FFFF80007F80003FFFFF0001FC0003FFFFF0001FF8000001FFFE000000
310
7FFFFFF0001FFFFFFF80003FFFFE0000FFFF80003FFFFE0000FFFF0003FFFFFF
310
FFE0003FFFFF8000F000C0003FFFFF8000FFFF800000FFFC000007FFFF80007F
310
80007FFFFF8001F80007FFFFF8000FF8000001FFFE0000007FFFFFF0001FFFFF
310
FF00007FFFFF00007FFF00007FFFFF00007FFF0003FFFFFFFFE0003FFFFFC000
310
F000C0007FFFFFC000FFFF000000FFFC000007FFFF80007F8000FFFFFF8000F8
310
000FFFFFF8000FF8000001FFFE0000007FFFFFF0001FFFFFFF0000FFFFFF8000
310
7FFF0000FFFFFF80007FFF0003FFFFFFFFC0007FFFFFC00070008000FFFFFFC0
310
00FFFF000000FFF8000007FFFF80007F8000FFFFFF8000F8000FFFFFF8000FF8
310
000001FFFE0000007FFFFFF0001FFFFFFE0001FFFFFFC0003FFE0001FFFFFFC0
310
003FFF0003FFFFFFFFC0007FFFFFE00070008000FFFFFFC0007FFF0000007FF8
310
000003FFFF80007F0001FFFFFF8000F8000FFFFFF8000FF8000001FFFE000000
310
7FFFFFF0001FFFFFFE0001FFFFFFC0003FFE0001FFFFFFC0003FFF0003FFFFFF
310
FFC000FFFFFFE00070008000FFFFFFC0007FFF0000007FF8000003FFFF80007F
310
0001FFFFFF8000F8001FFFFFF8000FF8000001FFFE0000007FFFFFF0001FFFFF
310
FE0003FFFFFFE0003FFE0003FFFFFFE0003FFF0003FFFFFFFFC000FFFFFFE000
310
70008000FFFFFFC0007FFE0000007FF8000003FFFF80007F0001FFFFFF8000F0
310
001FFFFFF8000FF8000001FFFE0000007FFFFFF0001FFFFFFC0003FFFFFFE000
310
1FFC0003FFFFFFE0001FFF0003FFFFFFFFC000FFFFFFC00070008000FFFFFF80
310
007FFE0000007FF0000003FFFF80007F0001FFFFFF0000F0001FFFFFF8000FF8
310
000001FFFE0000007FFFFFF0001FFFFFFC0007FFFFFFF0001FFC0007FFFFFFF0
310
001FFF0003FFFFFFFFC000FFFFFFC00070008001FFFFFF0000FFFE0000003FF0
310
000001FFFF80007F0001FFFFFF0000F8001FFFFFF0000FF8000001FFFE000000
310
7FFFFFF0001FFFFFFC0007FFFFFFF0001FFC0007FFFFFFF0001FFF0003FFFFFF
310
FFC001FFFFFF80007000FFFFFFFFFE0000FFFE0008003FF0008001FFFF80007F
310
FFFFFFFFFC0000FFFFFFFFFFE0000FF8000001FFFE0000007FFFFFF0001FFFFF
310
F8000FFFFFFFF8000FF8000FFFFFFFF8000FFF0003FFFFFFFFFFFFFFFFFF0000
310
7000FFFFFFFFFC0000FFFC0008003FF0008001FFFF80007FFFFFFFFFF80001FF
310
FFFFFFFF80000FF8000001FFFE0000007FFFFFF0001FFFFFF8000FFFFFFFF800
310
0FF8000FFFFFFFF8000FFF0003FFFFFFFFFFFFFFFFFE0000F000FFFFFFFFE000
310
00FFFC000C003FE000C001FFFF80007FFFFFFFFFC00001FFFFFFFFFE00001FF8
310
000001FFFE0000007FFFFFF0001FFFFFF8000FFFFFFFF8000FF8000FFFFFFFF8
310
000FFF0003FFFFFFFFFFFFFFFFF00000F000FFFFFFFE000001FFFC000C001FE0
310
00C000FFFF80007FFFFFFFFE000001FFFFFFFFE000001FF80FFFFFFFFFFFFFC0
310
7FFFFFF0001FFFFFF8000FFFFFFFF8000FF8000FFFFFFFF8000FFF0003FFFFFF
310
FFFFFFFFFF800000F000FFFFFFC0000001FFFC001C001FE001C000FFFF80007F
310
FFFFFF80000003FFFFFFF80000001FF80FFFFFFFFFFFFFC07FFFFFF0001FFFFF
310
F8001FFFFFFFFC000FF8001FFFFFFFFC000FFF0003FFFFFFFFFFFFFFF0000001
310
F000FFFFF800000001FFF8001C001FE001C000FFFF80007FFFFFF800000003FF
310
FFFF800000003FF80FFFFFFFFFFFFFC07FFFFFF0001FFFFFF8001FFFFFFFFC00
310
0FF8001FFFFFFFFC000FFF0003FFFFFFFFFFFFFE00000001F000FFFFC0000000
310
03FFF8001E001FC001E000FFFF80007FFFFF8000000007FFFFFC000000003FF8
310
0FFFFFFFFFFFFFC07FFFFFF0001FFFFFF8001FFFFFFFFC000FF8001FFFFFFFFC
310
000FFF0003FFFFFFFFFFFFE000000003F000FFFE0000000007FFF8001E000FC0
310
01E0007FFF80007FFFFE0000000007FFFFE0000000007FF80FFFFFFFFFFFFFC0
310
7FFFFFF0001FFFFFF0001FFFFFFFFC0007F0001FFFFFFFFC0007FF0003FFFFFF
310
FFFFFF0000000003F000FFF80000000007FFF8001E000FC003E0007FFF80007F
310
FFF0000000000FFFFF8000000000FFF80FFFFFFFFFFFFFC07FFFFFF0001FFFFF
310
F0001FFFFFFFFC0007F0001FFFFFFFFC0007FF0003FFFFFFFFFFFC0000000007
310
F000FFE0000000000FFFF0003E000FC003E0007FFF80007FFFC0000000001FFF
310
FE0000000001FFF80FFFFFFFFFFFFFC07FFFFFF0001FFFFFF0001FFFFFFFFC00
310
07F0001FFFFFFFFC0007FF0003FFFFFFFFFFF0000000000FF000FFC000000000
310
1FFFF0003F000F8003F0003FFF80007FFF80000000003FFFF80000000003FFF8
310
0FFFFFFFFFFFFFC07FFFFFF0001FFFFFF0001FFFFFFFFC0007F0001FFFFFFFFC
310
0007FF0003FFFFFFFFFFE0000000001FF000FF00000000007FFFF0003F000780
310
03F0003FFF80007FFF00000000007FFFF00000000007FFF80FFFFFFFFFFFFFC0
310
7FFFFFF0001FFFFFF0001FFFFFFFFC0007F0001FFFFFFFFC0007FF0003FFFFFF
310
FFFF80000000007FF000FE0000000000FFFFE0003F00078007F0003FFF80007F
310
FE0000000001FFFFE0000000001FFFF80FFFFFFFFFFFFFC07FFFFFF0001FFFFF
310
F0001FFFFFFFFC0007F0001FFFFFFFFC0007FF0003FFFFFFFFFF0000000000FF
310
F000FC0000000003FFFFE0007F00078007F0003FFF80007FFC0000000007FFFF
310
C0000000007FFFF80FFFFFFFFFFFFFC07FFFFFF0001FFFFFF8001FFFFFFFFC00
310
0FF8001FFFFFFFFC000FFF0003FFFFFFFFFE0000000003FFF000FC000000000F
310
FFFFE0007F80070007F8001FFF80007FF8000000001FFFFF8000000001FFFFF8
310
0FFFFFFFFFFFFFC07FFFFFF0001FFFFFF8001FFFFFFFFC000FF8001FFFFFFFFC
310
000FFF0003FFFFFFFFFC000000000FFFF000F8000000007FFFFFE0007F800700
310
07F8001FFF80007FF000000000FFFFFF800000000FFFFFF80FFFFFFFFFFFFFC0
310
7FFFFFF0001FFFFFF8000FFFFFFFF8000FF8000FFFFFFFF8000FFF0003FFFFFF
310
FFFC000000007FFFF000F800000007FFFFFFC0007F8003000FF8001FFF80007F
310
F000000007FFFFFF000000007FFFFFF80FFFFFFFFFFFFFC07FFFFFF0001FFFFF
310
F8000FFFFFFFF8000FF8000FFFFFFFF8000FFF0003FFFFFFFFF80000000FFFFF
310
F000F0000000FFFFFFFFC000FF8003000FF8001FFF80007FE0000000FFFFFFFF
310
0000000FFFFFFFF8000001FFFE0000007FFFFFF0001FFFFFF8000FFFFFFFF800
310
0FF8000FFFFFFFF8000FFF0003FFFFFFFFF8000000FFFFFFF000F000000FFFFF
310
FFFFC000FFC002000FF8000FFF80007FE000001FFFFFFFFE000001FFFFFFFFF8
310
000001FFFE0000007FFFFFF0001FFFFFF8000FFFFFFFF8000FF8000FFFFFFFF8
310
000FFF0003FFFFFFFFF000001FFFFFFFF000E00000FFFFFFFFFFC000FFC00200
310
0FFC000FFF80007FE00001FFFFFFFFFE00001FFFFFFFFFF8000001FFFE000000
310
7FFFFFF0001FFFFFFC000FFFFFFFF8001FFC000FFFFFFFF8001FFF0003FFFFFF
310
FFF00001FFFFFFFFF000E00007FFFFFFFFFF8000FFC000001FFC000FFF80007F
310
C0000FFFFFFFFFFE0000FFFFFFFFFFF8000001FFFE0000007FFFFFF0001FFFFF
310
FC0007FFFFFFF0001FFC0007FFFFFFF0001FFF0003FFFFFFFFF00007FFFFFFFF
310
F000E0001FFFFFFFFFFF8000FFC000001FFC000FFF80007FC0003FFFFFFFFFFE
310
0001FFFFFFFFFFF8000001FFFE0000007FFFFFF0001FFFFFFC0007FFFFFFF000
310
1FFC0007FFFFFFF0001FFF0003FFFFFFFFF0001FFFFFFFFFF000E0003FFFFF00
310
03FF8001FFE000001FFC0007FF80007FC0007FFFFF0007FC0003FFFFF0003FF8
310
000001FFFE0000007FFFFFF0001FFFFFFC0003FFFFFFE0001FFC0003FFFFFFE0
310
001FFF0003FFFFFFFFF0003FFFFFFFFFF000E0003FFFFF0001FF8001FFE00000
310
1FFE0007FF80007FC0007FFFFE0003FC0007FFFFE0003FF8000001FFFE000000
310
7FFFFFF0001FFFFFFE0003FFFFFFE0003FFE0003FFFFFFE0003FFF0003FFFFFF
310
FFF0003FFFFF8001F000E0003FFFFF0001FF0001FFE000001FFE0007FF80007F
310
C0007FFFFE0003FC0007FFFFE0003FF8000001FFFE0000007FFFFFF0001FFFFF
310
FE0001FFFFFFC0003FFE0001FFFFFFC0003FFF0003FFFFFFFFF0003FFFFF0001
310
F000E0003FFFFF0003FF0001FFE000003FFE0007FF80007FC0007FFFFE0003FC
310
0007FFFFE0003FF8000001FFFE0000007FFFFFF0001FFFFFFF0001FFFFFFC000
310
7FFF0001FFFFFFC0007FFF0003FFFFFFFFF0003FFFFF0001F000E0003FFFFE00
310
03FF0003FFF000003FFE0003FF80007FC0007FFFFC0003FE0007FFFFE0003FF8
310
000001FFFE0000007FFFFFF0001FFFFFFF0000FFFFFF80007FFF0000FFFFFF80
310
007FFF0003FFFFFFFFF0003FFFFF0001F000E0003FFFFE0003FF0003FFF00000
310
3FFF0003FF80007FC0007FFFFC0007FE0007FFFFC0003FF8000001FFFE000000
310
7FFFFFF0001FFFFFFF80007FFFFF0000FFFF80007FFFFF0000FFFF0003FFFFFF
310
FFF0003FFFFF0003F000E0003FFFFC0003FE0003FFF000003FFF0003FF80007F
310
E0003FFFF80007FE0003FFFFC0007FF8000001FFFE0000007FFFFFF0001FFFFF
310
FF80003FFFFE0000FFFF80003FFFFE0000FFFF0003FFFFFFFFF0001FFFFE0003
310
F000F0001FFFF80003FE0003FFF000007FFF0001FF80007FE0003FFFF00007FE
310
0001FFFF80007FF8000001FFFE0000007FFFFFF0001FFFFFFFC0000FFFF80001
310
FFFFC0000FFFF80001FFFF0003FFFFFFFFF0001FFFFC0003F000F0000FFFF000
310
07FE0007FFF800007FFF0001FF80007FE0001FFFE00007FF0000FFFE00007FF8
310
000001FFFE0000007FFFFFF0001FFFFFFFC00003FFE00001FFFFC00003FFE000
310
01FFFF0003FFFFFFFFF8000FFFF80003F000F00003FFC00007FC0007FFF80000
310
7FFF8001FF80007FF00007FF80000FFF00007FF80000FFF8000001FFFE000000
310
7F80000000000001FFE000003E000003FFFFE000003E000003FFFF0003FFFFFF
310
FFF80003FFE00007F000F800000000000FFC0007FFF800007FFF8001FF80007F
310
F000000000000FFF000000000000FFF8000001FFFE0000007F80000000000001
310
FFF0000000000007FFFFF0000000000007FFFF0003FFFFFFFFFC00007E000007
310
F000F800000000000FFC0007FFF80000FFFF8000FF80007FF800000000001FFF
310
800000000001FFF8000001FFFE0000007F80000000000001FFF800000000000F
310
FFFFF800000000000FFFFF0003FFFFFFFFFC00000000000FF000FC0000000000
310
1FFC0007FFFC0000FFFF8000FF80007FF800000000003FFFC00000000001FFF8
310
000001FFFE0000007F80000000000001FFF800000000000FFFFFF80000000000
310
0FFFFF0003FFFFFFFFFE00000000001FF000FE00000000003FF8000FFFFC0000
310
FFFF8000FF80007FFC00000000003FFFC00000000003FFF8000001FFFE000000
310
7F80000000000001FFFC00000000001FFFFFFC00000000001FFFFF0003FFFFFF
310
FFFF00000000001FF000FF00000000003FF8000FFFFC0000FFFFC000FF80007F
310
FE00000000007FFFE00000000007FFF8000001FFFE0000007F80000000000001
310
FFFE00000000003FFFFFFE00000000003FFFFF0003FFFFFFFFFF80000000003F
310
F000FF80000000007FF8000FFFFC0001FFFFC0007F80007FFF0000000000FFFF
310
F0000000000FFFF800000000000000007F80000000000001FFFF8000000000FF
310
FFFFFF8000000000FFFFFF0003FFFFFFFFFFC0000000007FF000FFC000000000
310
FFF8000FFFFE0001FFFFC0007F80007FFF8000000001FFFFF8000000001FFFF8
310
00000000000000007F80000000000001FFFFC000000001FFFFFFFFC000000001
310
FFFFFF0003FFFFFFFFFFE000000000FFF000FFE000000003FFF0001FFFFE0001
310
FFFFC0007F80007FFFC000000007FFFFFE000000003FFFF80000000000000000
310
7F80000000000001FFFFE000000003FFFFFFFFE000000003FFFFFF0003FFFFFF
310
FFFFF000000003FFF000FFF80000000FFFF0001FFFFE0001FFFFE0007F80007F
310
FFF00000000FFFFFFF00000000FFFFF800000000000000007F80000000000001
310
FFFFF80000000FFFFFFFFFF80000000FFFFFFF0003FFFFFFFFFFFC0000000FFF
310
F000FFFE0000003FFFF0001FFFFE0003FFFFE0003F80007FFFFC0000003FFFFF
310
FFC0000003FFFFF800000000000000007F80000000000001FFFFFE0000003FFF
310
FFFFFFFE0000003FFFFFFF0003FFFFFFFFFFFF0000003FFFF000FFFF800000FF
310
FFF0001FFFFF0003FFFFE0003F80007FFFFF000001FFFFFFFFF800001FFFFFF8
310
00000000000000007F80000000000001FFFFFFC00001FFFFFFFFFFFFC00001FF
310
FFFFFF0003FFFFFFFFFFFFC00000FFFFF000FFFFF8000FFFFFFFFFFFFFFFFFFF
310
FFFFFFFFFFFFFFFFFFFFF0001FFFFFFFFFFF0000FFFFFFF80000000000000000
310
7FFFFFFFFFFFFFFFFFFFFFFC001FFFFFFFFFFFFFFC001FFFFFFFFFFFFFFFFFFF
310
FFFFFFFC001FFFFFF000FFFFFFFFFFFFFFFFFFFFFFFFFFFFFFFFFFFFFFFFFFFF
310
FFFFFFFFFFFFFFFFFFFFFFFFFFFFFFFFFFFFFFFFFFFFFFFFFFFFFFFFFFFFFFFF
310
FFFFFFFFFFFFFFFFFFFFFFFFFFFFFFFFFFFFFFFFFFFFFFFFFFFFFFFFFFFFFFFF
310
F000FFFFFFFFFFFFFFFFFFFFFFFFFFFFFFFFFFFFFFFFFFFFFFFFFFFFFFFFFFFF
310
FFFFFFFFFFFFFFFFFFFFFFFFFFFFFFFFFFFFFFFFFFFFFFFFFFFFFFFFFFFFFFFF
310
FFFFFFFFFFFFFFFFFFFFFFFFFFFFFFFFFFFFFFFFFFFFFFFFF000FFFFFFFFFFFF
310
FFFFFFFFFFFFFFFFFFFFFFFFFFFFFFFFFFFFFFFFFFFFFFFFFFFFFFFFFFFFFFFF
310
FFFFFFFFFFFFFFFFFFFFFFFFFFFFFFFFFFFFFFFFFFFFFFFFFFFFFFFFFFFFFFFF
310
FFFFFFFFFFFFFFFFFFFFFFFFFFFFFFFFF000FFFFFFFFFFFFFFFFFFFFFFFFFFFF
310
FFFFFFFFFFFFFFFFFFFFFFFFFFFFFFFFFFFFFFFFFFFFFFFFFFFFFFFFFFFFFFFF
310
FFFFFFFFFFFFFFFFFFFFFFFFFFFFFFFFFFFFFFFFFFFFFFFFFFFFFFFFFFFFFFFF
310
FFFFFFFFFFFFFFFFF000FFFFFFFFFFFFFFFFFFFFFFFFFFFFFFFFFFFFFFFFFFFF
310
FFFFFFFFFFFFFFFFFFFFFFFFFFFFFFFFFFFFFFFFFFFFFFFFFFFFFFFFFFFFFFFF
310
FFFFFFFFFFFFFFFFFFFFFFFFFFFFFFFFFFFFFFFFFFFFFFFFFFFFFFFFFFFFFFFF
310
F000FFFFFFFFFFFFFFFFFFFFFFFFFFFFFFFFFFFFFFFFFFFFFFFFFFFFFFFFFFFF
310
FFFFFFFFFFFFFFFFFFFFFFFFFFFFFFFFFFFFFFFFFFFFFFFFFFFFFFFFFFFFFFFF
310
FFFFFFFFFFFFFFFFFFFFFFFFFFFFFFFFFFFFFFFFFFFFFFFFF000FFFFFFFFFFFF
310
FFFFFFFFFFFFFFFFFFFFFFFFFFFFFFFFFFFFFFFFFFFFFFFFFFFFFFFFFFFFFFFF
310
FFFFFFFFFFFFFFFFFFFFFFFFFFFFFFFFFFFFFFFFFFFFFFFFFFFFFFFFFFFFFFFF
310
FFFFFFFFFFFFFFFFFFFFFFFFFFFFFFFFF000FFFFFFFFFFFFFFFFFFFFFFFFFFFF
310
FFFFFFFFFFFFFFFFFFFFFFFFFFFFFFFFFFFFFFFFFFFFFFFFFFFFFFFFFFFFFFFF
310
FFFFFFFFFFFFFFFFFFFFFFFFFFFFFFFFFFFFFFFFFFFFFFFFFFFFFFFFFFFFFFFF
310
FFFFFFFFFFFFFFFFF000FFFFFFFFFFFFFFFFFFFFFFFFFFFFFFFFFFFFFFFFFFFF
310
FFFFFFFFFFFFFFFFFFFFFFFFFFFFFFFFFFFFFFFFFFFFFFFFFFFFFFFFFFFFFFFF
310
FFFFFFFFFFFFFFFFFFFFFFFFFFFFFFFFFFFFFFFFFFFFFFFFFFFFFFFFFFFFFFFF
310
F000FFFFFFFFFFFFFFFFFFFFFFFFFFFFFFFFFFFFFFFFFFFFFFFFFFFFFFFFFFFF
310
FFFFFFFFFFFFFFFFFFFFFFFFFFFFFFFFFFFFFFFFFFFFFFFFFFFFFFFFFFFFFFFF
310
FFFFFFFFFFFFFFFFFFFFFFFFFFFFFFFFFFFFFFFFFFFFFFFFF000FFFFFFFFFFFF
310
FFFFFFFFFFFFFFFFFFFFFFFFFFFFFFFFFFFFFFFFFFFFFFFFFFFFFFFFFFFFFFFF
310
FFFFFFFFFFFFFFFFFFFFFFFFFFFFFFFFFFFFFFFFFFFFFFFFFFFFFFFFFFFFFFFF
310
FFFFFFFFFFFFFFFFFFFFFFFFFFFFFFFFF000FFFFFFFFFFFFFFFFFFFFFFFFFFFF
310
FFFFFFFFFFFFFFFFFFFFFFFFFFFFFFFFFFFFFFFFFFFFFFFFFFFFFFFFFFFFFFFF
310
FFFFFFFFFFFFFFFFFFFFFFFFFFFFFFFFFFFFFFFFFFFFFFFFFFFFFFFFFFFFFFFF
310
FFFFFFFFFFFFFFFFF000FFFFFFFFFFFFFFFFFFFFFFFFFFFFFFFFFFFFFFFFFFFF
310
FFFFFFFFFFFFFFFFFFFFFFFFFFFFFFFFFFFFFFFFFFFFFFFFFFFFFFFFFFFFFFFF
310
FFFFFFFFFFFFFFFFFFFFFFFFFFFFFFFFFFFFFFFFFFFFFFFFFFFFFFFFFFFFFFFF
310
F000FFFFFFFFFFFFFFFFFFFFFFFFFFFFFFFFFFFFFFFFFFFFFFFFFFFFFFFFFFFF
310
FFFFFFFFFFFFFFFFFFFFFFFFFFFFFFFFFFFFFFFFFFFFFFFFFFFFFFFFFFFFFFFF
310
FFFFFFFFFFFFFFFFFFFFFFFFFFFFFFFFFFFFFFFFFFFFFFFFF000FFFFFFFFFFFF
310
FFFFFFFFFFFFFFFFFFFFFFFFFFFFFFFFFFFFFFFFFFFFFFFFFFFFFFFFFFFFFFFF
310
FFFFFFFFFFFFFFFFFFFFFFFFFFFFFFFFFFFFFFFFFFFFFFFFFFFFFFFFFFFFFFFF
310
FFFFFFFFFFFFFFFFFFFFFFFFFFFFFFFFF000FFFFFFFFFFFFFFFFFFFFFFFFFFFF
310
FFFFFFFFFFFFFFFFFFFFFFFFFFFFFFFFFFFFFFFFFFFFFFFFFFFFFFFFFFFFFFFF
310
FFFFFFFFFFFFFFFFFFFFFFFFFFFFFFFFFFFFFFFFFFFFFFFFFFFFFFFFFFFFFFFF
310
FFFFFFFFFFFFFFFFF000FFFFFFFFFFFFFFFFFFFFFFFFFFFFFFFFFFFFFFFFFFFF
310
FFFFFFFFFFFFFFFFFFFFFFFFFFFFFFFFFFFFFFFFFFFFFFFFFFFFFFFFFFFFFFFF
310
FFFFFFFFFFFFFFFFFFFFFFFFFFFFFFFFFFFFFFFFFFFFFFFFFFFFFFFFFFFFFFFF
310
F000FFFFFFFFFFFFFFFFFFFFFFFFFFFFFFFFFFFFFFFFFFFFFFFFFFFFFFFFFFFF
310
FFFFFFFFFFFFFFFFFFFFFFFFFFFFFFFFFFFFFFFFFFFFFFFFFFFFFFFFFFFFFFFF
310
FFFFFFFFFFFFFFFFFFFFFFFFFFFFFFFFFFFFFFFFFFFFFFFFF000FFFFFFFFFFFF
310
FFFFFFFFFFFFFFFFFFFFFFFFFFFFFFFFFFFFFFFFFFFFFFFFFFFFFFFFFFFFFFFF
310
FFFFFFFFFFFFFFFFFFFFFFFFFFFFFFFFFFFFFFFFFFFFFFFFFFFFFFFFFFFFFFFF
310
FFFFFFFFFFFFFFFFFFFFFFFFFFFFFFFFF000FFFFFFFFFFFFFFFFFFFFFFFFFFFF
310
FFFFFFFFFFFFFFFFFFFFFFFFFFFFFFFFFFFFFFFFFFFFFFFFFFFFFFFFFFFFFFFF
310
FFFFFFFFFFFFFFFFFFFFFFFFFFFFFFFFFFFFFFFFFFFFFFFFFFFFFFFFFFFFFFFF
310
FFFFFFFFFFFFFFFFF000FFFFFFFFFFFFFFFFFFFFFFFFFFFFFFFFFFFFFFFFFFFF
310
FFFFFFFFFFFFFFFFFFFFFFFFFFFFFFFFFFFFFFFFFFFFFFFFFFFFFFFFFFFFFFFF
310
FFFFFFFFFFFFFFFFFFFFFFFFFFFFFFFFFFFFFFFFFFFFFFFFFFFFFFFFFFFFFFFF
310
F000FFFFFFFFFFFFFFFFFFFFFFFFFFFFFFFFFFFFFFFFFFFFFFFFFFFFFFFFFFFF
310
FFFFFFFFFFFFFFFFFFFFFFFFFFFFFFFFFFFFFFFFFFFFFFFFFFFFFFFFFFFFFFFF
310
FFFFFFFFFFFFFFFFFFFFFFFFFFFFFFFFFFFFFFFFFFFFFFFFF000FFFFFFFFFFFF
310
FFFFFFFFFFFFFFFFFFFFFFFFFFFFFFFFFFFFFFFFFFFFFFFFFFFFFFFFFFFFFFFF
310
FFFFFFFFFFFFFFFFFFFFFFFFFFFFFFFFFFFFFFFFFFFFFFFFFFFFFFFFFFFFFFFF
310
FFFFFFFFFFFFFFFFFFFFFFFFFFFFFFFFF0000000000000000000000000000000
310
0000000000000000000000000000000000000000000000000000000000000000
310
0000000000000000000000000000000000000000000000000000000000000000
310
0000000000000000000000000000000000000000000000000000000000000000
310
0000000000000000000000000000000000000000000000000000000000000000
310
0000000000000000000000000000000000000000000000000000000000000000
310
0000000000000000000000000000000000000000000000000000000000000000
310
0000000000000000000000000000000000000000000000000000000000000000
310
0000000000000000000000000000000000000000000000000000000000000000
310
0000000000000000000000000000000000000000000000000000000000000000
310
0000000000000000000000000000000000000000000000000000000000000000
310
0000000000000000000000000000000000000000000000000000000000000000
310
0000000000000000000000000000000000000000000000000000000000000000
310
0000000000000000000000000000000000000000000000000000000000000000
310
0000000000000000000000000000000000000000000000000000000000000000
310
0000000000000000000000000000000000000000000000000000000000000000
  1
OLE
  0
ENDSEC
  0
SECTION
  2
OBJECTS
  0
DICTIONARY
  5
C
330
0
100
AcDbDictionary
281
     1
  3
ACAD_GROUP
350
D
  3
ACAD_LAYOUT
350
1A
  3
ACAD_MLINESTYLE
350
17
  3
ACAD_PLOTSETTINGS
350
19
  3
ACAD_PLOTSTYLENAME
350
E
  3
ACAD_SCALELIST
350
47
  0
DICTIONARY
  5
D
102
{ACAD_REACTORS
330
C
102
}
330
C
100
AcDbDictionary
281
     1
  0
DICTIONARY
  5
1A
102
{ACAD_REACTORS
330
C
102
}
330
C
100
AcDbDictionary
281
     1
  3
Layout1
350
1E
  3
Layout2
350
26
  3
Model
350
22
  0
DICTIONARY
  5
17
102
{ACAD_REACTORS
330
C
102
}
330
C
100
AcDbDictionary
281
     1
  3
Standard
350
18
  0
DICTIONARY
  5
19
102
{ACAD_REACTORS
330
C
102
}
330
C
100
AcDbDictionary
281
     1
  0
ACDBDICTIONARYWDFLT
  5
E
102
{ACAD_REACTORS
330
C
102
}
330
C
100
AcDbDictionary
281
     1
  3
Normal
350
F
100
AcDbDictionaryWithDefault
340
F
  0
DICTIONARY
  5
47
102
{ACAD_REACTORS
330
C
102
}
330
C
100
AcDbDictionary
281
     1
  3
A0
350
48
  3
A1
350
49
  3
A2
350
4A
  3
A3
350
4B
  3
A4
350
4C
  3
A5
350
4D
  3
A6
350
4E
  3
A7
350
4F
  3
A8
350
50
  3
A9
350
51
  3
B0
350
52
  3
B1
350
53
  3
B2
350
54
  3
B3
350
55
  3
B4
350
56
  3
B5
350
57
  3
B6
350
58
  3
B7
350
59
  3
B8
350
5A
  3
B9
350
5B
  3
C0
350
5C
  3
C1
350
5D
  3
C2
350
5E
  3
C3
350
5F
  3
C4
350
60
  3
C5
350
61
  3
C6
350
62
  3
C7
350
63
  3
C8
350
64
  3
C9
350
65
  3
D0
350
66
  3
D1
350
67
  3
D2
350
68
  0
LAYOUT
  5
1E
102
{ACAD_REACTORS
330
1A
102
}
330
1A
100
AcDbPlotSettings
  1

  2
none_device
  4

  6

 40
0.0
 41
0.0
 42
0.0
 43
0.0
 44
0.0
 45
0.0
 46
0.0
 47
0.0
 48
0.0
 49
0.0
140
0.0
141
0.0
142
1.0
143
1.0
 70
   688
 72
     1
 73
     0
 74
     5
  7

 75
    16
147
1.0
148
0.0
149
0.0
100
AcDbLayout
  1
Layout1
 70
     1
 71
     1
 10
0.0
 20
0.0
 11
420.0
 21
297.0
 12
0.0
 22
0.0
 32
0.0
 14
1.0000000000E+20
 24
1.0000000000E+20
 34
1.0000000000E+20
 15
-1.0000000000E+20
 25
-1.0000000000E+20
 35
-1.0000000000E+20
146
0.0
 13
0.0
 23
0.0
 33
0.0
 16
1.0
 26
0.0
 36
0.0
 17
0.0
 27
1.0
 37
0.0
 76
     0
330
1B
  0
LAYOUT
  5
26
102
{ACAD_REACTORS
330
1A
102
}
330
1A
100
AcDbPlotSettings
  1

  2
none_device
  4

  6

 40
0.0
 41
0.0
 42
0.0
 43
0.0
 44
0.0
 45
0.0
 46
0.0
 47
0.0
 48
0.0
 49
0.0
140
0.0
141
0.0
142
1.0
143
1.0
 70
   688
 72
     1
 73
     0
 74
     5
  7

 75
    16
147
1.0
148
0.0
149
0.0
100
AcDbLayout
  1
Layout2
 70
     1
 71
     2
 10
0.0
 20
0.0
 11
0.0
 21
0.0
 12
0.0
 22
0.0
 32
0.0
 14
0.0
 24
0.0
 34
0.0
 15
0.0
 25
0.0
 35
0.0
146
0.0
 13
0.0
 23
0.0
 33
0.0
 16
1.0
 26
0.0
 36
0.0
 17
0.0
 27
1.0
 37
0.0
 76
     0
330
23
  0
LAYOUT
  5
22
102
{ACAD_REACTORS
330
1A
102
}
330
1A
100
AcDbPlotSettings
  1

  2
none_device
  4
Letter_(8.50_x_11.00_Inches)
  6

 40
6.35
 41
6.35
 42
6.35000508
 43
6.35000508
 44
215.9
 45
279.4
 46
0.0
 47
0.0
 48
0.0
 49
0.0
140
0.0
141
0.0
142
1.0
143
1.0
 70
  1712
 72
     1
 73
     0
 74
     0
  7

 75
     0
147
1.0
148
0.0
149
0.0
100
AcDbLayout
  1
Model
 70
     1
 71
     0
 10
0.0
 20
0.0
 11
297.0
 21
210.0
 12
0.0
 22
0.0
 32
0.0
 14
0.0
 24
0.0
 34
0.0
 15
297.0
 25
210.0
 35
0.0
146
0.0
 13
0.0
 23
0.0
 33
0.0
 16
1.0
 26
0.0
 36
0.0
 17
0.0
 27
1.0
 37
0.0
 76
     0
330
1F
331
29
  0
MLINESTYLE
  5
18
102
{ACAD_REACTORS
330
17
102
}
330
17
100
AcDbMlineStyle
  2
Standard
 70
     0
  3

 62
   256
 51
90.0
 52
90.0
 71
     2
 49
0.5
 62
   256
  6
BYLAYER
 49
-0.5
 62
   256
  6
BYLAYER
  0
ACDBPLACEHOLDER
  5
F
102
{ACAD_REACTORS
330
E
102
}
330
E
  0
SCALE
  5
48
102
{ACAD_REACTORS
330
47
102
}
330
47
100
AcDbScale
 70
     0
300
1:1
140
1.0
141
1.0
290
     1
  0
SCALE
  5
49
102
{ACAD_REACTORS
330
47
102
}
330
47
100
AcDbScale
 70
     0
300
1:2
140
1.0
141
2.0
290
     0
  0
SCALE
  5
4A
102
{ACAD_REACTORS
330
47
102
}
330
47
100
AcDbScale
 70
     0
300
1:4
140
1.0
141
4.0
290
     0
  0
SCALE
  5
4B
102
{ACAD_REACTORS
330
47
102
}
330
47
100
AcDbScale
 70
     0
300
1:5
140
1.0
141
5.0
290
     0
  0
SCALE
  5
4C
102
{ACAD_REACTORS
330
47
102
}
330
47
100
AcDbScale
 70
     0
300
1:8
140
1.0
141
8.0
290
     0
  0
SCALE
  5
4D
102
{ACAD_REACTORS
330
47
102
}
330
47
100
AcDbScale
 70
     0
300
1:10
140
1.0
141
10.0
290
     0
  0
SCALE
  5
4E
102
{ACAD_REACTORS
330
47
102
}
330
47
100
AcDbScale
 70
     0
300
1:16
140
1.0
141
16.0
290
     0
  0
SCALE
  5
4F
102
{ACAD_REACTORS
330
47
102
}
330
47
100
AcDbScale
 70
     0
300
1:20
140
1.0
141
20.0
290
     0
  0
SCALE
  5
50
102
{ACAD_REACTORS
330
47
102
}
330
47
100
AcDbScale
 70
     0
300
1:30
140
1.0
141
30.0
290
     0
  0
SCALE
  5
51
102
{ACAD_REACTORS
330
47
102
}
330
47
100
AcDbScale
 70
     0
300
1:40
140
1.0
141
40.0
290
     0
  0
SCALE
  5
52
102
{ACAD_REACTORS
330
47
102
}
330
47
100
AcDbScale
 70
     0
300
1:50
140
1.0
141
50.0
290
     0
  0
SCALE
  5
53
102
{ACAD_REACTORS
330
47
102
}
330
47
100
AcDbScale
 70
     0
300
1:100
140
1.0
141
100.0
290
     0
  0
SCALE
  5
54
102
{ACAD_REACTORS
330
47
102
}
330
47
100
AcDbScale
 70
     0
300
2:1
140
2.0
141
1.0
290
     0
  0
SCALE
  5
55
102
{ACAD_REACTORS
330
47
102
}
330
47
100
AcDbScale
 70
     0
300
4:1
140
4.0
141
1.0
290
     0
  0
SCALE
  5
56
102
{ACAD_REACTORS
330
47
102
}
330
47
100
AcDbScale
 70
     0
300
8:1
140
8.0
141
1.0
290
     0
  0
SCALE
  5
57
102
{ACAD_REACTORS
330
47
102
}
330
47
100
AcDbScale
 70
     0
300
10:1
140
10.0
141
1.0
290
     0
  0
SCALE
  5
58
102
{ACAD_REACTORS
330
47
102
}
330
47
100
AcDbScale
 70
     0
300
100:1
140
100.0
141
1.0
290
     0
  0
SCALE
  5
59
102
{ACAD_REACTORS
330
47
102
}
330
47
100
AcDbScale
 70
     0
300
1/128" = 1'-0"
140
0.0078125
141
12.0
290
     0
  0
SCALE
  5
5A
102
{ACAD_REACTORS
330
47
102
}
330
47
100
AcDbScale
 70
     0
300
1/64" = 1'-0"
140
0.015625
141
12.0
290
     0
  0
SCALE
  5
5B
102
{ACAD_REACTORS
330
47
102
}
330
47
100
AcDbScale
 70
     0
300
1/32" = 1'-0"
140
0.03125
141
12.0
290
     0
  0
SCALE
  5
5C
102
{ACAD_REACTORS
330
47
102
}
330
47
100
AcDbScale
 70
     0
300
1/16" = 1'-0"
140
0.0625
141
12.0
290
     0
  0
SCALE
  5
5D
102
{ACAD_REACTORS
330
47
102
}
330
47
100
AcDbScale
 70
     0
300
3/32" = 1'-0"
140
0.09375
141
12.0
290
     0
  0
SCALE
  5
5E
102
{ACAD_REACTORS
330
47
102
}
330
47
100
AcDbScale
 70
     0
300
1/8" = 1'-0"
140
0.125
141
12.0
290
     0
  0
SCALE
  5
5F
102
{ACAD_REACTORS
330
47
102
}
330
47
100
AcDbScale
 70
     0
300
3/16" = 1'-0"
140
0.1875
141
12.0
290
     0
  0
SCALE
  5
60
102
{ACAD_REACTORS
330
47
102
}
330
47
100
AcDbScale
 70
     0
300
1/4" = 1'-0"
140
0.25
141
12.0
290
     0
  0
SCALE
  5
61
102
{ACAD_REACTORS
330
47
102
}
330
47
100
AcDbScale
 70
     0
300
3/8" = 1'-0"
140
0.375
141
12.0
290
     0
  0
SCALE
  5
62
102
{ACAD_REACTORS
330
47
102
}
330
47
100
AcDbScale
 70
     0
300
1/2" = 1'-0"
140
0.5
141
12.0
290
     0
  0
SCALE
  5
63
102
{ACAD_REACTORS
330
47
102
}
330
47
100
AcDbScale
 70
     0
300
3/4" = 1'-0"
140
0.75
141
12.0
290
     0
  0
SCALE
  5
64
102
{ACAD_REACTORS
330
47
102
}
330
47
100
AcDbScale
 70
     0
300
1" = 1'-0"
140
1.0
141
12.0
290
     0
  0
SCALE
  5
65
102
{ACAD_REACTORS
330
47
102
}
330
47
100
AcDbScale
 70
     0
300
1-1/2" = 1'-0"
140
1.5
141
12.0
290
     0
  0
SCALE
  5
66
102
{ACAD_REACTORS
330
47
102
}
330
47
100
AcDbScale
 70
     0
300
3" = 1'-0"
140
3.0
141
12.0
290
     0
  0
SCALE
  5
67
102
{ACAD_REACTORS
330
47
102
}
330
47
100
AcDbScale
 70
     0
300
6" = 1'-0"
140
6.0
141
12.0
290
     0
  0
SCALE
  5
68
102
{ACAD_REACTORS
330
47
102
}
330
47
100
AcDbScale
 70
     0
300
1'-0" = 1'-0"
140
12.0
141
12.0
290
     0
  0
ENDSEC
  0
EOF
