  0
SECTION
  2
HEADER
  9
$ACADVER
  1
AC1015
  9
$ACADMAINTVER
 70
     6
  9
$DWGCODEPAGE
  3
ANSI_1252
  9
$INSBASE
 10
0.0
 20
0.0
 30
0.0
  9
$EXTMIN
 10
0.0
 20
0.0
 30
0.0
  9
$EXTMAX
 10
297.0
 20
210.0
 30
0.0
  9
$LIMMIN
 10
0.0
 20
0.0
  9
$LIMMAX
 10
297.0
 20
210.0
  9
$ORTHOMODE
 70
     0
  9
$REGENMODE
 70
     1
  9
$FILLMODE
 70
     1
  9
$QTEXTMODE
 70
     0
  9
$MIRRTEXT
 70
     1
  9
$LTSCALE
 40
1.0
  9
$ATTMODE
 70
     1
  9
$TEXTSIZE
 40
2.0
  9
$TRACEWID
 40
1.0
  9
$TEXTSTYLE
  7
Standard
  9
$CLAYER
  8
0
  9
$CELTYPE
  6
ByLayer
  9
$CECOLOR
 62
   256
  9
$CELTSCALE
 40
1.0
  9
$DISPSILH
 70
     0
  9
$DIMSCALE
 40
1.0
  9
$DIMASZ
 40
3.0
  9
$DIMEXO
 40
0.0
  9
$DIMDLI
 40
3.75
  9
$DIMRND
 40
0.0
  9
$DIMDLE
 40
0.0
  9
$DIMEXE
 40
1.0
  9
$DIMTP
 40
0.0
  9
$DIMTM
 40
0.0
  9
$DIMTXT
 40
2.0
  9
$DIMCEN
 40
2.5
  9
$DIMTSZ
 40
0.0
  9
$DIMTOL
 70
     0
  9
$DIMLIM
 70
     0
  9
$DIMTIH
 70
     1
  9
$DIMTOH
 70
     1
  9
$DIMSE1
 70
     0
  9
$DIMSE2
 70
     0
  9
$DIMTAD
 70
     1
  9
$DIMZIN
 70
     0
  9
$DIMBLK
  1

  9
$DIMASO
 70
     1
  9
$DIMSHO
 70
     1
  9
$DIMPOST
  1

  9
$DIMAPOST
  1

  9
$DIMALT
 70
     0
  9
$DIMALTD
 70
     3
  9
$DIMALTF
 40
0.0393700787
  9
$DIMLFAC
 40
2.0
  9
$DIMTOFL
 70
     1
  9
$DIMTVP
 40
0.0
  9
$DIMTIX
 70
     0
  9
$DIMSOXD
 70
     0
  9
$DIMSAH
 70
     0
  9
$DIMBLK1
  1

  9
$DIMBLK2
  1

  9
$DIMSTYLE
  2
ISO-25
  9
$DIMCLRD
 70
     0
  9
$DIMCLRE
 70
     0
  9
$DIMCLRT
 70
     0
  9
$DIMTFAC
 40
1.0
  9
$DIMGAP
 40
1.524
  9
$DIMJUST
 70
     0
  9
$DIMSD1
 70
     0
  9
$DIMSD2
 70
     0
  9
$DIMTOLJ
 70
     0
  9
$DIMTZIN
 70
     0
  9
$DIMALTZ
 70
     0
  9
$DIMALTTZ
 70
     0
  9
$DIMUPT
 70
     0
  9
$DIMDEC
 70
     2
  9
$DIMTDEC
 70
     3
  9
$DIMALTU
 70
     2
  9
$DIMALTTD
 70
     3
  9
$DIMTXSTY
  7
Standard
  9
$DIMAUNIT
 70
     0
  9
$DIMADEC
 70
     2
  9
$DIMALTRND
 40
0.0
  9
$DIMAZIN
 70
     0
  9
$DIMDSEP
 70
    44
  9
$DIMATFIT
 70
     3
  9
$DIMFRAC
 70
     0
  9
$DIMLDRBLK
  1

  9
$DIMLUNIT
 70
     2
  9
$DIMLWD
 70
    -2
  9
$DIMLWE
 70
    -2
  9
$DIMTMOVE
 70
     0
  9
$LUNITS
 70
     2
  9
$LUPREC
 70
     2
  9
$SKETCHINC
 40
1.0
  9
$FILLETRAD
 40
10.0
  9
$AUNITS
 70
     0
  9
$AUPREC
 70
     2
  9
$MENU
  1
.
  9
$ELEVATION
 40
0.0
  9
$PELEVATION
 40
0.0
  9
$THICKNESS
 40
0.0
  9
$LIMCHECK
 70
     0
  9
$CHAMFERA
 40
0.0
  9
$CHAMFERB
 40
0.0
  9
$CHAMFERC
 40
0.0
  9
$CHAMFERD
 40
0.0
  9
$SKPOLY
 70
     0
  9
$TDCREATE
 40
2458169.554667141
  9
$TDUCREATE
 40
2458169.513000474
  9
$TDUPDATE
 40
2458169.554669537
  9
$TDUUPDATE
 40
2458169.51300287
  9
$TDINDWG
 40
0.0000000116
  9
$TDUSRTIMER
 40
0.0000000116
  9
$USRTIMER
 70
     1
  9
$ANGBASE
 50
0.0
  9
$ANGDIR
 70
     0
  9
$PDMODE
 70
     0
  9
$PDSIZE
 40
-1.0
  9
$PLINEWID
 40
0.0
  9
$SPLFRAME
 70
     0
  9
$SPLINETYPE
 70
     6
  9
$SPLINESEGS
 70
     8
  9
$HANDSEED
  5
26D
  9
$SURFTAB1
 70
     6
  9
$SURFTAB2
 70
     6
  9
$SURFTYPE
 70
     6
  9
$SURFU
 70
     6
  9
$SURFV
 70
     6
  9
$UCSBASE
  2

  9
$UCSNAME
  2

  9
$UCSORG
 10
0.0
 20
0.0
 30
0.0
  9
$UCSXDIR
 10
1.0
 20
0.0
 30
0.0
  9
$UCSYDIR
 10
0.0
 20
1.0
 30
0.0
  9
$UCSORTHOREF
  2

  9
$UCSORTHOVIEW
 70
     0
  9
$UCSORGTOP
 10
0.0
 20
0.0
 30
0.0
  9
$UCSORGBOTTOM
 10
0.0
 20
0.0
 30
0.0
  9
$UCSORGLEFT
 10
0.0
 20
0.0
 30
0.0
  9
$UCSORGRIGHT
 10
0.0
 20
0.0
 30
0.0
  9
$UCSORGFRONT
 10
0.0
 20
0.0
 30
0.0
  9
$UCSORGBACK
 10
0.0
 20
0.0
 30
0.0
  9
$PUCSBASE
  2

  9
$PUCSNAME
  2

  9
$PUCSORG
 10
0.0
 20
0.0
 30
0.0
  9
$PUCSXDIR
 10
1.0
 20
0.0
 30
0.0
  9
$PUCSYDIR
 10
0.0
 20
1.0
 30
0.0
  9
$PUCSORTHOREF
  2

  9
$PUCSORTHOVIEW
 70
     0
  9
$PUCSORGTOP
 10
0.0
 20
0.0
 30
0.0
  9
$PUCSORGBOTTOM
 10
0.0
 20
0.0
 30
0.0
  9
$PUCSORGLEFT
 10
0.0
 20
0.0
 30
0.0
  9
$PUCSORGRIGHT
 10
0.0
 20
0.0
 30
0.0
  9
$PUCSORGFRONT
 10
0.0
 20
0.0
 30
0.0
  9
$PUCSORGBACK
 10
0.0
 20
0.0
 30
0.0
  9
$USERI1
 70
     0
  9
$USERI2
 70
     0
  9
$USERI3
 70
     0
  9
$USERI4
 70
     0
  9
$USERI5
 70
     0
  9
$USERR1
 40
0.0
  9
$USERR2
 40
0.0
  9
$USERR3
 40
0.0
  9
$USERR4
 40
0.0
  9
$USERR5
 40
0.0
  9
$WORLDVIEW
 70
     1
  9
$SHADEDGE
 70
     3
  9
$SHADEDIF
 70
    70
  9
$TILEMODE
 70
     1
  9
$MAXACTVP
 70
    64
  9
$PINSBASE
 10
0.0
 20
0.0
 30
0.0
  9
$PLIMCHECK
 70
     0
  9
$PEXTMIN
 10
1.0000000000E+20
 20
1.0000000000E+20
 30
1.0000000000E+20
  9
$PEXTMAX
 10
-1.0000000000E+20
 20
-1.0000000000E+20
 30
-1.0000000000E+20
  9
$PLIMMIN
 10
0.0
 20
0.0
  9
$PLIMMAX
 10
420.0
 20
297.0
  9
$UNITMODE
 70
     0
  9
$VISRETAIN
 70
     1
  9
$PLINEGEN
 70
     0
  9
$PSLTSCALE
 70
     1
  9
$TREEDEPTH
 70
  3020
  9
$CMLSTYLE
  2
Standard
  9
$CMLJUST
 70
     0
  9
$CMLSCALE
 40
20.0
  9
$PROXYGRAPHICS
 70
     1
  9
$MEASUREMENT
 70
     1
  9
$CELWEIGHT
370
    -1
  9
$ENDCAPS
280
     0
  9
$JOINSTYLE
280
     0
  9
$LWDISPLAY
290
     1
  9
$INSUNITS
 70
     4
  9
$HYPERLINKBASE
  1

  9
$STYLESHEET
  1

  9
$XEDIT
290
     1
  9
$CEPSNTYPE
380
     0
  9
$PSTYLEMODE
290
     1
  9
$FINGERPRINTGUID
  2
{06CCA2AD-CDC5-405D-9780-E84572B1377F}
  9
$VERSIONGUID
  2
{FAEB1C32-E019-11D5-929B-00C0DF256EC4}
  9
$EXTNAMES
290
     1
  9
$PSVPSCALE
 40
0.0
  9
$OLESTARTUP
290
     0
  0
ENDSEC
  0
SECTION
  2
CLASSES
  0
CLASS
  1
ACDBDICTIONARYWDFLT
  2
AcDbDictionaryWithDefault
  3
ObjectDBX Classes
 90
        0
280
     0
281
     0
  0
CLASS
  1
VISUALSTYLE
  2
AcDbVisualStyle
  3
ObjectDBX Classes
 90
     4095
280
     0
281
     0
  0
CLASS
  1
MATERIAL
  2
AcDbMaterial
  3
ObjectDBX Classes
 90
     1153
280
     0
281
     0
  0
CLASS
  1
SCALE
  2
AcDbScale
  3
ObjectDBX Classes
 90
     1153
280
     0
281
     0
  0
CLASS
  1
TABLESTYLE
  2
AcDbTableStyle
  3
ObjectDBX Classes
 90
     4095
280
     0
281
     0
  0
CLASS
  1
MLEADERSTYLE
  2
AcDbMLeaderStyle
  3
ACDB_MLEADERSTYLE_CLASS
 90
     4095
280
     0
281
     0
  0
CLASS
  1
SUN
  2
AcDbSun
  3
SCENEOE
 90
     1153
280
     0
281
     0
  0
CLASS
  1
ACDBPLACEHOLDER
  2
AcDbPlaceHolder
  3
ObjectDBX Classes
 90
        0
280
     0
281
     0
  0
CLASS
  1
LAYOUT
  2
AcDbLayout
  3
ObjectDBX Classes
 90
        0
280
     0
281
     0
  0
ENDSEC
  0
SECTION
  2
TABLES
  0
TABLE
  2
VPORT
  5
8
330
0
100
AcDbSymbolTable
 70
     1
  0
VPORT
  5
29
330
8
100
AcDbSymbolTableRecord
100
AcDbViewportTableRecord
  2
*Active
 70
     0
 10
0.0
 20
0.0
 11
1.0
 21
1.0
 12
148.5
 22
105.0
 13
0.0
 23
0.0
 14
10.0
 24
10.0
 15
10.0
 25
10.0
 16
0.0
 26
0.0
 36
1.0
 17
0.0
 27
0.0
 37
0.0
 40
210.0
 41
1.4142857143
 42
50.0
 43
0.0
 44
0.0
 50
0.0
 51
0.0
 71
     0
 72
  2000
 73
     1
 74
     3
 75
     0
 76
     0
 77
     0
 78
     0
281
     0
 65
     1
110
0.0
120
0.0
130
0.0
111
1.0
121
0.0
131
0.0
112
0.0
122
1.0
132
0.0
 79
     0
146
0.0
  0
ENDTAB
  0
TABLE
  2
LTYPE
  5
5
330
0
100
AcDbSymbolTable
 70
     6
  0
LTYPE
  5
14
330
5
100
AcDbSymbolTableRecord
100
AcDbLinetypeTableRecord
  2
ByBlock
 70
     0
  3

 72
    65
 73
     0
 40
0.0
  0
LTYPE
  5
15
330
5
100
AcDbSymbolTableRecord
100
AcDbLinetypeTableRecord
  2
ByLayer
 70
     0
  3

 72
    65
 73
     0
 40
0.0
  0
LTYPE
  5
16
330
5
100
AcDbSymbolTableRecord
100
AcDbLinetypeTableRecord
  2
Continuous
 70
     0
  3
Solid line
 72
    65
 73
     0
 40
0.0
  0
LTYPE
  5
6E
330
5
100
AcDbSymbolTableRecord
100
AcDbLinetypeTableRecord
  2
HIDDEN
 70
     0
  3
Hidden __ __ __ __ __ __ __ __ __ __ __ __ __ __
 72
    65
 73
     2
 40
1.905
 49
1.27
 74
     0
 49
-0.635
 74
     0
  0
LTYPE
  5
6F
330
5
100
AcDbSymbolTableRecord
100
AcDbLinetypeTableRecord
  2
PHANTOM
 70
     0
  3
Phantom ______  __  __  ______  __  __  ______
 72
    65
 73
     6
 40
12.7
 49
6.35
 74
     0
 49
-1.27
 74
     0
 49
1.27
 74
     0
 49
-1.27
 74
     0
 49
1.27
 74
     0
 49
-1.27
 74
     0
  0
LTYPE
  5
70
330
5
100
AcDbSymbolTableRecord
100
AcDbLinetypeTableRecord
  2
CENTER
 70
     0
  3
Center ____ _ ____ _ ____ _ ____ _ ____ _ ____
 72
    65
 73
     4
 40
10.16
 49
6.35
 74
     0
 49
-1.27
 74
     0
 49
1.27
 74
     0
 49
-1.27
 74
     0
  0
LTYPE
  5
71
330
5
100
AcDbSymbolTableRecord
100
AcDbLinetypeTableRecord
  2
CENTERX2
 70
     0
  3
Center (2x) ________  __  ________  __  _____
 72
    65
 73
     4
 40
20.32
 49
12.7
 74
     0
 49
-2.54
 74
     0
 49
2.54
 74
     0
 49
-2.54
 74
     0
  0
LTYPE
  5
72
330
5
100
AcDbSymbolTableRecord
100
AcDbLinetypeTableRecord
  2
DOT2
 70
     0
  3
Dot (.5x) ........................................
 72
    65
 73
     2
 40
0.635
 49
0.0
 74
     0
 49
-0.635
 74
     0
  0
ENDTAB
  0
TABLE
  2
LAYER
  5
2
330
0
100
AcDbSymbolTable
 70
     5
  0
LAYER
  5
10
330
2
100
AcDbSymbolTableRecord
100
AcDbLayerTableRecord
  2
0
 70
     0
 62
     7
  6
Continuous
370
    -3
390
F
  0
LAYER
  5
73
330
2
100
AcDbSymbolTableRecord
100
AcDbLayerTableRecord
  2
FORMAT
 70
     0
 62
     7
  6
Continuous
370
    -3
390
F
  0
LAYER
  5
74
330
2
100
AcDbSymbolTableRecord
100
AcDbLayerTableRecord
  2
VERMASSUNG
 70
     0
 62
     7
  6
Continuous
370
    -3
390
F
  0
LAYER
  5
75
330
2
100
AcDbSymbolTableRecord
100
AcDbLayerTableRecord
  2
KOPF_DÜNN
 70
     0
 62
     7
  6
Continuous
370
    -3
390
F
  0
LAYER
  5
76
330
2
100
AcDbSymbolTableRecord
100
AcDbLayerTableRecord
  2
KOPF_DICK
 70
     0
 62
     7
  6
Continuous
370
    25
390
F
  0
ENDTAB
  0
TABLE
  2
STYLE
  5
3
330
0
100
AcDbSymbolTable
 70
     2
  0
STYLE
  5
11
330
3
100
AcDbSymbolTableRecord
100
AcDbTextStyleTableRecord
  2
Standard
 70
     0
 40
0.0
 41
1.0
 50
0.0
 71
     0
 42
2.0
  3
txt
  4

  0
STYLE
  5
77
330
3
100
AcDbSymbolTableRecord
100
AcDbTextStyleTableRecord
  2
SLDTEXTSTYLE0
 70
     0
 40
0.0
 41
0.7
 50
0.0
 71
     0
 42
2.0
  3
TXT
  4

  0
ENDTAB
  0
TABLE
  2
VIEW
  5
6
330
0
100
AcDbSymbolTable
 70
     0
  0
ENDTAB
  0
TABLE
  2
UCS
  5
7
330
0
100
AcDbSymbolTable
 70
     0
  0
ENDTAB
  0
TABLE
  2
APPID
  5
9
330
0
100
AcDbSymbolTable
 70
     1
  0
APPID
  5
12
330
9
100
AcDbSymbolTableRecord
100
AcDbRegAppTableRecord
  2
ACAD
 70
     0
  0
ENDTAB
  0
TABLE
  2
DIMSTYLE
  5
A
330
0
100
AcDbSymbolTable
 70
     4
100
AcDbDimStyleTable
  0
DIMSTYLE
105
27
330
A
100
AcDbSymbolTableRecord
100
AcDbDimStyleTableRecord
  2
ISO-25
 70
     0
 41
2.5
 42
0.625
 43
3.75
 44
1.25
 73
     0
 74
     0
 77
     1
 78
     8
140
2.5
141
2.5
143
0.0393700787
147
0.625
171
     3
172
     1
178
     0
271
     2
272
     2
274
     3
278
    44
283
     0
284
     8
340
11
  0
DIMSTYLE
105
112
102
{ACAD_REACTORS
330
111
330
11D
330
136
330
140
330
14A
330
154
102
}
330
A
100
AcDbSymbolTableRecord
100
AcDbDimStyleTableRecord
  2
SLDDIMSTYLE0
 70
     0
 41
3.0
 44
0.0
 45
0.000000001
 73
     0
 74
     0
 77
     1
 78
    12
 79
     3
140
2.0
147
0.5
173
     1
178
     0
271
     2
272
     3
276
     2
284
    12
340
77
  0
DIMSTYLE
105
129
102
{ACAD_REACTORS
330
128
102
}
330
A
100
AcDbSymbolTableRecord
100
AcDbDimStyleTableRecord
  2
SLDDIMSTYLE1
 70
     0
 41
3.0
 44
0.0
 45
0.000000001
 73
     0
 74
     0
 77
     1
 78
    12
 79
     3
140
2.0
147
0.5
173
     1
178
     0
271
     1
272
     3
276
     2
284
    12
340
77
  0
DIMSTYLE
105
15F
102
{ACAD_REACTORS
330
15E
102
}
330
A
100
AcDbSymbolTableRecord
100
AcDbDimStyleTableRecord
  2
SLDDIMSTYLE2
 70
     0
 41
3.0
 44
0.0
 45
0.000000001
 73
     0
 74
     0
 77
     1
 78
    12
 79
     3
140
2.0
147
0.5
172
     1
173
     1
178
     0
271
     0
272
     3
276
     2
284
    12
289
     0
340
77
  0
ENDTAB
  0
TABLE
  2
BLOCK_RECORD
  5
1
330
0
100
AcDbSymbolTable
 70
     9
  0
BLOCK_RECORD
  5
1F
330
1
100
AcDbSymbolTableRecord
100
AcDbBlockTableRecord
  2
*Model_Space
340
22
  0
BLOCK_RECORD
  5
1B
330
1
100
AcDbSymbolTableRecord
100
AcDbBlockTableRecord
  2
*Paper_Space
340
1E
  0
BLOCK_RECORD
  5
23
330
1
100
AcDbSymbolTableRecord
100
AcDbBlockTableRecord
  2
*Paper_Space0
340
26
  0
BLOCK_RECORD
  5
113
330
1
100
AcDbSymbolTableRecord
100
AcDbBlockTableRecord
  2
_D
340
0
  0
BLOCK_RECORD
  5
11E
330
1
100
AcDbSymbolTableRecord
100
AcDbBlockTableRecord
  2
_D_1
340
0
  0
BLOCK_RECORD
  5
12A
330
1
100
AcDbSymbolTableRecord
100
AcDbBlockTableRecord
  2
_D_2
340
0
  0
BLOCK_RECORD
  5
137
330
1
100
AcDbSymbolTableRecord
100
AcDbBlockTableRecord
  2
_D_3
340
0
  0
BLOCK_RECORD
  5
141
330
1
100
AcDbSymbolTableRecord
100
AcDbBlockTableRecord
  2
_D_4
340
0
  0
BLOCK_RECORD
  5
14B
330
1
100
AcDbSymbolTableRecord
100
AcDbBlockTableRecord
  2
_D_5
340
0
  0
BLOCK_RECORD
  5
155
330
1
100
AcDbSymbolTableRecord
100
AcDbBlockTableRecord
  2
_D_6
340
0
  0
BLOCK_RECORD
  5
160
330
1
100
AcDbSymbolTableRecord
100
AcDbBlockTableRecord
  2
_D_7
340
0
  0
ENDTAB
  0
ENDSEC
  0
SECTION
  2
BLOCKS
  0
BLOCK
  5
20
330
1F
100
AcDbEntity
  8
0
100
AcDbBlockBegin
  2
*Model_Space
 70
     0
 10
0.0
 20
0.0
 30
0.0
  3
*Model_Space
  1

  0
ENDBLK
  5
21
330
1F
100
AcDbEntity
  8
0
100
AcDbBlockEnd
  0
BLOCK
  5
1C
330
1B
100
AcDbEntity
 67
     1
  8
0
100
AcDbBlockBegin
  2
*Paper_Space
 70
     0
 10
0.0
 20
0.0
 30
0.0
  3
*Paper_Space
  1

  0
ENDBLK
  5
1D
330
1B
100
AcDbEntity
 67
     1
  8
0
100
AcDbBlockEnd
  0
BLOCK
  5
24
330
23
100
AcDbEntity
  8
0
100
AcDbBlockBegin
  2
*Paper_Space0
 70
     0
 10
0.0
 20
0.0
 30
0.0
  3
*Paper_Space0
  1

  0
ENDBLK
  5
25
330
23
100
AcDbEntity
  8
0
100
AcDbBlockEnd
  0
BLOCK
  5
114
330
113
100
AcDbEntity
  8
0
100
AcDbBlockBegin
  2
_D
 70
     0
 10
0.0
 20
0.0
 30
0.0
  3
_D
  1

  0
SOLID
  5
116
330
113
100
AcDbEntity
  8
VERMASSUNG
100
AcDbTrace
 10
255.5171916283
 20
109.5198661792
 30
0.0
 11
255.9671916283
 21
112.5198661792
 31
0.0
 12
255.0671916283
 22
112.5198661792
 32
0.0
 13
255.0671916283
 23
112.5198661792
 33
0.0
  0
SOLID
  5
117
330
113
100
AcDbEntity
  8
VERMASSUNG
100
AcDbTrace
 10
255.5171916283
 20
125.5198661792
 30
0.0
 11
255.0671916283
 21
122.5198661792
 31
0.0
 12
255.9671916283
 22
122.5198661792
 32
0.0
 13
255.9671916283
 23
122.5198661792
 33
0.0
  0
LINE
  5
118
330
113
100
AcDbEntity
  8
VERMASSUNG
100
AcDbLine
 10
226.3379772513
 20
109.5198661792
 30
0.0
 11
256.5171916283
 21
109.5198661792
 31
0.0
  0
LINE
  5
119
330
113
100
AcDbEntity
  8
VERMASSUNG
100
AcDbLine
 10
226.3379772513
 20
125.5198661792
 30
0.0
 11
256.5171916283
 21
125.5198661792
 31
0.0
  0
LINE
  5
11A
330
113
100
AcDbEntity
  8
VERMASSUNG
100
AcDbLine
 10
255.5171916283
 20
109.5198661792
 30
0.0
 11
255.5171916283
 21
125.5198661792
 31
0.0
  0
MTEXT
  5
11B
330
113
100
AcDbEntity
  8
VERMASSUNG
100
AcDbMText
 10
252.9390563234
 20
114.5148661151
 30
0.0
 40
2.0
 41
0.0
 71
     1
 72
     1
  1
%%c
  7
SLDTEXTSTYLE0
 11
6.123233995736766E-17
 21
1.0
 31
0.0
 73
     1
 44
1.0
  0
MTEXT
  5
11C
330
113
100
AcDbEntity
  8
VERMASSUNG
100
AcDbMText
 10
252.7390563721
 20
118.1248661294
 30
0.0
 40
2.0
 41
0.0
 71
     1
 72
     1
  1
16
  7
SLDTEXTSTYLE0
 11
6.123233995736766E-17
 21
1.0
 31
0.0
 73
     1
 44
1.0
  0
ENDBLK
  5
115
330
113
100
AcDbEntity
  8
0
100
AcDbBlockEnd
  0
BLOCK
  5
11F
330
11E
100
AcDbEntity
  8
0
100
AcDbBlockBegin
  2
_D_1
 70
     0
 10
0.0
 20
0.0
 30
0.0
  3
_D_1
  1

  0
SOLID
  5
121
330
11E
100
AcDbEntity
  8
VERMASSUNG
100
AcDbTrace
 10
263.8213724048
 20
98.5198661792
 30
0.0
 11
264.2713724048
 21
101.5198661792
 31
0.0
 12
263.3713724048
 22
101.5198661792
 32
0.0
 13
263.3713724048
 23
101.5198661792
 33
0.0
  0
SOLID
  5
122
330
11E
100
AcDbEntity
  8
VERMASSUNG
100
AcDbTrace
 10
263.8213724048
 20
136.5198661792
 30
0.0
 11
263.3713724048
 21
133.5198661792
 31
0.0
 12
264.2713724048
 22
133.5198661792
 32
0.0
 13
264.2713724048
 23
133.5198661792
 33
0.0
  0
LINE
  5
123
330
11E
100
AcDbEntity
  8
VERMASSUNG
100
AcDbLine
 10
209.3379772513
 20
98.5198661792
 30
0.0
 11
264.8213724048
 21
98.5198661792
 31
0.0
  0
LINE
  5
124
330
11E
100
AcDbEntity
  8
VERMASSUNG
100
AcDbLine
 10
209.3379772513
 20
136.5198661792
 30
0.0
 11
264.8213724048
 21
136.5198661792
 31
0.0
  0
LINE
  5
125
330
11E
100
AcDbEntity
  8
VERMASSUNG
100
AcDbLine
 10
263.8213724048
 20
98.5198661792
 30
0.0
 11
263.8213724048
 21
136.5198661792
 31
0.0
  0
MTEXT
  5
126
330
11E
100
AcDbEntity
  8
VERMASSUNG
100
AcDbMText
 10
261.2432370999
 20
114.314866222
 30
0.0
 40
2.0
 41
0.0
 71
     1
 72
     1
  1
%%c
  7
SLDTEXTSTYLE0
 11
6.123233995736766E-17
 21
1.0
 31
0.0
 73
     1
 44
1.0
  0
MTEXT
  5
127
330
11E
100
AcDbEntity
  8
VERMASSUNG
100
AcDbMText
 10
261.0432371486
 20
117.9248662363
 30
0.0
 40
2.0
 41
0.0
 71
     1
 72
     1
  1
38
  7
SLDTEXTSTYLE0
 11
6.123233995736766E-17
 21
1.0
 31
0.0
 73
     1
 44
1.0
  0
ENDBLK
  5
120
330
11E
100
AcDbEntity
  8
0
100
AcDbBlockEnd
  0
BLOCK
  5
12B
330
12A
100
AcDbEntity
  8
0
100
AcDbBlockBegin
  2
_D_2
 70
     0
 10
0.0
 20
0.0
 30
0.0
  3
_D_2
  1

  0
SOLID
  5
12D
330
12A
100
AcDbEntity
  8
VERMASSUNG
100
AcDbTrace
 10
49.9879522513
 20
148.9948661792
 30
0.0
 11
49.5379522513
 21
145.9948661792
 31
0.0
 12
50.4379522513
 22
145.9948661792
 32
0.0
 13
50.4379522513
 23
145.9948661792
 33
0.0
  0
SOLID
  5
12E
330
12A
100
AcDbEntity
  8
VERMASSUNG
100
AcDbTrace
 10
49.9879522513
 20
86.0448661792
 30
0.0
 11
50.4379522513
 21
89.0448661792
 31
0.0
 12
49.5379522513
 22
89.0448661792
 32
0.0
 13
49.5379522513
 23
89.0448661792
 33
0.0
  0
LINE
  5
12F
330
12A
100
AcDbEntity
  8
VERMASSUNG
100
AcDbLine
 10
100.1379772513
 20
148.9948661792
 30
0.0
 11
48.9879522513
 21
148.9948661792
 31
0.0
  0
LINE
  5
130
330
12A
100
AcDbEntity
  8
VERMASSUNG
100
AcDbLine
 10
100.1379772513
 20
86.0448661792
 30
0.0
 11
48.9879522513
 21
86.0448661792
 31
0.0
  0
LINE
  5
131
330
12A
100
AcDbEntity
  8
VERMASSUNG
100
AcDbLine
 10
49.9879522513
 20
148.9948661792
 30
0.0
 11
49.9879522513
 21
86.0448661792
 31
0.0
  0
MTEXT
  5
132
330
12A
100
AcDbEntity
  8
VERMASSUNG
100
AcDbMText
 10
47.2098169951
 20
109.4148675608
 30
0.0
 40
2.0
 41
0.0
 71
     1
 72
     1
  1
KM
  7
SLDTEXTSTYLE0
 11
-7.044195017643634E-15
 21
1.0
 31
0.0
 73
     1
 44
1.0
  0
MTEXT
  5
133
330
12A
100
AcDbEntity
  8
VERMASSUNG
100
AcDbMText
 10
47.4098169464
 20
112.8148673731
 30
0.0
 40
2.0
 41
0.0
 71
     1
 72
     1
  1
%%c
  7
SLDTEXTSTYLE0
 11
-7.044195017643634E-15
 21
1.0
 31
0.0
 73
     1
 44
1.0
  0
MTEXT
  5
134
330
12A
100
AcDbEntity
  8
VERMASSUNG
100
AcDbMText
 10
47.2098169951
 20
116.4248673874
 30
0.0
 40
2.0
 41
0.0
 71
     1
 72
     1
  1
63
  7
SLDTEXTSTYLE0
 11
-7.044195017643634E-15
 21
1.0
 31
0.0
 73
     1
 44
1.0
  0
MTEXT
  5
135
330
12A
100
AcDbEntity
  8
VERMASSUNG
100
AcDbMText
 10
47.2098169951
 20
120.4123672876
 30
0.0
 40
2.0
 41
0.0
 71
     1
 72
     1
  1
XMZ
  7
SLDTEXTSTYLE0
 11
-7.044195017643634E-15
 21
1.0
 31
0.0
 73
     1
 44
1.0
  0
ENDBLK
  5
12C
330
12A
100
AcDbEntity
  8
0
100
AcDbBlockEnd
  0
BLOCK
  5
138
330
137
100
AcDbEntity
  8
0
100
AcDbBlockBegin
  2
_D_3
 70
     0
 10
0.0
 20
0.0
 30
0.0
  3
_D_3
  1

  0
SOLID
  5
13A
330
137
100
AcDbEntity
  8
VERMASSUNG
100
AcDbTrace
 10
117.9379772513
 20
154.8880767155
 30
0.0
 11
120.9379772513
 21
154.4380767155
 31
0.0
 12
120.9379772513
 22
155.3380767155
 32
0.0
 13
120.9379772513
 23
155.3380767155
 33
0.0
  0
SOLID
  5
13B
330
137
100
AcDbEntity
  8
VERMASSUNG
100
AcDbTrace
 10
209.9379772513
 20
154.8880767155
 30
0.0
 11
206.9379772513
 21
155.3380767155
 31
0.0
 12
206.9379772513
 22
154.4380767155
 32
0.0
 13
206.9379772513
 23
154.4380767155
 33
0.0
  0
LINE
  5
13C
330
137
100
AcDbEntity
  8
VERMASSUNG
100
AcDbLine
 10
117.9379772513
 20
148.9948661792
 30
0.0
 11
117.9379772513
 21
155.8880767155
 31
0.0
  0
LINE
  5
13D
330
137
100
AcDbEntity
  8
VERMASSUNG
100
AcDbLine
 10
209.9379772513
 20
135.9198661792
 30
0.0
 11
209.9379772513
 21
155.8880767155
 31
0.0
  0
LINE
  5
13E
330
137
100
AcDbEntity
  8
VERMASSUNG
100
AcDbLine
 10
117.9379772513
 20
154.8880767155
 30
0.0
 11
209.9379772513
 21
154.8880767155
 31
0.0
  0
MTEXT
  5
13F
330
137
100
AcDbEntity
  8
VERMASSUNG
100
AcDbMText
 10
162.5379773012
 20
157.4662123114
 30
0.0
 40
2.0
 41
0.0
 71
     1
 72
     1
  1
92
  7
SLDTEXTSTYLE0
 73
     1
 44
1.0
  0
ENDBLK
  5
139
330
137
100
AcDbEntity
  8
0
100
AcDbBlockEnd
  0
BLOCK
  5
142
330
141
100
AcDbEntity
  8
0
100
AcDbBlockBegin
  2
_D_4
 70
     0
 10
0.0
 20
0.0
 30
0.0
  3
_D_4
  1

  0
SOLID
  5
144
330
141
100
AcDbEntity
  8
VERMASSUNG
100
AcDbTrace
 10
99.9379772513
 20
163.7204457438
 30
0.0
 11
102.9379772513
 21
163.2704457438
 31
0.0
 12
102.9379772513
 22
164.1704457438
 32
0.0
 13
102.9379772513
 23
164.1704457438
 33
0.0
  0
SOLID
  5
145
330
141
100
AcDbEntity
  8
VERMASSUNG
100
AcDbTrace
 10
209.9379772513
 20
163.7204457438
 30
0.0
 11
206.9379772513
 21
164.1704457438
 31
0.0
 12
206.9379772513
 22
163.2704457438
 32
0.0
 13
206.9379772513
 23
163.2704457438
 33
0.0
  0
LINE
  5
146
330
141
100
AcDbEntity
  8
VERMASSUNG
100
AcDbLine
 10
99.9379772513
 20
148.7948661792
 30
0.0
 11
99.9379772513
 21
164.7204457438
 31
0.0
  0
LINE
  5
147
330
141
100
AcDbEntity
  8
VERMASSUNG
100
AcDbLine
 10
209.9379772513
 20
135.9198661792
 30
0.0
 11
209.9379772513
 21
164.7204457438
 31
0.0
  0
LINE
  5
148
330
141
100
AcDbEntity
  8
VERMASSUNG
100
AcDbLine
 10
99.9379772513
 20
163.7204457438
 30
0.0
 11
209.9379772513
 21
163.7204457438
 31
0.0
  0
MTEXT
  5
149
330
141
100
AcDbEntity
  8
VERMASSUNG
100
AcDbMText
 10
153.2379772288
 20
166.2985813397
 30
0.0
 40
2.0
 41
0.0
 71
     1
 72
     1
  1
110
  7
SLDTEXTSTYLE0
 73
     1
 44
1.0
  0
ENDBLK
  5
143
330
141
100
AcDbEntity
  8
0
100
AcDbBlockEnd
  0
BLOCK
  5
14C
330
14B
100
AcDbEntity
  8
0
100
AcDbBlockBegin
  2
_D_5
 70
     0
 10
0.0
 20
0.0
 30
0.0
  3
_D_5
  1

  0
SOLID
  5
14E
330
14B
100
AcDbEntity
  8
VERMASSUNG
100
AcDbTrace
 10
59.9879772513
 20
170.9948661792
 30
0.0
 11
62.9879772513
 21
170.5448661792
 31
0.0
 12
62.9879772513
 22
171.4448661792
 32
0.0
 13
62.9879772513
 23
171.4448661792
 33
0.0
  0
SOLID
  5
14F
330
14B
100
AcDbEntity
  8
VERMASSUNG
100
AcDbTrace
 10
226.9379772513
 20
170.9948661792
 30
0.0
 11
223.9379772513
 21
171.4448661792
 31
0.0
 12
223.9379772513
 22
170.5448661792
 32
0.0
 13
223.9379772513
 23
170.5448661792
 33
0.0
  0
LINE
  5
150
330
14B
100
AcDbEntity
  8
VERMASSUNG
100
AcDbLine
 10
59.9879772513
 20
137.782091916
 30
0.0
 11
59.9879772513
 21
171.9948661792
 31
0.0
  0
LINE
  5
151
330
14B
100
AcDbEntity
  8
VERMASSUNG
100
AcDbLine
 10
226.9379772513
 20
122.3698661792
 30
0.0
 11
226.9379772513
 21
171.9948661792
 31
0.0
  0
LINE
  5
152
330
14B
100
AcDbEntity
  8
VERMASSUNG
100
AcDbLine
 10
59.9879772513
 20
170.9948661792
 30
0.0
 11
226.9379772513
 21
170.9948661792
 31
0.0
  0
MTEXT
  5
153
330
14B
100
AcDbEntity
  8
VERMASSUNG
100
AcDbMText
 10
139.8629773132
 20
173.5730017752
 30
0.0
 40
2.0
 41
0.0
 71
     1
 72
     1
  1
166.95
  7
SLDTEXTSTYLE0
 73
     1
 44
1.0
  0
ENDBLK
  5
14D
330
14B
100
AcDbEntity
  8
0
100
AcDbBlockEnd
  0
BLOCK
  5
156
330
155
100
AcDbEntity
  8
0
100
AcDbBlockBegin
  2
_D_6
 70
     0
 10
0.0
 20
0.0
 30
0.0
  3
_D_6
  1

  0
SOLID
  5
158
330
155
100
AcDbEntity
  8
VERMASSUNG
100
AcDbTrace
 10
209.9379772513
 20
154.8880767155
 30
0.0
 11
212.9379772513
 21
154.4380767155
 31
0.0
 12
212.9379772513
 22
155.3380767155
 32
0.0
 13
212.9379772513
 23
155.3380767155
 33
0.0
  0
SOLID
  5
159
330
155
100
AcDbEntity
  8
VERMASSUNG
100
AcDbTrace
 10
226.9379772513
 20
154.8880767155
 30
0.0
 11
223.9379772513
 21
155.3380767155
 31
0.0
 12
223.9379772513
 22
154.4380767155
 32
0.0
 13
223.9379772513
 23
154.4380767155
 33
0.0
  0
LINE
  5
15A
330
155
100
AcDbEntity
  8
VERMASSUNG
100
AcDbLine
 10
209.9379772513
 20
135.9198661792
 30
0.0
 11
209.9379772513
 21
155.8880767155
 31
0.0
  0
LINE
  5
15B
330
155
100
AcDbEntity
  8
VERMASSUNG
100
AcDbLine
 10
226.9379772513
 20
124.9198661792
 30
0.0
 11
226.9379772513
 21
155.8880767155
 31
0.0
  0
LINE
  5
15C
330
155
100
AcDbEntity
  8
VERMASSUNG
100
AcDbLine
 10
209.9379772513
 20
154.8880767155
 30
0.0
 11
226.9379772513
 21
154.8880767155
 31
0.0
  0
MTEXT
  5
15D
330
155
100
AcDbEntity
  8
VERMASSUNG
100
AcDbMText
 10
217.2379771943
 20
157.4662123114
 30
0.0
 40
2.0
 41
0.0
 71
     1
 72
     1
  1
17
  7
SLDTEXTSTYLE0
 73
     1
 44
1.0
  0
ENDBLK
  5
157
330
155
100
AcDbEntity
  8
0
100
AcDbBlockEnd
  0
BLOCK
  5
161
330
160
100
AcDbEntity
  8
0
100
AcDbBlockBegin
  2
_D_7
 70
     0
 10
0.0
 20
0.0
 30
0.0
  3
_D_7
  1

  0
SOLID
  5
163
330
160
100
AcDbEntity
  8
VERMASSUNG
100
AcDbTrace
 10
246.569740405
 20
114.4723661792
 30
0.0
 11
246.119740405
 21
111.4723661792
 31
0.0
 12
247.019740405
 22
111.4723661792
 32
0.0
 13
247.019740405
 23
111.4723661792
 33
0.0
  0
SOLID
  5
164
330
160
100
AcDbEntity
  8
VERMASSUNG
100
AcDbTrace
 10
246.569740405
 20
120.5673661792
 30
0.0
 11
247.019740405
 21
123.5673661792
 31
0.0
 12
246.119740405
 22
123.5673661792
 32
0.0
 13
246.119740405
 23
123.5673661792
 33
0.0
  0
LINE
  5
165
330
160
100
AcDbEntity
  8
VERMASSUNG
100
AcDbLine
 10
237.9379772513
 20
114.4723661792
 30
0.0
 11
247.569740405
 21
114.4723661792
 31
0.0
  0
LINE
  5
166
330
160
100
AcDbEntity
  8
VERMASSUNG
100
AcDbLine
 10
237.9379772513
 20
120.5673661792
 30
0.0
 11
247.569740405
 21
120.5673661792
 31
0.0
  0
LINE
  5
167
330
160
100
AcDbEntity
  8
VERMASSUNG
100
AcDbLine
 10
246.569740405
 20
114.4723661792
 30
0.0
 11
246.569740405
 21
108.4723661792
 31
0.0
  0
LINE
  5
168
330
160
100
AcDbEntity
  8
VERMASSUNG
100
AcDbLine
 10
246.569740405
 20
114.4723661792
 30
0.0
 11
246.569740405
 21
120.5673661792
 31
0.0
  0
LINE
  5
169
330
160
100
AcDbEntity
  8
VERMASSUNG
100
AcDbLine
 10
246.569740405
 20
120.5673661792
 30
0.0
 11
246.569740405
 21
126.5673661792
 31
0.0
  0
MTEXT
  5
16A
330
160
100
AcDbEntity
  8
VERMASSUNG
100
AcDbMText
 10
243.991604809
 20
114.9198661721
 30
0.0
 40
2.0
 41
0.0
 71
     1
 72
     1
  1
SW
  7
SLDTEXTSTYLE0
 11
6.123233995736766E-17
 21
1.0
 31
0.0
 73
     1
 44
1.0
  0
MTEXT
  5
16B
330
160
100
AcDbEntity
  8
VERMASSUNG
100
AcDbMText
 10
243.991604809
 20
118.7198662362
 30
0.0
 40
2.0
 41
0.0
 71
     1
 72
     1
  1
6
  7
SLDTEXTSTYLE0
 11
6.123233995736766E-17
 21
1.0
 31
0.0
 73
     1
 44
1.0
  0
ENDBLK
  5
162
330
160
100
AcDbEntity
  8
0
100
AcDbBlockEnd
  0
ENDSEC
  0
SECTION
  2
ENTITIES
  0
MTEXT
  5
78
330
1F
100
AcDbEntity
  8
KOPF_DÜNN
100
AcDbMText
 10
13.8892156294
 20
23.8442973028
 30
0.0
 40
3.0
 41
0.0
 71
     1
 72
     1
  1
KY6.D16.K21.110
  7
SLDTEXTSTYLE0
 73
     1
 44
1.0
  0
MTEXT
  5
79
330
1F
100
AcDbEntity
  8
VERMASSUNG
100
AcDbMText
 10
13.9329988022
 20
28.8834360957
 30
0.0
 40
3.0
 41
0.0
 71
     1
 72
     1
  1
Fräsdorn_Milling arbor
  7
SLDTEXTSTYLE0
 73
     1
 44
1.0
  0
MTEXT
  5
7A
330
1F
100
AcDbEntity
  8
VERMASSUNG
100
AcDbMText
 10
98.8601118557
 20
13.8365368761
 30
0.0
 40
2.0
 41
0.0
 71
     1
 72
     1
  1
Datum: 19.02.2018
  7
SLDTEXTSTYLE0
 73
     1
 44
1.0
  0
MTEXT
  5
7B
330
1F
100
AcDbEntity
  8
VERMASSUNG
100
AcDbMText
 10
13.933048693
 20
18.0482802738
 30
0.0
 40
2.0
 41
0.0
 71
     1
 72
     1
  1
KM63 XMZ / Ø16
  7
SLDTEXTSTYLE0
 73
     1
 44
1.0
  0
MTEXT
  5
7C
330
1F
100
AcDbEntity
  8
VERMASSUNG
100
AcDbMText
 10
13.9808475933
 20
13.9090974274
 30
0.0
 40
2.0
 41
0.0
 71
     1
 72
     1
  1
Gewicht: 1447g
  7
SLDTEXTSTYLE0
 73
     1
 44
1.0
  0
ARC
  5
7D
330
1F
100
AcDbEntity
  8
0
  6
Continuous
 62
     7
370
    25
100
AcDbCircle
 10
214.4379772513
 20
100.0198661792
 30
0.0
 40
0.5
100
AcDbArc
 50
270.0
 51
0.0
  0
ARC
  5
7E
330
1F
100
AcDbEntity
  8
0
  6
Continuous
 62
     7
370
    25
100
AcDbCircle
 10
214.4379772513
 20
107.0198661792
 30
0.0
 40
0.5
100
AcDbArc
 50
0.0
 51
90.0
  0
LINE
  5
7F
330
1F
100
AcDbEntity
  8
0
  6
Continuous
 62
     7
370
    25
100
AcDbLine
 10
209.9379766553
 20
99.5198669541
 30
0.0
 11
214.4379783242
 21
99.5198669541
 31
0.0
  0
LINE
  5
80
330
1F
100
AcDbEntity
  8
0
  6
Continuous
 62
     7
370
    25
100
AcDbLine
 10
214.4379783242
 20
107.5198664027
 30
0.0
 11
209.9379766553
 21
107.5198664027
 31
0.0
  0
ARC
  5
81
330
1F
100
AcDbEntity
  8
0
  6
Continuous
 62
     7
370
    25
100
AcDbCircle
 10
214.4379772513
 20
128.0198661792
 30
0.0
 40
0.5
100
AcDbArc
 50
270.0
 51
0.0
  0
ARC
  5
82
330
1F
100
AcDbEntity
  8
0
  6
Continuous
 62
     7
370
    25
100
AcDbCircle
 10
214.4379772513
 20
135.0198661792
 30
0.0
 40
0.5
100
AcDbArc
 50
0.0
 51
90.0
  0
LINE
  5
83
330
1F
100
AcDbEntity
  8
0
  6
Continuous
 62
     7
370
    25
100
AcDbLine
 10
209.9379766553
 20
127.5198659557
 30
0.0
 11
214.4379783242
 21
127.5198659557
 31
0.0
  0
LINE
  5
84
330
1F
100
AcDbEntity
  8
0
  6
Continuous
 62
     7
370
    25
100
AcDbLine
 10
214.4379783242
 20
135.5198654043
 30
0.0
 11
209.9379766553
 21
135.5198654043
 31
0.0
  0
LINE
  5
85
330
1F
100
AcDbEntity
  8
0
  6
Continuous
 62
     7
370
    25
100
AcDbLine
 10
237.5379819243
 20
124.0198663133
 30
0.0
 11
229.937972483
 21
124.0198663133
 31
0.0
  0
LINE
  5
86
330
1F
100
AcDbEntity
  8
0
  6
Continuous
 62
     7
370
    25
100
AcDbLine
 10
229.937972483
 20
111.0198660451
 30
0.0
 11
237.5379819243
 21
111.0198660451
 31
0.0
  0
ARC
  5
87
330
1F
100
AcDbEntity
  8
0
  6
Continuous
 62
     7
370
    25
100
AcDbCircle
 10
237.5379772513
 20
123.6198661792
 30
0.0
 40
0.4000000000000341
100
AcDbArc
 50
0.0
 51
90.0
  0
ARC
  5
88
330
1F
100
AcDbEntity
  8
0
  6
Continuous
 62
     7
370
    25
100
AcDbCircle
 10
237.5379772513
 20
111.4198661792
 30
0.0
 40
0.4000000000000341
100
AcDbArc
 50
270.0
 51
0.0
  0
ARC
  5
89
330
1F
100
AcDbEntity
  8
0
  6
Continuous
 62
     7
370
    25
100
AcDbCircle
 10
229.5379772513
 20
113.1198661792
 30
0.0
 40
0.4000000000000057
100
AcDbArc
 50
0.0
 51
90.0
  0
ARC
  5
8A
330
1F
100
AcDbEntity
  8
0
  6
Continuous
 62
     7
370
    25
100
AcDbCircle
 10
229.5379772513
 20
121.9198661792
 30
0.0
 40
0.4000000000000057
100
AcDbArc
 50
270.0
 51
0.0
  0
LINE
  5
8B
330
1F
100
AcDbEntity
  8
0
  6
Continuous
 62
     7
370
    25
100
AcDbLine
 10
229.537980613
 20
121.5198663692
 30
0.0
 11
226.9379813044
 21
121.5198663692
 31
0.0
  0
LINE
  5
8C
330
1F
100
AcDbEntity
  8
0
  6
Continuous
 62
     7
370
    25
100
AcDbLine
 10
226.9379813044
 20
113.5198659892
 30
0.0
 11
229.537980613
 21
113.5198659892
 31
0.0
  0
ARC
  5
8D
330
1F
100
AcDbEntity
  8
0
  6
Continuous
 62
     7
370
    25
100
AcDbCircle
 10
100.1379772513
 20
86.2448661792
 30
0.0
 40
0.2000000000000171
100
AcDbArc
 50
180.0
 51
270.0
  0
ARC
  5
8E
330
1F
100
AcDbEntity
  8
0
  6
Continuous
 62
     7
370
    25
100
AcDbCircle
 10
100.1379772513
 20
148.7948661792
 30
0.0
 40
0.2000000000000171
100
AcDbArc
 50
90.0
 51
180.0
  0
LINE
  5
8F
330
1F
100
AcDbEntity
  8
0
  6
Continuous
 62
     7
370
    25
100
AcDbLine
 10
106.5037795163
 20
86.0448660958
 30
0.0
 11
107.9629771232
 21
88.5722706723
 31
0.0
  0
LINE
  5
90
330
1F
100
AcDbEntity
  8
0
  6
Continuous
 62
     7
370
    25
100
AcDbLine
 10
100.1379772463
 20
86.0448660958
 30
0.0
 11
106.5037795163
 21
86.0448660958
 31
0.0
  0
LINE
  5
91
330
1F
100
AcDbEntity
  8
0
  6
Continuous
 62
     7
370
    25
100
AcDbLine
 10
105.2984748787
 20
148.9948662627
 30
0.0
 11
100.1379772463
 21
148.9948662627
 31
0.0
  0
LINE
  5
92
330
1F
100
AcDbEntity
  8
0
  6
Continuous
 62
     7
370
    25
100
AcDbLine
 10
113.1721753447
 20
86.0448660958
 30
0.0
 11
117.9379764765
 21
86.0448660958
 31
0.0
  0
LINE
  5
93
330
1F
100
AcDbEntity
  8
0
  6
Continuous
 62
     7
370
    25
100
AcDbLine
 10
117.9379764765
 20
148.9948662627
 30
0.0
 11
116.6528239667
 21
148.9948662627
 31
0.0
  0
ARC
  5
94
330
1F
100
AcDbEntity
  8
0
  6
Continuous
 62
     7
370
    25
100
AcDbCircle
 10
99.5090423768
 20
91.9698661792
 30
0.0
 40
0.8000000000000004
100
AcDbArc
 50
57.576802718
 51
107.5
  0
ARC
  5
95
330
1F
100
AcDbEntity
  8
0
  6
Continuous
 62
     7
370
    25
100
AcDbCircle
 10
99.5090423768
 20
143.0698661792
 30
0.0
 40
0.7999999999999868
100
AcDbArc
 50
252.5
 51
302.423197282
  0
LINE
  5
96
330
1F
100
AcDbEntity
  8
0
  6
Continuous
 62
     7
370
    25
100
AcDbLine
 10
111.7129772722
 20
88.5722706723
 30
0.0
 11
113.1721753447
 21
86.0448660958
 31
0.0
  0
LINE
  5
97
330
1F
100
AcDbEntity
  8
0
  6
Continuous
 62
     7
370
    25
100
AcDbLine
 10
98.7777951925
 20
142.4616048741
 30
0.0
 11
82.8329194157
 21
141.6608853894
 31
0.0
  0
LINE
  5
98
330
1F
100
AcDbEntity
  8
0
  6
Continuous
 62
     7
370
    25
100
AcDbLine
 10
82.8329194157
 20
93.378846969
 30
0.0
 11
98.7777951925
 21
92.5781274843
 31
0.0
  0
LINE
  5
99
330
1F
100
AcDbEntity
  8
0
  6
Continuous
 62
     7
370
    25
100
AcDbLine
 10
98.7777951925
 20
92.5781274843
 30
0.0
 11
99.2684777414
 21
92.732840653
 31
0.0
  0
LINE
  5
9A
330
1F
100
AcDbEntity
  8
0
  6
Continuous
 62
     7
370
    25
100
AcDbLine
 10
99.2684777414
 20
142.3068917054
 30
0.0
 11
98.7777951925
 21
142.4616048741
 31
0.0
  0
ARC
  5
9B
330
1F
100
AcDbEntity
  8
0
  6
Continuous
 62
     7
370
    25
100
AcDbCircle
 10
108.9629772513
 20
88.6698661792
 30
0.0
 40
1.0
100
AcDbArc
 50
90.0
 51
180.0
  0
ARC
  5
9C
330
1F
100
AcDbEntity
  8
0
  6
Continuous
 62
     7
370
    25
100
AcDbCircle
 10
110.7129772513
 20
88.6698661792
 30
0.0
 40
1.0
100
AcDbArc
 50
0.0
 51
90.0
  0
LINE
  5
9D
330
1F
100
AcDbEntity
  8
0
  6
Continuous
 62
     7
370
    25
100
AcDbLine
 10
108.9629772871
 20
89.6698659915
 30
0.0
 11
110.7129771083
 21
89.6698659915
 31
0.0
  0
ARC
  5
9E
330
1F
100
AcDbEntity
  8
0
  6
Continuous
 62
     7
370
    25
100
AcDbCircle
 10
120.9379772513
 20
95.5198661792
 30
0.0
 40
3.0
100
AcDbArc
 50
90.0
 51
180.0
  0
ARC
  5
9F
330
1F
100
AcDbEntity
  8
0
  6
Continuous
 62
     7
370
    25
100
AcDbCircle
 10
120.9379772513
 20
139.5198661792
 30
0.0
 40
3.0
100
AcDbArc
 50
180.0
 51
270.0
  0
LINE
  5
A0
330
1F
100
AcDbEntity
  8
0
  6
Continuous
 62
     7
370
    25
100
AcDbLine
 10
120.9379769682
 20
98.5198667902
 30
0.0
 11
209.3379739492
 21
98.5198667902
 31
0.0
  0
LINE
  5
A1
330
1F
100
AcDbEntity
  8
0
  6
Continuous
 62
     7
370
    25
100
AcDbLine
 10
209.3379739492
 20
136.5198655683
 30
0.0
 11
120.9379769682
 21
136.5198655683
 31
0.0
  0
ARC
  5
A2
330
1F
100
AcDbEntity
  8
0
  6
Continuous
 62
     7
370
    25
100
AcDbCircle
 10
209.3379772513
 20
99.1198661792
 30
0.0
 40
0.6000000000000227
100
AcDbArc
 50
270.0
 51
0.0
  0
ARC
  5
A3
330
1F
100
AcDbEntity
  8
0
  6
Continuous
 62
     7
370
    25
100
AcDbCircle
 10
209.3379772513
 20
135.9198661792
 30
0.0
 40
0.6000000000000227
100
AcDbArc
 50
0.0
 51
90.0
  0
ARC
  5
A4
330
1F
100
AcDbEntity
  8
0
  6
Continuous
 62
     7
370
    25
100
AcDbCircle
 10
210.4379772513
 20
109.1698661792
 30
0.0
 40
0.6000000000000177
100
AcDbArc
 50
90.0
 51
146.4426902381
  0
ARC
  5
A5
330
1F
100
AcDbEntity
  8
0
  6
Continuous
 62
     7
370
    25
100
AcDbCircle
 10
210.4379772513
 20
125.8698661792
 30
0.0
 40
0.6000000000000099
100
AcDbArc
 50
213.5573097619
 51
270.0
  0
LINE
  5
A6
330
1F
100
AcDbEntity
  8
0
  6
Continuous
 62
     7
370
    25
100
AcDbLine
 10
211.9379807084
 20
125.5198665592
 30
0.0
 11
211.0812607973
 21
125.2903109114
 31
0.0
  0
LINE
  5
A7
330
1F
100
AcDbEntity
  8
0
  6
Continuous
 62
     7
370
    25
100
AcDbLine
 10
211.0812607973
 20
109.7494214471
 30
0.0
 11
211.9379807084
 21
109.5198657992
 31
0.0
  0
LINE
  5
A8
330
1F
100
AcDbEntity
  8
0
  6
Continuous
 62
     7
370
    25
100
AcDbLine
 10
211.9379807084
 20
109.5198657992
 30
0.0
 11
226.3379711478
 21
109.5198657992
 31
0.0
  0
LINE
  5
A9
330
1F
100
AcDbEntity
  8
0
  6
Continuous
 62
     7
370
    25
100
AcDbLine
 10
226.3379711478
 20
125.5198665592
 30
0.0
 11
211.9379807084
 21
125.5198665592
 31
0.0
  0
ARC
  5
AA
330
1F
100
AcDbEntity
  8
0
  6
Continuous
 62
     7
370
    25
100
AcDbCircle
 10
226.3379772513
 20
110.1198661792
 30
0.0
 40
0.6000000000000085
100
AcDbArc
 50
270.0
 51
0.0
  0
ARC
  5
AB
330
1F
100
AcDbEntity
  8
0
  6
Continuous
 62
     7
370
    25
100
AcDbCircle
 10
226.3379772513
 20
124.9198661792
 30
0.0
 40
0.6000000000000085
100
AcDbArc
 50
0.0
 51
90.0
  0
ARC
  5
AC
330
1F
100
AcDbEntity
  8
0
  6
Continuous
 62
     7
370
    25
100
AcDbCircle
 10
210.9259730509
 20
109.1698661792
 30
0.0
 40
0.5999999999999998
100
AcDbArc
 50
75.0
 51
90.0
  0
ARC
  5
AD
330
1F
100
AcDbEntity
  8
0
  6
Continuous
 62
     7
370
    25
100
AcDbCircle
 10
210.9259730509
 20
125.8698661792
 30
0.0
 40
0.5999999999999943
100
AcDbArc
 50
270.0
 51
285.0
  0
LINE
  5
AE
330
1F
100
AcDbEntity
  8
0
  6
Continuous
 62
     7
370
    25
100
AcDbLine
 10
210.4379776686
 20
109.7698663059
 30
0.0
 11
210.9259757965
 21
109.7698663059
 31
0.0
  0
LINE
  5
AF
330
1F
100
AcDbEntity
  8
0
  6
Continuous
 62
     7
370
    25
100
AcDbLine
 10
210.9259757965
 20
125.2698660525
 30
0.0
 11
210.4379776686
 21
125.2698660525
 31
0.0
  0
LINE
  5
B0
330
1F
100
AcDbEntity
  8
0
  6
Continuous
 62
     7
370
    25
100
AcDbLine
 10
81.9379780262
 20
94.2737883586
 30
0.0
 11
82.8329194157
 21
93.378846969
 31
0.0
  0
LINE
  5
B1
330
1F
100
AcDbEntity
  8
0
  6
Continuous
 62
     7
370
    25
100
AcDbLine
 10
82.8329194157
 20
141.6608853894
 30
0.0
 11
81.9379780262
 21
140.7659439999
 31
0.0
  0
LINE
  5
B2
330
1F
100
AcDbEntity
  8
0
  6
Continuous
 62
     7
370
    25
100
AcDbLine
 10
214.9379793375
 20
100.0198661047
 30
0.0
 11
214.9379793375
 21
107.0198663208
 31
0.0
  0
LINE
  5
B3
330
1F
100
AcDbEntity
  8
0
  6
Continuous
 62
     7
370
    25
100
AcDbLine
 10
214.9379793375
 20
128.0198660376
 30
0.0
 11
214.9379793375
 21
135.0198662537
 31
0.0
  0
LINE
  5
B4
330
1F
100
AcDbEntity
  8
0
  6
Continuous
 62
     7
370
    25
100
AcDbLine
 10
229.937972483
 20
124.0198663133
 30
0.0
 11
229.937972483
 21
111.0198660451
 31
0.0
  0
LINE
  5
B5
330
1F
100
AcDbEntity
  8
0
  6
Continuous
 62
     7
370
    25
100
AcDbLine
 10
237.9379737943
 20
123.6198660615
 30
0.0
 11
237.9379737943
 21
111.4198662969
 31
0.0
  0
LINE
  5
B6
330
1F
100
AcDbEntity
  8
0
  6
Continuous
 62
     7
370
    25
100
AcDbLine
 10
99.9379772513
 20
86.244865756
 30
0.0
 11
99.9379772513
 21
148.7948666024
 31
0.0
  0
LINE
  5
B7
330
1F
100
AcDbEntity
  8
0
  6
Continuous
 62
     7
370
    25
100
AcDbLine
 10
106.5037795163
 20
86.0448660958
 30
0.0
 11
106.5037795163
 21
148.8219308364
 31
0.0
  0
SPLINE
  5
B8
330
1F
100
AcDbEntity
  8
0
  6
Continuous
 62
     7
370
    25
100
AcDbSpline
210
0.0
220
0.0
230
1.0
 70
     8
 71
     3
 72
    10
 73
     6
 74
     0
 42
0.000000001
 43
0.00000001
 40
0.0
 40
0.0
 40
0.0
 40
0.0
 40
0.5
 40
0.5
 40
1.0
 40
1.0
 40
1.0
 40
1.0
 10
107.6319954438746
 20
146.9948661792095
 30
0.0
 10
107.4551102974512
 20
147.285059718952
 30
0.0
 10
107.2695609225738
 20
147.5874731048926
 30
0.0
 10
106.8916119825262
 20
148.1995072421929
 30
0.0
 10
106.698825440347
 20
148.5097840817579
 30
0.0
 10
106.5037794467578
 20
148.821931152723
 30
0.0
  0
SPLINE
  5
B9
330
1F
100
AcDbEntity
  8
0
  6
Continuous
 62
     7
370
    25
100
AcDbSpline
210
0.0
220
0.0
230
1.0
 70
     8
 71
     3
 72
     8
 73
     4
 74
     0
 42
0.000000001
 43
0.00000001
 40
0.0
 40
0.0
 40
0.0
 40
0.0
 40
1.0
 40
1.0
 40
1.0
 40
1.0
 10
107.9629772513279
 20
146.3841172578266
 30
0.0
 10
107.844680491898
 20
146.6020024921574
 30
0.0
 10
107.7332520097266
 20
146.8076827831995
 30
0.0
 10
107.6319954438746
 20
146.9948661792095
 30
0.0
  0
LINE
  5
BA
330
1F
100
AcDbEntity
  8
0
  6
Continuous
 62
     7
370
    25
100
AcDbLine
 10
107.9629771232
 20
104.9887169781
 30
0.0
 11
107.9629771232
 21
146.3841176289
 31
0.0
  0
SPLINE
  5
BB
330
1F
100
AcDbEntity
  8
0
  6
Continuous
 62
     7
370
    25
100
AcDbSpline
210
0.0
220
0.0
230
1.0
 70
     8
 71
     3
 72
    26
 73
    22
 74
     0
 42
0.000000001
 43
0.00000001
 40
0.0
 40
0.0
 40
0.0
 40
0.0
 40
0.1250000000000014
 40
0.1250000000000014
 40
0.2500000000000027
 40
0.2500000000000027
 40
0.3125000000000025
 40
0.3125000000000025
 40
0.3750000000000023
 40
0.3750000000000023
 40
0.4375000000000021
 40
0.4375000000000021
 40
0.5000000000000018
 40
0.5000000000000018
 40
0.5625000000000016
 40
0.5625000000000016
 40
0.6250000000000013
 40
0.6250000000000013
 40
0.7500000000000006
 40
0.7500000000000006
 40
1.0
 40
1.0
 40
1.0
 40
1.0
 10
107.9629772513279
 20
101.1867643282388
 30
0.0
 10
107.8710723406451
 20
101.2118120205752
 30
0.0
 10
107.7833755644201
 20
101.2498196144895
 30
0.0
 10
107.6191692936528
 20
101.3608158655823
 30
0.0
 10
107.5418988753861
 20
101.4347493768958
 30
0.0
 10
107.442132769061
 20
101.5800475122261
 30
0.0
 10
107.4115198401587
 20
101.6341893262178
 30
0.0
 10
107.3566509662557
 20
101.7562535654859
 30
0.0
 10
107.3322657453268
 20
101.82482554707
 30
0.0
 10
107.2925863688283
 20
101.9744097171043
 30
0.0
 10
107.277120289591
 20
102.055568722277
 30
0.0
 10
107.2560239545086
 20
102.2322247293685
 30
0.0
 10
107.2505108883485
 20
102.3284688360902
 30
0.0
 10
107.2504439307262
 20
102.5276987784513
 30
0.0
 10
107.2557122380757
 20
102.6315467266748
 30
0.0
 10
107.2765547652437
 20
102.8474669228277
 30
0.0
 10
107.292228878454
 20
102.9594360769219
 30
0.0
 10
107.3515478086315
 20
103.2940622930668
 30
0.0
 10
107.4085676441455
 20
103.5221170014358
 30
0.0
 10
107.6074025327894
 20
104.1804999455048
 30
0.0
 10
107.7786727380215
 20
104.5990249339637
 30
0.0
 10
107.9629772513279
 20
104.9887169515628
 30
0.0
  0
LINE
  5
BC
330
1F
100
AcDbEntity
  8
0
  6
Continuous
 62
     7
370
    25
100
AcDbLine
 10
107.9629771232
 20
88.5722706723
 30
0.0
 11
107.9629771232
 21
101.1867648619
 31
0.0
  0
SPLINE
  5
BD
330
1F
100
AcDbEntity
  8
0
  6
Continuous
 62
     7
370
    25
100
AcDbSpline
210
0.0
220
0.0
230
1.0
 70
     8
 71
     3
 72
    10
 73
     6
 74
     0
 42
0.000000001
 43
0.00000001
 40
0.0
 40
0.0
 40
0.0
 40
0.0
 40
0.4058355826442185
 40
0.8996340058832388
 40
1.0
 40
1.0
 40
1.0
 40
1.0
 10
106.5037795162865
 20
148.8219308364208
 30
0.0
 10
106.2219435082879
 20
148.8583222055326
 30
0.0
 10
105.5971849417129
 20
148.9389925917032
 30
0.0
 10
105.1970772722034
 20
149.0030810513733
 30
0.0
 10
105.2838219975762
 20
148.9897942014082
 30
0.0
 10
105.2984748787352
 20
148.9875497925098
 30
0.0
  0
LINE
  5
BE
330
1F
100
AcDbEntity
  8
0
  6
Continuous
 62
     7
370
    25
100
AcDbLine
 10
117.9379764765
 20
86.0448660958
 30
0.0
 11
117.9379764765
 21
148.9948662627
 31
0.0
  0
SPLINE
  5
BF
330
1F
100
AcDbEntity
  8
0
  6
Continuous
 62
     7
370
    25
100
AcDbSpline
210
0.0
220
0.0
230
1.0
 70
     8
 71
     3
 72
    24
 73
    20
 74
     0
 42
0.000000001
 43
0.00000001
 40
0.0
 40
0.0
 40
0.0
 40
0.0
 40
0.1249999999999991
 40
0.1249999999999991
 40
0.2499999999999981
 40
0.2499999999999981
 40
0.3749999999999972
 40
0.3749999999999972
 40
0.4999999999999962
 40
0.4999999999999962
 40
0.6249999999999964
 40
0.6249999999999964
 40
0.7499999999999968
 40
0.7499999999999968
 40
0.8124999999999976
 40
0.8124999999999976
 40
0.8749999999999982
 40
0.8749999999999982
 40
1.0
 40
1.0
 40
1.0
 40
1.0
 10
113.1721750558978
 20
104.4821221738976
 30
0.0
 10
113.4115179560594
 20
104.3245020795723
 30
0.0
 10
113.6278123643762
 20
104.1439702984105
 30
0.0
 10
114.0139455626236
 20
103.7379654900524
 30
0.0
 10
114.179564716014
 20
103.5160103139947
 30
0.0
 10
114.4475717913004
 20
103.0493005843309
 30
0.0
 10
114.5522335224502
 20
102.7992948311372
 30
0.0
 10
114.6902920544186
 20
102.2956763623136
 30
0.0
 10
114.725464615173
 20
102.0406423479079
 30
0.0
 10
114.7254898807695
 20
101.5243643702048
 30
0.0
 10
114.6903485975721
 20
101.2735560432905
 30
0.0
 10
114.5522849234285
 20
100.7857284087015
 30
0.0
 10
114.4476559737721
 20
100.547666638154
 30
0.0
 10
114.2466433359349
 20
100.2188528456756
 30
0.0
 10
114.1720933110687
 20
100.1131641240337
 30
0.0
 10
114.0077471476848
 20
99.90952399843015
 30
0.0
 10
113.9172673277179
 20
99.81096528545379
 30
0.0
 10
113.6278800290905
 20
99.53282751329678
 30
0.0
 10
113.4116395992392
 20
99.37007481017503
 30
0.0
 10
113.1721750558978
 20
99.22906986104792
 30
0.0
  0
LINE
  5
C0
330
1F
100
AcDbEntity
  8
0
  6
Continuous
 62
     7
370
    25
100
AcDbLine
 10
113.1721753447
 20
104.482122201
 30
0.0
 11
113.1721753447
 21
148.6127334344
 31
0.0
  0
SPLINE
  5
C1
330
1F
100
AcDbEntity
  8
0
  6
Continuous
 62
     7
370
    25
100
AcDbSpline
210
0.0
220
0.0
230
1.0
 70
     8
 71
     3
 72
    12
 73
     8
 74
     0
 42
0.000000001
 43
0.00000001
 40
0.0
 40
0.0
 40
0.0
 40
0.0
 40
0.1144634680262505
 40
0.3661160526449659
 40
0.6247763889426796
 40
0.9030266255086999
 40
1.0
 40
1.0
 40
1.0
 40
1.0
 10
116.652823966659
 20
148.9837350952442
 30
0.0
 10
116.6698422792931
 20
148.9863356907761
 30
0.0
 10
116.7242760436348
 20
148.994653801236
 30
0.0
 10
116.2193698063479
 20
148.9173867226565
 30
0.0
 10
115.2257169799507
 20
148.7867379476969
 30
0.0
 10
114.1024339250615
 20
148.6730139375195
 30
0.0
 10
113.3632191600225
 20
148.6251130217123
 30
0.0
 10
113.1721753447422
 20
148.6127334344204
 30
0.0
  0
LINE
  5
C2
330
1F
100
AcDbEntity
  8
0
  6
Continuous
 62
     7
370
    25
100
AcDbLine
 10
113.1721753447
 20
86.0448660958
 30
0.0
 11
113.1721753447
 21
99.2290689307
 31
0.0
  0
SPLINE
  5
C3
330
1F
100
AcDbEntity
  8
0
  6
Continuous
 62
     7
370
    25
100
AcDbSpline
210
0.0
220
0.0
230
1.0
 70
     8
 71
     3
 72
     8
 73
     4
 74
     0
 42
0.000000001
 43
0.00000001
 40
0.0
 40
0.0
 40
0.0
 40
0.0
 40
1.0
 40
1.0
 40
1.0
 40
1.0
 10
112.1408209666639
 20
146.9948661792095
 30
0.0
 10
111.999282878382
 20
146.7424021791541
 30
0.0
 10
111.8566724096451
 20
146.4888584900116
 30
0.0
 10
111.7129772513281
 20
146.2343223002901
 30
0.0
  0
SPLINE
  5
C4
330
1F
100
AcDbEntity
  8
0
  6
Continuous
 62
     7
370
    25
100
AcDbSpline
210
0.0
220
0.0
230
1.0
 70
     8
 71
     3
 72
     8
 73
     4
 74
     0
 42
0.000000001
 43
0.00000001
 40
0.0
 40
0.0
 40
0.0
 40
0.0
 40
1.0
 40
1.0
 40
1.0
 40
1.0
 10
113.1721750558975
 20
148.612733331001
 30
0.0
 10
112.8237736512173
 20
148.07074458535
 30
0.0
 10
112.4792052659844
 20
147.5305253983565
 30
0.0
 10
112.1408209666635
 20
146.9948661792091
 30
0.0
  0
SPLINE
  5
C5
330
1F
100
AcDbEntity
  8
0
  6
Continuous
 62
     7
370
    25
100
AcDbSpline
210
0.0
220
0.0
230
1.0
 70
     8
 71
     3
 72
    10
 73
     6
 74
     0
 42
0.000000001
 43
0.00000001
 40
0.0
 40
0.0
 40
0.0
 40
0.0
 40
0.5
 40
0.5
 40
1.0
 40
1.0
 40
1.0
 40
1.0
 10
111.7129772513279
 20
106.3379272295219
 30
0.0
 10
111.9641701411994
 20
106.0724350809664
 30
0.0
 10
112.2114394529012
 20
105.7867487579239
 30
0.0
 10
112.698060804212
 20
105.1708760760336
 30
0.0
 10
112.9374441119287
 20
104.840938348793
 30
0.0
 10
113.1721750558979
 20
104.4821221738977
 30
0.0
  0
LINE
  5
C6
330
1F
100
AcDbEntity
  8
0
  6
Continuous
 62
     7
370
    25
100
AcDbLine
 10
111.7129772722
 20
106.3379267859
 30
0.0
 11
111.7129772722
 21
146.2343218434
 31
0.0
  0
SPLINE
  5
C7
330
1F
100
AcDbEntity
  8
0
  6
Continuous
 62
     7
370
    25
100
AcDbSpline
210
0.0
220
0.0
230
1.0
 70
     8
 71
     3
 72
    10
 73
     6
 74
     0
 42
0.000000001
 43
0.00000001
 40
0.0
 40
0.0
 40
0.0
 40
0.0
 40
0.5
 40
0.5
 40
1.0
 40
1.0
 40
1.0
 40
1.0
 10
113.1721750558979
 20
99.22906986104805
 30
0.0
 10
112.9374441119287
 20
99.29508551810281
 30
0.0
 10
112.698060804212
 20
99.3964934591872
 30
0.0
 10
112.2114394529012
 20
99.65273925326572
 30
0.0
 10
111.9641701411994
 20
99.80788753495645
 30
0.0
 10
111.7129772513279
 20
99.98734900781646
 30
0.0
  0
LINE
  5
C8
330
1F
100
AcDbEntity
  8
0
  6
Continuous
 62
     7
370
    25
100
AcDbLine
 10
111.7129772722
 20
99.9873499083
 30
0.0
 11
111.7129772722
 21
100.0365442294
 31
0.0
  0
SPLINE
  5
C9
330
1F
100
AcDbEntity
  8
0
  6
Continuous
 62
     7
370
    25
100
AcDbSpline
210
0.0
220
0.0
230
1.0
 70
     8
 71
     3
 72
    14
 73
    10
 74
     0
 42
0.000000001
 43
0.00000001
 40
0.0
 40
0.0
 40
0.0
 40
0.0
 40
0.25
 40
0.25
 40
0.5
 40
0.5
 40
0.75
 40
0.75
 40
1.0
 40
1.0
 40
1.0
 40
1.0
 10
111.712977251328
 20
100.0365441956125
 30
0.0
 10
111.7129772513281
 20
100.1024614753216
 30
0.0
 10
111.6870478130621
 20
100.1638509341159
 30
0.0
 10
111.5876055557857
 20
100.2712769964053
 30
0.0
 10
111.5153231700649
 20
100.3168181705038
 30
0.0
 10
111.3305858333003
 20
100.3934550943836
 30
0.0
 10
111.2210391969783
 20
100.4233806482088
 30
0.0
 10
110.977677951975
 20
100.4690228356354
 30
0.0
 10
110.8461668445292
 20
100.4843020862569
 30
0.0
 10
110.7129772513278
 20
100.4921485699568
 30
0.0
  0
SPLINE
  5
CA
330
1F
100
AcDbEntity
  8
0
  6
Continuous
 62
     7
370
    25
100
AcDbSpline
210
0.0
220
0.0
230
1.0
 70
     8
 71
     3
 72
    10
 73
     6
 74
     0
 42
0.000000001
 43
0.00000001
 40
0.0
 40
0.0
 40
0.0
 40
0.0
 40
0.5
 40
0.5
 40
1.0
 40
1.0
 40
1.0
 40
1.0
 10
110.7129772513278
 20
100.4921485699567
 30
0.0
 10
110.4024994715859
 20
100.5104394797745
 30
0.0
 10
110.0985589072339
 20
100.5589782242907
 30
0.0
 10
109.5039955416594
 20
100.7186175867014
 30
0.0
 10
109.2236619839394
 20
100.8272261664615
 30
0.0
 10
108.9629772513279
 20
100.9632172962303
 30
0.0
  0
SPLINE
  5
CB
330
1F
100
AcDbEntity
  8
0
  6
Continuous
 62
     7
370
    25
100
AcDbSpline
210
0.0
220
0.0
230
1.0
 70
     8
 71
     3
 72
    14
 73
    10
 74
     0
 42
0.000000001
 43
0.00000001
 40
0.0
 40
0.0
 40
0.0
 40
0.0
 40
0.25
 40
0.25
 40
0.5
 40
0.5
 40
0.75
 40
0.75
 40
1.0
 40
1.0
 40
1.0
 40
1.0
 10
108.9629772513279
 20
100.9632172962303
 30
0.0
 10
108.8286265027868
 20
101.0333039096517
 30
0.0
 10
108.7054475999933
 20
101.0944992169472
 30
0.0
 10
108.476697179104
 20
101.2041415902737
 30
0.0
 10
108.3747740871108
 20
101.2508493896619
 30
0.0
 10
108.1953490227656
 20
101.3218149025109
 30
0.0
 10
108.1189077738611
 20
101.3463273809035
 30
0.0
 10
108.0016197993994
 20
101.3448116733776
 30
0.0
 10
107.9629772513279
 20
101.3162046301692
 30
0.0
 10
107.9629772513279
 20
101.2357033399556
 30
0.0
  0
LINE
  5
CC
330
1F
100
AcDbEntity
  8
0
  6
Continuous
 62
     7
370
    25
100
AcDbLine
 10
107.9629771232
 20
101.2357040006
 30
0.0
 11
107.9629771232
 21
101.1867648619
 31
0.0
  0
SPLINE
  5
CD
330
1F
100
AcDbEntity
  8
0
  6
Continuous
 62
     7
370
    25
100
AcDbSpline
210
0.0
220
0.0
230
1.0
 70
     8
 71
     3
 72
    16
 73
    12
 74
     0
 42
0.000000001
 43
0.00000001
 40
0.0
 40
0.0
 40
0.0
 40
0.0
 40
0.1250000000000001
 40
0.1250000000000001
 40
0.2500000000000003
 40
0.2500000000000003
 40
0.5000000000000002
 40
0.5000000000000002
 40
0.7500000000000001
 40
0.7500000000000001
 40
1.0
 40
1.0
 40
1.0
 40
1.0
 10
107.9629772513279
 20
105.0376559632795
 30
0.0
 10
107.9629772513279
 20
105.0776850134333
 30
0.0
 10
107.9727498149675
 20
105.1291716684859
 30
0.0
 10
108.0069458603679
 20
105.2432359153919
 30
0.0
 10
108.0311310520788
 20
105.30558045286
 30
0.0
 10
108.1188477161751
 20
105.4981067492151
 30
0.0
 10
108.1955578820245
 20
105.6303679568036
 30
0.0
 10
108.3746399822655
 20
105.8843168964699
 30
0.0
 10
108.4755227518853
 20
106.0042889587514
 30
0.0
 10
108.7043342501483
 20
106.2261693163202
 30
0.0
 10
108.8286318585832
 20
106.3243356890667
 30
0.0
 10
108.9629772513279
 20
106.4042506309931
 30
0.0
  0
SPLINE
  5
CE
330
1F
100
AcDbEntity
  8
0
  6
Continuous
 62
     7
370
    25
100
AcDbSpline
210
0.0
220
0.0
230
1.0
 70
     8
 71
     3
 72
    12
 73
     8
 74
     0
 42
0.000000001
 43
0.00000001
 40
0.0
 40
0.0
 40
0.0
 40
0.0
 40
0.5000000000000003
 40
0.5000000000000003
 40
0.7500000000000001
 40
0.7500000000000001
 40
1.0
 40
1.0
 40
1.0
 40
1.0
 10
108.9629772513279
 20
106.4042506309931
 30
0.0
 10
109.2227794782555
 20
106.5587931832393
 30
0.0
 10
109.5081034870289
 20
106.6860566425617
 30
0.0
 10
109.948000520241
 20
106.8230545715036
 30
0.0
 10
110.0973409375479
 20
106.8602512719159
 30
0.0
 10
110.4014997583343
 20
106.9174182426809
 30
0.0
 10
110.5574592650464
 20
106.9374299518997
 30
0.0
 10
110.7129772513279
 20
106.948141425436
 30
0.0
  0
SPLINE
  5
CF
330
1F
100
AcDbEntity
  8
0
  6
Continuous
 62
     7
370
    25
100
AcDbSpline
210
0.0
220
0.0
230
1.0
 70
     8
 71
     3
 72
    14
 73
    10
 74
     0
 42
0.000000001
 43
0.00000001
 40
0.0
 40
0.0
 40
0.0
 40
0.0
 40
0.25
 40
0.25
 40
0.5
 40
0.5
 40
0.75
 40
0.75
 40
1.0
 40
1.0
 40
1.0
 40
1.0
 10
110.7129772513279
 20
106.948141425436
 30
0.0
 10
110.8462067023512
 20
106.9573177514226
 30
0.0
 10
110.9779080649614
 20
106.9459256194562
 30
0.0
 10
111.2209857231785
 20
106.8877649597964
 30
0.0
 10
111.3318916637271
 20
106.840988837897
 30
0.0
 10
111.5145887368048
 20
106.7280297111659
 30
0.0
 10
111.5879762662864
 20
106.6610760052251
 30
0.0
 10
111.6868105452047
 20
106.5240441564303
 30
0.0
 10
111.7129772513279
 20
106.453260181307
 30
0.0
 10
111.7129772513279
 20
106.3871224173191
 30
0.0
  0
LWPOLYLINE
  5
D0
330
1F
100
AcDbEntity
  8
0
  6
Continuous
 62
     7
370
    25
100
AcDbPolyline
 90
        3
 70
   128
 43
0.0
 10
110.9879771068
 20
104.995596658
 10
111.8499040424
 20
105.0828438881
 10
112.5799612894
 20
105.303907271
  0
ARC
  5
D1
330
1F
100
AcDbEntity
  8
0
  6
Continuous
 62
     7
370
    25
100
AcDbCircle
 10
110.9394669662
 20
109.0217161641
 30
0.0
 40
4.026411741370161
100
AcDbArc
 50
230.880015402
 51
270.6903152843
  0
SPLINE
  5
D2
330
1F
100
AcDbEntity
  8
0
  6
Continuous
 62
     7
370
    25
100
AcDbSpline
210
0.0
220
0.0
230
1.0
 70
     8
 71
     3
 72
    14
 73
    10
 74
     0
 42
0.000000001
 43
0.00000001
 40
0.0
 40
0.0
 40
0.0
 40
0.0
 40
0.25
 40
0.25
 40
0.5
 40
0.5
 40
0.75
 40
0.75
 40
1.0
 40
1.0
 40
1.0
 40
1.0
 10
108.9629772513279
 20
145.1921306104049
 30
0.0
 10
108.8286291649714
 20
145.2019619299757
 30
0.0
 10
108.7054524911155
 20
145.2380013433658
 30
0.0
 10
108.4767058861974
 20
145.3498730396851
 30
0.0
 10
108.3747839222302
 20
145.4242278287754
 30
0.0
 10
108.1953605198015
 20
145.6077042956272
 30
0.0
 10
108.1189192316187
 20
145.7149698164872
 30
0.0
 10
108.0016292587686
 20
145.9739963063056
 30
0.0
 10
107.9629772513279
 20
146.1252410112818
 30
0.0
 10
107.9629772513279
 20
146.2862392343932
 30
0.0
  0
SPLINE
  5
D3
330
1F
100
AcDbEntity
  8
0
  6
Continuous
 62
     7
370
    25
100
AcDbSpline
210
0.0
220
0.0
230
1.0
 70
     8
 71
     3
 72
    14
 73
    10
 74
     0
 42
0.000000001
 43
0.00000001
 40
0.0
 40
0.0
 40
0.0
 40
0.0
 40
0.25
 40
0.25
 40
0.5
 40
0.5
 40
0.75
 40
0.75
 40
1.0
 40
1.0
 40
1.0
 40
1.0
 10
111.712977251328
 20
146.135931924697
 30
0.0
 10
111.7129772513282
 20
146.004092747728
 30
0.0
 10
111.687060728757
 20
145.8720438107394
 30
0.0
 10
111.5876158821795
 20
145.6267775190263
 30
0.0
 10
111.5153174897672
 20
145.5151571024385
 30
0.0
 10
111.3306135952433
 20
145.3244178132428
 30
0.0
 10
111.2210363333673
 20
145.2484569463959
 30
0.0
 10
110.9777061551492
 20
145.1446146222264
 30
0.0
 10
110.846169896229
 20
145.1179814147931
 30
0.0
 10
110.7129772513277
 20
145.1193085422353
 30
0.0
  0
SPLINE
  5
D4
330
1F
100
AcDbEntity
  8
0
  6
Continuous
 62
     7
370
    25
100
AcDbSpline
210
0.0
220
0.0
230
1.0
 70
     8
 71
     3
 72
    10
 73
     6
 74
     0
 42
0.000000001
 43
0.00000001
 40
0.0
 40
0.0
 40
0.0
 40
0.0
 40
0.5
 40
0.5
 40
1.0
 40
1.0
 40
1.0
 40
1.0
 10
110.7129772513278
 20
145.1193085422356
 30
0.0
 10
110.402599386767
 20
145.12240113779
 30
0.0
 10
110.0986096829292
 20
145.1306656397159
 30
0.0
 10
109.5036814131387
 20
145.1562264010594
 30
0.0
 10
109.223752389385
 20
145.1730476164606
 30
0.0
 10
108.9629772513279
 20
145.1921306104049
 30
0.0
  0
LINE
  5
D5
330
1F
100
AcDbEntity
  8
0
  6
Continuous
 62
     7
370
    25
100
AcDbLine
 10
111.7129772722
 20
88.5722706723
 30
0.0
 11
111.7129772722
 21
99.9873499083
 31
0.0
  0
LINE
  5
D6
330
1F
100
AcDbEntity
  8
0
  6
Continuous
 62
     7
370
    25
100
AcDbLine
 10
98.7777951925
 20
92.5781274843
 30
0.0
 11
98.7777951925
 21
142.4616048741
 31
0.0
  0
LINE
  5
D7
330
1F
100
AcDbEntity
  8
0
  6
Continuous
 62
     7
370
    25
100
AcDbLine
 10
82.8329194157
 20
93.7785296398
 30
0.0
 11
82.8329194157
 21
93.378846969
 31
0.0
  0
SPLINE
  5
D8
330
1F
100
AcDbEntity
  8
0
  6
Continuous
 62
     7
370
    25
100
AcDbSpline
210
0.0
220
0.0
230
1.0
 70
     8
 71
     3
 72
    26
 73
    22
 74
     0
 42
0.000000001
 43
0.00000001
 40
0.0
 40
0.0
 40
0.0
 40
0.0
 40
0.0241259796969038
 40
0.048215991228259
 40
0.0723203915136643
 40
0.0964895678725153
 40
0.1207736231978452
 40
0.1452220711257179
 40
0.1698835501670319
 40
0.1948055644482148
 40
0.2200342569523467
 40
0.2456142191612283
 40
0.369097148691835
 40
0.4940698769485373
 40
0.6192566784762581
 40
0.7454656653603327
 40
0.7971495824713788
 40
0.8481710308405456
 40
0.8988013269235281
 40
0.9493179290492212
 40
1.0
 40
1.0
 40
1.0
 40
1.0
 10
77.89303509812646
 20
95.6004532652894
 30
0.0
 10
77.95828415667745
 20
95.59663263580849
 30
0.0
 10
78.08868499735917
 20
95.58899707282397
 30
0.0
 10
78.28366481565887
 20
95.573076822462
 30
0.0
 10
78.477793952925
 20
95.55391862131098
 30
0.0
 10
78.67105529302064
 20
95.53122420757354
 30
0.0
 10
78.86345047149544
 20
95.5051118409857
 30
0.0
 10
79.05497604999596
 20
95.4756000345311
 30
0.0
 10
79.24563158237991
 20
95.44274567393643
 30
0.0
 10
79.43541158147589
 20
95.4066093644961
 30
0.0
 10
79.62433020212835
 20
95.36725507165032
 30
0.0
 10
80.05107461529873
 20
95.27085630879183
 30
0.0
 10
80.68554694247685
 20
95.09422022992116
 30
0.0
 10
81.42522279482469
 20
94.81610099638851
 30
0.0
 10
82.03197003765668
 20
94.52475563666518
 30
0.0
 10
82.39276185387519
 20
94.29727844664637
 30
0.0
 10
82.59493590963947
 20
94.13786720955328
 30
0.0
 10
82.70175936562468
 20
94.0365680648447
 30
0.0
 10
82.77737008192294
 20
93.94263472511396
 30
0.0
 10
82.82453275461425
 20
93.85551508110521
 30
0.0
 10
82.83012080890249
 20
93.80421995084221
 30
0.0
 10
82.83291940452933
 20
93.77853044966214
 30
0.0
  0
LINE
  5
D9
330
1F
100
AcDbEntity
  8
0
  6
Continuous
 62
     7
370
    25
100
AcDbLine
 10
75.9781617492
 20
95.7059631753
 30
0.0
 11
77.8930354684
 21
95.6004536408
 31
0.0
  0
SPLINE
  5
DA
330
1F
100
AcDbEntity
  8
0
  6
Continuous
 62
     7
370
    25
100
AcDbSpline
210
0.0
220
0.0
230
1.0
 70
     8
 71
     3
 72
    14
 73
    10
 74
     0
 42
0.000000001
 43
0.00000001
 40
0.0
 40
0.0
 40
0.0
 40
0.0
 40
0.0789261963155847
 40
0.1582328720522156
 40
0.3308475394554963
 40
0.5000195457601538
 40
0.667035788356921
 40
0.8332395193656904
 40
1.0
 40
1.0
 40
1.0
 40
1.0
 10
73.78194959276463
 20
95.59997027006442
 30
0.0
 10
73.83534511580666
 20
95.60799936325628
 30
0.0
 10
73.94239356562541
 20
95.62409625548004
 30
0.0
 10
74.17146428018783
 20
95.65389766909881
 30
0.0
 10
74.47033701838625
 20
95.68569163229198
 30
0.0
 10
74.84248009318739
 20
95.71184862228779
 30
0.0
 10
75.21810989221903
 20
95.72431383652248
 30
0.0
 10
75.59730220424882
 20
95.72393467684878
 30
0.0
 10
75.8510671737966
 20
95.7119608885873
 30
0.0
 10
75.978161818837
 20
95.70596398376786
 30
0.0
  0
SPLINE
  5
DB
330
1F
100
AcDbEntity
  8
0
  6
Continuous
 62
     7
370
    25
100
AcDbSpline
210
0.0
220
0.0
230
1.0
 70
     8
 71
     3
 72
     8
 73
     4
 74
     0
 42
0.000000001
 43
0.00000001
 40
0.0
 40
0.0
 40
0.0
 40
0.0
 40
1.0
 40
1.0
 40
1.0
 40
1.0
 10
68.38965586912025
 20
95.89457965251304
 30
0.0
 10
70.18699255449329
 20
95.79644382245566
 30
0.0
 10
71.98432923986633
 20
95.69822494741408
 30
0.0
 10
73.78166592523935
 20
95.5999262583635
 30
0.0
  0
SPLINE
  5
DC
330
1F
100
AcDbEntity
  8
0
  6
Continuous
 62
     7
370
    25
100
AcDbSpline
210
0.0
220
0.0
230
1.0
 70
     8
 71
     3
 72
    13
 73
     9
 74
     0
 42
0.000000001
 43
0.00000001
 40
0.0
 40
0.0
 40
0.0
 40
0.0
 40
0.1667030582308044
 40
0.3329480818053134
 40
0.4990671507274983
 40
0.6653938523718556
 40
0.8322612710550201
 40
1.0
 40
1.0
 40
1.0
 40
1.0
 10
67.30615170427485
 20
96.01124671685493
 30
0.0
 10
67.36725874702618
 20
96.0075600891812
 30
0.0
 10
67.4893049343294
 20
96.00019696324141
 30
0.0
 10
67.67163987959309
 20
95.98516245565241
 30
0.0
 10
67.85294409246679
 20
95.96726084741942
 30
0.0
 10
68.03314295250343
 20
95.9461602705735
 30
0.0
 10
68.21244693064176
 20
95.92221389953929
 30
0.0
 10
68.33047895621317
 20
95.90380108432662
 30
0.0
 10
68.38964864596481
 20
95.89457070334895
 30
0.0
  0
SPLINE
  5
DD
330
1F
100
AcDbEntity
  8
0
  6
Continuous
 62
     7
370
    25
100
AcDbSpline
210
0.0
220
0.0
230
1.0
 70
     8
 71
     3
 72
     8
 73
     4
 74
     0
 42
0.000000001
 43
0.00000001
 40
0.0
 40
0.0
 40
0.0
 40
0.0
 40
1.0
 40
1.0
 40
1.0
 40
1.0
 10
61.48797725134065
 20
96.33101394894858
 30
0.0
 10
63.42736873565205
 20
96.22452829906524
 30
0.0
 10
65.36676021996345
 20
96.11793772783388
 30
0.0
 10
67.30615170427487
 20
96.01124671685491
 30
0.0
  0
LINE
  5
DE
330
1F
100
AcDbEntity
  8
0
  6
Continuous
 62
     7
370
    25
100
AcDbLine
 10
61.4879783063
 20
96.3310147333
 30
0.0
 11
61.4879783063
 21
138.7088051694
 31
0.0
  0
SPLINE
  5
DF
330
1F
100
AcDbEntity
  8
0
  6
Continuous
 62
     7
370
    25
100
AcDbSpline
210
0.0
220
0.0
230
1.0
 70
     8
 71
     3
 72
     8
 73
     4
 74
     0
 42
0.000000001
 43
0.00000001
 40
0.0
 40
0.0
 40
0.0
 40
0.0
 40
1.0
 40
1.0
 40
1.0
 40
1.0
 10
67.30615170427487
 20
139.0284856415641
 30
0.0
 10
65.36676021996345
 20
138.9217946305851
 30
0.0
 10
63.42736873565205
 20
138.8152040593538
 30
0.0
 10
61.48797725134066
 20
138.7087184094704
 30
0.0
  0
SPLINE
  5
E0
330
1F
100
AcDbEntity
  8
0
  6
Continuous
 62
     7
370
    25
100
AcDbSpline
210
0.0
220
0.0
230
1.0
 70
     8
 71
     3
 72
    13
 73
     9
 74
     0
 42
0.000000001
 43
0.00000001
 40
0.0
 40
0.0
 40
0.0
 40
0.0
 40
0.1686319999748162
 40
0.3360343310905639
 40
0.5025367825908819
 40
0.6684737453788441
 40
0.8341822636915266
 40
1.0
 40
1.0
 40
1.0
 40
1.0
 10
68.38964675374184
 20
139.1451644173061
 30
0.0
 10
68.33015685768211
 20
139.1358899271098
 30
0.0
 10
68.21161086740705
 20
139.1174085765369
 30
0.0
 10
68.03173417182116
 20
139.0933778298027
 30
0.0
 10
67.85134388419311
 20
139.0722467222936
 30
0.0
 10
67.67023171215932
 20
139.0543680237076
 30
0.0
 10
67.48847087499185
 20
139.0394062625305
 30
0.0
 10
67.36693810709724
 20
139.0321266479515
 30
0.0
 10
67.30615170427485
 20
139.0284856415641
 30
0.0
  0
SPLINE
  5
E1
330
1F
100
AcDbEntity
  8
0
  6
Continuous
 62
     7
370
    25
100
AcDbSpline
210
0.0
220
0.0
230
1.0
 70
     8
 71
     3
 72
     8
 73
     4
 74
     0
 42
0.000000001
 43
0.00000001
 40
0.0
 40
0.0
 40
0.0
 40
0.0
 40
1.0
 40
1.0
 40
1.0
 40
1.0
 10
73.78184017023513
 20
139.4398156412511
 30
0.0
 10
71.98444549879716
 20
139.3415137820346
 30
0.0
 10
70.18705082735919
 20
139.2432917418759
 30
0.0
 10
68.38965615592122
 20
139.1451527520603
 30
0.0
  0
SPLINE
  5
E2
330
1F
100
AcDbEntity
  8
0
  6
Continuous
 62
     7
370
    25
100
AcDbSpline
210
0.0
220
0.0
230
1.0
 70
     8
 71
     3
 72
    18
 73
    14
 74
     0
 42
0.000000001
 43
0.00000001
 40
0.0
 40
0.0
 40
0.0
 40
0.0
 40
0.0923325137111259
 40
0.1843692047063178
 40
0.2763458873811051
 40
0.3684982175655905
 40
0.461059898830402
 40
0.5542609546533457
 40
0.6483261285442697
 40
0.7434734636505935
 40
0.8399130993120554
 40
0.9201660718299485
 40
1.0
 40
1.0
 40
1.0
 40
1.0
 10
75.978161818837
 20
139.3337683746512
 30
0.0
 10
75.90783151532395
 20
139.3300970673462
 30
0.0
 10
75.767396238472
 20
139.3227662151812
 30
0.0
 10
75.5570337119694
 20
139.3171755559365
 30
0.0
 10
75.34759004905303
 20
139.3155709658029
 30
0.0
 10
75.13904037868053
 20
139.3183032398014
 30
0.0
 10
74.93139676140525
 20
139.3252263373895
 30
0.0
 10
74.72465857386565
 20
139.3363089476823
 30
0.0
 10
74.51883648190082
 20
139.3514778885368
 30
0.0
 10
74.31390480310866
 20
139.3706318744977
 30
0.0
 10
74.12242405771305
 20
139.3923345685493
 30
0.0
 10
73.9447009056585
 20
139.4153640918132
 30
0.0
 10
73.83636691109459
 20
139.4316275094554
 30
0.0
 10
73.78234170164131
 20
139.439737932671
 30
0.0
  0
LINE
  5
E3
330
1F
100
AcDbEntity
  8
0
  6
Continuous
 62
     7
370
    25
100
AcDbLine
 10
77.8930354684
 20
139.4392787176
 30
0.0
 11
75.9781617492
 21
139.3337691831
 31
0.0
  0
SPLINE
  5
E4
330
1F
100
AcDbEntity
  8
0
  6
Continuous
 62
     7
370
    25
100
AcDbSpline
210
0.0
220
0.0
230
1.0
 70
     8
 71
     3
 72
    25
 73
    21
 74
     0
 42
0.000000001
 43
0.00000001
 40
0.0
 40
0.0
 40
0.0
 40
0.0
 40
0.0280105225426479
 40
0.0559601148860778
 40
0.0839014045043132
 40
0.1118870776786396
 40
0.1399695827588963
 40
0.1682008401739896
 40
0.1966319670424239
 40
0.2253130233141486
 40
0.2542927850735853
 40
0.3799486436570562
 40
0.5057850221666559
 40
0.6313085886326678
 40
0.753206823801271
 40
0.8039473267958359
 40
0.8535894438558028
 40
0.9025339722397656
 40
0.9511970353793487
 40
1.0
 40
1.0
 40
1.0
 40
1.0
 10
82.83291940452933
 20
141.2612019087569
 30
0.0
 10
82.83295662626317
 20
141.247243768935
 30
0.0
 10
82.83303098876382
 20
141.2193578518894
 30
0.0
 10
82.82061493811732
 20
141.1743140570036
 30
0.0
 10
82.79901037776357
 20
141.1270468328085
 30
0.0
 10
82.76732490810356
 20
141.0773476518325
 30
0.0
 10
82.72579876978365
 20
141.02531040286
 30
0.0
 10
82.67436801405375
 20
140.9709476402242
 30
0.0
 10
82.61305413934251
 20
140.9142963575592
 30
0.0
 10
82.54184380384305
 20
140.855378795894
 30
0.0
 10
82.37100719663954
 20
140.726562220071
 30
0.0
 10
82.03327496320263
 20
140.5163588359277
 30
0.0
 10
81.42172029900695
 20
140.225433314336
 30
0.0
 10
80.68548546385834
 20
139.9469064981138
 30
0.0
 10
79.99899939220899
 20
139.7526097923796
 30
0.0
 10
79.4502952460573
 20
139.6320189799266
 30
0.0
 10
79.06825906755144
 20
139.5622418141639
 30
0.0
 10
78.68109296884701
 20
139.5064528103082
 30
0.0
 10
78.28886630006151
 20
139.4637226255649
 30
0.0
 10
78.02510503194732
 20
139.4474347304197
 30
0.0
 10
77.89303509812646
 20
139.4392790931296
 30
0.0
  0
LINE
  5
E5
330
1F
100
AcDbEntity
  8
0
  6
Continuous
 62
     7
370
    25
100
AcDbLine
 10
82.8329194157
 20
141.6608853894
 30
0.0
 11
82.8329194157
 21
141.2612027186
 31
0.0
  0
SPLINE
  5
E6
330
1F
100
AcDbEntity
  8
0
  6
Continuous
 62
     7
370
    25
100
AcDbSpline
210
0.0
220
0.0
230
1.0
 70
    11
 71
     3
 72
    39
 73
    35
 74
     0
 42
0.000000001
 43
0.00000001
 40
0.0
 40
0.0
 40
0.0
 40
0.0
 40
0.0310664058347798
 40
0.0621048158425991
 40
0.0931361551792733
 40
0.1235538293503577
 40
0.1538561545807598
 40
0.1850588072749104
 40
0.2160250992947717
 40
0.247186722379756
 40
0.2784462884306427
 40
0.3100516090231226
 40
0.3419834369140484
 40
0.3734259894013217
 40
0.4048604886785525
 40
0.4368740651833295
 40
0.468512068592407
 40
0.4998055358633177
 40
0.5309508213228404
 40
0.561864978443814
 40
0.5930416446592908
 40
0.6233742450133256
 40
0.6540913579073041
 40
0.6849496782718417
 40
0.7158160645167227
 40
0.7471731804043494
 40
0.7784514311866261
 40
0.8101295911560916
 40
0.8419598919689909
 40
0.8735175891922292
 40
0.9050808037889628
 40
0.9370235169792575
 40
0.9687441590033682
 40
0.9999999999999999
 40
0.9999999999999999
 40
0.9999999999999999
 40
0.9999999999999999
 10
71.85039334605484
 20
123.3281193088042
 30
0.0
 10
72.21452250701958
 20
123.707542966712
 30
0.0
 10
73.01730684373648
 20
124.3950246676056
 30
0.0
 10
74.41234532911852
 20
125.1609386420242
 30
0.0
 10
75.92358716884182
 20
125.649819575455
 30
0.0
 10
77.49518357536428
 20
125.8117974490886
 30
0.0
 10
79.0627281924229
 20
125.6503525581302
 30
0.0
 10
80.55840018653157
 20
125.1706281708862
 30
0.0
 10
81.93881644856715
 20
124.4173287026926
 30
0.0
 10
83.13586250215177
 20
123.4048428290322
 30
0.0
 10
84.12477028189319
 20
122.1702940416663
 30
0.0
 10
84.8642650761957
 20
120.7453424133843
 30
0.0
 10
85.34056899908514
 20
119.1944119338419
 30
0.0
 10
85.50823517154116
 20
117.5734830666159
 30
0.0
 10
85.3629575707536
 20
115.9484741206945
 30
0.0
 10
84.90398286012177
 20
114.3894481404228
 30
0.0
 10
84.1799969742685
 20
112.9527915417472
 30
0.0
 10
83.20418271894576
 20
111.7060473269467
 30
0.0
 10
82.01985817129672
 20
110.6798501377497
 30
0.0
 10
80.65165191556717
 20
109.9094459180289
 30
0.0
 10
79.16391407843493
 20
109.4105967075523
 30
0.0
 10
77.5942642179824
 20
109.2293926276564
 30
0.0
 10
76.01800969965323
 20
109.3658157695748
 30
0.0
 10
74.49873419117839
 20
109.8302475023815
 30
0.0
 10
73.09771615713045
 20
110.5846815767506
 30
0.0
 10
71.8795796602313
 20
111.6080913122852
 30
0.0
 10
70.87196875710279
 20
112.8550335737784
 30
0.0
 10
70.12649484655273
 20
114.2881229800464
 30
0.0
 10
69.65065903392897
 20
115.844785205268
 30
0.0
 10
69.48684791894117
 20
117.4684481789736
 30
0.0
 10
69.6326600622065
 20
119.0959972229651
 30
0.0
 10
70.09280437438356
 20
120.6607449113006
 30
0.0
 10
70.8222644392048
 20
122.1047709807631
 30
0.0
 10
71.4840438166668
 20
122.9463820204614
 30
0.0
 10
71.85039334605484
 20
123.3281193088042
 30
0.0
  0
SPLINE
  5
E7
330
1F
100
AcDbEntity
  8
0
  6
Continuous
 62
     7
370
    25
100
AcDbSpline
210
0.0
220
0.0
230
1.0
 70
    11
 71
     3
 72
    47
 73
    43
 74
     0
 42
0.000000001
 43
0.00000001
 40
0.0
 40
0.0
 40
0.0
 40
0.0
 40
0.0185565231571564
 40
0.035175779134607
 40
0.0498587703163977
 40
0.0626072874024163
 40
0.0953681049684394
 40
0.1250235944851125
 40
0.1545621306648851
 40
0.187325415667866
 40
0.214037648789779
 40
0.2498478283714602
 40
0.2676842772503708
 40
0.2839032654384537
 40
0.2985082395935219
 40
0.311504112535417
 40
0.3429211892384783
 40
0.3729479206117491
 40
0.4028496296254227
 40
0.4364008870238722
 40
0.4619504140689453
 40
0.4999311490763327
 40
0.5173446591947486
 40
0.5335937024374298
 40
0.5486836298429361
 40
0.5626211828729782
 40
0.5950895091111661
 40
0.6250625446193601
 40
0.6549914305494098
 40
0.6874537010179621
 40
0.7162620319992257
 40
0.7500327075718594
 40
0.7698580256218077
 40
0.7869169820502812
 40
0.8012094712348541
 40
0.8127363282889571
 40
0.8457518306190162
 40
0.8751838152098743
 40
0.9050548231038161
 40
0.9375234850660229
 40
0.9660340097891252
 40
1.0
 40
1.0
 40
1.0
 40
1.0
 10
72.39420626642914
 20
122.6290853030007
 30
0.0
 10
72.19610763881823
 20
122.4297000138882
 30
0.0
 10
71.8431616588272
 20
122.0303709857859
 30
0.0
 10
71.407254662931
 20
121.4117166912109
 30
0.0
 10
71.07731792592341
 20
120.82935612046
 30
0.0
 10
70.69610219393165
 20
119.9968278154721
 30
0.0
 10
70.36969637539063
 20
118.8875417123068
 30
0.0
 10
70.24534331656102
 20
117.476364383682
 30
0.0
 10
70.38671268446753
 20
116.0668743845118
 30
0.0
 10
70.78821043869647
 20
114.7588067857905
 30
0.0
 10
71.46515982919277
 20
113.4741434848781
 30
0.0
 10
72.23834218688052
 20
112.5206557029668
 30
0.0
 10
73.03360388784462
 20
111.8213517354358
 30
0.0
 10
73.63774400560713
 20
111.3948526955171
 30
0.0
 10
74.21745920023147
 20
111.064701167408
 30
0.0
 10
75.03526046766848
 20
110.6887405253191
 30
0.0
 10
76.13492289702971
 20
110.3597386910949
 30
0.0
 10
77.53729062568985
 20
110.2261606745909
 30
0.0
 10
78.9647633090941
 20
110.3621605535985
 30
0.0
 10
80.26194029284954
 20
110.7566487034419
 30
0.0
 10
81.55634331600665
 20
111.4284425103914
 30
0.0
 10
82.50833999646754
 20
112.1909965003444
 30
0.0
 10
83.2178127250868
 20
112.9930356202726
 30
0.0
 10
83.64341750502616
 20
113.5888312252593
 30
0.0
 10
83.98408013294417
 20
114.1801008455588
 30
0.0
 10
84.37374551981415
 20
115.0246636766032
 30
0.0
 10
84.70545748137108
 20
116.1483155814696
 30
0.0
 10
84.83169864286886
 20
117.5662077416223
 30
0.0
 10
84.68737053159872
 20
118.9820329331942
 30
0.0
 10
84.27509218253023
 20
120.3171909085511
 30
0.0
 10
83.59577600154843
 20
121.586159242134
 30
0.0
 10
82.80942564331266
 20
122.5464817343742
 30
0.0
 10
82.01557796959176
 20
123.2418893412406
 30
0.0
 10
81.38585374755364
 20
123.6779632172655
 30
0.0
 10
80.82461782818797
 20
123.9908123657369
 30
0.0
 10
80.02100936863519
 20
124.3580143665139
 30
0.0
 10
78.94086097414362
 20
124.6807243044397
 30
0.0
 10
77.53133265406815
 20
124.8126685369526
 30
0.0
 10
76.12212772723426
 20
124.6788585159322
 30
0.0
 10
74.78141487741226
 20
124.2741045238272
 30
0.0
 10
73.49714641223102
 20
123.5958491752979
 30
0.0
 10
72.75680738460389
 20
122.9940415354174
 30
0.0
 10
72.39420626642917
 20
122.6290853030007
 30
0.0
  0
SPLINE
  5
E8
330
1F
100
AcDbEntity
  8
0
  6
Continuous
 62
     7
370
    25
100
AcDbSpline
210
0.0
220
0.0
230
1.0
 70
     8
 71
     3
 72
     8
 73
     4
 74
     0
 42
0.000000001
 43
0.00000001
 40
0.0
 40
0.0
 40
0.0
 40
0.0
 40
1.0
 40
1.0
 40
1.0
 40
1.0
 10
60.5743174297487
 20
96.741585959949
 30
0.0
 10
60.87887070345813
 20
96.60390921957368
 30
0.0
 10
61.18342397716753
 20
96.46704649865973
 30
0.0
 10
61.48797725087694
 20
96.33101394932858
 30
0.0
  0
SPLINE
  5
E9
330
1F
100
AcDbEntity
  8
0
  6
Continuous
 62
     7
370
    25
100
AcDbSpline
210
0.0
220
0.0
230
1.0
 70
     8
 71
     3
 72
     8
 73
     4
 74
     0
 42
0.000000001
 43
0.00000001
 40
0.0
 40
0.0
 40
0.0
 40
0.0
 40
1.0
 40
1.0
 40
1.0
 40
1.0
 10
59.9879772513279
 20
97.25764044246516
 30
0.0
 10
60.18252438386062
 20
97.08423357414534
 30
0.0
 10
60.37798540409967
 20
96.91223747917866
 30
0.0
 10
60.57431742975683
 20
96.7415859599468
 30
0.0
  0
LINE
  5
EA
330
1F
100
AcDbEntity
  8
0
  6
Continuous
 62
     7
370
    25
100
AcDbLine
 10
59.9879789918
 20
97.2576397168
 30
0.0
 11
59.9879789918
 21
137.7820926416
 31
0.0
  0
SPLINE
  5
EB
330
1F
100
AcDbEntity
  8
0
  6
Continuous
 62
     7
370
    25
100
AcDbSpline
210
0.0
220
0.0
230
1.0
 70
     8
 71
     3
 72
     8
 73
     4
 74
     0
 42
0.000000001
 43
0.00000001
 40
0.0
 40
0.0
 40
0.0
 40
0.0
 40
1.0
 40
1.0
 40
1.0
 40
1.0
 10
60.57431742976036
 20
138.2981463984753
 30
0.0
 10
60.377985404102
 20
138.1274948792424
 30
0.0
 10
60.18252438386179
 20
137.9554987842747
 30
0.0
 10
59.9879772513279
 20
137.7820919159539
 30
0.0
  0
SPLINE
  5
EC
330
1F
100
AcDbEntity
  8
0
  6
Continuous
 62
     7
370
    25
100
AcDbSpline
210
0.0
220
0.0
230
1.0
 70
     8
 71
     3
 72
     8
 73
     4
 74
     0
 42
0.000000001
 43
0.00000001
 40
0.0
 40
0.0
 40
0.0
 40
0.0
 40
1.0
 40
1.0
 40
1.0
 40
1.0
 10
61.48797725087697
 20
138.7087184090905
 30
0.0
 10
61.18342397717143
 20
138.572685859761
 30
0.0
 10
60.8788707034659
 20
138.4358231388488
 30
0.0
 10
60.57431742976036
 20
138.2981463984753
 30
0.0
  0
SPLINE
  5
ED
330
1F
100
AcDbEntity
  8
0
  6
Continuous
 62
     7
370
    25
100
AcDbSpline
210
0.0
220
0.0
230
1.0
 70
     8
 71
     3
 72
     9
 73
     5
 74
     0
 42
0.000000001
 43
0.00000001
 40
0.0
 40
0.0
 40
0.0
 40
0.0
 40
0.9928139386157887
 40
1.0
 40
1.0
 40
1.0
 40
1.0
 10
75.61272194675291
 20
110.5301673221405
 30
0.0
 10
75.74499255634622
 20
110.4956279270549
 30
0.0
 10
75.87822055048348
 20
110.46083853325
 30
0.0
 10
75.79432365210086
 20
110.4826824001751
 30
0.0
 10
75.79372076383913
 20
110.4828393715437
 30
0.0
  0
LINE
  5
EE
330
1F
100
AcDbEntity
  8
0
  6
Continuous
 62
     7
370
    25
100
AcDbLine
 10
209.9379766553
 20
99.1198657709
 30
0.0
 11
209.9379766553
 21
135.9198665875
 31
0.0
  0
LINE
  5
EF
330
1F
100
AcDbEntity
  8
0
  6
Continuous
 62
     7
370
    25
100
AcDbLine
 10
82.8329194157
 20
141.2612027186
 30
0.0
 11
82.1871086775
 21
140.6260835635
 31
0.0
  0
LINE
  5
F0
330
1F
100
AcDbEntity
  8
0
  6
Continuous
 62
     7
370
    25
100
AcDbLine
 10
82.8329194157
 20
93.7785296398
 30
0.0
 11
82.1896083473
 21
94.4111919659
 31
0.0
  0
LINE
  5
F1
330
1F
100
AcDbEntity
  8
0
  6
Continuous
 62
     7
370
    25
100
AcDbLine
 10
211.9379807084
 20
109.5198657992
 30
0.0
 11
211.9379807084
 21
125.5198665592
 31
0.0
  0
LINE
  5
F2
330
1F
100
AcDbEntity
  8
0
  6
Continuous
 62
     7
370
    25
100
AcDbLine
 10
226.9379813044
 20
110.119866177
 30
0.0
 11
226.9379813044
 21
124.9198661814
 31
0.0
  0
LINE
  5
F3
330
1F
100
AcDbEntity
  8
0
  6
Continuous
 62
     7
370
    25
100
AcDbLine
 10
81.9379780262
 20
94.2737883586
 30
0.0
 11
81.9379780262
 21
94.6586555499
 31
0.0
  0
LINE
  5
F4
330
1F
100
AcDbEntity
  8
0
  6
Continuous
 62
     7
370
    25
100
AcDbLine
 10
81.9379780262
 20
140.3810768086
 30
0.0
 11
81.9379780262
 21
140.7659439999
 31
0.0
  0
LINE
  5
F5
330
1F
100
AcDbEntity
  8
0
  6
Continuous
 62
     7
370
    25
100
AcDbLine
 10
72.7613139718
 20
122.9272186453
 30
0.0
 11
71.6321077018
 21
121.708076417
 31
0.0
  0
SPLINE
  5
F6
330
1F
100
AcDbEntity
  8
0
  6
Continuous
 62
     7
370
    25
100
AcDbSpline
210
0.0
220
0.0
230
1.0
 70
     8
 71
     3
 72
     9
 73
     5
 74
     0
 42
0.000000001
 43
0.00000001
 40
0.0
 40
0.0
 40
0.0
 40
0.0
 40
0.4290578307160657
 40
1.0
 40
1.0
 40
1.0
 40
1.0
 10
74.90676453403319
 20
110.7725822064097
 30
0.0
 10
75.0409555314617
 20
110.7200661179437
 30
0.0
 10
75.35371289846871
 20
110.5976674930815
 30
0.0
 10
75.52106595689857
 20
110.5544437271405
 30
0.0
 10
75.6166148751148
 20
110.5297654564496
 30
0.0
  0
LINE
  5
F7
330
1F
100
AcDbEntity
  8
0
  6
HIDDEN
 62
     7
370
    18
100
AcDbLine
 10
229.937972483
 20
111.0198660451
 30
0.0
 11
229.937972483
 21
124.0198663133
 31
0.0
  0
LINE
  5
F8
330
1F
100
AcDbEntity
  8
0
  6
HIDDEN
 62
     7
370
    18
100
AcDbLine
 10
237.9379737943
 20
111.4198662969
 30
0.0
 11
237.9379737943
 21
123.6198660615
 31
0.0
  0
LINE
  5
F9
330
1F
100
AcDbEntity
  8
0
  6
HIDDEN
 62
     7
370
    18
100
AcDbLine
 10
229.937972483
 20
113.1198662031
 30
0.0
 11
229.937972483
 21
121.8940731767
 31
0.0
  0
LINE
  5
FA
330
1F
100
AcDbEntity
  8
0
  6
HIDDEN
 62
     7
370
    18
100
AcDbLine
 10
205.6284788816
 20
113.5198659892
 30
0.0
 11
205.6284788816
 21
121.5198663692
 31
0.0
  0
LINE
  5
FB
330
1F
100
AcDbEntity
  8
0
  6
HIDDEN
 62
     7
370
    18
100
AcDbLine
 10
204.9379739731
 20
114.2103662412
 30
0.0
 11
204.9379739731
 21
120.8293661173
 31
0.0
  0
LINE
  5
FC
330
1F
100
AcDbEntity
  8
0
  6
HIDDEN
 62
     7
370
    18
100
AcDbLine
 10
237.9379737943
 20
117.5198661792
 30
0.0
 11
237.9379737943
 21
114.4723661407
 31
0.0
  0
LINE
  5
FD
330
1F
100
AcDbEntity
  8
0
  6
HIDDEN
 62
     7
370
    18
100
AcDbLine
 10
233.9379805892
 20
117.5198661792
 30
0.0
 11
233.9379805892
 21
115.9961161599
 31
0.0
  0
LINE
  5
FE
330
1F
100
AcDbEntity
  8
0
  6
HIDDEN
 62
     7
370
    18
100
AcDbLine
 10
233.9379805892
 20
117.5198661792
 30
0.0
 11
233.9379805892
 21
119.0436161985
 31
0.0
  0
LINE
  5
FF
330
1F
100
AcDbEntity
  8
0
  6
HIDDEN
 62
     7
370
    18
100
AcDbLine
 10
233.9379805892
 20
117.5198661792
 30
0.0
 11
237.9379737943
 21
117.5198661792
 31
0.0
  0
LINE
  5
100
330
1F
100
AcDbEntity
  8
0
  6
HIDDEN
 62
     7
370
    18
100
AcDbLine
 10
237.9379737943
 20
117.5198661792
 30
0.0
 11
237.9379737943
 21
120.5673662177
 31
0.0
  0
LINE
  5
101
330
1F
100
AcDbEntity
  8
0
  6
HIDDEN
 62
     7
370
    18
100
AcDbLine
 10
233.9379805892
 20
119.0436161985
 30
0.0
 11
233.9379805892
 21
120.5673662177
 31
0.0
  0
LINE
  5
102
330
1F
100
AcDbEntity
  8
0
  6
HIDDEN
 62
     7
370
    18
100
AcDbLine
 10
233.9379805892
 20
115.9961161599
 30
0.0
 11
233.9379805892
 21
119.0436161985
 31
0.0
  0
LINE
  5
103
330
1F
100
AcDbEntity
  8
0
  6
HIDDEN
 62
     7
370
    18
100
AcDbLine
 10
233.9379805892
 20
114.4723661407
 30
0.0
 11
233.9379805892
 21
115.9961161599
 31
0.0
  0
LINE
  5
104
330
1F
100
AcDbEntity
  8
0
  6
HIDDEN
 62
     7
370
    18
100
AcDbLine
 10
233.9379805892
 20
115.9961161599
 30
0.0
 11
233.9379805892
 21
114.4723661407
 31
0.0
  0
LINE
  5
105
330
1F
100
AcDbEntity
  8
0
  6
HIDDEN
 62
     7
370
    18
100
AcDbLine
 10
233.9379805892
 20
120.5673662177
 30
0.0
 11
233.9379805892
 21
119.0436161985
 31
0.0
  0
LINE
  5
106
330
1F
100
AcDbEntity
  8
0
  6
HIDDEN
 62
     7
370
    18
100
AcDbLine
 10
233.9379805892
 20
119.0436161985
 30
0.0
 11
233.9379805892
 21
115.9961161599
 31
0.0
  0
LINE
  5
107
330
1F
100
AcDbEntity
  8
0
  6
HIDDEN
 62
     7
370
    18
100
AcDbLine
 10
233.9379805892
 20
115.9961161599
 30
0.0
 11
233.9379805892
 21
114.4723661407
 31
0.0
  0
LINE
  5
108
330
1F
100
AcDbEntity
  8
0
  6
HIDDEN
 62
     7
370
    18
100
AcDbLine
 10
233.9379805892
 20
119.0436161985
 30
0.0
 11
233.9379805892
 21
120.5673662177
 31
0.0
  0
LINE
  5
109
330
1F
100
AcDbEntity
  8
0
  6
HIDDEN
 62
     7
370
    18
100
AcDbLine
 10
233.9379805892
 20
120.5673662177
 30
0.0
 11
237.9379737943
 21
120.5673662177
 31
0.0
  0
LINE
  5
10A
330
1F
100
AcDbEntity
  8
0
  6
HIDDEN
 62
     7
370
    18
100
AcDbLine
 10
233.9379805892
 20
114.4723661407
 30
0.0
 11
237.9379737943
 21
114.4723661407
 31
0.0
  0
LINE
  5
10B
330
1F
100
AcDbEntity
  8
0
  6
HIDDEN
 62
     7
370
    18
100
AcDbLine
 10
226.9379813044
 20
121.5198663692
 30
0.0
 11
205.6284788816
 21
121.5198663692
 31
0.0
  0
LINE
  5
10C
330
1F
100
AcDbEntity
  8
0
  6
HIDDEN
 62
     7
370
    18
100
AcDbLine
 10
205.6284788816
 20
113.5198659892
 30
0.0
 11
226.9379813044
 21
113.5198659892
 31
0.0
  0
LINE
  5
10D
330
1F
100
AcDbEntity
  8
0
  6
HIDDEN
 62
     7
370
    18
100
AcDbLine
 10
205.6284788816
 20
121.5198663692
 30
0.0
 11
204.9379739731
 21
120.8293661173
 31
0.0
  0
LINE
  5
10E
330
1F
100
AcDbEntity
  8
0
  6
HIDDEN
 62
     7
370
    18
100
AcDbLine
 10
204.9379739731
 20
114.2103662412
 30
0.0
 11
205.6284788816
 21
113.5198659892
 31
0.0
  0
LINE
  5
10F
330
1F
100
AcDbEntity
  8
0
  6
HIDDEN
 62
     7
370
    18
100
AcDbLine
 10
233.9379805892
 20
120.5673662177
 30
0.0
 11
232.1784961789
 21
117.5198661792
 31
0.0
  0
LINE
  5
110
330
1F
100
AcDbEntity
  8
0
  6
HIDDEN
 62
     7
370
    18
100
AcDbLine
 10
232.1784961789
 20
117.5198661792
 30
0.0
 11
233.9379805892
 21
114.4723661407
 31
0.0
  0
DIMENSION
  5
111
330
1F
100
AcDbEntity
  8
VERMASSUNG
100
AcDbDimension
  2
_D
 10
255.5171916283
 20
125.5198661792
 30
0.0
 11
255.5171916283
 21
117.5198661792
 31
0.0
 70
   160
  1
%%c<>
 71
     2
 42
-1.0
  3
SLDDIMSTYLE0
100
AcDbAlignedDimension
 13
226.3379772513
 23
109.5198661792
 33
0.0
 14
226.3379772513
 24
125.5198661792
 34
0.0
 50
90.0
100
AcDbRotatedDimension
  0
DIMENSION
  5
11D
330
1F
100
AcDbEntity
  8
VERMASSUNG
100
AcDbDimension
  2
_D_1
 10
263.8213724048
 20
136.5198661792
 30
0.0
 11
263.8213724048
 21
117.5198661792
 31
0.0
 70
   160
  1
%%c<>
 71
     2
 42
-1.0
  3
SLDDIMSTYLE0
100
AcDbAlignedDimension
 13
209.3379772513
 23
98.5198661792
 33
0.0
 14
209.3379772513
 24
136.5198661792
 34
0.0
 50
90.0
100
AcDbRotatedDimension
  0
DIMENSION
  5
128
330
1F
100
AcDbEntity
  8
VERMASSUNG
100
AcDbDimension
  2
_D_2
 10
49.9879522513
 20
86.0448661792
 30
0.0
 11
49.9879522513
 21
117.5198661792
 31
0.0
 70
   160
  1
KM%%c<> XMZ
 71
     2
 42
-1.0
  3
SLDDIMSTYLE1
100
AcDbAlignedDimension
 13
100.1379772513
 23
148.9948661792
 33
0.0
 14
100.1379772513
 24
86.0448661792
 34
0.0
 50
90.0
100
AcDbRotatedDimension
  0
DIMENSION
  5
136
330
1F
100
AcDbEntity
  8
VERMASSUNG
100
AcDbDimension
  2
_D_3
 10
209.9379772513
 20
154.8880767155
 30
0.0
 11
163.9379772513
 21
154.8880767155
 31
0.0
 70
   160
  1
<>
 71
     2
 42
-1.0
  3
SLDDIMSTYLE0
100
AcDbAlignedDimension
 13
117.9379772513
 23
148.9948661792
 33
0.0
 14
209.9379772513
 24
135.9198661792
 34
0.0
100
AcDbRotatedDimension
  0
DIMENSION
  5
140
330
1F
100
AcDbEntity
  8
VERMASSUNG
100
AcDbDimension
  2
_D_4
 10
209.9379772513
 20
163.7204457438
 30
0.0
 11
154.9379772513
 21
163.7204457438
 31
0.0
 70
   160
  1
<>
 71
     2
 42
-1.0
  3
SLDDIMSTYLE0
100
AcDbAlignedDimension
 13
99.9379772513
 23
148.7948661792
 33
0.0
 14
209.9379772513
 24
135.9198661792
 34
0.0
100
AcDbRotatedDimension
  0
DIMENSION
  5
14A
330
1F
100
AcDbEntity
  8
VERMASSUNG
100
AcDbDimension
  2
_D_5
 10
226.9379772513
 20
170.9948661792
 30
0.0
 11
143.4629772513
 21
170.9948661792
 31
0.0
 70
   160
  1
<>
 71
     2
 42
-1.0
  3
SLDDIMSTYLE0
100
AcDbAlignedDimension
 13
59.9879772513
 23
137.782091916
 33
0.0
 14
226.9379772513
 24
122.3698661792
 34
0.0
100
AcDbRotatedDimension
  0
DIMENSION
  5
154
330
1F
100
AcDbEntity
  8
VERMASSUNG
100
AcDbDimension
  2
_D_6
 10
226.9379772513
 20
154.8880767155
 30
0.0
 11
218.4379772513
 21
154.8880767155
 31
0.0
 70
   160
  1
<>
 71
     2
 42
-1.0
  3
SLDDIMSTYLE0
100
AcDbAlignedDimension
 13
209.9379772513
 23
135.9198661792
 33
0.0
 14
226.9379772513
 24
124.9198661792
 34
0.0
100
AcDbRotatedDimension
  0
DIMENSION
  5
15E
330
1F
100
AcDbEntity
  8
VERMASSUNG
100
AcDbDimension
  2
_D_7
 10
246.569740405
 20
120.5673661792
 30
0.0
 11
246.569740405
 21
117.5198661792
 31
0.0
 70
   160
  1
SW<>
 71
     2
 42
-1.0
  3
SLDDIMSTYLE2
100
AcDbAlignedDimension
 13
237.9379772513
 23
114.4723661792
 33
0.0
 14
237.9379772513
 24
120.5673661792
 34
0.0
 50
90.0
100
AcDbRotatedDimension
  0
LINE
  5
16C
330
1F
100
AcDbEntity
  8
VERMASSUNG
  6
CENTERX2
370
    18
100
AcDbLine
 10
239.5379772513
 20
117.5198661792
 30
0.0
 11
57.9879772513
 21
117.5198661792
 31
0.0
  0
SPLINE
  5
16D
330
1F
100
AcDbEntity
  8
0
  6
Continuous
 62
     7
370
    25
100
AcDbSpline
210
0.0
220
0.0
230
1.0
 70
     8
 71
     3
 72
    12
 73
     8
 74
     0
 42
0.000000001
 43
0.00000001
 40
0.0
 40
0.0
 40
0.0
 40
0.0
 40
0.0983876121047981
 40
0.3704177949041897
 40
0.6436712816399329
 40
0.9320618596458882
 40
1.0
 40
1.0
 40
1.0
 40
1.0
 10
260.5043333520406
 20
33.33458703671823
 30
0.0
 10
260.5364657462861
 20
33.31139078141663
 30
0.0
 10
260.6574404337168
 20
33.22405960673887
 30
0.0
 10
260.9294216627175
 20
33.1945266096474
 30
0.0
 10
261.2794598310433
 20
33.24426921192033
 30
0.0
 10
261.5481628614858
 20
33.3654560847452
 30
0.0
 10
261.695122340791
 20
33.46004814818237
 30
0.0
 10
261.7231418441792
 20
33.47808320556354
 30
0.0
  0
SPLINE
  5
16E
330
1F
100
AcDbEntity
  8
0
  6
Continuous
 62
     7
370
    25
100
AcDbSpline
210
0.0
220
0.0
230
1.0
 70
     8
 71
     3
 72
    17
 73
    13
 74
     0
 42
0.000000001
 43
0.00000001
 40
0.0
 40
0.0
 40
0.0
 40
0.0
 40
0.0623331889579983
 40
0.1794014984286874
 40
0.2961645836854863
 40
0.4128583406228484
 40
0.5299883504316498
 40
0.6481173447944009
 40
0.7678283137360368
 40
0.8745992534491485
 40
0.9763863318254818
 40
1.0
 40
1.0
 40
1.0
 40
1.0
 10
261.7231418441792
 20
33.47808320556354
 30
0.0
 10
261.7885341887453
 20
33.52486833123623
 30
0.0
 10
261.9767402599738
 20
33.65952086209764
 30
0.0
 10
262.2674623817882
 20
33.95491674237859
 30
0.0
 10
262.5637592276369
 20
34.36937006663893
 30
0.0
 10
262.7928790406064
 20
34.82836020488357
 30
0.0
 10
262.9404485799307
 20
35.30250968377877
 30
0.0
 10
262.9943827656271
 20
35.76421785914081
 30
0.0
 10
262.9491064232774
 20
36.17504723811798
 30
0.0
 10
262.8043145994354
 20
36.49938823159941
 30
0.0
 10
262.6506009208504
 20
36.70173749374025
 30
0.0
 10
262.5317629141973
 20
36.75375674704614
 30
0.0
 10
262.5093850469771
 20
36.76355226597276
 30
0.0
  0
LINE
  5
16F
330
1F
100
AcDbEntity
  8
0
  6
Continuous
 62
     7
370
    25
100
AcDbLine
 10
258.8992331882
 20
34.2427937765
 30
0.0
 11
260.490224036
 21
33.3243343101
 31
0.0
  0
LINE
  5
170
330
1F
100
AcDbEntity
  8
0
  6
Continuous
 62
     7
370
    25
100
AcDbLine
 10
262.4900617048
 20
36.7885298475
 30
0.0
 11
260.899070857
 21
37.7069893139
 31
0.0
  0
SPLINE
  5
171
330
1F
100
AcDbEntity
  8
0
  6
Continuous
 62
     7
370
    25
100
AcDbSpline
210
0.0
220
0.0
230
1.0
 70
     8
 71
     3
 72
    16
 73
    12
 74
     0
 42
0.000000001
 43
0.00000001
 40
0.0
 40
0.0
 40
0.0
 40
0.0
 40
0.1063355693998317
 40
0.2334952208321101
 40
0.3605794447859842
 40
0.4881385941376195
 40
0.6167857958009113
 40
0.7471558100032584
 40
0.8634336529801886
 40
0.9742837746407151
 40
1.0
 40
1.0
 40
1.0
 40
1.0
 10
271.8740920992889
 20
39.39543964920968
 30
0.0
 10
271.9715360121278
 20
39.48655222514416
 30
0.0
 10
272.1855066343334
 20
39.68662028476407
 30
0.0
 10
272.4626419509682
 20
40.08598816858104
 30
0.0
 10
272.6925391049303
 20
40.54274331960708
 30
0.0
 10
272.8398982759097
 20
41.01749467029067
 30
0.0
 10
272.893890036226
 20
41.47903944551379
 30
0.0
 10
272.8485985223293
 20
41.88991257988148
 30
0.0
 10
272.703809778084
 20
42.21424238021695
 30
0.0
 10
272.5500957663931
 20
42.41659440812602
 30
0.0
 10
272.4312578249305
 20
42.46861353542381
 30
0.0
 10
272.4088799598812
 20
42.47840903504562
 30
0.0
  0
LINE
  5
172
330
1F
100
AcDbEntity
  8
0
  6
Continuous
 62
     7
370
    25
100
AcDbLine
 10
272.3895569469
 20
42.5033868066
 30
0.0
 11
270.7985660992
 21
43.4218462731
 31
0.0
  0
LINE
  5
173
330
1F
100
AcDbEntity
  8
0
  6
Continuous
 62
     7
370
    25
100
AcDbLine
 10
276.9589249797
 20
34.3692204041
 30
0.0
 11
276.963649378
 21
34.4441260846
 31
0.0
  0
SPLINE
  5
174
330
1F
100
AcDbEntity
  8
0
  6
Continuous
 62
     7
370
    25
100
AcDbSpline
210
0.0
220
0.0
230
1.0
 70
     8
 71
     3
 72
    11
 73
     7
 74
     0
 42
0.000000001
 43
0.00000001
 40
0.0
 40
0.0
 40
0.0
 40
0.0
 40
0.2524626599702108
 40
0.5388206750730283
 40
0.8259194262452453
 40
1.0
 40
1.0
 40
1.0
 40
1.0
 10
276.3683544479805
 20
32.33920528912201
 30
0.0
 10
276.4560392441877
 20
32.50882459244077
 30
0.0
 10
276.6431812995378
 20
32.87083609754973
 30
0.0
 10
276.8335185627831
 20
33.44697250151079
 30
0.0
 10
276.942515826353
 20
33.96062589593262
 30
0.0
 10
276.9544283715384
 20
34.25725305566623
 30
0.0
 10
276.958924979666
 20
34.36922040408508
 30
0.0
  0
SPLINE
  5
175
330
1F
100
AcDbEntity
  8
0
  6
Continuous
 62
     7
370
    25
100
AcDbSpline
210
0.0
220
0.0
230
1.0
 70
     8
 71
     3
 72
    13
 73
     9
 74
     0
 42
0.000000001
 43
0.00000001
 40
0.0
 40
0.0
 40
0.0
 40
0.0
 40
0.0862170667273088
 40
0.3081633792053293
 40
0.5304605564460675
 40
0.7523733993375368
 40
0.9739997916282981
 40
1.0
 40
1.0
 40
1.0
 40
1.0
 10
274.4908051604367
 20
30.43532664121803
 30
0.0
 10
274.5517673436086
 20
30.46064293039338
 30
0.0
 10
274.7696628610863
 20
30.5511302726024
 30
0.0
 10
275.1415802387489
 20
30.82036715740602
 30
0.0
 10
275.5885300536828
 20
31.22608902104433
 30
0.0
 10
275.9896464431249
 20
31.71956434693404
 30
0.0
 10
276.2534942100005
 20
32.09992409876518
 30
0.0
 10
276.3574403488407
 20
32.31646862515746
 30
0.0
 10
276.3683544479805
 20
32.33920528912201
 30
0.0
  0
LINE
  5
176
330
1F
100
AcDbEntity
  8
0
  6
Continuous
 62
     7
370
    25
100
AcDbLine
 10
276.963649378
 20
34.4441260846
 30
0.0
 11
276.9521951487
 21
34.6822439787
 31
0.0
  0
LINE
  5
177
330
1F
100
AcDbEntity
  8
0
  6
Continuous
 62
     7
370
    25
100
AcDbLine
 10
276.2318429459
 20
36.0137617926
 30
0.0
 11
273.5448338394
 21
37.564939132
 31
0.0
  0
LINE
  5
178
330
1F
100
AcDbEntity
  8
0
  6
Continuous
 62
     7
370
    25
100
AcDbLine
 10
270.2950981215
 20
31.9356215025
 30
0.0
 11
272.982107228
 21
30.3844441631
 31
0.0
  0
LINE
  5
179
330
1F
100
AcDbEntity
  8
0
  6
Continuous
 62
     7
370
    25
100
AcDbLine
 10
271.6389155657
 20
37.221865798
 30
0.0
 11
271.3426759043
 21
37.3928813144
 31
0.0
  0
LINE
  5
17A
330
1F
100
AcDbEntity
  8
0
  6
Continuous
 62
     7
370
    25
100
AcDbLine
 10
269.3516418231
 20
33.9236037641
 30
0.0
 11
269.6390780616
 21
33.7576703556
 31
0.0
  0
SPLINE
  5
17B
330
1F
100
AcDbEntity
  8
0
  6
Continuous
 62
     7
370
    25
100
AcDbSpline
210
0.0
220
0.0
230
1.0
 70
     8
 71
     3
 72
    14
 73
    10
 74
     0
 42
0.000000001
 43
0.00000001
 40
0.0
 40
0.0
 40
0.0
 40
0.0
 40
0.0482210341129927
 40
0.2074257641527701
 40
0.3676994250806569
 40
0.5285764041422167
 40
0.6896840257433737
 40
0.8507632179953596
 40
0.9999999999999999
 40
0.9999999999999999
 40
0.9999999999999999
 40
0.9999999999999999
 10
262.2116124585277
 20
30.29447344501176
 30
0.0
 10
262.2859519475407
 20
30.29885744197905
 30
0.0
 10
262.6057278627379
 20
30.31771547639725
 30
0.0
 10
263.1998730743111
 20
30.47136659781482
 30
0.0
 10
263.9837474812929
 20
30.75524187344165
 30
0.0
 10
264.7793602405435
 20
31.16041871134868
 30
0.0
 10
265.5715090700578
 20
31.67218722745697
 30
0.0
 10
266.3342626951172
 20
32.26226717107228
 30
0.0
 10
266.8153759995432
 20
32.72318533866092
 30
0.0
 10
267.0467524264388
 20
32.94484954484039
 30
0.0
  0
SPLINE
  5
17C
330
1F
100
AcDbEntity
  8
0
  6
Continuous
 62
     7
370
    25
100
AcDbSpline
210
0.0
220
0.0
230
1.0
 70
     8
 71
     3
 72
    11
 73
     7
 74
     0
 42
0.000000001
 43
0.00000001
 40
0.0
 40
0.0
 40
0.0
 40
0.0
 40
0.1106035358676762
 40
0.4565298472410521
 40
0.8023207914620258
 40
1.0
 40
1.0
 40
1.0
 40
1.0
 10
271.4246522654756
 20
43.06041413065846
 30
0.0
 10
271.4236320090775
 20
43.1579990038579
 30
0.0
 10
271.4194207739309
 20
43.56079270213602
 30
0.0
 10
271.3124194915214
 20
44.20846423687141
 30
0.0
 10
271.1488301161392
 20
44.89218173380825
 30
0.0
 10
270.9826495836029
 20
45.25215780731049
 30
0.0
 10
270.9222038793091
 20
45.3830937656907
 30
0.0
  0
LINE
  5
17D
330
1F
100
AcDbEntity
  8
0
  6
Continuous
 62
     7
370
    25
100
AcDbLine
 10
228.6330340221
 20
48.7699361189
 30
0.0
 11
259.8871526831
 21
30.7273174638
 31
0.0
  0
LINE
  5
17E
330
1F
100
AcDbEntity
  8
0
  6
Continuous
 62
     7
370
    25
100
AcDbLine
 10
269.3863806221
 20
47.182246124
 30
0.0
 11
238.132261961
 21
65.2248647791
 31
0.0
  0
SPLINE
  5
17F
330
1F
100
AcDbEntity
  8
0
  6
Continuous
 62
     7
370
    25
100
AcDbSpline
210
0.0
220
0.0
230
1.0
 70
     8
 71
     3
 72
    12
 73
     8
 74
     0
 42
0.000000001
 43
0.00000001
 40
0.0
 40
0.0
 40
0.0
 40
0.0
 40
0.1435765395367083
 40
0.3933601681535501
 40
0.6428782676777498
 40
0.8978172641118398
 40
1.0
 40
1.0
 40
1.0
 40
1.0
 10
268.5120347008523
 20
32.1293510197295
 30
0.0
 10
268.5797069756415
 20
32.07648927201758
 30
0.0
 10
268.765110367284
 20
31.93166264479876
 30
0.0
 10
269.1416182311859
 20
31.81985494215157
 30
0.0
 10
269.6083414348096
 20
31.79602553776418
 30
0.0
 10
270.0022918519908
 20
31.85338498935175
 30
0.0
 10
270.2371964776597
 20
31.95339667785013
 30
0.0
 10
270.3044094057768
 20
31.98201288074853
 30
0.0
  0
SPLINE
  5
180
330
1F
100
AcDbEntity
  8
0
  6
Continuous
 62
     7
370
    25
100
AcDbSpline
210
0.0
220
0.0
230
1.0
 70
     8
 71
     3
 72
    12
 73
     8
 74
     0
 42
0.000000001
 43
0.00000001
 40
0.0
 40
0.0
 40
0.0
 40
0.0
 40
0.0692765166664666
 40
0.3506563507380526
 40
0.6282072321514226
 40
0.8975379272877422
 40
1.0
 40
1.0
 40
1.0
 40
1.0
 10
273.5088613395439
 20
37.54930499558932
 30
0.0
 10
273.5038476811075
 20
37.59688100669133
 30
0.0
 10
273.4784700891648
 20
37.83769609437854
 30
0.0
 10
273.3339806544058
 20
38.20777139203068
 30
0.0
 10
273.0689260785381
 20
38.62254728585752
 30
0.0
 10
272.7925832819112
 20
38.88621602412129
 30
0.0
 10
272.5949612922238
 20
38.96604982619775
 30
0.0
 10
272.5404988055163
 20
38.98805116011445
 30
0.0
  0
LINE
  5
181
330
1F
100
AcDbEntity
  8
0
  6
Continuous
 62
     7
370
    25
100
AcDbLine
 10
263.5561703537
 20
34.9599196993
 30
0.0
 11
268.6473357981
 21
32.0208524481
 31
0.0
  0
LINE
  5
182
330
1F
100
AcDbEntity
  8
0
  6
Continuous
 62
     7
370
    25
100
AcDbLine
 10
272.6470108064
 20
38.9492433328
 30
0.0
 11
267.5558453621
 21
41.888310584
 31
0.0
  0
SPLINE
  5
183
330
1F
100
AcDbEntity
  8
0
  6
Continuous
 62
     7
370
    25
100
AcDbSpline
210
0.0
220
0.0
230
1.0
 70
     8
 71
     3
 72
    12
 73
     8
 74
     0
 42
0.000000001
 43
0.00000001
 40
0.0
 40
0.0
 40
0.0
 40
0.0
 40
0.0318089726307644
 40
0.3845768440852302
 40
0.6751577985482782
 40
0.9621924060546253
 40
1.0
 40
1.0
 40
1.0
 40
1.0
 10
269.5824530297349
 20
33.65105363553472
 30
0.0
 10
269.5753460539696
 20
33.65362456110368
 30
0.0
 10
269.4894212948604
 20
33.68470756567503
 30
0.0
 10
269.3854832299237
 20
33.82161257002626
 30
0.0
 10
269.2662636207456
 20
34.09199857555775
 30
0.0
 10
269.2337397435331
 20
34.33683513754876
 30
0.0
 10
269.2325754282852
 20
34.47864745470034
 30
0.0
 10
269.2324399164646
 20
34.49515264546483
 30
0.0
  0
SPLINE
  5
184
330
1F
100
AcDbEntity
  8
0
  6
Continuous
 62
     7
370
    25
100
AcDbSpline
210
0.0
220
0.0
230
1.0
 70
     8
 71
     3
 72
    18
 73
    14
 74
     0
 42
0.000000001
 43
0.00000001
 40
0.0
 40
0.0
 40
0.0
 40
0.0
 40
0.0511768414719993
 40
0.1501057311713853
 40
0.2497809917011075
 40
0.3499830587061457
 40
0.4503535453735484
 40
0.5503722121866195
 40
0.6495609399174533
 40
0.747632503501813
 40
0.8449942605604597
 40
0.9432858608443768
 40
0.9999999999999999
 40
0.9999999999999999
 40
0.9999999999999999
 40
0.9999999999999999
 10
269.2324399164646
 20
34.49515264546482
 30
0.0
 10
269.2346318291098
 20
34.56622062699956
 30
0.0
 10
269.24106088258
 20
34.77466864810263
 30
0.0
 10
269.3152458450787
 20
35.16159994242182
 30
0.0
 10
269.4820038328274
 20
35.63925525607129
 30
0.0
 10
269.72418207065
 20
36.10891380222124
 30
0.0
 10
270.0258264139912
 20
36.53904494069118
 30
0.0
 10
270.3672397893274
 20
36.90253318572122
 30
0.0
 10
270.7236485337588
 20
37.17662886857433
 30
0.0
 10
271.0687221655182
 20
37.34863724684081
 30
0.0
 10
271.3719620887487
 20
37.41031229582615
 30
0.0
 10
271.5829090693572
 20
37.39528209537343
 30
0.0
 10
271.6746516576032
 20
37.33421242625777
 30
0.0
 10
271.7082188141169
 20
37.31186800388388
 30
0.0
  0
LINE
  5
185
330
1F
100
AcDbEntity
  8
0
  6
Continuous
 62
     7
370
    25
100
AcDbLine
 10
267.1406169154
 20
42.0443440595
 30
0.0
 11
266.7922511512
 21
42.115321853
 31
0.0
  0
LINE
  5
186
330
1F
100
AcDbEntity
  8
0
  6
Continuous
 62
     7
370
    25
100
AcDbLine
 10
262.9777244496
 20
35.5076516524
 30
0.0
 11
263.2134009008
 21
35.241469141
 31
0.0
  0
LINE
  5
187
330
1F
100
AcDbEntity
  8
0
  6
Continuous
 62
     7
370
    25
100
AcDbLine
 10
263.0883340791
 20
35.3743294663
 30
0.0
 11
263.1035385547
 21
35.3655521093
 31
0.0
  0
LINE
  5
188
330
1F
100
AcDbEntity
  8
0
  6
Continuous
 62
     7
370
    25
100
AcDbLine
 10
266.978223791
 20
42.0774307848
 30
0.0
 11
266.9630193154
 21
42.0862081418
 31
0.0
  0
LINE
  5
189
330
1F
100
AcDbEntity
  8
0
  6
Continuous
 62
     7
370
    25
100
AcDbLine
 10
222.7689118396
 20
44.9529721121
 30
0.0
 11
224.4538769886
 21
43.9802624363
 31
0.0
  0
LINE
  5
18A
330
1F
100
AcDbEntity
  8
0
  6
Continuous
 62
     7
370
    25
100
AcDbLine
 10
240.1900983032
 20
71.2391508301
 30
0.0
 11
238.5051331542
 21
72.2118605059
 31
0.0
  0
LINE
  5
18B
330
1F
100
AcDbEntity
  8
0
  6
Continuous
 62
     7
370
    25
100
AcDbLine
 10
218.1606269083
 20
47.6132783768
 30
0.0
 11
220.4112778847
 21
46.3140052239
 31
0.0
  0
LINE
  5
18C
330
1F
100
AcDbEntity
  8
0
  6
Continuous
 62
     7
370
    25
100
AcDbLine
 10
236.1474991992
 20
73.5728936177
 30
0.0
 11
233.8968482228
 21
74.8721667706
 31
0.0
  0
LINE
  5
18D
330
1F
100
AcDbEntity
  8
0
  6
Continuous
 62
     7
370
    25
100
AcDbLine
 10
227.1194590325
 20
74.6520486782
 30
0.0
 11
217.9222468489
 21
79.2327012881
 31
0.0
  0
LINE
  5
18E
330
1F
100
AcDbEntity
  8
0
  6
Continuous
 62
     7
370
    25
100
AcDbLine
 10
206.3958990593
 20
59.2663178324
 30
0.0
 11
214.9619990649
 21
53.5924282361
 31
0.0
  0
LINE
  5
18F
330
1F
100
AcDbEntity
  8
0
  6
Continuous
 62
     7
370
    25
100
AcDbLine
 10
211.375336501
 20
60.2128076981
 30
0.0
 11
211.375336501
 21
59.8474889931
 31
0.0
  0
LINE
  5
190
330
1F
100
AcDbEntity
  8
0
  6
Continuous
 62
     7
370
    25
100
AcDbLine
 10
215.2733032613
 20
79.6096696648
 30
0.0
 11
214.6337531526
 21
79.5224579093
 31
0.0
  0
LINE
  5
191
330
1F
100
AcDbEntity
  8
0
  6
Continuous
 62
     7
370
    25
100
AcDbLine
 10
262.4900617048
 20
36.7885298475
 30
0.0
 11
262.5109589684
 21
36.7759513513
 31
0.0
  0
LWPOLYLINE
  5
192
330
1F
100
AcDbEntity
  8
0
  6
Continuous
 62
     7
370
    25
100
AcDbPolyline
 90
       13
 70
   128
 43
0.0
 10
258.8992331882
 20
34.2427937765
 10
258.6968249239
 20
34.4209815248
 10
258.5405233362
 20
34.7372216615
 10
258.4849849851
 20
35.1452541342
 10
258.5343290665
 20
35.6148170943
 10
258.6848960487
 20
36.1110851839
 10
258.9255183337
 20
36.5972521975
 10
259.2383506826
 20
37.0372616536
 10
259.6001919138
 20
37.3984800841
 10
259.98420568
 20
37.6541173784
 10
260.3619112484
 20
37.7852142569
 10
260.7052961112
 20
37.7820477882
 10
260.899070857
 20
37.7069893139
  0
ARC
  5
193
330
1F
100
AcDbEntity
  8
0
  6
Continuous
 62
     7
370
    25
100
AcDbCircle
 10
262.201216296
 20
34.8536803983
 30
0.0
 40
1.165478932728824
100
AcDbArc
 50
99.2771993145
 51
148.0261007543
  0
LINE
  5
194
330
1F
100
AcDbEntity
  8
0
  6
Continuous
 62
     7
370
    25
100
AcDbLine
 10
261.2058834506
 20
35.466400009
 30
0.0
 11
261.2125528601
 21
35.4708398211
 31
0.0
  0
LINE
  5
195
330
1F
100
AcDbEntity
  8
0
  6
Continuous
 62
     7
370
    25
100
AcDbLine
 10
261.2058834506
 20
35.466400009
 30
0.0
 11
261.2029911231
 21
35.4577657946
 31
0.0
  0
ARC
  5
196
330
1F
100
AcDbEntity
  8
0
  6
Continuous
 62
     7
370
    25
100
AcDbCircle
 10
262.545449863
 20
34.4315232254
 30
0.0
 40
1.689783796630618
100
AcDbArc
 50
142.6038960436
 51
180.3547590349
  0
LINE
  5
197
330
1F
100
AcDbEntity
  8
0
  6
Continuous
 62
     7
370
    25
100
AcDbLine
 10
260.8528061297
 20
34.4124264331
 30
0.0
 11
260.8556984572
 21
34.4210606356
 31
0.0
  0
LINE
  5
198
330
1F
100
AcDbEntity
  8
0
  6
Continuous
 62
     7
370
    25
100
AcDbLine
 10
260.8528061297
 20
34.4124264331
 30
0.0
 11
260.8565828825
 21
34.4082318525
 31
0.0
  0
ARC
  5
199
330
1F
100
AcDbEntity
  8
0
  6
Continuous
 62
     7
370
    25
100
AcDbCircle
 10
261.3270360231
 20
34.3758618787
 30
0.0
 40
0.471565449092211
100
AcDbArc
 50
176.0639132991
 51
267.9376579124
  0
LINE
  5
19A
330
1F
100
AcDbEntity
  8
0
  6
Continuous
 62
     7
370
    25
100
AcDbLine
 10
261.313842603
 20
33.900407288
 30
0.0
 11
261.3100658503
 21
33.9046018804
 31
0.0
  0
LINE
  5
19B
330
1F
100
AcDbEntity
  8
0
  6
Continuous
 62
     7
370
    25
100
AcDbLine
 10
261.313842603
 20
33.900407288
 30
0.0
 11
261.3205120125
 21
33.9048471001
 31
0.0
  0
ARC
  5
19C
330
1F
100
AcDbEntity
  8
0
  6
Continuous
 62
     7
370
    25
100
AcDbCircle
 10
261.1326236174
 20
35.0550819039
 30
0.0
 40
1.165479366147914
100
AcDbArc
 50
279.2772089684
 51
328.0260911004
  0
LINE
  5
19D
330
1F
100
AcDbEntity
  8
0
  6
Continuous
 62
     7
370
    25
100
AcDbLine
 10
262.1279563972
 20
34.442361707
 30
0.0
 11
262.121287317
 21
34.437922085
 31
0.0
  0
LINE
  5
19E
330
1F
100
AcDbEntity
  8
0
  6
Continuous
 62
     7
370
    25
100
AcDbLine
 10
262.1279563972
 20
34.442361707
 30
0.0
 11
262.130849054
 21
34.4509961115
 31
0.0
  0
ARC
  5
19F
330
1F
100
AcDbEntity
  8
0
  6
Continuous
 62
     7
370
    25
100
AcDbCircle
 10
260.7883887776
 20
35.4772391954
 30
0.0
 40
1.689785329886312
100
AcDbArc
 50
322.6039138182
 51
0.3547412602
  0
LINE
  5
1A0
330
1F
100
AcDbEntity
  8
0
  6
Continuous
 62
     7
370
    25
100
AcDbLine
 10
262.4810340474
 20
35.496335473
 30
0.0
 11
262.4781417199
 21
35.4877012705
 31
0.0
  0
LINE
  5
1A1
330
1F
100
AcDbEntity
  8
0
  6
Continuous
 62
     7
370
    25
100
AcDbLine
 10
262.4810340474
 20
35.496335473
 30
0.0
 11
262.4772572946
 21
35.5005300535
 31
0.0
  0
ARC
  5
1A2
330
1F
100
AcDbEntity
  8
0
  6
Continuous
 62
     7
370
    25
100
AcDbCircle
 10
262.0068034294
 20
35.532899375
 30
0.0
 40
0.4715661270916718
100
AcDbArc
 50
356.0639984157
 51
87.9375727958
  0
LINE
  5
1A3
330
1F
100
AcDbEntity
  8
0
  6
Continuous
 62
     7
370
    25
100
AcDbLine
 10
262.019997574
 20
36.0083546181
 30
0.0
 11
262.0237743268
 21
36.0041600257
 31
0.0
  0
LINE
  5
1A4
330
1F
100
AcDbEntity
  8
0
  6
Continuous
 62
     7
370
    25
100
AcDbLine
 10
262.019997574
 20
36.0083546181
 30
0.0
 11
262.0133281645
 21
36.003914806
 31
0.0
  0
LINE
  5
1A5
330
1F
100
AcDbEntity
  8
0
  6
Continuous
 62
     7
370
    25
100
AcDbLine
 10
260.8556984572
 20
34.4210606356
 30
0.0
 11
260.8640560455
 21
34.511096042
 31
0.0
  0
SPLINE
  5
1A6
330
1F
100
AcDbEntity
  8
0
  6
Continuous
 62
     7
370
    25
100
AcDbSpline
210
0.0
220
0.0
230
1.0
 70
     8
 71
     3
 72
     9
 73
     5
 74
     0
 42
0.000000001
 43
0.00000001
 40
0.0
 40
0.0
 40
0.0
 40
0.0
 40
0.7016475170538958
 40
1.0
 40
1.0
 40
1.0
 40
1.0
 10
261.5689337694674
 20
35.82916369932809
 30
0.0
 10
261.6655377215208
 20
35.87865201706486
 30
0.0
 10
261.8032193204793
 20
35.94918361096911
 30
0.0
 10
261.9650465952859
 20
35.99133795330501
 30
0.0
 10
262.0133281645328
 20
36.00391480600787
 30
0.0
  0
SPLINE
  5
1A7
330
1F
100
AcDbEntity
  8
0
  6
Continuous
 62
     7
370
    25
100
AcDbSpline
210
0.0
220
0.0
230
1.0
 70
     8
 71
     3
 72
    10
 73
     6
 74
     0
 42
0.000000001
 43
0.00000001
 40
0.0
 40
0.0
 40
0.0
 40
0.0
 40
0.4395942917188702
 40
0.7571243719467823
 40
1.0
 40
1.0
 40
1.0
 40
1.0
 10
261.31006585028
 20
33.90460188041688
 30
0.0
 10
261.1980445932616
 20
34.00395395699029
 30
0.0
 10
261.0051075477574
 20
34.17507055243816
 30
0.0
 10
260.8805836278761
 20
34.3329508710121
 30
0.0
 10
260.8638396128893
 20
34.38547031826729
 30
0.0
 10
260.85658288246
 20
34.40823185254258
 30
0.0
  0
LINE
  5
1A8
330
1F
100
AcDbEntity
  8
0
  6
Continuous
 62
     7
370
    25
100
AcDbLine
 10
261.1330247204
 20
35.0167235384
 30
0.0
 11
261.2241024137
 21
35.4585811281
 31
0.0
  0
SPLINE
  5
1A9
330
1F
100
AcDbEntity
  8
0
  6
Continuous
 62
     7
370
    25
100
AcDbSpline
210
0.0
220
0.0
230
1.0
 70
     8
 71
     3
 72
     9
 73
     5
 74
     0
 42
0.000000001
 43
0.00000001
 40
0.0
 40
0.0
 40
0.0
 40
0.0
 40
0.4929536431519743
 40
1.0
 40
1.0
 40
1.0
 40
1.0
 10
260.9414751964396
 20
34.92647345601141
 30
0.0
 10
260.9700390254967
 20
34.94379526254243
 30
0.0
 10
261.0279832753343
 20
34.97893407685422
 30
0.0
 10
261.0976834836762
 20
35.00400925877502
 30
0.0
 10
261.1330247203875
 20
35.01672353841526
 30
0.0
  0
SPLINE
  5
1AA
330
1F
100
AcDbEntity
  8
0
  6
Continuous
 62
     7
370
    25
100
AcDbSpline
210
0.0
220
0.0
230
1.0
 70
     8
 71
     3
 72
    10
 73
     6
 74
     0
 42
0.000000001
 43
0.00000001
 40
0.0
 40
0.0
 40
0.0
 40
0.0
 40
0.4395942979903193
 40
0.7571241612678318
 40
0.9999999999999999
 40
0.9999999999999999
 40
0.9999999999999999
 40
0.9999999999999999
 10
262.0237743267907
 20
36.00416002567296
 30
0.0
 10
262.0418259719702
 20
35.95905555352101
 30
0.0
 10
262.0729167681396
 20
35.881371002553
 30
0.0
 10
262.270897209362
 20
35.68108417139531
 30
0.0
 10
262.4148633813392
 20
35.55512141483808
 30
0.0
 10
262.4772572946107
 20
35.50053005354727
 30
0.0
  0
LINE
  5
1AB
330
1F
100
AcDbEntity
  8
0
  6
Continuous
 62
     7
370
    25
100
AcDbLine
 10
261.7582814499
 20
35.9135716664
 30
0.0
 11
262.4810340474
 21
35.496335473
 31
0.0
  0
SPLINE
  5
1AC
330
1F
100
AcDbEntity
  8
0
  6
Continuous
 62
     7
370
    25
100
AcDbSpline
210
0.0
220
0.0
230
1.0
 70
     8
 71
     3
 72
    10
 73
     6
 74
     0
 42
0.000000001
 43
0.00000001
 40
0.0
 40
0.0
 40
0.0
 40
0.0
 40
0.439594409722516
 40
0.7571242175429957
 40
1.0
 40
1.0
 40
1.0
 40
1.0
 10
262.4781417198849
 20
35.48770127052232
 30
0.0
 10
262.3813496380147
 20
35.36614550763861
 30
0.0
 10
262.2146422649691
 20
35.15678704032035
 30
0.0
 10
262.1278788072387
 20
34.76694654111775
 30
0.0
 10
262.1299509863446
 20
34.54652516321982
 30
0.0
 10
262.1308490539771
 20
34.45099611148301
 30
0.0
  0
LINE
  5
1AD
330
1F
100
AcDbEntity
  8
0
  6
Continuous
 62
     7
370
    25
100
AcDbLine
 10
261.1330247204
 20
35.0167235384
 30
0.0
 11
262.1279563972
 21
34.442361707
 31
0.0
  0
SPLINE
  5
1AE
330
1F
100
AcDbEntity
  8
0
  6
Continuous
 62
     7
370
    25
100
AcDbSpline
210
0.0
220
0.0
230
1.0
 70
     8
 71
     3
 72
    11
 73
     7
 74
     0
 42
0.000000001
 43
0.00000001
 40
0.0
 40
0.0
 40
0.0
 40
0.0
 40
0.1297152392477385
 40
0.4834720332824803
 40
0.8215900661478545
 40
1.0
 40
1.0
 40
1.0
 40
1.0
 10
262.1212873169934
 20
34.43792208502853
 30
0.0
 10
262.0734194775791
 20
34.42505256645896
 30
0.0
 10
261.8950074283497
 20
34.37708555544096
 30
0.0
 10
261.6132525911632
 20
34.25666392396072
 30
0.0
 10
261.4150690111149
 20
34.06812281215362
 30
0.0
 10
261.3447874303091
 20
33.94676452747581
 30
0.0
 10
261.3205120125378
 20
33.90484710008197
 30
0.0
  0
LINE
  5
1AF
330
1F
100
AcDbEntity
  8
0
  6
Continuous
 62
     7
370
    25
100
AcDbLine
 10
272.3895569469
 20
42.5033868066
 30
0.0
 11
272.4104538813
 21
42.4908081204
 31
0.0
  0
LWPOLYLINE
  5
1B0
330
1F
100
AcDbEntity
  8
0
  6
Continuous
 62
     7
370
    25
100
AcDbPolyline
 90
        9
 70
   128
 43
0.0
 10
268.4437791968
 20
41.3757173888
 10
268.5843909616
 20
41.825941953
 10
268.8250132466
 20
42.3121089666
 10
269.1378459248
 20
42.7521186128
 10
269.4996868267
 20
43.1133368531
 10
269.8837005929
 20
43.3689741474
 10
270.2614061613
 20
43.5000710259
 10
270.6047906948
 20
43.4969043672
 10
270.7985660992
 20
43.4218462731
  0
ARC
  5
1B1
330
1F
100
AcDbEntity
  8
0
  6
Continuous
 62
     7
370
    25
100
AcDbCircle
 10
272.1007114726
 20
40.5685367713
 30
0.0
 40
1.165479366147897
100
AcDbArc
 50
99.2772089684
 51
148.0260911004
  0
LINE
  5
1B2
330
1F
100
AcDbEntity
  8
0
  6
Continuous
 62
     7
370
    25
100
AcDbLine
 10
271.1053786927
 20
41.1812569682
 30
0.0
 11
271.112047773
 21
41.1856965901
 31
0.0
  0
LINE
  5
1B3
330
1F
100
AcDbEntity
  8
0
  6
Continuous
 62
     7
370
    25
100
AcDbLine
 10
271.1053786927
 20
41.1812569682
 30
0.0
 11
271.102486036
 21
41.1726225637
 31
0.0
  0
ARC
  5
1B4
330
1F
100
AcDbEntity
  8
0
  6
Continuous
 62
     7
370
    25
100
AcDbCircle
 10
272.4449463124
 20
40.1463794797
 30
0.0
 40
1.689785329886307
100
AcDbArc
 50
142.6039138182
 51
180.3547412602
  0
LINE
  5
1B5
330
1F
100
AcDbEntity
  8
0
  6
Continuous
 62
     7
370
    25
100
AcDbLine
 10
270.7523010426
 20
40.1272832021
 30
0.0
 11
270.7551933701
 21
40.1359174046
 31
0.0
  0
LINE
  5
1B6
330
1F
100
AcDbEntity
  8
0
  6
Continuous
 62
     7
370
    25
100
AcDbLine
 10
270.7523010426
 20
40.1272832021
 30
0.0
 11
270.7560777954
 21
40.1230886216
 31
0.0
  0
LINE
  5
1B7
330
1F
100
AcDbEntity
  8
0
  6
Continuous
 62
     7
370
    25
100
AcDbLine
 10
270.7672381491
 20
40.0344129375
 30
0.0
 11
270.7560777954
 21
40.1230886216
 31
0.0
  0
ARC
  5
1B8
330
1F
100
AcDbEntity
  8
0
  6
Continuous
 62
     7
370
    25
100
AcDbCircle
 10
270.9232722157
 20
40.8811724363
 30
0.0
 40
1.317226420077437
100
AcDbArc
 50
291.9816925643
 51
326.4286334339
  0
LINE
  5
1B9
330
1F
100
AcDbEntity
  8
0
  6
Continuous
 62
     7
370
    25
100
AcDbLine
 10
272.0274516394
 20
40.1572186662
 30
0.0
 11
272.0207822299
 21
40.1527788541
 31
0.0
  0
LINE
  5
1BA
330
1F
100
AcDbEntity
  8
0
  6
Continuous
 62
     7
370
    25
100
AcDbLine
 10
272.0274516394
 20
40.1572186662
 30
0.0
 11
272.0303439669
 21
40.1658528806
 31
0.0
  0
ARC
  5
1BB
330
1F
100
AcDbEntity
  8
0
  6
Continuous
 62
     7
370
    25
100
AcDbCircle
 10
270.6878852269
 20
41.1920954498
 30
0.0
 40
1.689783796631067
100
AcDbArc
 50
322.6038960436
 51
0.3547590349
  0
LINE
  5
1BC
330
1F
100
AcDbEntity
  8
0
  6
Continuous
 62
     7
370
    25
100
AcDbLine
 10
272.3805289603
 20
41.2111922421
 30
0.0
 11
272.3776366328
 21
41.2025580396
 31
0.0
  0
LINE
  5
1BD
330
1F
100
AcDbEntity
  8
0
  6
Continuous
 62
     7
370
    25
100
AcDbLine
 10
272.3805289603
 20
41.2111922421
 30
0.0
 11
272.3767522075
 21
41.2153868226
 31
0.0
  0
ARC
  5
1BE
330
1F
100
AcDbEntity
  8
0
  6
Continuous
 62
     7
370
    25
100
AcDbCircle
 10
271.9062990668
 20
41.2477567964
 30
0.0
 40
0.471565449092211
100
AcDbArc
 50
356.0639132991
 51
87.9376579124
  0
LINE
  5
1BF
330
1F
100
AcDbEntity
  8
0
  6
Continuous
 62
     7
370
    25
100
AcDbLine
 10
271.9194924869
 20
41.7232113871
 30
0.0
 11
271.9232692397
 21
41.7190167947
 31
0.0
  0
LINE
  5
1C0
330
1F
100
AcDbEntity
  8
0
  6
Continuous
 62
     7
370
    25
100
AcDbLine
 10
271.9194924869
 20
41.7232113871
 30
0.0
 11
271.9128230774
 21
41.7187715751
 31
0.0
  0
LINE
  5
1C1
330
1F
100
AcDbEntity
  8
0
  6
Continuous
 62
     7
370
    25
100
AcDbLine
 10
270.7551933701
 20
40.1359174046
 30
0.0
 11
270.7635509584
 21
40.2259528111
 31
0.0
  0
SPLINE
  5
1C2
330
1F
100
AcDbEntity
  8
0
  6
Continuous
 62
     7
370
    25
100
AcDbSpline
210
0.0
220
0.0
230
1.0
 70
     8
 71
     3
 72
     9
 73
     5
 74
     0
 42
0.000000001
 43
0.00000001
 40
0.0
 40
0.0
 40
0.0
 40
0.0
 40
0.7016475170538958
 40
1.0
 40
1.0
 40
1.0
 40
1.0
 10
271.4684286823716
 20
41.54402046840094
 30
0.0
 10
271.5650326344248
 20
41.59350878613771
 30
0.0
 10
271.7027142333834
 20
41.66404038004197
 30
0.0
 10
271.86454150819
 20
41.70619472237784
 30
0.0
 10
271.9128230774369
 20
41.71877157508072
 30
0.0
  0
SPLINE
  5
1C3
330
1F
100
AcDbEntity
  8
0
  6
Continuous
 62
     7
370
    25
100
AcDbSpline
210
0.0
220
0.0
230
1.0
 70
     8
 71
     3
 72
     9
 73
     5
 74
     0
 42
0.000000001
 43
0.00000001
 40
0.0
 40
0.0
 40
0.0
 40
0.0
 40
0.2961946628166909
 40
0.9999999999999999
 40
0.9999999999999999
 40
0.9999999999999999
 40
0.9999999999999999
 10
270.8260978694476
 20
40.00043381219239
 30
0.0
 10
270.8121046897463
 20
40.01709765607417
 30
0.0
 10
270.7648615032274
 20
40.07335742700759
 30
0.0
 10
270.7597061561513
 20
40.10254573480456
 30
0.0
 10
270.7560777953641
 20
40.12308862161542
 30
0.0
  0
LINE
  5
1C4
330
1F
100
AcDbEntity
  8
0
  6
Continuous
 62
     7
370
    25
100
AcDbLine
 10
271.0325199626
 20
40.7315804976
 30
0.0
 11
271.1300385504
 21
41.2046863136
 31
0.0
  0
SPLINE
  5
1C5
330
1F
100
AcDbEntity
  8
0
  6
Continuous
 62
     7
370
    25
100
AcDbSpline
210
0.0
220
0.0
230
1.0
 70
     8
 71
     3
 72
     9
 73
     5
 74
     0
 42
0.000000001
 43
0.00000001
 40
0.0
 40
0.0
 40
0.0
 40
0.0
 40
0.4929527004136323
 40
1.0
 40
1.0
 40
1.0
 40
1.0
 10
270.8409701093436
 20
40.64133022508425
 30
0.0
 10
270.869533944952
 20
40.65865202714389
 30
0.0
 10
270.9274783188937
 20
40.69379089958564
 30
0.0
 10
270.9971786154264
 20
40.71886615634611
 30
0.0
 10
271.0325199625638
 20
40.73158049757293
 30
0.0
  0
SPLINE
  5
1C6
330
1F
100
AcDbEntity
  8
0
  6
Continuous
 62
     7
370
    25
100
AcDbSpline
210
0.0
220
0.0
230
1.0
 70
     8
 71
     3
 72
    10
 73
     6
 74
     0
 42
0.000000001
 43
0.00000001
 40
0.0
 40
0.0
 40
0.0
 40
0.0
 40
0.4395942917188702
 40
0.7571243719467823
 40
1.0
 40
1.0
 40
1.0
 40
1.0
 10
271.9232692396947
 20
41.71901679474581
 30
0.0
 10
271.9413208427748
 20
41.67391224469991
 30
0.0
 10
271.9724115755303
 20
41.59622753684823
 30
0.0
 10
272.170392464546
 20
41.39594141262598
 30
0.0
 10
272.3143584359787
 20
41.2699782932071
 30
0.0
 10
272.3767522075148
 20
41.21538682262011
 30
0.0
  0
LINE
  5
1C7
330
1F
100
AcDbEntity
  8
0
  6
Continuous
 62
     7
370
    25
100
AcDbLine
 10
271.6577763628
 20
41.6284284355
 30
0.0
 11
272.3805289603
 21
41.2111922421
 31
0.0
  0
SPLINE
  5
1C8
330
1F
100
AcDbEntity
  8
0
  6
Continuous
 62
     7
370
    25
100
AcDbSpline
210
0.0
220
0.0
230
1.0
 70
     8
 71
     3
 72
    10
 73
     6
 74
     0
 42
0.000000001
 43
0.00000001
 40
0.0
 40
0.0
 40
0.0
 40
0.0
 40
0.439594409722516
 40
0.7571242175429957
 40
1.0
 40
1.0
 40
1.0
 40
1.0
 10
272.3776366327889
 20
41.20255803959517
 30
0.0
 10
272.2808445509188
 20
41.08100227671145
 30
0.0
 10
272.1141371778733
 20
40.87164380939319
 30
0.0
 10
272.0273737201429
 20
40.48180331019059
 30
0.0
 10
272.0294458992486
 20
40.26138193229267
 30
0.0
 10
272.0303439668812
 20
40.16585288055587
 30
0.0
  0
LINE
  5
1C9
330
1F
100
AcDbEntity
  8
0
  6
Continuous
 62
     7
370
    25
100
AcDbLine
 10
271.0325199626
 20
40.7315804976
 30
0.0
 11
272.0274516394
 21
40.1572186662
 31
0.0
  0
SPLINE
  5
1CA
330
1F
100
AcDbEntity
  8
0
  6
Continuous
 62
     7
370
    25
100
AcDbSpline
210
0.0
220
0.0
230
1.0
 70
     8
 71
     3
 72
    11
 73
     7
 74
     0
 42
0.000000001
 43
0.00000001
 40
0.0
 40
0.0
 40
0.0
 40
0.0
 40
0.1546044343728884
 40
0.5762385412402601
 40
0.9792331895605517
 40
1.0
 40
1.0
 40
1.0
 40
1.0
 10
272.0207822298975
 20
40.15277885410136
 30
0.0
 10
271.9728634116308
 20
40.13991952032136
 30
0.0
 10
271.794261355047
 20
40.09199046984644
 30
0.0
 10
271.5157940324835
 20
39.97091204357654
 30
0.0
 10
271.3449166642345
 20
39.81911627662703
 30
0.0
 10
271.2933449026485
 20
39.73621949941557
 30
0.0
 10
271.2908175822073
 20
39.73215706848231
 30
0.0
  0
LWPOLYLINE
  5
1CB
330
1F
100
AcDbEntity
  8
0
  6
Continuous
 62
     7
370
    25
100
AcDbPolyline
 90
       23
 70
   128
 43
0.0
 10
274.3870578323
 20
30.4305687589
 10
274.2351843596
 20
30.3656743056
 10
273.7563617104
 20
30.2427752707
 10
273.3173127211
 20
30.2581107076
 10
272.938567064
 20
30.4109637835
 10
272.6378341533
 20
30.6941871471
 10
272.429176137
 20
31.0945374911
 10
272.3223495164
 20
31.5932950347
 10
272.3223495164
 20
32.1671383837
 10
272.429176137
 20
32.789235318
 10
272.6378341533
 20
33.4304970798
 10
272.938567064
 20
34.0609392713
 10
273.3173127211
 20
34.6510827749
 10
273.7563617104
 20
35.1733333848
 10
274.2351843596
 20
35.6032712132
 10
274.7313915548
 20
35.9207927202
 10
275.2217811679
 20
36.111051118
 10
275.6834231317
 20
36.1651500732
 10
276.0947315098
 20
36.0805599351
 10
276.4364741273
 20
35.8612359411
 10
276.6926714838
 20
35.5174338147
 10
276.8513438318
 20
35.065228917
 10
276.8953094156
 20
34.7644811574
  0
LWPOLYLINE
  5
1CC
330
1F
100
AcDbEntity
  8
0
  6
Continuous
 62
     7
370
    25
100
AcDbPolyline
 90
       17
 70
   128
 43
0.0
 10
273.5448338394
 20
37.564939132
 10
273.4077224033
 20
37.6317372746
 10
272.9964140252
 20
37.7163274127
 10
272.5347720613
 20
37.6622284575
 10
272.0443824483
 20
37.4719700596
 10
271.548175253
 20
37.1544485527
 10
271.0693526038
 20
36.7245107243
 10
270.6303036146
 20
36.2022601144
 10
270.2515579574
 20
35.6121166108
 10
269.9508250468
 20
34.9816744192
 10
269.7421670304
 20
34.3404126575
 10
269.6353404099
 20
33.7183157232
 10
269.6353404099
 20
33.1444723742
 10
269.7421670304
 20
32.6457148306
 10
269.9508250468
 20
32.2453644866
 10
270.2515579574
 20
31.9621411229
 10
270.2950981215
 20
31.9356215025
  0
LINE
  5
1CD
330
1F
100
AcDbEntity
  8
0
  6
Continuous
 62
     7
370
    25
100
AcDbLine
 10
274.7483935688
 20
34.5541469552
 30
0.0
 11
273.6709395974
 21
33.2138044525
 31
0.0
  0
LINE
  5
1CE
330
1F
100
AcDbEntity
  8
0
  6
Continuous
 62
     7
370
    25
100
AcDbLine
 10
273.6709395974
 20
33.2138044525
 30
0.0
 11
273.6709395974
 21
31.7771213233
 31
0.0
  0
LINE
  5
1CF
330
1F
100
AcDbEntity
  8
0
  6
Continuous
 62
     7
370
    25
100
AcDbLine
 10
274.7483935688
 20
31.6807806968
 30
0.0
 11
273.6709395974
 21
31.7771213233
 31
0.0
  0
LINE
  5
1D0
330
1F
100
AcDbEntity
  8
0
  6
Continuous
 62
     7
370
    25
100
AcDbLine
 10
275.8258475403
 20
33.0211231994
 30
0.0
 11
274.7483935688
 21
31.6807806968
 31
0.0
  0
LINE
  5
1D1
330
1F
100
AcDbEntity
  8
0
  6
Continuous
 62
     7
370
    25
100
AcDbLine
 10
275.8258475403
 20
33.0211231994
 30
0.0
 11
275.8258475403
 21
34.4578063286
 31
0.0
  0
LINE
  5
1D2
330
1F
100
AcDbEntity
  8
0
  6
Continuous
 62
     7
370
    25
100
AcDbLine
 10
274.7483935688
 20
34.5541469552
 30
0.0
 11
275.8258475403
 21
34.4578063286
 31
0.0
  0
ARC
  5
1D3
330
1F
100
AcDbEntity
  8
0
  6
Continuous
 62
     7
370
    25
100
AcDbCircle
 10
271.8857342444
 20
34.7695934895
 30
0.0
 40
2.552649879638247
100
AcDbArc
 50
321.1211961443
 51
343.2437586166
  0
LWPOLYLINE
  5
1D4
330
1F
100
AcDbEntity
  8
0
  6
Continuous
 62
     7
370
    25
100
AcDbPolyline
 90
        3
 70
   128
 43
0.0
 10
273.6709420052
 20
32.9464071772
 10
273.7465061802
 20
33.022405299
 10
273.8729093945
 20
33.1673586969
  0
LINE
  5
1D5
330
1F
100
AcDbEntity
  8
0
  6
Continuous
 62
     7
370
    25
100
AcDbLine
 10
273.6709409968
 20
32.302780827
 30
0.0
 11
274.7483935688
 21
31.6807806968
 31
0.0
  0
LINE
  5
1D6
330
1F
100
AcDbEntity
  8
0
  6
Continuous
 62
     7
370
    25
100
AcDbLine
 10
274.4116363803
 20
33.8375299244
 30
0.0
 11
275.8258475403
 21
33.0211231994
 31
0.0
  0
LINE
  5
1D7
330
1F
100
AcDbEntity
  8
0
  6
Continuous
 62
     7
370
    25
100
AcDbLine
 10
274.4116363803
 20
33.8375299244
 30
0.0
 11
274.4116363803
 21
34.1352197772
 31
0.0
  0
LINE
  5
1D8
330
1F
100
AcDbEntity
  8
0
  6
Continuous
 62
     7
370
    25
100
AcDbLine
 10
273.8729093945
 20
33.1673586969
 30
0.0
 11
273.6709420052
 21
32.9161131874
 31
0.0
  0
LINE
  5
1D9
330
1F
100
AcDbEntity
  8
0
  6
Continuous
 62
     7
370
    25
100
AcDbLine
 10
274.4116363803
 20
33.8375299244
 30
0.0
 11
273.8729093945
 21
33.1673586969
 31
0.0
  0
ARC
  5
1DA
330
1F
100
AcDbEntity
  8
0
  6
Continuous
 62
     7
370
    25
100
AcDbCircle
 10
273.240153395
 20
33.9636662706
 30
0.0
 40
15.02208948702797
100
AcDbArc
 50
130.0348128708
 51
164.4269568061
  0
ARC
  5
1DB
330
1F
100
AcDbEntity
  8
0
  6
Continuous
 62
     7
370
    25
100
AcDbCircle
 10
267.6444896149
 20
44.1599037734
 30
0.0
 40
3.471094566236967
100
AcDbArc
 50
22.2856458872
 51
95.8320003505
  0
ARC
  5
1DC
330
1F
100
AcDbEntity
  8
0
  6
Continuous
 62
     7
370
    25
100
AcDbCircle
 10
261.6254305268
 20
33.7351156507
 30
0.0
 40
3.460174035933279
100
AcDbArc
 50
203.2437691391
 51
277.8515788124
  0
LWPOLYLINE
  5
1DD
330
1F
100
AcDbEntity
  8
0
  6
Continuous
 62
     7
370
    25
100
AcDbPolyline
 90
       17
 70
   128
 43
0.0
 10
261.6407299381
 20
37.2788388816
 10
261.6820526181
 20
37.6677781939
 10
261.8355613186
 20
38.3987069848
 10
262.0859215013
 20
39.1435726743
 10
262.4250857523
 20
39.8784343166
 10
262.8421535138
 20
40.5796729573
 10
263.3237197829
 20
41.2247501142
 10
263.8543065411
 20
41.7929326962
 10
264.4168603668
 20
42.2659589792
 10
264.9933002826
 20
42.6286252161
 10
265.5650990648
 20
42.8692750234
 10
266.1138785267
 20
42.9801734496
 10
266.622000603
 20
42.957756755
 10
267.0731337194
 20
42.8027451094
 10
267.4527782075
 20
42.5201208104
 10
267.748731896
 20
42.1189675915
 10
267.934918892
 20
41.6694760576
  0
ARC
  5
1DE
330
1F
100
AcDbEntity
  8
0
  6
Continuous
 62
     7
370
    25
100
AcDbCircle
 10
263.4383448949
 20
36.6131194967
 30
0.0
 40
1.936858543721324
100
AcDbArc
 50
249.428531384
 51
284.865388506
  0
LINE
  5
1DF
330
1F
100
AcDbEntity
  8
0
  6
Continuous
 62
     7
370
    25
100
AcDbLine
 10
272.5610944557
 20
38.9947527411
 30
0.0
 11
272.6470108064
 21
38.9492433328
 31
0.0
  0
LWPOLYLINE
  5
1E0
330
1F
100
AcDbEntity
  8
0
  6
Continuous
 62
     7
370
    25
100
AcDbPolyline
 90
        3
 70
   128
 43
0.0
 10
268.6473357981
 20
32.0208524481
 10
268.600144334
 20
32.0494125429
 10
268.5214288383
 20
32.1033243905
  0
LWPOLYLINE
  5
1E1
330
1F
100
AcDbEntity
  8
0
  6
Continuous
 62
     7
370
    25
100
AcDbPolyline
 90
       19
 70
   128
 43
0.0
 10
263.5561703537
 20
34.9599196993
 10
263.5104546879
 20
34.9875456171
 10
263.1715900746
 20
35.2908036266
 10
262.9225794143
 20
35.7121367419
 10
262.7728061429
 20
36.2356672808
 10
262.7279144809
 20
36.841666827
 10
262.7895960644
 20
37.5072990143
 10
262.9555265606
 20
38.2074803645
 10
263.2194529248
 20
38.9158252617
 10
263.5714294885
 20
39.6056406331
 10
263.9981925068
 20
40.2509317745
 10
264.483659829
 20
40.8273814473
 10
265.0095372943
 20
41.3132669632
 10
265.5560078579
 20
41.6902785443
 10
266.1024784215
 20
41.944208446
 10
266.6283558868
 20
42.0654881276
 10
267.1138232089
 20
42.0495470942
 10
267.5405862273
 20
41.8969860457
 10
267.5558453621
 20
41.888310584
  0
LWPOLYLINE
  5
1E2
330
1F
100
AcDbEntity
  8
0
  6
Continuous
 62
     7
370
    25
100
AcDbPolyline
 90
       17
 70
   128
 43
0.0
 10
269.770000661
 20
36.5019713
 10
269.7363598203
 20
36.6778487532
 10
269.6405589635
 20
36.7881096049
 10
269.4971827112
 20
36.8159676448
 10
269.3280589327
 20
36.7571818618
 10
269.1589351541
 20
36.6207014864
 10
269.0155589841
 20
36.4273047967
 10
268.919758045
 20
36.2064345826
 10
268.886117122
 20
35.991716194
 10
268.919758045
 20
35.8158387883
 10
269.0155589841
 20
35.705577889
 10
269.1589351541
 20
35.6777198967
 10
269.3280589327
 20
35.7365057747
 10
269.4971827112
 20
35.872986055
 10
269.6405589635
 20
36.0663826972
 10
269.7363598203
 20
36.2872529588
 10
269.770000661
 20
36.5019713
  0
LINE
  5
1E3
330
1F
100
AcDbEntity
  8
0
  6
Continuous
 62
     7
370
    25
100
AcDbLine
 10
266.55174477
 20
42.1442889689
 30
0.0
 11
266.7922511512
 21
42.115321853
 31
0.0
  0
LWPOLYLINE
  5
1E4
330
1F
100
AcDbEntity
  8
0
  6
Continuous
 62
     7
370
    25
100
AcDbPolyline
 90
       35
 70
   128
 43
0.0
 10
221.1938946475
 20
51.1855952863
 10
221.2458445895
 20
52.4558192407
 10
221.401209727
 20
53.774163758
 10
221.6585392862
 20
55.1283198369
 10
222.0154302383
 20
56.5056435815
 10
222.4685503481
 20
57.8932754966
 10
223.0136704427
 20
59.2782607332
 10
223.6456986561
 20
60.6476661967
 10
224.3587357465
 20
61.988707158
 10
225.1461238289
 20
63.2888632205
 10
226.0005102539
 20
64.5359939038
 10
226.9139190598
 20
65.7184559387
 10
227.8778214365
 20
66.8252085844
 10
228.8832177148
 20
67.8459187552
 10
229.9207210014
 20
68.7710564505
 10
230.9806442711
 20
69.5919830554
 10
232.0530912463
 20
70.3010349831
 10
233.1280488402
 20
70.8915914902
 10
234.1954804228
 20
71.3581376433
 10
235.2454198284
 20
71.6963193492
 10
236.2680637167
 20
71.902977662
 10
237.2538643447
 20
71.9761833276
 10
238.1936172357
 20
71.9152531734
 10
239.0785482722
 20
71.7207562785
 10
239.9003953545
 20
71.3945086431
 10
240.6514851222
 20
70.9395558807
 10
241.3248040762
 20
70.3601450741
 10
241.9140664092
 20
69.6616878869
 10
242.4137699819
 20
68.8507039035
 10
242.8192490063
 20
67.9347658709
 10
243.1267181688
 20
66.9224255495
 10
243.3333068736
 20
65.8231351921
 10
243.437084927
 20
64.6471576641
 10
243.437084927
 20
63.4054737603
 10
243.3454458246
 20
62.2153574116
  0
LWPOLYLINE
  5
1E5
330
1F
100
AcDbEntity
  8
0
  6
Continuous
 62
     7
370
    25
100
AcDbPolyline
 90
       19
 70
   128
 43
0.0
 10
233.8462180502
 20
45.7604294168
 10
233.1280488402
 20
45.2584802216
 10
232.0530912463
 20
44.6079171087
 10
230.9806442711
 20
44.0787481151
 10
229.9207210014
 20
43.6759133613
 10
228.8832177148
 20
43.4031752594
 10
227.8778214365
 20
43.2630795957
 10
226.9139190598
 20
43.256934246
 10
226.0005102539
 20
43.3847969214
 10
225.1461238289
 20
43.6454740356
 10
224.3587357465
 20
44.0365311689
 10
223.6456986561
 20
44.5543170291
 10
223.0136704427
 20
45.19399825
 10
222.4685503481
 20
45.9496012222
 10
222.0154302383
 20
46.8140717943
 10
221.6585392862
 20
47.7793380164
 10
221.401209727
 20
48.8363877104
 10
221.2458445895
 20
49.9753514583
 10
221.1938946475
 20
51.1855952863
  0
SPLINE
  5
1E6
330
1F
100
AcDbEntity
  8
0
  6
Continuous
 62
     7
370
    25
100
AcDbSpline
210
0.0
220
0.0
230
1.0
 70
     8
 71
     3
 72
    24
 73
    20
 74
     0
 42
0.000000001
 43
0.00000001
 40
0.0
 40
0.0
 40
0.0
 40
0.0
 40
0.1249999999999991
 40
0.1249999999999991
 40
0.2499999999999981
 40
0.2499999999999981
 40
0.3749999999999972
 40
0.3749999999999972
 40
0.4999999999999962
 40
0.4999999999999962
 40
0.6249999999999964
 40
0.6249999999999964
 40
0.7499999999999968
 40
0.7499999999999968
 40
0.8124999999999976
 40
0.8124999999999976
 40
0.8749999999999982
 40
0.8749999999999982
 40
1.0
 40
1.0
 40
1.0
 40
1.0
 10
226.0274837960137
 20
67.61740974073766
 30
0.0
 10
226.0563771711059
 20
67.50710200976997
 30
0.0
 10
226.0690211691931
 20
67.39193892968842
 30
0.0
 10
226.0619954940619
 20
67.15099390040788
 30
0.0
 10
226.0420777022354
 20
67.02744385715803
 30
0.0
 10
225.9718257050603
 20
66.78084536524743
 30
0.0
 10
225.9204388332642
 20
66.65513466473215
 30
0.0
 10
225.791193878124
 20
66.41297257605294
 30
0.0
 10
225.7134611157248
 20
66.29562050691887
 30
0.0
 10
225.5309382189566
 20
66.06854890391959
 30
0.0
 10
225.4298397647627
 20
65.9634182184674
 30
0.0
 10
225.2085537704175
 20
65.76952605946221
 30
0.0
 10
225.0873943043646
 20
65.6805712612043
 30
0.0
 10
224.9000723735005
 20
65.5669529352021
 30
0.0
 10
224.8363483535563
 20
65.53206461880218
 30
0.0
 10
224.706245553393
 20
65.46839116572983
 30
0.0
 10
224.6394103391181
 20
65.43944983290635
 30
0.0
 10
224.4387599260956
 20
65.36386896397494
 30
0.0
 10
224.3047656189214
 20
65.32803956087561
 30
0.0
 10
224.1702493398419
 20
65.30702773365687
 30
0.0
  0
LWPOLYLINE
  5
1E7
330
1F
100
AcDbEntity
  8
0
  6
Continuous
 62
     7
370
    25
100
AcDbPolyline
 90
       14
 70
   128
 43
0.0
 10
226.0274839077
 20
67.6174097733
 10
227.0294702426
 20
68.6561371508
 10
228.0653330948
 20
69.600267941
 10
229.1253454326
 20
70.4409366295
 10
230.1995529855
 20
71.1702484305
 10
231.2778685801
 20
71.781353518
 10
232.3501664361
 20
72.2685159101
 10
233.4063769965
 20
72.6271590877
 10
234.4365819636
 20
72.8539155351
 10
235.4311076477
 20
72.9466562935
 10
236.3806145708
 20
72.9045107487
 10
237.2761863693
 20
72.7278730868
 10
238.1094131008
 20
72.4184039973
 10
238.5051331542
 20
72.2118605059
  0
LWPOLYLINE
  5
1E8
330
1F
100
AcDbEntity
  8
0
  6
Continuous
 62
     7
370
    25
100
AcDbPolyline
 90
       20
 70
   128
 43
0.0
 10
222.7689118396
 20
44.9529721121
 10
222.7275368053
 20
44.9771108053
 10
222.0125076178
 20
45.4830347721
 10
221.3771682426
 20
46.1099960409
 10
220.8273876285
 20
46.8521993337
 10
220.3682464462
 20
47.7027878405
 10
220.0039870396
 20
48.6539021594
 10
219.7379745711
 20
49.6967540654
 10
219.5726673872
 20
50.8217078829
 10
219.5095933113
 20
52.0183694735
 10
219.5493338382
 20
53.2756811413
 10
219.6915228171
 20
54.5820262202
 10
219.9348464517
 20
55.9253342794
 10
220.2770558126
 20
57.2931931595
 10
220.714989886
 20
58.6729644539
 10
221.2446012575
 20
60.0518990019
 10
221.8609969414
 20
61.4172557068
 10
222.5584818446
 20
62.7564190237
 10
223.3306107923
 20
64.0570156853
 10
224.170249113
 20
65.3070272452
  0
LWPOLYLINE
  5
1E9
330
1F
100
AcDbEntity
  8
0
  6
Continuous
 62
     7
370
    25
100
AcDbPolyline
 90
       37
 70
   128
 43
0.0
 10
221.5452770394
 20
45.8256017925
 10
220.7228049983
 20
46.1478718854
 10
219.9706846085
 20
46.5985779395
 10
219.2959181736
 20
47.1735257251
 10
218.7047882084
 20
47.8673625151
 10
218.2027981692
 20
48.6736272803
 10
217.7946217465
 20
49.5848149544
 10
217.4840587419
 20
50.5924416467
 10
217.2740008246
 20
51.6871265861
 10
217.1664038716
 20
52.8586786259
 10
217.1622682121
 20
54.0961894975
 10
217.2616340173
 20
55.3881390397
 10
217.4635753736
 20
56.7224984325
 10
217.7662121364
 20
58.0868448355
 10
218.1667270523
 20
59.4684766915
 10
218.6613907839
 20
60.85453017
 10
219.2455987878
 20
62.2321017885
 10
219.913912145
 20
63.58836571
 10
220.6601076099
 20
64.9106950322
 10
221.4772395136
 20
66.1867804137
 10
222.3576990328
 20
67.4047388149
 10
223.2932899225
 20
68.5532325032
 10
224.275301944
 20
69.621569237
 10
225.2945915358
 20
70.5998020692
 10
226.3416700595
 20
71.4788243963
 10
227.4067888338
 20
72.2504509877
 10
228.4800314337
 20
72.9075009268
 10
229.5514060309
 20
73.443853199
 10
230.6109382075
 20
73.8545170025
 10
231.6487633577
 20
74.1356675998
 10
232.6552198927
 20
74.284688717
 10
233.6209368888
 20
74.3001919627
 10
234.5369238964
 20
74.1820336926
 10
235.3946530933
 20
73.9313137658
 10
236.1861392982
 20
73.5503669823
 10
236.9040127395
 20
73.0427381711
 10
237.2375372153
 20
72.7385913013
  0
LWPOLYLINE
  5
1EA
330
1F
100
AcDbEntity
  8
0
  6
Continuous
 62
     7
370
    25
100
AcDbPolyline
 90
       11
 70
   128
 43
0.0
 10
224.3648625153
 20
67.7416862538
 10
225.3296249512
 20
68.7651643299
 10
226.3305834627
 20
69.6933955002
 10
227.3572843144
 20
70.5166856043
 10
228.3990039322
 20
71.226434908
 10
229.4448625433
 20
71.815231844
 10
230.4839369113
 20
72.2769256965
 10
231.5053746753
 20
72.6066948896
 10
232.4985075378
 20
72.8010955986
 10
233.4529630936
 20
72.8580966499
 10
234.1654130915
 20
72.8065728869
  0
SPLINE
  5
1EB
330
1F
100
AcDbEntity
  8
0
  6
Continuous
 62
     7
370
    25
100
AcDbSpline
210
0.0
220
0.0
230
1.0
 70
     8
 71
     3
 72
    26
 73
    22
 74
     0
 42
0.000000001
 43
0.00000001
 40
0.0
 40
0.0
 40
0.0
 40
0.0
 40
0.1250000000000014
 40
0.1250000000000014
 40
0.2500000000000027
 40
0.2500000000000027
 40
0.3125000000000025
 40
0.3125000000000025
 40
0.3750000000000023
 40
0.3750000000000023
 40
0.4375000000000021
 40
0.4375000000000021
 40
0.5000000000000018
 40
0.5000000000000018
 40
0.5625000000000016
 40
0.5625000000000016
 40
0.6250000000000013
 40
0.6250000000000013
 40
0.7500000000000006
 40
0.7500000000000006
 40
1.0
 40
1.0
 40
1.0
 40
1.0
 10
223.0206693103862
 20
66.0695229676124
 30
0.0
 10
222.9970317141541
 20
66.1790988271854
 30
0.0
 10
222.9794639352724
 20
66.28998808554992
 30
0.0
 10
222.9606513524029
 20
66.51531804541287
 30
0.0
 10
222.9594715776356
 20
66.63099495873124
 30
0.0
 10
222.9755695808709
 20
66.8023504685908
 30
0.0
 10
222.9838882979712
 20
66.85914898068496
 30
0.0
 10
223.0076454472281
 20
66.97197519308205
 30
0.0
 10
223.0232678262771
 20
67.0284280467482
 30
0.0
 10
223.0621250386741
 20
67.1370111631568
 30
0.0
 10
223.0853509953766
 20
67.18939112338235
 30
0.0
 10
223.140349644855
 20
67.28984789865446
 30
0.0
 10
223.1724279118776
 20
67.33812676642589
 30
0.0
 10
223.2428426604127
 20
67.42582374200964
 30
0.0
 10
223.2814210825393
 20
67.4658128699856
 30
0.0
 10
223.3651293461356
 20
67.53829155410118
 30
0.0
 10
223.4102580560775
 20
67.5706281784778
 30
0.0
 10
223.5495386982676
 20
67.65382794583145
 30
0.0
 10
223.6503277698292
 20
67.69265666846755
 30
0.0
 10
223.9534000410619
 20
67.76807295592272
 30
0.0
 10
224.1619241315469
 20
67.76794280955197
 30
0.0
 10
224.3648625512373
 20
67.74168658022573
 30
0.0
  0
LWPOLYLINE
  5
1EC
330
1F
100
AcDbEntity
  8
0
  6
Continuous
 62
     7
370
    25
100
AcDbPolyline
 90
       17
 70
   128
 43
0.0
 10
220.0836906814
 20
48.4136716775
 10
220.0232665886
 20
48.4934035164
 10
219.537108618
 20
49.263329978
 10
219.1449993641
 20
50.1387238177
 10
218.8509217043
 20
51.1106931396
 10
218.6578634549
 20
52.1693638131
 10
218.5677851029
 20
53.3039812831
 10
218.5816020252
 20
54.5030197931
 10
218.6991739518
 20
55.7542991172
 10
218.9193062831
 20
57.0451079451
 10
219.2397632603
 20
58.362334015
 10
219.6572890394
 20
59.6925965274
 10
220.1676425939
 20
61.0223815041
 10
220.7656392027
 20
62.3381809491
 10
221.4452044514
 20
63.6266280156
 10
222.1994354764
 20
64.8746350245
 10
223.0206694538
 20
66.0695227366
  0
LINE
  5
1ED
330
1F
100
AcDbEntity
  8
0
  6
Continuous
 62
     7
370
    25
100
AcDbLine
 10
221.5452770394
 20
45.8256017925
 30
0.0
 11
221.6666336214
 21
45.8829545621
 31
0.0
  0
LWPOLYLINE
  5
1EE
330
1F
100
AcDbEntity
  8
0
  6
Continuous
 62
     7
370
    25
100
AcDbPolyline
 90
       26
 70
   128
 43
0.0
 10
214.9098325801
 20
55.3460072544
 10
214.9525945092
 20
56.0888351812
 10
215.1079596466
 20
57.4071796985
 10
215.3652892058
 20
58.7613357774
 10
215.7221801579
 20
60.138659522
 10
216.1753002677
 20
61.526291437
 10
216.7204203623
 20
62.9112766737
 10
217.3524485757
 20
64.2806821371
 10
218.0654856661
 20
65.6217230985
 10
218.8528737485
 20
66.921879161
 10
219.7072601736
 20
68.1690098443
 10
220.6206689794
 20
69.3514718792
 10
221.5845713561
 20
70.4582245249
 10
222.5899676344
 20
71.4789346957
 10
223.627470921
 20
72.404072391
 10
224.6873941907
 20
73.2249989959
 10
225.7598411659
 20
73.9340509236
 10
226.8347987598
 20
74.5246074307
 10
227.9022303424
 20
74.9911535838
 10
228.9521697481
 20
75.3293352897
 10
229.9748136363
 20
75.5359936025
 10
230.9606142643
 20
75.6091992681
 10
231.9003671554
 20
75.5482691138
 10
232.7852981918
 20
75.353772219
 10
233.6071452741
 20
75.0275245836
 10
233.8968482228
 20
74.8721667706
  0
ARC
  5
1EF
330
1F
100
AcDbEntity
  8
0
  6
Continuous
 62
     7
370
    25
100
AcDbCircle
 10
221.8480473469
 20
53.2986134265
 30
0.0
 40
6.776437420852593
100
AcDbArc
 50
189.1753779711
 51
237.0331813977
  0
LWPOLYLINE
  5
1F0
330
1F
100
AcDbEntity
  8
0
  6
Continuous
 62
     7
370
    25
100
AcDbPolyline
 90
       23
 70
   128
 43
0.0
 10
214.9006444488
 20
54.9002519676
 10
214.95226446
 20
56.162404685
 10
215.1066424392
 20
57.4723721308
 10
215.3623361739
 20
58.8179233454
 10
215.7169597572
 20
60.1864955155
 10
216.167201369
 20
61.5653105137
 10
216.708856861
 20
62.9414948582
 10
217.33686927
 20
64.3021987215
 10
218.0453755741
 20
65.6347183609
 10
218.8277600354
 20
66.9266124636
 10
219.676718078
 20
68.1658192527
 10
220.5843224726
 20
69.3407676984
 10
221.5421000561
 20
70.4404879678
 10
222.5411077942
 20
71.4547116094
 10
223.5720185563
 20
72.3739704995
 10
224.6252067267
 20
73.1896812461
 10
225.6908391245
 20
73.8942280944
 10
226.7589661712
 20
74.4810307658
 10
227.8196149923
 20
74.9446134136
 10
228.8628828482
 20
75.2806456318
 10
229.8790285486
 20
75.4859906646
 10
230.8585651012
 20
75.5587315147
 10
231.0154169028
 20
75.5579340903
  0
LWPOLYLINE
  5
1F1
330
1F
100
AcDbEntity
  8
0
  6
Continuous
 62
     7
370
    25
100
AcDbPolyline
 90
        3
 70
   128
 43
0.0
 10
215.0395591444
 20
52.9628247353
 10
214.95226446
 20
53.6976984466
 10
214.9182526118
 20
54.1901166644
  0
SPLINE
  5
1F2
330
1F
100
AcDbEntity
  8
0
  6
Continuous
 62
     7
370
    25
100
AcDbSpline
210
0.0
220
0.0
230
1.0
 70
     8
 71
     3
 72
    10
 73
     6
 74
     0
 42
0.000000001
 43
0.00000001
 40
0.0
 40
0.0
 40
0.0
 40
0.0
 40
0.5
 40
0.5
 40
1.0
 40
1.0
 40
1.0
 40
1.0
 10
223.7473573780175
 20
64.60646968679268
 30
0.0
 10
223.644053719469
 20
64.67934189722735
 30
0.0
 10
223.5537555401024
 20
64.76662231124509
 30
0.0
 10
223.3999866841334
 20
64.97022740092766
 30
0.0
 10
223.3392727359261
 20
65.08315212909044
 30
0.0
 10
223.2951868898558
 20
65.20516280820954
 30
0.0
  0
SPLINE
  5
1F3
330
1F
100
AcDbEntity
  8
0
  6
Continuous
 62
     7
370
    25
100
AcDbSpline
210
0.0
220
0.0
230
1.0
 70
     8
 71
     3
 72
    14
 73
    10
 74
     0
 42
0.000000001
 43
0.00000001
 40
0.0
 40
0.0
 40
0.0
 40
0.0
 40
0.25
 40
0.25
 40
0.5
 40
0.5
 40
0.75
 40
0.75
 40
1.0
 40
1.0
 40
1.0
 40
1.0
 10
223.2951868898558
 20
65.20516280820954
 30
0.0
 10
223.2724660869906
 20
65.26804422786707
 30
0.0
 10
223.2505515766412
 20
65.33709065734048
 30
0.0
 10
223.2084405225784
 20
65.48474317395926
 30
0.0
 10
223.1889189686653
 20
65.56114296081756
 30
0.0
 10
223.1505727264916
 20
65.71547525221317
 30
0.0
 10
223.1322131336078
 20
65.79242784854482
 30
0.0
 10
223.0902096890261
 20
65.9378180160608
 30
0.0
 10
223.0664333680131
 20
66.00440892225383
 30
0.0
 10
223.0379718639109
 20
66.04490453748517
 30
0.0
  0
LINE
  5
1F4
330
1F
100
AcDbEntity
  8
0
  6
Continuous
 62
     7
370
    25
100
AcDbLine
 10
223.0379720522
 20
66.0449049292
 30
0.0
 11
223.0206694538
 21
66.0695227366
 31
0.0
  0
LINE
  5
1F5
330
1F
100
AcDbEntity
  8
0
  6
Continuous
 62
     7
370
    25
100
AcDbLine
 10
224.3648625153
 20
67.7416862538
 30
0.0
 11
224.3821651137
 21
67.7170684465
 31
0.0
  0
SPLINE
  5
1F6
330
1F
100
AcDbEntity
  8
0
  6
Continuous
 62
     7
370
    25
100
AcDbSpline
210
0.0
220
0.0
230
1.0
 70
     8
 71
     3
 72
    16
 73
    12
 74
     0
 42
0.000000001
 43
0.00000001
 40
0.0
 40
0.0
 40
0.0
 40
0.0
 40
0.1250000000000001
 40
0.1250000000000001
 40
0.2500000000000003
 40
0.2500000000000003
 40
0.5000000000000002
 40
0.5000000000000002
 40
0.7500000000000001
 40
0.7500000000000001
 40
1.0
 40
1.0
 40
1.0
 40
1.0
 10
224.3821651047621
 20
67.71706815009846
 30
0.0
 10
224.3963175111662
 20
67.69693181428565
 30
0.0
 10
224.4179759156399
 20
67.68013439360824
 30
0.0
 10
224.4703938446752
 20
67.65328887227676
 30
0.0
 10
224.5009867238136
 20
67.64306338771577
 30
0.0
 10
224.600067572671
 20
67.61856294728308
 30
0.0
 10
224.6739501102869
 20
67.61030302488157
 30
0.0
 10
224.8270497026782
 20
67.59911705817666
 30
0.0
 10
224.9051336773259
 20
67.59652038642548
 30
0.0
 10
225.064477311068
 20
67.59449138559177
 30
0.0
 10
225.1431302058996
 20
67.595128974254
 30
0.0
 10
225.2188826736922
 20
67.59822207506903
 30
0.0
  0
SPLINE
  5
1F7
330
1F
100
AcDbEntity
  8
0
  6
Continuous
 62
     7
370
    25
100
AcDbSpline
210
0.0
220
0.0
230
1.0
 70
     8
 71
     3
 72
    12
 73
     8
 74
     0
 42
0.000000001
 43
0.00000001
 40
0.0
 40
0.0
 40
0.0
 40
0.0
 40
0.5000000000000003
 40
0.5000000000000003
 40
0.7500000000000001
 40
0.7500000000000001
 40
1.0
 40
1.0
 40
1.0
 40
1.0
 10
225.2188826736922
 20
67.59822207506903
 30
0.0
 10
225.3653756752437
 20
67.60420363099321
 30
0.0
 10
225.5112473735052
 20
67.59388679230294
 30
0.0
 10
225.715210543391
 20
67.55544861445847
 30
0.0
 10
225.7811613738321
 20
67.53885253991083
 30
0.0
 10
225.9089093325439
 20
67.4980802151311
 30
0.0
 10
225.9711245525831
 20
67.47368642729268
 30
0.0
 10
226.0298955417182
 20
67.44592546275275
 30
0.0
  0
ARC
  5
1F8
330
1F
100
AcDbEntity
  8
0
  6
Continuous
 62
     7
370
    25
100
AcDbCircle
 10
208.6999354921
 20
62.7098557684
 30
0.0
 40
4.143252031906876
100
AcDbArc
 50
211.7444095219
 51
236.2139194594
  0
SPLINE
  5
1F9
330
1F
100
AcDbEntity
  8
0
  6
Continuous
 62
     7
370
    25
100
AcDbSpline
210
0.0
220
0.0
230
1.0
 70
     8
 71
     3
 72
     8
 73
     4
 74
     0
 42
0.000000001
 43
0.00000001
 40
0.0
 40
0.0
 40
0.0
 40
0.0
 40
1.0
 40
1.0
 40
1.0
 40
1.0
 10
206.6069418725814
 20
59.60522104351408
 30
0.0
 10
206.1301685807572
 20
59.91331385144673
 30
0.0
 10
205.6533662039123
 20
60.22154329701948
 30
0.0
 10
205.1765337593867
 20
60.5299084532394
 30
0.0
  0
SPLINE
  5
1FA
330
1F
100
AcDbEntity
  8
0
  6
Continuous
 62
     7
370
    25
100
AcDbSpline
210
0.0
220
0.0
230
1.0
 70
     8
 71
     3
 72
    23
 73
    19
 74
     0
 42
0.000000001
 43
0.00000001
 40
0.0
 40
0.0
 40
0.0
 40
0.0
 40
0.0521036415684141
 40
0.1035646240942128
 40
0.1544751946758079
 40
0.2049306267497427
 40
0.2550287880868969
 40
0.3048696389164994
 40
0.3545546704630395
 40
0.4041862979540088
 40
0.4538672252136959
 40
0.5036997999425104
 40
0.590187023076665
 40
0.6742716378260809
 40
0.7565997087257926
 40
0.8378563983752378
 40
0.9187511781386904
 40
1.0
 40
1.0
 40
1.0
 40
1.0
 10
207.487506676123
 20
59.43049034539398
 30
0.0
 10
207.4822377371829
 20
59.42056888315884
 30
0.0
 10
207.4717648476827
 20
59.40084833242732
 30
0.0
 10
207.4525185519202
 20
59.37628050347439
 30
0.0
 10
207.4307228115876
 20
59.35559192121467
 30
0.0
 10
207.4060715203827
 20
59.33906098591741
 30
0.0
 10
207.3785750058438
 20
59.32654348634117
 30
0.0
 10
207.3481639518365
 20
59.31800886251891
 30
0.0
 10
207.3147935800639
 20
59.31339898987113
 30
0.0
 10
207.2784176917919
 20
59.31266424673515
 30
0.0
 10
207.2389893202027
 20
59.31575932928708
 30
0.0
 10
207.1861409286515
 20
59.32429510476749
 30
0.0
 10
207.1176019348796
 20
59.34189154361605
 30
0.0
 10
207.0298807029235
 20
59.37352815170293
 30
0.0
 10
206.9351497834291
 20
59.41570780903597
 30
0.0
 10
206.8331155360998
 20
59.46844424476254
 30
0.0
 10
206.7242016229125
 20
59.53076080067218
 30
0.0
 10
206.646085311928
 20
59.58036485892229
 30
0.0
 10
206.6069418725814
 20
59.60522104351407
 30
0.0
  0
SPLINE
  5
1FB
330
1F
100
AcDbEntity
  8
0
  6
Continuous
 62
     7
370
    25
100
AcDbSpline
210
0.0
220
0.0
230
1.0
 70
     8
 71
     3
 72
     8
 73
     4
 74
     0
 42
0.000000001
 43
0.00000001
 40
0.0
 40
0.0
 40
0.0
 40
0.0
 40
1.0
 40
1.0
 40
1.0
 40
1.0
 10
208.9610097025752
 20
58.48317020883884
 30
0.0
 10
208.4696423905344
 20
58.79904482880596
 30
0.0
 10
207.9782561906087
 20
59.1150308500951
 30
0.0
 10
207.4868504804652
 20
59.43112773093743
 30
0.0
  0
SPLINE
  5
1FC
330
1F
100
AcDbEntity
  8
0
  6
Continuous
 62
     7
370
    25
100
AcDbSpline
210
0.0
220
0.0
230
1.0
 70
     8
 71
     3
 72
    18
 73
    14
 74
     0
 42
0.000000001
 43
0.00000001
 40
0.0
 40
0.0
 40
0.0
 40
0.0
 40
0.0923824559397059
 40
0.1844689291547896
 40
0.2764953615916986
 40
0.3686975365456813
 40
0.4613092839965452
 40
0.5545607518407201
 40
0.648676805150765
 40
0.7438756050126222
 40
0.840367404429405
 40
0.9203921078117897
 40
1.0
 40
1.0
 40
1.0
 40
1.0
 10
209.7745738217764
 20
57.83886248429344
 30
0.0
 10
209.7510063076537
 20
57.85413645855876
 30
0.0
 10
209.7039467870029
 20
57.884635471039
 30
0.0
 10
209.6315489990409
 20
57.93426804364942
 30
0.0
 10
209.5580667901459
 20
57.98659758631761
 30
0.0
 10
209.4833673424012
 20
58.04191527202532
 30
0.0
 10
209.4075065526331
 20
58.1001535871389
 30
0.0
 10
209.3304952718461
 20
58.16134649877664
 30
0.0
 10
209.2523631397645
 20
58.22551021535853
 30
0.0
 10
209.1731369051199
 20
58.29265917522616
 30
0.0
 10
209.0978404207092
 20
58.35851008497277
 30
0.0
 10
209.0270131125865
 20
58.4220416717814
 30
0.0
 10
208.9831087417792
 20
58.46270241679503
 30
0.0
 10
208.9612138749737
 20
58.48297970536362
 30
0.0
  0
LINE
  5
1FD
330
1F
100
AcDbEntity
  8
0
  6
Continuous
 62
     7
370
    25
100
AcDbLine
 10
210.4142803536
 20
57.4271086778
 30
0.0
 11
209.7745735113
 21
57.8388623454
 31
0.0
  0
SPLINE
  5
1FE
330
1F
100
AcDbEntity
  8
0
  6
Continuous
 62
     7
370
    25
100
AcDbSpline
210
0.0
220
0.0
230
1.0
 70
     8
 71
     3
 72
    25
 73
    21
 74
     0
 42
0.000000001
 43
0.00000001
 40
0.0
 40
0.0
 40
0.0
 40
0.0
 40
0.0280105225426455
 40
0.0559601148860777
 40
0.0839014045043132
 40
0.1118870776786386
 40
0.1399695827588948
 40
0.1682008401739887
 40
0.196631967042423
 40
0.2253130233141507
 40
0.2542927850735879
 40
0.3799486436587393
 40
0.5057850221667148
 40
0.6313085886345164
 40
0.7532068238012837
 40
0.8039473267959832
 40
0.8535894438560202
 40
0.9025339722399832
 40
0.9511970353794942
 40
1.0
 40
1.0
 40
1.0
 40
1.0
 10
211.5166459467667
 20
58.14301466817051
 30
0.0
 10
211.5215940542973
 20
58.11539080706303
 30
0.0
 10
211.5314795059328
 20
58.06020317395771
 30
0.0
 10
211.543015155536
 20
57.98104246658779
 30
0.0
 10
211.5520882773488
 20
57.90473912748941
 30
0.0
 10
211.5584570860617
 20
57.8315433665198
 30
0.0
 10
211.5621733248719
 20
57.76139589830641
 30
0.0
 10
211.5632099458547
 20
57.69431961179363
 30
0.0
 10
211.5615614706278
 20
57.6303157025672
 30
0.0
 10
211.5572153187589
 20
57.56938684930035
 30
0.0
 10
211.5423589941912
 20
57.44749872780319
 30
0.0
 10
211.4972707371262
 20
57.29259785614799
 30
0.0
 10
211.3839112166333
 20
57.1616547378059
 30
0.0
 10
211.2220869946394
 20
57.10577833699539
 30
0.0
 10
211.0480717755071
 20
57.12565238937862
 30
0.0
 10
210.8967108548204
 20
57.17297019173494
 30
0.0
 10
210.7863106221216
 20
57.21788561547056
 30
0.0
 10
210.6691511266729
 20
57.27526134676172
 30
0.0
 10
210.5455854597396
 20
57.34393841121416
 30
0.0
 10
210.458090409645
 20
57.399358657167
 30
0.0
 10
210.4142800899637
 20
57.42710855489706
 30
0.0
  0
ARC
  5
1FF
330
1F
100
AcDbEntity
  8
0
  6
Continuous
 62
     7
370
    25
100
AcDbCircle
 10
222.7096671112
 20
59.9290650367
 30
0.0
 40
11.33462419218396
100
AcDbArc
 50
170.9338462887
 51
189.0661537113
  0
SPLINE
  5
200
330
1F
100
AcDbEntity
  8
0
  6
Continuous
 62
     7
370
    25
100
AcDbSpline
210
0.0
220
0.0
230
1.0
 70
     8
 71
     3
 72
    26
 73
    22
 74
     0
 42
0.000000001
 43
0.00000001
 40
0.0
 40
0.0
 40
0.0
 40
0.0
 40
0.0241259796969038
 40
0.048215991228259
 40
0.0723203915136643
 40
0.0964895678725153
 40
0.1207736231978452
 40
0.1452220711257179
 40
0.1698835501670319
 40
0.1948055644482148
 40
0.2200342569523467
 40
0.2456142191612283
 40
0.369097148691835
 40
0.4940698769485373
 40
0.6192566784762581
 40
0.7454656653603327
 40
0.7971495824713788
 40
0.8481710308405456
 40
0.8988013269235281
 40
0.9493179290492212
 40
1.0
 40
1.0
 40
1.0
 40
1.0
 10
210.4142800899637
 20
65.19121894626163
 30
0.0
 10
210.4359983193403
 20
65.17688742286624
 30
0.0
 10
210.4794023995172
 20
65.14824574219666
 30
0.0
 10
210.5427095168798
 20
65.10025344426711
 30
0.0
 10
210.6045710845986
 20
65.04865424638092
 30
0.0
 10
210.6648755997356
 20
64.99307945350738
 30
0.0
 10
210.7236654516756
 20
64.93362421288012
 30
0.0
 10
210.7809459701052
 20
64.87025990404284
 30
0.0
 10
210.8367371094309
 20
64.80299112607922
 30
0.0
 10
210.8910583568519
 20
64.7318170121196
 30
0.0
 10
210.9439373320598
 20
64.65672787237209
 30
0.0
 10
211.0607321567953
 20
64.47747342366799
 30
0.0
 10
211.2226017147209
 20
64.16716795182494
 30
0.0
 10
211.3857866222538
 20
63.69725416369396
 30
0.0
 10
211.4972980274263
 20
63.19829112978588
 30
0.0
 10
211.5444318655349
 20
62.78940745672894
 30
0.0
 10
211.5595508050674
 20
62.48513550013822
 30
0.0
 10
211.56150394405
 20
62.28388625844291
 30
0.0
 10
211.5550259184109
 20
62.08822633872031
 30
0.0
 10
211.5408989957238
 20
61.89759005082284
 30
0.0
 10
211.5247391040388
 20
61.77600677708403
 30
0.0
 10
211.5166459467667
 20
61.71511574048515
 30
0.0
  0
LINE
  5
201
330
1F
100
AcDbEntity
  8
0
  6
Continuous
 62
     7
370
    25
100
AcDbLine
 10
209.7745735113
 20
65.6041937965
 30
0.0
 11
210.4142803536
 21
65.1912188255
 31
0.0
  0
SPLINE
  5
202
330
1F
100
AcDbEntity
  8
0
  6
Continuous
 62
     7
370
    25
100
AcDbSpline
210
0.0
220
0.0
230
1.0
 70
     8
 71
     3
 72
    14
 73
    10
 74
     0
 42
0.000000001
 43
0.00000001
 40
0.0
 40
0.0
 40
0.0
 40
0.0
 40
0.0789261963155847
 40
0.1582328720522156
 40
0.3308475394554963
 40
0.5000195457601538
 40
0.667035788356921
 40
0.8332395193656904
 40
1.0
 40
1.0
 40
1.0
 40
1.0
 10
208.9606211059248
 20
65.81277622954678
 30
0.0
 10
208.9823379872601
 20
65.8143793934052
 30
0.0
 10
209.025876440475
 20
65.81759344949216
 30
0.0
 10
209.1174015591236
 20
65.81841448955993
 30
0.0
 10
209.2343098925569
 20
65.81047850777668
 30
0.0
 10
209.3751302309394
 20
65.78420283889885
 30
0.0
 10
209.512342538752
 20
65.74124524036661
 30
0.0
 10
209.6462732131688
 20
65.682888115557
 30
0.0
 10
209.7317593051282
 20
65.63045456940696
 30
0.0
 10
209.7745738217764
 20
65.60419395925251
 30
0.0
  0
SPLINE
  5
203
330
1F
100
AcDbEntity
  8
0
  6
Continuous
 62
     7
370
    25
100
AcDbSpline
210
0.0
220
0.0
230
1.0
 70
     8
 71
     3
 72
     8
 73
     4
 74
     0
 42
0.000000001
 43
0.00000001
 40
0.0
 40
0.0
 40
0.0
 40
0.0
 40
1.0
 40
1.0
 40
1.0
 40
1.0
 10
207.1583175229208
 20
66.97516764095893
 30
0.0
 10
207.7590757466166
 20
66.5879001578002
 30
0.0
 10
208.3598046094767
 20
66.20043280787708
 30
0.0
 10
208.9605052538233
 20
65.81276591528763
 30
0.0
  0
SPLINE
  5
204
330
1F
100
AcDbEntity
  8
0
  6
Continuous
 62
     7
370
    25
100
AcDbSpline
210
0.0
220
0.0
230
1.0
 70
     8
 71
     3
 72
    13
 73
     9
 74
     0
 42
0.000000001
 43
0.00000001
 40
0.0
 40
0.0
 40
0.0
 40
0.0
 40
0.1667030582308044
 40
0.3329480818053134
 40
0.4990671507274983
 40
0.6653938523718556
 40
0.8322612710550201
 40
1.0
 40
1.0
 40
1.0
 40
1.0
 10
206.8164889878864
 20
67.2762324200447
 30
0.0
 10
206.8367901703263
 20
67.26266731336547
 30
0.0
 10
206.877336755515
 20
67.23557437160262
 30
0.0
 10
206.9364863925026
 20
67.1903797985949
 30
0.0
 10
206.9942579374051
 20
67.14196865011196
 30
0.0
 10
207.0505076748647
 20
67.0899335353415
 30
0.0
 10
207.1054348836109
 20
67.03463556813249
 30
0.0
 10
207.1406555932014
 20
66.9950183129721
 30
0.0
 10
207.1583118051423
 20
66.97515810397118
 30
0.0
  0
SPLINE
  5
205
330
1F
100
AcDbEntity
  8
0
  6
Continuous
 62
     7
370
    25
100
AcDbSpline
210
0.0
220
0.0
230
1.0
 70
     8
 71
     3
 72
     8
 73
     4
 74
     0
 42
0.000000001
 43
0.00000001
 40
0.0
 40
0.0
 40
0.0
 40
0.0
 40
1.0
 40
1.0
 40
1.0
 40
1.0
 10
204.8725084720957
 20
68.53095427242417
 30
0.0
 10
205.5205385444959
 20
68.11295895653943
 30
0.0
 10
206.1685315215978
 20
67.69471819412179
 30
0.0
 10
206.8164889878864
 20
67.2762324200447
 30
0.0
  0
LWPOLYLINE
  5
206
330
1F
100
AcDbEntity
  8
0
  6
Continuous
 62
     7
370
    25
100
AcDbPolyline
 90
       18
 70
   128
 43
0.0
 10
204.8725091224
 20
68.5309543229
 10
205.2978775081
 20
69.7562030183
 10
205.8189179228
 20
70.9729901915
 10
206.4285753792
 20
72.1648410759
 10
207.1185956805
 20
73.3156182828
 10
207.8796360557
 20
74.4097404239
 10
208.7013916004
 20
75.4323931282
 10
209.5727368636
 20
76.3697309313
 10
210.4818735266
 20
77.2090621492
 10
211.41649224
 20
77.9390221536
 10
212.3639385942
 20
78.5497277401
 10
213.3113844206
 20
79.0329094787
 10
214.2460016524
 20
79.3820265304
 10
215.1551356812
 20
79.5923507541
 10
216.0264769931
 20
79.6610346109
 10
216.8482282572
 20
79.5871490664
 10
217.6092630348
 20
79.3716930823
 10
217.9222468489
 20
79.2327012881
  0
SPLINE
  5
207
330
1F
100
AcDbEntity
  8
0
  6
Continuous
 62
     7
370
    25
100
AcDbSpline
210
0.0
220
0.0
230
1.0
 70
    11
 71
     3
 72
    39
 73
    35
 74
     0
 42
0.000000001
 43
0.00000001
 40
0.0
 40
0.0
 40
0.0
 40
0.0
 40
0.0310664058347798
 40
0.0621048158425991
 40
0.0931361551792733
 40
0.1235538293503577
 40
0.1538561545807598
 40
0.1850588072749104
 40
0.2160250992947717
 40
0.247186722379756
 40
0.2784462884306427
 40
0.3100516090231226
 40
0.3419834369140484
 40
0.3734259894013217
 40
0.4048604886785525
 40
0.4368740651833295
 40
0.468512068592407
 40
0.4998055358633177
 40
0.5309508213228404
 40
0.561864978443814
 40
0.5930416446592908
 40
0.6233742450133256
 40
0.6540913579073041
 40
0.6849496782718417
 40
0.7158160645167227
 40
0.7471731804043494
 40
0.7784514311866261
 40
0.8101295911560916
 40
0.8419598919689909
 40
0.8735175891922292
 40
0.9050808037889628
 40
0.9370235169792575
 40
0.9687441590033682
 40
0.9999999999999999
 40
0.9999999999999999
 40
0.9999999999999999
 40
0.9999999999999999
 10
218.081093953301
 20
77.53614464776561
 30
0.0
 10
218.3439795734986
 20
77.5076101604754
 30
0.0
 10
218.8708681839817
 20
77.42166767215292
 30
0.0
 10
219.6348802530551
 20
77.22129255208273
 30
0.0
 10
220.3420304411066
 20
76.97429044586308
 30
0.0
 10
220.954941505701
 20
76.69630856771074
 30
0.0
 10
221.4520728313761
 20
76.40217487038086
 30
0.0
 10
221.8112645524482
 20
76.1006683421882
 30
0.0
 10
222.032983821209
 20
75.79367083728499
 30
0.0
 10
222.0982356985897
 20
75.48316557588275
 30
0.0
 10
222.0113884874753
 20
75.16402109113432
 30
0.0
 10
221.7690428997165
 20
74.83470112556148
 30
0.0
 10
221.3891050369903
 20
74.4957604040046
 30
0.0
 10
220.8752990838317
 20
74.15792193959419
 30
0.0
 10
220.249408272921
 20
73.8320240382852
 30
0.0
 10
219.5359372864326
 20
73.53537714504523
 30
0.0
 10
218.7720348101675
 20
73.27927383660658
 30
0.0
 10
217.9862417272636
 20
73.09024626861682
 30
0.0
 10
217.2047042722216
 20
72.98207034656168
 30
0.0
 10
216.4485912874678
 20
72.97440646319365
 30
0.0
 10
215.746226701077
 20
73.07232849858126
 30
0.0
 10
215.1272063540333
 20
73.2939769320827
 30
0.0
 10
214.6181490890206
 20
73.62984501899385
 30
0.0
 10
214.245205495587
 20
74.06965558517514
 30
0.0
 10
214.0166035443393
 20
74.5807302256977
 30
0.0
 10
213.9477572376196
 20
75.13191531346098
 30
0.0
 10
214.0323736508447
 20
75.68958724177244
 30
0.0
 10
214.2754824407803
 20
76.21966738269221
 30
0.0
 10
214.657612283597
 20
76.69219173180521
 30
0.0
 10
215.1737478580106
 20
77.07831324269893
 30
0.0
 10
215.8007257185118
 20
77.36193743003123
 30
0.0
 10
216.5166331508782
 20
77.53167464875766
 30
0.0
 10
217.2850765430616
 20
77.59321348346819
 30
0.0
 10
217.8166053224342
 20
77.56485313121256
 30
0.0
 10
218.081093953301
 20
77.53614464776561
 30
0.0
  0
LINE
  5
208
330
1F
100
AcDbEntity
  8
0
  6
Continuous
 62
     7
370
    25
100
AcDbLine
 10
208.8564393193
 20
61.0971359131
 30
0.0
 11
209.1677645891
 21
60.9304499501
 31
0.0
  0
LINE
  5
209
330
1F
100
AcDbEntity
  8
0
  6
Continuous
 62
     7
370
    25
100
AcDbLine
 10
207.8695972032
 20
61.6668277405
 30
0.0
 11
208.8564393193
 21
61.0971359131
 31
0.0
  0
ARC
  5
20A
330
1F
100
AcDbEntity
  8
0
  6
Continuous
 62
     7
370
    25
100
AcDbCircle
 10
210.0775387828
 20
65.3614743516
 30
0.0
 40
4.584914333882671
100
AcDbArc
 50
267.8978691887
 51
286.7728271903
  0
SPLINE
  5
20B
330
1F
100
AcDbEntity
  8
0
  6
Continuous
 62
     7
370
    25
100
AcDbSpline
210
0.0
220
0.0
230
1.0
 70
     8
 71
     3
 72
    13
 73
     9
 74
     0
 42
0.000000001
 43
0.00000001
 40
0.0
 40
0.0
 40
0.0
 40
0.0
 40
0.2512101538376236
 40
0.3783067624295602
 40
0.5053129060033886
 40
0.7241877491152423
 40
0.932071107513572
 40
1.0
 40
1.0
 40
1.0
 40
1.0
 10
219.4195999116004
 20
74.53364893242988
 30
0.0
 10
219.0691527155866
 20
74.72075364745483
 30
0.0
 10
218.5414011812589
 20
75.00252163292467
 30
0.0
 10
217.6881626074232
 20
75.31766608909186
 30
0.0
 10
216.8540040646252
 20
75.55163625077633
 30
0.0
 10
215.8532404490853
 20
75.66770437509119
 30
0.0
 10
215.0083653968185
 20
75.57504626758507
 30
0.0
 10
214.6276592477022
 20
75.3971111551908
 30
0.0
 10
214.5338963818785
 20
75.35328810135391
 30
0.0
  0
SPLINE
  5
20C
330
1F
100
AcDbEntity
  8
0
  6
Continuous
 62
     7
370
    25
100
AcDbSpline
210
0.0
220
0.0
230
1.0
 70
     8
 71
     3
 72
    10
 73
     6
 74
     0
 42
0.000000001
 43
0.00000001
 40
0.0
 40
0.0
 40
0.0
 40
0.0
 40
0.3798174073072795
 40
0.9603711649033085
 40
1.0
 40
1.0
 40
1.0
 40
1.0
 10
220.5594800334599
 20
74.0054220049114
 30
0.0
 10
220.4298274162115
 20
74.07575056674875
 30
0.0
 10
220.101999800457
 20
74.25357686316988
 30
0.0
 10
219.6940712554469
 20
74.42662971357228
 30
0.0
 10
219.437438474015
 20
74.5258351458206
 30
0.0
 10
219.4210399838032
 20
74.53217423976096
 30
0.0
  0
SPLINE
  5
20D
330
1F
100
AcDbEntity
  8
0
  6
Continuous
 62
     7
370
    25
100
AcDbSpline
210
0.0
220
0.0
230
1.0
 70
     8
 71
     3
 72
    24
 73
    20
 74
     0
 42
0.000000001
 43
0.00000001
 40
0.0
 40
0.0
 40
0.0
 40
0.0
 40
0.0607460092532424
 40
0.1128932798339032
 40
0.1564476328185194
 40
0.2383393992347596
 40
0.3124688228638579
 40
0.3863059028337471
 40
0.4127398499011493
 40
0.4400822301026635
 40
0.4683409228689005
 40
0.5351131576891588
 40
0.6246273370712522
 40
0.6840431940750316
 40
0.736048767249659
 40
0.7813099658101916
 40
0.8609631877916484
 40
0.9367241325532387
 40
1.0
 40
1.0
 40
1.0
 40
1.0
 10
218.0262153862987
 20
76.96228674780883
 30
0.0
 10
217.8422585969612
 20
76.98118131277315
 30
0.0
 10
217.5003845289964
 20
77.01629587315463
 30
0.0
 10
217.0361665560355
 20
77.0098053247866
 30
0.0
 10
216.5267049436999
 20
76.96208113191341
 30
0.0
 10
215.9876098447444
 20
76.83746453425404
 30
0.0
 10
215.4447718584458
 20
76.59497424840372
 30
0.0
 10
215.104378847431
 20
76.33760150320339
 30
0.0
 10
214.8977521316166
 20
76.12279439390853
 30
0.0
 10
214.7797680955986
 20
75.97629106706347
 30
0.0
 10
214.6275975761127
 20
75.7465401032208
 30
0.0
 10
214.4609181429726
 20
75.37359886758288
 30
0.0
 10
214.3925507290937
 20
74.91103275106725
 30
0.0
 10
214.4429214515201
 20
74.48271853130514
 30
0.0
 10
214.5483076269905
 20
74.16273960328928
 30
0.0
 10
214.730676584155
 20
73.82247951087875
 30
0.0
 10
215.0304721415704
 20
73.48521989954936
 30
0.0
 10
215.4599926392247
 20
73.19189070289974
 30
0.0
 10
215.7993787804666
 20
73.08569505772769
 30
0.0
 10
215.9538339362299
 20
73.03736525599676
 30
0.0
  0
SPLINE
  5
20E
330
1F
100
AcDbEntity
  8
0
  6
Continuous
 62
     7
370
    25
100
AcDbSpline
210
0.0
220
0.0
230
1.0
 70
     8
 71
     3
 72
    21
 73
    17
 74
     0
 42
0.000000001
 43
0.00000001
 40
0.0
 40
0.0
 40
0.0
 40
0.0
 40
0.0240938124169412
 40
0.0823740429386728
 40
0.1475345386488192
 40
0.2196148314375621
 40
0.3001763937590171
 40
0.3654019067604728
 40
0.4152877423304317
 40
0.5183492709713081
 40
0.610224480863263
 40
0.7034701533808928
 40
0.7531732670426083
 40
0.8049727738901493
 40
0.8939714626009788
 40
1.0
 40
1.0
 40
1.0
 40
1.0
 10
221.3243463053022
 20
74.47845300410893
 30
0.0
 10
221.349865571962
 20
74.50248404326419
 30
0.0
 10
221.4371130831164
 20
74.58464347146014
 30
0.0
 10
221.5457652207627
 20
74.72895263709536
 30
0.0
 10
221.6428534520589
 20
74.91776781795656
 30
0.0
 10
221.676877169105
 20
75.12097836804607
 30
0.0
 10
221.6330659114047
 20
75.32120657943184
 30
0.0
 10
221.5264655221354
 20
75.50000098064173
 30
0.0
 10
221.3500608179578
 20
75.69642875985102
 30
0.0
 10
221.0661516127709
 20
75.91928572846867
 30
0.0
 10
220.6145688979713
 20
76.1747181252923
 30
0.0
 10
220.1670092401218
 20
76.38135752565216
 30
0.0
 10
219.7581150496004
 20
76.53986135960878
 30
0.0
 10
219.3360355553852
 20
76.68237820338129
 30
0.0
 10
218.7577228902421
 20
76.84563472888517
 30
0.0
 10
218.2838443047275
 20
76.92120318638831
 30
0.0
 10
218.0262153862987
 20
76.96228674780883
 30
0.0
  0
LINE
  5
20F
330
1F
100
AcDbEntity
  8
0
  6
Continuous
 62
     7
370
    25
100
AcDbLine
 10
211.5166456644
 20
61.7151155597
 30
0.0
 11
211.5114076014
 21
62.0111989826
 31
0.0
  0
LINE
  5
210
330
1F
100
AcDbEntity
  8
0
  6
Continuous
 62
     7
370
    25
100
AcDbLine
 10
211.5114076014
 20
62.0111989826
 30
0.0
 11
211.5545086809
 21
62.6628770288
 31
0.0
  0
LINE
  5
211
330
1F
100
AcDbEntity
  8
0
  6
Continuous
 62
     7
370
    25
100
AcDbLine
 10
211.1243230421
 20
64.3943216861
 30
0.0
 11
210.7204442808
 21
64.8204837696
 31
0.0
  0
SPLINE
  5
212
330
1F
100
AcDbEntity
  8
0
  6
Continuous
 62
     7
370
    25
100
AcDbSpline
210
0.0
220
0.0
230
1.0
 70
     8
 71
     3
 72
    18
 73
    14
 74
     0
 42
0.000000001
 43
0.00000001
 40
0.0
 40
0.0
 40
0.0
 40
0.0
 40
0.0707943140208255
 40
0.1980684859852275
 40
0.3219456980797736
 40
0.4427972789066824
 40
0.5640588087926915
 40
0.6887793780430184
 40
0.7629730969043459
 40
0.811666558538083
 40
0.8526846007253863
 40
0.9053445042636868
 40
1.0
 40
1.0
 40
1.0
 40
1.0
 10
214.4463295745954
 20
74.70363796011343
 30
0.0
 10
214.4444528640273
 20
74.88132811806413
 30
0.0
 10
214.4392021991113
 20
75.37847002905741
 30
0.0
 10
214.8165330721438
 20
76.06146284261858
 30
0.0
 10
215.5505315640478
 20
76.64763646047072
 30
0.0
 10
216.5385337226092
 20
76.94465232527118
 30
0.0
 10
217.6576594979726
 20
76.93711442885767
 30
0.0
 10
218.641115549083
 20
76.65506434343752
 30
0.0
 10
219.318135747351
 20
76.25031618549887
 30
0.0
 10
219.6828353121068
 20
75.87493103069949
 30
0.0
 10
219.8767165302111
 20
75.48303812194136
 30
0.0
 10
219.9386511214559
 20
74.96898752117275
 30
0.0
 10
219.871883144649
 20
74.61549378048244
 30
0.0
 10
219.8289822939904
 20
74.38836121029979
 30
0.0
  0
SPLINE
  5
213
330
1F
100
AcDbEntity
  8
0
  6
Continuous
 62
     7
370
    25
100
AcDbSpline
210
0.0
220
0.0
230
1.0
 70
     8
 71
     3
 72
    10
 73
     6
 74
     0
 42
0.000000001
 43
0.00000001
 40
0.0
 40
0.0
 40
0.0
 40
0.0
 40
0.2701318377278982
 40
0.8973734477379214
 40
1.0
 40
1.0
 40
1.0
 40
1.0
 10
219.8317101499786
 20
74.3871226568774
 30
0.0
 10
219.914660554914
 20
74.34834222784887
 30
0.0
 10
220.1902204129976
 20
74.21951429110956
 30
0.0
 10
220.4864694259908
 20
74.06572734858983
 30
0.0
 10
220.6526115710809
 20
73.95959488380623
 30
0.0
 10
220.6759727702911
 20
73.94467162847488
 30
0.0
  0
ARC
  5
214
330
1F
100
AcDbEntity
  8
0
  6
Continuous
 62
     7
370
    25
100
AcDbCircle
 10
223.8418187153
 20
60.1739036645
 30
0.0
 40
12.46654291791657
100
AcDbArc
 50
171.5249863735
 51
179.8211981812
  0
SPLINE
  5
215
330
1F
100
AcDbEntity
  8
0
  6
Continuous
 62
     7
370
    25
100
AcDbSpline
210
0.0
220
0.0
230
1.0
 70
     8
 71
     3
 72
    14
 73
    10
 74
     0
 42
0.000000001
 43
0.00000001
 40
0.0
 40
0.0
 40
0.0
 40
0.0
 40
0.0003951393068452
 40
0.0003951393068452
 40
0.0003951393068452
 40
0.0008163352168296
 40
0.0008163352168296
 40
0.0008163352168296
 40
0.0012378579336484
 40
0.0012378579336484
 40
0.0012378579336484
 40
0.0012378579336484
 10
219.4236324871403
 20
74.53236997904544
 30
0.0
 10
219.4690943013702
 20
74.51793311642109
 30
0.0
 10
219.5139819059899
 20
74.50306725585618
 30
0.0
 10
219.5582655986637
 20
74.48778346825138
 30
0.0
 10
219.6054688908976
 20
74.47149202891588
 30
0.0
 10
219.6519947039513
 20
74.4547225508342
 30
0.0
 10
219.6978056131877
 20
74.43749374004125
 30
0.0
 10
219.7436520011716
 20
74.42025158621195
 30
0.0
 10
219.7887912367389
 20
74.40254588000987
 30
0.0
 10
219.8331847947763
 20
74.38440302332158
 30
0.0
  0
LINE
  5
216
330
1F
100
AcDbEntity
  8
0
  6
Continuous
 62
     7
370
    25
100
AcDbLine
 10
210.7204442808
 20
64.8204837696
 30
0.0
 11
210.0805076065
 21
65.2327154097
 31
0.0
  0
LINE
  5
217
330
1F
100
AcDbEntity
  8
0
  6
Continuous
 62
     7
370
    25
100
AcDbLine
 10
209.7745735113
 20
65.6041937965
 30
0.0
 11
210.0805076065
 21
65.2327154097
 31
0.0
  0
SPLINE
  5
218
330
1F
100
AcDbEntity
  8
0
  6
Continuous
 62
     7
370
    25
100
AcDbSpline
210
0.0
220
0.0
230
1.0
 70
     8
 71
     3
 72
    13
 73
     9
 74
     0
 42
0.000000001
 43
0.00000001
 40
0.0
 40
0.0
 40
0.0
 40
0.0
 40
0.1618542299052077
 40
0.3254858841874489
 40
0.4910085196967187
 40
0.6585318473110602
 40
0.828161695440384
 40
1.0
 40
1.0
 40
1.0
 40
1.0
 10
210.0805080181185
 20
65.23271541361564
 30
0.0
 10
210.0609306260986
 20
65.24527839065034
 30
0.0
 10
210.0215608502491
 20
65.2705423067714
 30
0.0
 10
209.9600249104745
 20
65.30323600368823
 30
0.0
 10
209.8964682512238
 20
65.33218207739517
 30
0.0
 10
209.8308501485686
 20
65.35669444485939
 30
0.0
 10
209.7634228795181
 20
65.37712950821056
 30
0.0
 10
209.7175382793232
 20
65.38672616319887
 30
0.0
 10
209.6944475991505
 20
65.39155552403282
 30
0.0
  0
SPLINE
  5
219
330
1F
100
AcDbEntity
  8
0
  6
Continuous
 62
     7
370
    25
100
AcDbSpline
210
0.0
220
0.0
230
1.0
 70
     8
 71
     3
 72
     9
 73
     5
 74
     0
 42
0.000000001
 43
0.00000001
 40
0.0
 40
0.0
 40
0.0
 40
0.0
 40
0.4907282259505859
 40
1.0
 40
1.0
 40
1.0
 40
1.0
 10
209.6944417718586
 20
65.39152752700181
 30
0.0
 10
209.6703482493808
 20
65.39962305921993
 30
0.0
 10
209.6212507628215
 20
65.41612003614122
 30
0.0
 10
209.5705500690014
 20
65.43091370515745
 30
0.0
 10
209.544729636714
 20
65.43844770322205
 30
0.0
  0
SPLINE
  5
21A
330
1F
100
AcDbEntity
  8
0
  6
Continuous
 62
     7
370
    25
100
AcDbSpline
210
0.0
220
0.0
230
1.0
 70
     8
 71
     3
 72
    14
 73
    10
 74
     0
 42
0.000000001
 43
0.00000001
 40
0.0
 40
0.0
 40
0.0
 40
0.0
 40
0.0310276388063898
 40
0.0622853718665477
 40
0.1248003166898006
 40
0.2498289731748368
 40
0.4998892603607338
 40
0.7606803622944698
 40
1.0
 40
1.0
 40
1.0
 40
1.0
 10
208.9607889474256
 20
65.81255544586787
 30
0.0
 10
208.96678118683
 20
65.80872440221435
 30
0.0
 10
208.9788101027891
 20
65.80103390471679
 30
0.0
 10
209.0028699108381
 20
65.78559601521017
 30
0.0
 10
209.0451035834844
 20
65.75852556227932
 30
0.0
 10
209.1296661579968
 20
65.70431353748393
 30
0.0
 10
209.2529531274903
 20
65.62531035560167
 30
0.0
 10
209.3990848339503
 20
65.53170418092608
 30
0.0
 10
209.4974514504881
 20
65.4687211045324
 30
0.0
 10
209.5445231511462
 20
65.4385816057586
 30
0.0
  0
LINE
  5
21B
330
1F
100
AcDbEntity
  8
0
  6
Continuous
 62
     7
370
    25
100
AcDbLine
 10
207.1582887922
 20
66.9751861229
 30
0.0
 11
207.4492561463
 21
66.7871075837
 31
0.0
  0
SPLINE
  5
21C
330
1F
100
AcDbEntity
  8
0
  6
Continuous
 62
     7
370
    25
100
AcDbSpline
210
0.0
220
0.0
230
1.0
 70
     8
 71
     3
 72
     8
 73
     4
 74
     0
 42
0.000000001
 43
0.00000001
 40
0.0
 40
0.0
 40
0.0
 40
0.0
 40
1.0
 40
1.0
 40
1.0
 40
1.0
 10
207.480644449721
 20
66.76688505355673
 30
0.0
 10
207.4702019438691
 20
66.77371047845413
 30
0.0
 10
207.4597360109794
 20
66.78045344524065
 30
0.0
 10
207.4492482461629
 20
66.78711253289363
 30
0.0
  0
SPLINE
  5
21D
330
1F
100
AcDbEntity
  8
0
  6
Continuous
 62
     7
370
    25
100
AcDbSpline
210
0.0
220
0.0
230
1.0
 70
     8
 71
     3
 72
     8
 73
     4
 74
     0
 42
0.000000001
 43
0.00000001
 40
0.0
 40
0.0
 40
0.0
 40
0.0
 40
1.0
 40
1.0
 40
1.0
 40
1.0
 10
204.6946400708949
 20
68.64514070536725
 30
0.0
 10
204.7536398350656
 20
68.6064000384478
 30
0.0
 10
204.8129273985769
 20
68.56833806114803
 30
0.0
 10
204.8725084720661
 20
68.53095427268727
 30
0.0
  0
SPLINE
  5
21E
330
1F
100
AcDbEntity
  8
0
  6
Continuous
 62
     7
370
    25
100
AcDbSpline
210
0.0
220
0.0
230
1.0
 70
     8
 71
     3
 72
     8
 73
     4
 74
     0
 42
0.000000001
 43
0.00000001
 40
0.0
 40
0.0
 40
0.0
 40
0.0
 40
1.0
 40
1.0
 40
1.0
 40
1.0
 10
204.6697903247976
 20
69.00835088330413
 30
0.0
 10
204.6772645368881
 20
68.88739304259302
 30
0.0
 10
204.6855606407781
 20
68.76632120018309
 30
0.0
 10
204.694640070897
 20
68.64514070536798
 30
0.0
  0
LWPOLYLINE
  5
21F
330
1F
100
AcDbEntity
  8
0
  6
Continuous
 62
     7
370
    25
100
AcDbPolyline
 90
       15
 70
   128
 43
0.0
 10
204.6697906836
 20
69.0083502179
 10
205.0852420475
 20
70.1726015944
 10
205.58977341
 20
71.3271471895
 10
206.1767255689
 20
72.4567479517
 10
206.8383507481
 20
73.5464923108
 10
207.5659146717
 20
74.5819950298
 10
208.3498134561
 20
75.549587119
 10
209.1796993913
 20
76.4364964343
 10
210.0446175893
 20
77.2310147764
 10
210.9331506172
 20
77.9226543895
 10
211.8335695503
 20
78.5022853538
 10
212.7339884834
 20
78.9622559611
 10
213.6225215113
 20
79.2964947456
 10
214.4874397094
 20
79.5005896989
 10
214.6337531526
 20
79.5224579093
  0
SPLINE
  5
220
330
1F
100
AcDbEntity
  8
0
  6
Continuous
 62
     7
370
    25
100
AcDbSpline
210
0.0
220
0.0
230
1.0
 70
     8
 71
     3
 72
    10
 73
     6
 74
     0
 42
0.000000001
 43
0.00000001
 40
0.0
 40
0.0
 40
0.0
 40
0.0
 40
0.2409818396634726
 40
0.5031433556203718
 40
1.0
 40
1.0
 40
1.0
 40
1.0
 10
210.7204442808363
 20
58.11464214635031
 30
0.0
 10
210.8026901518392
 20
58.06296562442976
 30
0.0
 10
210.9744104091837
 20
57.95507077773838
 30
0.0
 10
211.2521317682106
 20
57.82534806727413
 30
0.0
 10
211.3731090152547
 20
57.84812600837913
 30
0.0
 10
211.4523012561702
 20
57.86303654935786
 30
0.0
  0
LINE
  5
221
330
1F
100
AcDbEntity
  8
0
  6
Continuous
 62
     7
370
    25
100
AcDbLine
 10
205.9372702247
 20
67.8437148793
 30
0.0
 11
205.1753915223
 21
68.334349287
 31
0.0
  0
LINE
  5
222
330
1F
100
AcDbEntity
  8
0
  6
Continuous
 62
     7
370
    25
100
AcDbLine
 10
205.1753915223
 20
68.334349287
 30
0.0
 11
204.6946402021
 21
68.645140663
 31
0.0
  0
LINE
  5
223
330
1F
100
AcDbEntity
  8
0
  6
Continuous
 62
     7
370
    25
100
AcDbLine
 10
209.7745735113
 20
57.8388623454
 30
0.0
 11
210.0805076065
 21
58.5268737865
 31
0.0
  0
LINE
  5
224
330
1F
100
AcDbEntity
  8
0
  6
Continuous
 62
     7
370
    25
100
AcDbLine
 10
210.0805076065
 20
58.5268737865
 30
0.0
 11
210.7204442808
 21
58.1146421464
 31
0.0
  0
SPLINE
  5
225
330
1F
100
AcDbEntity
  8
0
  6
Continuous
 62
     7
370
    25
100
AcDbSpline
210
0.0
220
0.0
230
1.0
 70
     8
 71
     3
 72
    13
 73
     9
 74
     0
 42
0.000000001
 43
0.00000001
 40
0.0
 40
0.0
 40
0.0
 40
0.0
 40
0.1722587823584898
 40
0.3421398271275632
 40
0.5097456257942847
 40
0.675182899330312
 40
0.838562619015417
 40
1.0
 40
1.0
 40
1.0
 40
1.0
 10
209.6944360873452
 20
58.80818349186893
 30
0.0
 10
209.7175876112981
 20
58.79006390093379
 30
0.0
 10
209.7635710920501
 20
58.75407482899627
 30
0.0
 10
209.8311121047651
 20
58.70307484557798
 30
0.0
 10
209.8967717194517
 20
58.65475016538679
 30
0.0
 10
209.9602957907009
 20
58.60931915947913
 30
0.0
 10
210.0217261694189
 20
58.56649359172242
 30
0.0
 10
210.060992336389
 20
58.54002777454946
 30
0.0
 10
210.0805080181185
 20
58.52687399600391
 30
0.0
  0
SPLINE
  5
226
330
1F
100
AcDbEntity
  8
0
  6
Continuous
 62
     7
370
    25
100
AcDbSpline
210
0.0
220
0.0
230
1.0
 70
     8
 71
     3
 72
    11
 73
     7
 74
     0
 42
0.000000001
 43
0.00000001
 40
0.0
 40
0.0
 40
0.0
 40
0.0
 40
0.2392845095215635
 40
0.5001120454085677
 40
0.751501091501476
 40
1.0
 40
1.0
 40
1.0
 40
1.0
 10
209.5450556758691
 20
58.85549748408181
 30
0.0
 10
209.4979864438494
 20
58.82718296136151
 30
0.0
 10
209.3996102892532
 20
58.76800473080773
 30
0.0
 10
209.2533130676713
 20
58.67481683034504
 30
0.0
 10
209.1054723240476
 20
58.57944491437238
 30
0.0
 10
209.0091858613252
 20
58.51490965911533
 30
0.0
 10
208.9613209734641
 20
58.48282858906003
 30
0.0
  0
SPLINE
  5
227
330
1F
100
AcDbEntity
  8
0
  6
Continuous
 62
     7
370
    25
100
AcDbSpline
210
0.0
220
0.0
230
1.0
 70
     8
 71
     3
 72
     9
 73
     5
 74
     0
 42
0.000000001
 43
0.00000001
 40
0.0
 40
0.0
 40
0.0
 40
0.0
 40
0.5090669353869889
 40
1.0
 40
1.0
 40
1.0
 40
1.0
 10
209.5456266794532
 20
58.85479852987004
 30
0.0
 10
209.5712752540772
 20
58.84730582171015
 30
0.0
 10
209.6216587554227
 20
58.83258730899789
 30
0.0
 10
209.6704662669181
 20
58.81619495114572
 30
0.0
 10
209.6944274881126
 20
58.80814740066913
 30
0.0
  0
LINE
  5
228
330
1F
100
AcDbEntity
  8
0
  6
Continuous
 62
     7
370
    25
100
AcDbLine
 10
211.3755452596
 20
59.7786770971
 30
0.0
 11
209.6944293032
 21
58.8081895129
 31
0.0
  0
LINE
  5
229
330
1F
100
AcDbEntity
  8
0
  6
Continuous
 62
     7
370
    25
100
AcDbLine
 10
207.687941652
 20
59.9320108116
 30
0.0
 11
207.4876459984
 21
59.4308533973
 31
0.0
  0
SPLINE
  5
22A
330
1F
100
AcDbEntity
  8
0
  6
Continuous
 62
     7
370
    25
100
AcDbSpline
210
0.0
220
0.0
230
1.0
 70
     8
 71
     3
 72
     8
 73
     4
 74
     0
 42
0.000000001
 43
0.00000001
 40
0.0
 40
0.0
 40
0.0
 40
0.0
 40
1.0
 40
1.0
 40
1.0
 40
1.0
 10
207.6874984813131
 20
59.93279456373137
 30
0.0
 10
207.7136738158823
 20
59.95496194070964
 30
0.0
 10
207.7394948558478
 20
59.97759408180126
 30
0.0
 10
207.7649524095562
 20
60.00067880189254
 30
0.0
  0
LINE
  5
22B
330
1F
100
AcDbEntity
  8
0
  6
Continuous
 62
     7
370
    25
100
AcDbLine
 10
207.7649525053
 20
60.0006786863
 30
0.0
 11
209.5452452646
 21
58.8549078011
 31
0.0
  0
LINE
  5
22C
330
1F
100
AcDbEntity
  8
0
  6
Continuous
 62
     7
370
    25
100
AcDbLine
 10
211.375336501
 20
59.8767270323
 30
0.0
 11
211.287337174
 21
59.9842181007
 31
0.0
  0
LINE
  5
22D
330
1F
100
AcDbEntity
  8
0
  6
Continuous
 62
     7
370
    25
100
AcDbLine
 10
209.4590654961
 20
60.9786692987
 30
0.0
 11
207.7649525053
 21
60.0006786863
 31
0.0
  0
LINE
  5
22E
330
1F
100
AcDbEntity
  8
0
  6
Continuous
 62
     7
370
    25
100
AcDbLine
 10
209.6013763057
 20
60.9574410055
 30
0.0
 11
209.4594856475
 21
60.9781819212
 31
0.0
  0
LINE
  5
22F
330
1F
100
AcDbEntity
  8
0
  6
Continuous
 62
     7
370
    25
100
AcDbLine
 10
211.287410931
 20
59.9841139342
 30
0.0
 11
209.6013763057
 21
60.9574410055
 31
0.0
  0
LINE
  5
230
330
1F
100
AcDbEntity
  8
0
  6
Continuous
 62
     7
370
    25
100
AcDbLine
 10
211.4372377091
 20
59.8976110246
 30
0.0
 11
211.2873641743
 21
59.9841409076
 31
0.0
  0
SPLINE
  5
231
330
1F
100
AcDbEntity
  8
0
  6
Continuous
 62
     7
370
    25
100
AcDbSpline
210
0.0
220
0.0
230
1.0
 70
     8
 71
     3
 72
    19
 73
    15
 74
     0
 42
0.000000001
 43
0.00000001
 40
0.0
 40
0.0
 40
0.0
 40
0.0
 40
0.0637853009096226
 40
0.1289628367612685
 40
0.1955871994238738
 40
0.2637095015333396
 40
0.333377557928126
 40
0.4046360709483682
 40
0.4775268158796784
 40
0.5520888236292854
 40
0.6283585584260098
 40
0.7063700889343436
 40
0.837704180588121
 40
1.0
 40
1.0
 40
1.0
 40
1.0
 10
206.9034293753517
 20
60.10128265108325
 30
0.0
 10
206.9241187443558
 20
60.08792351107358
 30
0.0
 10
206.9659490670088
 20
60.0609136425338
 30
0.0
 10
207.026440040601
 20
60.02339167700835
 30
0.0
 10
207.0859242387787
 20
59.98787193591814
 30
0.0
 10
207.1440053982493
 20
59.95489180700157
 30
0.0
 10
207.2005375153364
 20
59.92468537073078
 30
0.0
 10
207.2552825700906
 20
59.89757193076856
 30
0.0
 10
207.308004947684
 20
59.87384031301777
 30
0.0
 10
207.3584465806167
 20
59.85380005957234
 30
0.0
 10
207.4063294990845
 20
59.83768019803352
 30
0.0
 10
207.4612936534603
 20
59.82340222835096
 30
0.0
 10
207.5241249674233
 20
59.81326367109877
 30
0.0
 10
207.5626324830822
 20
59.81973792241317
 30
0.0
 10
207.5839164482773
 20
59.82331638592301
 30
0.0
  0
LINE
  5
232
330
1F
100
AcDbEntity
  8
0
  6
Continuous
 62
     7
370
    25
100
AcDbLine
 10
207.6085521359
 20
59.8493868402
 30
0.0
 11
207.6873562059
 21
59.9327784439
 31
0.0
  0
SPLINE
  5
233
330
1F
100
AcDbEntity
  8
0
  6
Continuous
 62
     7
370
    25
100
AcDbSpline
210
0.0
220
0.0
230
1.0
 70
     8
 71
     3
 72
     9
 73
     5
 74
     0
 42
0.000000001
 43
0.00000001
 40
0.0
 40
0.0
 40
0.0
 40
0.0
 40
0.5231976711515671
 40
0.9999999999999999
 40
0.9999999999999999
 40
0.9999999999999999
 40
0.9999999999999999
 10
209.2928159350279
 20
60.88269563944206
 30
0.0
 10
209.2237811435031
 20
60.90773233435876
 30
0.0
 10
209.0918333246741
 20
60.95558555752312
 30
0.0
 10
208.8503943543042
 20
61.09318007491007
 30
0.0
 10
208.7352756909571
 20
61.15878546123695
 30
0.0
  0
LINE
  5
234
330
1F
100
AcDbEntity
  8
0
  6
Continuous
 62
     7
370
    25
100
AcDbLine
 10
205.0057451887
 20
60.9246581063
 30
0.0
 11
205.4572163031
 21
61.0369220792
 31
0.0
  0
LINE
  5
235
330
1F
100
AcDbEntity
  8
0
  6
Continuous
 62
     7
370
    25
100
AcDbLine
 10
205.4572163031
 20
61.0369220792
 30
0.0
 11
206.9034287749
 21
60.1012827462
 31
0.0
  0
SPLINE
  5
236
330
1F
100
AcDbEntity
  8
0
  6
Continuous
 62
     7
370
    25
100
AcDbSpline
210
0.0
220
0.0
230
1.0
 70
     8
 71
     3
 72
     8
 73
     4
 74
     0
 42
0.000000001
 43
0.00000001
 40
0.0
 40
0.0
 40
0.0
 40
0.0
 40
1.0
 40
1.0
 40
1.0
 40
1.0
 10
205.1765337593685
 20
60.52990845329992
 30
0.0
 10
205.1194084904452
 20
60.66169463709386
 30
0.0
 10
205.0624799987283
 20
60.79327885875295
 30
0.0
 10
205.0057458807796
 20
60.9246579256526
 30
0.0
  0
LINE
  5
237
330
1F
100
AcDbEntity
  8
0
  6
Continuous
 62
     7
370
    25
100
AcDbLine
 10
206.7949177621
 20
61.8091606939
 30
0.0
 11
205.4572163031
 21
61.0369220792
 31
0.0
  0
LINE
  5
238
330
1F
100
AcDbEntity
  8
0
  6
Continuous
 62
     7
370
    25
100
AcDbLine
 10
207.7780160527
 20
61.711400448
 30
0.0
 11
206.7949177621
 21
61.8091606939
 31
0.0
  0
LINE
  5
239
330
1F
100
AcDbEntity
  8
0
  6
Continuous
 62
     7
370
    25
100
AcDbLine
 10
208.735275691
 20
61.1587854612
 30
0.0
 11
207.7780153942
 21
61.7114000678
 31
0.0
  0
SPLINE
  5
23A
330
1F
100
AcDbEntity
  8
0
  6
Continuous
 62
     7
370
    25
100
AcDbSpline
210
0.0
220
0.0
230
1.0
 70
     8
 71
     3
 72
     8
 73
     4
 74
     0
 42
0.000000001
 43
0.00000001
 40
0.0
 40
0.0
 40
0.0
 40
0.0
 40
1.0
 40
1.0
 40
1.0
 40
1.0
 10
205.0057458807796
 20
60.9246579256526
 30
0.0
 10
205.0026085430295
 20
60.95987423252512
 30
0.0
 10
205.0006161391316
 20
60.99551848875282
 30
0.0
 10
204.9998347417595
 20
61.0316153907477
 30
0.0
  0
LINE
  5
23B
330
1F
100
AcDbEntity
  8
0
  6
Continuous
 62
     7
370
    25
100
AcDbLine
 10
205.8109212168
 20
61.4998451054
 30
0.0
 11
204.9998354103
 21
61.0316152359
 31
0.0
  0
SPLINE
  5
23C
330
1F
100
AcDbEntity
  8
0
  6
Continuous
 62
     7
370
    25
100
AcDbSpline
210
0.0
220
0.0
230
1.0
 70
     8
 71
     3
 72
     8
 73
     4
 74
     0
 42
0.000000001
 43
0.00000001
 40
0.0000004089325119
 40
0.0000004089325119
 40
0.0000004089325119
 40
0.0000004089325119
 40
0.0015399868451459
 40
0.0015399868451459
 40
0.0015399868451459
 40
0.0015399868451459
 10
205.8109202742483
 20
61.49984510210382
 30
0.0
 10
206.0493968422715
 20
61.59422148792017
 30
0.0
 10
206.2878437999402
 20
61.68865009985038
 30
0.0
 10
206.5262525387905
 20
61.78314348281284
 30
0.0
  0
LINE
  5
23D
330
1F
100
AcDbEntity
  8
0
  6
Continuous
 62
     7
370
    25
100
AcDbLine
 10
206.5262520177
 20
61.7831436299
 30
0.0
 11
206.5506484576
 21
61.7881376564
 31
0.0
  0
LINE
  5
23E
330
1F
100
AcDbEntity
  8
0
  6
Continuous
 62
     7
370
    25
100
AcDbLine
 10
206.7949177621
 20
61.8091606939
 30
0.0
 11
206.5506491161
 21
61.7881376563
 31
0.0
  0
SPLINE
  5
23F
330
1F
100
AcDbEntity
  8
0
  6
Continuous
 62
     7
370
    25
100
AcDbSpline
210
0.0
220
0.0
230
1.0
 70
     8
 71
     3
 72
     8
 73
     4
 74
     0
 42
0.000000001
 43
0.00000001
 40
0.0
 40
0.0
 40
0.0
 40
0.0
 40
1.0
 40
1.0
 40
1.0
 40
1.0
 10
207.7780139964263
 20
61.71140081278455
 30
0.0
 10
207.8085986629246
 20
61.69648001157678
 30
0.0
 10
207.8391269039236
 20
61.68162214613881
 30
0.0
 10
207.8695976921346
 20
61.66682755901057
 30
0.0
  0
LWPOLYLINE
  5
240
330
1F
100
AcDbEntity
  8
0
  6
Continuous
 62
     7
370
    25
100
AcDbPolyline
 90
        3
 70
   128
 43
0.0
 10
211.4177175855
 20
61.1998574047
 10
210.7909108481
 20
60.9469192703
 10
210.2063332361
 20
60.7758527671
  0
LWPOLYLINE
  5
241
330
1F
100
AcDbEntity
  8
0
  6
Continuous
 62
     7
370
    18
100
AcDbPolyline
 90
       22
 70
   128
 43
0.0
 10
261.7613841823
 20
33.5841372569
 10
261.3935106834
 20
33.4029142097
 10
261.0499308915
 20
33.3595458811
 10
260.7611736127
 20
33.4578859038
 10
260.5528957411
 20
33.6891959104
 10
260.4436036946
 20
34.03292313
 10
260.4430083704
 20
34.4585257249
 10
260.5511631105
 20
34.9281873203
 10
260.7584584337
 20
35.4001767293
 10
261.0464735328
 20
35.8325546074
 10
261.3896190147
 20
36.1869035346
 10
261.7574032808
 20
36.4317369345
 10
262.1171480355
 20
36.5453010302
 10
262.4368878577
 20
36.5175048168
 10
262.6882128081
 20
36.350818282
 10
262.8487913131
 20
36.0600520151
 10
262.9043553474
 20
35.6710420432
 10
262.8499678029
 20
35.2183535633
 10
262.6904614083
 20
34.7422100617
 10
262.4400090294
 20
34.2849189366
 10
262.1208638729
 20
33.8871122461
 10
261.7613841823
 20
33.5841372569
  0
LWPOLYLINE
  5
242
330
1F
100
AcDbEntity
  8
0
  6
Continuous
 62
     7
370
    18
100
AcDbPolyline
 90
       13
 70
   128
 43
0.0
 10
260.4943695736
 20
33.321961467
 10
260.2878157716
 20
33.5025220584
 10
260.1315141839
 20
33.8187621951
 10
260.0759758328
 20
34.2267946678
 10
260.1253199143
 20
34.6963576278
 10
260.2758868964
 20
35.1926257175
 10
260.5165091814
 20
35.6787927311
 10
260.8293415303
 20
36.1188021872
 10
261.1911827615
 20
36.4800206176
 10
261.5751965277
 20
36.7356579119
 10
261.9529020961
 20
36.8667547904
 10
262.2962869589
 20
36.8635883218
 10
262.4900617048
 20
36.7885298475
  0
LWPOLYLINE
  5
243
330
1F
100
AcDbEntity
  8
0
  6
Continuous
 62
     7
370
    18
100
AcDbPolyline
 90
       16
 70
   128
 43
0.0
 10
270.3566626487
 20
40.271432993
 10
270.4506583527
 20
40.6430442795
 10
270.6579530173
 20
41.1150333083
 10
270.945968775
 20
41.5474115665
 10
271.2891139276
 20
41.9017603037
 10
271.6568981937
 20
42.1465937036
 10
272.0166429484
 20
42.2601577992
 10
272.3363827706
 20
42.2323615859
 10
272.587707721
 20
42.0656750511
 10
272.7482858968
 20
41.7749085941
 10
272.8038505896
 20
41.3858990024
 10
272.7494627158
 20
40.9332103324
 10
272.5899566505
 20
40.4570670209
 10
272.3395036131
 20
39.9997755156
 10
272.0203587858
 20
39.6019690152
 10
271.8268991535
 20
39.4226837067
  0
LWPOLYLINE
  5
244
330
1F
100
AcDbEntity
  8
0
  6
Continuous
 62
     7
370
    18
100
AcDbPolyline
 90
        9
 70
   128
 43
0.0
 10
270.0347700445
 20
40.4572579224
 10
270.1753818093
 20
40.9074824865
 10
270.4160040944
 20
41.3936495002
 10
270.7288367725
 20
41.8336591464
 10
271.0906776744
 20
42.1948773867
 10
271.4746914406
 20
42.450514681
 10
271.852397009
 20
42.5816115595
 10
272.1957815425
 20
42.5784449007
 10
272.3895569469
 20
42.5033868066
  0
LWPOLYLINE
  5
245
330
1F
100
AcDbEntity
  8
0
  6
Continuous
 62
     7
370
    18
100
AcDbPolyline
 90
       29
 70
   128
 43
0.0
 10
276.9050692098
 20
34.3624861725
 10
276.8509969434
 20
34.8854480783
 10
276.6914912074
 20
35.3197557027
 10
276.4345505187
 20
35.6436313946
 10
276.0930588891
 20
35.8408344027
 10
275.6841400397
 20
35.9014761994
 10
275.228299071
 20
35.8225161461
 10
274.7483935688
 20
35.6079132542
 10
274.2684880666
 20
35.2684290474
 10
273.8126470979
 20
34.8210863208
 10
273.4037282485
 20
34.2883168701
 10
273.0622366189
 20
33.6968360189
 10
272.8052959302
 20
33.0763029224
 10
272.6457901942
 20
32.4578338952
 10
272.5917179278
 20
31.8724414795
 10
272.6457901942
 20
31.3494795736
 10
272.8052959302
 20
30.9151719492
 10
273.0622366189
 20
30.5912962573
 10
273.4037282485
 20
30.3940932493
 10
273.8126470979
 20
30.3334514526
 10
274.2684880666
 20
30.4124115059
 10
274.7483935688
 20
30.6270143978
 10
275.228299071
 20
30.9664986046
 10
275.6841400397
 20
31.4138413311
 10
276.0930588891
 20
31.9466107818
 10
276.4345505187
 20
32.538091633
 10
276.6914912074
 20
33.1586247296
 10
276.8509969434
 20
33.7770937568
 10
276.9050692098
 20
34.3624861725
  0
ARC
  5
246
330
1F
100
AcDbEntity
  8
0
  6
Continuous
 62
     7
370
    18
100
AcDbCircle
 10
269.4018423802
 20
34.9542731523
 30
0.0
 40
11.0590045213252
100
AcDbArc
 50
164.0320758496
 51
179.3649647786
  0
LWPOLYLINE
  5
247
330
1F
100
AcDbEntity
  8
0
  6
Continuous
 62
     7
370
    18
100
AcDbPolyline
 90
       16
 70
   128
 43
0.0
 10
263.5771501824
 20
45.4653853364
 10
263.6299125214
 20
45.50772814
 10
264.4404232951
 20
46.093863581
 10
265.2573759923
 20
46.5654803344
 10
266.0678867661
 20
46.9151407138
 10
266.859173432
 20
47.1373296158
 10
267.6187566128
 20
47.228544022
 10
268.3346577133
 20
47.1873449299
 10
268.9955864816
 20
47.0143819787
 10
269.5911194755
 20
46.7123831663
 10
270.111864533
 20
46.2861110125
 10
270.5496099334
 20
45.7422882094
 10
270.8974511669
 20
45.0894907646
 10
271.1499035455
 20
44.3380141494
 10
271.3029848505
 20
43.4997093157
 10
271.3379417101
 20
43.1104708044
  0
LWPOLYLINE
  5
248
330
1F
100
AcDbEntity
  8
0
  6
Continuous
 62
     7
370
    18
100
AcDbPolyline
 90
       17
 70
   128
 43
0.0
 10
266.9918617539
 20
32.9765373812
 10
266.859173432
 20
32.8483231456
 10
266.0678867661
 20
32.1569119096
 10
265.2573759923
 20
31.5707764686
 10
264.4404232951
 20
31.0991597152
 10
263.6299125214
 20
30.7494993358
 10
262.8386258555
 20
30.5273104338
 10
262.0790426746
 20
30.4360960276
 10
261.3631415742
 20
30.4772951197
 10
260.7022128058
 20
30.6502580709
 10
260.106679812
 20
30.9522568833
 10
259.5859347545
 20
31.3785290371
 10
259.148189354
 20
31.9223518402
 10
258.8003481205
 20
32.575149285
 10
258.547895742
 20
33.3266259002
 10
258.3948144369
 20
34.1649307339
 10
258.3435171124
 20
35.0768426271
  0
LWPOLYLINE
  5
249
330
1F
100
AcDbEntity
  8
0
  6
Continuous
 62
     7
370
    18
100
AcDbPolyline
 90
       18
 70
   128
 43
0.0
 10
257.9192524474
 20
35.0768433874
 10
257.970167816
 20
36.0594976361
 10
258.1221414492
 20
37.0860410732
 10
258.3728710753
 20
38.1409132279
 10
258.7185542585
 20
39.2081222076
 10
259.153952277
 20
40.2714917472
 10
259.6724635516
 20
41.3149006528
 10
260.2662286826
 20
42.322532604
 10
260.9262470132
 20
43.2791132176
 10
261.6425129473
 20
44.1701412148
 10
262.4041685678
 20
44.9821088467
 10
263.1996681075
 20
45.7027090098
 10
264.0169526289
 20
46.3210182159
 10
264.8436328929
 20
46.8276614764
 10
265.6671773325
 20
47.214961122
 10
266.4751017138
 20
47.4770440095
 10
267.2551588788
 20
47.6099381311
 10
267.2917849841
 20
47.6130323449
  0
ARC
  5
24A
330
1F
100
AcDbEntity
  8
0
  6
Continuous
 62
     7
370
    18
100
AcDbCircle
 10
264.2271106803
 20
34.8994987777
 30
0.0
 40
6.310350750783642
100
AcDbArc
 50
178.38956088
 51
203.6354470995
  0
LWPOLYLINE
  5
24B
330
1F
100
AcDbEntity
  8
0
  6
Continuous
 62
     7
370
    18
100
AcDbPolyline
 90
        8
 70
   128
 43
0.0
 10
226.6651337863
 20
53.1194620425
 10
226.7160491549
 20
52.1955934272
 10
226.8680227881
 20
51.3445150121
 10
227.1187524143
 20
50.5791291219
 10
227.4644355974
 20
49.9110374499
 10
227.8998336159
 20
49.3503677623
 10
228.4183448905
 20
48.9056192315
 10
228.6330340221
 20
48.7699361189
  0
LWPOLYLINE
  5
24C
330
1F
100
AcDbEntity
  8
0
  6
Continuous
 62
     7
370
    18
100
AcDbPolyline
 90
       21
 70
   128
 43
0.0
 10
238.132261961
 20
65.2248647791
 10
238.0589379691
 20
65.2659068072
 10
237.4308547667
 20
65.524710009
 10
236.7414050942
 20
65.6542478821
 10
236.0010402177
 20
65.6525567862
 10
235.2209830528
 20
65.5196626646
 10
234.4130586714
 20
65.2575797771
 10
233.5895142318
 20
64.8702801315
 10
232.7628339678
 20
64.363636871
 10
231.9455494464
 20
63.7453276649
 10
231.1500499067
 20
63.0247275018
 10
230.3883942863
 20
62.2127598699
 10
229.6721283522
 20
61.3217318727
 10
229.0121100216
 20
60.3651512591
 10
228.4183448905
 20
59.3575193079
 10
227.8998336159
 20
58.3141104023
 10
227.4644355974
 20
57.2507408627
 10
227.1187524143
 20
56.183531883
 10
226.8680227881
 20
55.1286597283
 10
226.7160491549
 20
54.1021162912
 10
226.6651337863
 20
53.1194620425
  0
LWPOLYLINE
  5
24D
330
1F
100
AcDbEntity
  8
0
  6
Continuous
 62
     7
370
    18
100
AcDbPolyline
 90
       16
 70
   128
 43
0.0
 10
268.2430138363
 20
33.8522295933
 10
268.2965694746
 20
34.4913098821
 10
268.4550440945
 20
35.1660603894
 10
268.711949551
 20
35.8488565785
 10
269.0567682299
 20
36.5117447256
 10
269.4753829124
 20
37.1275860902
 10
269.9506558832
 20
37.671168135
 10
270.4631291689
 20
38.1202364325
 10
270.9918220972
 20
38.4564062298
 10
271.5150899358
 20
38.6659144074
 10
272.0115100055
 20
38.7401840628
 10
272.4607587791
 20
38.6761743841
 10
272.8444440963
 20
38.4765059411
 10
273.1468576125
 20
38.1493531401
 10
273.3556188557
 20
37.708109845
 10
273.3750839496
 20
37.6443135471
  0
LWPOLYLINE
  5
24E
330
1F
100
AcDbEntity
  8
0
  6
Continuous
 62
     7
370
    18
100
AcDbPolyline
 90
        8
 70
   128
 43
0.0
 10
270.141472694
 20
32.0429276324
 10
269.9506558832
 20
32.0048925922
 10
269.4753829124
 20
31.9997361452
 10
269.0567682299
 20
32.1322552851
 10
268.711949551
 20
32.3970242598
 10
268.4550440945
 20
32.7832037225
 10
268.2965694746
 20
33.2749833282
 10
268.2430138363
 20
33.8522295933
  0
LWPOLYLINE
  5
24F
330
1F
100
AcDbEntity
  8
0
  6
Continuous
 62
     7
370
    18
100
AcDbPolyline
 90
       14
 70
   128
 43
0.0
 10
267.8187460432
 20
33.8522315892
 10
267.8698596337
 20
34.4998642728
 10
268.0213522001
 20
35.1831039121
 10
268.2677489327
 20
35.8772566995
 10
268.600144334
 20
36.5572338986
 10
269.0065245766
 20
37.1984595218
 10
269.4722022247
 20
37.777758177
 10
269.9803463212
 20
38.2741921693
 10
270.5125913253
 20
38.6698191196
 10
271.0497004421
 20
38.9503401085
 10
271.5722612303
 20
39.1056166424
 10
272.0613869318
 20
39.1300363583
 10
272.4993992074
 20
39.0227166632
 10
272.5610944557
 20
38.9947527411
  0
ARC
  5
250
330
1F
100
AcDbEntity
  8
0
  6
Continuous
 62
     7
370
    18
100
AcDbCircle
 10
269.896099623
 20
33.6712619354
 30
0.0
 40
2.085221309893591
100
AcDbArc
 50
175.021220121
 51
228.7577166734
  0
LWPOLYLINE
  5
251
330
1F
100
AcDbEntity
  8
0
  6
Continuous
 62
     7
370
    18
100
AcDbPolyline
 90
       11
 70
   128
 43
0.0
 10
269.1445749326
 20
34.3726897359
 10
269.1984465075
 20
34.8962228394
 10
269.3566761489
 20
35.4490591433
 10
269.6093216457
 20
35.9964618734
 10
269.9405085355
 20
36.5040358321
 10
270.3294270177
 20
36.9398882315
 10
270.7516398948
 20
37.2766326699
 10
271.1806180202
 20
37.4931106098
 10
271.5894070951
 20
37.5757196678
 10
271.9523215069
 20
37.5192694866
 10
272.0499955112
 20
37.4748476728
  0
ARC
  5
252
330
1F
100
AcDbEntity
  8
0
  6
Continuous
 62
     7
370
    18
100
AcDbCircle
 10
270.3122163802
 20
34.2302616582
 30
0.0
 40
1.176296011858444
100
AcDbArc
 50
173.0454576425
 51
234.2865289441
  0
LINE
  5
253
330
1F
100
AcDbEntity
  8
0
  6
Continuous
 62
     7
370
    18
100
AcDbLine
 10
271.7157859021
 20
37.3217811886
 30
0.0
 11
271.7511795413
 21
37.2994329012
 31
0.0
  0
LWPOLYLINE
  5
254
330
1F
100
AcDbEntity
  8
0
  6
Continuous
 62
     7
370
    18
100
AcDbPolyline
 90
        3
 70
   128
 43
0.0
 10
269.6280477703
 20
33.6216622359
 10
269.5846733125
 20
33.6447439306
 10
269.5777741533
 20
33.6487800218
  0
LWPOLYLINE
  5
255
330
1F
100
AcDbEntity
  8
0
  6
Continuous
 62
     7
370
    18
100
AcDbPolyline
 90
       16
 70
   128
 43
0.0
 10
261.8339149573
 20
37.1302430858
 10
261.8846841291
 20
37.7922286832
 10
262.0352623065
 20
38.4902877388
 10
262.2805217327
 20
39.2006486637
 10
262.6121105816
 20
39.8991210614
 10
263.0187369552
 20
40.5619193777
 10
263.4865535558
 20
41.1664726148
 10
263.9996296156
 20
41.6921937327
 10
264.5404928991
 20
42.1211794267
 10
265.0907249044
 20
42.4388216022
 10
265.6315881879
 20
42.6343033631
 10
266.1446642477
 20
42.7009672545
 10
266.6124808483
 20
42.6365435675
 10
267.0191072219
 20
42.443226069
 10
267.3506960708
 20
42.1275980072
 10
267.4851700362
 20
41.9263241321
  0
ARC
  5
256
330
1F
100
AcDbEntity
  8
0
  6
Continuous
 62
     7
370
    18
100
AcDbCircle
 10
263.4722244844
 20
36.6063559188
 30
0.0
 40
1.604319485805746
100
AcDbArc
 50
247.581004074
 51
270.5601248868
  0
LWPOLYLINE
  5
257
330
1F
100
AcDbEntity
  8
0
  6
Continuous
 62
     7
370
    18
100
AcDbPolyline
 90
       14
 70
   128
 43
0.0
 10
262.5200124736
 20
36.6994150472
 10
262.5156171829
 20
36.7513034824
 10
262.5225556079
 20
37.3720374154
 10
262.6327047501
 20
38.0391475951
 10
262.8419012912
 20
38.7274184606
 10
263.1422375934
 20
39.4108341541
 10
263.5223618312
 20
40.0635628163
 10
263.967905551
 20
40.6609321967
 10
264.4620280413
 20
41.1803628331
 10
264.9860523006
 20
41.602221124
 10
265.5201709565
 20
41.9105612609
 10
266.0441952158
 20
42.0937285014
 10
266.5383177061
 20
42.1447995488
 10
266.55174477
 20
42.1442889689
  0
LWPOLYLINE
  5
258
330
1F
100
AcDbEntity
  8
0
  6
Continuous
 62
     7
370
    18
100
AcDbPolyline
 90
       13
 70
   128
 43
0.0
 10
262.2856379649
 20
37.1484781132
 10
262.338286952
 20
37.7961561855
 10
262.4942110291
 20
38.4797317237
 10
262.7474177704
 20
39.1729351946
 10
263.088176687
 20
39.8491273554
 10
263.5033927859
 20
40.4823223268
 10
263.9771092867
 20
41.0481868409
 10
264.4911216322
 20
41.5249752208
 10
265.0256766973
 20
41.8943643984
 10
265.5602317624
 20
42.1421593619
 10
266.0742441078
 20
42.2588370037
 10
266.5479606087
 20
42.2399139195
 10
266.928002199
 20
42.1057053234
  0
LWPOLYLINE
  5
259
330
1F
100
AcDbEntity
  8
0
  6
Continuous
 62
     7
370
    18
100
AcDbPolyline
 90
        3
 70
   128
 43
0.0
 10
263.0883340791
 20
35.3743294663
 10
263.088176687
 20
35.3744203563
 10
262.9146744106
 20
35.4944162928
  0
LINE
  5
25A
330
1F
100
AcDbEntity
  8
0
  6
Continuous
 62
     7
370
    18
100
AcDbLine
 10
262.2943409599
 20
36.9015171865
 30
0.0
 11
262.2856379649
 21
37.1484781132
 31
0.0
  0
LINE
  5
25B
330
1F
100
AcDbEntity
  8
0
  6
Continuous
 62
     7
370
    18
100
AcDbLine
 10
263.0484098183
 20
35.4278177673
 30
0.0
 11
262.9209722364
 21
35.5564051786
 31
0.0
  0
LWPOLYLINE
  5
25C
330
1F
100
AcDbEntity
  8
0
  6
Continuous
 62
     7
370
    18
100
AcDbPolyline
 90
       13
 70
   128
 43
0.0
 10
262.4668743526
 20
36.801915779
 10
262.4686150504
 20
37.3308995201
 10
262.5688018959
 20
38.0027529524
 10
262.7715231336
 20
38.6990919863
 10
263.0688737596
 20
39.392762707
 10
263.4492584517
 20
40.0567155869
 10
263.8978439886
 20
40.665059112
 10
264.3971376173
 20
41.194071048
 10
264.9276693459
 20
41.6231223627
 10
265.4687508341
 20
41.9354820571
 10
265.9992825627
 20
42.1189696379
 10
266.4985761914
 20
42.166429855
 10
266.8967341765
 20
42.0940333099
  0
LWPOLYLINE
  5
25D
330
1F
100
AcDbEntity
  8
0
  6
Continuous
 62
     7
370
    18
100
AcDbPolyline
 90
       27
 70
   128
 43
0.0
 10
224.543813095
 20
53.1194620425
 10
224.5945131196
 20
54.1725955369
 10
224.7459526732
 20
55.2705370788
 10
224.9961574394
 20
56.398973421
 10
225.3418663057
 20
57.5431937149
 10
225.7785708766
 20
58.688280573
 10
226.3005793517
 20
59.8193072132
 10
226.9010856737
 20
60.9215281383
 10
227.5722617239
 20
61.9805736155
 10
228.30535808
 20
62.9826386423
 10
229.0908172855
 20
63.9146597432
 10
229.9183994674
 20
64.7644859672
 10
230.7773163493
 20
65.5210383823
 10
231.6563702876
 20
66.1744549782
 10
232.5441015993
 20
66.7162160215
 10
233.428937332
 20
67.1392603577
 10
234.2993422759
 20
67.4380725881
 10
235.1439694006
 20
67.6087569874
 10
235.9518075949
 20
67.6490885713
 10
236.7123254151
 20
67.5585413271
 10
237.4156088028
 20
67.3382954731
 10
238.0524891721
 20
66.9912231873
 10
238.6146629353
 20
66.5218477216
 10
239.0948024677
 20
65.9362895888
 10
239.4866483037
 20
65.2421813817
 10
239.7850914551
 20
64.4485721376
 10
239.8444612182
 20
64.2364331619
  0
LWPOLYLINE
  5
25E
330
1F
100
AcDbEntity
  8
0
  6
Continuous
 62
     7
370
    18
100
AcDbPolyline
 90
       13
 70
   128
 43
0.0
 10
230.3452331146
 20
47.7815045968
 10
229.9183994674
 20
47.6798034584
 10
229.0908172855
 20
47.5741236338
 10
228.30535808
 20
47.5992728393
 10
227.5722617239
 20
47.7549228298
 10
226.9010856737
 20
48.0390449341
 10
226.3005793517
 20
48.4479360178
 10
225.7785708766
 20
48.9762645015
 10
225.3418663057
 20
49.6171429945
 10
224.9961574394
 20
50.3622163273
 10
224.7459526732
 20
51.2017723954
 10
224.5945131196
 20
52.1248655505
 10
224.543813095
 20
53.1194620425
  0
LINE
  5
25F
330
1F
100
AcDbEntity
  8
0
  6
Continuous
 62
     7
370
    18
100
AcDbLine
 10
214.9006445671
 20
54.8186112268
 30
0.0
 11
214.9098325801
 21
55.3460072544
 31
0.0
  0
ARC
  5
260
330
1F
100
AcDbEntity
  8
0
  6
Continuous
 62
     7
370
    18
100
AcDbCircle
 10
227.1602314668
 20
54.7202912751
 30
0.0
 40
12.25998114856723
100
AcDbArc
 50
179.5405067437
 51
191.776655927
  0
LWPOLYLINE
  5
261
330
1F
100
AcDbEntity
  8
0
  6
Continuous
 62
     7
370
    18
100
AcDbPolyline
 90
       13
 70
   128
 43
0.0
 10
219.5247260056
 20
51.482974599
 10
219.4885119845
 20
51.6643822372
 10
219.3441313695
 20
52.7354555804
 10
219.3029282153
 20
53.8770985992
 10
219.3653358441
 20
55.0772972581
 10
219.5306970286
 20
56.3234212927
 10
219.7972725528
 20
57.6023581689
 10
220.1622570169
 20
58.9006489073
 10
220.6218091309
 20
60.2046315822
 10
221.1710932024
 20
61.5005837143
 10
221.8043285279
 20
62.7748677044
 10
222.5148519539
 20
64.0140741751
 10
223.2951870246
 20
65.2051630302
  0
LWPOLYLINE
  5
262
330
1F
100
AcDbEntity
  8
0
  6
Continuous
 62
     7
370
    18
100
AcDbPolyline
 90
       16
 70
   128
 43
0.0
 10
220.0365217725
 20
48.5530468981
 10
219.5674997885
 20
49.2998742124
 10
219.1770006759
 20
50.1722146425
 10
218.8841465918
 20
51.1407290666
 10
218.6919102059
 20
52.1955849911
 10
218.6022434443
 20
53.3260737744
 10
218.6160564153
 20
54.5207186153
 10
218.7332088491
 20
55.7673914748
 10
218.9525114142
 20
57.0534358904
 10
219.2717382303
 20
58.3657964441
 10
219.6876479412
 20
59.6911499399
 10
220.1960186182
 20
61.0160411438
 10
220.7916885892
 20
62.3270194723
 10
221.4686117574
 20
63.6107770121
 10
222.2199148935
 20
64.8542793135
 10
223.0379720522
 20
66.0449049292
  0
ARC
  5
263
330
1F
100
AcDbEntity
  8
0
  6
Continuous
 62
     7
370
    18
100
AcDbCircle
 10
236.0372037973
 20
58.3832932766
 30
0.0
 40
14.21094567374218
100
AcDbArc
 50
109.7806436427
 51
139.5760029972
  0
LWPOLYLINE
  5
264
330
1F
100
AcDbEntity
  8
0
  6
Continuous
 62
     7
370
    18
100
AcDbPolyline
 90
       11
 70
   128
 43
0.0
 10
224.3821651137
 20
67.7170684465
 10
225.3435182646
 20
68.7366118273
 10
226.340903843
 20
69.66125718
 10
227.3639100953
 20
70.4813513101
 10
228.4018580641
 20
71.1883346889
 10
229.4439130456
 20
71.7748270901
 10
230.4791972018
 20
72.2347055267
 10
231.4969036527
 20
72.563170876
 10
232.4864084289
 20
72.7567919757
 10
233.4373829183
 20
72.8135500056
 10
234.021128624
 20
72.7777215356
  0
LINE
  5
265
330
1F
100
AcDbEntity
  8
0
  6
Continuous
 62
     7
370
    18
100
AcDbLine
 10
210.4142803536
 20
65.1912188255
 30
0.0
 11
210.7204442808
 21
64.8204837696
 31
0.0
  0
LINE
  5
266
330
1F
100
AcDbEntity
  8
0
  6
Continuous
 62
     7
370
    18
100
AcDbLine
 10
210.4142803536
 20
57.4271086778
 30
0.0
 11
210.7204442808
 21
58.1146421464
 31
0.0
  0
LINE
  5
267
330
1F
100
AcDbEntity
  8
0
  6
Continuous
 62
     7
370
    18
100
AcDbLine
 10
211.4563545976
 20
58.5394741294
 30
0.0
 11
210.7204515248
 21
58.1146463282
 31
0.0
  0
LINE
  5
268
330
1F
100
AcDbEntity
  8
0
  6
Continuous
 62
     7
370
    18
100
AcDbLine
 10
211.3897790406
 20
59.2827000972
 30
0.0
 11
210.0805076065
 21
58.5268737865
 31
0.0
  0
LINE
  5
269
330
1F
100
AcDbEntity
  8
0
  6
Continuous
 62
     7
370
    18
100
AcDbLine
 10
206.9034287749
 20
60.1012827462
 30
0.0
 11
206.6069415007
 21
59.6052211283
 31
0.0
  0
LINE
  5
26A
330
1F
100
AcDbEntity
  8
0
  6
Continuous
 62
     7
370
    18
100
AcDbLine
 10
208.735275691
 20
61.1587854612
 30
0.0
 11
206.903489361
 21
60.1013177218
 31
0.0
  0
LINE
  5
26B
330
1F
100
AcDbEntity
  8
0
  6
Continuous
 62
     7
370
    18
100
AcDbLine
 10
208.735275691
 20
61.1587854612
 30
0.0
 11
208.8564393193
 21
61.0971359131
 31
0.0
  0
OLE2FRAME
  5
26C
330
1F
100
AcDbEntity
  8
0
100
AcDbOle2Frame
 70
     2
  3
Paintbrush-Bild
 10
13.8511154363
 20
38.264191557
 30
0.0
 11
51.6290888628
 21
31.9806341108
 31
0.0
 71
     2
 72
     0
 73
     1
 90
    12928
310
80552BED0767C5B32B40DDAF6807D121434000000000000000006FFBDDFB85D0
310
4940DDAF6807D121434000000000000000006FFBDDFB85D04940416F4BD60AFB
310
3F4000000000000000002BED0767C5B32B40416F4BD60AFB3F40000000000000
310
0000000000000100000000010000010000000100000000000100000000320000
310
D0CF11E0A1B11AE1000000000000000000000000000000003E000300FEFF0900
310
0600000000000000000000000100000001000000000000000010000002000000
310
01000000FEFFFFFF0000000000000000FFFFFFFFFFFFFFFFFFFFFFFFFFFFFFFF
310
FFFFFFFFFFFFFFFFFFFFFFFFFFFFFFFFFFFFFFFFFFFFFFFFFFFFFFFFFFFFFFFF
310
FFFFFFFFFFFFFFFFFFFFFFFFFFFFFFFFFFFFFFFFFFFFFFFFFFFFFFFFFFFFFFFF
310
FFFFFFFFFFFFFFFFFFFFFFFFFFFFFFFFFFFFFFFFFFFFFFFFFFFFFFFFFFFFFFFF
310
FFFFFFFFFFFFFFFFFFFFFFFFFFFFFFFFFFFFFFFFFFFFFFFFFFFFFFFFFFFFFFFF
310
FFFFFFFFFFFFFFFFFFFFFFFFFFFFFFFFFFFFFFFFFFFFFFFFFFFFFFFFFFFFFFFF
310
FFFFFFFFFFFFFFFFFFFFFFFFFFFFFFFFFFFFFFFFFFFFFFFFFFFFFFFFFFFFFFFF
310
FFFFFFFFFFFFFFFFFFFFFFFFFFFFFFFFFFFFFFFFFFFFFFFFFFFFFFFFFFFFFFFF
310
FFFFFFFFFFFFFFFFFFFFFFFFFFFFFFFFFFFFFFFFFFFFFFFFFFFFFFFFFFFFFFFF
310
FFFFFFFFFFFFFFFFFFFFFFFFFFFFFFFFFFFFFFFFFFFFFFFFFFFFFFFFFFFFFFFF
310
FFFFFFFFFFFFFFFFFFFFFFFFFFFFFFFFFFFFFFFFFFFFFFFFFFFFFFFFFFFFFFFF
310
FFFFFFFFFFFFFFFFFFFFFFFFFFFFFFFFFFFFFFFFFFFFFFFFFFFFFFFFFFFFFFFF
310
FFFFFFFFFFFFFFFFFFFFFFFFFFFFFFFFFFFFFFFFFFFFFFFFFFFFFFFFFFFFFFFF
310
FFFFFFFFFFFFFFFFFFFFFFFFFFFFFFFFFFFFFFFFFFFFFFFFFFFFFFFFFFFFFFFF
310
FDFFFFFFFEFFFFFFFEFFFFFFFEFFFFFF05000000060000000700000008000000
310
090000000A0000000B0000000C0000000D0000000E0000000F00000010000000
310
11000000120000001300000014000000150000001600000017000000FEFFFFFF
310
FFFFFFFFFFFFFFFFFFFFFFFFFFFFFFFFFFFFFFFFFFFFFFFFFFFFFFFFFFFFFFFF
310
FFFFFFFFFFFFFFFFFFFFFFFFFFFFFFFFFFFFFFFFFFFFFFFFFFFFFFFFFFFFFFFF
310
FFFFFFFFFFFFFFFFFFFFFFFFFFFFFFFFFFFFFFFFFFFFFFFFFFFFFFFFFFFFFFFF
310
FFFFFFFFFFFFFFFFFFFFFFFFFFFFFFFFFFFFFFFFFFFFFFFFFFFFFFFFFFFFFFFF
310
FFFFFFFFFFFFFFFFFFFFFFFFFFFFFFFFFFFFFFFFFFFFFFFFFFFFFFFFFFFFFFFF
310
FFFFFFFFFFFFFFFFFFFFFFFFFFFFFFFFFFFFFFFFFFFFFFFFFFFFFFFFFFFFFFFF
310
FFFFFFFFFFFFFFFFFFFFFFFFFFFFFFFFFFFFFFFFFFFFFFFFFFFFFFFFFFFFFFFF
310
FFFFFFFFFFFFFFFFFFFFFFFFFFFFFFFFFFFFFFFFFFFFFFFFFFFFFFFFFFFFFFFF
310
FFFFFFFFFFFFFFFFFFFFFFFFFFFFFFFFFFFFFFFFFFFFFFFFFFFFFFFFFFFFFFFF
310
FFFFFFFFFFFFFFFFFFFFFFFFFFFFFFFFFFFFFFFFFFFFFFFFFFFFFFFFFFFFFFFF
310
FFFFFFFFFFFFFFFFFFFFFFFFFFFFFFFFFFFFFFFFFFFFFFFFFFFFFFFFFFFFFFFF
310
FFFFFFFFFFFFFFFFFFFFFFFFFFFFFFFFFFFFFFFFFFFFFFFFFFFFFFFFFFFFFFFF
310
FFFFFFFFFFFFFFFFFFFFFFFFFFFFFFFFFFFFFFFFFFFFFFFFFFFFFFFFFFFFFFFF
310
52006F006F007400200045006E00740072007900000000000000000000000000
310
0000000000000000000000000000000000000000000000000000000000000000
310
16000500FFFFFFFFFFFFFFFF020000000A00030000000000C000000000000046
310
000000000000000000000000503A8AC87BA9D30103000000C000000000000000
310
01004F006C006500000000000000000000000000000000000000000000000000
310
0000000000000000000000000000000000000000000000000000000000000000
310
0A000200FFFFFFFFFFFFFFFFFFFFFFFF00000000000000000000000000000000
310
0000000000000000000000000000000000000000000000001400000000000000
310
010043006F006D0070004F0062006A0000000000000000000000000000000000
310
0000000000000000000000000000000000000000000000000000000000000000
310
120002010100000003000000FFFFFFFF00000000000000000000000000000000
310
0000000000000000000000000000000000000000010000004D00000000000000
310
01004F006C006500310030004E00610074006900760065000000000000000000
310
0000000000000000000000000000000000000000000000000000000000000000
310
1A000200FFFFFFFFFFFFFFFFFFFFFFFF00000000000000000000000000000000
310
0000000000000000000000000000000000000000040000002426000000000000
310
FEFFFFFF02000000FEFFFFFFFFFFFFFFFFFFFFFFFFFFFFFFFFFFFFFFFFFFFFFF
310
FFFFFFFFFFFFFFFFFFFFFFFFFFFFFFFFFFFFFFFFFFFFFFFFFFFFFFFFFFFFFFFF
310
FFFFFFFFFFFFFFFFFFFFFFFFFFFFFFFFFFFFFFFFFFFFFFFFFFFFFFFFFFFFFFFF
310
FFFFFFFFFFFFFFFFFFFFFFFFFFFFFFFFFFFFFFFFFFFFFFFFFFFFFFFFFFFFFFFF
310
FFFFFFFFFFFFFFFFFFFFFFFFFFFFFFFFFFFFFFFFFFFFFFFFFFFFFFFFFFFFFFFF
310
FFFFFFFFFFFFFFFFFFFFFFFFFFFFFFFFFFFFFFFFFFFFFFFFFFFFFFFFFFFFFFFF
310
FFFFFFFFFFFFFFFFFFFFFFFFFFFFFFFFFFFFFFFFFFFFFFFFFFFFFFFFFFFFFFFF
310
FFFFFFFFFFFFFFFFFFFFFFFFFFFFFFFFFFFFFFFFFFFFFFFFFFFFFFFFFFFFFFFF
310
FFFFFFFFFFFFFFFFFFFFFFFFFFFFFFFFFFFFFFFFFFFFFFFFFFFFFFFFFFFFFFFF
310
FFFFFFFFFFFFFFFFFFFFFFFFFFFFFFFFFFFFFFFFFFFFFFFFFFFFFFFFFFFFFFFF
310
FFFFFFFFFFFFFFFFFFFFFFFFFFFFFFFFFFFFFFFFFFFFFFFFFFFFFFFFFFFFFFFF
310
FFFFFFFFFFFFFFFFFFFFFFFFFFFFFFFFFFFFFFFFFFFFFFFFFFFFFFFFFFFFFFFF
310
FFFFFFFFFFFFFFFFFFFFFFFFFFFFFFFFFFFFFFFFFFFFFFFFFFFFFFFFFFFFFFFF
310
FFFFFFFFFFFFFFFFFFFFFFFFFFFFFFFFFFFFFFFFFFFFFFFFFFFFFFFFFFFFFFFF
310
FFFFFFFFFFFFFFFFFFFFFFFFFFFFFFFFFFFFFFFFFFFFFFFFFFFFFFFFFFFFFFFF
310
FFFFFFFFFFFFFFFFFFFFFFFFFFFFFFFFFFFFFFFFFFFFFFFFFFFFFFFFFFFFFFFF
310
0100000200000000000000000000000000000000000000000000000000000000
310
0000000000000000000000000000000000000000000000000000000000000000
310
0100FEFF030A0000FFFFFFFF0A00030000000000C00000000000004607000000
310
5042727573680007000000504272757368000700000050427275736800F439B2
310
7100000000000000000000000000000000000000000000000000000000000000
310
0000000000000000000000000000000000000000000000000000000000000000
310
0000000000000000000000000000000000000000000000000000000000000000
310
0000000000000000000000000000000000000000000000000000000000000000
310
0000000000000000000000000000000000000000000000000000000000000000
310
0000000000000000000000000000000000000000000000000000000000000000
310
0000000000000000000000000000000000000000000000000000000000000000
310
0000000000000000000000000000000000000000000000000000000000000000
310
0000000000000000000000000000000000000000000000000000000000000000
310
0000000000000000000000000000000000000000000000000000000000000000
310
0000000000000000000000000000000000000000000000000000000000000000
310
0000000000000000000000000000000000000000000000000000000000000000
310
20260000424D0E260000000000003E00000028000000B40200006E0000000100
310
01000000000000000000130B0000130B00000200000002000000000000FFFFFF
310
FFFFFFFFFFFFFFFFFFFFFFFFFFFFFFFFFFFFFFFFFFFFFFFFFFFFFFFFFFFFFFFF
310
FFFFFFFFFFFFFFFFFFFFFFFFFFFFFFFFFFFFFFFFFFFFFFFFFFFFFFFFFFFFFFFF
310
FFFFFFFFFFFFFFFFFFFFFFFFFFFFFFFFFFFFFFFFFFFFFFFFF000FFFFFFFFFFFF
310
FFFFFFFFFFFFFFFFFFFFFFFFFFFFFFFFFFFFFFFFFFFFFFFFFFFFFFFFFFFFFFFF
310
FFFFFFFFFFFFFFFFFFFFFFFFFFFFFFFFFFFFFFFFFFFFFFFFFFFFFFFFFFFFFFFF
310
FFFFFFFFFFFFFFFFFFFFFFFFFFFFFFFFF000FFFFFFFFFFFFFFFFFFFFFFFFFFFF
310
FFFFFFFFFFFFFFFFFFFFFFFFFFFFFFFFFFFFFFFFFFFFFFFFFFFFFFFFFFFFFFFF
310
FFFFFFFFFFFFFFFFFFFFFFFFFFFFFFFFFFFFFFFFFFFFFFFFFFFFFFFFFFFFFFFF
310
FFFFFFFFFFFFFFFFF000FFFFFFFFFFFFFFFFFFFFFFFFFFFFFFFFFFFFFFFFFFFF
310
FFFFFFFFFFFFFFFFFFFFFFFFFFFFFFFFFFFFFFFFFFFFFFFFFFFFFFFFFFFFFFFF
310
FFFFFFFFFFFFFFFFFFFFFFFFFFFFFFFFFFFFFFFFFFFFFFFFFFFFFFFFFFFFFFFF
310
F000FFFFFFFFFFFFFFFFFFFFFFFFFFFFFFFFFFFFFFFFFFFFFFFFFFFFFFFFFFFF
310
FFFFFFFFFFFFFFFFFFFFFFFFFFFFFFFFFFFFFFFFFFFFFFFFFFFFFFFFFFFFFFFF
310
FFFFFFFFFFFFFFFFFFFFFFFFFFFFFFFFFFFFFFFFFFFFFFFFF000FFFFFFFFFFFF
310
FFFFFFFFFFFFFFFFFFFFFFFFFFFFFFFFFFFFFFFFFFFFFFFFFFFFFFFFFFFFFFFF
310
FFFFFFFFFFFFFFFFFFFFFFFFFFFFFFFFFFFFFFFFFFFFFFFFFFFFFFFFFFFFFFFF
310
FFFFFFFFFFFFFFFFFFFFFFFFFFFFFFFFF000FFFFFFFFFFFFFFFFFFFFFFFFFFFF
310
FFFFFFFFFFFFFFFFFFFFFFFFFFFFFFFFFFFFFFFFFFFFFFFFFFFFFFFFFFFFFFFF
310
FFFFFFFFFFFFFFFFFFFFFFFFFFFFFFFFFFFFFFFFFFFFFFFFFFFFFFFFFFFFFFFF
310
FFFFFFFFFFFFFFFFF000FFFFFFFFFFFFFFFFFFFFFFFFFFFFFFFFFFFFFFFFFFFF
310
FFFFFFFFFFFFFFFFFFFFFFFFFFFFFFFFFFFFFFFFFFFFFFFFFFFFFFFFFFFFFFFF
310
FFFFFFFFFFFFFFFFFFFFFFFFFFFFFFFFFFFFFFFFFFFFFFFFFFFFFFFFFFFFFFFF
310
F000FFFFFFFFFFFFFFFFFFFFFFFFFFFFFFFFFFFFFFFFFFFFFFFFFFFFFFFFFFFF
310
FFFFFFFFFFFFFFFFFFFFFFFFFFFFFFFFFFFFFFFFFFFFFFFFFFFFFFFFFFFFFFFF
310
FFFFFFFFFFFFFFFFFFFFFFFFFFFFFFFFFFFFFFFFFFFFFFFFF000FFFFFFFFFFFF
310
FFFFFFFFFFFFFFFFFFFFFFFFFFFFFFFFFFFFFFFFFFFFFFFFFFFFFFFFFFFFFFFF
310
FFFFFFFFFFFFFFFFFFFFFFFFFFFFFFFFFFFFFFFFFFFFFFFFFFFFFFFFFFFFFFFF
310
FFFFFFFFFFFFFFFFFFFFFFFFFFFFFFFFF000FFFFFFFFFFFFFFFFFFFFFFFFFFFF
310
FFFFFFFFFFFFFFFFFFFFFFFFFFFFFFFFFFFFFFFFFFFFFFFFFFFFFFFFFFFFFFFF
310
FFFFFFFFFFFFFFFFFFFFFFFFFFFFFFFFFFFFFFFFFFFFFFFFFFFFFFFFFFFFFFFF
310
FFFFFFFFFFFFFFFFF000FFFFFFFFFFFFFFFFFFFFFFFFFFFFFFFFFFFFFFFFFFFF
310
FFFFFFFFFFFFFFFFFFFFFFFFFFFFFFFFFFFFFFFFFFFFFFFFFFFFFFFFFFFFFFFF
310
FFFFFFFFFFFFFFFFFFFFFFFFFFFFFFFFFFFFFFFFFFFFFFFFFFFFFFFFFFFFFFFF
310
F000FFFFFFFFFFFFFFFFFFFFFFFFFFFFFFFFFFFFFFFFFFFFFFFFFFFFFFFFFFFF
310
FFFFFFFFFFFFFFFFFFFFFFFFFFFFFFFFFFFFFFFFFFFFFFFFFFFFFFFFFFFFFFFF
310
FFFFFFFFFFFFFFFFFFFFFFFFFFFFFFFFFFFFFFFFFFFFFFFFF000FFFFFFFFFFFF
310
FFFFFFFFFFFFFFFFFFFFFFFFFFFFFFFFFFFFFFFFFFFFFFFFFFFFFFFFFFFFFFFF
310
FFFFFFFFFFFFFFFFFFFFFFFFFFFFFFFFFFFFFFFFFFFFFFFFFFFFFFFFFFFFFFFF
310
FFFFFFFFFFFFFFFFFFFFFFFFFFFFFFFFF000FFFFFFFFFFFFFFFFFFFFFFFFFFFF
310
FFFFFFFFFFFFFFFFFFFFFFFFFFFFFFFFFFFFFFFFFFFFFFFFFFFFFFFFFFFFFFFF
310
FFFFFFFFFFFFFFFFFFFFFFFFFFFFFFFFFFFFFFFFFFFFFFFFFFFFFFFFFFFFFFFF
310
FFFFFFFFFFFFFFFFF000FFFFFFFFFFFFFFFFFFFFFFFFFFFFFFFFFFFFFFFFFFFF
310
FFFFFFFFFFFFFFFFFFFFFFFFFFFFFFFFFFFFFFFFFFFFFFFFFFFFFFFFFFFFFFFF
310
FFFFFFFFFFFFFFFFFFFFFFFFFFFFFFFFFFFFFFFFFFFFFFFFFFFFFFFFFFFFFFFF
310
F000FFFFFFFFFFFFFFFFFFFFFFFFFFFFFFFFFFFFFFFFFFFFFFFFFFFFFFFFFFFF
310
FFFFFFFFFFFFFFFFFFFFFFFFFFFFFFFFFFFFFFFFFFFFFFFFFFFFFFFFFFFFFFFF
310
FFFFFFFFFFFFFFFFFFFFFFFFFFFFFFFFFFFFFFFFFFFFFFFFF000FFFFFFFFFFFF
310
FFFFFFFFFFFFFFFFFFFFFFFFFFFFFFFFFFFFFFFFFFFFFFFFFFFFFFFFFFFFFFFF
310
FFFFFFFFFFFFFFFFFFFFFFFFFFFFFFFFFFFFFFFFFFFFFFFFFFFFFFFFFFFFFFFF
310
FFFFFFFFFFFFFFFFFFFFFFFFFFFFFFFFF000FFFFFFFFFFFFFFFFFFFFFFFFFFFF
310
FFFFFFFFFFFFFFFFFFFFFFFFFFFFFFFFFFFFFFFFFFFFFFFFFFFFFFFFFFFFFFFF
310
FFFFFFFFFFFFFFFFFFFFFFFFFFFFFFFFFFFFFFFFFFFFFFFFFFFFFFFFFFFFFFFF
310
FFFFFFFFFFFFFFFFF000FFFFF80003FFFFFFFFFFFFFFFFFFFFFFFFFFFFFFFFFF
310
FFFFF00007FFFFFFFFFF00007FFFFFF800000000000000007FFFFFFFFFFFFFFF
310
FFFFFFFC001FFFFFFFFFFFFFFC001FFFFFFFFFFFFFFFFFFFFFFFFFFE0007FFFF
310
F000FFFF8000007FFFFFFFF8000FFFFFC0007FFFFF80007FFFFF0000007FFFFF
310
FFF8000007FFFFF800000000000000007FFFFFF0001FFFFFFFFFFFC00001FFFF
310
FFFFFFFFC00001FFFFFFFF000000000003FFFFE000007FFFF000FFFE0000000F
310
FFFFFFF0000FFFFF80007FFFFF80007FFFFC0000001FFFFFFFC0000001FFFFF8
310
00000000000000007FFFFFF0001FFFFFFFFFFE0000003FFFFFFFFFFE0000003F
310
FFFFFF000000000003FFFF0000000FFFF000FFF800000003FFFFFFF00007FFFF
310
80007FFFFF80007FFFF000000007FFFFFF000000003FFFF80000000000000000
310
7FFFFFF0001FFFFFFFFFF80000000FFFFFFFFFF80000000FFFFFFF0000000000
310
03FFFC00000003FFF000FFE000000000FFFFFFF00007FFFF80003FFFFF80007F
310
FFC000000001FFFFFC000000001FFFF800000000000000007FFFFFF0001FFFFF
310
FFFFE000000003FFFFFFFFE000000003FFFFFF000000000003FFF000000000FF
310
F000FF80000000007FFFFFF00007FFFF80003FFFFF80007FFF8000000000FFFF
310
F80000000007FFF800000000000000007FFFFFF0001FFFFFFFFFC000000001FF
310
FFFFFFC000000001FFFFFF000000000003FFC0000000007FF000FF0000000000
310
3FFFFFE00007FFFF00003FFFFF80007FFE00000000003FFFF00000000003FFF8
310
00000000000000007FFFFFF0001FFFFFFFFF8000000000FFFFFFFF8000000000
310
FFFFFF000000000003FF80000000003FF000FE00000000001FFFFFE00003FFFF
310
00003FFFFF80007FFC00000000001FFFE00000000001FFF8000001FFFE000000
310
7FFFFFF0001FFFFFFFFE00000000003FFFFFFE00000000003FFFFF0000000000
310
03FF00000000001FF000FC00000000000FFFFFE00003FFFF00001FFFFF80007F
310
F800000000001FFFC00000000000FFF8000001FFFE0000007FFFFFF0001FFFFF
310
FFFC00000000001FFFFFFC00000000001FFFFF000000000003FE00000000000F
310
F000F8000000000007FFFFE00003FFFF00001FFFFF80007FF800000000000FFF
310
800000000000FFF8000001FFFE0000007FFFFFF0001FFFFFFFF800000000000F
310
FFFFF800000000000FFFFF000000000003FC000000000007F000F80000000000
310
03FFFFC00003FFFE00001FFFFF80007FF0000000000007FF0000000000007FF8
310
000001FFFE0000007FFFFFF0001FFFFFFFF0000000000007FFFFF00000000000
310
07FFFF000000000003F8000000000003F000F0000000000003FFFFC00001FFFE
310
00001FFFFF80007FE0000000000007FE0000000000003FF8000001FFFE000000
310
7FFFFFF0001FFFFFFFF0000000000007FFFFF0000000000007FFFF0000000000
310
03F800001F800003F000E00001FFF00001FFFFC00001FFFE00000FFFFF80007F
310
E00001FFE00003FE00001FFF00003FF8000001FFFE0000007FFFFFF0001FFFFF
310
FFE000003E000003FFFFE000003E000003FFFF000000000003F00001FFF80001
310
F000E00007FFFC0001FFFFC00001FFFE00000FFFFF80007FC0000FFFFC0003FC
310
0000FFFFC0001FF8000001FFFE0000007FFFFFF0001FFFFFFFC00003FFE00001
310
FFFFC00003FFE00001FFFF0001FFFFFFFFF00007FFFE0001F000E0000FFFFF00
310
00FFFF800001FFFC00000FFFFF80007FC0001FFFFE0001FC0001FFFFE0001FF8
310
000001FFFE0000007FFFFFF0001FFFFFFF80000FFFF80000FFFF80000FFFF800
310
00FFFF0003FFFFFFFFE0000FFFFF8000F000C0003FFFFF8000FFFF800000FFFC
310
000007FFFF80007F80003FFFFF0001FC0003FFFFF0001FF8000001FFFE000000
310
7FFFFFF0001FFFFFFF80003FFFFE0000FFFF80003FFFFE0000FFFF0003FFFFFF
310
FFE0003FFFFF8000F000C0003FFFFF8000FFFF800000FFFC000007FFFF80007F
310
80007FFFFF8001F80007FFFFF8000FF8000001FFFE0000007FFFFFF0001FFFFF
310
FF00007FFFFF00007FFF00007FFFFF00007FFF0003FFFFFFFFE0003FFFFFC000
310
F000C0007FFFFFC000FFFF000000FFFC000007FFFF80007F8000FFFFFF8000F8
310
000FFFFFF8000FF8000001FFFE0000007FFFFFF0001FFFFFFF0000FFFFFF8000
310
7FFF0000FFFFFF80007FFF0003FFFFFFFFC0007FFFFFC00070008000FFFFFFC0
310
00FFFF000000FFF8000007FFFF80007F8000FFFFFF8000F8000FFFFFF8000FF8
310
000001FFFE0000007FFFFFF0001FFFFFFE0001FFFFFFC0003FFE0001FFFFFFC0
310
003FFF0003FFFFFFFFC0007FFFFFE00070008000FFFFFFC0007FFF0000007FF8
310
000003FFFF80007F0001FFFFFF8000F8000FFFFFF8000FF8000001FFFE000000
310
7FFFFFF0001FFFFFFE0001FFFFFFC0003FFE0001FFFFFFC0003FFF0003FFFFFF
310
FFC000FFFFFFE00070008000FFFFFFC0007FFF0000007FF8000003FFFF80007F
310
0001FFFFFF8000F8001FFFFFF8000FF8000001FFFE0000007FFFFFF0001FFFFF
310
FE0003FFFFFFE0003FFE0003FFFFFFE0003FFF0003FFFFFFFFC000FFFFFFE000
310
70008000FFFFFFC0007FFE0000007FF8000003FFFF80007F0001FFFFFF8000F0
310
001FFFFFF8000FF8000001FFFE0000007FFFFFF0001FFFFFFC0003FFFFFFE000
310
1FFC0003FFFFFFE0001FFF0003FFFFFFFFC000FFFFFFC00070008000FFFFFF80
310
007FFE0000007FF0000003FFFF80007F0001FFFFFF0000F0001FFFFFF8000FF8
310
000001FFFE0000007FFFFFF0001FFFFFFC0007FFFFFFF0001FFC0007FFFFFFF0
310
001FFF0003FFFFFFFFC000FFFFFFC00070008001FFFFFF0000FFFE0000003FF0
310
000001FFFF80007F0001FFFFFF0000F8001FFFFFF0000FF8000001FFFE000000
310
7FFFFFF0001FFFFFFC0007FFFFFFF0001FFC0007FFFFFFF0001FFF0003FFFFFF
310
FFC001FFFFFF80007000FFFFFFFFFE0000FFFE0008003FF0008001FFFF80007F
310
FFFFFFFFFC0000FFFFFFFFFFE0000FF8000001FFFE0000007FFFFFF0001FFFFF
310
F8000FFFFFFFF8000FF8000FFFFFFFF8000FFF0003FFFFFFFFFFFFFFFFFF0000
310
7000FFFFFFFFFC0000FFFC0008003FF0008001FFFF80007FFFFFFFFFF80001FF
310
FFFFFFFF80000FF8000001FFFE0000007FFFFFF0001FFFFFF8000FFFFFFFF800
310
0FF8000FFFFFFFF8000FFF0003FFFFFFFFFFFFFFFFFE0000F000FFFFFFFFE000
310
00FFFC000C003FE000C001FFFF80007FFFFFFFFFC00001FFFFFFFFFE00001FF8
310
000001FFFE0000007FFFFFF0001FFFFFF8000FFFFFFFF8000FF8000FFFFFFFF8
310
000FFF0003FFFFFFFFFFFFFFFFF00000F000FFFFFFFE000001FFFC000C001FE0
310
00C000FFFF80007FFFFFFFFE000001FFFFFFFFE000001FF80FFFFFFFFFFFFFC0
310
7FFFFFF0001FFFFFF8000FFFFFFFF8000FF8000FFFFFFFF8000FFF0003FFFFFF
310
FFFFFFFFFF800000F000FFFFFFC0000001FFFC001C001FE001C000FFFF80007F
310
FFFFFF80000003FFFFFFF80000001FF80FFFFFFFFFFFFFC07FFFFFF0001FFFFF
310
F8001FFFFFFFFC000FF8001FFFFFFFFC000FFF0003FFFFFFFFFFFFFFF0000001
310
F000FFFFF800000001FFF8001C001FE001C000FFFF80007FFFFFF800000003FF
310
FFFF800000003FF80FFFFFFFFFFFFFC07FFFFFF0001FFFFFF8001FFFFFFFFC00
310
0FF8001FFFFFFFFC000FFF0003FFFFFFFFFFFFFE00000001F000FFFFC0000000
310
03FFF8001E001FC001E000FFFF80007FFFFF8000000007FFFFFC000000003FF8
310
0FFFFFFFFFFFFFC07FFFFFF0001FFFFFF8001FFFFFFFFC000FF8001FFFFFFFFC
310
000FFF0003FFFFFFFFFFFFE000000003F000FFFE0000000007FFF8001E000FC0
310
01E0007FFF80007FFFFE0000000007FFFFE0000000007FF80FFFFFFFFFFFFFC0
310
7FFFFFF0001FFFFFF0001FFFFFFFFC0007F0001FFFFFFFFC0007FF0003FFFFFF
310
FFFFFF0000000003F000FFF80000000007FFF8001E000FC003E0007FFF80007F
310
FFF0000000000FFFFF8000000000FFF80FFFFFFFFFFFFFC07FFFFFF0001FFFFF
310
F0001FFFFFFFFC0007F0001FFFFFFFFC0007FF0003FFFFFFFFFFFC0000000007
310
F000FFE0000000000FFFF0003E000FC003E0007FFF80007FFFC0000000001FFF
310
FE0000000001FFF80FFFFFFFFFFFFFC07FFFFFF0001FFFFFF0001FFFFFFFFC00
310
07F0001FFFFFFFFC0007FF0003FFFFFFFFFFF0000000000FF000FFC000000000
310
1FFFF0003F000F8003F0003FFF80007FFF80000000003FFFF80000000003FFF8
310
0FFFFFFFFFFFFFC07FFFFFF0001FFFFFF0001FFFFFFFFC0007F0001FFFFFFFFC
310
0007FF0003FFFFFFFFFFE0000000001FF000FF00000000007FFFF0003F000780
310
03F0003FFF80007FFF00000000007FFFF00000000007FFF80FFFFFFFFFFFFFC0
310
7FFFFFF0001FFFFFF0001FFFFFFFFC0007F0001FFFFFFFFC0007FF0003FFFFFF
310
FFFF80000000007FF000FE0000000000FFFFE0003F00078007F0003FFF80007F
310
FE0000000001FFFFE0000000001FFFF80FFFFFFFFFFFFFC07FFFFFF0001FFFFF
310
F0001FFFFFFFFC0007F0001FFFFFFFFC0007FF0003FFFFFFFFFF0000000000FF
310
F000FC0000000003FFFFE0007F00078007F0003FFF80007FFC0000000007FFFF
310
C0000000007FFFF80FFFFFFFFFFFFFC07FFFFFF0001FFFFFF8001FFFFFFFFC00
310
0FF8001FFFFFFFFC000FFF0003FFFFFFFFFE0000000003FFF000FC000000000F
310
FFFFE0007F80070007F8001FFF80007FF8000000001FFFFF8000000001FFFFF8
310
0FFFFFFFFFFFFFC07FFFFFF0001FFFFFF8001FFFFFFFFC000FF8001FFFFFFFFC
310
000FFF0003FFFFFFFFFC000000000FFFF000F8000000007FFFFFE0007F800700
310
07F8001FFF80007FF000000000FFFFFF800000000FFFFFF80FFFFFFFFFFFFFC0
310
7FFFFFF0001FFFFFF8000FFFFFFFF8000FF8000FFFFFFFF8000FFF0003FFFFFF
310
FFFC000000007FFFF000F800000007FFFFFFC0007F8003000FF8001FFF80007F
310
F000000007FFFFFF000000007FFFFFF80FFFFFFFFFFFFFC07FFFFFF0001FFFFF
310
F8000FFFFFFFF8000FF8000FFFFFFFF8000FFF0003FFFFFFFFF80000000FFFFF
310
F000F0000000FFFFFFFFC000FF8003000FF8001FFF80007FE0000000FFFFFFFF
310
0000000FFFFFFFF8000001FFFE0000007FFFFFF0001FFFFFF8000FFFFFFFF800
310
0FF8000FFFFFFFF8000FFF0003FFFFFFFFF8000000FFFFFFF000F000000FFFFF
310
FFFFC000FFC002000FF8000FFF80007FE000001FFFFFFFFE000001FFFFFFFFF8
310
000001FFFE0000007FFFFFF0001FFFFFF8000FFFFFFFF8000FF8000FFFFFFFF8
310
000FFF0003FFFFFFFFF000001FFFFFFFF000E00000FFFFFFFFFFC000FFC00200
310
0FFC000FFF80007FE00001FFFFFFFFFE00001FFFFFFFFFF8000001FFFE000000
310
7FFFFFF0001FFFFFFC000FFFFFFFF8001FFC000FFFFFFFF8001FFF0003FFFFFF
310
FFF00001FFFFFFFFF000E00007FFFFFFFFFF8000FFC000001FFC000FFF80007F
310
C0000FFFFFFFFFFE0000FFFFFFFFFFF8000001FFFE0000007FFFFFF0001FFFFF
310
FC0007FFFFFFF0001FFC0007FFFFFFF0001FFF0003FFFFFFFFF00007FFFFFFFF
310
F000E0001FFFFFFFFFFF8000FFC000001FFC000FFF80007FC0003FFFFFFFFFFE
310
0001FFFFFFFFFFF8000001FFFE0000007FFFFFF0001FFFFFFC0007FFFFFFF000
310
1FFC0007FFFFFFF0001FFF0003FFFFFFFFF0001FFFFFFFFFF000E0003FFFFF00
310
03FF8001FFE000001FFC0007FF80007FC0007FFFFF0007FC0003FFFFF0003FF8
310
000001FFFE0000007FFFFFF0001FFFFFFC0003FFFFFFE0001FFC0003FFFFFFE0
310
001FFF0003FFFFFFFFF0003FFFFFFFFFF000E0003FFFFF0001FF8001FFE00000
310
1FFE0007FF80007FC0007FFFFE0003FC0007FFFFE0003FF8000001FFFE000000
310
7FFFFFF0001FFFFFFE0003FFFFFFE0003FFE0003FFFFFFE0003FFF0003FFFFFF
310
FFF0003FFFFF8001F000E0003FFFFF0001FF0001FFE000001FFE0007FF80007F
310
C0007FFFFE0003FC0007FFFFE0003FF8000001FFFE0000007FFFFFF0001FFFFF
310
FE0001FFFFFFC0003FFE0001FFFFFFC0003FFF0003FFFFFFFFF0003FFFFF0001
310
F000E0003FFFFF0003FF0001FFE000003FFE0007FF80007FC0007FFFFE0003FC
310
0007FFFFE0003FF8000001FFFE0000007FFFFFF0001FFFFFFF0001FFFFFFC000
310
7FFF0001FFFFFFC0007FFF0003FFFFFFFFF0003FFFFF0001F000E0003FFFFE00
310
03FF0003FFF000003FFE0003FF80007FC0007FFFFC0003FE0007FFFFE0003FF8
310
000001FFFE0000007FFFFFF0001FFFFFFF0000FFFFFF80007FFF0000FFFFFF80
310
007FFF0003FFFFFFFFF0003FFFFF0001F000E0003FFFFE0003FF0003FFF00000
310
3FFF0003FF80007FC0007FFFFC0007FE0007FFFFC0003FF8000001FFFE000000
310
7FFFFFF0001FFFFFFF80007FFFFF0000FFFF80007FFFFF0000FFFF0003FFFFFF
310
FFF0003FFFFF0003F000E0003FFFFC0003FE0003FFF000003FFF0003FF80007F
310
E0003FFFF80007FE0003FFFFC0007FF8000001FFFE0000007FFFFFF0001FFFFF
310
FF80003FFFFE0000FFFF80003FFFFE0000FFFF0003FFFFFFFFF0001FFFFE0003
310
F000F0001FFFF80003FE0003FFF000007FFF0001FF80007FE0003FFFF00007FE
310
0001FFFF80007FF8000001FFFE0000007FFFFFF0001FFFFFFFC0000FFFF80001
310
FFFFC0000FFFF80001FFFF0003FFFFFFFFF0001FFFFC0003F000F0000FFFF000
310
07FE0007FFF800007FFF0001FF80007FE0001FFFE00007FF0000FFFE00007FF8
310
000001FFFE0000007FFFFFF0001FFFFFFFC00003FFE00001FFFFC00003FFE000
310
01FFFF0003FFFFFFFFF8000FFFF80003F000F00003FFC00007FC0007FFF80000
310
7FFF8001FF80007FF00007FF80000FFF00007FF80000FFF8000001FFFE000000
310
7F80000000000001FFE000003E000003FFFFE000003E000003FFFF0003FFFFFF
310
FFF80003FFE00007F000F800000000000FFC0007FFF800007FFF8001FF80007F
310
F000000000000FFF000000000000FFF8000001FFFE0000007F80000000000001
310
FFF0000000000007FFFFF0000000000007FFFF0003FFFFFFFFFC00007E000007
310
F000F800000000000FFC0007FFF80000FFFF8000FF80007FF800000000001FFF
310
800000000001FFF8000001FFFE0000007F80000000000001FFF800000000000F
310
FFFFF800000000000FFFFF0003FFFFFFFFFC00000000000FF000FC0000000000
310
1FFC0007FFFC0000FFFF8000FF80007FF800000000003FFFC00000000001FFF8
310
000001FFFE0000007F80000000000001FFF800000000000FFFFFF80000000000
310
0FFFFF0003FFFFFFFFFE00000000001FF000FE00000000003FF8000FFFFC0000
310
FFFF8000FF80007FFC00000000003FFFC00000000003FFF8000001FFFE000000
310
7F80000000000001FFFC00000000001FFFFFFC00000000001FFFFF0003FFFFFF
310
FFFF00000000001FF000FF00000000003FF8000FFFFC0000FFFFC000FF80007F
310
FE00000000007FFFE00000000007FFF8000001FFFE0000007F80000000000001
310
FFFE00000000003FFFFFFE00000000003FFFFF0003FFFFFFFFFF80000000003F
310
F000FF80000000007FF8000FFFFC0001FFFFC0007F80007FFF0000000000FFFF
310
F0000000000FFFF800000000000000007F80000000000001FFFF8000000000FF
310
FFFFFF8000000000FFFFFF0003FFFFFFFFFFC0000000007FF000FFC000000000
310
FFF8000FFFFE0001FFFFC0007F80007FFF8000000001FFFFF8000000001FFFF8
310
00000000000000007F80000000000001FFFFC000000001FFFFFFFFC000000001
310
FFFFFF0003FFFFFFFFFFE000000000FFF000FFE000000003FFF0001FFFFE0001
310
FFFFC0007F80007FFFC000000007FFFFFE000000003FFFF80000000000000000
310
7F80000000000001FFFFE000000003FFFFFFFFE000000003FFFFFF0003FFFFFF
310
FFFFF000000003FFF000FFF80000000FFFF0001FFFFE0001FFFFE0007F80007F
310
FFF00000000FFFFFFF00000000FFFFF800000000000000007F80000000000001
310
FFFFF80000000FFFFFFFFFF80000000FFFFFFF0003FFFFFFFFFFFC0000000FFF
310
F000FFFE0000003FFFF0001FFFFE0003FFFFE0003F80007FFFFC0000003FFFFF
310
FFC0000003FFFFF800000000000000007F80000000000001FFFFFE0000003FFF
310
FFFFFFFE0000003FFFFFFF0003FFFFFFFFFFFF0000003FFFF000FFFF800000FF
310
FFF0001FFFFF0003FFFFE0003F80007FFFFF000001FFFFFFFFF800001FFFFFF8
310
00000000000000007F80000000000001FFFFFFC00001FFFFFFFFFFFFC00001FF
310
FFFFFF0003FFFFFFFFFFFFC00000FFFFF000FFFFF8000FFFFFFFFFFFFFFFFFFF
310
FFFFFFFFFFFFFFFFFFFFF0001FFFFFFFFFFF0000FFFFFFF80000000000000000
310
7FFFFFFFFFFFFFFFFFFFFFFC001FFFFFFFFFFFFFFC001FFFFFFFFFFFFFFFFFFF
310
FFFFFFFC001FFFFFF000FFFFFFFFFFFFFFFFFFFFFFFFFFFFFFFFFFFFFFFFFFFF
310
FFFFFFFFFFFFFFFFFFFFFFFFFFFFFFFFFFFFFFFFFFFFFFFFFFFFFFFFFFFFFFFF
310
FFFFFFFFFFFFFFFFFFFFFFFFFFFFFFFFFFFFFFFFFFFFFFFFFFFFFFFFFFFFFFFF
310
F000FFFFFFFFFFFFFFFFFFFFFFFFFFFFFFFFFFFFFFFFFFFFFFFFFFFFFFFFFFFF
310
FFFFFFFFFFFFFFFFFFFFFFFFFFFFFFFFFFFFFFFFFFFFFFFFFFFFFFFFFFFFFFFF
310
FFFFFFFFFFFFFFFFFFFFFFFFFFFFFFFFFFFFFFFFFFFFFFFFF000FFFFFFFFFFFF
310
FFFFFFFFFFFFFFFFFFFFFFFFFFFFFFFFFFFFFFFFFFFFFFFFFFFFFFFFFFFFFFFF
310
FFFFFFFFFFFFFFFFFFFFFFFFFFFFFFFFFFFFFFFFFFFFFFFFFFFFFFFFFFFFFFFF
310
FFFFFFFFFFFFFFFFFFFFFFFFFFFFFFFFF000FFFFFFFFFFFFFFFFFFFFFFFFFFFF
310
FFFFFFFFFFFFFFFFFFFFFFFFFFFFFFFFFFFFFFFFFFFFFFFFFFFFFFFFFFFFFFFF
310
FFFFFFFFFFFFFFFFFFFFFFFFFFFFFFFFFFFFFFFFFFFFFFFFFFFFFFFFFFFFFFFF
310
FFFFFFFFFFFFFFFFF000FFFFFFFFFFFFFFFFFFFFFFFFFFFFFFFFFFFFFFFFFFFF
310
FFFFFFFFFFFFFFFFFFFFFFFFFFFFFFFFFFFFFFFFFFFFFFFFFFFFFFFFFFFFFFFF
310
FFFFFFFFFFFFFFFFFFFFFFFFFFFFFFFFFFFFFFFFFFFFFFFFFFFFFFFFFFFFFFFF
310
F000FFFFFFFFFFFFFFFFFFFFFFFFFFFFFFFFFFFFFFFFFFFFFFFFFFFFFFFFFFFF
310
FFFFFFFFFFFFFFFFFFFFFFFFFFFFFFFFFFFFFFFFFFFFFFFFFFFFFFFFFFFFFFFF
310
FFFFFFFFFFFFFFFFFFFFFFFFFFFFFFFFFFFFFFFFFFFFFFFFF000FFFFFFFFFFFF
310
FFFFFFFFFFFFFFFFFFFFFFFFFFFFFFFFFFFFFFFFFFFFFFFFFFFFFFFFFFFFFFFF
310
FFFFFFFFFFFFFFFFFFFFFFFFFFFFFFFFFFFFFFFFFFFFFFFFFFFFFFFFFFFFFFFF
310
FFFFFFFFFFFFFFFFFFFFFFFFFFFFFFFFF000FFFFFFFFFFFFFFFFFFFFFFFFFFFF
310
FFFFFFFFFFFFFFFFFFFFFFFFFFFFFFFFFFFFFFFFFFFFFFFFFFFFFFFFFFFFFFFF
310
FFFFFFFFFFFFFFFFFFFFFFFFFFFFFFFFFFFFFFFFFFFFFFFFFFFFFFFFFFFFFFFF
310
FFFFFFFFFFFFFFFFF000FFFFFFFFFFFFFFFFFFFFFFFFFFFFFFFFFFFFFFFFFFFF
310
FFFFFFFFFFFFFFFFFFFFFFFFFFFFFFFFFFFFFFFFFFFFFFFFFFFFFFFFFFFFFFFF
310
FFFFFFFFFFFFFFFFFFFFFFFFFFFFFFFFFFFFFFFFFFFFFFFFFFFFFFFFFFFFFFFF
310
F000FFFFFFFFFFFFFFFFFFFFFFFFFFFFFFFFFFFFFFFFFFFFFFFFFFFFFFFFFFFF
310
FFFFFFFFFFFFFFFFFFFFFFFFFFFFFFFFFFFFFFFFFFFFFFFFFFFFFFFFFFFFFFFF
310
FFFFFFFFFFFFFFFFFFFFFFFFFFFFFFFFFFFFFFFFFFFFFFFFF000FFFFFFFFFFFF
310
FFFFFFFFFFFFFFFFFFFFFFFFFFFFFFFFFFFFFFFFFFFFFFFFFFFFFFFFFFFFFFFF
310
FFFFFFFFFFFFFFFFFFFFFFFFFFFFFFFFFFFFFFFFFFFFFFFFFFFFFFFFFFFFFFFF
310
FFFFFFFFFFFFFFFFFFFFFFFFFFFFFFFFF000FFFFFFFFFFFFFFFFFFFFFFFFFFFF
310
FFFFFFFFFFFFFFFFFFFFFFFFFFFFFFFFFFFFFFFFFFFFFFFFFFFFFFFFFFFFFFFF
310
FFFFFFFFFFFFFFFFFFFFFFFFFFFFFFFFFFFFFFFFFFFFFFFFFFFFFFFFFFFFFFFF
310
FFFFFFFFFFFFFFFFF000FFFFFFFFFFFFFFFFFFFFFFFFFFFFFFFFFFFFFFFFFFFF
310
FFFFFFFFFFFFFFFFFFFFFFFFFFFFFFFFFFFFFFFFFFFFFFFFFFFFFFFFFFFFFFFF
310
FFFFFFFFFFFFFFFFFFFFFFFFFFFFFFFFFFFFFFFFFFFFFFFFFFFFFFFFFFFFFFFF
310
F000FFFFFFFFFFFFFFFFFFFFFFFFFFFFFFFFFFFFFFFFFFFFFFFFFFFFFFFFFFFF
310
FFFFFFFFFFFFFFFFFFFFFFFFFFFFFFFFFFFFFFFFFFFFFFFFFFFFFFFFFFFFFFFF
310
FFFFFFFFFFFFFFFFFFFFFFFFFFFFFFFFFFFFFFFFFFFFFFFFF000FFFFFFFFFFFF
310
FFFFFFFFFFFFFFFFFFFFFFFFFFFFFFFFFFFFFFFFFFFFFFFFFFFFFFFFFFFFFFFF
310
FFFFFFFFFFFFFFFFFFFFFFFFFFFFFFFFFFFFFFFFFFFFFFFFFFFFFFFFFFFFFFFF
310
FFFFFFFFFFFFFFFFFFFFFFFFFFFFFFFFF000FFFFFFFFFFFFFFFFFFFFFFFFFFFF
310
FFFFFFFFFFFFFFFFFFFFFFFFFFFFFFFFFFFFFFFFFFFFFFFFFFFFFFFFFFFFFFFF
310
FFFFFFFFFFFFFFFFFFFFFFFFFFFFFFFFFFFFFFFFFFFFFFFFFFFFFFFFFFFFFFFF
310
FFFFFFFFFFFFFFFFF000FFFFFFFFFFFFFFFFFFFFFFFFFFFFFFFFFFFFFFFFFFFF
310
FFFFFFFFFFFFFFFFFFFFFFFFFFFFFFFFFFFFFFFFFFFFFFFFFFFFFFFFFFFFFFFF
310
FFFFFFFFFFFFFFFFFFFFFFFFFFFFFFFFFFFFFFFFFFFFFFFFFFFFFFFFFFFFFFFF
310
F000FFFFFFFFFFFFFFFFFFFFFFFFFFFFFFFFFFFFFFFFFFFFFFFFFFFFFFFFFFFF
310
FFFFFFFFFFFFFFFFFFFFFFFFFFFFFFFFFFFFFFFFFFFFFFFFFFFFFFFFFFFFFFFF
310
FFFFFFFFFFFFFFFFFFFFFFFFFFFFFFFFFFFFFFFFFFFFFFFFF000FFFFFFFFFFFF
310
FFFFFFFFFFFFFFFFFFFFFFFFFFFFFFFFFFFFFFFFFFFFFFFFFFFFFFFFFFFFFFFF
310
FFFFFFFFFFFFFFFFFFFFFFFFFFFFFFFFFFFFFFFFFFFFFFFFFFFFFFFFFFFFFFFF
310
FFFFFFFFFFFFFFFFFFFFFFFFFFFFFFFFF000FFFFFFFFFFFFFFFFFFFFFFFFFFFF
310
FFFFFFFFFFFFFFFFFFFFFFFFFFFFFFFFFFFFFFFFFFFFFFFFFFFFFFFFFFFFFFFF
310
FFFFFFFFFFFFFFFFFFFFFFFFFFFFFFFFFFFFFFFFFFFFFFFFFFFFFFFFFFFFFFFF
310
FFFFFFFFFFFFFFFFF000FFFFFFFFFFFFFFFFFFFFFFFFFFFFFFFFFFFFFFFFFFFF
310
FFFFFFFFFFFFFFFFFFFFFFFFFFFFFFFFFFFFFFFFFFFFFFFFFFFFFFFFFFFFFFFF
310
FFFFFFFFFFFFFFFFFFFFFFFFFFFFFFFFFFFFFFFFFFFFFFFFFFFFFFFFFFFFFFFF
310
F000FFFFFFFFFFFFFFFFFFFFFFFFFFFFFFFFFFFFFFFFFFFFFFFFFFFFFFFFFFFF
310
FFFFFFFFFFFFFFFFFFFFFFFFFFFFFFFFFFFFFFFFFFFFFFFFFFFFFFFFFFFFFFFF
310
FFFFFFFFFFFFFFFFFFFFFFFFFFFFFFFFFFFFFFFFFFFFFFFFF000FFFFFFFFFFFF
310
FFFFFFFFFFFFFFFFFFFFFFFFFFFFFFFFFFFFFFFFFFFFFFFFFFFFFFFFFFFFFFFF
310
FFFFFFFFFFFFFFFFFFFFFFFFFFFFFFFFFFFFFFFFFFFFFFFFFFFFFFFFFFFFFFFF
310
FFFFFFFFFFFFFFFFFFFFFFFFFFFFFFFFF0000000000000000000000000000000
310
0000000000000000000000000000000000000000000000000000000000000000
310
0000000000000000000000000000000000000000000000000000000000000000
310
0000000000000000000000000000000000000000000000000000000000000000
310
0000000000000000000000000000000000000000000000000000000000000000
310
0000000000000000000000000000000000000000000000000000000000000000
310
0000000000000000000000000000000000000000000000000000000000000000
310
0000000000000000000000000000000000000000000000000000000000000000
310
0000000000000000000000000000000000000000000000000000000000000000
310
0000000000000000000000000000000000000000000000000000000000000000
310
0000000000000000000000000000000000000000000000000000000000000000
310
0000000000000000000000000000000000000000000000000000000000000000
310
0000000000000000000000000000000000000000000000000000000000000000
310
0000000000000000000000000000000000000000000000000000000000000000
310
0000000000000000000000000000000000000000000000000000000000000000
310
0000000000000000000000000000000000000000000000000000000000000000
  1
OLE
  0
ENDSEC
  0
SECTION
  2
OBJECTS
  0
DICTIONARY
  5
C
330
0
100
AcDbDictionary
281
     1
  3
ACAD_GROUP
350
D
  3
ACAD_LAYOUT
350
1A
  3
ACAD_MLINESTYLE
350
17
  3
ACAD_PLOTSETTINGS
350
19
  3
ACAD_PLOTSTYLENAME
350
E
  3
ACAD_SCALELIST
350
47
  0
DICTIONARY
  5
D
102
{ACAD_REACTORS
330
C
102
}
330
C
100
AcDbDictionary
281
     1
  0
DICTIONARY
  5
1A
102
{ACAD_REACTORS
330
C
102
}
330
C
100
AcDbDictionary
281
     1
  3
Layout1
350
1E
  3
Layout2
350
26
  3
Model
350
22
  0
DICTIONARY
  5
17
102
{ACAD_REACTORS
330
C
102
}
330
C
100
AcDbDictionary
281
     1
  3
Standard
350
18
  0
DICTIONARY
  5
19
102
{ACAD_REACTORS
330
C
102
}
330
C
100
AcDbDictionary
281
     1
  0
ACDBDICTIONARYWDFLT
  5
E
102
{ACAD_REACTORS
330
C
102
}
330
C
100
AcDbDictionary
281
     1
  3
Normal
350
F
100
AcDbDictionaryWithDefault
340
F
  0
DICTIONARY
  5
47
102
{ACAD_REACTORS
330
C
102
}
330
C
100
AcDbDictionary
281
     1
  3
A0
350
48
  3
A1
350
49
  3
A2
350
4A
  3
A3
350
4B
  3
A4
350
4C
  3
A5
350
4D
  3
A6
350
4E
  3
A7
350
4F
  3
A8
350
50
  3
A9
350
51
  3
B0
350
52
  3
B1
350
53
  3
B2
350
54
  3
B3
350
55
  3
B4
350
56
  3
B5
350
57
  3
B6
350
58
  3
B7
350
59
  3
B8
350
5A
  3
B9
350
5B
  3
C0
350
5C
  3
C1
350
5D
  3
C2
350
5E
  3
C3
350
5F
  3
C4
350
60
  3
C5
350
61
  3
C6
350
62
  3
C7
350
63
  3
C8
350
64
  3
C9
350
65
  3
D0
350
66
  3
D1
350
67
  3
D2
350
68
  0
LAYOUT
  5
1E
102
{ACAD_REACTORS
330
1A
102
}
330
1A
100
AcDbPlotSettings
  1

  2
none_device
  4

  6

 40
0.0
 41
0.0
 42
0.0
 43
0.0
 44
0.0
 45
0.0
 46
0.0
 47
0.0
 48
0.0
 49
0.0
140
0.0
141
0.0
142
1.0
143
1.0
 70
   688
 72
     1
 73
     0
 74
     5
  7

 75
    16
147
1.0
148
0.0
149
0.0
100
AcDbLayout
  1
Layout1
 70
     1
 71
     1
 10
0.0
 20
0.0
 11
420.0
 21
297.0
 12
0.0
 22
0.0
 32
0.0
 14
1.0000000000E+20
 24
1.0000000000E+20
 34
1.0000000000E+20
 15
-1.0000000000E+20
 25
-1.0000000000E+20
 35
-1.0000000000E+20
146
0.0
 13
0.0
 23
0.0
 33
0.0
 16
1.0
 26
0.0
 36
0.0
 17
0.0
 27
1.0
 37
0.0
 76
     0
330
1B
  0
LAYOUT
  5
26
102
{ACAD_REACTORS
330
1A
102
}
330
1A
100
AcDbPlotSettings
  1

  2
none_device
  4

  6

 40
0.0
 41
0.0
 42
0.0
 43
0.0
 44
0.0
 45
0.0
 46
0.0
 47
0.0
 48
0.0
 49
0.0
140
0.0
141
0.0
142
1.0
143
1.0
 70
   688
 72
     1
 73
     0
 74
     5
  7

 75
    16
147
1.0
148
0.0
149
0.0
100
AcDbLayout
  1
Layout2
 70
     1
 71
     2
 10
0.0
 20
0.0
 11
0.0
 21
0.0
 12
0.0
 22
0.0
 32
0.0
 14
0.0
 24
0.0
 34
0.0
 15
0.0
 25
0.0
 35
0.0
146
0.0
 13
0.0
 23
0.0
 33
0.0
 16
1.0
 26
0.0
 36
0.0
 17
0.0
 27
1.0
 37
0.0
 76
     0
330
23
  0
LAYOUT
  5
22
102
{ACAD_REACTORS
330
1A
102
}
330
1A
100
AcDbPlotSettings
  1

  2
none_device
  4
Letter_(8.50_x_11.00_Inches)
  6

 40
6.35
 41
6.35
 42
6.35000508
 43
6.35000508
 44
215.9
 45
279.4
 46
0.0
 47
0.0
 48
0.0
 49
0.0
140
0.0
141
0.0
142
1.0
143
1.0
 70
  1712
 72
     1
 73
     0
 74
     0
  7

 75
     0
147
1.0
148
0.0
149
0.0
100
AcDbLayout
  1
Model
 70
     1
 71
     0
 10
0.0
 20
0.0
 11
297.0
 21
210.0
 12
0.0
 22
0.0
 32
0.0
 14
0.0
 24
0.0
 34
0.0
 15
297.0
 25
210.0
 35
0.0
146
0.0
 13
0.0
 23
0.0
 33
0.0
 16
1.0
 26
0.0
 36
0.0
 17
0.0
 27
1.0
 37
0.0
 76
     0
330
1F
331
29
  0
MLINESTYLE
  5
18
102
{ACAD_REACTORS
330
17
102
}
330
17
100
AcDbMlineStyle
  2
Standard
 70
     0
  3

 62
   256
 51
90.0
 52
90.0
 71
     2
 49
0.5
 62
   256
  6
BYLAYER
 49
-0.5
 62
   256
  6
BYLAYER
  0
ACDBPLACEHOLDER
  5
F
102
{ACAD_REACTORS
330
E
102
}
330
E
  0
SCALE
  5
48
102
{ACAD_REACTORS
330
47
102
}
330
47
100
AcDbScale
 70
     0
300
1:1
140
1.0
141
1.0
290
     1
  0
SCALE
  5
49
102
{ACAD_REACTORS
330
47
102
}
330
47
100
AcDbScale
 70
     0
300
1:2
140
1.0
141
2.0
290
     0
  0
SCALE
  5
4A
102
{ACAD_REACTORS
330
47
102
}
330
47
100
AcDbScale
 70
     0
300
1:4
140
1.0
141
4.0
290
     0
  0
SCALE
  5
4B
102
{ACAD_REACTORS
330
47
102
}
330
47
100
AcDbScale
 70
     0
300
1:5
140
1.0
141
5.0
290
     0
  0
SCALE
  5
4C
102
{ACAD_REACTORS
330
47
102
}
330
47
100
AcDbScale
 70
     0
300
1:8
140
1.0
141
8.0
290
     0
  0
SCALE
  5
4D
102
{ACAD_REACTORS
330
47
102
}
330
47
100
AcDbScale
 70
     0
300
1:10
140
1.0
141
10.0
290
     0
  0
SCALE
  5
4E
102
{ACAD_REACTORS
330
47
102
}
330
47
100
AcDbScale
 70
     0
300
1:16
140
1.0
141
16.0
290
     0
  0
SCALE
  5
4F
102
{ACAD_REACTORS
330
47
102
}
330
47
100
AcDbScale
 70
     0
300
1:20
140
1.0
141
20.0
290
     0
  0
SCALE
  5
50
102
{ACAD_REACTORS
330
47
102
}
330
47
100
AcDbScale
 70
     0
300
1:30
140
1.0
141
30.0
290
     0
  0
SCALE
  5
51
102
{ACAD_REACTORS
330
47
102
}
330
47
100
AcDbScale
 70
     0
300
1:40
140
1.0
141
40.0
290
     0
  0
SCALE
  5
52
102
{ACAD_REACTORS
330
47
102
}
330
47
100
AcDbScale
 70
     0
300
1:50
140
1.0
141
50.0
290
     0
  0
SCALE
  5
53
102
{ACAD_REACTORS
330
47
102
}
330
47
100
AcDbScale
 70
     0
300
1:100
140
1.0
141
100.0
290
     0
  0
SCALE
  5
54
102
{ACAD_REACTORS
330
47
102
}
330
47
100
AcDbScale
 70
     0
300
2:1
140
2.0
141
1.0
290
     0
  0
SCALE
  5
55
102
{ACAD_REACTORS
330
47
102
}
330
47
100
AcDbScale
 70
     0
300
4:1
140
4.0
141
1.0
290
     0
  0
SCALE
  5
56
102
{ACAD_REACTORS
330
47
102
}
330
47
100
AcDbScale
 70
     0
300
8:1
140
8.0
141
1.0
290
     0
  0
SCALE
  5
57
102
{ACAD_REACTORS
330
47
102
}
330
47
100
AcDbScale
 70
     0
300
10:1
140
10.0
141
1.0
290
     0
  0
SCALE
  5
58
102
{ACAD_REACTORS
330
47
102
}
330
47
100
AcDbScale
 70
     0
300
100:1
140
100.0
141
1.0
290
     0
  0
SCALE
  5
59
102
{ACAD_REACTORS
330
47
102
}
330
47
100
AcDbScale
 70
     0
300
1/128" = 1'-0"
140
0.0078125
141
12.0
290
     0
  0
SCALE
  5
5A
102
{ACAD_REACTORS
330
47
102
}
330
47
100
AcDbScale
 70
     0
300
1/64" = 1'-0"
140
0.015625
141
12.0
290
     0
  0
SCALE
  5
5B
102
{ACAD_REACTORS
330
47
102
}
330
47
100
AcDbScale
 70
     0
300
1/32" = 1'-0"
140
0.03125
141
12.0
290
     0
  0
SCALE
  5
5C
102
{ACAD_REACTORS
330
47
102
}
330
47
100
AcDbScale
 70
     0
300
1/16" = 1'-0"
140
0.0625
141
12.0
290
     0
  0
SCALE
  5
5D
102
{ACAD_REACTORS
330
47
102
}
330
47
100
AcDbScale
 70
     0
300
3/32" = 1'-0"
140
0.09375
141
12.0
290
     0
  0
SCALE
  5
5E
102
{ACAD_REACTORS
330
47
102
}
330
47
100
AcDbScale
 70
     0
300
1/8" = 1'-0"
140
0.125
141
12.0
290
     0
  0
SCALE
  5
5F
102
{ACAD_REACTORS
330
47
102
}
330
47
100
AcDbScale
 70
     0
300
3/16" = 1'-0"
140
0.1875
141
12.0
290
     0
  0
SCALE
  5
60
102
{ACAD_REACTORS
330
47
102
}
330
47
100
AcDbScale
 70
     0
300
1/4" = 1'-0"
140
0.25
141
12.0
290
     0
  0
SCALE
  5
61
102
{ACAD_REACTORS
330
47
102
}
330
47
100
AcDbScale
 70
     0
300
3/8" = 1'-0"
140
0.375
141
12.0
290
     0
  0
SCALE
  5
62
102
{ACAD_REACTORS
330
47
102
}
330
47
100
AcDbScale
 70
     0
300
1/2" = 1'-0"
140
0.5
141
12.0
290
     0
  0
SCALE
  5
63
102
{ACAD_REACTORS
330
47
102
}
330
47
100
AcDbScale
 70
     0
300
3/4" = 1'-0"
140
0.75
141
12.0
290
     0
  0
SCALE
  5
64
102
{ACAD_REACTORS
330
47
102
}
330
47
100
AcDbScale
 70
     0
300
1" = 1'-0"
140
1.0
141
12.0
290
     0
  0
SCALE
  5
65
102
{ACAD_REACTORS
330
47
102
}
330
47
100
AcDbScale
 70
     0
300
1-1/2" = 1'-0"
140
1.5
141
12.0
290
     0
  0
SCALE
  5
66
102
{ACAD_REACTORS
330
47
102
}
330
47
100
AcDbScale
 70
     0
300
3" = 1'-0"
140
3.0
141
12.0
290
     0
  0
SCALE
  5
67
102
{ACAD_REACTORS
330
47
102
}
330
47
100
AcDbScale
 70
     0
300
6" = 1'-0"
140
6.0
141
12.0
290
     0
  0
SCALE
  5
68
102
{ACAD_REACTORS
330
47
102
}
330
47
100
AcDbScale
 70
     0
300
1'-0" = 1'-0"
140
12.0
141
12.0
290
     0
  0
ENDSEC
  0
EOF
