  0
SECTION
  2
HEADER
  9
$ACADVER
  1
AC1015
  9
$ACADMAINTVER
 70
     6
  9
$DWGCODEPAGE
  3
ANSI_1252
  9
$INSBASE
 10
0.0
 20
0.0
 30
0.0
  9
$EXTMIN
 10
0.0
 20
0.0
 30
0.0
  9
$EXTMAX
 10
297.0
 20
210.0
 30
0.0
  9
$LIMMIN
 10
0.0
 20
0.0
  9
$LIMMAX
 10
297.0
 20
210.0
  9
$ORTHOMODE
 70
     0
  9
$REGENMODE
 70
     1
  9
$FILLMODE
 70
     1
  9
$QTEXTMODE
 70
     0
  9
$MIRRTEXT
 70
     1
  9
$LTSCALE
 40
1.0
  9
$ATTMODE
 70
     1
  9
$TEXTSIZE
 40
2.0
  9
$TRACEWID
 40
1.0
  9
$TEXTSTYLE
  7
Standard
  9
$CLAYER
  8
0
  9
$CELTYPE
  6
ByLayer
  9
$CECOLOR
 62
   256
  9
$CELTSCALE
 40
1.0
  9
$DISPSILH
 70
     0
  9
$DIMSCALE
 40
1.0
  9
$DIMASZ
 40
3.0
  9
$DIMEXO
 40
0.0
  9
$DIMDLI
 40
3.75
  9
$DIMRND
 40
0.0
  9
$DIMDLE
 40
0.0
  9
$DIMEXE
 40
1.0
  9
$DIMTP
 40
0.0
  9
$DIMTM
 40
0.0
  9
$DIMTXT
 40
2.0
  9
$DIMCEN
 40
2.5
  9
$DIMTSZ
 40
0.0
  9
$DIMTOL
 70
     0
  9
$DIMLIM
 70
     0
  9
$DIMTIH
 70
     1
  9
$DIMTOH
 70
     1
  9
$DIMSE1
 70
     0
  9
$DIMSE2
 70
     0
  9
$DIMTAD
 70
     1
  9
$DIMZIN
 70
     0
  9
$DIMBLK
  1

  9
$DIMASO
 70
     1
  9
$DIMSHO
 70
     1
  9
$DIMPOST
  1

  9
$DIMAPOST
  1

  9
$DIMALT
 70
     0
  9
$DIMALTD
 70
     3
  9
$DIMALTF
 40
0.0393700787
  9
$DIMLFAC
 40
1.0
  9
$DIMTOFL
 70
     1
  9
$DIMTVP
 40
0.0
  9
$DIMTIX
 70
     0
  9
$DIMSOXD
 70
     0
  9
$DIMSAH
 70
     0
  9
$DIMBLK1
  1

  9
$DIMBLK2
  1

  9
$DIMSTYLE
  2
ISO-25
  9
$DIMCLRD
 70
     0
  9
$DIMCLRE
 70
     0
  9
$DIMCLRT
 70
     0
  9
$DIMTFAC
 40
1.0
  9
$DIMGAP
 40
1.524
  9
$DIMJUST
 70
     0
  9
$DIMSD1
 70
     0
  9
$DIMSD2
 70
     0
  9
$DIMTOLJ
 70
     0
  9
$DIMTZIN
 70
     0
  9
$DIMALTZ
 70
     0
  9
$DIMALTTZ
 70
     0
  9
$DIMUPT
 70
     0
  9
$DIMDEC
 70
     2
  9
$DIMTDEC
 70
     3
  9
$DIMALTU
 70
     2
  9
$DIMALTTD
 70
     3
  9
$DIMTXSTY
  7
Standard
  9
$DIMAUNIT
 70
     0
  9
$DIMADEC
 70
     2
  9
$DIMALTRND
 40
0.0
  9
$DIMAZIN
 70
     0
  9
$DIMDSEP
 70
    44
  9
$DIMATFIT
 70
     3
  9
$DIMFRAC
 70
     0
  9
$DIMLDRBLK
  1

  9
$DIMLUNIT
 70
     2
  9
$DIMLWD
 70
    -2
  9
$DIMLWE
 70
    -2
  9
$DIMTMOVE
 70
     0
  9
$LUNITS
 70
     2
  9
$LUPREC
 70
     2
  9
$SKETCHINC
 40
1.0
  9
$FILLETRAD
 40
10.0
  9
$AUNITS
 70
     0
  9
$AUPREC
 70
     2
  9
$MENU
  1
.
  9
$ELEVATION
 40
0.0
  9
$PELEVATION
 40
0.0
  9
$THICKNESS
 40
0.0
  9
$LIMCHECK
 70
     0
  9
$CHAMFERA
 40
10.0
  9
$CHAMFERB
 40
10.0
  9
$CHAMFERC
 40
20.0
  9
$CHAMFERD
 40
0.0
  9
$SKPOLY
 70
     0
  9
$TDCREATE
 40
2455673.419743773
  9
$TDUCREATE
 40
2455673.33641044
  9
$TDUPDATE
 40
2455673.419743785
  9
$TDUUPDATE
 40
2455673.336410451
  9
$TDINDWG
 40
0.0000000116
  9
$TDUSRTIMER
 40
0.0000000116
  9
$USRTIMER
 70
     1
  9
$ANGBASE
 50
0.0
  9
$ANGDIR
 70
     0
  9
$PDMODE
 70
     0
  9
$PDSIZE
 40
-1.0
  9
$PLINEWID
 40
0.0
  9
$SPLFRAME
 70
     0
  9
$SPLINETYPE
 70
     6
  9
$SPLINESEGS
 70
     8
  9
$HANDSEED
  5
234
  9
$SURFTAB1
 70
     6
  9
$SURFTAB2
 70
     6
  9
$SURFTYPE
 70
     6
  9
$SURFU
 70
     6
  9
$SURFV
 70
     6
  9
$UCSBASE
  2

  9
$UCSNAME
  2

  9
$UCSORG
 10
0.0
 20
0.0
 30
0.0
  9
$UCSXDIR
 10
1.0
 20
0.0
 30
0.0
  9
$UCSYDIR
 10
0.0
 20
1.0
 30
0.0
  9
$UCSORTHOREF
  2

  9
$UCSORTHOVIEW
 70
     0
  9
$UCSORGTOP
 10
0.0
 20
0.0
 30
0.0
  9
$UCSORGBOTTOM
 10
0.0
 20
0.0
 30
0.0
  9
$UCSORGLEFT
 10
0.0
 20
0.0
 30
0.0
  9
$UCSORGRIGHT
 10
0.0
 20
0.0
 30
0.0
  9
$UCSORGFRONT
 10
0.0
 20
0.0
 30
0.0
  9
$UCSORGBACK
 10
0.0
 20
0.0
 30
0.0
  9
$PUCSBASE
  2

  9
$PUCSNAME
  2

  9
$PUCSORG
 10
0.0
 20
0.0
 30
0.0
  9
$PUCSXDIR
 10
1.0
 20
0.0
 30
0.0
  9
$PUCSYDIR
 10
0.0
 20
1.0
 30
0.0
  9
$PUCSORTHOREF
  2

  9
$PUCSORTHOVIEW
 70
     0
  9
$PUCSORGTOP
 10
0.0
 20
0.0
 30
0.0
  9
$PUCSORGBOTTOM
 10
0.0
 20
0.0
 30
0.0
  9
$PUCSORGLEFT
 10
0.0
 20
0.0
 30
0.0
  9
$PUCSORGRIGHT
 10
0.0
 20
0.0
 30
0.0
  9
$PUCSORGFRONT
 10
0.0
 20
0.0
 30
0.0
  9
$PUCSORGBACK
 10
0.0
 20
0.0
 30
0.0
  9
$USERI1
 70
     0
  9
$USERI2
 70
     0
  9
$USERI3
 70
     0
  9
$USERI4
 70
     0
  9
$USERI5
 70
     0
  9
$USERR1
 40
0.0
  9
$USERR2
 40
0.0
  9
$USERR3
 40
0.0
  9
$USERR4
 40
0.0
  9
$USERR5
 40
0.0
  9
$WORLDVIEW
 70
     1
  9
$SHADEDGE
 70
     3
  9
$SHADEDIF
 70
    70
  9
$TILEMODE
 70
     1
  9
$MAXACTVP
 70
    64
  9
$PINSBASE
 10
0.0
 20
0.0
 30
0.0
  9
$PLIMCHECK
 70
     0
  9
$PEXTMIN
 10
1.0000000000E+20
 20
1.0000000000E+20
 30
1.0000000000E+20
  9
$PEXTMAX
 10
-1.0000000000E+20
 20
-1.0000000000E+20
 30
-1.0000000000E+20
  9
$PLIMMIN
 10
0.0
 20
0.0
  9
$PLIMMAX
 10
420.0
 20
297.0
  9
$UNITMODE
 70
     0
  9
$VISRETAIN
 70
     1
  9
$PLINEGEN
 70
     0
  9
$PSLTSCALE
 70
     1
  9
$TREEDEPTH
 70
  3020
  9
$CMLSTYLE
  2
Standard
  9
$CMLJUST
 70
     0
  9
$CMLSCALE
 40
20.0
  9
$PROXYGRAPHICS
 70
     1
  9
$MEASUREMENT
 70
     1
  9
$CELWEIGHT
370
    -1
  9
$ENDCAPS
280
     0
  9
$JOINSTYLE
280
     0
  9
$LWDISPLAY
290
     1
  9
$INSUNITS
 70
     4
  9
$HYPERLINKBASE
  1

  9
$STYLESHEET
  1

  9
$XEDIT
290
     1
  9
$CEPSNTYPE
380
     0
  9
$PSTYLEMODE
290
     1
  9
$FINGERPRINTGUID
  2
{2F3FFC20-2B00-4F50-9D2A-CD8D5D6992CE}
  9
$VERSIONGUID
  2
{FAEB1C32-E019-11D5-929B-00C0DF256EC4}
  9
$EXTNAMES
290
     1
  9
$PSVPSCALE
 40
0.0
  9
$OLESTARTUP
290
     0
  0
ENDSEC
  0
SECTION
  2
CLASSES
  0
CLASS
  1
ACDBDICTIONARYWDFLT
  2
AcDbDictionaryWithDefault
  3
ObjectDBX Classes
 90
        0
280
     0
281
     0
  0
CLASS
  1
VISUALSTYLE
  2
AcDbVisualStyle
  3
ObjectDBX Classes
 90
     4095
280
     0
281
     0
  0
CLASS
  1
DICTIONARYVAR
  2
AcDbDictionaryVar
  3
ObjectDBX Classes
 90
        0
280
     0
281
     0
  0
CLASS
  1
ACDBPLACEHOLDER
  2
AcDbPlaceHolder
  3
ObjectDBX Classes
 90
        0
280
     0
281
     0
  0
CLASS
  1
LAYOUT
  2
AcDbLayout
  3
ObjectDBX Classes
 90
        0
280
     0
281
     0
  0
ENDSEC
  0
SECTION
  2
TABLES
  0
TABLE
  2
VPORT
  5
8
330
0
100
AcDbSymbolTable
 70
     1
  0
VPORT
  5
29
330
8
100
AcDbSymbolTableRecord
100
AcDbViewportTableRecord
  2
*Active
 70
     0
 10
0.0
 20
0.0
 11
1.0
 21
1.0
 12
148.5
 22
105.0
 13
0.0
 23
0.0
 14
10.0
 24
10.0
 15
10.0
 25
10.0
 16
0.0
 26
0.0
 36
1.0
 17
0.0
 27
0.0
 37
0.0
 40
210.0
 41
1.4142857143
 42
50.0
 43
0.0
 44
0.0
 50
0.0
 51
0.0
 71
     0
 72
  2000
 73
     1
 74
     3
 75
     0
 76
     0
 77
     0
 78
     0
281
     0
 65
     1
110
0.0
120
0.0
130
0.0
111
1.0
121
0.0
131
0.0
112
0.0
122
1.0
132
0.0
 79
     0
146
0.0
  0
ENDTAB
  0
TABLE
  2
LTYPE
  5
5
330
0
100
AcDbSymbolTable
 70
     6
  0
LTYPE
  5
14
330
5
100
AcDbSymbolTableRecord
100
AcDbLinetypeTableRecord
  2
ByBlock
 70
     0
  3

 72
    65
 73
     0
 40
0.0
  0
LTYPE
  5
15
330
5
100
AcDbSymbolTableRecord
100
AcDbLinetypeTableRecord
  2
ByLayer
 70
     0
  3

 72
    65
 73
     0
 40
0.0
  0
LTYPE
  5
16
330
5
100
AcDbSymbolTableRecord
100
AcDbLinetypeTableRecord
  2
Continuous
 70
     0
  3
Solid line
 72
    65
 73
     0
 40
0.0
  0
LTYPE
  5
3B
330
5
100
AcDbSymbolTableRecord
100
AcDbLinetypeTableRecord
  2
HIDDEN
 70
     0
  3
Hidden __ __ __ __ __ __ __ __ __ __ __ __ __ __
 72
    65
 73
     2
 40
1.905
 49
1.27
 74
     0
 49
-0.635
 74
     0
  0
LTYPE
  5
3C
330
5
100
AcDbSymbolTableRecord
100
AcDbLinetypeTableRecord
  2
PHANTOM
 70
     0
  3
Phantom ______  __  __  ______  __  __  ______
 72
    65
 73
     6
 40
12.7
 49
6.35
 74
     0
 49
-1.27
 74
     0
 49
1.27
 74
     0
 49
-1.27
 74
     0
 49
1.27
 74
     0
 49
-1.27
 74
     0
  0
LTYPE
  5
3D
330
5
100
AcDbSymbolTableRecord
100
AcDbLinetypeTableRecord
  2
CENTER
 70
     0
  3
Center ____ _ ____ _ ____ _ ____ _ ____ _ ____
 72
    65
 73
     4
 40
10.16
 49
6.35
 74
     0
 49
-1.27
 74
     0
 49
1.27
 74
     0
 49
-1.27
 74
     0
  0
LTYPE
  5
3E
330
5
100
AcDbSymbolTableRecord
100
AcDbLinetypeTableRecord
  2
CENTERX2
 70
     0
  3
Center (2x) ________  __  ________  __  _____
 72
    65
 73
     4
 40
20.32
 49
12.7
 74
     0
 49
-2.54
 74
     0
 49
2.54
 74
     0
 49
-2.54
 74
     0
  0
LTYPE
  5
3F
330
5
100
AcDbSymbolTableRecord
100
AcDbLinetypeTableRecord
  2
DOT2
 70
     0
  3
Dot (.5x) ........................................
 72
    65
 73
     2
 40
0.635
 49
0.0
 74
     0
 49
-0.635
 74
     0
  0
ENDTAB
  0
TABLE
  2
LAYER
  5
2
330
0
100
AcDbSymbolTable
 70
     5
  0
LAYER
  5
10
330
2
100
AcDbSymbolTableRecord
100
AcDbLayerTableRecord
  2
0
 70
     0
 62
     7
  6
Continuous
370
    -3
390
F
  0
LAYER
  5
40
330
2
100
AcDbSymbolTableRecord
100
AcDbLayerTableRecord
  2
FORMAT
 70
     0
 62
     7
  6
Continuous
370
    -3
390
F
  0
LAYER
  5
41
330
2
100
AcDbSymbolTableRecord
100
AcDbLayerTableRecord
  2
VERMASSUNG
 70
     0
 62
     7
  6
Continuous
370
    -3
390
F
  0
LAYER
  5
42
330
2
100
AcDbSymbolTableRecord
100
AcDbLayerTableRecord
  2
KOPF_DÜNN
 70
     0
 62
     7
  6
Continuous
370
    -3
390
F
  0
LAYER
  5
43
330
2
100
AcDbSymbolTableRecord
100
AcDbLayerTableRecord
  2
KOPF_DICK
 70
     0
 62
     7
  6
Continuous
370
    15
390
F
  0
ENDTAB
  0
TABLE
  2
STYLE
  5
3
330
0
100
AcDbSymbolTable
 70
     3
  0
STYLE
  5
11
330
3
100
AcDbSymbolTableRecord
100
AcDbTextStyleTableRecord
  2
Standard
 70
     0
 40
0.0
 41
1.0
 50
0.0
 71
     0
 42
2.5
  3
txt
  4

  0
STYLE
  5
44
330
3
100
AcDbSymbolTableRecord
100
AcDbTextStyleTableRecord
  2
SLDTEXTSTYLE0
 70
     0
 40
0.0
 41
0.7
 50
0.0
 71
     0
 42
0.2
  3
TXT
  4

  0
STYLE
  5
48
330
3
100
AcDbSymbolTableRecord
100
AcDbTextStyleTableRecord
  2
SLDTEXTSTYLE1
 70
     0
 40
0.0
 41
0.6473684211
 50
0.0
 71
     0
 42
0.2
  3
TXT
  4

  0
ENDTAB
  0
TABLE
  2
VIEW
  5
6
330
0
100
AcDbSymbolTable
 70
     0
  0
ENDTAB
  0
TABLE
  2
UCS
  5
7
330
0
100
AcDbSymbolTable
 70
     0
  0
ENDTAB
  0
TABLE
  2
APPID
  5
9
330
0
100
AcDbSymbolTable
 70
     1
  0
APPID
  5
12
330
9
100
AcDbSymbolTableRecord
100
AcDbRegAppTableRecord
  2
ACAD
 70
     0
  0
ENDTAB
  0
TABLE
  2
DIMSTYLE
  5
A
330
0
100
AcDbSymbolTable
 70
     2
100
AcDbDimStyleTable
  0
DIMSTYLE
105
27
330
A
100
AcDbSymbolTableRecord
100
AcDbDimStyleTableRecord
  2
ISO-25
 70
     0
 41
2.5
 42
0.625
 43
3.75
 44
1.25
 73
     0
 74
     0
 77
     1
 78
     8
140
2.5
141
2.5
143
0.0393700787
147
0.625
171
     3
172
     1
271
     2
272
     2
274
     3
278
    44
283
     0
284
     8
340
11
  0
DIMSTYLE
105
1ED
102
{ACAD_REACTORS
330
1EC
330
1F9
330
203
330
20D
330
217
330
222
102
}
330
A
100
AcDbSymbolTableRecord
100
AcDbDimStyleTableRecord
  2
SLDDIMSTYLE0
 70
     0
 41
3.0
 44
0.0
 45
0.000000001
 73
     0
 74
     0
 77
     1
 78
    12
140
2.0
147
0.5
173
     1
271
     2
272
     3
284
    12
340
44
  0
ENDTAB
  0
TABLE
  2
BLOCK_RECORD
  5
1
330
0
100
AcDbSymbolTable
 70
     7
  0
BLOCK_RECORD
  5
1F
330
1
100
AcDbSymbolTableRecord
100
AcDbBlockTableRecord
  2
*Model_Space
340
22
  0
BLOCK_RECORD
  5
1B
330
1
100
AcDbSymbolTableRecord
100
AcDbBlockTableRecord
  2
*Paper_Space
340
1E
  0
BLOCK_RECORD
  5
23
330
1
100
AcDbSymbolTableRecord
100
AcDbBlockTableRecord
  2
*Paper_Space0
340
26
  0
BLOCK_RECORD
  5
1EE
330
1
100
AcDbSymbolTableRecord
100
AcDbBlockTableRecord
  2
*D1
340
0
  0
BLOCK_RECORD
  5
1FA
330
1
100
AcDbSymbolTableRecord
100
AcDbBlockTableRecord
  2
*D2
340
0
  0
BLOCK_RECORD
  5
204
330
1
100
AcDbSymbolTableRecord
100
AcDbBlockTableRecord
  2
*D3
340
0
  0
BLOCK_RECORD
  5
20E
330
1
100
AcDbSymbolTableRecord
100
AcDbBlockTableRecord
  2
*D4
340
0
  0
BLOCK_RECORD
  5
218
330
1
100
AcDbSymbolTableRecord
100
AcDbBlockTableRecord
  2
*D5
340
0
  0
BLOCK_RECORD
  5
223
330
1
100
AcDbSymbolTableRecord
100
AcDbBlockTableRecord
  2
*D6
340
0
  0
ENDTAB
  0
ENDSEC
  0
SECTION
  2
BLOCKS
  0
BLOCK
  5
20
330
1F
100
AcDbEntity
  8
0
100
AcDbBlockBegin
  2
*Model_Space
 70
     0
 10
0.0
 20
0.0
 30
0.0
  3
*Model_Space
  1

  0
ENDBLK
  5
21
330
1F
100
AcDbEntity
  8
0
100
AcDbBlockEnd
  0
BLOCK
  5
1C
330
1B
100
AcDbEntity
 67
     1
  8
0
100
AcDbBlockBegin
  2
*Paper_Space
 70
     0
 10
0.0
 20
0.0
 30
0.0
  3
*Paper_Space
  1

  0
ENDBLK
  5
1D
330
1B
100
AcDbEntity
 67
     1
  8
0
100
AcDbBlockEnd
  0
BLOCK
  5
24
330
23
100
AcDbEntity
  8
0
100
AcDbBlockBegin
  2
*Paper_Space0
 70
     0
 10
0.0
 20
0.0
 30
0.0
  3
*Paper_Space0
  1

  0
ENDBLK
  5
25
330
23
100
AcDbEntity
  8
0
100
AcDbBlockEnd
  0
BLOCK
  5
1EF
330
1EE
100
AcDbEntity
  8
0
100
AcDbBlockBegin
  2
*D1
 70
     1
 10
0.0
 20
0.0
 30
0.0
  3
*D1
  1

  0
SOLID
  5
1F1
330
1EE
100
AcDbEntity
  8
VERMASSUNG
100
AcDbTrace
 10
51.1342487664
 20
140.3671282611
 30
0.0
 11
50.6842487664
 21
137.3671282611
 31
0.0
 12
51.5842487664
 22
137.3671282611
 32
0.0
 13
51.5842487664
 23
137.3671282611
 33
0.0
  0
SOLID
  5
1F2
330
1EE
100
AcDbEntity
  8
VERMASSUNG
100
AcDbTrace
 10
51.1342487664
 20
77.3671282611
 30
0.0
 11
51.5842487664
 21
80.3671282611
 31
0.0
 12
50.6842487664
 22
80.3671282611
 32
0.0
 13
50.6842487664
 23
80.3671282611
 33
0.0
  0
LINE
  5
1F3
330
1EE
100
AcDbEntity
  8
VERMASSUNG
100
AcDbLine
 10
87.3253245997
 20
140.3671282611
 30
0.0
 11
50.1342487664
 21
140.3671282611
 31
0.0
  0
LINE
  5
1F4
330
1EE
100
AcDbEntity
  8
VERMASSUNG
100
AcDbLine
 10
87.3253245997
 20
77.3671282611
 30
0.0
 11
50.1342487664
 21
77.3671282611
 31
0.0
  0
LINE
  5
1F5
330
1EE
100
AcDbEntity
  8
VERMASSUNG
100
AcDbLine
 10
51.1342487664
 20
140.3671282611
 30
0.0
 11
51.1342487664
 21
77.3671282611
 31
0.0
  0
MTEXT
  5
1F6
330
1EE
100
AcDbEntity
  8
VERMASSUNG
100
AcDbMText
 10
48.3561132774
 20
101.4707239537
 30
0.0
 40
2.0
 41
0.0
 71
     1
 72
     1
  1
HSK A 
  7
SLDTEXTSTYLE0
 11
-7.044195017643634E-15
 21
1.0
 31
0.0
 73
     1
 44
1.0
  0
MTEXT
  5
1F7
330
1EE
100
AcDbEntity
  8
VERMASSUNG
100
AcDbMText
 10
48.5561132869
 20
110.4707244976
 30
0.0
 40
2.0
 41
0.0
 71
     1
 72
     1
  1
%%c
  7
SLDTEXTSTYLE0
 11
-7.044195017643634E-15
 21
1.0
 31
0.0
 73
     1
 44
1.0
  0
MTEXT
  5
1F8
330
1EE
100
AcDbEntity
  8
VERMASSUNG
100
AcDbMText
 10
48.5561134033
 20
114.0790511477
 30
0.0
 40
2.0
 41
0.0
 71
     1
 72
     1
  1
63
  7
SLDTEXTSTYLE0
 11
-7.044195017643634E-15
 21
1.0
 31
0.0
 73
     1
 44
1.0
  0
ENDBLK
  5
1F0
330
1EE
100
AcDbEntity
  8
0
100
AcDbBlockEnd
  0
BLOCK
  5
1FB
330
1FA
100
AcDbEntity
  8
0
100
AcDbBlockBegin
  2
*D2
 70
     1
 10
0.0
 20
0.0
 30
0.0
  3
*D2
  1

  0
SOLID
  5
1FD
330
1FA
100
AcDbEntity
  8
VERMASSUNG
100
AcDbTrace
 10
55.1253245997
 20
158.8271278746
 30
0.0
 11
58.1253245997
 21
158.3771278746
 31
0.0
 12
58.1253245997
 22
159.2771278746
 32
0.0
 13
58.1253245997
 23
159.2771278746
 33
0.0
  0
SOLID
  5
1FE
330
1FA
100
AcDbEntity
  8
VERMASSUNG
100
AcDbTrace
 10
247.0253245997
 20
158.8271278746
 30
0.0
 11
244.0253245997
 21
159.2771278746
 31
0.0
 12
244.0253245997
 22
158.3771278746
 32
0.0
 13
244.0253245997
 23
158.3771278746
 33
0.0
  0
LINE
  5
1FF
330
1FA
100
AcDbEntity
  8
VERMASSUNG
100
AcDbLine
 10
55.1253245997
 20
128.5578060075
 30
0.0
 11
55.1253245997
 21
159.8271278746
 31
0.0
  0
LINE
  5
200
330
1FA
100
AcDbEntity
  8
VERMASSUNG
100
AcDbLine
 10
247.0253245997
 20
130.5387011363
 30
0.0
 11
247.0253245997
 21
159.8271278746
 31
0.0
  0
LINE
  5
201
330
1FA
100
AcDbEntity
  8
VERMASSUNG
100
AcDbLine
 10
55.1253245997
 20
158.8271278746
 30
0.0
 11
247.0253245997
 21
158.8271278746
 31
0.0
  0
MTEXT
  5
202
330
1FA
100
AcDbEntity
  8
VERMASSUNG
100
AcDbMText
 10
148.3763581859
 20
161.4052632377
 30
0.0
 40
2.0
 41
0.0
 71
     1
 72
     1
  1
191.9
  7
SLDTEXTSTYLE0
 73
     1
 44
1.0
  0
ENDBLK
  5
1FC
330
1FA
100
AcDbEntity
  8
0
100
AcDbBlockEnd
  0
BLOCK
  5
205
330
204
100
AcDbEntity
  8
0
100
AcDbBlockBegin
  2
*D3
 70
     1
 10
0.0
 20
0.0
 30
0.0
  3
*D3
  1

  0
SOLID
  5
207
330
204
100
AcDbEntity
  8
VERMASSUNG
100
AcDbTrace
 10
87.0253245997
 20
152.8271278746
 30
0.0
 11
90.0253245997
 21
152.3771278746
 31
0.0
 12
90.0253245997
 22
153.2771278746
 32
0.0
 13
90.0253245997
 23
153.2771278746
 33
0.0
  0
SOLID
  5
208
330
204
100
AcDbEntity
  8
VERMASSUNG
100
AcDbTrace
 10
247.0253245997
 20
152.8271278746
 30
0.0
 11
244.0253245997
 21
153.2771278746
 31
0.0
 12
244.0253245997
 22
152.3771278746
 32
0.0
 13
244.0253245997
 23
152.3771278746
 33
0.0
  0
LINE
  5
209
330
204
100
AcDbEntity
  8
VERMASSUNG
100
AcDbLine
 10
87.0253245997
 20
140.0671282611
 30
0.0
 11
87.0253245997
 21
153.8271278746
 31
0.0
  0
LINE
  5
20A
330
204
100
AcDbEntity
  8
VERMASSUNG
100
AcDbLine
 10
247.0253245997
 20
130.5387011363
 30
0.0
 11
247.0253245997
 21
153.8271278746
 31
0.0
  0
LINE
  5
20B
330
204
100
AcDbEntity
  8
VERMASSUNG
100
AcDbLine
 10
87.0253245997
 20
152.8271278746
 30
0.0
 11
247.0253245997
 21
152.8271278746
 31
0.0
  0
MTEXT
  5
20C
330
204
100
AcDbEntity
  8
VERMASSUNG
100
AcDbMText
 10
165.1258370591
 20
155.4052632377
 30
0.0
 40
2.0
 41
0.0
 71
     1
 72
     1
  1
160
  7
SLDTEXTSTYLE0
 73
     1
 44
1.0
  0
ENDBLK
  5
206
330
204
100
AcDbEntity
  8
0
100
AcDbBlockEnd
  0
BLOCK
  5
20F
330
20E
100
AcDbEntity
  8
0
100
AcDbBlockBegin
  2
*D4
 70
     1
 10
0.0
 20
0.0
 30
0.0
  3
*D4
  1

  0
SOLID
  5
211
330
20E
100
AcDbEntity
  8
VERMASSUNG
100
AcDbTrace
 10
112.9753245997
 20
146.8271278746
 30
0.0
 11
115.9753245997
 21
146.3771278746
 31
0.0
 12
115.9753245997
 22
147.2771278746
 32
0.0
 13
115.9753245997
 23
147.2771278746
 33
0.0
  0
SOLID
  5
212
330
20E
100
AcDbEntity
  8
VERMASSUNG
100
AcDbTrace
 10
247.0253245997
 20
146.8271278746
 30
0.0
 11
244.0253245997
 21
147.2771278746
 31
0.0
 12
244.0253245997
 22
146.3771278746
 32
0.0
 13
244.0253245997
 23
146.3771278746
 33
0.0
  0
LINE
  5
213
330
20E
100
AcDbEntity
  8
VERMASSUNG
100
AcDbLine
 10
112.9753245997
 20
138.7135685848
 30
0.0
 11
112.9753245997
 21
147.8271278746
 31
0.0
  0
LINE
  5
214
330
20E
100
AcDbEntity
  8
VERMASSUNG
100
AcDbLine
 10
247.0253245997
 20
130.5387011363
 30
0.0
 11
247.0253245997
 21
147.8271278746
 31
0.0
  0
LINE
  5
215
330
20E
100
AcDbEntity
  8
VERMASSUNG
100
AcDbLine
 10
112.9753245997
 20
146.8271278746
 30
0.0
 11
247.0253245997
 21
146.8271278746
 31
0.0
  0
MTEXT
  5
216
330
20E
100
AcDbEntity
  8
VERMASSUNG
100
AcDbMText
 10
176.3011393343
 20
149.4052632377
 30
0.0
 40
2.0
 41
0.0
 71
     1
 72
     1
  1
134.05
  7
SLDTEXTSTYLE0
 73
     1
 44
1.0
  0
ENDBLK
  5
210
330
20E
100
AcDbEntity
  8
0
100
AcDbBlockEnd
  0
BLOCK
  5
219
330
218
100
AcDbEntity
  8
0
100
AcDbBlockBegin
  2
*D5
 70
     1
 10
0.0
 20
0.0
 30
0.0
  3
*D5
  1

  0
SOLID
  5
21B
330
218
100
AcDbEntity
  8
VERMASSUNG
100
AcDbTrace
 10
257.0253245997
 20
121.3671282611
 30
0.0
 11
256.5753245997
 21
118.3671282611
 31
0.0
 12
257.4753245997
 22
118.3671282611
 32
0.0
 13
257.4753245997
 23
118.3671282611
 33
0.0
  0
SOLID
  5
21C
330
218
100
AcDbEntity
  8
VERMASSUNG
100
AcDbTrace
 10
257.0253245997
 20
96.3671282611
 30
0.0
 11
257.4753245997
 21
99.3671282611
 31
0.0
 12
256.5753245997
 22
99.3671282611
 32
0.0
 13
256.5753245997
 23
99.3671282611
 33
0.0
  0
LINE
  5
21D
330
218
100
AcDbEntity
  8
VERMASSUNG
100
AcDbLine
 10
246.5253245997
 20
121.3671282611
 30
0.0
 11
258.0253245997
 21
121.3671282611
 31
0.0
  0
LINE
  5
21E
330
218
100
AcDbEntity
  8
VERMASSUNG
100
AcDbLine
 10
246.5253245997
 20
96.3671282611
 30
0.0
 11
258.0253245997
 21
96.3671282611
 31
0.0
  0
LINE
  5
21F
330
218
100
AcDbEntity
  8
VERMASSUNG
100
AcDbLine
 10
257.0253245997
 20
121.3671282611
 30
0.0
 11
257.0253245997
 21
96.3671282611
 31
0.0
  0
MTEXT
  5
220
330
218
100
AcDbEntity
  8
VERMASSUNG
100
AcDbMText
 10
254.4471891202
 20
105.6634110346
 30
0.0
 40
2.0
 41
0.0
 71
     1
 72
     1
  1
%%c
  7
SLDTEXTSTYLE0
 11
-7.044195017643634E-15
 21
1.0
 31
0.0
 73
     1
 44
1.0
  0
MTEXT
  5
221
330
218
100
AcDbEntity
  8
VERMASSUNG
100
AcDbMText
 10
254.4471892366
 20
109.2720892578
 30
0.0
 40
2.0
 41
0.0
 71
     1
 72
     1
  1
25
  7
SLDTEXTSTYLE0
 11
-7.044195017643634E-15
 21
1.0
 31
0.0
 73
     1
 44
1.0
  0
ENDBLK
  5
21A
330
218
100
AcDbEntity
  8
0
100
AcDbBlockEnd
  0
BLOCK
  5
224
330
223
100
AcDbEntity
  8
0
100
AcDbBlockBegin
  2
*D6
 70
     1
 10
0.0
 20
0.0
 30
0.0
  3
*D6
  1

  0
SOLID
  5
226
330
223
100
AcDbEntity
  8
VERMASSUNG
100
AcDbTrace
 10
263.0253245997
 20
140.3671282611
 30
0.0
 11
262.5753245997
 21
137.3671282611
 31
0.0
 12
263.4753245997
 22
137.3671282611
 32
0.0
 13
263.4753245997
 23
137.3671282611
 33
0.0
  0
SOLID
  5
227
330
223
100
AcDbEntity
  8
VERMASSUNG
100
AcDbTrace
 10
263.0253245997
 20
77.3671282611
 30
0.0
 11
263.4753245997
 21
80.3671282611
 31
0.0
 12
262.5753245997
 22
80.3671282611
 32
0.0
 13
262.5753245997
 23
80.3671282611
 33
0.0
  0
LINE
  5
228
330
223
100
AcDbEntity
  8
VERMASSUNG
100
AcDbLine
 10
237.196897475
 20
140.3671282611
 30
0.0
 11
264.0253245997
 21
140.3671282611
 31
0.0
  0
LINE
  5
229
330
223
100
AcDbEntity
  8
VERMASSUNG
100
AcDbLine
 10
237.196897475
 20
77.3671282611
 30
0.0
 11
264.0253245997
 21
77.3671282611
 31
0.0
  0
LINE
  5
22A
330
223
100
AcDbEntity
  8
VERMASSUNG
100
AcDbLine
 10
263.0253245997
 20
140.3671282611
 30
0.0
 11
263.0253245997
 21
77.3671282611
 31
0.0
  0
MTEXT
  5
22B
330
223
100
AcDbEntity
  8
VERMASSUNG
100
AcDbMText
 10
260.4471891202
 20
105.6634110346
 30
0.0
 40
2.0
 41
0.0
 71
     1
 72
     1
  1
%%c
  7
SLDTEXTSTYLE0
 11
-7.044195017643634E-15
 21
1.0
 31
0.0
 73
     1
 44
1.0
  0
MTEXT
  5
22C
330
223
100
AcDbEntity
  8
VERMASSUNG
100
AcDbMText
 10
260.4471892366
 20
109.2720892578
 30
0.0
 40
2.0
 41
0.0
 71
     1
 72
     1
  1
63
  7
SLDTEXTSTYLE0
 11
-7.044195017643634E-15
 21
1.0
 31
0.0
 73
     1
 44
1.0
  0
ENDBLK
  5
225
330
223
100
AcDbEntity
  8
0
100
AcDbBlockEnd
  0
ENDSEC
  0
SECTION
  2
ENTITIES
  0
MTEXT
  5
45
330
1F
100
AcDbEntity
  8
KOPF_DÜNN
100
AcDbMText
 10
13.8892156294
 20
23.8442973028
 30
0.0
 40
3.0
 41
0.0
 71
     1
 72
     1
  1
HA6.W25.K21.160
  7
SLDTEXTSTYLE0
 73
     1
 44
1.0
  0
MTEXT
  5
46
330
1F
100
AcDbEntity
  8
VERMASSUNG
100
AcDbMText
 10
13.9329988022
 20
28.8834360957
 30
0.0
 40
3.0
 41
0.0
 71
     1
 72
     1
  1
Flächenspannfutter_End mill adapter Weldon ø25
  7
SLDTEXTSTYLE0
 73
     1
 44
1.0
  0
MTEXT
  5
47
330
1F
100
AcDbEntity
  8
VERMASSUNG
100
AcDbMText
 10
98.8601118557
 20
13.8365368179
 30
0.0
 40
2.0
 41
0.0
 71
     1
 72
     1
  1
Datum: 09.10.2006
  7
SLDTEXTSTYLE0
 73
     1
 44
1.0
  0
MTEXT
  5
49
330
1F
100
AcDbEntity
  8
VERMASSUNG
100
AcDbMText
 10
13.933048693
 20
18.0482802738
 30
0.0
 40
2.0
 41
0.0
 71
     1
 72
     1
  1
DIN 69 893 HSK A 63
  7
SLDTEXTSTYLE1
 73
     1
 44
1.0
  0
MTEXT
  5
4A
330
1F
100
AcDbEntity
  8
VERMASSUNG
100
AcDbMText
 10
13.9808475933
 20
13.9090973692
 30
0.0
 40
2.0
 41
0.0
 71
     1
 72
     1
  1
Gewicht: 3413g
  7
SLDTEXTSTYLE0
 73
     1
 44
1.0
  0
LINE
  5
4B
330
1F
100
AcDbEntity
  8
0
  6
Continuous
 62
     7
370
    15
100
AcDbLine
 10
247.1113836742
 20
123.2014162348
 30
0.0
 11
247.0253245997
 21
123.3607764421
 31
0.0
  0
LINE
  5
4C
330
1F
100
AcDbEntity
  8
0
  6
Continuous
 62
     7
370
    15
100
AcDbLine
 10
247.0253245997
 20
94.3734612602
 30
0.0
 11
247.1113939922
 21
94.532840574
 31
0.0
  0
LINE
  5
4D
330
1F
100
AcDbEntity
  8
0
  6
Continuous
 62
     7
370
    15
100
AcDbLine
 10
132.7781013495
 20
77.3671282611
 30
0.0
 11
237.196897475
 21
77.3671282611
 31
0.0
  0
LINE
  5
4E
330
1F
100
AcDbEntity
  8
0
  6
Continuous
 62
     7
370
    15
100
AcDbLine
 10
237.196897475
 20
140.3671282611
 30
0.0
 11
132.7781013495
 21
140.3671282611
 31
0.0
  0
ARC
  5
4F
330
1F
100
AcDbEntity
  8
0
  6
Continuous
 62
     7
370
    15
100
AcDbCircle
 10
237.196897475
 20
79.3671282611
 30
0.0
 40
2.000000000000028
100
AcDbArc
 50
270.0
 51
315.0
  0
ARC
  5
50
330
1F
100
AcDbEntity
  8
0
  6
Continuous
 62
     7
370
    15
100
AcDbCircle
 10
237.196897475
 20
138.3671282611
 30
0.0
 40
2.000000000000036
100
AcDbArc
 50
45.0
 51
90.0
  0
ARC
  5
51
330
1F
100
AcDbEntity
  8
0
  6
Continuous
 62
     7
370
    15
100
AcDbCircle
 10
132.7781013495
 20
139.3671282611
 30
0.0
 40
1.000000000000008
100
AcDbArc
 50
90.0
 51
150.0
  0
ARC
  5
52
330
1F
100
AcDbEntity
  8
0
  6
Continuous
 62
     7
370
    15
100
AcDbCircle
 10
132.7781013495
 20
78.3671282611
 30
0.0
 40
1.000000000000008
100
AcDbArc
 50
210.0
 51
270.0
  0
LINE
  5
53
330
1F
100
AcDbEntity
  8
0
  6
Continuous
 62
     7
370
    15
100
AcDbLine
 10
87.3253245997
 20
77.3671282611
 30
0.0
 11
91.9753245997
 21
77.3671282611
 31
0.0
  0
LINE
  5
54
330
1F
100
AcDbEntity
  8
0
  6
Continuous
 62
     7
370
    15
100
AcDbLine
 10
92.0033129588
 20
140.3671282611
 30
0.0
 11
87.3253245997
 21
140.3671282611
 31
0.0
  0
ARC
  5
55
330
1F
100
AcDbEntity
  8
0
  6
Continuous
 62
     7
370
    15
100
AcDbCircle
 10
87.3253245997
 20
77.6671282611
 30
0.0
 40
0.2999999999999972
100
AcDbArc
 50
180.0
 51
270.0
  0
ARC
  5
56
330
1F
100
AcDbEntity
  8
0
  6
Continuous
 62
     7
370
    15
100
AcDbCircle
 10
87.3253245997
 20
140.0671282611
 30
0.0
 40
0.2999999999999972
100
AcDbArc
 50
90.0
 51
180.0
  0
LINE
  5
57
330
1F
100
AcDbEntity
  8
0
  6
Continuous
 62
     7
370
    15
100
AcDbLine
 10
131.9120759457
 20
139.8671282611
 30
0.0
 11
129.3139997343
 21
135.3671282611
 31
0.0
  0
LINE
  5
58
330
1F
100
AcDbEntity
  8
0
  6
Continuous
 62
     7
370
    15
100
AcDbLine
 10
129.3139997343
 20
82.3671282611
 30
0.0
 11
131.9120759457
 21
77.8671282611
 31
0.0
  0
LINE
  5
59
330
1F
100
AcDbEntity
  8
0
  6
Continuous
 62
     7
370
    15
100
AcDbLine
 10
238.6111110374
 20
77.9529146987
 30
0.0
 11
246.4395381621
 21
85.7813418234
 31
0.0
  0
LINE
  5
5A
330
1F
100
AcDbEntity
  8
0
  6
Continuous
 62
     7
370
    15
100
AcDbLine
 10
246.4395381621
 20
131.9529146987
 30
0.0
 11
238.6111110374
 21
139.7813418234
 31
0.0
  0
ARC
  5
5B
330
1F
100
AcDbEntity
  8
0
  6
Continuous
 62
     7
370
    15
100
AcDbCircle
 10
113.9753245997
 20
81.8671282611
 30
0.0
 40
1.000000000000006
100
AcDbArc
 50
90.0
 51
143.1139143113
  0
ARC
  5
5C
330
1F
100
AcDbEntity
  8
0
  6
Continuous
 62
     7
370
    15
100
AcDbCircle
 10
113.9753245997
 20
135.8671282611
 30
0.0
 40
1.0
100
AcDbArc
 50
216.9131140853
 51
270.0
  0
ARC
  5
5D
330
1F
100
AcDbEntity
  8
0
  6
Continuous
 62
     7
370
    15
100
AcDbCircle
 10
128.4479743306
 20
81.8671282611
 30
0.0
 40
1.0
100
AcDbArc
 50
30.0
 51
90.0
  0
ARC
  5
5E
330
1F
100
AcDbEntity
  8
0
  6
Continuous
 62
     7
370
    15
100
AcDbCircle
 10
128.4479743306
 20
135.8671282611
 30
0.0
 40
1.0
100
AcDbArc
 50
270.0
 51
330.0
  0
LINE
  5
5F
330
1F
100
AcDbEntity
  8
0
  6
Continuous
 62
     7
370
    15
100
AcDbLine
 10
124.4634215388
 20
82.8671282611
 30
0.0
 11
128.4479743306
 21
82.8671282611
 31
0.0
  0
LINE
  5
60
330
1F
100
AcDbEntity
  8
0
  6
Continuous
 62
     7
370
    15
100
AcDbLine
 10
113.9753245997
 20
82.8671282611
 30
0.0
 11
117.4779054715
 21
82.8671282611
 31
0.0
  0
LINE
  5
61
330
1F
100
AcDbEntity
  8
0
  6
Continuous
 62
     7
370
    15
100
AcDbLine
 10
117.4866006824
 20
134.8671282611
 30
0.0
 11
113.9753245997
 21
134.8671282611
 31
0.0
  0
LINE
  5
62
330
1F
100
AcDbEntity
  8
0
  6
Continuous
 62
     7
370
    15
100
AcDbLine
 10
128.4479743306
 20
134.8671282611
 30
0.0
 11
124.4739759052
 21
134.8671282611
 31
0.0
  0
ARC
  5
63
330
1F
100
AcDbEntity
  8
0
  6
Continuous
 62
     7
370
    15
100
AcDbCircle
 10
86.5253178471
 20
84.2966906467
 30
0.0
 40
0.6000067526677164
100
AcDbArc
 50
33.5571153394
 51
90.0
  0
ARC
  5
64
330
1F
100
AcDbEntity
  8
0
  6
Continuous
 62
     7
370
    15
100
AcDbCircle
 10
86.5253178471
 20
133.4375658755
 30
0.0
 40
0.6000067526677242
100
AcDbArc
 50
270.0
 51
326.4428846606
  0
LINE
  5
65
330
1F
100
AcDbEntity
  8
0
  6
Continuous
 62
     7
370
    15
100
AcDbLine
 10
73.7949024173
 20
132.5249127209
 30
0.0
 11
61.2253245997
 21
131.8951743533
 31
0.0
  0
LINE
  5
66
330
1F
100
AcDbEntity
  8
0
  6
Continuous
 62
     7
370
    15
100
AcDbLine
 10
85.0253245997
 20
133.0875591228
 30
0.0
 11
82.2067152422
 21
132.9463462291
 31
0.0
  0
LINE
  5
67
330
1F
100
AcDbEntity
  8
0
  6
Continuous
 62
     7
370
    15
100
AcDbLine
 10
82.2069367174
 20
84.7878991971
 30
0.0
 11
85.0253245997
 21
84.6466973993
 31
0.0
  0
LINE
  5
68
330
1F
100
AcDbEntity
  8
0
  6
Continuous
 62
     7
370
    15
100
AcDbLine
 10
65.2253245997
 20
85.6386813673
 30
0.0
 11
73.795601369
 21
85.2093087837
 31
0.0
  0
LINE
  5
69
330
1F
100
AcDbEntity
  8
0
  6
Continuous
 62
     7
370
    15
100
AcDbLine
 10
85.0253245997
 20
84.6466973993
 30
0.0
 11
85.8820373731
 21
84.8762528951
 31
0.0
  0
LINE
  5
6A
330
1F
100
AcDbEntity
  8
0
  6
Continuous
 62
     7
370
    15
100
AcDbLine
 10
85.8820373731
 20
132.858003627
 30
0.0
 11
85.0253245997
 21
133.0875591228
 31
0.0
  0
ARC
  5
6B
330
1F
100
AcDbEntity
  8
0
  6
Continuous
 62
     7
370
    15
100
AcDbCircle
 10
86.0373288002
 20
84.2966973993
 30
0.0
 40
0.6000000000000085
100
AcDbArc
 50
90.0
 51
105.0
  0
ARC
  5
6C
330
1F
100
AcDbEntity
  8
0
  6
Continuous
 62
     7
370
    15
100
AcDbCircle
 10
86.0373288002
 20
133.4375591228
 30
0.0
 40
0.5999999999999971
100
AcDbArc
 50
255.0
 51
270.0
  0
LINE
  5
6D
330
1F
100
AcDbEntity
  8
0
  6
Continuous
 62
     7
370
    15
100
AcDbLine
 10
86.0373288002
 20
84.8966973993
 30
0.0
 11
86.5253178471
 21
84.8966973993
 31
0.0
  0
LINE
  5
6E
330
1F
100
AcDbEntity
  8
0
  6
Continuous
 62
     7
370
    15
100
AcDbLine
 10
86.5253178471
 20
132.8375591228
 30
0.0
 11
86.0373288002
 21
132.8375591228
 31
0.0
  0
ARC
  5
6F
330
1F
100
AcDbEntity
  8
0
  6
Continuous
 62
     7
370
    15
100
AcDbCircle
 10
245.0253245997
 20
87.1955553858
 30
0.0
 40
2.0
100
AcDbArc
 50
315.0
 51
0.0
  0
ARC
  5
70
330
1F
100
AcDbEntity
  8
0
  6
Continuous
 62
     7
370
    15
100
AcDbCircle
 10
245.0253245997
 20
130.5387011363
 30
0.0
 40
2.0
100
AcDbArc
 50
0.0
 51
45.0
  0
LINE
  5
71
330
1F
100
AcDbEntity
  8
0
  6
Continuous
 62
     7
370
    15
100
AcDbLine
 10
56.4086612397
 20
87.9971282611
 30
0.0
 11
63.8253245997
 21
87.9971282611
 31
0.0
  0
ARC
  5
72
330
1F
100
AcDbEntity
  8
0
  6
Continuous
 62
     7
370
    15
100
AcDbCircle
 10
63.8253245997
 20
86.5971282611
 30
0.0
 40
1.399999999999991
100
AcDbArc
 50
42.2465410162
 51
90.0
  0
LINE
  5
73
330
1F
100
AcDbEntity
  8
0
  6
Continuous
 62
     7
370
    15
100
AcDbLine
 10
55.1263570939
 20
89.1460957669
 30
0.0
 11
56.2664880579
 21
88.0059648029
 31
0.0
  0
LINE
  5
74
330
1F
100
AcDbEntity
  8
0
  6
Continuous
 62
     7
370
    15
100
AcDbLine
 10
56.2664880579
 20
129.7282917192
 30
0.0
 11
55.1352253731
 21
128.5970290344
 31
0.0
  0
ARC
  5
75
330
1F
100
AcDbEntity
  8
0
  6
Continuous
 62
     7
370
    15
100
AcDbCircle
 10
59.8253245997
 20
131.1371282611
 30
0.0
 40
1.400000000000034
100
AcDbArc
 50
270.0
 51
301.7485287426
  0
LINE
  5
76
330
1F
100
AcDbEntity
  8
0
  6
Continuous
 62
     7
370
    15
100
AcDbLine
 10
59.8253245997
 20
129.7371282611
 30
0.0
 11
56.3995903336
 21
129.7371282611
 31
0.0
  0
LWPOLYLINE
  5
77
330
1F
100
AcDbEntity
  8
0
  6
Continuous
 62
     7
370
    15
100
AcDbPolyline
 90
        6
 70
   128
 43
0.0
 10
247.1200242352
 20
123.1383689291
 10
247.105319404
 20
123.1975988687
 10
247.0851116934
 20
123.0402484769
 10
247.0621302667
 20
122.6875687961
 10
247.0394788929
 20
122.1871911714
 10
247.0253245997
 20
121.7799475396
  0
ARC
  5
78
330
1F
100
AcDbEntity
  8
0
  6
Continuous
 62
     7
370
    15
100
AcDbCircle
 10
218.3933999383
 20
122.4308698764
 30
0.0
 40
28.73533536264435
100
AcDbArc
 50
355.1376908852
 51
1.4108346369
  0
LINE
  5
79
330
1F
100
AcDbEntity
  8
0
  6
Continuous
 62
     7
370
    15
100
AcDbLine
 10
247.0258442349
 20
121.3212873336
 30
0.0
 11
247.0253245997
 21
120.9037944275
 31
0.0
  0
LINE
  5
7A
330
1F
100
AcDbEntity
  8
0
  6
Continuous
 62
     7
370
    15
100
AcDbLine
 10
247.0635348272
 20
120.7589740687
 30
0.0
 11
247.0253245997
 21
120.4899599445
 31
0.0
  0
LINE
  5
7B
330
1F
100
AcDbEntity
  8
0
  6
Continuous
 62
     7
370
    15
100
AcDbLine
 10
247.1033039601
 20
121.8666324285
 30
0.0
 11
247.0635348272
 21
120.7589740687
 31
0.0
  0
LINE
  5
7C
330
1F
100
AcDbEntity
  8
0
  6
Continuous
 62
     7
370
    15
100
AcDbLine
 10
247.1033039601
 20
121.8666324285
 30
0.0
 11
247.1043432303
 21
122.7016182408
 31
0.0
  0
LINE
  5
7D
330
1F
100
AcDbEntity
  8
0
  6
Continuous
 62
     7
370
    15
100
AcDbLine
 10
247.0656133677
 20
122.4289456934
 30
0.0
 11
247.1043432303
 21
122.7016182408
 31
0.0
  0
LINE
  5
7E
330
1F
100
AcDbEntity
  8
0
  6
Continuous
 62
     7
370
    15
100
AcDbLine
 10
247.0656133677
 20
122.4289456934
 30
0.0
 11
247.0258442349
 21
121.3212873336
 31
0.0
  0
LINE
  5
7F
330
1F
100
AcDbEntity
  8
0
  6
Continuous
 62
     7
370
    15
100
AcDbLine
 10
247.0253245997
 20
120.7600356368
 30
0.0
 11
247.0635348272
 21
120.7589740687
 31
0.0
  0
LINE
  5
80
330
1F
100
AcDbEntity
  8
0
  6
Continuous
 62
     7
370
    15
100
AcDbLine
 10
247.0454818674
 20
121.8682388593
 30
0.0
 11
247.1033039601
 21
121.8666324285
 31
0.0
  0
LINE
  5
81
330
1F
100
AcDbEntity
  8
0
  6
Continuous
 62
     7
370
    15
100
AcDbLine
 10
247.119324412
 20
94.5859164557
 30
0.0
 11
247.1113939922
 21
94.532840574
 31
0.0
  0
ARC
  5
82
330
1F
100
AcDbEntity
  8
0
  6
Continuous
 62
     7
370
    15
100
AcDbCircle
 10
218.4859364677
 20
95.3102977427
 30
0.0
 40
28.64254935260473
100
AcDbArc
 50
358.5508127918
 51
4.8643012837
  0
LINE
  5
83
330
1F
100
AcDbEntity
  8
0
  6
Continuous
 62
     7
370
    15
100
AcDbLine
 10
219.1566551355
 20
112.6417885696
 30
0.0
 11
224.6099415855
 21
114.5378371522
 31
0.0
  0
LINE
  5
84
330
1F
100
AcDbEntity
  8
0
  6
Continuous
 62
     7
370
    15
100
AcDbLine
 10
219.1566551355
 20
112.6417885696
 30
0.0
 11
218.0720381497
 21
106.9710796785
 31
0.0
  0
LINE
  5
85
330
1F
100
AcDbEntity
  8
0
  6
Continuous
 62
     7
370
    15
100
AcDbLine
 10
218.0720381497
 20
106.9710796785
 30
0.0
 11
222.440707614
 21
103.19641937
 31
0.0
  0
LINE
  5
86
330
1F
100
AcDbEntity
  8
0
  6
Continuous
 62
     7
370
    15
100
AcDbLine
 10
227.893994064
 20
105.0924679525
 30
0.0
 11
222.440707614
 21
103.19641937
 31
0.0
  0
LINE
  5
87
330
1F
100
AcDbEntity
  8
0
  6
Continuous
 62
     7
370
    15
100
AcDbLine
 10
228.9786110498
 20
110.7631768436
 30
0.0
 11
227.893994064
 21
105.0924679525
 31
0.0
  0
LINE
  5
88
330
1F
100
AcDbEntity
  8
0
  6
Continuous
 62
     7
370
    15
100
AcDbLine
 10
228.9786110498
 20
110.7631768436
 30
0.0
 11
224.6099415855
 21
114.5378371522
 31
0.0
  0
ARC
  5
89
330
1F
100
AcDbEntity
  8
0
  6
Continuous
 62
     7
370
    15
100
AcDbCircle
 10
223.5253245997
 20
108.8671282611
 30
0.0
 40
7.999999999999993
100
AcDbArc
 50
79.1720090824
 51
149.2560953669
  0
ARC
  5
8A
330
1F
100
AcDbEntity
  8
0
  6
Continuous
 62
     7
370
    15
100
AcDbCircle
 10
223.5253245997
 20
108.8671282611
 30
0.0
 40
8.00000000000003
100
AcDbArc
 50
210.7768050115
 51
329.2130576219
  0
ARC
  5
8B
330
1F
100
AcDbEntity
  8
0
  6
Continuous
 62
     7
370
    15
100
AcDbCircle
 10
223.5253245997
 20
108.8671282611
 30
0.0
 40
7.999999999999993
100
AcDbArc
 50
30.8245848627
 51
79.1720090824
  0
ARC
  5
8C
330
1F
100
AcDbEntity
  8
0
  6
Continuous
 62
     7
370
    15
100
AcDbCircle
 10
223.5253245997
 20
108.8671282611
 30
0.0
 40
5.000000000000021
100
AcDbArc
 50
169.1720090824
 51
229.1720090824
  0
ARC
  5
8D
330
1F
100
AcDbEntity
  8
0
  6
Continuous
 62
     7
370
    15
100
AcDbCircle
 10
223.5253245997
 20
108.8671282611
 30
0.0
 40
5.0
100
AcDbArc
 50
49.1720090824
 51
109.1720090824
  0
ARC
  5
8E
330
1F
100
AcDbEntity
  8
0
  6
Continuous
 62
     7
370
    15
100
AcDbCircle
 10
223.5253245997
 20
108.8671282611
 30
0.0
 40
5.000000000000021
100
AcDbArc
 50
349.1720090824
 51
49.1720090824
  0
ARC
  5
8F
330
1F
100
AcDbEntity
  8
0
  6
Continuous
 62
     7
370
    15
100
AcDbCircle
 10
223.5253245997
 20
108.8671282611
 30
0.0
 40
5.000000000000021
100
AcDbArc
 50
289.1720090824
 51
349.1720090824
  0
ARC
  5
90
330
1F
100
AcDbEntity
  8
0
  6
Continuous
 62
     7
370
    15
100
AcDbCircle
 10
223.5253245997
 20
108.8671282611
 30
0.0
 40
5.000000000000004
100
AcDbArc
 50
229.1720090824
 51
289.1720090824
  0
ARC
  5
91
330
1F
100
AcDbEntity
  8
0
  6
Continuous
 62
     7
370
    15
100
AcDbCircle
 10
223.5253245997
 20
108.8671282611
 30
0.0
 40
5.000000000000021
100
AcDbArc
 50
109.1720090824
 51
169.1720090824
  0
LINE
  5
92
330
1F
100
AcDbEntity
  8
0
  6
Continuous
 62
     7
370
    15
100
AcDbLine
 10
203.7486659441
 20
111.3268108694
 30
0.0
 11
199.0068476478
 21
114.6205158621
 31
0.0
  0
LINE
  5
93
330
1F
100
AcDbEntity
  8
0
  6
Continuous
 62
     7
370
    15
100
AcDbLine
 10
193.3019832554
 20
106.4074456527
 30
0.0
 11
193.7835063035
 21
112.1608332537
 31
0.0
  0
LINE
  5
94
330
1F
100
AcDbEntity
  8
0
  6
Continuous
 62
     7
370
    15
100
AcDbLine
 10
198.0438015517
 20
103.1137406601
 30
0.0
 11
193.3019832554
 21
106.4074456527
 31
0.0
  0
ARC
  5
95
330
1F
100
AcDbEntity
  8
0
  6
Continuous
 62
     7
370
    15
100
AcDbCircle
 10
198.5253245997
 20
108.8671282611
 30
0.0
 40
8.00000000000001
100
AcDbArc
 50
325.21584639
 51
149.2560953669
  0
ARC
  5
96
330
1F
100
AcDbEntity
  8
0
  6
Continuous
 62
     7
370
    15
100
AcDbCircle
 10
198.5253245997
 20
108.8671282611
 30
0.0
 40
8.00000000000001
100
AcDbArc
 50
210.7768050115
 51
325.21584639
  0
LINE
  5
97
330
1F
100
AcDbEntity
  8
0
  6
Continuous
 62
     7
370
    15
100
AcDbLine
 10
199.0068476478
 20
114.6205158621
 30
0.0
 11
193.7835063035
 21
112.1608332537
 31
0.0
  0
LINE
  5
98
330
1F
100
AcDbEntity
  8
0
  6
Continuous
 62
     7
370
    15
100
AcDbLine
 10
203.7486659441
 20
111.3268108694
 30
0.0
 11
203.267142896
 21
105.5734232684
 31
0.0
  0
LINE
  5
99
330
1F
100
AcDbEntity
  8
0
  6
Continuous
 62
     7
370
    15
100
AcDbLine
 10
198.0438015517
 20
103.1137406601
 30
0.0
 11
203.267142896
 21
105.5734232684
 31
0.0
  0
ARC
  5
9A
330
1F
100
AcDbEntity
  8
0
  6
Continuous
 62
     7
370
    15
100
AcDbCircle
 10
198.5253245997
 20
108.8671282611
 30
0.0
 40
4.999999999999989
100
AcDbArc
 50
295.21584639
 51
355.21584639
  0
ARC
  5
9B
330
1F
100
AcDbEntity
  8
0
  6
Continuous
 62
     7
370
    15
100
AcDbCircle
 10
198.5253245997
 20
108.8671282611
 30
0.0
 40
5.0
100
AcDbArc
 50
235.21584639
 51
295.21584639
  0
ARC
  5
9C
330
1F
100
AcDbEntity
  8
0
  6
Continuous
 62
     7
370
    15
100
AcDbCircle
 10
198.5253245997
 20
108.8671282611
 30
0.0
 40
5.000000000000012
100
AcDbArc
 50
175.21584639
 51
235.21584639
  0
ARC
  5
9D
330
1F
100
AcDbEntity
  8
0
  6
Continuous
 62
     7
370
    15
100
AcDbCircle
 10
198.5253245997
 20
108.8671282611
 30
0.0
 40
5.000000000000015
100
AcDbArc
 50
115.21584639
 51
175.21584639
  0
ARC
  5
9E
330
1F
100
AcDbEntity
  8
0
  6
Continuous
 62
     7
370
    15
100
AcDbCircle
 10
198.5253245997
 20
108.8671282611
 30
0.0
 40
5.000000000000015
100
AcDbArc
 50
55.21584639
 51
115.21584639
  0
ARC
  5
9F
330
1F
100
AcDbEntity
  8
0
  6
Continuous
 62
     7
370
    15
100
AcDbCircle
 10
198.5253245997
 20
108.8671282611
 30
0.0
 40
4.999999999999984
100
AcDbArc
 50
355.21584639
 51
55.21584639
  0
SPLINE
  5
A0
330
1F
100
AcDbEntity
  8
0
  6
Continuous
 62
     7
370
    15
100
AcDbSpline
210
0.0
220
0.0
230
1.0
 70
     8
 71
     3
 72
    16
 73
    12
 74
     0
 42
0.00000001
 43
0.00000001
 40
0.0
 40
0.0
 40
0.0
 40
0.0
 40
0.0253698173187863
 40
0.1321217346106625
 40
0.3236847686160633
 40
0.498926433184068
 40
0.6742145618353164
 40
0.736345238405462
 40
0.8003178066063912
 40
0.8661498369664727
 40
1.0
 40
1.0
 40
1.0
 40
1.0
 10
230.397551157655
 20
104.7935588555038
 30
0.0
 10
230.4372194144502
 20
104.8536189369988
 30
0.0
 10
230.6438050130339
 20
105.1664017232627
 30
0.0
 10
231.0232267205949
 20
106.0106711862611
 30
0.0
 10
231.4280548475066
 20
107.3072037778163
 30
0.0
 10
231.5722537630802
 20
108.8641399305312
 30
0.0
 10
231.4610304498162
 20
110.0483400501863
 30
0.0
 10
231.2720614444498
 20
110.8892851490195
 30
0.0
 10
231.11474625927
 20
111.4141846608156
 30
0.0
 10
230.85685265734
 20
112.1216925869823
 30
0.0
 10
230.5742544746522
 20
112.614902091991
 30
0.0
 10
230.3848243998775
 20
112.9455082994506
 30
0.0
  0
SPLINE
  5
A1
330
1F
100
AcDbEntity
  8
0
  6
Continuous
 62
     7
370
    15
100
AcDbSpline
210
0.0
220
0.0
230
1.0
 70
     8
 71
     3
 72
    16
 73
    12
 74
     0
 42
0.00000001
 43
0.00000001
 40
0.0
 40
0.0
 40
0.0
 40
0.0
 40
0.0319018101732541
 40
0.1341480177263834
 40
0.3220738460706214
 40
0.5004706583846583
 40
0.6753779279123189
 40
0.7373246664775709
 40
0.8010849148749816
 40
0.8666762856335445
 40
1.0
 40
1.0
 40
1.0
 40
1.0
 10
216.6626908458793
 20
112.9529706864517
 30
0.0
 10
216.6129135140654
 20
112.8771529395531
 30
0.0
 10
216.4035984202108
 20
112.5583371607718
 30
0.0
 10
216.0254652417627
 20
111.71727741311
 30
0.0
 10
215.623595989546
 20
110.431433634619
 30
0.0
 10
215.4773613156014
 20
108.8734313350045
 30
0.0
 10
215.5906172931797
 20
107.6793209994817
 30
0.0
 10
215.7801907977452
 20
106.838887590409
 30
0.0
 10
215.937715308455
 20
106.3147192855728
 30
0.0
 10
216.1956878395224
 20
105.6085080115084
 30
0.0
 10
216.4779418670789
 20
105.1162328393624
 30
0.0
 10
216.6671238756986
 20
104.7862832309672
 30
0.0
  0
SPLINE
  5
A2
330
1F
100
AcDbEntity
  8
0
  6
Continuous
 62
     7
370
    15
100
AcDbSpline
210
0.0
220
0.0
230
1.0
 70
     8
 71
     3
 72
    39
 73
    35
 74
     0
 42
0.00000001
 43
0.00000001
 40
-0.0931207261899203
 40
-0.0619511902978561
 40
-0.0306570609597868
 40
0.0
 40
0.0306766255726804
 40
0.0619884351880227
 40
0.0931786770074651
 40
0.1243035093028131
 40
0.1554610904620546
 40
0.1869501965027891
 40
0.2186198542457878
 40
0.2499168294764067
 40
0.2814668200263359
 40
0.3129752671682236
 40
0.3444080948980066
 40
0.3758070711408221
 40
0.4069761878425388
 40
0.4381182606699758
 40
0.4693302543136703
 40
0.5000485752812187
 40
0.5307608120549483
 40
0.5620521600203751
 40
0.5932083628419548
 40
0.6243426223064873
 40
0.655530607109896
 40
0.6870881590060085
 40
0.7187798694391928
 40
0.7500819188468699
 40
0.7813573083849925
 40
0.8130684055863866
 40
0.8445967306449506
 40
0.8757739303181704
 40
0.9068792738100797
 40
0.9380488097021439
 40
0.9693429390402132
 40
1.0
 40
1.03067662557268
 40
1.061988435188023
 40
1.093178677007465
 10
225.2544004791114
 20
100.0358340326462
 30
0.0
 10
223.5249573988958
 20
99.8606931152512
 30
0.0
 10
221.7951957736607
 20
100.0360723503828
 30
0.0
 10
220.1351749537791
 20
100.5625083028202
 30
0.0
 10
218.6015231895342
 20
101.3888807649701
 30
0.0
 10
217.2715265790711
 20
102.5025318440998
 30
0.0
 10
216.1788238353113
 20
103.8570724241534
 30
0.0
 10
215.3691920067864
 20
105.4143833139881
 30
0.0
 10
214.8544779600664
 20
107.1035034364216
 30
0.0
 10
214.6851364717106
 20
108.8679392408554
 30
0.0
 10
214.8517229593238
 20
110.6295386472645
 30
0.0
 10
215.3616998621472
 20
112.3209770463951
 30
0.0
 10
216.1762896255552
 20
113.8766553833362
 30
0.0
 10
217.2733174201367
 20
115.2327864059415
 30
0.0
 10
218.6050238620605
 20
116.350953640482
 30
0.0
 10
220.1370615714409
 20
117.1767400289371
 30
0.0
 10
221.7961678697887
 20
117.6999113189328
 30
0.0
 10
223.525940643601
 20
117.8731434664029
 30
0.0
 10
225.2571201971309
 20
117.6987700577318
 30
0.0
 10
226.9171978739432
 20
117.1732904184114
 30
0.0
 10
228.4498622312427
 20
116.3467487833684
 30
0.0
 10
229.7790285023165
 20
115.2319422868244
 30
0.0
 10
230.8716261364707
 20
113.8747752850573
 30
0.0
 10
231.6807172754383
 20
112.3145799949259
 30
0.0
 10
232.1948380128583
 20
110.6236556244778
 30
0.0
 10
232.366330496161
 20
108.8639341444983
 30
0.0
 10
232.1960577011818
 20
107.1036310781885
 30
0.0
 10
231.6807660987456
 20
105.4136625290076
 30
0.0
 10
230.870267130014
 20
103.8546669771366
 30
0.0
 10
229.7766186591815
 20
102.4999140665411
 30
0.0
 10
228.4463587710722
 20
101.3871842097374
 30
0.0
 10
226.9134674322288
 20
100.5617095070885
 30
0.0
 10
225.2544004791114
 20
100.0358340326462
 30
0.0
 10
223.5249573988958
 20
99.8606931152512
 30
0.0
 10
221.7951957736607
 20
100.0360723503828
 30
0.0
  0
SPLINE
  5
A3
330
1F
100
AcDbEntity
  8
0
  6
Continuous
 62
     7
370
    15
100
AcDbSpline
210
0.0
220
0.0
230
1.0
 70
     8
 71
     3
 72
    16
 73
    12
 74
     0
 42
0.00000001
 43
0.00000001
 40
0.0
 40
0.0
 40
0.0
 40
0.0
 40
0.025369817307093
 40
0.1321217346080044
 40
0.3236847686077692
 40
0.498926433180965
 40
0.6742145618252161
 40
0.7363452383960364
 40
0.8003178065991435
 40
0.8661498369629014
 40
1.0
 40
1.0
 40
1.0
 40
1.0
 10
205.3975511576691
 20
104.7935588555201
 30
0.0
 10
205.4372194144464
 20
104.8536189369872
 30
0.0
 10
205.6438050130279
 20
105.1664017232441
 30
0.0
 10
206.0232267205792
 20
106.010671186223
 30
0.0
 10
206.4280548475039
 20
107.3072037777999
 30
0.0
 10
206.5722537630797
 20
108.8641399304965
 30
0.0
 10
206.4610304498203
 20
110.0483400501493
 30
0.0
 10
206.2720614444622
 20
110.8892851489734
 30
0.0
 10
206.1147462592796
 20
111.4141846607889
 30
0.0
 10
205.8568526573412
 20
112.121692586983
 30
0.0
 10
205.5742544746423
 20
112.6149020920101
 30
0.0
 10
205.3848243998619
 20
112.945508299479
 30
0.0
  0
SPLINE
  5
A4
330
1F
100
AcDbEntity
  8
0
  6
Continuous
 62
     7
370
    15
100
AcDbSpline
210
0.0
220
0.0
230
1.0
 70
     8
 71
     3
 72
    16
 73
    12
 74
     0
 42
0.00000001
 43
0.00000001
 40
0.0
 40
0.0
 40
0.0
 40
0.0
 40
0.0319018101860192
 40
0.1341480177247104
 40
0.3220738460679844
 40
0.5004706583825386
 40
0.6753779279032336
 40
0.7373246664691616
 40
0.8010849148687434
 40
0.8666762856309715
 40
1.0
 40
1.0
 40
1.0
 40
1.0
 10
191.6626908458754
 20
112.9529706864384
 30
0.0
 10
191.6129135140423
 20
112.8771529395089
 30
0.0
 10
191.4035984201936
 20
112.5583371607287
 30
0.0
 10
191.0254652417501
 20
111.717277413074
 30
0.0
 10
190.6235959895467
 20
110.4314336346208
 30
0.0
 10
190.477361315603
 20
108.873431335026
 30
0.0
 10
190.5906172931754
 20
107.6793209995186
 30
0.0
 10
190.7801907977329
 20
106.8388875904551
 30
0.0
 10
190.9377153084453
 20
106.3147192855994
 30
0.0
 10
191.1956878395211
 20
105.6085080115108
 30
0.0
 10
191.477941867082
 20
105.1162328393461
 30
0.0
 10
191.6671238757024
 20
104.7862832309424
 30
0.0
  0
SPLINE
  5
A5
330
1F
100
AcDbEntity
  8
0
  6
Continuous
 62
     7
370
    15
100
AcDbSpline
210
0.0
220
0.0
230
1.0
 70
     8
 71
     3
 72
    39
 73
    35
 74
     0
 42
0.00000001
 43
0.00000001
 40
-0.0931207261896305
 40
-0.0619511902978445
 40
-0.030657060959509
 40
0.0
 40
0.030676625573646
 40
0.0619884351880636
 40
0.0931786770075815
 40
0.1243035093027815
 40
0.1554610904624564
 40
0.1869501965028371
 40
0.2186198542446159
 40
0.249916829476313
 40
0.281466820023826
 40
0.3129752671682241
 40
0.3444080948968621
 40
0.3758070711407802
 40
0.4069761878417242
 40
0.4381182606699868
 40
0.4693302543139471
 40
0.5000485752812183
 40
0.5307608120554305
 40
0.562052160020395
 40
0.5932083628433464
 40
0.6243426223065225
 40
0.6555306071108109
 40
0.6870881590060106
 40
0.7187798694379506
 40
0.7500819188468258
 40
0.7813573083836373
 40
0.8130684055863835
 40
0.8445967306448298
 40
0.8757739303181714
 40
0.9068792738103695
 40
0.9380488097021555
 40
0.969342939040491
 40
1.0
 40
1.030676625573646
 40
1.061988435188064
 40
1.093178677007582
 10
200.2544004791052
 20
100.0358340326489
 30
0.0
 10
198.5249573988733
 20
99.86069311525291
 30
0.0
 10
196.7951957736399
 20
100.0360723503705
 30
0.0
 10
195.1351749537597
 20
100.5625083028261
 30
0.0
 10
193.6015231895504
 20
101.3888807649969
 30
0.0
 10
192.271526579065
 20
102.5025318441061
 30
0.0
 10
191.178823835279
 20
103.8570724241409
 30
0.0
 10
190.369192006787
 20
105.4143833139745
 30
0.0
 10
189.8544779601339
 20
107.1035034364123
 30
0.0
 10
189.6851364717069
 20
108.8679392407867
 30
0.0
 10
189.851722959275
 20
110.6295386472265
 30
0.0
 10
190.3616998621255
 20
112.3209770463326
 30
0.0
 10
191.1762896255569
 20
113.8766553833092
 30
0.0
 10
192.2733174201128
 20
115.232786405915
 30
0.0
 10
193.6050238620339
 20
116.3509536404933
 30
0.0
 10
195.1370615714336
 20
117.1767400289305
 30
0.0
 10
196.7961678697941
 20
117.6999113189308
 30
0.0
 10
198.5259406436147
 20
117.8731434664018
 30
0.0
 10
200.2571201971422
 20
117.6987700577392
 30
0.0
 10
201.9171978739736
 20
117.1732904183959
 30
0.0
 10
203.4498622312676
 20
116.3467487833595
 30
0.0
 10
204.7790285023474
 20
115.2319422867954
 30
0.0
 10
205.871626136465
 20
113.8747752850341
 30
0.0
 10
206.6807172754419
 20
112.3145799949336
 30
0.0
 10
207.1948380128318
 20
110.6236556244958
 30
0.0
 10
207.3663304961617
 20
108.8639341445466
 30
0.0
 10
207.1960577012054
 20
107.1036310782095
 30
0.0
 10
206.6807660987525
 20
105.4136625290337
 30
0.0
 10
205.8702671300186
 20
103.8546669771367
 30
0.0
 10
204.7766186591782
 20
102.4999140665398
 30
0.0
 10
203.446358771071
 20
101.3871842097301
 30
0.0
 10
201.9134674322192
 20
100.5617095070847
 30
0.0
 10
200.2544004791052
 20
100.0358340326489
 30
0.0
 10
198.5249573988733
 20
99.86069311525291
 30
0.0
 10
196.7951957736399
 20
100.0360723503705
 30
0.0
  0
LINE
  5
A6
330
1F
100
AcDbEntity
  8
0
  6
Continuous
 62
     7
370
    15
100
AcDbLine
 10
91.9753245997
 20
128.7171282611
 30
0.0
 11
101.6333917683
 21
128.7171282611
 31
0.0
  0
LINE
  5
A7
330
1F
100
AcDbEntity
  8
0
  6
Continuous
 62
     7
370
    15
100
AcDbLine
 10
101.6333917683
 20
78.6802105648
 30
0.0
 11
101.6333917683
 21
128.7171282611
 31
0.0
  0
LINE
  5
A8
330
1F
100
AcDbEntity
  8
0
  6
Continuous
 62
     7
370
    15
100
AcDbLine
 10
101.6333917683
 20
78.6802105648
 30
0.0
 11
99.9753245997
 21
78.6802105648
 31
0.0
  0
SPLINE
  5
A9
330
1F
100
AcDbEntity
  8
0
  6
Continuous
 62
     7
370
    15
100
AcDbSpline
210
0.0
220
0.0
230
1.0
 70
     8
 71
     3
 72
    28
 73
    24
 74
     0
 42
0.00000001
 43
0.00000001
 40
0.0
 40
0.0
 40
0.0
 40
0.0
 40
0.1250000000000001
 40
0.1250000000000001
 40
0.1875000000000001
 40
0.1875000000000001
 40
0.2500000000000001
 40
0.2500000000000001
 40
0.3749999999999999
 40
0.3749999999999999
 40
0.4375
 40
0.4375
 40
0.4999999999999999
 40
0.4999999999999999
 40
0.6249999999999999
 40
0.6249999999999999
 40
0.7499999999999997
 40
0.7499999999999997
 40
0.8124999999999998
 40
0.8124999999999998
 40
0.8749999999999998
 40
0.8749999999999998
 40
1.0
 40
1.0
 40
1.0
 40
1.0
 10
99.97532459974614
 20
78.68021056481987
 30
0.0
 10
99.44361684225322
 20
78.68021056481989
 30
0.0
 10
98.92137827694289
 20
78.66442585086966
 30
0.0
 10
98.15150779066789
 20
78.61943043679345
 30
0.0
 10
97.89714821847654
 20
78.60087544171773
 30
0.0
 10
97.39302663777805
 20
78.55702271927122
 30
0.0
 10
97.14330382035011
 20
78.53167811231903
 30
0.0
 10
96.4177138689037
 20
78.44827603456892
 30
0.0
 10
95.95935360732216
 20
78.38241047541783
 30
0.0
 10
95.30885566392828
 20
78.27344013492605
 30
0.0
 10
95.09717361313582
 20
78.23520049915939
 30
0.0
 10
94.69310212399783
 20
78.15744176174003
 30
0.0
 10
94.50059561017696
 20
78.11794079956469
 30
0.0
 10
93.95076063915567
 20
77.99903305719869
 30
0.0
 10
93.62083186084688
 20
77.91921537577407
 30
0.0
 10
93.03636059227819
 20
77.76587221397801
 30
0.0
 10
92.79008345426476
 20
77.69453846070876
 30
0.0
 10
92.49024066156667
 20
77.60059495363414
 30
0.0
 10
92.4017838044945
 20
77.5714011602742
 30
0.0
 10
92.24842245118936
 20
77.51793458601081
 30
0.0
 10
92.18333423696313
 20
77.49357525173562
 30
0.0
 10
92.02774022102234
 20
77.42998510629087
 30
0.0
 10
91.97532459974616
 20
77.39988217120161
 30
0.0
 10
91.97532459974616
 20
77.38300527820472
 30
0.0
  0
LINE
  5
AA
330
1F
100
AcDbEntity
  8
0
  6
Continuous
 62
     7
370
    15
100
AcDbLine
 10
91.9753245997
 20
77.3830052782
 30
0.0
 11
91.9753245997
 21
77.3671282611
 31
0.0
  0
SPLINE
  5
AB
330
1F
100
AcDbEntity
  8
0
  6
Continuous
 62
     7
370
    15
100
AcDbSpline
210
0.0
220
0.0
230
1.0
 70
     8
 71
     3
 72
    17
 73
    13
 74
     0
 42
0.00000001
 43
0.00000001
 40
0.0
 40
0.0
 40
0.0
 40
0.0
 40
0.1034796923964056
 40
0.210023918880785
 40
0.3134862136955583
 40
0.4198361274354882
 40
0.5254127712915682
 40
0.633961069541979
 40
0.7409508756305031
 40
0.8511696089308174
 40
0.9558996534551937
 40
1.0
 40
1.0
 40
1.0
 40
1.0
 10
99.97532459974614
 20
139.3343237342313
 30
0.0
 10
99.54007625063613
 20
139.3397719307646
 30
0.0
 10
98.65668974407114
 20
139.3508296712764
 30
0.0
 10
97.37586215884248
 20
139.437188064178
 30
0.0
 10
96.15844562296843
 20
139.5650582407158
 30
0.0
 10
95.05063977072189
 20
139.7240035393089
 30
0.0
 10
94.06240096677367
 20
139.8984972270245
 30
0.0
 10
93.23767740924212
 20
140.0676630776644
 30
0.0
 10
92.58872390858285
 20
140.2155468601927
 30
0.0
 10
92.1716890931211
 20
140.3173374444235
 30
0.0
 10
91.97309238015659
 20
140.3676889670267
 30
0.0
 10
91.99640510158987
 20
140.3617832828043
 30
0.0
 10
92.00331295882741
 20
140.3600333531097
 30
0.0
  0
LINE
  5
AC
330
1F
100
AcDbEntity
  8
0
  6
Continuous
 62
     7
370
    15
100
AcDbLine
 10
101.6333917683
 20
139.3343237342
 30
0.0
 11
99.9753245997
 21
139.3343237342
 31
0.0
  0
LINE
  5
AD
330
1F
100
AcDbEntity
  8
0
  6
Continuous
 62
     7
370
    15
100
AcDbLine
 10
101.6333917683
 20
133.3258179234
 30
0.0
 11
101.6333917683
 21
139.3343237342
 31
0.0
  0
LINE
  5
AE
330
1F
100
AcDbEntity
  8
0
  6
Continuous
 62
     7
370
    15
100
AcDbLine
 10
99.2209449454
 20
133.3258179234
 30
0.0
 11
101.6333917683
 21
133.3258179234
 31
0.0
  0
SPLINE
  5
AF
330
1F
100
AcDbEntity
  8
0
  6
Continuous
 62
     7
370
    15
100
AcDbSpline
210
0.0
220
0.0
230
1.0
 70
     8
 71
     3
 72
    20
 73
    16
 74
     0
 42
0.00000001
 43
0.00000001
 40
0.0
 40
0.0
 40
0.0
 40
0.0
 40
0.2499999999999997
 40
0.2499999999999997
 40
0.3749999999999997
 40
0.3749999999999997
 40
0.4999999999999998
 40
0.4999999999999998
 40
0.6249999999999998
 40
0.6249999999999998
 40
0.7499999999999999
 40
0.7499999999999999
 40
0.8749999999999999
 40
0.8749999999999999
 40
1.0
 40
1.0
 40
1.0
 40
1.0
 10
91.97532459974614
 20
128.717128261067
 30
0.0
 10
92.22369833403421
 20
129.3709906893644
 30
0.0
 10
92.54326842637947
 20
129.9747764713616
 30
0.0
 10
93.16557465958415
 20
130.8016152075302
 30
0.0
 10
93.39699892001492
 20
131.0640438454831
 30
0.0
 10
93.91821325966463
 20
131.5607064995881
 30
0.0
 10
94.20483374229971
 20
131.7912933786096
 30
0.0
 10
94.82431848360731
 20
132.2078476031922
 30
0.0
 10
95.15861886309428
 20
132.3953454051598
 30
0.0
 10
95.88387933571907
 20
132.7267423827962
 30
0.0
 10
96.26579439310953
 20
132.8662463702914
 30
0.0
 10
97.06058256928122
 20
133.0916998777624
 30
0.0
 10
97.47474076348762
 20
133.178325989306
 30
0.0
 10
98.340287104069
 20
133.2963067781602
 30
0.0
 10
98.77817471908081
 20
133.3258179234345
 30
0.0
 10
99.22094494543543
 20
133.3258179234345
 30
0.0
  0
SPLINE
  5
B0
330
1F
100
AcDbEntity
  8
0
  6
Continuous
 62
     7
370
    15
100
AcDbSpline
210
0.0
220
0.0
230
1.0
 70
     8
 71
     3
 72
    70
 73
    66
 74
     0
 42
0.00000001
 43
0.00000001
 40
-0.0312500000000001
 40
-0.0312500000000001
 40
0.0
 40
0.0
 40
0.0312499999999999
 40
0.0312499999999999
 40
0.0624999999999998
 40
0.0624999999999998
 40
0.0937499999999997
 40
0.0937499999999997
 40
0.1249999999999996
 40
0.1249999999999996
 40
0.1562499999999994
 40
0.1562499999999994
 40
0.1874999999999993
 40
0.1874999999999993
 40
0.2187499999999992
 40
0.2187499999999992
 40
0.2499999999999991
 40
0.2499999999999991
 40
0.281249999999999
 40
0.281249999999999
 40
0.3124999999999989
 40
0.3124999999999989
 40
0.3437499999999988
 40
0.3437499999999988
 40
0.3749999999999987
 40
0.3749999999999987
 40
0.4062499999999986
 40
0.4062499999999986
 40
0.4374999999999984
 40
0.4374999999999984
 40
0.4687499999999983
 40
0.4687499999999983
 40
0.4999999999999982
 40
0.4999999999999982
 40
0.5312499999999983
 40
0.5312499999999983
 40
0.5624999999999984
 40
0.5624999999999984
 40
0.5937499999999986
 40
0.5937499999999986
 40
0.6249999999999987
 40
0.6249999999999987
 40
0.6562499999999988
 40
0.6562499999999988
 40
0.6874999999999989
 40
0.6874999999999989
 40
0.718749999999999
 40
0.718749999999999
 40
0.7499999999999991
 40
0.7499999999999991
 40
0.7812499999999992
 40
0.7812499999999992
 40
0.8124999999999993
 40
0.8124999999999993
 40
0.8437499999999994
 40
0.8437499999999994
 40
0.8749999999999996
 40
0.8749999999999996
 40
0.9062499999999997
 40
0.9062499999999997
 40
0.9374999999999998
 40
0.9374999999999998
 40
0.9687499999999999
 40
0.9687499999999999
 40
1.0
 40
1.0
 40
1.03125
 40
1.03125
 10
95.2898699384063
 20
119.4880351470504
 30
0.0
 10
94.760779261086
 20
119.4880351470504
 30
0.0
 10
94.50070859370891
 20
119.5127124418356
 30
0.0
 10
93.98913391387349
 20
119.6091841148775
 30
0.0
 10
93.7349586301333
 20
119.6821650308575
 30
0.0
 10
93.25068800007159
 20
119.8719056337962
 30
0.0
 10
93.02104690819044
 20
119.9877662921899
 30
0.0
 10
92.58644255995695
 20
120.2603841381476
 30
0.0
 10
92.38087678331033
 20
120.4184232202014
 30
0.0
 10
92.0123196427151
 20
120.761966071172
 30
0.0
 10
91.84683865997961
 20
120.9487285152737
 30
0.0
 10
91.5544141505445
 20
121.3522716896705
 30
0.0
 10
91.43031317391802
 20
121.5657686860997
 30
0.0
 10
91.2307339771683
 20
122.0051520000222
 30
0.0
 10
91.15380039131001
 20
122.2342919871678
 30
0.0
 10
91.05094333278966
 20
122.7002661099278
 30
0.0
 10
91.02547042333053
 20
122.933148555604
 30
0.0
 10
91.02518001276275
 20
123.3985460906838
 30
0.0
 10
91.05120464653848
 20
123.6334218480781
 30
0.0
 10
91.1533529310305
 20
124.0849149953244
 30
0.0
 10
91.22892937861366
 20
124.3029614707358
 30
0.0
 10
91.42942690975858
 20
124.7240559957736
 30
0.0
 10
91.55455575126696
 20
124.9259773802919
 30
0.0
 10
91.84391455228855
 20
125.2980068628108
 30
0.0
 10
92.00932553934402
 20
125.4706351663911
 30
0.0
 10
92.38231609749184
 20
125.7879531709372
 30
0.0
 10
92.58404913058094
 20
125.9277401044388
 30
0.0
 10
93.01690838140881
 20
126.1719163579906
 30
0.0
 10
93.2508269142982
 20
126.2771458690321
 30
0.0
 10
93.73501064944081
 20
126.4453030154072
 30
0.0
 10
93.98432627539631
 20
126.5085539060011
 30
0.0
 10
94.49735879982404
 20
126.5941331151037
 30
0.0
 10
94.76265262272868
 20
126.6160052800261
 30
0.0
 10
95.28498724259843
 20
126.61616892967
 30
0.0
 10
95.54474090508016
 20
126.595167237574
 30
0.0
 10
96.06135272072541
 20
126.5097648824964
 30
0.0
 10
96.31371876122569
 20
126.4457586992094
 30
0.0
 10
96.79524388275851
 20
126.2789441791682
 30
0.0
 10
97.02809461487206
 20
126.1748110157691
 30
0.0
 10
97.46518446331083
 20
125.9288243632741
 30
0.0
 10
97.666505451968
 20
125.7890745323253
 30
0.0
 10
98.03559147726791
 20
125.4759364626007
 30
0.0
 10
98.2045762283196
 20
125.3004803033306
 30
0.0
 10
98.49503228497882
 20
124.9276400392304
 30
0.0
 10
98.61810409634094
 20
124.7295182291194
 30
0.0
 10
98.81944033776297
 20
124.3088068863858
 30
0.0
 10
98.8966528837052
 20
124.0868168657182
 30
0.0
 10
98.99885642660526
 20
123.6369519260099
 30
0.0
 10
99.02508477805758
 20
123.4066965128931
 30
0.0
 10
99.02556117737468
 20
122.935380570344
 30
0.0
 10
98.99981876487672
 20
122.7021431546299
 30
0.0
 10
98.89850798851285
 20
122.2404666151318
 30
0.0
 10
98.82167534912192
 20
122.0095692280197
 30
0.0
 10
98.62127150990673
 20
121.567293214228
 30
0.0
 10
98.4986000116147
 20
121.3562307829421
 30
0.0
 10
98.20865272245045
 20
120.9547322722094
 30
0.0
 10
98.04008174308524
 20
120.7638257501335
 30
0.0
 10
97.67181214897207
 20
120.4201004181364
 30
0.0
 10
97.47075029170175
 20
120.2649632319224
 30
0.0
 10
97.03371937311684
 20
119.9898858718426
 30
0.0
 10
96.80157115998722
 20
119.8727696424206
 30
0.0
 10
96.32056087848835
 20
119.6838431573561
 30
0.0
 10
96.06846079565793
 20
119.6107681869618
 30
0.0
 10
95.55139130939892
 20
119.5127161278273
 30
0.0
 10
95.2898699384063
 20
119.4880351470504
 30
0.0
 10
94.760779261086
 20
119.4880351470504
 30
0.0
  0
SPLINE
  5
B1
330
1F
100
AcDbEntity
  8
0
  6
Continuous
 62
     7
370
    15
100
AcDbSpline
210
0.0
220
0.0
230
1.0
 70
     8
 71
     3
 72
    70
 73
    66
 74
     0
 42
0.00000001
 43
0.00000001
 40
-0.0312500000000001
 40
-0.0312500000000001
 40
0.0
 40
0.0
 40
0.0312500000000001
 40
0.0312500000000001
 40
0.0625000000000002
 40
0.0625000000000002
 40
0.0937500000000003
 40
0.0937500000000003
 40
0.1250000000000004
 40
0.1250000000000004
 40
0.1562500000000005
 40
0.1562500000000005
 40
0.1875000000000006
 40
0.1875000000000006
 40
0.2187500000000007
 40
0.2187500000000007
 40
0.2500000000000008
 40
0.2500000000000008
 40
0.2812500000000007
 40
0.2812500000000007
 40
0.3125000000000006
 40
0.3125000000000006
 40
0.3437500000000006
 40
0.3437500000000006
 40
0.3750000000000005
 40
0.3750000000000005
 40
0.4062500000000004
 40
0.4062500000000004
 40
0.4375000000000003
 40
0.4375000000000003
 40
0.4687500000000003
 40
0.4687500000000003
 40
0.5000000000000002
 40
0.5000000000000002
 40
0.5312500000000001
 40
0.5312500000000001
 40
0.5625
 40
0.5625
 40
0.5937499999999999
 40
0.5937499999999999
 40
0.6249999999999997
 40
0.6249999999999997
 40
0.6562499999999996
 40
0.6562499999999996
 40
0.6874999999999994
 40
0.6874999999999994
 40
0.7187499999999993
 40
0.7187499999999993
 40
0.7499999999999992
 40
0.7499999999999992
 40
0.7812499999999993
 40
0.7812499999999993
 40
0.8124999999999994
 40
0.8124999999999994
 40
0.8437499999999996
 40
0.8437499999999996
 40
0.8749999999999996
 40
0.8749999999999996
 40
0.9062499999999997
 40
0.9062499999999997
 40
0.9374999999999998
 40
0.9374999999999998
 40
0.9687499999999999
 40
0.9687499999999999
 40
1.0
 40
1.0
 40
1.03125
 40
1.03125
 10
95.2898699384063
 20
133.9260916558462
 30
0.0
 10
94.760779261086
 20
133.9260916558462
 30
0.0
 10
94.50070859370892
 20
133.941992096261
 30
0.0
 10
93.98913391387349
 20
134.0039364464353
 30
0.0
 10
93.73495863013332
 20
134.0507386805266
 30
0.0
 10
93.25068800007159
 20
134.1717156639816
 30
0.0
 10
93.02104690819044
 20
134.2453179917885
 30
0.0
 10
92.58644255995695
 20
134.4171422627666
 30
0.0
 10
92.38087678331033
 20
134.516145685694
 30
0.0
 10
92.0123196427151
 20
134.7292420996068
 30
0.0
 10
91.84683865997961
 20
134.8441418157365
 30
0.0
 10
91.5544141505445
 20
135.0895087144268
 30
0.0
 10
91.43031317391801
 20
135.2179486148971
 30
0.0
 10
91.2307339771683
 20
135.4788407629831
 30
0.0
 10
91.15380039131001
 20
135.6132219343225
 30
0.0
 10
91.05094333278966
 20
135.8825418854288
 30
0.0
 10
91.02547042333053
 20
136.0152231496469
 30
0.0
 10
91.02518001276275
 20
136.276409623778
 30
0.0
 10
91.05120464653848
 20
136.4061746619427
 30
0.0
 10
91.1533529310305
 20
136.6517572962154
 30
0.0
 10
91.22892937861366
 20
136.7684188335242
 30
0.0
 10
91.42942690975858
 20
136.9903240236788
 30
0.0
 10
91.55455575126696
 20
137.0949352776018
 30
0.0
 10
91.84391455228855
 20
137.2849816892098
 30
0.0
 10
92.00932553934402
 20
137.3717413606595
 30
0.0
 10
92.38231609749184
 20
137.5292457364111
 30
0.0
 10
92.58404913058094
 20
137.5975710011983
 30
0.0
 10
93.0169083814088
 20
137.7158007248175
 30
0.0
 10
93.25082691429817
 20
137.7660956409214
 30
0.0
 10
93.7350106494408
 20
137.845961177811
 30
0.0
 10
93.9843262753963
 20
137.8757023056106
 30
0.0
 10
94.49735879982403
 20
137.9158550471188
 30
0.0
 10
94.76265262272868
 20
137.9260533165287
 30
0.0
 10
95.28498724259843
 20
137.9261297749134
 30
0.0
 10
95.54474090508015
 20
137.9163387633043
 30
0.0
 10
96.0613527207254
 20
137.8762719245656
 30
0.0
 10
96.31371876122567
 20
137.8461747577088
 30
0.0
 10
96.7952438827585
 20
137.7669525478786
 30
0.0
 10
97.02809461487205
 20
137.7171950684152
 30
0.0
 10
97.46518446331082
 20
137.5981031259648
 30
0.0
 10
97.666505451968
 20
137.5297878644175
 30
0.0
 10
98.0355914772679
 20
137.374386897484
 30
0.0
 10
98.2045762283196
 20
137.2862345554171
 30
0.0
 10
98.49503228497882
 20
137.0957951663007
 30
0.0
 10
98.61810409634094
 20
136.9931705886017
 30
0.0
 10
98.81944033776297
 20
136.7715302419935
 30
0.0
 10
98.8966528837052
 20
136.652776166446
 30
0.0
 10
98.99885642660526
 20
136.4081102275284
 30
0.0
 10
99.02508477805758
 20
136.2809535020798
 30
0.0
 10
99.02556117737468
 20
136.0165053562243
 30
0.0
 10
98.99981876487672
 20
135.8836046759671
 30
0.0
 10
98.89850798851285
 20
135.616812402485
 30
0.0
 10
98.82167534912192
 20
135.4814485010165
 30
0.0
 10
98.62127150990673
 20
135.2188687057139
 30
0.0
 10
98.4986000116147
 20
135.0918935459601
 30
0.0
 10
98.20865272245047
 20
134.8478141598777
 30
0.0
 10
98.04008174308524
 20
134.7303890351239
 30
0.0
 10
97.67181214897208
 20
134.5171925741754
 30
0.0
 10
97.47075029170175
 20
134.4200184557506
 30
0.0
 10
97.03371937311684
 20
134.2466635685364
 30
0.0
 10
96.80157115998722
 20
134.1722640168797
 30
0.0
 10
96.32056087848837
 20
134.051811137375
 30
0.0
 10
96.06846079565793
 20
134.004952762109
 30
0.0
 10
95.55139130939892
 20
133.9419952651253
 30
0.0
 10
95.2898699384063
 20
133.9260916558462
 30
0.0
 10
94.760779261086
 20
133.9260916558462
 30
0.0
  0
LINE
  5
B2
330
1F
100
AcDbEntity
  8
0
  6
Continuous
 62
     7
370
    15
100
AcDbLine
 10
103.1153245997
 20
81.369291102
 30
0.0
 11
103.1153245997
 21
128.7171282611
 31
0.0
  0
SPLINE
  5
B3
330
1F
100
AcDbEntity
  8
0
  6
Continuous
 62
     7
370
    15
100
AcDbSpline
210
0.0
220
0.0
230
1.0
 70
     8
 71
     3
 72
     8
 73
     4
 74
     0
 42
0.00000001
 43
0.00000001
 40
0.0
 40
0.0
 40
0.0
 40
0.0
 40
1.0
 40
1.0
 40
1.0
 40
1.0
 10
103.1153245997461
 20
81.36929110201217
 30
0.0
 10
102.622985476965
 20
80.47202106780547
 30
0.0
 10
102.1288714289228
 20
79.57573665275322
 30
0.0
 10
101.6333917682571
 20
78.68021056481987
 30
0.0
  0
SPLINE
  5
B4
330
1F
100
AcDbEntity
  8
0
  6
Continuous
 62
     7
370
    15
100
AcDbSpline
210
0.0
220
0.0
230
1.0
 70
    24
 71
     3
 72
     8
 73
     4
 74
     0
 42
0.00000001
 43
0.00000001
 40
0.0
 40
0.0
 40
0.0
 40
0.0
 40
1.0
 40
1.0
 40
1.0
 40
1.0
 10
101.6333917682571
 20
128.717128261067
 30
0.0
 10
102.1400718764076
 20
128.717128261067
 30
0.0
 10
102.6353726053813
 20
128.717128261067
 30
0.0
 10
103.1153245997461
 20
128.717128261067
 30
0.0
  0
LINE
  5
B5
330
1F
100
AcDbEntity
  8
0
  6
Continuous
 62
     7
370
    15
100
AcDbLine
 10
112.3753245997
 20
78.6802105648
 30
0.0
 11
108.4172574312
 21
78.6802105648
 31
0.0
  0
LINE
  5
B6
330
1F
100
AcDbEntity
  8
0
  6
Continuous
 62
     7
370
    15
100
AcDbLine
 10
108.4172574312
 20
78.6802105648
 30
0.0
 11
108.4172574312
 21
128.7171282611
 31
0.0
  0
LINE
  5
B7
330
1F
100
AcDbEntity
  8
0
  6
Continuous
 62
     7
370
    15
100
AcDbLine
 10
108.4172574312
 20
128.7171282611
 30
0.0
 11
112.3753245997
 21
128.7171282611
 31
0.0
  0
SPLINE
  5
B8
330
1F
100
AcDbEntity
  8
0
  6
Continuous
 62
     7
370
    15
100
AcDbSpline
210
0.0
220
0.0
230
1.0
 70
     8
 71
     3
 72
     8
 73
     4
 74
     0
 42
0.00000001
 43
0.00000001
 40
0.0
 40
0.0
 40
0.0
 40
0.0
 40
1.0
 40
1.0
 40
1.0
 40
1.0
 10
108.4172574312352
 20
78.68021056481987
 30
0.0
 10
107.9217777705695
 20
79.57573665275324
 30
0.0
 10
107.4276637225273
 20
80.47202106780549
 30
0.0
 10
106.9353245997462
 20
81.36929110201218
 30
0.0
  0
LINE
  5
B9
330
1F
100
AcDbEntity
  8
0
  6
Continuous
 62
     7
370
    15
100
AcDbLine
 10
106.9353245997
 20
81.369291102
 30
0.0
 11
106.9353245997
 21
128.7171282611
 31
0.0
  0
SPLINE
  5
BA
330
1F
100
AcDbEntity
  8
0
  6
Continuous
 62
     7
370
    15
100
AcDbSpline
210
0.0
220
0.0
230
1.0
 70
    24
 71
     3
 72
     8
 73
     4
 74
     0
 42
0.00000001
 43
0.00000001
 40
0.0
 40
0.0
 40
0.0
 40
0.0
 40
1.0
 40
1.0
 40
1.0
 40
1.0
 10
106.9353245997461
 20
128.717128261067
 30
0.0
 10
107.4152765941111
 20
128.717128261067
 30
0.0
 10
107.9105773230847
 20
128.717128261067
 30
0.0
 10
108.4172574312352
 20
128.717128261067
 30
0.0
  0
LINE
  5
BB
330
1F
100
AcDbEntity
  8
0
  6
Continuous
 62
     7
370
    15
100
AcDbLine
 10
87.0253245997
 20
77.6671282611
 30
0.0
 11
87.0253245997
 21
140.0671282562
 31
0.0
  0
LINE
  5
BC
330
1F
100
AcDbEntity
  8
0
  6
Continuous
 62
     7
370
    15
100
AcDbLine
 10
112.9753245997
 20
79.3068508605
 30
0.0
 11
112.9753245997
 21
128.7171282611
 31
0.0
  0
SPLINE
  5
BD
330
1F
100
AcDbEntity
  8
0
  6
Continuous
 62
     7
370
    15
100
AcDbSpline
210
0.0
220
0.0
230
1.0
 70
     8
 71
     3
 72
    10
 73
     6
 74
     0
 42
0.00000001
 43
0.00000001
 40
0.0
 40
0.0
 40
0.0
 40
0.0
 40
0.5
 40
0.5
 40
1.0
 40
1.0
 40
1.0
 40
1.0
 10
112.9753245997462
 20
79.30685086047419
 30
0.0
 10
112.9753245997462
 20
79.14696359228053
 30
0.0
 10
112.9140149485103
 20
78.98583633676593
 30
0.0
 10
112.6949153109752
 20
78.75173733841109
 30
0.0
 10
112.5368671046618
 20
78.68021056481987
 30
0.0
 10
112.3753245997461
 20
78.68021056481987
 30
0.0
  0
SPLINE
  5
BE
330
1F
100
AcDbEntity
  8
0
  6
Continuous
 62
     7
370
    15
100
AcDbSpline
210
0.0
220
0.0
230
1.0
 70
    24
 71
     3
 72
    12
 73
     8
 74
     0
 42
0.00000001
 43
0.00000001
 40
0.0
 40
0.0
 40
0.0
 40
0.0
 40
0.2500000000000033
 40
0.2500000000000033
 40
0.5000000000000067
 40
0.5000000000000067
 40
1.0
 40
1.0
 40
1.0
 40
1.0
 10
112.3753245997461
 20
128.717128261067
 30
0.0
 10
112.4655636674332
 20
128.717128261067
 30
0.0
 10
112.5564617815397
 20
128.717128261067
 30
0.0
 10
112.7110588180282
 20
128.717128261067
 30
0.0
 10
112.7760372341363
 20
128.717128261067
 30
0.0
 10
112.9278722620726
 20
128.717128261067
 30
0.0
 10
112.9753245997462
 20
128.717128261067
 30
0.0
 10
112.9753245997462
 20
128.717128261067
 30
0.0
  0
ARC
  5
BF
330
1F
100
AcDbEntity
  8
0
  6
Continuous
 62
     7
370
    15
100
AcDbCircle
 10
95.0224630933
 20
120.7777410928
 30
0.0
 40
4.110793026859908
100
AcDbArc
 50
19.1727796384
 51
159.4979304662
  0
SPLINE
  5
C0
330
1F
100
AcDbEntity
  8
0
  6
Continuous
 62
     7
370
    15
100
AcDbSpline
210
0.0
220
0.0
230
1.0
 70
    24
 71
     3
 72
    14
 73
    10
 74
     0
 42
0.00000001
 43
0.00000001
 40
0.0
 40
0.0
 40
0.0
 40
0.0
 40
0.5000000000000013
 40
0.5000000000000013
 40
0.750000000000002
 40
0.750000000000002
 40
0.875000000000001
 40
0.875000000000001
 40
1.0
 40
1.0
 40
1.0
 40
1.0
 10
106.8376497974139
 20
82.46712826106703
 30
0.0
 10
106.7908650923656
 20
82.46712826106703
 30
0.0
 10
106.728813895586
 20
82.46712826106705
 30
0.0
 10
106.5854222570354
 20
82.46712826106703
 30
0.0
 10
106.5292786034843
 20
82.46712826106703
 30
0.0
 10
106.4163275813481
 20
82.46712826106703
 30
0.0
 10
106.3733268193099
 20
82.46712826106703
 30
0.0
 10
106.2692641090035
 20
82.46712826106703
 30
0.0
 10
106.2039318706466
 20
82.46712826106705
 30
0.0
 10
106.1353245997461
 20
82.46712826106703
 30
0.0
  0
SPLINE
  5
C1
330
1F
100
AcDbEntity
  8
0
  6
Continuous
 62
     7
370
    15
100
AcDbSpline
210
0.0
220
0.0
230
1.0
 70
    24
 71
     3
 72
    12
 73
     8
 74
     0
 42
0.00000001
 43
0.00000001
 40
0.0
 40
0.0
 40
0.0
 40
0.0
 40
0.5000000000000017
 40
0.5000000000000017
 40
0.7500000000000008
 40
0.7500000000000008
 40
1.0
 40
1.0
 40
1.0
 40
1.0
 10
106.5410270680552
 20
135.2671282610671
 30
0.0
 10
106.4979415184442
 20
135.2671282610671
 30
0.0
 10
106.4487893166949
 20
135.2671282610671
 30
0.0
 10
106.352316722407
 20
135.2671282610671
 30
0.0
 10
106.3162151372724
 20
135.2671282610671
 30
0.0
 10
106.2331093794112
 20
135.2671282610671
 30
0.0
 10
106.1851127824449
 20
135.2671282610671
 30
0.0
 10
106.1353245997461
 20
135.2671282610671
 30
0.0
  0
SPLINE
  5
C2
330
1F
100
AcDbEntity
  8
0
  6
Continuous
 62
     7
370
    15
100
AcDbSpline
210
0.0
220
0.0
230
1.0
 70
     8
 71
     3
 72
    10
 73
     6
 74
     0
 42
0.00000001
 43
0.00000001
 40
0.0
 40
0.0
 40
0.0
 40
0.0
 40
0.5
 40
0.5
 40
1.0
 40
1.0
 40
1.0
 40
1.0
 10
106.9353245997461
 20
135.9867821121028
 30
0.0
 10
106.9353245997462
 20
135.8430120542848
 30
0.0
 10
106.8992755410273
 20
135.7005926917896
 30
0.0
 10
106.7637666802533
 20
135.4506983984324
 30
0.0
 10
106.6638906871571
 20
135.3426680621842
 30
0.0
 10
106.5410270680552
 20
135.267128261067
 30
0.0
  0
SPLINE
  5
C3
330
1F
100
AcDbEntity
  8
0
  6
Continuous
 62
     7
370
    15
100
AcDbSpline
210
0.0
220
0.0
230
1.0
 70
     8
 71
     3
 72
    10
 73
     6
 74
     0
 42
0.00000001
 43
0.00000001
 40
0.0
 40
0.0
 40
0.0
 40
0.0
 40
0.5
 40
0.5
 40
1.0
 40
1.0
 40
1.0
 40
1.0
 10
106.909176976586
 20
128.717128261067
 30
0.0
 10
106.9178666194977
 20
128.7640071103852
 30
0.0
 10
106.9244056842482
 20
128.8114295757865
 30
0.0
 10
106.9331643186412
 20
128.9073663743732
 30
0.0
 10
106.9353245997462
 20
128.9552816623837
 30
0.0
 10
106.9353245997462
 20
129.0029948925282
 30
0.0
  0
SPLINE
  5
C4
330
1F
100
AcDbEntity
  8
0
  6
Continuous
 62
     7
370
    15
100
AcDbSpline
210
0.0
220
0.0
230
1.0
 70
     8
 71
     3
 72
    10
 73
     6
 74
     0
 42
0.00000001
 43
0.00000001
 40
0.0
 40
0.0
 40
0.0
 40
0.0
 40
0.5
 40
0.5
 40
1.0
 40
1.0
 40
1.0
 40
1.0
 10
103.5096221314371
 20
135.2671282610671
 30
0.0
 10
103.3880818677686
 20
135.3418544282788
 30
0.0
 10
103.2867475074197
 20
135.4507994441956
 30
0.0
 10
103.1511085645312
 20
135.7012299249572
 30
0.0
 10
103.1153245997461
 20
135.8436492870561
 30
0.0
 10
103.1153245997461
 20
135.9867821121028
 30
0.0
  0
SPLINE
  5
C5
330
1F
100
AcDbEntity
  8
0
  6
Continuous
 62
     7
370
    15
100
AcDbSpline
210
0.0
220
0.0
230
1.0
 70
    24
 71
     3
 72
    12
 73
     8
 74
     0
 42
0.00000001
 43
0.00000001
 40
0.0
 40
0.0
 40
0.0
 40
0.0
 40
0.2500000000000037
 40
0.2500000000000037
 40
0.5000000000000074
 40
0.5000000000000074
 40
1.0
 40
1.0
 40
1.0
 40
1.0
 10
103.9153245997462
 20
135.2671282610671
 30
0.0
 10
103.8654479174287
 20
135.2671282610671
 30
0.0
 10
103.8174447240251
 20
135.2671282610671
 30
0.0
 10
103.7343966213132
 20
135.2671282610671
 30
0.0
 10
103.6982670418453
 20
135.2671282610671
 30
0.0
 10
103.6023550109011
 20
135.2671282610671
 30
0.0
 10
103.5525963429323
 20
135.2671282610671
 30
0.0
 10
103.5096221314371
 20
135.2671282610671
 30
0.0
  0
SPLINE
  5
C6
330
1F
100
AcDbEntity
  8
0
  6
Continuous
 62
     7
370
    15
100
AcDbSpline
210
0.0
220
0.0
230
1.0
 70
    24
 71
     3
 72
    14
 73
    10
 74
     0
 42
0.00000001
 43
0.00000001
 40
0.0
 40
0.0
 40
0.0
 40
0.0
 40
0.1249999999999991
 40
0.1249999999999991
 40
0.2499999999999982
 40
0.2499999999999982
 40
0.4999999999999998
 40
0.4999999999999998
 40
1.0
 40
1.0
 40
1.0
 40
1.0
 10
103.9153245997461
 20
82.46712826106703
 30
0.0
 10
103.8468867518597
 20
82.46712826106703
 30
0.0
 10
103.7813367130946
 20
82.46712826106705
 30
0.0
 10
103.6769100736867
 20
82.46712826106705
 30
0.0
 10
103.6343654639253
 20
82.46712826106705
 30
0.0
 10
103.521756003385
 20
82.46712826106703
 30
0.0
 10
103.4662169563655
 20
82.46712826106703
 30
0.0
 10
103.3236052609017
 20
82.46712826106703
 30
0.0
 10
103.260199905906
 20
82.46712826106703
 30
0.0
 10
103.2129994020784
 20
82.46712826106703
 30
0.0
  0
SPLINE
  5
C7
330
1F
100
AcDbEntity
  8
0
  6
Continuous
 62
     7
370
    15
100
AcDbSpline
210
0.0
220
0.0
230
1.0
 70
     8
 71
     3
 72
    10
 73
     6
 74
     0
 42
0.00000001
 43
0.00000001
 40
0.0
 40
0.0
 40
0.0
 40
0.0
 40
0.5
 40
0.5
 40
1.0
 40
1.0
 40
1.0
 40
1.0
 10
103.1153245997461
 20
129.0029948925284
 30
0.0
 10
103.1153245997461
 20
128.9552233845351
 30
0.0
 10
103.1174858433433
 20
128.9075136624734
 30
0.0
 10
103.1261572172035
 20
128.8122185449252
 30
0.0
 10
103.1326864001595
 20
128.7645259809585
 30
0.0
 10
103.1414722229063
 20
128.717128261067
 30
0.0
  0
LINE
  5
C8
330
1F
100
AcDbEntity
  8
0
  6
Continuous
 62
     7
370
    15
100
AcDbLine
 10
106.1353245997
 20
135.2671282611
 30
0.0
 11
103.9153245997
 21
135.2671282611
 31
0.0
  0
LINE
  5
C9
330
1F
100
AcDbEntity
  8
0
  6
Continuous
 62
     7
370
    15
100
AcDbLine
 10
106.1353245997
 20
82.4671282611
 30
0.0
 11
103.9153245997
 21
82.4671282611
 31
0.0
  0
SPLINE
  5
CA
330
1F
100
AcDbEntity
  8
0
  6
Continuous
 62
     7
370
    15
100
AcDbSpline
210
0.0
220
0.0
230
1.0
 70
     8
 71
     3
 72
    66
 73
    62
 74
     0
 42
0.00000001
 43
0.00000001
 40
-0.0312500000000003
 40
-0.0312500000000003
 40
0.0
 40
0.0
 40
0.0312499999999998
 40
0.0312499999999998
 40
0.0624999999999996
 40
0.0624999999999996
 40
0.0937499999999995
 40
0.0937499999999995
 40
0.1249999999999993
 40
0.1249999999999993
 40
0.1562499999999991
 40
0.1562499999999991
 40
0.1874999999999989
 40
0.1874999999999989
 40
0.2187499999999987
 40
0.2187499999999987
 40
0.2499999999999986
 40
0.2499999999999986
 40
0.2812499999999984
 40
0.2812499999999984
 40
0.3124999999999982
 40
0.3124999999999982
 40
0.343749999999998
 40
0.343749999999998
 40
0.3749999999999978
 40
0.3749999999999978
 40
0.4062499999999976
 40
0.4062499999999976
 40
0.4374999999999973
 40
0.4374999999999973
 40
0.4687499999999971
 40
0.4687499999999971
 40
0.4999999999999968
 40
0.4999999999999968
 40
0.5312499999999966
 40
0.5312499999999966
 40
0.5624999999999964
 40
0.5624999999999964
 40
0.5937499999999962
 40
0.5937499999999962
 40
0.6249999999999961
 40
0.6249999999999961
 40
0.6874999999999966
 40
0.6874999999999966
 40
0.7499999999999971
 40
0.7499999999999971
 40
0.7812499999999973
 40
0.7812499999999973
 40
0.8124999999999978
 40
0.8124999999999978
 40
0.8437499999999981
 40
0.8437499999999981
 40
0.8749999999999984
 40
0.8749999999999984
 40
0.9062499999999989
 40
0.9062499999999989
 40
0.9374999999999992
 40
0.9374999999999992
 40
0.9687499999999997
 40
0.9687499999999997
 40
1.0
 40
1.0
 40
1.03125
 40
1.03125
 10
118.4367973734273
 20
111.0510468525278
 30
0.0
 10
118.7744570890018
 20
111.3326993499146
 30
0.0
 10
118.9539876155782
 20
111.4551373047745
 30
0.0
 10
119.3326129739399
 20
111.6665232362625
 30
0.0
 10
119.5332789433891
 20
111.7559446910458
 30
0.0
 10
119.9474049002436
 20
111.8981505479475
 30
0.0
 10
120.1583572084981
 20
111.9504047245492
 30
0.0
 10
120.5877317134956
 20
112.018788388033
 30
0.0
 10
120.8082572699522
 20
112.0347755564843
 30
0.0
 10
121.2447448738705
 20
112.0289538970409
 30
0.0
 10
121.4606768301877
 20
112.0076076786691
 30
0.0
 10
121.8879435156734
 20
111.928222894789
 30
0.0
 10
122.1013006392375
 20
111.8692727807914
 30
0.0
 10
122.509241499209
 20
111.7167160003013
 30
0.0
 10
122.7045994168976
 20
111.6234039872153
 30
0.0
 10
123.0776519592434
 20
111.4017290915649
 30
0.0
 10
123.2570202445217
 20
111.2716136036945
 30
0.0
 10
123.5825546387075
 20
110.9836941417346
 30
0.0
 10
123.7300406574122
 20
110.8256494709679
 30
0.0
 10
123.9926405954188
 20
110.4796101485517
 30
0.0
 10
124.1081388483295
 20
110.2896499639871
 30
0.0
 10
124.2920032336047
 20
109.896467618079
 30
0.0
 10
124.3622454361
 20
109.6914168663898
 30
0.0
 10
124.456040830886
 20
109.2630696283969
 30
0.0
 10
124.4781594586726
 20
109.0435669335243
 30
0.0
 10
124.471901319098
 20
108.6089580443337
 30
0.0
 10
124.4431865692853
 20
108.3887733375454
 30
0.0
 10
124.3374738607284
 20
107.9644710197879
 30
0.0
 10
124.2613865318618
 20
107.7605387210655
 30
0.0
 10
124.0643818021628
 20
107.368500588425
 30
0.0
 10
123.9447914218999
 20
107.183866904442
 30
0.0
 10
123.6725181686104
 20
106.8443267807637
 30
0.0
 10
123.5172440643986
 20
106.6865762997534
 30
0.0
 10
123.1825708290344
 20
106.406356240359
 30
0.0
 10
123.0033254466016
 20
106.2832712000594
 30
0.0
 10
122.6220472750736
 20
106.0695529990158
 30
0.0
 10
122.4202885782056
 20
105.979602967976
 30
0.0
 10
122.0091037552084
 20
105.8378351235825
 30
0.0
 10
121.7979000695042
 20
105.7849487256553
 30
0.0
 10
121.3641546567869
 20
105.715464594361
 30
0.0
 10
121.1455624436608
 20
105.6996792623952
 30
0.0
 10
120.4939448732311
 20
105.7076553952591
 30
0.0
 10
120.0547466856749
 20
105.7885852471776
 30
0.0
 10
119.2422081220767
 20
106.0916241038027
 30
0.0
 10
118.8570936915691
 20
106.3184785973991
 30
0.0
 10
118.3704574065219
 20
106.7482681014588
 30
0.0
 10
118.2206949020703
 20
106.9082790719629
 30
0.0
 10
117.955637004472
 20
107.2579875658788
 30
0.0
 10
117.8431636607318
 20
107.4434646767197
 30
0.0
 10
117.6592591491166
 20
107.8362242231002
 30
0.0
 10
117.5873167438524
 20
108.0467005528202
 30
0.0
 10
117.4943574110347
 20
108.4734522601705
 30
0.0
 10
117.4724182962204
 20
108.6896447837748
 30
0.0
 10
117.4788405862346
 20
109.1278067079179
 30
0.0
 10
117.5078912953186
 20
109.3476172181302
 30
0.0
 10
117.6133911400036
 20
109.7702356470429
 30
0.0
 10
117.6911379576076
 20
109.9781121819048
 30
0.0
 10
117.8881321910849
 20
110.3687915770979
 30
0.0
 10
118.0065649260789
 20
110.5516051090901
 30
0.0
 10
118.2812844672162
 20
110.8935238924789
 30
0.0
 10
118.4367973734273
 20
111.0510468525278
 30
0.0
 10
118.7744570890018
 20
111.3326993499146
 30
0.0
  0
CIRCLE
  5
CB
330
1F
100
AcDbEntity
  8
0
  6
Continuous
 62
     7
370
    15
100
AcDbCircle
 10
120.9753245997
 20
108.8671282611
 30
0.0
 40
2.5
  0
LINE
  5
CC
330
1F
100
AcDbEntity
  8
0
  6
Continuous
 62
     7
370
    15
100
AcDbLine
 10
118.6056272303
 20
134.7629881894
 30
0.0
 11
118.9270647913
 21
134.7413217302
 31
0.0
  0
SPLINE
  5
CD
330
1F
100
AcDbEntity
  8
0
  6
Continuous
 62
     7
370
    15
100
AcDbSpline
210
0.0
220
0.0
230
1.0
 70
     8
 71
     3
 72
    26
 73
    22
 74
     0
 42
0.00000001
 43
0.00000001
 40
0.0
 40
0.0
 40
0.0
 40
0.0
 40
0.047039815658196
 40
0.0919676954371221
 40
0.1381171933628073
 40
0.1847080749806182
 40
0.2324443722254661
 40
0.283219960848164
 40
0.3352264682669703
 40
0.3908530776335196
 40
0.4479045394338659
 40
0.5070795108640861
 40
0.5679003610780421
 40
0.6282257647049733
 40
0.690384986481529
 40
0.7491025101801497
 40
0.809805344649409
 40
0.8639353476204595
 40
0.920020318574201
 40
0.9684430565415985
 40
1.0
 40
1.0
 40
1.0
 40
1.0
 10
124.4739759051541
 20
134.8669818623946
 30
0.0
 10
124.466290952327
 20
134.8661372392647
 30
0.0
 10
124.4512660762479
 20
134.8644859138572
 30
0.0
 10
124.3239603964784
 20
134.8508208574744
 30
0.0
 10
124.129767297985
 20
134.8309233902044
 30
0.0
 10
123.8614024932652
 20
134.8052957467305
 30
0.0
 10
123.5227278425667
 20
134.7760733005882
 30
0.0
 10
123.1153518080334
 20
134.7455943521209
 30
0.0
 10
122.6380818277901
 20
134.7164732901621
 30
0.0
 10
122.1023324855031
 20
134.6923397338448
 30
0.0
 10
121.515102842066
 20
134.6764679275865
 30
0.0
 10
120.8958801667043
 20
134.6717365627829
 30
0.0
 10
120.267146054172
 20
134.6796858330802
 30
0.0
 10
119.6479993637665
 20
134.6999360731083
 30
0.0
 10
119.0738708956039
 20
134.7297636838801
 30
0.0
 10
118.5555396782336
 20
134.7656080695415
 30
0.0
 10
118.1323833944231
 20
134.8011566454647
 30
0.0
 10
117.8017919547894
 20
134.832718063094
 30
0.0
 10
117.5918109206978
 20
134.8544903963514
 30
0.0
 10
117.4840510262251
 20
134.8661721252539
 30
0.0
 10
117.4858793107707
 20
134.8659768304527
 30
0.0
 10
117.4866006823866
 20
134.8658997745443
 30
0.0
  0
SPLINE
  5
CE
330
1F
100
AcDbEntity
  8
0
  6
Continuous
 62
     7
370
    15
100
AcDbSpline
210
0.0
220
0.0
230
1.0
 70
     8
 71
     3
 72
    27
 73
    23
 74
     0
 42
0.00000001
 43
0.00000001
 40
0.0
 40
0.0
 40
0.0
 40
0.0
 40
0.0030585053718256
 40
0.0513649896314741
 40
0.0962912053164457
 40
0.1424310070757679
 40
0.1891730411272504
 40
0.2370612481698164
 40
0.2880640116557949
 40
0.3403048143014902
 40
0.3961385552438004
 40
0.4534076068629744
 40
0.5126918656657945
 40
0.5736315958655507
 40
0.6339445232844887
 40
0.696099349362554
 40
0.7546640991741627
 40
0.8152187551683803
 40
0.8690771302624016
 40
0.92488070796141
 40
0.9730703796946704
 40
1.0
 40
1.0
 40
1.0
 40
1.0
 10
117.4779054714733
 20
82.86740867151501
 30
0.0
 10
117.4770546910639
 20
82.86731624185394
 30
0.0
 10
117.4627665595766
 20
82.86576396451395
 30
0.0
 10
117.515824693384
 20
82.87156597129955
 30
0.0
 10
117.6394575924699
 20
82.8847688544554
 30
0.0
 10
117.8437192206356
 20
82.90560564521418
 30
0.0
 10
118.1177541935566
 20
82.93155175096301
 30
0.0
 10
118.4633578080155
 20
82.96103928008715
 30
0.0
 10
118.8771060320856
 20
82.991498395866
 30
0.0
 10
119.3604809463678
 20
83.0203113831539
 30
0.0
 10
119.9014797719423
 20
83.04381149451004
 30
0.0
 10
120.492493443381
 20
83.0587388731854
 30
0.0
 10
121.1138181523908
 20
83.06232074087275
 30
0.0
 10
121.7422505720176
 20
83.05317706138459
 30
0.0
 10
122.3589465014109
 20
83.03186498030298
 30
0.0
 10
122.9280307747662
 20
83.00132285031039
 30
0.0
 10
123.4392297798662
 20
82.96520448000634
 30
0.0
 10
123.8533414597206
 20
82.92990822139909
 30
0.0
 10
124.1738843854485
 20
82.89901223129786
 30
0.0
 10
124.3731472307488
 20
82.87823540875749
 30
0.0
 10
124.4707007301943
 20
82.86763492041503
 30
0.0
 10
124.4653424397893
 20
82.86821685417006
 30
0.0
 10
124.4634215387507
 20
82.86842547241768
 30
0.0
  0
LINE
  5
CF
330
1F
100
AcDbEntity
  8
0
  6
Continuous
 62
     7
370
    15
100
AcDbLine
 10
65.2253245997
 20
85.6386813673
 30
0.0
 11
65.2253245997
 21
86.9033907299
 31
0.0
  0
SPLINE
  5
D0
330
1F
100
AcDbEntity
  8
0
  6
Continuous
 62
     7
370
    15
100
AcDbSpline
210
0.0
220
0.0
230
1.0
 70
     8
 71
     3
 72
    14
 73
    10
 74
     0
 42
0.00000001
 43
0.00000001
 40
0.0
 40
0.0
 40
0.0
 40
0.0
 40
0.25
 40
0.25
 40
0.5
 40
0.5
 40
0.75
 40
0.75
 40
1.0
 40
1.0
 40
1.0
 40
1.0
 10
64.44703748183045
 20
88.03397693750709
 30
0.0
 10
64.50366415703252
 20
87.92627948367023
 30
0.0
 10
64.59818681732224
 20
87.82348990195091
 30
0.0
 10
64.78123179288447
 20
87.62513258973075
 30
0.0
 10
64.8728583698392
 20
87.52907308105252
 30
0.0
 10
65.0317116875324
 20
87.34154403834327
 30
0.0
 10
65.0996022951541
 20
87.2501350655597
 30
0.0
 10
65.19651932086168
 20
87.07175884464955
 30
0.0
 10
65.22532459974673
 20
86.98453693840338
 30
0.0
 10
65.22532459974673
 20
86.90339072986913
 30
0.0
  0
SPLINE
  5
D1
330
1F
100
AcDbEntity
  8
0
  6
Continuous
 62
     7
370
    15
100
AcDbSpline
210
0.0
220
0.0
230
1.0
 70
     8
 71
     3
 72
    14
 73
    10
 74
     0
 42
0.00000001
 43
0.00000001
 40
0.0
 40
0.0
 40
0.0
 40
0.0
 40
0.124999999999998
 40
0.124999999999998
 40
0.249999999999996
 40
0.249999999999996
 40
0.4999999999999973
 40
0.4999999999999973
 40
1.0
 40
1.0
 40
1.0
 40
1.0
 10
63.82532459974616
 20
88.48065879978641
 30
0.0
 10
63.87386900840332
 20
88.4864071130667
 30
0.0
 10
63.92678436318823
 20
88.48330622441046
 30
0.0
 10
64.02207970817126
 20
88.46111138024813
 30
0.0
 10
64.06233070545622
 20
88.44387915315227
 30
0.0
 10
64.16660071896919
 20
88.3875512367002
 30
0.0
 10
64.21692269412252
 20
88.34336489075442
 30
0.0
 10
64.34460564164789
 20
88.21235699190377
 30
0.0
 10
64.40069108871016
 20
88.1221224716735
 30
0.0
 10
64.4470374818319
 20
88.03397693750762
 30
0.0
  0
SPLINE
  5
D2
330
1F
100
AcDbEntity
  8
0
  6
Continuous
 62
     7
370
    15
100
AcDbSpline
210
0.0
220
0.0
230
1.0
 70
     8
 71
     3
 72
     8
 73
     4
 74
     0
 42
0.00000001
 43
0.00000001
 40
0.0
 40
0.0
 40
0.0
 40
0.0
 40
1.0
 40
1.0
 40
1.0
 40
1.0
 10
61.55679950679993
 20
88.17081351320363
 30
0.0
 10
62.29137653328289
 20
88.28943852427257
 30
0.0
 10
63.05485160267854
 20
88.38942439640884
 30
0.0
 10
63.82532459974616
 20
88.4806587997864
 30
0.0
  0
SPLINE
  5
D3
330
1F
100
AcDbEntity
  8
0
  6
Continuous
 62
     7
370
    15
100
AcDbSpline
210
0.0
220
0.0
230
1.0
 70
     8
 71
     3
 72
    14
 73
    10
 74
     0
 42
0.00000001
 43
0.00000001
 40
0.0
 40
0.0
 40
0.0
 40
0.0
 40
0.500000000000001
 40
0.500000000000001
 40
0.7500000000000004
 40
0.7500000000000004
 40
0.8750000000000003
 40
0.8750000000000003
 40
1.0
 40
1.0
 40
1.0
 40
1.0
 10
56.27532459974616
 20
87.99719049567196
 30
0.0
 10
57.16747073029973
 20
87.99646826947131
 30
0.0
 10
58.05744716609333
 20
88.00105447592878
 30
0.0
 10
59.38404233316894
 20
88.02877948032031
 30
0.0
 10
59.82488926166768
 20
88.04138601794448
 30
0.0
 10
60.48132949909009
 20
88.07240216595194
 30
0.0
 10
60.69934315568197
 20
88.08474533857871
 30
0.0
 10
61.13205200936475
 20
88.117769393742
 30
0.0
 10
61.34732847452953
 20
88.13698655888042
 30
0.0
 10
61.55679950679995
 20
88.17081351320363
 30
0.0
  0
SPLINE
  5
D4
330
1F
100
AcDbEntity
  8
0
  6
Continuous
 62
     7
370
    15
100
AcDbSpline
210
0.0
220
0.0
230
1.0
 70
     8
 71
     3
 72
     8
 73
     4
 74
     0
 42
0.00000001
 43
0.00000001
 40
0.0000005163856998
 40
0.0000005163856998
 40
0.0000005163856998
 40
0.0000005163856998
 40
0.000026289209185
 40
0.000026289209185
 40
0.000026289209185
 40
0.000026289209185
 10
56.26527966933855
 20
88.00717436876874
 30
0.0
 10
56.26860740754638
 20
88.00384012189963
 30
0.0
 10
56.27195586052197
 20
88.00051216462431
 30
0.0
 10
56.27532459974613
 20
87.99719049567194
 30
0.0
  0
SPLINE
  5
D5
330
1F
100
AcDbEntity
  8
0
  6
Continuous
 62
     7
370
    15
100
AcDbSpline
210
0.0
220
0.0
230
1.0
 70
     8
 71
     3
 72
     8
 73
     4
 74
     0
 42
0.00000001
 43
0.00000001
 40
0.0000005099763573
 40
0.0000005099763573
 40
0.0000005099763573
 40
0.0000005099763573
 40
0.0000262827998699
 40
0.0000262827998699
 40
0.0000262827998699
 40
0.0000262827998699
 10
56.27532459974613
 20
129.7370660264621
 30
0.0
 10
56.27195586051839
 20
129.7337443575062
 30
0.0
 10
56.26860740753925
 20
129.7304164002274
 30
0.0
 10
56.26527966932792
 20
129.7270821533547
 30
0.0
  0
SPLINE
  5
D6
330
1F
100
AcDbEntity
  8
0
  6
Continuous
 62
     7
370
    15
100
AcDbSpline
210
0.0
220
0.0
230
1.0
 70
     8
 71
     3
 72
    10
 73
     6
 74
     0
 42
0.00000001
 43
0.00000001
 40
0.0
 40
0.0
 40
0.0
 40
0.0
 40
0.5
 40
0.5
 40
1.0
 40
1.0
 40
1.0
 40
1.0
 10
59.82532459974615
 20
129.6902156528948
 30
0.0
 10
59.23773905265557
 20
129.7112811731312
 30
0.0
 10
58.64699265919518
 20
129.7220396590034
 30
0.0
 10
57.46297349389633
 20
129.7354044395391
 30
0.0
 10
56.86955950569087
 20
129.7375470822037
 30
0.0
 10
56.27532459974616
 20
129.7370660264621
 30
0.0
  0
SPLINE
  5
D7
330
1F
100
AcDbEntity
  8
0
  6
Continuous
 62
     7
370
    15
100
AcDbSpline
210
0.0
220
0.0
230
1.0
 70
     8
 71
     3
 72
    18
 73
    14
 74
     0
 42
0.00000001
 43
0.00000001
 40
0.0
 40
0.0
 40
0.0
 40
0.0
 40
0.2500000000000009
 40
0.2500000000000009
 40
0.500000000000001
 40
0.500000000000001
 40
0.7500000000000011
 40
0.7500000000000011
 40
0.875000000000001
 40
0.875000000000001
 40
0.9375000000000006
 40
0.9375000000000006
 40
1.0
 40
1.0
 40
1.0
 40
1.0
 10
61.22532459974617
 20
130.71123593343
 30
0.0
 10
61.22532459974617
 20
130.6280290245728
 30
0.0
 10
61.1894754998079
 20
130.5392923692593
 30
0.0
 10
61.06460376377398
 20
130.357167178699
 30
0.0
 10
60.9742033461261
 20
130.2620371300724
 30
0.0
 10
60.75196069138393
 20
130.0728556209481
 30
0.0
 10
60.62219590493817
 20
129.9779104528534
 30
0.0
 10
60.38155844762665
 20
129.8396317452734
 30
0.0
 10
60.29379114948919
 20
129.793921311971
 30
0.0
 10
60.1392670622824
 20
129.7360980067496
 30
0.0
 10
60.08265617622764
 20
129.7183832427117
 30
0.0
 10
59.95861214532104
 20
129.6938439394788
 30
0.0
 10
59.89089747030275
 20
129.6878648009405
 30
0.0
 10
59.82532459974615
 20
129.6902156528948
 30
0.0
  0
LINE
  5
D8
330
1F
100
AcDbEntity
  8
0
  6
Continuous
 62
     7
370
    15
100
AcDbLine
 10
61.2253245997
 20
130.7112359334
 30
0.0
 11
61.2253245997
 21
131.8951743533
 31
0.0
  0
LINE
  5
D9
330
1F
100
AcDbEntity
  8
0
  6
Continuous
 62
     7
370
    15
100
AcDbLine
 10
85.0253245997
 20
84.6466973993
 30
0.0
 11
85.0253245997
 21
133.0875591228
 31
0.0
  0
SPLINE
  5
DA
330
1F
100
AcDbEntity
  8
0
  6
Continuous
 62
     7
370
    15
100
AcDbSpline
210
0.0
220
0.0
230
1.0
 70
     8
 71
     3
 72
    18
 73
    14
 74
     0
 42
0.00000001
 43
0.00000001
 40
0.0
 40
0.0
 40
0.0
 40
0.0
 40
0.0010671296451833
 40
0.1270947795731636
 40
0.252405345751277
 40
0.3766468878987097
 40
0.4391415999051428
 40
0.5008278021400407
 40
0.5624255708808511
 40
0.6253162439161145
 40
0.7499985144706707
 40
0.8752758950341254
 40
1.0
 40
1.0
 40
1.0
 40
1.0
 10
73.79562543981882
 20
85.20978923815069
 30
0.0
 10
73.79471360718033
 20
85.20967445961405
 30
0.0
 10
73.68611464854352
 20
85.19600437474811
 30
0.0
 10
74.07375571619316
 20
85.24692387536376
 30
0.0
 10
74.93972039802837
 20
85.3465070484102
 30
0.0
 10
76.1401243227982
 20
85.4156309315539
 30
0.0
 10
77.19770023728692
 20
85.41958316069271
 30
0.0
 10
78.0248343241931
 20
85.3920942222377
 30
0.0
 10
78.85010619182734
 20
85.3335540458299
 30
0.0
 10
79.90447141182732
 20
85.22003288609434
 30
0.0
 10
81.06630769330263
 20
85.0368820618457
 30
0.0
 10
82.0185424746862
 20
84.83227885221079
 30
0.0
 10
82.14424753549407
 20
84.80299350143471
 30
0.0
 10
82.20696096763928
 20
84.78838323159401
 30
0.0
  0
SPLINE
  5
DB
330
1F
100
AcDbEntity
  8
0
  6
Continuous
 62
     7
370
    15
100
AcDbSpline
210
0.0
220
0.0
230
1.0
 70
     8
 71
     3
 72
    18
 73
    14
 74
     0
 42
0.00000001
 43
0.00000001
 40
0.0
 40
0.0
 40
0.0
 40
0.0
 40
0.1248907792210109
 40
0.2505384020341698
 40
0.3748721840485282
 40
0.437490765334968
 40
0.4990776265894272
 40
0.5607931536353509
 40
0.6233901338664932
 40
0.7478191038417344
 40
0.8731940995934958
 40
0.9991614644710078
 40
0.9999999999999999
 40
0.9999999999999999
 40
0.9999999999999999
 40
0.9999999999999999
 10
82.20674220211536
 20
132.9458081099857
 30
0.0
 10
82.14300144940371
 20
132.9311468173876
 30
0.0
 10
82.01513367222724
 20
132.9017353841161
 30
0.0
 10
81.06313445116683
 20
132.6967822800537
 30
0.0
 10
79.90259074596356
 20
132.5135185042427
 30
0.0
 10
78.85032629387545
 20
132.4004909119938
 30
0.0
 10
78.02609917880785
 20
132.3422272644525
 30
0.0
 10
77.19849540928743
 20
132.3147808764483
 30
0.0
 10
76.13967821680237
 20
132.3187656823775
 30
0.0
 10
74.93745951876737
 20
132.3878551587588
 30
0.0
 10
74.07227557908007
 20
132.4874813753155
 30
0.0
 10
73.68613515754984
 20
132.5382974489161
 30
0.0
 10
73.79420669833021
 20
132.5246252688529
 30
0.0
 10
73.7949213482505
 20
132.5245348581646
 30
0.0
  0
LINE
  5
DC
330
1F
100
AcDbEntity
  8
0
  6
Continuous
 62
     7
370
    15
100
AcDbLine
 10
247.0253245997
 20
87.1955553858
 30
0.0
 11
247.0253245997
 21
130.5387011073
 31
0.0
  0
SPLINE
  5
DD
330
1F
100
AcDbEntity
  8
0
  6
Continuous
 62
     7
370
    15
100
AcDbSpline
210
0.0
220
0.0
230
1.0
 70
     8
 71
     3
 72
     9
 73
     5
 74
     0
 42
0.00000001
 43
0.00000001
 40
0.0
 40
0.0
 40
0.0
 40
0.0
 40
0.7009329310330167
 40
1.0
 40
1.0
 40
1.0
 40
1.0
 10
55.14610928398162
 20
89.16584795696441
 30
0.0
 10
55.1552485606569
 20
89.14801867142289
 30
0.0
 10
55.1682872927105
 20
89.12258216423061
 30
0.0
 10
55.18345254647582
 20
89.1764620244224
 30
0.0
 10
55.18798797446956
 20
89.1925757162863
 30
0.0
  0
LINE
  5
DE
330
1F
100
AcDbEntity
  8
0
  6
Continuous
 62
     7
370
    15
100
AcDbLine
 10
55.1253245997
 20
89.1764505146
 30
0.0
 11
55.1253245997
 21
128.5578060075
 31
0.0
  0
SPLINE
  5
DF
330
1F
100
AcDbEntity
  8
0
  6
Continuous
 62
     7
370
    15
100
AcDbSpline
210
0.0
220
0.0
230
1.0
 70
     8
 71
     3
 72
    10
 73
     6
 74
     0
 42
0.00000001
 43
0.00000001
 40
0.0
 40
0.0
 40
0.0
 40
0.0
 40
0.5
 40
0.5
 40
1.0
 40
1.0
 40
1.0
 40
1.0
 10
55.18798797446956
 20
128.5416808058478
 30
0.0
 10
55.17908368536082
 20
128.587422325061
 30
0.0
 10
55.16256830516783
 20
128.60461316453
 30
0.0
 10
55.13546035910621
 20
128.6042898875942
 30
0.0
 10
55.12532459974616
 20
128.5864123452978
 30
0.0
 10
55.12532459974616
 20
128.5578060075452
 30
0.0
  0
SPLINE
  5
E0
330
1F
100
AcDbEntity
  8
0
  6
Continuous
 62
     7
370
    15
100
AcDbSpline
210
0.0
220
0.0
230
1.0
 70
     8
 71
     3
 72
    26
 73
    22
 74
     0
 42
0.00000001
 43
0.00000001
 40
0.0
 40
0.0
 40
0.0
 40
0.0
 40
0.2500000000000163
 40
0.2500000000000163
 40
0.3750000000000245
 40
0.3750000000000245
 40
0.437500000000028
 40
0.437500000000028
 40
0.4687500000000281
 40
0.4687500000000281
 40
0.5000000000000282
 40
0.5000000000000282
 40
0.5312500000000283
 40
0.5312500000000283
 40
0.5625000000000285
 40
0.5625000000000285
 40
0.6250000000000252
 40
0.6250000000000252
 40
0.7500000000000169
 40
0.7500000000000169
 40
1.0
 40
1.0
 40
1.0
 40
1.0
 10
55.94947824585067
 20
129.2572475946649
 30
0.0
 10
55.9108777229822
 20
129.1394728983094
 30
0.0
 10
55.86458072042794
 20
129.0150832121475
 30
0.0
 10
55.770641371994
 20
128.809863879794
 30
0.0
 10
55.73532990508055
 20
128.7382910133476
 30
0.0
 10
55.66914992933489
 20
128.6223377807471
 30
0.0
 10
55.64461156266668
 20
128.5817532459369
 30
0.0
 10
55.60123881711286
 20
128.5176115640652
 30
0.0
 10
55.58573041568766
 20
128.4957451387801
 30
0.0
 10
55.55068777110064
 20
128.4501508704369
 30
0.0
 10
55.53113748038087
 20
128.4264805794695
 30
0.0
 10
55.48921020001026
 20
128.3818640201295
 30
0.0
 10
55.46655808977863
 20
128.3609840076116
 30
0.0
 10
55.42558437569198
 20
128.3301105938608
 30
0.0
 10
55.40798507579655
 20
128.3202717240284
 30
0.0
 10
55.36335808994042
 20
128.3012821083322
 30
0.0
 10
55.34279886728709
 20
128.3009577836788
 30
0.0
 10
55.29167342779043
 20
128.310181224555
 30
0.0
 10
55.27076201480188
 20
128.331428120772
 30
0.0
 10
55.21931210724093
 20
128.4053969996027
 30
0.0
 10
55.20164680793638
 20
128.4715150929175
 30
0.0
 10
55.18798797446956
 20
128.5416808058478
 30
0.0
  0
SPLINE
  5
E1
330
1F
100
AcDbEntity
  8
0
  6
Continuous
 62
     7
370
    15
100
AcDbSpline
210
0.0
220
0.0
230
1.0
 70
     8
 71
     3
 72
    10
 73
     6
 74
     0
 42
0.00000001
 43
0.00000001
 40
0.0
 40
0.0
 40
0.0
 40
0.0
 40
0.5
 40
0.5
 40
1.0
 40
1.0
 40
1.0
 40
1.0
 10
56.26527966932794
 20
129.7270821533547
 30
0.0
 10
56.19772041440969
 20
129.6593907605449
 30
0.0
 10
56.13408375907321
 20
129.5846835957913
 30
0.0
 10
56.02386300450137
 20
129.4257174633646
 30
0.0
 10
55.97704671127873
 20
129.3413621973567
 30
0.0
 10
55.94947824585067
 20
129.2572475946649
 30
0.0
  0
SPLINE
  5
E2
330
1F
100
AcDbEntity
  8
0
  6
Continuous
 62
     7
370
    15
100
AcDbSpline
210
0.0
220
0.0
230
1.0
 70
     8
 71
     3
 72
    10
 73
     6
 74
     0
 42
0.00000001
 43
0.00000001
 40
0.0
 40
0.0
 40
0.0
 40
0.0
 40
0.5
 40
0.5
 40
1.0
 40
1.0
 40
1.0
 40
1.0
 10
55.9494782458507
 20
88.47700892746907
 30
0.0
 10
55.97695566060467
 20
88.39317213100118
 30
0.0
 10
56.02366429089409
 20
88.30886164341203
 30
0.0
 10
56.13394275364004
 20
88.14974041292534
 30
0.0
 10
56.19783029225395
 20
88.07475566883569
 30
0.0
 10
56.26527966933856
 20
88.00717436876874
 30
0.0
  0
SPLINE
  5
E3
330
1F
100
AcDbEntity
  8
0
  6
Continuous
 62
     7
370
    15
100
AcDbSpline
210
0.0
220
0.0
230
1.0
 70
     8
 71
     3
 72
    24
 73
    20
 74
     0
 42
0.00000001
 43
0.00000001
 40
0.0
 40
0.0
 40
0.0
 40
0.0
 40
0.2500000000000072
 40
0.2500000000000072
 40
0.3750000000000097
 40
0.3750000000000097
 40
0.4375000000000103
 40
0.4375000000000103
 40
0.4687500000000105
 40
0.4687500000000105
 40
0.5000000000000108
 40
0.5000000000000108
 40
0.5625000000000087
 40
0.5625000000000087
 40
0.6250000000000066
 40
0.6250000000000066
 40
0.7500000000000026
 40
0.7500000000000026
 40
1.0
 40
1.0
 40
1.0
 40
1.0
 10
55.18798797446956
 20
89.1925757162863
 30
0.0
 10
55.20174109313979
 20
89.26322577427658
 30
0.0
 10
55.21951366054566
 20
89.32982388704151
 30
0.0
 10
55.27176475210102
 20
89.40392190727471
 30
0.0
 10
55.29279982768256
 20
89.42517971443627
 30
0.0
 10
55.34570023531101
 20
89.43332564058251
 30
0.0
 10
55.36680590818893
 20
89.43238583718674
 30
0.0
 10
55.41285807686688
 20
89.4113698456094
 30
0.0
 10
55.43122854885029
 20
89.40046103950178
 30
0.0
 10
55.47278018391597
 20
89.3678261285544
 30
0.0
 10
55.4953468566729
 20
89.34633414818305
 30
0.0
 10
55.55812787313294
 20
89.27786820459673
 30
0.0
 10
55.59125763410082
 20
89.23179374639163
 30
0.0
 10
55.64817532058581
 20
89.14678585805696
 30
0.0
 10
55.67236134608959
 20
89.10650555687558
 30
0.0
 10
55.73756929646937
 20
88.99156933040963
 30
0.0
 10
55.7722853566606
 20
88.92098634526263
 30
0.0
 10
55.86550062699147
 20
88.71678058618403
 30
0.0
 10
55.91117316235216
 20
88.59388220385667
 30
0.0
 10
55.9494782458507
 20
88.4770089274691
 30
0.0
  0
LINE
  5
E4
330
1F
100
AcDbEntity
  8
0
  6
Continuous
 62
     7
370
    15
100
AcDbLine
 10
112.3753245997
 20
139.3343237342
 30
0.0
 11
108.4172574312
 21
139.3343237342
 31
0.0
  0
LINE
  5
E5
330
1F
100
AcDbEntity
  8
0
  6
Continuous
 62
     7
370
    15
100
AcDbLine
 10
108.4172574312
 20
133.3258179234
 30
0.0
 11
112.3753245997
 21
133.3258179234
 31
0.0
  0
LINE
  5
E6
330
1F
100
AcDbEntity
  8
0
  6
Continuous
 62
     7
370
    15
100
AcDbLine
 10
108.4172574312
 20
133.3258179234
 30
0.0
 11
108.4172574312
 21
139.3343237342
 31
0.0
  0
SPLINE
  5
E7
330
1F
100
AcDbEntity
  8
0
  6
Continuous
 62
     7
370
    15
100
AcDbSpline
210
0.0
220
0.0
230
1.0
 70
     8
 71
     3
 72
     8
 73
     4
 74
     0
 42
0.00000001
 43
0.00000001
 40
0.0
 40
0.0
 40
0.0
 40
0.0
 40
1.0
 40
1.0
 40
1.0
 40
1.0
 10
103.1153245997461
 20
136.6723624522386
 30
0.0
 10
102.6226145029004
 20
137.560381450365
 30
0.0
 10
102.1285317976214
 20
138.447644086051
 30
0.0
 10
101.6333917682571
 20
139.3343237342313
 30
0.0
  0
LINE
  5
E8
330
1F
100
AcDbEntity
  8
0
  6
Continuous
 62
     7
370
    15
100
AcDbLine
 10
103.1153245997
 20
129.9172719287
 30
0.0
 11
103.1153245997
 21
136.6723624522
 31
0.0
  0
SPLINE
  5
E9
330
1F
100
AcDbEntity
  8
0
  6
Continuous
 62
     7
370
    15
100
AcDbSpline
210
0.0
220
0.0
230
1.0
 70
     8
 71
     3
 72
     8
 73
     4
 74
     0
 42
0.00000001
 43
0.00000001
 40
0.0
 40
0.0
 40
0.0
 40
0.0
 40
1.0
 40
1.0
 40
1.0
 40
1.0
 10
101.6333917682571
 20
133.3258179234345
 30
0.0
 10
102.1404786100164
 20
132.1946675692708
 30
0.0
 10
102.6360464491563
 20
131.058283158503
 30
0.0
 10
103.1153245997461
 20
129.9172719286504
 30
0.0
  0
SPLINE
  5
EA
330
1F
100
AcDbEntity
  8
0
  6
Continuous
 62
     7
370
    15
100
AcDbSpline
210
0.0
220
0.0
230
1.0
 70
     8
 71
     3
 72
    10
 73
     6
 74
     0
 42
0.00000001
 43
0.00000001
 40
0.0
 40
0.0
 40
0.0
 40
0.0
 40
0.5
 40
0.5
 40
1.0
 40
1.0
 40
1.0
 40
1.0
 10
112.9753245997462
 20
138.7135685848309
 30
0.0
 10
112.9753245997461
 20
138.8739738511817
 30
0.0
 10
112.9130867686393
 20
139.0330356641703
 30
0.0
 10
112.6939518448967
 20
139.2639481298007
 30
0.0
 10
112.5363631499049
 20
139.3343237342313
 30
0.0
 10
112.3753245997461
 20
139.3343237342313
 30
0.0
  0
SPLINE
  5
EB
330
1F
100
AcDbEntity
  8
0
  6
Continuous
 62
     7
370
    15
100
AcDbSpline
210
0.0
220
0.0
230
1.0
 70
     8
 71
     3
 72
    12
 73
     8
 74
     0
 42
0.00000001
 43
0.00000001
 40
0.0
 40
0.0
 40
0.0
 40
0.0
 40
0.250000000000002
 40
0.250000000000002
 40
0.500000000000004
 40
0.500000000000004
 40
1.0
 40
1.0
 40
1.0
 40
1.0
 10
112.3753245997461
 20
133.3258179234345
 30
0.0
 10
112.4665243215718
 20
133.3258179234345
 30
0.0
 10
112.5571193307078
 20
133.2975982248466
 30
0.0
 10
112.7105320571545
 20
133.2031552175985
 30
0.0
 10
112.7757409244782
 20
133.1368682408932
 30
0.0
 10
112.9285254538181
 20
132.9112434176049
 30
0.0
 10
112.9753245997462
 20
132.7288171545723
 30
0.0
 10
112.9753245997462
 20
132.5480805223254
 30
0.0
  0
LINE
  5
EC
330
1F
100
AcDbEntity
  8
0
  6
Continuous
 62
     7
370
    15
100
AcDbLine
 10
112.9753245997
 20
132.5480805223
 30
0.0
 11
112.9753245997
 21
138.7135685848
 31
0.0
  0
LINE
  5
ED
330
1F
100
AcDbEntity
  8
0
  6
Continuous
 62
     7
370
    15
100
AcDbLine
 10
103.1153245997
 20
129.9172719287
 30
0.0
 11
103.1153245997
 21
129.0029948925
 31
0.0
  0
SPLINE
  5
EE
330
1F
100
AcDbEntity
  8
0
  6
Continuous
 62
     7
370
    15
100
AcDbSpline
210
0.0
220
0.0
230
1.0
 70
     8
 71
     3
 72
     8
 73
     4
 74
     0
 42
0.00000001
 43
0.00000001
 40
0.0
 40
0.0
 40
0.0
 40
0.0
 40
1.0
 40
1.0
 40
1.0
 40
1.0
 10
108.4172574312352
 20
139.3343237342313
 30
0.0
 10
107.9221174018709
 20
138.447644086051
 30
0.0
 10
107.4280346965919
 20
137.560381450365
 30
0.0
 10
106.9353245997461
 20
136.6723624522386
 30
0.0
  0
SPLINE
  5
EF
330
1F
100
AcDbEntity
  8
0
  6
Continuous
 62
     7
370
    15
100
AcDbSpline
210
0.0
220
0.0
230
1.0
 70
     8
 71
     3
 72
     8
 73
     4
 74
     0
 42
0.00000001
 43
0.00000001
 40
0.0
 40
0.0
 40
0.0
 40
0.0
 40
1.0
 40
1.0
 40
1.0
 40
1.0
 10
106.9353245997461
 20
129.9172719286504
 30
0.0
 10
107.414602750336
 20
131.0582831585029
 30
0.0
 10
107.9101705894759
 20
132.1946675692708
 30
0.0
 10
108.4172574312352
 20
133.3258179234345
 30
0.0
  0
LINE
  5
F0
330
1F
100
AcDbEntity
  8
0
  6
Continuous
 62
     7
370
    15
100
AcDbLine
 10
106.9353245997
 20
129.9172719287
 30
0.0
 11
106.9353245997
 21
136.6723624522
 31
0.0
  0
LINE
  5
F1
330
1F
100
AcDbEntity
  8
0
  6
Continuous
 62
     7
370
    15
100
AcDbLine
 10
106.9353245997
 20
129.0029948925
 30
0.0
 11
106.9353245997
 21
129.9172719287
 31
0.0
  0
LINE
  5
F2
330
1F
100
AcDbEntity
  8
0
  6
Continuous
 62
     7
370
    15
100
AcDbLine
 10
112.9753245997
 20
132.5480805223
 30
0.0
 11
112.9753245997
 21
128.7171282611
 31
0.0
  0
ARC
  5
F3
330
1F
100
AcDbEntity
  8
0
  6
Continuous
 62
     7
370
    15
100
AcDbCircle
 10
95.0255180182
 20
127.6272492993
 30
0.0
 40
7.198006947530652
100
AcDbArc
 50
70.8187823495
 51
109.2444289262
  0
LWPOLYLINE
  5
F4
330
1F
100
AcDbEntity
  8
0
  6
HIDDEN
 62
     7
370
     0
100
AcDbPolyline
 90
        7
 70
   128
 43
0.0
 10
247.0253245997
 20
121.7799475396
 10
247.0202167655
 20
121.6066943738
 10
247.0069453416
 20
121.0244777123
 10
247.0014570005
 20
120.5191727734
 10
247.004492973
 20
120.1590237889
 10
247.0156432344
 20
119.992670875
 10
247.0253245997
 20
119.9952203564
  0
LWPOLYLINE
  5
F5
330
1F
100
AcDbEntity
  8
0
  6
HIDDEN
 62
     7
370
     0
100
AcDbPolyline
 90
       20
 70
   128
 43
0.0
 10
246.9084632464
 20
123.5187312611
 10
246.8924929057
 20
123.5973633442
 10
246.8707887485
 20
123.4595729497
 10
246.8457027571
 20
123.120291805
 10
246.8199533878
 20
122.6162862865
 10
246.7963309843
 20
122.0021732128
 10
246.7773954006
 20
121.3445012641
 10
246.7651986011
 20
120.7145394011
 10
246.7610622981
 20
120.1805537665
 10
246.7654347244
 20
119.8004099893
 10
246.7778420596
 20
119.6153025464
 10
246.7969397765
 20
119.6452907015
 10
246.8206583411
 20
119.8871247726
 10
246.846427479
 20
120.3145982857
 10
246.8714547041
 20
120.8813878528
 10
246.8930279283
 20
121.5260730295
 10
246.9088093581
 20
122.1787921737
 10
246.9170888305
 20
122.7688130381
 10
246.9169691364
 20
123.2321977069
 10
246.9084632464
 20
123.5187312611
  0
LWPOLYLINE
  5
F6
330
1F
100
AcDbEntity
  8
0
  6
HIDDEN
 62
     7
370
     0
100
AcDbPolyline
 90
       20
 70
   128
 43
0.0
 10
239.8890457434
 20
123.7137468318
 10
239.8730754027
 20
123.7923789148
 10
239.8513712455
 20
123.6545885203
 10
239.826285254
 20
123.3153073756
 10
239.8005358847
 20
122.8113018571
 10
239.7769134812
 20
122.1971887834
 10
239.7579778976
 20
121.5395168347
 10
239.745781098
 20
120.9095549717
 10
239.7416447951
 20
120.3755693371
 10
239.7460172213
 20
119.9954255599
 10
239.7584245566
 20
119.810318117
 10
239.7775222735
 20
119.8403062721
 10
239.8012408381
 20
120.0821403432
 10
239.8270099759
 20
120.5096138563
 10
239.8520372011
 20
121.0764034234
 10
239.8736104253
 20
121.7210886001
 10
239.889391855
 20
122.3738077443
 10
239.8976713275
 20
122.9638286087
 10
239.8975516334
 20
123.4272132775
 10
239.8890457434
 20
123.7137468318
  0
LWPOLYLINE
  5
F7
330
1F
100
AcDbEntity
  8
0
  6
HIDDEN
 62
     7
370
     0
100
AcDbPolyline
 90
       17
 70
   128
 43
0.0
 10
239.1137931567
 20
123.0151222845
 10
239.1015013396
 20
123.0583405899
 10
239.0845266626
 20
122.912430948
 10
239.0654533663
 20
122.5996067791
 10
239.0471851873
 20
122.1674927272
 10
239.0325032902
 20
121.6818742396
 10
239.0236428607
 20
121.2166823288
 10
239.0219528189
 20
120.8427382463
 10
239.0276904584
 20
120.6169715888
 10
239.0399822755
 20
120.5737532834
 10
239.0569569525
 20
120.7196629253
 10
239.0760302488
 20
121.0324870942
 10
239.0942984278
 20
121.4646011461
 10
239.1089803249
 20
121.9502196338
 10
239.1178407544
 20
122.4154115446
 10
239.1195307962
 20
122.7893556271
 10
239.1137931567
 20
123.0151222845
  0
LINE
  5
F8
330
1F
100
AcDbEntity
  8
0
  6
HIDDEN
 62
     7
370
     0
100
AcDbLine
 10
247.0253245997
 20
120.9037944275
 30
0.0
 11
247.0248049646
 21
120.4863015213
 31
0.0
  0
LINE
  5
F9
330
1F
100
AcDbEntity
  8
0
  6
HIDDEN
 62
     7
370
     0
100
AcDbLine
 10
247.0253245997
 20
120.4899599445
 30
0.0
 11
247.0248049646
 21
120.4863015213
 31
0.0
  0
LINE
  5
FA
330
1F
100
AcDbEntity
  8
0
  6
HIDDEN
 62
     7
370
     0
100
AcDbLine
 10
244.6052313695
 20
121.9360346334
 30
0.0
 11
244.6062706397
 21
122.7710204457
 31
0.0
  0
LINE
  5
FB
330
1F
100
AcDbEntity
  8
0
  6
HIDDEN
 62
     7
370
     0
100
AcDbLine
 10
244.6052313695
 20
121.9360346334
 30
0.0
 11
244.5654622366
 21
120.8283762736
 31
0.0
  0
LINE
  5
FC
330
1F
100
AcDbEntity
  8
0
  6
HIDDEN
 62
     7
370
     0
100
AcDbLine
 10
244.5654622366
 20
120.8283762736
 30
0.0
 11
244.526732374
 21
120.5557037262
 31
0.0
  0
LINE
  5
FD
330
1F
100
AcDbEntity
  8
0
  6
HIDDEN
 62
     7
370
     0
100
AcDbLine
 10
244.5675407771
 20
122.4983478983
 30
0.0
 11
244.5277716443
 21
121.3906895385
 31
0.0
  0
LINE
  5
FE
330
1F
100
AcDbEntity
  8
0
  6
HIDDEN
 62
     7
370
     0
100
AcDbLine
 10
244.5675407771
 20
122.4983478983
 30
0.0
 11
244.6062706397
 21
122.7710204457
 31
0.0
  0
LINE
  5
FF
330
1F
100
AcDbEntity
  8
0
  6
HIDDEN
 62
     7
370
     0
100
AcDbLine
 10
244.5277716443
 20
121.3906895385
 30
0.0
 11
244.526732374
 21
120.5557037262
 31
0.0
  0
LINE
  5
100
330
1F
100
AcDbEntity
  8
0
  6
HIDDEN
 62
     7
370
     0
100
AcDbLine
 10
244.5277716443
 20
121.3906895385
 30
0.0
 11
247.0258442349
 21
121.3212873336
 31
0.0
  0
LINE
  5
101
330
1F
100
AcDbEntity
  8
0
  6
HIDDEN
 62
     7
370
     0
100
AcDbLine
 10
244.5675407771
 20
122.4983478983
 30
0.0
 11
247.0656133677
 21
122.4289456934
 31
0.0
  0
LINE
  5
102
330
1F
100
AcDbEntity
  8
0
  6
HIDDEN
 62
     7
370
     0
100
AcDbLine
 10
244.5654622366
 20
120.8283762736
 30
0.0
 11
247.0253245997
 21
120.7600356368
 31
0.0
  0
LINE
  5
103
330
1F
100
AcDbEntity
  8
0
  6
HIDDEN
 62
     7
370
     0
100
AcDbLine
 10
244.526732374
 20
120.5557037262
 30
0.0
 11
247.0248049646
 21
120.4863015213
 31
0.0
  0
LINE
  5
104
330
1F
100
AcDbEntity
  8
0
  6
HIDDEN
 62
     7
370
     0
100
AcDbLine
 10
244.6052313695
 20
121.9360346334
 30
0.0
 11
247.0454818674
 21
121.8682388593
 31
0.0
  0
LINE
  5
105
330
1F
100
AcDbEntity
  8
0
  6
HIDDEN
 62
     7
370
     0
100
AcDbLine
 10
244.6062706397
 20
122.7710204457
 30
0.0
 11
247.1043432303
 21
122.7016182408
 31
0.0
  0
LWPOLYLINE
  5
106
330
1F
100
AcDbEntity
  8
0
  6
HIDDEN
 62
     7
370
     0
100
AcDbPolyline
 90
       20
 70
   128
 43
0.0
 10
239.8881738984
 20
94.0081231149
 10
239.8717418297
 20
93.9444911806
 10
239.849721576
 20
94.0969985337
 10
239.8244993734
 20
94.449118636
 10
239.798808439
 20
94.9626938108
 10
239.775432784
 20
95.582070219
 10
239.7569055236
 20
96.240128816
 10
239.7452343737
 20
96.8655587421
 10
239.7416840846
 20
97.3905849603
 10
239.7466393852
 20
97.7583127331
 10
239.7595632918
 20
97.9288930505
 10
239.7790552985
 20
97.8838408884
 10
239.8030031441
 20
97.6280383474
 10
239.8288117077
 20
97.1892056022
 10
239.8536842312
 20
96.6148969898
 10
239.8749253906
 20
95.9673477597
 10
239.8902333768
 20
95.3167299188
 10
239.8979493319
 20
94.7335480055
 10
239.8972371124
 20
94.2809988291
 10
239.8881738984
 20
94.0081231149
  0
LWPOLYLINE
  5
107
330
1F
100
AcDbEntity
  8
0
  6
HIDDEN
 62
     7
370
     0
100
AcDbPolyline
 90
       17
 70
   128
 43
0.0
 10
239.1132521228
 20
94.7113927355
 10
239.1006269525
 20
94.6793186311
 10
239.0834536106
 20
94.8358544876
 10
239.0643465828
 20
95.1571691398
 10
239.0462147407
 20
95.5943453447
 10
239.0318184931
 20
96.080826988
 10
239.0233495381
 20
96.5425516496
 10
239.0220971973
 20
96.9092259352
 10
239.0282521283
 20
97.1250270088
 10
239.0408772986
 20
97.1571011132
 10
239.0580506405
 20
97.0005652566
 10
239.0771576684
 20
96.6792506044
 10
239.0952895104
 20
96.2420743996
 10
239.109685758
 20
95.7555927562
 10
239.1181547131
 20
95.2938680947
 10
239.1194070538
 20
94.9271938091
 10
239.1132521228
 20
94.7113927355
  0
LWPOLYLINE
  5
108
330
1F
100
AcDbEntity
  8
0
  6
HIDDEN
 62
     7
370
     0
100
AcDbPolyline
 90
       20
 70
   128
 43
0.0
 10
246.9075914014
 20
94.2031386855
 10
246.8911593327
 20
94.1395067512
 10
246.869139079
 20
94.2920141043
 10
246.8439168765
 20
94.6441342066
 10
246.818225942
 20
95.1577093814
 10
246.7948502871
 20
95.7770857896
 10
246.7763230266
 20
96.4351443866
 10
246.7646518767
 20
97.0605743127
 10
246.7611015876
 20
97.5856005309
 10
246.7660568882
 20
97.9533283037
 10
246.7789807948
 20
98.1239086211
 10
246.7984728016
 20
98.078856459
 10
246.8224206471
 20
97.823053918
 10
246.8482292108
 20
97.3842211728
 10
246.8731017343
 20
96.8099125604
 10
246.8943428937
 20
96.1623633303
 10
246.9096508799
 20
95.5117454894
 10
246.9173668349
 20
94.9285635761
 10
246.9166546154
 20
94.4760143997
 10
246.9075914014
 20
94.2031386855
  0
LWPOLYLINE
  5
109
330
1F
100
AcDbEntity
  8
0
  6
HIDDEN
 62
     7
370
     0
100
AcDbPolyline
 90
       11
 70
   128
 43
0.0
 10
247.1113939922
 20
94.532840574
 10
247.1042112056
 20
94.540192854
 10
247.0837461817
 20
94.710572174
 10
247.0606932551
 20
95.0740437443
 10
247.0381658512
 20
95.5815187153
 10
247.0192064209
 20
96.1644597803
 10
247.0063755401
 20
96.7441375181
 10
247.0014060906
 20
97.2422632382
 10
247.0049692239
 20
97.5915623018
 10
247.0165837192
 20
97.744859935
 10
247.0253245997
 20
97.7390748967
  0
LINE
  5
10A
330
1F
100
AcDbEntity
  8
0
  6
HIDDEN
 62
     7
370
     0
100
AcDbLine
 10
247.1038442313
 20
95.8419835907
 30
0.0
 11
247.1038442313
 21
95.0254870098
 31
0.0
  0
LINE
  5
10B
330
1F
100
AcDbEntity
  8
0
  6
HIDDEN
 62
     7
370
     0
100
AcDbLine
 10
244.6057716407
 20
95.7725813858
 30
0.0
 11
244.6057716407
 21
94.9560848049
 31
0.0
  0
LINE
  5
10C
330
1F
100
AcDbEntity
  8
0
  6
HIDDEN
 62
     7
370
     0
100
AcDbLine
 10
244.6057716407
 20
95.7725813858
 30
0.0
 11
244.5665118249
 21
96.8873913038
 31
0.0
  0
LINE
  5
10D
330
1F
100
AcDbEntity
  8
0
  6
HIDDEN
 62
     7
370
     0
100
AcDbLine
 10
244.6057716407
 20
95.7725813858
 30
0.0
 11
247.1038442313
 21
95.8419835907
 31
0.0
  0
LINE
  5
10E
330
1F
100
AcDbEntity
  8
0
  6
HIDDEN
 62
     7
370
     0
100
AcDbLine
 10
247.1038442313
 20
95.8419835907
 30
0.0
 11
247.0645844155
 21
96.9567935087
 31
0.0
  0
LINE
  5
10F
330
1F
100
AcDbEntity
  8
0
  6
HIDDEN
 62
     7
370
     0
100
AcDbLine
 10
244.5665118249
 20
96.8873913038
 30
0.0
 11
247.0645844155
 21
96.9567935087
 31
0.0
  0
LINE
  5
110
330
1F
100
AcDbEntity
  8
0
  6
HIDDEN
 62
     7
370
     0
100
AcDbLine
 10
244.5665118249
 20
96.8873913038
 30
0.0
 11
244.5272520091
 21
97.1857046408
 31
0.0
  0
LINE
  5
111
330
1F
100
AcDbEntity
  8
0
  6
HIDDEN
 62
     7
370
     0
100
AcDbLine
 10
247.0645844155
 20
96.9567935087
 30
0.0
 11
247.0253245997
 21
97.2551068457
 31
0.0
  0
LINE
  5
112
330
1F
100
AcDbEntity
  8
0
  6
HIDDEN
 62
     7
370
     0
100
AcDbLine
 10
244.5665118249
 20
95.2543981419
 30
0.0
 11
247.0645844155
 21
95.3238003468
 31
0.0
  0
LINE
  5
113
330
1F
100
AcDbEntity
  8
0
  6
HIDDEN
 62
     7
370
     0
100
AcDbLine
 10
244.5665118249
 20
95.2543981419
 30
0.0
 11
244.6057716407
 21
94.9560848049
 31
0.0
  0
LINE
  5
114
330
1F
100
AcDbEntity
  8
0
  6
HIDDEN
 62
     7
370
     0
100
AcDbLine
 10
244.6057716407
 20
94.9560848049
 30
0.0
 11
247.1038442313
 21
95.0254870098
 31
0.0
  0
LINE
  5
115
330
1F
100
AcDbEntity
  8
0
  6
HIDDEN
 62
     7
370
     0
100
AcDbLine
 10
247.0645844155
 20
95.3238003468
 30
0.0
 11
247.1038442313
 21
95.0254870098
 31
0.0
  0
LINE
  5
116
330
1F
100
AcDbEntity
  8
0
  6
HIDDEN
 62
     7
370
     0
100
AcDbLine
 10
244.5272520091
 20
96.3692080599
 30
0.0
 11
247.0253245997
 21
96.4386102648
 31
0.0
  0
LINE
  5
117
330
1F
100
AcDbEntity
  8
0
  6
HIDDEN
 62
     7
370
     0
100
AcDbLine
 10
244.5272520091
 20
97.1857046408
 30
0.0
 11
247.0253245997
 21
97.2551068457
 31
0.0
  0
LINE
  5
118
330
1F
100
AcDbEntity
  8
0
  6
HIDDEN
 62
     7
370
     0
100
AcDbLine
 10
244.5272520091
 20
96.3692080599
 30
0.0
 11
244.5272520091
 21
97.1857046408
 31
0.0
  0
LINE
  5
119
330
1F
100
AcDbEntity
  8
0
  6
HIDDEN
 62
     7
370
     0
100
AcDbLine
 10
244.5665118249
 20
95.2543981419
 30
0.0
 11
244.5272520091
 21
96.3692080599
 31
0.0
  0
LINE
  5
11A
330
1F
100
AcDbEntity
  8
0
  6
HIDDEN
 62
     7
370
     0
100
AcDbLine
 10
247.0645844155
 20
95.3238003468
 30
0.0
 11
247.0253245997
 21
96.4386102648
 31
0.0
  0
ARC
  5
11B
330
1F
100
AcDbEntity
  8
0
  6
HIDDEN
 62
     7
370
     0
100
AcDbCircle
 10
223.5253245997
 20
108.8671282611
 30
0.0
 40
8.00000000000003
100
AcDbArc
 50
149.2560953669
 51
210.7768050115
  0
ARC
  5
11C
330
1F
100
AcDbEntity
  8
0
  6
HIDDEN
 62
     7
370
     0
100
AcDbCircle
 10
223.5253245997
 20
108.8671282611
 30
0.0
 40
8.000000000000002
100
AcDbArc
 50
329.2130576219
 51
30.8245848627
  0
CIRCLE
  5
11D
330
1F
100
AcDbEntity
  8
0
  6
HIDDEN
 62
     7
370
     0
100
AcDbCircle
 10
223.5253245997
 20
108.8671282611
 30
0.0
 40
9.000000000000005
  0
CIRCLE
  5
11E
330
1F
100
AcDbEntity
  8
0
  6
HIDDEN
 62
     7
370
     0
100
AcDbCircle
 10
223.5253245997
 20
108.8671282611
 30
0.0
 40
4.500000000000005
  0
CIRCLE
  5
11F
330
1F
100
AcDbEntity
  8
0
  6
HIDDEN
 62
     7
370
     0
100
AcDbCircle
 10
223.5253245997
 20
108.8671282611
 30
0.0
 40
5.999999999999993
  0
ARC
  5
120
330
1F
100
AcDbEntity
  8
0
  6
HIDDEN
 62
     7
370
     0
100
AcDbCircle
 10
198.5253245997
 20
108.8671282611
 30
0.0
 40
7.999999999999998
100
AcDbArc
 50
149.2560953669
 51
210.7768050115
  0
CIRCLE
  5
121
330
1F
100
AcDbEntity
  8
0
  6
HIDDEN
 62
     7
370
     0
100
AcDbCircle
 10
198.5253245997
 20
108.8671282611
 30
0.0
 40
9.0
  0
CIRCLE
  5
122
330
1F
100
AcDbEntity
  8
0
  6
HIDDEN
 62
     7
370
     0
100
AcDbCircle
 10
198.5253245997
 20
108.8671282611
 30
0.0
 40
4.499999999999977
  0
CIRCLE
  5
123
330
1F
100
AcDbEntity
  8
0
  6
HIDDEN
 62
     7
370
     0
100
AcDbCircle
 10
198.5253245997
 20
108.8671282611
 30
0.0
 40
5.999999999999967
  0
SPLINE
  5
124
330
1F
100
AcDbEntity
  8
0
  6
HIDDEN
 62
     7
370
     0
100
AcDbSpline
210
0.0
220
0.0
230
1.0
 70
     8
 71
     3
 72
    15
 73
    11
 74
     0
 42
0.00000001
 43
0.00000001
 40
0.0
 40
0.0
 40
0.0
 40
0.0
 40
0.1800301406355952
 40
0.2441334987023614
 40
0.3102766770576327
 40
0.3784786667835787
 40
0.5464457220667607
 40
0.7571878781962671
 40
0.8998287261342222
 40
1.0
 40
1.0
 40
1.0
 40
1.0
 10
223.5253245997461
 20
100.867128261067
 30
0.0
 10
224.0267262857361
 20
100.8927064272428
 30
0.0
 10
224.7066621421646
 20
100.9273922147272
 30
0.0
 10
225.5463096132855
 20
101.1209421638372
 30
0.0
 10
226.0734583211854
 20
101.27676724546
 30
0.0
 10
226.8563667985484
 20
101.5705666136641
 30
0.0
 10
227.9549877716873
 20
102.1423449064144
 30
0.0
 10
229.0752076323299
 20
103.0495664300526
 30
0.0
 10
229.9038040919977
 20
103.9872006934655
 30
0.0
 10
230.2533480470705
 20
104.5580549643438
 30
0.0
 10
230.397551157655
 20
104.7935588555038
 30
0.0
  0
SPLINE
  5
125
330
1F
100
AcDbEntity
  8
0
  6
HIDDEN
 62
     7
370
     0
100
AcDbSpline
210
0.0
220
0.0
230
1.0
 70
     8
 71
     3
 72
    23
 73
    19
 74
     0
 42
0.00000001
 43
0.00000001
 40
0.0
 40
0.0
 40
0.0
 40
0.0
 40
0.0166652278944287
 40
0.1206775550154002
 40
0.176406034125926
 40
0.2266306202486489
 40
0.2713549381665921
 40
0.3105849422305635
 40
0.409807537339762
 40
0.5001024796556657
 40
0.5902581802427216
 40
0.6223388032497861
 40
0.6554304771053737
 40
0.6895427895727926
 40
0.7728738025934069
 40
0.879258741953189
 40
0.95312749397928
 40
0.9999999999999999
 40
0.9999999999999999
 40
0.9999999999999999
 40
0.9999999999999999
 10
230.3848243998775
 20
112.9455082994506
 30
0.0
 10
230.3432206539687
 20
113.0273760882107
 30
0.0
 10
230.0419563467802
 20
113.6202035397568
 30
0.0
 10
229.3856097870161
 20
114.3545160129144
 30
0.0
 10
228.5345230673574
 20
115.1269436576113
 30
0.0
 10
227.8580998423545
 20
115.6070868142678
 30
0.0
 10
227.2178657689086
 20
115.9753232519976
 30
0.0
 10
226.3019993142678
 20
116.4007545938164
 30
0.0
 10
225.0808984487111
 20
116.7675945376537
 30
0.0
 10
223.5270779749686
 20
116.9145079869085
 30
0.0
 10
222.3447515933981
 20
116.8029396988373
 30
0.0
 10
221.5054276468833
 20
116.614219542268
 30
0.0
 10
220.9787709049674
 20
116.4578333371852
 30
0.0
 10
220.2002709950789
 20
116.1661888148023
 30
0.0
 10
219.1010208144264
 20
115.5955894936273
 30
0.0
 10
217.9694037036573
 20
114.680358458963
 30
0.0
 10
217.1412275876318
 20
113.741519798424
 30
0.0
 10
216.79651169546
 20
113.1734852319258
 30
0.0
 10
216.6626908458793
 20
112.9529706864517
 30
0.0
  0
SPLINE
  5
126
330
1F
100
AcDbEntity
  8
0
  6
HIDDEN
 62
     7
370
     0
100
AcDbSpline
210
0.0
220
0.0
230
1.0
 70
     8
 71
     3
 72
    15
 73
    11
 74
     0
 42
0.00000001
 43
0.00000001
 40
0.0
 40
0.0
 40
0.0
 40
0.0
 40
0.033149445860035
 40
0.2409633796449512
 40
0.3521220158013054
 40
0.4525087901877733
 40
0.5421312861095365
 40
0.6210016911665471
 40
0.8196266091135761
 40
1.0
 40
1.0
 40
1.0
 40
1.0
 10
216.6671238756986
 20
104.7862832309672
 30
0.0
 10
216.7085350370695
 20
104.7048852076259
 30
0.0
 10
217.0095528411403
 20
104.1132028343057
 30
0.0
 10
217.6645224968174
 20
103.38042801642
 30
0.0
 10
218.5142332736892
 20
102.6088783866246
 30
0.0
 10
219.1899985095873
 20
102.1288817407034
 30
0.0
 10
219.831321673401
 20
101.7593416654445
 30
0.0
 10
220.7490599510421
 20
101.3346843492999
 30
0.0
 10
221.9710823216247
 20
100.9519005524066
 30
0.0
 10
223.024148100999
 20
100.8944636905315
 30
0.0
 10
223.5253245997461
 20
100.867128261067
 30
0.0
  0
SPLINE
  5
127
330
1F
100
AcDbEntity
  8
0
  6
HIDDEN
 62
     7
370
     0
100
AcDbSpline
210
0.0
220
0.0
230
1.0
 70
     8
 71
     3
 72
    15
 73
    11
 74
     0
 42
0.00000001
 43
0.00000001
 40
0.0
 40
0.0
 40
0.0
 40
0.0
 40
0.1800301406323121
 40
0.2441334986992275
 40
0.3102766770552696
 40
0.3784786667826067
 40
0.546445722062522
 40
0.7571878781943172
 40
0.89982872612246
 40
1.0
 40
1.0
 40
1.0
 40
1.0
 10
198.5253245997461
 20
100.867128261067
 30
0.0
 10
199.0267262857282
 20
100.892706427242
 30
0.0
 10
199.7066621421496
 20
100.9273922147256
 30
0.0
 10
200.5463096132669
 20
101.1209421638322
 30
0.0
 10
201.0734583211746
 20
101.2767672454561
 30
0.0
 10
201.8563667985373
 20
101.5705666136594
 30
0.0
 10
202.9549877716806
 20
102.1423449064102
 30
0.0
 10
204.0752076323053
 20
103.0495664300299
 30
0.0
 10
204.9038040919843
 20
103.9872006934513
 30
0.0
 10
205.2533480470654
 20
104.5580549643329
 30
0.0
 10
205.3975511576691
 20
104.7935588555201
 30
0.0
  0
SPLINE
  5
128
330
1F
100
AcDbEntity
  8
0
  6
HIDDEN
 62
     7
370
     0
100
AcDbSpline
210
0.0
220
0.0
230
1.0
 70
     8
 71
     3
 72
    23
 73
    19
 74
     0
 42
0.00000001
 43
0.00000001
 40
0.0
 40
0.0
 40
0.0
 40
0.0
 40
0.0166652278930349
 40
0.1206775550136212
 40
0.1764060341181644
 40
0.226630620238931
 40
0.2713549381589461
 40
0.3105849422290225
 40
0.40980753733755
 40
0.5001024796543527
 40
0.5902581802375166
 40
0.6223388032450643
 40
0.655430477102025
 40
0.6895427895717022
 40
0.7728738025764316
 40
0.8792587419522863
 40
0.953127493985849
 40
1.0
 40
1.0
 40
1.0
 40
1.0
 10
205.3848243998619
 20
112.945508299479
 30
0.0
 10
205.3432206539565
 20
113.0273760882321
 30
0.0
 10
205.0419563467717
 20
113.6202035397686
 30
0.0
 10
204.3856097870355
 20
114.3545160128907
 30
0.0
 10
203.5345230674169
 20
115.1269436575604
 30
0.0
 10
202.8580998424485
 20
115.6070868142074
 30
0.0
 10
202.2178657689788
 20
115.9753232519634
 30
0.0
 10
201.301999314304
 20
116.4007545938049
 30
0.0
 10
200.0808984487157
 20
116.7675945376528
 30
0.0
 10
198.527077974995
 20
116.9145079869068
 30
0.0
 10
197.3447515934405
 20
116.8029396988421
 30
0.0
 10
196.5054276469361
 20
116.6142195422821
 30
0.0
 10
195.9787709049978
 20
116.4578333371962
 30
0.0
 10
195.200270995172
 20
116.1661888148387
 30
0.0
 10
194.1010208145024
 20
115.5955894936781
 30
0.0
 10
192.9694037036844
 20
114.6803584590031
 30
0.0
 10
192.1412275876008
 20
113.7415197983891
 30
0.0
 10
191.7965116954342
 20
113.173485231883
 30
0.0
 10
191.6626908458754
 20
112.9529706864384
 30
0.0
  0
SPLINE
  5
129
330
1F
100
AcDbEntity
  8
0
  6
HIDDEN
 62
     7
370
     0
100
AcDbSpline
210
0.0
220
0.0
230
1.0
 70
     8
 71
     3
 72
    15
 73
    11
 74
     0
 42
0.00000001
 43
0.00000001
 40
0.0
 40
0.0
 40
0.0
 40
0.0
 40
0.0331494458434646
 40
0.2409633796427854
 40
0.3521220158046763
 40
0.4525087901931734
 40
0.5421312861134506
 40
0.6210016911654662
 40
0.8196266091154377
 40
1.0
 40
1.0
 40
1.0
 40
1.0
 10
191.6671238757024
 20
104.7862832309424
 30
0.0
 10
191.7085350370523
 20
104.7048852076421
 30
0.0
 10
192.0095528411186
 20
104.1132028343286
 30
0.0
 10
192.6645224967991
 20
103.3804280164345
 30
0.0
 10
193.5142332737147
 20
102.6088783866027
 30
0.0
 10
194.1899985096276
 20
102.1288817406774
 30
0.0
 10
194.8313216734311
 20
101.7593416654298
 30
0.0
 10
195.7490599510619
 20
101.3346843492928
 30
0.0
 10
196.9710823216315
 20
100.9519005524052
 30
0.0
 10
198.0241481010057
 20
100.8944636905308
 30
0.0
 10
198.5253245997461
 20
100.867128261067
 30
0.0
  0
SPLINE
  5
12A
330
1F
100
AcDbEntity
  8
0
  6
HIDDEN
 62
     7
370
     0
100
AcDbSpline
210
0.0
220
0.0
230
1.0
 70
     8
 71
     3
 72
    92
 73
    88
 74
     0
 42
0.00000001
 43
0.00000001
 40
-0.0312500000000013
 40
-0.0312500000000013
 40
0.0
 40
0.0
 40
0.0312499999999995
 40
0.0312499999999995
 40
0.0468749999999993
 40
0.0468749999999993
 40
0.0624999999999991
 40
0.0624999999999991
 40
0.0937499999999986
 40
0.0937499999999986
 40
0.1249999999999983
 40
0.1249999999999983
 40
0.1562499999999979
 40
0.1562499999999979
 40
0.1718749999999976
 40
0.1718749999999976
 40
0.1874999999999974
 40
0.1874999999999974
 40
0.2187499999999973
 40
0.2187499999999973
 40
0.2499999999999972
 40
0.2499999999999972
 40
0.2656249999999971
 40
0.2656249999999971
 40
0.2812499999999971
 40
0.2812499999999971
 40
0.3124999999999971
 40
0.3124999999999971
 40
0.3281249999999972
 40
0.3281249999999972
 40
0.3437499999999972
 40
0.3437499999999972
 40
0.3593749999999973
 40
0.3593749999999973
 40
0.3749999999999973
 40
0.3749999999999973
 40
0.4062499999999969
 40
0.4062499999999969
 40
0.4374999999999965
 40
0.4374999999999965
 40
0.4687499999999961
 40
0.4687499999999961
 40
0.4843749999999956
 40
0.4843749999999956
 40
0.4999999999999951
 40
0.4999999999999951
 40
0.5312499999999941
 40
0.5312499999999941
 40
0.5624999999999931
 40
0.5624999999999931
 40
0.5781249999999929
 40
0.5781249999999929
 40
0.5937499999999927
 40
0.5937499999999927
 40
0.6249999999999929
 40
0.6249999999999929
 40
0.6562499999999931
 40
0.6562499999999931
 40
0.6874999999999933
 40
0.6874999999999933
 40
0.7031249999999934
 40
0.7031249999999934
 40
0.7187499999999936
 40
0.7187499999999936
 40
0.7343749999999937
 40
0.7343749999999937
 40
0.7499999999999937
 40
0.7499999999999937
 40
0.781249999999994
 40
0.781249999999994
 40
0.8124999999999943
 40
0.8124999999999943
 40
0.8437499999999947
 40
0.8437499999999947
 40
0.874999999999995
 40
0.874999999999995
 40
0.8906249999999954
 40
0.8906249999999954
 40
0.9062499999999959
 40
0.9062499999999959
 40
0.9374999999999973
 40
0.9374999999999973
 40
0.953124999999998
 40
0.953124999999998
 40
0.9687499999999987
 40
0.9687499999999987
 40
1.0
 40
1.0
 40
1.03125
 40
1.03125
 10
199.1646958720833
 20
99.45206412275107
 30
0.0
 10
197.8859533274089
 20
99.45206412275107
 30
0.0
 10
197.2569109885728
 20
99.51003036790168
 30
0.0
 10
196.3282162883163
 20
99.68086252125458
 30
0.0
 10
196.0211471116808
 20
99.75189451973917
 30
0.0
 10
195.4121051729531
 20
99.92290879034074
 30
0.0
 10
195.108774448023
 20
100.0235210222158
 30
0.0
 10
194.2242991674734
 20
100.3639443571627
 30
0.0
 10
193.6640994146281
 20
100.6426139750774
 30
0.0
 10
192.6019441818383
 20
101.3044951566436
 30
0.0
 10
192.0959260361907
 20
101.6926230365788
 30
0.0
 10
191.1846649926257
 20
102.5485675544354
 30
0.0
 10
190.7748604061435
 20
103.0178245371791
 30
0.0
 10
190.2303669905878
 20
103.7865398771979
 30
0.0
 10
190.0598241469329
 20
104.0553247365265
 30
0.0
 10
189.7498428258473
 20
104.6044848075216
 30
0.0
 10
189.6097974201348
 20
104.8853621139557
 30
0.0
 10
189.2336409468628
 20
105.7466992965987
 30
0.0
 10
189.0409811871743
 20
106.3458247566621
 30
0.0
 10
188.7787946979435
 20
107.5964583479661
 30
0.0
 10
188.7141182449441
 20
108.224705472242
 30
0.0
 10
188.7129568651224
 20
109.1713250899037
 30
0.0
 10
188.7286767189188
 20
109.4875785118732
 30
0.0
 10
188.7933001915176
 20
110.1215537487509
 30
0.0
 10
188.8422795652946
 20
110.4378895587441
 30
0.0
 10
189.0353183904398
 20
111.3666831296971
 30
0.0
 10
189.2256090108323
 20
111.9662448085403
 30
0.0
 10
189.6037421222779
 20
112.8364315999307
 30
0.0
 10
189.7458002257392
 20
113.1219543346994
 30
0.0
 10
190.0547187474846
 20
113.6705235407412
 30
0.0
 10
190.2222270352418
 20
113.9352552875292
 30
0.0
 10
190.5828051755906
 20
114.4462090137317
 30
0.0
 10
190.7758764684371
 20
114.6924295877766
 30
0.0
 10
191.1878243327678
 20
115.1664048701739
 30
0.0
 10
191.4079254976648
 20
115.3951885651459
 30
0.0
 10
192.0951407790625
 20
116.0413079607757
 30
0.0
 10
192.5905155731185
 20
116.4216694997587
 30
0.0
 10
193.6540618640056
 20
117.0863384161258
 30
0.0
 10
194.2265653731664
 20
117.3711282838597
 30
0.0
 10
195.3997673450263
 20
117.8227910211254
 30
0.0
 10
196.005166893408
 20
117.993452771296
 30
0.0
 10
196.9419378938403
 20
118.1665406408934
 30
0.0
 10
197.2594454390576
 20
118.2101746512038
 30
0.0
 10
197.8907491110705
 20
118.2677570108814
 30
0.0
 10
198.2062020030845
 20
118.2820753059348
 30
0.0
 10
199.1519742435318
 20
118.2824244355661
 30
0.0
 10
199.7834288658607
 20
118.2259724581658
 30
0.0
 10
201.0375977038745
 20
117.9955693807967
 30
0.0
 10
201.6435836062236
 20
117.8250035533082
 30
0.0
 10
202.5219854930131
 20
117.4877232679922
 30
0.0
 10
202.8096542218735
 20
117.3616239323463
 30
0.0
 10
203.3744737116155
 20
117.0811157877593
 30
0.0
 10
203.6524720555254
 20
116.9260063820985
 30
0.0
 10
204.4528423988696
 20
116.427036316419
 30
0.0
 10
204.947524238597
 20
116.0475290695599
 30
0.0
 10
205.859371304325
 20
115.1927537575722
 30
0.0
 10
206.2790617365228
 20
114.7121548851049
 30
0.0
 10
207.0019174300135
 20
113.6909389313314
 30
0.0
 10
207.3100471724464
 20
113.1471528383924
 30
0.0
 10
207.6899257386066
 20
112.2791760222516
 30
0.0
 10
207.8029374750507
 20
111.9798325109248
 30
0.0
 10
207.9954523354085
 20
111.3774373583328
 30
0.0
 10
208.0757610022905
 20
111.0728578106514
 30
0.0
 10
208.2049991002983
 20
110.4570070219367
 30
0.0
 10
208.2539290082319
 20
110.1457359386077
 30
0.0
 10
208.3199152367083
 20
109.5163730144015
 30
0.0
 10
208.3369455173332
 20
109.1964450277627
 30
0.0
 10
208.3380277132505
 20
108.2398738457567
 30
0.0
 10
208.2734764584438
 20
107.6120020996164
 30
0.0
 10
208.0174281314283
 20
106.3753129195906
 30
0.0
 10
207.8227193482038
 20
105.7622507136428
 30
0.0
 10
207.3212224851141
 20
104.6090123694891
 30
0.0
 10
207.0140161478385
 20
104.0622457703433
 30
0.0
 10
206.2846851940268
 20
103.0282545179273
 30
0.0
 10
205.8718911376186
 20
102.5549441675297
 30
0.0
 10
205.1894844382131
 20
101.9127283504546
 30
0.0
 10
204.9511061421209
 20
101.7096243576656
 30
0.0
 10
204.4521614021111
 20
101.3254422357241
 30
0.0
 10
204.1912277080452
 20
101.1443675474235
 30
0.0
 10
203.3915041700594
 20
100.645075406952
 30
0.0
 10
202.8307980501491
 20
100.3660960627985
 30
0.0
 10
201.9487874761034
 20
100.0259651806937
 30
0.0
 10
201.6464901854406
 20
99.92536383067255
 30
0.0
 10
201.0347762252422
 20
99.75315642141197
 30
0.0
 10
200.7265637978306
 20
99.68172330709605
 30
0.0
 10
199.7950360476426
 20
99.51006881919498
 30
0.0
 10
199.1646958720833
 20
99.45206412275107
 30
0.0
 10
197.8859533274089
 20
99.45206412275107
 30
0.0
  0
SPLINE
  5
12B
330
1F
100
AcDbEntity
  8
0
  6
HIDDEN
 62
     7
370
     0
100
AcDbSpline
210
0.0
220
0.0
230
1.0
 70
     8
 71
     3
 72
    92
 73
    88
 74
     0
 42
0.00000001
 43
0.00000001
 40
-0.0312500000000009
 40
-0.0312500000000009
 40
0.0
 40
0.0
 40
0.0312499999999986
 40
0.0312499999999986
 40
0.046874999999998
 40
0.046874999999998
 40
0.0624999999999973
 40
0.0624999999999973
 40
0.0937499999999972
 40
0.0937499999999972
 40
0.1249999999999972
 40
0.1249999999999972
 40
0.1562499999999972
 40
0.1562499999999972
 40
0.1718749999999972
 40
0.1718749999999972
 40
0.1874999999999972
 40
0.1874999999999972
 40
0.2187499999999971
 40
0.2187499999999971
 40
0.2499999999999971
 40
0.2499999999999971
 40
0.2656249999999971
 40
0.2656249999999971
 40
0.2812499999999971
 40
0.2812499999999971
 40
0.3124999999999973
 40
0.3124999999999973
 40
0.3281249999999977
 40
0.3281249999999977
 40
0.3437499999999981
 40
0.3437499999999981
 40
0.3593749999999984
 40
0.3593749999999984
 40
0.3749999999999988
 40
0.3749999999999988
 40
0.4062499999999986
 40
0.4062499999999986
 40
0.4374999999999984
 40
0.4374999999999984
 40
0.4687499999999982
 40
0.4687499999999982
 40
0.4843749999999981
 40
0.4843749999999981
 40
0.499999999999998
 40
0.499999999999998
 40
0.5312499999999992
 40
0.5312499999999992
 40
0.5625000000000004
 40
0.5625000000000004
 40
0.5781250000000011
 40
0.5781250000000011
 40
0.5937500000000017
 40
0.5937500000000017
 40
0.6250000000000018
 40
0.6250000000000018
 40
0.6562500000000019
 40
0.6562500000000019
 40
0.687500000000002
 40
0.687500000000002
 40
0.7031250000000018
 40
0.7031250000000018
 40
0.7187500000000016
 40
0.7187500000000016
 40
0.7343750000000013
 40
0.7343750000000013
 40
0.750000000000001
 40
0.750000000000001
 40
0.7812500000000006
 40
0.7812500000000006
 40
0.8125000000000001
 40
0.8125000000000001
 40
0.8437499999999997
 40
0.8437499999999997
 40
0.8749999999999992
 40
0.8749999999999992
 40
0.890624999999999
 40
0.890624999999999
 40
0.9062499999999988
 40
0.9062499999999988
 40
0.9374999999999982
 40
0.9374999999999982
 40
0.9531249999999987
 40
0.9531249999999987
 40
0.9687499999999991
 40
0.9687499999999991
 40
1.0
 40
1.0
 40
1.031249999999999
 40
1.031249999999999
 10
224.1646958720834
 20
99.45206412275107
 30
0.0
 10
222.8859533274088
 20
99.45206412275107
 30
0.0
 10
222.2569109885728
 20
99.51003036790168
 30
0.0
 10
221.3282162883162
 20
99.68086252125458
 30
0.0
 10
221.0211471116808
 20
99.75189451973915
 30
0.0
 10
220.4121051729531
 20
99.92290879034073
 30
0.0
 10
220.108774448023
 20
100.0235210222158
 30
0.0
 10
219.2242991674734
 20
100.3639443571627
 30
0.0
 10
218.6640994146282
 20
100.6426139750774
 30
0.0
 10
217.6019441818383
 20
101.3044951566436
 30
0.0
 10
217.0959260361908
 20
101.6926230365788
 30
0.0
 10
216.1846649926258
 20
102.5485675544353
 30
0.0
 10
215.7748604061436
 20
103.017824537179
 30
0.0
 10
215.2303669905878
 20
103.7865398771979
 30
0.0
 10
215.0598241469328
 20
104.0553247365265
 30
0.0
 10
214.7498428258474
 20
104.6044848075216
 30
0.0
 10
214.6097974201348
 20
104.8853621139557
 30
0.0
 10
214.2336409468629
 20
105.7466992965986
 30
0.0
 10
214.0409811871743
 20
106.345824756662
 30
0.0
 10
213.7787946979435
 20
107.5964583479661
 30
0.0
 10
213.7141182449441
 20
108.224705472242
 30
0.0
 10
213.7129568651223
 20
109.1713250899037
 30
0.0
 10
213.7286767189188
 20
109.4875785118732
 30
0.0
 10
213.7933001915176
 20
110.1215537487509
 30
0.0
 10
213.8422795652947
 20
110.4378895587441
 30
0.0
 10
214.0353183904398
 20
111.3666831296971
 30
0.0
 10
214.2256090108323
 20
111.9662448085403
 30
0.0
 10
214.6037421222778
 20
112.8364315999308
 30
0.0
 10
214.7458002257392
 20
113.1219543346994
 30
0.0
 10
215.0547187474846
 20
113.6705235407413
 30
0.0
 10
215.2222270352418
 20
113.9352552875292
 30
0.0
 10
215.5828051755906
 20
114.4462090137317
 30
0.0
 10
215.7758764684371
 20
114.6924295877766
 30
0.0
 10
216.1878243327678
 20
115.1664048701739
 30
0.0
 10
216.4079254976648
 20
115.395188565146
 30
0.0
 10
217.0951407790625
 20
116.0413079607757
 30
0.0
 10
217.5905155731185
 20
116.4216694997587
 30
0.0
 10
218.6540618640056
 20
117.0863384161258
 30
0.0
 10
219.2265653731663
 20
117.3711282838597
 30
0.0
 10
220.3997673450264
 20
117.8227910211254
 30
0.0
 10
221.005166893408
 20
117.993452771296
 30
0.0
 10
221.9419378938403
 20
118.1665406408934
 30
0.0
 10
222.2594454390576
 20
118.2101746512038
 30
0.0
 10
222.8907491110706
 20
118.2677570108814
 30
0.0
 10
223.2062020030845
 20
118.2820753059348
 30
0.0
 10
224.1519742435319
 20
118.2824244355661
 30
0.0
 10
224.7834288658607
 20
118.2259724581658
 30
0.0
 10
226.0375977038746
 20
117.9955693807967
 30
0.0
 10
226.6435836062236
 20
117.8250035533082
 30
0.0
 10
227.5219854930131
 20
117.4877232679922
 30
0.0
 10
227.8096542218734
 20
117.3616239323464
 30
0.0
 10
228.3744737116156
 20
117.0811157877593
 30
0.0
 10
228.6524720555254
 20
116.9260063820985
 30
0.0
 10
229.4528423988695
 20
116.4270363164191
 30
0.0
 10
229.9475242385971
 20
116.0475290695599
 30
0.0
 10
230.859371304325
 20
115.1927537575722
 30
0.0
 10
231.2790617365229
 20
114.712154885105
 30
0.0
 10
232.0019174300134
 20
113.6909389313314
 30
0.0
 10
232.3100471724464
 20
113.1471528383924
 30
0.0
 10
232.6899257386066
 20
112.2791760222516
 30
0.0
 10
232.8029374750507
 20
111.9798325109248
 30
0.0
 10
232.9954523354086
 20
111.3774373583328
 30
0.0
 10
233.0757610022904
 20
111.0728578106514
 30
0.0
 10
233.2049991002983
 20
110.4570070219367
 30
0.0
 10
233.2539290082319
 20
110.1457359386077
 30
0.0
 10
233.3199152367084
 20
109.5163730144015
 30
0.0
 10
233.3369455173332
 20
109.1964450277627
 30
0.0
 10
233.3380277132506
 20
108.2398738457568
 30
0.0
 10
233.2734764584437
 20
107.6120020996164
 30
0.0
 10
233.0174281314284
 20
106.3753129195906
 30
0.0
 10
232.8227193482039
 20
105.7622507136428
 30
0.0
 10
232.3212224851142
 20
104.6090123694891
 30
0.0
 10
232.0140161478385
 20
104.0622457703433
 30
0.0
 10
231.2846851940269
 20
103.0282545179273
 30
0.0
 10
230.8718911376186
 20
102.5549441675297
 30
0.0
 10
230.1894844382131
 20
101.9127283504546
 30
0.0
 10
229.9511061421209
 20
101.7096243576656
 30
0.0
 10
229.4521614021111
 20
101.3254422357241
 30
0.0
 10
229.1912277080451
 20
101.1443675474235
 30
0.0
 10
228.3915041700595
 20
100.645075406952
 30
0.0
 10
227.8307980501492
 20
100.3660960627984
 30
0.0
 10
226.9487874761034
 20
100.0259651806936
 30
0.0
 10
226.6464901854407
 20
99.92536383067254
 30
0.0
 10
226.0347762252422
 20
99.75315642141197
 30
0.0
 10
225.7265637978306
 20
99.68172330709605
 30
0.0
 10
224.7950360476427
 20
99.51006881919497
 30
0.0
 10
224.1646958720834
 20
99.45206412275107
 30
0.0
 10
222.8859533274088
 20
99.45206412275107
 30
0.0
  0
LINE
  5
12C
330
1F
100
AcDbEntity
  8
0
  6
HIDDEN
 62
     7
370
     0
100
AcDbLine
 10
101.6333917683
 20
133.3258179234
 30
0.0
 11
101.6333917683
 21
128.7171282611
 31
0.0
  0
ARC
  5
12D
330
1F
100
AcDbEntity
  8
0
  6
HIDDEN
 62
     7
370
     0
100
AcDbCircle
 10
95.3052802391
 20
121.3660487079
 30
0.0
 40
3.679671107484544
100
AcDbArc
 50
265.6366231594
 51
11.9475363038
  0
ARC
  5
12E
330
1F
100
AcDbEntity
  8
0
  6
HIDDEN
 62
     7
370
     0
100
AcDbCircle
 10
94.7421137781
 20
121.3581438125
 30
0.0
 40
3.672038798844952
100
AcDbArc
 50
166.4655616651
 51
274.4234051753
  0
LINE
  5
12F
330
1F
100
AcDbEntity
  8
0
  6
HIDDEN
 62
     7
370
     0
100
AcDbLine
 10
75.0204748043
 20
85.3425286382
 30
0.0
 11
74.4863293752
 21
85.2879140387
 31
0.0
  0
LINE
  5
130
330
1F
100
AcDbEntity
  8
0
  6
HIDDEN
 62
     7
370
     0
100
AcDbLine
 10
74.2486757032
 20
132.4704614416
 30
0.0
 11
75.020382084
 21
132.391711291
 31
0.0
  0
SPLINE
  5
131
330
1F
100
AcDbEntity
  8
0
  6
HIDDEN
 62
     7
370
     0
100
AcDbSpline
210
0.0
220
0.0
230
1.0
 70
     8
 71
     3
 72
    15
 73
    11
 74
     0
 42
0.00000001
 43
0.00000001
 40
0.0
 40
0.0
 40
0.0
 40
0.0
 40
0.1100725557967514
 40
0.2209193073925801
 40
0.3341940650369056
 40
0.4483033854169513
 40
0.5583989047105237
 40
0.7822969351829352
 40
0.8963600969128664
 40
1.0
 40
1.0
 40
1.0
 40
1.0
 10
80.78032660134777
 20
128.7046567368835
 30
0.0
 10
80.84792058781106
 20
128.7137249909751
 30
0.0
 10
80.98358398333494
 20
128.7319252807627
 30
0.0
 10
81.16402940792122
 20
128.7526463360855
 30
0.0
 10
81.3261781826869
 20
128.7693860214463
 30
0.0
 10
81.46422932844082
 20
128.7819681332727
 30
0.0
 10
81.61587004489628
 20
128.7943469330977
 30
0.0
 10
81.71731570422325
 20
128.801304218791
 30
0.0
 10
81.76872943959224
 20
128.8046008613384
 30
0.0
 10
81.77268424869773
 20
128.8048461662394
 30
0.0
 10
81.77456697842763
 20
128.8049629462957
 30
0.0
  0
SPLINE
  5
132
330
1F
100
AcDbEntity
  8
0
  6
HIDDEN
 62
     7
370
     0
100
AcDbSpline
210
0.0
220
0.0
230
1.0
 70
     8
 71
     3
 72
    17
 73
    13
 74
     0
 42
0.00000001
 43
0.00000001
 40
0.0
 40
0.0
 40
0.0
 40
0.0
 40
0.0070264457700147
 40
0.118362834016731
 40
0.2321131072125728
 40
0.3466980550975048
 40
0.4574104417636818
 40
0.5688952414244477
 40
0.6828239908097952
 40
0.7976023154540385
 40
0.8985035503129117
 40
0.9999999999999999
 40
0.9999999999999999
 40
0.9999999999999999
 40
0.9999999999999999
 10
81.77456459018981
 20
88.92929372670903
 30
0.0
 10
81.77481647765678
 20
88.92927781977407
 30
0.0
 10
81.77905960646216
 20
88.92900986212307
 30
0.0
 10
81.7631397166156
 20
88.93000673119825
 30
0.0
 10
81.7241238932907
 20
88.93252327953599
 30
0.0
 10
81.65567175061473
 20
88.93722088977832
 30
0.0
 10
81.56291978145906
 20
88.94417075634871
 30
0.0
 10
81.4456282099621
 20
88.95390024093231
 30
0.0
 10
81.30279156778461
 20
88.96714724785514
 30
0.0
 10
81.14124217735815
 20
88.98413433636246
 30
0.0
 10
80.96743883652775
 20
89.00442697681561
 30
0.0
 10
80.84281950734515
 20
89.02119241440332
 30
0.0
 10
80.78032660134775
 20
89.02959978525057
 30
0.0
  0
SPLINE
  5
133
330
1F
100
AcDbEntity
  8
0
  6
HIDDEN
 62
     7
370
     0
100
AcDbSpline
210
0.0
220
0.0
230
1.0
 70
     8
 71
     3
 72
    22
 73
    18
 74
     0
 42
0.00000001
 43
0.00000001
 40
0.0
 40
0.0
 40
0.0
 40
0.0
 40
0.069470503305567
 40
0.1409377255045835
 40
0.210413548914841
 40
0.2819466223559928
 40
0.3506518733998513
 40
0.4213897814436845
 40
0.4894670043894698
 40
0.5594810940348494
 40
0.6282706827033766
 40
0.6989997382187428
 40
0.7687375408512302
 40
0.8405098102584779
 40
0.9099666189318144
 40
0.9814998892127903
 40
1.0
 40
1.0
 40
1.0
 40
1.0
 10
80.78032660134775
 20
89.02959978525057
 30
0.0
 10
80.6321527468884
 20
89.04932612505989
 30
0.0
 10
80.33154622997726
 20
89.08934577848066
 30
0.0
 10
79.79665136729652
 20
89.14471944201054
 30
0.0
 10
79.21101281462775
 20
89.18917582713834
 30
0.0
 10
78.59678015505442
 20
89.2168608025905
 30
0.0
 10
77.96286350968614
 20
89.22511405606038
 30
0.0
 10
77.34071480911436
 20
89.2131340011799
 30
0.0
 10
76.73471733925372
 20
89.18238324741894
 30
0.0
 10
76.17022841812721
 20
89.13691727666873
 30
0.0
 10
75.65085218054553
 20
89.08083612486914
 30
0.0
 10
75.19798668286411
 20
89.02084596255075
 30
0.0
 10
74.81927153919843
 20
88.96286604819181
 30
0.0
 10
74.53118641812331
 20
88.9139472400453
 30
0.0
 10
74.34872852157069
 20
88.88091187751957
 30
0.0
 10
74.26807057023665
 20
88.86577208126393
 30
0.0
 10
74.28236044893549
 20
88.86844403463692
 30
0.0
 10
74.28529674140756
 20
88.86899306914871
 30
0.0
  0
SPLINE
  5
134
330
1F
100
AcDbEntity
  8
0
  6
HIDDEN
 62
     7
370
     0
100
AcDbSpline
210
0.0
220
0.0
230
1.0
 70
     8
 71
     3
 72
    30
 73
    26
 74
     0
 42
0.00000001
 43
0.00000001
 40
0.0
 40
0.0
 40
0.0
 40
0.0
 40
0.0156161600804337
 40
0.0849748372628082
 40
0.1203204532886746
 40
0.15431851909124
 40
0.2234436946574013
 40
0.2586467089786606
 40
0.2931107206687011
 40
0.3631864361325603
 40
0.3988795186727328
 40
0.4336750628309723
 40
0.4687145712104809
 40
0.5045294144990544
 40
0.5406151111978532
 40
0.5750767863722916
 40
0.6452033649630275
 40
0.6809575734718859
 40
0.7149323277721685
 40
0.784033058295527
 40
0.8192378401372485
 40
0.8533347063218409
 40
0.9226550151093995
 40
0.9579547149334489
 40
1.0
 40
1.0
 40
1.0
 40
1.0
 10
74.27844198093175
 20
128.8665439931749
 30
0.0
 10
74.27784424184667
 20
128.8666562460566
 30
0.0
 10
74.27459166367
 20
128.8672670665339
 30
0.0
 10
74.32491256611833
 20
128.8578079320768
 30
0.0
 10
74.42521759515962
 20
128.8395030959806
 30
0.0
 10
74.5598345832293
 20
128.8155197906069
 30
0.0
 10
74.74189322825937
 20
128.7844209964604
 30
0.0
 10
74.96881580192465
 20
128.7485018524181
 30
0.0
 10
75.22540220730203
 20
128.710182831279
 30
0.0
 10
75.52343886577471
 20
128.6699376959707
 30
0.0
 10
75.85598811977445
 20
128.6312766725684
 30
0.0
 10
76.12118582517873
 20
128.6038740138372
 30
0.0
 10
76.40024365043767
 20
128.578829177225
 30
0.0
 10
76.69469466633184
 20
128.5566614799295
 30
0.0
 10
76.99755959964808
 20
128.5384993926595
 30
0.0
 10
77.40794558651685
 20
128.5202412876651
 30
0.0
 10
77.82878642547163
 20
128.5113940536607
 30
0.0
 10
78.2486903427006
 20
128.5128594481018
 30
0.0
 10
78.6633048635543
 20
128.5209028412691
 30
0.0
 10
79.06952598303016
 20
128.5384096268684
 30
0.0
 10
79.45905648275212
 20
128.5639749398963
 30
0.0
 10
79.83587718399048
 20
128.5941591756104
 30
0.0
 10
80.18901434369444
 20
128.6300567504579
 30
0.0
 10
80.53076583151604
 20
128.6708750283165
 30
0.0
 10
80.69243959252562
 20
128.692759941883
 30
0.0
 10
80.78032660134777
 20
128.7046567368835
 30
0.0
  0
LINE
  5
135
330
1F
100
AcDbEntity
  8
0
  6
HIDDEN
 62
     7
370
     0
100
AcDbLine
 10
68.029299196
 20
91.8671282611
 30
0.0
 11
68.029299196
 21
125.8671282611
 31
0.0
  0
LWPOLYLINE
  5
136
330
1F
100
AcDbEntity
  8
0
  6
HIDDEN
 62
     7
370
     0
100
AcDbPolyline
 90
       12
 70
   128
 43
0.0
 10
95.0253245997
 20
130.8127306757
 10
95.9477880827
 20
130.8666409345
 10
96.8205213205
 20
131.0254653951
 10
97.5964750385
 20
131.2806417895
 10
98.2338173708
 20
131.6184134923
 10
98.6981890273
 20
132.0205711436
 10
98.9645556118
 20
132.4654343204
 10
99.0185572328
 20
132.9290203335
 10
98.857282649
 20
133.3863371411
 10
98.4894262149
 20
133.8127306757
 10
97.934819166
 20
134.1852139514
 10
97.3904739426
 20
134.4256526039
  0
LWPOLYLINE
  5
137
330
1F
100
AcDbEntity
  8
0
  6
HIDDEN
 62
     7
370
     0
100
AcDbPolyline
 90
       12
 70
   128
 43
0.0
 10
92.6530632308
 20
134.4230393416
 10
92.1158300335
 20
134.1852139514
 10
91.5612229846
 20
133.8127306757
 10
91.1933665505
 20
133.3863371411
 10
91.0320919667
 20
132.9290203335
 10
91.0860935877
 20
132.4654343204
 10
91.3524601722
 20
132.0205711436
 10
91.8168318287
 20
131.6184134923
 10
92.454174161
 20
131.2806417895
 10
93.2301278789
 20
131.0254653951
 10
94.1028611168
 20
130.8666409345
 10
95.0253245997
 20
130.8127306757
  0
SPLINE
  5
138
330
1F
100
AcDbEntity
  8
0
  6
HIDDEN
 62
     7
370
     0
100
AcDbSpline
210
0.0
220
0.0
230
1.0
 70
     8
 71
     3
 72
    56
 73
    52
 74
     0
 42
0.00000001
 43
0.00000001
 40
-0.062500000000005
 40
-0.062500000000005
 40
0.0
 40
0.0
 40
0.0312499999999983
 40
0.0312499999999983
 40
0.0624999999999966
 40
0.0624999999999966
 40
0.124999999999994
 40
0.124999999999994
 40
0.1562499999999926
 40
0.1562499999999926
 40
0.1874999999999913
 40
0.1874999999999913
 40
0.2499999999999882
 40
0.2499999999999882
 40
0.2812499999999875
 40
0.2812499999999875
 40
0.3124999999999867
 40
0.3124999999999867
 40
0.343749999999986
 40
0.343749999999986
 40
0.3749999999999852
 40
0.3749999999999852
 40
0.4062499999999848
 40
0.4062499999999848
 40
0.4374999999999845
 40
0.4374999999999845
 40
0.4999999999999841
 40
0.4999999999999841
 40
0.5624999999999838
 40
0.5624999999999838
 40
0.5937499999999842
 40
0.5937499999999842
 40
0.6249999999999848
 40
0.6249999999999848
 40
0.6562499999999853
 40
0.6562499999999853
 40
0.6874999999999859
 40
0.6874999999999859
 40
0.7499999999999875
 40
0.7499999999999875
 40
0.8124999999999891
 40
0.8124999999999891
 40
0.8437499999999907
 40
0.8437499999999907
 40
0.8749999999999922
 40
0.8749999999999922
 40
0.9062499999999938
 40
0.9062499999999938
 40
0.937499999999995
 40
0.937499999999995
 40
1.0
 40
1.0
 40
1.031249999999998
 40
1.031249999999998
 10
192.0441649195935
 20
92.96106640813981
 30
0.0
 10
192.2030235849778
 20
92.96547986741366
 30
0.0
 10
192.2531231120509
 20
92.97663294618805
 30
0.0
 10
192.3445272235968
 20
93.01922281093303
 30
0.0
 10
192.3862621524698
 20
93.05124403293169
 30
0.0
 10
192.488936674823
 20
93.17889297866854
 30
0.0
 10
192.5277498793047
 20
93.30949278355811
 30
0.0
 10
192.5239255330282
 20
93.55522369700844
 30
0.0
 10
192.5124572995452
 20
93.64679430345494
 30
0.0
 10
192.471779142557
 20
93.83671272626584
 30
0.0
 10
192.442272042662
 20
93.93722253645385
 30
0.0
 10
192.3335900521162
 20
94.24286293250833
 30
0.0
 10
192.2341171791379
 20
94.45246900671879
 30
0.0
 10
192.075012457736
 20
94.75757033250439
 30
0.0
 10
192.0195878718243
 20
94.85927228012405
 30
0.0
 10
191.9120218709479
 20
95.05803557195621
 30
0.0
 10
191.8598374641227
 20
95.15504385506482
 30
0.0
 10
191.7659119517733
 20
95.34708515824585
 30
0.0
 10
191.7235897587926
 20
95.44376293200182
 30
0.0
 10
191.6665270438242
 20
95.6280446078236
 30
0.0
 10
191.652136411586
 20
95.71761172293587
 30
0.0
 10
191.6605793032542
 20
95.87592731217269
 30
0.0
 10
191.6830668593269
 20
95.94637027065438
 30
0.0
 10
191.7499151293068
 20
96.06304344987579
 30
0.0
 10
191.7939134447911
 20
96.11064222212795
 30
0.0
 10
191.9390050615376
 20
96.22495924214815
 30
0.0
 10
192.0494541911936
 20
96.2631369773167
 30
0.0
 10
192.2560975777036
 20
96.26756016091637
 30
0.0
 10
192.349341080876
 20
96.23354803647614
 30
0.0
 10
192.4531867288692
 20
96.11239211717292
 30
0.0
 10
192.480356437363
 20
96.06146140486388
 30
0.0
 10
192.5171412624807
 20
95.93627794800095
 30
0.0
 10
192.5262683173644
 20
95.86206514222721
 30
0.0
 10
192.5242218728262
 20
95.69796887235135
 30
0.0
 10
192.512941208882
 20
95.60565618722607
 30
0.0
 10
192.4724984351056
 20
95.41313564429839
 30
0.0
 10
192.4432388123936
 20
95.3114814061923
 30
0.0
 10
192.3354358244858
 20
95.00112990674364
 30
0.0
 10
192.237388739447
 20
94.78862057740834
 30
0.0
 10
192.0306648981031
 20
94.37940834025935
 30
0.0
 10
191.9181249948481
 20
94.17727991524313
 30
0.0
 10
191.7774565413168
 20
93.88644490275327
 30
0.0
 10
191.7347774221217
 20
93.78974312797291
 30
0.0
 10
191.6734679831211
 20
93.60363526789462
 30
0.0
 10
191.6552207726679
 20
93.51297548833851
 30
0.0
 10
191.6559713128499
 20
93.35018651538181
 30
0.0
 10
191.6749577011639
 20
93.27765013134592
 30
0.0
 10
191.7389898496412
 20
93.1572373240388
 30
0.0
 10
191.7827395475965
 20
93.10921065846625
 30
0.0
 10
191.9305419941078
 20
92.99507157614595
 30
0.0
 10
192.0441649195935
 20
92.96106640813981
 30
0.0
 10
192.2030235849778
 20
92.96547986741366
 30
0.0
  0
SPLINE
  5
139
330
1F
100
AcDbEntity
  8
0
  6
HIDDEN
 62
     7
370
     0
100
AcDbSpline
210
0.0
220
0.0
230
1.0
 70
     8
 71
     3
 72
    60
 73
    56
 74
     0
 42
0.00000001
 43
0.00000001
 40
-0.0624999999999984
 40
-0.0624999999999984
 40
0.0
 40
0.0
 40
0.031250000000001
 40
0.031250000000001
 40
0.0625000000000019
 40
0.0625000000000019
 40
0.0937500000000029
 40
0.0937500000000029
 40
0.125000000000004
 40
0.125000000000004
 40
0.1875000000000061
 40
0.1875000000000061
 40
0.2500000000000082
 40
0.2500000000000082
 40
0.281250000000009
 40
0.281250000000009
 40
0.3125000000000097
 40
0.3125000000000097
 40
0.3437500000000104
 40
0.3437500000000104
 40
0.3750000000000112
 40
0.3750000000000112
 40
0.4062500000000119
 40
0.4062500000000119
 40
0.4375000000000127
 40
0.4375000000000127
 40
0.4687500000000134
 40
0.4687500000000134
 40
0.5000000000000142
 40
0.5000000000000142
 40
0.5625000000000123
 40
0.5625000000000123
 40
0.5937500000000114
 40
0.5937500000000114
 40
0.6250000000000105
 40
0.6250000000000105
 40
0.6562500000000097
 40
0.6562500000000097
 40
0.6875000000000087
 40
0.6875000000000087
 40
0.7187500000000078
 40
0.7187500000000078
 40
0.7500000000000069
 40
0.7500000000000069
 40
0.781250000000006
 40
0.781250000000006
 40
0.812500000000005
 40
0.812500000000005
 40
0.8437500000000041
 40
0.8437500000000041
 40
0.8750000000000032
 40
0.8750000000000032
 40
0.9375000000000016
 40
0.9375000000000016
 40
1.0
 40
1.0
 40
1.031250000000001
 40
1.031250000000001
 10
190.2606306033921
 20
98.51311604324316
 30
0.0
 10
190.6576715979232
 20
98.51311604324317
 30
0.0
 10
190.7877657961052
 20
98.5208446517186
 30
0.0
 10
191.0436456830932
 20
98.55126977661594
 30
0.0
 10
191.1707724765785
 20
98.57434719816781
 30
0.0
 10
191.4128709160389
 20
98.63501919319337
 30
0.0
 10
191.5276629588597
 20
98.67233443770562
 30
0.0
 10
191.7449109391397
 20
98.76150753469955
 30
0.0
 10
191.8476129843875
 20
98.81378506793018
 30
0.0
 10
192.1238615241849
 20
98.98744859463025
 30
0.0
 10
192.2728099162281
 20
99.13052289254544
 30
0.0
 10
192.4724380343093
 20
99.45032309797377
 30
0.0
 10
192.525175646092
 20
99.63060091108534
 30
0.0
 10
192.5253985912851
 20
99.9077351988946
 30
0.0
 10
192.5123681818554
 20
100.0030499398279
 30
0.0
 10
192.4612610663121
 20
100.1900736462292
 30
0.0
 10
192.4234495200978
 20
100.2823571912262
 30
0.0
 10
192.3231230314376
 20
100.4640138883732
 30
0.0
 10
192.2605895892299
 20
100.5528138650858
 30
0.0
 10
192.1159434824171
 20
100.719226202615
 30
0.0
 10
192.0331143005565
 20
100.7980061806551
 30
0.0
 10
191.8468477354044
 20
100.9444453040507
 30
0.0
 10
191.7460714675704
 20
101.0100697091541
 30
0.0
 10
191.5297072952161
 20
101.1258972984885
 30
0.0
 10
191.4126982933083
 20
101.1765149063271
 30
0.0
 10
191.1707446206701
 20
101.2578454439946
 30
0.0
 10
191.0460890361712
 20
101.2887727301928
 30
0.0
 10
190.7894084272108
 20
101.3307222704484
 30
0.0
 10
190.6567198227351
 20
101.3415015955811
 30
0.0
 10
190.2648589959831
 20
101.3416259439373
 30
0.0
 10
190.0013051911619
 20
101.2984583526118
 30
0.0
 10
189.6401388603325
 20
101.1773468038885
 30
0.0
 10
189.5235633576611
 20
101.1271771534355
 30
0.0
 10
189.3053049297554
 20
101.0105806276409
 30
0.0
 10
189.2047087525193
 20
100.9449844058496
 30
0.0
 10
189.0201759935367
 20
100.8002534284945
 30
0.0
 10
188.9357194280145
 20
100.7202718269323
 30
0.0
 10
188.7906111179336
 20
100.5535676973748
 30
0.0
 10
188.7290547980543
 20
100.4663587305949
 30
0.0
 10
188.6282869850358
 20
100.2847380452768
 30
0.0
 10
188.5897172916078
 20
100.1908952473938
 30
0.0
 10
188.5385821326803
 20
100.0045300896917
 30
0.0
 10
188.5254350228009
 20
99.91081273819003
 30
0.0
 10
188.5252155551154
 20
99.72385846367376
 30
0.0
 10
188.5380824398594
 20
99.63333145039826
 30
0.0
 10
188.5887911489419
 20
99.45779641557647
 30
0.0
 10
188.6272919666968
 20
99.37190161145726
 30
0.0
 10
188.7274565786725
 20
99.21103264557584
 30
0.0
 10
188.7887851472789
 20
99.13589055067968
 30
0.0
 10
188.9338622662283
 20
98.99542943071626
 30
0.0
 10
189.0180518883411
 20
98.93015554958181
 30
0.0
 10
189.2940075329512
 20
98.75643685210774
 30
0.0
 10
189.5167239547585
 20
98.66550972333998
 30
0.0
 10
189.997701388226
 20
98.54466707542899
 30
0.0
 10
190.2606306033921
 20
98.51311604324316
 30
0.0
 10
190.6576715979232
 20
98.51311604324317
 30
0.0
  0
SPLINE
  5
13A
330
1F
100
AcDbEntity
  8
0
  6
HIDDEN
 62
     7
370
     0
100
AcDbSpline
210
0.0
220
0.0
230
1.0
 70
     8
 71
     3
 72
    28
 73
    24
 74
     0
 42
0.00000001
 43
0.00000001
 40
0.0
 40
0.0
 40
0.0
 40
0.0
 40
0.0625000000000014
 40
0.0625000000000014
 40
0.1250000000000029
 40
0.1250000000000029
 40
0.1875000000000043
 40
0.1875000000000043
 40
0.2500000000000057
 40
0.2500000000000057
 40
0.3750000000000046
 40
0.3750000000000046
 40
0.5000000000000036
 40
0.5000000000000036
 40
0.6250000000000024
 40
0.6250000000000024
 40
0.7500000000000012
 40
0.7500000000000012
 40
0.8125000000000012
 40
0.8125000000000012
 40
0.8750000000000012
 40
0.8750000000000012
 40
1.0
 40
1.0
 40
1.0
 40
1.0
 10
189.0317064450537
 20
94.27846919114175
 30
0.0
 10
189.0011907664531
 20
94.27065974183644
 30
0.0
 10
188.9704153552263
 20
94.26664320366224
 30
0.0
 10
188.9076811921659
 20
94.27037078396054
 30
0.0
 10
188.8752499443702
 20
94.27843335290572
 30
0.0
 10
188.8117106052626
 20
94.31171716062691
 30
0.0
 10
188.7800141199617
 20
94.3374915370774
 30
0.0
 10
188.7210626522648
 20
94.40528314653817
 30
0.0
 10
188.6941335483235
 20
94.4464776588202
 30
0.0
 10
188.6217203378561
 20
94.58281471040038
 30
0.0
 10
188.5861586265488
 20
94.68551150512869
 30
0.0
 10
188.5377092619887
 20
94.88696797837905
 30
0.0
 10
188.5253105999883
 20
94.9867411743387
 30
0.0
 10
188.5253386238828
 20
95.1662063789359
 30
0.0
 10
188.5373115554759
 20
95.24721316691456
 30
0.0
 10
188.5855066761769
 20
95.39935978177155
 30
0.0
 10
188.6212434965828
 20
95.46846724096451
 30
0.0
 10
188.6927871823182
 20
95.58533077324662
 30
0.0
 10
188.7201751274878
 20
95.6276112597735
 30
0.0
 10
188.7787255598113
 20
95.7196291510334
 30
0.0
 10
188.8102913103344
 20
95.77019044003326
 30
0.0
 10
188.9066303403624
 20
95.93130614562384
 30
0.0
 10
188.9702881634098
 20
96.04622583239825
 30
0.0
 10
189.0317064450539
 20
96.15948211399657
 30
0.0
  0
SPLINE
  5
13B
330
1F
100
AcDbEntity
  8
0
  6
HIDDEN
 62
     7
370
     0
100
AcDbSpline
210
0.0
220
0.0
230
1.0
 70
     8
 71
     3
 72
    16
 73
    12
 74
     0
 42
0.00000001
 43
0.00000001
 40
0.0
 40
0.0
 40
0.0
 40
0.0
 40
0.2499999999999967
 40
0.2499999999999967
 40
0.3749999999999978
 40
0.3749999999999978
 40
0.499999999999999
 40
0.499999999999999
 40
0.7499999999999996
 40
0.7499999999999996
 40
1.0
 40
1.0
 40
1.0
 40
1.0
 10
189.0317064450539
 20
96.15948211399657
 30
0.0
 10
189.1139403344299
 20
96.13804738118334
 30
0.0
 10
189.1952900892682
 20
96.09607331518896
 30
0.0
 10
189.2974698839171
 20
95.995077620927
 30
0.0
 10
189.3272757630496
 20
95.95549106674733
 30
0.0
 10
189.3726102722529
 20
95.86312142951822
 30
0.0
 10
189.3880097806094
 20
95.8093308226917
 30
0.0
 10
189.4032312189127
 20
95.63472426211621
 30
0.0
 10
189.3704312421578
 20
95.49623750132203
 30
0.0
 10
189.2589375695563
 20
95.21297789310883
 30
0.0
 10
189.1827849883641
 20
95.06553558748101
 30
0.0
 10
189.1038814699706
 20
94.91489837861319
 30
0.0
  0
SPLINE
  5
13C
330
1F
100
AcDbEntity
  8
0
  6
HIDDEN
 62
     7
370
     0
100
AcDbSpline
210
0.0
220
0.0
230
1.0
 70
     8
 71
     3
 72
    28
 73
    24
 74
     0
 42
0.00000001
 43
0.00000001
 40
0.0
 40
0.0
 40
0.0
 40
0.0
 40
0.0625000000000013
 40
0.0625000000000013
 40
0.1250000000000026
 40
0.1250000000000026
 40
0.1875000000000038
 40
0.1875000000000038
 40
0.2500000000000051
 40
0.2500000000000051
 40
0.3750000000000028
 40
0.3750000000000028
 40
0.5000000000000004
 40
0.5000000000000004
 40
0.6249999999999981
 40
0.6249999999999981
 40
0.7499999999999958
 40
0.7499999999999958
 40
0.8124999999999972
 40
0.8124999999999972
 40
0.8749999999999988
 40
0.8749999999999988
 40
1.0
 40
1.0
 40
1.0
 40
1.0
 10
189.1038814699707
 20
94.91489837861336
 30
0.0
 10
189.0684382561134
 20
94.92290368178878
 30
0.0
 10
189.0328472341433
 20
94.92694489320209
 30
0.0
 10
188.9605389489481
 20
94.92255258245468
 30
0.0
 10
188.9232605699927
 20
94.91380830673693
 30
0.0
 10
188.8502343237206
 20
94.87703196200691
 30
0.0
 10
188.813644906109
 20
94.8480799540918
 30
0.0
 10
188.7464628128073
 20
94.77144861247417
 30
0.0
 10
188.7156954252656
 20
94.72406835030539
 30
0.0
 10
188.6343290967365
 20
94.5693691043485
 30
0.0
 10
188.5946482407318
 20
94.45343143226559
 30
0.0
 10
188.5397848848714
 20
94.22805911009802
 30
0.0
 10
188.525322752138
 20
94.11735756579827
 30
0.0
 10
188.5253264477189
 20
93.92380162858221
 30
0.0
 10
188.5398256692933
 20
93.83861436975934
 30
0.0
 10
188.5946358963687
 20
93.69106034062526
 30
0.0
 10
188.6342787216019
 20
93.62824790941656
 30
0.0
 10
188.7155857418605
 20
93.5159610522698
 30
0.0
 10
188.7463197786718
 20
93.4751912722094
 30
0.0
 10
188.8130262573872
 20
93.38274210318217
 30
0.0
 10
188.8498525364122
 20
93.32960644339563
 30
0.0
 10
188.9591136834526
 20
93.16390437270967
 30
0.0
 10
189.0327369822466
 20
93.04289411606779
 30
0.0
 10
189.10388146997
 20
92.92517506678547
 30
0.0
  0
SPLINE
  5
13D
330
1F
100
AcDbEntity
  8
0
  6
HIDDEN
 62
     7
370
     0
100
AcDbSpline
210
0.0
220
0.0
230
1.0
 70
     8
 71
     3
 72
    18
 73
    14
 74
     0
 42
0.00000001
 43
0.00000001
 40
0.0
 40
0.0
 40
0.0
 40
0.0
 40
0.2500000000000004
 40
0.2500000000000004
 40
0.3750000000000018
 40
0.3750000000000018
 40
0.5000000000000032
 40
0.5000000000000032
 40
0.6250000000000047
 40
0.6250000000000047
 40
0.750000000000006
 40
0.750000000000006
 40
1.0
 40
1.0
 40
1.0
 40
1.0
 10
189.1038814699708
 20
92.92517506678585
 30
0.0
 10
189.1827519954217
 20
92.96306028637292
 30
0.0
 10
189.2580682753729
 20
93.02049247766153
 30
0.0
 10
189.3425131592874
 20
93.14389770839807
 30
0.0
 10
189.364993073104
 20
93.19052093002514
 30
0.0
 10
189.3930920359851
 20
93.2967702853132
 30
0.0
 10
189.3981554257263
 20
93.35661253845278
 30
0.0
 10
189.3879953685486
 20
93.4827762820025
 30
0.0
 10
189.3727515647485
 20
93.55091278027452
 30
0.0
 10
189.3273058671519
 20
93.69029483022359
 30
0.0
 10
189.2976667444404
 20
93.76106783614307
 30
0.0
 10
189.1963342423285
 20
93.9779862701286
 30
0.0
 10
189.1139271630591
 20
94.12646318295664
 30
0.0
 10
189.0317064450538
 20
94.278469191142
 30
0.0
  0
LWPOLYLINE
  5
13E
330
1F
100
AcDbEntity
  8
0
  6
HIDDEN
 62
     7
370
     0
100
AcDbPolyline
 90
       20
 70
   128
 43
0.0
 10
190.5253245997
 20
91.1894587314
 10
189.8759256613
 20
91.266084723
 10
189.2968991744
 20
91.4876590828
 10
188.8509916432
 20
91.8301707906
 10
188.5865240679
 20
92.2565033885
 10
188.5321556137
 20
92.7204571241
 10
188.6937779464
 20
93.1717554113
 10
189.0538767784
 20
93.5614930779
 10
189.5734298137
 20
93.8474360005
 10
190.1961354192
 20
93.9985978264
 10
190.8545137803
 20
93.9985978264
 10
191.4772193858
 20
93.8474360005
 10
191.9967724211
 20
93.5614930779
 10
192.3568712531
 20
93.1717554113
 10
192.5184935858
 20
92.7204571241
 10
192.4641251316
 20
92.2565033885
 10
192.1996575563
 20
91.8301707906
 10
191.7537500251
 20
91.4876590828
 10
191.1747235382
 20
91.266084723
 10
190.5253245997
 20
91.1894587314
  0
SPLINE
  5
13F
330
1F
100
AcDbEntity
  8
0
  6
HIDDEN
 62
     7
370
     0
100
AcDbSpline
210
0.0
220
0.0
230
1.0
 70
     8
 71
     3
 72
    11
 73
     7
 74
     0
 42
0.00000001
 43
0.00000001
 40
0.0
 40
0.0
 40
0.0
 40
0.0
 40
0.0005779865010845
 40
0.0005779865010845
 40
0.0005779865010845
 40
0.0011559733324421
 40
0.0011559733324421
 40
0.0011559733324421
 40
0.0011559733324421
 10
55.12532459974617
 20
110.8669688692208
 30
0.0
 10
55.29199185455214
 20
110.8649852298798
 30
0.0
 10
55.4586582842298
 20
110.8629476228773
 30
0.0
 10
55.62532462268162
 20
110.8608361594709
 30
0.0
 10
55.79199105150802
 20
110.8587246949195
 30
0.0
 10
55.95865742514572
 20
110.8565391317632
 30
0.0
 10
56.12532459974616
 20
110.8542565544316
 30
0.0
  0
SPLINE
  5
140
330
1F
100
AcDbEntity
  8
0
  6
HIDDEN
 62
     7
370
     0
100
AcDbSpline
210
0.0
220
0.0
230
1.0
 70
     8
 71
     3
 72
     8
 73
     4
 74
     0
 42
0.00000001
 43
0.00000001
 40
0.0
 40
0.0
 40
0.0
 40
0.0
 40
0.0011564765856722
 40
0.0011564765856722
 40
0.0011564765856722
 40
0.0011564765856722
 10
56.12532459974614
 20
106.8704279588508
 30
0.0
 10
55.79201666917731
 20
106.8695528032675
 30
0.0
 10
55.45868143678512
 20
106.868497952016
 30
0.0
 10
55.12532459974616
 20
106.8673268649784
 30
0.0
  0
LINE
  5
141
330
1F
100
AcDbEntity
  8
0
  6
HIDDEN
 62
     7
370
     0
100
AcDbLine
 10
94.6851505683
 20
91.8671282611
 30
0.0
 11
94.6851505683
 21
125.8671282611
 31
0.0
  0
LINE
  5
142
330
1F
100
AcDbEntity
  8
0
  6
HIDDEN
 62
     7
370
     0
100
AcDbLine
 10
96.9753245997
 20
93.1421282611
 30
0.0
 11
96.9753245997
 21
124.5921282611
 31
0.0
  0
SPLINE
  5
143
330
1F
100
AcDbEntity
  8
0
  6
HIDDEN
 62
     7
370
     0
100
AcDbSpline
210
0.0
220
0.0
230
1.0
 70
     8
 71
     3
 72
    16
 73
    12
 74
     0
 42
0.00000001
 43
0.00000001
 40
0.0
 40
0.0
 40
0.0
 40
0.0
 40
0.124999999999998
 40
0.124999999999998
 40
0.249999999999996
 40
0.249999999999996
 40
0.4999999999999973
 40
0.4999999999999973
 40
0.7499999999999987
 40
0.7499999999999987
 40
1.0
 40
1.0
 40
1.0
 40
1.0
 10
63.82532459974616
 20
93.06563782503538
 30
0.0
 10
63.92044635441199
 20
93.06563782503538
 30
0.0
 10
64.01377642314006
 20
93.06182199164257
 30
0.0
 10
64.19703818387806
 20
93.04705143891276
 30
0.0
 10
64.28791589943506
 20
93.03589339093718
 30
0.0
 10
64.5447175969548
 20
92.99342212079546
 30
0.0
 10
64.6997849618268
 20
92.95237592359267
 30
0.0
 10
64.95353142338143
 20
92.85722980701078
 30
0.0
 10
65.05440187504928
 20
92.80246707292919
 30
0.0
 10
65.18964828974413
 20
92.69120594902533
 30
0.0
 10
65.22532459974616
 20
92.63403621169664
 30
0.0
 10
65.22532459974616
 20
92.5796146386629
 30
0.0
  0
SPLINE
  5
144
330
1F
100
AcDbEntity
  8
0
  6
HIDDEN
 62
     7
370
     0
100
AcDbSpline
210
0.0
220
0.0
230
1.0
 70
     8
 71
     3
 72
     8
 73
     4
 74
     0
 42
0.00000001
 43
0.00000001
 40
0.0
 40
0.0
 40
0.0
 40
0.0
 40
1.0
 40
1.0
 40
1.0
 40
1.0
 10
56.42532460306135
 20
95.21044077111762
 30
0.0
 10
56.42532460306328
 20
94.32654362880069
 30
0.0
 10
56.41184397715349
 20
93.61196038373875
 30
0.0
 10
56.41049260896418
 20
93.06563782503538
 30
0.0
  0
LINE
  5
145
330
1F
100
AcDbEntity
  8
0
  6
HIDDEN
 62
     7
370
     0
100
AcDbLine
 10
56.1253245997
 20
99.2663014687
 30
0.0
 11
56.1253245997
 21
96.2353510368
 31
0.0
  0
LINE
  5
146
330
1F
100
AcDbEntity
  8
0
  6
HIDDEN
 62
     7
370
     0
100
AcDbLine
 10
56.4253246029
 20
112.4717618826
 30
0.0
 11
56.4253246029
 21
100.6341418854
 31
0.0
  0
SPLINE
  5
147
330
1F
100
AcDbEntity
  8
0
  6
HIDDEN
 62
     7
370
     0
100
AcDbSpline
210
0.0
220
0.0
230
1.0
 70
     8
 71
     3
 72
     8
 73
     4
 74
     0
 42
0.00000001
 43
0.00000001
 40
0.0
 40
0.0
 40
0.0
 40
0.0
 40
1.0
 40
1.0
 40
1.0
 40
1.0
 10
56.12532459974614
 20
118.4740675821354
 30
0.0
 10
56.30635606630506
 20
118.0419600964727
 30
0.0
 10
56.42532460293958
 20
117.587814690373
 30
0.0
 10
56.42532460293388
 20
117.100114636679
 30
0.0
  0
LINE
  5
148
330
1F
100
AcDbEntity
  8
0
  6
HIDDEN
 62
     7
370
     0
100
AcDbLine
 10
56.1253245997
 20
121.5072705681
 30
0.0
 11
56.1253245997
 21
118.4740675821
 31
0.0
  0
SPLINE
  5
149
330
1F
100
AcDbEntity
  8
0
  6
HIDDEN
 62
     7
370
     0
100
AcDbSpline
210
0.0
220
0.0
230
1.0
 70
     8
 71
     3
 72
    10
 73
     6
 74
     0
 42
0.00000001
 43
0.00000001
 40
0.0
 40
0.0
 40
0.0
 40
0.0
 40
0.5
 40
0.5
 40
1.0
 40
1.0
 40
1.0
 40
1.0
 10
56.42532460313937
 20
122.5238157509869
 30
0.0
 10
56.42532460313758
 20
122.3591794043809
 30
0.0
 10
56.39816593238208
 20
122.1920241805504
 30
0.0
 10
56.29240093706365
 20
121.8534011727488
 30
0.0
 10
56.21598614876653
 20
121.6811293954577
 30
0.0
 10
56.12532459974617
 20
121.5072705681137
 30
0.0
  0
SPLINE
  5
14A
330
1F
100
AcDbEntity
  8
0
  6
HIDDEN
 62
     7
370
     0
100
AcDbSpline
210
0.0
220
0.0
230
1.0
 70
     8
 71
     3
 72
    18
 73
    14
 74
     0
 42
0.00000001
 43
0.00000001
 40
0.0
 40
0.0
 40
0.0
 40
0.0
 40
0.2500000000000033
 40
0.2500000000000033
 40
0.3750000000000029
 40
0.3750000000000029
 40
0.5000000000000026
 40
0.5000000000000026
 40
0.6250000000000022
 40
0.6250000000000022
 40
0.7500000000000018
 40
0.7500000000000018
 40
1.0
 40
1.0
 40
1.0
 40
1.0
 10
61.22532459974617
 20
125.1546418834712
 30
0.0
 10
61.22532459974615
 20
125.100167362919
 30
0.0
 10
61.19041390835397
 20
125.0437863035665
 30
0.0
 10
61.08840460702093
 20
124.959709462713
 30
0.0
 10
61.04676825234282
 20
124.9323757587221
 30
0.0
 10
60.94836245685408
 20
124.8794218431231
 30
0.0
 10
60.8908192451498
 20
124.8535344894059
 30
0.0
 10
60.76352107157684
 20
124.8057569445727
 30
0.0
 10
60.69393376681938
 20
124.7838090263948
 30
0.0
 10
60.54249952166442
 20
124.7443764614821
 30
0.0
 10
60.45981561857047
 20
124.7268202122562
 30
0.0
 10
60.20370415653242
 20
124.6843814468357
 30
0.0
 10
60.01578915264444
 20
124.6686186970987
 30
0.0
 10
59.82532459974615
 20
124.6686186970987
 30
0.0
  0
LINE
  5
14B
330
1F
100
AcDbEntity
  8
0
  6
HIDDEN
 62
     7
370
     0
100
AcDbLine
 10
59.8253245997
 20
124.6686186971
 30
0.0
 11
56.4253246031
 21
124.6686186971
 31
0.0
  0
LINE
  5
14C
330
1F
100
AcDbEntity
  8
0
  6
HIDDEN
 62
     7
370
     0
100
AcDbLine
 10
56.3563556131
 20
93.065637825
 30
0.0
 11
63.8253245997
 21
93.065637825
 31
0.0
  0
SPLINE
  5
14D
330
1F
100
AcDbEntity
  8
0
  6
HIDDEN
 62
     7
370
     0
100
AcDbSpline
210
0.0
220
0.0
230
1.0
 70
     8
 71
     3
 72
    22
 73
    18
 74
     0
 42
0.00000001
 43
0.00000001
 40
0.0
 40
0.0
 40
0.0
 40
0.0
 40
0.1249999999999998
 40
0.1249999999999998
 40
0.2499999999999995
 40
0.2499999999999995
 40
0.4999999999999992
 40
0.4999999999999992
 40
0.5624999999999993
 40
0.5624999999999993
 40
0.6249999999999994
 40
0.6249999999999994
 40
0.7499999999999996
 40
0.7499999999999996
 40
0.8749999999999998
 40
0.8749999999999998
 40
1.0
 40
1.0
 40
1.0
 40
1.0
 10
56.35635561310408
 20
93.06563782503538
 30
0.0
 10
56.34327322037571
 20
93.32074353518306
 30
0.0
 10
56.33005365693589
 20
93.61390179428696
 30
0.0
 10
56.30760647914176
 20
94.27620225991176
 30
0.0
 10
56.2981280121173
 20
94.64647618052315
 30
0.0
 10
56.27893005118073
 20
95.86903298363694
 30
0.0
 10
56.28004382417763
 20
96.80617190976879
 30
0.0
 10
56.2989546171307
 20
98.1260431392838
 30
0.0
 10
56.30358414498971
 20
98.39754504826011
 30
0.0
 10
56.31406536473567
 20
98.95592988306241
 30
0.0
 10
56.31986062602008
 20
99.24305273900201
 30
0.0
 10
56.33816984692503
 20
100.1156419933737
 30
0.0
 10
56.35220478120538
 20
100.7160976697295
 30
0.0
 10
56.3816619533422
 20
101.9535721622256
 30
0.0
 10
56.39721764432377
 20
102.5905883188691
 30
0.0
 10
56.42101219432066
 20
103.9020769165536
 30
0.0
 10
56.42903124646603
 20
104.5781995282142
 30
0.0
 10
56.42532459974615
 20
105.2624946394989
 30
0.0
  0
LINE
  5
14E
330
1F
100
AcDbEntity
  8
0
  6
HIDDEN
 62
     7
370
     0
100
AcDbLine
 10
56.4253246031
 20
112.4717618826
 30
0.0
 11
56.4253246031
 21
124.6686186971
 31
0.0
  0
SPLINE
  5
14F
330
1F
100
AcDbEntity
  8
0
  6
HIDDEN
 62
     7
370
     0
100
AcDbSpline
210
0.0
220
0.0
230
1.0
 70
     8
 71
     3
 72
    10
 73
     6
 74
     0
 42
0.00000001
 43
0.00000001
 40
0.0
 40
0.0
 40
0.0
 40
0.0
 40
0.5
 40
0.5
 40
1.0
 40
1.0
 40
1.0
 40
1.0
 10
56.42532459974615
 20
105.2624946394838
 30
0.0
 10
56.42532459974598
 20
105.5364097875582
 30
0.0
 10
56.39956536987827
 20
105.8073513662883
 30
0.0
 10
56.29635943714514
 20
106.3430424478912
 30
0.0
 10
56.21902127326992
 20
106.6087892514132
 30
0.0
 10
56.12532459974614
 20
106.8704279588508
 30
0.0
  0
SPLINE
  5
150
330
1F
100
AcDbEntity
  8
0
  6
HIDDEN
 62
     7
370
     0
100
AcDbSpline
210
0.0
220
0.0
230
1.0
 70
     8
 71
     3
 72
    10
 73
     6
 74
     0
 42
0.00000001
 43
0.00000001
 40
0.0
 40
0.0
 40
0.0
 40
0.0
 40
0.5
 40
0.5
 40
1.0
 40
1.0
 40
1.0
 40
1.0
 10
56.12532459974614
 20
110.8542565544316
 30
0.0
 10
56.21855518113716
 20
111.1181503625017
 30
0.0
 10
56.29358479337392
 20
111.3843306731399
 30
0.0
 10
56.39865189255205
 20
111.9226532480981
 30
0.0
 10
56.42532460313824
 20
112.1954013643437
 30
0.0
 10
56.42532460313943
 20
112.4717618826342
 30
0.0
  0
LINE
  5
151
330
1F
100
AcDbEntity
  8
0
  6
HIDDEN
 62
     7
370
     0
100
AcDbLine
 10
56.1253245997
 20
106.8704279589
 30
0.0
 11
56.1253245997
 21
110.8542565544
 31
0.0
  0
ARC
  5
152
330
1F
100
AcDbEntity
  8
0
  6
HIDDEN
 62
     7
370
     0
100
AcDbCircle
 10
209.0128136573
 20
94.6655467605
 30
0.0
 40
19.98485612841161
100
AcDbArc
 50
181.1098052345
 51
184.9959039226
  0
ARC
  5
153
330
1F
100
AcDbEntity
  8
0
  6
HIDDEN
 62
     7
370
     0
100
AcDbCircle
 10
173.9815015172
 20
94.6623165823
 30
0.0
 40
15.12448918149541
100
AcDbArc
 50
0.95689471
 51
5.6809840321
  0
SPLINE
  5
154
330
1F
100
AcDbEntity
  8
0
  6
HIDDEN
 62
     7
370
     0
100
AcDbSpline
210
0.0
220
0.0
230
1.0
 70
     8
 71
     3
 72
    60
 73
    56
 74
     0
 42
0.00000001
 43
0.00000001
 40
-0.0624999999999986
 40
-0.0624999999999986
 40
0.0
 40
0.0
 40
0.0312500000000008
 40
0.0312500000000008
 40
0.0625000000000016
 40
0.0625000000000016
 40
0.0937500000000023
 40
0.0937500000000023
 40
0.125000000000003
 40
0.125000000000003
 40
0.1875000000000046
 40
0.1875000000000046
 40
0.2500000000000061
 40
0.2500000000000061
 40
0.2812500000000069
 40
0.2812500000000069
 40
0.3125000000000077
 40
0.3125000000000077
 40
0.3437500000000084
 40
0.3437500000000084
 40
0.3750000000000092
 40
0.3750000000000092
 40
0.40625000000001
 40
0.40625000000001
 40
0.4375000000000108
 40
0.4375000000000108
 40
0.4687500000000115
 40
0.4687500000000115
 40
0.5000000000000123
 40
0.5000000000000123
 40
0.5625000000000105
 40
0.5625000000000105
 40
0.5937500000000098
 40
0.5937500000000098
 40
0.625000000000009
 40
0.625000000000009
 40
0.6562500000000082
 40
0.6562500000000082
 40
0.6875000000000074
 40
0.6875000000000074
 40
0.7187500000000067
 40
0.7187500000000067
 40
0.7500000000000059
 40
0.7500000000000059
 40
0.7812500000000051
 40
0.7812500000000051
 40
0.8125000000000043
 40
0.8125000000000043
 40
0.8437500000000036
 40
0.8437500000000036
 40
0.8750000000000028
 40
0.8750000000000028
 40
0.9375000000000014
 40
0.9375000000000014
 40
1.0
 40
1.0
 40
1.031250000000001
 40
1.031250000000001
 10
190.7900185961003
 20
116.3927133541447
 30
0.0
 10
190.3929776015691
 20
116.3927133541447
 30
0.0
 10
190.2628834033871
 20
116.4033792787787
 30
0.0
 10
190.007003516399
 20
116.4449727867756
 30
0.0
 10
189.8798767229138
 20
116.4764143251799
 30
0.0
 10
189.6377782834533
 20
116.5578057629141
 30
0.0
 10
189.5229862406326
 20
116.6073824402343
 30
0.0
 10
189.3057382603525
 20
116.7234496390261
 30
0.0
 10
189.2030362151048
 20
116.7904406039411
 30
0.0
 10
188.9267876753073
 20
117.0075386349684
 30
0.0
 10
188.7778392832642
 20
117.1795644372493
 30
0.0
 10
188.5782111651831
 20
117.5401819220199
 30
0.0
 10
188.5254735534002
 20
117.7325015950477
 30
0.0
 10
188.5252506082072
 20
118.0096851472423
 30
0.0
 10
188.5382810176369
 20
118.1020943654964
 30
0.0
 10
188.5893881331802
 20
118.2780371781772
 30
0.0
 10
188.6271996793945
 20
118.3622031252563
 30
0.0
 10
188.7275261680545
 20
118.5233392072696
 30
0.0
 10
188.7900596102624
 20
118.5997528252069
 30
0.0
 10
188.9347057170752
 20
118.7394885071071
 30
0.0
 10
189.0175348989358
 20
118.8038309731926
 30
0.0
 10
189.2038014640878
 20
118.9209776084741
 30
0.0
 10
189.3045777319219
 20
118.972174791014
 30
0.0
 10
189.5209419042762
 20
119.0611793520022
 30
0.0
 10
189.637950906184
 20
119.0992853540503
 30
0.0
 10
189.8799045788222
 20
119.1599115366149
 30
0.0
 10
190.004560163321
 20
119.1826119056357
 30
0.0
 10
190.2612407722814
 20
119.213299539287
 30
0.0
 10
190.3939293767572
 20
119.2211102629034
 30
0.0
 10
190.7857902035091
 20
119.2212006427619
 30
0.0
 10
191.0493440083305
 20
119.1901790012564
 30
0.0
 10
191.4105103391598
 20
119.0999087401329
 30
0.0
 10
191.5270858418311
 20
119.0621545798869
 30
0.0
 10
191.7453442697368
 20
118.9725755086491
 30
0.0
 10
191.845940446973
 20
118.9213921748861
 30
0.0
 10
192.0304732059557
 20
118.8056450793398
 30
0.0
 10
192.1149297714778
 20
118.7403533993708
 30
0.0
 10
192.2600380815587
 20
118.6003987876608
 30
0.0
 10
192.321594401438
 20
118.5253786203854
 30
0.0
 10
192.4223622144565
 20
118.3643545346318
 30
0.0
 10
192.4609319078845
 20
118.2787882872424
 30
0.0
 10
192.512067066812
 20
118.1035083641483
 30
0.0
 10
192.5252141766914
 20
118.0127219362954
 30
0.0
 10
192.525433644377
 20
117.8258161577281
 30
0.0
 10
192.5125667596328
 20
117.7324200282595
 30
0.0
 10
192.4618580505504
 20
117.5458883038153
 30
0.0
 10
192.4233572327955
 20
117.4517286076068
 30
0.0
 10
192.3231926208198
 20
117.2703722597715
 30
0.0
 10
192.2618640522133
 20
117.1830729914845
 30
0.0
 10
192.116786933264
 20
117.0158389773874
 30
0.0
 10
192.0325973111512
 20
116.9359054349495
 30
0.0
 10
191.7566416665411
 20
116.7187705246368
 30
0.0
 10
191.5339252447338
 20
116.5986997982277
 30
0.0
 10
191.0529478112664
 20
116.4366073907381
 30
0.0
 10
190.7900185961003
 20
116.3927133541447
 30
0.0
 10
190.3929776015691
 20
116.3927133541447
 30
0.0
  0
LINE
  5
155
330
1F
100
AcDbEntity
  8
0
  6
HIDDEN
 62
     7
370
     0
100
AcDbLine
 10
188.0253245997
 20
96.4671282611
 30
0.0
 11
188.0253245997
 21
121.2670978054
 31
0.0
  0
LINE
  5
156
330
1F
100
AcDbEntity
  8
0
  6
HIDDEN
 62
     7
370
     0
100
AcDbLine
 10
194.0253245997
 20
115.4815065387
 30
0.0
 11
194.0253245997
 21
121.3671282611
 31
0.0
  0
LINE
  5
157
330
1F
100
AcDbEntity
  8
0
  6
HIDDEN
 62
     7
370
     0
100
AcDbLine
 10
194.0253245997
 20
115.4935206748
 30
0.0
 11
194.0253245997
 21
102.2527499834
 31
0.0
  0
LINE
  5
158
330
1F
100
AcDbEntity
  8
0
  6
HIDDEN
 62
     7
370
     0
100
AcDbLine
 10
194.0253245997
 20
96.3671282611
 30
0.0
 11
194.0253245997
 21
102.2527499834
 31
0.0
  0
LINE
  5
159
330
1F
100
AcDbEntity
  8
0
  6
HIDDEN
 62
     7
370
     0
100
AcDbLine
 10
56.2753245997
 20
90.8771282611
 30
0.0
 11
56.2753245997
 21
87.9971904957
 31
0.0
  0
LINE
  5
15A
330
1F
100
AcDbEntity
  8
0
  6
HIDDEN
 62
     7
370
     0
100
AcDbLine
 10
65.2253245997
 20
90.8771282611
 30
0.0
 11
65.2253245997
 21
86.9033907299
 31
0.0
  0
LINE
  5
15B
330
1F
100
AcDbEntity
  8
0
  6
HIDDEN
 62
     7
370
     0
100
AcDbLine
 10
56.2753245997
 20
126.8571282611
 30
0.0
 11
56.2753245997
 21
129.7370660265
 31
0.0
  0
LINE
  5
15C
330
1F
100
AcDbEntity
  8
0
  6
HIDDEN
 62
     7
370
     0
100
AcDbLine
 10
61.2253245997
 20
126.8571282611
 30
0.0
 11
61.2253245997
 21
130.7112359334
 31
0.0
  0
LINE
  5
15D
330
1F
100
AcDbEntity
  8
0
  6
HIDDEN
 62
     7
370
     0
100
AcDbLine
 10
105.8253245997
 20
99.3671282611
 30
0.0
 11
105.8253245997
 21
118.3671282611
 31
0.0
  0
LINE
  5
15E
330
1F
100
AcDbEntity
  8
0
  6
HIDDEN
 62
     7
370
     0
100
AcDbLine
 10
108.8253245997
 20
99.3671282611
 30
0.0
 11
108.8253245997
 21
118.3671282611
 31
0.0
  0
LINE
  5
15F
330
1F
100
AcDbEntity
  8
0
  6
HIDDEN
 62
     7
370
     0
100
AcDbLine
 10
97.4753245997
 20
100.3671282611
 30
0.0
 11
97.4753245997
 21
117.3671282611
 31
0.0
  0
LINE
  5
160
330
1F
100
AcDbEntity
  8
0
  6
HIDDEN
 62
     7
370
     0
100
AcDbLine
 10
91.9753245997
 20
77.3830052782
 30
0.0
 11
91.9753245997
 21
82.4671282611
 31
0.0
  0
LINE
  5
161
330
1F
100
AcDbEntity
  8
0
  6
HIDDEN
 62
     7
370
     0
100
AcDbLine
 10
99.9753245997
 20
82.4671282611
 30
0.0
 11
91.9753245997
 21
82.4671282611
 31
0.0
  0
LINE
  5
162
330
1F
100
AcDbEntity
  8
0
  6
HIDDEN
 62
     7
370
     0
100
AcDbLine
 10
103.2129994021
 20
82.4671282611
 30
0.0
 11
99.9753245997
 21
82.4671282611
 31
0.0
  0
LINE
  5
163
330
1F
100
AcDbEntity
  8
0
  6
HIDDEN
 62
     7
370
     0
100
AcDbLine
 10
112.9753245997
 20
82.4671282611
 30
0.0
 11
106.8376497974
 21
82.4671282611
 31
0.0
  0
LINE
  5
164
330
1F
100
AcDbEntity
  8
0
  6
HIDDEN
 62
     7
370
     0
100
AcDbLine
 10
99.9753245997
 20
135.2671282611
 30
0.0
 11
91.9753245997
 21
135.2671282611
 31
0.0
  0
LINE
  5
165
330
1F
100
AcDbEntity
  8
0
  6
HIDDEN
 62
     7
370
     0
100
AcDbLine
 10
112.9753245997
 20
135.2671282611
 30
0.0
 11
106.5410270681
 21
135.2671282611
 31
0.0
  0
LINE
  5
166
330
1F
100
AcDbEntity
  8
0
  6
HIDDEN
 62
     7
370
     0
100
AcDbLine
 10
103.5096221314
 20
135.2671282611
 30
0.0
 11
99.9753245997
 21
135.2671282611
 31
0.0
  0
SPLINE
  5
167
330
1F
100
AcDbEntity
  8
0
  6
HIDDEN
 62
     7
370
     0
100
AcDbSpline
210
0.0
220
0.0
230
1.0
 70
     8
 71
     3
 72
    11
 73
     7
 74
     0
 42
0.00000001
 43
0.00000001
 40
0.0
 40
0.0
 40
0.0
 40
0.0
 40
0.0008203708524183
 40
0.0008203708524183
 40
0.0008203708524183
 40
0.0016409967870154
 40
0.0016409967870154
 40
0.0016409967870154
 40
0.0016409967870154
 10
56.27532459974616
 20
93.0150955104243
 30
0.0
 10
56.0841662994475
 20
92.97391648180516
 30
0.0
 10
55.89273922937532
 20
92.93516250957518
 30
0.0
 10
55.70109360585469
 20
92.89879475029662
 30
0.0
 10
55.50938820077424
 20
92.8624156465306
 30
0.0
 10
55.31744924871528
 20
92.82842139576304
 30
0.0
 10
55.12532460164446
 20
92.79677327037183
 30
0.0
  0
ELLIPSE
  5
168
330
1F
100
AcDbEntity
  8
0
  6
HIDDEN
 62
     7
370
     0
100
AcDbEllipse
 10
50.8828927311
 20
108.8671282611
 30
0.0
 11
20.19992453366627
 21
-1.421085471520200E-14
 31
0.0
210
0.0
220
0.0
230
1.0
 40
0.8164965809
 41
1.300566354718001
 42
1.359198697209605
  0
LINE
  5
169
330
1F
100
AcDbEntity
  8
0
  6
HIDDEN
 62
     7
370
     0
100
AcDbLine
 10
65.2253245997
 20
90.8771282611
 30
0.0
 11
65.2253245997
 21
92.5796146387
 31
0.0
  0
LINE
  5
16A
330
1F
100
AcDbEntity
  8
0
  6
HIDDEN
 62
     7
370
     0
100
AcDbLine
 10
56.2753245997
 20
90.8771282611
 30
0.0
 11
56.2753245997
 21
93.0150955104
 31
0.0
  0
LINE
  5
16B
330
1F
100
AcDbEntity
  8
0
  6
HIDDEN
 62
     7
370
     0
100
AcDbLine
 10
56.3563556131
 20
93.065637825
 30
0.0
 11
56.2753245997
 21
93.0150955104
 31
0.0
  0
LINE
  5
16C
330
1F
100
AcDbEntity
  8
0
  6
HIDDEN
 62
     7
370
     0
100
AcDbLine
 10
61.2253245997
 20
126.8571282611
 30
0.0
 11
61.2253245997
 21
125.1546418835
 31
0.0
  0
LINE
  5
16D
330
1F
100
AcDbEntity
  8
0
  6
HIDDEN
 62
     7
370
     0
100
AcDbLine
 10
56.2753245997
 20
126.8571282611
 30
0.0
 11
56.2753245997
 21
124.7617527121
 31
0.0
  0
SPLINE
  5
16E
330
1F
100
AcDbEntity
  8
0
  6
HIDDEN
 62
     7
370
     0
100
AcDbSpline
210
0.0
220
0.0
230
1.0
 70
     8
 71
     3
 72
     8
 73
     4
 74
     0
 42
0.00000001
 43
0.00000001
 40
0.0
 40
0.0
 40
0.0
 40
0.0
 40
1.0
 40
1.0
 40
1.0
 40
1.0
 10
56.27532459974616
 20
124.7617527121257
 30
0.0
 10
56.3253300986899
 20
124.7307169379065
 30
0.0
 10
56.37533016935431
 20
124.699672292879
 30
0.0
 10
56.42532460313943
 20
124.6686186970987
 30
0.0
  0
SPLINE
  5
16F
330
1F
100
AcDbEntity
  8
0
  6
HIDDEN
 62
     7
370
     0
100
AcDbSpline
210
0.0
220
0.0
230
1.0
 70
     8
 71
     3
 72
    20
 73
    16
 74
     0
 42
0.00000001
 43
0.00000001
 40
0.0
 40
0.0
 40
0.0
 40
0.0
 40
0.1119595197684142
 40
0.1774767634647507
 40
0.2490961890179794
 40
0.3298422315093885
 40
0.3986125823881415
 40
0.4998893016461092
 40
0.6138510293005034
 40
0.6790150176761197
 40
0.7495394203319945
 40
0.8296829944212418
 40
0.8981246285268906
 40
0.9995320175861913
 40
1.0
 40
1.0
 40
1.0
 40
1.0
 10
81.77416504960902
 20
85.26713449929923
 30
0.0
 10
81.73084131131047
 20
85.28056381733627
 30
0.0
 10
81.6621650891337
 20
85.30185179629224
 30
0.0
 10
81.21698596308342
 20
85.40516260794074
 30
0.0
 10
80.69042767941365
 20
85.51846583800261
 30
0.0
 10
80.00500265828447
 20
85.64139870579521
 30
0.0
 10
79.11168526098565
 20
85.76343316497967
 30
0.0
 10
77.99832587384802
 20
85.88116947276428
 30
0.0
 10
76.8875517932124
 20
85.89314497513992
 30
0.0
 10
76.00280349130699
 20
85.86608668500858
 30
0.0
 10
75.33560689667328
 20
85.81815462060078
 30
0.0
 10
74.79433439444605
 20
85.76186110823619
 30
0.0
 10
74.4067544353739
 20
85.7167781975974
 30
0.0
 10
74.21281791530481
 20
85.67790502289749
 30
0.0
 10
74.27592037553451
 20
85.68861108013823
 30
0.0
 10
74.27621024776987
 20
85.68866026029275
 30
0.0
  0
LINE
  5
170
330
1F
100
AcDbEntity
  8
0
  6
HIDDEN
 62
     7
370
     0
100
AcDbLine
 10
75.1853365121
 20
85.7994664045
 30
0.0
 11
75.3691818252
 21
85.817655747
 31
0.0
  0
LINE
  5
171
330
1F
100
AcDbEntity
  8
0
  6
HIDDEN
 62
     7
370
     0
100
AcDbLine
 10
75.3691791268
 20
131.9165313439
 30
0.0
 11
75.1951058449
 21
131.9337408699
 31
0.0
  0
SPLINE
  5
172
330
1F
100
AcDbEntity
  8
0
  6
HIDDEN
 62
     7
370
     0
100
AcDbSpline
210
0.0
220
0.0
230
1.0
 70
     8
 71
     3
 72
    20
 73
    16
 74
     0
 42
0.00000001
 43
0.00000001
 40
0.0
 40
0.0
 40
0.0
 40
0.0
 40
0.0004889684280502
 40
0.1018319933926956
 40
0.1702475582150564
 40
0.2503692056770218
 40
0.3209568221796114
 40
0.3861816196721121
 40
0.5002554836817364
 40
0.6012243489302103
 40
0.669768055864141
 40
0.750240190758111
 40
0.8220490693822882
 40
0.8877204546071489
 40
1.0
 40
1.0
 40
1.0
 40
1.0
 10
74.27624363253129
 20
132.0455297152595
 30
0.0
 10
74.27593999153439
 20
132.0455813024097
 30
0.0
 10
74.21270407236881
 20
132.0563247820231
 30
0.0
 10
74.40590810616314
 20
132.0174687913645
 30
0.0
 10
74.79285516107102
 20
131.9724453009598
 30
0.0
 10
75.33386208439735
 20
131.916182338867
 30
0.0
 10
76.00136234586236
 20
131.8682511462728
 30
0.0
 10
76.88719019721573
 20
131.8411776905434
 30
0.0
 10
77.9979967693035
 20
131.853003694123
 30
0.0
 10
79.11006713532676
 20
131.9704527692783
 30
0.0
 10
80.00116744152467
 20
132.0921571575178
 30
0.0
 10
80.68665189233482
 20
132.2149782030924
 30
0.0
 10
81.21463979187236
 20
132.3284164547747
 30
0.0
 10
81.66202374336562
 20
132.4321570104134
 30
0.0
 10
81.73083420972009
 20
132.4535798036906
 30
0.0
 10
81.77425071703327
 20
132.4670966843377
 30
0.0
  0
LINE
  5
173
330
1F
100
AcDbEntity
  8
0
  6
HIDDEN
 62
     7
370
     0
100
AcDbLine
 10
123.4753245997
 20
83.4444785303
 30
0.0
 11
118.4753245997
 21
83.4444785303
 31
0.0
  0
LINE
  5
174
330
1F
100
AcDbEntity
  8
0
  6
HIDDEN
 62
     7
370
     0
100
AcDbLine
 10
120.9753245997
 20
134.2897779919
 30
0.0
 11
123.4753245997
 21
134.2897779919
 31
0.0
  0
LINE
  5
175
330
1F
100
AcDbEntity
  8
0
  6
HIDDEN
 62
     7
370
     0
100
AcDbLine
 10
118.4753245997
 20
134.2897779919
 30
0.0
 11
120.9753245997
 21
134.2897779919
 31
0.0
  0
LINE
  5
176
330
1F
100
AcDbEntity
  8
0
  6
HIDDEN
 62
     7
370
     0
100
AcDbLine
 10
120.9753245997
 20
120.8671282611
 30
0.0
 11
123.4753245997
 21
120.8671282611
 31
0.0
  0
LINE
  5
177
330
1F
100
AcDbEntity
  8
0
  6
HIDDEN
 62
     7
370
     0
100
AcDbLine
 10
118.4753245997
 20
120.8671282611
 30
0.0
 11
120.9753245997
 21
120.8671282611
 31
0.0
  0
LINE
  5
178
330
1F
100
AcDbEntity
  8
0
  6
HIDDEN
 62
     7
370
     0
100
AcDbLine
 10
123.4753245997
 20
96.8671282611
 30
0.0
 11
118.4753245997
 21
96.8671282611
 31
0.0
  0
SPLINE
  5
179
330
1F
100
AcDbEntity
  8
0
  6
HIDDEN
 62
     7
370
     0
100
AcDbSpline
210
0.0
220
0.0
230
1.0
 70
     8
 71
     3
 72
     8
 73
     4
 74
     0
 42
0.00000001
 43
0.00000001
 40
0.0
 40
0.0
 40
0.0
 40
0.0
 40
0.000159097695343
 40
0.000159097695343
 40
0.000159097695343
 40
0.000159097695343
 10
56.41049260896418
 20
93.06563782503538
 30
0.0
 10
56.36544113845983
 20
93.0376589407116
 30
0.0
 10
56.32038510004503
 20
93.00968741033653
 30
0.0
 10
56.27532459974616
 20
92.98172307098402
 30
0.0
  0
SPLINE
  5
17A
330
1F
100
AcDbEntity
  8
0
  6
HIDDEN
 62
     7
370
     0
100
AcDbSpline
210
0.0
220
0.0
230
1.0
 70
     8
 71
     3
 72
    11
 73
     7
 74
     0
 42
0.00000001
 43
0.00000001
 40
0.0
 40
0.0
 40
0.0
 40
0.0
 40
0.0008212909311456
 40
0.0008212909311456
 40
0.0008212909311456
 40
0.001642825724306
 40
0.001642825724306
 40
0.001642825724306
 40
0.001642825724306
 10
56.27532459974616
 20
92.98172307098402
 30
0.0
 10
56.08417957826398
 20
92.93843688213147
 30
0.0
 10
55.8927612425875
 20
92.89750037249418
 30
0.0
 10
55.70111516792636
 20
92.8588986011076
 30
0.0
 10
55.50941208638477
 20
92.82028534727051
 30
0.0
 10
55.31746696309925
 20
92.78400513798451
 30
0.0
 10
55.12532459974607
 20
92.750038231633
 30
0.0
  0
SPLINE
  5
17B
330
1F
100
AcDbEntity
  8
0
  6
HIDDEN
 62
     7
370
     0
100
AcDbSpline
210
0.0
220
0.0
230
1.0
 70
     8
 71
     3
 72
    28
 73
    24
 74
     0
 42
0.00000001
 43
0.00000001
 40
0.0
 40
0.0
 40
0.0
 40
0.0
 40
0.0625000000000024
 40
0.0625000000000024
 40
0.1250000000000048
 40
0.1250000000000048
 40
0.1875000000000072
 40
0.1875000000000072
 40
0.2500000000000095
 40
0.2500000000000095
 40
0.3750000000000085
 40
0.3750000000000085
 40
0.5000000000000075
 40
0.5000000000000075
 40
0.6250000000000066
 40
0.6250000000000066
 40
0.7500000000000056
 40
0.7500000000000056
 40
0.8125000000000056
 40
0.8125000000000056
 40
0.8750000000000057
 40
0.8750000000000057
 40
1.0
 40
1.0
 40
1.0
 40
1.0
 10
189.1038814699707
 20
122.8193581435208
 30
0.0
 10
189.0684382561134
 20
122.8113528403454
 30
0.0
 10
189.0328472341433
 20
122.8073116289321
 30
0.0
 10
188.9605389489481
 20
122.8117039396795
 30
0.0
 10
188.9232605699927
 20
122.8204482153973
 30
0.0
 10
188.8502343237205
 20
122.8572245601273
 30
0.0
 10
188.813644906109
 20
122.8861765680424
 30
0.0
 10
188.7464628128073
 20
122.96280790966
 30
0.0
 10
188.7156954252655
 20
123.0101881718288
 30
0.0
 10
188.6343290967365
 20
123.1648874177857
 30
0.0
 10
188.5946482407318
 20
123.2808250898686
 30
0.0
 10
188.5397848848713
 20
123.5061974120361
 30
0.0
 10
188.525322752138
 20
123.6168989563358
 30
0.0
 10
188.5253264477188
 20
123.8104548935518
 30
0.0
 10
188.5398256692933
 20
123.8956421523747
 30
0.0
 10
188.5946358963687
 20
124.0431961815087
 30
0.0
 10
188.634278721602
 20
124.1060086127174
 30
0.0
 10
188.7155857418605
 20
124.2182954698641
 30
0.0
 10
188.7463197786718
 20
124.2590652499245
 30
0.0
 10
188.8130262573873
 20
124.3515144189518
 30
0.0
 10
188.8498525364123
 20
124.4046500787383
 30
0.0
 10
188.9591136834526
 20
124.5703521494243
 30
0.0
 10
189.0327369822467
 20
124.6913624060662
 30
0.0
 10
189.1038814699701
 20
124.8090814553485
 30
0.0
  0
SPLINE
  5
17C
330
1F
100
AcDbEntity
  8
0
  6
HIDDEN
 62
     7
370
     0
100
AcDbSpline
210
0.0
220
0.0
230
1.0
 70
     8
 71
     3
 72
    18
 73
    14
 74
     0
 42
0.00000001
 43
0.00000001
 40
0.0
 40
0.0
 40
0.0
 40
0.0
 40
0.2499999999999937
 40
0.2499999999999937
 40
0.3749999999999947
 40
0.3749999999999947
 40
0.4999999999999942
 40
0.4999999999999942
 40
0.6249999999999937
 40
0.6249999999999937
 40
0.7499999999999932
 40
0.7499999999999932
 40
1.0
 40
1.0
 40
1.0
 40
1.0
 10
189.1038814699708
 20
124.809081455348
 30
0.0
 10
189.1827519954217
 20
124.7711962357609
 30
0.0
 10
189.2580682753728
 20
124.7137640444724
 30
0.0
 10
189.3425131592872
 20
124.5903588137359
 30
0.0
 10
189.3649930731038
 20
124.5437355921088
 30
0.0
 10
189.393092035985
 20
124.4374862368208
 30
0.0
 10
189.3981554257261
 20
124.3776439836812
 30
0.0
 10
189.3879953685484
 20
124.2514802401315
 30
0.0
 10
189.3727515647484
 20
124.1833437418595
 30
0.0
 10
189.3273058671517
 20
124.0439616919104
 30
0.0
 10
189.2976667444402
 20
123.973188685991
 30
0.0
 10
189.1963342423283
 20
123.7562702520055
 30
0.0
 10
189.1139271630592
 20
123.6077933391777
 30
0.0
 10
189.0317064450539
 20
123.4557873309924
 30
0.0
  0
SPLINE
  5
17D
330
1F
100
AcDbEntity
  8
0
  6
HIDDEN
 62
     7
370
     0
100
AcDbSpline
210
0.0
220
0.0
230
1.0
 70
     8
 71
     3
 72
    28
 73
    24
 74
     0
 42
0.00000001
 43
0.00000001
 40
0.0
 40
0.0
 40
0.0
 40
0.0
 40
0.0624999999999981
 40
0.0624999999999981
 40
0.1249999999999961
 40
0.1249999999999961
 40
0.1874999999999942
 40
0.1874999999999942
 40
0.2499999999999922
 40
0.2499999999999922
 40
0.3749999999999923
 40
0.3749999999999923
 40
0.4999999999999925
 40
0.4999999999999925
 40
0.6249999999999926
 40
0.6249999999999926
 40
0.7499999999999927
 40
0.7499999999999927
 40
0.8124999999999931
 40
0.8124999999999931
 40
0.8749999999999937
 40
0.8749999999999937
 40
1.0
 40
1.0
 40
1.0
 40
1.0
 10
189.0317064450537
 20
123.4557873309925
 30
0.0
 10
189.0011907664531
 20
123.4635967802978
 30
0.0
 10
188.9704153552263
 20
123.467613318472
 30
0.0
 10
188.9076811921659
 20
123.4638857381737
 30
0.0
 10
188.8752499443702
 20
123.4558231692285
 30
0.0
 10
188.8117106052626
 20
123.4225393615073
 30
0.0
 10
188.7800141199617
 20
123.3967649850568
 30
0.0
 10
188.7210626522648
 20
123.328973375596
 30
0.0
 10
188.6941335483235
 20
123.287778863314
 30
0.0
 10
188.6217203378561
 20
123.1514418117338
 30
0.0
 10
188.5861586265488
 20
123.0487450170055
 30
0.0
 10
188.5377092619887
 20
122.8472885437551
 30
0.0
 10
188.5253105999883
 20
122.7475153477954
 30
0.0
 10
188.5253386238828
 20
122.5680501431982
 30
0.0
 10
188.5373115554759
 20
122.4870433552195
 30
0.0
 10
188.5855066761769
 20
122.3348967403625
 30
0.0
 10
188.6212434965827
 20
122.2657892811695
 30
0.0
 10
188.6927871823182
 20
122.1489257488874
 30
0.0
 10
188.7201751274878
 20
122.1066452623605
 30
0.0
 10
188.7787255598113
 20
122.0146273711006
 30
0.0
 10
188.8102913103344
 20
121.9640660821007
 30
0.0
 10
188.9066303403624
 20
121.8029503765101
 30
0.0
 10
188.9702881634098
 20
121.6880306897357
 30
0.0
 10
189.0317064450539
 20
121.5747744081374
 30
0.0
  0
SPLINE
  5
17E
330
1F
100
AcDbEntity
  8
0
  6
HIDDEN
 62
     7
370
     0
100
AcDbSpline
210
0.0
220
0.0
230
1.0
 70
     8
 71
     3
 72
    16
 73
    12
 74
     0
 42
0.00000001
 43
0.00000001
 40
0.0
 40
0.0
 40
0.0
 40
0.0
 40
0.2499999999999932
 40
0.2499999999999932
 40
0.3749999999999932
 40
0.3749999999999932
 40
0.4999999999999931
 40
0.4999999999999931
 40
0.7499999999999966
 40
0.7499999999999966
 40
1.0
 40
1.0
 40
1.0
 40
1.0
 10
189.0317064450539
 20
121.5747744081374
 30
0.0
 10
189.11394033443
 20
121.5962091409506
 30
0.0
 10
189.1952900892684
 20
121.638183206945
 30
0.0
 10
189.2974698839173
 20
121.739178901207
 30
0.0
 10
189.3272757630498
 20
121.7787654553867
 30
0.0
 10
189.3726102722531
 20
121.8711350926158
 30
0.0
 10
189.3880097806096
 20
121.9249256994424
 30
0.0
 10
189.4032312189129
 20
122.0995322600179
 30
0.0
 10
189.370431242158
 20
122.2380190208121
 30
0.0
 10
189.2589375695563
 20
122.5212786290254
 30
0.0
 10
189.1827849883642
 20
122.668720934653
 30
0.0
 10
189.1038814699707
 20
122.8193581435208
 30
0.0
  0
LWPOLYLINE
  5
17F
330
1F
100
AcDbEntity
  8
0
  6
HIDDEN
 62
     7
370
     0
100
AcDbPolyline
 90
       20
 70
   128
 43
0.0
 10
190.5253245997
 20
123.3628172754
 10
191.1747235382
 20
123.439443267
 10
191.7537500251
 20
123.6610176268
 10
192.1996575563
 20
124.0035293346
 10
192.4641251316
 20
124.4298619325
 10
192.5184935858
 20
124.8938156681
 10
192.3568712531
 20
125.3451139553
 10
191.9967724211
 20
125.7348516219
 10
191.4772193858
 20
126.0207945445
 10
190.8545137803
 20
126.1719563704
 10
190.1961354192
 20
126.1719563704
 10
189.5734298137
 20
126.0207945445
 10
189.0538767784
 20
125.7348516219
 10
188.6937779464
 20
125.3451139553
 10
188.5321556137
 20
124.8938156681
 10
188.5865240679
 20
124.4298619325
 10
188.8509916432
 20
124.0035293346
 10
189.2968991744
 20
123.6610176268
 10
189.8759256613
 20
123.439443267
 10
190.5253245997
 20
123.3628172754
  0
SPLINE
  5
180
330
1F
100
AcDbEntity
  8
0
  6
HIDDEN
 62
     7
370
     0
100
AcDbSpline
210
0.0
220
0.0
230
1.0
 70
     8
 71
     3
 72
    62
 73
    58
 74
     0
 42
0.00000001
 43
0.00000001
 40
-0.0625000000000008
 40
-0.0625000000000008
 40
0.0
 40
0.0
 40
0.0624999999999998
 40
0.0624999999999998
 40
0.0937499999999996
 40
0.0937499999999996
 40
0.1249999999999995
 40
0.1249999999999995
 40
0.1562499999999994
 40
0.1562499999999994
 40
0.1874999999999993
 40
0.1874999999999993
 40
0.2187499999999992
 40
0.2187499999999992
 40
0.2499999999999991
 40
0.2499999999999991
 40
0.2812499999999989
 40
0.2812499999999989
 40
0.3124999999999988
 40
0.3124999999999988
 40
0.3437499999999987
 40
0.3437499999999987
 40
0.3749999999999986
 40
0.3749999999999986
 40
0.4062499999999984
 40
0.4062499999999984
 40
0.4374999999999983
 40
0.4374999999999983
 40
0.4687499999999982
 40
0.4687499999999982
 40
0.4999999999999981
 40
0.4999999999999981
 40
0.531249999999998
 40
0.531249999999998
 40
0.5624999999999979
 40
0.5624999999999979
 40
0.6249999999999978
 40
0.6249999999999978
 40
0.6562499999999978
 40
0.6562499999999978
 40
0.6874999999999979
 40
0.6874999999999979
 40
0.718749999999998
 40
0.718749999999998
 40
0.749999999999998
 40
0.749999999999998
 40
0.7812499999999981
 40
0.7812499999999981
 40
0.8124999999999982
 40
0.8124999999999982
 40
0.8437499999999983
 40
0.8437499999999983
 40
0.8749999999999984
 40
0.8749999999999984
 40
0.9374999999999992
 40
0.9374999999999992
 40
1.0
 40
1.0
 40
1.0625
 40
1.0625
 10
192.2562667870277
 20
123.3271559816681
 30
0.0
 10
192.0438746060054
 20
122.9146124599931
 30
0.0
 10
191.9298193701526
 20
122.7167605961608
 30
0.0
 10
191.7827363158565
 20
122.42358278028
 30
0.0
 10
191.7390711882924
 20
122.3284717277924
 30
0.0
 10
191.6747792350067
 20
122.140920331565
 30
0.0
 10
191.6559651821061
 20
122.0517396158985
 30
0.0
 10
191.6552263039451
 20
121.8865859936497
 30
0.0
 10
191.6731909980289
 20
121.8147160585404
 30
0.0
 10
191.7348146105554
 20
121.6910547725892
 30
0.0
 10
191.7766449429197
 20
121.6414327114464
 30
0.0
 10
191.8703591592563
 20
121.5605513548381
 30
0.0
 10
191.9225874736096
 20
121.5295032421722
 30
0.0
 10
192.027331557211
 20
121.4861404130839
 30
0.0
 10
192.0803595944066
 20
121.4734378971509
 30
0.0
 10
192.1838693595274
 20
121.4662590474962
 30
0.0
 10
192.2347247145135
 20
121.472035481233
 30
0.0
 10
192.3271678822079
 20
121.5037652591507
 30
0.0
 10
192.3692040818972
 20
121.529530172171
 30
0.0
 10
192.4415129490249
 20
121.6043824294111
 30
0.0
 10
192.4708631214629
 20
121.6528412726869
 30
0.0
 10
192.5119409007221
 20
121.771866266946
 30
0.0
 10
192.5236702537934
 20
121.8436822487213
 30
0.0
 10
192.526642369091
 20
122.0030432246335
 30
0.0
 10
192.5180414967682
 20
122.0927316708439
 30
0.0
 10
192.4821925913174
 20
122.2828110228705
 30
0.0
 10
192.4553693211223
 20
122.3823570698963
 30
0.0
 10
192.3868582170164
 20
122.5887879449133
 30
0.0
 10
192.3463789808982
 20
122.6921749373343
 30
0.0
 10
192.2565173078674
 20
122.8998539459513
 30
0.0
 10
192.2065882751472
 20
123.0050729015688
 30
0.0
 10
192.1039644535488
 20
123.2107688120978
 30
0.0
 10
192.0510955161957
 20
123.3116917345614
 30
0.0
 10
191.9459195383535
 20
123.5116542594252
 30
0.0
 10
191.8930946456621
 20
123.6115250837418
 30
0.0
 10
191.7481272202496
 20
123.9043718170531
 30
0.0
 10
191.6664488272745
 20
124.0963896788252
 30
0.0
 10
191.6516881515578
 20
124.3501953454562
 30
0.0
 10
191.665101806881
 20
124.4246283216559
 30
0.0
 10
191.7215661551423
 20
124.5527937649351
 30
0.0
 10
191.7627226045446
 20
124.6039752722918
 30
0.0
 10
191.8569102509119
 20
124.6858448610166
 30
0.0
 10
191.9101642633123
 20
124.716371180912
 30
0.0
 10
192.0173225075939
 20
124.757559472034
 30
0.0
 10
192.0718441839089
 20
124.7686406093813
 30
0.0
 10
192.1784229181721
 20
124.7717991661384
 30
0.0
 10
192.230264646786
 20
124.7636055956211
 30
0.0
 10
192.3240683540017
 20
124.7274579508347
 30
0.0
 10
192.3666305640948
 20
124.6995830275081
 30
0.0
 10
192.4397461770424
 20
124.6212703176873
 30
0.0
 10
192.4698031786082
 20
124.5707320621926
 30
0.0
 10
192.5114089558334
 20
124.4497381154288
 30
0.0
 10
192.5233936551931
 20
124.3774757492802
 30
0.0
 10
192.5285221189986
 20
124.1380681948737
 30
0.0
 10
192.4903789910382
 20
123.9439489730492
 30
0.0
 10
192.3532146444578
 20
123.5372750888202
 30
0.0
 10
192.2562667870277
 20
123.3271559816681
 30
0.0
 10
192.0438746060054
 20
122.9146124599931
 30
0.0
  0
LINE
  5
181
330
1F
100
AcDbEntity
  8
0
  6
HIDDEN
 62
     7
370
     0
100
AcDbLine
 10
103.1153245997
 20
129.048377624
 30
0.0
 11
103.1153245997
 21
128.7171282611
 31
0.0
  0
LINE
  5
182
330
1F
100
AcDbEntity
  8
0
  6
HIDDEN
 62
     7
370
     0
100
AcDbLine
 10
106.9353245997
 20
129.048377624
 30
0.0
 11
106.9353245997
 21
128.7171282611
 31
0.0
  0
LINE
  5
183
330
1F
100
AcDbEntity
  8
0
  6
HIDDEN
 62
     7
370
     0
100
AcDbLine
 10
108.4172574312
 20
133.3258179234
 30
0.0
 11
108.4172574312
 21
128.7171282611
 31
0.0
  0
SPLINE
  5
184
330
1F
100
AcDbEntity
  8
0
  6
HIDDEN
 62
     7
370
     0
100
AcDbSpline
210
0.0
220
0.0
230
1.0
 70
     8
 71
     3
 72
    24
 73
    20
 74
     0
 42
0.00000001
 43
0.00000001
 40
0.0
 40
0.0
 40
0.0
 40
0.0
 40
0.2500000000000072
 40
0.2500000000000072
 40
0.3750000000000097
 40
0.3750000000000097
 40
0.4375000000000103
 40
0.4375000000000103
 40
0.4687500000000105
 40
0.4687500000000105
 40
0.5000000000000108
 40
0.5000000000000108
 40
0.5625000000000087
 40
0.5625000000000087
 40
0.6250000000000066
 40
0.6250000000000066
 40
0.7500000000000026
 40
0.7500000000000026
 40
1.0
 40
1.0
 40
1.0
 40
1.0
 10
55.18798797446956
 20
89.1925757162863
 30
0.0
 10
55.20174109313979
 20
89.26322577427658
 30
0.0
 10
55.21951366054566
 20
89.32982388704151
 30
0.0
 10
55.27176475210102
 20
89.40392190727471
 30
0.0
 10
55.29279982768256
 20
89.42517971443627
 30
0.0
 10
55.34570023531101
 20
89.43332564058251
 30
0.0
 10
55.36680590818893
 20
89.43238583718674
 30
0.0
 10
55.41285807686688
 20
89.4113698456094
 30
0.0
 10
55.43122854885029
 20
89.40046103950178
 30
0.0
 10
55.47278018391597
 20
89.3678261285544
 30
0.0
 10
55.4953468566729
 20
89.34633414818305
 30
0.0
 10
55.55812787313294
 20
89.27786820459673
 30
0.0
 10
55.59125763410082
 20
89.23179374639163
 30
0.0
 10
55.64817532058581
 20
89.14678585805696
 30
0.0
 10
55.67236134608959
 20
89.10650555687558
 30
0.0
 10
55.73756929646937
 20
88.99156933040963
 30
0.0
 10
55.7722853566606
 20
88.92098634526263
 30
0.0
 10
55.86550062699147
 20
88.71678058618403
 30
0.0
 10
55.91117316235216
 20
88.59388220385667
 30
0.0
 10
55.9494782458507
 20
88.4770089274691
 30
0.0
  0
SPLINE
  5
185
330
1F
100
AcDbEntity
  8
0
  6
HIDDEN
 62
     7
370
     0
100
AcDbSpline
210
0.0
220
0.0
230
1.0
 70
     8
 71
     3
 72
    11
 73
     7
 74
     0
 42
0.00000001
 43
0.00000001
 40
0.0
 40
0.0
 40
0.0
 40
0.0
 40
0.0005781862223978
 40
0.0005781862223978
 40
0.0005781862223978
 40
0.0011563724723928
 40
0.0011563724723928
 40
0.0011563724723928
 40
0.0011563724723928
 10
56.12532459974614
 20
121.5072705681138
 30
0.0
 10
55.95866404547053
 20
121.5718000795274
 30
0.0
 10
55.79200074856405
 20
121.6363027833711
 30
0.0
 10
55.62533416473381
 20
121.7007892318048
 30
0.0
 10
55.45866757247472
 20
121.7652756834998
 30
0.0
 10
55.29199770684885
 20
121.8297456922278
 30
0.0
 10
55.12532459974611
 20
121.8942014589605
 30
0.0
  0
SPLINE
  5
186
330
1F
100
AcDbEntity
  8
0
  6
HIDDEN
 62
     7
370
     0
100
AcDbSpline
210
0.0
220
0.0
230
1.0
 70
     8
 71
     3
 72
    11
 73
     7
 74
     0
 42
0.00000001
 43
0.00000001
 40
0.0
 40
0.0
 40
0.0
 40
0.0
 40
0.0005778746105108
 40
0.0005778746105108
 40
0.0005778746105108
 40
0.0011557494857226
 40
0.0011557494857226
 40
0.0011557494857226
 40
0.0011557494857226
 10
55.12532459974613
 20
95.83990640557714
 30
0.0
 10
55.29199147615946
 20
95.90571853227101
 30
0.0
 10
55.45865819572094
 20
95.97157701240862
 30
0.0
 10
55.62532484376957
 20
96.03748458533924
 30
0.0
 10
55.79199156828823
 20
96.10339218850959
 30
0.0
 10
55.95865826270882
 20
96.16934929689812
 30
0.0
 10
56.12532459974614
 20
96.23535103682082
 30
0.0
  0
SPLINE
  5
187
330
1F
100
AcDbEntity
  8
0
  6
HIDDEN
 62
     7
370
     0
100
AcDbSpline
210
0.0
220
0.0
230
1.0
 70
     8
 71
     3
 72
    11
 73
     7
 74
     0
 42
0.00000001
 43
0.00000001
 40
0.0000000000000006
 40
0.0000000000000006
 40
0.0000000000000006
 40
0.0000000000000006
 40
0.0005780486062768
 40
0.0005780486062768
 40
0.0005780486062768
 40
0.0011560973514127
 40
0.0011560973514127
 40
0.0011560973514127
 40
0.0011560973514127
 10
55.12532459974613
 20
118.8479427627588
 30
0.0
 10
55.29199445579106
 20
118.7855709012443
 30
0.0
 10
55.45866215987531
 20
118.7232170409466
 30
0.0
 10
55.62532846432897
 20
118.6608974807605
 30
0.0
 10
55.7919948050227
 20
118.5985779070236
 30
0.0
 10
55.95865976165149
 20
118.536292702704
 30
0.0
 10
56.12532459974614
 20
118.4740675821354
 30
0.0
  0
SPLINE
  5
188
330
1F
100
AcDbEntity
  8
0
  6
HIDDEN
 62
     7
370
     0
100
AcDbSpline
210
0.0
220
0.0
230
1.0
 70
     8
 71
     3
 72
    11
 73
     7
 74
     0
 42
0.00000001
 43
0.00000001
 40
0.0
 40
0.0
 40
0.0
 40
0.0
 40
0.0005782401583533
 40
0.0005782401583533
 40
0.0005782401583533
 40
0.0011564805960993
 40
0.0011564805960993
 40
0.0011564805960993
 40
0.0011564805960993
 10
56.12532459974614
 20
99.26630146866938
 30
0.0
 10
55.95867364939725
 20
99.20287601060859
 30
0.0
 10
55.79201405681458
 20
99.1395204869533
 30
0.0
 10
55.62534700438602
 20
99.07622290260333
 30
0.0
 10
55.45867986782221
 20
99.01292528630009
 30
0.0
 10
55.29200526037617
 20
98.9496854913594
 30
0.0
 10
55.12532459974609
 20
98.88648548472057
 30
0.0
  0
ARC
  5
189
330
1F
100
AcDbEntity
  8
0
  6
HIDDEN
 62
     7
370
     0
100
AcDbCircle
 10
173.9815015171
 20
123.0719399399
 30
0.0
 40
15.12448918151077
100
AcDbArc
 50
354.3190159679
 51
359.04310529
  0
ARC
  5
18A
330
1F
100
AcDbEntity
  8
0
  6
HIDDEN
 62
     7
370
     0
100
AcDbCircle
 10
209.0128136573
 20
123.0687097616
 30
0.0
 40
19.98485612837259
100
AcDbArc
 50
175.0040960774
 51
178.8901947655
  0
CIRCLE
  5
18B
330
1F
100
AcDbEntity
  8
0
  6
HIDDEN
 62
     7
370
     0
100
AcDbCircle
 10
94.0253245997
 20
108.8671282611
 30
0.0
 40
5.0
  0
LINE
  5
18C
330
1F
100
AcDbEntity
  8
0
  6
HIDDEN
 62
     7
370
     0
100
AcDbLine
 10
246.7867718783
 20
119.6032221747
 30
0.0
 11
247.0220626838
 21
119.9863841145
 31
0.0
  0
LINE
  5
18D
330
1F
100
AcDbEntity
  8
0
  6
HIDDEN
 62
     7
370
     0
100
AcDbLine
 10
247.0253245997
 20
123.3607764421
 30
0.0
 11
246.8977296303
 21
123.5970508956
 31
0.0
  0
LINE
  5
18E
330
1F
100
AcDbEntity
  8
0
  6
HIDDEN
 62
     7
370
     0
100
AcDbLine
 10
246.8951242584
 20
123.5994392949
 30
0.0
 11
239.8757067554
 21
123.7944548655
 31
0.0
  0
LINE
  5
18F
330
1F
100
AcDbEntity
  8
0
  6
HIDDEN
 62
     7
370
     0
100
AcDbLine
 10
239.7646204141
 20
119.7959976849
 30
0.0
 11
246.7840379171
 21
119.6009821143
 31
0.0
  0
LINE
  5
190
330
1F
100
AcDbEntity
  8
0
  6
HIDDEN
 62
     7
370
     0
100
AcDbLine
 10
239.8741439994
 20
123.7937265751
 30
0.0
 11
239.1044795667
 21
123.0651096241
 31
0.0
  0
LINE
  5
191
330
1F
100
AcDbEntity
  8
0
  6
HIDDEN
 62
     7
370
     0
100
AcDbLine
 10
239.0350773825
 20
120.5670377765
 30
0.0
 11
239.7631005047
 21
119.7968116189
 31
0.0
  0
LINE
  5
192
330
1F
100
AcDbEntity
  8
0
  6
HIDDEN
 62
     7
370
     0
100
AcDbLine
 10
239.7631108227
 20
97.9374451899
 30
0.0
 11
239.0350877005
 21
97.1672190323
 31
0.0
  0
LINE
  5
193
330
1F
100
AcDbEntity
  8
0
  6
HIDDEN
 62
     7
370
     0
100
AcDbLine
 10
239.1044898848
 20
94.6691471847
 30
0.0
 11
239.8741543175
 21
93.9405302337
 31
0.0
  0
LINE
  5
194
330
1F
100
AcDbEntity
  8
0
  6
HIDDEN
 62
     7
370
     0
100
AcDbLine
 10
246.7840482352
 20
98.1332746945
 30
0.0
 11
239.7646307321
 21
97.9382591239
 31
0.0
  0
LINE
  5
195
330
1F
100
AcDbEntity
  8
0
  6
HIDDEN
 62
     7
370
     0
100
AcDbLine
 10
239.8757170734
 20
93.9398019433
 30
0.0
 11
246.8951345765
 21
94.1348175139
 31
0.0
  0
LINE
  5
196
330
1F
100
AcDbEntity
  8
0
  6
HIDDEN
 62
     7
370
     0
100
AcDbLine
 10
246.8977399483
 20
94.1372059132
 30
0.0
 11
247.0253245997
 21
94.3734612602
 31
0.0
  0
LINE
  5
197
330
1F
100
AcDbEntity
  8
0
  6
HIDDEN
 62
     7
370
     0
100
AcDbLine
 10
247.0220730018
 20
97.7478726943
 30
0.0
 11
246.7867821963
 21
98.1310346341
 31
0.0
  0
LINE
  5
198
330
1F
100
AcDbEntity
  8
0
  6
HIDDEN
 62
     7
370
     0
100
AcDbLine
 10
91.0253245997
 20
123.1649634108
 30
0.0
 11
91.0253245997
 21
121.261068904
 31
0.0
  0
LINE
  5
199
330
1F
100
AcDbEntity
  8
0
  6
HIDDEN
 62
     7
370
     0
100
AcDbLine
 10
99.0253245997
 20
121.261068904
 30
0.0
 11
99.0253245997
 21
123.1677587668
 31
0.0
  0
LINE
  5
19A
330
1F
100
AcDbEntity
  8
0
  6
HIDDEN
 62
     7
370
     0
100
AcDbLine
 10
87.0253245997
 20
83.5431971151
 30
0.0
 11
87.1194853753
 21
84.2131858463
 31
0.0
  0
LINE
  5
19B
330
1F
100
AcDbEntity
  8
0
  6
HIDDEN
 62
     7
370
     0
100
AcDbLine
 10
87.1194853753
 20
133.5210706758
 30
0.0
 11
87.0253245997
 21
134.1910594071
 31
0.0
  0
ARC
  5
19C
330
1F
100
AcDbEntity
  8
0
  6
HIDDEN
 62
     7
370
     0
100
AcDbCircle
 10
86.5253178471
 20
84.2966906467
 30
0.0
 40
0.6000067526677242
100
AcDbArc
 50
352.0
 51
0.0
  0
ARC
  5
19D
330
1F
100
AcDbEntity
  8
0
  6
HIDDEN
 62
     7
370
     0
100
AcDbCircle
 10
86.5253178471
 20
84.2966906467
 30
0.0
 40
0.6000067526677242
100
AcDbArc
 50
0.0
 51
33.5571153394
  0
ARC
  5
19E
330
1F
100
AcDbEntity
  8
0
  6
HIDDEN
 62
     7
370
     0
100
AcDbCircle
 10
86.5253178471
 20
133.4375658755
 30
0.0
 40
0.6000067526677253
100
AcDbArc
 50
348.75
 51
8.0
  0
LWPOLYLINE
  5
19F
330
1F
100
AcDbEntity
  8
0
  6
HIDDEN
 62
     7
370
     0
100
AcDbPolyline
 90
        3
 70
   128
 43
0.0
 10
87.1137956382
 20
133.3205103649
 10
87.0796518052
 20
133.2079532319
 10
87.0253245997
 20
133.1059013604
  0
LINE
  5
1A0
330
1F
100
AcDbEntity
  8
0
  6
HIDDEN
 62
     7
370
     0
100
AcDbLine
 10
87.1253245997
 20
84.2966906467
 30
0.0
 11
87.1253245997
 21
133.4375658755
 31
0.0
  0
ARC
  5
1A1
330
1F
100
AcDbEntity
  8
0
  6
HIDDEN
 62
     7
370
     0
100
AcDbCircle
 10
80.7803266013
 20
96.8671282611
 30
0.0
 40
8.000000000000002
100
AcDbArc
 50
277.1234735828
 51
321.3178125465
  0
ARC
  5
1A2
330
1F
100
AcDbEntity
  8
0
  6
HIDDEN
 62
     7
370
     0
100
AcDbCircle
 10
80.7803266013
 20
120.8671282611
 30
0.0
 40
7.999999999999993
100
AcDbArc
 50
38.6821874535
 51
82.8556871183
  0
LINE
  5
1A3
330
1F
100
AcDbEntity
  8
0
  6
HIDDEN
 62
     7
370
     0
100
AcDbLine
 10
70.107760165
 20
88.8671282611
 30
0.0
 11
74.2852967414
 21
88.8671282611
 31
0.0
  0
LINE
  5
1A4
330
1F
100
AcDbEntity
  8
0
  6
HIDDEN
 62
     7
370
     0
100
AcDbLine
 10
74.2784419809
 20
128.8671282611
 30
0.0
 11
70.107760165
 21
128.8671282611
 31
0.0
  0
ARC
  5
1A5
330
1F
100
AcDbEntity
  8
0
  6
HIDDEN
 62
     7
370
     0
100
AcDbCircle
 10
70.107760165
 20
89.4671282611
 30
0.0
 40
0.5999999999999962
100
AcDbArc
 50
210.0
 51
270.0
  0
ARC
  5
1A6
330
1F
100
AcDbEntity
  8
0
  6
HIDDEN
 62
     7
370
     0
100
AcDbCircle
 10
70.107760165
 20
128.2671282611
 30
0.0
 40
0.6000000000000227
100
AcDbArc
 50
90.0
 51
150.0
  0
LINE
  5
1A7
330
1F
100
AcDbEntity
  8
0
  6
HIDDEN
 62
     7
370
     0
100
AcDbLine
 10
69.5881449228
 20
128.5671282611
 30
0.0
 11
68.029299196
 21
125.8671282611
 31
0.0
  0
LINE
  5
1A8
330
1F
100
AcDbEntity
  8
0
  6
HIDDEN
 62
     7
370
     0
100
AcDbLine
 10
68.029299196
 20
91.8671282611
 30
0.0
 11
69.5881449228
 21
89.1671282611
 31
0.0
  0
LINE
  5
1A9
330
1F
100
AcDbEntity
  8
0
  6
HIDDEN
 62
     7
370
     0
100
AcDbLine
 10
91.0253245997
 20
136.1414621203
 30
0.0
 11
91.0253245997
 21
132.8127306757
 31
0.0
  0
LINE
  5
1AA
330
1F
100
AcDbEntity
  8
0
  6
HIDDEN
 62
     7
370
     0
100
AcDbLine
 10
99.0253245997
 20
132.8127306757
 30
0.0
 11
99.0253245997
 21
136.146794499
 31
0.0
  0
LINE
  5
1AB
330
1F
100
AcDbEntity
  8
0
  6
HIDDEN
 62
     7
370
     0
100
AcDbLine
 10
192.5253245997
 20
95.7812410619
 30
0.0
 11
192.5253245997
 21
99.818878673
 31
0.0
  0
LINE
  5
1AC
330
1F
100
AcDbEntity
  8
0
  6
HIDDEN
 62
     7
370
     0
100
AcDbLine
 10
192.5253245997
 20
92.6036722938
 30
0.0
 11
192.5253245997
 21
93.4688290464
 31
0.0
  0
LINE
  5
1AD
330
1F
100
AcDbEntity
  8
0
  6
HIDDEN
 62
     7
370
     0
100
AcDbLine
 10
188.5253245997
 20
94.0317726101
 30
0.0
 11
188.5253245997
 21
92.6036722938
 31
0.0
  0
LINE
  5
1AE
330
1F
100
AcDbEntity
  8
0
  6
HIDDEN
 62
     7
370
     0
100
AcDbLine
 10
188.5253245997
 20
99.8164511494
 30
0.0
 11
188.5253245997
 21
95.0628252199
 31
0.0
  0
ARC
  5
1AF
330
1F
100
AcDbEntity
  8
0
  6
HIDDEN
 62
     7
370
     0
100
AcDbCircle
 10
95.4753245997
 20
93.1421282611
 30
0.0
 40
1.5
100
AcDbArc
 50
238.2116693829
 51
0.0
  0
ARC
  5
1B0
330
1F
100
AcDbEntity
  8
0
  6
HIDDEN
 62
     7
370
     0
100
AcDbCircle
 10
95.4753245997
 20
124.5921282611
 30
0.0
 40
1.500000000000009
100
AcDbArc
 50
0.0
 51
121.7883306171
  0
LINE
  5
1B1
330
1F
100
AcDbEntity
  8
0
  6
HIDDEN
 62
     7
370
     0
100
AcDbLine
 10
65.2253245997
 20
91.8671282611
 30
0.0
 11
68.029299196
 21
91.8671282611
 31
0.0
  0
LINE
  5
1B2
330
1F
100
AcDbEntity
  8
0
  6
HIDDEN
 62
     7
370
     0
100
AcDbLine
 10
68.029299196
 20
125.8671282611
 30
0.0
 11
61.2253245997
 21
125.8671282611
 31
0.0
  0
LINE
  5
1B3
330
1F
100
AcDbEntity
  8
0
  6
HIDDEN
 62
     7
370
     0
100
AcDbLine
 10
87.0253245997
 20
91.8671282611
 30
0.0
 11
94.6851505683
 21
91.8671282611
 31
0.0
  0
LINE
  5
1B4
330
1F
100
AcDbEntity
  8
0
  6
HIDDEN
 62
     7
370
     0
100
AcDbLine
 10
94.6851505683
 20
125.8671282611
 30
0.0
 11
87.0253245997
 21
125.8671282611
 31
0.0
  0
LINE
  5
1B5
330
1F
100
AcDbEntity
  8
0
  6
HIDDEN
 62
     7
370
     0
100
AcDbLine
 10
192.1500706965
 20
92.9640087143
 30
0.0
 11
247.0253245997
 21
94.4885695411
 31
0.0
  0
LINE
  5
1B6
330
1F
100
AcDbEntity
  8
0
  6
HIDDEN
 62
     7
370
     0
100
AcDbLine
 10
247.0253245997
 20
97.7898428583
 30
0.0
 11
192.1475133286
 21
96.2652109819
 31
0.0
  0
LINE
  5
1B7
330
1F
100
AcDbEntity
  8
0
  6
HIDDEN
 62
     7
370
     0
100
AcDbLine
 10
188.644520353
 20
95.505660909
 30
0.0
 11
188.0793848253
 21
94.5015523524
 31
0.0
  0
LINE
  5
1B8
330
1F
100
AcDbEntity
  8
0
  6
HIDDEN
 62
     7
370
     0
100
AcDbLine
 10
188.0793848253
 20
94.5015523524
 30
0.0
 11
188.6442421545
 21
93.6167662134
 31
0.0
  0
ARC
  5
1B9
330
1F
100
AcDbEntity
  8
0
  6
HIDDEN
 62
     7
370
     0
100
AcDbCircle
 10
246.5253245997
 20
95.8671282611
 30
0.0
 40
0.5
100
AcDbArc
 50
0.0
 51
90.0
  0
ARC
  5
1BA
330
1F
100
AcDbEntity
  8
0
  6
HIDDEN
 62
     7
370
     0
100
AcDbCircle
 10
246.5253245997
 20
121.8671282611
 30
0.0
 40
0.5
100
AcDbArc
 50
270.0
 51
0.0
  0
LINE
  5
1BB
330
1F
100
AcDbEntity
  8
0
  6
HIDDEN
 62
     7
370
     0
100
AcDbLine
 10
188.4253245997
 20
96.0671282611
 30
0.0
 11
193.1305505816
 21
96.0671282611
 31
0.0
  0
LINE
  5
1BC
330
1F
100
AcDbEntity
  8
0
  6
HIDDEN
 62
     7
370
     0
100
AcDbLine
 10
193.1305505816
 20
121.6671282611
 30
0.0
 11
188.4253245997
 21
121.6671282611
 31
0.0
  0
ARC
  5
1BD
330
1F
100
AcDbEntity
  8
0
  6
HIDDEN
 62
     7
370
     0
100
AcDbCircle
 10
188.4253245997
 20
96.4671282611
 30
0.0
 40
0.4000000000000057
100
AcDbArc
 50
180.0
 51
270.0
  0
ARC
  5
1BE
330
1F
100
AcDbEntity
  8
0
  6
HIDDEN
 62
     7
370
     0
100
AcDbCircle
 10
188.4253245997
 20
121.2671282611
 30
0.0
 40
0.4000000000000057
100
AcDbArc
 50
90.0
 51
180.0
  0
LINE
  5
1BF
330
1F
100
AcDbEntity
  8
0
  6
HIDDEN
 62
     7
370
     0
100
AcDbLine
 10
194.0253245997
 20
96.3671282611
 30
0.0
 11
246.5253245997
 21
96.3671282611
 31
0.0
  0
LINE
  5
1C0
330
1F
100
AcDbEntity
  8
0
  6
HIDDEN
 62
     7
370
     0
100
AcDbLine
 10
246.5253245997
 20
121.3671282611
 30
0.0
 11
194.0253245997
 21
121.3671282611
 31
0.0
  0
ARC
  5
1C1
330
1F
100
AcDbEntity
  8
0
  6
HIDDEN
 62
     7
370
     0
100
AcDbCircle
 10
193.1305505816
 20
96.4671282611
 30
0.0
 40
0.4000000000000199
100
AcDbArc
 50
270.0
 51
290.0
  0
ARC
  5
1C2
330
1F
100
AcDbEntity
  8
0
  6
HIDDEN
 62
     7
370
     0
100
AcDbCircle
 10
193.1305505816
 20
121.2671282611
 30
0.0
 40
0.4000000000000199
100
AcDbArc
 50
70.0
 51
90.0
  0
LINE
  5
1C3
330
1F
100
AcDbEntity
  8
0
  6
HIDDEN
 62
     7
370
     0
100
AcDbLine
 10
193.267358639
 20
96.0912512128
 30
0.0
 11
194.0253245997
 21
96.3671282611
 31
0.0
  0
LINE
  5
1C4
330
1F
100
AcDbEntity
  8
0
  6
HIDDEN
 62
     7
370
     0
100
AcDbLine
 10
194.0253245997
 20
121.3671282611
 30
0.0
 11
193.267358639
 21
121.6430053094
 31
0.0
  0
LINE
  5
1C5
330
1F
100
AcDbEntity
  8
0
  6
HIDDEN
 62
     7
370
     0
100
AcDbLine
 10
105.8253245997
 20
99.3671282611
 30
0.0
 11
108.8253245997
 21
99.3671282611
 31
0.0
  0
LINE
  5
1C6
330
1F
100
AcDbEntity
  8
0
  6
HIDDEN
 62
     7
370
     0
100
AcDbLine
 10
108.8253245997
 20
118.3671282611
 30
0.0
 11
105.8253245997
 21
118.3671282611
 31
0.0
  0
LINE
  5
1C7
330
1F
100
AcDbEntity
  8
0
  6
HIDDEN
 62
     7
370
     0
100
AcDbLine
 10
96.9753245997
 20
99.8671282611
 30
0.0
 11
97.4753245997
 21
100.3671282611
 31
0.0
  0
LINE
  5
1C8
330
1F
100
AcDbEntity
  8
0
  6
HIDDEN
 62
     7
370
     0
100
AcDbLine
 10
97.4753245997
 20
117.3671282611
 30
0.0
 11
96.9753245997
 21
117.8671282611
 31
0.0
  0
LINE
  5
1C9
330
1F
100
AcDbEntity
  8
0
  6
HIDDEN
 62
     7
370
     0
100
AcDbLine
 10
97.4753245997
 20
100.3671282611
 30
0.0
 11
105.8253245997
 21
100.3671282611
 31
0.0
  0
LINE
  5
1CA
330
1F
100
AcDbEntity
  8
0
  6
HIDDEN
 62
     7
370
     0
100
AcDbLine
 10
105.8253245997
 20
117.3671282611
 30
0.0
 11
97.4753245997
 21
117.3671282611
 31
0.0
  0
LINE
  5
1CB
330
1F
100
AcDbEntity
  8
0
  6
HIDDEN
 62
     7
370
     0
100
AcDbLine
 10
91.9753245997
 20
140.3671282611
 30
0.0
 11
91.9753245997
 21
135.2671282611
 31
0.0
  0
LINE
  5
1CC
330
1F
100
AcDbEntity
  8
0
  6
HIDDEN
 62
     7
370
     0
100
AcDbLine
 10
82.2097624302
 20
84.7877569275
 30
0.0
 11
81.7753302807
 21
85.2668229466
 31
0.0
  0
LINE
  5
1CD
330
1F
100
AcDbEntity
  8
0
  6
HIDDEN
 62
     7
370
     0
100
AcDbLine
 10
74.2753269557
 20
85.6885109058
 30
0.0
 11
73.7928932123
 21
85.2094449303
 31
0.0
  0
LINE
  5
1CE
330
1F
100
AcDbEntity
  8
0
  6
HIDDEN
 62
     7
370
     0
100
AcDbLine
 10
73.7927712841
 20
132.5248063014
 30
0.0
 11
74.275322035
 21
132.0456860435
 31
0.0
  0
LINE
  5
1CF
330
1F
100
AcDbEntity
  8
0
  6
HIDDEN
 62
     7
370
     0
100
AcDbLine
 10
81.7753244817
 20
132.4673838212
 30
0.0
 11
82.2098668721
 21
132.9465040717
 31
0.0
  0
LINE
  5
1D0
330
1F
100
AcDbEntity
  8
0
  6
HIDDEN
 62
     7
370
     0
100
AcDbLine
 10
108.8253245997
 20
104.6171282611
 30
0.0
 11
188.0253245997
 21
104.6171282611
 31
0.0
  0
LINE
  5
1D1
330
1F
100
AcDbEntity
  8
0
  6
HIDDEN
 62
     7
370
     0
100
AcDbLine
 10
188.0253245997
 20
113.1171282611
 30
0.0
 11
108.8253245997
 21
113.1171282611
 31
0.0
  0
LINE
  5
1D2
330
1F
100
AcDbEntity
  8
0
  6
HIDDEN
 62
     7
370
     0
100
AcDbLine
 10
81.7753245997
 20
128.8049644517
 30
0.0
 11
81.7753245997
 21
132.5674143219
 31
0.0
  0
LINE
  5
1D3
330
1F
100
AcDbEntity
  8
0
  6
HIDDEN
 62
     7
370
     0
100
AcDbLine
 10
74.2753245997
 20
132.0454308522
 30
0.0
 11
74.2753245997
 21
128.8665439998
 31
0.0
  0
LINE
  5
1D4
330
1F
100
AcDbEntity
  8
0
  6
HIDDEN
 62
     7
370
     0
100
AcDbLine
 10
81.7753245997
 20
85.1667634012
 30
0.0
 11
81.7753245997
 21
88.9292920704
 31
0.0
  0
LINE
  5
1D5
330
1F
100
AcDbEntity
  8
0
  6
HIDDEN
 62
     7
370
     0
100
AcDbLine
 10
74.2753245997
 20
88.8689905067
 30
0.0
 11
74.2753245997
 21
85.6888341436
 31
0.0
  0
LINE
  5
1D6
330
1F
100
AcDbEntity
  8
0
  6
HIDDEN
 62
     7
370
     0
100
AcDbLine
 10
124.4753245997
 20
82.8671282611
 30
0.0
 11
123.4753245997
 21
83.4444785303
 31
0.0
  0
LINE
  5
1D7
330
1F
100
AcDbEntity
  8
0
  6
HIDDEN
 62
     7
370
     0
100
AcDbLine
 10
118.4753245997
 20
83.4444785303
 30
0.0
 11
117.4753245997
 21
82.8671282611
 31
0.0
  0
LINE
  5
1D8
330
1F
100
AcDbEntity
  8
0
  6
HIDDEN
 62
     7
370
     0
100
AcDbLine
 10
117.4753245997
 20
134.8671282611
 30
0.0
 11
118.4753245997
 21
134.2897779919
 31
0.0
  0
LINE
  5
1D9
330
1F
100
AcDbEntity
  8
0
  6
HIDDEN
 62
     7
370
     0
100
AcDbLine
 10
123.4753245997
 20
134.2897779919
 30
0.0
 11
124.4753245997
 21
134.8671282611
 31
0.0
  0
LINE
  5
1DA
330
1F
100
AcDbEntity
  8
0
  6
HIDDEN
 62
     7
370
     0
100
AcDbLine
 10
118.4753245997
 20
134.2897779919
 30
0.0
 11
118.4753245997
 21
120.8671282611
 31
0.0
  0
LINE
  5
1DB
330
1F
100
AcDbEntity
  8
0
  6
HIDDEN
 62
     7
370
     0
100
AcDbLine
 10
123.4753245997
 20
120.8671282611
 30
0.0
 11
123.4753245997
 21
134.2897779919
 31
0.0
  0
LINE
  5
1DC
330
1F
100
AcDbEntity
  8
0
  6
HIDDEN
 62
     7
370
     0
100
AcDbLine
 10
118.4753245997
 20
120.8671282611
 30
0.0
 11
120.9753245997
 21
119.3649767135
 31
0.0
  0
LINE
  5
1DD
330
1F
100
AcDbEntity
  8
0
  6
HIDDEN
 62
     7
370
     0
100
AcDbLine
 10
120.9753245997
 20
119.3649767135
 30
0.0
 11
123.4753245997
 21
120.8671282611
 31
0.0
  0
LINE
  5
1DE
330
1F
100
AcDbEntity
  8
0
  6
HIDDEN
 62
     7
370
     0
100
AcDbLine
 10
123.4753245997
 20
83.4444785303
 30
0.0
 11
123.4753245997
 21
96.8671282611
 31
0.0
  0
LINE
  5
1DF
330
1F
100
AcDbEntity
  8
0
  6
HIDDEN
 62
     7
370
     0
100
AcDbLine
 10
118.4753245997
 20
96.8671282611
 30
0.0
 11
118.4753245997
 21
83.4444785303
 31
0.0
  0
LINE
  5
1E0
330
1F
100
AcDbEntity
  8
0
  6
HIDDEN
 62
     7
370
     0
100
AcDbLine
 10
123.4753245997
 20
96.8671282611
 30
0.0
 11
120.9753245997
 21
98.3692798086
 31
0.0
  0
LINE
  5
1E1
330
1F
100
AcDbEntity
  8
0
  6
HIDDEN
 62
     7
370
     0
100
AcDbLine
 10
120.9753245997
 20
98.3692798086
 30
0.0
 11
118.4753245997
 21
96.8671282611
 31
0.0
  0
LINE
  5
1E2
330
1F
100
AcDbEntity
  8
0
  6
HIDDEN
 62
     7
370
     0
100
AcDbLine
 10
192.5253245997
 20
124.2664412522
 30
0.0
 11
192.5253245997
 21
124.7770308378
 31
0.0
  0
LINE
  5
1E3
330
1F
100
AcDbEntity
  8
0
  6
HIDDEN
 62
     7
370
     0
100
AcDbLine
 10
192.5253245997
 20
117.9178053728
 30
0.0
 11
192.5253245997
 21
121.9530791425
 31
0.0
  0
LINE
  5
1E4
330
1F
100
AcDbEntity
  8
0
  6
HIDDEN
 62
     7
370
     0
100
AcDbLine
 10
188.5253245997
 20
122.6714313022
 30
0.0
 11
188.5253245997
 21
117.9153778491
 31
0.0
  0
LINE
  5
1E5
330
1F
100
AcDbEntity
  8
0
  6
HIDDEN
 62
     7
370
     0
100
AcDbLine
 10
188.5253245997
 20
124.7770308378
 30
0.0
 11
188.5253245997
 21
123.702483912
 31
0.0
  0
LINE
  5
1E6
330
1F
100
AcDbEntity
  8
0
  6
HIDDEN
 62
     7
370
     0
100
AcDbLine
 10
192.1480268913
 20
121.4690312723
 30
0.0
 11
247.0253245997
 21
119.9444136638
 31
0.0
  0
LINE
  5
1E7
330
1F
100
AcDbEntity
  8
0
  6
HIDDEN
 62
     7
370
     0
100
AcDbLine
 10
247.0253245997
 20
123.245686981
 30
0.0
 11
192.1500286436
 21
124.7702489761
 31
0.0
  0
LINE
  5
1E8
330
1F
100
AcDbEntity
  8
0
  6
HIDDEN
 62
     7
370
     0
100
AcDbLine
 10
188.6442421545
 20
124.1174903087
 30
0.0
 11
188.0793848253
 21
123.2327041698
 31
0.0
  0
LINE
  5
1E9
330
1F
100
AcDbEntity
  8
0
  6
HIDDEN
 62
     7
370
     0
100
AcDbLine
 10
188.0793848253
 20
123.2327041698
 30
0.0
 11
188.644520353
 21
122.2285956131
 31
0.0
  0
LINE
  5
1EA
330
1F
100
AcDbEntity
  8
VERMASSUNG
100
AcDbLine
 10
129.0253245997
 20
134.8671282611
 30
0.0
 11
129.0253245997
 21
82.8671282611
 31
0.0
  0
LINE
  5
1EB
330
1F
100
AcDbEntity
  8
VERMASSUNG
100
AcDbLine
 10
132.2007510803
 20
77.3671282611
 30
0.0
 11
132.2007510803
 21
140.3671282611
 31
0.0
  0
DIMENSION
  5
1EC
330
1F
100
AcDbEntity
  8
VERMASSUNG
100
AcDbDimension
  2
*D1
 10
51.1342487664
 20
77.3671282611
 30
0.0
 11
51.1342487664
 21
109.1742656655
 31
0.0
 70
   160
  1
HSK A %%c<>
 71
     2
 42
-1.0
  3
SLDDIMSTYLE0
100
AcDbAlignedDimension
 13
87.3253245997
 23
140.3671282611
 33
0.0
 14
87.3253245997
 24
77.3671282611
 34
0.0
 50
90.0
100
AcDbRotatedDimension
  0
DIMENSION
  5
1F9
330
1F
100
AcDbEntity
  8
VERMASSUNG
100
AcDbDimension
  2
*D2
 10
247.0253245997
 20
158.8271278746
 30
0.0
 11
151.0753245997
 21
158.8271278746
 31
0.0
 70
   160
 71
     2
 42
-1.0
  3
SLDDIMSTYLE0
100
AcDbAlignedDimension
 13
55.1253245997
 23
128.5578060075
 33
0.0
 14
247.0253245997
 24
130.5387011363
 34
0.0
100
AcDbRotatedDimension
  0
DIMENSION
  5
203
330
1F
100
AcDbEntity
  8
VERMASSUNG
100
AcDbDimension
  2
*D3
 10
247.0253245997
 20
152.8271278746
 30
0.0
 11
167.0253245997
 21
152.8271278746
 31
0.0
 70
   160
 71
     2
 42
-1.0
  3
SLDDIMSTYLE0
100
AcDbAlignedDimension
 13
87.0253245997
 23
140.0671282611
 33
0.0
 14
247.0253245997
 24
130.5387011363
 34
0.0
100
AcDbRotatedDimension
  0
DIMENSION
  5
20D
330
1F
100
AcDbEntity
  8
VERMASSUNG
100
AcDbDimension
  2
*D4
 10
247.0253245997
 20
146.8271278746
 30
0.0
 11
180.0003245997
 21
146.8271278746
 31
0.0
 70
   160
 71
     2
 42
-1.0
  3
SLDDIMSTYLE0
100
AcDbAlignedDimension
 13
112.9753245997
 23
138.7135685848
 33
0.0
 14
247.0253245997
 24
130.5387011363
 34
0.0
100
AcDbRotatedDimension
  0
DIMENSION
  5
217
330
1F
100
AcDbEntity
  8
VERMASSUNG
100
AcDbDimension
  2
*D5
 10
257.0253245997
 20
96.3671282611
 30
0.0
 11
257.0253245997
 21
108.8671282611
 31
0.0
 70
   160
  1
%%c<>
 71
     2
 42
-1.0
  3
SLDDIMSTYLE0
100
AcDbAlignedDimension
 13
246.5253245997
 23
121.3671282611
 33
0.0
 14
246.5253245997
 24
96.3671282611
 34
0.0
 50
90.0
100
AcDbRotatedDimension
  0
DIMENSION
  5
222
330
1F
100
AcDbEntity
  8
VERMASSUNG
100
AcDbDimension
  2
*D6
 10
263.0253245997
 20
77.3671282611
 30
0.0
 11
263.0253245997
 21
108.8671282611
 31
0.0
 70
   160
  1
%%c<>
 71
     2
 42
-1.0
  3
SLDDIMSTYLE0
100
AcDbAlignedDimension
 13
237.196897475
 23
140.3671282611
 33
0.0
 14
237.196897475
 24
77.3671282611
 34
0.0
 50
90.0
100
AcDbRotatedDimension
  0
LINE
  5
22D
330
1F
100
AcDbEntity
  8
VERMASSUNG
  6
CENTERX2
370
     0
100
AcDbLine
 10
52.3866143596
 20
108.8671282611
 30
0.0
 11
248.717275248
 21
108.8671282611
 31
0.0
  0
OLE2FRAME
  5
22E
330
1F
100
AcDbEntity
  8
0
100
AcDbOle2Frame
 70
     2
  3
Bitmap Image
 10
13.8511154363
 20
38.264191557
 30
0.0
 11
51.6290888628
 21
31.9806341108
 31
0.0
 71
     2
 72
     0
 73
     1
 90
    12928
310
80552BED0767C5B32B40DDAF6807D121434000000000000000006FFBDDFB85D0
310
4940DDAF6807D121434000000000000000006FFBDDFB85D04940416F4BD60AFB
310
3F4000000000000000002BED0767C5B32B40416F4BD60AFB3F40000000000000
310
0000000000000100000000010000010000000100000000000100000000320000
310
D0CF11E0A1B11AE1000000000000000000000000000000003E000300FEFF0900
310
0600000000000000000000000100000001000000000000000010000002000000
310
01000000FEFFFFFF0000000000000000FFFFFFFFFFFFFFFFFFFFFFFFFFFFFFFF
310
FFFFFFFFFFFFFFFFFFFFFFFFFFFFFFFFFFFFFFFFFFFFFFFFFFFFFFFFFFFFFFFF
310
FFFFFFFFFFFFFFFFFFFFFFFFFFFFFFFFFFFFFFFFFFFFFFFFFFFFFFFFFFFFFFFF
310
FFFFFFFFFFFFFFFFFFFFFFFFFFFFFFFFFFFFFFFFFFFFFFFFFFFFFFFFFFFFFFFF
310
FFFFFFFFFFFFFFFFFFFFFFFFFFFFFFFFFFFFFFFFFFFFFFFFFFFFFFFFFFFFFFFF
310
FFFFFFFFFFFFFFFFFFFFFFFFFFFFFFFFFFFFFFFFFFFFFFFFFFFFFFFFFFFFFFFF
310
FFFFFFFFFFFFFFFFFFFFFFFFFFFFFFFFFFFFFFFFFFFFFFFFFFFFFFFFFFFFFFFF
310
FFFFFFFFFFFFFFFFFFFFFFFFFFFFFFFFFFFFFFFFFFFFFFFFFFFFFFFFFFFFFFFF
310
FFFFFFFFFFFFFFFFFFFFFFFFFFFFFFFFFFFFFFFFFFFFFFFFFFFFFFFFFFFFFFFF
310
FFFFFFFFFFFFFFFFFFFFFFFFFFFFFFFFFFFFFFFFFFFFFFFFFFFFFFFFFFFFFFFF
310
FFFFFFFFFFFFFFFFFFFFFFFFFFFFFFFFFFFFFFFFFFFFFFFFFFFFFFFFFFFFFFFF
310
FFFFFFFFFFFFFFFFFFFFFFFFFFFFFFFFFFFFFFFFFFFFFFFFFFFFFFFFFFFFFFFF
310
FFFFFFFFFFFFFFFFFFFFFFFFFFFFFFFFFFFFFFFFFFFFFFFFFFFFFFFFFFFFFFFF
310
FFFFFFFFFFFFFFFFFFFFFFFFFFFFFFFFFFFFFFFFFFFFFFFFFFFFFFFFFFFFFFFF
310
FDFFFFFFFEFFFFFFFEFFFFFFFEFFFFFF05000000060000000700000008000000
310
090000000A0000000B0000000C0000000D0000000E0000000F00000010000000
310
11000000120000001300000014000000150000001600000017000000FEFFFFFF
310
FFFFFFFFFFFFFFFFFFFFFFFFFFFFFFFFFFFFFFFFFFFFFFFFFFFFFFFFFFFFFFFF
310
FFFFFFFFFFFFFFFFFFFFFFFFFFFFFFFFFFFFFFFFFFFFFFFFFFFFFFFFFFFFFFFF
310
FFFFFFFFFFFFFFFFFFFFFFFFFFFFFFFFFFFFFFFFFFFFFFFFFFFFFFFFFFFFFFFF
310
FFFFFFFFFFFFFFFFFFFFFFFFFFFFFFFFFFFFFFFFFFFFFFFFFFFFFFFFFFFFFFFF
310
FFFFFFFFFFFFFFFFFFFFFFFFFFFFFFFFFFFFFFFFFFFFFFFFFFFFFFFFFFFFFFFF
310
FFFFFFFFFFFFFFFFFFFFFFFFFFFFFFFFFFFFFFFFFFFFFFFFFFFFFFFFFFFFFFFF
310
FFFFFFFFFFFFFFFFFFFFFFFFFFFFFFFFFFFFFFFFFFFFFFFFFFFFFFFFFFFFFFFF
310
FFFFFFFFFFFFFFFFFFFFFFFFFFFFFFFFFFFFFFFFFFFFFFFFFFFFFFFFFFFFFFFF
310
FFFFFFFFFFFFFFFFFFFFFFFFFFFFFFFFFFFFFFFFFFFFFFFFFFFFFFFFFFFFFFFF
310
FFFFFFFFFFFFFFFFFFFFFFFFFFFFFFFFFFFFFFFFFFFFFFFFFFFFFFFFFFFFFFFF
310
FFFFFFFFFFFFFFFFFFFFFFFFFFFFFFFFFFFFFFFFFFFFFFFFFFFFFFFFFFFFFFFF
310
FFFFFFFFFFFFFFFFFFFFFFFFFFFFFFFFFFFFFFFFFFFFFFFFFFFFFFFFFFFFFFFF
310
FFFFFFFFFFFFFFFFFFFFFFFFFFFFFFFFFFFFFFFFFFFFFFFFFFFFFFFFFFFFFFFF
310
52006F006F007400200045006E00740072007900000000000000000000000000
310
0000000000000000000000000000000000000000000000000000000000000000
310
16000500FFFFFFFFFFFFFFFF020000000A00030000000000C000000000000046
310
00000000000000000000000020A057BBFAFFCB0103000000C000000000000000
310
01004F006C006500000000000000000000000000000000000000000000000000
310
0000000000000000000000000000000000000000000000000000000000000000
310
0A000200FFFFFFFFFFFFFFFFFFFFFFFF00000000000000000000000000000000
310
0000000000000000000000000000000000000000000000001400000000000000
310
010043006F006D0070004F0062006A0000000000000000000000000000000000
310
0000000000000000000000000000000000000000000000000000000000000000
310
120002010100000003000000FFFFFFFF00000000000000000000000000000000
310
0000000000000000000000000000000000000000010000004D00000000000000
310
01004F006C006500310030004E00610074006900760065000000000000000000
310
0000000000000000000000000000000000000000000000000000000000000000
310
1A000200FFFFFFFFFFFFFFFFFFFFFFFF00000000000000000000000000000000
310
0000000000000000000000000000000000000000040000002426000000000000
310
FEFFFFFF02000000FEFFFFFFFFFFFFFFFFFFFFFFFFFFFFFFFFFFFFFFFFFFFFFF
310
FFFFFFFFFFFFFFFFFFFFFFFFFFFFFFFFFFFFFFFFFFFFFFFFFFFFFFFFFFFFFFFF
310
FFFFFFFFFFFFFFFFFFFFFFFFFFFFFFFFFFFFFFFFFFFFFFFFFFFFFFFFFFFFFFFF
310
FFFFFFFFFFFFFFFFFFFFFFFFFFFFFFFFFFFFFFFFFFFFFFFFFFFFFFFFFFFFFFFF
310
FFFFFFFFFFFFFFFFFFFFFFFFFFFFFFFFFFFFFFFFFFFFFFFFFFFFFFFFFFFFFFFF
310
FFFFFFFFFFFFFFFFFFFFFFFFFFFFFFFFFFFFFFFFFFFFFFFFFFFFFFFFFFFFFFFF
310
FFFFFFFFFFFFFFFFFFFFFFFFFFFFFFFFFFFFFFFFFFFFFFFFFFFFFFFFFFFFFFFF
310
FFFFFFFFFFFFFFFFFFFFFFFFFFFFFFFFFFFFFFFFFFFFFFFFFFFFFFFFFFFFFFFF
310
FFFFFFFFFFFFFFFFFFFFFFFFFFFFFFFFFFFFFFFFFFFFFFFFFFFFFFFFFFFFFFFF
310
FFFFFFFFFFFFFFFFFFFFFFFFFFFFFFFFFFFFFFFFFFFFFFFFFFFFFFFFFFFFFFFF
310
FFFFFFFFFFFFFFFFFFFFFFFFFFFFFFFFFFFFFFFFFFFFFFFFFFFFFFFFFFFFFFFF
310
FFFFFFFFFFFFFFFFFFFFFFFFFFFFFFFFFFFFFFFFFFFFFFFFFFFFFFFFFFFFFFFF
310
FFFFFFFFFFFFFFFFFFFFFFFFFFFFFFFFFFFFFFFFFFFFFFFFFFFFFFFFFFFFFFFF
310
FFFFFFFFFFFFFFFFFFFFFFFFFFFFFFFFFFFFFFFFFFFFFFFFFFFFFFFFFFFFFFFF
310
FFFFFFFFFFFFFFFFFFFFFFFFFFFFFFFFFFFFFFFFFFFFFFFFFFFFFFFFFFFFFFFF
310
FFFFFFFFFFFFFFFFFFFFFFFFFFFFFFFFFFFFFFFFFFFFFFFFFFFFFFFFFFFFFFFF
310
010000020000000000000000000000000000000061007200650064005C003100
310
30002E0030005C0044004C004C005300680061007200650064005C003B004300
310
0100FEFF030A0000FFFFFFFF0A00030000000000C00000000000004607000000
310
5042727573680007000000504272757368000700000050427275736800F439B2
310
71000000000000000000000000004100540049002E004100430045005C004300
310
6F00720065002D005300740061007400690063003B0043003A005C0050007200
310
6F006700720061006D002000460069006C006500730020002800780038003600
310
29005C0043006F006D006D006F006E002000460069006C00650073005C004100
310
750074006F006400650073006B0020005300680061007200650064005C003B00
310
43003A005C00500072006F006700720061006D002000460069006C0065007300
310
5C004E006F0072006D0061006E005C004E0070006D005C00420069006E000000
310
43003A005C00500072006F006700720061006D002000460069006C0065007300
310
5C0053006F006C006900640057006F0072006B007300200043006F0072007000
310
5C0053006F006C006900640057006F0072006B00730020002800320029005C00
310
730065007400750070005C0069003300380036005C0073007700610063007400
310
770069007A002E006500780065000000220043003A005C00500072006F006700
310
20260000424D0E260000000000003E00000028000000B40200006E0000000100
310
01000000000000000000130B0000130B00000200000002000000000000FFFFFF
310
FFFFFFFFFFFFFFFFFFFFFFFFFFFFFFFFFFFFFFFFFFFFFFFFFFFFFFFFFFFFFFFF
310
FFFFFFFFFFFFFFFFFFFFFFFFFFFFFFFFFFFFFFFFFFFFFFFFFFFFFFFFFFFFFFFF
310
FFFFFFFFFFFFFFFFFFFFFFFFFFFFFFFFFFFFFFFFFFFFFFFFF000FFFFFFFFFFFF
310
FFFFFFFFFFFFFFFFFFFFFFFFFFFFFFFFFFFFFFFFFFFFFFFFFFFFFFFFFFFFFFFF
310
FFFFFFFFFFFFFFFFFFFFFFFFFFFFFFFFFFFFFFFFFFFFFFFFFFFFFFFFFFFFFFFF
310
FFFFFFFFFFFFFFFFFFFFFFFFFFFFFFFFF000FFFFFFFFFFFFFFFFFFFFFFFFFFFF
310
FFFFFFFFFFFFFFFFFFFFFFFFFFFFFFFFFFFFFFFFFFFFFFFFFFFFFFFFFFFFFFFF
310
FFFFFFFFFFFFFFFFFFFFFFFFFFFFFFFFFFFFFFFFFFFFFFFFFFFFFFFFFFFFFFFF
310
FFFFFFFFFFFFFFFFF000FFFFFFFFFFFFFFFFFFFFFFFFFFFFFFFFFFFFFFFFFFFF
310
FFFFFFFFFFFFFFFFFFFFFFFFFFFFFFFFFFFFFFFFFFFFFFFFFFFFFFFFFFFFFFFF
310
FFFFFFFFFFFFFFFFFFFFFFFFFFFFFFFFFFFFFFFFFFFFFFFFFFFFFFFFFFFFFFFF
310
F000FFFFFFFFFFFFFFFFFFFFFFFFFFFFFFFFFFFFFFFFFFFFFFFFFFFFFFFFFFFF
310
FFFFFFFFFFFFFFFFFFFFFFFFFFFFFFFFFFFFFFFFFFFFFFFFFFFFFFFFFFFFFFFF
310
FFFFFFFFFFFFFFFFFFFFFFFFFFFFFFFFFFFFFFFFFFFFFFFFF000FFFFFFFFFFFF
310
FFFFFFFFFFFFFFFFFFFFFFFFFFFFFFFFFFFFFFFFFFFFFFFFFFFFFFFFFFFFFFFF
310
FFFFFFFFFFFFFFFFFFFFFFFFFFFFFFFFFFFFFFFFFFFFFFFFFFFFFFFFFFFFFFFF
310
FFFFFFFFFFFFFFFFFFFFFFFFFFFFFFFFF000FFFFFFFFFFFFFFFFFFFFFFFFFFFF
310
FFFFFFFFFFFFFFFFFFFFFFFFFFFFFFFFFFFFFFFFFFFFFFFFFFFFFFFFFFFFFFFF
310
FFFFFFFFFFFFFFFFFFFFFFFFFFFFFFFFFFFFFFFFFFFFFFFFFFFFFFFFFFFFFFFF
310
FFFFFFFFFFFFFFFFF000FFFFFFFFFFFFFFFFFFFFFFFFFFFFFFFFFFFFFFFFFFFF
310
FFFFFFFFFFFFFFFFFFFFFFFFFFFFFFFFFFFFFFFFFFFFFFFFFFFFFFFFFFFFFFFF
310
FFFFFFFFFFFFFFFFFFFFFFFFFFFFFFFFFFFFFFFFFFFFFFFFFFFFFFFFFFFFFFFF
310
F000FFFFFFFFFFFFFFFFFFFFFFFFFFFFFFFFFFFFFFFFFFFFFFFFFFFFFFFFFFFF
310
FFFFFFFFFFFFFFFFFFFFFFFFFFFFFFFFFFFFFFFFFFFFFFFFFFFFFFFFFFFFFFFF
310
FFFFFFFFFFFFFFFFFFFFFFFFFFFFFFFFFFFFFFFFFFFFFFFFF000FFFFFFFFFFFF
310
FFFFFFFFFFFFFFFFFFFFFFFFFFFFFFFFFFFFFFFFFFFFFFFFFFFFFFFFFFFFFFFF
310
FFFFFFFFFFFFFFFFFFFFFFFFFFFFFFFFFFFFFFFFFFFFFFFFFFFFFFFFFFFFFFFF
310
FFFFFFFFFFFFFFFFFFFFFFFFFFFFFFFFF000FFFFFFFFFFFFFFFFFFFFFFFFFFFF
310
FFFFFFFFFFFFFFFFFFFFFFFFFFFFFFFFFFFFFFFFFFFFFFFFFFFFFFFFFFFFFFFF
310
FFFFFFFFFFFFFFFFFFFFFFFFFFFFFFFFFFFFFFFFFFFFFFFFFFFFFFFFFFFFFFFF
310
FFFFFFFFFFFFFFFFF000FFFFFFFFFFFFFFFFFFFFFFFFFFFFFFFFFFFFFFFFFFFF
310
FFFFFFFFFFFFFFFFFFFFFFFFFFFFFFFFFFFFFFFFFFFFFFFFFFFFFFFFFFFFFFFF
310
FFFFFFFFFFFFFFFFFFFFFFFFFFFFFFFFFFFFFFFFFFFFFFFFFFFFFFFFFFFFFFFF
310
F000FFFFFFFFFFFFFFFFFFFFFFFFFFFFFFFFFFFFFFFFFFFFFFFFFFFFFFFFFFFF
310
FFFFFFFFFFFFFFFFFFFFFFFFFFFFFFFFFFFFFFFFFFFFFFFFFFFFFFFFFFFFFFFF
310
FFFFFFFFFFFFFFFFFFFFFFFFFFFFFFFFFFFFFFFFFFFFFFFFF000FFFFFFFFFFFF
310
FFFFFFFFFFFFFFFFFFFFFFFFFFFFFFFFFFFFFFFFFFFFFFFFFFFFFFFFFFFFFFFF
310
FFFFFFFFFFFFFFFFFFFFFFFFFFFFFFFFFFFFFFFFFFFFFFFFFFFFFFFFFFFFFFFF
310
FFFFFFFFFFFFFFFFFFFFFFFFFFFFFFFFF000FFFFFFFFFFFFFFFFFFFFFFFFFFFF
310
FFFFFFFFFFFFFFFFFFFFFFFFFFFFFFFFFFFFFFFFFFFFFFFFFFFFFFFFFFFFFFFF
310
FFFFFFFFFFFFFFFFFFFFFFFFFFFFFFFFFFFFFFFFFFFFFFFFFFFFFFFFFFFFFFFF
310
FFFFFFFFFFFFFFFFF000FFFFFFFFFFFFFFFFFFFFFFFFFFFFFFFFFFFFFFFFFFFF
310
FFFFFFFFFFFFFFFFFFFFFFFFFFFFFFFFFFFFFFFFFFFFFFFFFFFFFFFFFFFFFFFF
310
FFFFFFFFFFFFFFFFFFFFFFFFFFFFFFFFFFFFFFFFFFFFFFFFFFFFFFFFFFFFFFFF
310
F000FFFFFFFFFFFFFFFFFFFFFFFFFFFFFFFFFFFFFFFFFFFFFFFFFFFFFFFFFFFF
310
FFFFFFFFFFFFFFFFFFFFFFFFFFFFFFFFFFFFFFFFFFFFFFFFFFFFFFFFFFFFFFFF
310
FFFFFFFFFFFFFFFFFFFFFFFFFFFFFFFFFFFFFFFFFFFFFFFFF000FFFFFFFFFFFF
310
FFFFFFFFFFFFFFFFFFFFFFFFFFFFFFFFFFFFFFFFFFFFFFFFFFFFFFFFFFFFFFFF
310
FFFFFFFFFFFFFFFFFFFFFFFFFFFFFFFFFFFFFFFFFFFFFFFFFFFFFFFFFFFFFFFF
310
FFFFFFFFFFFFFFFFFFFFFFFFFFFFFFFFF000FFFFFFFFFFFFFFFFFFFFFFFFFFFF
310
FFFFFFFFFFFFFFFFFFFFFFFFFFFFFFFFFFFFFFFFFFFFFFFFFFFFFFFFFFFFFFFF
310
FFFFFFFFFFFFFFFFFFFFFFFFFFFFFFFFFFFFFFFFFFFFFFFFFFFFFFFFFFFFFFFF
310
FFFFFFFFFFFFFFFFF000FFFFF80003FFFFFFFFFFFFFFFFFFFFFFFFFFFFFFFFFF
310
FFFFF00007FFFFFFFFFF00007FFFFFF800000000000000007FFFFFFFFFFFFFFF
310
FFFFFFFC001FFFFFFFFFFFFFFC001FFFFFFFFFFFFFFFFFFFFFFFFFFE0007FFFF
310
F000FFFF8000007FFFFFFFF8000FFFFFC0007FFFFF80007FFFFF0000007FFFFF
310
FFF8000007FFFFF800000000000000007FFFFFF0001FFFFFFFFFFFC00001FFFF
310
FFFFFFFFC00001FFFFFFFF000000000003FFFFE000007FFFF000FFFE0000000F
310
FFFFFFF0000FFFFF80007FFFFF80007FFFFC0000001FFFFFFFC0000001FFFFF8
310
00000000000000007FFFFFF0001FFFFFFFFFFE0000003FFFFFFFFFFE0000003F
310
FFFFFF000000000003FFFF0000000FFFF000FFF800000003FFFFFFF00007FFFF
310
80007FFFFF80007FFFF000000007FFFFFF000000003FFFF80000000000000000
310
7FFFFFF0001FFFFFFFFFF80000000FFFFFFFFFF80000000FFFFFFF0000000000
310
03FFFC00000003FFF000FFE000000000FFFFFFF00007FFFF80003FFFFF80007F
310
FFC000000001FFFFFC000000001FFFF800000000000000007FFFFFF0001FFFFF
310
FFFFE000000003FFFFFFFFE000000003FFFFFF000000000003FFF000000000FF
310
F000FF80000000007FFFFFF00007FFFF80003FFFFF80007FFF8000000000FFFF
310
F80000000007FFF800000000000000007FFFFFF0001FFFFFFFFFC000000001FF
310
FFFFFFC000000001FFFFFF000000000003FFC0000000007FF000FF0000000000
310
3FFFFFE00007FFFF00003FFFFF80007FFE00000000003FFFF00000000003FFF8
310
00000000000000007FFFFFF0001FFFFFFFFF8000000000FFFFFFFF8000000000
310
FFFFFF000000000003FF80000000003FF000FE00000000001FFFFFE00003FFFF
310
00003FFFFF80007FFC00000000001FFFE00000000001FFF8000001FFFE000000
310
7FFFFFF0001FFFFFFFFE00000000003FFFFFFE00000000003FFFFF0000000000
310
03FF00000000001FF000FC00000000000FFFFFE00003FFFF00001FFFFF80007F
310
F800000000001FFFC00000000000FFF8000001FFFE0000007FFFFFF0001FFFFF
310
FFFC00000000001FFFFFFC00000000001FFFFF000000000003FE00000000000F
310
F000F8000000000007FFFFE00003FFFF00001FFFFF80007FF800000000000FFF
310
800000000000FFF8000001FFFE0000007FFFFFF0001FFFFFFFF800000000000F
310
FFFFF800000000000FFFFF000000000003FC000000000007F000F80000000000
310
03FFFFC00003FFFE00001FFFFF80007FF0000000000007FF0000000000007FF8
310
000001FFFE0000007FFFFFF0001FFFFFFFF0000000000007FFFFF00000000000
310
07FFFF000000000003F8000000000003F000F0000000000003FFFFC00001FFFE
310
00001FFFFF80007FE0000000000007FE0000000000003FF8000001FFFE000000
310
7FFFFFF0001FFFFFFFF0000000000007FFFFF0000000000007FFFF0000000000
310
03F800001F800003F000E00001FFF00001FFFFC00001FFFE00000FFFFF80007F
310
E00001FFE00003FE00001FFF00003FF8000001FFFE0000007FFFFFF0001FFFFF
310
FFE000003E000003FFFFE000003E000003FFFF000000000003F00001FFF80001
310
F000E00007FFFC0001FFFFC00001FFFE00000FFFFF80007FC0000FFFFC0003FC
310
0000FFFFC0001FF8000001FFFE0000007FFFFFF0001FFFFFFFC00003FFE00001
310
FFFFC00003FFE00001FFFF0001FFFFFFFFF00007FFFE0001F000E0000FFFFF00
310
00FFFF800001FFFC00000FFFFF80007FC0001FFFFE0001FC0001FFFFE0001FF8
310
000001FFFE0000007FFFFFF0001FFFFFFF80000FFFF80000FFFF80000FFFF800
310
00FFFF0003FFFFFFFFE0000FFFFF8000F000C0003FFFFF8000FFFF800000FFFC
310
000007FFFF80007F80003FFFFF0001FC0003FFFFF0001FF8000001FFFE000000
310
7FFFFFF0001FFFFFFF80003FFFFE0000FFFF80003FFFFE0000FFFF0003FFFFFF
310
FFE0003FFFFF8000F000C0003FFFFF8000FFFF800000FFFC000007FFFF80007F
310
80007FFFFF8001F80007FFFFF8000FF8000001FFFE0000007FFFFFF0001FFFFF
310
FF00007FFFFF00007FFF00007FFFFF00007FFF0003FFFFFFFFE0003FFFFFC000
310
F000C0007FFFFFC000FFFF000000FFFC000007FFFF80007F8000FFFFFF8000F8
310
000FFFFFF8000FF8000001FFFE0000007FFFFFF0001FFFFFFF0000FFFFFF8000
310
7FFF0000FFFFFF80007FFF0003FFFFFFFFC0007FFFFFC00070008000FFFFFFC0
310
00FFFF000000FFF8000007FFFF80007F8000FFFFFF8000F8000FFFFFF8000FF8
310
000001FFFE0000007FFFFFF0001FFFFFFE0001FFFFFFC0003FFE0001FFFFFFC0
310
003FFF0003FFFFFFFFC0007FFFFFE00070008000FFFFFFC0007FFF0000007FF8
310
000003FFFF80007F0001FFFFFF8000F8000FFFFFF8000FF8000001FFFE000000
310
7FFFFFF0001FFFFFFE0001FFFFFFC0003FFE0001FFFFFFC0003FFF0003FFFFFF
310
FFC000FFFFFFE00070008000FFFFFFC0007FFF0000007FF8000003FFFF80007F
310
0001FFFFFF8000F8001FFFFFF8000FF8000001FFFE0000007FFFFFF0001FFFFF
310
FE0003FFFFFFE0003FFE0003FFFFFFE0003FFF0003FFFFFFFFC000FFFFFFE000
310
70008000FFFFFFC0007FFE0000007FF8000003FFFF80007F0001FFFFFF8000F0
310
001FFFFFF8000FF8000001FFFE0000007FFFFFF0001FFFFFFC0003FFFFFFE000
310
1FFC0003FFFFFFE0001FFF0003FFFFFFFFC000FFFFFFC00070008000FFFFFF80
310
007FFE0000007FF0000003FFFF80007F0001FFFFFF0000F0001FFFFFF8000FF8
310
000001FFFE0000007FFFFFF0001FFFFFFC0007FFFFFFF0001FFC0007FFFFFFF0
310
001FFF0003FFFFFFFFC000FFFFFFC00070008001FFFFFF0000FFFE0000003FF0
310
000001FFFF80007F0001FFFFFF0000F8001FFFFFF0000FF8000001FFFE000000
310
7FFFFFF0001FFFFFFC0007FFFFFFF0001FFC0007FFFFFFF0001FFF0003FFFFFF
310
FFC001FFFFFF80007000FFFFFFFFFE0000FFFE0008003FF0008001FFFF80007F
310
FFFFFFFFFC0000FFFFFFFFFFE0000FF8000001FFFE0000007FFFFFF0001FFFFF
310
F8000FFFFFFFF8000FF8000FFFFFFFF8000FFF0003FFFFFFFFFFFFFFFFFF0000
310
7000FFFFFFFFFC0000FFFC0008003FF0008001FFFF80007FFFFFFFFFF80001FF
310
FFFFFFFF80000FF8000001FFFE0000007FFFFFF0001FFFFFF8000FFFFFFFF800
310
0FF8000FFFFFFFF8000FFF0003FFFFFFFFFFFFFFFFFE0000F000FFFFFFFFE000
310
00FFFC000C003FE000C001FFFF80007FFFFFFFFFC00001FFFFFFFFFE00001FF8
310
000001FFFE0000007FFFFFF0001FFFFFF8000FFFFFFFF8000FF8000FFFFFFFF8
310
000FFF0003FFFFFFFFFFFFFFFFF00000F000FFFFFFFE000001FFFC000C001FE0
310
00C000FFFF80007FFFFFFFFE000001FFFFFFFFE000001FF80FFFFFFFFFFFFFC0
310
7FFFFFF0001FFFFFF8000FFFFFFFF8000FF8000FFFFFFFF8000FFF0003FFFFFF
310
FFFFFFFFFF800000F000FFFFFFC0000001FFFC001C001FE001C000FFFF80007F
310
FFFFFF80000003FFFFFFF80000001FF80FFFFFFFFFFFFFC07FFFFFF0001FFFFF
310
F8001FFFFFFFFC000FF8001FFFFFFFFC000FFF0003FFFFFFFFFFFFFFF0000001
310
F000FFFFF800000001FFF8001C001FE001C000FFFF80007FFFFFF800000003FF
310
FFFF800000003FF80FFFFFFFFFFFFFC07FFFFFF0001FFFFFF8001FFFFFFFFC00
310
0FF8001FFFFFFFFC000FFF0003FFFFFFFFFFFFFE00000001F000FFFFC0000000
310
03FFF8001E001FC001E000FFFF80007FFFFF8000000007FFFFFC000000003FF8
310
0FFFFFFFFFFFFFC07FFFFFF0001FFFFFF8001FFFFFFFFC000FF8001FFFFFFFFC
310
000FFF0003FFFFFFFFFFFFE000000003F000FFFE0000000007FFF8001E000FC0
310
01E0007FFF80007FFFFE0000000007FFFFE0000000007FF80FFFFFFFFFFFFFC0
310
7FFFFFF0001FFFFFF0001FFFFFFFFC0007F0001FFFFFFFFC0007FF0003FFFFFF
310
FFFFFF0000000003F000FFF80000000007FFF8001E000FC003E0007FFF80007F
310
FFF0000000000FFFFF8000000000FFF80FFFFFFFFFFFFFC07FFFFFF0001FFFFF
310
F0001FFFFFFFFC0007F0001FFFFFFFFC0007FF0003FFFFFFFFFFFC0000000007
310
F000FFE0000000000FFFF0003E000FC003E0007FFF80007FFFC0000000001FFF
310
FE0000000001FFF80FFFFFFFFFFFFFC07FFFFFF0001FFFFFF0001FFFFFFFFC00
310
07F0001FFFFFFFFC0007FF0003FFFFFFFFFFF0000000000FF000FFC000000000
310
1FFFF0003F000F8003F0003FFF80007FFF80000000003FFFF80000000003FFF8
310
0FFFFFFFFFFFFFC07FFFFFF0001FFFFFF0001FFFFFFFFC0007F0001FFFFFFFFC
310
0007FF0003FFFFFFFFFFE0000000001FF000FF00000000007FFFF0003F000780
310
03F0003FFF80007FFF00000000007FFFF00000000007FFF80FFFFFFFFFFFFFC0
310
7FFFFFF0001FFFFFF0001FFFFFFFFC0007F0001FFFFFFFFC0007FF0003FFFFFF
310
FFFF80000000007FF000FE0000000000FFFFE0003F00078007F0003FFF80007F
310
FE0000000001FFFFE0000000001FFFF80FFFFFFFFFFFFFC07FFFFFF0001FFFFF
310
F0001FFFFFFFFC0007F0001FFFFFFFFC0007FF0003FFFFFFFFFF0000000000FF
310
F000FC0000000003FFFFE0007F00078007F0003FFF80007FFC0000000007FFFF
310
C0000000007FFFF80FFFFFFFFFFFFFC07FFFFFF0001FFFFFF8001FFFFFFFFC00
310
0FF8001FFFFFFFFC000FFF0003FFFFFFFFFE0000000003FFF000FC000000000F
310
FFFFE0007F80070007F8001FFF80007FF8000000001FFFFF8000000001FFFFF8
310
0FFFFFFFFFFFFFC07FFFFFF0001FFFFFF8001FFFFFFFFC000FF8001FFFFFFFFC
310
000FFF0003FFFFFFFFFC000000000FFFF000F8000000007FFFFFE0007F800700
310
07F8001FFF80007FF000000000FFFFFF800000000FFFFFF80FFFFFFFFFFFFFC0
310
7FFFFFF0001FFFFFF8000FFFFFFFF8000FF8000FFFFFFFF8000FFF0003FFFFFF
310
FFFC000000007FFFF000F800000007FFFFFFC0007F8003000FF8001FFF80007F
310
F000000007FFFFFF000000007FFFFFF80FFFFFFFFFFFFFC07FFFFFF0001FFFFF
310
F8000FFFFFFFF8000FF8000FFFFFFFF8000FFF0003FFFFFFFFF80000000FFFFF
310
F000F0000000FFFFFFFFC000FF8003000FF8001FFF80007FE0000000FFFFFFFF
310
0000000FFFFFFFF8000001FFFE0000007FFFFFF0001FFFFFF8000FFFFFFFF800
310
0FF8000FFFFFFFF8000FFF0003FFFFFFFFF8000000FFFFFFF000F000000FFFFF
310
FFFFC000FFC002000FF8000FFF80007FE000001FFFFFFFFE000001FFFFFFFFF8
310
000001FFFE0000007FFFFFF0001FFFFFF8000FFFFFFFF8000FF8000FFFFFFFF8
310
000FFF0003FFFFFFFFF000001FFFFFFFF000E00000FFFFFFFFFFC000FFC00200
310
0FFC000FFF80007FE00001FFFFFFFFFE00001FFFFFFFFFF8000001FFFE000000
310
7FFFFFF0001FFFFFFC000FFFFFFFF8001FFC000FFFFFFFF8001FFF0003FFFFFF
310
FFF00001FFFFFFFFF000E00007FFFFFFFFFF8000FFC000001FFC000FFF80007F
310
C0000FFFFFFFFFFE0000FFFFFFFFFFF8000001FFFE0000007FFFFFF0001FFFFF
310
FC0007FFFFFFF0001FFC0007FFFFFFF0001FFF0003FFFFFFFFF00007FFFFFFFF
310
F000E0001FFFFFFFFFFF8000FFC000001FFC000FFF80007FC0003FFFFFFFFFFE
310
0001FFFFFFFFFFF8000001FFFE0000007FFFFFF0001FFFFFFC0007FFFFFFF000
310
1FFC0007FFFFFFF0001FFF0003FFFFFFFFF0001FFFFFFFFFF000E0003FFFFF00
310
03FF8001FFE000001FFC0007FF80007FC0007FFFFF0007FC0003FFFFF0003FF8
310
000001FFFE0000007FFFFFF0001FFFFFFC0003FFFFFFE0001FFC0003FFFFFFE0
310
001FFF0003FFFFFFFFF0003FFFFFFFFFF000E0003FFFFF0001FF8001FFE00000
310
1FFE0007FF80007FC0007FFFFE0003FC0007FFFFE0003FF8000001FFFE000000
310
7FFFFFF0001FFFFFFE0003FFFFFFE0003FFE0003FFFFFFE0003FFF0003FFFFFF
310
FFF0003FFFFF8001F000E0003FFFFF0001FF0001FFE000001FFE0007FF80007F
310
C0007FFFFE0003FC0007FFFFE0003FF8000001FFFE0000007FFFFFF0001FFFFF
310
FE0001FFFFFFC0003FFE0001FFFFFFC0003FFF0003FFFFFFFFF0003FFFFF0001
310
F000E0003FFFFF0003FF0001FFE000003FFE0007FF80007FC0007FFFFE0003FC
310
0007FFFFE0003FF8000001FFFE0000007FFFFFF0001FFFFFFF0001FFFFFFC000
310
7FFF0001FFFFFFC0007FFF0003FFFFFFFFF0003FFFFF0001F000E0003FFFFE00
310
03FF0003FFF000003FFE0003FF80007FC0007FFFFC0003FE0007FFFFE0003FF8
310
000001FFFE0000007FFFFFF0001FFFFFFF0000FFFFFF80007FFF0000FFFFFF80
310
007FFF0003FFFFFFFFF0003FFFFF0001F000E0003FFFFE0003FF0003FFF00000
310
3FFF0003FF80007FC0007FFFFC0007FE0007FFFFC0003FF8000001FFFE000000
310
7FFFFFF0001FFFFFFF80007FFFFF0000FFFF80007FFFFF0000FFFF0003FFFFFF
310
FFF0003FFFFF0003F000E0003FFFFC0003FE0003FFF000003FFF0003FF80007F
310
E0003FFFF80007FE0003FFFFC0007FF8000001FFFE0000007FFFFFF0001FFFFF
310
FF80003FFFFE0000FFFF80003FFFFE0000FFFF0003FFFFFFFFF0001FFFFE0003
310
F000F0001FFFF80003FE0003FFF000007FFF0001FF80007FE0003FFFF00007FE
310
0001FFFF80007FF8000001FFFE0000007FFFFFF0001FFFFFFFC0000FFFF80001
310
FFFFC0000FFFF80001FFFF0003FFFFFFFFF0001FFFFC0003F000F0000FFFF000
310
07FE0007FFF800007FFF0001FF80007FE0001FFFE00007FF0000FFFE00007FF8
310
000001FFFE0000007FFFFFF0001FFFFFFFC00003FFE00001FFFFC00003FFE000
310
01FFFF0003FFFFFFFFF8000FFFF80003F000F00003FFC00007FC0007FFF80000
310
7FFF8001FF80007FF00007FF80000FFF00007FF80000FFF8000001FFFE000000
310
7F80000000000001FFE000003E000003FFFFE000003E000003FFFF0003FFFFFF
310
FFF80003FFE00007F000F800000000000FFC0007FFF800007FFF8001FF80007F
310
F000000000000FFF000000000000FFF8000001FFFE0000007F80000000000001
310
FFF0000000000007FFFFF0000000000007FFFF0003FFFFFFFFFC00007E000007
310
F000F800000000000FFC0007FFF80000FFFF8000FF80007FF800000000001FFF
310
800000000001FFF8000001FFFE0000007F80000000000001FFF800000000000F
310
FFFFF800000000000FFFFF0003FFFFFFFFFC00000000000FF000FC0000000000
310
1FFC0007FFFC0000FFFF8000FF80007FF800000000003FFFC00000000001FFF8
310
000001FFFE0000007F80000000000001FFF800000000000FFFFFF80000000000
310
0FFFFF0003FFFFFFFFFE00000000001FF000FE00000000003FF8000FFFFC0000
310
FFFF8000FF80007FFC00000000003FFFC00000000003FFF8000001FFFE000000
310
7F80000000000001FFFC00000000001FFFFFFC00000000001FFFFF0003FFFFFF
310
FFFF00000000001FF000FF00000000003FF8000FFFFC0000FFFFC000FF80007F
310
FE00000000007FFFE00000000007FFF8000001FFFE0000007F80000000000001
310
FFFE00000000003FFFFFFE00000000003FFFFF0003FFFFFFFFFF80000000003F
310
F000FF80000000007FF8000FFFFC0001FFFFC0007F80007FFF0000000000FFFF
310
F0000000000FFFF800000000000000007F80000000000001FFFF8000000000FF
310
FFFFFF8000000000FFFFFF0003FFFFFFFFFFC0000000007FF000FFC000000000
310
FFF8000FFFFE0001FFFFC0007F80007FFF8000000001FFFFF8000000001FFFF8
310
00000000000000007F80000000000001FFFFC000000001FFFFFFFFC000000001
310
FFFFFF0003FFFFFFFFFFE000000000FFF000FFE000000003FFF0001FFFFE0001
310
FFFFC0007F80007FFFC000000007FFFFFE000000003FFFF80000000000000000
310
7F80000000000001FFFFE000000003FFFFFFFFE000000003FFFFFF0003FFFFFF
310
FFFFF000000003FFF000FFF80000000FFFF0001FFFFE0001FFFFE0007F80007F
310
FFF00000000FFFFFFF00000000FFFFF800000000000000007F80000000000001
310
FFFFF80000000FFFFFFFFFF80000000FFFFFFF0003FFFFFFFFFFFC0000000FFF
310
F000FFFE0000003FFFF0001FFFFE0003FFFFE0003F80007FFFFC0000003FFFFF
310
FFC0000003FFFFF800000000000000007F80000000000001FFFFFE0000003FFF
310
FFFFFFFE0000003FFFFFFF0003FFFFFFFFFFFF0000003FFFF000FFFF800000FF
310
FFF0001FFFFF0003FFFFE0003F80007FFFFF000001FFFFFFFFF800001FFFFFF8
310
00000000000000007F80000000000001FFFFFFC00001FFFFFFFFFFFFC00001FF
310
FFFFFF0003FFFFFFFFFFFFC00000FFFFF000FFFFF8000FFFFFFFFFFFFFFFFFFF
310
FFFFFFFFFFFFFFFFFFFFF0001FFFFFFFFFFF0000FFFFFFF80000000000000000
310
7FFFFFFFFFFFFFFFFFFFFFFC001FFFFFFFFFFFFFFC001FFFFFFFFFFFFFFFFFFF
310
FFFFFFFC001FFFFFF000FFFFFFFFFFFFFFFFFFFFFFFFFFFFFFFFFFFFFFFFFFFF
310
FFFFFFFFFFFFFFFFFFFFFFFFFFFFFFFFFFFFFFFFFFFFFFFFFFFFFFFFFFFFFFFF
310
FFFFFFFFFFFFFFFFFFFFFFFFFFFFFFFFFFFFFFFFFFFFFFFFFFFFFFFFFFFFFFFF
310
F000FFFFFFFFFFFFFFFFFFFFFFFFFFFFFFFFFFFFFFFFFFFFFFFFFFFFFFFFFFFF
310
FFFFFFFFFFFFFFFFFFFFFFFFFFFFFFFFFFFFFFFFFFFFFFFFFFFFFFFFFFFFFFFF
310
FFFFFFFFFFFFFFFFFFFFFFFFFFFFFFFFFFFFFFFFFFFFFFFFF000FFFFFFFFFFFF
310
FFFFFFFFFFFFFFFFFFFFFFFFFFFFFFFFFFFFFFFFFFFFFFFFFFFFFFFFFFFFFFFF
310
FFFFFFFFFFFFFFFFFFFFFFFFFFFFFFFFFFFFFFFFFFFFFFFFFFFFFFFFFFFFFFFF
310
FFFFFFFFFFFFFFFFFFFFFFFFFFFFFFFFF000FFFFFFFFFFFFFFFFFFFFFFFFFFFF
310
FFFFFFFFFFFFFFFFFFFFFFFFFFFFFFFFFFFFFFFFFFFFFFFFFFFFFFFFFFFFFFFF
310
FFFFFFFFFFFFFFFFFFFFFFFFFFFFFFFFFFFFFFFFFFFFFFFFFFFFFFFFFFFFFFFF
310
FFFFFFFFFFFFFFFFF000FFFFFFFFFFFFFFFFFFFFFFFFFFFFFFFFFFFFFFFFFFFF
310
FFFFFFFFFFFFFFFFFFFFFFFFFFFFFFFFFFFFFFFFFFFFFFFFFFFFFFFFFFFFFFFF
310
FFFFFFFFFFFFFFFFFFFFFFFFFFFFFFFFFFFFFFFFFFFFFFFFFFFFFFFFFFFFFFFF
310
F000FFFFFFFFFFFFFFFFFFFFFFFFFFFFFFFFFFFFFFFFFFFFFFFFFFFFFFFFFFFF
310
FFFFFFFFFFFFFFFFFFFFFFFFFFFFFFFFFFFFFFFFFFFFFFFFFFFFFFFFFFFFFFFF
310
FFFFFFFFFFFFFFFFFFFFFFFFFFFFFFFFFFFFFFFFFFFFFFFFF000FFFFFFFFFFFF
310
FFFFFFFFFFFFFFFFFFFFFFFFFFFFFFFFFFFFFFFFFFFFFFFFFFFFFFFFFFFFFFFF
310
FFFFFFFFFFFFFFFFFFFFFFFFFFFFFFFFFFFFFFFFFFFFFFFFFFFFFFFFFFFFFFFF
310
FFFFFFFFFFFFFFFFFFFFFFFFFFFFFFFFF000FFFFFFFFFFFFFFFFFFFFFFFFFFFF
310
FFFFFFFFFFFFFFFFFFFFFFFFFFFFFFFFFFFFFFFFFFFFFFFFFFFFFFFFFFFFFFFF
310
FFFFFFFFFFFFFFFFFFFFFFFFFFFFFFFFFFFFFFFFFFFFFFFFFFFFFFFFFFFFFFFF
310
FFFFFFFFFFFFFFFFF000FFFFFFFFFFFFFFFFFFFFFFFFFFFFFFFFFFFFFFFFFFFF
310
FFFFFFFFFFFFFFFFFFFFFFFFFFFFFFFFFFFFFFFFFFFFFFFFFFFFFFFFFFFFFFFF
310
FFFFFFFFFFFFFFFFFFFFFFFFFFFFFFFFFFFFFFFFFFFFFFFFFFFFFFFFFFFFFFFF
310
F000FFFFFFFFFFFFFFFFFFFFFFFFFFFFFFFFFFFFFFFFFFFFFFFFFFFFFFFFFFFF
310
FFFFFFFFFFFFFFFFFFFFFFFFFFFFFFFFFFFFFFFFFFFFFFFFFFFFFFFFFFFFFFFF
310
FFFFFFFFFFFFFFFFFFFFFFFFFFFFFFFFFFFFFFFFFFFFFFFFF000FFFFFFFFFFFF
310
FFFFFFFFFFFFFFFFFFFFFFFFFFFFFFFFFFFFFFFFFFFFFFFFFFFFFFFFFFFFFFFF
310
FFFFFFFFFFFFFFFFFFFFFFFFFFFFFFFFFFFFFFFFFFFFFFFFFFFFFFFFFFFFFFFF
310
FFFFFFFFFFFFFFFFFFFFFFFFFFFFFFFFF000FFFFFFFFFFFFFFFFFFFFFFFFFFFF
310
FFFFFFFFFFFFFFFFFFFFFFFFFFFFFFFFFFFFFFFFFFFFFFFFFFFFFFFFFFFFFFFF
310
FFFFFFFFFFFFFFFFFFFFFFFFFFFFFFFFFFFFFFFFFFFFFFFFFFFFFFFFFFFFFFFF
310
FFFFFFFFFFFFFFFFF000FFFFFFFFFFFFFFFFFFFFFFFFFFFFFFFFFFFFFFFFFFFF
310
FFFFFFFFFFFFFFFFFFFFFFFFFFFFFFFFFFFFFFFFFFFFFFFFFFFFFFFFFFFFFFFF
310
FFFFFFFFFFFFFFFFFFFFFFFFFFFFFFFFFFFFFFFFFFFFFFFFFFFFFFFFFFFFFFFF
310
F000FFFFFFFFFFFFFFFFFFFFFFFFFFFFFFFFFFFFFFFFFFFFFFFFFFFFFFFFFFFF
310
FFFFFFFFFFFFFFFFFFFFFFFFFFFFFFFFFFFFFFFFFFFFFFFFFFFFFFFFFFFFFFFF
310
FFFFFFFFFFFFFFFFFFFFFFFFFFFFFFFFFFFFFFFFFFFFFFFFF000FFFFFFFFFFFF
310
FFFFFFFFFFFFFFFFFFFFFFFFFFFFFFFFFFFFFFFFFFFFFFFFFFFFFFFFFFFFFFFF
310
FFFFFFFFFFFFFFFFFFFFFFFFFFFFFFFFFFFFFFFFFFFFFFFFFFFFFFFFFFFFFFFF
310
FFFFFFFFFFFFFFFFFFFFFFFFFFFFFFFFF000FFFFFFFFFFFFFFFFFFFFFFFFFFFF
310
FFFFFFFFFFFFFFFFFFFFFFFFFFFFFFFFFFFFFFFFFFFFFFFFFFFFFFFFFFFFFFFF
310
FFFFFFFFFFFFFFFFFFFFFFFFFFFFFFFFFFFFFFFFFFFFFFFFFFFFFFFFFFFFFFFF
310
FFFFFFFFFFFFFFFFF000FFFFFFFFFFFFFFFFFFFFFFFFFFFFFFFFFFFFFFFFFFFF
310
FFFFFFFFFFFFFFFFFFFFFFFFFFFFFFFFFFFFFFFFFFFFFFFFFFFFFFFFFFFFFFFF
310
FFFFFFFFFFFFFFFFFFFFFFFFFFFFFFFFFFFFFFFFFFFFFFFFFFFFFFFFFFFFFFFF
310
F000FFFFFFFFFFFFFFFFFFFFFFFFFFFFFFFFFFFFFFFFFFFFFFFFFFFFFFFFFFFF
310
FFFFFFFFFFFFFFFFFFFFFFFFFFFFFFFFFFFFFFFFFFFFFFFFFFFFFFFFFFFFFFFF
310
FFFFFFFFFFFFFFFFFFFFFFFFFFFFFFFFFFFFFFFFFFFFFFFFF000FFFFFFFFFFFF
310
FFFFFFFFFFFFFFFFFFFFFFFFFFFFFFFFFFFFFFFFFFFFFFFFFFFFFFFFFFFFFFFF
310
FFFFFFFFFFFFFFFFFFFFFFFFFFFFFFFFFFFFFFFFFFFFFFFFFFFFFFFFFFFFFFFF
310
FFFFFFFFFFFFFFFFFFFFFFFFFFFFFFFFF000FFFFFFFFFFFFFFFFFFFFFFFFFFFF
310
FFFFFFFFFFFFFFFFFFFFFFFFFFFFFFFFFFFFFFFFFFFFFFFFFFFFFFFFFFFFFFFF
310
FFFFFFFFFFFFFFFFFFFFFFFFFFFFFFFFFFFFFFFFFFFFFFFFFFFFFFFFFFFFFFFF
310
FFFFFFFFFFFFFFFFF000FFFFFFFFFFFFFFFFFFFFFFFFFFFFFFFFFFFFFFFFFFFF
310
FFFFFFFFFFFFFFFFFFFFFFFFFFFFFFFFFFFFFFFFFFFFFFFFFFFFFFFFFFFFFFFF
310
FFFFFFFFFFFFFFFFFFFFFFFFFFFFFFFFFFFFFFFFFFFFFFFFFFFFFFFFFFFFFFFF
310
F000FFFFFFFFFFFFFFFFFFFFFFFFFFFFFFFFFFFFFFFFFFFFFFFFFFFFFFFFFFFF
310
FFFFFFFFFFFFFFFFFFFFFFFFFFFFFFFFFFFFFFFFFFFFFFFFFFFFFFFFFFFFFFFF
310
FFFFFFFFFFFFFFFFFFFFFFFFFFFFFFFFFFFFFFFFFFFFFFFFF000FFFFFFFFFFFF
310
FFFFFFFFFFFFFFFFFFFFFFFFFFFFFFFFFFFFFFFFFFFFFFFFFFFFFFFFFFFFFFFF
310
FFFFFFFFFFFFFFFFFFFFFFFFFFFFFFFFFFFFFFFFFFFFFFFFFFFFFFFFFFFFFFFF
310
FFFFFFFFFFFFFFFFFFFFFFFFFFFFFFFFF0000000000000000000000000000000
310
0000000001000000010000000100000001000000010000000100000001000000
310
0100000001000000000000000100000000000000010000000100000001000000
310
0100000001000000010000000100000001000000010000000100000001000000
310
0100000001000000010000000100000001000000010000000100000001000000
310
0100000001000000010000000100000000000000010000000000000001000000
310
0100000001000000010000000100000001000000010000000100000001000000
310
0000000001000000010000000100000001000000000000000100000001000000
310
0100000001000000010000000100000001000000010000000100000001000000
310
0000000001000000000000000100000001000000010000000100000001000000
310
0100000001000000010000000000000001000000000000000100000001000000
310
0100000001000000010000000100000001000000000000000100000001000000
310
0100000001000000010000000100000001000000010000000100000001000000
310
0100000001000000010000000100000001000000010000000100000001000000
310
0100000000000000010000000100000001000000010000000100000001000000
310
0100000001000000010000000100000001000000010000000100000001000000
  1
OLE
  0
ENDSEC
  0
SECTION
  2
OBJECTS
  0
DICTIONARY
  5
C
330
0
100
AcDbDictionary
281
     1
  3
ACAD_GROUP
350
D
  3
ACAD_LAYOUT
350
1A
  3
ACAD_MLEADERSTYLE
350
230
  3
ACAD_MLINESTYLE
350
17
  3
ACAD_PLOTSETTINGS
350
19
  3
ACAD_PLOTSTYLENAME
350
E
  3
ACAD_TABLESTYLE
350
22F
  3
ACAD_VISUALSTYLE
350
2A
  3
AcDbVariableDictionary
350
231
  0
DICTIONARY
  5
D
102
{ACAD_REACTORS
330
C
102
}
330
C
100
AcDbDictionary
281
     1
  0
DICTIONARY
  5
1A
102
{ACAD_REACTORS
330
C
102
}
330
C
100
AcDbDictionary
281
     1
  3
Layout1
350
1E
  3
Layout2
350
26
  3
Model
350
22
  0
DICTIONARY
  5
230
102
{ACAD_REACTORS
330
C
102
}
330
C
100
AcDbDictionary
281
     1
  0
DICTIONARY
  5
17
102
{ACAD_REACTORS
330
C
102
}
330
C
100
AcDbDictionary
281
     1
  3
Standard
350
18
  0
DICTIONARY
  5
19
102
{ACAD_REACTORS
330
C
102
}
330
C
100
AcDbDictionary
281
     1
  0
ACDBDICTIONARYWDFLT
  5
E
102
{ACAD_REACTORS
330
C
102
}
330
C
100
AcDbDictionary
281
     1
  3
Normal
350
F
100
AcDbDictionaryWithDefault
340
F
  0
DICTIONARY
  5
22F
102
{ACAD_REACTORS
330
C
102
}
330
C
100
AcDbDictionary
281
     1
  0
DICTIONARY
  5
2A
102
{ACAD_REACTORS
330
C
102
}
330
C
100
AcDbDictionary
281
     1
  3
2dWireframe
350
2F
  3
3D Hidden
350
31
  3
3dWireframe
350
30
  3
Basic
350
32
  3
Brighten
350
36
  3
ColorChange
350
3A
  3
Conceptual
350
34
  3
Dim
350
35
  3
Facepattern
350
39
  3
Flat
350
2B
  3
FlatWithEdges
350
2C
  3
Gouraud
350
2D
  3
GouraudWithEdges
350
2E
  3
Linepattern
350
38
  3
Realistic
350
33
  3
Thicken
350
37
  0
DICTIONARY
  5
231
102
{ACAD_REACTORS
330
C
102
}
330
C
100
AcDbDictionary
281
     1
  3
PSOLHEIGHT
350
233
  3
PSOLWIDTH
350
232
  0
LAYOUT
  5
1E
102
{ACAD_REACTORS
330
1A
102
}
330
1A
100
AcDbPlotSettings
  1

  2
none_device
  4

  6

 40
0.0
 41
0.0
 42
0.0
 43
0.0
 44
0.0
 45
0.0
 46
0.0
 47
0.0
 48
0.0
 49
0.0
140
0.0
141
0.0
142
1.0
143
1.0
 70
   688
 72
     0
 73
     0
 74
     5
  7

 75
    16
147
1.0
148
0.0
149
0.0
100
AcDbLayout
  1
Layout1
 70
     1
 71
     1
 10
0.0
 20
0.0
 11
420.0
 21
297.0
 12
0.0
 22
0.0
 32
0.0
 14
1.0000000000E+20
 24
1.0000000000E+20
 34
1.0000000000E+20
 15
-1.0000000000E+20
 25
-1.0000000000E+20
 35
-1.0000000000E+20
146
0.0
 13
0.0
 23
0.0
 33
0.0
 16
1.0
 26
0.0
 36
0.0
 17
0.0
 27
1.0
 37
0.0
 76
     0
330
1B
  0
LAYOUT
  5
26
102
{ACAD_REACTORS
330
1A
102
}
330
1A
100
AcDbPlotSettings
  1

  2
none_device
  4

  6

 40
0.0
 41
0.0
 42
0.0
 43
0.0
 44
0.0
 45
0.0
 46
0.0
 47
0.0
 48
0.0
 49
0.0
140
0.0
141
0.0
142
1.0
143
1.0
 70
   688
 72
     0
 73
     0
 74
     5
  7

 75
    16
147
1.0
148
0.0
149
0.0
100
AcDbLayout
  1
Layout2
 70
     1
 71
     2
 10
0.0
 20
0.0
 11
0.0
 21
0.0
 12
0.0
 22
0.0
 32
0.0
 14
0.0
 24
0.0
 34
0.0
 15
0.0
 25
0.0
 35
0.0
146
0.0
 13
0.0
 23
0.0
 33
0.0
 16
1.0
 26
0.0
 36
0.0
 17
0.0
 27
1.0
 37
0.0
 76
     0
330
23
  0
LAYOUT
  5
22
102
{ACAD_REACTORS
330
1A
102
}
330
1A
100
AcDbPlotSettings
  1

  2
none_device
  4

  6

 40
0.0
 41
0.0
 42
0.0
 43
0.0
 44
0.0
 45
0.0
 46
0.0
 47
0.0
 48
0.0
 49
0.0
140
0.0
141
0.0
142
1.0
143
1.0
 70
  1712
 72
     0
 73
     0
 74
     0
  7

 75
     0
147
1.0
148
0.0
149
0.0
100
AcDbLayout
  1
Model
 70
     1
 71
     0
 10
0.0
 20
0.0
 11
297.0
 21
210.0
 12
0.0
 22
0.0
 32
0.0
 14
0.0
 24
0.0
 34
0.0
 15
297.0
 25
210.0
 35
0.0
146
0.0
 13
0.0
 23
0.0
 33
0.0
 16
1.0
 26
0.0
 36
0.0
 17
0.0
 27
1.0
 37
0.0
 76
     0
330
1F
331
29
  0
MLINESTYLE
  5
18
102
{ACAD_REACTORS
330
17
102
}
330
17
100
AcDbMlineStyle
  2
Standard
 70
     0
  3

 62
   256
 51
90.0
 52
90.0
 71
     2
 49
0.5
 62
   256
  6
BYLAYER
 49
-0.5
 62
   256
  6
BYLAYER
  0
ACDBPLACEHOLDER
  5
F
102
{ACAD_REACTORS
330
E
102
}
330
E
  0
VISUALSTYLE
  5
2F
102
{ACAD_REACTORS
330
2A
102
}
330
2A
100
AcDbVisualStyle
  2
2dWireframe
 70
     4
 71
     0
 72
     2
 73
     0
 90
        0
 40
-0.6
 41
-30.0
 62
     5
 63
     7
 74
     1
 91
        4
 64
     7
 65
   257
 75
     1
175
     1
 42
1.0
 92
        0
 66
   257
 43
1.0
 76
     1
 77
     6
 78
     2
 67
     7
 79
     5
170
     0
171
     0
290
     0
174
     0
 93
        1
 44
0.0
173
     0
291
     0
 45
0.0
1001
ACAD
1000
AcDbSavedByObjectVersion
1070
     0
  0
VISUALSTYLE
  5
31
102
{ACAD_REACTORS
330
2A
102
}
330
2A
100
AcDbVisualStyle
  2
3D Hidden
 70
     6
 71
     1
 72
     2
 73
     2
 90
        0
 40
-0.6
 41
-30.0
 62
     5
 63
     7
 74
     2
 91
        2
 64
     7
 65
   257
 75
     2
175
     1
 42
40.0
 92
        0
 66
   257
 43
1.0
 76
     1
 77
     6
 78
     2
 67
     7
 79
     3
170
     0
171
     0
290
     0
174
     0
 93
        1
 44
0.0
173
     0
291
     0
 45
0.0
1001
ACAD
1000
AcDbSavedByObjectVersion
1070
     0
  0
VISUALSTYLE
  5
30
102
{ACAD_REACTORS
330
2A
102
}
330
2A
100
AcDbVisualStyle
  2
3dWireframe
 70
     5
 71
     0
 72
     2
 73
     0
 90
        0
 40
-0.6
 41
-30.0
 62
     5
 63
     7
 74
     1
 91
        4
 64
     7
 65
   257
 75
     1
175
     1
 42
1.0
 92
        0
 66
   257
 43
1.0
 76
     1
 77
     6
 78
     2
 67
     7
 79
     5
170
     0
171
     0
290
     0
174
     0
 93
        1
 44
0.0
173
     0
291
     0
 45
0.0
1001
ACAD
1000
AcDbSavedByObjectVersion
1070
     0
  0
VISUALSTYLE
  5
32
102
{ACAD_REACTORS
330
2A
102
}
330
2A
100
AcDbVisualStyle
  2
Basic
 70
     7
 71
     1
 72
     0
 73
     1
 90
        0
 40
-0.6
 41
-30.0
 62
     5
 63
     7
 74
     0
 91
        4
 64
     7
 65
   257
 75
     1
175
     1
 42
1.0
 92
        8
 66
     7
 43
1.0
 76
     1
 77
     6
 78
     2
 67
     7
 79
     5
170
     0
171
     0
290
     0
174
     0
 93
        1
 44
0.0
173
     0
291
     1
 45
0.0
1001
ACAD
1000
AcDbSavedByObjectVersion
1070
     0
  0
VISUALSTYLE
  5
36
102
{ACAD_REACTORS
330
2A
102
}
330
2A
100
AcDbVisualStyle
  2
Brighten
 70
    12
 71
     2
 72
     2
 73
     0
 90
        0
 40
-0.6
 41
-30.0
 62
     5
 63
     7
 74
     1
 91
        4
 64
     7
 65
   257
 75
     1
175
     1
 42
1.0
 92
        8
 66
     7
 43
1.0
 76
     1
 77
     6
 78
     2
 67
     7
 79
     5
170
     0
171
     0
290
     0
174
     0
 93
        1
 44
50.0
173
     0
291
     1
 45
0.0
1001
ACAD
1000
AcDbSavedByObjectVersion
1070
     0
  0
VISUALSTYLE
  5
3A
102
{ACAD_REACTORS
330
2A
102
}
330
2A
100
AcDbVisualStyle
  2
ColorChange
 70
    16
 71
     2
 72
     2
 73
     3
 90
        0
 40
-0.6
 41
-30.0
 62
     5
 63
     8
 74
     1
 91
        4
 64
     7
 65
   257
 75
     1
175
     1
 42
1.0
 92
        8
 66
     8
 43
1.0
 76
     1
 77
     6
 78
     2
 67
     7
 79
     5
170
     0
171
     0
290
     0
174
     0
 93
        1
 44
0.0
173
     0
291
     1
 45
0.0
1001
ACAD
1000
AcDbSavedByObjectVersion
1070
     0
  0
VISUALSTYLE
  5
34
102
{ACAD_REACTORS
330
2A
102
}
330
2A
100
AcDbVisualStyle
  2
Conceptual
 70
     9
 71
     3
 72
     2
 73
     0
 90
        0
 40
-0.6
 41
-30.0
 62
     5
 63
     7
 74
     2
 91
        2
 64
     7
 65
   257
 75
     1
175
     1
 42
40.0
 92
        8
 66
     7
 43
1.0
 76
     1
 77
     6
 78
     2
 67
     7
 79
     3
170
     0
171
     0
290
     0
174
     0
 93
        1
 44
0.0
173
     0
291
     0
 45
0.0
1001
ACAD
1000
AcDbSavedByObjectVersion
1070
     0
  0
VISUALSTYLE
  5
35
102
{ACAD_REACTORS
330
2A
102
}
330
2A
100
AcDbVisualStyle
  2
Dim
 70
    11
 71
     2
 72
     2
 73
     0
 90
        0
 40
-0.6
 41
-30.0
 62
     5
 63
     7
 74
     1
 91
        4
 64
     7
 65
   257
 75
     1
175
     1
 42
1.0
 92
        8
 66
     7
 43
1.0
 76
     1
 77
     6
 78
     2
 67
     7
 79
     5
170
     0
171
     0
290
     0
174
     0
 93
        1
 44
-50.0
173
     0
291
     1
 45
0.0
1001
ACAD
1000
AcDbSavedByObjectVersion
1070
     0
  0
VISUALSTYLE
  5
39
102
{ACAD_REACTORS
330
2A
102
}
330
2A
100
AcDbVisualStyle
  2
Facepattern
 70
    15
 71
     2
 72
     2
 73
     0
 90
        0
 40
-0.6
 41
-30.0
 62
     5
 63
     7
 74
     1
 91
        4
 64
     7
 65
   257
 75
     1
175
     1
 42
1.0
 92
        8
 66
     7
 43
1.0
 76
     1
 77
     6
 78
     2
 67
     7
 79
     5
170
     0
171
     0
290
     0
174
     0
 93
        1
 44
0.0
173
     0
291
     1
 45
0.0
1001
ACAD
1000
AcDbSavedByObjectVersion
1070
     0
  0
VISUALSTYLE
  5
2B
102
{ACAD_REACTORS
330
2A
102
}
330
2A
100
AcDbVisualStyle
  2
Flat
 70
     0
 71
     2
 72
     1
 73
     1
 90
        2
 40
-0.6
 41
30.0
 62
     5
 63
     7
 74
     0
 91
        4
 64
     7
 65
   257
 75
     1
175
     1
 42
1.0
 92
        8
 66
     7
 43
1.0
 76
     1
 77
     6
 78
     2
 67
     7
 79
     5
170
     0
171
     0
290
     0
174
     0
 93
       13
 44
0.0
173
     0
291
     1
 45
0.0
1001
ACAD
1000
AcDbSavedByObjectVersion
1070
     0
  0
VISUALSTYLE
  5
2C
102
{ACAD_REACTORS
330
2A
102
}
330
2A
100
AcDbVisualStyle
  2
FlatWithEdges
 70
     1
 71
     2
 72
     1
 73
     1
 90
        2
 40
-0.6
 41
30.0
 62
     5
 63
     7
 74
     1
 91
        4
 64
     7
 65
   257
 75
     1
175
     1
 42
1.0
 92
        0
 66
   257
 43
1.0
 76
     1
 77
     6
 78
     2
 67
     7
 79
     5
170
     0
171
     0
290
     0
174
     0
 93
       13
 44
0.0
173
     0
291
     1
 45
0.0
1001
ACAD
1000
AcDbSavedByObjectVersion
1070
     0
  0
VISUALSTYLE
  5
2D
102
{ACAD_REACTORS
330
2A
102
}
330
2A
100
AcDbVisualStyle
  2
Gouraud
 70
     2
 71
     2
 72
     2
 73
     1
 90
        2
 40
-0.6
 41
30.0
 62
     5
 63
     7
 74
     0
 91
        4
 64
     7
 65
   257
 75
     1
175
     1
 42
1.0
 92
        0
 66
     7
 43
1.0
 76
     1
 77
     6
 78
     2
 67
     7
 79
     5
170
     0
171
     0
290
     0
174
     0
 93
       13
 44
0.0
173
     0
291
     1
 45
0.0
1001
ACAD
1000
AcDbSavedByObjectVersion
1070
     0
  0
VISUALSTYLE
  5
2E
102
{ACAD_REACTORS
330
2A
102
}
330
2A
100
AcDbVisualStyle
  2
GouraudWithEdges
 70
     3
 71
     2
 72
     2
 73
     1
 90
        2
 40
-0.6
 41
30.0
 62
     5
 63
     7
 74
     1
 91
        4
 64
     7
 65
   257
 75
     1
175
     1
 42
1.0
 92
        0
 66
   257
 43
1.0
 76
     1
 77
     6
 78
     2
 67
     7
 79
     5
170
     0
171
     0
290
     0
174
     0
 93
       13
 44
0.0
173
     0
291
     1
 45
0.0
1001
ACAD
1000
AcDbSavedByObjectVersion
1070
     0
  0
VISUALSTYLE
  5
38
102
{ACAD_REACTORS
330
2A
102
}
330
2A
100
AcDbVisualStyle
  2
Linepattern
 70
    14
 71
     2
 72
     2
 73
     0
 90
        0
 40
-0.6
 41
-30.0
 62
     5
 63
     7
 74
     1
 91
        4
 64
     7
 65
   257
 75
     7
175
     7
 42
1.0
 92
        8
 66
     7
 43
1.0
 76
     1
 77
     6
 78
     2
 67
     7
 79
     5
170
     0
171
     0
290
     0
174
     0
 93
        1
 44
0.0
173
     0
291
     1
 45
0.0
1001
ACAD
1000
AcDbSavedByObjectVersion
1070
     0
  0
VISUALSTYLE
  5
33
102
{ACAD_REACTORS
330
2A
102
}
330
2A
100
AcDbVisualStyle
  2
Realistic
 70
     8
 71
     2
 72
     2
 73
     0
 90
        0
 40
-0.6
 41
-30.0
 62
     5
 63
     7
 74
     1
 91
        0
 64
     7
 65
   257
 75
     1
175
     1
 42
1.0
 92
        8
 66
     8
 43
1.0
 76
     1
 77
     6
 78
     2
 67
     7
 79
     5
170
     0
171
     0
290
     0
174
     0
 93
       13
 44
0.0
173
     0
291
     0
 45
0.0
1001
ACAD
1000
AcDbSavedByObjectVersion
1070
     0
  0
VISUALSTYLE
  5
37
102
{ACAD_REACTORS
330
2A
102
}
330
2A
100
AcDbVisualStyle
  2
Thicken
 70
    13
 71
     2
 72
     2
 73
     0
 90
        0
 40
-0.6
 41
-30.0
 62
     5
 63
     7
 74
     1
 91
        4
 64
     7
 65
   257
 75
     1
175
     1
 42
1.0
 92
       12
 66
     7
 43
1.0
 76
     1
 77
     6
 78
     2
 67
     7
 79
     5
170
     0
171
     0
290
     0
174
     0
 93
        1
 44
0.0
173
     0
291
     1
 45
0.0
1001
ACAD
1000
AcDbSavedByObjectVersion
1070
     0
  0
DICTIONARYVAR
  5
233
102
{ACAD_REACTORS
330
231
102
}
330
231
100
DictionaryVariables
280
     0
  1
80.000000
  0
DICTIONARYVAR
  5
232
102
{ACAD_REACTORS
330
231
102
}
330
231
100
DictionaryVariables
280
     0
  1
5.000000
  0
ENDSEC
  0
EOF
