  0
SECTION
  2
HEADER
  9
$ACADVER
  1
AC1015
  9
$ACADMAINTVER
 70
     6
  9
$DWGCODEPAGE
  3
ANSI_1252
  9
$INSBASE
 10
0.0
 20
0.0
 30
0.0
  9
$EXTMIN
 10
0.0
 20
0.0
 30
0.0
  9
$EXTMAX
 10
297.0
 20
210.0
 30
0.0
  9
$LIMMIN
 10
0.0
 20
0.0
  9
$LIMMAX
 10
297.0
 20
210.0
  9
$ORTHOMODE
 70
     0
  9
$REGENMODE
 70
     1
  9
$FILLMODE
 70
     1
  9
$QTEXTMODE
 70
     0
  9
$MIRRTEXT
 70
     1
  9
$LTSCALE
 40
1.0
  9
$ATTMODE
 70
     1
  9
$TEXTSIZE
 40
2.0
  9
$TRACEWID
 40
1.0
  9
$TEXTSTYLE
  7
Standard
  9
$CLAYER
  8
0
  9
$CELTYPE
  6
ByLayer
  9
$CECOLOR
 62
   256
  9
$CELTSCALE
 40
1.0
  9
$DISPSILH
 70
     0
  9
$DIMSCALE
 40
1.0
  9
$DIMASZ
 40
3.0
  9
$DIMEXO
 40
0.0
  9
$DIMDLI
 40
3.75
  9
$DIMRND
 40
0.0
  9
$DIMDLE
 40
0.0
  9
$DIMEXE
 40
1.0
  9
$DIMTP
 40
0.0
  9
$DIMTM
 40
0.0
  9
$DIMTXT
 40
2.0
  9
$DIMCEN
 40
2.5
  9
$DIMTSZ
 40
0.0
  9
$DIMTOL
 70
     0
  9
$DIMLIM
 70
     0
  9
$DIMTIH
 70
     1
  9
$DIMTOH
 70
     1
  9
$DIMSE1
 70
     0
  9
$DIMSE2
 70
     0
  9
$DIMTAD
 70
     1
  9
$DIMZIN
 70
     0
  9
$DIMBLK
  1

  9
$DIMASO
 70
     1
  9
$DIMSHO
 70
     1
  9
$DIMPOST
  1

  9
$DIMAPOST
  1

  9
$DIMALT
 70
     0
  9
$DIMALTD
 70
     3
  9
$DIMALTF
 40
0.0393700787
  9
$DIMLFAC
 40
1.0
  9
$DIMTOFL
 70
     1
  9
$DIMTVP
 40
0.0
  9
$DIMTIX
 70
     0
  9
$DIMSOXD
 70
     0
  9
$DIMSAH
 70
     0
  9
$DIMBLK1
  1

  9
$DIMBLK2
  1

  9
$DIMSTYLE
  2
ISO-25
  9
$DIMCLRD
 70
     0
  9
$DIMCLRE
 70
     0
  9
$DIMCLRT
 70
     0
  9
$DIMTFAC
 40
1.0
  9
$DIMGAP
 40
1.524
  9
$DIMJUST
 70
     0
  9
$DIMSD1
 70
     0
  9
$DIMSD2
 70
     0
  9
$DIMTOLJ
 70
     0
  9
$DIMTZIN
 70
     0
  9
$DIMALTZ
 70
     0
  9
$DIMALTTZ
 70
     0
  9
$DIMUPT
 70
     0
  9
$DIMDEC
 70
     2
  9
$DIMTDEC
 70
     3
  9
$DIMALTU
 70
     2
  9
$DIMALTTD
 70
     3
  9
$DIMTXSTY
  7
Standard
  9
$DIMAUNIT
 70
     0
  9
$DIMADEC
 70
     2
  9
$DIMALTRND
 40
0.0
  9
$DIMAZIN
 70
     0
  9
$DIMDSEP
 70
    44
  9
$DIMATFIT
 70
     3
  9
$DIMFRAC
 70
     0
  9
$DIMLDRBLK
  1

  9
$DIMLUNIT
 70
     2
  9
$DIMLWD
 70
    -2
  9
$DIMLWE
 70
    -2
  9
$DIMTMOVE
 70
     0
  9
$LUNITS
 70
     2
  9
$LUPREC
 70
     2
  9
$SKETCHINC
 40
1.0
  9
$FILLETRAD
 40
10.0
  9
$AUNITS
 70
     0
  9
$AUPREC
 70
     2
  9
$MENU
  1
.
  9
$ELEVATION
 40
0.0
  9
$PELEVATION
 40
0.0
  9
$THICKNESS
 40
0.0
  9
$LIMCHECK
 70
     0
  9
$CHAMFERA
 40
10.0
  9
$CHAMFERB
 40
10.0
  9
$CHAMFERC
 40
20.0
  9
$CHAMFERD
 40
0.0
  9
$SKPOLY
 70
     0
  9
$TDCREATE
 40
2455672.396076343
  9
$TDUCREATE
 40
2455672.312743009
  9
$TDUPDATE
 40
2455672.396076354
  9
$TDUUPDATE
 40
2455672.312743021
  9
$TDINDWG
 40
0.0000000116
  9
$TDUSRTIMER
 40
0.0000000116
  9
$USRTIMER
 70
     1
  9
$ANGBASE
 50
0.0
  9
$ANGDIR
 70
     0
  9
$PDMODE
 70
     0
  9
$PDSIZE
 40
-1.0
  9
$PLINEWID
 40
0.0
  9
$SPLFRAME
 70
     0
  9
$SPLINETYPE
 70
     6
  9
$SPLINESEGS
 70
     8
  9
$HANDSEED
  5
1BE
  9
$SURFTAB1
 70
     6
  9
$SURFTAB2
 70
     6
  9
$SURFTYPE
 70
     6
  9
$SURFU
 70
     6
  9
$SURFV
 70
     6
  9
$UCSBASE
  2

  9
$UCSNAME
  2

  9
$UCSORG
 10
0.0
 20
0.0
 30
0.0
  9
$UCSXDIR
 10
1.0
 20
0.0
 30
0.0
  9
$UCSYDIR
 10
0.0
 20
1.0
 30
0.0
  9
$UCSORTHOREF
  2

  9
$UCSORTHOVIEW
 70
     0
  9
$UCSORGTOP
 10
0.0
 20
0.0
 30
0.0
  9
$UCSORGBOTTOM
 10
0.0
 20
0.0
 30
0.0
  9
$UCSORGLEFT
 10
0.0
 20
0.0
 30
0.0
  9
$UCSORGRIGHT
 10
0.0
 20
0.0
 30
0.0
  9
$UCSORGFRONT
 10
0.0
 20
0.0
 30
0.0
  9
$UCSORGBACK
 10
0.0
 20
0.0
 30
0.0
  9
$PUCSBASE
  2

  9
$PUCSNAME
  2

  9
$PUCSORG
 10
0.0
 20
0.0
 30
0.0
  9
$PUCSXDIR
 10
1.0
 20
0.0
 30
0.0
  9
$PUCSYDIR
 10
0.0
 20
1.0
 30
0.0
  9
$PUCSORTHOREF
  2

  9
$PUCSORTHOVIEW
 70
     0
  9
$PUCSORGTOP
 10
0.0
 20
0.0
 30
0.0
  9
$PUCSORGBOTTOM
 10
0.0
 20
0.0
 30
0.0
  9
$PUCSORGLEFT
 10
0.0
 20
0.0
 30
0.0
  9
$PUCSORGRIGHT
 10
0.0
 20
0.0
 30
0.0
  9
$PUCSORGFRONT
 10
0.0
 20
0.0
 30
0.0
  9
$PUCSORGBACK
 10
0.0
 20
0.0
 30
0.0
  9
$USERI1
 70
     0
  9
$USERI2
 70
     0
  9
$USERI3
 70
     0
  9
$USERI4
 70
     0
  9
$USERI5
 70
     0
  9
$USERR1
 40
0.0
  9
$USERR2
 40
0.0
  9
$USERR3
 40
0.0
  9
$USERR4
 40
0.0
  9
$USERR5
 40
0.0
  9
$WORLDVIEW
 70
     1
  9
$SHADEDGE
 70
     3
  9
$SHADEDIF
 70
    70
  9
$TILEMODE
 70
     1
  9
$MAXACTVP
 70
    64
  9
$PINSBASE
 10
0.0
 20
0.0
 30
0.0
  9
$PLIMCHECK
 70
     0
  9
$PEXTMIN
 10
1.0000000000E+20
 20
1.0000000000E+20
 30
1.0000000000E+20
  9
$PEXTMAX
 10
-1.0000000000E+20
 20
-1.0000000000E+20
 30
-1.0000000000E+20
  9
$PLIMMIN
 10
0.0
 20
0.0
  9
$PLIMMAX
 10
420.0
 20
297.0
  9
$UNITMODE
 70
     0
  9
$VISRETAIN
 70
     1
  9
$PLINEGEN
 70
     0
  9
$PSLTSCALE
 70
     1
  9
$TREEDEPTH
 70
  3020
  9
$CMLSTYLE
  2
Standard
  9
$CMLJUST
 70
     0
  9
$CMLSCALE
 40
20.0
  9
$PROXYGRAPHICS
 70
     1
  9
$MEASUREMENT
 70
     1
  9
$CELWEIGHT
370
    -1
  9
$ENDCAPS
280
     0
  9
$JOINSTYLE
280
     0
  9
$LWDISPLAY
290
     1
  9
$INSUNITS
 70
     4
  9
$HYPERLINKBASE
  1

  9
$STYLESHEET
  1

  9
$XEDIT
290
     1
  9
$CEPSNTYPE
380
     0
  9
$PSTYLEMODE
290
     1
  9
$FINGERPRINTGUID
  2
{383E0D05-6092-4AFD-A361-60D90DBC06D7}
  9
$VERSIONGUID
  2
{FAEB1C32-E019-11D5-929B-00C0DF256EC4}
  9
$EXTNAMES
290
     1
  9
$PSVPSCALE
 40
0.0
  9
$OLESTARTUP
290
     0
  0
ENDSEC
  0
SECTION
  2
CLASSES
  0
CLASS
  1
ACDBDICTIONARYWDFLT
  2
AcDbDictionaryWithDefault
  3
ObjectDBX Classes
 90
        0
280
     0
281
     0
  0
CLASS
  1
VISUALSTYLE
  2
AcDbVisualStyle
  3
ObjectDBX Classes
 90
     4095
280
     0
281
     0
  0
CLASS
  1
DICTIONARYVAR
  2
AcDbDictionaryVar
  3
ObjectDBX Classes
 90
        0
280
     0
281
     0
  0
CLASS
  1
ACDBPLACEHOLDER
  2
AcDbPlaceHolder
  3
ObjectDBX Classes
 90
        0
280
     0
281
     0
  0
CLASS
  1
LAYOUT
  2
AcDbLayout
  3
ObjectDBX Classes
 90
        0
280
     0
281
     0
  0
ENDSEC
  0
SECTION
  2
TABLES
  0
TABLE
  2
VPORT
  5
8
330
0
100
AcDbSymbolTable
 70
     1
  0
VPORT
  5
29
330
8
100
AcDbSymbolTableRecord
100
AcDbViewportTableRecord
  2
*Active
 70
     0
 10
0.0
 20
0.0
 11
1.0
 21
1.0
 12
148.5
 22
105.0
 13
0.0
 23
0.0
 14
10.0
 24
10.0
 15
10.0
 25
10.0
 16
0.0
 26
0.0
 36
1.0
 17
0.0
 27
0.0
 37
0.0
 40
210.0
 41
1.4142857143
 42
50.0
 43
0.0
 44
0.0
 50
0.0
 51
0.0
 71
     0
 72
  2000
 73
     1
 74
     3
 75
     0
 76
     0
 77
     0
 78
     0
281
     0
 65
     1
110
0.0
120
0.0
130
0.0
111
1.0
121
0.0
131
0.0
112
0.0
122
1.0
132
0.0
 79
     0
146
0.0
  0
ENDTAB
  0
TABLE
  2
LTYPE
  5
5
330
0
100
AcDbSymbolTable
 70
     6
  0
LTYPE
  5
14
330
5
100
AcDbSymbolTableRecord
100
AcDbLinetypeTableRecord
  2
ByBlock
 70
     0
  3

 72
    65
 73
     0
 40
0.0
  0
LTYPE
  5
15
330
5
100
AcDbSymbolTableRecord
100
AcDbLinetypeTableRecord
  2
ByLayer
 70
     0
  3

 72
    65
 73
     0
 40
0.0
  0
LTYPE
  5
16
330
5
100
AcDbSymbolTableRecord
100
AcDbLinetypeTableRecord
  2
Continuous
 70
     0
  3
Solid line
 72
    65
 73
     0
 40
0.0
  0
LTYPE
  5
3B
330
5
100
AcDbSymbolTableRecord
100
AcDbLinetypeTableRecord
  2
HIDDEN
 70
     0
  3
Hidden __ __ __ __ __ __ __ __ __ __ __ __ __ __
 72
    65
 73
     2
 40
1.905
 49
1.27
 74
     0
 49
-0.635
 74
     0
  0
LTYPE
  5
3C
330
5
100
AcDbSymbolTableRecord
100
AcDbLinetypeTableRecord
  2
PHANTOM
 70
     0
  3
Phantom ______  __  __  ______  __  __  ______
 72
    65
 73
     6
 40
12.7
 49
6.35
 74
     0
 49
-1.27
 74
     0
 49
1.27
 74
     0
 49
-1.27
 74
     0
 49
1.27
 74
     0
 49
-1.27
 74
     0
  0
LTYPE
  5
3D
330
5
100
AcDbSymbolTableRecord
100
AcDbLinetypeTableRecord
  2
CENTER
 70
     0
  3
Center ____ _ ____ _ ____ _ ____ _ ____ _ ____
 72
    65
 73
     4
 40
10.16
 49
6.35
 74
     0
 49
-1.27
 74
     0
 49
1.27
 74
     0
 49
-1.27
 74
     0
  0
LTYPE
  5
3E
330
5
100
AcDbSymbolTableRecord
100
AcDbLinetypeTableRecord
  2
CENTERX2
 70
     0
  3
Center (2x) ________  __  ________  __  _____
 72
    65
 73
     4
 40
20.32
 49
12.7
 74
     0
 49
-2.54
 74
     0
 49
2.54
 74
     0
 49
-2.54
 74
     0
  0
LTYPE
  5
3F
330
5
100
AcDbSymbolTableRecord
100
AcDbLinetypeTableRecord
  2
DOT2
 70
     0
  3
Dot (.5x) ........................................
 72
    65
 73
     2
 40
0.635
 49
0.0
 74
     0
 49
-0.635
 74
     0
  0
ENDTAB
  0
TABLE
  2
LAYER
  5
2
330
0
100
AcDbSymbolTable
 70
     5
  0
LAYER
  5
10
330
2
100
AcDbSymbolTableRecord
100
AcDbLayerTableRecord
  2
0
 70
     0
 62
     7
  6
Continuous
370
    -3
390
F
  0
LAYER
  5
40
330
2
100
AcDbSymbolTableRecord
100
AcDbLayerTableRecord
  2
FORMAT
 70
     0
 62
     7
  6
Continuous
370
    -3
390
F
  0
LAYER
  5
41
330
2
100
AcDbSymbolTableRecord
100
AcDbLayerTableRecord
  2
VERMASSUNG
 70
     0
 62
     7
  6
Continuous
370
    -3
390
F
  0
LAYER
  5
42
330
2
100
AcDbSymbolTableRecord
100
AcDbLayerTableRecord
  2
KOPF_DÜNN
 70
     0
 62
     7
  6
Continuous
370
    -3
390
F
  0
LAYER
  5
43
330
2
100
AcDbSymbolTableRecord
100
AcDbLayerTableRecord
  2
KOPF_DICK
 70
     0
 62
     7
  6
Continuous
370
    15
390
F
  0
ENDTAB
  0
TABLE
  2
STYLE
  5
3
330
0
100
AcDbSymbolTable
 70
     3
  0
STYLE
  5
11
330
3
100
AcDbSymbolTableRecord
100
AcDbTextStyleTableRecord
  2
Standard
 70
     0
 40
0.0
 41
1.0
 50
0.0
 71
     0
 42
2.5
  3
txt
  4

  0
STYLE
  5
44
330
3
100
AcDbSymbolTableRecord
100
AcDbTextStyleTableRecord
  2
SLDTEXTSTYLE0
 70
     0
 40
0.0
 41
0.7
 50
0.0
 71
     0
 42
0.2
  3
TXT
  4

  0
STYLE
  5
48
330
3
100
AcDbSymbolTableRecord
100
AcDbTextStyleTableRecord
  2
SLDTEXTSTYLE1
 70
     0
 40
0.0
 41
0.6473684211
 50
0.0
 71
     0
 42
0.2
  3
TXT
  4

  0
ENDTAB
  0
TABLE
  2
VIEW
  5
6
330
0
100
AcDbSymbolTable
 70
     0
  0
ENDTAB
  0
TABLE
  2
UCS
  5
7
330
0
100
AcDbSymbolTable
 70
     0
  0
ENDTAB
  0
TABLE
  2
APPID
  5
9
330
0
100
AcDbSymbolTable
 70
     1
  0
APPID
  5
12
330
9
100
AcDbSymbolTableRecord
100
AcDbRegAppTableRecord
  2
ACAD
 70
     0
  0
ENDTAB
  0
TABLE
  2
DIMSTYLE
  5
A
330
0
100
AcDbSymbolTable
 70
     2
100
AcDbDimStyleTable
  0
DIMSTYLE
105
27
330
A
100
AcDbSymbolTableRecord
100
AcDbDimStyleTableRecord
  2
ISO-25
 70
     0
 41
2.5
 42
0.625
 43
3.75
 44
1.25
 73
     0
 74
     0
 77
     1
 78
     8
140
2.5
141
2.5
143
0.0393700787
147
0.625
171
     3
172
     1
271
     2
272
     2
274
     3
278
    44
283
     0
284
     8
340
11
  0
DIMSTYLE
105
176
102
{ACAD_REACTORS
330
175
330
182
330
18C
330
196
330
1A0
330
1AB
102
}
330
A
100
AcDbSymbolTableRecord
100
AcDbDimStyleTableRecord
  2
SLDDIMSTYLE0
 70
     0
 41
3.0
 44
0.0
 45
0.000000001
 73
     0
 74
     0
 77
     1
 78
    12
140
2.0
147
0.5
173
     1
271
     2
272
     3
284
    12
340
44
  0
ENDTAB
  0
TABLE
  2
BLOCK_RECORD
  5
1
330
0
100
AcDbSymbolTable
 70
     7
  0
BLOCK_RECORD
  5
1F
330
1
100
AcDbSymbolTableRecord
100
AcDbBlockTableRecord
  2
*Model_Space
340
22
  0
BLOCK_RECORD
  5
1B
330
1
100
AcDbSymbolTableRecord
100
AcDbBlockTableRecord
  2
*Paper_Space
340
1E
  0
BLOCK_RECORD
  5
23
330
1
100
AcDbSymbolTableRecord
100
AcDbBlockTableRecord
  2
*Paper_Space0
340
26
  0
BLOCK_RECORD
  5
177
330
1
100
AcDbSymbolTableRecord
100
AcDbBlockTableRecord
  2
*D1
340
0
  0
BLOCK_RECORD
  5
183
330
1
100
AcDbSymbolTableRecord
100
AcDbBlockTableRecord
  2
*D2
340
0
  0
BLOCK_RECORD
  5
18D
330
1
100
AcDbSymbolTableRecord
100
AcDbBlockTableRecord
  2
*D3
340
0
  0
BLOCK_RECORD
  5
197
330
1
100
AcDbSymbolTableRecord
100
AcDbBlockTableRecord
  2
*D4
340
0
  0
BLOCK_RECORD
  5
1A1
330
1
100
AcDbSymbolTableRecord
100
AcDbBlockTableRecord
  2
*D5
340
0
  0
BLOCK_RECORD
  5
1AC
330
1
100
AcDbSymbolTableRecord
100
AcDbBlockTableRecord
  2
*D6
340
0
  0
ENDTAB
  0
ENDSEC
  0
SECTION
  2
BLOCKS
  0
BLOCK
  5
20
330
1F
100
AcDbEntity
  8
0
100
AcDbBlockBegin
  2
*Model_Space
 70
     0
 10
0.0
 20
0.0
 30
0.0
  3
*Model_Space
  1

  0
ENDBLK
  5
21
330
1F
100
AcDbEntity
  8
0
100
AcDbBlockEnd
  0
BLOCK
  5
1C
330
1B
100
AcDbEntity
 67
     1
  8
0
100
AcDbBlockBegin
  2
*Paper_Space
 70
     0
 10
0.0
 20
0.0
 30
0.0
  3
*Paper_Space
  1

  0
ENDBLK
  5
1D
330
1B
100
AcDbEntity
 67
     1
  8
0
100
AcDbBlockEnd
  0
BLOCK
  5
24
330
23
100
AcDbEntity
  8
0
100
AcDbBlockBegin
  2
*Paper_Space0
 70
     0
 10
0.0
 20
0.0
 30
0.0
  3
*Paper_Space0
  1

  0
ENDBLK
  5
25
330
23
100
AcDbEntity
  8
0
100
AcDbBlockEnd
  0
BLOCK
  5
178
330
177
100
AcDbEntity
  8
0
100
AcDbBlockBegin
  2
*D1
 70
     1
 10
0.0
 20
0.0
 30
0.0
  3
*D1
  1

  0
SOLID
  5
17A
330
177
100
AcDbEntity
  8
VERMASSUNG
100
AcDbTrace
 10
69.8509789512
 20
144.5866940452
 30
0.0
 11
69.4009789512
 21
141.5866940452
 31
0.0
 12
70.3009789512
 22
141.5866940452
 32
0.0
 13
70.3009789512
 23
141.5866940452
 33
0.0
  0
SOLID
  5
17B
330
177
100
AcDbEntity
  8
VERMASSUNG
100
AcDbTrace
 10
69.8509789512
 20
81.5866940452
 30
0.0
 11
70.3009789512
 21
84.5866940452
 31
0.0
 12
69.4009789512
 22
84.5866940452
 32
0.0
 13
69.4009789512
 23
84.5866940452
 33
0.0
  0
LINE
  5
17C
330
177
100
AcDbEntity
  8
VERMASSUNG
100
AcDbLine
 10
108.3735964797
 20
144.5866940452
 30
0.0
 11
68.8509789512
 21
144.5866940452
 31
0.0
  0
LINE
  5
17D
330
177
100
AcDbEntity
  8
VERMASSUNG
100
AcDbLine
 10
108.3735964797
 20
81.5866940452
 30
0.0
 11
68.8509789512
 21
81.5866940452
 31
0.0
  0
LINE
  5
17E
330
177
100
AcDbEntity
  8
VERMASSUNG
100
AcDbLine
 10
69.8509789512
 20
144.5866940452
 30
0.0
 11
69.8509789512
 21
81.5866940452
 31
0.0
  0
MTEXT
  5
17F
330
177
100
AcDbEntity
  8
VERMASSUNG
100
AcDbMText
 10
67.0728434621
 20
105.5389281019
 30
0.0
 40
2.0
 41
0.0
 71
     1
 72
     1
  1
HSK A
  7
SLDTEXTSTYLE0
 11
-7.044195017643634E-15
 21
1.0
 31
0.0
 73
     1
 44
1.0
  0
MTEXT
  5
180
330
177
100
AcDbEntity
  8
VERMASSUNG
100
AcDbMText
 10
67.2728434716
 20
113.338928356
 30
0.0
 40
2.0
 41
0.0
 71
     1
 72
     1
  1
%%c
  7
SLDTEXTSTYLE0
 11
-7.044195017643634E-15
 21
1.0
 31
0.0
 73
     1
 44
1.0
  0
MTEXT
  5
181
330
177
100
AcDbEntity
  8
VERMASSUNG
100
AcDbMText
 10
67.2728435881
 20
116.9474568127
 30
0.0
 40
2.0
 41
0.0
 71
     1
 72
     1
  1
63
  7
SLDTEXTSTYLE0
 11
-7.044195017643634E-15
 21
1.0
 31
0.0
 73
     1
 44
1.0
  0
ENDBLK
  5
179
330
177
100
AcDbEntity
  8
0
100
AcDbBlockEnd
  0
BLOCK
  5
184
330
183
100
AcDbEntity
  8
0
100
AcDbBlockBegin
  2
*D2
 70
     1
 10
0.0
 20
0.0
 30
0.0
  3
*D2
  1

  0
SOLID
  5
186
330
183
100
AcDbEntity
  8
VERMASSUNG
100
AcDbTrace
 10
218.0735964797
 20
153.1458661198
 30
0.0
 11
215.0735964797
 21
153.5958661198
 31
0.0
 12
215.0735964797
 22
152.6958661198
 32
0.0
 13
215.0735964797
 23
152.6958661198
 33
0.0
  0
SOLID
  5
187
330
183
100
AcDbEntity
  8
VERMASSUNG
100
AcDbTrace
 10
134.0235964797
 20
153.1458661198
 30
0.0
 11
137.0235964797
 21
152.6958661198
 31
0.0
 12
137.0235964797
 22
153.5958661198
 32
0.0
 13
137.0235964797
 23
153.5958661198
 33
0.0
  0
LINE
  5
188
330
183
100
AcDbEntity
  8
VERMASSUNG
100
AcDbLine
 10
218.0735964797
 20
134.7582669204
 30
0.0
 11
218.0735964797
 21
154.1458661198
 31
0.0
  0
LINE
  5
189
330
183
100
AcDbEntity
  8
VERMASSUNG
100
AcDbLine
 10
134.0235964797
 20
142.9331343689
 30
0.0
 11
134.0235964797
 21
154.1458661198
 31
0.0
  0
LINE
  5
18A
330
183
100
AcDbEntity
  8
VERMASSUNG
100
AcDbLine
 10
218.0735964797
 20
153.1458661198
 30
0.0
 11
134.0235964797
 21
153.1458661198
 31
0.0
  0
MTEXT
  5
18B
330
183
100
AcDbEntity
  8
VERMASSUNG
100
AcDbMText
 10
168.8112312252
 20
155.7240014829
 30
0.0
 40
2.0
 41
0.0
 71
     1
 72
     1
  1
84.05
  7
SLDTEXTSTYLE0
 73
     1
 44
1.0
  0
ENDBLK
  5
185
330
183
100
AcDbEntity
  8
0
100
AcDbBlockEnd
  0
BLOCK
  5
18E
330
18D
100
AcDbEntity
  8
0
100
AcDbBlockBegin
  2
*D3
 70
     1
 10
0.0
 20
0.0
 30
0.0
  3
*D3
  1

  0
SOLID
  5
190
330
18D
100
AcDbEntity
  8
VERMASSUNG
100
AcDbTrace
 10
218.0735964797
 20
159.1458661198
 30
0.0
 11
215.0735964797
 21
159.5958661198
 31
0.0
 12
215.0735964797
 22
158.6958661198
 32
0.0
 13
215.0735964797
 23
158.6958661198
 33
0.0
  0
SOLID
  5
191
330
18D
100
AcDbEntity
  8
VERMASSUNG
100
AcDbTrace
 10
108.0735964797
 20
159.1458661198
 30
0.0
 11
111.0735964797
 21
158.6958661198
 31
0.0
 12
111.0735964797
 22
159.5958661198
 32
0.0
 13
111.0735964797
 23
159.5958661198
 33
0.0
  0
LINE
  5
192
330
18D
100
AcDbEntity
  8
VERMASSUNG
100
AcDbLine
 10
218.0735964797
 20
134.7582669204
 30
0.0
 11
218.0735964797
 21
160.1458661198
 31
0.0
  0
LINE
  5
193
330
18D
100
AcDbEntity
  8
VERMASSUNG
100
AcDbLine
 10
108.0735964797
 20
144.2866940452
 30
0.0
 11
108.0735964797
 21
160.1458661198
 31
0.0
  0
LINE
  5
194
330
18D
100
AcDbEntity
  8
VERMASSUNG
100
AcDbLine
 10
218.0735964797
 20
159.1458661198
 30
0.0
 11
108.0735964797
 21
159.1458661198
 31
0.0
  0
MTEXT
  5
195
330
18D
100
AcDbEntity
  8
VERMASSUNG
100
AcDbMText
 10
159.9357990974
 20
161.7240014829
 30
0.0
 40
2.0
 41
0.0
 71
     1
 72
     1
  1
110
  7
SLDTEXTSTYLE0
 73
     1
 44
1.0
  0
ENDBLK
  5
18F
330
18D
100
AcDbEntity
  8
0
100
AcDbBlockEnd
  0
BLOCK
  5
198
330
197
100
AcDbEntity
  8
0
100
AcDbBlockBegin
  2
*D4
 70
     1
 10
0.0
 20
0.0
 30
0.0
  3
*D4
  1

  0
SOLID
  5
19A
330
197
100
AcDbEntity
  8
VERMASSUNG
100
AcDbTrace
 10
218.0735964797
 20
165.1458661198
 30
0.0
 11
215.0735964797
 21
165.5958661198
 31
0.0
 12
215.0735964797
 22
164.6958661198
 32
0.0
 13
215.0735964797
 23
164.6958661198
 33
0.0
  0
SOLID
  5
19B
330
197
100
AcDbEntity
  8
VERMASSUNG
100
AcDbTrace
 10
76.1735964797
 20
165.1458661198
 30
0.0
 11
79.1735964797
 21
164.6958661198
 31
0.0
 12
79.1735964797
 22
165.5958661198
 32
0.0
 13
79.1735964797
 23
165.5958661198
 33
0.0
  0
LINE
  5
19C
330
197
100
AcDbEntity
  8
VERMASSUNG
100
AcDbLine
 10
218.0735964797
 20
134.7582669204
 30
0.0
 11
218.0735964797
 21
166.1458661198
 31
0.0
  0
LINE
  5
19D
330
197
100
AcDbEntity
  8
VERMASSUNG
100
AcDbLine
 10
76.1735964797
 20
132.7773717917
 30
0.0
 11
76.1735964797
 21
166.1458661198
 31
0.0
  0
LINE
  5
19E
330
197
100
AcDbEntity
  8
VERMASSUNG
100
AcDbLine
 10
218.0735964797
 20
165.1458661198
 30
0.0
 11
76.1735964797
 21
165.1458661198
 31
0.0
  0
MTEXT
  5
19F
330
197
100
AcDbEntity
  8
VERMASSUNG
100
AcDbMText
 10
141.248032153
 20
167.7240014829
 30
0.0
 40
2.0
 41
0.0
 71
     1
 72
     1
  1
141.9
  7
SLDTEXTSTYLE0
 73
     1
 44
1.0
  0
ENDBLK
  5
199
330
197
100
AcDbEntity
  8
0
100
AcDbBlockEnd
  0
BLOCK
  5
1A2
330
1A1
100
AcDbEntity
  8
0
100
AcDbBlockBegin
  2
*D5
 70
     1
 10
0.0
 20
0.0
 30
0.0
  3
*D5
  1

  0
SOLID
  5
1A4
330
1A1
100
AcDbEntity
  8
VERMASSUNG
100
AcDbTrace
 10
225.424295589
 20
125.5866940452
 30
0.0
 11
224.974295589
 21
122.5866940452
 31
0.0
 12
225.874295589
 22
122.5866940452
 32
0.0
 13
225.874295589
 23
122.5866940452
 33
0.0
  0
SOLID
  5
1A5
330
1A1
100
AcDbEntity
  8
VERMASSUNG
100
AcDbTrace
 10
225.424295589
 20
100.5866940452
 30
0.0
 11
225.874295589
 21
103.5866940452
 31
0.0
 12
224.974295589
 22
103.5866940452
 32
0.0
 13
224.974295589
 23
103.5866940452
 33
0.0
  0
LINE
  5
1A6
330
1A1
100
AcDbEntity
  8
VERMASSUNG
100
AcDbLine
 10
217.5735964797
 20
125.5866940452
 30
0.0
 11
226.424295589
 21
125.5866940452
 31
0.0
  0
LINE
  5
1A7
330
1A1
100
AcDbEntity
  8
VERMASSUNG
100
AcDbLine
 10
217.5735964797
 20
100.5866940452
 30
0.0
 11
226.424295589
 21
100.5866940452
 31
0.0
  0
LINE
  5
1A8
330
1A1
100
AcDbEntity
  8
VERMASSUNG
100
AcDbLine
 10
225.424295589
 20
125.5866940452
 30
0.0
 11
225.424295589
 21
100.5866940452
 31
0.0
  0
MTEXT
  5
1A9
330
1A1
100
AcDbEntity
  8
VERMASSUNG
100
AcDbMText
 10
222.8461601095
 20
109.2736462858
 30
0.0
 40
2.0
 41
0.0
 71
     1
 72
     1
  1
%%c
  7
SLDTEXTSTYLE0
 11
-7.044195017643634E-15
 21
1.0
 31
0.0
 73
     1
 44
1.0
  0
MTEXT
  5
1AA
330
1A1
100
AcDbEntity
  8
VERMASSUNG
100
AcDbMText
 10
222.8461602259
 20
112.8823245089
 30
0.0
 40
2.0
 41
0.0
 71
     1
 72
     1
  1
25
  7
SLDTEXTSTYLE0
 11
-7.044195017643634E-15
 21
1.0
 31
0.0
 73
     1
 44
1.0
  0
ENDBLK
  5
1A3
330
1A1
100
AcDbEntity
  8
0
100
AcDbBlockEnd
  0
BLOCK
  5
1AD
330
1AC
100
AcDbEntity
  8
0
100
AcDbBlockBegin
  2
*D6
 70
     1
 10
0.0
 20
0.0
 30
0.0
  3
*D6
  1

  0
SOLID
  5
1AF
330
1AC
100
AcDbEntity
  8
VERMASSUNG
100
AcDbTrace
 10
231.424295589
 20
144.5866940452
 30
0.0
 11
230.974295589
 21
141.5866940452
 31
0.0
 12
231.874295589
 22
141.5866940452
 32
0.0
 13
231.874295589
 23
141.5866940452
 33
0.0
  0
SOLID
  5
1B0
330
1AC
100
AcDbEntity
  8
VERMASSUNG
100
AcDbTrace
 10
231.424295589
 20
81.5866940452
 30
0.0
 11
231.874295589
 21
84.5866940452
 31
0.0
 12
230.974295589
 22
84.5866940452
 32
0.0
 13
230.974295589
 23
84.5866940452
 33
0.0
  0
LINE
  5
1B1
330
1AC
100
AcDbEntity
  8
VERMASSUNG
100
AcDbLine
 10
208.2451693549
 20
144.5866940452
 30
0.0
 11
232.424295589
 21
144.5866940452
 31
0.0
  0
LINE
  5
1B2
330
1AC
100
AcDbEntity
  8
VERMASSUNG
100
AcDbLine
 10
208.2451693549
 20
81.5866940452
 30
0.0
 11
232.424295589
 21
81.5866940452
 31
0.0
  0
LINE
  5
1B3
330
1AC
100
AcDbEntity
  8
VERMASSUNG
100
AcDbLine
 10
231.424295589
 20
144.5866940452
 30
0.0
 11
231.424295589
 21
81.5866940452
 31
0.0
  0
MTEXT
  5
1B4
330
1AC
100
AcDbEntity
  8
VERMASSUNG
100
AcDbMText
 10
228.8461601095
 20
109.2736462858
 30
0.0
 40
2.0
 41
0.0
 71
     1
 72
     1
  1
%%c
  7
SLDTEXTSTYLE0
 11
-7.044195017643634E-15
 21
1.0
 31
0.0
 73
     1
 44
1.0
  0
MTEXT
  5
1B5
330
1AC
100
AcDbEntity
  8
VERMASSUNG
100
AcDbMText
 10
228.8461602259
 20
112.8823245089
 30
0.0
 40
2.0
 41
0.0
 71
     1
 72
     1
  1
63
  7
SLDTEXTSTYLE0
 11
-7.044195017643634E-15
 21
1.0
 31
0.0
 73
     1
 44
1.0
  0
ENDBLK
  5
1AE
330
1AC
100
AcDbEntity
  8
0
100
AcDbBlockEnd
  0
ENDSEC
  0
SECTION
  2
ENTITIES
  0
MTEXT
  5
45
330
1F
100
AcDbEntity
  8
KOPF_DÜNN
100
AcDbMText
 10
13.8892156294
 20
23.8442973028
 30
0.0
 40
3.0
 41
0.0
 71
     1
 72
     1
  1
HA6.W25.K01.110
  7
SLDTEXTSTYLE0
 73
     1
 44
1.0
  0
MTEXT
  5
46
330
1F
100
AcDbEntity
  8
VERMASSUNG
100
AcDbMText
 10
13.9329988022
 20
28.8834360957
 30
0.0
 40
3.0
 41
0.0
 71
     1
 72
     1
  1
Flächenspannfutter_End mill adapter Weldon ø25
  7
SLDTEXTSTYLE0
 73
     1
 44
1.0
  0
MTEXT
  5
47
330
1F
100
AcDbEntity
  8
VERMASSUNG
100
AcDbMText
 10
98.8601118557
 20
13.8365368179
 30
0.0
 40
2.0
 41
0.0
 71
     1
 72
     1
  1
Datum: 25.04.2006
  7
SLDTEXTSTYLE0
 73
     1
 44
1.0
  0
MTEXT
  5
49
330
1F
100
AcDbEntity
  8
VERMASSUNG
100
AcDbMText
 10
13.933048693
 20
18.0482802738
 30
0.0
 40
2.0
 41
0.0
 71
     1
 72
     1
  1
DIN 69 893 HSK A 63
  7
SLDTEXTSTYLE1
 73
     1
 44
1.0
  0
MTEXT
  5
4A
330
1F
100
AcDbEntity
  8
VERMASSUNG
100
AcDbMText
 10
13.9808475933
 20
13.9090973692
 30
0.0
 40
2.0
 41
0.0
 71
     1
 72
     1
  1
Gewicht: 2229g
  7
SLDTEXTSTYLE0
 73
     1
 44
1.0
  0
LINE
  5
4B
330
1F
100
AcDbEntity
  8
0
  6
Continuous
 62
     7
370
    15
100
AcDbLine
 10
153.8263732294
 20
81.5866940452
 30
0.0
 11
208.2451693549
 21
81.5866940452
 31
0.0
  0
LINE
  5
4C
330
1F
100
AcDbEntity
  8
0
  6
Continuous
 62
     7
370
    15
100
AcDbLine
 10
208.2451693549
 20
144.5866940452
 30
0.0
 11
153.8263732294
 21
144.5866940452
 31
0.0
  0
ARC
  5
4D
330
1F
100
AcDbEntity
  8
0
  6
Continuous
 62
     7
370
    15
100
AcDbCircle
 10
153.8263732294
 20
82.5866940452
 30
0.0
 40
1.000000000000014
100
AcDbArc
 50
210.0
 51
270.0
  0
ARC
  5
4E
330
1F
100
AcDbEntity
  8
0
  6
Continuous
 62
     7
370
    15
100
AcDbCircle
 10
153.8263732294
 20
143.5866940452
 30
0.0
 40
1.000000000000008
100
AcDbArc
 50
90.0
 51
150.0
  0
LINE
  5
4F
330
1F
100
AcDbEntity
  8
0
  6
Continuous
 62
     7
370
    15
100
AcDbLine
 10
108.3735964797
 20
81.5866940452
 30
0.0
 11
113.0235964797
 21
81.5866940452
 31
0.0
  0
LINE
  5
50
330
1F
100
AcDbEntity
  8
0
  6
Continuous
 62
     7
370
    15
100
AcDbLine
 10
113.0515848388
 20
144.5866940452
 30
0.0
 11
108.3735964797
 21
144.5866940452
 31
0.0
  0
ARC
  5
51
330
1F
100
AcDbEntity
  8
0
  6
Continuous
 62
     7
370
    15
100
AcDbCircle
 10
108.3735964797
 20
81.8866940452
 30
0.0
 40
0.3000000000000114
100
AcDbArc
 50
180.0
 51
270.0
  0
ARC
  5
52
330
1F
100
AcDbEntity
  8
0
  6
Continuous
 62
     7
370
    15
100
AcDbCircle
 10
108.3735964797
 20
144.2866940452
 30
0.0
 40
0.3000000000000114
100
AcDbArc
 50
90.0
 51
180.0
  0
ARC
  5
53
330
1F
100
AcDbEntity
  8
0
  6
Continuous
 62
     7
370
    15
100
AcDbCircle
 10
208.2451693549
 20
83.5866940452
 30
0.0
 40
2.0
100
AcDbArc
 50
270.0
 51
315.0
  0
ARC
  5
54
330
1F
100
AcDbEntity
  8
0
  6
Continuous
 62
     7
370
    15
100
AcDbCircle
 10
208.2451693549
 20
142.5866940452
 30
0.0
 40
1.999999999999996
100
AcDbArc
 50
45.0
 51
90.0
  0
LINE
  5
55
330
1F
100
AcDbEntity
  8
0
  6
Continuous
 62
     7
370
    15
100
AcDbLine
 10
152.9603478256
 20
144.0866940452
 30
0.0
 11
150.3622716143
 21
139.5866940452
 31
0.0
  0
LINE
  5
56
330
1F
100
AcDbEntity
  8
0
  6
Continuous
 62
     7
370
    15
100
AcDbLine
 10
150.3622716143
 20
86.5866940452
 30
0.0
 11
152.9603478256
 21
82.0866940452
 31
0.0
  0
LINE
  5
57
330
1F
100
AcDbEntity
  8
0
  6
Continuous
 62
     7
370
    15
100
AcDbLine
 10
209.6593829173
 20
82.1724804828
 30
0.0
 11
217.4878100421
 21
90.0009076075
 31
0.0
  0
LINE
  5
58
330
1F
100
AcDbEntity
  8
0
  6
Continuous
 62
     7
370
    15
100
AcDbLine
 10
217.4878100421
 20
136.1724804828
 30
0.0
 11
209.6593829173
 21
144.0009076075
 31
0.0
  0
ARC
  5
59
330
1F
100
AcDbEntity
  8
0
  6
Continuous
 62
     7
370
    15
100
AcDbCircle
 10
135.0235964797
 20
86.0866940452
 30
0.0
 40
1.000000000000008
100
AcDbArc
 50
90.0
 51
143.1139143113
  0
ARC
  5
5A
330
1F
100
AcDbEntity
  8
0
  6
Continuous
 62
     7
370
    15
100
AcDbCircle
 10
135.0235964797
 20
140.0866940452
 30
0.0
 40
1.000000000000018
100
AcDbArc
 50
216.9047399442
 51
270.0
  0
ARC
  5
5B
330
1F
100
AcDbEntity
  8
0
  6
Continuous
 62
     7
370
    15
100
AcDbCircle
 10
149.4962462105
 20
86.0866940452
 30
0.0
 40
1.000000000000008
100
AcDbArc
 50
30.0
 51
90.0
  0
ARC
  5
5C
330
1F
100
AcDbEntity
  8
0
  6
Continuous
 62
     7
370
    15
100
AcDbCircle
 10
149.4962462105
 20
140.0866940452
 30
0.0
 40
1.000000000000008
100
AcDbArc
 50
270.0
 51
330.0
  0
LINE
  5
5D
330
1F
100
AcDbEntity
  8
0
  6
Continuous
 62
     7
370
    15
100
AcDbLine
 10
135.0235964797
 20
87.0866940452
 30
0.0
 11
149.4962462105
 21
87.0866940452
 31
0.0
  0
LINE
  5
5E
330
1F
100
AcDbEntity
  8
0
  6
Continuous
 62
     7
370
    15
100
AcDbLine
 10
149.4962462105
 20
139.0866940452
 30
0.0
 11
135.0235964797
 21
139.0866940452
 31
0.0
  0
ARC
  5
5F
330
1F
100
AcDbEntity
  8
0
  6
Continuous
 62
     7
370
    15
100
AcDbCircle
 10
107.573589727
 20
88.5162564308
 30
0.0
 40
0.6000067526677164
100
AcDbArc
 50
33.5571153394
 51
90.0
  0
ARC
  5
60
330
1F
100
AcDbEntity
  8
0
  6
Continuous
 62
     7
370
    15
100
AcDbCircle
 10
107.573589727
 20
137.6571316596
 30
0.0
 40
0.6000067526677242
100
AcDbArc
 50
270.0
 51
326.4428846606
  0
LINE
  5
61
330
1F
100
AcDbEntity
  8
0
  6
Continuous
 62
     7
370
    15
100
AcDbLine
 10
94.8420876809
 20
136.7444240653
 30
0.0
 11
82.2735964797
 21
136.1147401374
 31
0.0
  0
LINE
  5
62
330
1F
100
AcDbEntity
  8
0
  6
Continuous
 62
     7
370
    15
100
AcDbLine
 10
106.0735964797
 20
137.3071249069
 30
0.0
 11
103.2565948223
 21
137.1659925593
 31
0.0
  0
LINE
  5
63
330
1F
100
AcDbEntity
  8
0
  6
Continuous
 62
     7
370
    15
100
AcDbLine
 10
103.2552085974
 20
89.0074649812
 30
0.0
 11
106.0735964797
 21
88.8662631835
 31
0.0
  0
LINE
  5
64
330
1F
100
AcDbEntity
  8
0
  6
Continuous
 62
     7
370
    15
100
AcDbLine
 10
86.2735964797
 20
89.8582471514
 30
0.0
 11
94.8438732489
 21
89.4288745678
 31
0.0
  0
LINE
  5
65
330
1F
100
AcDbEntity
  8
0
  6
Continuous
 62
     7
370
    15
100
AcDbLine
 10
106.0735964797
 20
88.8662631835
 30
0.0
 11
106.9303092531
 21
89.0958186792
 31
0.0
  0
LINE
  5
66
330
1F
100
AcDbEntity
  8
0
  6
Continuous
 62
     7
370
    15
100
AcDbLine
 10
106.9303092531
 20
137.0775694111
 30
0.0
 11
106.0735964797
 21
137.3071249069
 31
0.0
  0
ARC
  5
67
330
1F
100
AcDbEntity
  8
0
  6
Continuous
 62
     7
370
    15
100
AcDbCircle
 10
107.0856006801
 20
88.5162631835
 30
0.0
 40
0.6000000000000071
100
AcDbArc
 50
90.0
 51
105.0
  0
ARC
  5
68
330
1F
100
AcDbEntity
  8
0
  6
Continuous
 62
     7
370
    15
100
AcDbCircle
 10
107.0856006801
 20
137.6571249069
 30
0.0
 40
0.5999999999999943
100
AcDbArc
 50
255.0
 51
270.0
  0
LINE
  5
69
330
1F
100
AcDbEntity
  8
0
  6
Continuous
 62
     7
370
    15
100
AcDbLine
 10
107.0856006801
 20
89.1162631835
 30
0.0
 11
107.573589727
 21
89.1162631835
 31
0.0
  0
LINE
  5
6A
330
1F
100
AcDbEntity
  8
0
  6
Continuous
 62
     7
370
    15
100
AcDbLine
 10
107.573589727
 20
137.0571249069
 30
0.0
 11
107.0856006801
 21
137.0571249069
 31
0.0
  0
ARC
  5
6B
330
1F
100
AcDbEntity
  8
0
  6
Continuous
 62
     7
370
    15
100
AcDbCircle
 10
216.0735964797
 20
91.4151211699
 30
0.0
 40
1.999999999999986
100
AcDbArc
 50
315.0
 51
0.0
  0
ARC
  5
6C
330
1F
100
AcDbEntity
  8
0
  6
Continuous
 62
     7
370
    15
100
AcDbCircle
 10
216.0735964797
 20
134.7582669204
 30
0.0
 40
1.999999999999996
100
AcDbArc
 50
0.0
 51
45.0
  0
LINE
  5
6D
330
1F
100
AcDbEntity
  8
0
  6
Continuous
 62
     7
370
    15
100
AcDbLine
 10
77.4569331197
 20
92.2166940452
 30
0.0
 11
84.8735964797
 21
92.2166940452
 31
0.0
  0
ARC
  5
6E
330
1F
100
AcDbEntity
  8
0
  6
Continuous
 62
     7
370
    15
100
AcDbCircle
 10
84.8735964797
 20
90.8166940452
 30
0.0
 40
1.400000000000006
100
AcDbArc
 50
42.2465410162
 51
90.0
  0
LINE
  5
6F
330
1F
100
AcDbEntity
  8
0
  6
Continuous
 62
     7
370
    15
100
AcDbLine
 10
76.1746289739
 20
93.365661551
 30
0.0
 11
77.3147599379
 21
92.225530587
 31
0.0
  0
LINE
  5
70
330
1F
100
AcDbEntity
  8
0
  6
Continuous
 62
     7
370
    15
100
AcDbLine
 10
77.3147599379
 20
133.9478575034
 30
0.0
 11
76.1834972531
 21
132.8165948186
 31
0.0
  0
ARC
  5
71
330
1F
100
AcDbEntity
  8
0
  6
Continuous
 62
     7
370
    15
100
AcDbCircle
 10
80.8735964797
 20
135.3566940452
 30
0.0
 40
1.400000000000008
100
AcDbArc
 50
270.0
 51
301.7485287426
  0
LINE
  5
72
330
1F
100
AcDbEntity
  8
0
  6
Continuous
 62
     7
370
    15
100
AcDbLine
 10
80.8735964797
 20
133.9566940452
 30
0.0
 11
77.4478622136
 21
133.9566940452
 31
0.0
  0
LINE
  5
73
330
1F
100
AcDbEntity
  8
0
  6
Continuous
 62
     7
370
    15
100
AcDbLine
 10
191.0529332065
 20
117.6625287723
 30
0.0
 11
196.7760539604
 21
118.4235952415
 31
0.0
  0
LINE
  5
74
330
1F
100
AcDbEntity
  8
0
  6
Continuous
 62
     7
370
    15
100
AcDbLine
 10
191.0529332065
 20
117.6625287723
 30
0.0
 11
188.8504757259
 21
112.325627576
 31
0.0
  0
LINE
  5
75
330
1F
100
AcDbEntity
  8
0
  6
Continuous
 62
     7
370
    15
100
AcDbLine
 10
188.8504757259
 20
112.325627576
 30
0.0
 11
192.371138999
 21
107.7497928489
 31
0.0
  0
LINE
  5
76
330
1F
100
AcDbEntity
  8
0
  6
Continuous
 62
     7
370
    15
100
AcDbLine
 10
198.0942597529
 20
108.510859318
 30
0.0
 11
192.371138999
 21
107.7497928489
 31
0.0
  0
LINE
  5
77
330
1F
100
AcDbEntity
  8
0
  6
Continuous
 62
     7
370
    15
100
AcDbLine
 10
200.2967172335
 20
113.8477605143
 30
0.0
 11
198.0942597529
 21
108.510859318
 31
0.0
  0
LINE
  5
78
330
1F
100
AcDbEntity
  8
0
  6
Continuous
 62
     7
370
    15
100
AcDbLine
 10
200.2967172335
 20
113.8477605143
 30
0.0
 11
196.7760539604
 21
118.4235952415
 31
0.0
  0
ARC
  5
79
330
1F
100
AcDbEntity
  8
0
  6
Continuous
 62
     7
370
    15
100
AcDbCircle
 10
194.5735964797
 20
113.0866940452
 30
0.0
 40
7.99999999999998
100
AcDbArc
 50
67.5748093136
 51
149.2560953669
  0
ARC
  5
7A
330
1F
100
AcDbEntity
  8
0
  6
Continuous
 62
     7
370
    15
100
AcDbCircle
 10
194.5735964797
 20
113.0866940452
 30
0.0
 40
7.999999999999979
100
AcDbArc
 50
210.7768050115
 51
329.2130576219
  0
ARC
  5
7B
330
1F
100
AcDbEntity
  8
0
  6
Continuous
 62
     7
370
    15
100
AcDbCircle
 10
194.5735964797
 20
113.0866940452
 30
0.0
 40
7.99999999999998
100
AcDbArc
 50
30.8245848627
 51
67.5748093136
  0
ARC
  5
7C
330
1F
100
AcDbEntity
  8
0
  6
Continuous
 62
     7
370
    15
100
AcDbCircle
 10
194.5735964797
 20
113.0866940452
 30
0.0
 40
5.000000000000011
100
AcDbArc
 50
157.5748093136
 51
217.5748093136
  0
ARC
  5
7D
330
1F
100
AcDbEntity
  8
0
  6
Continuous
 62
     7
370
    15
100
AcDbCircle
 10
194.5735964797
 20
113.0866940452
 30
0.0
 40
5.000000000000002
100
AcDbArc
 50
37.5748093136
 51
97.5748093136
  0
ARC
  5
7E
330
1F
100
AcDbEntity
  8
0
  6
Continuous
 62
     7
370
    15
100
AcDbCircle
 10
194.5735964797
 20
113.0866940452
 30
0.0
 40
5.000000000000002
100
AcDbArc
 50
337.5748093136
 51
37.5748093136
  0
ARC
  5
7F
330
1F
100
AcDbEntity
  8
0
  6
Continuous
 62
     7
370
    15
100
AcDbCircle
 10
194.5735964797
 20
113.0866940452
 30
0.0
 40
5.000000000000002
100
AcDbArc
 50
277.5748093136
 51
337.5748093136
  0
ARC
  5
80
330
1F
100
AcDbEntity
  8
0
  6
Continuous
 62
     7
370
    15
100
AcDbCircle
 10
194.5735964797
 20
113.0866940452
 30
0.0
 40
5.000000000000011
100
AcDbArc
 50
217.5748093136
 51
277.5748093136
  0
ARC
  5
81
330
1F
100
AcDbEntity
  8
0
  6
Continuous
 62
     7
370
    15
100
AcDbCircle
 10
194.5735964797
 20
113.0866940452
 30
0.0
 40
4.999999999999992
100
AcDbArc
 50
97.5748093136
 51
157.5748093136
  0
LINE
  5
82
330
1F
100
AcDbEntity
  8
0
  6
Continuous
 62
     7
370
    15
100
AcDbLine
 10
173.0942597529
 20
108.510859318
 30
0.0
 11
167.371138999
 21
107.7497928489
 31
0.0
  0
LINE
  5
83
330
1F
100
AcDbEntity
  8
0
  6
Continuous
 62
     7
370
    15
100
AcDbLine
 10
175.2967172335
 20
113.8477605143
 30
0.0
 11
171.7760539604
 21
118.4235952415
 31
0.0
  0
ARC
  5
84
330
1F
100
AcDbEntity
  8
0
  6
Continuous
 62
     7
370
    15
100
AcDbCircle
 10
169.5735964797
 20
113.0866940452
 30
0.0
 40
7.999999999999989
100
AcDbArc
 50
67.5748093136
 51
149.2560953669
  0
ARC
  5
85
330
1F
100
AcDbEntity
  8
0
  6
Continuous
 62
     7
370
    15
100
AcDbCircle
 10
169.5735964797
 20
113.0866940452
 30
0.0
 40
8.0
100
AcDbArc
 50
210.7768050115
 51
329.2130576219
  0
ARC
  5
86
330
1F
100
AcDbEntity
  8
0
  6
Continuous
 62
     7
370
    15
100
AcDbCircle
 10
169.5735964797
 20
113.0866940452
 30
0.0
 40
7.99999999999998
100
AcDbArc
 50
30.8245848627
 51
67.5748093136
  0
LINE
  5
87
330
1F
100
AcDbEntity
  8
0
  6
Continuous
 62
     7
370
    15
100
AcDbLine
 10
163.8504757259
 20
112.325627576
 30
0.0
 11
167.371138999
 21
107.7497928489
 31
0.0
  0
LINE
  5
88
330
1F
100
AcDbEntity
  8
0
  6
Continuous
 62
     7
370
    15
100
AcDbLine
 10
166.0529332065
 20
117.6625287723
 30
0.0
 11
171.7760539604
 21
118.4235952415
 31
0.0
  0
LINE
  5
89
330
1F
100
AcDbEntity
  8
0
  6
Continuous
 62
     7
370
    15
100
AcDbLine
 10
175.2967172335
 20
113.8477605143
 30
0.0
 11
173.0942597529
 21
108.510859318
 31
0.0
  0
LINE
  5
8A
330
1F
100
AcDbEntity
  8
0
  6
Continuous
 62
     7
370
    15
100
AcDbLine
 10
166.0529332065
 20
117.6625287723
 30
0.0
 11
163.8504757259
 21
112.325627576
 31
0.0
  0
ARC
  5
8B
330
1F
100
AcDbEntity
  8
0
  6
Continuous
 62
     7
370
    15
100
AcDbCircle
 10
169.5735964797
 20
113.0866940452
 30
0.0
 40
5.000000000000011
100
AcDbArc
 50
217.5748093136
 51
277.5748093136
  0
ARC
  5
8C
330
1F
100
AcDbEntity
  8
0
  6
Continuous
 62
     7
370
    15
100
AcDbCircle
 10
169.5735964797
 20
113.0866940452
 30
0.0
 40
4.999999999999985
100
AcDbArc
 50
37.5748093136
 51
97.5748093136
  0
ARC
  5
8D
330
1F
100
AcDbEntity
  8
0
  6
Continuous
 62
     7
370
    15
100
AcDbCircle
 10
169.5735964797
 20
113.0866940452
 30
0.0
 40
5.000000000000024
100
AcDbArc
 50
337.5748093136
 51
37.5748093136
  0
ARC
  5
8E
330
1F
100
AcDbEntity
  8
0
  6
Continuous
 62
     7
370
    15
100
AcDbCircle
 10
169.5735964797
 20
113.0866940452
 30
0.0
 40
5.000000000000011
100
AcDbArc
 50
157.5748093136
 51
217.5748093136
  0
ARC
  5
8F
330
1F
100
AcDbEntity
  8
0
  6
Continuous
 62
     7
370
    15
100
AcDbCircle
 10
169.5735964797
 20
113.0866940452
 30
0.0
 40
5.000000000000024
100
AcDbArc
 50
277.5748093136
 51
337.5748093136
  0
ARC
  5
90
330
1F
100
AcDbEntity
  8
0
  6
Continuous
 62
     7
370
    15
100
AcDbCircle
 10
169.5735964797
 20
113.0866940452
 30
0.0
 40
4.999999999999992
100
AcDbArc
 50
97.5748093136
 51
157.5748093136
  0
SPLINE
  5
91
330
1F
100
AcDbEntity
  8
0
  6
Continuous
 62
     7
370
    15
100
AcDbSpline
210
0.0
220
0.0
230
1.0
 70
     8
 71
     3
 72
    17
 73
    13
 74
     0
 42
0.00000001
 43
0.00000001
 40
0.0
 40
0.0
 40
0.0
 40
0.0
 40
0.0533986020755791
 40
0.132124241989256
 40
0.3239907774652179
 40
0.4995100848754983
 40
0.6750759299782438
 40
0.7373050428264866
 40
0.801378965492775
 40
0.8673152963432154
 40
0.9743882790629874
 40
1.0
 40
1.0
 40
1.0
 40
1.0
 10
201.4491647918752
 20
109.0130751536606
 30
0.0
 10
201.5270032080713
 20
109.1429265537768
 30
0.0
 10
201.7195989191538
 20
109.4642180697477
 30
0.0
 10
202.1008673609039
 20
110.3035410627891
 30
0.0
 10
202.4746372486168
 20
111.5280150794254
 30
0.0
 10
202.62086819951
 20
113.0833096131816
 30
0.0
 10
202.5095790413165
 20
114.2681251439355
 30
0.0
 10
202.3199595753109
 20
115.1086159732569
 30
0.0
 10
202.164548646591
 20
115.634681988619
 30
0.0
 10
201.9240089295823
 20
116.2644093931212
 30
0.0
 10
201.6942319564573
 20
116.7837250228132
 30
0.0
 10
201.4871147223117
 20
117.0973581092978
 30
0.0
 10
201.4471355185603
 20
117.1578977409681
 30
0.0
  0
SPLINE
  5
92
330
1F
100
AcDbEntity
  8
0
  6
Continuous
 62
     7
370
    15
100
AcDbSpline
210
0.0
220
0.0
230
1.0
 70
     8
 71
     3
 72
    18
 73
    14
 74
     0
 42
0.00000001
 43
0.00000001
 40
0.0
 40
0.0
 40
0.0
 40
0.0
 40
0.0587733692687036
 40
0.1337110732774869
 40
0.3219809091587319
 40
0.4126162918928326
 40
0.5009298248975175
 40
0.6761572708463741
 40
0.7382174059825637
 40
0.8020943706691672
 40
0.8678058096757821
 40
0.9743743929581564
 40
0.9999999999999999
 40
0.9999999999999999
 40
0.9999999999999999
 40
0.9999999999999999
 10
187.7031013897652
 20
117.1706422920121
 30
0.0
 10
187.6178683687231
 20
117.0271211230124
 30
0.0
 10
187.4239608411467
 20
116.700606414331
 30
0.0
 10
187.0453517068332
 20
115.8650115744836
 30
0.0
 10
186.7472480128859
 20
114.8915621082634
 30
0.0
 10
186.5977720778569
 20
113.8493192956655
 30
0.0
 10
186.5497001552247
 20
112.8344265830324
 30
0.0
 10
186.6386372834278
 20
111.8985938053974
 30
0.0
 10
186.8288312182523
 20
111.0586991986548
 30
0.0
 10
186.9844644942042
 20
110.5333536461784
 30
0.0
 10
187.2249240916107
 20
109.9050487217273
 30
0.0
 10
187.4545952451904
 20
109.3867752817319
 30
0.0
 10
187.6613968781106
 20
109.0737511511851
 30
0.0
 10
187.7014850042819
 20
109.0130719840876
 30
0.0
  0
SPLINE
  5
93
330
1F
100
AcDbEntity
  8
0
  6
Continuous
 62
     7
370
    15
100
AcDbSpline
210
0.0
220
0.0
230
1.0
 70
     8
 71
     3
 72
    39
 73
    35
 74
     0
 42
0.00000001
 43
0.00000001
 40
-0.0931207261899207
 40
-0.061951190297856
 40
-0.0306570609597867
 40
0.0
 40
0.0306766255734403
 40
0.0619884351880549
 40
0.0931786770073662
 40
0.1243035093027803
 40
0.1554610904611405
 40
0.1869501965027881
 40
0.2186198542445494
 40
0.2499168294763593
 40
0.2814668200262421
 40
0.3129752671682666
 40
0.3444080948991853
 40
0.3758070711408215
 40
0.4069761878432506
 40
0.4381182606700025
 40
0.4693302543143543
 40
0.5000485752812152
 40
0.5307608120559105
 40
0.5620521600204129
 40
0.5932083628429567
 40
0.6243426223064872
 40
0.6555306071097743
 40
0.6870881590060036
 40
0.7187798694378269
 40
0.7500819188468235
 40
0.781357308384818
 40
0.8130684055864261
 40
0.8445967306460206
 40
0.8757739303181702
 40
0.9068792738100793
 40
0.938048809702144
 40
0.9693429390402133
 40
1.0
 40
1.03067662557344
 40
1.061988435188055
 40
1.093178677007366
 10
196.3026723590575
 20
104.2553998167529
 30
0.0
 10
194.5732292788283
 20
104.0802588993606
 30
0.0
 10
192.8434676535907
 20
104.2556381344806
 30
0.0
 10
191.1834468337128
 20
104.7820740869304
 30
0.0
 10
189.649795069499
 20
105.6084465491001
 30
0.0
 10
188.3197984590286
 20
106.7220976281922
 30
0.0
 10
187.2270957152558
 20
108.0766382082397
 30
0.0
 10
186.4174638867467
 20
109.6339490980591
 30
0.0
 10
185.9027498400357
 20
111.3230692205103
 30
0.0
 10
185.7334083516603
 20
113.0875050249377
 30
0.0
 10
185.8999948392285
 20
114.8491044313783
 30
0.0
 10
186.4099717421045
 20
116.5405428305202
 30
0.0
 10
187.2245615055282
 20
118.096221167452
 30
0.0
 10
188.3215893001062
 20
119.4523521900738
 30
0.0
 10
189.6532957420115
 20
120.5705194246061
 30
0.0
 10
191.1853334514106
 20
121.3963058130545
 30
0.0
 10
192.8444397497502
 20
121.9194771030319
 30
0.0
 10
194.574212523577
 20
122.0927092505096
 30
0.0
 10
196.3053920770985
 20
121.9183358418519
 30
0.0
 10
197.9654697539228
 20
121.392856202505
 30
0.0
 10
199.4981341111937
 20
120.5663145674514
 30
0.0
 10
200.8273003822764
 20
119.4515080709228
 30
0.0
 10
201.9198980164117
 20
118.0943410691642
 30
0.0
 10
202.7289891553775
 20
116.5341457790598
 30
0.0
 10
203.243109892782
 20
114.8432214086063
 30
0.0
 10
203.4146023761039
 20
113.0834999286348
 30
0.0
 10
203.2443295811679
 20
111.3231968622915
 30
0.0
 10
202.7290379786821
 20
109.6332283131005
 30
0.0
 10
201.9185390099354
 20
108.0742327612372
 30
0.0
 10
200.8248905391159
 20
106.7194798506331
 30
0.0
 10
199.4946306510175
 20
105.6067499938456
 30
0.0
 10
197.9617393121753
 20
104.781275291196
 30
0.0
 10
196.3026723590575
 20
104.2553998167529
 30
0.0
 10
194.5732292788283
 20
104.0802588993606
 30
0.0
 10
192.8434676535907
 20
104.2556381344806
 30
0.0
  0
SPLINE
  5
94
330
1F
100
AcDbEntity
  8
0
  6
Continuous
 62
     7
370
    15
100
AcDbSpline
210
0.0
220
0.0
230
1.0
 70
     8
 71
     3
 72
    39
 73
    35
 74
     0
 42
0.00000001
 43
0.00000001
 40
-0.0931207261892441
 40
-0.0619511902978656
 40
-0.0306570609599923
 40
0.0
 40
0.0306766255734404
 40
0.0619884351880548
 40
0.0931786770073668
 40
0.1243035093027807
 40
0.1554610904611413
 40
0.1869501965027889
 40
0.2186198542433118
 40
0.2499168294763143
 40
0.2814668200244082
 40
0.3129752671682468
 40
0.3444080948985981
 40
0.3758070711408238
 40
0.4069761878432905
 40
0.4381182606700065
 40
0.469330254314393
 40
0.5000485752812182
 40
0.5307608120554308
 40
0.5620521600203948
 40
0.5932083628424565
 40
0.6243426223064878
 40
0.655530607109775
 40
0.6870881590060044
 40
0.7187798694378279
 40
0.7500819188468245
 40
0.7813573083837569
 40
0.8130684055863872
 40
0.8445967306458628
 40
0.8757739303182038
 40
0.906879273810756
 40
0.9380488097021344
 40
0.9693429390400077
 40
1.0
 40
1.03067662557344
 40
1.061988435188055
 40
1.093178677007367
 10
171.3026723590616
 20
104.2553998167508
 30
0.0
 10
169.5732292788321
 20
104.0802588993609
 30
0.0
 10
167.8434676535907
 20
104.2556381344803
 30
0.0
 10
166.1834468337127
 20
104.7820740869304
 30
0.0
 10
164.649795069499
 20
105.6084465491
 30
0.0
 10
163.3197984590282
 20
106.722097628192
 30
0.0
 10
162.2270957152572
 20
108.07663820824
 30
0.0
 10
161.4174638867517
 20
109.6339490980372
 30
0.0
 10
160.9027498400616
 20
111.3230692204918
 30
0.0
 10
160.7334083516588
 20
113.0875050248809
 30
0.0
 10
160.8999948392104
 20
114.849104431347
 30
0.0
 10
161.409971742091
 20
116.540542830478
 30
0.0
 10
162.2245615055122
 20
118.0962211674488
 30
0.0
 10
163.3215893001009
 20
119.4523521900655
 30
0.0
 10
164.653295742011
 20
120.5705194246075
 30
0.0
 10
166.185333451412
 20
121.3963058130552
 30
0.0
 10
167.8444397497509
 20
121.9194771030309
 30
0.0
 10
169.5742125235689
 20
122.0927092505111
 30
0.0
 10
171.3053920770879
 20
121.9183358418452
 30
0.0
 10
172.9654697539061
 20
121.3928562025121
 30
0.0
 10
174.4981341111912
 20
120.5663145674636
 30
0.0
 10
175.8273003822691
 20
119.4515080709283
 30
0.0
 10
176.919898016412
 20
118.0943410691647
 30
0.0
 10
177.7289891553777
 20
116.5341457790597
 30
0.0
 10
178.2431098927809
 20
114.8432214086065
 30
0.0
 10
178.4146023761066
 20
113.0834999286541
 30
0.0
 10
178.2443295811545
 20
111.3231968623139
 30
0.0
 10
177.7290379786885
 20
109.6332283131226
 30
0.0
 10
176.9185390099653
 20
108.0742327612216
 30
0.0
 10
175.8248905391073
 20
106.7194798506274
 30
0.0
 10
174.4946306509971
 20
105.6067499938532
 30
0.0
 10
172.9617393121684
 20
104.7812752911907
 30
0.0
 10
171.3026723590616
 20
104.2553998167508
 30
0.0
 10
169.5732292788321
 20
104.0802588993609
 30
0.0
 10
167.8434676535907
 20
104.2556381344803
 30
0.0
  0
SPLINE
  5
95
330
1F
100
AcDbEntity
  8
0
  6
Continuous
 62
     7
370
    15
100
AcDbSpline
210
0.0
220
0.0
230
1.0
 70
     8
 71
     3
 72
    17
 73
    13
 74
     0
 42
0.00000001
 43
0.00000001
 40
0.0
 40
0.0
 40
0.0
 40
0.0
 40
0.0533986020871568
 40
0.1321242419903582
 40
0.3239907774715515
 40
0.4995100848736924
 40
0.6750759299628213
 40
0.7373050428119391
 40
0.8013789654818084
 40
0.8673152963385261
 40
0.9743882790389422
 40
1.0
 40
1.0
 40
1.0
 40
1.0
 10
176.4491647918674
 20
109.0130751536439
 30
0.0
 10
176.5270032080796
 20
109.14292655379
 30
0.0
 10
176.7195989191619
 20
109.4642180697681
 30
0.0
 10
177.1008673609214
 20
110.303541062833
 30
0.0
 10
177.4746372486204
 20
111.5280150794455
 30
0.0
 10
177.620868199505
 20
113.0833096131659
 30
0.0
 10
177.509579041324
 20
114.2681251438687
 30
0.0
 10
177.3199595753333
 20
115.1086159731737
 30
0.0
 10
177.1645486466081
 20
115.6346819885708
 30
0.0
 10
176.92400892961
 20
116.2644093930553
 30
0.0
 10
176.6942319564684
 20
116.7837250227775
 30
0.0
 10
176.4871147223173
 20
117.097358109278
 30
0.0
 10
176.4471355185287
 20
117.157897741006
 30
0.0
  0
SPLINE
  5
96
330
1F
100
AcDbEntity
  8
0
  6
Continuous
 62
     7
370
    15
100
AcDbSpline
210
0.0
220
0.0
230
1.0
 70
     8
 71
     3
 72
    18
 73
    14
 74
     0
 42
0.00000001
 43
0.00000001
 40
0.0
 40
0.0
 40
0.0
 40
0.0
 40
0.0587733692701586
 40
0.1337110732766533
 40
0.3219809091514406
 40
0.4126162918872336
 40
0.5009298248968852
 40
0.6761572708393968
 40
0.7382174059763382
 40
0.8020943706651336
 40
0.8678058096753838
 40
0.9743743929567265
 40
1.0
 40
1.0
 40
1.0
 40
1.0
 10
162.7031013897609
 20
117.1706422920056
 30
0.0
 10
162.617868368717
 20
117.0271211230021
 30
0.0
 10
162.4239608411428
 20
116.7006064143225
 30
0.0
 10
162.0453517068388
 20
115.8650115744944
 30
0.0
 10
161.7472480128945
 20
114.8915621082954
 30
0.0
 10
161.5977720778592
 20
113.8493192956984
 30
0.0
 10
161.5497001552242
 20
112.8344265830649
 30
0.0
 10
161.6386372834239
 20
111.8985938054324
 30
0.0
 10
161.8288312182406
 20
111.0586991986985
 30
0.0
 10
161.9844644941951
 20
110.5333536462036
 30
0.0
 10
162.2249240916052
 20
109.9050487217395
 30
0.0
 10
162.4545952451898
 20
109.3867752817341
 30
0.0
 10
162.6613968781102
 20
109.0737511511864
 30
0.0
 10
162.7014850042837
 20
109.0130719840854
 30
0.0
  0
LINE
  5
97
330
1F
100
AcDbEntity
  8
0
  6
Continuous
 62
     7
370
    15
100
AcDbLine
 10
129.4655293112
 20
82.8997763489
 30
0.0
 11
129.4655293112
 21
132.9366940452
 31
0.0
  0
SPLINE
  5
98
330
1F
100
AcDbEntity
  8
0
  6
Continuous
 62
     7
370
    15
100
AcDbSpline
210
0.0
220
0.0
230
1.0
 70
     8
 71
     3
 72
     8
 73
     4
 74
     0
 42
0.00000001
 43
0.00000001
 40
0.0
 40
0.0
 40
0.0
 40
0.0
 40
1.0
 40
1.0
 40
1.0
 40
1.0
 10
129.4655293111813
 20
82.89977634892736
 30
0.0
 10
128.9700496505156
 20
83.79530243686074
 30
0.0
 10
128.4759356024735
 20
84.69158685191299
 30
0.0
 10
127.9835964796923
 20
85.58885688611969
 30
0.0
  0
LINE
  5
99
330
1F
100
AcDbEntity
  8
0
  6
Continuous
 62
     7
370
    15
100
AcDbLine
 10
127.9835964797
 20
85.5888568861
 30
0.0
 11
127.9835964797
 21
132.9366940452
 31
0.0
  0
SPLINE
  5
9A
330
1F
100
AcDbEntity
  8
0
  6
Continuous
 62
     7
370
    15
100
AcDbSpline
210
0.0
220
0.0
230
1.0
 70
    24
 71
     3
 72
     8
 73
     4
 74
     0
 42
0.00000001
 43
0.00000001
 40
0.0
 40
0.0
 40
0.0
 40
0.0
 40
1.0
 40
1.0
 40
1.0
 40
1.0
 10
127.9835964796923
 20
132.9366940451745
 30
0.0
 10
128.4635484740572
 20
132.9366940451745
 30
0.0
 10
128.9588492030308
 20
132.9366940451745
 30
0.0
 10
129.4655293111813
 20
132.9366940451745
 30
0.0
  0
LINE
  5
9B
330
1F
100
AcDbEntity
  8
0
  6
Continuous
 62
     7
370
    15
100
AcDbLine
 10
134.0235964797
 20
83.5264166446
 30
0.0
 11
134.0235964797
 21
132.9366940452
 31
0.0
  0
SPLINE
  5
9C
330
1F
100
AcDbEntity
  8
0
  6
Continuous
 62
     7
370
    15
100
AcDbSpline
210
0.0
220
0.0
230
1.0
 70
     8
 71
     3
 72
    10
 73
     6
 74
     0
 42
0.00000001
 43
0.00000001
 40
0.0
 40
0.0
 40
0.0
 40
0.0
 40
0.5
 40
0.5
 40
1.0
 40
1.0
 40
1.0
 40
1.0
 10
134.0235964796923
 20
83.52641664458169
 30
0.0
 10
134.0235964796923
 20
83.36652937638803
 30
0.0
 10
133.9622868284565
 20
83.20540212087342
 30
0.0
 10
133.7431871909214
 20
82.97130312251859
 30
0.0
 10
133.5851389846079
 20
82.89977634892736
 30
0.0
 10
133.4235964796923
 20
82.89977634892736
 30
0.0
  0
SPLINE
  5
9D
330
1F
100
AcDbEntity
  8
0
  6
Continuous
 62
     7
370
    15
100
AcDbSpline
210
0.0
220
0.0
230
1.0
 70
    24
 71
     3
 72
    12
 73
     8
 74
     0
 42
0.00000001
 43
0.00000001
 40
0.0
 40
0.0
 40
0.0
 40
0.0
 40
0.2500000000000033
 40
0.2500000000000033
 40
0.5000000000000067
 40
0.5000000000000067
 40
1.0
 40
1.0
 40
1.0
 40
1.0
 10
133.4235964796923
 20
132.9366940451745
 30
0.0
 10
133.5138355473793
 20
132.9366940451745
 30
0.0
 10
133.6047336614858
 20
132.9366940451745
 30
0.0
 10
133.7593306979743
 20
132.9366940451746
 30
0.0
 10
133.8243091140825
 20
132.9366940451746
 30
0.0
 10
133.9761441420187
 20
132.9366940451745
 30
0.0
 10
134.0235964796923
 20
132.9366940451746
 30
0.0
 10
134.0235964796923
 20
132.9366940451745
 30
0.0
  0
LINE
  5
9E
330
1F
100
AcDbEntity
  8
0
  6
Continuous
 62
     7
370
    15
100
AcDbLine
 10
124.1635964797
 20
85.5888568861
 30
0.0
 11
124.1635964797
 21
132.9366940452
 31
0.0
  0
SPLINE
  5
9F
330
1F
100
AcDbEntity
  8
0
  6
Continuous
 62
     7
370
    15
100
AcDbSpline
210
0.0
220
0.0
230
1.0
 70
     8
 71
     3
 72
     8
 73
     4
 74
     0
 42
0.00000001
 43
0.00000001
 40
0.0
 40
0.0
 40
0.0
 40
0.0
 40
1.0
 40
1.0
 40
1.0
 40
1.0
 10
124.1635964796923
 20
85.58885688611967
 30
0.0
 10
123.6712573569111
 20
84.69158685191297
 30
0.0
 10
123.177143308869
 20
83.79530243686074
 30
0.0
 10
122.6816636482032
 20
82.89977634892736
 30
0.0
  0
LINE
  5
A0
330
1F
100
AcDbEntity
  8
0
  6
Continuous
 62
     7
370
    15
100
AcDbLine
 10
122.6816636482
 20
82.8997763489
 30
0.0
 11
122.6816636482
 21
132.9366940452
 31
0.0
  0
SPLINE
  5
A1
330
1F
100
AcDbEntity
  8
0
  6
Continuous
 62
     7
370
    15
100
AcDbSpline
210
0.0
220
0.0
230
1.0
 70
    24
 71
     3
 72
     8
 73
     4
 74
     0
 42
0.00000001
 43
0.00000001
 40
0.0
 40
0.0
 40
0.0
 40
0.0
 40
1.0
 40
1.0
 40
1.0
 40
1.0
 10
122.6816636482032
 20
132.9366940451745
 30
0.0
 10
123.1883437563537
 20
132.9366940451745
 30
0.0
 10
123.6836444853274
 20
132.9366940451745
 30
0.0
 10
124.1635964796923
 20
132.9366940451745
 30
0.0
  0
LINE
  5
A2
330
1F
100
AcDbEntity
  8
0
  6
Continuous
 62
     7
370
    15
100
AcDbLine
 10
113.0235964797
 20
132.9366940452
 30
0.0
 11
122.6816636482
 21
132.9366940452
 31
0.0
  0
LINE
  5
A3
330
1F
100
AcDbEntity
  8
0
  6
Continuous
 62
     7
370
    15
100
AcDbLine
 10
122.6816636482
 20
82.8997763489
 30
0.0
 11
121.0235964797
 21
82.8997763489
 31
0.0
  0
SPLINE
  5
A4
330
1F
100
AcDbEntity
  8
0
  6
Continuous
 62
     7
370
    15
100
AcDbSpline
210
0.0
220
0.0
230
1.0
 70
     8
 71
     3
 72
    28
 73
    24
 74
     0
 42
0.00000001
 43
0.00000001
 40
0.0
 40
0.0
 40
0.0
 40
0.0
 40
0.1250000000000001
 40
0.1250000000000001
 40
0.1875000000000001
 40
0.1875000000000001
 40
0.2500000000000001
 40
0.2500000000000001
 40
0.3749999999999999
 40
0.3749999999999999
 40
0.4375
 40
0.4375
 40
0.4999999999999999
 40
0.4999999999999999
 40
0.6249999999999999
 40
0.6249999999999999
 40
0.7499999999999997
 40
0.7499999999999997
 40
0.8124999999999998
 40
0.8124999999999998
 40
0.8749999999999998
 40
0.8749999999999998
 40
1.0
 40
1.0
 40
1.0
 40
1.0
 10
121.0235964796923
 20
82.89977634892736
 30
0.0
 10
120.4918887221994
 20
82.89977634892736
 30
0.0
 10
119.969650156889
 20
82.88399163497716
 30
0.0
 10
119.199779670614
 20
82.83899622090097
 30
0.0
 10
118.9454200984227
 20
82.82044122582522
 30
0.0
 10
118.4412985177242
 20
82.77658850337872
 30
0.0
 10
118.1915757002963
 20
82.75124389642652
 30
0.0
 10
117.4659857488498
 20
82.66784181867642
 30
0.0
 10
117.0076254872683
 20
82.60197625952534
 30
0.0
 10
116.3571275438744
 20
82.49300591903354
 30
0.0
 10
116.145445493082
 20
82.45476628326689
 30
0.0
 10
115.741374003944
 20
82.37700754584753
 30
0.0
 10
115.5488674901231
 20
82.33750658367217
 30
0.0
 10
114.9990325191018
 20
82.21859884130618
 30
0.0
 10
114.669103740793
 20
82.13878115988157
 30
0.0
 10
114.0846324722243
 20
81.98543799808552
 30
0.0
 10
113.8383553342109
 20
81.91410424481627
 30
0.0
 10
113.5385125415128
 20
81.82016073774163
 30
0.0
 10
113.4500556844406
 20
81.79096694438171
 30
0.0
 10
113.2966943311355
 20
81.73750037011828
 30
0.0
 10
113.2316061169093
 20
81.71314103584311
 30
0.0
 10
113.0760121009685
 20
81.64955089039839
 30
0.0
 10
113.0235964796923
 20
81.61944795530913
 30
0.0
 10
113.0235964796923
 20
81.6025710623122
 30
0.0
  0
LINE
  5
A5
330
1F
100
AcDbEntity
  8
0
  6
Continuous
 62
     7
370
    15
100
AcDbLine
 10
113.0235964797
 20
81.6025710623
 30
0.0
 11
113.0235964797
 21
81.5866940452
 31
0.0
  0
SPLINE
  5
A6
330
1F
100
AcDbEntity
  8
0
  6
Continuous
 62
     7
370
    15
100
AcDbSpline
210
0.0
220
0.0
230
1.0
 70
     8
 71
     3
 72
    17
 73
    13
 74
     0
 42
0.00000001
 43
0.00000001
 40
0.0
 40
0.0
 40
0.0
 40
0.0
 40
0.1034796923964056
 40
0.210023918880785
 40
0.3134862136955583
 40
0.4198361274354882
 40
0.5254127712915682
 40
0.633961069541979
 40
0.7409508756305031
 40
0.8511696089308174
 40
0.9558996534551937
 40
1.0
 40
1.0
 40
1.0
 40
1.0
 10
121.0235964796923
 20
143.5538895183388
 30
0.0
 10
120.5883481305823
 20
143.5593377148721
 30
0.0
 10
119.7049616240173
 20
143.5703954553839
 30
0.0
 10
118.4241340387886
 20
143.6567538482855
 30
0.0
 10
117.2067175029146
 20
143.7846240248232
 30
0.0
 10
116.098911650668
 20
143.9435693234164
 30
0.0
 10
115.1106728467198
 20
144.118063011132
 30
0.0
 10
114.2859492891883
 20
144.2872288617719
 30
0.0
 10
113.636995788529
 20
144.4351126443002
 30
0.0
 10
113.2199609730672
 20
144.536903228531
 30
0.0
 10
113.0213642601027
 20
144.5872547511342
 30
0.0
 10
113.044676981536
 20
144.5813490669118
 30
0.0
 10
113.0515848387735
 20
144.5795991372172
 30
0.0
  0
LINE
  5
A7
330
1F
100
AcDbEntity
  8
0
  6
Continuous
 62
     7
370
    15
100
AcDbLine
 10
122.6816636482
 20
143.5538895183
 30
0.0
 11
121.0235964797
 21
143.5538895183
 31
0.0
  0
LINE
  5
A8
330
1F
100
AcDbEntity
  8
0
  6
Continuous
 62
     7
370
    15
100
AcDbLine
 10
122.6816636482
 20
137.5453837075
 30
0.0
 11
122.6816636482
 21
143.5538895183
 31
0.0
  0
LINE
  5
A9
330
1F
100
AcDbEntity
  8
0
  6
Continuous
 62
     7
370
    15
100
AcDbLine
 10
120.2692168254
 20
137.5453837075
 30
0.0
 11
122.6816636482
 21
137.5453837075
 31
0.0
  0
SPLINE
  5
AA
330
1F
100
AcDbEntity
  8
0
  6
Continuous
 62
     7
370
    15
100
AcDbSpline
210
0.0
220
0.0
230
1.0
 70
     8
 71
     3
 72
    20
 73
    16
 74
     0
 42
0.00000001
 43
0.00000001
 40
0.0
 40
0.0
 40
0.0
 40
0.0
 40
0.2499999999999997
 40
0.2499999999999997
 40
0.3749999999999997
 40
0.3749999999999997
 40
0.4999999999999998
 40
0.4999999999999998
 40
0.6249999999999998
 40
0.6249999999999998
 40
0.7499999999999999
 40
0.7499999999999999
 40
0.8749999999999999
 40
0.8749999999999999
 40
1.0
 40
1.0
 40
1.0
 40
1.0
 10
113.0235964796923
 20
132.9366940451745
 30
0.0
 10
113.2719702139804
 20
133.5905564734719
 30
0.0
 10
113.5915403063256
 20
134.1943422554691
 30
0.0
 10
114.2138465395303
 20
135.0211809916377
 30
0.0
 10
114.4452707999611
 20
135.2836096295906
 30
0.0
 10
114.9664851396108
 20
135.7802722836956
 30
0.0
 10
115.2531056222458
 20
136.0108591627171
 30
0.0
 10
115.8725903635534
 20
136.4274133872997
 30
0.0
 10
116.2068907430404
 20
136.6149111892672
 30
0.0
 10
116.9321512156652
 20
136.9463081669036
 30
0.0
 10
117.3140662730557
 20
137.085812154399
 30
0.0
 10
118.1088544492274
 20
137.3112656618699
 30
0.0
 10
118.5230126434337
 20
137.3978917734135
 30
0.0
 10
119.3885589840151
 20
137.5158725622676
 30
0.0
 10
119.8264465990269
 20
137.545383707542
 30
0.0
 10
120.2692168253816
 20
137.545383707542
 30
0.0
  0
SPLINE
  5
AB
330
1F
100
AcDbEntity
  8
0
  6
Continuous
 62
     7
370
    15
100
AcDbSpline
210
0.0
220
0.0
230
1.0
 70
     8
 71
     3
 72
    70
 73
    66
 74
     0
 42
0.00000001
 43
0.00000001
 40
-0.0312500000000001
 40
-0.0312500000000001
 40
0.0
 40
0.0
 40
0.0312499999999999
 40
0.0312499999999999
 40
0.0624999999999998
 40
0.0624999999999998
 40
0.0937499999999997
 40
0.0937499999999997
 40
0.1249999999999996
 40
0.1249999999999996
 40
0.1562499999999994
 40
0.1562499999999994
 40
0.1874999999999993
 40
0.1874999999999993
 40
0.2187499999999992
 40
0.2187499999999992
 40
0.2499999999999991
 40
0.2499999999999991
 40
0.281249999999999
 40
0.281249999999999
 40
0.3124999999999989
 40
0.3124999999999989
 40
0.3437499999999988
 40
0.3437499999999988
 40
0.3749999999999987
 40
0.3749999999999987
 40
0.4062499999999986
 40
0.4062499999999986
 40
0.4374999999999984
 40
0.4374999999999984
 40
0.4687499999999983
 40
0.4687499999999983
 40
0.4999999999999982
 40
0.4999999999999982
 40
0.5312499999999983
 40
0.5312499999999983
 40
0.5624999999999984
 40
0.5624999999999984
 40
0.5937499999999986
 40
0.5937499999999986
 40
0.6249999999999987
 40
0.6249999999999987
 40
0.6562499999999988
 40
0.6562499999999988
 40
0.6874999999999989
 40
0.6874999999999989
 40
0.718749999999999
 40
0.718749999999999
 40
0.7499999999999991
 40
0.7499999999999991
 40
0.7812499999999992
 40
0.7812499999999992
 40
0.8124999999999993
 40
0.8124999999999993
 40
0.8437499999999994
 40
0.8437499999999994
 40
0.8749999999999996
 40
0.8749999999999996
 40
0.9062499999999997
 40
0.9062499999999997
 40
0.9374999999999998
 40
0.9374999999999998
 40
0.9687499999999999
 40
0.9687499999999999
 40
1.0
 40
1.0
 40
1.03125
 40
1.03125
 10
116.3381418183524
 20
123.7076009311579
 30
0.0
 10
115.8090511410322
 20
123.7076009311579
 30
0.0
 10
115.548980473655
 20
123.7322782259431
 30
0.0
 10
115.0374057938196
 20
123.828749898985
 30
0.0
 10
114.7832305100794
 20
123.901730814965
 30
0.0
 10
114.2989598800177
 20
124.0914714179037
 30
0.0
 10
114.0693187881366
 20
124.2073320762974
 30
0.0
 10
113.6347144399031
 20
124.4799499222551
 30
0.0
 10
113.4291486632565
 20
124.6379890043089
 30
0.0
 10
113.0605915226612
 20
124.9815318552795
 30
0.0
 10
112.8951105399258
 20
125.1682942993812
 30
0.0
 10
112.6026860304906
 20
125.571837473778
 30
0.0
 10
112.4785850538642
 20
125.7853344702072
 30
0.0
 10
112.2790058571144
 20
126.2247177841297
 30
0.0
 10
112.2020722712562
 20
126.4538577712753
 30
0.0
 10
112.0992152127358
 20
126.9198318940353
 30
0.0
 10
112.0737423032767
 20
127.1527143397115
 30
0.0
 10
112.0734518927089
 20
127.6181118747913
 30
0.0
 10
112.0994765264846
 20
127.8529876321856
 30
0.0
 10
112.2016248109766
 20
128.3044807794319
 30
0.0
 10
112.2772012585598
 20
128.5225272548433
 30
0.0
 10
112.4776987897047
 20
128.9436217798811
 30
0.0
 10
112.6028276312131
 20
129.1455431643994
 30
0.0
 10
112.8921864322347
 20
129.5175726469183
 30
0.0
 10
113.0575974192901
 20
129.6902009504986
 30
0.0
 10
113.430587977438
 20
130.0075189550447
 30
0.0
 10
113.6323210105271
 20
130.1473058885463
 30
0.0
 10
114.065180261355
 20
130.3914821420981
 30
0.0
 10
114.2990987942443
 20
130.4967116531396
 30
0.0
 10
114.7832825293869
 20
130.6648687995147
 30
0.0
 10
115.0325981553424
 20
130.7281196901086
 30
0.0
 10
115.5456306797702
 20
130.8136988992112
 30
0.0
 10
115.8109245026748
 20
130.8355710641336
 30
0.0
 10
116.3332591225445
 20
130.8357347137775
 30
0.0
 10
116.5930127850263
 20
130.8147330216815
 30
0.0
 10
117.1096246006715
 20
130.7293306666039
 30
0.0
 10
117.3619906411718
 20
130.6653244833169
 30
0.0
 10
117.8435157627046
 20
130.4985099632757
 30
0.0
 10
118.0763664948182
 20
130.3943767998766
 30
0.0
 10
118.513456343257
 20
130.1483901473816
 30
0.0
 10
118.7147773319141
 20
130.0086403164327
 30
0.0
 10
119.083863357214
 20
129.6955022467082
 30
0.0
 10
119.2528481082657
 20
129.5200460874381
 30
0.0
 10
119.5433041649249
 20
129.1472058233379
 30
0.0
 10
119.6663759762871
 20
128.9490840132269
 30
0.0
 10
119.8677122177091
 20
128.5283726704932
 30
0.0
 10
119.9449247636513
 20
128.3063826498257
 30
0.0
 10
120.0471283065514
 20
127.8565177101174
 30
0.0
 10
120.0733566580037
 20
127.6262622970006
 30
0.0
 10
120.0738330573208
 20
127.1549463544515
 30
0.0
 10
120.0480906448229
 20
126.9217089387374
 30
0.0
 10
119.946779868459
 20
126.4600323992393
 30
0.0
 10
119.8699472290681
 20
126.2291350121272
 30
0.0
 10
119.6695433898529
 20
125.7868589983355
 30
0.0
 10
119.5468718915608
 20
125.5757965670496
 30
0.0
 10
119.2569246023966
 20
125.1742980563169
 30
0.0
 10
119.0883536230314
 20
124.983391534241
 30
0.0
 10
118.7200840289182
 20
124.6396662022439
 30
0.0
 10
118.5190221716479
 20
124.4845290160299
 30
0.0
 10
118.081991253063
 20
124.2094516559501
 30
0.0
 10
117.8498430399333
 20
124.0923354265281
 30
0.0
 10
117.3688327584345
 20
123.9034089414636
 30
0.0
 10
117.1167326756041
 20
123.8303339710693
 30
0.0
 10
116.5996631893451
 20
123.7322819119348
 30
0.0
 10
116.3381418183524
 20
123.7076009311579
 30
0.0
 10
115.8090511410322
 20
123.7076009311579
 30
0.0
  0
SPLINE
  5
AC
330
1F
100
AcDbEntity
  8
0
  6
Continuous
 62
     7
370
    15
100
AcDbSpline
210
0.0
220
0.0
230
1.0
 70
     8
 71
     3
 72
    70
 73
    66
 74
     0
 42
0.00000001
 43
0.00000001
 40
-0.0312499999999999
 40
-0.0312499999999999
 40
0.0
 40
0.0
 40
0.0312499999999999
 40
0.0312499999999999
 40
0.0624999999999998
 40
0.0624999999999998
 40
0.0937499999999997
 40
0.0937499999999997
 40
0.1249999999999996
 40
0.1249999999999996
 40
0.1562499999999995
 40
0.1562499999999995
 40
0.1874999999999994
 40
0.1874999999999994
 40
0.2187499999999993
 40
0.2187499999999993
 40
0.2499999999999992
 40
0.2499999999999992
 40
0.2812499999999993
 40
0.2812499999999993
 40
0.3124999999999993
 40
0.3124999999999993
 40
0.3437499999999994
 40
0.3437499999999994
 40
0.3749999999999995
 40
0.3749999999999995
 40
0.4062499999999996
 40
0.4062499999999996
 40
0.4374999999999996
 40
0.4374999999999996
 40
0.4687499999999997
 40
0.4687499999999997
 40
0.4999999999999998
 40
0.4999999999999998
 40
0.5312499999999999
 40
0.5312499999999999
 40
0.5625
 40
0.5625
 40
0.5937500000000001
 40
0.5937500000000001
 40
0.6250000000000002
 40
0.6250000000000002
 40
0.6562500000000004
 40
0.6562500000000004
 40
0.6875000000000006
 40
0.6875000000000006
 40
0.7187500000000007
 40
0.7187500000000007
 40
0.7500000000000008
 40
0.7500000000000008
 40
0.7812500000000007
 40
0.7812500000000007
 40
0.8125000000000006
 40
0.8125000000000006
 40
0.8437500000000004
 40
0.8437500000000004
 40
0.8750000000000003
 40
0.8750000000000003
 40
0.9062500000000003
 40
0.9062500000000003
 40
0.9375000000000002
 40
0.9375000000000002
 40
0.9687500000000001
 40
0.9687500000000001
 40
1.0
 40
1.0
 40
1.03125
 40
1.03125
 10
116.3381418183524
 20
138.1456574399537
 30
0.0
 10
115.8090511410322
 20
138.1456574399537
 30
0.0
 10
115.548980473655
 20
138.1615578803685
 30
0.0
 10
115.0374057938196
 20
138.2235022305427
 30
0.0
 10
114.7832305100794
 20
138.270304464634
 30
0.0
 10
114.2989598800177
 20
138.3912814480891
 30
0.0
 10
114.0693187881366
 20
138.464883775896
 30
0.0
 10
113.6347144399031
 20
138.6367080468741
 30
0.0
 10
113.4291486632565
 20
138.7357114698015
 30
0.0
 10
113.0605915226612
 20
138.9488078837143
 30
0.0
 10
112.8951105399258
 20
139.063707599844
 30
0.0
 10
112.6026860304906
 20
139.3090744985343
 30
0.0
 10
112.4785850538642
 20
139.4375143990046
 30
0.0
 10
112.2790058571144
 20
139.6984065470905
 30
0.0
 10
112.2020722712562
 20
139.83278771843
 30
0.0
 10
112.0992152127358
 20
140.1021076695363
 30
0.0
 10
112.0737423032767
 20
140.2347889337544
 30
0.0
 10
112.0734518927089
 20
140.4959754078855
 30
0.0
 10
112.0994765264846
 20
140.6257404460502
 30
0.0
 10
112.2016248109766
 20
140.8713230803228
 30
0.0
 10
112.2772012585598
 20
140.9879846176317
 30
0.0
 10
112.4776987897047
 20
141.2098898077863
 30
0.0
 10
112.6028276312131
 20
141.3145010617093
 30
0.0
 10
112.8921864322347
 20
141.5045474733174
 30
0.0
 10
113.0575974192901
 20
141.591307144767
 30
0.0
 10
113.430587977438
 20
141.7488115205186
 30
0.0
 10
113.6323210105271
 20
141.8171367853058
 30
0.0
 10
114.065180261355
 20
141.935366508925
 30
0.0
 10
114.2990987942443
 20
141.9856614250288
 30
0.0
 10
114.7832825293869
 20
142.0655269619185
 30
0.0
 10
115.0325981553424
 20
142.0952680897181
 30
0.0
 10
115.5456306797702
 20
142.1354208312263
 30
0.0
 10
115.8109245026748
 20
142.1456191006362
 30
0.0
 10
116.3332591225445
 20
142.1456955590209
 30
0.0
 10
116.5930127850263
 20
142.1359045474118
 30
0.0
 10
117.1096246006715
 20
142.0958377086731
 30
0.0
 10
117.3619906411718
 20
142.0657405418163
 30
0.0
 10
117.8435157627046
 20
141.986518331986
 30
0.0
 10
118.0763664948182
 20
141.9367608525227
 30
0.0
 10
118.513456343257
 20
141.8176689100723
 30
0.0
 10
118.7147773319141
 20
141.749353648525
 30
0.0
 10
119.083863357214
 20
141.5939526815915
 30
0.0
 10
119.2528481082658
 20
141.5058003395246
 30
0.0
 10
119.5433041649249
 20
141.3153609504082
 30
0.0
 10
119.6663759762871
 20
141.2127363727091
 30
0.0
 10
119.8677122177091
 20
140.991096026101
 30
0.0
 10
119.9449247636513
 20
140.8723419505535
 30
0.0
 10
120.0471283065514
 20
140.6276760116358
 30
0.0
 10
120.0733566580037
 20
140.5005192861873
 30
0.0
 10
120.0738330573208
 20
140.2360711403317
 30
0.0
 10
120.0480906448229
 20
140.1031704600746
 30
0.0
 10
119.946779868459
 20
139.8363781865925
 30
0.0
 10
119.869947229068
 20
139.701014285124
 30
0.0
 10
119.6695433898529
 20
139.4384344898214
 30
0.0
 10
119.5468718915608
 20
139.3114593300676
 30
0.0
 10
119.2569246023966
 20
139.0673799439852
 30
0.0
 10
119.0883536230314
 20
138.9499548192314
 30
0.0
 10
118.7200840289182
 20
138.7367583582829
 30
0.0
 10
118.5190221716479
 20
138.6395842398581
 30
0.0
 10
118.081991253063
 20
138.4662293526439
 30
0.0
 10
117.8498430399334
 20
138.3918298009872
 30
0.0
 10
117.3688327584345
 20
138.2713769214826
 30
0.0
 10
117.1167326756041
 20
138.2245185462165
 30
0.0
 10
116.5996631893451
 20
138.1615610492328
 30
0.0
 10
116.3381418183524
 20
138.1456574399537
 30
0.0
 10
115.8090511410322
 20
138.1456574399537
 30
0.0
  0
LINE
  5
AD
330
1F
100
AcDbEntity
  8
0
  6
Continuous
 62
     7
370
    15
100
AcDbLine
 10
133.4235964797
 20
82.8997763489
 30
0.0
 11
129.4655293112
 21
82.8997763489
 31
0.0
  0
LINE
  5
AE
330
1F
100
AcDbEntity
  8
0
  6
Continuous
 62
     7
370
    15
100
AcDbLine
 10
129.4655293112
 20
132.9366940452
 30
0.0
 11
133.4235964797
 21
132.9366940452
 31
0.0
  0
LINE
  5
AF
330
1F
100
AcDbEntity
  8
0
  6
Continuous
 62
     7
370
    15
100
AcDbLine
 10
108.0735964797
 20
81.8866940452
 30
0.0
 11
108.0735964797
 21
144.2866940435
 31
0.0
  0
ARC
  5
B0
330
1F
100
AcDbEntity
  8
0
  6
Continuous
 62
     7
370
    15
100
AcDbCircle
 10
116.0711164983
 20
125.0052468151
 30
0.0
 40
4.10653363784114
100
AcDbArc
 50
18.7646775
 51
160.0787317396
  0
SPLINE
  5
B1
330
1F
100
AcDbEntity
  8
0
  6
Continuous
 62
     7
370
    15
100
AcDbSpline
210
0.0
220
0.0
230
1.0
 70
     8
 71
     3
 72
    10
 73
     6
 74
     0
 42
0.00000001
 43
0.00000001
 40
0.0
 40
0.0
 40
0.0
 40
0.0
 40
0.5
 40
0.5
 40
1.0
 40
1.0
 40
1.0
 40
1.0
 10
124.5578940113832
 20
139.4866940451745
 30
0.0
 10
124.4363537477147
 20
139.5614202123863
 30
0.0
 10
124.3350193873658
 20
139.6703652283031
 30
0.0
 10
124.1993804444774
 20
139.9207957090647
 30
0.0
 10
124.1635964796923
 20
140.0632150711636
 30
0.0
 10
124.1635964796923
 20
140.2063478962103
 30
0.0
  0
SPLINE
  5
B2
330
1F
100
AcDbEntity
  8
0
  6
Continuous
 62
     7
370
    15
100
AcDbSpline
210
0.0
220
0.0
230
1.0
 70
    24
 71
     3
 72
    12
 73
     8
 74
     0
 42
0.00000001
 43
0.00000001
 40
0.0
 40
0.0
 40
0.0
 40
0.0
 40
0.2500000000000037
 40
0.2500000000000037
 40
0.5000000000000074
 40
0.5000000000000074
 40
1.0
 40
1.0
 40
1.0
 40
1.0
 10
124.9635964796923
 20
139.4866940451745
 30
0.0
 10
124.9137197973748
 20
139.4866940451745
 30
0.0
 10
124.8657166039713
 20
139.4866940451745
 30
0.0
 10
124.7826685012593
 20
139.4866940451745
 30
0.0
 10
124.7465389217914
 20
139.4866940451745
 30
0.0
 10
124.6506268908472
 20
139.4866940451745
 30
0.0
 10
124.6008682228784
 20
139.4866940451745
 30
0.0
 10
124.5578940113832
 20
139.4866940451745
 30
0.0
  0
SPLINE
  5
B3
330
1F
100
AcDbEntity
  8
0
  6
Continuous
 62
     7
370
    15
100
AcDbSpline
210
0.0
220
0.0
230
1.0
 70
    24
 71
     3
 72
    14
 73
    10
 74
     0
 42
0.00000001
 43
0.00000001
 40
0.0
 40
0.0
 40
0.0
 40
0.0
 40
0.1249999999999991
 40
0.1249999999999991
 40
0.2499999999999982
 40
0.2499999999999982
 40
0.4999999999999998
 40
0.4999999999999998
 40
1.0
 40
1.0
 40
1.0
 40
1.0
 10
124.9635964796923
 20
86.68669404517453
 30
0.0
 10
124.8951586318058
 20
86.68669404517453
 30
0.0
 10
124.8296085930408
 20
86.68669404517453
 30
0.0
 10
124.7251819536328
 20
86.68669404517453
 30
0.0
 10
124.6826373438714
 20
86.68669404517453
 30
0.0
 10
124.5700278833312
 20
86.68669404517452
 30
0.0
 10
124.5144888363117
 20
86.68669404517453
 30
0.0
 10
124.3718771408479
 20
86.68669404517452
 30
0.0
 10
124.3084717858521
 20
86.68669404517452
 30
0.0
 10
124.2612712820246
 20
86.68669404517453
 30
0.0
  0
SPLINE
  5
B4
330
1F
100
AcDbEntity
  8
0
  6
Continuous
 62
     7
370
    15
100
AcDbSpline
210
0.0
220
0.0
230
1.0
 70
     8
 71
     3
 72
    10
 73
     6
 74
     0
 42
0.00000001
 43
0.00000001
 40
0.0
 40
0.0
 40
0.0
 40
0.0
 40
0.5
 40
0.5
 40
1.0
 40
1.0
 40
1.0
 40
1.0
 10
124.1635964796923
 20
133.2225606766359
 30
0.0
 10
124.1635964796923
 20
133.1747891686426
 30
0.0
 10
124.1657577232894
 20
133.127079446581
 30
0.0
 10
124.1744290971496
 20
133.0317843290327
 30
0.0
 10
124.1809582801056
 20
132.984091765066
 30
0.0
 10
124.1897441028524
 20
132.9366940451745
 30
0.0
  0
SPLINE
  5
B5
330
1F
100
AcDbEntity
  8
0
  6
Continuous
 62
     7
370
    15
100
AcDbSpline
210
0.0
220
0.0
230
1.0
 70
    24
 71
     3
 72
    14
 73
    10
 74
     0
 42
0.00000001
 43
0.00000001
 40
0.0
 40
0.0
 40
0.0
 40
0.0
 40
0.4999999999999984
 40
0.4999999999999984
 40
0.7499999999999992
 40
0.7499999999999992
 40
0.8749999999999996
 40
0.8749999999999996
 40
1.0
 40
1.0
 40
1.0
 40
1.0
 10
127.88592167736
 20
86.68669404517453
 30
0.0
 10
127.8391369723118
 20
86.68669404517453
 30
0.0
 10
127.7770857755322
 20
86.68669404517453
 30
0.0
 10
127.6336941369816
 20
86.68669404517452
 30
0.0
 10
127.5775504834304
 20
86.68669404517453
 30
0.0
 10
127.4645994612942
 20
86.68669404517453
 30
0.0
 10
127.4215986992561
 20
86.68669404517453
 30
0.0
 10
127.3175359889496
 20
86.68669404517453
 30
0.0
 10
127.2522037505927
 20
86.68669404517453
 30
0.0
 10
127.1835964796923
 20
86.68669404517453
 30
0.0
  0
SPLINE
  5
B6
330
1F
100
AcDbEntity
  8
0
  6
Continuous
 62
     7
370
    15
100
AcDbSpline
210
0.0
220
0.0
230
1.0
 70
    24
 71
     3
 72
    12
 73
     8
 74
     0
 42
0.00000001
 43
0.00000001
 40
0.0
 40
0.0
 40
0.0
 40
0.0
 40
0.5000000000000017
 40
0.5000000000000017
 40
0.7500000000000008
 40
0.7500000000000008
 40
1.0
 40
1.0
 40
1.0
 40
1.0
 10
127.5892989480013
 20
139.4866940451745
 30
0.0
 10
127.5462133983904
 20
139.4866940451745
 30
0.0
 10
127.4970611966411
 20
139.4866940451745
 30
0.0
 10
127.4005886023532
 20
139.4866940451745
 30
0.0
 10
127.3644870172186
 20
139.4866940451745
 30
0.0
 10
127.2813812593573
 20
139.4866940451745
 30
0.0
 10
127.233384662391
 20
139.4866940451745
 30
0.0
 10
127.1835964796923
 20
139.4866940451745
 30
0.0
  0
SPLINE
  5
B7
330
1F
100
AcDbEntity
  8
0
  6
Continuous
 62
     7
370
    15
100
AcDbSpline
210
0.0
220
0.0
230
1.0
 70
     8
 71
     3
 72
    10
 73
     6
 74
     0
 42
0.00000001
 43
0.00000001
 40
0.0
 40
0.0
 40
0.0
 40
0.0
 40
0.5
 40
0.5
 40
1.0
 40
1.0
 40
1.0
 40
1.0
 10
127.9835964796923
 20
140.2063478962103
 30
0.0
 10
127.9835964796923
 20
140.0625778383923
 30
0.0
 10
127.9475474209734
 20
139.9201584758972
 30
0.0
 10
127.8120385601994
 20
139.6702641825399
 30
0.0
 10
127.7121625671032
 20
139.5622338462917
 30
0.0
 10
127.5892989480013
 20
139.4866940451745
 30
0.0
  0
SPLINE
  5
B8
330
1F
100
AcDbEntity
  8
0
  6
Continuous
 62
     7
370
    15
100
AcDbSpline
210
0.0
220
0.0
230
1.0
 70
     8
 71
     3
 72
    10
 73
     6
 74
     0
 42
0.00000001
 43
0.00000001
 40
0.0
 40
0.0
 40
0.0
 40
0.0
 40
0.5
 40
0.5
 40
1.0
 40
1.0
 40
1.0
 40
1.0
 10
127.9574488565322
 20
132.9366940451745
 30
0.0
 10
127.9661384994438
 20
132.9835728944927
 30
0.0
 10
127.9726775641943
 20
133.030995359894
 30
0.0
 10
127.9814361985874
 20
133.1269321584808
 30
0.0
 10
127.9835964796923
 20
133.1748474464913
 30
0.0
 10
127.9835964796923
 20
133.2225606766359
 30
0.0
  0
LINE
  5
B9
330
1F
100
AcDbEntity
  8
0
  6
Continuous
 62
     7
370
    15
100
AcDbLine
 10
127.1835964797
 20
139.4866940452
 30
0.0
 11
124.9635964797
 21
139.4866940452
 31
0.0
  0
LINE
  5
BA
330
1F
100
AcDbEntity
  8
0
  6
Continuous
 62
     7
370
    15
100
AcDbLine
 10
127.1835964797
 20
86.6866940452
 30
0.0
 11
124.9635964797
 21
86.6866940452
 31
0.0
  0
LINE
  5
BB
330
1F
100
AcDbEntity
  8
0
  6
Continuous
 62
     7
370
    15
100
AcDbLine
 10
134.2235952491
 20
139.4866940452
 30
0.0
 11
134.2006041208
 21
139.4866940452
 31
0.0
  0
LINE
  5
BC
330
1F
100
AcDbEntity
  8
0
  6
Continuous
 62
     7
370
    15
100
AcDbLine
 10
134.2235951981
 20
86.6866940452
 30
0.0
 11
134.2018655498
 21
86.6866940452
 31
0.0
  0
LINE
  5
BD
330
1F
100
AcDbEntity
  8
0
  6
Continuous
 62
     7
370
    15
100
AcDbLine
 10
86.2735964797
 20
89.8582471514
 30
0.0
 11
86.2735964797
 21
91.122956514
 31
0.0
  0
SPLINE
  5
BE
330
1F
100
AcDbEntity
  8
0
  6
Continuous
 62
     7
370
    15
100
AcDbSpline
210
0.0
220
0.0
230
1.0
 70
     8
 71
     3
 72
    14
 73
    10
 74
     0
 42
0.00000001
 43
0.00000001
 40
0.0
 40
0.0
 40
0.0
 40
0.0
 40
0.25
 40
0.25
 40
0.5
 40
0.5
 40
0.75
 40
0.75
 40
1.0
 40
1.0
 40
1.0
 40
1.0
 10
85.49530936177658
 20
92.25354272161458
 30
0.0
 10
85.55193603697865
 20
92.14584526777772
 30
0.0
 10
85.64645869726837
 20
92.04305568605841
 30
0.0
 10
85.82950367283061
 20
91.84469837383826
 30
0.0
 10
85.92113024978535
 20
91.74863886516
 30
0.0
 10
86.07998356747854
 20
91.56110982245076
 30
0.0
 10
86.14787417510023
 20
91.46970084966722
 30
0.0
 10
86.24479120080781
 20
91.29132462875705
 30
0.0
 10
86.27359647969287
 20
91.20410272251088
 30
0.0
 10
86.27359647969287
 20
91.12295651397662
 30
0.0
  0
SPLINE
  5
BF
330
1F
100
AcDbEntity
  8
0
  6
Continuous
 62
     7
370
    15
100
AcDbSpline
210
0.0
220
0.0
230
1.0
 70
     8
 71
     3
 72
    14
 73
    10
 74
     0
 42
0.00000001
 43
0.00000001
 40
0.0
 40
0.0
 40
0.0
 40
0.0
 40
0.1249999999999975
 40
0.1249999999999975
 40
0.249999999999995
 40
0.249999999999995
 40
0.4999999999999953
 40
0.4999999999999953
 40
1.0
 40
1.0
 40
1.0
 40
1.0
 10
84.8735964796923
 20
92.7002245838939
 30
0.0
 10
84.92214088834946
 20
92.70597289717419
 30
0.0
 10
84.97505624313436
 20
92.70287200851796
 30
0.0
 10
85.0703515881174
 20
92.68067716435563
 30
0.0
 10
85.11060258540236
 20
92.66344493725977
 30
0.0
 10
85.21487259891533
 20
92.6071170208077
 30
0.0
 10
85.26519457406866
 20
92.5629306748619
 30
0.0
 10
85.39287752159404
 20
92.43192277601128
 30
0.0
 10
85.4489629686563
 20
92.34168825578098
 30
0.0
 10
85.49530936177804
 20
92.2535427216151
 30
0.0
  0
SPLINE
  5
C0
330
1F
100
AcDbEntity
  8
0
  6
Continuous
 62
     7
370
    15
100
AcDbSpline
210
0.0
220
0.0
230
1.0
 70
     8
 71
     3
 72
     8
 73
     4
 74
     0
 42
0.00000001
 43
0.00000001
 40
0.0
 40
0.0
 40
0.0
 40
0.0
 40
1.0
 40
1.0
 40
1.0
 40
1.0
 10
82.60507138674606
 20
92.39037929731111
 30
0.0
 10
83.33964841322903
 20
92.50900430838007
 30
0.0
 10
84.1031234826247
 20
92.60899018051636
 30
0.0
 10
84.87359647969231
 20
92.7002245838939
 30
0.0
  0
SPLINE
  5
C1
330
1F
100
AcDbEntity
  8
0
  6
Continuous
 62
     7
370
    15
100
AcDbSpline
210
0.0
220
0.0
230
1.0
 70
     8
 71
     3
 72
    14
 73
    10
 74
     0
 42
0.00000001
 43
0.00000001
 40
0.0
 40
0.0
 40
0.0
 40
0.0
 40
0.500000000000001
 40
0.500000000000001
 40
0.7500000000000004
 40
0.7500000000000004
 40
0.8750000000000003
 40
0.8750000000000003
 40
1.0
 40
1.0
 40
1.0
 40
1.0
 10
77.3235964796923
 20
92.21675627977946
 30
0.0
 10
78.21574261024587
 20
92.21603405357881
 30
0.0
 10
79.10571904603947
 20
92.22062026003627
 30
0.0
 10
80.43231421311509
 20
92.24834526442781
 30
0.0
 10
80.8731611416138
 20
92.26095180205199
 30
0.0
 10
81.52960137903622
 20
92.29196795005943
 30
0.0
 10
81.7476150356281
 20
92.30431112268622
 30
0.0
 10
82.18032388931088
 20
92.3373351778495
 30
0.0
 10
82.39560035447569
 20
92.35655234298792
 30
0.0
 10
82.60507138674608
 20
92.39037929731111
 30
0.0
  0
SPLINE
  5
C2
330
1F
100
AcDbEntity
  8
0
  6
Continuous
 62
     7
370
    15
100
AcDbSpline
210
0.0
220
0.0
230
1.0
 70
     8
 71
     3
 72
     8
 73
     4
 74
     0
 42
0.00000001
 43
0.00000001
 40
0.0000005163856712
 40
0.0000005163856712
 40
0.0000005163856712
 40
0.0000005163856712
 40
0.000026289209185
 40
0.000026289209185
 40
0.000026289209185
 40
0.000026289209185
 10
77.31355154927361
 20
92.22674015288733
 30
0.0
 10
77.31687928748508
 20
92.2234059060145
 30
0.0
 10
77.32022774046438
 20
92.2200779487355
 30
0.0
 10
77.32359647969227
 20
92.21675627977945
 30
0.0
  0
SPLINE
  5
C3
330
1F
100
AcDbEntity
  8
0
  6
Continuous
 62
     7
370
    15
100
AcDbSpline
210
0.0
220
0.0
230
1.0
 70
     8
 71
     3
 72
     8
 73
     4
 74
     0
 42
0.00000001
 43
0.00000001
 40
0.0000005099763573
 40
0.0000005099763573
 40
0.0000005099763573
 40
0.0000005099763573
 40
0.0000262827998699
 40
0.0000262827998699
 40
0.0000262827998699
 40
0.0000262827998699
 10
77.32359647969228
 20
133.9566318105696
 30
0.0
 10
77.32022774046455
 20
133.9533101416137
 30
0.0
 10
77.3168792874854
 20
133.9499821843349
 30
0.0
 10
77.31355154927408
 20
133.9466479374622
 30
0.0
  0
SPLINE
  5
C4
330
1F
100
AcDbEntity
  8
0
  6
Continuous
 62
     7
370
    15
100
AcDbSpline
210
0.0
220
0.0
230
1.0
 70
     8
 71
     3
 72
    10
 73
     6
 74
     0
 42
0.00000001
 43
0.00000001
 40
0.0
 40
0.0
 40
0.0
 40
0.0
 40
0.5
 40
0.5
 40
1.0
 40
1.0
 40
1.0
 40
1.0
 10
80.87359647969231
 20
133.9097814370023
 30
0.0
 10
80.28601093260171
 20
133.9308469572387
 30
0.0
 10
79.69526453914132
 20
133.9416054431109
 30
0.0
 10
78.51124537384247
 20
133.9549702236466
 30
0.0
 10
77.917831385637
 20
133.9571128663111
 30
0.0
 10
77.3235964796923
 20
133.9566318105696
 30
0.0
  0
SPLINE
  5
C5
330
1F
100
AcDbEntity
  8
0
  6
Continuous
 62
     7
370
    15
100
AcDbSpline
210
0.0
220
0.0
230
1.0
 70
     8
 71
     3
 72
    18
 73
    14
 74
     0
 42
0.00000001
 43
0.00000001
 40
0.0
 40
0.0
 40
0.0
 40
0.0
 40
0.2500000000000009
 40
0.2500000000000009
 40
0.500000000000001
 40
0.500000000000001
 40
0.7500000000000011
 40
0.7500000000000011
 40
0.875000000000001
 40
0.875000000000001
 40
0.9375000000000006
 40
0.9375000000000006
 40
1.0
 40
1.0
 40
1.0
 40
1.0
 10
82.2735964796923
 20
134.9308017175375
 30
0.0
 10
82.27359647969232
 20
134.8475948086803
 30
0.0
 10
82.23774737975404
 20
134.7588581533668
 30
0.0
 10
82.1128756437201
 20
134.5767329628065
 30
0.0
 10
82.02247522607225
 20
134.4816029141799
 30
0.0
 10
81.80023257133007
 20
134.2924214050556
 30
0.0
 10
81.6704677848843
 20
134.1974762369609
 30
0.0
 10
81.42983032757279
 20
134.059197529381
 30
0.0
 10
81.34206302943534
 20
134.0134870960785
 30
0.0
 10
81.18753894222853
 20
133.9556637908571
 30
0.0
 10
81.13092805617377
 20
133.9379490268192
 30
0.0
 10
81.00688402526718
 20
133.9134097235863
 30
0.0
 10
80.93916935024889
 20
133.907430585048
 30
0.0
 10
80.8735964796923
 20
133.9097814370023
 30
0.0
  0
LINE
  5
C6
330
1F
100
AcDbEntity
  8
0
  6
Continuous
 62
     7
370
    15
100
AcDbLine
 10
82.2735964797
 20
134.9308017175
 30
0.0
 11
82.2735964797
 21
136.1147401374
 31
0.0
  0
LINE
  5
C7
330
1F
100
AcDbEntity
  8
0
  6
Continuous
 62
     7
370
    15
100
AcDbLine
 10
106.0735964797
 20
88.8662631835
 30
0.0
 11
106.0735964797
 21
137.3071249069
 31
0.0
  0
SPLINE
  5
C8
330
1F
100
AcDbEntity
  8
0
  6
Continuous
 62
     7
370
    15
100
AcDbSpline
210
0.0
220
0.0
230
1.0
 70
     8
 71
     3
 72
    18
 73
    14
 74
     0
 42
0.00000001
 43
0.00000001
 40
0.0
 40
0.0
 40
0.0
 40
0.0
 40
0.0010671296451833
 40
0.1270947795731636
 40
0.252405345751277
 40
0.3766468878987096
 40
0.4391415999051428
 40
0.5008278021400407
 40
0.562425570880851
 40
0.6253162439161144
 40
0.7499985144706706
 40
0.8752758950341252
 40
0.9999999999999999
 40
0.9999999999999999
 40
0.9999999999999999
 40
0.9999999999999999
 10
94.84389731976498
 20
89.42935502225818
 30
0.0
 10
94.84298548712647
 20
89.42924024372155
 30
0.0
 10
94.73438652848951
 20
89.41557015885566
 30
0.0
 10
95.12202759613938
 20
89.46648965947122
 30
0.0
 10
95.9879922779745
 20
89.56607283251772
 30
0.0
 10
97.18839620274433
 20
89.6351967156614
 30
0.0
 10
98.24597211723305
 20
89.63914894480021
 30
0.0
 10
99.07310620413922
 20
89.61166000634519
 30
0.0
 10
99.8983780717735
 20
89.5531198299374
 30
0.0
 10
100.9527432917734
 20
89.43959867020185
 30
0.0
 10
102.1145795732488
 20
89.2564478459532
 30
0.0
 10
103.0668143546323
 20
89.05184463631828
 30
0.0
 10
103.1925194154402
 20
89.0225592855422
 30
0.0
 10
103.2552328475854
 20
89.00794901570151
 30
0.0
  0
SPLINE
  5
C9
330
1F
100
AcDbEntity
  8
0
  6
Continuous
 62
     7
370
    15
100
AcDbSpline
210
0.0
220
0.0
230
1.0
 70
     8
 71
     3
 72
    23
 73
    19
 74
     0
 42
0.00000001
 43
0.00000001
 40
0.0
 40
0.0
 40
0.0
 40
0.0
 40
0.0614757925112171
 40
0.1251497413451839
 40
0.1885399433422982
 40
0.2510149568842258
 40
0.3131568995027461
 40
0.375573418256215
 40
0.437999112377033
 40
0.4993962645249799
 40
0.5609216861286822
 40
0.62332584573302
 40
0.6858855082933845
 40
0.7480024160197727
 40
0.8729912128658166
 40
0.936365507513113
 40
0.9991752183248322
 40
1.0
 40
1.0
 40
1.0
 40
1.0
 10
103.25660832634
 20
137.1657230196319
 30
0.0
 10
103.2420076019085
 20
137.1623549628064
 30
0.0
 10
103.2122840829198
 20
137.1554984193878
 30
0.0
 10
102.9595462692775
 20
137.0991597984375
 30
0.0
 10
102.5765503452186
 20
137.0163027179169
 30
0.0
 10
102.0541947887351
 20
136.9143956820533
 30
0.0
 10
101.419410207103
 20
136.8065565649281
 30
0.0
 10
100.6891869909836
 20
136.7050895308783
 30
0.0
 10
99.89871696385661
 20
136.6200301221531
 30
0.0
 10
99.07423874827373
 20
136.5618247074575
 30
0.0
 10
98.24718244753336
 20
136.5342454652543
 30
0.0
 10
97.44893336155549
 20
136.537722541555
 30
0.0
 10
96.7088279791608
 20
136.5647379823412
 30
0.0
 10
95.85002330104174
 20
136.6236637683508
 30
0.0
 10
95.21790152039245
 20
136.696288591751
 30
0.0
 10
94.91030425499675
 20
136.7350685518378
 30
0.0
 10
94.8148142494532
 20
136.7478339271118
 30
0.0
 10
94.84174812543806
 20
136.7442796962003
 30
0.0
 10
94.84209722176122
 20
136.7442336289746
 30
0.0
  0
LINE
  5
CA
330
1F
100
AcDbEntity
  8
0
  6
Continuous
 62
     7
370
    15
100
AcDbLine
 10
218.0735964797
 20
91.4151211699
 30
0.0
 11
218.0735964797
 21
134.7582669026
 31
0.0
  0
SPLINE
  5
CB
330
1F
100
AcDbEntity
  8
0
  6
Continuous
 62
     7
370
    15
100
AcDbSpline
210
0.0
220
0.0
230
1.0
 70
     8
 71
     3
 72
     9
 73
     5
 74
     0
 42
0.00000001
 43
0.00000001
 40
0.0
 40
0.0
 40
0.0
 40
0.0
 40
0.7009329310330151
 40
1.0
 40
1.0
 40
1.0
 40
1.0
 10
76.19438116392776
 20
93.38541374107191
 30
0.0
 10
76.20352044060303
 20
93.36758445553039
 30
0.0
 10
76.21655917265663
 20
93.34214794833812
 30
0.0
 10
76.23172442642195
 20
93.39602780852991
 30
0.0
 10
76.23625985441568
 20
93.41214150039382
 30
0.0
  0
LINE
  5
CC
330
1F
100
AcDbEntity
  8
0
  6
Continuous
 62
     7
370
    15
100
AcDbLine
 10
76.1735964797
 20
93.3960162987
 30
0.0
 11
76.1735964797
 21
132.7773717917
 31
0.0
  0
SPLINE
  5
CD
330
1F
100
AcDbEntity
  8
0
  6
Continuous
 62
     7
370
    15
100
AcDbSpline
210
0.0
220
0.0
230
1.0
 70
     8
 71
     3
 72
    10
 73
     6
 74
     0
 42
0.00000001
 43
0.00000001
 40
0.0
 40
0.0
 40
0.0
 40
0.0
 40
0.5
 40
0.5
 40
1.0
 40
1.0
 40
1.0
 40
1.0
 10
76.2362598544157
 20
132.7612465899552
 30
0.0
 10
76.22735556530694
 20
132.8069881091684
 30
0.0
 10
76.21084018511395
 20
132.8241789486374
 30
0.0
 10
76.18373223905233
 20
132.8238556717018
 30
0.0
 10
76.17359647969229
 20
132.8059781294053
 30
0.0
 10
76.17359647969229
 20
132.7773717916527
 30
0.0
  0
SPLINE
  5
CE
330
1F
100
AcDbEntity
  8
0
  6
Continuous
 62
     7
370
    15
100
AcDbSpline
210
0.0
220
0.0
230
1.0
 70
     8
 71
     3
 72
    26
 73
    22
 74
     0
 42
0.00000001
 43
0.00000001
 40
0.0
 40
0.0
 40
0.0
 40
0.0
 40
0.2500000000000165
 40
0.2500000000000165
 40
0.3750000000000256
 40
0.3750000000000256
 40
0.4375000000000291
 40
0.4375000000000291
 40
0.4687500000000291
 40
0.4687500000000291
 40
0.5000000000000292
 40
0.5000000000000292
 40
0.5312500000000293
 40
0.5312500000000293
 40
0.5625000000000293
 40
0.5625000000000293
 40
0.625000000000026
 40
0.625000000000026
 40
0.7500000000000173
 40
0.7500000000000173
 40
1.0
 40
1.0
 40
1.0
 40
1.0
 10
76.99775012579681
 20
133.4768133787724
 30
0.0
 10
76.95914960292833
 20
133.359038682417
 30
0.0
 10
76.91285260037408
 20
133.234648996255
 30
0.0
 10
76.81891325194015
 20
133.0294296639015
 30
0.0
 10
76.78360178502669
 20
132.9578567974551
 30
0.0
 10
76.717421809281
 20
132.8419035648546
 30
0.0
 10
76.6928834426128
 20
132.8013190300444
 30
0.0
 10
76.649510697059
 20
132.7371773481727
 30
0.0
 10
76.6340022956338
 20
132.7153109228876
 30
0.0
 10
76.59895965104677
 20
132.6697166545444
 30
0.0
 10
76.579409360327
 20
132.646046363577
 30
0.0
 10
76.53748207995639
 20
132.601429804237
 30
0.0
 10
76.51482996972476
 20
132.5805497917191
 30
0.0
 10
76.47385625563813
 20
132.5496763779683
 30
0.0
 10
76.4562569557427
 20
132.5398375081359
 30
0.0
 10
76.41162996988656
 20
132.5208478924397
 30
0.0
 10
76.39107074723323
 20
132.5205235677863
 30
0.0
 10
76.33994530773656
 20
132.5297470086625
 30
0.0
 10
76.319033894748
 20
132.5509939048794
 30
0.0
 10
76.26758398718708
 20
132.6249627837102
 30
0.0
 10
76.24991868788253
 20
132.691080877025
 30
0.0
 10
76.2362598544157
 20
132.7612465899552
 30
0.0
  0
SPLINE
  5
CF
330
1F
100
AcDbEntity
  8
0
  6
Continuous
 62
     7
370
    15
100
AcDbSpline
210
0.0
220
0.0
230
1.0
 70
     8
 71
     3
 72
    10
 73
     6
 74
     0
 42
0.00000001
 43
0.00000001
 40
0.0
 40
0.0
 40
0.0
 40
0.0
 40
0.5
 40
0.5
 40
1.0
 40
1.0
 40
1.0
 40
1.0
 10
77.31355154927411
 20
133.9466479374622
 30
0.0
 10
77.24599229435586
 20
133.8789565446524
 30
0.0
 10
77.18235563901936
 20
133.8042493798988
 30
0.0
 10
77.0721348844475
 20
133.6452832474722
 30
0.0
 10
77.02531859122487
 20
133.5609279814641
 30
0.0
 10
76.9977501257968
 20
133.4768133787724
 30
0.0
  0
SPLINE
  5
D0
330
1F
100
AcDbEntity
  8
0
  6
Continuous
 62
     7
370
    15
100
AcDbSpline
210
0.0
220
0.0
230
1.0
 70
     8
 71
     3
 72
    10
 73
     6
 74
     0
 42
0.00000001
 43
0.00000001
 40
0.0
 40
0.0
 40
0.0
 40
0.0
 40
0.5
 40
0.5
 40
1.0
 40
1.0
 40
1.0
 40
1.0
 10
76.99775012579686
 20
92.69657471157656
 30
0.0
 10
77.02522754055005
 20
92.61273791511097
 30
0.0
 10
77.07193617083772
 20
92.52842742752414
 30
0.0
 10
77.18221463357966
 20
92.36930619704128
 30
0.0
 10
77.2461021721913
 20
92.2943214529532
 30
0.0
 10
77.31355154927364
 20
92.22674015288733
 30
0.0
  0
SPLINE
  5
D1
330
1F
100
AcDbEntity
  8
0
  6
Continuous
 62
     7
370
    15
100
AcDbSpline
210
0.0
220
0.0
230
1.0
 70
     8
 71
     3
 72
    24
 73
    20
 74
     0
 42
0.00000001
 43
0.00000001
 40
0.0
 40
0.0
 40
0.0
 40
0.0
 40
0.25
 40
0.25
 40
0.374999999999999
 40
0.374999999999999
 40
0.4374999999999993
 40
0.4374999999999993
 40
0.4687499999999994
 40
0.4687499999999994
 40
0.4999999999999995
 40
0.4999999999999995
 40
0.5624999999999971
 40
0.5624999999999971
 40
0.6249999999999947
 40
0.6249999999999947
 40
0.7499999999999947
 40
0.7499999999999947
 40
1.0
 40
1.0
 40
1.0
 40
1.0
 10
76.2362598544157
 20
93.41214150039379
 30
0.0
 10
76.25001297308593
 20
93.48279155838406
 30
0.0
 10
76.2677855404918
 20
93.54938967114902
 30
0.0
 10
76.32003663204715
 20
93.62348769138221
 30
0.0
 10
76.34107170762871
 20
93.64474549854377
 30
0.0
 10
76.39397211525714
 20
93.65289142469001
 30
0.0
 10
76.41507778813505
 20
93.65195162129423
 30
0.0
 10
76.46112995681304
 20
93.63093562971689
 30
0.0
 10
76.47950042879643
 20
93.62002682360928
 30
0.0
 10
76.52105206386211
 20
93.58739191266191
 30
0.0
 10
76.54361873661904
 20
93.56589993229053
 30
0.0
 10
76.60639975307905
 20
93.49743398870422
 30
0.0
 10
76.63952951404696
 20
93.45135953049913
 30
0.0
 10
76.69644720053195
 20
93.36635164216446
 30
0.0
 10
76.72063322603573
 20
93.32607134098309
 30
0.0
 10
76.78584117641549
 20
93.21113511451713
 30
0.0
 10
76.82055723660673
 20
93.14055212937012
 30
0.0
 10
76.91377250693762
 20
92.93634637029152
 30
0.0
 10
76.95944504229828
 20
92.81344798796417
 30
0.0
 10
76.99775012579684
 20
92.69657471157657
 30
0.0
  0
SPLINE
  5
D2
330
1F
100
AcDbEntity
  8
0
  6
Continuous
 62
     7
370
    15
100
AcDbSpline
210
0.0
220
0.0
230
1.0
 70
     8
 71
     3
 72
    10
 73
     6
 74
     0
 42
0.00000001
 43
0.00000001
 40
0.0
 40
0.0
 40
0.0
 40
0.0
 40
0.5
 40
0.5
 40
1.0
 40
1.0
 40
1.0
 40
1.0
 10
134.0235964796923
 20
142.9331343689385
 30
0.0
 10
134.0235964796923
 20
143.0935396352893
 30
0.0
 10
133.9613586485854
 20
143.2526014482778
 30
0.0
 10
133.7422237248429
 20
143.4835139139082
 30
0.0
 10
133.584635029851
 20
143.5538895183388
 30
0.0
 10
133.4235964796923
 20
143.5538895183388
 30
0.0
  0
SPLINE
  5
D3
330
1F
100
AcDbEntity
  8
0
  6
Continuous
 62
     7
370
    15
100
AcDbSpline
210
0.0
220
0.0
230
1.0
 70
     8
 71
     3
 72
    12
 73
     8
 74
     0
 42
0.00000001
 43
0.00000001
 40
0.0
 40
0.0
 40
0.0
 40
0.0
 40
0.25
 40
0.25
 40
0.5
 40
0.5
 40
1.0
 40
1.0
 40
1.0
 40
1.0
 10
133.4235964796923
 20
137.545383707542
 30
0.0
 10
133.514796201518
 20
137.545383707542
 30
0.0
 10
133.6053912106539
 20
137.5171640089541
 30
0.0
 10
133.7588039371006
 20
137.422721001706
 30
0.0
 10
133.8240128044243
 20
137.3564340250007
 30
0.0
 10
133.9767973337642
 20
137.1308092017124
 30
0.0
 10
134.0235964796923
 20
136.9483829386798
 30
0.0
 10
134.0235964796923
 20
136.767646306433
 30
0.0
  0
LINE
  5
D4
330
1F
100
AcDbEntity
  8
0
  6
Continuous
 62
     7
370
    15
100
AcDbLine
 10
134.0235964797
 20
136.7676463064
 30
0.0
 11
134.0235964797
 21
142.9331343689
 31
0.0
  0
LINE
  5
D5
330
1F
100
AcDbEntity
  8
0
  6
Continuous
 62
     7
370
    15
100
AcDbLine
 10
133.4235964797
 20
143.5538895183
 30
0.0
 11
129.4655293112
 21
143.5538895183
 31
0.0
  0
LINE
  5
D6
330
1F
100
AcDbEntity
  8
0
  6
Continuous
 62
     7
370
    15
100
AcDbLine
 10
129.4655293112
 20
137.5453837075
 30
0.0
 11
133.4235964797
 21
137.5453837075
 31
0.0
  0
LINE
  5
D7
330
1F
100
AcDbEntity
  8
0
  6
Continuous
 62
     7
370
    15
100
AcDbLine
 10
129.4655293112
 20
137.5453837075
 30
0.0
 11
129.4655293112
 21
143.5538895183
 31
0.0
  0
SPLINE
  5
D8
330
1F
100
AcDbEntity
  8
0
  6
Continuous
 62
     7
370
    15
100
AcDbSpline
210
0.0
220
0.0
230
1.0
 70
     8
 71
     3
 72
     8
 73
     4
 74
     0
 42
0.00000001
 43
0.00000001
 40
0.0
 40
0.0
 40
0.0
 40
0.0
 40
1.0
 40
1.0
 40
1.0
 40
1.0
 10
122.6816636482032
 20
137.545383707542
 30
0.0
 10
123.1887504899625
 20
136.4142333533783
 30
0.0
 10
123.6843183291025
 20
135.2778489426105
 30
0.0
 10
124.1635964796923
 20
134.1368377127579
 30
0.0
  0
LINE
  5
D9
330
1F
100
AcDbEntity
  8
0
  6
Continuous
 62
     7
370
    15
100
AcDbLine
 10
124.1635964797
 20
134.1368377128
 30
0.0
 11
124.1635964797
 21
133.2225606766
 31
0.0
  0
SPLINE
  5
DA
330
1F
100
AcDbEntity
  8
0
  6
Continuous
 62
     7
370
    15
100
AcDbSpline
210
0.0
220
0.0
230
1.0
 70
     8
 71
     3
 72
     8
 73
     4
 74
     0
 42
0.00000001
 43
0.00000001
 40
0.0
 40
0.0
 40
0.0
 40
0.0
 40
1.0
 40
1.0
 40
1.0
 40
1.0
 10
124.1635964796923
 20
140.8919282363461
 30
0.0
 10
123.6708863828465
 20
141.7799472344725
 30
0.0
 10
123.1768036775676
 20
142.6672098701585
 30
0.0
 10
122.6816636482032
 20
143.5538895183388
 30
0.0
  0
LINE
  5
DB
330
1F
100
AcDbEntity
  8
0
  6
Continuous
 62
     7
370
    15
100
AcDbLine
 10
124.1635964797
 20
134.1368377128
 30
0.0
 11
124.1635964797
 21
140.8919282363
 31
0.0
  0
SPLINE
  5
DC
330
1F
100
AcDbEntity
  8
0
  6
Continuous
 62
     7
370
    15
100
AcDbSpline
210
0.0
220
0.0
230
1.0
 70
     8
 71
     3
 72
     8
 73
     4
 74
     0
 42
0.00000001
 43
0.00000001
 40
0.0
 40
0.0
 40
0.0
 40
0.0
 40
1.0
 40
1.0
 40
1.0
 40
1.0
 10
127.9835964796923
 20
134.1368377127579
 30
0.0
 10
128.4628746302821
 20
135.2778489426105
 30
0.0
 10
128.9584424694221
 20
136.4142333533783
 30
0.0
 10
129.4655293111813
 20
137.545383707542
 30
0.0
  0
LINE
  5
DD
330
1F
100
AcDbEntity
  8
0
  6
Continuous
 62
     7
370
    15
100
AcDbLine
 10
127.9835964797
 20
133.2225606766
 30
0.0
 11
127.9835964797
 21
134.1368377128
 31
0.0
  0
LINE
  5
DE
330
1F
100
AcDbEntity
  8
0
  6
Continuous
 62
     7
370
    15
100
AcDbLine
 10
134.0235964797
 20
136.7676463064
 30
0.0
 11
134.0235964797
 21
132.9366940452
 31
0.0
  0
SPLINE
  5
DF
330
1F
100
AcDbEntity
  8
0
  6
Continuous
 62
     7
370
    15
100
AcDbSpline
210
0.0
220
0.0
230
1.0
 70
     8
 71
     3
 72
     8
 73
     4
 74
     0
 42
0.00000001
 43
0.00000001
 40
0.0
 40
0.0
 40
0.0
 40
0.0
 40
1.0
 40
1.0
 40
1.0
 40
1.0
 10
129.4655293111813
 20
143.5538895183388
 30
0.0
 10
128.970389281817
 20
142.6672098701585
 30
0.0
 10
128.4763065765381
 20
141.7799472344725
 30
0.0
 10
127.9835964796923
 20
140.8919282363461
 30
0.0
  0
LINE
  5
E0
330
1F
100
AcDbEntity
  8
0
  6
Continuous
 62
     7
370
    15
100
AcDbLine
 10
127.9835964797
 20
134.1368377128
 30
0.0
 11
127.9835964797
 21
140.8919282363
 31
0.0
  0
ARC
  5
E1
330
1F
100
AcDbEntity
  8
0
  6
Continuous
 62
     7
370
    15
100
AcDbCircle
 10
116.0738224599
 20
131.78778604
 30
0.0
 40
7.253774253418237
100
AcDbArc
 50
70.9722171151
 51
109.0909941607
  0
ARC
  5
E2
330
1F
100
AcDbEntity
  8
0
  6
HIDDEN
 62
     7
370
     0
100
AcDbCircle
 10
194.5735964797
 20
113.0866940452
 30
0.0
 40
7.999999999999979
100
AcDbArc
 50
149.2560953669
 51
210.7768050115
  0
ARC
  5
E3
330
1F
100
AcDbEntity
  8
0
  6
HIDDEN
 62
     7
370
     0
100
AcDbCircle
 10
194.5735964797
 20
113.0866940452
 30
0.0
 40
7.999999999999962
100
AcDbArc
 50
329.2130576219
 51
30.8245848627
  0
CIRCLE
  5
E4
330
1F
100
AcDbEntity
  8
0
  6
HIDDEN
 62
     7
370
     0
100
AcDbCircle
 10
194.5735964797
 20
113.0866940452
 30
0.0
 40
8.999999999999977
  0
CIRCLE
  5
E5
330
1F
100
AcDbEntity
  8
0
  6
HIDDEN
 62
     7
370
     0
100
AcDbCircle
 10
194.5735964797
 20
113.0866940452
 30
0.0
 40
4.499999999999975
  0
CIRCLE
  5
E6
330
1F
100
AcDbEntity
  8
0
  6
HIDDEN
 62
     7
370
     0
100
AcDbCircle
 10
194.5735964797
 20
113.0866940452
 30
0.0
 40
5.999999999999999
  0
ARC
  5
E7
330
1F
100
AcDbEntity
  8
0
  6
HIDDEN
 62
     7
370
     0
100
AcDbCircle
 10
169.5735964797
 20
113.0866940452
 30
0.0
 40
7.999999999999989
100
AcDbArc
 50
149.2560953669
 51
210.7768050115
  0
ARC
  5
E8
330
1F
100
AcDbEntity
  8
0
  6
HIDDEN
 62
     7
370
     0
100
AcDbCircle
 10
169.5735964797
 20
113.0866940452
 30
0.0
 40
8.0
100
AcDbArc
 50
329.2130576219
 51
30.8245848627
  0
CIRCLE
  5
E9
330
1F
100
AcDbEntity
  8
0
  6
HIDDEN
 62
     7
370
     0
100
AcDbCircle
 10
169.5735964797
 20
113.0866940452
 30
0.0
 40
8.999999999999988
  0
CIRCLE
  5
EA
330
1F
100
AcDbEntity
  8
0
  6
HIDDEN
 62
     7
370
     0
100
AcDbCircle
 10
169.5735964797
 20
113.0866940452
 30
0.0
 40
4.499999999999975
  0
CIRCLE
  5
EB
330
1F
100
AcDbEntity
  8
0
  6
HIDDEN
 62
     7
370
     0
100
AcDbCircle
 10
169.5735964797
 20
113.0866940452
 30
0.0
 40
5.999999999999988
  0
SPLINE
  5
EC
330
1F
100
AcDbEntity
  8
0
  6
HIDDEN
 62
     7
370
     0
100
AcDbSpline
210
0.0
220
0.0
230
1.0
 70
     8
 71
     3
 72
    16
 73
    12
 74
     0
 42
0.00000001
 43
0.00000001
 40
0.0
 40
0.0
 40
0.0
 40
0.0
 40
0.179970120082991
 40
0.2440521066242752
 40
0.3101732333955939
 40
0.3783524851476437
 40
0.5462635416104167
 40
0.756935438062736
 40
0.8654539662531929
 40
0.9647815532536632
 40
1.0
 40
1.0
 40
1.0
 40
1.0
 10
194.5735964796923
 20
105.0866940451745
 30
0.0
 10
195.0749963673991
 20
105.1122732099308
 30
0.0
 10
195.7549297852331
 20
105.1469603515606
 30
0.0
 10
196.5945867655776
 20
105.3405050201986
 30
0.0
 10
197.121708785361
 20
105.4963449217234
 30
0.0
 10
197.9047728475731
 20
105.790057893744
 30
0.0
 10
199.0017444555006
 20
106.3627520781069
 30
0.0
 10
200.0558033355206
 20
107.2067277296309
 30
0.0
 10
200.8185078261237
 20
108.0674122865628
 30
0.0
 10
201.2191915466633
 20
108.6054399846323
 30
0.0
 10
201.4014557512911
 20
108.9285093042517
 30
0.0
 10
201.4491647918752
 20
109.0130751536606
 30
0.0
  0
SPLINE
  5
ED
330
1F
100
AcDbEntity
  8
0
  6
HIDDEN
 62
     7
370
     0
100
AcDbSpline
210
0.0
220
0.0
230
1.0
 70
     8
 71
     3
 72
    24
 73
    20
 74
     0
 42
0.00000001
 43
0.00000001
 40
0.0
 40
0.0
 40
0.0
 40
0.0
 40
0.050043901458021
 40
0.1214019540099887
 40
0.1770583092050385
 40
0.227217894566191
 40
0.2718843301852728
 40
0.3110635627069648
 40
0.4101577437360516
 40
0.5003358261582377
 40
0.5903748470543055
 40
0.622413951255721
 40
0.6554627978025281
 40
0.6895309620495285
 40
0.7727541278914117
 40
0.8790013836670283
 40
0.9353380286686709
 40
0.9857716166401089
 40
1.0
 40
1.0
 40
1.0
 40
1.0
 10
201.4471355185603
 20
117.1578977409681
 30
0.0
 10
201.3032679639693
 20
117.3932256178834
 30
0.0
 10
200.9542583596592
 20
117.9641096468696
 30
0.0
 10
200.3064154122686
 20
118.6960425130953
 30
0.0
 10
199.581827733202
 20
119.3460450016548
 30
0.0
 10
198.9065898338418
 20
119.8267573349088
 30
0.0
 10
198.2660911765623
 20
120.1948667102575
 30
0.0
 10
197.3503041054711
 20
120.6203362375163
 30
0.0
 10
196.1291601282401
 20
120.9871548567579
 30
0.0
 10
194.5753509192489
 20
121.1340761364131
 30
0.0
 10
193.3930280653192
 20
121.0225026540381
 30
0.0
 10
192.5536937187313
 20
120.8337886249976
 30
0.0
 10
192.0270664206953
 20
120.6773858482379
 30
0.0
 10
191.2483955942328
 20
120.3858372475632
 30
0.0
 10
190.1509559886824
 20
119.8142219829726
 30
0.0
 10
189.0863544133795
 20
118.9640682244059
 30
0.0
 10
188.312574314186
 20
118.0863507076557
 30
0.0
 10
187.9154055074474
 20
117.5498418025066
 30
0.0
 10
187.7413918041902
 20
117.2390333649933
 30
0.0
 10
187.7031013897652
 20
117.1706422920121
 30
0.0
  0
SPLINE
  5
EE
330
1F
100
AcDbEntity
  8
0
  6
HIDDEN
 62
     7
370
     0
100
AcDbSpline
210
0.0
220
0.0
230
1.0
 70
     8
 71
     3
 72
    15
 73
    11
 74
     0
 42
0.00000001
 43
0.00000001
 40
0.0
 40
0.0
 40
0.0
 40
0.0
 40
0.0997649367520125
 40
0.2422973160425865
 40
0.3532606012191509
 40
0.4534709551701153
 40
0.5429359478736973
 40
0.6216677455112769
 40
0.8199435986052801
 40
1.0
 40
1.0
 40
1.0
 40
1.0
 10
187.7014850042819
 20
109.0130719840876
 30
0.0
 10
187.844997259572
 20
108.778446318289
 30
0.0
 10
188.1935429050471
 20
108.208615163692
 30
0.0
 10
188.8400625773361
 20
107.4781880258784
 30
0.0
 10
189.563468453315
 20
106.828906911688
 30
0.0
 10
190.2380523605743
 20
106.3483427900409
 30
0.0
 10
190.8796402369517
 20
105.9789298749662
 30
0.0
 10
191.7972989079941
 20
105.5542343181515
 30
0.0
 10
193.0193640552718
 20
105.1714710699406
 30
0.0
 10
194.0724231583443
 20
105.114031000966
 30
0.0
 10
194.5735964796923
 20
105.0866940451745
 30
0.0
  0
SPLINE
  5
EF
330
1F
100
AcDbEntity
  8
0
  6
HIDDEN
 62
     7
370
     0
100
AcDbSpline
210
0.0
220
0.0
230
1.0
 70
     8
 71
     3
 72
    92
 73
    88
 74
     0
 42
0.00000001
 43
0.00000001
 40
-0.0312499999999994
 40
-0.0312499999999994
 40
0.0
 40
0.0
 40
0.03125
 40
0.03125
 40
0.046875
 40
0.046875
 40
0.0625
 40
0.0625
 40
0.09375
 40
0.09375
 40
0.125
 40
0.125
 40
0.1562500000000001
 40
0.1562500000000001
 40
0.1718750000000001
 40
0.1718750000000001
 40
0.1875000000000001
 40
0.1875000000000001
 40
0.2187500000000001
 40
0.2187500000000001
 40
0.2500000000000002
 40
0.2500000000000002
 40
0.2656250000000002
 40
0.2656250000000002
 40
0.2812500000000002
 40
0.2812500000000002
 40
0.3125000000000002
 40
0.3125000000000002
 40
0.3281250000000002
 40
0.3281250000000002
 40
0.3437500000000002
 40
0.3437500000000002
 40
0.3593750000000002
 40
0.3593750000000002
 40
0.3750000000000001
 40
0.3750000000000001
 40
0.4062500000000001
 40
0.4062500000000001
 40
0.4375000000000001
 40
0.4375000000000001
 40
0.4687500000000001
 40
0.4687500000000001
 40
0.4843750000000002
 40
0.4843750000000002
 40
0.5000000000000004
 40
0.5000000000000004
 40
0.5312500000000004
 40
0.5312500000000004
 40
0.5625000000000004
 40
0.5625000000000004
 40
0.5781250000000008
 40
0.5781250000000008
 40
0.5937500000000011
 40
0.5937500000000011
 40
0.6250000000000011
 40
0.6250000000000011
 40
0.6562500000000011
 40
0.6562500000000011
 40
0.6875000000000011
 40
0.6875000000000011
 40
0.7031250000000011
 40
0.7031250000000011
 40
0.7187500000000011
 40
0.7187500000000011
 40
0.7343750000000011
 40
0.7343750000000011
 40
0.750000000000001
 40
0.750000000000001
 40
0.781250000000001
 40
0.781250000000001
 40
0.812500000000001
 40
0.812500000000001
 40
0.8437500000000011
 40
0.8437500000000011
 40
0.8750000000000012
 40
0.8750000000000012
 40
0.8906250000000013
 40
0.8906250000000013
 40
0.9062500000000014
 40
0.9062500000000014
 40
0.937500000000001
 40
0.937500000000001
 40
0.9531250000000008
 40
0.9531250000000008
 40
0.9687500000000006
 40
0.9687500000000006
 40
1.0
 40
1.0
 40
1.03125
 40
1.03125
 10
170.2129677520296
 20
103.6716299068586
 30
0.0
 10
168.934225207355
 20
103.6716299068586
 30
0.0
 10
168.305182868519
 20
103.7295961520092
 30
0.0
 10
167.3764881682624
 20
103.9004283053621
 30
0.0
 10
167.0694189916269
 20
103.9714603038466
 30
0.0
 10
166.4603770528993
 20
104.1424745744482
 30
0.0
 10
166.1570463279692
 20
104.2430868063233
 30
0.0
 10
165.2725710474196
 20
104.5835101412702
 30
0.0
 10
164.7123712945743
 20
104.8621797591849
 30
0.0
 10
163.6502160617845
 20
105.5240609407511
 30
0.0
 10
163.1441979161369
 20
105.9121888206863
 30
0.0
 10
162.2329368725719
 20
106.7681333385429
 30
0.0
 10
161.8231322860898
 20
107.2373903212866
 30
0.0
 10
161.278638870534
 20
108.0061056613054
 30
0.0
 10
161.108096026879
 20
108.274890520634
 30
0.0
 10
160.7981147057935
 20
108.8240505916291
 30
0.0
 10
160.6580693000809
 20
109.1049278980632
 30
0.0
 10
160.281912826809
 20
109.9662650807062
 30
0.0
 10
160.0892530671204
 20
110.5653905407695
 30
0.0
 10
159.8270665778896
 20
111.8160241320736
 30
0.0
 10
159.7623901248902
 20
112.4442712563495
 30
0.0
 10
159.7612287450685
 20
113.3908908740112
 30
0.0
 10
159.7769485988649
 20
113.7071442959807
 30
0.0
 10
159.8415720714638
 20
114.3411195328584
 30
0.0
 10
159.8905514452408
 20
114.6574553428516
 30
0.0
 10
160.083590270386
 20
115.5862489138046
 30
0.0
 10
160.2738808907785
 20
116.1858105926478
 30
0.0
 10
160.652014002224
 20
117.0559973840382
 30
0.0
 10
160.7940721056854
 20
117.3415201188069
 30
0.0
 10
161.1029906274308
 20
117.8900893248487
 30
0.0
 10
161.270498915188
 20
118.1548210716366
 30
0.0
 10
161.6310770555368
 20
118.6657747978392
 30
0.0
 10
161.8241483483832
 20
118.9119953718841
 30
0.0
 10
162.236096212714
 20
119.3859706542814
 30
0.0
 10
162.456197377611
 20
119.6147543492534
 30
0.0
 10
163.1434126590087
 20
120.2608737448832
 30
0.0
 10
163.6387874530647
 20
120.6412352838662
 30
0.0
 10
164.7023337439517
 20
121.3059042002333
 30
0.0
 10
165.2748372531125
 20
121.5906940679672
 30
0.0
 10
166.4480392249725
 20
122.0423568052329
 30
0.0
 10
167.0534387733542
 20
122.2130185554036
 30
0.0
 10
167.9902097737865
 20
122.3861064250009
 30
0.0
 10
168.3077173190038
 20
122.4297404353113
 30
0.0
 10
168.9390209910167
 20
122.4873227949889
 30
0.0
 10
169.2544738830306
 20
122.5016410900423
 30
0.0
 10
170.200246123478
 20
122.5019902196736
 30
0.0
 10
170.8317007458068
 20
122.4455382422732
 30
0.0
 10
172.0858695838207
 20
122.2151351649042
 30
0.0
 10
172.6918554861697
 20
122.0445693374157
 30
0.0
 10
173.5702573729593
 20
121.7072890520997
 30
0.0
 10
173.8579261018197
 20
121.5811897164539
 30
0.0
 10
174.4227455915617
 20
121.3006815718668
 30
0.0
 10
174.7007439354716
 20
121.145572166206
 30
0.0
 10
175.5011142788157
 20
120.6466021005266
 30
0.0
 10
175.9957961185432
 20
120.2670948536674
 30
0.0
 10
176.9076431842712
 20
119.4123195416797
 30
0.0
 10
177.327333616469
 20
118.9317206692124
 30
0.0
 10
178.0501893099596
 20
117.9105047154389
 30
0.0
 10
178.3583190523926
 20
117.3667186224999
 30
0.0
 10
178.7381976185528
 20
116.4987418063591
 30
0.0
 10
178.8512093549968
 20
116.1993982950323
 30
0.0
 10
179.0437242153546
 20
115.5970031424403
 30
0.0
 10
179.1240328822366
 20
115.2924235947589
 30
0.0
 10
179.2532709802444
 20
114.6765728060442
 30
0.0
 10
179.302200888178
 20
114.3653017227152
 30
0.0
 10
179.3681871166545
 20
113.735938798509
 30
0.0
 10
179.3852173972793
 20
113.4160108118703
 30
0.0
 10
179.3862995931967
 20
112.4594396298642
 30
0.0
 10
179.3217483383899
 20
111.8315678837239
 30
0.0
 10
179.0657000113745
 20
110.5948787036981
 30
0.0
 10
178.87099122815
 20
109.9818164977503
 30
0.0
 10
178.3694943650603
 20
108.8285781535966
 30
0.0
 10
178.0622880277846
 20
108.2818115544508
 30
0.0
 10
177.332957073973
 20
107.2478203020348
 30
0.0
 10
176.9201630175647
 20
106.7745099516372
 30
0.0
 10
176.2377563181593
 20
106.1322941345621
 30
0.0
 10
175.999378022067
 20
105.9291901417731
 30
0.0
 10
175.5004332820572
 20
105.5450080198316
 30
0.0
 10
175.2394995879913
 20
105.363933331531
 30
0.0
 10
174.4397760500056
 20
104.8646411910595
 30
0.0
 10
173.8790699300953
 20
104.585661846906
 30
0.0
 10
172.9970593560496
 20
104.2455309648012
 30
0.0
 10
172.6947620653868
 20
104.14492961478
 30
0.0
 10
172.0830481051883
 20
103.9727222055195
 30
0.0
 10
171.7748356777767
 20
103.9012890912035
 30
0.0
 10
170.8433079275888
 20
103.7296346033025
 30
0.0
 10
170.2129677520296
 20
103.6716299068586
 30
0.0
 10
168.934225207355
 20
103.6716299068586
 30
0.0
  0
SPLINE
  5
F0
330
1F
100
AcDbEntity
  8
0
  6
HIDDEN
 62
     7
370
     0
100
AcDbSpline
210
0.0
220
0.0
230
1.0
 70
     8
 71
     3
 72
    92
 73
    88
 74
     0
 42
0.00000001
 43
0.00000001
 40
-0.0312500000000004
 40
-0.0312500000000004
 40
0.0
 40
0.0
 40
0.0312499999999988
 40
0.0312499999999988
 40
0.0468749999999981
 40
0.0468749999999981
 40
0.0624999999999975
 40
0.0624999999999975
 40
0.0937499999999963
 40
0.0937499999999963
 40
0.1249999999999951
 40
0.1249999999999951
 40
0.1562499999999938
 40
0.1562499999999938
 40
0.1718749999999932
 40
0.1718749999999932
 40
0.1874999999999926
 40
0.1874999999999926
 40
0.2187499999999916
 40
0.2187499999999916
 40
0.2499999999999906
 40
0.2499999999999906
 40
0.2656249999999901
 40
0.2656249999999901
 40
0.2812499999999896
 40
0.2812499999999896
 40
0.3124999999999887
 40
0.3124999999999887
 40
0.3281249999999883
 40
0.3281249999999883
 40
0.3437499999999879
 40
0.3437499999999879
 40
0.3593749999999875
 40
0.3593749999999875
 40
0.3749999999999871
 40
0.3749999999999871
 40
0.4062499999999867
 40
0.4062499999999867
 40
0.4374999999999865
 40
0.4374999999999865
 40
0.4687499999999861
 40
0.4687499999999861
 40
0.4843749999999863
 40
0.4843749999999863
 40
0.4999999999999865
 40
0.4999999999999865
 40
0.5312499999999875
 40
0.5312499999999875
 40
0.5624999999999885
 40
0.5624999999999885
 40
0.5781249999999886
 40
0.5781249999999886
 40
0.5937499999999887
 40
0.5937499999999887
 40
0.6249999999999897
 40
0.6249999999999897
 40
0.6562499999999907
 40
0.6562499999999907
 40
0.6874999999999917
 40
0.6874999999999917
 40
0.7031249999999921
 40
0.7031249999999921
 40
0.7187499999999927
 40
0.7187499999999927
 40
0.7343749999999931
 40
0.7343749999999931
 40
0.7499999999999936
 40
0.7499999999999936
 40
0.7812499999999946
 40
0.7812499999999946
 40
0.8124999999999956
 40
0.8124999999999956
 40
0.8437499999999966
 40
0.8437499999999966
 40
0.8749999999999976
 40
0.8749999999999976
 40
0.890624999999998
 40
0.890624999999998
 40
0.9062499999999986
 40
0.9062499999999986
 40
0.937499999999999
 40
0.937499999999999
 40
0.9531249999999993
 40
0.9531249999999993
 40
0.9687499999999996
 40
0.9687499999999996
 40
1.0
 40
1.0
 40
1.031249999999999
 40
1.031249999999999
 10
195.2129677520296
 20
103.6716299068586
 30
0.0
 10
193.934225207355
 20
103.6716299068586
 30
0.0
 10
193.3051828685191
 20
103.7295961520092
 30
0.0
 10
192.3764881682625
 20
103.9004283053621
 30
0.0
 10
192.0694189916269
 20
103.9714603038467
 30
0.0
 10
191.4603770528993
 20
104.1424745744482
 30
0.0
 10
191.1570463279692
 20
104.2430868063233
 30
0.0
 10
190.2725710474196
 20
104.5835101412702
 30
0.0
 10
189.7123712945744
 20
104.8621797591849
 30
0.0
 10
188.6502160617845
 20
105.5240609407511
 30
0.0
 10
188.144197916137
 20
105.9121888206863
 30
0.0
 10
187.2329368725719
 20
106.7681333385428
 30
0.0
 10
186.8231322860898
 20
107.2373903212866
 30
0.0
 10
186.278638870534
 20
108.0061056613054
 30
0.0
 10
186.108096026879
 20
108.274890520634
 30
0.0
 10
185.7981147057936
 20
108.8240505916291
 30
0.0
 10
185.658069300081
 20
109.1049278980632
 30
0.0
 10
185.281912826809
 20
109.9662650807061
 30
0.0
 10
185.0892530671205
 20
110.5653905407695
 30
0.0
 10
184.8270665778896
 20
111.8160241320736
 30
0.0
 10
184.7623901248902
 20
112.4442712563495
 30
0.0
 10
184.7612287450685
 20
113.3908908740112
 30
0.0
 10
184.7769485988649
 20
113.7071442959807
 30
0.0
 10
184.8415720714638
 20
114.3411195328584
 30
0.0
 10
184.8905514452408
 20
114.6574553428516
 30
0.0
 10
185.083590270386
 20
115.5862489138045
 30
0.0
 10
185.2738808907785
 20
116.1858105926478
 30
0.0
 10
185.652014002224
 20
117.0559973840382
 30
0.0
 10
185.7940721056854
 20
117.3415201188069
 30
0.0
 10
186.1029906274308
 20
117.8900893248487
 30
0.0
 10
186.2704989151881
 20
118.1548210716366
 30
0.0
 10
186.6310770555368
 20
118.6657747978392
 30
0.0
 10
186.8241483483832
 20
118.9119953718841
 30
0.0
 10
187.236096212714
 20
119.3859706542814
 30
0.0
 10
187.456197377611
 20
119.6147543492534
 30
0.0
 10
188.1434126590087
 20
120.2608737448832
 30
0.0
 10
188.6387874530647
 20
120.6412352838662
 30
0.0
 10
189.7023337439517
 20
121.3059042002333
 30
0.0
 10
190.2748372531125
 20
121.5906940679672
 30
0.0
 10
191.4480392249725
 20
122.0423568052328
 30
0.0
 10
192.0534387733542
 20
122.2130185554036
 30
0.0
 10
192.9902097737865
 20
122.3861064250009
 30
0.0
 10
193.3077173190037
 20
122.4297404353113
 30
0.0
 10
193.9390209910167
 20
122.4873227949889
 30
0.0
 10
194.2544738830306
 20
122.5016410900423
 30
0.0
 10
195.200246123478
 20
122.5019902196736
 30
0.0
 10
195.8317007458068
 20
122.4455382422732
 30
0.0
 10
197.0858695838207
 20
122.2151351649042
 30
0.0
 10
197.6918554861697
 20
122.0445693374157
 30
0.0
 10
198.5702573729592
 20
121.7072890520997
 30
0.0
 10
198.8579261018196
 20
121.5811897164538
 30
0.0
 10
199.4227455915617
 20
121.3006815718668
 30
0.0
 10
199.7007439354715
 20
121.145572166206
 30
0.0
 10
200.5011142788157
 20
120.6466021005266
 30
0.0
 10
200.9957961185432
 20
120.2670948536674
 30
0.0
 10
201.9076431842712
 20
119.4123195416797
 30
0.0
 10
202.327333616469
 20
118.9317206692124
 30
0.0
 10
203.0501893099596
 20
117.9105047154389
 30
0.0
 10
203.3583190523926
 20
117.3667186224999
 30
0.0
 10
203.7381976185528
 20
116.4987418063592
 30
0.0
 10
203.8512093549969
 20
116.1993982950323
 30
0.0
 10
204.0437242153547
 20
115.5970031424403
 30
0.0
 10
204.1240328822366
 20
115.2924235947589
 30
0.0
 10
204.2532709802444
 20
114.6765728060442
 30
0.0
 10
204.302200888178
 20
114.3653017227152
 30
0.0
 10
204.3681871166544
 20
113.735938798509
 30
0.0
 10
204.3852173972793
 20
113.4160108118703
 30
0.0
 10
204.3862995931966
 20
112.4594396298643
 30
0.0
 10
204.3217483383899
 20
111.8315678837239
 30
0.0
 10
204.0657000113745
 20
110.5948787036981
 30
0.0
 10
203.8709912281501
 20
109.9818164977503
 30
0.0
 10
203.3694943650603
 20
108.8285781535966
 30
0.0
 10
203.0622880277846
 20
108.2818115544509
 30
0.0
 10
202.332957073973
 20
107.2478203020348
 30
0.0
 10
201.9201630175648
 20
106.7745099516372
 30
0.0
 10
201.2377563181593
 20
106.1322941345621
 30
0.0
 10
200.999378022067
 20
105.9291901417731
 30
0.0
 10
200.5004332820573
 20
105.5450080198316
 30
0.0
 10
200.2394995879914
 20
105.363933331531
 30
0.0
 10
199.4397760500057
 20
104.8646411910595
 30
0.0
 10
198.8790699300953
 20
104.585661846906
 30
0.0
 10
197.9970593560496
 20
104.2455309648012
 30
0.0
 10
197.6947620653868
 20
104.1449296147801
 30
0.0
 10
197.0830481051883
 20
103.9727222055195
 30
0.0
 10
196.7748356777768
 20
103.9012890912036
 30
0.0
 10
195.8433079275887
 20
103.7296346033025
 30
0.0
 10
195.2129677520296
 20
103.6716299068586
 30
0.0
 10
193.934225207355
 20
103.6716299068586
 30
0.0
  0
SPLINE
  5
F1
330
1F
100
AcDbEntity
  8
0
  6
HIDDEN
 62
     7
370
     0
100
AcDbSpline
210
0.0
220
0.0
230
1.0
 70
     8
 71
     3
 72
    16
 73
    12
 74
     0
 42
0.00000001
 43
0.00000001
 40
0.0
 40
0.0
 40
0.0
 40
0.0
 40
0.1799701200833399
 40
0.2440521066247715
 40
0.3101732333962527
 40
0.3783524851484809
 40
0.5462635416089334
 40
0.7569354380643994
 40
0.8654539662652353
 40
0.9647815532693065
 40
1.0
 40
1.0
 40
1.0
 40
1.0
 10
169.5735964796923
 20
105.0866940451745
 30
0.0
 10
170.074996367399
 20
105.1122732099308
 30
0.0
 10
170.7549297852329
 20
105.1469603515606
 30
0.0
 10
171.5945867655773
 20
105.3405050201985
 30
0.0
 10
172.1217087853609
 20
105.4963449217233
 30
0.0
 10
172.9047728475661
 20
105.7900578937414
 30
0.0
 10
174.0017444554939
 20
106.3627520781026
 30
0.0
 10
175.0558033355381
 20
107.2067277296427
 30
0.0
 10
175.8185078261653
 20
108.0674122866131
 30
0.0
 10
176.2191915466969
 20
108.605439984681
 30
0.0
 10
176.4014557513053
 20
108.9285093042724
 30
0.0
 10
176.4491647918674
 20
109.0130751536439
 30
0.0
  0
SPLINE
  5
F2
330
1F
100
AcDbEntity
  8
0
  6
HIDDEN
 62
     7
370
     0
100
AcDbSpline
210
0.0
220
0.0
230
1.0
 70
     8
 71
     3
 72
    24
 73
    20
 74
     0
 42
0.00000001
 43
0.00000001
 40
0.0
 40
0.0
 40
0.0
 40
0.0
 40
0.0500439014456677
 40
0.1214019540073391
 40
0.1770583092030923
 40
0.2272178945645578
 40
0.2718843301835616
 40
0.3110635627047833
 40
0.4101577437341174
 40
0.500335826156524
 40
0.5903748470572097
 40
0.6224139512582147
 40
0.655462797803639
 40
0.6895309620482862
 40
0.7727541278954485
 40
0.8790013836662643
 40
0.9353380286692448
 40
0.9857716166412078
 40
0.9999999999999999
 40
0.9999999999999999
 40
0.9999999999999999
 40
0.9999999999999999
 10
176.4471355185287
 20
117.157897741006
 30
0.0
 10
176.3032679639773
 20
117.3932256178649
 30
0.0
 10
175.954258359685
 20
117.9641096468426
 30
0.0
 10
175.3064154123047
 20
118.6960425130623
 30
0.0
 10
174.5818277331966
 20
119.3460450016596
 30
0.0
 10
173.9065898338329
 20
119.8267573349144
 30
0.0
 10
173.2660911765558
 20
120.1948667102608
 30
0.0
 10
172.3503041054681
 20
120.6203362375172
 30
0.0
 10
171.12916012824
 20
120.9871548567579
 30
0.0
 10
169.5753509192246
 20
121.1340761364154
 30
0.0
 10
168.3930280652726
 20
121.0225026540328
 30
0.0
 10
167.5536937186733
 20
120.8337886249821
 30
0.0
 10
167.0270664206618
 20
120.6773858482259
 30
0.0
 10
166.2483955941949
 20
120.3858372475473
 30
0.0
 10
165.150955988659
 20
119.8142219829568
 30
0.0
 10
164.0863544133558
 20
118.964068224381
 30
0.0
 10
163.312574314176
 20
118.0863507076436
 30
0.0
 10
162.9154055074371
 20
117.5498418024915
 30
0.0
 10
162.7413918041827
 20
117.2390333649814
 30
0.0
 10
162.7031013897609
 20
117.1706422920056
 30
0.0
  0
SPLINE
  5
F3
330
1F
100
AcDbEntity
  8
0
  6
HIDDEN
 62
     7
370
     0
100
AcDbSpline
210
0.0
220
0.0
230
1.0
 70
     8
 71
     3
 72
    15
 73
    11
 74
     0
 42
0.00000001
 43
0.00000001
 40
0.0
 40
0.0
 40
0.0
 40
0.0
 40
0.0997649367505864
 40
0.2422973160423337
 40
0.353260601223902
 40
0.4534709551765543
 40
0.5429359478785146
 40
0.6216677455111606
 40
0.819943598609171
 40
1.0
 40
1.0
 40
1.0
 40
1.0
 10
162.7014850042837
 20
109.0130719840854
 30
0.0
 10
162.8449972595715
 20
108.7784463182902
 30
0.0
 10
163.1935429050456
 20
108.2086151636936
 30
0.0
 10
163.8400625773428
 20
107.4781880258702
 30
0.0
 10
164.5634684533392
 20
106.8289069116672
 30
0.0
 10
165.2380523606126
 20
106.3483427900162
 30
0.0
 10
165.8796402369802
 20
105.9789298749522
 30
0.0
 10
166.7972989080173
 20
105.5542343181428
 30
0.0
 10
168.019364055283
 20
105.1714710699383
 30
0.0
 10
169.0724231583554
 20
105.1140310009648
 30
0.0
 10
169.5735964796923
 20
105.0866940451745
 30
0.0
  0
LINE
  5
F4
330
1F
100
AcDbEntity
  8
0
  6
HIDDEN
 62
     7
370
     0
100
AcDbLine
 10
122.6816636482
 20
137.5453837075
 30
0.0
 11
122.6816636482
 21
132.9366940452
 31
0.0
  0
ARC
  5
F5
330
1F
100
AcDbEntity
  8
0
  6
HIDDEN
 62
     7
370
     0
100
AcDbCircle
 10
116.3652271588
 20
125.5765214079
 30
0.0
 40
3.671513349863539
100
AcDbArc
 50
265.4441599595
 51
11.782679159
  0
ARC
  5
F6
330
1F
100
AcDbEntity
  8
0
  6
HIDDEN
 62
     7
370
     0
100
AcDbCircle
 10
115.8009729886
 20
125.5886711054
 30
0.0
 40
3.682168746135138
100
AcDbArc
 50
167.1998394651
 51
274.2459981642
  0
LINE
  5
F7
330
1F
100
AcDbEntity
  8
0
  6
HIDDEN
 62
     7
370
     0
100
AcDbLine
 10
96.0687466843
 20
89.5620944224
 30
0.0
 11
95.5346012552
 21
89.5074798229
 31
0.0
  0
LINE
  5
F8
330
1F
100
AcDbEntity
  8
0
  6
HIDDEN
 62
     7
370
     0
100
AcDbLine
 10
95.2969475831
 20
136.6900272257
 30
0.0
 11
96.068653964
 21
136.6112770752
 31
0.0
  0
SPLINE
  5
F9
330
1F
100
AcDbEntity
  8
0
  6
HIDDEN
 62
     7
370
     0
100
AcDbSpline
210
0.0
220
0.0
230
1.0
 70
     8
 71
     3
 72
    12
 73
     8
 74
     0
 42
0.00000001
 43
0.00000001
 40
0.0
 40
0.0
 40
0.0
 40
0.0
 40
0.2208234408070989
 40
0.4480994476667321
 40
0.6689572666722502
 40
0.8961558775382936
 40
1.0
 40
1.0
 40
1.0
 40
1.0
 10
101.8285984812939
 20
132.924222520991
 30
0.0
 10
101.9606416842426
 20
132.9412796080553
 30
0.0
 10
102.2285864553827
 20
132.975892198387
 30
0.0
 10
102.52374262755
 20
133.0028641477521
 30
0.0
 10
102.7248346236643
 20
133.0183738605875
 30
0.0
 10
102.8221651012747
 20
133.0244830247458
 30
0.0
 10
102.8135079025761
 20
133.0239378599526
 30
0.0
 10
102.8107922435045
 20
133.0237668483162
 30
0.0
  0
SPLINE
  5
FA
330
1F
100
AcDbEntity
  8
0
  6
HIDDEN
 62
     7
370
     0
100
AcDbSpline
210
0.0
220
0.0
230
1.0
 70
     8
 71
     3
 72
    13
 73
     9
 74
     0
 42
0.00000001
 43
0.00000001
 40
0.0
 40
0.0
 40
0.0
 40
0.0
 40
0.1180999200110304
 40
0.346453695272296
 40
0.5686788137866106
 40
0.797400934506655
 40
0.8984025637268256
 40
1.0
 40
1.0
 40
1.0
 40
1.0
 10
102.8107921341544
 20
93.14962124900202
 30
0.0
 10
102.812924194064
 20
93.14948446921562
 30
0.0
 10
102.8191787286494
 20
93.14908321693328
 30
0.0
 10
102.7141833242858
 20
93.15580858392099
 30
0.0
 10
102.5055662211787
 20
93.17179232289102
 30
0.0
 10
102.2517946942172
 20
93.19640635805659
 30
0.0
 10
102.0157161101344
 20
93.2239957759109
 30
0.0
 10
101.8910931886995
 20
93.24075920547516
 30
0.0
 10
101.8285984812939
 20
93.24916556935807
 30
0.0
  0
SPLINE
  5
FB
330
1F
100
AcDbEntity
  8
0
  6
HIDDEN
 62
     7
370
     0
100
AcDbSpline
210
0.0
220
0.0
230
1.0
 70
     8
 71
     3
 72
    22
 73
    18
 74
     0
 42
0.00000001
 43
0.00000001
 40
0.0
 40
0.0
 40
0.0
 40
0.0
 40
0.069470503305567
 40
0.1409377255045835
 40
0.210413548914841
 40
0.2819466223559928
 40
0.3506518733998513
 40
0.4213897814436845
 40
0.4894670043894698
 40
0.5594810940348494
 40
0.6282706827033766
 40
0.6989997382187428
 40
0.7687375408512302
 40
0.8405098102584779
 40
0.9099666189318144
 40
0.9814998892127903
 40
1.0
 40
1.0
 40
1.0
 40
1.0
 10
101.8285984812939
 20
93.24916556935807
 30
0.0
 10
101.6804246268345
 20
93.2688919091674
 30
0.0
 10
101.3798181099234
 20
93.30891156258816
 30
0.0
 10
100.8449232472426
 20
93.36428522611803
 30
0.0
 10
100.2592846945739
 20
93.40874161124583
 30
0.0
 10
99.64505203500055
 20
93.43642658669802
 30
0.0
 10
99.0111353896323
 20
93.44467984016786
 30
0.0
 10
98.3889866890605
 20
93.43269978528738
 30
0.0
 10
97.78298921919983
 20
93.40194903152643
 30
0.0
 10
97.21850029807334
 20
93.35648306077623
 30
0.0
 10
96.69912406049167
 20
93.30040190897664
 30
0.0
 10
96.24625856281024
 20
93.24041174665822
 30
0.0
 10
95.86754341914457
 20
93.18243183229933
 30
0.0
 10
95.57945829806945
 20
93.13351302415282
 30
0.0
 10
95.39700040151683
 20
93.10047766162705
 30
0.0
 10
95.31634245018277
 20
93.08533786537141
 30
0.0
 10
95.33063232888163
 20
93.08800981874442
 30
0.0
 10
95.33356862135369
 20
93.0885588532562
 30
0.0
  0
SPLINE
  5
FC
330
1F
100
AcDbEntity
  8
0
  6
HIDDEN
 62
     7
370
     0
100
AcDbSpline
210
0.0
220
0.0
230
1.0
 70
     8
 71
     3
 72
    30
 73
    26
 74
     0
 42
0.00000001
 43
0.00000001
 40
0.0
 40
0.0
 40
0.0
 40
0.0
 40
0.0156161600804337
 40
0.0849748372628082
 40
0.1203204532886746
 40
0.15431851909124
 40
0.2234436946574013
 40
0.2586467089786606
 40
0.2931107206687011
 40
0.3631864361325603
 40
0.3988795186727328
 40
0.4336750628309723
 40
0.4687145712104809
 40
0.5045294144990544
 40
0.5406151111978532
 40
0.5750767863722916
 40
0.6452033649630275
 40
0.6809575734718859
 40
0.7149323277721685
 40
0.784033058295527
 40
0.8192378401372485
 40
0.8533347063218409
 40
0.9226550151093995
 40
0.9579547149334489
 40
1.0
 40
1.0
 40
1.0
 40
1.0
 10
95.32671386087787
 20
133.0861097772824
 30
0.0
 10
95.3261161217928
 20
133.0862220301641
 30
0.0
 10
95.32286354361614
 20
133.0868328506414
 30
0.0
 10
95.37318444606446
 20
133.0773737161843
 30
0.0
 10
95.47348947510575
 20
133.0590688800881
 30
0.0
 10
95.60810646317545
 20
133.0350855747144
 30
0.0
 10
95.79016510820551
 20
133.0039867805679
 30
0.0
 10
96.01708768187078
 20
132.9680676365256
 30
0.0
 10
96.27367408724815
 20
132.9297486153865
 30
0.0
 10
96.57171074572085
 20
132.8895034800782
 30
0.0
 10
96.9042599997206
 20
132.8508424566759
 30
0.0
 10
97.16945770512486
 20
132.8234397979447
 30
0.0
 10
97.4485155303838
 20
132.7983949613325
 30
0.0
 10
97.74296654627798
 20
132.7762272640369
 30
0.0
 10
98.04583147959423
 20
132.758065176767
 30
0.0
 10
98.45621746646297
 20
132.7398070717726
 30
0.0
 10
98.87705830541778
 20
132.7309598377682
 30
0.0
 10
99.29696222264674
 20
132.7324252322093
 30
0.0
 10
99.71157674350046
 20
132.7404686253766
 30
0.0
 10
100.1177978629763
 20
132.7579754109759
 30
0.0
 10
100.5073283626983
 20
132.7835407240038
 30
0.0
 10
100.8841490639366
 20
132.8137249597179
 30
0.0
 10
101.2372862236406
 20
132.8496225345654
 30
0.0
 10
101.5790377114622
 20
132.890440812424
 30
0.0
 10
101.7407114724717
 20
132.9123257259905
 30
0.0
 10
101.8285984812939
 20
132.924222520991
 30
0.0
  0
LINE
  5
FD
330
1F
100
AcDbEntity
  8
0
  6
HIDDEN
 62
     7
370
     0
100
AcDbLine
 10
89.0775710759
 20
96.0866940452
 30
0.0
 11
89.0775710759
 21
130.0866940452
 31
0.0
  0
LWPOLYLINE
  5
FE
330
1F
100
AcDbEntity
  8
0
  6
HIDDEN
 62
     7
370
     0
100
AcDbPolyline
 90
       13
 70
   128
 43
0.0
 10
116.0735964797
 20
135.0322964598
 10
116.905243243
 20
135.0760012583
 10
117.700543052
 20
135.2052055445
 10
118.4247374889
 20
135.4142624711
 10
119.0461757816
 20
135.6940352471
 10
119.5376980948
 20
136.0322964598
 10
119.8778225449
 20
136.4142624711
 10
120.0516840612
 20
136.8232395333
 10
120.0516840612
 20
137.2413533863
 10
119.8778225449
 20
137.6503304486
 10
119.5376980948
 20
138.0322964598
 10
119.0461757816
 20
138.3705576725
 10
118.4387458226
 20
138.645218388
  0
LWPOLYLINE
  5
FF
330
1F
100
AcDbEntity
  8
0
  6
HIDDEN
 62
     7
370
     0
100
AcDbPolyline
 90
       13
 70
   128
 43
0.0
 10
113.7013351108
 20
138.6426051257
 10
113.1010171778
 20
138.3705576725
 10
112.6094948646
 20
138.0322964598
 10
112.2693704145
 20
137.6503304486
 10
112.0955088982
 20
137.2413533863
 10
112.0955088982
 20
136.8232395333
 10
112.2693704145
 20
136.4142624711
 10
112.6094948646
 20
136.0322964598
 10
113.1010171778
 20
135.6940352471
 10
113.7224554705
 20
135.4142624711
 10
114.4466499074
 20
135.2052055445
 10
115.2419497164
 20
135.0760012583
 10
116.0735964797
 20
135.0322964598
  0
SPLINE
  5
100
330
1F
100
AcDbEntity
  8
0
  6
HIDDEN
 62
     7
370
     0
100
AcDbSpline
210
0.0
220
0.0
230
1.0
 70
     8
 71
     3
 72
     8
 73
     4
 74
     0
 42
0.00000001
 43
0.00000001
 40
0.0
 40
0.0
 40
0.0
 40
0.0
 40
0.0011559732291308
 40
0.0011559732291308
 40
0.0011559732291308
 40
0.0011559732291308
 10
76.17359647969229
 20
115.0865346638072
 30
0.0
 10
76.50693105475962
 20
115.0825673840079
 30
0.0
 10
76.84026224578636
 20
115.0783875014314
 30
0.0
 10
77.17359647969229
 20
115.0738223480235
 30
0.0
  0
SPLINE
  5
101
330
1F
100
AcDbEntity
  8
0
  6
HIDDEN
 62
     7
370
     0
100
AcDbSpline
210
0.0
220
0.0
230
1.0
 70
     8
 71
     3
 72
    11
 73
     7
 74
     0
 42
0.00000001
 43
0.00000001
 40
0.0
 40
0.0
 40
0.0
 40
0.0
 40
0.0005782382535738
 40
0.0005782382535738
 40
0.0005782382535738
 40
0.0011564766069467
 40
0.0011564766069467
 40
0.0011564766069467
 40
0.0011564766069467
 10
77.17359647969228
 20
111.0899937429563
 30
0.0
 10
77.00694252572367
 20
111.0895561651946
 30
0.0
 10
76.8402818535217
 20
111.0890761005223
 30
0.0
 10
76.67361496485631
 20
111.0885565611529
 30
0.0
 10
76.50694804646024
 20
111.0880370216909
 30
0.0
 10
76.34027491662701
 20
111.087478192669
 30
0.0
 10
76.17359647969228
 20
111.0868926490859
 30
0.0
  0
LINE
  5
102
330
1F
100
AcDbEntity
  8
0
  6
HIDDEN
 62
     7
370
     0
100
AcDbLine
 10
115.7334224482
 20
96.0866940452
 30
0.0
 11
115.7334224482
 21
130.0866940452
 31
0.0
  0
LINE
  5
103
330
1F
100
AcDbEntity
  8
0
  6
HIDDEN
 62
     7
370
     0
100
AcDbLine
 10
118.0235964797
 20
97.3616940452
 30
0.0
 11
118.0235964797
 21
128.8116940058
 31
0.0
  0
SPLINE
  5
104
330
1F
100
AcDbEntity
  8
0
  6
HIDDEN
 62
     7
370
     0
100
AcDbSpline
210
0.0
220
0.0
230
1.0
 70
     8
 71
     3
 72
    16
 73
    12
 74
     0
 42
0.00000001
 43
0.00000001
 40
0.0
 40
0.0
 40
0.0
 40
0.0
 40
0.124999999999998
 40
0.124999999999998
 40
0.249999999999996
 40
0.249999999999996
 40
0.4999999999999973
 40
0.4999999999999973
 40
0.7499999999999987
 40
0.7499999999999987
 40
1.0
 40
1.0
 40
1.0
 40
1.0
 10
84.8735964796923
 20
97.28520360914287
 30
0.0
 10
84.96871823435812
 20
97.28520360914287
 30
0.0
 10
85.0620483030862
 20
97.28138777575008
 30
0.0
 10
85.2453100638242
 20
97.26661722302026
 30
0.0
 10
85.3361877793812
 20
97.25545917504469
 30
0.0
 10
85.59298947690094
 20
97.21298790490296
 30
0.0
 10
85.74805684177295
 20
97.17194170770016
 30
0.0
 10
86.00180330332756
 20
97.07679559111827
 30
0.0
 10
86.10267375499542
 20
97.0220328570367
 30
0.0
 10
86.23792016969026
 20
96.9107717331328
 30
0.0
 10
86.27359647969229
 20
96.85360199580413
 30
0.0
 10
86.27359647969229
 20
96.79918042277042
 30
0.0
  0
SPLINE
  5
105
330
1F
100
AcDbEntity
  8
0
  6
HIDDEN
 62
     7
370
     0
100
AcDbSpline
210
0.0
220
0.0
230
1.0
 70
     8
 71
     3
 72
     8
 73
     4
 74
     0
 42
0.00000001
 43
0.00000001
 40
0.0
 40
0.0
 40
0.0
 40
0.0
 40
1.0
 40
1.0
 40
1.0
 40
1.0
 10
77.47359647969334
 20
99.43000655522512
 30
0.0
 10
77.47359647969526
 20
98.54610941290817
 30
0.0
 10
77.46011585378575
 20
97.83152616784623
 30
0.0
 10
77.45876448559466
 20
97.28520360914288
 30
0.0
  0
LINE
  5
106
330
1F
100
AcDbEntity
  8
0
  6
HIDDEN
 62
     7
370
     0
100
AcDbLine
 10
77.1735964797
 20
103.4858672604
 30
0.0
 11
77.1735964797
 21
100.4549168145
 31
0.0
  0
SPLINE
  5
107
330
1F
100
AcDbEntity
  8
0
  6
HIDDEN
 62
     7
370
     0
100
AcDbSpline
210
0.0
220
0.0
230
1.0
 70
     8
 71
     3
 72
    10
 73
     6
 74
     0
 42
0.00000001
 43
0.00000001
 40
0.0
 40
0.0
 40
0.0
 40
0.0
 40
0.5
 40
0.5
 40
1.0
 40
1.0
 40
1.0
 40
1.0
 10
77.47359647965574
 20
104.8537076695317
 30
0.0
 10
77.47359647965574
 20
104.6117237033597
 30
0.0
 10
77.44544645090956
 20
104.3773812757405
 30
0.0
 10
77.34185653793887
 20
103.9220062560057
 30
0.0
 10
77.26522782917718
 20
103.7004016941236
 30
0.0
 10
77.17359647969229
 20
103.4858672604142
 30
0.0
  0
LINE
  5
108
330
1F
100
AcDbEntity
  8
0
  6
HIDDEN
 62
     7
370
     0
100
AcDbLine
 10
77.4735964797
 20
116.6913276667
 30
0.0
 11
77.4735964797
 21
104.8537076695
 31
0.0
  0
SPLINE
  5
109
330
1F
100
AcDbEntity
  8
0
  6
HIDDEN
 62
     7
370
     0
100
AcDbSpline
210
0.0
220
0.0
230
1.0
 70
     8
 71
     3
 72
     8
 73
     4
 74
     0
 42
0.00000001
 43
0.00000001
 40
0.0
 40
0.0
 40
0.0
 40
0.0
 40
1.0
 40
1.0
 40
1.0
 40
1.0
 10
77.17359647969229
 20
122.6936333584537
 30
0.0
 10
77.35462794435927
 20
122.2615258750423
 30
0.0
 10
77.47359647966148
 20
121.8073804714659
 30
0.0
 10
77.47359647965577
 20
121.3196804207865
 30
0.0
  0
LINE
  5
10A
330
1F
100
AcDbEntity
  8
0
  6
HIDDEN
 62
     7
370
     0
100
AcDbLine
 10
77.1735964797
 20
125.7268363587
 30
0.0
 11
77.1735964797
 21
122.6936333585
 31
0.0
  0
SPLINE
  5
10B
330
1F
100
AcDbEntity
  8
0
  6
HIDDEN
 62
     7
370
     0
100
AcDbSpline
210
0.0
220
0.0
230
1.0
 70
     8
 71
     3
 72
    10
 73
     6
 74
     0
 42
0.00000001
 43
0.00000001
 40
0.0
 40
0.0
 40
0.0
 40
0.0
 40
0.5
 40
0.5
 40
1.0
 40
1.0
 40
1.0
 40
1.0
 10
77.47359647979744
 20
126.7433815350944
 30
0.0
 10
77.47359647979565
 20
126.5787451895018
 30
0.0
 10
77.44643780937099
 20
126.411589966716
 30
0.0
 10
77.34067281531226
 20
126.0729669610552
 30
0.0
 10
77.2642580277901
 20
125.9006951848952
 30
0.0
 10
77.17359647969229
 20
125.7268363586455
 30
0.0
  0
SPLINE
  5
10C
330
1F
100
AcDbEntity
  8
0
  6
HIDDEN
 62
     7
370
     0
100
AcDbSpline
210
0.0
220
0.0
230
1.0
 70
     8
 71
     3
 72
    18
 73
    14
 74
     0
 42
0.00000001
 43
0.00000001
 40
0.0
 40
0.0
 40
0.0
 40
0.0
 40
0.2500000000000033
 40
0.2500000000000033
 40
0.3750000000000029
 40
0.3750000000000029
 40
0.5000000000000026
 40
0.5000000000000026
 40
0.6250000000000022
 40
0.6250000000000022
 40
0.7500000000000018
 40
0.7500000000000018
 40
1.0
 40
1.0
 40
1.0
 40
1.0
 10
82.27359647969229
 20
129.3742076675787
 30
0.0
 10
82.27359647969229
 20
129.3197331470265
 30
0.0
 10
82.23868578830013
 20
129.263352087674
 30
0.0
 10
82.13667648696708
 20
129.1792752468205
 30
0.0
 10
82.09504013228897
 20
129.1519415428296
 30
0.0
 10
81.99663433680021
 20
129.0989876272306
 30
0.0
 10
81.93909112509593
 20
129.0731002735134
 30
0.0
 10
81.81179295152297
 20
129.0253227286802
 30
0.0
 10
81.74220564676551
 20
129.0033748105023
 30
0.0
 10
81.59077140161055
 20
128.9639422455895
 30
0.0
 10
81.50808749851662
 20
128.9463859963637
 30
0.0
 10
81.25197603647857
 20
128.9039472309432
 30
0.0
 10
81.06406103259057
 20
128.8881844812062
 30
0.0
 10
80.8735964796923
 20
128.8881844812062
 30
0.0
  0
LINE
  5
10D
330
1F
100
AcDbEntity
  8
0
  6
HIDDEN
 62
     7
370
     0
100
AcDbLine
 10
80.8735964797
 20
128.8881844812
 30
0.0
 11
77.4735964798
 21
128.8881844812
 31
0.0
  0
LINE
  5
10E
330
1F
100
AcDbEntity
  8
0
  6
HIDDEN
 62
     7
370
     0
100
AcDbLine
 10
77.4046274931
 20
97.2852036091
 30
0.0
 11
84.8735964797
 21
97.2852036091
 31
0.0
  0
SPLINE
  5
10F
330
1F
100
AcDbEntity
  8
0
  6
HIDDEN
 62
     7
370
     0
100
AcDbSpline
210
0.0
220
0.0
230
1.0
 70
     8
 71
     3
 72
    22
 73
    18
 74
     0
 42
0.00000001
 43
0.00000001
 40
0.0
 40
0.0
 40
0.0
 40
0.0
 40
0.125
 40
0.125
 40
0.2499999999999999
 40
0.2499999999999999
 40
0.5000000000000003
 40
0.5000000000000003
 40
0.5625000000000004
 40
0.5625000000000004
 40
0.6250000000000006
 40
0.6250000000000006
 40
0.7500000000000004
 40
0.7500000000000004
 40
0.8750000000000002
 40
0.8750000000000002
 40
1.0
 40
1.0
 40
1.0
 40
1.0
 10
77.40462749305019
 20
97.28520360914287
 30
0.0
 10
77.39154510032178
 20
97.54030931929054
 30
0.0
 10
77.37832553688199
 20
97.83346757839445
 30
0.0
 10
77.35587835908787
 20
98.49576804401926
 30
0.0
 10
77.34639989206342
 20
98.86604196463064
 30
0.0
 10
77.32720193112691
 20
100.0885987677444
 30
0.0
 10
77.32831570412378
 20
101.0257376938763
 30
0.0
 10
77.34722649707683
 20
102.3456089233913
 30
0.0
 10
77.35185602493583
 20
102.6171108323676
 30
0.0
 10
77.36233724468178
 20
103.1754956671699
 30
0.0
 10
77.36813250596619
 20
103.4626185231095
 30
0.0
 10
77.38644172687111
 20
104.3352077774812
 30
0.0
 10
77.40047666115152
 20
104.9356634538371
 30
0.0
 10
77.42993383328835
 20
106.1731379463331
 30
0.0
 10
77.4454895242699
 20
106.8101541029766
 30
0.0
 10
77.4692840742668
 20
108.1216427006611
 30
0.0
 10
77.47730312641217
 20
108.7977653123216
 30
0.0
 10
77.47359647969229
 20
109.4820604236064
 30
0.0
  0
LINE
  5
110
330
1F
100
AcDbEntity
  8
0
  6
HIDDEN
 62
     7
370
     0
100
AcDbLine
 10
77.4735964798
 20
116.6913276667
 30
0.0
 11
77.4735964798
 21
128.8881844812
 31
0.0
  0
SPLINE
  5
111
330
1F
100
AcDbEntity
  8
0
  6
HIDDEN
 62
     7
370
     0
100
AcDbSpline
210
0.0
220
0.0
230
1.0
 70
     8
 71
     3
 72
    10
 73
     6
 74
     0
 42
0.00000001
 43
0.00000001
 40
0.0
 40
0.0
 40
0.0
 40
0.0
 40
0.5
 40
0.5
 40
1.0
 40
1.0
 40
1.0
 40
1.0
 10
77.47359647969228
 20
109.4820604235914
 30
0.0
 10
77.47359647969209
 20
109.7559755716654
 30
0.0
 10
77.4478372498233
 20
110.0269171503951
 30
0.0
 10
77.34463131708988
 20
110.5626082319972
 30
0.0
 10
77.26729315321546
 20
110.828355035519
 30
0.0
 10
77.17359647969229
 20
111.0899937429563
 30
0.0
  0
SPLINE
  5
112
330
1F
100
AcDbEntity
  8
0
  6
HIDDEN
 62
     7
370
     0
100
AcDbSpline
210
0.0
220
0.0
230
1.0
 70
     8
 71
     3
 72
    10
 73
     6
 74
     0
 42
0.00000001
 43
0.00000001
 40
0.0
 40
0.0
 40
0.0
 40
0.0
 40
0.5
 40
0.5
 40
1.0
 40
1.0
 40
1.0
 40
1.0
 10
77.17359647969229
 20
115.0738223480236
 30
0.0
 10
77.26682706004341
 20
115.3377161546218
 30
0.0
 10
77.34185667157212
 20
115.6038964637202
 30
0.0
 10
77.44692376955163
 20
116.1422190355389
 30
0.0
 10
77.47359647979624
 20
116.4149671501545
 30
0.0
 10
77.47359647979742
 20
116.6913276667416
 30
0.0
  0
LINE
  5
113
330
1F
100
AcDbEntity
  8
0
  6
HIDDEN
 62
     7
370
     0
100
AcDbLine
 10
77.1735964797
 20
111.089993743
 30
0.0
 11
77.1735964797
 21
115.073822348
 31
0.0
  0
LINE
  5
114
330
1F
100
AcDbEntity
  8
0
  6
HIDDEN
 62
     7
370
     0
100
AcDbLine
 10
159.0735964797
 20
100.6866940452
 30
0.0
 11
159.0735964797
 21
125.4866940452
 31
0.0
  0
LINE
  5
115
330
1F
100
AcDbEntity
  8
0
  6
HIDDEN
 62
     7
370
     0
100
AcDbLine
 10
165.0735964797
 20
119.7010723228
 30
0.0
 11
165.0735964797
 21
125.5866940452
 31
0.0
  0
LINE
  5
116
330
1F
100
AcDbEntity
  8
0
  6
HIDDEN
 62
     7
370
     0
100
AcDbLine
 10
165.0735964797
 20
119.7068739692
 30
0.0
 11
165.0735964797
 21
106.4723157675
 31
0.0
  0
LINE
  5
117
330
1F
100
AcDbEntity
  8
0
  6
HIDDEN
 62
     7
370
     0
100
AcDbLine
 10
165.0735964797
 20
100.5866940452
 30
0.0
 11
165.0735964797
 21
106.4723157675
 31
0.0
  0
LINE
  5
118
330
1F
100
AcDbEntity
  8
0
  6
HIDDEN
 62
     7
370
     0
100
AcDbLine
 10
77.3235964797
 20
95.0966940452
 30
0.0
 11
77.3235964797
 21
92.2167562798
 31
0.0
  0
LINE
  5
119
330
1F
100
AcDbEntity
  8
0
  6
HIDDEN
 62
     7
370
     0
100
AcDbLine
 10
86.2735964797
 20
95.0966940452
 30
0.0
 11
86.2735964797
 21
91.122956514
 31
0.0
  0
LINE
  5
11A
330
1F
100
AcDbEntity
  8
0
  6
HIDDEN
 62
     7
370
     0
100
AcDbLine
 10
77.3235964797
 20
131.0766940452
 30
0.0
 11
77.3235964797
 21
133.9566318106
 31
0.0
  0
LINE
  5
11B
330
1F
100
AcDbEntity
  8
0
  6
HIDDEN
 62
     7
370
     0
100
AcDbLine
 10
82.2735964797
 20
131.0766940452
 30
0.0
 11
82.2735964797
 21
134.9308017175
 31
0.0
  0
LINE
  5
11C
330
1F
100
AcDbEntity
  8
0
  6
HIDDEN
 62
     7
370
     0
100
AcDbLine
 10
126.8735964797
 20
103.5866940452
 30
0.0
 11
126.8735964797
 21
122.5866940452
 31
0.0
  0
LINE
  5
11D
330
1F
100
AcDbEntity
  8
0
  6
HIDDEN
 62
     7
370
     0
100
AcDbLine
 10
129.8735964797
 20
103.5866940452
 30
0.0
 11
129.8735964797
 21
122.5866940452
 31
0.0
  0
LINE
  5
11E
330
1F
100
AcDbEntity
  8
0
  6
HIDDEN
 62
     7
370
     0
100
AcDbLine
 10
118.5235964797
 20
104.5866940452
 30
0.0
 11
118.5235964797
 21
121.5866940452
 31
0.0
  0
LINE
  5
11F
330
1F
100
AcDbEntity
  8
0
  6
HIDDEN
 62
     7
370
     0
100
AcDbLine
 10
134.0235964797
 20
86.6866940452
 30
0.0
 11
127.8859216774
 21
86.6866940452
 31
0.0
  0
LINE
  5
120
330
1F
100
AcDbEntity
  8
0
  6
HIDDEN
 62
     7
370
     0
100
AcDbLine
 10
113.0235964797
 20
81.6025710623
 30
0.0
 11
113.0235964797
 21
86.6866940452
 31
0.0
  0
LINE
  5
121
330
1F
100
AcDbEntity
  8
0
  6
HIDDEN
 62
     7
370
     0
100
AcDbLine
 10
121.0235964797
 20
86.6866940452
 30
0.0
 11
113.0235964797
 21
86.6866940452
 31
0.0
  0
LINE
  5
122
330
1F
100
AcDbEntity
  8
0
  6
HIDDEN
 62
     7
370
     0
100
AcDbLine
 10
124.261271282
 20
86.6866940452
 30
0.0
 11
121.0235964797
 21
86.6866940452
 31
0.0
  0
LINE
  5
123
330
1F
100
AcDbEntity
  8
0
  6
HIDDEN
 62
     7
370
     0
100
AcDbLine
 10
134.0235964797
 20
139.4866940452
 30
0.0
 11
127.589298948
 21
139.4866940452
 31
0.0
  0
LINE
  5
124
330
1F
100
AcDbEntity
  8
0
  6
HIDDEN
 62
     7
370
     0
100
AcDbLine
 10
121.0235964797
 20
139.4866940452
 30
0.0
 11
113.0235964797
 21
139.4866940452
 31
0.0
  0
LINE
  5
125
330
1F
100
AcDbEntity
  8
0
  6
HIDDEN
 62
     7
370
     0
100
AcDbLine
 10
124.5578940114
 20
139.4866940452
 30
0.0
 11
121.0235964797
 21
139.4866940452
 31
0.0
  0
SPLINE
  5
126
330
1F
100
AcDbEntity
  8
0
  6
HIDDEN
 62
     7
370
     0
100
AcDbSpline
210
0.0
220
0.0
230
1.0
 70
     8
 71
     3
 72
    11
 73
     7
 74
     0
 42
0.00000001
 43
0.00000001
 40
0.0
 40
0.0
 40
0.0
 40
0.0
 40
0.0008203708524183
 40
0.0008203708524183
 40
0.0008203708524183
 40
0.0016409967870154
 40
0.0016409967870154
 40
0.0016409967870154
 40
0.0016409967870154
 10
77.3235964796923
 20
97.23466129453182
 30
0.0
 10
77.13243817939363
 20
97.19348226591268
 30
0.0
 10
76.94101110932144
 20
97.15472829368267
 30
0.0
 10
76.74936548580081
 20
97.11836053440412
 30
0.0
 10
76.55766008072035
 20
97.0819814306381
 30
0.0
 10
76.36572112866139
 20
97.04798717987055
 30
0.0
 10
76.17359648159058
 20
97.01633905447933
 30
0.0
  0
ELLIPSE
  5
127
330
1F
100
AcDbEntity
  8
0
  6
HIDDEN
 62
     7
370
     0
100
AcDbEllipse
 10
71.9311646169
 20
113.0866940452
 30
0.0
 11
20.19992452772428
 21
-1.421085471520200E-14
 31
0.0
210
0.0
220
0.0
230
1.0
 40
0.816496581
 41
1.300566354937165
 42
1.359198697442763
  0
LINE
  5
128
330
1F
100
AcDbEntity
  8
0
  6
HIDDEN
 62
     7
370
     0
100
AcDbLine
 10
86.2735964797
 20
95.0966940452
 30
0.0
 11
86.2735964797
 21
96.7991804228
 31
0.0
  0
LINE
  5
129
330
1F
100
AcDbEntity
  8
0
  6
HIDDEN
 62
     7
370
     0
100
AcDbLine
 10
77.3235964797
 20
95.0966940452
 30
0.0
 11
77.3235964797
 21
97.2346612945
 31
0.0
  0
LINE
  5
12A
330
1F
100
AcDbEntity
  8
0
  6
HIDDEN
 62
     7
370
     0
100
AcDbLine
 10
77.4046274931
 20
97.2852036091
 30
0.0
 11
77.3235964797
 21
97.2346612945
 31
0.0
  0
LINE
  5
12B
330
1F
100
AcDbEntity
  8
0
  6
HIDDEN
 62
     7
370
     0
100
AcDbLine
 10
82.2735964797
 20
131.0766940452
 30
0.0
 11
82.2735964797
 21
129.3742076676
 31
0.0
  0
LINE
  5
12C
330
1F
100
AcDbEntity
  8
0
  6
HIDDEN
 62
     7
370
     0
100
AcDbLine
 10
77.3235964797
 20
131.0766940452
 30
0.0
 11
77.3235964797
 21
128.9813184942
 31
0.0
  0
SPLINE
  5
12D
330
1F
100
AcDbEntity
  8
0
  6
HIDDEN
 62
     7
370
     0
100
AcDbSpline
210
0.0
220
0.0
230
1.0
 70
     8
 71
     3
 72
     8
 73
     4
 74
     0
 42
0.00000001
 43
0.00000001
 40
0.0
 40
0.0
 40
0.0
 40
0.0
 40
1.0
 40
1.0
 40
1.0
 40
1.0
 10
77.3235964796923
 20
128.9813184941731
 30
0.0
 10
77.37360197753975
 20
128.9502827206403
 30
0.0
 10
77.42360204710812
 20
128.9192380762994
 30
0.0
 10
77.47359647979745
 20
128.8881844812062
 30
0.0
  0
SPLINE
  5
12E
330
1F
100
AcDbEntity
  8
0
  6
HIDDEN
 62
     7
370
     0
100
AcDbSpline
210
0.0
220
0.0
230
1.0
 70
     8
 71
     3
 72
    20
 73
    16
 74
     0
 42
0.00000001
 43
0.00000001
 40
0.0
 40
0.0
 40
0.0
 40
0.0
 40
0.1119315441941235
 40
0.1774503646714511
 40
0.2490715138647866
 40
0.329819499646048
 40
0.3985915055980702
 40
0.4998706622445981
 40
0.6138351325710287
 40
0.6790006892273925
 40
0.7495267891741064
 40
0.829672292066296
 40
0.8981155733382743
 40
0.9995254029143176
 40
1.0
 40
1.0
 40
1.0
 40
1.0
 10
102.8223742355799
 20
89.48671702310384
 30
0.0
 10
102.7790593141045
 20
89.50014330474662
 30
0.0
 10
102.7103901228873
 20
89.52142862329421
 30
0.0
 10
102.2652560316438
 20
89.62472877341283
 30
0.0
 10
101.7387001367829
 20
89.73803150052045
 30
0.0
 10
101.0532744044064
 20
89.86096451816465
 30
0.0
 10
100.1599571915479
 20
89.98299893810217
 30
0.0
 10
99.04659774032315
 20
90.10073526170629
 30
0.0
 10
97.93582365887843
 20
90.11271075540692
 30
0.0
 10
97.05107540602944
 20
90.08565247594288
 30
0.0
 10
96.38387862139322
 20
90.03772037520336
 30
0.0
 10
95.84260690018654
 20
89.98142701102991
 30
0.0
 10
95.45502397152862
 20
89.93634353733253
 30
0.0
 10
95.26108996553643
 20
89.89747075774834
 30
0.0
 10
95.324200364442
 20
89.90817823860357
 30
0.0
 10
95.32449434471336
 20
89.908228116091
 30
0.0
  0
LINE
  5
12F
330
1F
100
AcDbEntity
  8
0
  6
HIDDEN
 62
     7
370
     0
100
AcDbLine
 10
96.2336083959
 20
90.019032189
 30
0.0
 11
96.4174537052
 21
90.0372215312
 31
0.0
  0
SPLINE
  5
130
330
1F
100
AcDbEntity
  8
0
  6
HIDDEN
 62
     7
370
     0
100
AcDbSpline
210
0.0
220
0.0
230
1.0
 70
     8
 71
     3
 72
    27
 73
    23
 74
     0
 42
0.00000001
 43
0.00000001
 40
0.0
 40
0.0
 40
0.0
 40
0.0
 40
0.0007778883468387
 40
0.0456600851139975
 40
0.1022413540606143
 40
0.1705189655944358
 40
0.209110367193501
 40
0.2506373151134066
 40
0.3210825985978889
 40
0.3861758766717931
 40
0.4266547427040913
 40
0.4647857282824814
 40
0.500589794042539
 40
0.5451812457616756
 40
0.6016751058868702
 40
0.6700806011462389
 40
0.7088176597036654
 40
0.7505461127222155
 40
0.8222101957727797
 40
0.8877491610786026
 40
0.9472224992587176
 40
1.0
 40
1.0
 40
1.0
 40
1.0
 10
95.32424003943717
 20
136.2651135529919
 30
0.0
 10
95.32402626211322
 20
136.2651596340706
 30
0.0
 10
95.31147807207272
 20
136.2678644772344
 30
0.0
 10
95.36056381303226
 20
136.2560304744039
 30
0.0
 10
95.50565634298962
 20
136.2325890448365
 30
0.0
 10
95.77871221188391
 20
136.1986840391277
 30
0.0
 10
96.10723809503178
 20
136.1651153802488
 30
0.0
 10
96.49996601887914
 20
136.1269320050173
 30
0.0
 10
97.0496939255146
 20
136.0879633483288
 30
0.0
 10
97.6757165890965
 20
136.0685022396864
 30
0.0
 10
98.21890809658653
 20
136.0663165625222
 30
0.0
 10
98.66397699407112
 20
136.0748314435725
 30
0.0
 10
99.13042479021681
 20
136.0946148404947
 30
0.0
 10
99.66766544018921
 20
136.1387772261973
 30
0.0
 10
100.3158788668351
 20
136.2111928451639
 30
0.0
 10
100.9014175131761
 20
136.2920949425122
 30
0.0
 10
101.3823870885072
 20
136.3702609209902
 30
0.0
 10
101.8278021533261
 20
136.4550331028701
 30
0.0
 10
102.2663008056081
 20
136.5488158727447
 30
0.0
 10
102.6053299447764
 20
136.6267206300596
 30
0.0
 10
102.7926983091303
 20
136.6769197654382
 30
0.0
 10
102.8131895492235
 20
136.6835870574299
 30
0.0
 10
102.8228240111981
 20
136.6867218492178
 30
0.0
  0
SPLINE
  5
131
330
1F
100
AcDbEntity
  8
0
  6
HIDDEN
 62
     7
370
     0
100
AcDbSpline
210
0.0
220
0.0
230
1.0
 70
     8
 71
     3
 72
     8
 73
     4
 74
     0
 42
0.00000001
 43
0.00000001
 40
0.0
 40
0.0
 40
0.0
 40
0.0
 40
0.000159097691435
 40
0.000159097691435
 40
0.000159097691435
 40
0.000159097691435
 10
77.45876448559466
 20
97.28520360914287
 30
0.0
 10
77.4137130161953
 20
97.25722472550898
 30
0.0
 10
77.36865697888571
 20
97.22925319582343
 30
0.0
 10
77.3235964796923
 20
97.20128885716008
 30
0.0
  0
SPLINE
  5
132
330
1F
100
AcDbEntity
  8
0
  6
HIDDEN
 62
     7
370
     0
100
AcDbSpline
210
0.0
220
0.0
230
1.0
 70
     8
 71
     3
 72
    11
 73
     7
 74
     0
 42
0.00000001
 43
0.00000001
 40
0.0
 40
0.0
 40
0.0
 40
0.0
 40
0.0008212909311356
 40
0.0008212909311356
 40
0.0008212909311356
 40
0.0016428257242859
 40
0.0016428257242859
 40
0.0016428257242859
 40
0.0016428257242859
 10
77.3235964796923
 20
97.20128885716008
 30
0.0
 10
77.13245145820993
 20
97.15800266833027
 30
0.0
 10
76.94103312253338
 20
97.11706615871626
 30
0.0
 10
76.74938704787225
 20
97.07846438735342
 30
0.0
 10
76.55768396633064
 20
97.03985113354008
 30
0.0
 10
76.36573884304524
 20
97.00357092427834
 30
0.0
 10
76.17359647969226
 20
96.96960401795161
 30
0.0
  0
LINE
  5
133
330
1F
100
AcDbEntity
  8
0
  6
HIDDEN
 62
     7
370
     0
100
AcDbLine
 10
124.1635964797
 20
133.2225606766
 30
0.0
 11
124.1635964797
 21
132.9366940452
 31
0.0
  0
LINE
  5
134
330
1F
100
AcDbEntity
  8
0
  6
HIDDEN
 62
     7
370
     0
100
AcDbLine
 10
127.9835964797
 20
133.2564621822
 30
0.0
 11
127.9835964797
 21
132.9366940452
 31
0.0
  0
LINE
  5
135
330
1F
100
AcDbEntity
  8
0
  6
HIDDEN
 62
     7
370
     0
100
AcDbLine
 10
129.4655293112
 20
137.5453837075
 30
0.0
 11
129.4655293112
 21
132.9366940452
 31
0.0
  0
SPLINE
  5
136
330
1F
100
AcDbEntity
  8
0
  6
HIDDEN
 62
     7
370
     0
100
AcDbSpline
210
0.0
220
0.0
230
1.0
 70
     8
 71
     3
 72
    24
 73
    20
 74
     0
 42
0.00000001
 43
0.00000001
 40
0.0
 40
0.0
 40
0.0
 40
0.0
 40
0.25
 40
0.25
 40
0.374999999999999
 40
0.374999999999999
 40
0.4374999999999993
 40
0.4374999999999993
 40
0.4687499999999994
 40
0.4687499999999994
 40
0.4999999999999995
 40
0.4999999999999995
 40
0.5624999999999971
 40
0.5624999999999971
 40
0.6249999999999947
 40
0.6249999999999947
 40
0.7499999999999947
 40
0.7499999999999947
 40
1.0
 40
1.0
 40
1.0
 40
1.0
 10
76.2362598544157
 20
93.41214150039379
 30
0.0
 10
76.25001297308593
 20
93.48279155838406
 30
0.0
 10
76.2677855404918
 20
93.54938967114902
 30
0.0
 10
76.32003663204715
 20
93.62348769138221
 30
0.0
 10
76.34107170762871
 20
93.64474549854377
 30
0.0
 10
76.39397211525714
 20
93.65289142469001
 30
0.0
 10
76.41507778813505
 20
93.65195162129423
 30
0.0
 10
76.46112995681304
 20
93.63093562971689
 30
0.0
 10
76.47950042879643
 20
93.62002682360928
 30
0.0
 10
76.52105206386211
 20
93.58739191266191
 30
0.0
 10
76.54361873661904
 20
93.56589993229053
 30
0.0
 10
76.60639975307905
 20
93.49743398870422
 30
0.0
 10
76.63952951404696
 20
93.45135953049913
 30
0.0
 10
76.69644720053195
 20
93.36635164216446
 30
0.0
 10
76.72063322603573
 20
93.32607134098309
 30
0.0
 10
76.78584117641549
 20
93.21113511451713
 30
0.0
 10
76.82055723660673
 20
93.14055212937012
 30
0.0
 10
76.91377250693762
 20
92.93634637029152
 30
0.0
 10
76.95944504229828
 20
92.81344798796417
 30
0.0
 10
76.99775012579684
 20
92.69657471157657
 30
0.0
  0
SPLINE
  5
137
330
1F
100
AcDbEntity
  8
0
  6
HIDDEN
 62
     7
370
     0
100
AcDbSpline
210
0.0
220
0.0
230
1.0
 70
     8
 71
     3
 72
     8
 73
     4
 74
     0
 42
0.00000001
 43
0.00000001
 40
0.0
 40
0.0
 40
0.0
 40
0.0
 40
0.001156372467817
 40
0.001156372467817
 40
0.001156372467817
 40
0.001156372467817
 10
77.17359647969259
 20
125.7268363586502
 30
0.0
 10
76.84027536449534
 20
125.855895384277
 30
0.0
 10
76.50694268368727
 20
125.9848557204457
 30
0.0
 10
76.17359647969228
 20
126.1137672502186
 30
0.0
  0
SPLINE
  5
138
330
1F
100
AcDbEntity
  8
0
  6
HIDDEN
 62
     7
370
     0
100
AcDbSpline
210
0.0
220
0.0
230
1.0
 70
     8
 71
     3
 72
    11
 73
     7
 74
     0
 42
0.00000001
 43
0.00000001
 40
0.0
 40
0.0
 40
0.0
 40
0.0
 40
0.000577874610501
 40
0.000577874610501
 40
0.000577874610501
 40
0.001155749485703
 40
0.001155749485703
 40
0.001155749485703
 40
0.001155749485703
 10
76.17359647969229
 20
100.0594721827239
 30
0.0
 10
76.3402633561054
 20
100.1252843095068
 30
0.0
 10
76.5069300756667
 20
100.1911427897344
 30
0.0
 10
76.67359672371532
 20
100.2570503627567
 30
0.0
 10
76.84026344823394
 20
100.3229579660188
 30
0.0
 10
77.00693014265464
 20
100.3889150745008
 30
0.0
 10
77.17359647969229
 20
100.4549168145204
 30
0.0
  0
SPLINE
  5
139
330
1F
100
AcDbEntity
  8
0
  6
HIDDEN
 62
     7
370
     0
100
AcDbSpline
210
0.0
220
0.0
230
1.0
 70
     8
 71
     3
 72
    11
 73
     7
 74
     0
 42
0.00000001
 43
0.00000001
 40
0.0000000000000006
 40
0.0000000000000006
 40
0.0000000000000006
 40
0.0000000000000006
 40
0.000578048606266
 40
0.000578048606266
 40
0.000578048606266
 40
0.001156097351391
 40
0.001156097351391
 40
0.001156097351391
 40
0.001156097351391
 10
76.17359647969229
 20
123.0675085384618
 30
0.0
 10
76.3402663357375
 20
123.0051366770567
 30
0.0
 10
76.50693403982193
 20
122.9427828168652
 30
0.0
 10
76.67360034427557
 20
122.8804632567817
 30
0.0
 10
76.84026668496932
 20
122.8181436831473
 30
0.0
 10
77.00693164159794
 20
122.7558584789267
 30
0.0
 10
77.17359647969229
 20
122.6936333584537
 30
0.0
  0
SPLINE
  5
13A
330
1F
100
AcDbEntity
  8
0
  6
HIDDEN
 62
     7
370
     0
100
AcDbSpline
210
0.0
220
0.0
230
1.0
 70
     8
 71
     3
 72
    11
 73
     7
 74
     0
 42
0.00000001
 43
0.00000001
 40
0.0
 40
0.0
 40
0.0
 40
0.0
 40
0.0005782401583357
 40
0.0005782401583357
 40
0.0005782401583357
 40
0.001156480596064
 40
0.001156480596064
 40
0.001156480596064
 40
0.001156480596064
 10
77.17359647969229
 20
103.4858672604142
 30
0.0
 10
77.00694552934357
 20
103.4224418024751
 30
0.0
 10
76.84028593676098
 20
103.3590862789453
 30
0.0
 10
76.67361888433244
 20
103.295788694724
 30
0.0
 10
76.50695174776861
 20
103.2324910785494
 30
0.0
 10
76.34027714032248
 20
103.1692512837405
 30
0.0
 10
76.17359647969228
 20
103.1060512772362
 30
0.0
  0
CIRCLE
  5
13B
330
1F
100
AcDbEntity
  8
0
  6
HIDDEN
 62
     7
370
     0
100
AcDbCircle
 10
115.0735964797
 20
113.0866940452
 30
0.0
 40
5.000000000000014
  0
LINE
  5
13C
330
1F
100
AcDbEntity
  8
0
  6
HIDDEN
 62
     7
370
     0
100
AcDbLine
 10
112.0735964797
 20
127.3866385053
 30
0.0
 11
112.0735964797
 21
125.4806346881
 31
0.0
  0
LINE
  5
13D
330
1F
100
AcDbEntity
  8
0
  6
HIDDEN
 62
     7
370
     0
100
AcDbLine
 10
120.0735964797
 20
125.4806346881
 30
0.0
 11
120.0735964797
 21
127.3873591492
 31
0.0
  0
LINE
  5
13E
330
1F
100
AcDbEntity
  8
0
  6
HIDDEN
 62
     7
370
     0
100
AcDbLine
 10
108.0735964797
 20
87.7627628992
 30
0.0
 11
108.1677572552
 21
88.4327516304
 31
0.0
  0
LINE
  5
13F
330
1F
100
AcDbEntity
  8
0
  6
HIDDEN
 62
     7
370
     0
100
AcDbLine
 10
108.1677572552
 20
137.7406364599
 30
0.0
 11
108.0735964797
 21
138.4106251912
 31
0.0
  0
ARC
  5
140
330
1F
100
AcDbEntity
  8
0
  6
HIDDEN
 62
     7
370
     0
100
AcDbCircle
 10
107.573589727
 20
88.5162564308
 30
0.0
 40
0.60000675266771
100
AcDbArc
 50
352.0
 51
0.0
  0
ARC
  5
141
330
1F
100
AcDbEntity
  8
0
  6
HIDDEN
 62
     7
370
     0
100
AcDbCircle
 10
107.573589727
 20
88.5162564308
 30
0.0
 40
0.6000067526677164
100
AcDbArc
 50
0.0
 51
33.5571153394
  0
ARC
  5
142
330
1F
100
AcDbEntity
  8
0
  6
HIDDEN
 62
     7
370
     0
100
AcDbCircle
 10
107.573589727
 20
137.6571316596
 30
0.0
 40
0.6000067526677169
100
AcDbArc
 50
348.75
 51
8.0
  0
LWPOLYLINE
  5
143
330
1F
100
AcDbEntity
  8
0
  6
HIDDEN
 62
     7
370
     0
100
AcDbPolyline
 90
        3
 70
   128
 43
0.0
 10
108.1620675182
 20
137.540076149
 10
108.1279236852
 20
137.427519016
 10
108.0735964797
 20
137.3254671445
  0
LINE
  5
144
330
1F
100
AcDbEntity
  8
0
  6
HIDDEN
 62
     7
370
     0
100
AcDbLine
 10
108.1735964797
 20
88.5162564308
 30
0.0
 11
108.1735964797
 21
137.6571316596
 31
0.0
  0
ARC
  5
145
330
1F
100
AcDbEntity
  8
0
  6
HIDDEN
 62
     7
370
     0
100
AcDbCircle
 10
91.156032045
 20
93.6866940452
 30
0.0
 40
0.6000000000000085
100
AcDbArc
 50
210.0
 51
270.0
  0
ARC
  5
146
330
1F
100
AcDbEntity
  8
0
  6
HIDDEN
 62
     7
370
     0
100
AcDbCircle
 10
91.156032045
 20
132.4866940452
 30
0.0
 40
0.5999999999999943
100
AcDbArc
 50
90.0
 51
150.0
  0
ARC
  5
147
330
1F
100
AcDbEntity
  8
0
  6
HIDDEN
 62
     7
370
     0
100
AcDbCircle
 10
101.8285984813
 20
101.0866940452
 30
0.0
 40
8.000000000000025
100
AcDbArc
 50
277.0631820935
 51
321.3178125465
  0
ARC
  5
148
330
1F
100
AcDbEntity
  8
0
  6
HIDDEN
 62
     7
370
     0
100
AcDbCircle
 10
101.8285984813
 20
125.0866940452
 30
0.0
 40
8.000000000000025
100
AcDbArc
 50
38.6821874535
 51
82.9437856313
  0
LINE
  5
149
330
1F
100
AcDbEntity
  8
0
  6
HIDDEN
 62
     7
370
     0
100
AcDbLine
 10
91.156032045
 20
93.0866940452
 30
0.0
 11
95.3335686214
 21
93.0866940452
 31
0.0
  0
LINE
  5
14A
330
1F
100
AcDbEntity
  8
0
  6
HIDDEN
 62
     7
370
     0
100
AcDbLine
 10
95.3267138609
 20
133.0866940452
 30
0.0
 11
91.156032045
 21
133.0866940452
 31
0.0
  0
LINE
  5
14B
330
1F
100
AcDbEntity
  8
0
  6
HIDDEN
 62
     7
370
     0
100
AcDbLine
 10
90.6364168027
 20
132.7866940452
 30
0.0
 11
89.0775710759
 21
130.0866940452
 31
0.0
  0
LINE
  5
14C
330
1F
100
AcDbEntity
  8
0
  6
HIDDEN
 62
     7
370
     0
100
AcDbLine
 10
89.0775710759
 20
96.0866940452
 30
0.0
 11
90.6364168027
 21
93.3866940452
 31
0.0
  0
LINE
  5
14D
330
1F
100
AcDbEntity
  8
0
  6
HIDDEN
 62
     7
370
     0
100
AcDbLine
 10
112.0735964797
 20
140.3610279044
 30
0.0
 11
112.0735964797
 21
137.0322964598
 31
0.0
  0
LINE
  5
14E
330
1F
100
AcDbEntity
  8
0
  6
HIDDEN
 62
     7
370
     0
100
AcDbLine
 10
120.0735964797
 20
137.0322964598
 30
0.0
 11
120.0735964797
 21
140.3663602831
 31
0.0
  0
ARC
  5
14F
330
1F
100
AcDbEntity
  8
0
  6
HIDDEN
 62
     7
370
     0
100
AcDbCircle
 10
116.5235964797
 20
97.3616940452
 30
0.0
 40
1.500000000000001
100
AcDbArc
 50
238.2116693829
 51
0.0
  0
ARC
  5
150
330
1F
100
AcDbEntity
  8
0
  6
HIDDEN
 62
     7
370
     0
100
AcDbCircle
 10
116.5235964797
 20
128.8116940452
 30
0.0
 40
1.500000000000001
100
AcDbArc
 50
0.0
 51
121.7883306171
  0
LINE
  5
151
330
1F
100
AcDbEntity
  8
0
  6
HIDDEN
 62
     7
370
     0
100
AcDbLine
 10
108.0735964797
 20
96.0866940452
 30
0.0
 11
115.7334224482
 21
96.0866940452
 31
0.0
  0
LINE
  5
152
330
1F
100
AcDbEntity
  8
0
  6
HIDDEN
 62
     7
370
     0
100
AcDbLine
 10
115.7334224482
 20
130.0866940452
 30
0.0
 11
108.0735964797
 21
130.0866940452
 31
0.0
  0
LINE
  5
153
330
1F
100
AcDbEntity
  8
0
  6
HIDDEN
 62
     7
370
     0
100
AcDbLine
 10
86.2735964797
 20
96.0866940452
 30
0.0
 11
89.0775710759
 21
96.0866940452
 31
0.0
  0
LINE
  5
154
330
1F
100
AcDbEntity
  8
0
  6
HIDDEN
 62
     7
370
     0
100
AcDbLine
 10
89.0775710759
 20
130.0866940452
 30
0.0
 11
82.2735964797
 21
130.0866940452
 31
0.0
  0
ARC
  5
155
330
1F
100
AcDbEntity
  8
0
  6
HIDDEN
 62
     7
370
     0
100
AcDbCircle
 10
217.5735964797
 20
100.0866940452
 30
0.0
 40
0.5
100
AcDbArc
 50
0.0
 51
90.0
  0
ARC
  5
156
330
1F
100
AcDbEntity
  8
0
  6
HIDDEN
 62
     7
370
     0
100
AcDbCircle
 10
217.5735964797
 20
126.0866940452
 30
0.0
 40
0.5
100
AcDbArc
 50
270.0
 51
0.0
  0
LINE
  5
157
330
1F
100
AcDbEntity
  8
0
  6
HIDDEN
 62
     7
370
     0
100
AcDbLine
 10
159.4735964797
 20
100.2866940452
 30
0.0
 11
164.1788224616
 21
100.2866940452
 31
0.0
  0
LINE
  5
158
330
1F
100
AcDbEntity
  8
0
  6
HIDDEN
 62
     7
370
     0
100
AcDbLine
 10
164.1788224616
 20
125.8866940452
 30
0.0
 11
159.4735964797
 21
125.8866940452
 31
0.0
  0
ARC
  5
159
330
1F
100
AcDbEntity
  8
0
  6
HIDDEN
 62
     7
370
     0
100
AcDbCircle
 10
159.4735964797
 20
100.6866940452
 30
0.0
 40
0.3999999999999915
100
AcDbArc
 50
180.0
 51
270.0
  0
ARC
  5
15A
330
1F
100
AcDbEntity
  8
0
  6
HIDDEN
 62
     7
370
     0
100
AcDbCircle
 10
159.4735964797
 20
125.4866940452
 30
0.0
 40
0.3999999999999773
100
AcDbArc
 50
90.0
 51
180.0
  0
LINE
  5
15B
330
1F
100
AcDbEntity
  8
0
  6
HIDDEN
 62
     7
370
     0
100
AcDbLine
 10
165.0735964797
 20
100.5866940452
 30
0.0
 11
217.5735964797
 21
100.5866940452
 31
0.0
  0
LINE
  5
15C
330
1F
100
AcDbEntity
  8
0
  6
HIDDEN
 62
     7
370
     0
100
AcDbLine
 10
217.5735964797
 20
125.5866940452
 30
0.0
 11
165.0735964797
 21
125.5866940452
 31
0.0
  0
ARC
  5
15D
330
1F
100
AcDbEntity
  8
0
  6
HIDDEN
 62
     7
370
     0
100
AcDbCircle
 10
164.1788224616
 20
100.6866940452
 30
0.0
 40
0.4000000000000014
100
AcDbArc
 50
270.0
 51
290.0
  0
ARC
  5
15E
330
1F
100
AcDbEntity
  8
0
  6
HIDDEN
 62
     7
370
     0
100
AcDbCircle
 10
164.1788224616
 20
125.4866940452
 30
0.0
 40
0.3999999999999773
100
AcDbArc
 50
70.0
 51
90.0
  0
LINE
  5
15F
330
1F
100
AcDbEntity
  8
0
  6
HIDDEN
 62
     7
370
     0
100
AcDbLine
 10
164.3156305189
 20
100.3108169969
 30
0.0
 11
165.0735964797
 21
100.5866940452
 31
0.0
  0
LINE
  5
160
330
1F
100
AcDbEntity
  8
0
  6
HIDDEN
 62
     7
370
     0
100
AcDbLine
 10
165.0735964797
 20
125.5866940452
 30
0.0
 11
164.3156305189
 21
125.8625710935
 31
0.0
  0
LINE
  5
161
330
1F
100
AcDbEntity
  8
0
  6
HIDDEN
 62
     7
370
     0
100
AcDbLine
 10
126.8735964797
 20
103.5866940452
 30
0.0
 11
129.8735964797
 21
103.5866940452
 31
0.0
  0
LINE
  5
162
330
1F
100
AcDbEntity
  8
0
  6
HIDDEN
 62
     7
370
     0
100
AcDbLine
 10
129.8735964797
 20
122.5866940452
 30
0.0
 11
126.8735964797
 21
122.5866940452
 31
0.0
  0
LINE
  5
163
330
1F
100
AcDbEntity
  8
0
  6
HIDDEN
 62
     7
370
     0
100
AcDbLine
 10
118.0235964797
 20
104.0866940452
 30
0.0
 11
118.5235964797
 21
104.5866940452
 31
0.0
  0
LINE
  5
164
330
1F
100
AcDbEntity
  8
0
  6
HIDDEN
 62
     7
370
     0
100
AcDbLine
 10
118.5235964797
 20
121.5866940452
 30
0.0
 11
118.0235964797
 21
122.0866940452
 31
0.0
  0
LINE
  5
165
330
1F
100
AcDbEntity
  8
0
  6
HIDDEN
 62
     7
370
     0
100
AcDbLine
 10
118.5235964797
 20
104.5866940452
 30
0.0
 11
126.8735964797
 21
104.5866940452
 31
0.0
  0
LINE
  5
166
330
1F
100
AcDbEntity
  8
0
  6
HIDDEN
 62
     7
370
     0
100
AcDbLine
 10
126.8735964797
 20
121.5866940452
 30
0.0
 11
118.5235964797
 21
121.5866940452
 31
0.0
  0
LINE
  5
167
330
1F
100
AcDbEntity
  8
0
  6
HIDDEN
 62
     7
370
     0
100
AcDbLine
 10
113.0235964797
 20
144.5866940452
 30
0.0
 11
113.0235964797
 21
139.4866940452
 31
0.0
  0
LINE
  5
168
330
1F
100
AcDbEntity
  8
0
  6
HIDDEN
 62
     7
370
     0
100
AcDbLine
 10
103.2580343102
 20
89.0073227116
 30
0.0
 11
102.8236021607
 21
89.4863887307
 31
0.0
  0
LINE
  5
169
330
1F
100
AcDbEntity
  8
0
  6
HIDDEN
 62
     7
370
     0
100
AcDbLine
 10
95.3235988356
 20
89.9080766899
 30
0.0
 11
94.8411650923
 21
89.4290107144
 31
0.0
  0
LINE
  5
16A
330
1F
100
AcDbEntity
  8
0
  6
HIDDEN
 62
     7
370
     0
100
AcDbLine
 10
94.841043164
 20
136.7443720855
 30
0.0
 11
95.323593915
 21
136.2652518276
 31
0.0
  0
LINE
  5
16B
330
1F
100
AcDbEntity
  8
0
  6
HIDDEN
 62
     7
370
     0
100
AcDbLine
 10
102.8235963617
 20
136.6869496053
 30
0.0
 11
103.258138752
 21
137.1660698558
 31
0.0
  0
LINE
  5
16C
330
1F
100
AcDbEntity
  8
0
  6
HIDDEN
 62
     7
370
     0
100
AcDbLine
 10
129.8735964797
 20
108.8866940452
 30
0.0
 11
159.0735964797
 21
108.8866940452
 31
0.0
  0
LINE
  5
16D
330
1F
100
AcDbEntity
  8
0
  6
HIDDEN
 62
     7
370
     0
100
AcDbLine
 10
159.0735964797
 20
117.2866940452
 30
0.0
 11
129.8735964797
 21
117.2866940452
 31
0.0
  0
LINE
  5
16E
330
1F
100
AcDbEntity
  8
0
  6
HIDDEN
 62
     7
370
     0
100
AcDbLine
 10
102.8235964797
 20
89.4868726324
 30
0.0
 11
102.8235964797
 21
93.1496212191
 31
0.0
  0
LINE
  5
16F
330
1F
100
AcDbEntity
  8
0
  6
HIDDEN
 62
     7
370
     0
100
AcDbLine
 10
95.3235964797
 20
93.0885562908
 30
0.0
 11
95.3235964797
 21
89.9083999277
 31
0.0
  0
LINE
  5
170
330
1F
100
AcDbEntity
  8
0
  6
HIDDEN
 62
     7
370
     0
100
AcDbLine
 10
102.8235964797
 20
133.0237668712
 30
0.0
 11
102.8235964797
 21
136.6866582992
 31
0.0
  0
LINE
  5
171
330
1F
100
AcDbEntity
  8
0
  6
HIDDEN
 62
     7
370
     0
100
AcDbLine
 10
95.3235964797
 20
136.2651080484
 30
0.0
 11
95.3235964797
 21
133.0861097839
 31
0.0
  0
LINE
  5
172
330
1F
100
AcDbEntity
  8
VERMASSUNG
100
AcDbLine
 10
150.0735964797
 20
139.0866940452
 30
0.0
 11
150.0735964797
 21
87.0866940452
 31
0.0
  0
LINE
  5
173
330
1F
100
AcDbEntity
  8
VERMASSUNG
100
AcDbLine
 10
153.2490229602
 20
144.5866940452
 30
0.0
 11
153.2490229602
 21
81.5866940452
 31
0.0
  0
LINE
  5
174
330
1F
100
AcDbEntity
  8
VERMASSUNG
100
AcDbLine
 10
209.0735964797
 20
144.5866940452
 30
0.0
 11
209.0735964797
 21
81.5866940452
 31
0.0
  0
DIMENSION
  5
175
330
1F
100
AcDbEntity
  8
VERMASSUNG
100
AcDbDimension
  2
*D1
 10
69.8509789512
 20
81.5866940452
 30
0.0
 11
69.8509789512
 21
112.6425705721
 31
0.0
 70
   160
  1
HSK A%%c<>
 71
     2
 42
-1.0
  3
SLDDIMSTYLE0
100
AcDbAlignedDimension
 13
108.3735964797
 23
144.5866940452
 33
0.0
 14
108.3735964797
 24
81.5866940452
 34
0.0
 50
90.0
100
AcDbRotatedDimension
  0
DIMENSION
  5
182
330
1F
100
AcDbEntity
  8
VERMASSUNG
100
AcDbDimension
  2
*D2
 10
134.0235964797
 20
153.1458661198
 30
0.0
 11
172.0103070649
 21
153.1458661198
 31
0.0
 70
   160
 71
     2
 42
-1.0
  3
SLDDIMSTYLE0
100
AcDbAlignedDimension
 13
218.0735964797
 23
134.7582669204
 33
0.0
 14
134.0235964797
 24
142.9331343689
 34
0.0
100
AcDbRotatedDimension
  0
DIMENSION
  5
18C
330
1F
100
AcDbEntity
  8
VERMASSUNG
100
AcDbDimension
  2
*D3
 10
108.0735964797
 20
159.1458661198
 30
0.0
 11
161.6357070064
 21
159.1458661198
 31
0.0
 70
   160
 71
     2
 42
-1.0
  3
SLDDIMSTYLE0
100
AcDbAlignedDimension
 13
218.0735964797
 23
134.7582669204
 33
0.0
 14
108.0735964797
 24
144.2866940452
 34
0.0
100
AcDbRotatedDimension
  0
DIMENSION
  5
196
330
1F
100
AcDbEntity
  8
VERMASSUNG
100
AcDbDimension
  2
*D4
 10
76.1735964797
 20
165.1458661198
 30
0.0
 11
144.0479487294
 21
165.1458661198
 31
0.0
 70
   160
 71
     2
 42
-1.0
  3
SLDDIMSTYLE0
100
AcDbAlignedDimension
 13
218.0735964797
 23
134.7582669204
 33
0.0
 14
76.1735964797
 24
132.7773717917
 34
0.0
100
AcDbRotatedDimension
  0
DIMENSION
  5
1A0
330
1F
100
AcDbEntity
  8
VERMASSUNG
100
AcDbDimension
  2
*D5
 10
225.424295589
 20
100.5866940452
 30
0.0
 11
225.424295589
 21
112.4773635122
 31
0.0
 70
   160
  1
%%c<>
 71
     2
 42
-1.0
  3
SLDDIMSTYLE0
100
AcDbAlignedDimension
 13
217.5735964797
 23
125.5866940452
 33
0.0
 14
217.5735964797
 24
100.5866940452
 34
0.0
 50
90.0
100
AcDbRotatedDimension
  0
DIMENSION
  5
1AB
330
1F
100
AcDbEntity
  8
VERMASSUNG
100
AcDbDimension
  2
*D6
 10
231.424295589
 20
81.5866940452
 30
0.0
 11
231.424295589
 21
112.4773635122
 31
0.0
 70
   160
  1
%%c<>
 71
     2
 42
-1.0
  3
SLDDIMSTYLE0
100
AcDbAlignedDimension
 13
208.2451693549
 23
144.5866940452
 33
0.0
 14
208.2451693549
 24
81.5866940452
 34
0.0
 50
90.0
100
AcDbRotatedDimension
  0
LINE
  5
1B6
330
1F
100
AcDbEntity
  8
VERMASSUNG
  6
CENTERX2
 62
     7
370
     0
100
AcDbLine
 10
120.2692168254
 20
139.4430093313
 30
0.0
 11
120.2692168254
 21
128.8370979665
 31
0.0
  0
LINE
  5
1B7
330
1F
100
AcDbEntity
  8
VERMASSUNG
  6
CENTERX2
 62
     7
370
     0
100
AcDbLine
 10
74.0282926374
 20
113.0866940452
 30
0.0
 11
219.848006704
 21
113.0866940452
 31
0.0
  0
OLE2FRAME
  5
1B8
330
1F
100
AcDbEntity
  8
0
100
AcDbOle2Frame
 70
     2
  3
Bitmap Image
 10
13.8511154363
 20
38.264191557
 30
0.0
 11
51.6290888628
 21
31.9806341108
 31
0.0
 71
     2
 72
     0
 73
     1
 90
    12928
310
80552BED0767C5B32B40DDAF6807D121434000000000000000006FFBDDFB85D0
310
4940DDAF6807D121434000000000000000006FFBDDFB85D04940416F4BD60AFB
310
3F4000000000000000002BED0767C5B32B40416F4BD60AFB3F40000000000000
310
0000000000000100000000010000010000000100000000000100000000320000
310
D0CF11E0A1B11AE1000000000000000000000000000000003E000300FEFF0900
310
0600000000000000000000000100000001000000000000000010000002000000
310
01000000FEFFFFFF0000000000000000FFFFFFFFFFFFFFFFFFFFFFFFFFFFFFFF
310
FFFFFFFFFFFFFFFFFFFFFFFFFFFFFFFFFFFFFFFFFFFFFFFFFFFFFFFFFFFFFFFF
310
FFFFFFFFFFFFFFFFFFFFFFFFFFFFFFFFFFFFFFFFFFFFFFFFFFFFFFFFFFFFFFFF
310
FFFFFFFFFFFFFFFFFFFFFFFFFFFFFFFFFFFFFFFFFFFFFFFFFFFFFFFFFFFFFFFF
310
FFFFFFFFFFFFFFFFFFFFFFFFFFFFFFFFFFFFFFFFFFFFFFFFFFFFFFFFFFFFFFFF
310
FFFFFFFFFFFFFFFFFFFFFFFFFFFFFFFFFFFFFFFFFFFFFFFFFFFFFFFFFFFFFFFF
310
FFFFFFFFFFFFFFFFFFFFFFFFFFFFFFFFFFFFFFFFFFFFFFFFFFFFFFFFFFFFFFFF
310
FFFFFFFFFFFFFFFFFFFFFFFFFFFFFFFFFFFFFFFFFFFFFFFFFFFFFFFFFFFFFFFF
310
FFFFFFFFFFFFFFFFFFFFFFFFFFFFFFFFFFFFFFFFFFFFFFFFFFFFFFFFFFFFFFFF
310
FFFFFFFFFFFFFFFFFFFFFFFFFFFFFFFFFFFFFFFFFFFFFFFFFFFFFFFFFFFFFFFF
310
FFFFFFFFFFFFFFFFFFFFFFFFFFFFFFFFFFFFFFFFFFFFFFFFFFFFFFFFFFFFFFFF
310
FFFFFFFFFFFFFFFFFFFFFFFFFFFFFFFFFFFFFFFFFFFFFFFFFFFFFFFFFFFFFFFF
310
FFFFFFFFFFFFFFFFFFFFFFFFFFFFFFFFFFFFFFFFFFFFFFFFFFFFFFFFFFFFFFFF
310
FFFFFFFFFFFFFFFFFFFFFFFFFFFFFFFFFFFFFFFFFFFFFFFFFFFFFFFFFFFFFFFF
310
FDFFFFFFFEFFFFFFFEFFFFFFFEFFFFFF05000000060000000700000008000000
310
090000000A0000000B0000000C0000000D0000000E0000000F00000010000000
310
11000000120000001300000014000000150000001600000017000000FEFFFFFF
310
FFFFFFFFFFFFFFFFFFFFFFFFFFFFFFFFFFFFFFFFFFFFFFFFFFFFFFFFFFFFFFFF
310
FFFFFFFFFFFFFFFFFFFFFFFFFFFFFFFFFFFFFFFFFFFFFFFFFFFFFFFFFFFFFFFF
310
FFFFFFFFFFFFFFFFFFFFFFFFFFFFFFFFFFFFFFFFFFFFFFFFFFFFFFFFFFFFFFFF
310
FFFFFFFFFFFFFFFFFFFFFFFFFFFFFFFFFFFFFFFFFFFFFFFFFFFFFFFFFFFFFFFF
310
FFFFFFFFFFFFFFFFFFFFFFFFFFFFFFFFFFFFFFFFFFFFFFFFFFFFFFFFFFFFFFFF
310
FFFFFFFFFFFFFFFFFFFFFFFFFFFFFFFFFFFFFFFFFFFFFFFFFFFFFFFFFFFFFFFF
310
FFFFFFFFFFFFFFFFFFFFFFFFFFFFFFFFFFFFFFFFFFFFFFFFFFFFFFFFFFFFFFFF
310
FFFFFFFFFFFFFFFFFFFFFFFFFFFFFFFFFFFFFFFFFFFFFFFFFFFFFFFFFFFFFFFF
310
FFFFFFFFFFFFFFFFFFFFFFFFFFFFFFFFFFFFFFFFFFFFFFFFFFFFFFFFFFFFFFFF
310
FFFFFFFFFFFFFFFFFFFFFFFFFFFFFFFFFFFFFFFFFFFFFFFFFFFFFFFFFFFFFFFF
310
FFFFFFFFFFFFFFFFFFFFFFFFFFFFFFFFFFFFFFFFFFFFFFFFFFFFFFFFFFFFFFFF
310
FFFFFFFFFFFFFFFFFFFFFFFFFFFFFFFFFFFFFFFFFFFFFFFFFFFFFFFFFFFFFFFF
310
FFFFFFFFFFFFFFFFFFFFFFFFFFFFFFFFFFFFFFFFFFFFFFFFFFFFFFFFFFFFFFFF
310
52006F006F007400200045006E00740072007900000000000000000000000000
310
0000000000000000000000000000000000000000000000000000000000000000
310
16000500FFFFFFFFFFFFFFFF020000000A00030000000000C000000000000046
310
00000000000000000000000010EA10CE2CFFCB0103000000C000000000000000
310
01004F006C006500000000000000000000000000000000000000000000000000
310
0000000000000000000000000000000000000000000000000000000000000000
310
0A000200FFFFFFFFFFFFFFFFFFFFFFFF00000000000000000000000000000000
310
0000000000000000000000000000000000000000000000001400000000000000
310
010043006F006D0070004F0062006A0000000000000000000000000000000000
310
0000000000000000000000000000000000000000000000000000000000000000
310
120002010100000003000000FFFFFFFF00000000000000000000000000000000
310
0000000000000000000000000000000000000000010000004D00000000000000
310
01004F006C006500310030004E00610074006900760065000000000000000000
310
0000000000000000000000000000000000000000000000000000000000000000
310
1A000200FFFFFFFFFFFFFFFFFFFFFFFF00000000000000000000000000000000
310
0000000000000000000000000000000000000000040000002426000000000000
310
FEFFFFFF02000000FEFFFFFFFFFFFFFFFFFFFFFFFFFFFFFFFFFFFFFFFFFFFFFF
310
FFFFFFFFFFFFFFFFFFFFFFFFFFFFFFFFFFFFFFFFFFFFFFFFFFFFFFFFFFFFFFFF
310
FFFFFFFFFFFFFFFFFFFFFFFFFFFFFFFFFFFFFFFFFFFFFFFFFFFFFFFFFFFFFFFF
310
FFFFFFFFFFFFFFFFFFFFFFFFFFFFFFFFFFFFFFFFFFFFFFFFFFFFFFFFFFFFFFFF
310
FFFFFFFFFFFFFFFFFFFFFFFFFFFFFFFFFFFFFFFFFFFFFFFFFFFFFFFFFFFFFFFF
310
FFFFFFFFFFFFFFFFFFFFFFFFFFFFFFFFFFFFFFFFFFFFFFFFFFFFFFFFFFFFFFFF
310
FFFFFFFFFFFFFFFFFFFFFFFFFFFFFFFFFFFFFFFFFFFFFFFFFFFFFFFFFFFFFFFF
310
FFFFFFFFFFFFFFFFFFFFFFFFFFFFFFFFFFFFFFFFFFFFFFFFFFFFFFFFFFFFFFFF
310
FFFFFFFFFFFFFFFFFFFFFFFFFFFFFFFFFFFFFFFFFFFFFFFFFFFFFFFFFFFFFFFF
310
FFFFFFFFFFFFFFFFFFFFFFFFFFFFFFFFFFFFFFFFFFFFFFFFFFFFFFFFFFFFFFFF
310
FFFFFFFFFFFFFFFFFFFFFFFFFFFFFFFFFFFFFFFFFFFFFFFFFFFFFFFFFFFFFFFF
310
FFFFFFFFFFFFFFFFFFFFFFFFFFFFFFFFFFFFFFFFFFFFFFFFFFFFFFFFFFFFFFFF
310
FFFFFFFFFFFFFFFFFFFFFFFFFFFFFFFFFFFFFFFFFFFFFFFFFFFFFFFFFFFFFFFF
310
FFFFFFFFFFFFFFFFFFFFFFFFFFFFFFFFFFFFFFFFFFFFFFFFFFFFFFFFFFFFFFFF
310
FFFFFFFFFFFFFFFFFFFFFFFFFFFFFFFFFFFFFFFFFFFFFFFFFFFFFFFFFFFFFFFF
310
FFFFFFFFFFFFFFFFFFFFFFFFFFFFFFFFFFFFFFFFFFFFFFFFFFFFFFFFFFFFFFFF
310
010000020000000000000000000000000000000061007200410082005C003105
310
D806250000000000D806250000000000680061007200650064005C003B004300
310
0100FEFF030A0000FFFFFFFF0A00030000000000C00000000000004607000000
310
5042727573680007000000504272757368000700000050427275736800F439B2
310
71000000000000000000000000004100540049002E004100430045005C004300
310
6F00720065002D005300740061007400690063003B0043003A005C0050007200
310
6F006700720061006D002000460069006C006500730020002800780038003600
310
29005C0043006F006D006D006F006E002000460069006C00650073005C004100
310
750074006F006400650073006B0020005300680061007200650064005C003B00
310
43003A005C00500072006F006700720061006D002000460069006C0065007300
310
5C004E006F0072006D0061006E005C004E0070006D005C00420069006E000000
310
43003A005C00500072006F006700720061006D002000460069006C0065007300
310
5C0053006F006C006900640057006F0072006B007300200043006F0072007000
310
5C0053006F006C006900640057006F0072006B00730020002800320029005C00
310
730065007400750070005C0069003300380036005C0073007700610063007400
310
770069007A002E006500780065000000220043003A005C00500072006F006700
310
20260000424D0E260000000000003E00000028000000B40200006E0000000100
310
01000000000000000000130B0000130B00000200000002000000000000FFFFFF
310
FFFFFFFFFFFFFFFFFFFFFFFFFFFFFFFFFFFFFFFFFFFFFFFFFFFFFFFFFFFFFFFF
310
FFFFFFFFFFFFFFFFFFFFFFFFFFFFFFFFFFFFFFFFFFFFFFFFFFFFFFFFFFFFFFFF
310
FFFFFFFFFFFFFFFFFFFFFFFFFFFFFFFFFFFFFFFFFFFFFFFFF000FFFFFFFFFFFF
310
FFFFFFFFFFFFFFFFFFFFFFFFFFFFFFFFFFFFFFFFFFFFFFFFFFFFFFFFFFFFFFFF
310
FFFFFFFFFFFFFFFFFFFFFFFFFFFFFFFFFFFFFFFFFFFFFFFFFFFFFFFFFFFFFFFF
310
FFFFFFFFFFFFFFFFFFFFFFFFFFFFFFFFF000FFFFFFFFFFFFFFFFFFFFFFFFFFFF
310
FFFFFFFFFFFFFFFFFFFFFFFFFFFFFFFFFFFFFFFFFFFFFFFFFFFFFFFFFFFFFFFF
310
FFFFFFFFFFFFFFFFFFFFFFFFFFFFFFFFFFFFFFFFFFFFFFFFFFFFFFFFFFFFFFFF
310
FFFFFFFFFFFFFFFFF000FFFFFFFFFFFFFFFFFFFFFFFFFFFFFFFFFFFFFFFFFFFF
310
FFFFFFFFFFFFFFFFFFFFFFFFFFFFFFFFFFFFFFFFFFFFFFFFFFFFFFFFFFFFFFFF
310
FFFFFFFFFFFFFFFFFFFFFFFFFFFFFFFFFFFFFFFFFFFFFFFFFFFFFFFFFFFFFFFF
310
F000FFFFFFFFFFFFFFFFFFFFFFFFFFFFFFFFFFFFFFFFFFFFFFFFFFFFFFFFFFFF
310
FFFFFFFFFFFFFFFFFFFFFFFFFFFFFFFFFFFFFFFFFFFFFFFFFFFFFFFFFFFFFFFF
310
FFFFFFFFFFFFFFFFFFFFFFFFFFFFFFFFFFFFFFFFFFFFFFFFF000FFFFFFFFFFFF
310
FFFFFFFFFFFFFFFFFFFFFFFFFFFFFFFFFFFFFFFFFFFFFFFFFFFFFFFFFFFFFFFF
310
FFFFFFFFFFFFFFFFFFFFFFFFFFFFFFFFFFFFFFFFFFFFFFFFFFFFFFFFFFFFFFFF
310
FFFFFFFFFFFFFFFFFFFFFFFFFFFFFFFFF000FFFFFFFFFFFFFFFFFFFFFFFFFFFF
310
FFFFFFFFFFFFFFFFFFFFFFFFFFFFFFFFFFFFFFFFFFFFFFFFFFFFFFFFFFFFFFFF
310
FFFFFFFFFFFFFFFFFFFFFFFFFFFFFFFFFFFFFFFFFFFFFFFFFFFFFFFFFFFFFFFF
310
FFFFFFFFFFFFFFFFF000FFFFFFFFFFFFFFFFFFFFFFFFFFFFFFFFFFFFFFFFFFFF
310
FFFFFFFFFFFFFFFFFFFFFFFFFFFFFFFFFFFFFFFFFFFFFFFFFFFFFFFFFFFFFFFF
310
FFFFFFFFFFFFFFFFFFFFFFFFFFFFFFFFFFFFFFFFFFFFFFFFFFFFFFFFFFFFFFFF
310
F000FFFFFFFFFFFFFFFFFFFFFFFFFFFFFFFFFFFFFFFFFFFFFFFFFFFFFFFFFFFF
310
FFFFFFFFFFFFFFFFFFFFFFFFFFFFFFFFFFFFFFFFFFFFFFFFFFFFFFFFFFFFFFFF
310
FFFFFFFFFFFFFFFFFFFFFFFFFFFFFFFFFFFFFFFFFFFFFFFFF000FFFFFFFFFFFF
310
FFFFFFFFFFFFFFFFFFFFFFFFFFFFFFFFFFFFFFFFFFFFFFFFFFFFFFFFFFFFFFFF
310
FFFFFFFFFFFFFFFFFFFFFFFFFFFFFFFFFFFFFFFFFFFFFFFFFFFFFFFFFFFFFFFF
310
FFFFFFFFFFFFFFFFFFFFFFFFFFFFFFFFF000FFFFFFFFFFFFFFFFFFFFFFFFFFFF
310
FFFFFFFFFFFFFFFFFFFFFFFFFFFFFFFFFFFFFFFFFFFFFFFFFFFFFFFFFFFFFFFF
310
FFFFFFFFFFFFFFFFFFFFFFFFFFFFFFFFFFFFFFFFFFFFFFFFFFFFFFFFFFFFFFFF
310
FFFFFFFFFFFFFFFFF000FFFFFFFFFFFFFFFFFFFFFFFFFFFFFFFFFFFFFFFFFFFF
310
FFFFFFFFFFFFFFFFFFFFFFFFFFFFFFFFFFFFFFFFFFFFFFFFFFFFFFFFFFFFFFFF
310
FFFFFFFFFFFFFFFFFFFFFFFFFFFFFFFFFFFFFFFFFFFFFFFFFFFFFFFFFFFFFFFF
310
F000FFFFFFFFFFFFFFFFFFFFFFFFFFFFFFFFFFFFFFFFFFFFFFFFFFFFFFFFFFFF
310
FFFFFFFFFFFFFFFFFFFFFFFFFFFFFFFFFFFFFFFFFFFFFFFFFFFFFFFFFFFFFFFF
310
FFFFFFFFFFFFFFFFFFFFFFFFFFFFFFFFFFFFFFFFFFFFFFFFF000FFFFFFFFFFFF
310
FFFFFFFFFFFFFFFFFFFFFFFFFFFFFFFFFFFFFFFFFFFFFFFFFFFFFFFFFFFFFFFF
310
FFFFFFFFFFFFFFFFFFFFFFFFFFFFFFFFFFFFFFFFFFFFFFFFFFFFFFFFFFFFFFFF
310
FFFFFFFFFFFFFFFFFFFFFFFFFFFFFFFFF000FFFFFFFFFFFFFFFFFFFFFFFFFFFF
310
FFFFFFFFFFFFFFFFFFFFFFFFFFFFFFFFFFFFFFFFFFFFFFFFFFFFFFFFFFFFFFFF
310
FFFFFFFFFFFFFFFFFFFFFFFFFFFFFFFFFFFFFFFFFFFFFFFFFFFFFFFFFFFFFFFF
310
FFFFFFFFFFFFFFFFF000FFFFFFFFFFFFFFFFFFFFFFFFFFFFFFFFFFFFFFFFFFFF
310
FFFFFFFFFFFFFFFFFFFFFFFFFFFFFFFFFFFFFFFFFFFFFFFFFFFFFFFFFFFFFFFF
310
FFFFFFFFFFFFFFFFFFFFFFFFFFFFFFFFFFFFFFFFFFFFFFFFFFFFFFFFFFFFFFFF
310
F000FFFFFFFFFFFFFFFFFFFFFFFFFFFFFFFFFFFFFFFFFFFFFFFFFFFFFFFFFFFF
310
FFFFFFFFFFFFFFFFFFFFFFFFFFFFFFFFFFFFFFFFFFFFFFFFFFFFFFFFFFFFFFFF
310
FFFFFFFFFFFFFFFFFFFFFFFFFFFFFFFFFFFFFFFFFFFFFFFFF000FFFFFFFFFFFF
310
FFFFFFFFFFFFFFFFFFFFFFFFFFFFFFFFFFFFFFFFFFFFFFFFFFFFFFFFFFFFFFFF
310
FFFFFFFFFFFFFFFFFFFFFFFFFFFFFFFFFFFFFFFFFFFFFFFFFFFFFFFFFFFFFFFF
310
FFFFFFFFFFFFFFFFFFFFFFFFFFFFFFFFF000FFFFFFFFFFFFFFFFFFFFFFFFFFFF
310
FFFFFFFFFFFFFFFFFFFFFFFFFFFFFFFFFFFFFFFFFFFFFFFFFFFFFFFFFFFFFFFF
310
FFFFFFFFFFFFFFFFFFFFFFFFFFFFFFFFFFFFFFFFFFFFFFFFFFFFFFFFFFFFFFFF
310
FFFFFFFFFFFFFFFFF000FFFFF80003FFFFFFFFFFFFFFFFFFFFFFFFFFFFFFFFFF
310
FFFFF00007FFFFFFFFFF00007FFFFFF800000000000000007FFFFFFFFFFFFFFF
310
FFFFFFFC001FFFFFFFFFFFFFFC001FFFFFFFFFFFFFFFFFFFFFFFFFFE0007FFFF
310
F000FFFF8000007FFFFFFFF8000FFFFFC0007FFFFF80007FFFFF0000007FFFFF
310
FFF8000007FFFFF800000000000000007FFFFFF0001FFFFFFFFFFFC00001FFFF
310
FFFFFFFFC00001FFFFFFFF000000000003FFFFE000007FFFF000FFFE0000000F
310
FFFFFFF0000FFFFF80007FFFFF80007FFFFC0000001FFFFFFFC0000001FFFFF8
310
00000000000000007FFFFFF0001FFFFFFFFFFE0000003FFFFFFFFFFE0000003F
310
FFFFFF000000000003FFFF0000000FFFF000FFF800000003FFFFFFF00007FFFF
310
80007FFFFF80007FFFF000000007FFFFFF000000003FFFF80000000000000000
310
7FFFFFF0001FFFFFFFFFF80000000FFFFFFFFFF80000000FFFFFFF0000000000
310
03FFFC00000003FFF000FFE000000000FFFFFFF00007FFFF80003FFFFF80007F
310
FFC000000001FFFFFC000000001FFFF800000000000000007FFFFFF0001FFFFF
310
FFFFE000000003FFFFFFFFE000000003FFFFFF000000000003FFF000000000FF
310
F000FF80000000007FFFFFF00007FFFF80003FFFFF80007FFF8000000000FFFF
310
F80000000007FFF800000000000000007FFFFFF0001FFFFFFFFFC000000001FF
310
FFFFFFC000000001FFFFFF000000000003FFC0000000007FF000FF0000000000
310
3FFFFFE00007FFFF00003FFFFF80007FFE00000000003FFFF00000000003FFF8
310
00000000000000007FFFFFF0001FFFFFFFFF8000000000FFFFFFFF8000000000
310
FFFFFF000000000003FF80000000003FF000FE00000000001FFFFFE00003FFFF
310
00003FFFFF80007FFC00000000001FFFE00000000001FFF8000001FFFE000000
310
7FFFFFF0001FFFFFFFFE00000000003FFFFFFE00000000003FFFFF0000000000
310
03FF00000000001FF000FC00000000000FFFFFE00003FFFF00001FFFFF80007F
310
F800000000001FFFC00000000000FFF8000001FFFE0000007FFFFFF0001FFFFF
310
FFFC00000000001FFFFFFC00000000001FFFFF000000000003FE00000000000F
310
F000F8000000000007FFFFE00003FFFF00001FFFFF80007FF800000000000FFF
310
800000000000FFF8000001FFFE0000007FFFFFF0001FFFFFFFF800000000000F
310
FFFFF800000000000FFFFF000000000003FC000000000007F000F80000000000
310
03FFFFC00003FFFE00001FFFFF80007FF0000000000007FF0000000000007FF8
310
000001FFFE0000007FFFFFF0001FFFFFFFF0000000000007FFFFF00000000000
310
07FFFF000000000003F8000000000003F000F0000000000003FFFFC00001FFFE
310
00001FFFFF80007FE0000000000007FE0000000000003FF8000001FFFE000000
310
7FFFFFF0001FFFFFFFF0000000000007FFFFF0000000000007FFFF0000000000
310
03F800001F800003F000E00001FFF00001FFFFC00001FFFE00000FFFFF80007F
310
E00001FFE00003FE00001FFF00003FF8000001FFFE0000007FFFFFF0001FFFFF
310
FFE000003E000003FFFFE000003E000003FFFF000000000003F00001FFF80001
310
F000E00007FFFC0001FFFFC00001FFFE00000FFFFF80007FC0000FFFFC0003FC
310
0000FFFFC0001FF8000001FFFE0000007FFFFFF0001FFFFFFFC00003FFE00001
310
FFFFC00003FFE00001FFFF0001FFFFFFFFF00007FFFE0001F000E0000FFFFF00
310
00FFFF800001FFFC00000FFFFF80007FC0001FFFFE0001FC0001FFFFE0001FF8
310
000001FFFE0000007FFFFFF0001FFFFFFF80000FFFF80000FFFF80000FFFF800
310
00FFFF0003FFFFFFFFE0000FFFFF8000F000C0003FFFFF8000FFFF800000FFFC
310
000007FFFF80007F80003FFFFF0001FC0003FFFFF0001FF8000001FFFE000000
310
7FFFFFF0001FFFFFFF80003FFFFE0000FFFF80003FFFFE0000FFFF0003FFFFFF
310
FFE0003FFFFF8000F000C0003FFFFF8000FFFF800000FFFC000007FFFF80007F
310
80007FFFFF8001F80007FFFFF8000FF8000001FFFE0000007FFFFFF0001FFFFF
310
FF00007FFFFF00007FFF00007FFFFF00007FFF0003FFFFFFFFE0003FFFFFC000
310
F000C0007FFFFFC000FFFF000000FFFC000007FFFF80007F8000FFFFFF8000F8
310
000FFFFFF8000FF8000001FFFE0000007FFFFFF0001FFFFFFF0000FFFFFF8000
310
7FFF0000FFFFFF80007FFF0003FFFFFFFFC0007FFFFFC00070008000FFFFFFC0
310
00FFFF000000FFF8000007FFFF80007F8000FFFFFF8000F8000FFFFFF8000FF8
310
000001FFFE0000007FFFFFF0001FFFFFFE0001FFFFFFC0003FFE0001FFFFFFC0
310
003FFF0003FFFFFFFFC0007FFFFFE00070008000FFFFFFC0007FFF0000007FF8
310
000003FFFF80007F0001FFFFFF8000F8000FFFFFF8000FF8000001FFFE000000
310
7FFFFFF0001FFFFFFE0001FFFFFFC0003FFE0001FFFFFFC0003FFF0003FFFFFF
310
FFC000FFFFFFE00070008000FFFFFFC0007FFF0000007FF8000003FFFF80007F
310
0001FFFFFF8000F8001FFFFFF8000FF8000001FFFE0000007FFFFFF0001FFFFF
310
FE0003FFFFFFE0003FFE0003FFFFFFE0003FFF0003FFFFFFFFC000FFFFFFE000
310
70008000FFFFFFC0007FFE0000007FF8000003FFFF80007F0001FFFFFF8000F0
310
001FFFFFF8000FF8000001FFFE0000007FFFFFF0001FFFFFFC0003FFFFFFE000
310
1FFC0003FFFFFFE0001FFF0003FFFFFFFFC000FFFFFFC00070008000FFFFFF80
310
007FFE0000007FF0000003FFFF80007F0001FFFFFF0000F0001FFFFFF8000FF8
310
000001FFFE0000007FFFFFF0001FFFFFFC0007FFFFFFF0001FFC0007FFFFFFF0
310
001FFF0003FFFFFFFFC000FFFFFFC00070008001FFFFFF0000FFFE0000003FF0
310
000001FFFF80007F0001FFFFFF0000F8001FFFFFF0000FF8000001FFFE000000
310
7FFFFFF0001FFFFFFC0007FFFFFFF0001FFC0007FFFFFFF0001FFF0003FFFFFF
310
FFC001FFFFFF80007000FFFFFFFFFE0000FFFE0008003FF0008001FFFF80007F
310
FFFFFFFFFC0000FFFFFFFFFFE0000FF8000001FFFE0000007FFFFFF0001FFFFF
310
F8000FFFFFFFF8000FF8000FFFFFFFF8000FFF0003FFFFFFFFFFFFFFFFFF0000
310
7000FFFFFFFFFC0000FFFC0008003FF0008001FFFF80007FFFFFFFFFF80001FF
310
FFFFFFFF80000FF8000001FFFE0000007FFFFFF0001FFFFFF8000FFFFFFFF800
310
0FF8000FFFFFFFF8000FFF0003FFFFFFFFFFFFFFFFFE0000F000FFFFFFFFE000
310
00FFFC000C003FE000C001FFFF80007FFFFFFFFFC00001FFFFFFFFFE00001FF8
310
000001FFFE0000007FFFFFF0001FFFFFF8000FFFFFFFF8000FF8000FFFFFFFF8
310
000FFF0003FFFFFFFFFFFFFFFFF00000F000FFFFFFFE000001FFFC000C001FE0
310
00C000FFFF80007FFFFFFFFE000001FFFFFFFFE000001FF80FFFFFFFFFFFFFC0
310
7FFFFFF0001FFFFFF8000FFFFFFFF8000FF8000FFFFFFFF8000FFF0003FFFFFF
310
FFFFFFFFFF800000F000FFFFFFC0000001FFFC001C001FE001C000FFFF80007F
310
FFFFFF80000003FFFFFFF80000001FF80FFFFFFFFFFFFFC07FFFFFF0001FFFFF
310
F8001FFFFFFFFC000FF8001FFFFFFFFC000FFF0003FFFFFFFFFFFFFFF0000001
310
F000FFFFF800000001FFF8001C001FE001C000FFFF80007FFFFFF800000003FF
310
FFFF800000003FF80FFFFFFFFFFFFFC07FFFFFF0001FFFFFF8001FFFFFFFFC00
310
0FF8001FFFFFFFFC000FFF0003FFFFFFFFFFFFFE00000001F000FFFFC0000000
310
03FFF8001E001FC001E000FFFF80007FFFFF8000000007FFFFFC000000003FF8
310
0FFFFFFFFFFFFFC07FFFFFF0001FFFFFF8001FFFFFFFFC000FF8001FFFFFFFFC
310
000FFF0003FFFFFFFFFFFFE000000003F000FFFE0000000007FFF8001E000FC0
310
01E0007FFF80007FFFFE0000000007FFFFE0000000007FF80FFFFFFFFFFFFFC0
310
7FFFFFF0001FFFFFF0001FFFFFFFFC0007F0001FFFFFFFFC0007FF0003FFFFFF
310
FFFFFF0000000003F000FFF80000000007FFF8001E000FC003E0007FFF80007F
310
FFF0000000000FFFFF8000000000FFF80FFFFFFFFFFFFFC07FFFFFF0001FFFFF
310
F0001FFFFFFFFC0007F0001FFFFFFFFC0007FF0003FFFFFFFFFFFC0000000007
310
F000FFE0000000000FFFF0003E000FC003E0007FFF80007FFFC0000000001FFF
310
FE0000000001FFF80FFFFFFFFFFFFFC07FFFFFF0001FFFFFF0001FFFFFFFFC00
310
07F0001FFFFFFFFC0007FF0003FFFFFFFFFFF0000000000FF000FFC000000000
310
1FFFF0003F000F8003F0003FFF80007FFF80000000003FFFF80000000003FFF8
310
0FFFFFFFFFFFFFC07FFFFFF0001FFFFFF0001FFFFFFFFC0007F0001FFFFFFFFC
310
0007FF0003FFFFFFFFFFE0000000001FF000FF00000000007FFFF0003F000780
310
03F0003FFF80007FFF00000000007FFFF00000000007FFF80FFFFFFFFFFFFFC0
310
7FFFFFF0001FFFFFF0001FFFFFFFFC0007F0001FFFFFFFFC0007FF0003FFFFFF
310
FFFF80000000007FF000FE0000000000FFFFE0003F00078007F0003FFF80007F
310
FE0000000001FFFFE0000000001FFFF80FFFFFFFFFFFFFC07FFFFFF0001FFFFF
310
F0001FFFFFFFFC0007F0001FFFFFFFFC0007FF0003FFFFFFFFFF0000000000FF
310
F000FC0000000003FFFFE0007F00078007F0003FFF80007FFC0000000007FFFF
310
C0000000007FFFF80FFFFFFFFFFFFFC07FFFFFF0001FFFFFF8001FFFFFFFFC00
310
0FF8001FFFFFFFFC000FFF0003FFFFFFFFFE0000000003FFF000FC000000000F
310
FFFFE0007F80070007F8001FFF80007FF8000000001FFFFF8000000001FFFFF8
310
0FFFFFFFFFFFFFC07FFFFFF0001FFFFFF8001FFFFFFFFC000FF8001FFFFFFFFC
310
000FFF0003FFFFFFFFFC000000000FFFF000F8000000007FFFFFE0007F800700
310
07F8001FFF80007FF000000000FFFFFF800000000FFFFFF80FFFFFFFFFFFFFC0
310
7FFFFFF0001FFFFFF8000FFFFFFFF8000FF8000FFFFFFFF8000FFF0003FFFFFF
310
FFFC000000007FFFF000F800000007FFFFFFC0007F8003000FF8001FFF80007F
310
F000000007FFFFFF000000007FFFFFF80FFFFFFFFFFFFFC07FFFFFF0001FFFFF
310
F8000FFFFFFFF8000FF8000FFFFFFFF8000FFF0003FFFFFFFFF80000000FFFFF
310
F000F0000000FFFFFFFFC000FF8003000FF8001FFF80007FE0000000FFFFFFFF
310
0000000FFFFFFFF8000001FFFE0000007FFFFFF0001FFFFFF8000FFFFFFFF800
310
0FF8000FFFFFFFF8000FFF0003FFFFFFFFF8000000FFFFFFF000F000000FFFFF
310
FFFFC000FFC002000FF8000FFF80007FE000001FFFFFFFFE000001FFFFFFFFF8
310
000001FFFE0000007FFFFFF0001FFFFFF8000FFFFFFFF8000FF8000FFFFFFFF8
310
000FFF0003FFFFFFFFF000001FFFFFFFF000E00000FFFFFFFFFFC000FFC00200
310
0FFC000FFF80007FE00001FFFFFFFFFE00001FFFFFFFFFF8000001FFFE000000
310
7FFFFFF0001FFFFFFC000FFFFFFFF8001FFC000FFFFFFFF8001FFF0003FFFFFF
310
FFF00001FFFFFFFFF000E00007FFFFFFFFFF8000FFC000001FFC000FFF80007F
310
C0000FFFFFFFFFFE0000FFFFFFFFFFF8000001FFFE0000007FFFFFF0001FFFFF
310
FC0007FFFFFFF0001FFC0007FFFFFFF0001FFF0003FFFFFFFFF00007FFFFFFFF
310
F000E0001FFFFFFFFFFF8000FFC000001FFC000FFF80007FC0003FFFFFFFFFFE
310
0001FFFFFFFFFFF8000001FFFE0000007FFFFFF0001FFFFFFC0007FFFFFFF000
310
1FFC0007FFFFFFF0001FFF0003FFFFFFFFF0001FFFFFFFFFF000E0003FFFFF00
310
03FF8001FFE000001FFC0007FF80007FC0007FFFFF0007FC0003FFFFF0003FF8
310
000001FFFE0000007FFFFFF0001FFFFFFC0003FFFFFFE0001FFC0003FFFFFFE0
310
001FFF0003FFFFFFFFF0003FFFFFFFFFF000E0003FFFFF0001FF8001FFE00000
310
1FFE0007FF80007FC0007FFFFE0003FC0007FFFFE0003FF8000001FFFE000000
310
7FFFFFF0001FFFFFFE0003FFFFFFE0003FFE0003FFFFFFE0003FFF0003FFFFFF
310
FFF0003FFFFF8001F000E0003FFFFF0001FF0001FFE000001FFE0007FF80007F
310
C0007FFFFE0003FC0007FFFFE0003FF8000001FFFE0000007FFFFFF0001FFFFF
310
FE0001FFFFFFC0003FFE0001FFFFFFC0003FFF0003FFFFFFFFF0003FFFFF0001
310
F000E0003FFFFF0003FF0001FFE000003FFE0007FF80007FC0007FFFFE0003FC
310
0007FFFFE0003FF8000001FFFE0000007FFFFFF0001FFFFFFF0001FFFFFFC000
310
7FFF0001FFFFFFC0007FFF0003FFFFFFFFF0003FFFFF0001F000E0003FFFFE00
310
03FF0003FFF000003FFE0003FF80007FC0007FFFFC0003FE0007FFFFE0003FF8
310
000001FFFE0000007FFFFFF0001FFFFFFF0000FFFFFF80007FFF0000FFFFFF80
310
007FFF0003FFFFFFFFF0003FFFFF0001F000E0003FFFFE0003FF0003FFF00000
310
3FFF0003FF80007FC0007FFFFC0007FE0007FFFFC0003FF8000001FFFE000000
310
7FFFFFF0001FFFFFFF80007FFFFF0000FFFF80007FFFFF0000FFFF0003FFFFFF
310
FFF0003FFFFF0003F000E0003FFFFC0003FE0003FFF000003FFF0003FF80007F
310
E0003FFFF80007FE0003FFFFC0007FF8000001FFFE0000007FFFFFF0001FFFFF
310
FF80003FFFFE0000FFFF80003FFFFE0000FFFF0003FFFFFFFFF0001FFFFE0003
310
F000F0001FFFF80003FE0003FFF000007FFF0001FF80007FE0003FFFF00007FE
310
0001FFFF80007FF8000001FFFE0000007FFFFFF0001FFFFFFFC0000FFFF80001
310
FFFFC0000FFFF80001FFFF0003FFFFFFFFF0001FFFFC0003F000F0000FFFF000
310
07FE0007FFF800007FFF0001FF80007FE0001FFFE00007FF0000FFFE00007FF8
310
000001FFFE0000007FFFFFF0001FFFFFFFC00003FFE00001FFFFC00003FFE000
310
01FFFF0003FFFFFFFFF8000FFFF80003F000F00003FFC00007FC0007FFF80000
310
7FFF8001FF80007FF00007FF80000FFF00007FF80000FFF8000001FFFE000000
310
7F80000000000001FFE000003E000003FFFFE000003E000003FFFF0003FFFFFF
310
FFF80003FFE00007F000F800000000000FFC0007FFF800007FFF8001FF80007F
310
F000000000000FFF000000000000FFF8000001FFFE0000007F80000000000001
310
FFF0000000000007FFFFF0000000000007FFFF0003FFFFFFFFFC00007E000007
310
F000F800000000000FFC0007FFF80000FFFF8000FF80007FF800000000001FFF
310
800000000001FFF8000001FFFE0000007F80000000000001FFF800000000000F
310
FFFFF800000000000FFFFF0003FFFFFFFFFC00000000000FF000FC0000000000
310
1FFC0007FFFC0000FFFF8000FF80007FF800000000003FFFC00000000001FFF8
310
000001FFFE0000007F80000000000001FFF800000000000FFFFFF80000000000
310
0FFFFF0003FFFFFFFFFE00000000001FF000FE00000000003FF8000FFFFC0000
310
FFFF8000FF80007FFC00000000003FFFC00000000003FFF8000001FFFE000000
310
7F80000000000001FFFC00000000001FFFFFFC00000000001FFFFF0003FFFFFF
310
FFFF00000000001FF000FF00000000003FF8000FFFFC0000FFFFC000FF80007F
310
FE00000000007FFFE00000000007FFF8000001FFFE0000007F80000000000001
310
FFFE00000000003FFFFFFE00000000003FFFFF0003FFFFFFFFFF80000000003F
310
F000FF80000000007FF8000FFFFC0001FFFFC0007F80007FFF0000000000FFFF
310
F0000000000FFFF800000000000000007F80000000000001FFFF8000000000FF
310
FFFFFF8000000000FFFFFF0003FFFFFFFFFFC0000000007FF000FFC000000000
310
FFF8000FFFFE0001FFFFC0007F80007FFF8000000001FFFFF8000000001FFFF8
310
00000000000000007F80000000000001FFFFC000000001FFFFFFFFC000000001
310
FFFFFF0003FFFFFFFFFFE000000000FFF000FFE000000003FFF0001FFFFE0001
310
FFFFC0007F80007FFFC000000007FFFFFE000000003FFFF80000000000000000
310
7F80000000000001FFFFE000000003FFFFFFFFE000000003FFFFFF0003FFFFFF
310
FFFFF000000003FFF000FFF80000000FFFF0001FFFFE0001FFFFE0007F80007F
310
FFF00000000FFFFFFF00000000FFFFF800000000000000007F80000000000001
310
FFFFF80000000FFFFFFFFFF80000000FFFFFFF0003FFFFFFFFFFFC0000000FFF
310
F000FFFE0000003FFFF0001FFFFE0003FFFFE0003F80007FFFFC0000003FFFFF
310
FFC0000003FFFFF800000000000000007F80000000000001FFFFFE0000003FFF
310
FFFFFFFE0000003FFFFFFF0003FFFFFFFFFFFF0000003FFFF000FFFF800000FF
310
FFF0001FFFFF0003FFFFE0003F80007FFFFF000001FFFFFFFFF800001FFFFFF8
310
00000000000000007F80000000000001FFFFFFC00001FFFFFFFFFFFFC00001FF
310
FFFFFF0003FFFFFFFFFFFFC00000FFFFF000FFFFF8000FFFFFFFFFFFFFFFFFFF
310
FFFFFFFFFFFFFFFFFFFFF0001FFFFFFFFFFF0000FFFFFFF80000000000000000
310
7FFFFFFFFFFFFFFFFFFFFFFC001FFFFFFFFFFFFFFC001FFFFFFFFFFFFFFFFFFF
310
FFFFFFFC001FFFFFF000FFFFFFFFFFFFFFFFFFFFFFFFFFFFFFFFFFFFFFFFFFFF
310
FFFFFFFFFFFFFFFFFFFFFFFFFFFFFFFFFFFFFFFFFFFFFFFFFFFFFFFFFFFFFFFF
310
FFFFFFFFFFFFFFFFFFFFFFFFFFFFFFFFFFFFFFFFFFFFFFFFFFFFFFFFFFFFFFFF
310
F000FFFFFFFFFFFFFFFFFFFFFFFFFFFFFFFFFFFFFFFFFFFFFFFFFFFFFFFFFFFF
310
FFFFFFFFFFFFFFFFFFFFFFFFFFFFFFFFFFFFFFFFFFFFFFFFFFFFFFFFFFFFFFFF
310
FFFFFFFFFFFFFFFFFFFFFFFFFFFFFFFFFFFFFFFFFFFFFFFFF000FFFFFFFFFFFF
310
FFFFFFFFFFFFFFFFFFFFFFFFFFFFFFFFFFFFFFFFFFFFFFFFFFFFFFFFFFFFFFFF
310
FFFFFFFFFFFFFFFFFFFFFFFFFFFFFFFFFFFFFFFFFFFFFFFFFFFFFFFFFFFFFFFF
310
FFFFFFFFFFFFFFFFFFFFFFFFFFFFFFFFF000FFFFFFFFFFFFFFFFFFFFFFFFFFFF
310
FFFFFFFFFFFFFFFFFFFFFFFFFFFFFFFFFFFFFFFFFFFFFFFFFFFFFFFFFFFFFFFF
310
FFFFFFFFFFFFFFFFFFFFFFFFFFFFFFFFFFFFFFFFFFFFFFFFFFFFFFFFFFFFFFFF
310
FFFFFFFFFFFFFFFFF000FFFFFFFFFFFFFFFFFFFFFFFFFFFFFFFFFFFFFFFFFFFF
310
FFFFFFFFFFFFFFFFFFFFFFFFFFFFFFFFFFFFFFFFFFFFFFFFFFFFFFFFFFFFFFFF
310
FFFFFFFFFFFFFFFFFFFFFFFFFFFFFFFFFFFFFFFFFFFFFFFFFFFFFFFFFFFFFFFF
310
F000FFFFFFFFFFFFFFFFFFFFFFFFFFFFFFFFFFFFFFFFFFFFFFFFFFFFFFFFFFFF
310
FFFFFFFFFFFFFFFFFFFFFFFFFFFFFFFFFFFFFFFFFFFFFFFFFFFFFFFFFFFFFFFF
310
FFFFFFFFFFFFFFFFFFFFFFFFFFFFFFFFFFFFFFFFFFFFFFFFF000FFFFFFFFFFFF
310
FFFFFFFFFFFFFFFFFFFFFFFFFFFFFFFFFFFFFFFFFFFFFFFFFFFFFFFFFFFFFFFF
310
FFFFFFFFFFFFFFFFFFFFFFFFFFFFFFFFFFFFFFFFFFFFFFFFFFFFFFFFFFFFFFFF
310
FFFFFFFFFFFFFFFFFFFFFFFFFFFFFFFFF000FFFFFFFFFFFFFFFFFFFFFFFFFFFF
310
FFFFFFFFFFFFFFFFFFFFFFFFFFFFFFFFFFFFFFFFFFFFFFFFFFFFFFFFFFFFFFFF
310
FFFFFFFFFFFFFFFFFFFFFFFFFFFFFFFFFFFFFFFFFFFFFFFFFFFFFFFFFFFFFFFF
310
FFFFFFFFFFFFFFFFF000FFFFFFFFFFFFFFFFFFFFFFFFFFFFFFFFFFFFFFFFFFFF
310
FFFFFFFFFFFFFFFFFFFFFFFFFFFFFFFFFFFFFFFFFFFFFFFFFFFFFFFFFFFFFFFF
310
FFFFFFFFFFFFFFFFFFFFFFFFFFFFFFFFFFFFFFFFFFFFFFFFFFFFFFFFFFFFFFFF
310
F000FFFFFFFFFFFFFFFFFFFFFFFFFFFFFFFFFFFFFFFFFFFFFFFFFFFFFFFFFFFF
310
FFFFFFFFFFFFFFFFFFFFFFFFFFFFFFFFFFFFFFFFFFFFFFFFFFFFFFFFFFFFFFFF
310
FFFFFFFFFFFFFFFFFFFFFFFFFFFFFFFFFFFFFFFFFFFFFFFFF000FFFFFFFFFFFF
310
FFFFFFFFFFFFFFFFFFFFFFFFFFFFFFFFFFFFFFFFFFFFFFFFFFFFFFFFFFFFFFFF
310
FFFFFFFFFFFFFFFFFFFFFFFFFFFFFFFFFFFFFFFFFFFFFFFFFFFFFFFFFFFFFFFF
310
FFFFFFFFFFFFFFFFFFFFFFFFFFFFFFFFF000FFFFFFFFFFFFFFFFFFFFFFFFFFFF
310
FFFFFFFFFFFFFFFFFFFFFFFFFFFFFFFFFFFFFFFFFFFFFFFFFFFFFFFFFFFFFFFF
310
FFFFFFFFFFFFFFFFFFFFFFFFFFFFFFFFFFFFFFFFFFFFFFFFFFFFFFFFFFFFFFFF
310
FFFFFFFFFFFFFFFFF000FFFFFFFFFFFFFFFFFFFFFFFFFFFFFFFFFFFFFFFFFFFF
310
FFFFFFFFFFFFFFFFFFFFFFFFFFFFFFFFFFFFFFFFFFFFFFFFFFFFFFFFFFFFFFFF
310
FFFFFFFFFFFFFFFFFFFFFFFFFFFFFFFFFFFFFFFFFFFFFFFFFFFFFFFFFFFFFFFF
310
F000FFFFFFFFFFFFFFFFFFFFFFFFFFFFFFFFFFFFFFFFFFFFFFFFFFFFFFFFFFFF
310
FFFFFFFFFFFFFFFFFFFFFFFFFFFFFFFFFFFFFFFFFFFFFFFFFFFFFFFFFFFFFFFF
310
FFFFFFFFFFFFFFFFFFFFFFFFFFFFFFFFFFFFFFFFFFFFFFFFF000FFFFFFFFFFFF
310
FFFFFFFFFFFFFFFFFFFFFFFFFFFFFFFFFFFFFFFFFFFFFFFFFFFFFFFFFFFFFFFF
310
FFFFFFFFFFFFFFFFFFFFFFFFFFFFFFFFFFFFFFFFFFFFFFFFFFFFFFFFFFFFFFFF
310
FFFFFFFFFFFFFFFFFFFFFFFFFFFFFFFFF000FFFFFFFFFFFFFFFFFFFFFFFFFFFF
310
FFFFFFFFFFFFFFFFFFFFFFFFFFFFFFFFFFFFFFFFFFFFFFFFFFFFFFFFFFFFFFFF
310
FFFFFFFFFFFFFFFFFFFFFFFFFFFFFFFFFFFFFFFFFFFFFFFFFFFFFFFFFFFFFFFF
310
FFFFFFFFFFFFFFFFF000FFFFFFFFFFFFFFFFFFFFFFFFFFFFFFFFFFFFFFFFFFFF
310
FFFFFFFFFFFFFFFFFFFFFFFFFFFFFFFFFFFFFFFFFFFFFFFFFFFFFFFFFFFFFFFF
310
FFFFFFFFFFFFFFFFFFFFFFFFFFFFFFFFFFFFFFFFFFFFFFFFFFFFFFFFFFFFFFFF
310
F000FFFFFFFFFFFFFFFFFFFFFFFFFFFFFFFFFFFFFFFFFFFFFFFFFFFFFFFFFFFF
310
FFFFFFFFFFFFFFFFFFFFFFFFFFFFFFFFFFFFFFFFFFFFFFFFFFFFFFFFFFFFFFFF
310
FFFFFFFFFFFFFFFFFFFFFFFFFFFFFFFFFFFFFFFFFFFFFFFFF000FFFFFFFFFFFF
310
FFFFFFFFFFFFFFFFFFFFFFFFFFFFFFFFFFFFFFFFFFFFFFFFFFFFFFFFFFFFFFFF
310
FFFFFFFFFFFFFFFFFFFFFFFFFFFFFFFFFFFFFFFFFFFFFFFFFFFFFFFFFFFFFFFF
310
FFFFFFFFFFFFFFFFFFFFFFFFFFFFFFFFF000FFFFFFFFFFFFFFFFFFFFFFFFFFFF
310
FFFFFFFFFFFFFFFFFFFFFFFFFFFFFFFFFFFFFFFFFFFFFFFFFFFFFFFFFFFFFFFF
310
FFFFFFFFFFFFFFFFFFFFFFFFFFFFFFFFFFFFFFFFFFFFFFFFFFFFFFFFFFFFFFFF
310
FFFFFFFFFFFFFFFFF000FFFFFFFFFFFFFFFFFFFFFFFFFFFFFFFFFFFFFFFFFFFF
310
FFFFFFFFFFFFFFFFFFFFFFFFFFFFFFFFFFFFFFFFFFFFFFFFFFFFFFFFFFFFFFFF
310
FFFFFFFFFFFFFFFFFFFFFFFFFFFFFFFFFFFFFFFFFFFFFFFFFFFFFFFFFFFFFFFF
310
F000FFFFFFFFFFFFFFFFFFFFFFFFFFFFFFFFFFFFFFFFFFFFFFFFFFFFFFFFFFFF
310
FFFFFFFFFFFFFFFFFFFFFFFFFFFFFFFFFFFFFFFFFFFFFFFFFFFFFFFFFFFFFFFF
310
FFFFFFFFFFFFFFFFFFFFFFFFFFFFFFFFFFFFFFFFFFFFFFFFF000FFFFFFFFFFFF
310
FFFFFFFFFFFFFFFFFFFFFFFFFFFFFFFFFFFFFFFFFFFFFFFFFFFFFFFFFFFFFFFF
310
FFFFFFFFFFFFFFFFFFFFFFFFFFFFFFFFFFFFFFFFFFFFFFFFFFFFFFFFFFFFFFFF
310
FFFFFFFFFFFFFFFFFFFFFFFFFFFFFFFFF0000000000000000000000000000000
310
000000000000EA420000EC420000EE420000F0420000F2420000F4420000F642
310
0000F8420000FA420000FC420000FE4200000043000001430000024300000343
310
00000443000005430000064300000743000008430000094300000A4300000B43
310
00000C4300000D4300000E4300000F4300001043000011430000124300001343
310
00001443000015430000164300001743000018430000194300001A4300001B43
310
00001C4300001D4300001E4300001F4300002043000021430000224300002343
310
00002443000025430000264300002743000028430000294300002A4300002B43
310
00002C4300002D4300002E4300002F4300003043000031430000324300003343
310
00003443000035430000364300003743000038430000394300003A4300003B43
310
00003C4300003D4300003E4300003F4300004043000041430000424300004343
310
00004443000045430000464300004743000048430000494300004A4300004B43
310
00004C4300004D4300004E4300004F4300005043000051430000524300005343
310
00005443000055430000564300005743000058430000594300005A4300005B43
310
00005C4300005D4300005E4300005F4300006043000061430000624300006343
310
00006443000065430000664300006743000068430000694300006A4300006B43
  1
OLE
  0
ENDSEC
  0
SECTION
  2
OBJECTS
  0
DICTIONARY
  5
C
330
0
100
AcDbDictionary
281
     1
  3
ACAD_GROUP
350
D
  3
ACAD_LAYOUT
350
1A
  3
ACAD_MLEADERSTYLE
350
1BA
  3
ACAD_MLINESTYLE
350
17
  3
ACAD_PLOTSETTINGS
350
19
  3
ACAD_PLOTSTYLENAME
350
E
  3
ACAD_TABLESTYLE
350
1B9
  3
ACAD_VISUALSTYLE
350
2A
  3
AcDbVariableDictionary
350
1BB
  0
DICTIONARY
  5
D
102
{ACAD_REACTORS
330
C
102
}
330
C
100
AcDbDictionary
281
     1
  0
DICTIONARY
  5
1A
102
{ACAD_REACTORS
330
C
102
}
330
C
100
AcDbDictionary
281
     1
  3
Layout1
350
1E
  3
Layout2
350
26
  3
Model
350
22
  0
DICTIONARY
  5
1BA
102
{ACAD_REACTORS
330
C
102
}
330
C
100
AcDbDictionary
281
     1
  0
DICTIONARY
  5
17
102
{ACAD_REACTORS
330
C
102
}
330
C
100
AcDbDictionary
281
     1
  3
Standard
350
18
  0
DICTIONARY
  5
19
102
{ACAD_REACTORS
330
C
102
}
330
C
100
AcDbDictionary
281
     1
  0
ACDBDICTIONARYWDFLT
  5
E
102
{ACAD_REACTORS
330
C
102
}
330
C
100
AcDbDictionary
281
     1
  3
Normal
350
F
100
AcDbDictionaryWithDefault
340
F
  0
DICTIONARY
  5
1B9
102
{ACAD_REACTORS
330
C
102
}
330
C
100
AcDbDictionary
281
     1
  0
DICTIONARY
  5
2A
102
{ACAD_REACTORS
330
C
102
}
330
C
100
AcDbDictionary
281
     1
  3
2dWireframe
350
2F
  3
3D Hidden
350
31
  3
3dWireframe
350
30
  3
Basic
350
32
  3
Brighten
350
36
  3
ColorChange
350
3A
  3
Conceptual
350
34
  3
Dim
350
35
  3
Facepattern
350
39
  3
Flat
350
2B
  3
FlatWithEdges
350
2C
  3
Gouraud
350
2D
  3
GouraudWithEdges
350
2E
  3
Linepattern
350
38
  3
Realistic
350
33
  3
Thicken
350
37
  0
DICTIONARY
  5
1BB
102
{ACAD_REACTORS
330
C
102
}
330
C
100
AcDbDictionary
281
     1
  3
PSOLHEIGHT
350
1BD
  3
PSOLWIDTH
350
1BC
  0
LAYOUT
  5
1E
102
{ACAD_REACTORS
330
1A
102
}
330
1A
100
AcDbPlotSettings
  1

  2
none_device
  4

  6

 40
0.0
 41
0.0
 42
0.0
 43
0.0
 44
0.0
 45
0.0
 46
0.0
 47
0.0
 48
0.0
 49
0.0
140
0.0
141
0.0
142
1.0
143
1.0
 70
   688
 72
     0
 73
     0
 74
     5
  7

 75
    16
147
1.0
148
0.0
149
0.0
100
AcDbLayout
  1
Layout1
 70
     1
 71
     1
 10
0.0
 20
0.0
 11
420.0
 21
297.0
 12
0.0
 22
0.0
 32
0.0
 14
1.0000000000E+20
 24
1.0000000000E+20
 34
1.0000000000E+20
 15
-1.0000000000E+20
 25
-1.0000000000E+20
 35
-1.0000000000E+20
146
0.0
 13
0.0
 23
0.0
 33
0.0
 16
1.0
 26
0.0
 36
0.0
 17
0.0
 27
1.0
 37
0.0
 76
     0
330
1B
  0
LAYOUT
  5
26
102
{ACAD_REACTORS
330
1A
102
}
330
1A
100
AcDbPlotSettings
  1

  2
none_device
  4

  6

 40
0.0
 41
0.0
 42
0.0
 43
0.0
 44
0.0
 45
0.0
 46
0.0
 47
0.0
 48
0.0
 49
0.0
140
0.0
141
0.0
142
1.0
143
1.0
 70
   688
 72
     0
 73
     0
 74
     5
  7

 75
    16
147
1.0
148
0.0
149
0.0
100
AcDbLayout
  1
Layout2
 70
     1
 71
     2
 10
0.0
 20
0.0
 11
0.0
 21
0.0
 12
0.0
 22
0.0
 32
0.0
 14
0.0
 24
0.0
 34
0.0
 15
0.0
 25
0.0
 35
0.0
146
0.0
 13
0.0
 23
0.0
 33
0.0
 16
1.0
 26
0.0
 36
0.0
 17
0.0
 27
1.0
 37
0.0
 76
     0
330
23
  0
LAYOUT
  5
22
102
{ACAD_REACTORS
330
1A
102
}
330
1A
100
AcDbPlotSettings
  1

  2
none_device
  4

  6

 40
0.0
 41
0.0
 42
0.0
 43
0.0
 44
0.0
 45
0.0
 46
0.0
 47
0.0
 48
0.0
 49
0.0
140
0.0
141
0.0
142
1.0
143
1.0
 70
  1712
 72
     0
 73
     0
 74
     0
  7

 75
     0
147
1.0
148
0.0
149
0.0
100
AcDbLayout
  1
Model
 70
     1
 71
     0
 10
0.0
 20
0.0
 11
297.0
 21
210.0
 12
0.0
 22
0.0
 32
0.0
 14
0.0
 24
0.0
 34
0.0
 15
297.0
 25
210.0
 35
0.0
146
0.0
 13
0.0
 23
0.0
 33
0.0
 16
1.0
 26
0.0
 36
0.0
 17
0.0
 27
1.0
 37
0.0
 76
     0
330
1F
331
29
  0
MLINESTYLE
  5
18
102
{ACAD_REACTORS
330
17
102
}
330
17
100
AcDbMlineStyle
  2
Standard
 70
     0
  3

 62
   256
 51
90.0
 52
90.0
 71
     2
 49
0.5
 62
   256
  6
BYLAYER
 49
-0.5
 62
   256
  6
BYLAYER
  0
ACDBPLACEHOLDER
  5
F
102
{ACAD_REACTORS
330
E
102
}
330
E
  0
VISUALSTYLE
  5
2F
102
{ACAD_REACTORS
330
2A
102
}
330
2A
100
AcDbVisualStyle
  2
2dWireframe
 70
     4
 71
     0
 72
     2
 73
     0
 90
        0
 40
-0.6
 41
-30.0
 62
     5
 63
     7
 74
     1
 91
        4
 64
     7
 65
   257
 75
     1
175
     1
 42
1.0
 92
        0
 66
   257
 43
1.0
 76
     1
 77
     6
 78
     2
 67
     7
 79
     5
170
     0
171
     0
290
     0
174
     0
 93
        1
 44
0.0
173
     0
291
     0
 45
0.0
1001
ACAD
1000
AcDbSavedByObjectVersion
1070
     0
  0
VISUALSTYLE
  5
31
102
{ACAD_REACTORS
330
2A
102
}
330
2A
100
AcDbVisualStyle
  2
3D Hidden
 70
     6
 71
     1
 72
     2
 73
     2
 90
        0
 40
-0.6
 41
-30.0
 62
     5
 63
     7
 74
     2
 91
        2
 64
     7
 65
   257
 75
     2
175
     1
 42
40.0
 92
        0
 66
   257
 43
1.0
 76
     1
 77
     6
 78
     2
 67
     7
 79
     3
170
     0
171
     0
290
     0
174
     0
 93
        1
 44
0.0
173
     0
291
     0
 45
0.0
1001
ACAD
1000
AcDbSavedByObjectVersion
1070
     0
  0
VISUALSTYLE
  5
30
102
{ACAD_REACTORS
330
2A
102
}
330
2A
100
AcDbVisualStyle
  2
3dWireframe
 70
     5
 71
     0
 72
     2
 73
     0
 90
        0
 40
-0.6
 41
-30.0
 62
     5
 63
     7
 74
     1
 91
        4
 64
     7
 65
   257
 75
     1
175
     1
 42
1.0
 92
        0
 66
   257
 43
1.0
 76
     1
 77
     6
 78
     2
 67
     7
 79
     5
170
     0
171
     0
290
     0
174
     0
 93
        1
 44
0.0
173
     0
291
     0
 45
0.0
1001
ACAD
1000
AcDbSavedByObjectVersion
1070
     0
  0
VISUALSTYLE
  5
32
102
{ACAD_REACTORS
330
2A
102
}
330
2A
100
AcDbVisualStyle
  2
Basic
 70
     7
 71
     1
 72
     0
 73
     1
 90
        0
 40
-0.6
 41
-30.0
 62
     5
 63
     7
 74
     0
 91
        4
 64
     7
 65
   257
 75
     1
175
     1
 42
1.0
 92
        8
 66
     7
 43
1.0
 76
     1
 77
     6
 78
     2
 67
     7
 79
     5
170
     0
171
     0
290
     0
174
     0
 93
        1
 44
0.0
173
     0
291
     1
 45
0.0
1001
ACAD
1000
AcDbSavedByObjectVersion
1070
     0
  0
VISUALSTYLE
  5
36
102
{ACAD_REACTORS
330
2A
102
}
330
2A
100
AcDbVisualStyle
  2
Brighten
 70
    12
 71
     2
 72
     2
 73
     0
 90
        0
 40
-0.6
 41
-30.0
 62
     5
 63
     7
 74
     1
 91
        4
 64
     7
 65
   257
 75
     1
175
     1
 42
1.0
 92
        8
 66
     7
 43
1.0
 76
     1
 77
     6
 78
     2
 67
     7
 79
     5
170
     0
171
     0
290
     0
174
     0
 93
        1
 44
50.0
173
     0
291
     1
 45
0.0
1001
ACAD
1000
AcDbSavedByObjectVersion
1070
     0
  0
VISUALSTYLE
  5
3A
102
{ACAD_REACTORS
330
2A
102
}
330
2A
100
AcDbVisualStyle
  2
ColorChange
 70
    16
 71
     2
 72
     2
 73
     3
 90
        0
 40
-0.6
 41
-30.0
 62
     5
 63
     8
 74
     1
 91
        4
 64
     7
 65
   257
 75
     1
175
     1
 42
1.0
 92
        8
 66
     8
 43
1.0
 76
     1
 77
     6
 78
     2
 67
     7
 79
     5
170
     0
171
     0
290
     0
174
     0
 93
        1
 44
0.0
173
     0
291
     1
 45
0.0
1001
ACAD
1000
AcDbSavedByObjectVersion
1070
     0
  0
VISUALSTYLE
  5
34
102
{ACAD_REACTORS
330
2A
102
}
330
2A
100
AcDbVisualStyle
  2
Conceptual
 70
     9
 71
     3
 72
     2
 73
     0
 90
        0
 40
-0.6
 41
-30.0
 62
     5
 63
     7
 74
     2
 91
        2
 64
     7
 65
   257
 75
     1
175
     1
 42
40.0
 92
        8
 66
     7
 43
1.0
 76
     1
 77
     6
 78
     2
 67
     7
 79
     3
170
     0
171
     0
290
     0
174
     0
 93
        1
 44
0.0
173
     0
291
     0
 45
0.0
1001
ACAD
1000
AcDbSavedByObjectVersion
1070
     0
  0
VISUALSTYLE
  5
35
102
{ACAD_REACTORS
330
2A
102
}
330
2A
100
AcDbVisualStyle
  2
Dim
 70
    11
 71
     2
 72
     2
 73
     0
 90
        0
 40
-0.6
 41
-30.0
 62
     5
 63
     7
 74
     1
 91
        4
 64
     7
 65
   257
 75
     1
175
     1
 42
1.0
 92
        8
 66
     7
 43
1.0
 76
     1
 77
     6
 78
     2
 67
     7
 79
     5
170
     0
171
     0
290
     0
174
     0
 93
        1
 44
-50.0
173
     0
291
     1
 45
0.0
1001
ACAD
1000
AcDbSavedByObjectVersion
1070
     0
  0
VISUALSTYLE
  5
39
102
{ACAD_REACTORS
330
2A
102
}
330
2A
100
AcDbVisualStyle
  2
Facepattern
 70
    15
 71
     2
 72
     2
 73
     0
 90
        0
 40
-0.6
 41
-30.0
 62
     5
 63
     7
 74
     1
 91
        4
 64
     7
 65
   257
 75
     1
175
     1
 42
1.0
 92
        8
 66
     7
 43
1.0
 76
     1
 77
     6
 78
     2
 67
     7
 79
     5
170
     0
171
     0
290
     0
174
     0
 93
        1
 44
0.0
173
     0
291
     1
 45
0.0
1001
ACAD
1000
AcDbSavedByObjectVersion
1070
     0
  0
VISUALSTYLE
  5
2B
102
{ACAD_REACTORS
330
2A
102
}
330
2A
100
AcDbVisualStyle
  2
Flat
 70
     0
 71
     2
 72
     1
 73
     1
 90
        2
 40
-0.6
 41
30.0
 62
     5
 63
     7
 74
     0
 91
        4
 64
     7
 65
   257
 75
     1
175
     1
 42
1.0
 92
        8
 66
     7
 43
1.0
 76
     1
 77
     6
 78
     2
 67
     7
 79
     5
170
     0
171
     0
290
     0
174
     0
 93
       13
 44
0.0
173
     0
291
     1
 45
0.0
1001
ACAD
1000
AcDbSavedByObjectVersion
1070
     0
  0
VISUALSTYLE
  5
2C
102
{ACAD_REACTORS
330
2A
102
}
330
2A
100
AcDbVisualStyle
  2
FlatWithEdges
 70
     1
 71
     2
 72
     1
 73
     1
 90
        2
 40
-0.6
 41
30.0
 62
     5
 63
     7
 74
     1
 91
        4
 64
     7
 65
   257
 75
     1
175
     1
 42
1.0
 92
        0
 66
   257
 43
1.0
 76
     1
 77
     6
 78
     2
 67
     7
 79
     5
170
     0
171
     0
290
     0
174
     0
 93
       13
 44
0.0
173
     0
291
     1
 45
0.0
1001
ACAD
1000
AcDbSavedByObjectVersion
1070
     0
  0
VISUALSTYLE
  5
2D
102
{ACAD_REACTORS
330
2A
102
}
330
2A
100
AcDbVisualStyle
  2
Gouraud
 70
     2
 71
     2
 72
     2
 73
     1
 90
        2
 40
-0.6
 41
30.0
 62
     5
 63
     7
 74
     0
 91
        4
 64
     7
 65
   257
 75
     1
175
     1
 42
1.0
 92
        0
 66
     7
 43
1.0
 76
     1
 77
     6
 78
     2
 67
     7
 79
     5
170
     0
171
     0
290
     0
174
     0
 93
       13
 44
0.0
173
     0
291
     1
 45
0.0
1001
ACAD
1000
AcDbSavedByObjectVersion
1070
     0
  0
VISUALSTYLE
  5
2E
102
{ACAD_REACTORS
330
2A
102
}
330
2A
100
AcDbVisualStyle
  2
GouraudWithEdges
 70
     3
 71
     2
 72
     2
 73
     1
 90
        2
 40
-0.6
 41
30.0
 62
     5
 63
     7
 74
     1
 91
        4
 64
     7
 65
   257
 75
     1
175
     1
 42
1.0
 92
        0
 66
   257
 43
1.0
 76
     1
 77
     6
 78
     2
 67
     7
 79
     5
170
     0
171
     0
290
     0
174
     0
 93
       13
 44
0.0
173
     0
291
     1
 45
0.0
1001
ACAD
1000
AcDbSavedByObjectVersion
1070
     0
  0
VISUALSTYLE
  5
38
102
{ACAD_REACTORS
330
2A
102
}
330
2A
100
AcDbVisualStyle
  2
Linepattern
 70
    14
 71
     2
 72
     2
 73
     0
 90
        0
 40
-0.6
 41
-30.0
 62
     5
 63
     7
 74
     1
 91
        4
 64
     7
 65
   257
 75
     7
175
     7
 42
1.0
 92
        8
 66
     7
 43
1.0
 76
     1
 77
     6
 78
     2
 67
     7
 79
     5
170
     0
171
     0
290
     0
174
     0
 93
        1
 44
0.0
173
     0
291
     1
 45
0.0
1001
ACAD
1000
AcDbSavedByObjectVersion
1070
     0
  0
VISUALSTYLE
  5
33
102
{ACAD_REACTORS
330
2A
102
}
330
2A
100
AcDbVisualStyle
  2
Realistic
 70
     8
 71
     2
 72
     2
 73
     0
 90
        0
 40
-0.6
 41
-30.0
 62
     5
 63
     7
 74
     1
 91
        0
 64
     7
 65
   257
 75
     1
175
     1
 42
1.0
 92
        8
 66
     8
 43
1.0
 76
     1
 77
     6
 78
     2
 67
     7
 79
     5
170
     0
171
     0
290
     0
174
     0
 93
       13
 44
0.0
173
     0
291
     0
 45
0.0
1001
ACAD
1000
AcDbSavedByObjectVersion
1070
     0
  0
VISUALSTYLE
  5
37
102
{ACAD_REACTORS
330
2A
102
}
330
2A
100
AcDbVisualStyle
  2
Thicken
 70
    13
 71
     2
 72
     2
 73
     0
 90
        0
 40
-0.6
 41
-30.0
 62
     5
 63
     7
 74
     1
 91
        4
 64
     7
 65
   257
 75
     1
175
     1
 42
1.0
 92
       12
 66
     7
 43
1.0
 76
     1
 77
     6
 78
     2
 67
     7
 79
     5
170
     0
171
     0
290
     0
174
     0
 93
        1
 44
0.0
173
     0
291
     1
 45
0.0
1001
ACAD
1000
AcDbSavedByObjectVersion
1070
     0
  0
DICTIONARYVAR
  5
1BD
102
{ACAD_REACTORS
330
1BB
102
}
330
1BB
100
DictionaryVariables
280
     0
  1
80.000000
  0
DICTIONARYVAR
  5
1BC
102
{ACAD_REACTORS
330
1BB
102
}
330
1BB
100
DictionaryVariables
280
     0
  1
5.000000
  0
ENDSEC
  0
EOF
