  0
SECTION
  2
HEADER
  9
$ACADVER
  1
AC1015
  9
$ACADMAINTVER
 70
     6
  9
$DWGCODEPAGE
  3
ANSI_1252
  9
$INSBASE
 10
0.0
 20
0.0
 30
0.0
  9
$EXTMIN
 10
0.0
 20
0.0
 30
0.0
  9
$EXTMAX
 10
297.0
 20
210.0
 30
0.0
  9
$LIMMIN
 10
0.0
 20
0.0
  9
$LIMMAX
 10
297.0
 20
210.0
  9
$ORTHOMODE
 70
     0
  9
$REGENMODE
 70
     1
  9
$FILLMODE
 70
     1
  9
$QTEXTMODE
 70
     0
  9
$MIRRTEXT
 70
     1
  9
$LTSCALE
 40
1.0
  9
$ATTMODE
 70
     1
  9
$TEXTSIZE
 40
2.0
  9
$TRACEWID
 40
1.0
  9
$TEXTSTYLE
  7
Standard
  9
$CLAYER
  8
0
  9
$CELTYPE
  6
ByLayer
  9
$CECOLOR
 62
   256
  9
$CELTSCALE
 40
1.0
  9
$DISPSILH
 70
     0
  9
$DIMSCALE
 40
1.0
  9
$DIMASZ
 40
3.0
  9
$DIMEXO
 40
0.0
  9
$DIMDLI
 40
3.75
  9
$DIMRND
 40
0.0
  9
$DIMDLE
 40
0.0
  9
$DIMEXE
 40
1.0
  9
$DIMTP
 40
0.0
  9
$DIMTM
 40
0.0
  9
$DIMTXT
 40
2.0
  9
$DIMCEN
 40
2.5
  9
$DIMTSZ
 40
0.0
  9
$DIMTOL
 70
     0
  9
$DIMLIM
 70
     0
  9
$DIMTIH
 70
     1
  9
$DIMTOH
 70
     1
  9
$DIMSE1
 70
     0
  9
$DIMSE2
 70
     0
  9
$DIMTAD
 70
     1
  9
$DIMZIN
 70
     0
  9
$DIMBLK
  1

  9
$DIMASO
 70
     1
  9
$DIMSHO
 70
     1
  9
$DIMPOST
  1

  9
$DIMAPOST
  1

  9
$DIMALT
 70
     0
  9
$DIMALTD
 70
     3
  9
$DIMALTF
 40
0.0393700787
  9
$DIMLFAC
 40
1.0
  9
$DIMTOFL
 70
     1
  9
$DIMTVP
 40
0.0
  9
$DIMTIX
 70
     0
  9
$DIMSOXD
 70
     0
  9
$DIMSAH
 70
     0
  9
$DIMBLK1
  1

  9
$DIMBLK2
  1

  9
$DIMSTYLE
  2
ISO-25
  9
$DIMCLRD
 70
     0
  9
$DIMCLRE
 70
     0
  9
$DIMCLRT
 70
     0
  9
$DIMTFAC
 40
1.0
  9
$DIMGAP
 40
1.524
  9
$DIMJUST
 70
     0
  9
$DIMSD1
 70
     0
  9
$DIMSD2
 70
     0
  9
$DIMTOLJ
 70
     0
  9
$DIMTZIN
 70
     0
  9
$DIMALTZ
 70
     0
  9
$DIMALTTZ
 70
     0
  9
$DIMUPT
 70
     0
  9
$DIMDEC
 70
     2
  9
$DIMTDEC
 70
     3
  9
$DIMALTU
 70
     2
  9
$DIMALTTD
 70
     3
  9
$DIMTXSTY
  7
Standard
  9
$DIMAUNIT
 70
     0
  9
$DIMADEC
 70
     2
  9
$DIMALTRND
 40
0.0
  9
$DIMAZIN
 70
     0
  9
$DIMDSEP
 70
    44
  9
$DIMATFIT
 70
     3
  9
$DIMFRAC
 70
     0
  9
$DIMLDRBLK
  1

  9
$DIMLUNIT
 70
     2
  9
$DIMLWD
 70
    -2
  9
$DIMLWE
 70
    -2
  9
$DIMTMOVE
 70
     0
  9
$LUNITS
 70
     2
  9
$LUPREC
 70
     2
  9
$SKETCHINC
 40
1.0
  9
$FILLETRAD
 40
10.0
  9
$AUNITS
 70
     0
  9
$AUPREC
 70
     2
  9
$MENU
  1
.
  9
$ELEVATION
 40
0.0
  9
$PELEVATION
 40
0.0
  9
$THICKNESS
 40
0.0
  9
$LIMCHECK
 70
     0
  9
$CHAMFERA
 40
10.0
  9
$CHAMFERB
 40
10.0
  9
$CHAMFERC
 40
20.0
  9
$CHAMFERD
 40
0.0
  9
$SKPOLY
 70
     0
  9
$TDCREATE
 40
2455672.389142199
  9
$TDUCREATE
 40
2455672.305808866
  9
$TDUPDATE
 40
2455672.389142211
  9
$TDUUPDATE
 40
2455672.305808877
  9
$TDINDWG
 40
0.0000000116
  9
$TDUSRTIMER
 40
0.0000000116
  9
$USRTIMER
 70
     1
  9
$ANGBASE
 50
0.0
  9
$ANGDIR
 70
     0
  9
$PDMODE
 70
     0
  9
$PDSIZE
 40
-1.0
  9
$PLINEWID
 40
0.0
  9
$SPLFRAME
 70
     0
  9
$SPLINETYPE
 70
     6
  9
$SPLINESEGS
 70
     8
  9
$HANDSEED
  5
187
  9
$SURFTAB1
 70
     6
  9
$SURFTAB2
 70
     6
  9
$SURFTYPE
 70
     6
  9
$SURFU
 70
     6
  9
$SURFV
 70
     6
  9
$UCSBASE
  2

  9
$UCSNAME
  2

  9
$UCSORG
 10
0.0
 20
0.0
 30
0.0
  9
$UCSXDIR
 10
1.0
 20
0.0
 30
0.0
  9
$UCSYDIR
 10
0.0
 20
1.0
 30
0.0
  9
$UCSORTHOREF
  2

  9
$UCSORTHOVIEW
 70
     0
  9
$UCSORGTOP
 10
0.0
 20
0.0
 30
0.0
  9
$UCSORGBOTTOM
 10
0.0
 20
0.0
 30
0.0
  9
$UCSORGLEFT
 10
0.0
 20
0.0
 30
0.0
  9
$UCSORGRIGHT
 10
0.0
 20
0.0
 30
0.0
  9
$UCSORGFRONT
 10
0.0
 20
0.0
 30
0.0
  9
$UCSORGBACK
 10
0.0
 20
0.0
 30
0.0
  9
$PUCSBASE
  2

  9
$PUCSNAME
  2

  9
$PUCSORG
 10
0.0
 20
0.0
 30
0.0
  9
$PUCSXDIR
 10
1.0
 20
0.0
 30
0.0
  9
$PUCSYDIR
 10
0.0
 20
1.0
 30
0.0
  9
$PUCSORTHOREF
  2

  9
$PUCSORTHOVIEW
 70
     0
  9
$PUCSORGTOP
 10
0.0
 20
0.0
 30
0.0
  9
$PUCSORGBOTTOM
 10
0.0
 20
0.0
 30
0.0
  9
$PUCSORGLEFT
 10
0.0
 20
0.0
 30
0.0
  9
$PUCSORGRIGHT
 10
0.0
 20
0.0
 30
0.0
  9
$PUCSORGFRONT
 10
0.0
 20
0.0
 30
0.0
  9
$PUCSORGBACK
 10
0.0
 20
0.0
 30
0.0
  9
$USERI1
 70
     0
  9
$USERI2
 70
     0
  9
$USERI3
 70
     0
  9
$USERI4
 70
     0
  9
$USERI5
 70
     0
  9
$USERR1
 40
0.0
  9
$USERR2
 40
0.0
  9
$USERR3
 40
0.0
  9
$USERR4
 40
0.0
  9
$USERR5
 40
0.0
  9
$WORLDVIEW
 70
     1
  9
$SHADEDGE
 70
     3
  9
$SHADEDIF
 70
    70
  9
$TILEMODE
 70
     1
  9
$MAXACTVP
 70
    64
  9
$PINSBASE
 10
0.0
 20
0.0
 30
0.0
  9
$PLIMCHECK
 70
     0
  9
$PEXTMIN
 10
1.0000000000E+20
 20
1.0000000000E+20
 30
1.0000000000E+20
  9
$PEXTMAX
 10
-1.0000000000E+20
 20
-1.0000000000E+20
 30
-1.0000000000E+20
  9
$PLIMMIN
 10
0.0
 20
0.0
  9
$PLIMMAX
 10
420.0
 20
297.0
  9
$UNITMODE
 70
     0
  9
$VISRETAIN
 70
     1
  9
$PLINEGEN
 70
     0
  9
$PSLTSCALE
 70
     1
  9
$TREEDEPTH
 70
  3020
  9
$CMLSTYLE
  2
Standard
  9
$CMLJUST
 70
     0
  9
$CMLSCALE
 40
20.0
  9
$PROXYGRAPHICS
 70
     1
  9
$MEASUREMENT
 70
     1
  9
$CELWEIGHT
370
    -1
  9
$ENDCAPS
280
     0
  9
$JOINSTYLE
280
     0
  9
$LWDISPLAY
290
     1
  9
$INSUNITS
 70
     4
  9
$HYPERLINKBASE
  1

  9
$STYLESHEET
  1

  9
$XEDIT
290
     1
  9
$CEPSNTYPE
380
     0
  9
$PSTYLEMODE
290
     1
  9
$FINGERPRINTGUID
  2
{BEB8D47C-763D-4555-BDF3-E1D1AC7B6BE4}
  9
$VERSIONGUID
  2
{FAEB1C32-E019-11D5-929B-00C0DF256EC4}
  9
$EXTNAMES
290
     1
  9
$PSVPSCALE
 40
0.0
  9
$OLESTARTUP
290
     0
  0
ENDSEC
  0
SECTION
  2
CLASSES
  0
CLASS
  1
ACDBDICTIONARYWDFLT
  2
AcDbDictionaryWithDefault
  3
ObjectDBX Classes
 90
        0
280
     0
281
     0
  0
CLASS
  1
VISUALSTYLE
  2
AcDbVisualStyle
  3
ObjectDBX Classes
 90
     4095
280
     0
281
     0
  0
CLASS
  1
DICTIONARYVAR
  2
AcDbDictionaryVar
  3
ObjectDBX Classes
 90
        0
280
     0
281
     0
  0
CLASS
  1
ACDBPLACEHOLDER
  2
AcDbPlaceHolder
  3
ObjectDBX Classes
 90
        0
280
     0
281
     0
  0
CLASS
  1
LAYOUT
  2
AcDbLayout
  3
ObjectDBX Classes
 90
        0
280
     0
281
     0
  0
ENDSEC
  0
SECTION
  2
TABLES
  0
TABLE
  2
VPORT
  5
8
330
0
100
AcDbSymbolTable
 70
     1
  0
VPORT
  5
29
330
8
100
AcDbSymbolTableRecord
100
AcDbViewportTableRecord
  2
*Active
 70
     0
 10
0.0
 20
0.0
 11
1.0
 21
1.0
 12
148.5
 22
105.0
 13
0.0
 23
0.0
 14
10.0
 24
10.0
 15
10.0
 25
10.0
 16
0.0
 26
0.0
 36
1.0
 17
0.0
 27
0.0
 37
0.0
 40
210.0
 41
1.4142857143
 42
50.0
 43
0.0
 44
0.0
 50
0.0
 51
0.0
 71
     0
 72
  2000
 73
     1
 74
     3
 75
     0
 76
     0
 77
     0
 78
     0
281
     0
 65
     1
110
0.0
120
0.0
130
0.0
111
1.0
121
0.0
131
0.0
112
0.0
122
1.0
132
0.0
 79
     0
146
0.0
  0
ENDTAB
  0
TABLE
  2
LTYPE
  5
5
330
0
100
AcDbSymbolTable
 70
     6
  0
LTYPE
  5
14
330
5
100
AcDbSymbolTableRecord
100
AcDbLinetypeTableRecord
  2
ByBlock
 70
     0
  3

 72
    65
 73
     0
 40
0.0
  0
LTYPE
  5
15
330
5
100
AcDbSymbolTableRecord
100
AcDbLinetypeTableRecord
  2
ByLayer
 70
     0
  3

 72
    65
 73
     0
 40
0.0
  0
LTYPE
  5
16
330
5
100
AcDbSymbolTableRecord
100
AcDbLinetypeTableRecord
  2
Continuous
 70
     0
  3
Solid line
 72
    65
 73
     0
 40
0.0
  0
LTYPE
  5
3B
330
5
100
AcDbSymbolTableRecord
100
AcDbLinetypeTableRecord
  2
HIDDEN
 70
     0
  3
Hidden __ __ __ __ __ __ __ __ __ __ __ __ __ __
 72
    65
 73
     2
 40
1.905
 49
1.27
 74
     0
 49
-0.635
 74
     0
  0
LTYPE
  5
3C
330
5
100
AcDbSymbolTableRecord
100
AcDbLinetypeTableRecord
  2
PHANTOM
 70
     0
  3
Phantom ______  __  __  ______  __  __  ______
 72
    65
 73
     6
 40
12.7
 49
6.35
 74
     0
 49
-1.27
 74
     0
 49
1.27
 74
     0
 49
-1.27
 74
     0
 49
1.27
 74
     0
 49
-1.27
 74
     0
  0
LTYPE
  5
3D
330
5
100
AcDbSymbolTableRecord
100
AcDbLinetypeTableRecord
  2
CENTER
 70
     0
  3
Center ____ _ ____ _ ____ _ ____ _ ____ _ ____
 72
    65
 73
     4
 40
10.16
 49
6.35
 74
     0
 49
-1.27
 74
     0
 49
1.27
 74
     0
 49
-1.27
 74
     0
  0
LTYPE
  5
3E
330
5
100
AcDbSymbolTableRecord
100
AcDbLinetypeTableRecord
  2
CENTERX2
 70
     0
  3
Center (2x) ________  __  ________  __  _____
 72
    65
 73
     4
 40
20.32
 49
12.7
 74
     0
 49
-2.54
 74
     0
 49
2.54
 74
     0
 49
-2.54
 74
     0
  0
LTYPE
  5
3F
330
5
100
AcDbSymbolTableRecord
100
AcDbLinetypeTableRecord
  2
DOT2
 70
     0
  3
Dot (.5x) ........................................
 72
    65
 73
     2
 40
0.635
 49
0.0
 74
     0
 49
-0.635
 74
     0
  0
ENDTAB
  0
TABLE
  2
LAYER
  5
2
330
0
100
AcDbSymbolTable
 70
     5
  0
LAYER
  5
10
330
2
100
AcDbSymbolTableRecord
100
AcDbLayerTableRecord
  2
0
 70
     0
 62
     7
  6
Continuous
370
    -3
390
F
  0
LAYER
  5
40
330
2
100
AcDbSymbolTableRecord
100
AcDbLayerTableRecord
  2
FORMAT
 70
     0
 62
     7
  6
Continuous
370
    -3
390
F
  0
LAYER
  5
41
330
2
100
AcDbSymbolTableRecord
100
AcDbLayerTableRecord
  2
VERMASSUNG
 70
     0
 62
     7
  6
Continuous
370
    -3
390
F
  0
LAYER
  5
42
330
2
100
AcDbSymbolTableRecord
100
AcDbLayerTableRecord
  2
KOPF_DÜNN
 70
     0
 62
     7
  6
Continuous
370
    -3
390
F
  0
LAYER
  5
43
330
2
100
AcDbSymbolTableRecord
100
AcDbLayerTableRecord
  2
KOPF_DICK
 70
     0
 62
     7
  6
Continuous
370
    15
390
F
  0
ENDTAB
  0
TABLE
  2
STYLE
  5
3
330
0
100
AcDbSymbolTable
 70
     3
  0
STYLE
  5
11
330
3
100
AcDbSymbolTableRecord
100
AcDbTextStyleTableRecord
  2
Standard
 70
     0
 40
0.0
 41
1.0
 50
0.0
 71
     0
 42
2.5
  3
txt
  4

  0
STYLE
  5
44
330
3
100
AcDbSymbolTableRecord
100
AcDbTextStyleTableRecord
  2
SLDTEXTSTYLE0
 70
     0
 40
0.0
 41
0.7
 50
0.0
 71
     0
 42
0.2
  3
TXT
  4

  0
STYLE
  5
48
330
3
100
AcDbSymbolTableRecord
100
AcDbTextStyleTableRecord
  2
SLDTEXTSTYLE1
 70
     0
 40
0.0
 41
0.6473684211
 50
0.0
 71
     0
 42
0.2
  3
TXT
  4

  0
ENDTAB
  0
TABLE
  2
VIEW
  5
6
330
0
100
AcDbSymbolTable
 70
     0
  0
ENDTAB
  0
TABLE
  2
UCS
  5
7
330
0
100
AcDbSymbolTable
 70
     0
  0
ENDTAB
  0
TABLE
  2
APPID
  5
9
330
0
100
AcDbSymbolTable
 70
     1
  0
APPID
  5
12
330
9
100
AcDbSymbolTableRecord
100
AcDbRegAppTableRecord
  2
ACAD
 70
     0
  0
ENDTAB
  0
TABLE
  2
DIMSTYLE
  5
A
330
0
100
AcDbSymbolTable
 70
     2
100
AcDbDimStyleTable
  0
DIMSTYLE
105
27
330
A
100
AcDbSymbolTableRecord
100
AcDbDimStyleTableRecord
  2
ISO-25
 70
     0
 41
2.5
 42
0.625
 43
3.75
 44
1.25
 73
     0
 74
     0
 77
     1
 78
     8
140
2.5
141
2.5
143
0.0393700787
147
0.625
171
     3
172
     1
271
     2
272
     2
274
     3
278
    44
283
     0
284
     8
340
11
  0
DIMSTYLE
105
140
102
{ACAD_REACTORS
330
13F
330
14C
330
156
330
160
330
16A
330
175
102
}
330
A
100
AcDbSymbolTableRecord
100
AcDbDimStyleTableRecord
  2
SLDDIMSTYLE0
 70
     0
 41
3.0
 44
0.0
 45
0.000000001
 73
     0
 74
     0
 77
     1
 78
    12
140
2.0
147
0.5
173
     1
271
     2
272
     3
284
    12
340
44
  0
ENDTAB
  0
TABLE
  2
BLOCK_RECORD
  5
1
330
0
100
AcDbSymbolTable
 70
     7
  0
BLOCK_RECORD
  5
1F
330
1
100
AcDbSymbolTableRecord
100
AcDbBlockTableRecord
  2
*Model_Space
340
22
  0
BLOCK_RECORD
  5
1B
330
1
100
AcDbSymbolTableRecord
100
AcDbBlockTableRecord
  2
*Paper_Space
340
1E
  0
BLOCK_RECORD
  5
23
330
1
100
AcDbSymbolTableRecord
100
AcDbBlockTableRecord
  2
*Paper_Space0
340
26
  0
BLOCK_RECORD
  5
141
330
1
100
AcDbSymbolTableRecord
100
AcDbBlockTableRecord
  2
*D1
340
0
  0
BLOCK_RECORD
  5
14D
330
1
100
AcDbSymbolTableRecord
100
AcDbBlockTableRecord
  2
*D2
340
0
  0
BLOCK_RECORD
  5
157
330
1
100
AcDbSymbolTableRecord
100
AcDbBlockTableRecord
  2
*D3
340
0
  0
BLOCK_RECORD
  5
161
330
1
100
AcDbSymbolTableRecord
100
AcDbBlockTableRecord
  2
*D4
340
0
  0
BLOCK_RECORD
  5
16B
330
1
100
AcDbSymbolTableRecord
100
AcDbBlockTableRecord
  2
*D5
340
0
  0
BLOCK_RECORD
  5
176
330
1
100
AcDbSymbolTableRecord
100
AcDbBlockTableRecord
  2
*D6
340
0
  0
ENDTAB
  0
ENDSEC
  0
SECTION
  2
BLOCKS
  0
BLOCK
  5
20
330
1F
100
AcDbEntity
  8
0
100
AcDbBlockBegin
  2
*Model_Space
 70
     0
 10
0.0
 20
0.0
 30
0.0
  3
*Model_Space
  1

  0
ENDBLK
  5
21
330
1F
100
AcDbEntity
  8
0
100
AcDbBlockEnd
  0
BLOCK
  5
1C
330
1B
100
AcDbEntity
 67
     1
  8
0
100
AcDbBlockBegin
  2
*Paper_Space
 70
     0
 10
0.0
 20
0.0
 30
0.0
  3
*Paper_Space
  1

  0
ENDBLK
  5
1D
330
1B
100
AcDbEntity
 67
     1
  8
0
100
AcDbBlockEnd
  0
BLOCK
  5
24
330
23
100
AcDbEntity
  8
0
100
AcDbBlockBegin
  2
*Paper_Space0
 70
     0
 10
0.0
 20
0.0
 30
0.0
  3
*Paper_Space0
  1

  0
ENDBLK
  5
25
330
23
100
AcDbEntity
  8
0
100
AcDbBlockEnd
  0
BLOCK
  5
142
330
141
100
AcDbEntity
  8
0
100
AcDbBlockBegin
  2
*D1
 70
     1
 10
0.0
 20
0.0
 30
0.0
  3
*D1
  1

  0
SOLID
  5
144
330
141
100
AcDbEntity
  8
VERMASSUNG
100
AcDbTrace
 10
78.3443830427
 20
141.9129963492
 30
0.0
 11
77.8943830427
 21
138.9129963492
 31
0.0
 12
78.7943830427
 22
138.9129963492
 32
0.0
 13
78.7943830427
 23
138.9129963492
 33
0.0
  0
SOLID
  5
145
330
141
100
AcDbEntity
  8
VERMASSUNG
100
AcDbTrace
 10
78.3443830427
 20
78.9129963492
 30
0.0
 11
78.7943830427
 21
81.9129963492
 31
0.0
 12
77.8943830427
 22
81.9129963492
 32
0.0
 13
77.8943830427
 23
81.9129963492
 33
0.0
  0
LINE
  5
146
330
141
100
AcDbEntity
  8
VERMASSUNG
100
AcDbLine
 10
116.8670005712
 20
141.9129963492
 30
0.0
 11
77.3443830427
 21
141.9129963492
 31
0.0
  0
LINE
  5
147
330
141
100
AcDbEntity
  8
VERMASSUNG
100
AcDbLine
 10
116.8670005712
 20
78.9129963492
 30
0.0
 11
77.3443830427
 21
78.9129963492
 31
0.0
  0
LINE
  5
148
330
141
100
AcDbEntity
  8
VERMASSUNG
100
AcDbLine
 10
78.3443830427
 20
141.9129963492
 30
0.0
 11
78.3443830427
 21
78.9129963492
 31
0.0
  0
MTEXT
  5
149
330
141
100
AcDbEntity
  8
VERMASSUNG
100
AcDbMText
 10
75.5662475536
 20
102.8652304059
 30
0.0
 40
2.0
 41
0.0
 71
     1
 72
     1
  1
HSK A
  7
SLDTEXTSTYLE0
 11
-7.044195017643634E-15
 21
1.0
 31
0.0
 73
     1
 44
1.0
  0
MTEXT
  5
14A
330
141
100
AcDbEntity
  8
VERMASSUNG
100
AcDbMText
 10
75.7662475631
 20
110.66523066
 30
0.0
 40
2.0
 41
0.0
 71
     1
 72
     1
  1
%%c
  7
SLDTEXTSTYLE0
 11
-7.044195017643634E-15
 21
1.0
 31
0.0
 73
     1
 44
1.0
  0
MTEXT
  5
14B
330
141
100
AcDbEntity
  8
VERMASSUNG
100
AcDbMText
 10
75.7662476795
 20
114.2737591167
 30
0.0
 40
2.0
 41
0.0
 71
     1
 72
     1
  1
63
  7
SLDTEXTSTYLE0
 11
-7.044195017643634E-15
 21
1.0
 31
0.0
 73
     1
 44
1.0
  0
ENDBLK
  5
143
330
141
100
AcDbEntity
  8
0
100
AcDbBlockEnd
  0
BLOCK
  5
14E
330
14D
100
AcDbEntity
  8
0
100
AcDbBlockBegin
  2
*D2
 70
     1
 10
0.0
 20
0.0
 30
0.0
  3
*D2
  1

  0
SOLID
  5
150
330
14D
100
AcDbEntity
  8
VERMASSUNG
100
AcDbTrace
 10
196.5670005712
 20
144.7630551488
 30
0.0
 11
193.5670005712
 21
145.2130551488
 31
0.0
 12
193.5670005712
 22
144.3130551488
 32
0.0
 13
193.5670005712
 23
144.3130551488
 33
0.0
  0
SOLID
  5
151
330
14D
100
AcDbEntity
  8
VERMASSUNG
100
AcDbTrace
 10
142.5170005712
 20
144.7630551488
 30
0.0
 11
145.5170005712
 21
144.3130551488
 31
0.0
 12
145.5170005712
 22
145.2130551488
 32
0.0
 13
145.5170005712
 23
145.2130551488
 33
0.0
  0
LINE
  5
152
330
14D
100
AcDbEntity
  8
VERMASSUNG
100
AcDbLine
 10
196.5670005712
 20
128.1388558276
 30
0.0
 11
196.5670005712
 21
145.7630551488
 31
0.0
  0
LINE
  5
153
330
14D
100
AcDbEntity
  8
VERMASSUNG
100
AcDbLine
 10
142.5170005712
 20
140.259436673
 30
0.0
 11
142.5170005712
 21
145.7630551488
 31
0.0
  0
LINE
  5
154
330
14D
100
AcDbEntity
  8
VERMASSUNG
100
AcDbLine
 10
196.5670005712
 20
144.7630551488
 30
0.0
 11
142.5170005712
 21
144.7630551488
 31
0.0
  0
MTEXT
  5
155
330
14D
100
AcDbEntity
  8
VERMASSUNG
100
AcDbMText
 10
163.2818848889
 20
147.3411905119
 30
0.0
 40
2.0
 41
0.0
 71
     1
 72
     1
  1
54.05
  7
SLDTEXTSTYLE0
 73
     1
 44
1.0
  0
ENDBLK
  5
14F
330
14D
100
AcDbEntity
  8
0
100
AcDbBlockEnd
  0
BLOCK
  5
158
330
157
100
AcDbEntity
  8
0
100
AcDbBlockBegin
  2
*D3
 70
     1
 10
0.0
 20
0.0
 30
0.0
  3
*D3
  1

  0
SOLID
  5
15A
330
157
100
AcDbEntity
  8
VERMASSUNG
100
AcDbTrace
 10
196.5670005712
 20
150.7630551488
 30
0.0
 11
193.5670005712
 21
151.2130551488
 31
0.0
 12
193.5670005712
 22
150.3130551488
 32
0.0
 13
193.5670005712
 23
150.3130551488
 33
0.0
  0
SOLID
  5
15B
330
157
100
AcDbEntity
  8
VERMASSUNG
100
AcDbTrace
 10
116.5670005712
 20
150.7630551488
 30
0.0
 11
119.5670005712
 21
150.3130551488
 31
0.0
 12
119.5670005712
 22
151.2130551488
 32
0.0
 13
119.5670005712
 23
151.2130551488
 33
0.0
  0
LINE
  5
15C
330
157
100
AcDbEntity
  8
VERMASSUNG
100
AcDbLine
 10
196.5670005712
 20
128.1388558276
 30
0.0
 11
196.5670005712
 21
151.7630551488
 31
0.0
  0
LINE
  5
15D
330
157
100
AcDbEntity
  8
VERMASSUNG
100
AcDbLine
 10
116.5670005712
 20
141.6129963492
 30
0.0
 11
116.5670005712
 21
151.7630551488
 31
0.0
  0
LINE
  5
15E
330
157
100
AcDbEntity
  8
VERMASSUNG
100
AcDbLine
 10
196.5670005712
 20
150.7630551488
 30
0.0
 11
116.5670005712
 21
150.7630551488
 31
0.0
  0
MTEXT
  5
15F
330
157
100
AcDbEntity
  8
VERMASSUNG
100
AcDbMText
 10
154.1218846576
 20
153.3411905119
 30
0.0
 40
2.0
 41
0.0
 71
     1
 72
     1
  1
80
  7
SLDTEXTSTYLE0
 73
     1
 44
1.0
  0
ENDBLK
  5
159
330
157
100
AcDbEntity
  8
0
100
AcDbBlockEnd
  0
BLOCK
  5
162
330
161
100
AcDbEntity
  8
0
100
AcDbBlockBegin
  2
*D4
 70
     1
 10
0.0
 20
0.0
 30
0.0
  3
*D4
  1

  0
SOLID
  5
164
330
161
100
AcDbEntity
  8
VERMASSUNG
100
AcDbTrace
 10
196.5670005712
 20
156.7630551488
 30
0.0
 11
193.5670005712
 21
157.2130551488
 31
0.0
 12
193.5670005712
 22
156.3130551488
 32
0.0
 13
193.5670005712
 23
156.3130551488
 33
0.0
  0
SOLID
  5
165
330
161
100
AcDbEntity
  8
VERMASSUNG
100
AcDbTrace
 10
84.6670005712
 20
156.7630551488
 30
0.0
 11
87.6670005712
 21
156.3130551488
 31
0.0
 12
87.6670005712
 22
157.2130551488
 32
0.0
 13
87.6670005712
 23
157.2130551488
 33
0.0
  0
LINE
  5
166
330
161
100
AcDbEntity
  8
VERMASSUNG
100
AcDbLine
 10
196.5670005712
 20
128.1388558276
 30
0.0
 11
196.5670005712
 21
157.7630551488
 31
0.0
  0
LINE
  5
167
330
161
100
AcDbEntity
  8
VERMASSUNG
100
AcDbLine
 10
84.6670005712
 20
130.1036740957
 30
0.0
 11
84.6670005712
 21
157.7630551488
 31
0.0
  0
LINE
  5
168
330
161
100
AcDbEntity
  8
VERMASSUNG
100
AcDbLine
 10
196.5670005712
 20
156.7630551488
 30
0.0
 11
84.6670005712
 21
156.7630551488
 31
0.0
  0
MTEXT
  5
169
330
161
100
AcDbEntity
  8
VERMASSUNG
100
AcDbMText
 10
135.692208692
 20
159.3411905119
 30
0.0
 40
2.0
 41
0.0
 71
     1
 72
     1
  1
111.9
  7
SLDTEXTSTYLE0
 73
     1
 44
1.0
  0
ENDBLK
  5
163
330
161
100
AcDbEntity
  8
0
100
AcDbBlockEnd
  0
BLOCK
  5
16C
330
16B
100
AcDbEntity
  8
0
100
AcDbBlockBegin
  2
*D5
 70
     1
 10
0.0
 20
0.0
 30
0.0
  3
*D5
  1

  0
SOLID
  5
16E
330
16B
100
AcDbEntity
  8
VERMASSUNG
100
AcDbTrace
 10
204.3014676223
 20
119.4129963492
 30
0.0
 11
203.8514676223
 21
116.4129963492
 31
0.0
 12
204.7514676223
 22
116.4129963492
 32
0.0
 13
204.7514676223
 23
116.4129963492
 33
0.0
  0
SOLID
  5
16F
330
16B
100
AcDbEntity
  8
VERMASSUNG
100
AcDbTrace
 10
204.3014676223
 20
101.4129963492
 30
0.0
 11
204.7514676223
 21
104.4129963492
 31
0.0
 12
203.8514676223
 22
104.4129963492
 32
0.0
 13
203.8514676223
 23
104.4129963492
 33
0.0
  0
LINE
  5
170
330
16B
100
AcDbEntity
  8
VERMASSUNG
100
AcDbLine
 10
196.2670005712
 20
119.4129963492
 30
0.0
 11
205.3014676223
 21
119.4129963492
 31
0.0
  0
LINE
  5
171
330
16B
100
AcDbEntity
  8
VERMASSUNG
100
AcDbLine
 10
196.2670005712
 20
101.4129963492
 30
0.0
 11
205.3014676223
 21
101.4129963492
 31
0.0
  0
LINE
  5
172
330
16B
100
AcDbEntity
  8
VERMASSUNG
100
AcDbLine
 10
204.3014676223
 20
119.4129963492
 30
0.0
 11
204.3014676223
 21
101.4129963492
 31
0.0
  0
MTEXT
  5
173
330
16B
100
AcDbEntity
  8
VERMASSUNG
100
AcDbMText
 10
201.7233321427
 20
107.3719422226
 30
0.0
 40
2.0
 41
0.0
 71
     1
 72
     1
  1
%%c
  7
SLDTEXTSTYLE0
 11
-7.044195017643634E-15
 21
1.0
 31
0.0
 73
     1
 44
1.0
  0
MTEXT
  5
174
330
16B
100
AcDbEntity
  8
VERMASSUNG
100
AcDbMText
 10
201.7233322592
 20
110.9806204458
 30
0.0
 40
2.0
 41
0.0
 71
     1
 72
     1
  1
18
  7
SLDTEXTSTYLE0
 11
-7.044195017643634E-15
 21
1.0
 31
0.0
 73
     1
 44
1.0
  0
ENDBLK
  5
16D
330
16B
100
AcDbEntity
  8
0
100
AcDbBlockEnd
  0
BLOCK
  5
177
330
176
100
AcDbEntity
  8
0
100
AcDbBlockBegin
  2
*D6
 70
     1
 10
0.0
 20
0.0
 30
0.0
  3
*D6
  1

  0
SOLID
  5
179
330
176
100
AcDbEntity
  8
VERMASSUNG
100
AcDbTrace
 10
210.3014676223
 20
134.4129963492
 30
0.0
 11
209.8514676223
 21
131.4129963492
 31
0.0
 12
210.7514676223
 22
131.4129963492
 32
0.0
 13
210.7514676223
 23
131.4129963492
 33
0.0
  0
SOLID
  5
17A
330
176
100
AcDbEntity
  8
VERMASSUNG
100
AcDbTrace
 10
210.3014676223
 20
86.4129963492
 30
0.0
 11
210.7514676223
 21
89.4129963492
 31
0.0
 12
209.8514676223
 22
89.4129963492
 32
0.0
 13
209.8514676223
 23
89.4129963492
 33
0.0
  0
LINE
  5
17B
330
176
100
AcDbEntity
  8
VERMASSUNG
100
AcDbLine
 10
185.8444659686
 20
134.4129963492
 30
0.0
 11
211.3014676223
 21
134.4129963492
 31
0.0
  0
LINE
  5
17C
330
176
100
AcDbEntity
  8
VERMASSUNG
100
AcDbLine
 10
185.8444659686
 20
86.4129963492
 30
0.0
 11
211.3014676223
 21
86.4129963492
 31
0.0
  0
LINE
  5
17D
330
176
100
AcDbEntity
  8
VERMASSUNG
100
AcDbLine
 10
210.3014676223
 20
134.4129963492
 30
0.0
 11
210.3014676223
 21
86.4129963492
 31
0.0
  0
MTEXT
  5
17E
330
176
100
AcDbEntity
  8
VERMASSUNG
100
AcDbMText
 10
207.7233321427
 20
106.8163250217
 30
0.0
 40
2.0
 41
0.0
 71
     1
 72
     1
  1
%%c
  7
SLDTEXTSTYLE0
 11
-7.044195017643634E-15
 21
1.0
 31
0.0
 73
     1
 44
1.0
  0
MTEXT
  5
17F
330
176
100
AcDbEntity
  8
VERMASSUNG
100
AcDbMText
 10
207.7233322592
 20
110.4250032448
 30
0.0
 40
2.0
 41
0.0
 71
     1
 72
     1
  1
48
  7
SLDTEXTSTYLE0
 11
-7.044195017643634E-15
 21
1.0
 31
0.0
 73
     1
 44
1.0
  0
ENDBLK
  5
178
330
176
100
AcDbEntity
  8
0
100
AcDbBlockEnd
  0
ENDSEC
  0
SECTION
  2
ENTITIES
  0
MTEXT
  5
45
330
1F
100
AcDbEntity
  8
KOPF_DÜNN
100
AcDbMText
 10
13.8892156294
 20
23.8442973028
 30
0.0
 40
3.0
 41
0.0
 71
     1
 72
     1
  1
HA6.W18.K01.080
  7
SLDTEXTSTYLE0
 73
     1
 44
1.0
  0
MTEXT
  5
46
330
1F
100
AcDbEntity
  8
VERMASSUNG
100
AcDbMText
 10
13.9329988022
 20
28.8834360957
 30
0.0
 40
3.0
 41
0.0
 71
     1
 72
     1
  1
Flächenspannfutter_End mill adapter Weldon ø18
  7
SLDTEXTSTYLE0
 73
     1
 44
1.0
  0
MTEXT
  5
47
330
1F
100
AcDbEntity
  8
VERMASSUNG
100
AcDbMText
 10
98.8601118557
 20
13.8365368179
 30
0.0
 40
2.0
 41
0.0
 71
     1
 72
     1
  1
Datum: 25.04.2006
  7
SLDTEXTSTYLE0
 73
     1
 44
1.0
  0
MTEXT
  5
49
330
1F
100
AcDbEntity
  8
VERMASSUNG
100
AcDbMText
 10
13.933048693
 20
18.0482802738
 30
0.0
 40
2.0
 41
0.0
 71
     1
 72
     1
  1
DIN 69 893 HSK A 63
  7
SLDTEXTSTYLE1
 73
     1
 44
1.0
  0
MTEXT
  5
4A
330
1F
100
AcDbEntity
  8
VERMASSUNG
100
AcDbMText
 10
13.9808475933
 20
13.9090973692
 30
0.0
 40
2.0
 41
0.0
 71
     1
 72
     1
  1
Gewicht: 1275g
  7
SLDTEXTSTYLE0
 73
     1
 44
1.0
  0
LINE
  5
4B
330
1F
100
AcDbEntity
  8
0
  6
Continuous
 62
     7
370
    15
100
AcDbLine
 10
116.8670005712
 20
78.9129963492
 30
0.0
 11
121.5170005712
 21
78.9129963492
 31
0.0
  0
LINE
  5
4C
330
1F
100
AcDbEntity
  8
0
  6
Continuous
 62
     7
370
    15
100
AcDbLine
 10
121.5449889302
 20
141.9129963492
 30
0.0
 11
116.8670005712
 21
141.9129963492
 31
0.0
  0
ARC
  5
4D
330
1F
100
AcDbEntity
  8
0
  6
Continuous
 62
     7
370
    15
100
AcDbCircle
 10
116.8670005712
 20
79.2129963492
 30
0.0
 40
0.3000000000000114
100
AcDbArc
 50
180.0
 51
270.0
  0
ARC
  5
4E
330
1F
100
AcDbEntity
  8
0
  6
Continuous
 62
     7
370
    15
100
AcDbCircle
 10
116.8670005712
 20
141.6129963492
 30
0.0
 40
0.3000000000000114
100
AcDbArc
 50
90.0
 51
180.0
  0
ARC
  5
4F
330
1F
100
AcDbEntity
  8
0
  6
Continuous
 62
     7
370
    15
100
AcDbCircle
 10
145.5170005712
 20
83.4129963492
 30
0.0
 40
3.000000000000014
100
AcDbArc
 50
90.0
 51
168.4626212438
  0
ARC
  5
50
330
1F
100
AcDbEntity
  8
0
  6
Continuous
 62
     7
370
    15
100
AcDbCircle
 10
145.5170005712
 20
137.4129963492
 30
0.0
 40
3.0
100
AcDbArc
 50
191.5455781598
 51
270.0
  0
ARC
  5
51
330
1F
100
AcDbEntity
  8
0
  6
Continuous
 62
     7
370
    15
100
AcDbCircle
 10
116.0669938185
 20
85.8425587348
 30
0.0
 40
0.6000067526677242
100
AcDbArc
 50
33.5571153394
 51
90.0
  0
ARC
  5
52
330
1F
100
AcDbEntity
  8
0
  6
Continuous
 62
     7
370
    15
100
AcDbCircle
 10
116.0669938185
 20
134.9834339636
 30
0.0
 40
0.6000067526677242
100
AcDbArc
 50
270.0
 51
326.4428846606
  0
LINE
  5
53
330
1F
100
AcDbEntity
  8
0
  6
Continuous
 62
     7
370
    15
100
AcDbLine
 10
114.5670005712
 20
86.1925654875
 30
0.0
 11
115.4237133446
 21
86.4221209832
 31
0.0
  0
LINE
  5
54
330
1F
100
AcDbEntity
  8
0
  6
Continuous
 62
     7
370
    15
100
AcDbLine
 10
115.4237133446
 20
134.4038717151
 30
0.0
 11
114.5670005712
 21
134.6334272109
 31
0.0
  0
LINE
  5
55
330
1F
100
AcDbEntity
  8
0
  6
Continuous
 62
     7
370
    15
100
AcDbLine
 10
103.3354917723
 20
134.0707263693
 30
0.0
 11
90.7670005712
 21
133.4410424414
 31
0.0
  0
LINE
  5
56
330
1F
100
AcDbEntity
  8
0
  6
Continuous
 62
     7
370
    15
100
AcDbLine
 10
114.5670005712
 20
134.6334272109
 30
0.0
 11
111.7499989138
 21
134.4922948634
 31
0.0
  0
LINE
  5
57
330
1F
100
AcDbEntity
  8
0
  6
Continuous
 62
     7
370
    15
100
AcDbLine
 10
111.7500550039
 20
86.3336950249
 30
0.0
 11
114.5670005712
 21
86.1925654875
 31
0.0
  0
LINE
  5
58
330
1F
100
AcDbEntity
  8
0
  6
Continuous
 62
     7
370
    15
100
AcDbLine
 10
94.7670005712
 20
87.1845494554
 30
0.0
 11
103.335894291
 21
86.7552461628
 31
0.0
  0
LINE
  5
59
330
1F
100
AcDbEntity
  8
0
  6
Continuous
 62
     7
370
    15
100
AcDbLine
 10
145.5170005712
 20
86.4129963492
 30
0.0
 11
185.8444659686
 21
86.4129963492
 31
0.0
  0
LINE
  5
5A
330
1F
100
AcDbEntity
  8
0
  6
Continuous
 62
     7
370
    15
100
AcDbLine
 10
185.8444659686
 20
134.4129963492
 30
0.0
 11
145.5170005712
 21
134.4129963492
 31
0.0
  0
LINE
  5
5B
330
1F
100
AcDbEntity
  8
0
  6
Continuous
 62
     7
370
    15
100
AcDbLine
 10
185.8444659686
 20
86.4129963492
 30
0.0
 11
195.4122370946
 21
90.8745212967
 31
0.0
  0
LINE
  5
5C
330
1F
100
AcDbEntity
  8
0
  6
Continuous
 62
     7
370
    15
100
AcDbLine
 10
195.4122370946
 20
129.9514714017
 30
0.0
 11
185.8444659686
 21
134.4129963492
 31
0.0
  0
ARC
  5
5D
330
1F
100
AcDbEntity
  8
0
  6
Continuous
 62
     7
370
    15
100
AcDbCircle
 10
115.5790047716
 20
85.8425654875
 30
0.0
 40
0.6000000000000085
100
AcDbArc
 50
90.0
 51
105.0
  0
ARC
  5
5E
330
1F
100
AcDbEntity
  8
0
  6
Continuous
 62
     7
370
    15
100
AcDbCircle
 10
115.5790047716
 20
134.9834272109
 30
0.0
 40
0.5999999999999943
100
AcDbArc
 50
255.0
 51
270.0
  0
LINE
  5
5F
330
1F
100
AcDbEntity
  8
0
  6
Continuous
 62
     7
370
    15
100
AcDbLine
 10
115.5790047716
 20
86.4425654875
 30
0.0
 11
116.0669938185
 21
86.4425654875
 31
0.0
  0
LINE
  5
60
330
1F
100
AcDbEntity
  8
0
  6
Continuous
 62
     7
370
    15
100
AcDbLine
 10
116.0669938185
 20
134.3834272109
 30
0.0
 11
115.5790047716
 21
134.3834272109
 31
0.0
  0
ARC
  5
61
330
1F
100
AcDbEntity
  8
0
  6
Continuous
 62
     7
370
    15
100
AcDbCircle
 10
194.5670005712
 20
92.6871368708
 30
0.0
 40
2.000000000000013
100
AcDbArc
 50
295.0
 51
0.0
  0
ARC
  5
62
330
1F
100
AcDbEntity
  8
0
  6
Continuous
 62
     7
370
    15
100
AcDbCircle
 10
194.5670005712
 20
128.1388558276
 30
0.0
 40
2.000000000000013
100
AcDbArc
 50
0.0
 51
65.0
  0
LINE
  5
63
330
1F
100
AcDbEntity
  8
0
  6
Continuous
 62
     7
370
    15
100
AcDbLine
 10
85.9503372112
 20
89.5429963492
 30
0.0
 11
93.3670005712
 21
89.5429963492
 31
0.0
  0
ARC
  5
64
330
1F
100
AcDbEntity
  8
0
  6
Continuous
 62
     7
370
    15
100
AcDbCircle
 10
93.3670005712
 20
88.1429963492
 30
0.0
 40
1.399999999999991
100
AcDbArc
 50
42.2465410162
 51
90.0
  0
LINE
  5
65
330
1F
100
AcDbEntity
  8
0
  6
Continuous
 62
     7
370
    15
100
AcDbLine
 10
84.6680330653
 20
90.691963855
 30
0.0
 11
85.8081640293
 21
89.551832891
 31
0.0
  0
LINE
  5
66
330
1F
100
AcDbEntity
  8
0
  6
Continuous
 62
     7
370
    15
100
AcDbLine
 10
85.8081640293
 20
131.2741598074
 30
0.0
 11
84.6769013445
 21
130.1428971226
 31
0.0
  0
ARC
  5
67
330
1F
100
AcDbEntity
  8
0
  6
Continuous
 62
     7
370
    15
100
AcDbCircle
 10
89.3670005712
 20
132.6829963492
 30
0.0
 40
1.400000000000008
100
AcDbArc
 50
270.0
 51
301.7485287426
  0
LINE
  5
68
330
1F
100
AcDbEntity
  8
0
  6
Continuous
 62
     7
370
    15
100
AcDbLine
 10
89.3670005712
 20
131.2829963492
 30
0.0
 11
85.9412663051
 21
131.2829963492
 31
0.0
  0
CIRCLE
  5
69
330
1F
100
AcDbEntity
  8
0
  6
Continuous
 62
     7
370
    15
100
AcDbCircle
 10
173.0670005712
 20
110.4129963492
 30
0.0
 40
6.000000000000001
  0
LINE
  5
6A
330
1F
100
AcDbEntity
  8
0
  6
Continuous
 62
     7
370
    15
100
AcDbLine
 10
176.0849623229
 20
108.712435599
 30
0.0
 11
176.0487102574
 21
112.1763475187
 31
0.0
  0
LINE
  5
6B
330
1F
100
AcDbEntity
  8
0
  6
Continuous
 62
     7
370
    15
100
AcDbLine
 10
173.0307485057
 20
113.8769082689
 30
0.0
 11
176.0487102574
 21
112.1763475187
 31
0.0
  0
LINE
  5
6C
330
1F
100
AcDbEntity
  8
0
  6
Continuous
 62
     7
370
    15
100
AcDbLine
 10
176.0849623229
 20
108.712435599
 30
0.0
 11
173.1032526367
 21
106.9490844295
 31
0.0
  0
LINE
  5
6D
330
1F
100
AcDbEntity
  8
0
  6
Continuous
 62
     7
370
    15
100
AcDbLine
 10
173.1032526367
 20
106.9490844295
 30
0.0
 11
170.0852908849
 21
108.6496451797
 31
0.0
  0
LINE
  5
6E
330
1F
100
AcDbEntity
  8
0
  6
Continuous
 62
     7
370
    15
100
AcDbLine
 10
170.0490388195
 20
112.1135570994
 30
0.0
 11
170.0852908849
 21
108.6496451797
 31
0.0
  0
LINE
  5
6F
330
1F
100
AcDbEntity
  8
0
  6
Continuous
 62
     7
370
    15
100
AcDbLine
 10
173.0307485057
 20
113.8769082689
 30
0.0
 11
170.0490388195
 21
112.1135570994
 31
0.0
  0
LINE
  5
70
330
1F
100
AcDbEntity
  8
0
  6
Continuous
 62
     7
370
    15
100
AcDbLine
 10
141.9170005712
 20
80.2260786529
 30
0.0
 11
137.9589334027
 21
80.2260786529
 31
0.0
  0
LINE
  5
71
330
1F
100
AcDbEntity
  8
0
  6
Continuous
 62
     7
370
    15
100
AcDbLine
 10
137.9589334027
 20
80.2260786529
 30
0.0
 11
137.9589334027
 21
130.2629963492
 31
0.0
  0
LINE
  5
72
330
1F
100
AcDbEntity
  8
0
  6
Continuous
 62
     7
370
    15
100
AcDbLine
 10
137.9589334027
 20
130.2629963492
 30
0.0
 11
141.9170005712
 21
130.2629963492
 31
0.0
  0
LINE
  5
73
330
1F
100
AcDbEntity
  8
0
  6
Continuous
 62
     7
370
    15
100
AcDbLine
 10
142.5170005712
 20
80.8527189486
 30
0.0
 11
142.5170005712
 21
130.2629963492
 31
0.0
  0
SPLINE
  5
74
330
1F
100
AcDbEntity
  8
0
  6
Continuous
 62
     7
370
    15
100
AcDbSpline
210
0.0
220
0.0
230
1.0
 70
     8
 71
     3
 72
    10
 73
     6
 74
     0
 42
0.00000001
 43
0.00000001
 40
0.0
 40
0.0
 40
0.0
 40
0.0
 40
0.5
 40
0.5
 40
1.0
 40
1.0
 40
1.0
 40
1.0
 10
142.5170005711685
 20
80.85271894860298
 30
0.0
 10
142.5170005711685
 20
80.69283168040931
 30
0.0
 10
142.4556909199327
 20
80.53170442489471
 30
0.0
 10
142.2365912823976
 20
80.29760542653987
 30
0.0
 10
142.0785430760841
 20
80.22607865294866
 30
0.0
 10
141.9170005711686
 20
80.22607865294866
 30
0.0
  0
SPLINE
  5
75
330
1F
100
AcDbEntity
  8
0
  6
Continuous
 62
     7
370
    15
100
AcDbSpline
210
0.0
220
0.0
230
1.0
 70
    24
 71
     3
 72
    12
 73
     8
 74
     0
 42
0.00000001
 43
0.00000001
 40
0.0
 40
0.0
 40
0.0
 40
0.0
 40
0.250000000000002
 40
0.250000000000002
 40
0.500000000000004
 40
0.500000000000004
 40
1.0
 40
1.0
 40
1.0
 40
1.0
 10
141.9170005711685
 20
130.2629963491958
 30
0.0
 10
142.0072396388556
 20
130.2629963491958
 30
0.0
 10
142.0981377529621
 20
130.2629963491958
 30
0.0
 10
142.2527347894506
 20
130.2629963491958
 30
0.0
 10
142.3177132055587
 20
130.2629963491958
 30
0.0
 10
142.469548233495
 20
130.2629963491958
 30
0.0
 10
142.5170005711685
 20
130.2629963491958
 30
0.0
 10
142.5170005711685
 20
130.2629963491958
 30
0.0
  0
LINE
  5
76
330
1F
100
AcDbEntity
  8
0
  6
Continuous
 62
     7
370
    15
100
AcDbLine
 10
121.5170005712
 20
130.2629963492
 30
0.0
 11
131.1750677397
 21
130.2629963492
 31
0.0
  0
LINE
  5
77
330
1F
100
AcDbEntity
  8
0
  6
Continuous
 62
     7
370
    15
100
AcDbLine
 10
131.1750677397
 20
80.2260786529
 30
0.0
 11
131.1750677397
 21
130.2629963492
 31
0.0
  0
LINE
  5
78
330
1F
100
AcDbEntity
  8
0
  6
Continuous
 62
     7
370
    15
100
AcDbLine
 10
131.1750677397
 20
80.2260786529
 30
0.0
 11
129.5170005712
 21
80.2260786529
 31
0.0
  0
SPLINE
  5
79
330
1F
100
AcDbEntity
  8
0
  6
Continuous
 62
     7
370
    15
100
AcDbSpline
210
0.0
220
0.0
230
1.0
 70
     8
 71
     3
 72
    28
 73
    24
 74
     0
 42
0.00000001
 43
0.00000001
 40
0.0
 40
0.0
 40
0.0
 40
0.0
 40
0.1249999999999999
 40
0.1249999999999999
 40
0.1874999999999998
 40
0.1874999999999998
 40
0.2499999999999997
 40
0.2499999999999997
 40
0.3749999999999993
 40
0.3749999999999993
 40
0.4374999999999993
 40
0.4374999999999993
 40
0.4999999999999992
 40
0.4999999999999992
 40
0.6249999999999992
 40
0.6249999999999992
 40
0.7499999999999992
 40
0.7499999999999992
 40
0.8124999999999993
 40
0.8124999999999993
 40
0.8749999999999996
 40
0.8749999999999996
 40
1.0
 40
1.0
 40
1.0
 40
1.0
 10
129.5170005711686
 20
80.22607865294866
 30
0.0
 10
128.9852928136756
 20
80.22607865294866
 30
0.0
 10
128.4630542483653
 20
80.21029393899845
 30
0.0
 10
127.6931837620903
 20
80.16529852492224
 30
0.0
 10
127.4388241898989
 20
80.14674352984652
 30
0.0
 10
126.9347026092004
 20
80.10289080740002
 30
0.0
 10
126.6849797917725
 20
80.07754620044781
 30
0.0
 10
125.9593898403261
 20
79.9941441226977
 30
0.0
 10
125.5010295787446
 20
79.92827856354661
 30
0.0
 10
124.8505316353507
 20
79.81930822305483
 30
0.0
 10
124.6388495845582
 20
79.78106858728817
 30
0.0
 10
124.2347780954202
 20
79.70330984986883
 30
0.0
 10
124.0422715815994
 20
79.66380888769348
 30
0.0
 10
123.4924366105781
 20
79.54490114532747
 30
0.0
 10
123.1625078322693
 20
79.46508346390286
 30
0.0
 10
122.5780365637006
 20
79.3117403021068
 30
0.0
 10
122.3317594256871
 20
79.24040654883754
 30
0.0
 10
122.0319166329891
 20
79.14646304176293
 30
0.0
 10
121.9434597759169
 20
79.117269248403
 30
0.0
 10
121.7900984226118
 20
79.0638026741396
 30
0.0
 10
121.7250102083855
 20
79.0394433398644
 30
0.0
 10
121.5694161924447
 20
78.97585319441967
 30
0.0
 10
121.5170005711685
 20
78.94575025933042
 30
0.0
 10
121.5170005711685
 20
78.9288733663335
 30
0.0
  0
LINE
  5
7A
330
1F
100
AcDbEntity
  8
0
  6
Continuous
 62
     7
370
    15
100
AcDbLine
 10
121.5170005712
 20
78.9288733663
 30
0.0
 11
121.5170005712
 21
78.9129963492
 31
0.0
  0
SPLINE
  5
7B
330
1F
100
AcDbEntity
  8
0
  6
Continuous
 62
     7
370
    15
100
AcDbSpline
210
0.0
220
0.0
230
1.0
 70
     8
 71
     3
 72
    17
 73
    13
 74
     0
 42
0.00000001
 43
0.00000001
 40
0.0
 40
0.0
 40
0.0
 40
0.0
 40
0.1034796923964057
 40
0.210023918880785
 40
0.3134862136955584
 40
0.4198361274354883
 40
0.5254127712915682
 40
0.6339610695419791
 40
0.7409508756305032
 40
0.8511696089308174
 40
0.9558996534551938
 40
0.9999999999999999
 40
0.9999999999999999
 40
0.9999999999999999
 40
0.9999999999999999
 10
129.5170005711686
 20
140.88019182236
 30
0.0
 10
129.0817522220585
 20
140.8856400188934
 30
0.0
 10
128.1983657154935
 20
140.8966977594052
 30
0.0
 10
126.9175381302649
 20
140.9830561523068
 30
0.0
 10
125.7001215943908
 20
141.1109263288445
 30
0.0
 10
124.5923157421443
 20
141.2698716274377
 30
0.0
 10
123.6040769381961
 20
141.4443653151533
 30
0.0
 10
122.7793533806645
 20
141.6135311657932
 30
0.0
 10
122.1303998800052
 20
141.7614149483215
 30
0.0
 10
121.7133650645435
 20
141.8632055325523
 30
0.0
 10
121.514768351579
 20
141.9135570551555
 30
0.0
 10
121.5380810730123
 20
141.9076513709331
 30
0.0
 10
121.5449889302498
 20
141.9059014412385
 30
0.0
  0
LINE
  5
7C
330
1F
100
AcDbEntity
  8
0
  6
Continuous
 62
     7
370
    15
100
AcDbLine
 10
131.1750677397
 20
140.8801918224
 30
0.0
 11
129.5170005712
 21
140.8801918224
 31
0.0
  0
LINE
  5
7D
330
1F
100
AcDbEntity
  8
0
  6
Continuous
 62
     7
370
    15
100
AcDbLine
 10
131.1750677397
 20
134.8716860116
 30
0.0
 11
131.1750677397
 21
140.8801918224
 31
0.0
  0
LINE
  5
7E
330
1F
100
AcDbEntity
  8
0
  6
Continuous
 62
     7
370
    15
100
AcDbLine
 10
128.7626209169
 20
134.8716860116
 30
0.0
 11
131.1750677397
 21
134.8716860116
 31
0.0
  0
SPLINE
  5
7F
330
1F
100
AcDbEntity
  8
0
  6
Continuous
 62
     7
370
    15
100
AcDbSpline
210
0.0
220
0.0
230
1.0
 70
     8
 71
     3
 72
    20
 73
    16
 74
     0
 42
0.00000001
 43
0.00000001
 40
0.0
 40
0.0
 40
0.0
 40
0.0
 40
0.2499999999999995
 40
0.2499999999999995
 40
0.3749999999999996
 40
0.3749999999999996
 40
0.4999999999999997
 40
0.4999999999999997
 40
0.6249999999999998
 40
0.6249999999999998
 40
0.7499999999999998
 40
0.7499999999999998
 40
0.8749999999999999
 40
0.8749999999999999
 40
1.0
 40
1.0
 40
1.0
 40
1.0
 10
121.5170005711685
 20
130.2629963491958
 30
0.0
 10
121.7653743054566
 20
130.9168587774932
 30
0.0
 10
122.0849443978019
 20
131.5206445594904
 30
0.0
 10
122.7072506310065
 20
132.347483295659
 30
0.0
 10
122.9386748914373
 20
132.6099119336119
 30
0.0
 10
123.459889231087
 20
133.1065745877169
 30
0.0
 10
123.7465097137221
 20
133.3371614667384
 30
0.0
 10
124.3659944550297
 20
133.753715691321
 30
0.0
 10
124.7002948345167
 20
133.9412134932886
 30
0.0
 10
125.4255553071415
 20
134.2726104709249
 30
0.0
 10
125.8074703645319
 20
134.4121144584202
 30
0.0
 10
126.6022585407036
 20
134.6375679658912
 30
0.0
 10
127.01641673491
 20
134.7241940774348
 30
0.0
 10
127.8819630754914
 20
134.8421748662889
 30
0.0
 10
128.3198506905032
 20
134.8716860115633
 30
0.0
 10
128.7626209168578
 20
134.8716860115633
 30
0.0
  0
SPLINE
  5
80
330
1F
100
AcDbEntity
  8
0
  6
Continuous
 62
     7
370
    15
100
AcDbSpline
210
0.0
220
0.0
230
1.0
 70
     8
 71
     3
 72
    70
 73
    66
 74
     0
 42
0.00000001
 43
0.00000001
 40
-0.0312500000000001
 40
-0.0312500000000001
 40
0.0
 40
0.0
 40
0.0312499999999999
 40
0.0312499999999999
 40
0.0624999999999998
 40
0.0624999999999998
 40
0.0937499999999997
 40
0.0937499999999997
 40
0.1249999999999996
 40
0.1249999999999996
 40
0.1562499999999994
 40
0.1562499999999994
 40
0.1874999999999993
 40
0.1874999999999993
 40
0.2187499999999992
 40
0.2187499999999992
 40
0.2499999999999991
 40
0.2499999999999991
 40
0.281249999999999
 40
0.281249999999999
 40
0.3124999999999989
 40
0.3124999999999989
 40
0.3437499999999988
 40
0.3437499999999988
 40
0.3749999999999987
 40
0.3749999999999987
 40
0.4062499999999986
 40
0.4062499999999986
 40
0.4374999999999984
 40
0.4374999999999984
 40
0.4687499999999983
 40
0.4687499999999983
 40
0.4999999999999982
 40
0.4999999999999982
 40
0.5312499999999983
 40
0.5312499999999983
 40
0.5624999999999984
 40
0.5624999999999984
 40
0.5937499999999986
 40
0.5937499999999986
 40
0.6249999999999987
 40
0.6249999999999987
 40
0.6562499999999988
 40
0.6562499999999988
 40
0.6874999999999989
 40
0.6874999999999989
 40
0.718749999999999
 40
0.718749999999999
 40
0.7499999999999991
 40
0.7499999999999991
 40
0.7812499999999992
 40
0.7812499999999992
 40
0.8124999999999993
 40
0.8124999999999993
 40
0.8437499999999994
 40
0.8437499999999994
 40
0.8749999999999996
 40
0.8749999999999996
 40
0.9062499999999997
 40
0.9062499999999997
 40
0.9374999999999998
 40
0.9374999999999998
 40
0.9687499999999999
 40
0.9687499999999999
 40
1.0
 40
1.0
 40
1.03125
 40
1.03125
 10
124.8315459098287
 20
121.0339032351792
 30
0.0
 10
124.3024552325084
 20
121.0339032351792
 30
0.0
 10
124.0423845651313
 20
121.0585805299644
 30
0.0
 10
123.5308098852959
 20
121.1550522030063
 30
0.0
 10
123.2766346015557
 20
121.2280331189863
 30
0.0
 10
122.792363971494
 20
121.417773721925
 30
0.0
 10
122.5627228796128
 20
121.5336343803187
 30
0.0
 10
122.1281185313793
 20
121.8062522262764
 30
0.0
 10
121.9225527547327
 20
121.9642913083302
 30
0.0
 10
121.5539956141375
 20
122.3078341593008
 30
0.0
 10
121.388514631402
 20
122.4945966034025
 30
0.0
 10
121.0960901219669
 20
122.8981397777993
 30
0.0
 10
120.9719891453404
 20
123.1116367742285
 30
0.0
 10
120.7724099485907
 20
123.551020088151
 30
0.0
 10
120.6954763627324
 20
123.7801600752966
 30
0.0
 10
120.592619304212
 20
124.2461341980566
 30
0.0
 10
120.5671463947529
 20
124.4790166437328
 30
0.0
 10
120.5668559841852
 20
124.9444141788126
 30
0.0
 10
120.5928806179609
 20
125.1792899362069
 30
0.0
 10
120.6950289024529
 20
125.6307830834532
 30
0.0
 10
120.770605350036
 20
125.8488295588646
 30
0.0
 10
120.971102881181
 20
126.2699240839024
 30
0.0
 10
121.0962317226894
 20
126.4718454684207
 30
0.0
 10
121.3855905237109
 20
126.8438749509396
 30
0.0
 10
121.5510015107664
 20
127.0165032545199
 30
0.0
 10
121.9239920689142
 20
127.3338212590659
 30
0.0
 10
122.1257251020033
 20
127.4736081925676
 30
0.0
 10
122.5585843528312
 20
127.7177844461194
 30
0.0
 10
122.7925028857206
 20
127.8230139571609
 30
0.0
 10
123.2766866208632
 20
127.991171103536
 30
0.0
 10
123.5260022468187
 20
128.0544219941299
 30
0.0
 10
124.0390347712464
 20
128.1400012032325
 30
0.0
 10
124.3043285941511
 20
128.1618733681549
 30
0.0
 10
124.8266632140208
 20
128.1620370177988
 30
0.0
 10
125.0864168765025
 20
128.1410353257028
 30
0.0
 10
125.6030286921478
 20
128.0556329706252
 30
0.0
 10
125.8553947326481
 20
127.9916267873382
 30
0.0
 10
126.3369198541809
 20
127.824812267297
 30
0.0
 10
126.5697705862945
 20
127.7206791038979
 30
0.0
 10
127.0068604347332
 20
127.4746924514029
 30
0.0
 10
127.2081814233904
 20
127.3349426204541
 30
0.0
 10
127.5772674486903
 20
127.0218045507295
 30
0.0
 10
127.746252199742
 20
126.8463483914594
 30
0.0
 10
128.0367082564012
 20
126.4735081273591
 30
0.0
 10
128.1597800677633
 20
126.2753863172482
 30
0.0
 10
128.3611163091853
 20
125.8546749745146
 30
0.0
 10
128.4383288551276
 20
125.632684953847
 30
0.0
 10
128.5405323980277
 20
125.1828200141386
 30
0.0
 10
128.56676074948
 20
124.9525646010219
 30
0.0
 10
128.5672371487971
 20
124.4812486584728
 30
0.0
 10
128.5414947362991
 20
124.2480112427587
 30
0.0
 10
128.4401839599353
 20
123.7863347032606
 30
0.0
 10
128.3633513205443
 20
123.5554373161485
 30
0.0
 10
128.1629474813292
 20
123.1131613023568
 30
0.0
 10
128.0402759830371
 20
122.9020988710709
 30
0.0
 10
127.7503286938728
 20
122.5006003603382
 30
0.0
 10
127.5817577145076
 20
122.3096938382623
 30
0.0
 10
127.2134881203945
 20
121.9659685062652
 30
0.0
 10
127.0124262631241
 20
121.8108313200512
 30
0.0
 10
126.5753953445392
 20
121.5357539599714
 30
0.0
 10
126.3432471314096
 20
121.4186377305494
 30
0.0
 10
125.8622368499107
 20
121.2297112454849
 30
0.0
 10
125.6101367670803
 20
121.1566362750906
 30
0.0
 10
125.0930672808213
 20
121.0585842159561
 30
0.0
 10
124.8315459098287
 20
121.0339032351792
 30
0.0
 10
124.3024552325084
 20
121.0339032351792
 30
0.0
  0
SPLINE
  5
81
330
1F
100
AcDbEntity
  8
0
  6
Continuous
 62
     7
370
    15
100
AcDbSpline
210
0.0
220
0.0
230
1.0
 70
     8
 71
     3
 72
    70
 73
    66
 74
     0
 42
0.00000001
 43
0.00000001
 40
-0.0312499999999999
 40
-0.0312499999999999
 40
0.0
 40
0.0
 40
0.0312499999999999
 40
0.0312499999999999
 40
0.0624999999999998
 40
0.0624999999999998
 40
0.0937499999999997
 40
0.0937499999999997
 40
0.1249999999999996
 40
0.1249999999999996
 40
0.1562499999999995
 40
0.1562499999999995
 40
0.1874999999999994
 40
0.1874999999999994
 40
0.2187499999999993
 40
0.2187499999999993
 40
0.2499999999999992
 40
0.2499999999999992
 40
0.2812499999999993
 40
0.2812499999999993
 40
0.3124999999999993
 40
0.3124999999999993
 40
0.3437499999999994
 40
0.3437499999999994
 40
0.3749999999999995
 40
0.3749999999999995
 40
0.4062499999999996
 40
0.4062499999999996
 40
0.4374999999999996
 40
0.4374999999999996
 40
0.4687499999999997
 40
0.4687499999999997
 40
0.4999999999999998
 40
0.4999999999999998
 40
0.5312499999999999
 40
0.5312499999999999
 40
0.5625
 40
0.5625
 40
0.5937500000000001
 40
0.5937500000000001
 40
0.6250000000000002
 40
0.6250000000000002
 40
0.6562500000000004
 40
0.6562500000000004
 40
0.6875000000000006
 40
0.6875000000000006
 40
0.7187500000000007
 40
0.7187500000000007
 40
0.7500000000000008
 40
0.7500000000000008
 40
0.7812500000000007
 40
0.7812500000000007
 40
0.8125000000000006
 40
0.8125000000000006
 40
0.8437500000000004
 40
0.8437500000000004
 40
0.8750000000000003
 40
0.8750000000000003
 40
0.9062500000000003
 40
0.9062500000000003
 40
0.9375000000000002
 40
0.9375000000000002
 40
0.9687500000000001
 40
0.9687500000000001
 40
1.0
 40
1.0
 40
1.03125
 40
1.03125
 10
124.8315459098287
 20
135.471959743975
 30
0.0
 10
124.3024552325084
 20
135.471959743975
 30
0.0
 10
124.0423845651313
 20
135.4878601843898
 30
0.0
 10
123.5308098852959
 20
135.5498045345641
 30
0.0
 10
123.2766346015557
 20
135.5966067686553
 30
0.0
 10
122.792363971494
 20
135.7175837521104
 30
0.0
 10
122.5627228796128
 20
135.7911860799173
 30
0.0
 10
122.1281185313793
 20
135.9630103508954
 30
0.0
 10
121.9225527547327
 20
136.0620137738228
 30
0.0
 10
121.5539956141375
 20
136.2751101877356
 30
0.0
 10
121.388514631402
 20
136.3900099038653
 30
0.0
 10
121.0960901219669
 20
136.6353768025556
 30
0.0
 10
120.9719891453404
 20
136.7638167030259
 30
0.0
 10
120.7724099485907
 20
137.0247088511119
 30
0.0
 10
120.6954763627324
 20
137.1590900224513
 30
0.0
 10
120.592619304212
 20
137.4284099735576
 30
0.0
 10
120.5671463947529
 20
137.5610912377757
 30
0.0
 10
120.5668559841852
 20
137.8222777119067
 30
0.0
 10
120.5928806179609
 20
137.9520427500715
 30
0.0
 10
120.6950289024529
 20
138.1976253843441
 30
0.0
 10
120.770605350036
 20
138.314286921653
 30
0.0
 10
120.971102881181
 20
138.5361921118076
 30
0.0
 10
121.0962317226894
 20
138.6408033657306
 30
0.0
 10
121.3855905237109
 20
138.8308497773387
 30
0.0
 10
121.5510015107664
 20
138.9176094487883
 30
0.0
 10
121.9239920689142
 20
139.0751138245399
 30
0.0
 10
122.1257251020033
 20
139.1434390893271
 30
0.0
 10
122.5585843528312
 20
139.2616688129463
 30
0.0
 10
122.7925028857206
 20
139.3119637290501
 30
0.0
 10
123.2766866208632
 20
139.3918292659398
 30
0.0
 10
123.5260022468187
 20
139.4215703937394
 30
0.0
 10
124.0390347712464
 20
139.4617231352476
 30
0.0
 10
124.3043285941511
 20
139.4719214046575
 30
0.0
 10
124.8266632140208
 20
139.4719978630422
 30
0.0
 10
125.0864168765025
 20
139.4622068514331
 30
0.0
 10
125.6030286921478
 20
139.4221400126943
 30
0.0
 10
125.8553947326481
 20
139.3920428458375
 30
0.0
 10
126.3369198541809
 20
139.3128206360073
 30
0.0
 10
126.5697705862945
 20
139.263063156544
 30
0.0
 10
127.0068604347332
 20
139.1439712140936
 30
0.0
 10
127.2081814233904
 20
139.0756559525463
 30
0.0
 10
127.5772674486903
 20
138.9202549856128
 30
0.0
 10
127.746252199742
 20
138.8321026435459
 30
0.0
 10
128.0367082564012
 20
138.6416632544295
 30
0.0
 10
128.1597800677634
 20
138.5390386767304
 30
0.0
 10
128.3611163091853
 20
138.3173983301223
 30
0.0
 10
128.4383288551276
 20
138.1986442545748
 30
0.0
 10
128.5405323980277
 20
137.9539783156571
 30
0.0
 10
128.56676074948
 20
137.8268215902086
 30
0.0
 10
128.5672371487971
 20
137.562373444353
 30
0.0
 10
128.5414947362991
 20
137.4294727640959
 30
0.0
 10
128.4401839599353
 20
137.1626804906138
 30
0.0
 10
128.3633513205443
 20
137.0273165891453
 30
0.0
 10
128.1629474813291
 20
136.7647367938427
 30
0.0
 10
128.0402759830371
 20
136.6377616340889
 30
0.0
 10
127.7503286938728
 20
136.3936822480065
 30
0.0
 10
127.5817577145076
 20
136.2762571232527
 30
0.0
 10
127.2134881203945
 20
136.0630606623042
 30
0.0
 10
127.0124262631241
 20
135.9658865438793
 30
0.0
 10
126.5753953445392
 20
135.7925316566652
 30
0.0
 10
126.3432471314096
 20
135.7181321050085
 30
0.0
 10
125.8622368499107
 20
135.5976792255038
 30
0.0
 10
125.6101367670803
 20
135.5508208502378
 30
0.0
 10
125.0930672808213
 20
135.4878633532541
 30
0.0
 10
124.8315459098287
 20
135.471959743975
 30
0.0
 10
124.3024552325084
 20
135.471959743975
 30
0.0
  0
LINE
  5
82
330
1F
100
AcDbEntity
  8
0
  6
Continuous
 62
     7
370
    15
100
AcDbLine
 10
116.5670005712
 20
79.2129963492
 30
0.0
 11
116.5670005712
 21
141.6129963431
 31
0.0
  0
SPLINE
  5
83
330
1F
100
AcDbEntity
  8
0
  6
Continuous
 62
     7
370
    15
100
AcDbSpline
210
0.0
220
0.0
230
1.0
 70
     8
 71
     3
 72
     8
 73
     4
 74
     0
 42
0.00000001
 43
0.00000001
 40
0.0
 40
0.0
 40
0.0
 40
0.0
 40
1.0
 40
1.0
 40
1.0
 40
1.0
 10
137.9589334026576
 20
80.22607865294866
 30
0.0
 10
137.4634537419919
 20
81.12160474088202
 30
0.0
 10
136.9693396939497
 20
82.01788915593427
 30
0.0
 10
136.4770005711685
 20
82.91515919014097
 30
0.0
  0
LINE
  5
84
330
1F
100
AcDbEntity
  8
0
  6
Continuous
 62
     7
370
    15
100
AcDbLine
 10
136.4770005712
 20
82.9151591901
 30
0.0
 11
136.4770005712
 21
130.2629963492
 31
0.0
  0
SPLINE
  5
85
330
1F
100
AcDbEntity
  8
0
  6
Continuous
 62
     7
370
    15
100
AcDbSpline
210
0.0
220
0.0
230
1.0
 70
    24
 71
     3
 72
     8
 73
     4
 74
     0
 42
0.00000001
 43
0.00000001
 40
0.0
 40
0.0
 40
0.0
 40
0.0
 40
1.0
 40
1.0
 40
1.0
 40
1.0
 10
136.4770005711685
 20
130.2629963491958
 30
0.0
 10
136.9569525655334
 20
130.2629963491958
 30
0.0
 10
137.452253294507
 20
130.2629963491958
 30
0.0
 10
137.9589334026576
 20
130.2629963491958
 30
0.0
  0
LINE
  5
86
330
1F
100
AcDbEntity
  8
0
  6
Continuous
 62
     7
370
    15
100
AcDbLine
 10
132.6570005712
 20
82.9151591901
 30
0.0
 11
132.6570005712
 21
130.2629963492
 31
0.0
  0
SPLINE
  5
87
330
1F
100
AcDbEntity
  8
0
  6
Continuous
 62
     7
370
    15
100
AcDbSpline
210
0.0
220
0.0
230
1.0
 70
     8
 71
     3
 72
     8
 73
     4
 74
     0
 42
0.00000001
 43
0.00000001
 40
0.0
 40
0.0
 40
0.0
 40
0.0
 40
1.0
 40
1.0
 40
1.0
 40
1.0
 10
132.6570005711686
 20
82.91515919014095
 30
0.0
 10
132.1646614483874
 20
82.01788915593426
 30
0.0
 10
131.6705474003452
 20
81.121604740882
 30
0.0
 10
131.1750677396795
 20
80.22607865294866
 30
0.0
  0
SPLINE
  5
88
330
1F
100
AcDbEntity
  8
0
  6
Continuous
 62
     7
370
    15
100
AcDbSpline
210
0.0
220
0.0
230
1.0
 70
    24
 71
     3
 72
     8
 73
     4
 74
     0
 42
0.00000001
 43
0.00000001
 40
0.0
 40
0.0
 40
0.0
 40
0.0
 40
1.0
 40
1.0
 40
1.0
 40
1.0
 10
131.1750677396795
 20
130.2629963491958
 30
0.0
 10
131.68174784783
 20
130.2629963491958
 30
0.0
 10
132.1770485768037
 20
130.2629963491958
 30
0.0
 10
132.6570005711686
 20
130.2629963491958
 30
0.0
  0
ARC
  5
89
330
1F
100
AcDbEntity
  8
0
  6
Continuous
 62
     7
370
    15
100
AcDbCircle
 10
124.5678474088
 20
122.3093538378
 30
0.0
 40
4.117467297033008
100
AcDbArc
 50
20.6241169864
 51
159.7585591986
  0
SPLINE
  5
8A
330
1F
100
AcDbEntity
  8
0
  6
Continuous
 62
     7
370
    15
100
AcDbSpline
210
0.0
220
0.0
230
1.0
 70
     8
 71
     3
 72
    10
 73
     6
 74
     0
 42
0.00000001
 43
0.00000001
 40
0.0
 40
0.0
 40
0.0
 40
0.0
 40
0.5
 40
0.5
 40
1.0
 40
1.0
 40
1.0
 40
1.0
 10
133.0512981028595
 20
136.8129963491958
 30
0.0
 10
132.929757839191
 20
136.8877225164076
 30
0.0
 10
132.828423478842
 20
136.9966675323244
 30
0.0
 10
132.6927845359536
 20
137.247098013086
 30
0.0
 10
132.6570005711686
 20
137.3895173751849
 30
0.0
 10
132.6570005711686
 20
137.5326502002316
 30
0.0
  0
SPLINE
  5
8B
330
1F
100
AcDbEntity
  8
0
  6
Continuous
 62
     7
370
    15
100
AcDbSpline
210
0.0
220
0.0
230
1.0
 70
    24
 71
     3
 72
    12
 73
     8
 74
     0
 42
0.00000001
 43
0.00000001
 40
0.0
 40
0.0
 40
0.0
 40
0.0
 40
0.2499999999999992
 40
0.2499999999999992
 40
0.4999999999999983
 40
0.4999999999999983
 40
1.0
 40
1.0
 40
1.0
 40
1.0
 10
133.4570005711685
 20
136.8129963491958
 30
0.0
 10
133.4071238888512
 20
136.8129963491958
 30
0.0
 10
133.3591206954474
 20
136.8129963491958
 30
0.0
 10
133.2760725927355
 20
136.8129963491958
 30
0.0
 10
133.2399430132677
 20
136.8129963491958
 30
0.0
 10
133.1440309823235
 20
136.8129963491958
 30
0.0
 10
133.0942723143547
 20
136.8129963491958
 30
0.0
 10
133.0512981028595
 20
136.8129963491958
 30
0.0
  0
SPLINE
  5
8C
330
1F
100
AcDbEntity
  8
0
  6
Continuous
 62
     7
370
    15
100
AcDbSpline
210
0.0
220
0.0
230
1.0
 70
    24
 71
     3
 72
    14
 73
    10
 74
     0
 42
0.00000001
 43
0.00000001
 40
0.0
 40
0.0
 40
0.0
 40
0.0
 40
0.1250000000000012
 40
0.1250000000000012
 40
0.2500000000000024
 40
0.2500000000000024
 40
0.5000000000000013
 40
0.5000000000000013
 40
1.0
 40
1.0
 40
1.0
 40
1.0
 10
133.4570005711685
 20
84.01299634919582
 30
0.0
 10
133.3885627232821
 20
84.01299634919582
 30
0.0
 10
133.3230126845171
 20
84.01299634919582
 30
0.0
 10
133.218586045109
 20
84.01299634919583
 30
0.0
 10
133.1760414353477
 20
84.01299634919582
 30
0.0
 10
133.0634319748074
 20
84.01299634919582
 30
0.0
 10
133.0078929277879
 20
84.01299634919582
 30
0.0
 10
132.8652812323242
 20
84.01299634919582
 30
0.0
 10
132.8018758773284
 20
84.01299634919582
 30
0.0
 10
132.7546753735008
 20
84.01299634919582
 30
0.0
  0
SPLINE
  5
8D
330
1F
100
AcDbEntity
  8
0
  6
Continuous
 62
     7
370
    15
100
AcDbSpline
210
0.0
220
0.0
230
1.0
 70
     8
 71
     3
 72
    10
 73
     6
 74
     0
 42
0.00000001
 43
0.00000001
 40
0.0
 40
0.0
 40
0.0
 40
0.0
 40
0.5
 40
0.5
 40
1.0
 40
1.0
 40
1.0
 40
1.0
 10
132.6570005711686
 20
130.5488629806572
 30
0.0
 10
132.6570005711686
 20
130.5010914726639
 30
0.0
 10
132.6591618147657
 20
130.4533817506022
 30
0.0
 10
132.6678331886259
 20
130.3580866330539
 30
0.0
 10
132.6743623715819
 20
130.3103940690873
 30
0.0
 10
132.6831481943287
 20
130.2629963491958
 30
0.0
  0
SPLINE
  5
8E
330
1F
100
AcDbEntity
  8
0
  6
Continuous
 62
     7
370
    15
100
AcDbSpline
210
0.0
220
0.0
230
1.0
 70
    24
 71
     3
 72
    14
 73
    10
 74
     0
 42
0.00000001
 43
0.00000001
 40
0.0
 40
0.0
 40
0.0
 40
0.0
 40
0.5
 40
0.5
 40
0.75
 40
0.75
 40
0.875
 40
0.875
 40
1.0
 40
1.0
 40
1.0
 40
1.0
 10
136.3793257688363
 20
84.01299634919582
 30
0.0
 10
136.332541063788
 20
84.01299634919583
 30
0.0
 10
136.2704898670084
 20
84.01299634919583
 30
0.0
 10
136.1270982284578
 20
84.01299634919582
 30
0.0
 10
136.0709545749067
 20
84.01299634919583
 30
0.0
 10
135.9580035527705
 20
84.01299634919582
 30
0.0
 10
135.9150027907324
 20
84.01299634919582
 30
0.0
 10
135.8109400804259
 20
84.01299634919582
 30
0.0
 10
135.7456078420689
 20
84.01299634919582
 30
0.0
 10
135.6770005711685
 20
84.01299634919582
 30
0.0
  0
SPLINE
  5
8F
330
1F
100
AcDbEntity
  8
0
  6
Continuous
 62
     7
370
    15
100
AcDbSpline
210
0.0
220
0.0
230
1.0
 70
    24
 71
     3
 72
    12
 73
     8
 74
     0
 42
0.00000001
 43
0.00000001
 40
0.0
 40
0.0
 40
0.0
 40
0.0
 40
0.5000000000000017
 40
0.5000000000000017
 40
0.7500000000000008
 40
0.7500000000000008
 40
1.0
 40
1.0
 40
1.0
 40
1.0
 10
136.0827030394776
 20
136.8129963491958
 30
0.0
 10
136.0396174898666
 20
136.8129963491958
 30
0.0
 10
135.9904652881173
 20
136.8129963491958
 30
0.0
 10
135.8939926938294
 20
136.8129963491958
 30
0.0
 10
135.8578911086948
 20
136.8129963491958
 30
0.0
 10
135.7747853508335
 20
136.8129963491958
 30
0.0
 10
135.7267887538672
 20
136.8129963491958
 30
0.0
 10
135.6770005711685
 20
136.8129963491958
 30
0.0
  0
SPLINE
  5
90
330
1F
100
AcDbEntity
  8
0
  6
Continuous
 62
     7
370
    15
100
AcDbSpline
210
0.0
220
0.0
230
1.0
 70
     8
 71
     3
 72
    10
 73
     6
 74
     0
 42
0.00000001
 43
0.00000001
 40
0.0
 40
0.0
 40
0.0
 40
0.0
 40
0.5
 40
0.5
 40
1.0
 40
1.0
 40
1.0
 40
1.0
 10
136.4770005711685
 20
137.5326502002316
 30
0.0
 10
136.4770005711685
 20
137.3888801424136
 30
0.0
 10
136.4409515124497
 20
137.2464607799184
 30
0.0
 10
136.3054426516756
 20
136.9965664865612
 30
0.0
 10
136.2055666585795
 20
136.888536150313
 30
0.0
 10
136.0827030394776
 20
136.8129963491958
 30
0.0
  0
SPLINE
  5
91
330
1F
100
AcDbEntity
  8
0
  6
Continuous
 62
     7
370
    15
100
AcDbSpline
210
0.0
220
0.0
230
1.0
 70
     8
 71
     3
 72
    10
 73
     6
 74
     0
 42
0.00000001
 43
0.00000001
 40
0.0
 40
0.0
 40
0.0
 40
0.0
 40
0.5
 40
0.5
 40
1.0
 40
1.0
 40
1.0
 40
1.0
 10
136.4508529480084
 20
130.2629963491958
 30
0.0
 10
136.4595425909201
 20
130.309875198514
 30
0.0
 10
136.4660816556706
 20
130.3572976639153
 30
0.0
 10
136.4748402900636
 20
130.4532344625021
 30
0.0
 10
136.4770005711685
 20
130.5011497505126
 30
0.0
 10
136.4770005711685
 20
130.5488629806572
 30
0.0
  0
LINE
  5
92
330
1F
100
AcDbEntity
  8
0
  6
Continuous
 62
     7
370
    15
100
AcDbLine
 10
135.6770005712
 20
136.8129963492
 30
0.0
 11
133.4570005712
 21
136.8129963492
 31
0.0
  0
LINE
  5
93
330
1F
100
AcDbEntity
  8
0
  6
Continuous
 62
     7
370
    15
100
AcDbLine
 10
135.6770005712
 20
84.0129963492
 30
0.0
 11
133.4570005712
 21
84.0129963492
 31
0.0
  0
LINE
  5
94
330
1F
100
AcDbEntity
  8
0
  6
Continuous
 62
     7
370
    15
100
AcDbLine
 10
114.5670005712
 20
86.1925654875
 30
0.0
 11
114.5670005712
 21
134.6334272109
 31
0.0
  0
LINE
  5
95
330
1F
100
AcDbEntity
  8
0
  6
Continuous
 62
     7
370
    15
100
AcDbLine
 10
94.7670005712
 20
87.1845494554
 30
0.0
 11
94.7670005712
 21
88.449258818
 31
0.0
  0
SPLINE
  5
96
330
1F
100
AcDbEntity
  8
0
  6
Continuous
 62
     7
370
    15
100
AcDbSpline
210
0.0
220
0.0
230
1.0
 70
     8
 71
     3
 72
    14
 73
    10
 74
     0
 42
0.00000001
 43
0.00000001
 40
0.0
 40
0.0
 40
0.0
 40
0.0
 40
0.25
 40
0.25
 40
0.5
 40
0.5
 40
0.75
 40
0.75
 40
1.0
 40
1.0
 40
1.0
 40
1.0
 10
93.98871345325283
 20
89.57984502563588
 30
0.0
 10
94.04534012845491
 20
89.47214757179901
 30
0.0
 10
94.13986278874464
 20
89.36935799007969
 30
0.0
 10
94.32290776430686
 20
89.17100067785955
 30
0.0
 10
94.4145343412616
 20
89.0749411691813
 30
0.0
 10
94.57338765895479
 20
88.88741212647206
 30
0.0
 10
94.64127826657648
 20
88.79600315368849
 30
0.0
 10
94.73819529228408
 20
88.61762693277835
 30
0.0
 10
94.76700057116913
 20
88.53040502653216
 30
0.0
 10
94.76700057116912
 20
88.44925881799793
 30
0.0
  0
SPLINE
  5
97
330
1F
100
AcDbEntity
  8
0
  6
Continuous
 62
     7
370
    15
100
AcDbSpline
210
0.0
220
0.0
230
1.0
 70
     8
 71
     3
 72
    14
 73
    10
 74
     0
 42
0.00000001
 43
0.00000001
 40
0.0
 40
0.0
 40
0.0
 40
0.0
 40
0.125
 40
0.125
 40
0.25
 40
0.25
 40
0.5
 40
0.5
 40
1.0
 40
1.0
 40
1.0
 40
1.0
 10
93.36700057116855
 20
90.0265268879152
 30
0.0
 10
93.41554497982571
 20
90.03227520119549
 30
0.0
 10
93.46846033461063
 20
90.02917431253925
 30
0.0
 10
93.56375567959365
 20
90.00697946837693
 30
0.0
 10
93.60400667687861
 20
89.98974724128107
 30
0.0
 10
93.70827669039157
 20
89.933419324829
 30
0.0
 10
93.75859866554491
 20
89.8892329788832
 30
0.0
 10
93.88628161307028
 20
89.75822508003257
 30
0.0
 10
93.94236706013255
 20
89.66799055980229
 30
0.0
 10
93.98871345325429
 20
89.5798450256364
 30
0.0
  0
SPLINE
  5
98
330
1F
100
AcDbEntity
  8
0
  6
Continuous
 62
     7
370
    15
100
AcDbSpline
210
0.0
220
0.0
230
1.0
 70
     8
 71
     3
 72
     8
 73
     4
 74
     0
 42
0.00000001
 43
0.00000001
 40
0.0
 40
0.0
 40
0.0
 40
0.0
 40
1.0
 40
1.0
 40
1.0
 40
1.0
 10
91.09847547822228
 20
89.7166816013324
 30
0.0
 10
91.83305250470525
 20
89.83530661240135
 30
0.0
 10
92.59652757410092
 20
89.93529248453764
 30
0.0
 10
93.36700057116855
 20
90.0265268879152
 30
0.0
  0
SPLINE
  5
99
330
1F
100
AcDbEntity
  8
0
  6
Continuous
 62
     7
370
    15
100
AcDbSpline
210
0.0
220
0.0
230
1.0
 70
     8
 71
     3
 72
    14
 73
    10
 74
     0
 42
0.00000001
 43
0.00000001
 40
0.0
 40
0.0
 40
0.0
 40
0.0
 40
0.5000000000000002
 40
0.5000000000000002
 40
0.7500000000000002
 40
0.7500000000000002
 40
0.8750000000000001
 40
0.8750000000000001
 40
1.0
 40
1.0
 40
1.0
 40
1.0
 10
85.81700057116855
 20
89.54305858380076
 30
0.0
 10
86.7091467017221
 20
89.5423363576001
 30
0.0
 10
87.59912313751569
 20
89.54692256405757
 30
0.0
 10
88.92571830459129
 20
89.5746475684491
 30
0.0
 10
89.36656523309001
 20
89.58725410607326
 30
0.0
 10
90.02300547051244
 20
89.61827025408071
 30
0.0
 10
90.24101912710432
 20
89.6306134267075
 30
0.0
 10
90.67372798078708
 20
89.66363748187075
 30
0.0
 10
90.88900444595188
 20
89.68285464700922
 30
0.0
 10
91.09847547822228
 20
89.7166816013324
 30
0.0
  0
SPLINE
  5
9A
330
1F
100
AcDbEntity
  8
0
  6
Continuous
 62
     7
370
    15
100
AcDbSpline
210
0.0
220
0.0
230
1.0
 70
     8
 71
     3
 72
     8
 73
     4
 74
     0
 42
0.00000001
 43
0.00000001
 40
0.0000005163856711
 40
0.0000005163856711
 40
0.0000005163856711
 40
0.0000005163856711
 40
0.000026289209185
 40
0.000026289209185
 40
0.000026289209185
 40
0.000026289209185
 10
85.80695564074985
 20
89.55304245690866
 30
0.0
 10
85.81028337896132
 20
89.54970821003582
 30
0.0
 10
85.81363183194063
 20
89.54638025275679
 30
0.0
 10
85.81700057116852
 20
89.54305858380074
 30
0.0
  0
SPLINE
  5
9B
330
1F
100
AcDbEntity
  8
0
  6
Continuous
 62
     7
370
    15
100
AcDbSpline
210
0.0
220
0.0
230
1.0
 70
     8
 71
     3
 72
     8
 73
     4
 74
     0
 42
0.00000001
 43
0.00000001
 40
0.0000005099763573
 40
0.0000005099763573
 40
0.0000005099763573
 40
0.0000005099763573
 40
0.0000262827998699
 40
0.0000262827998699
 40
0.0000262827998699
 40
0.0000262827998699
 10
85.81700057116853
 20
131.2829341145909
 30
0.0
 10
85.8136318319408
 20
131.279612445635
 30
0.0
 10
85.81028337896166
 20
131.2762844883562
 30
0.0
 10
85.80695564075033
 20
131.2729502414835
 30
0.0
  0
SPLINE
  5
9C
330
1F
100
AcDbEntity
  8
0
  6
Continuous
 62
     7
370
    15
100
AcDbSpline
210
0.0
220
0.0
230
1.0
 70
     8
 71
     3
 72
    10
 73
     6
 74
     0
 42
0.00000001
 43
0.00000001
 40
0.0
 40
0.0
 40
0.0
 40
0.0
 40
0.5
 40
0.5
 40
1.0
 40
1.0
 40
1.0
 40
1.0
 10
89.36700057116856
 20
131.2360837410236
 30
0.0
 10
88.77941502407796
 20
131.25714926126
 30
0.0
 10
88.18866863061757
 20
131.2679077471322
 30
0.0
 10
87.00464946531872
 20
131.2812725276679
 30
0.0
 10
86.41123547711325
 20
131.2834151703325
 30
0.0
 10
85.81700057116855
 20
131.2829341145909
 30
0.0
  0
SPLINE
  5
9D
330
1F
100
AcDbEntity
  8
0
  6
Continuous
 62
     7
370
    15
100
AcDbSpline
210
0.0
220
0.0
230
1.0
 70
     8
 71
     3
 72
    18
 73
    14
 74
     0
 42
0.00000001
 43
0.00000001
 40
0.0
 40
0.0
 40
0.0
 40
0.0
 40
0.2500000000000008
 40
0.2500000000000008
 40
0.5000000000000009
 40
0.5000000000000009
 40
0.7500000000000009
 40
0.7500000000000009
 40
0.875000000000001
 40
0.875000000000001
 40
0.9375000000000006
 40
0.9375000000000006
 40
1.0
 40
1.0
 40
1.0
 40
1.0
 10
90.76700057116855
 20
132.2571040215588
 30
0.0
 10
90.76700057116857
 20
132.1738971127016
 30
0.0
 10
90.7311514712303
 20
132.085160457388
 30
0.0
 10
90.60627973519638
 20
131.9030352668278
 30
0.0
 10
90.51587931754851
 20
131.8079052182012
 30
0.0
 10
90.29363666280632
 20
131.6187237090769
 30
0.0
 10
90.16387187636055
 20
131.5237785409822
 30
0.0
 10
89.92323441904905
 20
131.3854998334022
 30
0.0
 10
89.83546712091162
 20
131.3397894000998
 30
0.0
 10
89.68094303370478
 20
131.2819660948784
 30
0.0
 10
89.62433214765004
 20
131.2642513308405
 30
0.0
 10
89.50028811674343
 20
131.2397120276076
 30
0.0
 10
89.43257344172514
 20
131.2337328890693
 30
0.0
 10
89.36700057116855
 20
131.2360837410236
 30
0.0
  0
LINE
  5
9E
330
1F
100
AcDbEntity
  8
0
  6
Continuous
 62
     7
370
    15
100
AcDbLine
 10
90.7670005712
 20
132.2571040216
 30
0.0
 11
90.7670005712
 21
133.4410424414
 31
0.0
  0
SPLINE
  5
9F
330
1F
100
AcDbEntity
  8
0
  6
Continuous
 62
     7
370
    15
100
AcDbSpline
210
0.0
220
0.0
230
1.0
 70
     8
 71
     3
 72
    24
 73
    20
 74
     0
 42
0.00000001
 43
0.00000001
 40
0.0
 40
0.0
 40
0.0
 40
0.0
 40
0.0010489762969682
 40
0.0637843125639767
 40
0.1272220590447889
 40
0.19037889244876
 40
0.2526748653693632
 40
0.3146354154433589
 40
0.3770891997149993
 40
0.4393540298512636
 40
0.5008133242537819
 40
0.5621845104587263
 40
0.6248438451115537
 40
0.6874304766616293
 40
0.7496743174679374
 40
0.8119848426977089
 40
0.875096052541316
 40
0.9384412526965075
 40
0.9999999999999999
 40
0.9999999999999999
 40
0.9999999999999999
 40
0.9999999999999999
 10
103.3359064031443
 20
86.75548792061569
 30
0.0
 10
103.33545994304
 20
86.75542963479678
 30
0.0
 10
103.3083123793463
 20
86.75188549285419
 30
0.0
 10
103.40392415696
 20
86.76471923753705
 30
0.0
 10
103.6374844148544
 20
86.79396592273717
 30
0.0
 10
104.0330387221715
 20
86.84058024580007
 30
0.0
 10
104.5600790260122
 20
86.89076338745947
 30
0.0
 10
105.2036094380001
 20
86.93513984990975
 30
0.0
 10
105.942283293245
 20
86.96208463084737
 30
0.0
 10
106.7397977986757
 20
86.96555648155325
 30
0.0
 10
107.5663766811178
 20
86.93792923752365
 30
0.0
 10
108.391899698725
 20
86.87945034855038
 30
0.0
 10
109.1840262467261
 20
86.79400531919035
 30
0.0
 10
109.9165985207316
 20
86.69227107935399
 30
0.0
 10
110.5522387574597
 20
86.58442795738111
 30
0.0
 10
111.0741498644694
 20
86.482797800642
 30
0.0
 10
111.4557786415848
 20
86.40031264396374
 30
0.0
 10
111.7065931118188
 20
86.34416343761413
 30
0.0
 10
111.7357146678031
 20
86.33731397900038
 30
0.0
 10
111.7500671886192
 20
86.3339382322722
 30
0.0
  0
SPLINE
  5
A0
330
1F
100
AcDbEntity
  8
0
  6
Continuous
 62
     7
370
    15
100
AcDbSpline
210
0.0
220
0.0
230
1.0
 70
     8
 71
     3
 72
    24
 73
    20
 74
     0
 42
0.00000001
 43
0.00000001
 40
0.0
 40
0.0
 40
0.0
 40
0.0
 40
0.061438427625136
 40
0.1250736755369643
 40
0.1884253490730172
 40
0.2508623904037476
 40
0.3129665632512369
 40
0.3753451453465166
 40
0.4377328972325402
 40
0.4990927322917273
 40
0.5605807588448041
 40
0.6229469893028856
 40
0.6854686282026866
 40
0.7475477813740222
 40
0.8098225060807238
 40
0.8730684085990468
 40
0.9364041844533111
 40
0.9991757196257863
 40
1.0
 40
1.0
 40
1.0
 40
1.0
 10
111.7500124178163
 20
134.4920253236532
 30
0.0
 10
111.7354116935126
 20
134.4886572668006
 30
0.0
 10
111.7056881747841
 20
134.4818007233268
 30
0.0
 10
111.4529503591359
 20
134.4254621028008
 30
0.0
 10
111.0699544426869
 20
134.3426050206708
 30
0.0
 10
110.5475988582488
 20
134.2406979907195
 30
0.0
 10
109.9128143802489
 20
134.1328588516758
 30
0.0
 10
109.1825907760763
 20
134.0313918997006
 30
0.0
 10
108.3921221908427
 20
133.94633218601
 30
0.0
 10
107.5676386760144
 20
133.8881278921236
 30
0.0
 10
106.7406022171311
 20
133.860544453297
 30
0.0
 10
105.9422779494791
 20
133.8640374307898
 30
0.0
 10
105.2024539851898
 20
133.8909933506429
 30
0.0
 10
104.5581997522144
 20
133.9353472926423
 30
0.0
 10
104.0307924969987
 20
133.9855527424
 30
0.0
 10
103.6361278948488
 20
134.0321625975984
 30
0.0
 10
103.403598615664
 20
134.0613581901457
 30
0.0
 10
103.3082185831117
 20
134.0741362590875
 30
0.0
 10
103.3351522200131
 20
134.0705820005792
 30
0.0
 10
103.3355013132375
 20
134.0705359329959
 30
0.0
  0
SPLINE
  5
A1
330
1F
100
AcDbEntity
  8
0
  6
Continuous
 62
     7
370
    15
100
AcDbSpline
210
0.0
220
0.0
230
1.0
 70
     8
 71
     3
 72
    39
 73
    35
 74
     0
 42
0.00000001
 43
0.00000001
 40
-0.0929033054605302
 40
-0.0617842215058984
 40
-0.0305661381440895
 40
0.0
 40
0.0305778672834698
 40
0.061821009479051
 40
0.0929576535415208
 40
0.1240734040233672
 40
0.1552548729388294
 40
0.1868129346092388
 40
0.2185641300335421
 40
0.2499317537043951
 40
0.2813253586315443
 40
0.313146651732048
 40
0.3447819447416039
 40
0.3760144683988932
 40
0.4071226993084213
 40
0.4382113067959525
 40
0.4693933777796789
 40
0.5000119620109617
 40
0.5306251755406889
 40
0.5618456935793383
 40
0.5929504457359266
 40
0.6240751842319099
 40
0.6552856774411242
 40
0.6868968613570662
 40
0.718668035841124
 40
0.7500609551198759
 40
0.7814253634460915
 40
0.8132191364955033
 40
0.844799949844627
 40
0.8760025022887087
 40
0.9070966945394697
 40
0.9382157784941015
 40
0.9694338618559104
 40
0.9999999999999999
 40
1.03057786728347
 40
1.061821009479051
 40
1.092957653541521
 10
174.4013030712975
 20
103.5601992244473
 30
0.0
 10
173.0668338348651
 20
103.4240815277495
 30
0.0
 10
171.7319860419356
 20
103.5602252293294
 30
0.0
 10
170.4513628754984
 20
103.9689701495102
 30
0.0
 10
169.268350539476
 20
104.6104396413957
 30
0.0
 10
168.2427358301772
 20
105.4746098364582
 30
0.0
 10
167.4001149869851
 20
106.5258689309504
 30
0.0
 10
166.7757504395453
 20
107.7344272520327
 30
0.0
 10
166.3789961301279
 20
109.0449639429221
 30
0.0
 10
166.2475787027655
 20
110.4103075274495
 30
0.0
 10
166.3798457454799
 20
111.7765684834675
 30
0.0
 10
166.7771886404664
 20
113.089491754524
 30
0.0
 10
167.4019364391228
 20
114.3010560580281
 30
0.0
 10
168.2452324670814
 20
115.3540109610345
 30
0.0
 10
169.2704973570491
 20
116.2184281031402
 30
0.0
 10
170.4519655151628
 20
116.8593400341761
 30
0.0
 10
171.7321333260324
 20
117.2665393313535
 30
0.0
 10
173.0673885542153
 20
117.4016916703711
 30
0.0
 10
174.403163970321
 20
117.2661261481793
 30
0.0
 10
175.6838321208368
 20
116.8581977349605
 30
0.0
 10
176.8661149596284
 20
116.2166518818
 30
0.0
 10
177.8910972183008
 20
115.3516127974154
 30
0.0
 10
178.7336130677139
 20
114.2986157354775
 30
0.0
 10
179.3575645083216
 20
113.0881767558992
 30
0.0
 10
179.7541015085039
 20
111.7761601497474
 30
0.0
 10
179.8864087441837
 20
110.4107199651245
 30
0.0
 10
179.7551200123017
 20
109.0447780737705
 30
0.0
 10
179.3577490109446
 20
107.7334724372096
 30
0.0
 10
178.7327401167598
 20
106.5238609178901
 30
0.0
 10
177.8894241599295
 20
105.4727065221349
 30
0.0
 10
176.8635903197377
 20
104.6092262552173
 30
0.0
 10
175.6812421176953
 20
103.9684774640355
 30
0.0
 10
174.4013030712975
 20
103.5601992244473
 30
0.0
 10
173.0668338348651
 20
103.4240815277495
 30
0.0
 10
171.7319860419356
 20
103.5602252293294
 30
0.0
  0
LINE
  5
A2
330
1F
100
AcDbEntity
  8
0
  6
Continuous
 62
     7
370
    15
100
AcDbLine
 10
185.8444659686
 20
86.4129963492
 30
0.0
 11
185.8444659686
 21
134.4129963492
 31
0.0
  0
SPLINE
  5
A3
330
1F
100
AcDbEntity
  8
0
  6
Continuous
 62
     7
370
    15
100
AcDbSpline
210
0.0
220
0.0
230
1.0
 70
     8
 71
     3
 72
     9
 73
     5
 74
     0
 42
0.00000001
 43
0.00000001
 40
0.0
 40
0.0
 40
0.0
 40
0.0
 40
0.7009329310330151
 40
1.0
 40
1.0
 40
1.0
 40
1.0
 10
84.68778525540401
 20
90.7117160450932
 30
0.0
 10
84.69692453207928
 20
90.69388675955167
 30
0.0
 10
84.70996326413288
 20
90.6684502523594
 30
0.0
 10
84.72512851789821
 20
90.72233011255118
 30
0.0
 10
84.72966394589193
 20
90.7384438044151
 30
0.0
  0
LINE
  5
A4
330
1F
100
AcDbEntity
  8
0
  6
Continuous
 62
     7
370
    15
100
AcDbLine
 10
84.6670005712
 20
90.7223186027
 30
0.0
 11
84.6670005712
 21
130.1036740957
 31
0.0
  0
SPLINE
  5
A5
330
1F
100
AcDbEntity
  8
0
  6
Continuous
 62
     7
370
    15
100
AcDbSpline
210
0.0
220
0.0
230
1.0
 70
     8
 71
     3
 72
    10
 73
     6
 74
     0
 42
0.00000001
 43
0.00000001
 40
0.0
 40
0.0
 40
0.0
 40
0.0
 40
0.5
 40
0.5
 40
1.0
 40
1.0
 40
1.0
 40
1.0
 10
84.72966394589196
 20
130.0875488939766
 30
0.0
 10
84.72075965678319
 20
130.1332904131897
 30
0.0
 10
84.7042442765902
 20
130.1504812526588
 30
0.0
 10
84.6771363305286
 20
130.150157975723
 30
0.0
 10
84.66700057116854
 20
130.1322804334266
 30
0.0
 10
84.66700057116854
 20
130.103674095674
 30
0.0
  0
SPLINE
  5
A6
330
1F
100
AcDbEntity
  8
0
  6
Continuous
 62
     7
370
    15
100
AcDbSpline
210
0.0
220
0.0
230
1.0
 70
     8
 71
     3
 72
    26
 73
    22
 74
     0
 42
0.00000001
 43
0.00000001
 40
0.0
 40
0.0
 40
0.0
 40
0.0
 40
0.2500000000000165
 40
0.2500000000000165
 40
0.3750000000000256
 40
0.3750000000000256
 40
0.4375000000000291
 40
0.4375000000000291
 40
0.4687500000000291
 40
0.4687500000000291
 40
0.5000000000000292
 40
0.5000000000000292
 40
0.5312500000000293
 40
0.5312500000000293
 40
0.5625000000000293
 40
0.5625000000000293
 40
0.625000000000026
 40
0.625000000000026
 40
0.7500000000000173
 40
0.7500000000000173
 40
1.0
 40
1.0
 40
1.0
 40
1.0
 10
85.49115421727306
 20
130.8031156827936
 30
0.0
 10
85.45255369440459
 20
130.6853409864382
 30
0.0
 10
85.40625669185033
 20
130.5609513002763
 30
0.0
 10
85.31231734341641
 20
130.3557319679228
 30
0.0
 10
85.27700587650294
 20
130.2841591014764
 30
0.0
 10
85.21082590075727
 20
130.1682058688759
 30
0.0
 10
85.18628753408905
 20
130.1276213340657
 30
0.0
 10
85.14291478853525
 20
130.0634796521939
 30
0.0
 10
85.12740638711006
 20
130.0416132269089
 30
0.0
 10
85.09236374252302
 20
129.9960189585657
 30
0.0
 10
85.07281345180326
 20
129.9723486675983
 30
0.0
 10
85.03088617143264
 20
129.9277321082583
 30
0.0
 10
85.00823406120101
 20
129.9068520957404
 30
0.0
 10
84.96726034711438
 20
129.8759786819896
 30
0.0
 10
84.94966104721897
 20
129.8661398121572
 30
0.0
 10
84.90503406136281
 20
129.847150196461
 30
0.0
 10
84.88447483870948
 20
129.8468258718076
 30
0.0
 10
84.8333493992128
 20
129.8560493126838
 30
0.0
 10
84.81243798622425
 20
129.8772962089008
 30
0.0
 10
84.76098807866333
 20
129.9512650877315
 30
0.0
 10
84.74332277935878
 20
130.0173831810463
 30
0.0
 10
84.72966394589196
 20
130.0875488939766
 30
0.0
  0
SPLINE
  5
A7
330
1F
100
AcDbEntity
  8
0
  6
Continuous
 62
     7
370
    15
100
AcDbSpline
210
0.0
220
0.0
230
1.0
 70
     8
 71
     3
 72
    10
 73
     6
 74
     0
 42
0.00000001
 43
0.00000001
 40
0.0
 40
0.0
 40
0.0
 40
0.0
 40
0.5
 40
0.5
 40
1.0
 40
1.0
 40
1.0
 40
1.0
 10
85.80695564075035
 20
131.2729502414835
 30
0.0
 10
85.73939638583211
 20
131.2052588486737
 30
0.0
 10
85.67575973049561
 20
131.1305516839201
 30
0.0
 10
85.56553897592374
 20
130.9715855514935
 30
0.0
 10
85.51872268270112
 20
130.8872302854854
 30
0.0
 10
85.49115421727305
 20
130.8031156827936
 30
0.0
  0
SPLINE
  5
A8
330
1F
100
AcDbEntity
  8
0
  6
Continuous
 62
     7
370
    15
100
AcDbSpline
210
0.0
220
0.0
230
1.0
 70
     8
 71
     3
 72
    10
 73
     6
 74
     0
 42
0.00000001
 43
0.00000001
 40
0.0
 40
0.0
 40
0.0
 40
0.0
 40
0.5
 40
0.5
 40
1.0
 40
1.0
 40
1.0
 40
1.0
 10
85.4911542172731
 20
90.02287701559786
 30
0.0
 10
85.5186316320263
 20
89.93904021913227
 30
0.0
 10
85.56534026231395
 20
89.85472973154543
 30
0.0
 10
85.67561872505591
 20
89.6956085010626
 30
0.0
 10
85.73950626366754
 20
89.62062375697452
 30
0.0
 10
85.80695564074986
 20
89.55304245690866
 30
0.0
  0
SPLINE
  5
A9
330
1F
100
AcDbEntity
  8
0
  6
Continuous
 62
     7
370
    15
100
AcDbSpline
210
0.0
220
0.0
230
1.0
 70
     8
 71
     3
 72
    24
 73
    20
 74
     0
 42
0.00000001
 43
0.00000001
 40
0.0
 40
0.0
 40
0.0
 40
0.0
 40
0.249999999999999
 40
0.249999999999999
 40
0.3749999999999983
 40
0.3749999999999983
 40
0.4374999999999987
 40
0.4374999999999987
 40
0.4687499999999975
 40
0.4687499999999975
 40
0.4999999999999963
 40
0.4999999999999963
 40
0.5624999999999984
 40
0.5624999999999984
 40
0.6250000000000006
 40
0.6250000000000006
 40
0.7500000000000001
 40
0.7500000000000001
 40
1.0
 40
1.0
 40
1.0
 40
1.0
 10
84.72966394589196
 20
90.7384438044151
 30
0.0
 10
84.74341706456218
 20
90.80909386240538
 30
0.0
 10
84.76118963196805
 20
90.87569197517028
 30
0.0
 10
84.8134407235234
 20
90.94978999540349
 30
0.0
 10
84.83447579910496
 20
90.97104780256505
 30
0.0
 10
84.88737620673339
 20
90.9791937287113
 30
0.0
 10
84.90848187961132
 20
90.97825392531551
 30
0.0
 10
84.95453404828929
 20
90.95723793373817
 30
0.0
 10
84.97290452027268
 20
90.94632912763056
 30
0.0
 10
85.0144561553384
 20
90.91369421668318
 30
0.0
 10
85.0370228280953
 20
90.8922022363118
 30
0.0
 10
85.09980384455531
 20
90.8237362927255
 30
0.0
 10
85.1329336055232
 20
90.7776618345204
 30
0.0
 10
85.18985129200823
 20
90.69265394618574
 30
0.0
 10
85.21403731751198
 20
90.65237364500436
 30
0.0
 10
85.27924526789174
 20
90.53743741853843
 30
0.0
 10
85.313961328083
 20
90.4668544333914
 30
0.0
 10
85.40717659841387
 20
90.26264867431281
 30
0.0
 10
85.45284913377456
 20
90.13975029198545
 30
0.0
 10
85.49115421727309
 20
90.02287701559789
 30
0.0
  0
SPLINE
  5
AA
330
1F
100
AcDbEntity
  8
0
  6
Continuous
 62
     7
370
    15
100
AcDbSpline
210
0.0
220
0.0
230
1.0
 70
     8
 71
     3
 72
     8
 73
     4
 74
     0
 42
0.00000001
 43
0.00000001
 40
0.0
 40
0.0
 40
0.0
 40
0.0
 40
1.0
 40
1.0
 40
1.0
 40
1.0
 10
131.1750677396795
 20
134.8716860115633
 30
0.0
 10
131.6821545814388
 20
133.7405356573996
 30
0.0
 10
132.1777224205787
 20
132.6041512466317
 30
0.0
 10
132.6570005711686
 20
131.4631400167791
 30
0.0
  0
LINE
  5
AB
330
1F
100
AcDbEntity
  8
0
  6
Continuous
 62
     7
370
    15
100
AcDbLine
 10
132.6570005712
 20
131.4631400168
 30
0.0
 11
132.6570005712
 21
130.5488629807
 31
0.0
  0
SPLINE
  5
AC
330
1F
100
AcDbEntity
  8
0
  6
Continuous
 62
     7
370
    15
100
AcDbSpline
210
0.0
220
0.0
230
1.0
 70
     8
 71
     3
 72
     8
 73
     4
 74
     0
 42
0.00000001
 43
0.00000001
 40
0.0
 40
0.0
 40
0.0
 40
0.0
 40
1.0
 40
1.0
 40
1.0
 40
1.0
 10
137.9589334026576
 20
140.8801918223601
 30
0.0
 10
137.4637933732933
 20
139.9935121741798
 30
0.0
 10
136.9697106680143
 20
139.1062495384938
 30
0.0
 10
136.4770005711685
 20
138.2182305403674
 30
0.0
  0
LINE
  5
AD
330
1F
100
AcDbEntity
  8
0
  6
Continuous
 62
     7
370
    15
100
AcDbLine
 10
137.9589334027
 20
134.8716860116
 30
0.0
 11
137.9589334027
 21
140.8801918224
 31
0.0
  0
SPLINE
  5
AE
330
1F
100
AcDbEntity
  8
0
  6
Continuous
 62
     7
370
    15
100
AcDbSpline
210
0.0
220
0.0
230
1.0
 70
     8
 71
     3
 72
     8
 73
     4
 74
     0
 42
0.00000001
 43
0.00000001
 40
0.0
 40
0.0
 40
0.0
 40
0.0
 40
1.0
 40
1.0
 40
1.0
 40
1.0
 10
136.4770005711685
 20
131.4631400167792
 30
0.0
 10
136.9562787217584
 20
132.6041512466317
 30
0.0
 10
137.4518465608983
 20
133.7405356573996
 30
0.0
 10
137.9589334026576
 20
134.8716860115633
 30
0.0
  0
LINE
  5
AF
330
1F
100
AcDbEntity
  8
0
  6
Continuous
 62
     7
370
    15
100
AcDbLine
 10
136.4770005712
 20
131.4631400168
 30
0.0
 11
136.4770005712
 21
138.2182305404
 31
0.0
  0
SPLINE
  5
B0
330
1F
100
AcDbEntity
  8
0
  6
Continuous
 62
     7
370
    15
100
AcDbSpline
210
0.0
220
0.0
230
1.0
 70
     8
 71
     3
 72
     8
 73
     4
 74
     0
 42
0.00000001
 43
0.00000001
 40
0.0
 40
0.0
 40
0.0
 40
0.0
 40
1.0
 40
1.0
 40
1.0
 40
1.0
 10
132.6570005711686
 20
138.2182305403674
 30
0.0
 10
132.1642904743228
 20
139.1062495384938
 30
0.0
 10
131.6702077690438
 20
139.9935121741798
 30
0.0
 10
131.1750677396795
 20
140.88019182236
 30
0.0
  0
LINE
  5
B1
330
1F
100
AcDbEntity
  8
0
  6
Continuous
 62
     7
370
    15
100
AcDbLine
 10
132.6570005712
 20
131.4631400168
 30
0.0
 11
132.6570005712
 21
138.2182305404
 31
0.0
  0
LINE
  5
B2
330
1F
100
AcDbEntity
  8
0
  6
Continuous
 62
     7
370
    15
100
AcDbLine
 10
141.9170005712
 20
140.8801918224
 30
0.0
 11
137.9589334027
 21
140.8801918224
 31
0.0
  0
LINE
  5
B3
330
1F
100
AcDbEntity
  8
0
  6
Continuous
 62
     7
370
    15
100
AcDbLine
 10
137.9589334027
 20
134.8716860116
 30
0.0
 11
141.9170005712
 21
134.8716860116
 31
0.0
  0
LINE
  5
B4
330
1F
100
AcDbEntity
  8
0
  6
Continuous
 62
     7
370
    15
100
AcDbLine
 10
136.4770005712
 20
130.5488629807
 30
0.0
 11
136.4770005712
 21
131.4631400168
 31
0.0
  0
SPLINE
  5
B5
330
1F
100
AcDbEntity
  8
0
  6
Continuous
 62
     7
370
    15
100
AcDbSpline
210
0.0
220
0.0
230
1.0
 70
     8
 71
     3
 72
    12
 73
     8
 74
     0
 42
0.00000001
 43
0.00000001
 40
0.0
 40
0.0
 40
0.0
 40
0.0
 40
0.2499999999999987
 40
0.2499999999999987
 40
0.4999999999999973
 40
0.4999999999999973
 40
1.0
 40
1.0
 40
1.0
 40
1.0
 10
141.9170005711686
 20
134.8716860115633
 30
0.0
 10
142.0082002929942
 20
134.8716860115633
 30
0.0
 10
142.0987953021302
 20
134.8434663129754
 30
0.0
 10
142.2522080285769
 20
134.7490233057273
 30
0.0
 10
142.3174168959005
 20
134.6827363290219
 30
0.0
 10
142.4702014252405
 20
134.4571115057337
 30
0.0
 10
142.5170005711685
 20
134.2746852427011
 30
0.0
 10
142.5170005711685
 20
134.0939486104542
 30
0.0
  0
LINE
  5
B6
330
1F
100
AcDbEntity
  8
0
  6
Continuous
 62
     7
370
    15
100
AcDbLine
 10
142.5170005712
 20
134.0939486105
 30
0.0
 11
142.5170005712
 21
130.2629963492
 31
0.0
  0
SPLINE
  5
B7
330
1F
100
AcDbEntity
  8
0
  6
Continuous
 62
     7
370
    15
100
AcDbSpline
210
0.0
220
0.0
230
1.0
 70
     8
 71
     3
 72
    10
 73
     6
 74
     0
 42
0.00000001
 43
0.00000001
 40
0.0
 40
0.0
 40
0.0
 40
0.0
 40
0.5
 40
0.5
 40
1.0
 40
1.0
 40
1.0
 40
1.0
 10
142.5170005711685
 20
140.2594366729597
 30
0.0
 10
142.5170005711685
 20
140.4198419393105
 30
0.0
 10
142.4547627400617
 20
140.5789037522991
 30
0.0
 10
142.2356278163191
 20
140.8098162179295
 30
0.0
 10
142.0780391213272
 20
140.8801918223601
 30
0.0
 10
141.9170005711686
 20
140.8801918223601
 30
0.0
  0
LINE
  5
B8
330
1F
100
AcDbEntity
  8
0
  6
Continuous
 62
     7
370
    15
100
AcDbLine
 10
142.5170005712
 20
134.0939486105
 30
0.0
 11
142.5170005712
 21
140.259436673
 31
0.0
  0
LINE
  5
B9
330
1F
100
AcDbEntity
  8
0
  6
Continuous
 62
     7
370
    15
100
AcDbLine
 10
196.5670005712
 20
92.6871368708
 30
0.0
 11
196.5670005712
 21
128.1388558272
 31
0.0
  0
ARC
  5
BA
330
1F
100
AcDbEntity
  8
0
  6
Continuous
 62
     7
370
    15
100
AcDbCircle
 10
124.5677749233
 20
129.1051634038
 30
0.0
 40
7.261943580376907
100
AcDbArc
 50
70.9635752385
 51
109.2417584322
  0
CIRCLE
  5
BB
330
1F
100
AcDbEntity
  8
0
  6
HIDDEN
 62
     7
370
     0
100
AcDbCircle
 10
173.0670005712
 20
110.4129963492
 30
0.0
 40
6.999999999999972
  0
CIRCLE
  5
BC
330
1F
100
AcDbEntity
  8
0
  6
HIDDEN
 62
     7
370
     0
100
AcDbCircle
 10
173.0670005712
 20
110.4129963492
 30
0.0
 40
4.99999999999999
  0
CIRCLE
  5
BD
330
1F
100
AcDbEntity
  8
0
  6
HIDDEN
 62
     7
370
     0
100
AcDbCircle
 10
173.0670005712
 20
110.4129963492
 30
0.0
 40
3.749999999999977
  0
LINE
  5
BE
330
1F
100
AcDbEntity
  8
0
  6
HIDDEN
 62
     7
370
     0
100
AcDbLine
 10
131.1750677397
 20
134.8716860116
 30
0.0
 11
131.1750677397
 21
130.2629963492
 31
0.0
  0
ARC
  5
BF
330
1F
100
AcDbEntity
  8
0
  6
HIDDEN
 62
     7
370
     0
100
AcDbCircle
 10
124.8528489239
 20
122.9019716123
 30
0.0
 40
3.670209069146773
100
AcDbArc
 50
265.5330863118
 51
13.5145715844
  0
ARC
  5
C0
330
1F
100
AcDbEntity
  8
0
  6
HIDDEN
 62
     7
370
     0
100
AcDbCircle
 10
124.2820415901
 20
122.9041786609
 30
0.0
 40
3.672340299085725
100
AcDbArc
 50
166.9419174655
 51
274.4503980152
  0
LINE
  5
C1
330
1F
100
AcDbEntity
  8
0
  6
HIDDEN
 62
     7
370
     0
100
AcDbLine
 10
104.5621507757
 20
86.8883967264
 30
0.0
 11
104.3104931816
 21
86.8648751049
 31
0.0
  0
LINE
  5
C2
330
1F
100
AcDbEntity
  8
0
  6
HIDDEN
 62
     7
370
     0
100
AcDbLine
 10
104.1878015629
 20
133.9724273818
 30
0.0
 11
104.5620580555
 21
133.9375793792
 31
0.0
  0
SPLINE
  5
C3
330
1F
100
AcDbEntity
  8
0
  6
HIDDEN
 62
     7
370
     0
100
AcDbSpline
210
0.0
220
0.0
230
1.0
 70
     8
 71
     3
 72
    13
 73
     9
 74
     0
 42
0.00000001
 43
0.00000001
 40
0.0
 40
0.0
 40
0.0
 40
0.0
 40
0.1709847769597128
 40
0.3419531002487791
 40
0.5131971390670407
 40
0.6843841293656113
 40
0.8508982386832288
 40
1.0
 40
1.0
 40
1.0
 40
1.0
 10
173.0670005711686
 20
104.0752699303243
 30
0.0
 10
172.6593850842015
 20
104.0943394231778
 30
0.0
 10
171.8441933346423
 20
104.1324765738492
 30
0.0
 10
170.6538610062904
 20
104.4339828026675
 30
0.0
 10
169.5304917956765
 20
104.9151009306616
 30
0.0
 10
168.5209511013367
 20
105.5786592652425
 30
0.0
 10
167.6702804568016
 20
106.3663878017457
 30
0.0
 10
167.2540691270779
 20
106.9884874012661
 30
0.0
 10
167.0574445333365
 20
107.2823767605575
 30
0.0
  0
SPLINE
  5
C4
330
1F
100
AcDbEntity
  8
0
  6
HIDDEN
 62
     7
370
     0
100
AcDbSpline
210
0.0
220
0.0
230
1.0
 70
     8
 71
     3
 72
    20
 73
    16
 74
     0
 42
0.00000001
 43
0.00000001
 40
0.0
 40
0.0
 40
0.0
 40
0.0
 40
0.0490662636155461
 40
0.1181899529467986
 40
0.1923089907069316
 40
0.2664488334953364
 40
0.3465851762333693
 40
0.4267339385110684
 40
0.5114542055432705
 40
0.5961733327432872
 40
0.6824875867784885
 40
0.7687812916735836
 40
0.8531290260629658
 40
0.9374360198016776
 40
1.0
 40
1.0
 40
1.0
 40
1.0
 10
167.0308131277349
 20
113.4882560873011
 30
0.0
 10
167.153016520216
 20
113.6889638898543
 30
0.0
 10
167.4473779030278
 20
114.1724253151159
 30
0.0
 10
168.0757711753939
 20
114.8497940877381
 30
0.0
 10
168.8820889179613
 20
115.5069759711933
 30
0.0
 10
169.8308952001296
 20
116.0562094703418
 30
0.0
 10
170.8833334641012
 20
116.4618785819556
 30
0.0
 10
172.0380252578878
 20
116.7131597139243
 30
0.0
 10
173.2423031040386
 20
116.7802421088607
 30
0.0
 10
174.4717128934954
 20
116.655576371143
 30
0.0
 10
175.6683895298323
 20
116.3279694972513
 30
0.0
 10
176.791317805344
 20
115.8092970106737
 30
0.0
 10
177.7872215238843
 20
115.1023181195395
 30
0.0
 10
178.5826130155413
 20
114.3228847761112
 30
0.0
 10
178.9542379816007
 20
113.725155377589
 30
0.0
 10
179.1125424878928
 20
113.4705350857053
 30
0.0
  0
SPLINE
  5
C5
330
1F
100
AcDbEntity
  8
0
  6
HIDDEN
 62
     7
370
     0
100
AcDbSpline
210
0.0
220
0.0
230
1.0
 70
     8
 71
     3
 72
    13
 73
     9
 74
     0
 42
0.00000001
 43
0.00000001
 40
0.0
 40
0.0
 40
0.0
 40
0.0
 40
0.1152541395787024
 40
0.2603943417650716
 40
0.405579694915829
 40
0.5626572150972472
 40
0.7197681350939257
 40
1.0
 40
1.0
 40
1.0
 40
1.0
 10
179.0768958644041
 20
107.2831741858918
 30
0.0
 10
178.9287865236084
 20
107.0536845441975
 30
0.0
 10
178.5941622363878
 20
106.5351972741583
 30
0.0
 10
177.91800960323
 20
105.8479683111634
 30
0.0
 10
177.0783024933982
 20
105.2010559834373
 30
0.0
 10
176.1159336007934
 20
104.6873039241222
 30
0.0
 10
174.782327671541
 20
104.1999159818557
 30
0.0
 10
173.7368811367491
 20
104.1239475076125
 30
0.0
 10
173.067000571166
 20
104.0752699303296
 30
0.0
  0
SPLINE
  5
C6
330
1F
100
AcDbEntity
  8
0
  6
HIDDEN
 62
     7
370
     0
100
AcDbSpline
210
0.0
220
0.0
230
1.0
 70
     8
 71
     3
 72
    43
 73
    39
 74
     0
 42
0.00000001
 43
0.00000001
 40
-0.0801624898439736
 40
-0.0624517874774205
 40
-0.0297160539837362
 40
0.0
 40
0.0297073985851372
 40
0.0624149912524714
 40
0.0901337064958093
 40
0.1249567905560863
 40
0.1485103757528519
 40
0.1693705616783537
 40
0.1875422011078733
 40
0.2201296716109228
 40
0.249938660398167
 40
0.2797521365890865
 40
0.3123513443110997
 40
0.3406275752951857
 40
0.3749249989934951
 40
0.3990296689692591
 40
0.4198969595377832
 40
0.4375301221058097
 40
0.4702368940843867
 40
0.4999891146274752
 40
0.5297219999564501
 40
0.5624132421486653
 40
0.5900380497742198
 40
0.6249279837507472
 40
0.6484965424933047
 40
0.6693874599146702
 40
0.6876056206600035
 40
0.7202333973537008
 40
0.7500691566086916
 40
0.7798602090140454
 40
0.812426510136487
 40
0.840639111178726
 40
0.8749111523669718
 40
0.8989596270886624
 40
0.9198375101560264
 40
0.9375482125225795
 40
0.9702839460162638
 40
1.0
 40
1.029707398585137
 40
1.062414991252471
 40
1.090133706495809
 10
171.9009817100951
 20
104.4874884119303
 30
0.0
 10
173.0668713473015
 20
104.3775542671458
 30
0.0
 10
174.2325272778759
 20
104.4874535078481
 30
0.0
 10
175.3269049296183
 20
104.8158367057722
 30
0.0
 10
176.3884121400266
 20
105.3699701583287
 30
0.0
 10
177.2323019892362
 20
106.0477885485406
 30
0.0
 10
177.8795942936618
 20
106.7976775278082
 30
0.0
 10
178.3052995823629
 20
107.4566580583592
 30
0.0
 10
178.6975092656787
 20
108.2655798301507
 30
0.0
 10
178.9918819084191
 20
109.2441525963391
 30
0.0
 10
179.1026820453839
 20
110.4106720290657
 30
0.0
 10
178.9927307975224
 20
111.5775448915539
 30
0.0
 10
178.6623459018755
 20
112.6788955285715
 30
0.0
 10
178.1066584359441
 20
113.7395660751008
 30
0.0
 10
177.4229059987953
 20
114.587960573344
 30
0.0
 10
176.6715313105349
 20
115.2342903951769
 30
0.0
 10
176.0111271795186
 20
115.6576991793188
 30
0.0
 10
175.2066807597708
 20
116.0460399654351
 30
0.0
 10
174.2339741049181
 20
116.3383248280467
 30
0.0
 10
173.0676754091093
 20
116.4485123483109
 30
0.0
 10
171.9014299128947
 20
116.3385429783266
 30
0.0
 10
170.8080907199985
 20
116.0104148586765
 30
0.0
 10
169.7469704153346
 20
115.4568991025635
 30
0.0
 10
168.90288962554
 20
114.7794778356148
 30
0.0
 10
168.254555364849
 20
114.0285804324437
 30
0.0
 10
167.828215140588
 20
113.3685947769599
 30
0.0
 10
167.4355581460723
 20
112.5582106319494
 30
0.0
 10
167.1412920674158
 20
111.5780770877862
 30
0.0
 10
167.0313138315492
 20
110.4109056744805
 30
0.0
 10
167.1421219397567
 20
109.2444811199327
 30
0.0
 10
167.4727167162571
 20
108.1447921571818
 30
0.0
 10
168.0279563986985
 20
107.0856994352969
 30
0.0
 10
168.7105267417999
 20
106.2387600301145
 30
0.0
 10
169.4610298042302
 20
105.5928312929667
 30
0.0
 10
170.1216076009271
 20
105.1689289052887
 30
0.0
 10
170.9273561058601
 20
104.7798295151399
 30
0.0
 10
171.9009817100951
 20
104.4874884119303
 30
0.0
 10
173.0668713473015
 20
104.3775542671458
 30
0.0
 10
174.2325272778759
 20
104.4874535078481
 30
0.0
  0
SPLINE
  5
C7
330
1F
100
AcDbEntity
  8
0
  6
HIDDEN
 62
     7
370
     0
100
AcDbSpline
210
0.0
220
0.0
230
1.0
 70
     8
 71
     3
 72
    15
 73
    11
 74
     0
 42
0.00000001
 43
0.00000001
 40
0.0
 40
0.0
 40
0.0
 40
0.0
 40
0.1409172169897705
 40
0.2818898291171906
 40
0.4212989265166057
 40
0.5593768372264388
 40
0.6988856205980569
 40
0.8403671979046411
 40
0.981316445467027
 40
1.0
 40
1.0
 40
1.0
 40
1.0
 10
110.3220025727701
 20
90.57546787337937
 30
0.0
 10
110.0059608864976
 20
90.61582169070098
 30
0.0
 10
109.3737532766656
 20
90.69654518859582
 30
0.0
 10
108.1395901549883
 20
90.77310028619809
 30
0.0
 10
106.8688681541298
 20
90.76842423505904
 30
0.0
 10
105.6803087491024
 20
90.68762822332683
 30
0.0
 10
104.6871860763213
 20
90.56323142681508
 30
0.0
 10
104.0477770700247
 20
90.45682788815297
 30
0.0
 10
103.7667569634412
 20
90.40374722747582
 30
0.0
 10
103.8333177011344
 20
90.41600326749005
 30
0.0
 10
103.8411080246526
 20
90.41743772449989
 30
0.0
  0
SPLINE
  5
C8
330
1F
100
AcDbEntity
  8
0
  6
HIDDEN
 62
     7
370
     0
100
AcDbSpline
210
0.0
220
0.0
230
1.0
 70
     8
 71
     3
 72
    15
 73
    11
 74
     0
 42
0.00000001
 43
0.00000001
 40
0.0
 40
0.0
 40
0.0
 40
0.0
 40
0.1201202395113831
 40
0.2584739316900695
 40
0.3987301965958642
 40
0.5404022890432704
 40
0.680739540300365
 40
0.819035606386088
 40
0.9577823106998845
 40
1.0
 40
1.0
 40
1.0
 40
1.0
 10
103.8411080246526
 20
130.4085549738918
 30
0.0
 10
103.8618171611231
 20
130.4045303800381
 30
0.0
 10
103.9063789431109
 20
130.3958702857773
 30
0.0
 10
104.4688185489836
 20
130.2965791591686
 30
0.0
 10
105.3622807613049
 20
130.1726615691873
 30
0.0
 10
106.5212599154971
 20
130.0729511323659
 30
0.0
 10
107.7942967956224
 20
130.0458126432903
 30
0.0
 10
109.028582070266
 20
130.1011514774542
 30
0.0
 10
109.8565448670321
 20
130.1876300764384
 30
0.0
 10
110.233955411696
 20
130.2386274947283
 30
0.0
 10
110.3220025727702
 20
130.2505248250123
 30
0.0
  0
SPLINE
  5
C9
330
1F
100
AcDbEntity
  8
0
  6
HIDDEN
 62
     7
370
     0
100
AcDbSpline
210
0.0
220
0.0
230
1.0
 70
     8
 71
     3
 72
    10
 73
     6
 74
     0
 42
0.00000001
 43
0.00000001
 40
0.0
 40
0.0
 40
0.0
 40
0.0
 40
0.4475766211573479
 40
0.8951364835239443
 40
1.0
 40
1.0
 40
1.0
 40
1.0
 10
110.3220025727701
 20
130.2505248250123
 30
0.0
 10
110.5687081825838
 20
130.2800373093046
 30
0.0
 10
111.0621101647141
 20
130.3390611728417
 30
0.0
 10
111.3511248256759
 20
130.3529992035012
 30
0.0
 10
111.2907561350619
 20
130.3491085039412
 30
0.0
 10
111.2792966758404
 20
130.3483699536679
 30
0.0
  0
SPLINE
  5
CA
330
1F
100
AcDbEntity
  8
0
  6
HIDDEN
 62
     7
370
     0
100
AcDbSpline
210
0.0
220
0.0
230
1.0
 70
     8
 71
     3
 72
    10
 73
     6
 74
     0
 42
0.00000001
 43
0.00000001
 40
0.0
 40
0.0
 40
0.0
 40
0.0
 40
0.3454688498344993
 40
0.7966951780873684
 40
1.0
 40
1.0
 40
1.0
 40
1.0
 10
111.2792758693493
 20
90.47762415909774
 30
0.0
 10
111.2697158741218
 20
90.47817976915701
 30
0.0
 10
111.2476693072491
 20
90.47946107673455
 30
0.0
 10
110.8307298525607
 20
90.50941831730131
 30
0.0
 10
110.4425695720408
 20
90.55981430594579
 30
0.0
 10
110.3220025727701
 20
90.57546787337937
 30
0.0
  0
LINE
  5
CB
330
1F
100
AcDbEntity
  8
0
  6
HIDDEN
 62
     7
370
     0
100
AcDbLine
 10
97.5709751674
 20
93.4129963492
 30
0.0
 11
97.5709751674
 21
127.4129963492
 31
0.0
  0
LWPOLYLINE
  5
CC
330
1F
100
AcDbEntity
  8
0
  6
HIDDEN
 62
     7
370
     0
100
AcDbPolyline
 90
       15
 70
   128
 43
0.0
 10
124.5670005712
 20
132.3585987638
 10
125.3240055486
 20
132.3947413693
 10
126.0536503938
 20
132.5018628978
 10
126.729563841
 20
132.6760916982
 10
127.3273166171
 20
132.9111306876
 10
127.8253043794
 20
133.1984849447
 10
128.2055285526
 20
133.5277687378
 10
128.4542468445
 20
133.8870808928
 10
128.5624699279
 20
134.2634349322
 10
128.5262863387
 20
134.6432284404
 10
128.347003846
 20
135.0127346905
 10
128.0311021863
 20
135.3585987638
 10
127.5899988686
 20
135.6683202317
 10
127.0396365161
 20
135.9307049533
 10
126.9363971428
 20
135.9699615323
  0
LWPOLYLINE
  5
CD
330
1F
100
AcDbEntity
  8
0
  6
HIDDEN
 62
     7
370
     0
100
AcDbPolyline
 90
       15
 70
   128
 43
0.0
 10
122.174566256
 20
135.9614289207
 10
122.0943646263
 20
135.9307049533
 10
121.5440022738
 20
135.6683202317
 10
121.102898956
 20
135.3585987638
 10
120.7869972963
 20
135.0127346905
 10
120.6077148036
 20
134.6432284404
 10
120.5715312144
 20
134.2634349322
 10
120.6797542979
 20
133.8870808928
 10
120.9284725898
 20
133.5277687378
 10
121.308696763
 20
133.1984849447
 10
121.8066845252
 20
132.9111306876
 10
122.4044373013
 20
132.6760916982
 10
123.0803507485
 20
132.5018628978
 10
123.8099955937
 20
132.3947413693
 10
124.5670005712
 20
132.3585987638
  0
SPLINE
  5
CE
330
1F
100
AcDbEntity
  8
0
  6
HIDDEN
 62
     7
370
     0
100
AcDbSpline
210
0.0
220
0.0
230
1.0
 70
     8
 71
     3
 72
    11
 73
     7
 74
     0
 42
0.00000001
 43
0.00000001
 40
0.0
 40
0.0
 40
0.0
 40
0.0
 40
0.0005779865010846
 40
0.0005779865010846
 40
0.0005779865010846
 40
0.0011559733324422
 40
0.0011559733324422
 40
0.0011559733324422
 40
0.0011559733324422
 10
84.66700057116854
 20
112.4128369573558
 30
0.0
 10
84.83366782597452
 20
112.4108533180151
 30
0.0
 10
85.00033425565218
 20
112.4088157110068
 30
0.0
 10
85.16700059410401
 20
112.4067042476007
 30
0.0
 10
85.33366702293041
 20
112.4045927830497
 30
0.0
 10
85.5003333965681
 20
112.4024072198936
 30
0.0
 10
85.66700057116853
 20
112.4001246425623
 30
0.0
  0
SPLINE
  5
CF
330
1F
100
AcDbEntity
  8
0
  6
HIDDEN
 62
     7
370
     0
100
AcDbSpline
210
0.0
220
0.0
230
1.0
 70
     8
 71
     3
 72
    11
 73
     7
 74
     0
 42
0.00000001
 43
0.00000001
 40
0.0
 40
0.0
 40
0.0
 40
0.0
 40
0.0005782382535738
 40
0.0005782382535738
 40
0.0005782382535738
 40
0.0011564766069467
 40
0.0011564766069467
 40
0.0011564766069467
 40
0.0011564766069467
 10
85.66700057116854
 20
108.4162960469776
 30
0.0
 10
85.50034661719992
 20
108.415858469216
 30
0.0
 10
85.33368594499795
 20
108.4153784045436
 30
0.0
 10
85.16701905633253
 20
108.4148588651742
 30
0.0
 10
85.00035213793649
 20
108.4143393257122
 30
0.0
 10
84.83367900810325
 20
108.4137804966903
 30
0.0
 10
84.66700057116853
 20
108.4131949531072
 30
0.0
  0
LINE
  5
D0
330
1F
100
AcDbEntity
  8
0
  6
HIDDEN
 62
     7
370
     0
100
AcDbLine
 10
124.2268265397
 20
93.4129963492
 30
0.0
 11
124.2268265397
 21
127.4129963492
 31
0.0
  0
LINE
  5
D1
330
1F
100
AcDbEntity
  8
0
  6
HIDDEN
 62
     7
370
     0
100
AcDbLine
 10
126.5170005712
 20
94.6879963492
 30
0.0
 11
126.5170005712
 21
126.137996348
 31
0.0
  0
SPLINE
  5
D2
330
1F
100
AcDbEntity
  8
0
  6
HIDDEN
 62
     7
370
     0
100
AcDbSpline
210
0.0
220
0.0
230
1.0
 70
     8
 71
     3
 72
    16
 73
    12
 74
     0
 42
0.00000001
 43
0.00000001
 40
0.0
 40
0.0
 40
0.0
 40
0.0
 40
0.124999999999998
 40
0.124999999999998
 40
0.249999999999996
 40
0.249999999999996
 40
0.4999999999999973
 40
0.4999999999999973
 40
0.7499999999999987
 40
0.7499999999999987
 40
1.0
 40
1.0
 40
1.0
 40
1.0
 10
93.36700057116855
 20
94.61150591316417
 30
0.0
 10
93.46212232583437
 20
94.61150591316417
 30
0.0
 10
93.55545239456245
 20
94.60769007977136
 30
0.0
 10
93.73871415530046
 20
94.59291952704154
 30
0.0
 10
93.82959187085746
 20
94.58176147906597
 30
0.0
 10
94.08639356837719
 20
94.53929020892426
 30
0.0
 10
94.2414609332492
 20
94.49824401172145
 30
0.0
 10
94.49520739480381
 20
94.40309789513957
 30
0.0
 10
94.59607784647167
 20
94.34833516105797
 30
0.0
 10
94.7313242611665
 20
94.23707403715412
 30
0.0
 10
94.76700057116855
 20
94.17990429982542
 30
0.0
 10
94.76700057116855
 20
94.12548272679169
 30
0.0
  0
SPLINE
  5
D3
330
1F
100
AcDbEntity
  8
0
  6
HIDDEN
 62
     7
370
     0
100
AcDbSpline
210
0.0
220
0.0
230
1.0
 70
     8
 71
     3
 72
     8
 73
     4
 74
     0
 42
0.00000001
 43
0.00000001
 40
0.0
 40
0.0
 40
0.0
 40
0.0
 40
1.0
 40
1.0
 40
1.0
 40
1.0
 10
85.96700057444937
 20
96.75630885924639
 30
0.0
 10
85.9670005744513
 20
95.87241171692946
 30
0.0
 10
85.9535199485419
 20
95.1578284718675
 30
0.0
 10
85.95216858035259
 20
94.61150591316415
 30
0.0
  0
SPLINE
  5
D4
330
1F
100
AcDbEntity
  8
0
  6
HIDDEN
 62
     7
370
     0
100
AcDbSpline
210
0.0
220
0.0
230
1.0
 70
     8
 71
     3
 72
    10
 73
     6
 74
     0
 42
0.00000001
 43
0.00000001
 40
0.0
 40
0.0
 40
0.0
 40
0.0
 40
0.5
 40
0.5
 40
1.0
 40
1.0
 40
1.0
 40
1.0
 10
85.66700057116853
 20
97.78121912489918
 30
0.0
 10
85.75839168685079
 20
97.60658033728988
 30
0.0
 10
85.83104352057629
 20
97.43297851004291
 30
0.0
 10
85.9385424135719
 20
97.0893650910533
 30
0.0
 10
85.96700057444377
 20
96.92103926453025
 30
0.0
 10
85.96700057444939
 20
96.75630885930589
 30
0.0
  0
LINE
  5
D5
330
1F
100
AcDbEntity
  8
0
  6
HIDDEN
 62
     7
370
     0
100
AcDbLine
 10
85.6670005712
 20
100.812169557
 30
0.0
 11
85.6670005712
 21
97.7812191249
 31
0.0
  0
SPLINE
  5
D6
330
1F
100
AcDbEntity
  8
0
  6
HIDDEN
 62
     7
370
     0
100
AcDbSpline
210
0.0
220
0.0
230
1.0
 70
     8
 71
     3
 72
    10
 73
     6
 74
     0
 42
0.00000001
 43
0.00000001
 40
0.0
 40
0.0
 40
0.0
 40
0.0
 40
0.5
 40
0.5
 40
1.0
 40
1.0
 40
1.0
 40
1.0
 10
85.96700057425376
 20
102.180009973553
 30
0.0
 10
85.96700057425375
 20
101.9380260059817
 30
0.0
 10
85.93885054519343
 20
101.7036835770496
 30
0.0
 10
85.8352606310881
 20
101.2483085548335
 30
0.0
 10
85.75863192152306
 20
101.0267039917559
 30
0.0
 10
85.66700057116853
 20
100.8121695569831
 30
0.0
  0
LINE
  5
D7
330
1F
100
AcDbEntity
  8
0
  6
HIDDEN
 62
     7
370
     0
100
AcDbLine
 10
85.9670005743
 20
114.0176299708
 30
0.0
 11
85.9670005743
 21
102.1800099735
 31
0.0
  0
SPLINE
  5
D8
330
1F
100
AcDbEntity
  8
0
  6
HIDDEN
 62
     7
370
     0
100
AcDbSpline
210
0.0
220
0.0
230
1.0
 70
     8
 71
     3
 72
     8
 73
     4
 74
     0
 42
0.00000001
 43
0.00000001
 40
0.0
 40
0.0
 40
0.0
 40
0.0
 40
1.0
 40
1.0
 40
1.0
 40
1.0
 10
85.66700057116854
 20
120.0199356700764
 30
0.0
 10
85.84803203766786
 20
119.5878281844661
 30
0.0
 10
85.96700057425947
 20
119.1336827784264
 30
0.0
 10
85.96700057425377
 20
118.6459827248077
 30
0.0
  0
LINE
  5
D9
330
1F
100
AcDbEntity
  8
0
  6
HIDDEN
 62
     7
370
     0
100
AcDbLine
 10
85.6670005712
 20
123.0531386562
 30
0.0
 11
85.6670005712
 21
120.0199356701
 31
0.0
  0
SPLINE
  5
DA
330
1F
100
AcDbEntity
  8
0
  6
HIDDEN
 62
     7
370
     0
100
AcDbSpline
210
0.0
220
0.0
230
1.0
 70
     8
 71
     3
 72
    10
 73
     6
 74
     0
 42
0.00000001
 43
0.00000001
 40
0.0
 40
0.0
 40
0.0
 40
0.0
 40
0.5
 40
0.5
 40
1.0
 40
1.0
 40
1.0
 40
1.0
 10
85.96700057456093
 20
124.0696838391157
 30
0.0
 10
85.96700057455914
 20
123.9050474925105
 30
0.0
 10
85.93984190380414
 20
123.7378922686808
 30
0.0
 10
85.8340769084868
 20
123.399269260881
 30
0.0
 10
85.75766212018839
 20
123.226997483587
 30
0.0
 10
85.66700057116856
 20
123.0531386562438
 30
0.0
  0
SPLINE
  5
DB
330
1F
100
AcDbEntity
  8
0
  6
HIDDEN
 62
     7
370
     0
100
AcDbSpline
210
0.0
220
0.0
230
1.0
 70
     8
 71
     3
 72
    18
 73
    14
 74
     0
 42
0.00000001
 43
0.00000001
 40
0.0
 40
0.0
 40
0.0
 40
0.0
 40
0.2500000000000033
 40
0.2500000000000033
 40
0.3750000000000029
 40
0.3750000000000029
 40
0.5000000000000026
 40
0.5000000000000026
 40
0.6250000000000022
 40
0.6250000000000022
 40
0.7500000000000018
 40
0.7500000000000018
 40
1.0
 40
1.0
 40
1.0
 40
1.0
 10
90.76700057116854
 20
126.7005099716
 30
0.0
 10
90.76700057116854
 20
126.6460354510478
 30
0.0
 10
90.73208987977638
 20
126.5896543916953
 30
0.0
 10
90.63008057844333
 20
126.5055775508418
 30
0.0
 10
90.58844422376522
 20
126.4782438468509
 30
0.0
 10
90.49003842827646
 20
126.4252899312519
 30
0.0
 10
90.43249521657218
 20
126.3994025775347
 30
0.0
 10
90.30519704299924
 20
126.3516250327014
 30
0.0
 10
90.23560973824176
 20
126.3296771145236
 30
0.0
 10
90.0841754930868
 20
126.2902445496108
 30
0.0
 10
90.00149158999287
 20
126.272688300385
 30
0.0
 10
89.74538012795482
 20
126.2302495349645
 30
0.0
 10
89.55746512406682
 20
126.2144867852275
 30
0.0
 10
89.36700057116855
 20
126.2144867852275
 30
0.0
  0
LINE
  5
DC
330
1F
100
AcDbEntity
  8
0
  6
HIDDEN
 62
     7
370
     0
100
AcDbLine
 10
89.3670005712
 20
126.2144867852
 30
0.0
 11
85.9670005746
 21
126.2144867852
 31
0.0
  0
LINE
  5
DD
330
1F
100
AcDbEntity
  8
0
  6
HIDDEN
 62
     7
370
     0
100
AcDbLine
 10
85.8980315845
 20
94.6115059132
 30
0.0
 11
93.3670005712
 21
94.6115059132
 31
0.0
  0
SPLINE
  5
DE
330
1F
100
AcDbEntity
  8
0
  6
HIDDEN
 62
     7
370
     0
100
AcDbSpline
210
0.0
220
0.0
230
1.0
 70
     8
 71
     3
 72
    22
 73
    18
 74
     0
 42
0.00000001
 43
0.00000001
 40
0.0
 40
0.0
 40
0.0
 40
0.0
 40
0.125
 40
0.125
 40
0.25
 40
0.25
 40
0.5000000000000001
 40
0.5000000000000001
 40
0.5625000000000001
 40
0.5625000000000001
 40
0.6250000000000001
 40
0.6250000000000001
 40
0.75
 40
0.75
 40
0.875
 40
0.875
 40
1.0
 40
1.0
 40
1.0
 40
1.0
 10
85.89803158452644
 20
94.61150591316417
 30
0.0
 10
85.88494919179807
 20
94.86661162331184
 30
0.0
 10
85.87172962835824
 20
95.15976988241574
 30
0.0
 10
85.84928245056413
 20
95.82207034804055
 30
0.0
 10
85.83980398353967
 20
96.19234426865194
 30
0.0
 10
85.82060602260316
 20
97.41490107176571
 30
0.0
 10
85.82171979560003
 20
98.35203999789759
 30
0.0
 10
85.8406305885531
 20
99.67191122741258
 30
0.0
 10
85.84526011641209
 20
99.94341313638888
 30
0.0
 10
85.85574133615805
 20
100.5017979711912
 30
0.0
 10
85.86153659744247
 20
100.7889208271308
 30
0.0
 10
85.8798458183474
 20
101.6615100815025
 30
0.0
 10
85.89388075262777
 20
102.2619657578583
 30
0.0
 10
85.92333792476461
 20
103.4994402503544
 30
0.0
 10
85.93889361574618
 20
104.1364564069979
 30
0.0
 10
85.96268816574307
 20
105.4479450046824
 30
0.0
 10
85.97070721788842
 20
106.1240676163429
 30
0.0
 10
85.96700057116854
 20
106.8083627276277
 30
0.0
  0
LINE
  5
DF
330
1F
100
AcDbEntity
  8
0
  6
HIDDEN
 62
     7
370
     0
100
AcDbLine
 10
85.9670005746
 20
114.0176299708
 30
0.0
 11
85.9670005746
 21
126.2144867852
 31
0.0
  0
SPLINE
  5
E0
330
1F
100
AcDbEntity
  8
0
  6
HIDDEN
 62
     7
370
     0
100
AcDbSpline
210
0.0
220
0.0
230
1.0
 70
     8
 71
     3
 72
    10
 73
     6
 74
     0
 42
0.00000001
 43
0.00000001
 40
0.0
 40
0.0
 40
0.0
 40
0.0
 40
0.5
 40
0.5
 40
1.0
 40
1.0
 40
1.0
 40
1.0
 10
85.96700057116853
 20
106.8083627276127
 30
0.0
 10
85.96700057116837
 20
107.0822778756867
 30
0.0
 10
85.94124134129953
 20
107.3532194544163
 30
0.0
 10
85.83803540856611
 20
107.8889105360185
 30
0.0
 10
85.76069724469171
 20
108.1546573395403
 30
0.0
 10
85.66700057116853
 20
108.4162960469776
 30
0.0
  0
SPLINE
  5
E1
330
1F
100
AcDbEntity
  8
0
  6
HIDDEN
 62
     7
370
     0
100
AcDbSpline
210
0.0
220
0.0
230
1.0
 70
     8
 71
     3
 72
    10
 73
     6
 74
     0
 42
0.00000001
 43
0.00000001
 40
0.0
 40
0.0
 40
0.0
 40
0.0
 40
0.5
 40
0.5
 40
1.0
 40
1.0
 40
1.0
 40
1.0
 10
85.66700057116854
 20
112.4001246425623
 30
0.0
 10
85.7602311525593
 20
112.6640184506321
 30
0.0
 10
85.83526076479588
 20
112.9301987612701
 30
0.0
 10
85.94032786397372
 20
113.4685213362276
 30
0.0
 10
85.96700057455976
 20
113.7412694524728
 30
0.0
 10
85.96700057456096
 20
114.0176299707629
 30
0.0
  0
LINE
  5
E2
330
1F
100
AcDbEntity
  8
0
  6
HIDDEN
 62
     7
370
     0
100
AcDbLine
 10
85.6670005712
 20
108.416296047
 30
0.0
 11
85.6670005712
 21
112.4001246426
 31
0.0
  0
LINE
  5
E3
330
1F
100
AcDbEntity
  8
0
  6
HIDDEN
 62
     7
370
     0
100
AcDbLine
 10
85.8170005712
 20
92.4229963492
 30
0.0
 11
85.8170005712
 21
89.5430585838
 31
0.0
  0
LINE
  5
E4
330
1F
100
AcDbEntity
  8
0
  6
HIDDEN
 62
     7
370
     0
100
AcDbLine
 10
94.7670005712
 20
92.4229963492
 30
0.0
 11
94.7670005712
 21
88.449258818
 31
0.0
  0
LINE
  5
E5
330
1F
100
AcDbEntity
  8
0
  6
HIDDEN
 62
     7
370
     0
100
AcDbLine
 10
85.8170005712
 20
128.4029963492
 30
0.0
 11
85.8170005712
 21
131.2829341146
 31
0.0
  0
LINE
  5
E6
330
1F
100
AcDbEntity
  8
0
  6
HIDDEN
 62
     7
370
     0
100
AcDbLine
 10
90.7670005712
 20
128.4029963492
 30
0.0
 11
90.7670005712
 21
132.2571040216
 31
0.0
  0
LINE
  5
E7
330
1F
100
AcDbEntity
  8
0
  6
HIDDEN
 62
     7
370
     0
100
AcDbLine
 10
138.3670005712
 20
100.9129963492
 30
0.0
 11
138.3670005712
 21
119.9129963492
 31
0.0
  0
LINE
  5
E8
330
1F
100
AcDbEntity
  8
0
  6
HIDDEN
 62
     7
370
     0
100
AcDbLine
 10
135.3670005712
 20
100.9129963492
 30
0.0
 11
135.3670005712
 21
119.9129963492
 31
0.0
  0
LINE
  5
E9
330
1F
100
AcDbEntity
  8
0
  6
HIDDEN
 62
     7
370
     0
100
AcDbLine
 10
147.5670005712
 20
101.5129963492
 30
0.0
 11
147.5670005712
 21
119.3129963216
 31
0.0
  0
LINE
  5
EA
330
1F
100
AcDbEntity
  8
0
  6
HIDDEN
 62
     7
370
     0
100
AcDbLine
 10
151.5670005712
 20
101.4129963492
 30
0.0
 11
151.5670005712
 21
119.4129963492
 31
0.0
  0
LINE
  5
EB
330
1F
100
AcDbEntity
  8
0
  6
HIDDEN
 62
     7
370
     0
100
AcDbLine
 10
127.0170005712
 20
101.9129963492
 30
0.0
 11
127.0170005712
 21
118.9129963492
 31
0.0
  0
LINE
  5
EC
330
1F
100
AcDbEntity
  8
0
  6
HIDDEN
 62
     7
370
     0
100
AcDbLine
 10
132.7546753735
 20
84.0129963492
 30
0.0
 11
129.5170005712
 21
84.0129963492
 31
0.0
  0
LINE
  5
ED
330
1F
100
AcDbEntity
  8
0
  6
HIDDEN
 62
     7
370
     0
100
AcDbLine
 10
121.5170005712
 20
78.9288733663
 30
0.0
 11
121.5170005712
 21
84.0129963492
 31
0.0
  0
LINE
  5
EE
330
1F
100
AcDbEntity
  8
0
  6
HIDDEN
 62
     7
370
     0
100
AcDbLine
 10
129.5170005712
 20
84.0129963492
 30
0.0
 11
121.5170005712
 21
84.0129963492
 31
0.0
  0
LINE
  5
EF
330
1F
100
AcDbEntity
  8
0
  6
HIDDEN
 62
     7
370
     0
100
AcDbLine
 10
142.5170005712
 20
84.0129963492
 30
0.0
 11
136.3793257688
 21
84.0129963492
 31
0.0
  0
LINE
  5
F0
330
1F
100
AcDbEntity
  8
0
  6
HIDDEN
 62
     7
370
     0
100
AcDbLine
 10
129.5170005712
 20
136.8129963492
 30
0.0
 11
121.5170005712
 21
136.8129963492
 31
0.0
  0
LINE
  5
F1
330
1F
100
AcDbEntity
  8
0
  6
HIDDEN
 62
     7
370
     0
100
AcDbLine
 10
133.0512981029
 20
136.8129963492
 30
0.0
 11
129.5170005712
 21
136.8129963492
 31
0.0
  0
LINE
  5
F2
330
1F
100
AcDbEntity
  8
0
  6
HIDDEN
 62
     7
370
     0
100
AcDbLine
 10
142.5170005712
 20
136.8129963492
 30
0.0
 11
136.0827030395
 21
136.8129963492
 31
0.0
  0
SPLINE
  5
F3
330
1F
100
AcDbEntity
  8
0
  6
HIDDEN
 62
     7
370
     0
100
AcDbSpline
210
0.0
220
0.0
230
1.0
 70
     8
 71
     3
 72
    11
 73
     7
 74
     0
 42
0.00000001
 43
0.00000001
 40
0.0
 40
0.0
 40
0.0
 40
0.0
 40
0.0008203708524183
 40
0.0008203708524183
 40
0.0008203708524183
 40
0.0016409967870154
 40
0.0016409967870154
 40
0.0016409967870154
 40
0.0016409967870154
 10
85.81700057116855
 20
94.56096359855309
 30
0.0
 10
85.6258422708699
 20
94.51978456993396
 30
0.0
 10
85.4344152007977
 20
94.48103059770396
 30
0.0
 10
85.24276957727707
 20
94.44466283842543
 30
0.0
 10
85.0510641721966
 20
94.40828373465939
 30
0.0
 10
84.85912522013766
 20
94.37428948389183
 30
0.0
 10
84.66700057306683
 20
94.34264135850063
 30
0.0
  0
ELLIPSE
  5
F4
330
1F
100
AcDbEntity
  8
0
  6
HIDDEN
 62
     7
370
     0
100
AcDbEllipse
 10
80.4245687026
 20
110.4129963492
 30
0.0
 11
20.19992453367506
 21
-1.421085471520200E-14
 31
0.0
210
0.0
220
0.0
230
1.0
 40
0.8164965809
 41
1.300566354717478
 42
1.359198697209065
  0
LINE
  5
F5
330
1F
100
AcDbEntity
  8
0
  6
HIDDEN
 62
     7
370
     0
100
AcDbLine
 10
94.7670005712
 20
92.4229963492
 30
0.0
 11
94.7670005712
 21
94.1254827268
 31
0.0
  0
LINE
  5
F6
330
1F
100
AcDbEntity
  8
0
  6
HIDDEN
 62
     7
370
     0
100
AcDbLine
 10
85.8170005712
 20
92.4229963492
 30
0.0
 11
85.8170005712
 21
94.5609635986
 31
0.0
  0
LINE
  5
F7
330
1F
100
AcDbEntity
  8
0
  6
HIDDEN
 62
     7
370
     0
100
AcDbLine
 10
85.8980315845
 20
94.6115059132
 30
0.0
 11
85.8170005712
 21
94.5609635986
 31
0.0
  0
LINE
  5
F8
330
1F
100
AcDbEntity
  8
0
  6
HIDDEN
 62
     7
370
     0
100
AcDbLine
 10
90.7670005712
 20
128.4029963492
 30
0.0
 11
90.7670005712
 21
126.7005099716
 31
0.0
  0
LINE
  5
F9
330
1F
100
AcDbEntity
  8
0
  6
HIDDEN
 62
     7
370
     0
100
AcDbLine
 10
85.8170005712
 20
128.4029963492
 30
0.0
 11
85.8170005712
 21
126.3076208003
 31
0.0
  0
SPLINE
  5
FA
330
1F
100
AcDbEntity
  8
0
  6
HIDDEN
 62
     7
370
     0
100
AcDbSpline
210
0.0
220
0.0
230
1.0
 70
     8
 71
     3
 72
     8
 73
     4
 74
     0
 42
0.00000001
 43
0.00000001
 40
0.0
 40
0.0
 40
0.0
 40
0.0
 40
1.0
 40
1.0
 40
1.0
 40
1.0
 10
85.81700057116855
 20
126.307620800254
 30
0.0
 10
85.867006070112
 20
126.276585026035
 30
0.0
 10
85.91700614077612
 20
126.2455403810077
 30
0.0
 10
85.96700057456097
 20
126.2144867852275
 30
0.0
  0
SPLINE
  5
FB
330
1F
100
AcDbEntity
  8
0
  6
HIDDEN
 62
     7
370
     0
100
AcDbSpline
210
0.0
220
0.0
230
1.0
 70
     8
 71
     3
 72
    20
 73
    16
 74
     0
 42
0.00000001
 43
0.00000001
 40
0.0
 40
0.0
 40
0.0
 40
0.0
 40
0.1118532757826802
 40
0.1773727974827387
 40
0.2489947131368076
 40
0.3297435627688622
 40
0.3985163045524689
 40
0.4997965452003023
 40
0.6137622349726405
 40
0.6789284889447446
 40
0.7494553435855339
 40
0.8296017038260749
 40
0.8980457173940257
 40
0.999456632445218
 40
0.9999999999999999
 40
0.9999999999999999
 40
0.9999999999999999
 40
0.9999999999999999
 10
111.3156158878036
 20
86.81306269945136
 30
0.0
 10
111.2723238128605
 20
86.82648111348402
 30
0.0
 10
111.203672837842
 20
86.84775953933344
 30
0.0
 10
110.7586554233785
 20
86.95103206704974
 30
0.0
 10
110.2321057200758
 20
87.06433349018886
 30
0.0
 10
109.5466781455352
 20
87.18726689671196
 30
0.0
 10
108.653361402236
 20
87.30930121324882
 30
0.0
 10
107.5400018290228
 20
87.42703758601584
 30
0.0
 10
106.4292275723143
 20
87.43901302411284
 30
0.0
 10
105.5444798573936
 20
87.41195484972515
 30
0.0
 10
104.8772810919805
 20
87.36402237213032
 30
0.0
 10
104.3360175012138
 20
87.30773054936083
 30
0.0
 10
103.9484036757099
 20
87.26264121748181
 30
0.0
 10
103.7544958052414
 20
87.22377254411809
 30
0.0
 10
103.8176888691766
 20
87.23449484892362
 30
0.0
 10
103.8180256579779
 20
87.23455199367905
 30
0.0
  0
LINE
  5
FC
330
1F
100
AcDbEntity
  8
0
  6
HIDDEN
 62
     7
370
     0
100
AcDbLine
 10
104.7270124564
 20
87.34533449
 30
0.0
 11
104.9108578022
 21
87.3635238357
 31
0.0
  0
SPLINE
  5
FD
330
1F
100
AcDbEntity
  8
0
  6
HIDDEN
 62
     7
370
     0
100
AcDbSpline
210
0.0
220
0.0
230
1.0
 70
     8
 71
     3
 72
    27
 73
    23
 74
     0
 42
0.00000001
 43
0.00000001
 40
0.0
 40
0.0
 40
0.0
 40
0.0
 40
0.0008086693422984
 40
0.0456911815140356
 40
0.1022728479136631
 40
0.1705509389303579
 40
0.209142611498697
 40
0.2506698509758406
 40
0.3211156292483655
 40
0.3862093645069535
 40
0.4266885148362708
 40
0.4648197682151256
 40
0.5006240854262355
 40
0.5452158504830793
 40
0.6017101074390383
 40
0.6701160830877199
 40
0.7088534136478595
 40
0.750582159653527
 40
0.8222467460817283
 40
0.8877861717926736
 40
0.9472599278233171
 40
1.0
 40
1.0
 40
1.0
 40
1.0
 10
103.817669107893
 20
133.5914104794913
 30
0.0
 10
103.8174467385633
 20
133.5914584148144
 30
0.0
 10
103.8048824964531
 20
133.5941668414035
 30
0.0
 10
103.8539591352774
 20
133.5823348110679
 30
0.0
 10
103.9990636524625
 20
133.5588906029433
 30
0.0
 10
104.2721158090219
 20
133.5249864576363
 30
0.0
 10
104.6006422903472
 20
133.4914176598965
 30
0.0
 10
104.9933700535742
 20
133.453234321648
 30
0.0
 10
105.5430980283395
 20
133.4142656488802
 30
0.0
 10
106.1691206730826
 20
133.3948045443732
 30
0.0
 10
106.7123121832718
 20
133.3926188663873
 30
0.0
 10
107.1573810798912
 20
133.40113374743
 30
0.0
 10
107.6238288768218
 20
133.4209171442346
 30
0.0
 10
108.1610695267786
 20
133.4650795296106
 30
0.0
 10
108.809282958322
 20
133.5374951495311
 30
0.0
 10
109.3948215883339
 20
133.6183972426149
 30
0.0
 10
109.8757912025089
 20
133.6965632310112
 30
0.0
 10
110.3212060997546
 20
133.7813353699555
 30
0.0
 10
110.7597058201051
 20
133.8751184129888
 30
0.0
 10
111.0987310783008
 20
133.9530221770827
 30
0.0
 10
111.2860720147067
 20
134.0032138146245
 30
0.0
 10
111.3065617970095
 20
134.0098802542124
 30
0.0
 10
111.3161919167086
 20
134.0130134554466
 30
0.0
  0
SPLINE
  5
FE
330
1F
100
AcDbEntity
  8
0
  6
HIDDEN
 62
     7
370
     0
100
AcDbSpline
210
0.0
220
0.0
230
1.0
 70
     8
 71
     3
 72
     8
 73
     4
 74
     0
 42
0.00000001
 43
0.00000001
 40
0.0
 40
0.0
 40
0.0
 40
0.0
 40
0.0001590976953043
 40
0.0001590976953043
 40
0.0001590976953043
 40
0.0001590976953043
 10
85.95216858035262
 20
94.61150591316417
 30
0.0
 10
85.9071171098596
 20
94.58352702884667
 30
0.0
 10
85.86206107145611
 20
94.55555549847789
 30
0.0
 10
85.81700057116856
 20
94.52759115913165
 30
0.0
  0
SPLINE
  5
FF
330
1F
100
AcDbEntity
  8
0
  6
HIDDEN
 62
     7
370
     0
100
AcDbSpline
210
0.0
220
0.0
230
1.0
 70
     8
 71
     3
 72
    11
 73
     7
 74
     0
 42
0.00000001
 43
0.00000001
 40
0.0
 40
0.0
 40
0.0
 40
0.0
 40
0.000821290931147
 40
0.000821290931147
 40
0.000821290931147
 40
0.0016428257243086
 40
0.0016428257243086
 40
0.0016428257243086
 40
0.0016428257243086
 10
85.81700057116853
 20
94.52759115913165
 30
0.0
 10
85.62585554968638
 20
94.48430497027603
 30
0.0
 10
85.43443721400992
 20
94.44336846063567
 30
0.0
 10
85.2427911393488
 20
94.40476668924595
 30
0.0
 10
85.05108805780719
 20
94.3661534354057
 30
0.0
 10
84.85914293452164
 20
94.32987322611649
 30
0.0
 10
84.66700057116844
 20
94.29590631976176
 30
0.0
  0
LINE
  5
100
330
1F
100
AcDbEntity
  8
0
  6
HIDDEN
 62
     7
370
     0
100
AcDbLine
 10
132.6570005712
 20
130.5488629807
 30
0.0
 11
132.6570005712
 21
130.2629963492
 31
0.0
  0
LINE
  5
101
330
1F
100
AcDbEntity
  8
0
  6
HIDDEN
 62
     7
370
     0
100
AcDbLine
 10
136.4770005712
 20
130.5488629807
 30
0.0
 11
136.4770005712
 21
130.2629963492
 31
0.0
  0
LINE
  5
102
330
1F
100
AcDbEntity
  8
0
  6
HIDDEN
 62
     7
370
     0
100
AcDbLine
 10
137.9589334027
 20
134.8716860116
 30
0.0
 11
137.9589334027
 21
130.2629963492
 31
0.0
  0
SPLINE
  5
103
330
1F
100
AcDbEntity
  8
0
  6
HIDDEN
 62
     7
370
     0
100
AcDbSpline
210
0.0
220
0.0
230
1.0
 70
     8
 71
     3
 72
    24
 73
    20
 74
     0
 42
0.00000001
 43
0.00000001
 40
0.0
 40
0.0
 40
0.0
 40
0.0
 40
0.249999999999999
 40
0.249999999999999
 40
0.3749999999999983
 40
0.3749999999999983
 40
0.4374999999999987
 40
0.4374999999999987
 40
0.4687499999999975
 40
0.4687499999999975
 40
0.4999999999999963
 40
0.4999999999999963
 40
0.5624999999999984
 40
0.5624999999999984
 40
0.6250000000000006
 40
0.6250000000000006
 40
0.7500000000000001
 40
0.7500000000000001
 40
1.0
 40
1.0
 40
1.0
 40
1.0
 10
84.72966394589196
 20
90.7384438044151
 30
0.0
 10
84.74341706456218
 20
90.80909386240538
 30
0.0
 10
84.76118963196805
 20
90.87569197517028
 30
0.0
 10
84.8134407235234
 20
90.94978999540349
 30
0.0
 10
84.83447579910496
 20
90.97104780256505
 30
0.0
 10
84.88737620673339
 20
90.9791937287113
 30
0.0
 10
84.90848187961132
 20
90.97825392531551
 30
0.0
 10
84.95453404828929
 20
90.95723793373817
 30
0.0
 10
84.97290452027268
 20
90.94632912763056
 30
0.0
 10
85.0144561553384
 20
90.91369421668318
 30
0.0
 10
85.0370228280953
 20
90.8922022363118
 30
0.0
 10
85.09980384455531
 20
90.8237362927255
 30
0.0
 10
85.1329336055232
 20
90.7776618345204
 30
0.0
 10
85.18985129200823
 20
90.69265394618574
 30
0.0
 10
85.21403731751198
 20
90.65237364500436
 30
0.0
 10
85.27924526789174
 20
90.53743741853843
 30
0.0
 10
85.313961328083
 20
90.4668544333914
 30
0.0
 10
85.40717659841387
 20
90.26264867431281
 30
0.0
 10
85.45284913377456
 20
90.13975029198545
 30
0.0
 10
85.49115421727309
 20
90.02287701559789
 30
0.0
  0
SPLINE
  5
104
330
1F
100
AcDbEntity
  8
0
  6
HIDDEN
 62
     7
370
     0
100
AcDbSpline
210
0.0
220
0.0
230
1.0
 70
     8
 71
     3
 72
    11
 73
     7
 74
     0
 42
0.00000001
 43
0.00000001
 40
0.0
 40
0.0
 40
0.0
 40
0.0
 40
0.0005781862223981
 40
0.0005781862223981
 40
0.0005781862223981
 40
0.0011563724723932
 40
0.0011563724723932
 40
0.0011563724723932
 40
0.0011563724723932
 10
85.66700057116883
 20
123.0531386562486
 30
0.0
 10
85.50034001689316
 20
123.117668167662
 30
0.0
 10
85.33367671998666
 20
123.1821708715007
 30
0.0
 10
85.16701013615635
 20
123.2466573199342
 30
0.0
 10
85.00034354389724
 20
123.3111437716289
 30
0.0
 10
84.8336736782713
 20
123.3756137803568
 30
0.0
 10
84.66700057116851
 20
123.4400695470892
 30
0.0
  0
SPLINE
  5
105
330
1F
100
AcDbEntity
  8
0
  6
HIDDEN
 62
     7
370
     0
100
AcDbSpline
210
0.0
220
0.0
230
1.0
 70
     8
 71
     3
 72
    11
 73
     7
 74
     0
 42
0.00000001
 43
0.00000001
 40
0.0
 40
0.0
 40
0.0
 40
0.0
 40
0.0005778746105124
 40
0.0005778746105124
 40
0.0005778746105124
 40
0.0011557494857259
 40
0.0011557494857259
 40
0.0011557494857259
 40
0.0011557494857259
 10
84.6670005711685
 20
97.38577449370597
 30
0.0
 10
84.83366744758183
 20
97.45158662039104
 30
0.0
 10
85.00033416714328
 20
97.51744510052002
 30
0.0
 10
85.16700081519194
 20
97.58335267344223
 30
0.0
 10
85.3336675397106
 20
97.64926027660415
 30
0.0
 10
85.50033423413119
 20
97.71521738498444
 30
0.0
 10
85.66700057116853
 20
97.7812191248992
 30
0.0
  0
SPLINE
  5
106
330
1F
100
AcDbEntity
  8
0
  6
HIDDEN
 62
     7
370
     0
100
AcDbSpline
210
0.0
220
0.0
230
1.0
 70
     8
 71
     3
 72
    11
 73
     7
 74
     0
 42
0.00000001
 43
0.00000001
 40
0.0000000000000006
 40
0.0000000000000006
 40
0.0000000000000006
 40
0.0000000000000006
 40
0.0005780486062825
 40
0.0005780486062825
 40
0.0005780486062825
 40
0.0011560973514241
 40
0.0011560973514241
 40
0.0011560973514241
 40
0.0011560973514241
 10
84.66700057116851
 20
120.3938108508876
 30
0.0
 10
84.8336704272134
 20
120.3314389893406
 30
0.0
 10
85.00033813129767
 20
120.2690851290111
 30
0.0
 10
85.16700443575131
 20
120.2067655687938
 30
0.0
 10
85.33367077644505
 20
120.1444459950256
 30
0.0
 10
85.50033573307387
 20
120.0821607906753
 30
0.0
 10
85.66700057116854
 20
120.0199356700764
 30
0.0
  0
SPLINE
  5
107
330
1F
100
AcDbEntity
  8
0
  6
HIDDEN
 62
     7
370
     0
100
AcDbSpline
210
0.0
220
0.0
230
1.0
 70
     8
 71
     3
 72
    11
 73
     7
 74
     0
 42
0.00000001
 43
0.00000001
 40
0.0
 40
0.0
 40
0.0
 40
0.0
 40
0.0005782401583596
 40
0.0005782401583596
 40
0.0005782401583596
 40
0.0011564805961118
 40
0.0011564805961118
 40
0.0011564805961118
 40
0.0011564805961118
 10
85.66700057116854
 20
100.8121695569831
 30
0.0
 10
85.50034962081962
 20
100.7487440988931
 30
0.0
 10
85.33369002823694
 20
100.685388575208
 30
0.0
 10
85.1670229758084
 20
100.6220909908272
 30
0.0
 10
85.00035583924458
 20
100.5587933744931
 30
0.0
 10
84.83368123179852
 20
100.4955535795207
 30
0.0
 10
84.66700057116849
 20
100.4323535728493
 30
0.0
  0
CIRCLE
  5
108
330
1F
100
AcDbEntity
  8
0
  6
HIDDEN
 62
     7
370
     0
100
AcDbCircle
 10
123.5670005712
 20
110.4129963492
 30
0.0
 40
5.0
  0
LINE
  5
109
330
1F
100
AcDbEntity
  8
0
  6
HIDDEN
 62
     7
370
     0
100
AcDbLine
 10
120.5670005712
 20
124.7108314989
 30
0.0
 11
120.5670005712
 21
122.8069369921
 31
0.0
  0
LINE
  5
10A
330
1F
100
AcDbEntity
  8
0
  6
HIDDEN
 62
     7
370
     0
100
AcDbLine
 10
128.5670005712
 20
122.8069369921
 30
0.0
 11
128.5670005712
 21
124.7136268549
 31
0.0
  0
LINE
  5
10B
330
1F
100
AcDbEntity
  8
0
  6
HIDDEN
 62
     7
370
     0
100
AcDbLine
 10
116.5670005712
 20
85.0890652032
 30
0.0
 11
116.6611613467
 21
85.7590539344
 31
0.0
  0
LINE
  5
10C
330
1F
100
AcDbEntity
  8
0
  6
HIDDEN
 62
     7
370
     0
100
AcDbLine
 10
116.6611613467
 20
135.066938764
 30
0.0
 11
116.5670005712
 21
135.7369274952
 31
0.0
  0
ARC
  5
10D
330
1F
100
AcDbEntity
  8
0
  6
HIDDEN
 62
     7
370
     0
100
AcDbCircle
 10
116.0669938185
 20
85.8425587348
 30
0.0
 40
0.6000067526677101
100
AcDbArc
 50
352.0
 51
0.0
  0
ARC
  5
10E
330
1F
100
AcDbEntity
  8
0
  6
HIDDEN
 62
     7
370
     0
100
AcDbCircle
 10
116.0669938185
 20
85.8425587348
 30
0.0
 40
0.6000067526677242
100
AcDbArc
 50
0.0
 51
33.5571153394
  0
ARC
  5
10F
330
1F
100
AcDbEntity
  8
0
  6
HIDDEN
 62
     7
370
     0
100
AcDbCircle
 10
116.0669938185
 20
134.9834339636
 30
0.0
 40
0.6000067526677169
100
AcDbArc
 50
348.75
 51
8.0
  0
LWPOLYLINE
  5
110
330
1F
100
AcDbEntity
  8
0
  6
HIDDEN
 62
     7
370
     0
100
AcDbPolyline
 90
        3
 70
   128
 43
0.0
 10
116.6554716097
 20
134.866378453
 10
116.6213277767
 20
134.75382132
 10
116.5670005712
 20
134.6517694486
  0
LINE
  5
111
330
1F
100
AcDbEntity
  8
0
  6
HIDDEN
 62
     7
370
     0
100
AcDbLine
 10
116.6670005712
 20
85.8425587348
 30
0.0
 11
116.6670005712
 21
134.9834339636
 31
0.0
  0
LINE
  5
112
330
1F
100
AcDbEntity
  8
0
  6
HIDDEN
 62
     7
370
     0
100
AcDbLine
 10
99.6494361365
 20
90.4129963492
 30
0.0
 11
103.8411080247
 21
90.4129963492
 31
0.0
  0
LINE
  5
113
330
1F
100
AcDbEntity
  8
0
  6
HIDDEN
 62
     7
370
     0
100
AcDbLine
 10
103.8411080247
 20
130.4129963492
 30
0.0
 11
99.6494361365
 21
130.4129963492
 31
0.0
  0
ARC
  5
114
330
1F
100
AcDbEntity
  8
0
  6
HIDDEN
 62
     7
370
     0
100
AcDbCircle
 10
110.3220025728
 20
98.4129963492
 30
0.0
 40
7.999999999999996
100
AcDbArc
 50
276.8737622725
 51
321.3178125465
  0
ARC
  5
115
330
1F
100
AcDbEntity
  8
0
  6
HIDDEN
 62
     7
370
     0
100
AcDbCircle
 10
110.3220025728
 20
122.4129963492
 30
0.0
 40
8.000000000000004
100
AcDbArc
 50
38.6821874535
 51
83.1187603686
  0
ARC
  5
116
330
1F
100
AcDbEntity
  8
0
  6
HIDDEN
 62
     7
370
     0
100
AcDbCircle
 10
99.6494361365
 20
91.0129963492
 30
0.0
 40
0.6000000000000085
100
AcDbArc
 50
210.0
 51
270.0
  0
ARC
  5
117
330
1F
100
AcDbEntity
  8
0
  6
HIDDEN
 62
     7
370
     0
100
AcDbCircle
 10
99.6494361365
 20
129.8129963492
 30
0.0
 40
0.6000000000000227
100
AcDbArc
 50
90.0
 51
150.0
  0
LINE
  5
118
330
1F
100
AcDbEntity
  8
0
  6
HIDDEN
 62
     7
370
     0
100
AcDbLine
 10
99.1298208942
 20
130.1129963492
 30
0.0
 11
97.5709751674
 21
127.4129963492
 31
0.0
  0
LINE
  5
119
330
1F
100
AcDbEntity
  8
0
  6
HIDDEN
 62
     7
370
     0
100
AcDbLine
 10
97.5709751674
 20
93.4129963492
 30
0.0
 11
99.1298208942
 21
90.7129963492
 31
0.0
  0
LINE
  5
11A
330
1F
100
AcDbEntity
  8
0
  6
HIDDEN
 62
     7
370
     0
100
AcDbLine
 10
120.5670005712
 20
137.6873302084
 30
0.0
 11
120.5670005712
 21
134.3585987638
 31
0.0
  0
LINE
  5
11B
330
1F
100
AcDbEntity
  8
0
  6
HIDDEN
 62
     7
370
     0
100
AcDbLine
 10
128.5670005712
 20
134.3585987638
 30
0.0
 11
128.5670005712
 21
137.6926625871
 31
0.0
  0
ARC
  5
11C
330
1F
100
AcDbEntity
  8
0
  6
HIDDEN
 62
     7
370
     0
100
AcDbCircle
 10
125.0170005712
 20
94.6879963492
 30
0.0
 40
1.500000000000001
100
AcDbArc
 50
238.2116693829
 51
0.0
  0
ARC
  5
11D
330
1F
100
AcDbEntity
  8
0
  6
HIDDEN
 62
     7
370
     0
100
AcDbCircle
 10
125.0170005712
 20
126.1379963492
 30
0.0
 40
1.500000000000013
100
AcDbArc
 50
0.0
 51
121.7883306171
  0
LINE
  5
11E
330
1F
100
AcDbEntity
  8
0
  6
HIDDEN
 62
     7
370
     0
100
AcDbLine
 10
116.5670005712
 20
93.4129963492
 30
0.0
 11
124.2268265397
 21
93.4129963492
 31
0.0
  0
LINE
  5
11F
330
1F
100
AcDbEntity
  8
0
  6
HIDDEN
 62
     7
370
     0
100
AcDbLine
 10
124.2268265397
 20
127.4129963492
 30
0.0
 11
116.5670005712
 21
127.4129963492
 31
0.0
  0
LINE
  5
120
330
1F
100
AcDbEntity
  8
0
  6
HIDDEN
 62
     7
370
     0
100
AcDbLine
 10
94.7670005712
 20
93.4129963492
 30
0.0
 11
97.5709751674
 21
93.4129963492
 31
0.0
  0
LINE
  5
121
330
1F
100
AcDbEntity
  8
0
  6
HIDDEN
 62
     7
370
     0
100
AcDbLine
 10
97.5709751674
 20
127.4129963492
 30
0.0
 11
90.7670005712
 21
127.4129963492
 31
0.0
  0
LINE
  5
122
330
1F
100
AcDbEntity
  8
0
  6
HIDDEN
 62
     7
370
     0
100
AcDbLine
 10
135.3670005712
 20
100.9129963492
 30
0.0
 11
138.3670005712
 21
100.9129963492
 31
0.0
  0
LINE
  5
123
330
1F
100
AcDbEntity
  8
0
  6
HIDDEN
 62
     7
370
     0
100
AcDbLine
 10
138.3670005712
 20
119.9129963492
 30
0.0
 11
135.3670005712
 21
119.9129963492
 31
0.0
  0
LINE
  5
124
330
1F
100
AcDbEntity
  8
0
  6
HIDDEN
 62
     7
370
     0
100
AcDbLine
 10
147.9670005712
 20
101.1129963492
 30
0.0
 11
150.672226553
 21
101.1129963492
 31
0.0
  0
LINE
  5
125
330
1F
100
AcDbEntity
  8
0
  6
HIDDEN
 62
     7
370
     0
100
AcDbLine
 10
150.672226553
 20
119.7129963492
 30
0.0
 11
147.9670005712
 21
119.7129963492
 31
0.0
  0
ARC
  5
126
330
1F
100
AcDbEntity
  8
0
  6
HIDDEN
 62
     7
370
     0
100
AcDbCircle
 10
150.672226553
 20
101.5129963492
 30
0.0
 40
0.3999999999999977
100
AcDbArc
 50
270.0
 51
290.0
  0
ARC
  5
127
330
1F
100
AcDbEntity
  8
0
  6
HIDDEN
 62
     7
370
     0
100
AcDbCircle
 10
150.672226553
 20
119.3129963492
 30
0.0
 40
0.4000000000000057
100
AcDbArc
 50
70.0
 51
90.0
  0
ARC
  5
128
330
1F
100
AcDbEntity
  8
0
  6
HIDDEN
 62
     7
370
     0
100
AcDbCircle
 10
196.2670005712
 20
101.1129963492
 30
0.0
 40
0.2999999999999972
100
AcDbArc
 50
0.0
 51
90.0
  0
ARC
  5
129
330
1F
100
AcDbEntity
  8
0
  6
HIDDEN
 62
     7
370
     0
100
AcDbCircle
 10
196.2670005712
 20
119.7129963492
 30
0.0
 40
0.2999999999999972
100
AcDbArc
 50
270.0
 51
0.0
  0
ARC
  5
12A
330
1F
100
AcDbEntity
  8
0
  6
HIDDEN
 62
     7
370
     0
100
AcDbCircle
 10
147.9670005712
 20
101.5129963492
 30
0.0
 40
0.3999999999999915
100
AcDbArc
 50
180.0
 51
270.0
  0
ARC
  5
12B
330
1F
100
AcDbEntity
  8
0
  6
HIDDEN
 62
     7
370
     0
100
AcDbCircle
 10
147.9670005712
 20
119.3129963492
 30
0.0
 40
0.4000000000000057
100
AcDbArc
 50
90.0
 51
180.0
  0
LINE
  5
12C
330
1F
100
AcDbEntity
  8
0
  6
HIDDEN
 62
     7
370
     0
100
AcDbLine
 10
150.8090346104
 20
101.1371193009
 30
0.0
 11
151.5670005712
 21
101.4129963492
 31
0.0
  0
LINE
  5
12D
330
1F
100
AcDbEntity
  8
0
  6
HIDDEN
 62
     7
370
     0
100
AcDbLine
 10
151.5670005712
 20
119.4129963492
 30
0.0
 11
150.8090346104
 21
119.6888733975
 31
0.0
  0
LINE
  5
12E
330
1F
100
AcDbEntity
  8
0
  6
HIDDEN
 62
     7
370
     0
100
AcDbLine
 10
126.5170005712
 20
101.4129963492
 30
0.0
 11
127.0170005712
 21
101.9129963492
 31
0.0
  0
LINE
  5
12F
330
1F
100
AcDbEntity
  8
0
  6
HIDDEN
 62
     7
370
     0
100
AcDbLine
 10
127.0170005712
 20
118.9129963492
 30
0.0
 11
126.5170005712
 21
119.4129963492
 31
0.0
  0
LINE
  5
130
330
1F
100
AcDbEntity
  8
0
  6
HIDDEN
 62
     7
370
     0
100
AcDbLine
 10
151.5670005712
 20
101.4129963492
 30
0.0
 11
196.2670005712
 21
101.4129963492
 31
0.0
  0
LINE
  5
131
330
1F
100
AcDbEntity
  8
0
  6
HIDDEN
 62
     7
370
     0
100
AcDbLine
 10
196.2670005712
 20
119.4129963492
 30
0.0
 11
151.5670005712
 21
119.4129963492
 31
0.0
  0
LINE
  5
132
330
1F
100
AcDbEntity
  8
0
  6
HIDDEN
 62
     7
370
     0
100
AcDbLine
 10
127.0170005712
 20
101.9129963492
 30
0.0
 11
135.3670005712
 21
101.9129963492
 31
0.0
  0
LINE
  5
133
330
1F
100
AcDbEntity
  8
0
  6
HIDDEN
 62
     7
370
     0
100
AcDbLine
 10
135.3670005712
 20
118.9129963492
 30
0.0
 11
127.0170005712
 21
118.9129963492
 31
0.0
  0
LINE
  5
134
330
1F
100
AcDbEntity
  8
0
  6
HIDDEN
 62
     7
370
     0
100
AcDbLine
 10
121.5170005712
 20
141.9129963492
 30
0.0
 11
121.5170005712
 21
136.8129963492
 31
0.0
  0
LINE
  5
135
330
1F
100
AcDbEntity
  8
0
  6
HIDDEN
 62
     7
370
     0
100
AcDbLine
 10
111.7514384016
 20
86.3336250156
 30
0.0
 11
111.3170062521
 21
86.8126910348
 31
0.0
  0
LINE
  5
136
330
1F
100
AcDbEntity
  8
0
  6
HIDDEN
 62
     7
370
     0
100
AcDbLine
 10
103.8170029271
 20
87.2343789939
 30
0.0
 11
103.3345691837
 21
86.7553130184
 31
0.0
  0
LINE
  5
137
330
1F
100
AcDbEntity
  8
0
  6
HIDDEN
 62
     7
370
     0
100
AcDbLine
 10
103.3344472555
 20
134.0706743895
 30
0.0
 11
103.8169980065
 21
133.5915541316
 31
0.0
  0
LINE
  5
138
330
1F
100
AcDbEntity
  8
0
  6
HIDDEN
 62
     7
370
     0
100
AcDbLine
 10
111.3170004532
 20
134.0132519093
 30
0.0
 11
111.7515428435
 21
134.4923721599
 31
0.0
  0
LINE
  5
139
330
1F
100
AcDbEntity
  8
0
  6
HIDDEN
 62
     7
370
     0
100
AcDbLine
 10
138.3670005712
 20
106.2129963492
 30
0.0
 11
147.5670005712
 21
106.2129963492
 31
0.0
  0
LINE
  5
13A
330
1F
100
AcDbEntity
  8
0
  6
HIDDEN
 62
     7
370
     0
100
AcDbLine
 10
147.5670005712
 20
114.6129963492
 30
0.0
 11
138.3670005712
 21
114.6129963492
 31
0.0
  0
LINE
  5
13B
330
1F
100
AcDbEntity
  8
0
  6
HIDDEN
 62
     7
370
     0
100
AcDbLine
 10
111.3170005712
 20
86.8131749365
 30
0.0
 11
111.3170005712
 21
90.477596011
 31
0.0
  0
LINE
  5
13C
330
1F
100
AcDbEntity
  8
0
  6
HIDDEN
 62
     7
370
     0
100
AcDbLine
 10
103.8170005712
 20
90.4173741173
 30
0.0
 11
103.8170005712
 21
87.2347022315
 31
0.0
  0
LINE
  5
13D
330
1F
100
AcDbEntity
  8
0
  6
HIDDEN
 62
     7
370
     0
100
AcDbLine
 10
111.3170005712
 20
130.3483966874
 30
0.0
 11
111.3170005712
 21
134.0129606032
 31
0.0
  0
LINE
  5
13E
330
1F
100
AcDbEntity
  8
0
  6
HIDDEN
 62
     7
370
     0
100
AcDbLine
 10
103.8170005712
 20
133.5914103525
 30
0.0
 11
103.8170005712
 21
130.4086185811
 31
0.0
  0
DIMENSION
  5
13F
330
1F
100
AcDbEntity
  8
VERMASSUNG
100
AcDbDimension
  2
*D1
 10
78.3443830427
 20
78.9129963492
 30
0.0
 11
78.3443830427
 21
109.9688728762
 31
0.0
 70
   160
  1
HSK A%%c<>
 71
     2
 42
-1.0
  3
SLDDIMSTYLE0
100
AcDbAlignedDimension
 13
116.8670005712
 23
141.9129963492
 33
0.0
 14
116.8670005712
 24
78.9129963492
 34
0.0
 50
90.0
100
AcDbRotatedDimension
  0
DIMENSION
  5
14C
330
1F
100
AcDbEntity
  8
VERMASSUNG
100
AcDbDimension
  2
*D2
 10
142.5170005712
 20
144.7630551488
 30
0.0
 11
166.4809607285
 21
144.7630551488
 31
0.0
 70
   160
 71
     2
 42
-1.0
  3
SLDDIMSTYLE0
100
AcDbAlignedDimension
 13
196.5670005712
 23
128.1388558276
 33
0.0
 14
142.5170005712
 24
140.259436673
 34
0.0
100
AcDbRotatedDimension
  0
DIMENSION
  5
156
330
1F
100
AcDbEntity
  8
VERMASSUNG
100
AcDbDimension
  2
*D3
 10
116.5670005712
 20
150.7630551488
 30
0.0
 11
155.5212627724
 21
150.7630551488
 31
0.0
 70
   160
 71
     2
 42
-1.0
  3
SLDDIMSTYLE0
100
AcDbAlignedDimension
 13
196.5670005712
 23
128.1388558276
 33
0.0
 14
116.5670005712
 24
141.6129963492
 34
0.0
100
AcDbRotatedDimension
  0
DIMENSION
  5
160
330
1F
100
AcDbEntity
  8
VERMASSUNG
100
AcDbDimension
  2
*D4
 10
84.6670005712
 20
156.7630551488
 30
0.0
 11
138.1915954742
 21
156.7630551488
 31
0.0
 70
   160
 71
     2
 42
-1.0
  3
SLDDIMSTYLE0
100
AcDbAlignedDimension
 13
196.5670005712
 23
128.1388558276
 33
0.0
 14
84.6670005712
 24
130.1036740957
 34
0.0
100
AcDbRotatedDimension
  0
DIMENSION
  5
16A
330
1F
100
AcDbEntity
  8
VERMASSUNG
100
AcDbDimension
  2
*D5
 10
204.3014676223
 20
101.4129963492
 30
0.0
 11
204.3014676223
 21
110.3760798174
 31
0.0
 70
   160
  1
%%c<>
 71
     2
 42
-1.0
  3
SLDDIMSTYLE0
100
AcDbAlignedDimension
 13
196.2670005712
 23
119.4129963492
 33
0.0
 14
196.2670005712
 24
101.4129963492
 34
0.0
 50
90.0
100
AcDbRotatedDimension
  0
DIMENSION
  5
175
330
1F
100
AcDbEntity
  8
VERMASSUNG
100
AcDbDimension
  2
*D6
 10
210.3014676223
 20
86.4129963492
 30
0.0
 11
210.3014676223
 21
110.1198320639
 31
0.0
 70
   160
  1
%%c<>
 71
     2
 42
-1.0
  3
SLDDIMSTYLE0
100
AcDbAlignedDimension
 13
185.8444659686
 23
134.4129963492
 33
0.0
 14
185.8444659686
 24
86.4129963492
 34
0.0
 50
90.0
100
AcDbRotatedDimension
  0
LINE
  5
180
330
1F
100
AcDbEntity
  8
VERMASSUNG
  6
CENTERX2
 62
     7
370
     0
100
AcDbLine
 10
82.5216967288
 20
110.4129963492
 30
0.0
 11
197.5862886449
 21
110.4129963492
 31
0.0
  0
OLE2FRAME
  5
181
330
1F
100
AcDbEntity
  8
0
100
AcDbOle2Frame
 70
     2
  3
Bitmap Image
 10
13.8511154363
 20
38.264191557
 30
0.0
 11
51.6290888628
 21
31.9806341108
 31
0.0
 71
     2
 72
     0
 73
     1
 90
    12928
310
80552BED0767C5B32B40DDAF6807D121434000000000000000006FFBDDFB85D0
310
4940DDAF6807D121434000000000000000006FFBDDFB85D04940416F4BD60AFB
310
3F4000000000000000002BED0767C5B32B40416F4BD60AFB3F40000000000000
310
0000000000000100000000010000010000000100000000000100000000320000
310
D0CF11E0A1B11AE1000000000000000000000000000000003E000300FEFF0900
310
0600000000000000000000000100000001000000000000000010000002000000
310
01000000FEFFFFFF0000000000000000FFFFFFFFFFFFFFFFFFFFFFFFFFFFFFFF
310
FFFFFFFFFFFFFFFFFFFFFFFFFFFFFFFFFFFFFFFFFFFFFFFFFFFFFFFFFFFFFFFF
310
FFFFFFFFFFFFFFFFFFFFFFFFFFFFFFFFFFFFFFFFFFFFFFFFFFFFFFFFFFFFFFFF
310
FFFFFFFFFFFFFFFFFFFFFFFFFFFFFFFFFFFFFFFFFFFFFFFFFFFFFFFFFFFFFFFF
310
FFFFFFFFFFFFFFFFFFFFFFFFFFFFFFFFFFFFFFFFFFFFFFFFFFFFFFFFFFFFFFFF
310
FFFFFFFFFFFFFFFFFFFFFFFFFFFFFFFFFFFFFFFFFFFFFFFFFFFFFFFFFFFFFFFF
310
FFFFFFFFFFFFFFFFFFFFFFFFFFFFFFFFFFFFFFFFFFFFFFFFFFFFFFFFFFFFFFFF
310
FFFFFFFFFFFFFFFFFFFFFFFFFFFFFFFFFFFFFFFFFFFFFFFFFFFFFFFFFFFFFFFF
310
FFFFFFFFFFFFFFFFFFFFFFFFFFFFFFFFFFFFFFFFFFFFFFFFFFFFFFFFFFFFFFFF
310
FFFFFFFFFFFFFFFFFFFFFFFFFFFFFFFFFFFFFFFFFFFFFFFFFFFFFFFFFFFFFFFF
310
FFFFFFFFFFFFFFFFFFFFFFFFFFFFFFFFFFFFFFFFFFFFFFFFFFFFFFFFFFFFFFFF
310
FFFFFFFFFFFFFFFFFFFFFFFFFFFFFFFFFFFFFFFFFFFFFFFFFFFFFFFFFFFFFFFF
310
FFFFFFFFFFFFFFFFFFFFFFFFFFFFFFFFFFFFFFFFFFFFFFFFFFFFFFFFFFFFFFFF
310
FFFFFFFFFFFFFFFFFFFFFFFFFFFFFFFFFFFFFFFFFFFFFFFFFFFFFFFFFFFFFFFF
310
FDFFFFFFFEFFFFFFFEFFFFFFFEFFFFFF05000000060000000700000008000000
310
090000000A0000000B0000000C0000000D0000000E0000000F00000010000000
310
11000000120000001300000014000000150000001600000017000000FEFFFFFF
310
FFFFFFFFFFFFFFFFFFFFFFFFFFFFFFFFFFFFFFFFFFFFFFFFFFFFFFFFFFFFFFFF
310
FFFFFFFFFFFFFFFFFFFFFFFFFFFFFFFFFFFFFFFFFFFFFFFFFFFFFFFFFFFFFFFF
310
FFFFFFFFFFFFFFFFFFFFFFFFFFFFFFFFFFFFFFFFFFFFFFFFFFFFFFFFFFFFFFFF
310
FFFFFFFFFFFFFFFFFFFFFFFFFFFFFFFFFFFFFFFFFFFFFFFFFFFFFFFFFFFFFFFF
310
FFFFFFFFFFFFFFFFFFFFFFFFFFFFFFFFFFFFFFFFFFFFFFFFFFFFFFFFFFFFFFFF
310
FFFFFFFFFFFFFFFFFFFFFFFFFFFFFFFFFFFFFFFFFFFFFFFFFFFFFFFFFFFFFFFF
310
FFFFFFFFFFFFFFFFFFFFFFFFFFFFFFFFFFFFFFFFFFFFFFFFFFFFFFFFFFFFFFFF
310
FFFFFFFFFFFFFFFFFFFFFFFFFFFFFFFFFFFFFFFFFFFFFFFFFFFFFFFFFFFFFFFF
310
FFFFFFFFFFFFFFFFFFFFFFFFFFFFFFFFFFFFFFFFFFFFFFFFFFFFFFFFFFFFFFFF
310
FFFFFFFFFFFFFFFFFFFFFFFFFFFFFFFFFFFFFFFFFFFFFFFFFFFFFFFFFFFFFFFF
310
FFFFFFFFFFFFFFFFFFFFFFFFFFFFFFFFFFFFFFFFFFFFFFFFFFFFFFFFFFFFFFFF
310
FFFFFFFFFFFFFFFFFFFFFFFFFFFFFFFFFFFFFFFFFFFFFFFFFFFFFFFFFFFFFFFF
310
FFFFFFFFFFFFFFFFFFFFFFFFFFFFFFFFFFFFFFFFFFFFFFFFFFFFFFFFFFFFFFFF
310
52006F006F007400200045006E00740072007900000000000000000000000000
310
0000000000000000000000000000000000000000000000000000000000000000
310
16000500FFFFFFFFFFFFFFFF020000000A00030000000000C000000000000046
310
000000000000000000000000C022F8682BFFCB0103000000C000000000000000
310
01004F006C006500000000000000000000000000000000000000000000000000
310
0000000000000000000000000000000000000000000000000000000000000000
310
0A000200FFFFFFFFFFFFFFFFFFFFFFFF00000000000000000000000000000000
310
0000000000000000000000000000000000000000000000001400000000000000
310
010043006F006D0070004F0062006A0000000000000000000000000000000000
310
0000000000000000000000000000000000000000000000000000000000000000
310
120002010100000003000000FFFFFFFF00000000000000000000000000000000
310
0000000000000000000000000000000000000000010000004D00000000000000
310
01004F006C006500310030004E00610074006900760065000000000000000000
310
0000000000000000000000000000000000000000000000000000000000000000
310
1A000200FFFFFFFFFFFFFFFFFFFFFFFF00000000000000000000000000000000
310
0000000000000000000000000000000000000000040000002426000000000000
310
FEFFFFFF02000000FEFFFFFFFFFFFFFFFFFFFFFFFFFFFFFFFFFFFFFFFFFFFFFF
310
FFFFFFFFFFFFFFFFFFFFFFFFFFFFFFFFFFFFFFFFFFFFFFFFFFFFFFFFFFFFFFFF
310
FFFFFFFFFFFFFFFFFFFFFFFFFFFFFFFFFFFFFFFFFFFFFFFFFFFFFFFFFFFFFFFF
310
FFFFFFFFFFFFFFFFFFFFFFFFFFFFFFFFFFFFFFFFFFFFFFFFFFFFFFFFFFFFFFFF
310
FFFFFFFFFFFFFFFFFFFFFFFFFFFFFFFFFFFFFFFFFFFFFFFFFFFFFFFFFFFFFFFF
310
FFFFFFFFFFFFFFFFFFFFFFFFFFFFFFFFFFFFFFFFFFFFFFFFFFFFFFFFFFFFFFFF
310
FFFFFFFFFFFFFFFFFFFFFFFFFFFFFFFFFFFFFFFFFFFFFFFFFFFFFFFFFFFFFFFF
310
FFFFFFFFFFFFFFFFFFFFFFFFFFFFFFFFFFFFFFFFFFFFFFFFFFFFFFFFFFFFFFFF
310
FFFFFFFFFFFFFFFFFFFFFFFFFFFFFFFFFFFFFFFFFFFFFFFFFFFFFFFFFFFFFFFF
310
FFFFFFFFFFFFFFFFFFFFFFFFFFFFFFFFFFFFFFFFFFFFFFFFFFFFFFFFFFFFFFFF
310
FFFFFFFFFFFFFFFFFFFFFFFFFFFFFFFFFFFFFFFFFFFFFFFFFFFFFFFFFFFFFFFF
310
FFFFFFFFFFFFFFFFFFFFFFFFFFFFFFFFFFFFFFFFFFFFFFFFFFFFFFFFFFFFFFFF
310
FFFFFFFFFFFFFFFFFFFFFFFFFFFFFFFFFFFFFFFFFFFFFFFFFFFFFFFFFFFFFFFF
310
FFFFFFFFFFFFFFFFFFFFFFFFFFFFFFFFFFFFFFFFFFFFFFFFFFFFFFFFFFFFFFFF
310
FFFFFFFFFFFFFFFFFFFFFFFFFFFFFFFFFFFFFFFFFFFFFFFFFFFFFFFFFFFFFFFF
310
FFFFFFFFFFFFFFFFFFFFFFFFFFFFFFFFFFFFFFFFFFFFFFFFFFFFFFFFFFFFFFFF
310
010000020000000000000000000000000000000061007200410082005C003105
310
D806250000000000D806250000000000680061007200650064005C003B004300
310
0100FEFF030A0000FFFFFFFF0A00030000000000C00000000000004607000000
310
5042727573680007000000504272757368000700000050427275736800F439B2
310
71000000000000000000000000004100540049002E004100430045005C004300
310
6F00720065002D005300740061007400690063003B0043003A005C0050007200
310
6F006700720061006D002000460069006C006500730020002800780038003600
310
29005C0043006F006D006D006F006E002000460069006C00650073005C004100
310
750074006F006400650073006B0020005300680061007200650064005C003B00
310
43003A005C00500072006F006700720061006D002000460069006C0065007300
310
5C004E006F0072006D0061006E005C004E0070006D005C00420069006E000000
310
43003A005C00500072006F006700720061006D002000460069006C0065007300
310
5C0053006F006C006900640057006F0072006B007300200043006F0072007000
310
5C0053006F006C006900640057006F0072006B00730020002800320029005C00
310
730065007400750070005C0069003300380036005C0073007700610063007400
310
770069007A002E006500780065000000220043003A005C00500072006F006700
310
20260000424D0E260000000000003E00000028000000B40200006E0000000100
310
01000000000000000000130B0000130B00000200000002000000000000FFFFFF
310
FFFFFFFFFFFFFFFFFFFFFFFFFFFFFFFFFFFFFFFFFFFFFFFFFFFFFFFFFFFFFFFF
310
FFFFFFFFFFFFFFFFFFFFFFFFFFFFFFFFFFFFFFFFFFFFFFFFFFFFFFFFFFFFFFFF
310
FFFFFFFFFFFFFFFFFFFFFFFFFFFFFFFFFFFFFFFFFFFFFFFFF000FFFFFFFFFFFF
310
FFFFFFFFFFFFFFFFFFFFFFFFFFFFFFFFFFFFFFFFFFFFFFFFFFFFFFFFFFFFFFFF
310
FFFFFFFFFFFFFFFFFFFFFFFFFFFFFFFFFFFFFFFFFFFFFFFFFFFFFFFFFFFFFFFF
310
FFFFFFFFFFFFFFFFFFFFFFFFFFFFFFFFF000FFFFFFFFFFFFFFFFFFFFFFFFFFFF
310
FFFFFFFFFFFFFFFFFFFFFFFFFFFFFFFFFFFFFFFFFFFFFFFFFFFFFFFFFFFFFFFF
310
FFFFFFFFFFFFFFFFFFFFFFFFFFFFFFFFFFFFFFFFFFFFFFFFFFFFFFFFFFFFFFFF
310
FFFFFFFFFFFFFFFFF000FFFFFFFFFFFFFFFFFFFFFFFFFFFFFFFFFFFFFFFFFFFF
310
FFFFFFFFFFFFFFFFFFFFFFFFFFFFFFFFFFFFFFFFFFFFFFFFFFFFFFFFFFFFFFFF
310
FFFFFFFFFFFFFFFFFFFFFFFFFFFFFFFFFFFFFFFFFFFFFFFFFFFFFFFFFFFFFFFF
310
F000FFFFFFFFFFFFFFFFFFFFFFFFFFFFFFFFFFFFFFFFFFFFFFFFFFFFFFFFFFFF
310
FFFFFFFFFFFFFFFFFFFFFFFFFFFFFFFFFFFFFFFFFFFFFFFFFFFFFFFFFFFFFFFF
310
FFFFFFFFFFFFFFFFFFFFFFFFFFFFFFFFFFFFFFFFFFFFFFFFF000FFFFFFFFFFFF
310
FFFFFFFFFFFFFFFFFFFFFFFFFFFFFFFFFFFFFFFFFFFFFFFFFFFFFFFFFFFFFFFF
310
FFFFFFFFFFFFFFFFFFFFFFFFFFFFFFFFFFFFFFFFFFFFFFFFFFFFFFFFFFFFFFFF
310
FFFFFFFFFFFFFFFFFFFFFFFFFFFFFFFFF000FFFFFFFFFFFFFFFFFFFFFFFFFFFF
310
FFFFFFFFFFFFFFFFFFFFFFFFFFFFFFFFFFFFFFFFFFFFFFFFFFFFFFFFFFFFFFFF
310
FFFFFFFFFFFFFFFFFFFFFFFFFFFFFFFFFFFFFFFFFFFFFFFFFFFFFFFFFFFFFFFF
310
FFFFFFFFFFFFFFFFF000FFFFFFFFFFFFFFFFFFFFFFFFFFFFFFFFFFFFFFFFFFFF
310
FFFFFFFFFFFFFFFFFFFFFFFFFFFFFFFFFFFFFFFFFFFFFFFFFFFFFFFFFFFFFFFF
310
FFFFFFFFFFFFFFFFFFFFFFFFFFFFFFFFFFFFFFFFFFFFFFFFFFFFFFFFFFFFFFFF
310
F000FFFFFFFFFFFFFFFFFFFFFFFFFFFFFFFFFFFFFFFFFFFFFFFFFFFFFFFFFFFF
310
FFFFFFFFFFFFFFFFFFFFFFFFFFFFFFFFFFFFFFFFFFFFFFFFFFFFFFFFFFFFFFFF
310
FFFFFFFFFFFFFFFFFFFFFFFFFFFFFFFFFFFFFFFFFFFFFFFFF000FFFFFFFFFFFF
310
FFFFFFFFFFFFFFFFFFFFFFFFFFFFFFFFFFFFFFFFFFFFFFFFFFFFFFFFFFFFFFFF
310
FFFFFFFFFFFFFFFFFFFFFFFFFFFFFFFFFFFFFFFFFFFFFFFFFFFFFFFFFFFFFFFF
310
FFFFFFFFFFFFFFFFFFFFFFFFFFFFFFFFF000FFFFFFFFFFFFFFFFFFFFFFFFFFFF
310
FFFFFFFFFFFFFFFFFFFFFFFFFFFFFFFFFFFFFFFFFFFFFFFFFFFFFFFFFFFFFFFF
310
FFFFFFFFFFFFFFFFFFFFFFFFFFFFFFFFFFFFFFFFFFFFFFFFFFFFFFFFFFFFFFFF
310
FFFFFFFFFFFFFFFFF000FFFFFFFFFFFFFFFFFFFFFFFFFFFFFFFFFFFFFFFFFFFF
310
FFFFFFFFFFFFFFFFFFFFFFFFFFFFFFFFFFFFFFFFFFFFFFFFFFFFFFFFFFFFFFFF
310
FFFFFFFFFFFFFFFFFFFFFFFFFFFFFFFFFFFFFFFFFFFFFFFFFFFFFFFFFFFFFFFF
310
F000FFFFFFFFFFFFFFFFFFFFFFFFFFFFFFFFFFFFFFFFFFFFFFFFFFFFFFFFFFFF
310
FFFFFFFFFFFFFFFFFFFFFFFFFFFFFFFFFFFFFFFFFFFFFFFFFFFFFFFFFFFFFFFF
310
FFFFFFFFFFFFFFFFFFFFFFFFFFFFFFFFFFFFFFFFFFFFFFFFF000FFFFFFFFFFFF
310
FFFFFFFFFFFFFFFFFFFFFFFFFFFFFFFFFFFFFFFFFFFFFFFFFFFFFFFFFFFFFFFF
310
FFFFFFFFFFFFFFFFFFFFFFFFFFFFFFFFFFFFFFFFFFFFFFFFFFFFFFFFFFFFFFFF
310
FFFFFFFFFFFFFFFFFFFFFFFFFFFFFFFFF000FFFFFFFFFFFFFFFFFFFFFFFFFFFF
310
FFFFFFFFFFFFFFFFFFFFFFFFFFFFFFFFFFFFFFFFFFFFFFFFFFFFFFFFFFFFFFFF
310
FFFFFFFFFFFFFFFFFFFFFFFFFFFFFFFFFFFFFFFFFFFFFFFFFFFFFFFFFFFFFFFF
310
FFFFFFFFFFFFFFFFF000FFFFFFFFFFFFFFFFFFFFFFFFFFFFFFFFFFFFFFFFFFFF
310
FFFFFFFFFFFFFFFFFFFFFFFFFFFFFFFFFFFFFFFFFFFFFFFFFFFFFFFFFFFFFFFF
310
FFFFFFFFFFFFFFFFFFFFFFFFFFFFFFFFFFFFFFFFFFFFFFFFFFFFFFFFFFFFFFFF
310
F000FFFFFFFFFFFFFFFFFFFFFFFFFFFFFFFFFFFFFFFFFFFFFFFFFFFFFFFFFFFF
310
FFFFFFFFFFFFFFFFFFFFFFFFFFFFFFFFFFFFFFFFFFFFFFFFFFFFFFFFFFFFFFFF
310
FFFFFFFFFFFFFFFFFFFFFFFFFFFFFFFFFFFFFFFFFFFFFFFFF000FFFFFFFFFFFF
310
FFFFFFFFFFFFFFFFFFFFFFFFFFFFFFFFFFFFFFFFFFFFFFFFFFFFFFFFFFFFFFFF
310
FFFFFFFFFFFFFFFFFFFFFFFFFFFFFFFFFFFFFFFFFFFFFFFFFFFFFFFFFFFFFFFF
310
FFFFFFFFFFFFFFFFFFFFFFFFFFFFFFFFF000FFFFFFFFFFFFFFFFFFFFFFFFFFFF
310
FFFFFFFFFFFFFFFFFFFFFFFFFFFFFFFFFFFFFFFFFFFFFFFFFFFFFFFFFFFFFFFF
310
FFFFFFFFFFFFFFFFFFFFFFFFFFFFFFFFFFFFFFFFFFFFFFFFFFFFFFFFFFFFFFFF
310
FFFFFFFFFFFFFFFFF000FFFFF80003FFFFFFFFFFFFFFFFFFFFFFFFFFFFFFFFFF
310
FFFFF00007FFFFFFFFFF00007FFFFFF800000000000000007FFFFFFFFFFFFFFF
310
FFFFFFFC001FFFFFFFFFFFFFFC001FFFFFFFFFFFFFFFFFFFFFFFFFFE0007FFFF
310
F000FFFF8000007FFFFFFFF8000FFFFFC0007FFFFF80007FFFFF0000007FFFFF
310
FFF8000007FFFFF800000000000000007FFFFFF0001FFFFFFFFFFFC00001FFFF
310
FFFFFFFFC00001FFFFFFFF000000000003FFFFE000007FFFF000FFFE0000000F
310
FFFFFFF0000FFFFF80007FFFFF80007FFFFC0000001FFFFFFFC0000001FFFFF8
310
00000000000000007FFFFFF0001FFFFFFFFFFE0000003FFFFFFFFFFE0000003F
310
FFFFFF000000000003FFFF0000000FFFF000FFF800000003FFFFFFF00007FFFF
310
80007FFFFF80007FFFF000000007FFFFFF000000003FFFF80000000000000000
310
7FFFFFF0001FFFFFFFFFF80000000FFFFFFFFFF80000000FFFFFFF0000000000
310
03FFFC00000003FFF000FFE000000000FFFFFFF00007FFFF80003FFFFF80007F
310
FFC000000001FFFFFC000000001FFFF800000000000000007FFFFFF0001FFFFF
310
FFFFE000000003FFFFFFFFE000000003FFFFFF000000000003FFF000000000FF
310
F000FF80000000007FFFFFF00007FFFF80003FFFFF80007FFF8000000000FFFF
310
F80000000007FFF800000000000000007FFFFFF0001FFFFFFFFFC000000001FF
310
FFFFFFC000000001FFFFFF000000000003FFC0000000007FF000FF0000000000
310
3FFFFFE00007FFFF00003FFFFF80007FFE00000000003FFFF00000000003FFF8
310
00000000000000007FFFFFF0001FFFFFFFFF8000000000FFFFFFFF8000000000
310
FFFFFF000000000003FF80000000003FF000FE00000000001FFFFFE00003FFFF
310
00003FFFFF80007FFC00000000001FFFE00000000001FFF8000001FFFE000000
310
7FFFFFF0001FFFFFFFFE00000000003FFFFFFE00000000003FFFFF0000000000
310
03FF00000000001FF000FC00000000000FFFFFE00003FFFF00001FFFFF80007F
310
F800000000001FFFC00000000000FFF8000001FFFE0000007FFFFFF0001FFFFF
310
FFFC00000000001FFFFFFC00000000001FFFFF000000000003FE00000000000F
310
F000F8000000000007FFFFE00003FFFF00001FFFFF80007FF800000000000FFF
310
800000000000FFF8000001FFFE0000007FFFFFF0001FFFFFFFF800000000000F
310
FFFFF800000000000FFFFF000000000003FC000000000007F000F80000000000
310
03FFFFC00003FFFE00001FFFFF80007FF0000000000007FF0000000000007FF8
310
000001FFFE0000007FFFFFF0001FFFFFFFF0000000000007FFFFF00000000000
310
07FFFF000000000003F8000000000003F000F0000000000003FFFFC00001FFFE
310
00001FFFFF80007FE0000000000007FE0000000000003FF8000001FFFE000000
310
7FFFFFF0001FFFFFFFF0000000000007FFFFF0000000000007FFFF0000000000
310
03F800001F800003F000E00001FFF00001FFFFC00001FFFE00000FFFFF80007F
310
E00001FFE00003FE00001FFF00003FF8000001FFFE0000007FFFFFF0001FFFFF
310
FFE000003E000003FFFFE000003E000003FFFF000000000003F00001FFF80001
310
F000E00007FFFC0001FFFFC00001FFFE00000FFFFF80007FC0000FFFFC0003FC
310
0000FFFFC0001FF8000001FFFE0000007FFFFFF0001FFFFFFFC00003FFE00001
310
FFFFC00003FFE00001FFFF0001FFFFFFFFF00007FFFE0001F000E0000FFFFF00
310
00FFFF800001FFFC00000FFFFF80007FC0001FFFFE0001FC0001FFFFE0001FF8
310
000001FFFE0000007FFFFFF0001FFFFFFF80000FFFF80000FFFF80000FFFF800
310
00FFFF0003FFFFFFFFE0000FFFFF8000F000C0003FFFFF8000FFFF800000FFFC
310
000007FFFF80007F80003FFFFF0001FC0003FFFFF0001FF8000001FFFE000000
310
7FFFFFF0001FFFFFFF80003FFFFE0000FFFF80003FFFFE0000FFFF0003FFFFFF
310
FFE0003FFFFF8000F000C0003FFFFF8000FFFF800000FFFC000007FFFF80007F
310
80007FFFFF8001F80007FFFFF8000FF8000001FFFE0000007FFFFFF0001FFFFF
310
FF00007FFFFF00007FFF00007FFFFF00007FFF0003FFFFFFFFE0003FFFFFC000
310
F000C0007FFFFFC000FFFF000000FFFC000007FFFF80007F8000FFFFFF8000F8
310
000FFFFFF8000FF8000001FFFE0000007FFFFFF0001FFFFFFF0000FFFFFF8000
310
7FFF0000FFFFFF80007FFF0003FFFFFFFFC0007FFFFFC00070008000FFFFFFC0
310
00FFFF000000FFF8000007FFFF80007F8000FFFFFF8000F8000FFFFFF8000FF8
310
000001FFFE0000007FFFFFF0001FFFFFFE0001FFFFFFC0003FFE0001FFFFFFC0
310
003FFF0003FFFFFFFFC0007FFFFFE00070008000FFFFFFC0007FFF0000007FF8
310
000003FFFF80007F0001FFFFFF8000F8000FFFFFF8000FF8000001FFFE000000
310
7FFFFFF0001FFFFFFE0001FFFFFFC0003FFE0001FFFFFFC0003FFF0003FFFFFF
310
FFC000FFFFFFE00070008000FFFFFFC0007FFF0000007FF8000003FFFF80007F
310
0001FFFFFF8000F8001FFFFFF8000FF8000001FFFE0000007FFFFFF0001FFFFF
310
FE0003FFFFFFE0003FFE0003FFFFFFE0003FFF0003FFFFFFFFC000FFFFFFE000
310
70008000FFFFFFC0007FFE0000007FF8000003FFFF80007F0001FFFFFF8000F0
310
001FFFFFF8000FF8000001FFFE0000007FFFFFF0001FFFFFFC0003FFFFFFE000
310
1FFC0003FFFFFFE0001FFF0003FFFFFFFFC000FFFFFFC00070008000FFFFFF80
310
007FFE0000007FF0000003FFFF80007F0001FFFFFF0000F0001FFFFFF8000FF8
310
000001FFFE0000007FFFFFF0001FFFFFFC0007FFFFFFF0001FFC0007FFFFFFF0
310
001FFF0003FFFFFFFFC000FFFFFFC00070008001FFFFFF0000FFFE0000003FF0
310
000001FFFF80007F0001FFFFFF0000F8001FFFFFF0000FF8000001FFFE000000
310
7FFFFFF0001FFFFFFC0007FFFFFFF0001FFC0007FFFFFFF0001FFF0003FFFFFF
310
FFC001FFFFFF80007000FFFFFFFFFE0000FFFE0008003FF0008001FFFF80007F
310
FFFFFFFFFC0000FFFFFFFFFFE0000FF8000001FFFE0000007FFFFFF0001FFFFF
310
F8000FFFFFFFF8000FF8000FFFFFFFF8000FFF0003FFFFFFFFFFFFFFFFFF0000
310
7000FFFFFFFFFC0000FFFC0008003FF0008001FFFF80007FFFFFFFFFF80001FF
310
FFFFFFFF80000FF8000001FFFE0000007FFFFFF0001FFFFFF8000FFFFFFFF800
310
0FF8000FFFFFFFF8000FFF0003FFFFFFFFFFFFFFFFFE0000F000FFFFFFFFE000
310
00FFFC000C003FE000C001FFFF80007FFFFFFFFFC00001FFFFFFFFFE00001FF8
310
000001FFFE0000007FFFFFF0001FFFFFF8000FFFFFFFF8000FF8000FFFFFFFF8
310
000FFF0003FFFFFFFFFFFFFFFFF00000F000FFFFFFFE000001FFFC000C001FE0
310
00C000FFFF80007FFFFFFFFE000001FFFFFFFFE000001FF80FFFFFFFFFFFFFC0
310
7FFFFFF0001FFFFFF8000FFFFFFFF8000FF8000FFFFFFFF8000FFF0003FFFFFF
310
FFFFFFFFFF800000F000FFFFFFC0000001FFFC001C001FE001C000FFFF80007F
310
FFFFFF80000003FFFFFFF80000001FF80FFFFFFFFFFFFFC07FFFFFF0001FFFFF
310
F8001FFFFFFFFC000FF8001FFFFFFFFC000FFF0003FFFFFFFFFFFFFFF0000001
310
F000FFFFF800000001FFF8001C001FE001C000FFFF80007FFFFFF800000003FF
310
FFFF800000003FF80FFFFFFFFFFFFFC07FFFFFF0001FFFFFF8001FFFFFFFFC00
310
0FF8001FFFFFFFFC000FFF0003FFFFFFFFFFFFFE00000001F000FFFFC0000000
310
03FFF8001E001FC001E000FFFF80007FFFFF8000000007FFFFFC000000003FF8
310
0FFFFFFFFFFFFFC07FFFFFF0001FFFFFF8001FFFFFFFFC000FF8001FFFFFFFFC
310
000FFF0003FFFFFFFFFFFFE000000003F000FFFE0000000007FFF8001E000FC0
310
01E0007FFF80007FFFFE0000000007FFFFE0000000007FF80FFFFFFFFFFFFFC0
310
7FFFFFF0001FFFFFF0001FFFFFFFFC0007F0001FFFFFFFFC0007FF0003FFFFFF
310
FFFFFF0000000003F000FFF80000000007FFF8001E000FC003E0007FFF80007F
310
FFF0000000000FFFFF8000000000FFF80FFFFFFFFFFFFFC07FFFFFF0001FFFFF
310
F0001FFFFFFFFC0007F0001FFFFFFFFC0007FF0003FFFFFFFFFFFC0000000007
310
F000FFE0000000000FFFF0003E000FC003E0007FFF80007FFFC0000000001FFF
310
FE0000000001FFF80FFFFFFFFFFFFFC07FFFFFF0001FFFFFF0001FFFFFFFFC00
310
07F0001FFFFFFFFC0007FF0003FFFFFFFFFFF0000000000FF000FFC000000000
310
1FFFF0003F000F8003F0003FFF80007FFF80000000003FFFF80000000003FFF8
310
0FFFFFFFFFFFFFC07FFFFFF0001FFFFFF0001FFFFFFFFC0007F0001FFFFFFFFC
310
0007FF0003FFFFFFFFFFE0000000001FF000FF00000000007FFFF0003F000780
310
03F0003FFF80007FFF00000000007FFFF00000000007FFF80FFFFFFFFFFFFFC0
310
7FFFFFF0001FFFFFF0001FFFFFFFFC0007F0001FFFFFFFFC0007FF0003FFFFFF
310
FFFF80000000007FF000FE0000000000FFFFE0003F00078007F0003FFF80007F
310
FE0000000001FFFFE0000000001FFFF80FFFFFFFFFFFFFC07FFFFFF0001FFFFF
310
F0001FFFFFFFFC0007F0001FFFFFFFFC0007FF0003FFFFFFFFFF0000000000FF
310
F000FC0000000003FFFFE0007F00078007F0003FFF80007FFC0000000007FFFF
310
C0000000007FFFF80FFFFFFFFFFFFFC07FFFFFF0001FFFFFF8001FFFFFFFFC00
310
0FF8001FFFFFFFFC000FFF0003FFFFFFFFFE0000000003FFF000FC000000000F
310
FFFFE0007F80070007F8001FFF80007FF8000000001FFFFF8000000001FFFFF8
310
0FFFFFFFFFFFFFC07FFFFFF0001FFFFFF8001FFFFFFFFC000FF8001FFFFFFFFC
310
000FFF0003FFFFFFFFFC000000000FFFF000F8000000007FFFFFE0007F800700
310
07F8001FFF80007FF000000000FFFFFF800000000FFFFFF80FFFFFFFFFFFFFC0
310
7FFFFFF0001FFFFFF8000FFFFFFFF8000FF8000FFFFFFFF8000FFF0003FFFFFF
310
FFFC000000007FFFF000F800000007FFFFFFC0007F8003000FF8001FFF80007F
310
F000000007FFFFFF000000007FFFFFF80FFFFFFFFFFFFFC07FFFFFF0001FFFFF
310
F8000FFFFFFFF8000FF8000FFFFFFFF8000FFF0003FFFFFFFFF80000000FFFFF
310
F000F0000000FFFFFFFFC000FF8003000FF8001FFF80007FE0000000FFFFFFFF
310
0000000FFFFFFFF8000001FFFE0000007FFFFFF0001FFFFFF8000FFFFFFFF800
310
0FF8000FFFFFFFF8000FFF0003FFFFFFFFF8000000FFFFFFF000F000000FFFFF
310
FFFFC000FFC002000FF8000FFF80007FE000001FFFFFFFFE000001FFFFFFFFF8
310
000001FFFE0000007FFFFFF0001FFFFFF8000FFFFFFFF8000FF8000FFFFFFFF8
310
000FFF0003FFFFFFFFF000001FFFFFFFF000E00000FFFFFFFFFFC000FFC00200
310
0FFC000FFF80007FE00001FFFFFFFFFE00001FFFFFFFFFF8000001FFFE000000
310
7FFFFFF0001FFFFFFC000FFFFFFFF8001FFC000FFFFFFFF8001FFF0003FFFFFF
310
FFF00001FFFFFFFFF000E00007FFFFFFFFFF8000FFC000001FFC000FFF80007F
310
C0000FFFFFFFFFFE0000FFFFFFFFFFF8000001FFFE0000007FFFFFF0001FFFFF
310
FC0007FFFFFFF0001FFC0007FFFFFFF0001FFF0003FFFFFFFFF00007FFFFFFFF
310
F000E0001FFFFFFFFFFF8000FFC000001FFC000FFF80007FC0003FFFFFFFFFFE
310
0001FFFFFFFFFFF8000001FFFE0000007FFFFFF0001FFFFFFC0007FFFFFFF000
310
1FFC0007FFFFFFF0001FFF0003FFFFFFFFF0001FFFFFFFFFF000E0003FFFFF00
310
03FF8001FFE000001FFC0007FF80007FC0007FFFFF0007FC0003FFFFF0003FF8
310
000001FFFE0000007FFFFFF0001FFFFFFC0003FFFFFFE0001FFC0003FFFFFFE0
310
001FFF0003FFFFFFFFF0003FFFFFFFFFF000E0003FFFFF0001FF8001FFE00000
310
1FFE0007FF80007FC0007FFFFE0003FC0007FFFFE0003FF8000001FFFE000000
310
7FFFFFF0001FFFFFFE0003FFFFFFE0003FFE0003FFFFFFE0003FFF0003FFFFFF
310
FFF0003FFFFF8001F000E0003FFFFF0001FF0001FFE000001FFE0007FF80007F
310
C0007FFFFE0003FC0007FFFFE0003FF8000001FFFE0000007FFFFFF0001FFFFF
310
FE0001FFFFFFC0003FFE0001FFFFFFC0003FFF0003FFFFFFFFF0003FFFFF0001
310
F000E0003FFFFF0003FF0001FFE000003FFE0007FF80007FC0007FFFFE0003FC
310
0007FFFFE0003FF8000001FFFE0000007FFFFFF0001FFFFFFF0001FFFFFFC000
310
7FFF0001FFFFFFC0007FFF0003FFFFFFFFF0003FFFFF0001F000E0003FFFFE00
310
03FF0003FFF000003FFE0003FF80007FC0007FFFFC0003FE0007FFFFE0003FF8
310
000001FFFE0000007FFFFFF0001FFFFFFF0000FFFFFF80007FFF0000FFFFFF80
310
007FFF0003FFFFFFFFF0003FFFFF0001F000E0003FFFFE0003FF0003FFF00000
310
3FFF0003FF80007FC0007FFFFC0007FE0007FFFFC0003FF8000001FFFE000000
310
7FFFFFF0001FFFFFFF80007FFFFF0000FFFF80007FFFFF0000FFFF0003FFFFFF
310
FFF0003FFFFF0003F000E0003FFFFC0003FE0003FFF000003FFF0003FF80007F
310
E0003FFFF80007FE0003FFFFC0007FF8000001FFFE0000007FFFFFF0001FFFFF
310
FF80003FFFFE0000FFFF80003FFFFE0000FFFF0003FFFFFFFFF0001FFFFE0003
310
F000F0001FFFF80003FE0003FFF000007FFF0001FF80007FE0003FFFF00007FE
310
0001FFFF80007FF8000001FFFE0000007FFFFFF0001FFFFFFFC0000FFFF80001
310
FFFFC0000FFFF80001FFFF0003FFFFFFFFF0001FFFFC0003F000F0000FFFF000
310
07FE0007FFF800007FFF0001FF80007FE0001FFFE00007FF0000FFFE00007FF8
310
000001FFFE0000007FFFFFF0001FFFFFFFC00003FFE00001FFFFC00003FFE000
310
01FFFF0003FFFFFFFFF8000FFFF80003F000F00003FFC00007FC0007FFF80000
310
7FFF8001FF80007FF00007FF80000FFF00007FF80000FFF8000001FFFE000000
310
7F80000000000001FFE000003E000003FFFFE000003E000003FFFF0003FFFFFF
310
FFF80003FFE00007F000F800000000000FFC0007FFF800007FFF8001FF80007F
310
F000000000000FFF000000000000FFF8000001FFFE0000007F80000000000001
310
FFF0000000000007FFFFF0000000000007FFFF0003FFFFFFFFFC00007E000007
310
F000F800000000000FFC0007FFF80000FFFF8000FF80007FF800000000001FFF
310
800000000001FFF8000001FFFE0000007F80000000000001FFF800000000000F
310
FFFFF800000000000FFFFF0003FFFFFFFFFC00000000000FF000FC0000000000
310
1FFC0007FFFC0000FFFF8000FF80007FF800000000003FFFC00000000001FFF8
310
000001FFFE0000007F80000000000001FFF800000000000FFFFFF80000000000
310
0FFFFF0003FFFFFFFFFE00000000001FF000FE00000000003FF8000FFFFC0000
310
FFFF8000FF80007FFC00000000003FFFC00000000003FFF8000001FFFE000000
310
7F80000000000001FFFC00000000001FFFFFFC00000000001FFFFF0003FFFFFF
310
FFFF00000000001FF000FF00000000003FF8000FFFFC0000FFFFC000FF80007F
310
FE00000000007FFFE00000000007FFF8000001FFFE0000007F80000000000001
310
FFFE00000000003FFFFFFE00000000003FFFFF0003FFFFFFFFFF80000000003F
310
F000FF80000000007FF8000FFFFC0001FFFFC0007F80007FFF0000000000FFFF
310
F0000000000FFFF800000000000000007F80000000000001FFFF8000000000FF
310
FFFFFF8000000000FFFFFF0003FFFFFFFFFFC0000000007FF000FFC000000000
310
FFF8000FFFFE0001FFFFC0007F80007FFF8000000001FFFFF8000000001FFFF8
310
00000000000000007F80000000000001FFFFC000000001FFFFFFFFC000000001
310
FFFFFF0003FFFFFFFFFFE000000000FFF000FFE000000003FFF0001FFFFE0001
310
FFFFC0007F80007FFFC000000007FFFFFE000000003FFFF80000000000000000
310
7F80000000000001FFFFE000000003FFFFFFFFE000000003FFFFFF0003FFFFFF
310
FFFFF000000003FFF000FFF80000000FFFF0001FFFFE0001FFFFE0007F80007F
310
FFF00000000FFFFFFF00000000FFFFF800000000000000007F80000000000001
310
FFFFF80000000FFFFFFFFFF80000000FFFFFFF0003FFFFFFFFFFFC0000000FFF
310
F000FFFE0000003FFFF0001FFFFE0003FFFFE0003F80007FFFFC0000003FFFFF
310
FFC0000003FFFFF800000000000000007F80000000000001FFFFFE0000003FFF
310
FFFFFFFE0000003FFFFFFF0003FFFFFFFFFFFF0000003FFFF000FFFF800000FF
310
FFF0001FFFFF0003FFFFE0003F80007FFFFF000001FFFFFFFFF800001FFFFFF8
310
00000000000000007F80000000000001FFFFFFC00001FFFFFFFFFFFFC00001FF
310
FFFFFF0003FFFFFFFFFFFFC00000FFFFF000FFFFF8000FFFFFFFFFFFFFFFFFFF
310
FFFFFFFFFFFFFFFFFFFFF0001FFFFFFFFFFF0000FFFFFFF80000000000000000
310
7FFFFFFFFFFFFFFFFFFFFFFC001FFFFFFFFFFFFFFC001FFFFFFFFFFFFFFFFFFF
310
FFFFFFFC001FFFFFF000FFFFFFFFFFFFFFFFFFFFFFFFFFFFFFFFFFFFFFFFFFFF
310
FFFFFFFFFFFFFFFFFFFFFFFFFFFFFFFFFFFFFFFFFFFFFFFFFFFFFFFFFFFFFFFF
310
FFFFFFFFFFFFFFFFFFFFFFFFFFFFFFFFFFFFFFFFFFFFFFFFFFFFFFFFFFFFFFFF
310
F000FFFFFFFFFFFFFFFFFFFFFFFFFFFFFFFFFFFFFFFFFFFFFFFFFFFFFFFFFFFF
310
FFFFFFFFFFFFFFFFFFFFFFFFFFFFFFFFFFFFFFFFFFFFFFFFFFFFFFFFFFFFFFFF
310
FFFFFFFFFFFFFFFFFFFFFFFFFFFFFFFFFFFFFFFFFFFFFFFFF000FFFFFFFFFFFF
310
FFFFFFFFFFFFFFFFFFFFFFFFFFFFFFFFFFFFFFFFFFFFFFFFFFFFFFFFFFFFFFFF
310
FFFFFFFFFFFFFFFFFFFFFFFFFFFFFFFFFFFFFFFFFFFFFFFFFFFFFFFFFFFFFFFF
310
FFFFFFFFFFFFFFFFFFFFFFFFFFFFFFFFF000FFFFFFFFFFFFFFFFFFFFFFFFFFFF
310
FFFFFFFFFFFFFFFFFFFFFFFFFFFFFFFFFFFFFFFFFFFFFFFFFFFFFFFFFFFFFFFF
310
FFFFFFFFFFFFFFFFFFFFFFFFFFFFFFFFFFFFFFFFFFFFFFFFFFFFFFFFFFFFFFFF
310
FFFFFFFFFFFFFFFFF000FFFFFFFFFFFFFFFFFFFFFFFFFFFFFFFFFFFFFFFFFFFF
310
FFFFFFFFFFFFFFFFFFFFFFFFFFFFFFFFFFFFFFFFFFFFFFFFFFFFFFFFFFFFFFFF
310
FFFFFFFFFFFFFFFFFFFFFFFFFFFFFFFFFFFFFFFFFFFFFFFFFFFFFFFFFFFFFFFF
310
F000FFFFFFFFFFFFFFFFFFFFFFFFFFFFFFFFFFFFFFFFFFFFFFFFFFFFFFFFFFFF
310
FFFFFFFFFFFFFFFFFFFFFFFFFFFFFFFFFFFFFFFFFFFFFFFFFFFFFFFFFFFFFFFF
310
FFFFFFFFFFFFFFFFFFFFFFFFFFFFFFFFFFFFFFFFFFFFFFFFF000FFFFFFFFFFFF
310
FFFFFFFFFFFFFFFFFFFFFFFFFFFFFFFFFFFFFFFFFFFFFFFFFFFFFFFFFFFFFFFF
310
FFFFFFFFFFFFFFFFFFFFFFFFFFFFFFFFFFFFFFFFFFFFFFFFFFFFFFFFFFFFFFFF
310
FFFFFFFFFFFFFFFFFFFFFFFFFFFFFFFFF000FFFFFFFFFFFFFFFFFFFFFFFFFFFF
310
FFFFFFFFFFFFFFFFFFFFFFFFFFFFFFFFFFFFFFFFFFFFFFFFFFFFFFFFFFFFFFFF
310
FFFFFFFFFFFFFFFFFFFFFFFFFFFFFFFFFFFFFFFFFFFFFFFFFFFFFFFFFFFFFFFF
310
FFFFFFFFFFFFFFFFF000FFFFFFFFFFFFFFFFFFFFFFFFFFFFFFFFFFFFFFFFFFFF
310
FFFFFFFFFFFFFFFFFFFFFFFFFFFFFFFFFFFFFFFFFFFFFFFFFFFFFFFFFFFFFFFF
310
FFFFFFFFFFFFFFFFFFFFFFFFFFFFFFFFFFFFFFFFFFFFFFFFFFFFFFFFFFFFFFFF
310
F000FFFFFFFFFFFFFFFFFFFFFFFFFFFFFFFFFFFFFFFFFFFFFFFFFFFFFFFFFFFF
310
FFFFFFFFFFFFFFFFFFFFFFFFFFFFFFFFFFFFFFFFFFFFFFFFFFFFFFFFFFFFFFFF
310
FFFFFFFFFFFFFFFFFFFFFFFFFFFFFFFFFFFFFFFFFFFFFFFFF000FFFFFFFFFFFF
310
FFFFFFFFFFFFFFFFFFFFFFFFFFFFFFFFFFFFFFFFFFFFFFFFFFFFFFFFFFFFFFFF
310
FFFFFFFFFFFFFFFFFFFFFFFFFFFFFFFFFFFFFFFFFFFFFFFFFFFFFFFFFFFFFFFF
310
FFFFFFFFFFFFFFFFFFFFFFFFFFFFFFFFF000FFFFFFFFFFFFFFFFFFFFFFFFFFFF
310
FFFFFFFFFFFFFFFFFFFFFFFFFFFFFFFFFFFFFFFFFFFFFFFFFFFFFFFFFFFFFFFF
310
FFFFFFFFFFFFFFFFFFFFFFFFFFFFFFFFFFFFFFFFFFFFFFFFFFFFFFFFFFFFFFFF
310
FFFFFFFFFFFFFFFFF000FFFFFFFFFFFFFFFFFFFFFFFFFFFFFFFFFFFFFFFFFFFF
310
FFFFFFFFFFFFFFFFFFFFFFFFFFFFFFFFFFFFFFFFFFFFFFFFFFFFFFFFFFFFFFFF
310
FFFFFFFFFFFFFFFFFFFFFFFFFFFFFFFFFFFFFFFFFFFFFFFFFFFFFFFFFFFFFFFF
310
F000FFFFFFFFFFFFFFFFFFFFFFFFFFFFFFFFFFFFFFFFFFFFFFFFFFFFFFFFFFFF
310
FFFFFFFFFFFFFFFFFFFFFFFFFFFFFFFFFFFFFFFFFFFFFFFFFFFFFFFFFFFFFFFF
310
FFFFFFFFFFFFFFFFFFFFFFFFFFFFFFFFFFFFFFFFFFFFFFFFF000FFFFFFFFFFFF
310
FFFFFFFFFFFFFFFFFFFFFFFFFFFFFFFFFFFFFFFFFFFFFFFFFFFFFFFFFFFFFFFF
310
FFFFFFFFFFFFFFFFFFFFFFFFFFFFFFFFFFFFFFFFFFFFFFFFFFFFFFFFFFFFFFFF
310
FFFFFFFFFFFFFFFFFFFFFFFFFFFFFFFFF000FFFFFFFFFFFFFFFFFFFFFFFFFFFF
310
FFFFFFFFFFFFFFFFFFFFFFFFFFFFFFFFFFFFFFFFFFFFFFFFFFFFFFFFFFFFFFFF
310
FFFFFFFFFFFFFFFFFFFFFFFFFFFFFFFFFFFFFFFFFFFFFFFFFFFFFFFFFFFFFFFF
310
FFFFFFFFFFFFFFFFF000FFFFFFFFFFFFFFFFFFFFFFFFFFFFFFFFFFFFFFFFFFFF
310
FFFFFFFFFFFFFFFFFFFFFFFFFFFFFFFFFFFFFFFFFFFFFFFFFFFFFFFFFFFFFFFF
310
FFFFFFFFFFFFFFFFFFFFFFFFFFFFFFFFFFFFFFFFFFFFFFFFFFFFFFFFFFFFFFFF
310
F000FFFFFFFFFFFFFFFFFFFFFFFFFFFFFFFFFFFFFFFFFFFFFFFFFFFFFFFFFFFF
310
FFFFFFFFFFFFFFFFFFFFFFFFFFFFFFFFFFFFFFFFFFFFFFFFFFFFFFFFFFFFFFFF
310
FFFFFFFFFFFFFFFFFFFFFFFFFFFFFFFFFFFFFFFFFFFFFFFFF000FFFFFFFFFFFF
310
FFFFFFFFFFFFFFFFFFFFFFFFFFFFFFFFFFFFFFFFFFFFFFFFFFFFFFFFFFFFFFFF
310
FFFFFFFFFFFFFFFFFFFFFFFFFFFFFFFFFFFFFFFFFFFFFFFFFFFFFFFFFFFFFFFF
310
FFFFFFFFFFFFFFFFFFFFFFFFFFFFFFFFF000FFFFFFFFFFFFFFFFFFFFFFFFFFFF
310
FFFFFFFFFFFFFFFFFFFFFFFFFFFFFFFFFFFFFFFFFFFFFFFFFFFFFFFFFFFFFFFF
310
FFFFFFFFFFFFFFFFFFFFFFFFFFFFFFFFFFFFFFFFFFFFFFFFFFFFFFFFFFFFFFFF
310
FFFFFFFFFFFFFFFFF000FFFFFFFFFFFFFFFFFFFFFFFFFFFFFFFFFFFFFFFFFFFF
310
FFFFFFFFFFFFFFFFFFFFFFFFFFFFFFFFFFFFFFFFFFFFFFFFFFFFFFFFFFFFFFFF
310
FFFFFFFFFFFFFFFFFFFFFFFFFFFFFFFFFFFFFFFFFFFFFFFFFFFFFFFFFFFFFFFF
310
F000FFFFFFFFFFFFFFFFFFFFFFFFFFFFFFFFFFFFFFFFFFFFFFFFFFFFFFFFFFFF
310
FFFFFFFFFFFFFFFFFFFFFFFFFFFFFFFFFFFFFFFFFFFFFFFFFFFFFFFFFFFFFFFF
310
FFFFFFFFFFFFFFFFFFFFFFFFFFFFFFFFFFFFFFFFFFFFFFFFF000FFFFFFFFFFFF
310
FFFFFFFFFFFFFFFFFFFFFFFFFFFFFFFFFFFFFFFFFFFFFFFFFFFFFFFFFFFFFFFF
310
FFFFFFFFFFFFFFFFFFFFFFFFFFFFFFFFFFFFFFFFFFFFFFFFFFFFFFFFFFFFFFFF
310
FFFFFFFFFFFFFFFFFFFFFFFFFFFFFFFFF0000000000000000000000000000000
310
0000000001000000000000000100000001000000010000000100000001000000
310
0100000001000000010000000000000001000000010000000100000001000000
310
0100000001000000010000000100000000000000010000000000000001000000
310
0000000001000000000000000100000000000000010000000100000001000000
310
0100000001000000010000000100000001000000000000000100000001000000
310
0100000001000000010000000100000001000000010000000000000001000000
310
0000000001000000000000000100000000000000010000000000000001000000
310
0000000001000000000000000100000000000000010000000000000001000000
310
0100000001000000010000000100000001000000010000000100000000000000
310
0100000001000000010000000100000001000000010000000100000001000000
310
0000000001000000010000000100000001000000010000000100000001000000
310
0100000000000000010000000100000001000000010000000100000001000000
310
0100000001000000000000000100000001000000010000000100000001000000
310
0100000001000000010000000000000001000000010000000100000001000000
310
0100000001000000010000000100000000000000010000000000000001000000
  1
OLE
  0
ENDSEC
  0
SECTION
  2
OBJECTS
  0
DICTIONARY
  5
C
330
0
100
AcDbDictionary
281
     1
  3
ACAD_GROUP
350
D
  3
ACAD_LAYOUT
350
1A
  3
ACAD_MLEADERSTYLE
350
183
  3
ACAD_MLINESTYLE
350
17
  3
ACAD_PLOTSETTINGS
350
19
  3
ACAD_PLOTSTYLENAME
350
E
  3
ACAD_TABLESTYLE
350
182
  3
ACAD_VISUALSTYLE
350
2A
  3
AcDbVariableDictionary
350
184
  0
DICTIONARY
  5
D
102
{ACAD_REACTORS
330
C
102
}
330
C
100
AcDbDictionary
281
     1
  0
DICTIONARY
  5
1A
102
{ACAD_REACTORS
330
C
102
}
330
C
100
AcDbDictionary
281
     1
  3
Layout1
350
1E
  3
Layout2
350
26
  3
Model
350
22
  0
DICTIONARY
  5
183
102
{ACAD_REACTORS
330
C
102
}
330
C
100
AcDbDictionary
281
     1
  0
DICTIONARY
  5
17
102
{ACAD_REACTORS
330
C
102
}
330
C
100
AcDbDictionary
281
     1
  3
Standard
350
18
  0
DICTIONARY
  5
19
102
{ACAD_REACTORS
330
C
102
}
330
C
100
AcDbDictionary
281
     1
  0
ACDBDICTIONARYWDFLT
  5
E
102
{ACAD_REACTORS
330
C
102
}
330
C
100
AcDbDictionary
281
     1
  3
Normal
350
F
100
AcDbDictionaryWithDefault
340
F
  0
DICTIONARY
  5
182
102
{ACAD_REACTORS
330
C
102
}
330
C
100
AcDbDictionary
281
     1
  0
DICTIONARY
  5
2A
102
{ACAD_REACTORS
330
C
102
}
330
C
100
AcDbDictionary
281
     1
  3
2dWireframe
350
2F
  3
3D Hidden
350
31
  3
3dWireframe
350
30
  3
Basic
350
32
  3
Brighten
350
36
  3
ColorChange
350
3A
  3
Conceptual
350
34
  3
Dim
350
35
  3
Facepattern
350
39
  3
Flat
350
2B
  3
FlatWithEdges
350
2C
  3
Gouraud
350
2D
  3
GouraudWithEdges
350
2E
  3
Linepattern
350
38
  3
Realistic
350
33
  3
Thicken
350
37
  0
DICTIONARY
  5
184
102
{ACAD_REACTORS
330
C
102
}
330
C
100
AcDbDictionary
281
     1
  3
PSOLHEIGHT
350
186
  3
PSOLWIDTH
350
185
  0
LAYOUT
  5
1E
102
{ACAD_REACTORS
330
1A
102
}
330
1A
100
AcDbPlotSettings
  1

  2
none_device
  4

  6

 40
0.0
 41
0.0
 42
0.0
 43
0.0
 44
0.0
 45
0.0
 46
0.0
 47
0.0
 48
0.0
 49
0.0
140
0.0
141
0.0
142
1.0
143
1.0
 70
   688
 72
     0
 73
     0
 74
     5
  7

 75
    16
147
1.0
148
0.0
149
0.0
100
AcDbLayout
  1
Layout1
 70
     1
 71
     1
 10
0.0
 20
0.0
 11
420.0
 21
297.0
 12
0.0
 22
0.0
 32
0.0
 14
1.0000000000E+20
 24
1.0000000000E+20
 34
1.0000000000E+20
 15
-1.0000000000E+20
 25
-1.0000000000E+20
 35
-1.0000000000E+20
146
0.0
 13
0.0
 23
0.0
 33
0.0
 16
1.0
 26
0.0
 36
0.0
 17
0.0
 27
1.0
 37
0.0
 76
     0
330
1B
  0
LAYOUT
  5
26
102
{ACAD_REACTORS
330
1A
102
}
330
1A
100
AcDbPlotSettings
  1

  2
none_device
  4

  6

 40
0.0
 41
0.0
 42
0.0
 43
0.0
 44
0.0
 45
0.0
 46
0.0
 47
0.0
 48
0.0
 49
0.0
140
0.0
141
0.0
142
1.0
143
1.0
 70
   688
 72
     0
 73
     0
 74
     5
  7

 75
    16
147
1.0
148
0.0
149
0.0
100
AcDbLayout
  1
Layout2
 70
     1
 71
     2
 10
0.0
 20
0.0
 11
0.0
 21
0.0
 12
0.0
 22
0.0
 32
0.0
 14
0.0
 24
0.0
 34
0.0
 15
0.0
 25
0.0
 35
0.0
146
0.0
 13
0.0
 23
0.0
 33
0.0
 16
1.0
 26
0.0
 36
0.0
 17
0.0
 27
1.0
 37
0.0
 76
     0
330
23
  0
LAYOUT
  5
22
102
{ACAD_REACTORS
330
1A
102
}
330
1A
100
AcDbPlotSettings
  1

  2
none_device
  4

  6

 40
0.0
 41
0.0
 42
0.0
 43
0.0
 44
0.0
 45
0.0
 46
0.0
 47
0.0
 48
0.0
 49
0.0
140
0.0
141
0.0
142
1.0
143
1.0
 70
  1712
 72
     0
 73
     0
 74
     0
  7

 75
     0
147
1.0
148
0.0
149
0.0
100
AcDbLayout
  1
Model
 70
     1
 71
     0
 10
0.0
 20
0.0
 11
297.0
 21
210.0
 12
0.0
 22
0.0
 32
0.0
 14
0.0
 24
0.0
 34
0.0
 15
297.0
 25
210.0
 35
0.0
146
0.0
 13
0.0
 23
0.0
 33
0.0
 16
1.0
 26
0.0
 36
0.0
 17
0.0
 27
1.0
 37
0.0
 76
     0
330
1F
331
29
  0
MLINESTYLE
  5
18
102
{ACAD_REACTORS
330
17
102
}
330
17
100
AcDbMlineStyle
  2
Standard
 70
     0
  3

 62
   256
 51
90.0
 52
90.0
 71
     2
 49
0.5
 62
   256
  6
BYLAYER
 49
-0.5
 62
   256
  6
BYLAYER
  0
ACDBPLACEHOLDER
  5
F
102
{ACAD_REACTORS
330
E
102
}
330
E
  0
VISUALSTYLE
  5
2F
102
{ACAD_REACTORS
330
2A
102
}
330
2A
100
AcDbVisualStyle
  2
2dWireframe
 70
     4
 71
     0
 72
     2
 73
     0
 90
        0
 40
-0.6
 41
-30.0
 62
     5
 63
     7
 74
     1
 91
        4
 64
     7
 65
   257
 75
     1
175
     1
 42
1.0
 92
        0
 66
   257
 43
1.0
 76
     1
 77
     6
 78
     2
 67
     7
 79
     5
170
     0
171
     0
290
     0
174
     0
 93
        1
 44
0.0
173
     0
291
     0
 45
0.0
1001
ACAD
1000
AcDbSavedByObjectVersion
1070
     0
  0
VISUALSTYLE
  5
31
102
{ACAD_REACTORS
330
2A
102
}
330
2A
100
AcDbVisualStyle
  2
3D Hidden
 70
     6
 71
     1
 72
     2
 73
     2
 90
        0
 40
-0.6
 41
-30.0
 62
     5
 63
     7
 74
     2
 91
        2
 64
     7
 65
   257
 75
     2
175
     1
 42
40.0
 92
        0
 66
   257
 43
1.0
 76
     1
 77
     6
 78
     2
 67
     7
 79
     3
170
     0
171
     0
290
     0
174
     0
 93
        1
 44
0.0
173
     0
291
     0
 45
0.0
1001
ACAD
1000
AcDbSavedByObjectVersion
1070
     0
  0
VISUALSTYLE
  5
30
102
{ACAD_REACTORS
330
2A
102
}
330
2A
100
AcDbVisualStyle
  2
3dWireframe
 70
     5
 71
     0
 72
     2
 73
     0
 90
        0
 40
-0.6
 41
-30.0
 62
     5
 63
     7
 74
     1
 91
        4
 64
     7
 65
   257
 75
     1
175
     1
 42
1.0
 92
        0
 66
   257
 43
1.0
 76
     1
 77
     6
 78
     2
 67
     7
 79
     5
170
     0
171
     0
290
     0
174
     0
 93
        1
 44
0.0
173
     0
291
     0
 45
0.0
1001
ACAD
1000
AcDbSavedByObjectVersion
1070
     0
  0
VISUALSTYLE
  5
32
102
{ACAD_REACTORS
330
2A
102
}
330
2A
100
AcDbVisualStyle
  2
Basic
 70
     7
 71
     1
 72
     0
 73
     1
 90
        0
 40
-0.6
 41
-30.0
 62
     5
 63
     7
 74
     0
 91
        4
 64
     7
 65
   257
 75
     1
175
     1
 42
1.0
 92
        8
 66
     7
 43
1.0
 76
     1
 77
     6
 78
     2
 67
     7
 79
     5
170
     0
171
     0
290
     0
174
     0
 93
        1
 44
0.0
173
     0
291
     1
 45
0.0
1001
ACAD
1000
AcDbSavedByObjectVersion
1070
     0
  0
VISUALSTYLE
  5
36
102
{ACAD_REACTORS
330
2A
102
}
330
2A
100
AcDbVisualStyle
  2
Brighten
 70
    12
 71
     2
 72
     2
 73
     0
 90
        0
 40
-0.6
 41
-30.0
 62
     5
 63
     7
 74
     1
 91
        4
 64
     7
 65
   257
 75
     1
175
     1
 42
1.0
 92
        8
 66
     7
 43
1.0
 76
     1
 77
     6
 78
     2
 67
     7
 79
     5
170
     0
171
     0
290
     0
174
     0
 93
        1
 44
50.0
173
     0
291
     1
 45
0.0
1001
ACAD
1000
AcDbSavedByObjectVersion
1070
     0
  0
VISUALSTYLE
  5
3A
102
{ACAD_REACTORS
330
2A
102
}
330
2A
100
AcDbVisualStyle
  2
ColorChange
 70
    16
 71
     2
 72
     2
 73
     3
 90
        0
 40
-0.6
 41
-30.0
 62
     5
 63
     8
 74
     1
 91
        4
 64
     7
 65
   257
 75
     1
175
     1
 42
1.0
 92
        8
 66
     8
 43
1.0
 76
     1
 77
     6
 78
     2
 67
     7
 79
     5
170
     0
171
     0
290
     0
174
     0
 93
        1
 44
0.0
173
     0
291
     1
 45
0.0
1001
ACAD
1000
AcDbSavedByObjectVersion
1070
     0
  0
VISUALSTYLE
  5
34
102
{ACAD_REACTORS
330
2A
102
}
330
2A
100
AcDbVisualStyle
  2
Conceptual
 70
     9
 71
     3
 72
     2
 73
     0
 90
        0
 40
-0.6
 41
-30.0
 62
     5
 63
     7
 74
     2
 91
        2
 64
     7
 65
   257
 75
     1
175
     1
 42
40.0
 92
        8
 66
     7
 43
1.0
 76
     1
 77
     6
 78
     2
 67
     7
 79
     3
170
     0
171
     0
290
     0
174
     0
 93
        1
 44
0.0
173
     0
291
     0
 45
0.0
1001
ACAD
1000
AcDbSavedByObjectVersion
1070
     0
  0
VISUALSTYLE
  5
35
102
{ACAD_REACTORS
330
2A
102
}
330
2A
100
AcDbVisualStyle
  2
Dim
 70
    11
 71
     2
 72
     2
 73
     0
 90
        0
 40
-0.6
 41
-30.0
 62
     5
 63
     7
 74
     1
 91
        4
 64
     7
 65
   257
 75
     1
175
     1
 42
1.0
 92
        8
 66
     7
 43
1.0
 76
     1
 77
     6
 78
     2
 67
     7
 79
     5
170
     0
171
     0
290
     0
174
     0
 93
        1
 44
-50.0
173
     0
291
     1
 45
0.0
1001
ACAD
1000
AcDbSavedByObjectVersion
1070
     0
  0
VISUALSTYLE
  5
39
102
{ACAD_REACTORS
330
2A
102
}
330
2A
100
AcDbVisualStyle
  2
Facepattern
 70
    15
 71
     2
 72
     2
 73
     0
 90
        0
 40
-0.6
 41
-30.0
 62
     5
 63
     7
 74
     1
 91
        4
 64
     7
 65
   257
 75
     1
175
     1
 42
1.0
 92
        8
 66
     7
 43
1.0
 76
     1
 77
     6
 78
     2
 67
     7
 79
     5
170
     0
171
     0
290
     0
174
     0
 93
        1
 44
0.0
173
     0
291
     1
 45
0.0
1001
ACAD
1000
AcDbSavedByObjectVersion
1070
     0
  0
VISUALSTYLE
  5
2B
102
{ACAD_REACTORS
330
2A
102
}
330
2A
100
AcDbVisualStyle
  2
Flat
 70
     0
 71
     2
 72
     1
 73
     1
 90
        2
 40
-0.6
 41
30.0
 62
     5
 63
     7
 74
     0
 91
        4
 64
     7
 65
   257
 75
     1
175
     1
 42
1.0
 92
        8
 66
     7
 43
1.0
 76
     1
 77
     6
 78
     2
 67
     7
 79
     5
170
     0
171
     0
290
     0
174
     0
 93
       13
 44
0.0
173
     0
291
     1
 45
0.0
1001
ACAD
1000
AcDbSavedByObjectVersion
1070
     0
  0
VISUALSTYLE
  5
2C
102
{ACAD_REACTORS
330
2A
102
}
330
2A
100
AcDbVisualStyle
  2
FlatWithEdges
 70
     1
 71
     2
 72
     1
 73
     1
 90
        2
 40
-0.6
 41
30.0
 62
     5
 63
     7
 74
     1
 91
        4
 64
     7
 65
   257
 75
     1
175
     1
 42
1.0
 92
        0
 66
   257
 43
1.0
 76
     1
 77
     6
 78
     2
 67
     7
 79
     5
170
     0
171
     0
290
     0
174
     0
 93
       13
 44
0.0
173
     0
291
     1
 45
0.0
1001
ACAD
1000
AcDbSavedByObjectVersion
1070
     0
  0
VISUALSTYLE
  5
2D
102
{ACAD_REACTORS
330
2A
102
}
330
2A
100
AcDbVisualStyle
  2
Gouraud
 70
     2
 71
     2
 72
     2
 73
     1
 90
        2
 40
-0.6
 41
30.0
 62
     5
 63
     7
 74
     0
 91
        4
 64
     7
 65
   257
 75
     1
175
     1
 42
1.0
 92
        0
 66
     7
 43
1.0
 76
     1
 77
     6
 78
     2
 67
     7
 79
     5
170
     0
171
     0
290
     0
174
     0
 93
       13
 44
0.0
173
     0
291
     1
 45
0.0
1001
ACAD
1000
AcDbSavedByObjectVersion
1070
     0
  0
VISUALSTYLE
  5
2E
102
{ACAD_REACTORS
330
2A
102
}
330
2A
100
AcDbVisualStyle
  2
GouraudWithEdges
 70
     3
 71
     2
 72
     2
 73
     1
 90
        2
 40
-0.6
 41
30.0
 62
     5
 63
     7
 74
     1
 91
        4
 64
     7
 65
   257
 75
     1
175
     1
 42
1.0
 92
        0
 66
   257
 43
1.0
 76
     1
 77
     6
 78
     2
 67
     7
 79
     5
170
     0
171
     0
290
     0
174
     0
 93
       13
 44
0.0
173
     0
291
     1
 45
0.0
1001
ACAD
1000
AcDbSavedByObjectVersion
1070
     0
  0
VISUALSTYLE
  5
38
102
{ACAD_REACTORS
330
2A
102
}
330
2A
100
AcDbVisualStyle
  2
Linepattern
 70
    14
 71
     2
 72
     2
 73
     0
 90
        0
 40
-0.6
 41
-30.0
 62
     5
 63
     7
 74
     1
 91
        4
 64
     7
 65
   257
 75
     7
175
     7
 42
1.0
 92
        8
 66
     7
 43
1.0
 76
     1
 77
     6
 78
     2
 67
     7
 79
     5
170
     0
171
     0
290
     0
174
     0
 93
        1
 44
0.0
173
     0
291
     1
 45
0.0
1001
ACAD
1000
AcDbSavedByObjectVersion
1070
     0
  0
VISUALSTYLE
  5
33
102
{ACAD_REACTORS
330
2A
102
}
330
2A
100
AcDbVisualStyle
  2
Realistic
 70
     8
 71
     2
 72
     2
 73
     0
 90
        0
 40
-0.6
 41
-30.0
 62
     5
 63
     7
 74
     1
 91
        0
 64
     7
 65
   257
 75
     1
175
     1
 42
1.0
 92
        8
 66
     8
 43
1.0
 76
     1
 77
     6
 78
     2
 67
     7
 79
     5
170
     0
171
     0
290
     0
174
     0
 93
       13
 44
0.0
173
     0
291
     0
 45
0.0
1001
ACAD
1000
AcDbSavedByObjectVersion
1070
     0
  0
VISUALSTYLE
  5
37
102
{ACAD_REACTORS
330
2A
102
}
330
2A
100
AcDbVisualStyle
  2
Thicken
 70
    13
 71
     2
 72
     2
 73
     0
 90
        0
 40
-0.6
 41
-30.0
 62
     5
 63
     7
 74
     1
 91
        4
 64
     7
 65
   257
 75
     1
175
     1
 42
1.0
 92
       12
 66
     7
 43
1.0
 76
     1
 77
     6
 78
     2
 67
     7
 79
     5
170
     0
171
     0
290
     0
174
     0
 93
        1
 44
0.0
173
     0
291
     1
 45
0.0
1001
ACAD
1000
AcDbSavedByObjectVersion
1070
     0
  0
DICTIONARYVAR
  5
186
102
{ACAD_REACTORS
330
184
102
}
330
184
100
DictionaryVariables
280
     0
  1
80.000000
  0
DICTIONARYVAR
  5
185
102
{ACAD_REACTORS
330
184
102
}
330
184
100
DictionaryVariables
280
     0
  1
5.000000
  0
ENDSEC
  0
EOF
