  0
SECTION
  2
HEADER
  9
$ACADVER
  1
AC1015
  9
$ACADMAINTVER
 70
     6
  9
$DWGCODEPAGE
  3
ANSI_1252
  9
$INSBASE
 10
0.0
 20
0.0
 30
0.0
  9
$EXTMIN
 10
0.0
 20
0.0
 30
0.0
  9
$EXTMAX
 10
297.0
 20
210.0
 30
0.0
  9
$LIMMIN
 10
0.0
 20
0.0
  9
$LIMMAX
 10
297.0
 20
210.0
  9
$ORTHOMODE
 70
     0
  9
$REGENMODE
 70
     1
  9
$FILLMODE
 70
     1
  9
$QTEXTMODE
 70
     0
  9
$MIRRTEXT
 70
     1
  9
$LTSCALE
 40
1.0
  9
$ATTMODE
 70
     1
  9
$TEXTSIZE
 40
2.0
  9
$TRACEWID
 40
1.0
  9
$TEXTSTYLE
  7
Standard
  9
$CLAYER
  8
0
  9
$CELTYPE
  6
ByLayer
  9
$CECOLOR
 62
   256
  9
$CELTSCALE
 40
1.0
  9
$DISPSILH
 70
     0
  9
$DIMSCALE
 40
1.0
  9
$DIMASZ
 40
3.0
  9
$DIMEXO
 40
0.0
  9
$DIMDLI
 40
3.75
  9
$DIMRND
 40
0.0
  9
$DIMDLE
 40
0.0
  9
$DIMEXE
 40
1.0
  9
$DIMTP
 40
0.0
  9
$DIMTM
 40
0.0
  9
$DIMTXT
 40
2.0
  9
$DIMCEN
 40
2.5
  9
$DIMTSZ
 40
0.0
  9
$DIMTOL
 70
     0
  9
$DIMLIM
 70
     0
  9
$DIMTIH
 70
     1
  9
$DIMTOH
 70
     1
  9
$DIMSE1
 70
     0
  9
$DIMSE2
 70
     0
  9
$DIMTAD
 70
     1
  9
$DIMZIN
 70
     0
  9
$DIMBLK
  1

  9
$DIMASO
 70
     1
  9
$DIMSHO
 70
     1
  9
$DIMPOST
  1

  9
$DIMAPOST
  1

  9
$DIMALT
 70
     0
  9
$DIMALTD
 70
     3
  9
$DIMALTF
 40
0.0393700787
  9
$DIMLFAC
 40
1.0
  9
$DIMTOFL
 70
     1
  9
$DIMTVP
 40
0.0
  9
$DIMTIX
 70
     0
  9
$DIMSOXD
 70
     0
  9
$DIMSAH
 70
     0
  9
$DIMBLK1
  1

  9
$DIMBLK2
  1

  9
$DIMSTYLE
  2
ISO-25
  9
$DIMCLRD
 70
     0
  9
$DIMCLRE
 70
     0
  9
$DIMCLRT
 70
     0
  9
$DIMTFAC
 40
1.0
  9
$DIMGAP
 40
1.524
  9
$DIMJUST
 70
     0
  9
$DIMSD1
 70
     0
  9
$DIMSD2
 70
     0
  9
$DIMTOLJ
 70
     0
  9
$DIMTZIN
 70
     0
  9
$DIMALTZ
 70
     0
  9
$DIMALTTZ
 70
     0
  9
$DIMUPT
 70
     0
  9
$DIMDEC
 70
     2
  9
$DIMTDEC
 70
     3
  9
$DIMALTU
 70
     2
  9
$DIMALTTD
 70
     3
  9
$DIMTXSTY
  7
Standard
  9
$DIMAUNIT
 70
     0
  9
$DIMADEC
 70
     2
  9
$DIMALTRND
 40
0.0
  9
$DIMAZIN
 70
     0
  9
$DIMDSEP
 70
    44
  9
$DIMATFIT
 70
     3
  9
$DIMFRAC
 70
     0
  9
$DIMLDRBLK
  1

  9
$DIMLUNIT
 70
     2
  9
$DIMLWD
 70
    -2
  9
$DIMLWE
 70
    -2
  9
$DIMTMOVE
 70
     0
  9
$LUNITS
 70
     2
  9
$LUPREC
 70
     2
  9
$SKETCHINC
 40
1.0
  9
$FILLETRAD
 40
10.0
  9
$AUNITS
 70
     0
  9
$AUPREC
 70
     2
  9
$MENU
  1
.
  9
$ELEVATION
 40
0.0
  9
$PELEVATION
 40
0.0
  9
$THICKNESS
 40
0.0
  9
$LIMCHECK
 70
     0
  9
$CHAMFERA
 40
10.0
  9
$CHAMFERB
 40
10.0
  9
$CHAMFERC
 40
20.0
  9
$CHAMFERD
 40
0.0
  9
$SKPOLY
 70
     0
  9
$TDCREATE
 40
2455673.404707072
  9
$TDUCREATE
 40
2455673.321373738
  9
$TDUPDATE
 40
2455673.404707083
  9
$TDUUPDATE
 40
2455673.32137375
  9
$TDINDWG
 40
0.0000000116
  9
$TDUSRTIMER
 40
0.0000000116
  9
$USRTIMER
 70
     1
  9
$ANGBASE
 50
0.0
  9
$ANGDIR
 70
     0
  9
$PDMODE
 70
     0
  9
$PDSIZE
 40
-1.0
  9
$PLINEWID
 40
0.0
  9
$SPLFRAME
 70
     0
  9
$SPLINETYPE
 70
     6
  9
$SPLINESEGS
 70
     8
  9
$HANDSEED
  5
20D
  9
$SURFTAB1
 70
     6
  9
$SURFTAB2
 70
     6
  9
$SURFTYPE
 70
     6
  9
$SURFU
 70
     6
  9
$SURFV
 70
     6
  9
$UCSBASE
  2

  9
$UCSNAME
  2

  9
$UCSORG
 10
0.0
 20
0.0
 30
0.0
  9
$UCSXDIR
 10
1.0
 20
0.0
 30
0.0
  9
$UCSYDIR
 10
0.0
 20
1.0
 30
0.0
  9
$UCSORTHOREF
  2

  9
$UCSORTHOVIEW
 70
     0
  9
$UCSORGTOP
 10
0.0
 20
0.0
 30
0.0
  9
$UCSORGBOTTOM
 10
0.0
 20
0.0
 30
0.0
  9
$UCSORGLEFT
 10
0.0
 20
0.0
 30
0.0
  9
$UCSORGRIGHT
 10
0.0
 20
0.0
 30
0.0
  9
$UCSORGFRONT
 10
0.0
 20
0.0
 30
0.0
  9
$UCSORGBACK
 10
0.0
 20
0.0
 30
0.0
  9
$PUCSBASE
  2

  9
$PUCSNAME
  2

  9
$PUCSORG
 10
0.0
 20
0.0
 30
0.0
  9
$PUCSXDIR
 10
1.0
 20
0.0
 30
0.0
  9
$PUCSYDIR
 10
0.0
 20
1.0
 30
0.0
  9
$PUCSORTHOREF
  2

  9
$PUCSORTHOVIEW
 70
     0
  9
$PUCSORGTOP
 10
0.0
 20
0.0
 30
0.0
  9
$PUCSORGBOTTOM
 10
0.0
 20
0.0
 30
0.0
  9
$PUCSORGLEFT
 10
0.0
 20
0.0
 30
0.0
  9
$PUCSORGRIGHT
 10
0.0
 20
0.0
 30
0.0
  9
$PUCSORGFRONT
 10
0.0
 20
0.0
 30
0.0
  9
$PUCSORGBACK
 10
0.0
 20
0.0
 30
0.0
  9
$USERI1
 70
     0
  9
$USERI2
 70
     0
  9
$USERI3
 70
     0
  9
$USERI4
 70
     0
  9
$USERI5
 70
     0
  9
$USERR1
 40
0.0
  9
$USERR2
 40
0.0
  9
$USERR3
 40
0.0
  9
$USERR4
 40
0.0
  9
$USERR5
 40
0.0
  9
$WORLDVIEW
 70
     1
  9
$SHADEDGE
 70
     3
  9
$SHADEDIF
 70
    70
  9
$TILEMODE
 70
     1
  9
$MAXACTVP
 70
    64
  9
$PINSBASE
 10
0.0
 20
0.0
 30
0.0
  9
$PLIMCHECK
 70
     0
  9
$PEXTMIN
 10
1.0000000000E+20
 20
1.0000000000E+20
 30
1.0000000000E+20
  9
$PEXTMAX
 10
-1.0000000000E+20
 20
-1.0000000000E+20
 30
-1.0000000000E+20
  9
$PLIMMIN
 10
0.0
 20
0.0
  9
$PLIMMAX
 10
420.0
 20
297.0
  9
$UNITMODE
 70
     0
  9
$VISRETAIN
 70
     1
  9
$PLINEGEN
 70
     0
  9
$PSLTSCALE
 70
     1
  9
$TREEDEPTH
 70
  3020
  9
$CMLSTYLE
  2
Standard
  9
$CMLJUST
 70
     0
  9
$CMLSCALE
 40
20.0
  9
$PROXYGRAPHICS
 70
     1
  9
$MEASUREMENT
 70
     1
  9
$CELWEIGHT
370
    -1
  9
$ENDCAPS
280
     0
  9
$JOINSTYLE
280
     0
  9
$LWDISPLAY
290
     1
  9
$INSUNITS
 70
     4
  9
$HYPERLINKBASE
  1

  9
$STYLESHEET
  1

  9
$XEDIT
290
     1
  9
$CEPSNTYPE
380
     0
  9
$PSTYLEMODE
290
     1
  9
$FINGERPRINTGUID
  2
{5C398AC3-5C0B-4F1A-B776-5CF022F94850}
  9
$VERSIONGUID
  2
{FAEB1C32-E019-11D5-929B-00C0DF256EC4}
  9
$EXTNAMES
290
     1
  9
$PSVPSCALE
 40
0.0
  9
$OLESTARTUP
290
     0
  0
ENDSEC
  0
SECTION
  2
CLASSES
  0
CLASS
  1
ACDBDICTIONARYWDFLT
  2
AcDbDictionaryWithDefault
  3
ObjectDBX Classes
 90
        0
280
     0
281
     0
  0
CLASS
  1
VISUALSTYLE
  2
AcDbVisualStyle
  3
ObjectDBX Classes
 90
     4095
280
     0
281
     0
  0
CLASS
  1
DICTIONARYVAR
  2
AcDbDictionaryVar
  3
ObjectDBX Classes
 90
        0
280
     0
281
     0
  0
CLASS
  1
ACDBPLACEHOLDER
  2
AcDbPlaceHolder
  3
ObjectDBX Classes
 90
        0
280
     0
281
     0
  0
CLASS
  1
LAYOUT
  2
AcDbLayout
  3
ObjectDBX Classes
 90
        0
280
     0
281
     0
  0
ENDSEC
  0
SECTION
  2
TABLES
  0
TABLE
  2
VPORT
  5
8
330
0
100
AcDbSymbolTable
 70
     1
  0
VPORT
  5
29
330
8
100
AcDbSymbolTableRecord
100
AcDbViewportTableRecord
  2
*Active
 70
     0
 10
0.0
 20
0.0
 11
1.0
 21
1.0
 12
148.5
 22
105.0
 13
0.0
 23
0.0
 14
10.0
 24
10.0
 15
10.0
 25
10.0
 16
0.0
 26
0.0
 36
1.0
 17
0.0
 27
0.0
 37
0.0
 40
210.0
 41
1.4142857143
 42
50.0
 43
0.0
 44
0.0
 50
0.0
 51
0.0
 71
     0
 72
  2000
 73
     1
 74
     3
 75
     0
 76
     0
 77
     0
 78
     0
281
     0
 65
     1
110
0.0
120
0.0
130
0.0
111
1.0
121
0.0
131
0.0
112
0.0
122
1.0
132
0.0
 79
     0
146
0.0
  0
ENDTAB
  0
TABLE
  2
LTYPE
  5
5
330
0
100
AcDbSymbolTable
 70
     6
  0
LTYPE
  5
14
330
5
100
AcDbSymbolTableRecord
100
AcDbLinetypeTableRecord
  2
ByBlock
 70
     0
  3

 72
    65
 73
     0
 40
0.0
  0
LTYPE
  5
15
330
5
100
AcDbSymbolTableRecord
100
AcDbLinetypeTableRecord
  2
ByLayer
 70
     0
  3

 72
    65
 73
     0
 40
0.0
  0
LTYPE
  5
16
330
5
100
AcDbSymbolTableRecord
100
AcDbLinetypeTableRecord
  2
Continuous
 70
     0
  3
Solid line
 72
    65
 73
     0
 40
0.0
  0
LTYPE
  5
3B
330
5
100
AcDbSymbolTableRecord
100
AcDbLinetypeTableRecord
  2
HIDDEN
 70
     0
  3
Hidden __ __ __ __ __ __ __ __ __ __ __ __ __ __
 72
    65
 73
     2
 40
1.905
 49
1.27
 74
     0
 49
-0.635
 74
     0
  0
LTYPE
  5
3C
330
5
100
AcDbSymbolTableRecord
100
AcDbLinetypeTableRecord
  2
PHANTOM
 70
     0
  3
Phantom ______  __  __  ______  __  __  ______
 72
    65
 73
     6
 40
12.7
 49
6.35
 74
     0
 49
-1.27
 74
     0
 49
1.27
 74
     0
 49
-1.27
 74
     0
 49
1.27
 74
     0
 49
-1.27
 74
     0
  0
LTYPE
  5
3D
330
5
100
AcDbSymbolTableRecord
100
AcDbLinetypeTableRecord
  2
CENTER
 70
     0
  3
Center ____ _ ____ _ ____ _ ____ _ ____ _ ____
 72
    65
 73
     4
 40
10.16
 49
6.35
 74
     0
 49
-1.27
 74
     0
 49
1.27
 74
     0
 49
-1.27
 74
     0
  0
LTYPE
  5
3E
330
5
100
AcDbSymbolTableRecord
100
AcDbLinetypeTableRecord
  2
CENTERX2
 70
     0
  3
Center (2x) ________  __  ________  __  _____
 72
    65
 73
     4
 40
20.32
 49
12.7
 74
     0
 49
-2.54
 74
     0
 49
2.54
 74
     0
 49
-2.54
 74
     0
  0
LTYPE
  5
3F
330
5
100
AcDbSymbolTableRecord
100
AcDbLinetypeTableRecord
  2
DOT2
 70
     0
  3
Dot (.5x) ........................................
 72
    65
 73
     2
 40
0.635
 49
0.0
 74
     0
 49
-0.635
 74
     0
  0
ENDTAB
  0
TABLE
  2
LAYER
  5
2
330
0
100
AcDbSymbolTable
 70
     5
  0
LAYER
  5
10
330
2
100
AcDbSymbolTableRecord
100
AcDbLayerTableRecord
  2
0
 70
     0
 62
     7
  6
Continuous
370
    -3
390
F
  0
LAYER
  5
40
330
2
100
AcDbSymbolTableRecord
100
AcDbLayerTableRecord
  2
FORMAT
 70
     0
 62
     7
  6
Continuous
370
    -3
390
F
  0
LAYER
  5
41
330
2
100
AcDbSymbolTableRecord
100
AcDbLayerTableRecord
  2
VERMASSUNG
 70
     0
 62
     7
  6
Continuous
370
    -3
390
F
  0
LAYER
  5
42
330
2
100
AcDbSymbolTableRecord
100
AcDbLayerTableRecord
  2
KOPF_DÜNN
 70
     0
 62
     7
  6
Continuous
370
    -3
390
F
  0
LAYER
  5
43
330
2
100
AcDbSymbolTableRecord
100
AcDbLayerTableRecord
  2
KOPF_DICK
 70
     0
 62
     7
  6
Continuous
370
    15
390
F
  0
ENDTAB
  0
TABLE
  2
STYLE
  5
3
330
0
100
AcDbSymbolTable
 70
     3
  0
STYLE
  5
11
330
3
100
AcDbSymbolTableRecord
100
AcDbTextStyleTableRecord
  2
Standard
 70
     0
 40
0.0
 41
1.0
 50
0.0
 71
     0
 42
2.5
  3
txt
  4

  0
STYLE
  5
44
330
3
100
AcDbSymbolTableRecord
100
AcDbTextStyleTableRecord
  2
SLDTEXTSTYLE0
 70
     0
 40
0.0
 41
0.7
 50
0.0
 71
     0
 42
0.2
  3
TXT
  4

  0
STYLE
  5
48
330
3
100
AcDbSymbolTableRecord
100
AcDbTextStyleTableRecord
  2
SLDTEXTSTYLE1
 70
     0
 40
0.0
 41
0.6473684211
 50
0.0
 71
     0
 42
0.2
  3
TXT
  4

  0
ENDTAB
  0
TABLE
  2
VIEW
  5
6
330
0
100
AcDbSymbolTable
 70
     0
  0
ENDTAB
  0
TABLE
  2
UCS
  5
7
330
0
100
AcDbSymbolTable
 70
     0
  0
ENDTAB
  0
TABLE
  2
APPID
  5
9
330
0
100
AcDbSymbolTable
 70
     1
  0
APPID
  5
12
330
9
100
AcDbSymbolTableRecord
100
AcDbRegAppTableRecord
  2
ACAD
 70
     0
  0
ENDTAB
  0
TABLE
  2
DIMSTYLE
  5
A
330
0
100
AcDbSymbolTable
 70
     2
100
AcDbDimStyleTable
  0
DIMSTYLE
105
27
330
A
100
AcDbSymbolTableRecord
100
AcDbDimStyleTableRecord
  2
ISO-25
 70
     0
 41
2.5
 42
0.625
 43
3.75
 44
1.25
 73
     0
 74
     0
 77
     1
 78
     8
140
2.5
141
2.5
143
0.0393700787
147
0.625
171
     3
172
     1
271
     2
272
     2
274
     3
278
    44
283
     0
284
     8
340
11
  0
DIMSTYLE
105
1C6
102
{ACAD_REACTORS
330
1C5
330
1D2
330
1DD
330
1E7
330
1F1
330
1FB
102
}
330
A
100
AcDbSymbolTableRecord
100
AcDbDimStyleTableRecord
  2
SLDDIMSTYLE0
 70
     0
 41
3.0
 44
0.0
 45
0.000000001
 73
     0
 74
     0
 77
     1
 78
    12
140
2.0
147
0.5
173
     1
271
     2
272
     3
284
    12
340
44
  0
ENDTAB
  0
TABLE
  2
BLOCK_RECORD
  5
1
330
0
100
AcDbSymbolTable
 70
     7
  0
BLOCK_RECORD
  5
1F
330
1
100
AcDbSymbolTableRecord
100
AcDbBlockTableRecord
  2
*Model_Space
340
22
  0
BLOCK_RECORD
  5
1B
330
1
100
AcDbSymbolTableRecord
100
AcDbBlockTableRecord
  2
*Paper_Space
340
1E
  0
BLOCK_RECORD
  5
23
330
1
100
AcDbSymbolTableRecord
100
AcDbBlockTableRecord
  2
*Paper_Space0
340
26
  0
BLOCK_RECORD
  5
1C7
330
1
100
AcDbSymbolTableRecord
100
AcDbBlockTableRecord
  2
*D1
340
0
  0
BLOCK_RECORD
  5
1D3
330
1
100
AcDbSymbolTableRecord
100
AcDbBlockTableRecord
  2
*D2
340
0
  0
BLOCK_RECORD
  5
1DE
330
1
100
AcDbSymbolTableRecord
100
AcDbBlockTableRecord
  2
*D3
340
0
  0
BLOCK_RECORD
  5
1E8
330
1
100
AcDbSymbolTableRecord
100
AcDbBlockTableRecord
  2
*D4
340
0
  0
BLOCK_RECORD
  5
1F2
330
1
100
AcDbSymbolTableRecord
100
AcDbBlockTableRecord
  2
*D5
340
0
  0
BLOCK_RECORD
  5
1FC
330
1
100
AcDbSymbolTableRecord
100
AcDbBlockTableRecord
  2
*D6
340
0
  0
ENDTAB
  0
ENDSEC
  0
SECTION
  2
BLOCKS
  0
BLOCK
  5
20
330
1F
100
AcDbEntity
  8
0
100
AcDbBlockBegin
  2
*Model_Space
 70
     0
 10
0.0
 20
0.0
 30
0.0
  3
*Model_Space
  1

  0
ENDBLK
  5
21
330
1F
100
AcDbEntity
  8
0
100
AcDbBlockEnd
  0
BLOCK
  5
1C
330
1B
100
AcDbEntity
 67
     1
  8
0
100
AcDbBlockBegin
  2
*Paper_Space
 70
     0
 10
0.0
 20
0.0
 30
0.0
  3
*Paper_Space
  1

  0
ENDBLK
  5
1D
330
1B
100
AcDbEntity
 67
     1
  8
0
100
AcDbBlockEnd
  0
BLOCK
  5
24
330
23
100
AcDbEntity
  8
0
100
AcDbBlockBegin
  2
*Paper_Space0
 70
     0
 10
0.0
 20
0.0
 30
0.0
  3
*Paper_Space0
  1

  0
ENDBLK
  5
25
330
23
100
AcDbEntity
  8
0
100
AcDbBlockEnd
  0
BLOCK
  5
1C8
330
1C7
100
AcDbEntity
  8
0
100
AcDbBlockBegin
  2
*D1
 70
     1
 10
0.0
 20
0.0
 30
0.0
  3
*D1
  1

  0
SOLID
  5
1CA
330
1C7
100
AcDbEntity
  8
VERMASSUNG
100
AcDbTrace
 10
91.4379315146
 20
144.6455853123
 30
0.0
 11
90.9879315146
 21
141.6455853123
 31
0.0
 12
91.8879315146
 22
141.6455853123
 32
0.0
 13
91.8879315146
 23
141.6455853123
 33
0.0
  0
SOLID
  5
1CB
330
1C7
100
AcDbEntity
  8
VERMASSUNG
100
AcDbTrace
 10
91.4379315146
 20
81.6455853123
 30
0.0
 11
91.8879315146
 21
84.6455853123
 31
0.0
 12
90.9879315146
 22
84.6455853123
 32
0.0
 13
90.9879315146
 23
84.6455853123
 33
0.0
  0
LINE
  5
1CC
330
1C7
100
AcDbEntity
  8
VERMASSUNG
100
AcDbLine
 10
129.0666996014
 20
144.6455853123
 30
0.0
 11
90.4379315146
 21
144.6455853123
 31
0.0
  0
LINE
  5
1CD
330
1C7
100
AcDbEntity
  8
VERMASSUNG
100
AcDbLine
 10
129.0666996014
 20
81.6455853123
 30
0.0
 11
90.4379315146
 21
81.6455853123
 31
0.0
  0
LINE
  5
1CE
330
1C7
100
AcDbEntity
  8
VERMASSUNG
100
AcDbLine
 10
91.4379315146
 20
144.6455853123
 30
0.0
 11
91.4379315146
 21
81.6455853123
 31
0.0
  0
MTEXT
  5
1CF
330
1C7
100
AcDbEntity
  8
VERMASSUNG
100
AcDbMText
 10
88.6597960256
 20
105.3459022991
 30
0.0
 40
2.0
 41
0.0
 71
     1
 72
     1
  1
HSK A 
  7
SLDTEXTSTYLE0
 11
-7.044195017643634E-15
 21
1.0
 31
0.0
 73
     1
 44
1.0
  0
MTEXT
  5
1D0
330
1C7
100
AcDbEntity
  8
VERMASSUNG
100
AcDbMText
 10
88.8597960351
 20
114.345902843
 30
0.0
 40
2.0
 41
0.0
 71
     1
 72
     1
  1
%%c
  7
SLDTEXTSTYLE0
 11
-7.044195017643634E-15
 21
1.0
 31
0.0
 73
     1
 44
1.0
  0
MTEXT
  5
1D1
330
1C7
100
AcDbEntity
  8
VERMASSUNG
100
AcDbMText
 10
88.8597961515
 20
117.954229493
 30
0.0
 40
2.0
 41
0.0
 71
     1
 72
     1
  1
63
  7
SLDTEXTSTYLE0
 11
-7.044195017643634E-15
 21
1.0
 31
0.0
 73
     1
 44
1.0
  0
ENDBLK
  5
1C9
330
1C7
100
AcDbEntity
  8
0
100
AcDbBlockEnd
  0
BLOCK
  5
1D4
330
1D3
100
AcDbEntity
  8
0
100
AcDbBlockBegin
  2
*D2
 70
     1
 10
0.0
 20
0.0
 30
0.0
  3
*D2
  1

  0
SOLID
  5
1D6
330
1D3
100
AcDbEntity
  8
VERMASSUNG
100
AcDbTrace
 10
217.0390150983
 20
121.1455853123
 30
0.0
 11
216.5890150983
 21
118.1455853123
 31
0.0
 12
217.4890150983
 22
118.1455853123
 32
0.0
 13
217.4890150983
 23
118.1455853123
 33
0.0
  0
SOLID
  5
1D7
330
1D3
100
AcDbEntity
  8
VERMASSUNG
100
AcDbTrace
 10
217.0390150983
 20
105.1455853123
 30
0.0
 11
217.4890150983
 21
108.1455853123
 31
0.0
 12
216.5890150983
 22
108.1455853123
 32
0.0
 13
216.5890150983
 23
108.1455853123
 33
0.0
  0
LINE
  5
1D8
330
1D3
100
AcDbEntity
  8
VERMASSUNG
100
AcDbLine
 10
208.4666996014
 20
121.1455853123
 30
0.0
 11
218.0390150983
 21
121.1455853123
 31
0.0
  0
LINE
  5
1D9
330
1D3
100
AcDbEntity
  8
VERMASSUNG
100
AcDbLine
 10
208.4666996014
 20
105.1455853123
 30
0.0
 11
218.0390150983
 21
105.1455853123
 31
0.0
  0
LINE
  5
1DA
330
1D3
100
AcDbEntity
  8
VERMASSUNG
100
AcDbLine
 10
217.0390150983
 20
121.1455853123
 30
0.0
 11
217.0390150983
 21
105.1455853123
 31
0.0
  0
MTEXT
  5
1DB
330
1D3
100
AcDbEntity
  8
VERMASSUNG
100
AcDbMText
 10
214.4608796188
 20
110.0453064161
 30
0.0
 40
2.0
 41
0.0
 71
     1
 72
     1
  1
%%c
  7
SLDTEXTSTYLE0
 11
-7.044195017643634E-15
 21
1.0
 31
0.0
 73
     1
 44
1.0
  0
MTEXT
  5
1DC
330
1D3
100
AcDbEntity
  8
VERMASSUNG
100
AcDbMText
 10
214.4608797352
 20
113.6539846393
 30
0.0
 40
2.0
 41
0.0
 71
     1
 72
     1
  1
16
  7
SLDTEXTSTYLE0
 11
-7.044195017643634E-15
 21
1.0
 31
0.0
 73
     1
 44
1.0
  0
ENDBLK
  5
1D5
330
1D3
100
AcDbEntity
  8
0
100
AcDbBlockEnd
  0
BLOCK
  5
1DF
330
1DE
100
AcDbEntity
  8
0
100
AcDbBlockBegin
  2
*D3
 70
     1
 10
0.0
 20
0.0
 30
0.0
  3
*D3
  1

  0
SOLID
  5
1E1
330
1DE
100
AcDbEntity
  8
VERMASSUNG
100
AcDbTrace
 10
96.8666996014
 20
158.8549745416
 30
0.0
 11
99.8666996014
 21
158.4049745416
 31
0.0
 12
99.8666996014
 22
159.3049745416
 32
0.0
 13
99.8666996014
 23
159.3049745416
 33
0.0
  0
SOLID
  5
1E2
330
1DE
100
AcDbEntity
  8
VERMASSUNG
100
AcDbTrace
 10
208.7666996014
 20
158.8549745416
 30
0.0
 11
205.7666996014
 21
159.3049745416
 31
0.0
 12
205.7666996014
 22
158.4049745416
 32
0.0
 13
205.7666996014
 23
158.4049745416
 33
0.0
  0
LINE
  5
1E3
330
1DE
100
AcDbEntity
  8
VERMASSUNG
100
AcDbLine
 10
96.8666996014
 20
132.8362630588
 30
0.0
 11
96.8666996014
 21
159.8549745416
 31
0.0
  0
LINE
  5
1E4
330
1DE
100
AcDbEntity
  8
VERMASSUNG
100
AcDbLine
 10
208.7666996014
 20
129.8714447907
 30
0.0
 11
208.7666996014
 21
159.8549745416
 31
0.0
  0
LINE
  5
1E5
330
1DE
100
AcDbEntity
  8
VERMASSUNG
100
AcDbLine
 10
96.8666996014
 20
158.8549745416
 30
0.0
 11
208.7666996014
 21
158.8549745416
 31
0.0
  0
MTEXT
  5
1E6
330
1DE
100
AcDbEntity
  8
VERMASSUNG
100
AcDbMText
 10
149.3359744841
 20
161.4331099047
 30
0.0
 40
2.0
 41
0.0
 71
     1
 72
     1
  1
111.9
  7
SLDTEXTSTYLE0
 73
     1
 44
1.0
  0
ENDBLK
  5
1E0
330
1DE
100
AcDbEntity
  8
0
100
AcDbBlockEnd
  0
BLOCK
  5
1E9
330
1E8
100
AcDbEntity
  8
0
100
AcDbBlockBegin
  2
*D4
 70
     1
 10
0.0
 20
0.0
 30
0.0
  3
*D4
  1

  0
SOLID
  5
1EB
330
1E8
100
AcDbEntity
  8
VERMASSUNG
100
AcDbTrace
 10
128.7666996014
 20
152.8549745416
 30
0.0
 11
131.7666996014
 21
152.4049745416
 31
0.0
 12
131.7666996014
 22
153.3049745416
 32
0.0
 13
131.7666996014
 23
153.3049745416
 33
0.0
  0
SOLID
  5
1EC
330
1E8
100
AcDbEntity
  8
VERMASSUNG
100
AcDbTrace
 10
208.7666996014
 20
152.8549745416
 30
0.0
 11
205.7666996014
 21
153.3049745416
 31
0.0
 12
205.7666996014
 22
152.4049745416
 32
0.0
 13
205.7666996014
 23
152.4049745416
 33
0.0
  0
LINE
  5
1ED
330
1E8
100
AcDbEntity
  8
VERMASSUNG
100
AcDbLine
 10
128.7666996014
 20
144.3455853123
 30
0.0
 11
128.7666996014
 21
153.8549745416
 31
0.0
  0
LINE
  5
1EE
330
1E8
100
AcDbEntity
  8
VERMASSUNG
100
AcDbLine
 10
208.7666996014
 20
129.8714447907
 30
0.0
 11
208.7666996014
 21
153.8549745416
 31
0.0
  0
LINE
  5
1EF
330
1E8
100
AcDbEntity
  8
VERMASSUNG
100
AcDbLine
 10
128.7666996014
 20
152.8549745416
 30
0.0
 11
208.7666996014
 21
152.8549745416
 31
0.0
  0
MTEXT
  5
1F0
330
1E8
100
AcDbEntity
  8
VERMASSUNG
100
AcDbMText
 10
167.4597975526
 20
155.4331099047
 30
0.0
 40
2.0
 41
0.0
 71
     1
 72
     1
  1
80
  7
SLDTEXTSTYLE0
 73
     1
 44
1.0
  0
ENDBLK
  5
1EA
330
1E8
100
AcDbEntity
  8
0
100
AcDbBlockEnd
  0
BLOCK
  5
1F3
330
1F2
100
AcDbEntity
  8
0
100
AcDbBlockBegin
  2
*D5
 70
     1
 10
0.0
 20
0.0
 30
0.0
  3
*D5
  1

  0
SOLID
  5
1F5
330
1F2
100
AcDbEntity
  8
VERMASSUNG
100
AcDbTrace
 10
154.7166996014
 20
146.8549745416
 30
0.0
 11
157.7166996014
 21
146.4049745416
 31
0.0
 12
157.7166996014
 22
147.3049745416
 32
0.0
 13
157.7166996014
 23
147.3049745416
 33
0.0
  0
SOLID
  5
1F6
330
1F2
100
AcDbEntity
  8
VERMASSUNG
100
AcDbTrace
 10
208.7666996014
 20
146.8549745416
 30
0.0
 11
205.7666996014
 21
147.3049745416
 31
0.0
 12
205.7666996014
 22
146.4049745416
 32
0.0
 13
205.7666996014
 23
146.4049745416
 33
0.0
  0
LINE
  5
1F7
330
1F2
100
AcDbEntity
  8
VERMASSUNG
100
AcDbLine
 10
154.7166996014
 20
142.9920256361
 30
0.0
 11
154.7166996014
 21
147.8549745416
 31
0.0
  0
LINE
  5
1F8
330
1F2
100
AcDbEntity
  8
VERMASSUNG
100
AcDbLine
 10
208.7666996014
 20
129.8714447907
 30
0.0
 11
208.7666996014
 21
147.8549745416
 31
0.0
  0
LINE
  5
1F9
330
1F2
100
AcDbEntity
  8
VERMASSUNG
100
AcDbLine
 10
154.7166996014
 20
146.8549745416
 30
0.0
 11
208.7666996014
 21
146.8549745416
 31
0.0
  0
MTEXT
  5
1FA
330
1F2
100
AcDbEntity
  8
VERMASSUNG
100
AcDbMText
 10
178.9765884999
 20
149.4331099047
 30
0.0
 40
2.0
 41
0.0
 71
     1
 72
     1
  1
54.05
  7
SLDTEXTSTYLE0
 73
     1
 44
1.0
  0
ENDBLK
  5
1F4
330
1F2
100
AcDbEntity
  8
0
100
AcDbBlockEnd
  0
BLOCK
  5
1FD
330
1FC
100
AcDbEntity
  8
0
100
AcDbBlockBegin
  2
*D6
 70
     1
 10
0.0
 20
0.0
 30
0.0
  3
*D6
  1

  0
SOLID
  5
1FF
330
1FC
100
AcDbEntity
  8
VERMASSUNG
100
AcDbTrace
 10
223.0390150983
 20
137.1455853123
 30
0.0
 11
222.5890150983
 21
134.1455853123
 31
0.0
 12
223.4890150983
 22
134.1455853123
 32
0.0
 13
223.4890150983
 23
134.1455853123
 33
0.0
  0
SOLID
  5
200
330
1FC
100
AcDbEntity
  8
VERMASSUNG
100
AcDbTrace
 10
223.0390150983
 20
89.1455853123
 30
0.0
 11
223.4890150983
 21
92.1455853123
 31
0.0
 12
222.5890150983
 22
92.1455853123
 32
0.0
 13
222.5890150983
 23
92.1455853123
 33
0.0
  0
LINE
  5
201
330
1FC
100
AcDbEntity
  8
VERMASSUNG
100
AcDbLine
 10
195.8996580783
 20
137.1455853123
 30
0.0
 11
224.0390150983
 21
137.1455853123
 31
0.0
  0
LINE
  5
202
330
1FC
100
AcDbEntity
  8
VERMASSUNG
100
AcDbLine
 10
195.8996580783
 20
89.1455853123
 30
0.0
 11
224.0390150983
 21
89.1455853123
 31
0.0
  0
LINE
  5
203
330
1FC
100
AcDbEntity
  8
VERMASSUNG
100
AcDbLine
 10
223.0390150983
 20
137.1455853123
 30
0.0
 11
223.0390150983
 21
89.1455853123
 31
0.0
  0
MTEXT
  5
204
330
1FC
100
AcDbEntity
  8
VERMASSUNG
100
AcDbMText
 10
220.4608796188
 20
109.7459369686
 30
0.0
 40
2.0
 41
0.0
 71
     1
 72
     1
  1
%%c
  7
SLDTEXTSTYLE0
 11
-7.044195017643634E-15
 21
1.0
 31
0.0
 73
     1
 44
1.0
  0
MTEXT
  5
205
330
1FC
100
AcDbEntity
  8
VERMASSUNG
100
AcDbMText
 10
220.4608797352
 20
113.3546151918
 30
0.0
 40
2.0
 41
0.0
 71
     1
 72
     1
  1
48
  7
SLDTEXTSTYLE0
 11
-7.044195017643634E-15
 21
1.0
 31
0.0
 73
     1
 44
1.0
  0
ENDBLK
  5
1FE
330
1FC
100
AcDbEntity
  8
0
100
AcDbBlockEnd
  0
ENDSEC
  0
SECTION
  2
ENTITIES
  0
MTEXT
  5
45
330
1F
100
AcDbEntity
  8
KOPF_DÜNN
100
AcDbMText
 10
13.8892156294
 20
23.8442973028
 30
0.0
 40
3.0
 41
0.0
 71
     1
 72
     1
  1
HA6.W16.K21.080
  7
SLDTEXTSTYLE0
 73
     1
 44
1.0
  0
MTEXT
  5
46
330
1F
100
AcDbEntity
  8
VERMASSUNG
100
AcDbMText
 10
13.9329988022
 20
28.8834360957
 30
0.0
 40
3.0
 41
0.0
 71
     1
 72
     1
  1
Flächenspannfutter_End mill adapter Weldon ø16
  7
SLDTEXTSTYLE0
 73
     1
 44
1.0
  0
MTEXT
  5
47
330
1F
100
AcDbEntity
  8
VERMASSUNG
100
AcDbMText
 10
98.8601118557
 20
13.8365368179
 30
0.0
 40
2.0
 41
0.0
 71
     1
 72
     1
  1
Datum: 09.10.2006
  7
SLDTEXTSTYLE0
 73
     1
 44
1.0
  0
MTEXT
  5
49
330
1F
100
AcDbEntity
  8
VERMASSUNG
100
AcDbMText
 10
13.933048693
 20
18.0482802738
 30
0.0
 40
2.0
 41
0.0
 71
     1
 72
     1
  1
DIN 69 893 HSK A 63
  7
SLDTEXTSTYLE1
 73
     1
 44
1.0
  0
MTEXT
  5
4A
330
1F
100
AcDbEntity
  8
VERMASSUNG
100
AcDbMText
 10
13.9808475933
 20
13.9090973692
 30
0.0
 40
2.0
 41
0.0
 71
     1
 72
     1
  1
Gewicht: 1270g
  7
SLDTEXTSTYLE0
 73
     1
 44
1.0
  0
LINE
  5
4B
330
1F
100
AcDbEntity
  8
0
  6
Continuous
 62
     7
370
    15
100
AcDbLine
 10
129.0666996014
 20
81.6455853123
 30
0.0
 11
133.7166996014
 21
81.6455853123
 31
0.0
  0
LINE
  5
4C
330
1F
100
AcDbEntity
  8
0
  6
Continuous
 62
     7
370
    15
100
AcDbLine
 10
133.7260076882
 20
144.6455853123
 30
0.0
 11
129.0666996014
 21
144.6455853123
 31
0.0
  0
ARC
  5
4D
330
1F
100
AcDbEntity
  8
0
  6
Continuous
 62
     7
370
    15
100
AcDbCircle
 10
129.0666996014
 20
81.9455853123
 30
0.0
 40
0.3000000000000114
100
AcDbArc
 50
180.0
 51
270.0
  0
ARC
  5
4E
330
1F
100
AcDbEntity
  8
0
  6
Continuous
 62
     7
370
    15
100
AcDbCircle
 10
129.0666996014
 20
144.3455853123
 30
0.0
 40
0.3000000000000114
100
AcDbArc
 50
90.0
 51
180.0
  0
ARC
  5
4F
330
1F
100
AcDbEntity
  8
0
  6
Continuous
 62
     7
370
    15
100
AcDbCircle
 10
157.7166996014
 20
86.1455853123
 30
0.0
 40
3.000000000000009
100
AcDbArc
 50
90.0
 51
168.4626267714
  0
ARC
  5
50
330
1F
100
AcDbEntity
  8
0
  6
Continuous
 62
     7
370
    15
100
AcDbCircle
 10
157.7166996014
 20
140.1455853123
 30
0.0
 40
3.000000000000027
100
AcDbArc
 50
191.5455749772
 51
270.0
  0
ARC
  5
51
330
1F
100
AcDbEntity
  8
0
  6
Continuous
 62
     7
370
    15
100
AcDbCircle
 10
128.2666928487
 20
88.5751476979
 30
0.0
 40
0.60000675266771
100
AcDbArc
 50
33.5571153394
 51
90.0
  0
ARC
  5
52
330
1F
100
AcDbEntity
  8
0
  6
Continuous
 62
     7
370
    15
100
AcDbCircle
 10
128.2666928487
 20
137.7160229267
 30
0.0
 40
0.6000067526677242
100
AcDbArc
 50
270.0
 51
326.4428846606
  0
LINE
  5
53
330
1F
100
AcDbEntity
  8
0
  6
Continuous
 62
     7
370
    15
100
AcDbLine
 10
126.7666996014
 20
88.9251544506
 30
0.0
 11
127.6234123747
 21
89.1547099464
 31
0.0
  0
LINE
  5
54
330
1F
100
AcDbEntity
  8
0
  6
Continuous
 62
     7
370
    15
100
AcDbLine
 10
127.6234123747
 20
137.1364606783
 30
0.0
 11
126.7666996014
 21
137.366016174
 31
0.0
  0
LINE
  5
55
330
1F
100
AcDbEntity
  8
0
  6
Continuous
 62
     7
370
    15
100
AcDbLine
 10
115.5351908025
 20
136.8033153324
 30
0.0
 11
102.9666996014
 21
136.1736314045
 31
0.0
  0
LINE
  5
56
330
1F
100
AcDbEntity
  8
0
  6
Continuous
 62
     7
370
    15
100
AcDbLine
 10
126.7666996014
 20
137.366016174
 30
0.0
 11
123.949697944
 21
137.2248838265
 31
0.0
  0
LINE
  5
57
330
1F
100
AcDbEntity
  8
0
  6
Continuous
 62
     7
370
    15
100
AcDbLine
 10
123.9497540341
 20
89.066283988
 30
0.0
 11
126.7666996014
 21
88.9251544506
 31
0.0
  0
LINE
  5
58
330
1F
100
AcDbEntity
  8
0
  6
Continuous
 62
     7
370
    15
100
AcDbLine
 10
106.9666996014
 20
89.9171384185
 30
0.0
 11
115.5355933212
 21
89.4878351259
 31
0.0
  0
LINE
  5
59
330
1F
100
AcDbEntity
  8
0
  6
Continuous
 62
     7
370
    15
100
AcDbLine
 10
169.2156226872
 20
89.1455853123
 30
0.0
 11
195.8996580783
 21
89.1455853123
 31
0.0
  0
LINE
  5
5A
330
1F
100
AcDbEntity
  8
0
  6
Continuous
 62
     7
370
    15
100
AcDbLine
 10
157.7166996014
 20
89.1455853123
 30
0.0
 11
162.227377076
 21
89.1455853123
 31
0.0
  0
LINE
  5
5B
330
1F
100
AcDbEntity
  8
0
  6
Continuous
 62
     7
370
    15
100
AcDbLine
 10
162.2180926396
 20
137.1455853123
 30
0.0
 11
157.7166996014
 21
137.1455853123
 31
0.0
  0
LINE
  5
5C
330
1F
100
AcDbEntity
  8
0
  6
Continuous
 62
     7
370
    15
100
AcDbLine
 10
195.8996580783
 20
137.1455853123
 30
0.0
 11
169.2059122487
 21
137.1455853123
 31
0.0
  0
LINE
  5
5D
330
1F
100
AcDbEntity
  8
0
  6
Continuous
 62
     7
370
    15
100
AcDbLine
 10
195.8996580783
 20
89.1455853123
 30
0.0
 11
207.6119361248
 21
94.6071102598
 31
0.0
  0
LINE
  5
5E
330
1F
100
AcDbEntity
  8
0
  6
Continuous
 62
     7
370
    15
100
AcDbLine
 10
207.6119361248
 20
131.6840603648
 30
0.0
 11
195.8996580783
 21
137.1455853123
 31
0.0
  0
ARC
  5
5F
330
1F
100
AcDbEntity
  8
0
  6
Continuous
 62
     7
370
    15
100
AcDbCircle
 10
127.7787038018
 20
88.5751544506
 30
0.0
 40
0.6000000000000085
100
AcDbArc
 50
90.0
 51
105.0
  0
ARC
  5
60
330
1F
100
AcDbEntity
  8
0
  6
Continuous
 62
     7
370
    15
100
AcDbCircle
 10
127.7787038018
 20
137.716016174
 30
0.0
 40
0.5999999999999971
100
AcDbArc
 50
255.0
 51
270.0
  0
LINE
  5
61
330
1F
100
AcDbEntity
  8
0
  6
Continuous
 62
     7
370
    15
100
AcDbLine
 10
127.7787038018
 20
89.1751544506
 30
0.0
 11
128.2666928487
 21
89.1751544506
 31
0.0
  0
LINE
  5
62
330
1F
100
AcDbEntity
  8
0
  6
Continuous
 62
     7
370
    15
100
AcDbLine
 10
128.2666928487
 20
137.116016174
 30
0.0
 11
127.7787038018
 21
137.116016174
 31
0.0
  0
ARC
  5
63
330
1F
100
AcDbEntity
  8
0
  6
Continuous
 62
     7
370
    15
100
AcDbCircle
 10
206.7666996014
 20
96.4197258339
 30
0.0
 40
2.0
100
AcDbArc
 50
295.0
 51
0.0
  0
ARC
  5
64
330
1F
100
AcDbEntity
  8
0
  6
Continuous
 62
     7
370
    15
100
AcDbCircle
 10
206.7666996014
 20
129.8714447907
 30
0.0
 40
2.000000000000001
100
AcDbArc
 50
0.0
 51
65.0
  0
LINE
  5
65
330
1F
100
AcDbEntity
  8
0
  6
Continuous
 62
     7
370
    15
100
AcDbLine
 10
98.1500362413
 20
92.2755853123
 30
0.0
 11
105.5666996014
 21
92.2755853123
 31
0.0
  0
ARC
  5
66
330
1F
100
AcDbEntity
  8
0
  6
Continuous
 62
     7
370
    15
100
AcDbCircle
 10
105.5666996014
 20
90.8755853123
 30
0.0
 40
1.400000000000006
100
AcDbArc
 50
42.2465410162
 51
90.0
  0
LINE
  5
67
330
1F
100
AcDbEntity
  8
0
  6
Continuous
 62
     7
370
    15
100
AcDbLine
 10
96.8778600365
 20
93.4144248772
 30
0.0
 11
98.0078630595
 21
92.2844218541
 31
0.0
  0
LINE
  5
68
330
1F
100
AcDbEntity
  8
0
  6
Continuous
 62
     7
370
    15
100
AcDbLine
 10
98.0078630595
 20
134.0067487705
 30
0.0
 11
96.8766003747
 21
132.8754860857
 31
0.0
  0
ARC
  5
69
330
1F
100
AcDbEntity
  8
0
  6
Continuous
 62
     7
370
    15
100
AcDbCircle
 10
101.5666996014
 20
135.4155853123
 30
0.0
 40
1.400000000000006
100
AcDbArc
 50
270.0
 51
301.7485287426
  0
LINE
  5
6A
330
1F
100
AcDbEntity
  8
0
  6
Continuous
 62
     7
370
    15
100
AcDbLine
 10
101.5666996014
 20
134.0155853123
 30
0.0
 11
98.1409653352
 21
134.0155853123
 31
0.0
  0
LINE
  5
6B
330
1F
100
AcDbEntity
  8
0
  6
Continuous
 62
     7
370
    15
100
AcDbLine
 10
208.7666996014
 20
102.6162613505
 30
0.0
 11
208.831600537
 21
102.7364418965
 31
0.0
  0
LINE
  5
6C
330
1F
100
AcDbEntity
  8
0
  6
Continuous
 62
     7
370
    15
100
AcDbLine
 10
208.7727108133
 20
123.5563648202
 30
0.0
 11
208.7666996014
 21
123.5674961041
 31
0.0
  0
ARC
  5
6D
330
1F
100
AcDbEntity
  8
0
  6
Continuous
 62
     7
370
    15
100
AcDbCircle
 10
185.2666996014
 20
113.1455853123
 30
0.0
 40
6.000000000000005
100
AcDbArc
 50
301.5130462652
 51
111.92623148
  0
ARC
  5
6E
330
1F
100
AcDbEntity
  8
0
  6
Continuous
 62
     7
370
    15
100
AcDbCircle
 10
185.2666996014
 20
113.1455853123
 30
0.0
 40
6.000000000000005
100
AcDbArc
 50
248.1667758049
 51
301.5130462652
  0
LINE
  5
6F
330
1F
100
AcDbEntity
  8
0
  6
Continuous
 62
     7
370
    15
100
AcDbLine
 10
183.6144664028
 20
110.10089724
 30
0.0
 11
181.8038057849
 21
113.0541171991
 31
0.0
  0
LINE
  5
70
330
1F
100
AcDbEntity
  8
0
  6
Continuous
 62
     7
370
    15
100
AcDbLine
 10
188.7295934178
 20
113.2370534255
 30
0.0
 11
187.0773602192
 21
110.1923653532
 31
0.0
  0
LINE
  5
71
330
1F
100
AcDbEntity
  8
0
  6
Continuous
 62
     7
370
    15
100
AcDbLine
 10
188.7295934178
 20
113.2370534255
 30
0.0
 11
186.9189328
 21
116.1902733846
 31
0.0
  0
LINE
  5
72
330
1F
100
AcDbEntity
  8
0
  6
Continuous
 62
     7
370
    15
100
AcDbLine
 10
183.6144664028
 20
110.10089724
 30
0.0
 11
187.0773602192
 21
110.1923653532
 31
0.0
  0
LINE
  5
73
330
1F
100
AcDbEntity
  8
0
  6
Continuous
 62
     7
370
    15
100
AcDbLine
 10
186.9189328
 20
116.1902733846
 30
0.0
 11
183.4560389835
 21
116.0988052714
 31
0.0
  0
LINE
  5
74
330
1F
100
AcDbEntity
  8
0
  6
Continuous
 62
     7
370
    15
100
AcDbLine
 10
181.8038057849
 20
113.0541171991
 30
0.0
 11
183.4560389835
 21
116.0988052714
 31
0.0
  0
LINE
  5
75
330
1F
100
AcDbEntity
  8
0
  6
Continuous
 62
     7
370
    15
100
AcDbLine
 10
133.7166996014
 20
132.9955853123
 30
0.0
 11
143.3747667699
 21
132.9955853123
 31
0.0
  0
LINE
  5
76
330
1F
100
AcDbEntity
  8
0
  6
Continuous
 62
     7
370
    15
100
AcDbLine
 10
143.3747667699
 20
82.9586676161
 30
0.0
 11
143.3747667699
 21
132.9955853123
 31
0.0
  0
LINE
  5
77
330
1F
100
AcDbEntity
  8
0
  6
Continuous
 62
     7
370
    15
100
AcDbLine
 10
143.3747667699
 20
82.9586676161
 30
0.0
 11
141.7166996014
 21
82.9586676161
 31
0.0
  0
SPLINE
  5
78
330
1F
100
AcDbEntity
  8
0
  6
Continuous
 62
     7
370
    15
100
AcDbSpline
210
0.0
220
0.0
230
1.0
 70
     8
 71
     3
 72
    28
 73
    24
 74
     0
 42
0.00000001
 43
0.00000001
 40
0.0
 40
0.0
 40
0.0
 40
0.0
 40
0.1250000000000001
 40
0.1250000000000001
 40
0.1875000000000001
 40
0.1875000000000001
 40
0.2500000000000001
 40
0.2500000000000001
 40
0.3749999999999999
 40
0.3749999999999999
 40
0.4375
 40
0.4375
 40
0.4999999999999999
 40
0.4999999999999999
 40
0.6249999999999999
 40
0.6249999999999999
 40
0.7499999999999997
 40
0.7499999999999997
 40
0.8124999999999998
 40
0.8124999999999998
 40
0.8749999999999998
 40
0.8749999999999998
 40
1.0
 40
1.0
 40
1.0
 40
1.0
 10
141.7166996013554
 20
82.95866761605657
 30
0.0
 10
141.1849918438625
 20
82.95866761605659
 30
0.0
 10
140.6627532785521
 20
82.94288290210636
 30
0.0
 10
139.8928827922772
 20
82.89788748803015
 30
0.0
 10
139.6385232200858
 20
82.87933249295443
 30
0.0
 10
139.1344016393873
 20
82.83547977050792
 30
0.0
 10
138.8846788219594
 20
82.81013516355571
 30
0.0
 10
138.159088870513
 20
82.7267330858056
 30
0.0
 10
137.7007286089314
 20
82.66086752665453
 30
0.0
 10
137.0502306655375
 20
82.55189718616273
 30
0.0
 10
136.8385486147451
 20
82.51365755039608
 30
0.0
 10
136.4344771256071
 20
82.43589881297672
 30
0.0
 10
136.2419706117862
 20
82.39639785080138
 30
0.0
 10
135.6921356407649
 20
82.27749010843539
 30
0.0
 10
135.3622068624561
 20
82.19767242701077
 30
0.0
 10
134.7777355938875
 20
82.04432926521471
 30
0.0
 10
134.531458455874
 20
81.97299551194546
 30
0.0
 10
134.2316156631759
 20
81.87905200487083
 30
0.0
 10
134.1431588061038
 20
81.8498582115109
 30
0.0
 10
133.9897974527986
 20
81.7963916372475
 30
0.0
 10
133.9247092385724
 20
81.7720323029723
 30
0.0
 10
133.7691152226316
 20
81.70844215752757
 30
0.0
 10
133.7166996013554
 20
81.67833922243832
 30
0.0
 10
133.7166996013554
 20
81.6614623294414
 30
0.0
  0
LINE
  5
79
330
1F
100
AcDbEntity
  8
0
  6
Continuous
 62
     7
370
    15
100
AcDbLine
 10
133.7166996014
 20
81.6614623294
 30
0.0
 11
133.7166996014
 21
81.6455853123
 31
0.0
  0
SPLINE
  5
7A
330
1F
100
AcDbEntity
  8
0
  6
Continuous
 62
     7
370
    15
100
AcDbSpline
210
0.0
220
0.0
230
1.0
 70
     8
 71
     3
 72
    22
 73
    18
 74
     0
 42
0.00000001
 43
0.00000001
 40
0.0
 40
0.0
 40
0.0
 40
0.0
 40
0.0515773377536172
 40
0.1565264849943629
 40
0.2100197540385886
 40
0.2615951369298746
 40
0.3664424119934943
 40
0.4198226601719804
 40
0.4724528789006786
 40
0.5794488992297344
 40
0.6339397336480286
 40
0.6872670452602943
 40
0.7409741315029978
 40
0.7958968813361827
 40
0.8512481408256359
 40
0.9034470736265863
 40
1.0
 40
1.0
 40
1.0
 40
1.0
 10
141.7166996013554
 20
143.612780785468
 30
0.0
 10
141.499889405353
 20
143.6141774065365
 30
0.0
 10
140.8419155864382
 20
143.6184158607927
 30
0.0
 10
139.9668206091073
 20
143.657948185147
 30
0.0
 10
139.1219951142504
 20
143.7209214319889
 30
0.0
 10
138.3022698306462
 20
143.7989354652441
 30
0.0
 10
137.5264798526178
 20
143.8958185931192
 30
0.0
 10
136.8089913913113
 20
144.0040780050352
 30
0.0
 10
136.1297266441393
 20
144.1177963773397
 30
0.0
 10
135.5214116662303
 20
144.2342965622804
 30
0.0
 10
135.0013197255071
 20
144.3433968136975
 30
0.0
 10
134.657429547791
 20
144.4194007114275
 30
0.0
 10
134.3624758200635
 20
144.4874341673492
 30
0.0
 10
134.1167015327223
 20
144.5461472181077
 30
0.0
 10
133.9307992237489
 20
144.5917625980414
 30
0.0
 10
133.7592026180251
 20
144.6347220496019
 30
0.0
 10
133.7390733428489
 20
144.639883071404
 30
0.0
 10
133.7260076881752
 20
144.6432330245463
 30
0.0
  0
LINE
  5
7B
330
1F
100
AcDbEntity
  8
0
  6
Continuous
 62
     7
370
    15
100
AcDbLine
 10
143.3747667699
 20
143.6127807855
 30
0.0
 11
141.7166996014
 21
143.6127807855
 31
0.0
  0
LINE
  5
7C
330
1F
100
AcDbEntity
  8
0
  6
Continuous
 62
     7
370
    15
100
AcDbLine
 10
143.3747667699
 20
137.6042749747
 30
0.0
 11
143.3747667699
 21
143.6127807855
 31
0.0
  0
LINE
  5
7D
330
1F
100
AcDbEntity
  8
0
  6
Continuous
 62
     7
370
    15
100
AcDbLine
 10
140.962319947
 20
137.6042749747
 30
0.0
 11
143.3747667699
 21
137.6042749747
 31
0.0
  0
SPLINE
  5
7E
330
1F
100
AcDbEntity
  8
0
  6
Continuous
 62
     7
370
    15
100
AcDbSpline
210
0.0
220
0.0
230
1.0
 70
     8
 71
     3
 72
    20
 73
    16
 74
     0
 42
0.00000001
 43
0.00000001
 40
0.0
 40
0.0
 40
0.0
 40
0.0
 40
0.2499999999999997
 40
0.2499999999999997
 40
0.3749999999999997
 40
0.3749999999999997
 40
0.4999999999999998
 40
0.4999999999999998
 40
0.6249999999999998
 40
0.6249999999999998
 40
0.7499999999999999
 40
0.7499999999999999
 40
0.8749999999999999
 40
0.8749999999999999
 40
1.0
 40
1.0
 40
1.0
 40
1.0
 10
133.7166996013554
 20
132.9955853123037
 30
0.0
 10
133.9650733356435
 20
133.6494477406011
 30
0.0
 10
134.2846434279887
 20
134.2532335225983
 30
0.0
 10
134.9069496611934
 20
135.0800722587669
 30
0.0
 10
135.1383739216242
 20
135.3425008967198
 30
0.0
 10
135.6595882612739
 20
135.8391635508248
 30
0.0
 10
135.946208743909
 20
136.0697504298463
 30
0.0
 10
136.5656934852166
 20
136.4863046544289
 30
0.0
 10
136.8999938647035
 20
136.6738024563965
 30
0.0
 10
137.6252543373283
 20
137.0051994340328
 30
0.0
 10
138.0071693947188
 20
137.1447034215281
 30
0.0
 10
138.8019575708905
 20
137.3701569289991
 30
0.0
 10
139.2161157650969
 20
137.4567830405427
 30
0.0
 10
140.0816621056783
 20
137.5747638293969
 30
0.0
 10
140.5195497206901
 20
137.6042749746712
 30
0.0
 10
140.9623199470447
 20
137.6042749746712
 30
0.0
  0
SPLINE
  5
7F
330
1F
100
AcDbEntity
  8
0
  6
Continuous
 62
     7
370
    15
100
AcDbSpline
210
0.0
220
0.0
230
1.0
 70
     8
 71
     3
 72
    70
 73
    66
 74
     0
 42
0.00000001
 43
0.00000001
 40
-0.0312500000000001
 40
-0.0312500000000001
 40
0.0
 40
0.0
 40
0.0312499999999999
 40
0.0312499999999999
 40
0.0624999999999998
 40
0.0624999999999998
 40
0.0937499999999997
 40
0.0937499999999997
 40
0.1249999999999996
 40
0.1249999999999996
 40
0.1562499999999994
 40
0.1562499999999994
 40
0.1874999999999993
 40
0.1874999999999993
 40
0.2187499999999992
 40
0.2187499999999992
 40
0.2499999999999991
 40
0.2499999999999991
 40
0.281249999999999
 40
0.281249999999999
 40
0.3124999999999989
 40
0.3124999999999989
 40
0.3437499999999988
 40
0.3437499999999988
 40
0.3749999999999987
 40
0.3749999999999987
 40
0.4062499999999986
 40
0.4062499999999986
 40
0.4374999999999984
 40
0.4374999999999984
 40
0.4687499999999983
 40
0.4687499999999983
 40
0.4999999999999982
 40
0.4999999999999982
 40
0.5312499999999983
 40
0.5312499999999983
 40
0.5624999999999984
 40
0.5624999999999984
 40
0.5937499999999986
 40
0.5937499999999986
 40
0.6249999999999987
 40
0.6249999999999987
 40
0.6562499999999988
 40
0.6562499999999988
 40
0.6874999999999989
 40
0.6874999999999989
 40
0.718749999999999
 40
0.718749999999999
 40
0.7499999999999991
 40
0.7499999999999991
 40
0.7812499999999992
 40
0.7812499999999992
 40
0.8124999999999993
 40
0.8124999999999993
 40
0.8437499999999994
 40
0.8437499999999994
 40
0.8749999999999996
 40
0.8749999999999996
 40
0.9062499999999997
 40
0.9062499999999997
 40
0.9374999999999998
 40
0.9374999999999998
 40
0.9687499999999999
 40
0.9687499999999999
 40
1.0
 40
1.0
 40
1.03125
 40
1.03125
 10
137.0312449400156
 20
123.7664921982871
 30
0.0
 10
136.5021542626953
 20
123.7664921982871
 30
0.0
 10
136.2420835953182
 20
123.7911694930723
 30
0.0
 10
135.7305089154828
 20
123.8876411661142
 30
0.0
 10
135.4763336317426
 20
123.9606220820942
 30
0.0
 10
134.9920630016809
 20
124.1503626850329
 30
0.0
 10
134.7624219097997
 20
124.2662233434266
 30
0.0
 10
134.3278175615662
 20
124.5388411893843
 30
0.0
 10
134.1222517849196
 20
124.6968802714381
 30
0.0
 10
133.7536946443244
 20
125.0404231224087
 30
0.0
 10
133.5882136615889
 20
125.2271855665104
 30
0.0
 10
133.2957891521538
 20
125.6307287409072
 30
0.0
 10
133.1716881755273
 20
125.8442257373364
 30
0.0
 10
132.9721089787776
 20
126.2836090512588
 30
0.0
 10
132.8951753929193
 20
126.5127490384045
 30
0.0
 10
132.7923183343989
 20
126.9787231611645
 30
0.0
 10
132.7668454249398
 20
127.2116056068407
 30
0.0
 10
132.766555014372
 20
127.6770031419205
 30
0.0
 10
132.7925796481478
 20
127.9118788993148
 30
0.0
 10
132.8947279326398
 20
128.3633720465611
 30
0.0
 10
132.9703043802229
 20
128.5814185219725
 30
0.0
 10
133.1708019113678
 20
129.0025130470103
 30
0.0
 10
133.2959307528762
 20
129.2044344315286
 30
0.0
 10
133.5852895538978
 20
129.5764639140475
 30
0.0
 10
133.7507005409533
 20
129.7490922176278
 30
0.0
 10
134.1236910991011
 20
130.0664102221739
 30
0.0
 10
134.3254241321902
 20
130.2061971556755
 30
0.0
 10
134.7582833830181
 20
130.4503734092273
 30
0.0
 10
134.9922019159075
 20
130.5556029202688
 30
0.0
 10
135.4763856510501
 20
130.7237600666439
 30
0.0
 10
135.7257012770056
 20
130.7870109572378
 30
0.0
 10
136.2387338014333
 20
130.8725901663404
 30
0.0
 10
136.5040276243379
 20
130.8944623312628
 30
0.0
 10
137.0263622442077
 20
130.8946259809067
 30
0.0
 10
137.2861159066894
 20
130.8736242888107
 30
0.0
 10
137.8027277223347
 20
130.7882219337331
 30
0.0
 10
138.055093762835
 20
130.7242157504461
 30
0.0
 10
138.5366188843678
 20
130.5574012304049
 30
0.0
 10
138.7694696164813
 20
130.4532680670058
 30
0.0
 10
139.2065594649201
 20
130.2072814145108
 30
0.0
 10
139.4078804535773
 20
130.067531583562
 30
0.0
 10
139.7769664788772
 20
129.7543935138374
 30
0.0
 10
139.9459512299289
 20
129.5789373545673
 30
0.0
 10
140.2364072865881
 20
129.206097090467
 30
0.0
 10
140.3594790979502
 20
129.0079752803561
 30
0.0
 10
140.5608153393722
 20
128.5872639376225
 30
0.0
 10
140.6380278853145
 20
128.3652739169549
 30
0.0
 10
140.7402314282145
 20
127.9154089772465
 30
0.0
 10
140.7664597796668
 20
127.6851535641298
 30
0.0
 10
140.7669361789839
 20
127.2138376215807
 30
0.0
 10
140.741193766486
 20
126.9806002058666
 30
0.0
 10
140.6398829901221
 20
126.5189236663685
 30
0.0
 10
140.5630503507312
 20
126.2880262792564
 30
0.0
 10
140.362646511516
 20
125.8457502654647
 30
0.0
 10
140.239975013224
 20
125.6346878341788
 30
0.0
 10
139.9500277240597
 20
125.2331893234462
 30
0.0
 10
139.7814567446945
 20
125.0422828013702
 30
0.0
 10
139.4131871505813
 20
124.6985574693731
 30
0.0
 10
139.212125293311
 20
124.5434202831591
 30
0.0
 10
138.7750943747261
 20
124.2683429230793
 30
0.0
 10
138.5429461615965
 20
124.1512266936573
 30
0.0
 10
138.0619358800976
 20
123.9623002085928
 30
0.0
 10
137.8098357972672
 20
123.8892252381985
 30
0.0
 10
137.2927663110082
 20
123.791173179064
 30
0.0
 10
137.0312449400156
 20
123.7664921982871
 30
0.0
 10
136.5021542626953
 20
123.7664921982871
 30
0.0
  0
SPLINE
  5
80
330
1F
100
AcDbEntity
  8
0
  6
Continuous
 62
     7
370
    15
100
AcDbSpline
210
0.0
220
0.0
230
1.0
 70
     8
 71
     3
 72
    70
 73
    66
 74
     0
 42
0.00000001
 43
0.00000001
 40
-0.0312499999999999
 40
-0.0312499999999999
 40
0.0
 40
0.0
 40
0.0312499999999999
 40
0.0312499999999999
 40
0.0624999999999998
 40
0.0624999999999998
 40
0.0937499999999997
 40
0.0937499999999997
 40
0.1249999999999996
 40
0.1249999999999996
 40
0.1562499999999995
 40
0.1562499999999995
 40
0.1874999999999994
 40
0.1874999999999994
 40
0.2187499999999993
 40
0.2187499999999993
 40
0.2499999999999992
 40
0.2499999999999992
 40
0.2812499999999993
 40
0.2812499999999993
 40
0.3124999999999993
 40
0.3124999999999993
 40
0.3437499999999994
 40
0.3437499999999994
 40
0.3749999999999995
 40
0.3749999999999995
 40
0.4062499999999996
 40
0.4062499999999996
 40
0.4374999999999996
 40
0.4374999999999996
 40
0.4687499999999997
 40
0.4687499999999997
 40
0.4999999999999998
 40
0.4999999999999998
 40
0.5312499999999999
 40
0.5312499999999999
 40
0.5625
 40
0.5625
 40
0.5937500000000001
 40
0.5937500000000001
 40
0.6250000000000002
 40
0.6250000000000002
 40
0.6562500000000004
 40
0.6562500000000004
 40
0.6875000000000006
 40
0.6875000000000006
 40
0.7187500000000007
 40
0.7187500000000007
 40
0.7500000000000008
 40
0.7500000000000008
 40
0.7812500000000007
 40
0.7812500000000007
 40
0.8125000000000006
 40
0.8125000000000006
 40
0.8437500000000004
 40
0.8437500000000004
 40
0.8750000000000003
 40
0.8750000000000003
 40
0.9062500000000003
 40
0.9062500000000003
 40
0.9375000000000002
 40
0.9375000000000002
 40
0.9687500000000001
 40
0.9687500000000001
 40
1.0
 40
1.0
 40
1.03125
 40
1.03125
 10
137.0312449400156
 20
138.2045487070829
 30
0.0
 10
136.5021542626953
 20
138.2045487070829
 30
0.0
 10
136.2420835953182
 20
138.2204491474977
 30
0.0
 10
135.7305089154827
 20
138.282393497672
 30
0.0
 10
135.4763336317426
 20
138.3291957317632
 30
0.0
 10
134.9920630016809
 20
138.4501727152183
 30
0.0
 10
134.7624219097997
 20
138.5237750430252
 30
0.0
 10
134.3278175615662
 20
138.6955993140033
 30
0.0
 10
134.1222517849196
 20
138.7946027369307
 30
0.0
 10
133.7536946443244
 20
139.0076991508435
 30
0.0
 10
133.5882136615889
 20
139.1225988669732
 30
0.0
 10
133.2957891521538
 20
139.3679657656635
 30
0.0
 10
133.1716881755273
 20
139.4964056661338
 30
0.0
 10
132.9721089787776
 20
139.7572978142198
 30
0.0
 10
132.8951753929193
 20
139.8916789855592
 30
0.0
 10
132.7923183343989
 20
140.1609989366655
 30
0.0
 10
132.7668454249398
 20
140.2936802008836
 30
0.0
 10
132.766555014372
 20
140.5548666750147
 30
0.0
 10
132.7925796481478
 20
140.6846317131794
 30
0.0
 10
132.8947279326398
 20
140.9302143474521
 30
0.0
 10
132.9703043802229
 20
141.0468758847609
 30
0.0
 10
133.1708019113678
 20
141.2687810749155
 30
0.0
 10
133.2959307528762
 20
141.3733923288385
 30
0.0
 10
133.5852895538978
 20
141.5634387404465
 30
0.0
 10
133.7507005409533
 20
141.6501984118962
 30
0.0
 10
134.1236910991011
 20
141.8077027876478
 30
0.0
 10
134.3254241321902
 20
141.876028052435
 30
0.0
 10
134.7582833830181
 20
141.9942577760542
 30
0.0
 10
134.9922019159074
 20
142.044552692158
 30
0.0
 10
135.4763856510501
 20
142.1244182290477
 30
0.0
 10
135.7257012770056
 20
142.1541593568473
 30
0.0
 10
136.2387338014333
 20
142.1943120983555
 30
0.0
 10
136.5040276243379
 20
142.2045103677654
 30
0.0
 10
137.0263622442077
 20
142.2045868261501
 30
0.0
 10
137.2861159066894
 20
142.194795814541
 30
0.0
 10
137.8027277223347
 20
142.1547289758022
 30
0.0
 10
138.0550937628349
 20
142.1246318089455
 30
0.0
 10
138.5366188843678
 20
142.0454095991152
 30
0.0
 10
138.7694696164813
 20
141.9956521196519
 30
0.0
 10
139.2065594649201
 20
141.8765601772015
 30
0.0
 10
139.4078804535773
 20
141.8082449156542
 30
0.0
 10
139.7769664788772
 20
141.6528439487207
 30
0.0
 10
139.9459512299289
 20
141.5646916066538
 30
0.0
 10
140.2364072865881
 20
141.3742522175374
 30
0.0
 10
140.3594790979502
 20
141.2716276398383
 30
0.0
 10
140.5608153393722
 20
141.0499872932302
 30
0.0
 10
140.6380278853145
 20
140.9312332176827
 30
0.0
 10
140.7402314282145
 20
140.686567278765
 30
0.0
 10
140.7664597796668
 20
140.5594105533165
 30
0.0
 10
140.7669361789839
 20
140.294962407461
 30
0.0
 10
140.741193766486
 20
140.1620617272038
 30
0.0
 10
140.6398829901221
 20
139.8952694537217
 30
0.0
 10
140.5630503507312
 20
139.7599055522532
 30
0.0
 10
140.362646511516
 20
139.4973257569506
 30
0.0
 10
140.239975013224
 20
139.3703505971968
 30
0.0
 10
139.9500277240597
 20
139.1262712111144
 30
0.0
 10
139.7814567446945
 20
139.0088460863606
 30
0.0
 10
139.4131871505813
 20
138.7956496254121
 30
0.0
 10
139.212125293311
 20
138.6984755069873
 30
0.0
 10
138.7750943747261
 20
138.5251206197731
 30
0.0
 10
138.5429461615965
 20
138.4507210681164
 30
0.0
 10
138.0619358800976
 20
138.3302681886117
 30
0.0
 10
137.8098357972672
 20
138.2834098133457
 30
0.0
 10
137.2927663110082
 20
138.220452316362
 30
0.0
 10
137.0312449400156
 20
138.2045487070829
 30
0.0
 10
136.5021542626953
 20
138.2045487070829
 30
0.0
  0
LINE
  5
81
330
1F
100
AcDbEntity
  8
0
  6
Continuous
 62
     7
370
    15
100
AcDbLine
 10
154.1166996014
 20
82.9586676161
 30
0.0
 11
150.1586324328
 21
82.9586676161
 31
0.0
  0
LINE
  5
82
330
1F
100
AcDbEntity
  8
0
  6
Continuous
 62
     7
370
    15
100
AcDbLine
 10
150.1586324328
 20
82.9586676161
 30
0.0
 11
150.1586324328
 21
132.9955853123
 31
0.0
  0
LINE
  5
83
330
1F
100
AcDbEntity
  8
0
  6
Continuous
 62
     7
370
    15
100
AcDbLine
 10
150.1586324328
 20
132.9955853123
 30
0.0
 11
154.1166996014
 21
132.9955853123
 31
0.0
  0
LINE
  5
84
330
1F
100
AcDbEntity
  8
0
  6
Continuous
 62
     7
370
    15
100
AcDbLine
 10
144.8566996014
 20
85.6477481532
 30
0.0
 11
144.8566996014
 21
132.9955853123
 31
0.0
  0
SPLINE
  5
85
330
1F
100
AcDbEntity
  8
0
  6
Continuous
 62
     7
370
    15
100
AcDbSpline
210
0.0
220
0.0
230
1.0
 70
     8
 71
     3
 72
     8
 73
     4
 74
     0
 42
0.00000001
 43
0.00000001
 40
0.0
 40
0.0
 40
0.0
 40
0.0
 40
1.0
 40
1.0
 40
1.0
 40
1.0
 10
144.8566996013554
 20
85.64774815324887
 30
0.0
 10
144.3643604785742
 20
84.75047811904217
 30
0.0
 10
143.8702464305321
 20
83.85419370398992
 30
0.0
 10
143.3747667698663
 20
82.95866761605657
 30
0.0
  0
SPLINE
  5
86
330
1F
100
AcDbEntity
  8
0
  6
Continuous
 62
     7
370
    15
100
AcDbSpline
210
0.0
220
0.0
230
1.0
 70
    24
 71
     3
 72
     8
 73
     4
 74
     0
 42
0.00000001
 43
0.00000001
 40
0.0
 40
0.0
 40
0.0
 40
0.0
 40
1.0
 40
1.0
 40
1.0
 40
1.0
 10
143.3747667698663
 20
132.9955853123037
 30
0.0
 10
143.8814468780169
 20
132.9955853123037
 30
0.0
 10
144.3767476069905
 20
132.9955853123037
 30
0.0
 10
144.8566996013554
 20
132.9955853123037
 30
0.0
  0
LINE
  5
87
330
1F
100
AcDbEntity
  8
0
  6
Continuous
 62
     7
370
    15
100
AcDbLine
 10
128.7666996014
 20
81.9455853123
 30
0.0
 11
128.7666996014
 21
144.3455853063
 31
0.0
  0
LINE
  5
88
330
1F
100
AcDbEntity
  8
0
  6
Continuous
 62
     7
370
    15
100
AcDbLine
 10
154.7166996014
 20
83.5853079117
 30
0.0
 11
154.7166996014
 21
132.9955853123
 31
0.0
  0
SPLINE
  5
89
330
1F
100
AcDbEntity
  8
0
  6
Continuous
 62
     7
370
    15
100
AcDbSpline
210
0.0
220
0.0
230
1.0
 70
     8
 71
     3
 72
    10
 73
     6
 74
     0
 42
0.00000001
 43
0.00000001
 40
0.0
 40
0.0
 40
0.0
 40
0.0
 40
0.5
 40
0.5
 40
1.0
 40
1.0
 40
1.0
 40
1.0
 10
154.7166996013554
 20
83.58530791171088
 30
0.0
 10
154.7166996013554
 20
83.42542064351723
 30
0.0
 10
154.6553899501196
 20
83.26429338800261
 30
0.0
 10
154.4362903125845
 20
83.03019438964779
 30
0.0
 10
154.278242106271
 20
82.95866761605657
 30
0.0
 10
154.1166996013554
 20
82.95866761605657
 30
0.0
  0
SPLINE
  5
8A
330
1F
100
AcDbEntity
  8
0
  6
Continuous
 62
     7
370
    15
100
AcDbSpline
210
0.0
220
0.0
230
1.0
 70
    24
 71
     3
 72
    12
 73
     8
 74
     0
 42
0.00000001
 43
0.00000001
 40
0.0
 40
0.0
 40
0.0
 40
0.0
 40
0.2500000000000033
 40
0.2500000000000033
 40
0.5000000000000067
 40
0.5000000000000067
 40
1.0
 40
1.0
 40
1.0
 40
1.0
 10
154.1166996013554
 20
132.9955853123037
 30
0.0
 10
154.2069386690424
 20
132.9955853123037
 30
0.0
 10
154.297836783149
 20
132.9955853123037
 30
0.0
 10
154.4524338196375
 20
132.9955853123037
 30
0.0
 10
154.5174122357456
 20
132.9955853123037
 30
0.0
 10
154.6692472636818
 20
132.9955853123037
 30
0.0
 10
154.7166996013554
 20
132.9955853123037
 30
0.0
 10
154.7166996013554
 20
132.9955853123037
 30
0.0
  0
SPLINE
  5
8B
330
1F
100
AcDbEntity
  8
0
  6
Continuous
 62
     7
370
    15
100
AcDbSpline
210
0.0
220
0.0
230
1.0
 70
     8
 71
     3
 72
     8
 73
     4
 74
     0
 42
0.00000001
 43
0.00000001
 40
0.0
 40
0.0
 40
0.0
 40
0.0
 40
1.0
 40
1.0
 40
1.0
 40
1.0
 10
150.1586324328445
 20
82.95866761605657
 30
0.0
 10
149.6631527721787
 20
83.85419370398994
 30
0.0
 10
149.1690387241366
 20
84.75047811904219
 30
0.0
 10
148.6766996013554
 20
85.64774815324888
 30
0.0
  0
LINE
  5
8C
330
1F
100
AcDbEntity
  8
0
  6
Continuous
 62
     7
370
    15
100
AcDbLine
 10
148.6766996014
 20
85.6477481532
 30
0.0
 11
148.6766996014
 21
132.9955853123
 31
0.0
  0
SPLINE
  5
8D
330
1F
100
AcDbEntity
  8
0
  6
Continuous
 62
     7
370
    15
100
AcDbSpline
210
0.0
220
0.0
230
1.0
 70
    24
 71
     3
 72
     8
 73
     4
 74
     0
 42
0.00000001
 43
0.00000001
 40
0.0
 40
0.0
 40
0.0
 40
0.0
 40
1.0
 40
1.0
 40
1.0
 40
1.0
 10
148.6766996013554
 20
132.9955853123037
 30
0.0
 10
149.1566515957203
 20
132.9955853123037
 30
0.0
 10
149.651952324694
 20
132.9955853123037
 30
0.0
 10
150.1586324328445
 20
132.9955853123037
 30
0.0
  0
ARC
  5
8E
330
1F
100
AcDbEntity
  8
0
  6
Continuous
 62
     7
370
    15
100
AcDbCircle
 10
136.7675359746
 20
125.0420332385
 30
0.0
 40
4.117392050589242
100
AcDbArc
 50
20.6101700589
 51
159.7676371835
  0
SPLINE
  5
8F
330
1F
100
AcDbEntity
  8
0
  6
Continuous
 62
     7
370
    15
100
AcDbSpline
210
0.0
220
0.0
230
1.0
 70
     8
 71
     3
 72
    10
 73
     6
 74
     0
 42
0.00000001
 43
0.00000001
 40
0.0
 40
0.0
 40
0.0
 40
0.0
 40
0.5
 40
0.5
 40
1.0
 40
1.0
 40
1.0
 40
1.0
 10
145.2509971330464
 20
139.5455853123037
 30
0.0
 10
145.1294568693779
 20
139.6203114795155
 30
0.0
 10
145.0281225090289
 20
139.7292564954323
 30
0.0
 10
144.8924835661405
 20
139.9796869761939
 30
0.0
 10
144.8566996013554
 20
140.1221063382928
 30
0.0
 10
144.8566996013554
 20
140.2652391633395
 30
0.0
  0
SPLINE
  5
90
330
1F
100
AcDbEntity
  8
0
  6
Continuous
 62
     7
370
    15
100
AcDbSpline
210
0.0
220
0.0
230
1.0
 70
    24
 71
     3
 72
    12
 73
     8
 74
     0
 42
0.00000001
 43
0.00000001
 40
0.0
 40
0.0
 40
0.0
 40
0.0
 40
0.2500000000000037
 40
0.2500000000000037
 40
0.5000000000000074
 40
0.5000000000000074
 40
1.0
 40
1.0
 40
1.0
 40
1.0
 10
145.6566996013554
 20
139.5455853123037
 30
0.0
 10
145.606822919038
 20
139.5455853123037
 30
0.0
 10
145.5588197256344
 20
139.5455853123037
 30
0.0
 10
145.4757716229224
 20
139.5455853123037
 30
0.0
 10
145.4396420434545
 20
139.5455853123037
 30
0.0
 10
145.3437300125103
 20
139.5455853123037
 30
0.0
 10
145.2939713445415
 20
139.5455853123037
 30
0.0
 10
145.2509971330464
 20
139.5455853123037
 30
0.0
  0
SPLINE
  5
91
330
1F
100
AcDbEntity
  8
0
  6
Continuous
 62
     7
370
    15
100
AcDbSpline
210
0.0
220
0.0
230
1.0
 70
    24
 71
     3
 72
    14
 73
    10
 74
     0
 42
0.00000001
 43
0.00000001
 40
0.0
 40
0.0
 40
0.0
 40
0.0
 40
0.1249999999999991
 40
0.1249999999999991
 40
0.2499999999999982
 40
0.2499999999999982
 40
0.4999999999999998
 40
0.4999999999999998
 40
1.0
 40
1.0
 40
1.0
 40
1.0
 10
145.6566996013554
 20
86.74558531230373
 30
0.0
 10
145.5882617534689
 20
86.74558531230373
 30
0.0
 10
145.5227117147039
 20
86.74558531230373
 30
0.0
 10
145.418285075296
 20
86.74558531230373
 30
0.0
 10
145.3757404655345
 20
86.74558531230373
 30
0.0
 10
145.2631310049943
 20
86.74558531230373
 30
0.0
 10
145.2075919579748
 20
86.74558531230373
 30
0.0
 10
145.064980262511
 20
86.74558531230373
 30
0.0
 10
145.0015749075152
 20
86.74558531230373
 30
0.0
 10
144.9543744036877
 20
86.74558531230373
 30
0.0
  0
SPLINE
  5
92
330
1F
100
AcDbEntity
  8
0
  6
Continuous
 62
     7
370
    15
100
AcDbSpline
210
0.0
220
0.0
230
1.0
 70
     8
 71
     3
 72
    10
 73
     6
 74
     0
 42
0.00000001
 43
0.00000001
 40
0.0
 40
0.0
 40
0.0
 40
0.0
 40
0.5
 40
0.5
 40
1.0
 40
1.0
 40
1.0
 40
1.0
 10
144.8566996013554
 20
133.2814519437651
 30
0.0
 10
144.8566996013554
 20
133.2336804357718
 30
0.0
 10
144.8588608449526
 20
133.1859707137101
 30
0.0
 10
144.8675322188127
 20
133.0906755961619
 30
0.0
 10
144.8740614017687
 20
133.0429830321952
 30
0.0
 10
144.8828472245156
 20
132.9955853123037
 30
0.0
  0
SPLINE
  5
93
330
1F
100
AcDbEntity
  8
0
  6
Continuous
 62
     7
370
    15
100
AcDbSpline
210
0.0
220
0.0
230
1.0
 70
    24
 71
     3
 72
    14
 73
    10
 74
     0
 42
0.00000001
 43
0.00000001
 40
0.0
 40
0.0
 40
0.0
 40
0.0
 40
0.5000000000000013
 40
0.5000000000000013
 40
0.750000000000002
 40
0.750000000000002
 40
0.875000000000001
 40
0.875000000000001
 40
1.0
 40
1.0
 40
1.0
 40
1.0
 10
148.5790247990231
 20
86.74558531230373
 30
0.0
 10
148.5322400939749
 20
86.74558531230373
 30
0.0
 10
148.4701888971953
 20
86.74558531230373
 30
0.0
 10
148.3267972586447
 20
86.74558531230373
 30
0.0
 10
148.2706536050935
 20
86.74558531230373
 30
0.0
 10
148.1577025829573
 20
86.74558531230373
 30
0.0
 10
148.1147018209192
 20
86.74558531230373
 30
0.0
 10
148.0106391106127
 20
86.74558531230373
 30
0.0
 10
147.9453068722558
 20
86.74558531230373
 30
0.0
 10
147.8766996013554
 20
86.74558531230373
 30
0.0
  0
SPLINE
  5
94
330
1F
100
AcDbEntity
  8
0
  6
Continuous
 62
     7
370
    15
100
AcDbSpline
210
0.0
220
0.0
230
1.0
 70
    24
 71
     3
 72
    12
 73
     8
 74
     0
 42
0.00000001
 43
0.00000001
 40
0.0
 40
0.0
 40
0.0
 40
0.0
 40
0.5000000000000017
 40
0.5000000000000017
 40
0.7500000000000008
 40
0.7500000000000008
 40
1.0
 40
1.0
 40
1.0
 40
1.0
 10
148.2824020696644
 20
139.5455853123037
 30
0.0
 10
148.2393165200535
 20
139.5455853123037
 30
0.0
 10
148.1901643183042
 20
139.5455853123037
 30
0.0
 10
148.0936917240163
 20
139.5455853123037
 30
0.0
 10
148.0575901388817
 20
139.5455853123037
 30
0.0
 10
147.9744843810204
 20
139.5455853123037
 30
0.0
 10
147.9264877840541
 20
139.5455853123037
 30
0.0
 10
147.8766996013554
 20
139.5455853123037
 30
0.0
  0
SPLINE
  5
95
330
1F
100
AcDbEntity
  8
0
  6
Continuous
 62
     7
370
    15
100
AcDbSpline
210
0.0
220
0.0
230
1.0
 70
     8
 71
     3
 72
    10
 73
     6
 74
     0
 42
0.00000001
 43
0.00000001
 40
0.0
 40
0.0
 40
0.0
 40
0.0
 40
0.5
 40
0.5
 40
1.0
 40
1.0
 40
1.0
 40
1.0
 10
148.6766996013554
 20
140.2652391633395
 30
0.0
 10
148.6766996013554
 20
140.1214691055215
 30
0.0
 10
148.6406505426365
 20
139.9790497430263
 30
0.0
 10
148.5051416818625
 20
139.7291554496691
 30
0.0
 10
148.4052656887663
 20
139.6211251134209
 30
0.0
 10
148.2824020696644
 20
139.5455853123037
 30
0.0
  0
SPLINE
  5
96
330
1F
100
AcDbEntity
  8
0
  6
Continuous
 62
     7
370
    15
100
AcDbSpline
210
0.0
220
0.0
230
1.0
 70
     8
 71
     3
 72
    10
 73
     6
 74
     0
 42
0.00000001
 43
0.00000001
 40
0.0
 40
0.0
 40
0.0
 40
0.0
 40
0.5
 40
0.5
 40
1.0
 40
1.0
 40
1.0
 40
1.0
 10
148.6505519781953
 20
132.9955853123037
 30
0.0
 10
148.6592416211069
 20
133.0424641616219
 30
0.0
 10
148.6657806858574
 20
133.0898866270231
 30
0.0
 10
148.6745393202505
 20
133.1858234256099
 30
0.0
 10
148.6766996013554
 20
133.2337387136204
 30
0.0
 10
148.6766996013554
 20
133.2814519437649
 30
0.0
  0
LINE
  5
97
330
1F
100
AcDbEntity
  8
0
  6
Continuous
 62
     7
370
    15
100
AcDbLine
 10
147.8766996014
 20
139.5455853123
 30
0.0
 11
145.6566996014
 21
139.5455853123
 31
0.0
  0
LINE
  5
98
330
1F
100
AcDbEntity
  8
0
  6
Continuous
 62
     7
370
    15
100
AcDbLine
 10
147.8766996014
 20
86.7455853123
 30
0.0
 11
145.6566996014
 21
86.7455853123
 31
0.0
  0
LINE
  5
99
330
1F
100
AcDbEntity
  8
0
  6
Continuous
 62
     7
370
    15
100
AcDbLine
 10
126.7666996014
 20
88.9251544506
 30
0.0
 11
126.7666996014
 21
137.366016174
 31
0.0
  0
LINE
  5
9A
330
1F
100
AcDbEntity
  8
0
  6
Continuous
 62
     7
370
    15
100
AcDbLine
 10
106.9666996014
 20
89.9171384185
 30
0.0
 11
106.9666996014
 21
91.1818477811
 31
0.0
  0
SPLINE
  5
9B
330
1F
100
AcDbEntity
  8
0
  6
Continuous
 62
     7
370
    15
100
AcDbSpline
210
0.0
220
0.0
230
1.0
 70
     8
 71
     3
 72
    14
 73
    10
 74
     0
 42
0.00000001
 43
0.00000001
 40
0.0
 40
0.0
 40
0.0
 40
0.0
 40
0.25
 40
0.25
 40
0.5
 40
0.5
 40
0.75
 40
0.75
 40
1.0
 40
1.0
 40
1.0
 40
1.0
 10
106.1884124834397
 20
92.31243398874378
 30
0.0
 10
106.2450391586418
 20
92.20473653490691
 30
0.0
 10
106.3395618189315
 20
92.1019469531876
 30
0.0
 10
106.5226067944937
 20
91.90358964096745
 30
0.0
 10
106.6142333714485
 20
91.8075301322892
 30
0.0
 10
106.7730866891417
 20
91.62000108957996
 30
0.0
 10
106.8409772967634
 20
91.5285921167964
 30
0.0
 10
106.9378943224709
 20
91.35021589588625
 30
0.0
 10
106.966699601356
 20
91.26299398964008
 30
0.0
 10
106.966699601356
 20
91.18184778110583
 30
0.0
  0
SPLINE
  5
9C
330
1F
100
AcDbEntity
  8
0
  6
Continuous
 62
     7
370
    15
100
AcDbSpline
210
0.0
220
0.0
230
1.0
 70
     8
 71
     3
 72
    14
 73
    10
 74
     0
 42
0.00000001
 43
0.00000001
 40
0.0
 40
0.0
 40
0.0
 40
0.0
 40
0.1249999999999975
 40
0.1249999999999975
 40
0.249999999999995
 40
0.249999999999995
 40
0.4999999999999953
 40
0.4999999999999953
 40
1.0
 40
1.0
 40
1.0
 40
1.0
 10
105.5666996013554
 20
92.7591158510231
 30
0.0
 10
105.6152440100126
 20
92.76486416430339
 30
0.0
 10
105.6681593647975
 20
92.76176327564716
 30
0.0
 10
105.7634547097805
 20
92.73956843148483
 30
0.0
 10
105.8037057070655
 20
92.72233620438897
 30
0.0
 10
105.9079757205785
 20
92.6660082879369
 30
0.0
 10
105.9582976957318
 20
92.6218219419911
 30
0.0
 10
106.0859806432572
 20
92.49081404314049
 30
0.0
 10
106.1420660903194
 20
92.40057952291018
 30
0.0
 10
106.1884124834412
 20
92.3124339887443
 30
0.0
  0
SPLINE
  5
9D
330
1F
100
AcDbEntity
  8
0
  6
Continuous
 62
     7
370
    15
100
AcDbSpline
210
0.0
220
0.0
230
1.0
 70
     8
 71
     3
 72
     8
 73
     4
 74
     0
 42
0.00000001
 43
0.00000001
 40
0.0
 40
0.0
 40
0.0
 40
0.0
 40
1.0
 40
1.0
 40
1.0
 40
1.0
 10
103.2981745084092
 20
92.44927056444031
 30
0.0
 10
104.0327515348922
 20
92.56789557550927
 30
0.0
 10
104.7962266042878
 20
92.66788144764554
 30
0.0
 10
105.5666996013554
 20
92.75911585102308
 30
0.0
  0
SPLINE
  5
9E
330
1F
100
AcDbEntity
  8
0
  6
Continuous
 62
     7
370
    15
100
AcDbSpline
210
0.0
220
0.0
230
1.0
 70
     8
 71
     3
 72
    14
 73
    10
 74
     0
 42
0.00000001
 43
0.00000001
 40
0.0
 40
0.0
 40
0.0
 40
0.0
 40
0.500000000000001
 40
0.500000000000001
 40
0.7500000000000004
 40
0.7500000000000004
 40
0.8750000000000003
 40
0.8750000000000003
 40
1.0
 40
1.0
 40
1.0
 40
1.0
 10
98.01669960135543
 20
92.27564754690866
 30
0.0
 10
98.908845731909
 20
92.27492532070801
 30
0.0
 10
99.7988221677026
 20
92.27951152716547
 30
0.0
 10
101.1254173347782
 20
92.30723653155701
 30
0.0
 10
101.5662642632769
 20
92.31984306918118
 30
0.0
 10
102.2227045006994
 20
92.35085921718864
 30
0.0
 10
102.4407181572912
 20
92.36320238981541
 30
0.0
 10
102.873427010974
 20
92.3962264449787
 30
0.0
 10
103.0887034761388
 20
92.41544361011712
 30
0.0
 10
103.2981745084092
 20
92.44927056444031
 30
0.0
  0
SPLINE
  5
9F
330
1F
100
AcDbEntity
  8
0
  6
Continuous
 62
     7
370
    15
100
AcDbSpline
210
0.0
220
0.0
230
1.0
 70
     8
 71
     3
 72
     8
 73
     4
 74
     0
 42
0.00000001
 43
0.00000001
 40
0.0000005163856998
 40
0.0000005163856998
 40
0.0000005163856998
 40
0.0000005163856998
 40
0.000026289209185
 40
0.000026289209185
 40
0.000026289209185
 40
0.000026289209185
 10
98.00665467094781
 20
92.28563142000544
 30
0.0
 10
98.00998240915565
 20
92.28229717313633
 30
0.0
 10
98.01333086213124
 20
92.27896921586101
 30
0.0
 10
98.0166996013554
 20
92.27564754690864
 30
0.0
  0
SPLINE
  5
A0
330
1F
100
AcDbEntity
  8
0
  6
Continuous
 62
     7
370
    15
100
AcDbSpline
210
0.0
220
0.0
230
1.0
 70
     8
 71
     3
 72
     8
 73
     4
 74
     0
 42
0.00000001
 43
0.00000001
 40
0.0000005099763573
 40
0.0000005099763573
 40
0.0000005099763573
 40
0.0000005099763573
 40
0.0000262827998699
 40
0.0000262827998699
 40
0.0000262827998699
 40
0.0000262827998699
 10
98.0166996013554
 20
134.0155230776988
 30
0.0
 10
98.01333086212766
 20
134.0122014087429
 30
0.0
 10
98.00998240914852
 20
134.0088734514641
 30
0.0
 10
98.00665467093718
 20
134.0055392045914
 30
0.0
  0
SPLINE
  5
A1
330
1F
100
AcDbEntity
  8
0
  6
Continuous
 62
     7
370
    15
100
AcDbSpline
210
0.0
220
0.0
230
1.0
 70
     8
 71
     3
 72
    10
 73
     6
 74
     0
 42
0.00000001
 43
0.00000001
 40
0.0
 40
0.0
 40
0.0
 40
0.0
 40
0.5
 40
0.5
 40
1.0
 40
1.0
 40
1.0
 40
1.0
 10
101.5666996013554
 20
133.9686727041315
 30
0.0
 10
100.9791140542648
 20
133.9897382243679
 30
0.0
 10
100.3883676608044
 20
134.0004967102401
 30
0.0
 10
99.2043484955056
 20
134.0138614907758
 30
0.0
 10
98.61093450730013
 20
134.0160041334404
 30
0.0
 10
98.01669960135543
 20
134.0155230776988
 30
0.0
  0
SPLINE
  5
A2
330
1F
100
AcDbEntity
  8
0
  6
Continuous
 62
     7
370
    15
100
AcDbSpline
210
0.0
220
0.0
230
1.0
 70
     8
 71
     3
 72
    18
 73
    14
 74
     0
 42
0.00000001
 43
0.00000001
 40
0.0
 40
0.0
 40
0.0
 40
0.0
 40
0.2500000000000009
 40
0.2500000000000009
 40
0.500000000000001
 40
0.500000000000001
 40
0.7500000000000011
 40
0.7500000000000011
 40
0.875000000000001
 40
0.875000000000001
 40
0.9375000000000006
 40
0.9375000000000006
 40
1.0
 40
1.0
 40
1.0
 40
1.0
 10
102.9666996013554
 20
134.9896929846667
 30
0.0
 10
102.9666996013554
 20
134.9064860758095
 30
0.0
 10
102.9308505014172
 20
134.817749420496
 30
0.0
 10
102.8059787653832
 20
134.6356242299357
 30
0.0
 10
102.7155783477354
 20
134.5404941813091
 30
0.0
 10
102.4933356929932
 20
134.3513126721848
 30
0.0
 10
102.3635709065474
 20
134.2563675040901
 30
0.0
 10
102.1229334492359
 20
134.1180887965101
 30
0.0
 10
102.0351661510985
 20
134.0723783632077
 30
0.0
 10
101.8806420638917
 20
134.0145550579863
 30
0.0
 10
101.8240311778369
 20
133.9968402939484
 30
0.0
 10
101.6999871469303
 20
133.9723009907155
 30
0.0
 10
101.632272471912
 20
133.9663218521772
 30
0.0
 10
101.5666996013554
 20
133.9686727041315
 30
0.0
  0
LINE
  5
A3
330
1F
100
AcDbEntity
  8
0
  6
Continuous
 62
     7
370
    15
100
AcDbLine
 10
102.9666996014
 20
134.9896929847
 30
0.0
 11
102.9666996014
 21
136.1736314045
 31
0.0
  0
SPLINE
  5
A4
330
1F
100
AcDbEntity
  8
0
  6
Continuous
 62
     7
370
    15
100
AcDbSpline
210
0.0
220
0.0
230
1.0
 70
     8
 71
     3
 72
    24
 73
    20
 74
     0
 42
0.00000001
 43
0.00000001
 40
0.0
 40
0.0
 40
0.0
 40
0.0
 40
0.0010489762969682
 40
0.0637843125639766
 40
0.1272220590447888
 40
0.1903788924487598
 40
0.252674865369363
 40
0.3146354154424954
 40
0.377089199714964
 40
0.4393540298504154
 40
0.5008133242537826
 40
0.562184510458698
 40
0.624843845111553
 40
0.6874304766616532
 40
0.7496743174679398
 40
0.8119848426977657
 40
0.8750960525413161
 40
0.9384412526965076
 40
0.9999999999999999
 40
0.9999999999999999
 40
0.9999999999999999
 40
0.9999999999999999
 10
115.5356054333311
 20
89.4880768837236
 30
0.0
 10
115.5351589732269
 20
89.48801859790468
 30
0.0
 10
115.5080114095331
 20
89.48447445596217
 30
0.0
 10
115.6036231871468
 20
89.49730820064491
 30
0.0
 10
115.8371834450412
 20
89.5265548858451
 30
0.0
 10
116.2327377523585
 20
89.57316920890794
 30
0.0
 10
116.759778056196
 20
89.62335235056729
 30
0.0
 10
117.4033084681859
 20
89.66772881301691
 30
0.0
 10
118.1419823234249
 20
89.69467359395512
 30
0.0
 10
118.9394968288582
 20
89.6981454446619
 30
0.0
 10
119.7660757113009
 20
89.67051820063165
 30
0.0
 10
120.5915987289117
 20
89.61203931165832
 30
0.0
 10
121.3837252769129
 20
89.52659428229825
 30
0.0
 10
122.1162975509188
 20
89.42486004246192
 30
0.0
 10
122.7519377876468
 20
89.31701692048897
 30
0.0
 10
123.2738488946563
 20
89.21538676374988
 30
0.0
 10
123.6554776717718
 20
89.13290160707164
 30
0.0
 10
123.9062921420056
 20
89.07675240072201
 30
0.0
 10
123.9354136979899
 20
89.06990294210827
 30
0.0
 10
123.9497662188061
 20
89.0665271953801
 30
0.0
  0
SPLINE
  5
A5
330
1F
100
AcDbEntity
  8
0
  6
Continuous
 62
     7
370
    15
100
AcDbSpline
210
0.0
220
0.0
230
1.0
 70
     8
 71
     3
 72
    24
 73
    20
 74
     0
 42
0.00000001
 43
0.00000001
 40
0.0
 40
0.0
 40
0.0
 40
0.0
 40
0.0614384276250176
 40
0.1250736755369651
 40
0.1884253490729237
 40
0.2508623904037427
 40
0.3129665632511172
 40
0.3753451453465143
 40
0.4377328972324873
 40
0.4990927322917189
 40
0.5605807588447405
 40
0.6229469893028771
 40
0.6854686282025979
 40
0.7475477813740068
 40
0.8098225060804932
 40
0.8730684085990272
 40
0.9364041844536292
 40
0.9991757196257863
 40
1.0
 40
1.0
 40
1.0
 40
1.0
 10
123.9497114480032
 20
137.2246142867611
 30
0.0
 10
123.9351107236998
 20
137.2212462299085
 30
0.0
 10
123.9053872049718
 20
137.2143896864348
 30
0.0
 10
123.6526493893231
 20
137.1580510659088
 30
0.0
 10
123.2696534728735
 20
137.0751939837788
 30
0.0
 10
122.7472978884364
 20
136.9732869538275
 30
0.0
 10
122.1125134104365
 20
136.8654478147837
 30
0.0
 10
121.3822898062638
 20
136.7639808628086
 30
0.0
 10
120.5918212210298
 20
136.6789211491179
 30
0.0
 10
119.7673377062017
 20
136.6207168552315
 30
0.0
 10
118.9403012473182
 20
136.5931334164049
 30
0.0
 10
118.1419769796665
 20
136.5966263938977
 30
0.0
 10
117.4021530153772
 20
136.6235823137509
 30
0.0
 10
116.7578987824021
 20
136.66793625575
 30
0.0
 10
116.2304915271862
 20
136.7181417055079
 30
0.0
 10
115.835826925036
 20
136.7647515607063
 30
0.0
 10
115.6032976458476
 20
136.7939471532537
 30
0.0
 10
115.5079176132991
 20
136.8067252221949
 30
0.0
 10
115.5348512502
 20
136.8031709636872
 30
0.0
 10
115.5352003434243
 20
136.8031248961038
 30
0.0
  0
SPLINE
  5
A6
330
1F
100
AcDbEntity
  8
0
  6
Continuous
 62
     7
370
    15
100
AcDbSpline
210
0.0
220
0.0
230
1.0
 70
     8
 71
     3
 72
    27
 73
    23
 74
     0
 42
0.00000001
 43
0.00000001
 40
0.0
 40
0.0
 40
0.0
 40
0.0
 40
0.0032791042656666
 40
0.0766711325065078
 40
0.1688737020035044
 40
0.2163343085984987
 40
0.2597779054884563
 40
0.2992095729610209
 40
0.334636506147662
 40
0.420919745984891
 40
0.4998462809141457
 40
0.5787846973343828
 40
0.6067681360334759
 40
0.635584246626116
 40
0.6652417100202005
 40
0.7401098965323195
 40
0.830920652607275
 40
0.8796118910505183
 40
0.9234754822842931
 40
0.9625149891522433
 40
0.9967361899662597
 40
1.0
 40
1.0
 40
1.0
 40
1.0
 10
187.5258344215698
 20
107.5887253254162
 30
0.0
 10
187.5404099961858
 20
107.5941528230041
 30
0.0
 10
187.8812121550072
 20
107.7210571093654
 30
0.0
 10
188.5857882065421
 20
108.10859641996
 30
0.0
 10
189.3773307362568
 20
108.7353805257819
 30
0.0
 10
189.9522939252501
 20
109.3797797032619
 30
0.0
 10
190.311518856296
 20
109.8797855943152
 30
0.0
 10
190.591943009058
 20
110.3642566473108
 30
0.0
 10
190.9146859525852
 20
111.0562382732114
 30
0.0
 10
191.1915710837831
 20
111.9768456953158
 30
0.0
 10
191.3024445440429
 20
113.1430380154904
 30
0.0
 10
191.2185159615428
 20
114.0319629996817
 30
0.0
 10
191.0764977958939
 20
114.662476857895
 30
0.0
 10
190.9592924522086
 20
115.0566775572796
 30
0.0
 10
190.7372182068763
 20
115.6495109877769
 30
0.0
 10
190.3063146853922
 20
116.4722026332245
 30
0.0
 10
189.6676665644968
 20
117.2651604807741
 30
0.0
 10
189.0220754158565
 20
117.8393235074445
 30
0.0
 10
188.5171073735088
 20
118.2031990869806
 30
0.0
 10
188.0331610915156
 20
118.4694885241092
 30
0.0
 10
187.7127621765518
 20
118.6441682551538
 30
0.0
 10
187.5417641005189
 20
118.6942717825987
 30
0.0
 10
187.5268753430213
 20
118.6986342835532
 30
0.0
  0
SPLINE
  5
A7
330
1F
100
AcDbEntity
  8
0
  6
Continuous
 62
     7
370
    15
100
AcDbSpline
210
0.0
220
0.0
230
1.0
 70
     8
 71
     3
 72
    28
 73
    24
 74
     0
 42
0.00000001
 43
0.00000001
 40
0.0
 40
0.0
 40
0.0
 40
0.0
 40
0.0028795651910525
 40
0.0692445025017912
 40
0.1530629425229321
 40
0.1961486771407832
 40
0.2356109698856391
 40
0.2714544605697297
 40
0.3036856979882053
 40
0.3820696050973469
 40
0.453746060527598
 40
0.5253151136798965
 40
0.5506815174559068
 40
0.5768006646906392
 40
0.6036804826284424
 40
0.6714575156822404
 40
0.7537915502111899
 40
0.7978539884930185
 40
0.837626486470976
 40
0.8731124109990672
 40
0.9043171169724754
 40
0.9829603759779629
 40
1.0
 40
1.0
 40
1.0
 40
1.0
 10
183.006207661202
 20
118.7019398097576
 30
0.0
 10
182.9921012659322
 20
118.6966856394105
 30
0.0
 10
182.6528867464664
 20
118.5703393379371
 30
0.0
 10
181.9490076702715
 20
118.1834216780824
 30
0.0
 10
181.1573272558905
 20
117.5570892177542
 30
0.0
 10
180.5814595542099
 20
116.9118615814753
 30
0.0
 10
180.2217845842373
 20
116.4112906915078
 30
0.0
 10
179.9408762881866
 20
115.9258807133227
 30
0.0
 10
179.617773776213
 20
115.2325970517124
 30
0.0
 10
179.3410009468904
 20
114.3105616306233
 30
0.0
 10
179.2309492847199
 20
113.143717745102
 30
0.0
 10
179.3155496321933
 20
112.2549294777562
 30
0.0
 10
179.4578646641692
 20
111.6250455342811
 30
0.0
 10
179.5751839658381
 20
111.2313158333854
 30
0.0
 10
179.7971850601291
 20
110.639643965968
 30
0.0
 10
180.2276541108205
 20
109.818115495927
 30
0.0
 10
180.865385178333
 20
109.027111118099
 30
0.0
 10
181.5095881607989
 20
108.4522567806199
 30
0.0
 10
182.0152645582269
 20
108.0918104880644
 30
0.0
 10
182.4962309604121
 20
107.8140939727928
 30
0.0
 10
183.1848405468595
 20
107.4997347730587
 30
0.0
 10
183.8221774515572
 20
107.272302164361
 30
0.0
 10
184.3241266708751
 20
107.2329746670277
 30
0.0
 10
184.4135159712881
 20
107.2259710552313
 30
0.0
  0
SPLINE
  5
A8
330
1F
100
AcDbEntity
  8
0
  6
Continuous
 62
     7
370
    15
100
AcDbSpline
210
0.0
220
0.0
230
1.0
 70
     8
 71
     3
 72
    39
 73
    35
 74
     0
 42
0.00000001
 43
0.00000001
 40
-0.0929035514949715
 40
-0.0617844675330088
 40
-0.0305606518844096
 40
0.0
 40
0.0305833544996188
 40
0.0618207632592421
 40
0.092957407328803
 40
0.1240731578172394
 40
0.1552546267395585
 40
0.1868126884169079
 40
0.2185638838481928
 40
0.2499315075259442
 40
0.281325112459997
 40
0.3131464055674988
 40
0.3447816985840116
 40
0.3760142222481691
 40
0.4071224531647578
 40
0.4382110606589149
 40
0.4693931316496997
 40
0.5000117158875057
 40
0.5306249294235121
 40
0.5618454474694607
 40
0.5929501996328829
 40
0.6240749381357529
 40
0.6552854313521826
 40
0.6868966152747047
 40
0.7186677897656593
 40
0.7500607090514082
 40
0.7814251173844291
 40
0.8132188904409209
 40
0.8447997037968994
 40
0.8760022562479365
 40
0.9070964485050284
 40
0.9382155324669911
 40
0.9694393481155903
 40
0.9999999999999999
 40
1.030583354499619
 40
1.061820763259242
 40
1.092957407328803
 10
186.6009387649238
 20
106.2926949203009
 30
0.0
 10
185.2663681911683
 20
106.1566705111255
 30
0.0
 10
183.9316217385596
 20
106.2929075099303
 30
0.0
 10
182.6509833789769
 20
106.7015785295612
 30
0.0
 10
181.4680511686244
 20
107.3430339302517
 30
0.0
 10
180.4424344312117
 20
108.2071973701788
 30
0.0
 10
179.5998141337931
 20
109.2584582824937
 30
0.0
 10
178.9754494380987
 20
110.4670161097775
 30
0.0
 10
178.5786951686982
 20
111.7775529339528
 30
0.0
 10
178.4472777307166
 20
113.1428964831103
 30
0.0
 10
178.5795447762754
 20
114.5091574486022
 30
0.0
 10
178.9768876704904
 20
115.8220807170889
 30
0.0
 10
179.6016354693526
 20
117.0336450212792
 30
0.0
 10
180.4449314972594
 20
118.0865999241063
 30
0.0
 10
181.4701963872399
 20
118.9510170662622
 30
0.0
 10
182.6516645453545
 20
119.5919289972837
 30
0.0
 10
183.9318323562231
 20
119.9991282944593
 30
0.0
 10
185.2670875843987
 20
120.1342806334803
 30
0.0
 10
186.6028630005007
 20
119.9987151112817
 30
0.0
 10
187.8835311510161
 20
119.590786698073
 30
0.0
 10
189.0658139898252
 20
118.9492408449078
 30
0.0
 10
190.0907962484792
 20
118.084201760557
 30
0.0
 10
190.9333120979407
 20
117.0312046984345
 30
0.0
 10
191.557263538348
 20
115.8207657195461
 30
0.0
 10
191.9538005392986
 20
114.5087491108326
 30
0.0
 10
192.0861077721351
 20
113.1433089356847
 30
0.0
 10
191.9548190508737
 20
111.7773670089342
 30
0.0
 10
191.5574480094462
 20
110.4660615059114
 30
0.0
 10
190.9324392636759
 20
109.2564494920159
 30
0.0
 10
190.0891227608417
 20
108.2052969157814
 30
0.0
 10
189.0632909470343
 20
107.3418098961453
 30
0.0
 10
187.8808626323039
 20
106.7010470269499
 30
0.0
 10
186.6009387649238
 20
106.2926949203009
 30
0.0
 10
185.2663681911683
 20
106.1566705111255
 30
0.0
 10
183.9316217385596
 20
106.2929075099303
 30
0.0
  0
LINE
  5
A9
330
1F
100
AcDbEntity
  8
0
  6
Continuous
 62
     7
370
    15
100
AcDbLine
 10
195.8996580783
 20
89.1455853123
 30
0.0
 11
195.8996580783
 21
137.1455853123
 31
0.0
  0
LINE
  5
AA
330
1F
100
AcDbEntity
  8
0
  6
Continuous
 62
     7
370
    15
100
AcDbLine
 10
163.3531027167
 20
137.0339287558
 30
0.0
 11
163.504434486
 21
137.0224365437
 31
0.0
  0
SPLINE
  5
AB
330
1F
100
AcDbEntity
  8
0
  6
Continuous
 62
     7
370
    15
100
AcDbSpline
210
0.0
220
0.0
230
1.0
 70
     8
 71
     3
 72
    37
 73
    33
 74
     0
 42
0.00000001
 43
0.00000001
 40
0.0
 40
0.0
 40
0.0
 40
0.0
 40
0.0256149929634771
 40
0.0497067086304288
 40
0.0718163130150371
 40
0.1167423152375816
 40
0.1395962735861159
 40
0.1626522064888441
 40
0.2094323706696481
 40
0.2331865098942859
 40
0.2584960098645346
 40
0.3098384509937954
 40
0.3359062500565494
 40
0.3637925677554255
 40
0.4204057369446654
 40
0.4491821380830175
 40
0.4789197060413855
 40
0.5393642338504852
 40
0.5701401082433712
 40
0.6004516982398521
 40
0.6309793894439626
 40
0.6622055127908589
 40
0.6936815483294084
 40
0.7231198339567664
 40
0.7831508081445492
 40
0.8138624108872854
 40
0.8408184383686202
 40
0.8958648125178854
 40
0.9240742712119184
 40
0.9479672352312112
 40
0.9966914106035681
 40
1.0
 40
1.0
 40
1.0
 40
1.0
 10
169.2059122487469
 20
137.1443312760056
 30
0.0
 10
169.2080355318364
 20
137.144577189234
 30
0.0
 10
169.2121558302109
 20
137.1450543916759
 30
0.0
 10
169.1724352512159
 20
137.1404511533413
 30
0.0
 10
169.1027713868711
 20
137.1324862415665
 30
0.0
 10
168.9949666435521
 20
137.1204225839443
 30
0.0
 10
168.8526235127941
 20
137.1052224345141
 30
0.0
 10
168.6850894078402
 20
137.0879556635384
 30
0.0
 10
168.4838836112696
 20
137.0684540706615
 30
0.0
 10
168.2504579477727
 20
137.0477970035443
 30
0.0
 10
167.9876351318051
 20
137.0261319169681
 30
0.0
 10
167.6921508663715
 20
137.0047275924116
 30
0.0
 10
167.368961197321
 20
136.9851849016188
 30
0.0
 10
167.0165919065268
 20
136.9668620955421
 30
0.0
 10
166.6377645735889
 20
136.9523713755254
 30
0.0
 10
166.2432321309424
 20
136.9432219538241
 30
0.0
 10
165.8309862990675
 20
136.9379103815438
 30
0.0
 10
165.4080027168258
 20
136.9393046742217
 30
0.0
 10
164.9895163942584
 20
136.9474831593187
 30
0.0
 10
164.6790368349473
 20
136.9568631209082
 30
0.0
 10
164.3744034116835
 20
136.9692377647695
 30
0.0
 10
164.0758240695843
 20
136.984416776847
 30
0.0
 10
163.7931321604332
 20
137.0015970958916
 30
0.0
 10
163.4413953002221
 20
137.0261704204097
 30
0.0
 10
163.1237131517537
 20
137.0525133219372
 30
0.0
 10
162.8558216757408
 20
137.0774784585884
 30
0.0
 10
162.6282787805162
 20
137.1000369690446
 30
0.0
 10
162.4500517198071
 20
137.1191426420827
 30
0.0
 10
162.3277660636296
 20
137.1328201310544
 30
0.0
 10
162.2467959981325
 20
137.1420636817007
 30
0.0
 10
162.2108036536445
 20
137.1462712093597
 30
0.0
 10
162.2176568666871
 20
137.1454739931478
 30
0.0
 10
162.2180926395718
 20
137.1454233008366
 30
0.0
  0
SPLINE
  5
AC
330
1F
100
AcDbEntity
  8
0
  6
Continuous
 62
     7
370
    15
100
AcDbSpline
210
0.0
220
0.0
230
1.0
 70
     8
 71
     3
 72
     9
 73
     5
 74
     0
 42
0.00000001
 43
0.00000001
 40
0.0
 40
0.0
 40
0.0
 40
0.0
 40
0.2833990932422814
 40
0.9999999999999999
 40
0.9999999999999999
 40
0.9999999999999999
 40
0.9999999999999999
 10
163.0786770613472
 20
137.0571988265244
 30
0.0
 10
163.1028912398181
 20
137.0550101931011
 30
0.0
 10
163.1883332156333
 20
137.0472873969612
 30
0.0
 10
163.2843191262
 20
137.0395053661486
 30
0.0
 10
163.3531027167479
 20
137.0339287558118
 30
0.0
  0
SPLINE
  5
AD
330
1F
100
AcDbEntity
  8
0
  6
Continuous
 62
     7
370
    15
100
AcDbSpline
210
0.0
220
0.0
230
1.0
 70
     8
 71
     3
 72
    68
 73
    64
 74
     0
 42
0.00000001
 43
0.00000001
 40
-0.0312499999999997
 40
-0.0312499999999997
 40
0.0
 40
0.0
 40
0.0312500000000001
 40
0.0312500000000001
 40
0.0625000000000003
 40
0.0625000000000003
 40
0.0937500000000004
 40
0.0937500000000004
 40
0.1250000000000006
 40
0.1250000000000006
 40
0.1562500000000007
 40
0.1562500000000007
 40
0.1875000000000008
 40
0.1875000000000008
 40
0.218750000000001
 40
0.218750000000001
 40
0.2500000000000011
 40
0.2500000000000011
 40
0.2812500000000012
 40
0.2812500000000012
 40
0.3125000000000014
 40
0.3125000000000014
 40
0.3437500000000016
 40
0.3437500000000016
 40
0.3750000000000017
 40
0.3750000000000017
 40
0.4062500000000018
 40
0.4062500000000018
 40
0.4375000000000019
 40
0.4375000000000019
 40
0.4687500000000021
 40
0.4687500000000021
 40
0.5000000000000022
 40
0.5000000000000022
 40
0.5312500000000023
 40
0.5312500000000023
 40
0.5625000000000024
 40
0.5625000000000024
 40
0.5937500000000027
 40
0.5937500000000027
 40
0.6250000000000028
 40
0.6250000000000028
 40
0.6875000000000031
 40
0.6875000000000031
 40
0.7187500000000028
 40
0.7187500000000028
 40
0.7500000000000024
 40
0.7500000000000024
 40
0.7812500000000021
 40
0.7812500000000021
 40
0.8125000000000018
 40
0.8125000000000018
 40
0.8437500000000016
 40
0.8437500000000016
 40
0.8750000000000012
 40
0.8750000000000012
 40
0.9062500000000009
 40
0.9062500000000009
 40
0.9375000000000006
 40
0.9375000000000006
 40
0.9687500000000003
 40
0.9687500000000003
 40
1.0
 40
1.0
 40
1.03125
 40
1.03125
 10
163.1840885178629
 20
115.318604071818
 30
0.0
 10
163.5221169175825
 20
115.5973033118713
 30
0.0
 10
163.7016516480197
 20
115.718343087903
 30
0.0
 10
164.0799075894631
 20
115.9271791083027
 30
0.0
 10
164.2801163450732
 20
116.0154170972336
 30
0.0
 10
164.6933704438495
 20
116.1557754617807
 30
0.0
 10
164.903755541242
 20
116.2072993003898
 30
0.0
 10
165.3317328329572
 20
116.2746571609935
 30
0.0
 10
165.551387236945
 20
116.2903649551951
 30
0.0
 10
165.9865809018581
 20
116.2844709370813
 30
0.0
 10
166.2018059863227
 20
116.2633091386291
 30
0.0
 10
166.6275508190699
 20
116.1848118607244
 30
0.0
 10
166.840129120791
 20
116.1265953375689
 30
0.0
 10
167.2473831922742
 20
115.9756443410662
 30
0.0
 10
167.4423863675424
 20
115.8833368886692
 30
0.0
 10
167.8147578905299
 20
115.6641699432731
 30
0.0
 10
167.9939612853009
 20
115.5355183460948
 30
0.0
 10
168.3201122747386
 20
115.2499913202901
 30
0.0
 10
168.4678593715834
 20
115.093289538012
 30
0.0
 10
168.7309708289667
 20
114.7503133103082
 30
0.0
 10
168.8471065286984
 20
114.5615621638179
 30
0.0
 10
169.0321970046614
 20
114.1701782625544
 30
0.0
 10
169.1028351265733
 20
113.9661869909756
 30
0.0
 10
169.1971738985758
 20
113.540382576301
 30
0.0
 10
169.2196004896561
 20
113.3207927321922
 30
0.0
 10
169.2131860557231
 20
112.8876295910364
 30
0.0
 10
169.1842308782991
 20
112.6685477344453
 30
0.0
 10
169.0774729557674
 20
112.2455490561052
 30
0.0
 10
169.0007319169018
 20
112.0426237862008
 30
0.0
 10
168.8025836118957
 20
111.6531260474845
 30
0.0
 10
168.6822328404872
 20
111.4695628469942
 30
0.0
 10
168.4089370438329
 20
111.13273343056
 30
0.0
 10
168.2533395942297
 20
110.9764847104997
 30
0.0
 10
167.9182224881017
 20
110.6990122059197
 30
0.0
 10
167.738946669069
 20
110.5772728003715
 30
0.0
 10
167.3580558496042
 20
110.3660551319924
 30
0.0
 10
167.1565930723051
 20
110.2771898314097
 30
0.0
 10
166.7462853808911
 20
110.1372153457088
 30
0.0
 10
166.5356736444728
 20
110.0850507375498
 30
0.0
 10
166.1034462030646
 20
110.0165673351002
 30
0.0
 10
165.8853226989903
 20
110.0010104966102
 30
0.0
 10
165.2358185609477
 20
110.0090655624656
 30
0.0
 10
164.7980246144113
 20
110.0890869421174
 30
0.0
 10
164.1900498820657
 20
110.3138308625088
 30
0.0
 10
163.9940334219507
 20
110.4060873073985
 30
0.0
 10
163.616382717635
 20
110.6282986869114
 30
0.0
 10
163.4403043947954
 20
110.7550770881477
 30
0.0
 10
163.1156670459952
 20
111.0389141064184
 30
0.0
 10
162.9662913182468
 20
111.1967163426812
 30
0.0
 10
162.699683414877
 20
111.5446220168468
 30
0.0
 10
162.586639457021
 20
111.7290717719883
 30
0.0
 10
162.4018438577169
 20
112.1194399841722
 30
0.0
 10
162.3295050509771
 20
112.3284901914909
 30
0.0
 10
162.2357238009928
 20
112.7543463451276
 30
0.0
 10
162.2137161876654
 20
112.969829867674
 30
0.0
 10
162.2203242895769
 20
113.4059995043806
 30
0.0
 10
162.2497579352858
 20
113.6255840785539
 30
0.0
 10
162.3563261815525
 20
114.0465753407858
 30
0.0
 10
162.4346728033139
 20
114.2532491746105
 30
0.0
 10
162.6331632425585
 20
114.6418823301728
 30
0.0
 10
162.7523006729324
 20
114.8234077727673
 30
0.0
 10
163.0280503065893
 20
115.1624505472862
 30
0.0
 10
163.1840885178629
 20
115.318604071818
 30
0.0
 10
163.5221169175825
 20
115.5973033118713
 30
0.0
  0
LINE
  5
AE
330
1F
100
AcDbEntity
  8
0
  6
Continuous
 62
     7
370
    15
100
AcDbLine
 10
163.3531027171
 20
89.2572418688
 30
0.0
 11
163.2739799416
 21
89.2506643575
 31
0.0
  0
SPLINE
  5
AF
330
1F
100
AcDbEntity
  8
0
  6
Continuous
 62
     7
370
    15
100
AcDbSpline
210
0.0
220
0.0
230
1.0
 70
     8
 71
     3
 72
    38
 73
    34
 74
     0
 42
0.00000001
 43
0.00000001
 40
0.0
 40
0.0
 40
0.0
 40
0.0
 40
0.0264441120772272
 40
0.0505031275662755
 40
0.0726119049718961
 40
0.1175353631651346
 40
0.140387464469519
 40
0.16345775028552
 40
0.21026671096093
 40
0.2340352859201677
 40
0.2593665467664352
 40
0.3107532928293951
 40
0.3368437263485951
 40
0.3647495791206692
 40
0.421402953803048
 40
0.4502001824626401
 40
0.479947277052421
 40
0.5098929218562357
 40
0.5404634043410307
 40
0.5712499688602818
 40
0.6015590667667976
 40
0.6320843867017545
 40
0.6633087233061334
 40
0.6947832701702928
 40
0.7242050849190149
 40
0.7842035553572076
 40
0.8148993124687878
 40
0.8418266283398126
 40
0.8968144734118042
 40
0.9249938742230192
 40
0.9488623561586427
 40
0.9975354542224844
 40
0.9999999999999999
 40
0.9999999999999999
 40
0.9999999999999999
 40
0.9999999999999999
 10
162.227377076037
 20
89.14682653819503
 30
0.0
 10
162.2254431029391
 20
89.14660275023908
 30
0.0
 10
162.2217495892455
 20
89.14617535862716
 30
0.0
 10
162.2624912758722
 20
89.15089545044414
 30
0.0
 10
162.3330916808526
 20
89.15896328770262
 30
0.0
 10
162.4417210387869
 20
89.17110917769008
 30
0.0
 10
162.5848738842755
 20
89.18637849961355
 30
0.0
 10
162.7532445230255
 20
89.20370777251252
 30
0.0
 10
162.9552824445559
 20
89.22325492935823
 30
0.0
 10
163.1895169272076
 20
89.24393572163277
 30
0.0
 10
163.4531800909334
 20
89.26561056068093
 30
0.0
 10
163.7494817428136
 20
89.28699690990612
 30
0.0
 10
164.0734225760717
 20
89.30649051014692
 30
0.0
 10
164.4264933507026
 20
89.32473992944153
 30
0.0
 10
164.8059408103178
 20
89.33912384327425
 30
0.0
 10
165.2009058639076
 20
89.34814225391308
 30
0.0
 10
165.50775474586
 20
89.35197569705214
 30
0.0
 10
165.8221228482541
 20
89.35254866063295
 30
0.0
 10
166.1394178428272
 20
89.34969213064214
 30
0.0
 10
166.4550280512318
 20
89.34340928661545
 30
0.0
 10
166.7652951500402
 20
89.33391697862766
 30
0.0
 10
167.0696230057668
 20
89.32144389529138
 30
0.0
 10
167.3678033127227
 20
89.30617999602158
 30
0.0
 10
167.6499719724556
 20
89.28893701106276
 30
0.0
 10
168.0008417440156
 20
89.2643144288068
 30
0.0
 10
168.3174766511578
 20
89.23797105122108
 30
0.0
 10
168.5841743366898
 20
89.21305606011863
 30
0.0
 10
168.8104478591762
 20
89.1905786758436
 30
0.0
 10
168.987330805909
 20
89.17159075610995
 30
0.0
 10
169.1083358465553
 20
89.15804442043296
 30
0.0
 10
169.1880176213906
 20
89.14894246144442
 30
0.0
 10
169.2230954792365
 20
89.14484142260508
 30
0.0
 10
169.2159662745831
 20
89.14567058187382
 30
0.0
 10
169.2156226871609
 20
89.14571054267022
 30
0.0
  0
CIRCLE
  5
B0
330
1F
100
AcDbEntity
  8
0
  6
Continuous
 62
     7
370
    15
100
AcDbCircle
 10
165.7166996014
 20
113.1455853123
 30
0.0
 40
2.5
  0
SPLINE
  5
B1
330
1F
100
AcDbEntity
  8
0
  6
Continuous
 62
     7
370
    15
100
AcDbSpline
210
0.0
220
0.0
230
1.0
 70
     8
 71
     3
 72
    10
 73
     6
 74
     0
 42
0.00000001
 43
0.00000001
 40
0.0
 40
0.0
 40
0.0
 40
0.0
 40
0.0840381716606348
 40
0.7011125076933074
 40
1.0
 40
1.0
 40
1.0
 40
1.0
 10
96.88024656389109
 20
93.41681140462039
 30
0.0
 10
96.88092112122601
 20
93.4146057777845
 30
0.0
 10
96.8865488089222
 20
93.39620470442227
 30
0.0
 10
96.91287028904905
 20
93.41043926714546
 30
0.0
 10
96.92530530589376
 20
93.45612504269644
 30
0.0
 10
96.92936297607882
 20
93.471032767523
 30
0.0
  0
LINE
  5
B2
330
1F
100
AcDbEntity
  8
0
  6
Continuous
 62
     7
370
    15
100
AcDbLine
 10
96.8666996014
 20
93.4549075658
 30
0.0
 11
96.8666996014
 21
132.8362630588
 31
0.0
  0
SPLINE
  5
B3
330
1F
100
AcDbEntity
  8
0
  6
Continuous
 62
     7
370
    15
100
AcDbSpline
210
0.0
220
0.0
230
1.0
 70
     8
 71
     3
 72
    10
 73
     6
 74
     0
 42
0.00000001
 43
0.00000001
 40
0.0
 40
0.0
 40
0.0
 40
0.0
 40
0.5
 40
0.5
 40
1.0
 40
1.0
 40
1.0
 40
1.0
 10
96.92936297607882
 20
132.8201378570845
 30
0.0
 10
96.92045868697008
 20
132.8658793762976
 30
0.0
 10
96.9039433067771
 20
132.8830702157667
 30
0.0
 10
96.87683536071548
 20
132.8827469388309
 30
0.0
 10
96.86669960135542
 20
132.8648693965345
 30
0.0
 10
96.86669960135542
 20
132.8362630587819
 30
0.0
  0
SPLINE
  5
B4
330
1F
100
AcDbEntity
  8
0
  6
Continuous
 62
     7
370
    15
100
AcDbSpline
210
0.0
220
0.0
230
1.0
 70
     8
 71
     3
 72
    26
 73
    22
 74
     0
 42
0.00000001
 43
0.00000001
 40
0.0
 40
0.0
 40
0.0
 40
0.0
 40
0.2500000000000165
 40
0.2500000000000165
 40
0.3750000000000256
 40
0.3750000000000256
 40
0.4375000000000291
 40
0.4375000000000291
 40
0.4687500000000291
 40
0.4687500000000291
 40
0.5000000000000292
 40
0.5000000000000292
 40
0.5312500000000293
 40
0.5312500000000293
 40
0.5625000000000293
 40
0.5625000000000293
 40
0.625000000000026
 40
0.625000000000026
 40
0.7500000000000173
 40
0.7500000000000173
 40
1.0
 40
1.0
 40
1.0
 40
1.0
 10
97.69085324745994
 20
133.5357046459015
 30
0.0
 10
97.65225272459146
 20
133.4179299495461
 30
0.0
 10
97.60595572203721
 20
133.2935402633842
 30
0.0
 10
97.51201637360326
 20
133.0883209310307
 30
0.0
 10
97.47670490668982
 20
133.0167480645843
 30
0.0
 10
97.41052493094415
 20
132.9007948319838
 30
0.0
 10
97.38598656427591
 20
132.8602102971736
 30
0.0
 10
97.34261381872213
 20
132.7960686153019
 30
0.0
 10
97.32710541729692
 20
132.7742021900168
 30
0.0
 10
97.29206277270991
 20
132.7286079216736
 30
0.0
 10
97.27251248199013
 20
132.7049376307062
 30
0.0
 10
97.23058520161953
 20
132.6603210713662
 30
0.0
 10
97.2079330913879
 20
132.6394410588483
 30
0.0
 10
97.16695937730124
 20
132.6085676450975
 30
0.0
 10
97.14936007740582
 20
132.5987287752651
 30
0.0
 10
97.10473309154969
 20
132.5797391595689
 30
0.0
 10
97.08417386889634
 20
132.5794148349155
 30
0.0
 10
97.03304842939968
 20
132.5886382757917
 30
0.0
 10
97.01213701641115
 20
132.6098851720087
 30
0.0
 10
96.96068710885021
 20
132.6838540508394
 30
0.0
 10
96.94302180954566
 20
132.7499721441542
 30
0.0
 10
96.92936297607882
 20
132.8201378570845
 30
0.0
  0
SPLINE
  5
B5
330
1F
100
AcDbEntity
  8
0
  6
Continuous
 62
     7
370
    15
100
AcDbSpline
210
0.0
220
0.0
230
1.0
 70
     8
 71
     3
 72
    10
 73
     6
 74
     0
 42
0.00000001
 43
0.00000001
 40
0.0
 40
0.0
 40
0.0
 40
0.0
 40
0.5
 40
0.5
 40
1.0
 40
1.0
 40
1.0
 40
1.0
 10
98.00665467093721
 20
134.0055392045914
 30
0.0
 10
97.93909541601896
 20
133.9378478117816
 30
0.0
 10
97.87545876068248
 20
133.863140647028
 30
0.0
 10
97.76523800611064
 20
133.7041745146013
 30
0.0
 10
97.718421712888
 20
133.6198192485933
 30
0.0
 10
97.69085324745994
 20
133.5357046459015
 30
0.0
  0
SPLINE
  5
B6
330
1F
100
AcDbEntity
  8
0
  6
Continuous
 62
     7
370
    15
100
AcDbSpline
210
0.0
220
0.0
230
1.0
 70
     8
 71
     3
 72
    10
 73
     6
 74
     0
 42
0.00000001
 43
0.00000001
 40
0.0
 40
0.0
 40
0.0
 40
0.0
 40
0.5
 40
0.5
 40
1.0
 40
1.0
 40
1.0
 40
1.0
 10
97.69085324745997
 20
92.75546597870576
 30
0.0
 10
97.71833066221394
 20
92.67162918223787
 30
0.0
 10
97.76503929250336
 20
92.58731869464873
 30
0.0
 10
97.87531775524931
 20
92.42819746416203
 30
0.0
 10
97.93920529386321
 20
92.35321272007238
 30
0.0
 10
98.00665467094782
 20
92.28563142000544
 30
0.0
  0
SPLINE
  5
B7
330
1F
100
AcDbEntity
  8
0
  6
Continuous
 62
     7
370
    15
100
AcDbSpline
210
0.0
220
0.0
230
1.0
 70
     8
 71
     3
 72
    24
 73
    20
 74
     0
 42
0.00000001
 43
0.00000001
 40
0.0
 40
0.0
 40
0.0
 40
0.0
 40
0.25
 40
0.25
 40
0.374999999999999
 40
0.374999999999999
 40
0.4374999999999993
 40
0.4374999999999993
 40
0.4687499999999994
 40
0.4687499999999994
 40
0.4999999999999995
 40
0.4999999999999995
 40
0.5624999999999971
 40
0.5624999999999971
 40
0.6249999999999947
 40
0.6249999999999947
 40
0.7499999999999947
 40
0.7499999999999947
 40
1.0
 40
1.0
 40
1.0
 40
1.0
 10
96.92936297607882
 20
93.471032767523
 30
0.0
 10
96.94311609474907
 20
93.54168282551328
 30
0.0
 10
96.96088866215493
 20
93.6082809382782
 30
0.0
 10
97.01313975371029
 20
93.6823789585114
 30
0.0
 10
97.03417482929183
 20
93.70363676567297
 30
0.0
 10
97.08707523692028
 20
93.71178269181921
 30
0.0
 10
97.1081809097982
 20
93.71084288842343
 30
0.0
 10
97.15423307847615
 20
93.68982689684609
 30
0.0
 10
97.17260355045956
 20
93.67891809073848
 30
0.0
 10
97.21415518552526
 20
93.6462831797911
 30
0.0
 10
97.23672185828217
 20
93.62479119941975
 30
0.0
 10
97.29950287474217
 20
93.55632525583341
 30
0.0
 10
97.33263263571007
 20
93.51025079762833
 30
0.0
 10
97.38955032219509
 20
93.42524290929366
 30
0.0
 10
97.41373634769887
 20
93.38496260811228
 30
0.0
 10
97.47894429807863
 20
93.27002638164633
 30
0.0
 10
97.51366035826986
 20
93.19944339649933
 30
0.0
 10
97.60687562860073
 20
92.99523763742071
 30
0.0
 10
97.65254816396141
 20
92.87233925509337
 30
0.0
 10
97.69085324745997
 20
92.75546597870579
 30
0.0
  0
SPLINE
  5
B8
330
1F
100
AcDbEntity
  8
0
  6
Continuous
 62
     7
370
    15
100
AcDbSpline
210
0.0
220
0.0
230
1.0
 70
     8
 71
     3
 72
     8
 73
     4
 74
     0
 42
0.00000001
 43
0.00000001
 40
0.0
 40
0.0
 40
0.0
 40
0.0
 40
1.0
 40
1.0
 40
1.0
 40
1.0
 10
143.3747667698663
 20
137.6042749746712
 30
0.0
 10
143.8818536116256
 20
136.4731246205075
 30
0.0
 10
144.3774214507656
 20
135.3367402097397
 30
0.0
 10
144.8566996013554
 20
134.1957289798871
 30
0.0
  0
LINE
  5
B9
330
1F
100
AcDbEntity
  8
0
  6
Continuous
 62
     7
370
    15
100
AcDbLine
 10
144.8566996014
 20
134.1957289799
 30
0.0
 11
144.8566996014
 21
133.2814519438
 31
0.0
  0
LINE
  5
BA
330
1F
100
AcDbEntity
  8
0
  6
Continuous
 62
     7
370
    15
100
AcDbLine
 10
148.6766996014
 20
133.2814519438
 30
0.0
 11
148.6766996014
 21
134.1957289799
 31
0.0
  0
SPLINE
  5
BB
330
1F
100
AcDbEntity
  8
0
  6
Continuous
 62
     7
370
    15
100
AcDbSpline
210
0.0
220
0.0
230
1.0
 70
     8
 71
     3
 72
     8
 73
     4
 74
     0
 42
0.00000001
 43
0.00000001
 40
0.0
 40
0.0
 40
0.0
 40
0.0
 40
1.0
 40
1.0
 40
1.0
 40
1.0
 10
148.6766996013554
 20
134.195728979887
 30
0.0
 10
149.1559777519452
 20
135.3367402097396
 30
0.0
 10
149.6515455910852
 20
136.4731246205075
 30
0.0
 10
150.1586324328445
 20
137.6042749746712
 30
0.0
  0
LINE
  5
BC
330
1F
100
AcDbEntity
  8
0
  6
Continuous
 62
     7
370
    15
100
AcDbLine
 10
150.1586324328
 20
137.6042749747
 30
0.0
 11
154.1166996014
 21
137.6042749747
 31
0.0
  0
SPLINE
  5
BD
330
1F
100
AcDbEntity
  8
0
  6
Continuous
 62
     7
370
    15
100
AcDbSpline
210
0.0
220
0.0
230
1.0
 70
     8
 71
     3
 72
    12
 73
     8
 74
     0
 42
0.00000001
 43
0.00000001
 40
0.0
 40
0.0
 40
0.0
 40
0.0
 40
0.250000000000002
 40
0.250000000000002
 40
0.500000000000004
 40
0.500000000000004
 40
1.0
 40
1.0
 40
1.0
 40
1.0
 10
154.1166996013554
 20
137.6042749746712
 30
0.0
 10
154.2078993231811
 20
137.6042749746712
 30
0.0
 10
154.2984943323171
 20
137.5760552760833
 30
0.0
 10
154.4519070587638
 20
137.4816122688352
 30
0.0
 10
154.5171159260874
 20
137.4153252921299
 30
0.0
 10
154.6699004554274
 20
137.1897004688416
 30
0.0
 10
154.7166996013554
 20
137.007274205809
 30
0.0
 10
154.7166996013554
 20
136.8265375735621
 30
0.0
  0
LINE
  5
BE
330
1F
100
AcDbEntity
  8
0
  6
Continuous
 62
     7
370
    15
100
AcDbLine
 10
154.7166996014
 20
136.8265375736
 30
0.0
 11
154.7166996014
 21
132.9955853123
 31
0.0
  0
LINE
  5
BF
330
1F
100
AcDbEntity
  8
0
  6
Continuous
 62
     7
370
    15
100
AcDbLine
 10
154.1166996014
 20
143.6127807855
 30
0.0
 11
150.1586324328
 21
143.6127807855
 31
0.0
  0
LINE
  5
C0
330
1F
100
AcDbEntity
  8
0
  6
Continuous
 62
     7
370
    15
100
AcDbLine
 10
150.1586324328
 20
137.6042749747
 30
0.0
 11
150.1586324328
 21
143.6127807855
 31
0.0
  0
SPLINE
  5
C1
330
1F
100
AcDbEntity
  8
0
  6
Continuous
 62
     7
370
    15
100
AcDbSpline
210
0.0
220
0.0
230
1.0
 70
     8
 71
     3
 72
     8
 73
     4
 74
     0
 42
0.00000001
 43
0.00000001
 40
0.0
 40
0.0
 40
0.0
 40
0.0
 40
1.0
 40
1.0
 40
1.0
 40
1.0
 10
144.8566996013554
 20
140.9508195034753
 30
0.0
 10
144.3639895045096
 20
141.8388385016017
 30
0.0
 10
143.8699067992307
 20
142.7261011372877
 30
0.0
 10
143.3747667698664
 20
143.612780785468
 30
0.0
  0
LINE
  5
C2
330
1F
100
AcDbEntity
  8
0
  6
Continuous
 62
     7
370
    15
100
AcDbLine
 10
144.8566996014
 20
134.1957289799
 30
0.0
 11
144.8566996014
 21
140.9508195035
 31
0.0
  0
SPLINE
  5
C3
330
1F
100
AcDbEntity
  8
0
  6
Continuous
 62
     7
370
    15
100
AcDbSpline
210
0.0
220
0.0
230
1.0
 70
     8
 71
     3
 72
    10
 73
     6
 74
     0
 42
0.00000001
 43
0.00000001
 40
0.0
 40
0.0
 40
0.0
 40
0.0
 40
0.5
 40
0.5
 40
1.0
 40
1.0
 40
1.0
 40
1.0
 10
154.7166996013554
 20
142.9920256360676
 30
0.0
 10
154.7166996013554
 20
143.1524309024184
 30
0.0
 10
154.6544617702486
 20
143.311492715407
 30
0.0
 10
154.435326846506
 20
143.5424051810374
 30
0.0
 10
154.2777381515141
 20
143.612780785468
 30
0.0
 10
154.1166996013554
 20
143.612780785468
 30
0.0
  0
LINE
  5
C4
330
1F
100
AcDbEntity
  8
0
  6
Continuous
 62
     7
370
    15
100
AcDbLine
 10
154.7166996014
 20
136.8265375736
 30
0.0
 11
154.7166996014
 21
142.9920256361
 31
0.0
  0
SPLINE
  5
C5
330
1F
100
AcDbEntity
  8
0
  6
Continuous
 62
     7
370
    15
100
AcDbSpline
210
0.0
220
0.0
230
1.0
 70
     8
 71
     3
 72
     8
 73
     4
 74
     0
 42
0.00000001
 43
0.00000001
 40
0.0
 40
0.0
 40
0.0
 40
0.0
 40
1.0
 40
1.0
 40
1.0
 40
1.0
 10
150.1586324328445
 20
143.612780785468
 30
0.0
 10
149.6634924034801
 20
142.7261011372877
 30
0.0
 10
149.1694096982012
 20
141.8388385016017
 30
0.0
 10
148.6766996013554
 20
140.9508195034753
 30
0.0
  0
LINE
  5
C6
330
1F
100
AcDbEntity
  8
0
  6
Continuous
 62
     7
370
    15
100
AcDbLine
 10
148.6766996014
 20
134.1957289799
 30
0.0
 11
148.6766996014
 21
140.9508195035
 31
0.0
  0
ARC
  5
C7
330
1F
100
AcDbEntity
  8
0
  6
Continuous
 62
     7
370
    15
100
AcDbCircle
 10
136.7672016354
 20
131.8444909883
 30
0.0
 40
7.255296553667146
100
AcDbArc
 50
70.8012926998
 51
109.3295635315
  0
LINE
  5
C8
330
1F
100
AcDbEntity
  8
0
  6
Continuous
 62
     7
370
    15
100
AcDbLine
 10
208.7666996014
 20
96.4197258339
 30
0.0
 11
208.7666996014
 21
129.8714447887
 31
0.0
  0
LINE
  5
C9
330
1F
100
AcDbEntity
  8
0
  6
Continuous
 62
     7
370
    15
100
AcDbLine
 10
208.8376074605
 20
102.7766444044
 30
0.0
 11
208.831600537
 21
102.7364418965
 31
0.0
  0
ARC
  5
CA
330
1F
100
AcDbEntity
  8
0
  6
Continuous
 62
     7
370
    15
100
AcDbCircle
 10
186.362732308
 20
103.3037556106
 30
0.0
 40
22.48105556555874
100
AcDbArc
 50
358.6564680972
 51
4.7462172745
  0
LWPOLYLINE
  5
CB
330
1F
100
AcDbEntity
  8
0
  6
Continuous
 62
     7
370
    15
100
AcDbPolyline
 90
        6
 70
   128
 43
0.0
 10
208.7787177368
 20
122.6538455926
 10
208.7844047204
 20
123.037613263
 10
208.7844047204
 20
123.3370927169
 10
208.7787177368
 20
123.5161623123
 10
208.7680297039
 20
123.5532236133
 10
208.7666996014
 20
123.5486687072
  0
LWPOLYLINE
  5
CC
330
1F
100
AcDbEntity
  8
0
  6
Continuous
 62
     7
370
    15
100
AcDbPolyline
 90
        3
 70
   128
 43
0.0
 10
208.7666996014
 20
122.1887567615
 10
208.7680297039
 20
122.2320777507
 10
208.7787177368
 20
122.6538455926
  0
ARC
  5
CD
330
1F
100
AcDbEntity
  8
0
  6
HIDDEN
 62
     7
370
     0
100
AcDbCircle
 10
185.2666996014
 20
113.1455853123
 30
0.0
 40
5.999999999999991
100
AcDbArc
 50
111.92623148
 51
248.1667758049
  0
ARC
  5
CE
330
1F
100
AcDbEntity
  8
0
  6
HIDDEN
 62
     7
370
     0
100
AcDbCircle
 10
185.2666996014
 20
113.1455853123
 30
0.0
 40
7.000000000000016
100
AcDbArc
 50
301.5130462652
 51
78.857612828
  0
ARC
  5
CF
330
1F
100
AcDbEntity
  8
0
  6
HIDDEN
 62
     7
370
     0
100
AcDbCircle
 10
185.2666996014
 20
113.1455853123
 30
0.0
 40
7.000000000000016
100
AcDbArc
 50
79.6053008232
 51
301.5130462652
  0
CIRCLE
  5
D0
330
1F
100
AcDbEntity
  8
0
  6
HIDDEN
 62
     7
370
     0
100
AcDbCircle
 10
185.2666996014
 20
113.1455853123
 30
0.0
 40
5.000000000000021
  0
CIRCLE
  5
D1
330
1F
100
AcDbEntity
  8
0
  6
HIDDEN
 62
     7
370
     0
100
AcDbCircle
 10
185.2666996014
 20
113.1455853123
 30
0.0
 40
3.750000000000012
  0
LINE
  5
D2
330
1F
100
AcDbEntity
  8
0
  6
HIDDEN
 62
     7
370
     0
100
AcDbLine
 10
143.3747667699
 20
137.6042749747
 30
0.0
 11
143.3747667699
 21
132.9955853123
 31
0.0
  0
ARC
  5
D3
330
1F
100
AcDbEntity
  8
0
  6
HIDDEN
 62
     7
370
     0
100
AcDbCircle
 10
137.052517881
 20
125.6346352784
 30
0.0
 40
3.670281203198797
100
AcDbArc
 50
265.5336451734
 51
13.4990676234
  0
ARC
  5
D4
330
1F
100
AcDbEntity
  8
0
  6
HIDDEN
 62
     7
370
     0
100
AcDbCircle
 10
136.4817595847
 20
125.6368146366
 30
0.0
 40
3.672385698370112
100
AcDbArc
 50
166.9516062505
 51
274.4500461145
  0
LINE
  5
D5
330
1F
100
AcDbEntity
  8
0
  6
HIDDEN
 62
     7
370
     0
100
AcDbLine
 10
116.7618498059
 20
89.6209856895
 30
0.0
 11
116.5129849872
 21
89.597722723
 31
0.0
  0
LINE
  5
D6
330
1F
100
AcDbEntity
  8
0
  6
HIDDEN
 62
     7
370
     0
100
AcDbLine
 10
116.380424226
 20
136.7056716405
 30
0.0
 11
116.7617570856
 21
136.6701683423
 31
0.0
  0
SPLINE
  5
D7
330
1F
100
AcDbEntity
  8
0
  6
HIDDEN
 62
     7
370
     0
100
AcDbSpline
210
0.0
220
0.0
230
1.0
 70
     8
 71
     3
 72
    11
 73
     7
 74
     0
 42
0.00000001
 43
0.00000001
 40
0.0
 40
0.0
 40
0.0
 40
0.0
 40
0.4851688718495878
 40
0.6579720722728025
 40
0.8363056653078682
 40
1.0
 40
1.0
 40
1.0
 40
1.0
 10
185.2666996013554
 20
107.1455853123037
 30
0.0
 10
185.6428490959222
 20
107.1646473436224
 30
0.0
 10
186.1529722237333
 20
107.1904987223407
 30
0.0
 10
186.7824257808702
 20
107.3363620948385
 30
0.0
 10
187.1636812306928
 20
107.4469975778235
 30
0.0
 10
187.4086111351089
 20
107.5428502847593
 30
0.0
 10
187.5258344215698
 20
107.5887253254162
 30
0.0
  0
SPLINE
  5
D8
330
1F
100
AcDbEntity
  8
0
  6
HIDDEN
 62
     7
370
     0
100
AcDbSpline
210
0.0
220
0.0
230
1.0
 70
     8
 71
     3
 72
    13
 73
     9
 74
     0
 42
0.00000001
 43
0.00000001
 40
0.0
 40
0.0
 40
0.0
 40
0.0
 40
0.2569182589653388
 40
0.4997811136850068
 40
0.7424861379783957
 40
0.8288498517917813
 40
0.9179398046819248
 40
1.0
 40
1.0
 40
1.0
 40
1.0
 10
187.5268753430213
 20
118.6986342835532
 30
0.0
 10
187.1519259013144
 20
118.8289584380844
 30
0.0
 10
186.4225396354004
 20
119.0824770138133
 30
0.0
 10
185.266416625839
 20
119.1783383141062
 30
0.0
 10
184.3802698817531
 20
119.0978698581604
 30
0.0
 10
183.7504957188956
 20
118.9551264347879
 30
0.0
 10
183.3689864235415
 20
118.8438258380273
 30
0.0
 10
183.1237766976017
 20
118.7479221145504
 30
0.0
 10
183.006207661202
 20
118.7019398097576
 30
0.0
  0
LINE
  5
D9
330
1F
100
AcDbEntity
  8
0
  6
HIDDEN
 62
     7
370
     0
100
AcDbLine
 10
184.4135159713
 20
107.2259710552
 30
0.0
 11
185.2666996014
 21
107.1455853123
 31
0.0
  0
SPLINE
  5
DA
330
1F
100
AcDbEntity
  8
0
  6
HIDDEN
 62
     7
370
     0
100
AcDbSpline
210
0.0
220
0.0
230
1.0
 70
     8
 71
     3
 72
    32
 73
    28
 74
     0
 42
0.00000001
 43
0.00000001
 40
0.0
 40
0.0
 40
0.0
 40
0.0
 40
0.0346246159901393
 40
0.0694870388940023
 40
0.105100760954932
 40
0.1409753874086758
 40
0.1756005721189328
 40
0.210469240812561
 40
0.2461122854708169
 40
0.2820258067991321
 40
0.3162663828049037
 40
0.3859338563640312
 40
0.4214461814158482
 40
0.4553763558770598
 40
0.5243713305904967
 40
0.5595124638219118
 40
0.593798734303577
 40
0.6635059787021123
 40
0.6990055363805018
 40
0.7337623601246063
 40
0.7687606633024604
 40
0.8045245907686109
 40
0.8405553812432468
 40
0.875170121130555
 40
0.9456085132854553
 40
0.9815233266320907
 40
1.0
 40
1.0
 40
1.0
 40
1.0
 10
122.521701602957
 20
93.30805683648727
 30
0.0
 10
122.4497033011106
 20
93.31784477939559
 30
0.0
 10
122.3052122025774
 20
93.33748789023203
 30
0.0
 10
122.063892268319
 20
93.36693710885375
 30
0.0
 10
121.8045940173333
 20
93.39548749094416
 30
0.0
 10
121.5306065982007
 20
93.42191870989899
 30
0.0
 10
121.2459788171792
 20
93.4453711872503
 30
0.0
 10
120.951393858211
 20
93.46536864370891
 30
0.0
 10
120.6444629492427
 20
93.48152432221265
 30
0.0
 10
120.3327314834902
 20
93.49296630990814
 30
0.0
 10
119.9154659348048
 20
93.501657437606
 30
0.0
 10
119.4948229414473
 20
93.5003693811458
 30
0.0
 10
119.0814193882818
 20
93.48914156977833
 30
0.0
 10
118.6765754252145
 20
93.47184329769745
 30
0.0
 10
118.2859373406524
 20
93.44612765392924
 30
0.0
 10
117.9171562626111
 20
93.41403434303231
 30
0.0
 10
117.5637384803627
 20
93.37847613452988
 30
0.0
 10
117.2382973900418
 20
93.33922767819428
 30
0.0
 10
116.9489201843244
 20
93.29959616082193
 30
0.0
 10
116.7510063073491
 20
93.2704604176797
 30
0.0
 10
116.5736793433116
 20
93.24272618536695
 30
0.0
 10
116.4170700147991
 20
93.21694564111256
 30
0.0
 10
116.2854224950964
 20
93.19433900437838
 30
0.0
 10
116.1435612995247
 20
93.16915295907171
 30
0.0
 10
116.054742711709
 20
93.1527074099481
 30
0.0
 10
116.0179197731586
 20
93.14581457913194
 30
0.0
 10
116.0193359203318
 20
93.14607956504113
 30
0.0
 10
116.019816982541
 20
93.14616958019583
 30
0.0
  0
SPLINE
  5
DB
330
1F
100
AcDbEntity
  8
0
  6
HIDDEN
 62
     7
370
     0
100
AcDbSpline
210
0.0
220
0.0
230
1.0
 70
     8
 71
     3
 72
    30
 73
    26
 74
     0
 42
0.00000001
 43
0.00000001
 40
0.0
 40
0.0
 40
0.0
 40
0.0
 40
0.0156161600804337
 40
0.0849748372628082
 40
0.1203204532886746
 40
0.15431851909124
 40
0.2234436946574013
 40
0.2586467089786606
 40
0.2931107206687011
 40
0.3631864361325603
 40
0.3988795186727328
 40
0.4336750628309723
 40
0.4687145712104809
 40
0.5045294144990544
 40
0.5406151111978532
 40
0.5750767863722916
 40
0.6452033649630275
 40
0.6809575734718859
 40
0.7149323277721685
 40
0.784033058295527
 40
0.8192378401372485
 40
0.8533347063218409
 40
0.9226550151093995
 40
0.9579547149334489
 40
1.0
 40
1.0
 40
1.0
 40
1.0
 10
116.019816982541
 20
133.1450010444116
 30
0.0
 10
116.0192192434559
 20
133.1451132972933
 30
0.0
 10
116.0159666652793
 20
133.1457241177706
 30
0.0
 10
116.0662875677276
 20
133.1362649833135
 30
0.0
 10
116.1665925967689
 20
133.1179601472173
 30
0.0
 10
116.3012095848386
 20
133.0939768418436
 30
0.0
 10
116.4832682298686
 20
133.0628780476971
 30
0.0
 10
116.7101908035339
 20
133.0269589036548
 30
0.0
 10
116.9667772089113
 20
132.9886398825157
 30
0.0
 10
117.264813867384
 20
132.9483947472074
 30
0.0
 10
117.5973631213837
 20
132.9097337238051
 30
0.0
 10
117.862560826788
 20
132.8823310650739
 30
0.0
 10
118.1416186520469
 20
132.8572862284617
 30
0.0
 10
118.4360696679411
 20
132.8351185311661
 30
0.0
 10
118.7389346012573
 20
132.8169564438962
 30
0.0
 10
119.1493205881261
 20
132.7986983389018
 30
0.0
 10
119.5701614270809
 20
132.7898511048974
 30
0.0
 10
119.9900653443099
 20
132.7913164993385
 30
0.0
 10
120.4046798651636
 20
132.7993598925058
 30
0.0
 10
120.8109009846394
 20
132.8168666781051
 30
0.0
 10
121.2004314843614
 20
132.842431991133
 30
0.0
 10
121.5772521855997
 20
132.8726162268471
 30
0.0
 10
121.9303893453037
 20
132.9085138016946
 30
0.0
 10
122.2721408331253
 20
132.9493320795532
 30
0.0
 10
122.4338145941349
 20
132.9712169931197
 30
0.0
 10
122.521701602957
 20
132.9831137881202
 30
0.0
  0
SPLINE
  5
DC
330
1F
100
AcDbEntity
  8
0
  6
HIDDEN
 62
     7
370
     0
100
AcDbSpline
210
0.0
220
0.0
230
1.0
 70
     8
 71
     3
 72
    15
 73
    11
 74
     0
 42
0.00000001
 43
0.00000001
 40
0.0
 40
0.0
 40
0.0
 40
0.0
 40
0.110063418724542
 40
0.2209009689825244
 40
0.3341663237413386
 40
0.4482661719592044
 40
0.5583525522743782
 40
0.7822319970743017
 40
0.8962856904736614
 40
0.9999999999999999
 40
0.9999999999999999
 40
0.9999999999999999
 40
0.9999999999999999
 10
122.521701602957
 20
132.9831137881202
 30
0.0
 10
122.5892955891859
 20
132.9921820421966
 30
0.0
 10
122.7249589842392
 20
133.0103823319539
 30
0.0
 10
122.9054044123995
 20
133.0311033875073
 30
0.0
 10
123.0675531732421
 20
133.0478430719699
 30
0.0
 10
123.205604371008
 20
133.0604251871514
 30
0.0
 10
123.3572448357289
 20
133.0728039707379
 30
0.0
 10
123.4586920563164
 20
133.0797613571431
 30
0.0
 10
123.5101118350592
 20
133.0830583857895
 30
0.0
 10
123.5140667958011
 20
133.0833036967323
 30
0.0
 10
123.5159503875917
 20
133.0834205286576
 30
0.0
  0
SPLINE
  5
DD
330
1F
100
AcDbEntity
  8
0
  6
HIDDEN
 62
     7
370
     0
100
AcDbSpline
210
0.0
220
0.0
230
1.0
 70
     8
 71
     3
 72
    17
 73
    13
 74
     0
 42
0.00000001
 43
0.00000001
 40
0.0
 40
0.0
 40
0.0
 40
0.0
 40
0.0069672687624688
 40
0.1183102921851768
 40
0.2320673444143036
 40
0.346659121075588
 40
0.457378105729912
 40
0.5688695494113597
 40
0.6828050884664152
 40
0.7975902534114447
 40
0.8984975015554767
 40
1.0
 40
1.0
 40
1.0
 40
1.0
 10
123.5159456312193
 20
93.20775039642119
 30
0.0
 10
123.5161952685062
 20
93.20773463154738
 30
0.0
 10
123.5204343270754
 20
93.20746693025866
 30
0.0
 10
123.5045129910027
 20
93.20846389090592
 30
0.0
 10
123.4654993662375
 20
93.2109803011723
 30
0.0
 10
123.397046630331
 20
93.21567794867
 30
0.0
 10
123.3042948154809
 20
93.22262780554988
 30
0.0
 10
123.1870032026479
 20
93.23235729272942
 30
0.0
 10
123.0441665718364
 20
93.24560429893845
 30
0.0
 10
122.8826171784017
 20
93.26259138763469
 30
0.0
 10
122.7088138382717
 20
93.28288402804387
 30
0.0
 10
122.5841945089994
 20
93.29964946563719
 30
0.0
 10
122.521701602957
 20
93.30805683648727
 30
0.0
  0
LINE
  5
DE
330
1F
100
AcDbEntity
  8
0
  6
HIDDEN
 62
     7
370
     0
100
AcDbLine
 10
109.7706741976
 20
96.1455853123
 30
0.0
 11
109.7706741976
 21
130.1455853123
 31
0.0
  0
LWPOLYLINE
  5
DF
330
1F
100
AcDbEntity
  8
0
  6
HIDDEN
 62
     7
370
     0
100
AcDbPolyline
 90
       15
 70
   128
 43
0.0
 10
136.7666996014
 20
135.0911877269
 10
137.5237045788
 20
135.1273303324
 10
138.253349424
 20
135.2344518609
 10
138.9292628712
 20
135.4086806613
 10
139.5270156473
 20
135.6437196507
 10
140.0250034096
 20
135.9310739078
 10
140.4052275828
 20
136.2603577009
 10
140.6539458746
 20
136.6196698559
 10
140.7621689581
 20
136.9960238953
 10
140.7259853689
 20
137.3758174035
 10
140.5467028762
 20
137.7453236536
 10
140.2308012165
 20
138.0911877269
 10
139.7896978988
 20
138.4009091948
 10
139.2393355462
 20
138.6632939164
 10
139.1530720956
 20
138.6962754441
  0
LWPOLYLINE
  5
E0
330
1F
100
AcDbEntity
  8
0
  6
HIDDEN
 62
     7
370
     0
100
AcDbPolyline
 90
       15
 70
   128
 43
0.0
 10
134.3656888119
 20
138.6908085562
 10
134.2940636565
 20
138.6632939164
 10
133.7437013039
 20
138.4009091948
 10
133.3025979862
 20
138.0911877269
 10
132.9866963265
 20
137.7453236536
 10
132.8074138338
 20
137.3758174035
 10
132.7712302446
 20
136.9960238953
 10
132.8794533281
 20
136.6196698559
 10
133.1281716199
 20
136.2603577009
 10
133.5083957932
 20
135.9310739078
 10
134.0063835554
 20
135.6437196507
 10
134.6041363315
 20
135.4086806613
 10
135.2800497787
 20
135.2344518609
 10
136.0096946239
 20
135.1273303324
 10
136.7666996014
 20
135.0911877269
  0
SPLINE
  5
E1
330
1F
100
AcDbEntity
  8
0
  6
HIDDEN
 62
     7
370
     0
100
AcDbSpline
210
0.0
220
0.0
230
1.0
 70
     8
 71
     3
 72
    11
 73
     7
 74
     0
 42
0.00000001
 43
0.00000001
 40
0.0
 40
0.0
 40
0.0
 40
0.0
 40
0.0005779865010845
 40
0.0005779865010845
 40
0.0005779865010845
 40
0.0011559733324421
 40
0.0011559733324421
 40
0.0011559733324421
 40
0.0011559733324421
 10
96.86669960135544
 20
115.1454259204575
 30
0.0
 10
97.03336685616141
 20
115.1434422811165
 30
0.0
 10
97.20003328583907
 20
115.141404674114
 30
0.0
 10
97.36669962429089
 20
115.1392932107076
 30
0.0
 10
97.53336605311729
 20
115.1371817461562
 30
0.0
 10
97.70003242675499
 20
115.1349961829999
 30
0.0
 10
97.86669960135542
 20
115.1327136056683
 30
0.0
  0
SPLINE
  5
E2
330
1F
100
AcDbEntity
  8
0
  6
HIDDEN
 62
     7
370
     0
100
AcDbSpline
210
0.0
220
0.0
230
1.0
 70
     8
 71
     3
 72
     8
 73
     4
 74
     0
 42
0.00000001
 43
0.00000001
 40
0.0
 40
0.0
 40
0.0
 40
0.0
 40
0.0011564765856722
 40
0.0011564765856722
 40
0.0011564765856722
 40
0.0011564765856722
 10
97.8666996013554
 20
111.1488850100875
 30
0.0
 10
97.53339167078657
 20
111.1480098545042
 30
0.0
 10
97.20005643839438
 20
111.1469550032527
 30
0.0
 10
96.86669960135542
 20
111.1457839162151
 30
0.0
  0
LINE
  5
E3
330
1F
100
AcDbEntity
  8
0
  6
HIDDEN
 62
     7
370
     0
100
AcDbLine
 10
136.4265255699
 20
96.1455853123
 30
0.0
 11
136.4265255699
 21
130.1455853123
 31
0.0
  0
LINE
  5
E4
330
1F
100
AcDbEntity
  8
0
  6
HIDDEN
 62
     7
370
     0
100
AcDbLine
 10
138.7166996014
 20
97.4205853123
 30
0.0
 11
138.7166996014
 21
128.8705853108
 31
0.0
  0
SPLINE
  5
E5
330
1F
100
AcDbEntity
  8
0
  6
HIDDEN
 62
     7
370
     0
100
AcDbSpline
210
0.0
220
0.0
230
1.0
 70
     8
 71
     3
 72
    16
 73
    12
 74
     0
 42
0.00000001
 43
0.00000001
 40
0.0
 40
0.0
 40
0.0
 40
0.0
 40
0.124999999999998
 40
0.124999999999998
 40
0.249999999999996
 40
0.249999999999996
 40
0.4999999999999973
 40
0.4999999999999973
 40
0.7499999999999987
 40
0.7499999999999987
 40
1.0
 40
1.0
 40
1.0
 40
1.0
 10
105.5666996013554
 20
97.34409487627208
 30
0.0
 10
105.6618213560213
 20
97.34409487627208
 30
0.0
 10
105.7551514247493
 20
97.34027904287927
 30
0.0
 10
105.9384131854873
 20
97.32550849014946
 30
0.0
 10
106.0292909010443
 20
97.31435044217388
 30
0.0
 10
106.2860925985641
 20
97.27187917203216
 30
0.0
 10
106.4411599634361
 20
97.23083297482935
 30
0.0
 10
106.6949064249907
 20
97.13568685824747
 30
0.0
 10
106.7957768766586
 20
97.08092412416589
 30
0.0
 10
106.9310232913534
 20
96.96966300026203
 30
0.0
 10
106.9666996013554
 20
96.91249326293332
 30
0.0
 10
106.9666996013554
 20
96.8580716898996
 30
0.0
  0
SPLINE
  5
E6
330
1F
100
AcDbEntity
  8
0
  6
HIDDEN
 62
     7
370
     0
100
AcDbSpline
210
0.0
220
0.0
230
1.0
 70
     8
 71
     3
 72
     8
 73
     4
 74
     0
 42
0.00000001
 43
0.00000001
 40
0.0
 40
0.0
 40
0.0
 40
0.0
 40
1.0
 40
1.0
 40
1.0
 40
1.0
 10
98.16669960467061
 20
99.48889782235432
 30
0.0
 10
98.16669960467254
 20
98.60500068003739
 30
0.0
 10
98.15321897876275
 20
97.89041743497543
 30
0.0
 10
98.15186761057345
 20
97.34409487627208
 30
0.0
  0
SPLINE
  5
E7
330
1F
100
AcDbEntity
  8
0
  6
HIDDEN
 62
     7
370
     0
100
AcDbSpline
210
0.0
220
0.0
230
1.0
 70
     8
 71
     3
 72
    10
 73
     6
 74
     0
 42
0.00000001
 43
0.00000001
 40
0.0
 40
0.0
 40
0.0
 40
0.0
 40
0.5
 40
0.5
 40
1.0
 40
1.0
 40
1.0
 40
1.0
 10
97.8666996013554
 20
100.5138080880575
 30
0.0
 10
97.95809071704832
 20
100.3391693004401
 30
0.0
 10
98.03074255078138
 20
100.1655674731845
 30
0.0
 10
98.13824144378954
 20
99.82195405417781
 30
0.0
 10
98.166699604665
 20
99.65362822764635
 30
0.0
 10
98.16669960467061
 20
99.48889782241379
 30
0.0
  0
LINE
  5
E8
330
1F
100
AcDbEntity
  8
0
  6
HIDDEN
 62
     7
370
     0
100
AcDbLine
 10
97.8666996014
 20
103.5447585199
 30
0.0
 11
97.8666996014
 21
100.5138080881
 31
0.0
  0
SPLINE
  5
E9
330
1F
100
AcDbEntity
  8
0
  6
HIDDEN
 62
     7
370
     0
100
AcDbSpline
210
0.0
220
0.0
230
1.0
 70
     8
 71
     3
 72
    10
 73
     6
 74
     0
 42
0.00000001
 43
0.00000001
 40
0.0
 40
0.0
 40
0.0
 40
0.0
 40
0.5
 40
0.5
 40
1.0
 40
1.0
 40
1.0
 40
1.0
 10
98.16669960454314
 20
104.9125989366609
 30
0.0
 10
98.16669960454311
 20
104.6706149690541
 30
0.0
 10
98.13854957547254
 20
104.4362725400891
 30
0.0
 10
98.03495966133013
 20
103.9808975178114
 30
0.0
 10
97.95833095173863
 20
103.759292954704
 30
0.0
 10
97.86669960135542
 20
103.5447585199061
 30
0.0
  0
LINE
  5
EA
330
1F
100
AcDbEntity
  8
0
  6
HIDDEN
 62
     7
370
     0
100
AcDbLine
 10
98.1666996045
 20
116.7502189339
 30
0.0
 11
98.1666996045
 21
104.9125989366
 31
0.0
  0
SPLINE
  5
EB
330
1F
100
AcDbEntity
  8
0
  6
HIDDEN
 62
     7
370
     0
100
AcDbSpline
210
0.0
220
0.0
230
1.0
 70
     8
 71
     3
 72
     8
 73
     4
 74
     0
 42
0.00000001
 43
0.00000001
 40
0.0
 40
0.0
 40
0.0
 40
0.0
 40
1.0
 40
1.0
 40
1.0
 40
1.0
 10
97.8666996013554
 20
122.7525246333721
 30
0.0
 10
98.04773106791433
 20
122.3204171477094
 30
0.0
 10
98.16669960454885
 20
121.8662717416097
 30
0.0
 10
98.16669960454315
 20
121.3785716879157
 30
0.0
  0
LINE
  5
EC
330
1F
100
AcDbEntity
  8
0
  6
HIDDEN
 62
     7
370
     0
100
AcDbLine
 10
97.8666996014
 20
125.7857276194
 30
0.0
 11
97.8666996014
 21
122.7525246334
 31
0.0
  0
SPLINE
  5
ED
330
1F
100
AcDbEntity
  8
0
  6
HIDDEN
 62
     7
370
     0
100
AcDbSpline
210
0.0
220
0.0
230
1.0
 70
     8
 71
     3
 72
    10
 73
     6
 74
     0
 42
0.00000001
 43
0.00000001
 40
0.0
 40
0.0
 40
0.0
 40
0.0
 40
0.5
 40
0.5
 40
1.0
 40
1.0
 40
1.0
 40
1.0
 10
98.16669960474863
 20
126.8022728022236
 30
0.0
 10
98.16669960474685
 20
126.6376364556176
 30
0.0
 10
98.13954093399134
 20
126.4704812317871
 30
0.0
 10
98.03377593867292
 20
126.1318582239855
 30
0.0
 10
97.95736115037579
 20
125.9595864466944
 30
0.0
 10
97.86669960135544
 20
125.7857276193504
 30
0.0
  0
SPLINE
  5
EE
330
1F
100
AcDbEntity
  8
0
  6
HIDDEN
 62
     7
370
     0
100
AcDbSpline
210
0.0
220
0.0
230
1.0
 70
     8
 71
     3
 72
    18
 73
    14
 74
     0
 42
0.00000001
 43
0.00000001
 40
0.0
 40
0.0
 40
0.0
 40
0.0
 40
0.2500000000000033
 40
0.2500000000000033
 40
0.3750000000000029
 40
0.3750000000000029
 40
0.5000000000000026
 40
0.5000000000000026
 40
0.6250000000000022
 40
0.6250000000000022
 40
0.7500000000000018
 40
0.7500000000000018
 40
1.0
 40
1.0
 40
1.0
 40
1.0
 10
102.9666996013554
 20
129.4330989347079
 30
0.0
 10
102.9666996013554
 20
129.3786244141556
 30
0.0
 10
102.9317889099632
 20
129.3222433548032
 30
0.0
 10
102.8297796086302
 20
129.2381665139497
 30
0.0
 10
102.7881432539521
 20
129.2108328099588
 30
0.0
 10
102.6897374584633
 20
129.1578788943598
 30
0.0
 10
102.6321942467591
 20
129.1319915406426
 30
0.0
 10
102.5048960731861
 20
129.0842139958094
 30
0.0
 10
102.4353087684286
 20
129.0622660776315
 30
0.0
 10
102.2838745232737
 20
129.0228335127188
 30
0.0
 10
102.2011906201797
 20
129.0052772634929
 30
0.0
 10
101.9450791581417
 20
128.9628384980724
 30
0.0
 10
101.7571641542537
 20
128.9470757483354
 30
0.0
 10
101.5666996013554
 20
128.9470757483354
 30
0.0
  0
LINE
  5
EF
330
1F
100
AcDbEntity
  8
0
  6
HIDDEN
 62
     7
370
     0
100
AcDbLine
 10
101.5666996014
 20
128.9470757483
 30
0.0
 11
98.1666996047
 21
128.9470757483
 31
0.0
  0
LINE
  5
F0
330
1F
100
AcDbEntity
  8
0
  6
HIDDEN
 62
     7
370
     0
100
AcDbLine
 10
98.0977306147
 20
97.3440948763
 30
0.0
 11
105.5666996014
 21
97.3440948763
 31
0.0
  0
SPLINE
  5
F1
330
1F
100
AcDbEntity
  8
0
  6
HIDDEN
 62
     7
370
     0
100
AcDbSpline
210
0.0
220
0.0
230
1.0
 70
     8
 71
     3
 72
    22
 73
    18
 74
     0
 42
0.00000001
 43
0.00000001
 40
0.0
 40
0.0
 40
0.0
 40
0.0
 40
0.1249999999999998
 40
0.1249999999999998
 40
0.2499999999999995
 40
0.2499999999999995
 40
0.4999999999999992
 40
0.4999999999999992
 40
0.5624999999999993
 40
0.5624999999999993
 40
0.6249999999999994
 40
0.6249999999999994
 40
0.7499999999999996
 40
0.7499999999999996
 40
0.8749999999999998
 40
0.8749999999999998
 40
1.0
 40
1.0
 40
1.0
 40
1.0
 10
98.09773061471334
 20
97.34409487627208
 30
0.0
 10
98.08464822198498
 20
97.59920058641974
 30
0.0
 10
98.07142865854514
 20
97.89235884552365
 30
0.0
 10
98.04898148075102
 20
98.55465931114846
 30
0.0
 10
98.03950301372656
 20
98.92493323175984
 30
0.0
 10
98.02030505279
 20
100.1474900348736
 30
0.0
 10
98.0214188257869
 20
101.0846289610055
 30
0.0
 10
98.04032961873997
 20
102.4045001905205
 30
0.0
 10
98.04495914659897
 20
102.6760020994968
 30
0.0
 10
98.05544036634494
 20
103.2343869342991
 30
0.0
 10
98.06123562762934
 20
103.5215097902387
 30
0.0
 10
98.07954484853428
 20
104.3940990446104
 30
0.0
 10
98.09357978281464
 20
104.9945547209662
 30
0.0
 10
98.12303695495146
 20
106.2320292134623
 30
0.0
 10
98.13859264593304
 20
106.8690453701058
 30
0.0
 10
98.16238719592992
 20
108.1805339677903
 30
0.0
 10
98.1704062480753
 20
108.8566565794508
 30
0.0
 10
98.16669960135542
 20
109.5409516907356
 30
0.0
  0
LINE
  5
F2
330
1F
100
AcDbEntity
  8
0
  6
HIDDEN
 62
     7
370
     0
100
AcDbLine
 10
98.1666996047
 20
116.7502189339
 30
0.0
 11
98.1666996047
 21
128.9470757483
 31
0.0
  0
SPLINE
  5
F3
330
1F
100
AcDbEntity
  8
0
  6
HIDDEN
 62
     7
370
     0
100
AcDbSpline
210
0.0
220
0.0
230
1.0
 70
     8
 71
     3
 72
    10
 73
     6
 74
     0
 42
0.00000001
 43
0.00000001
 40
0.0
 40
0.0
 40
0.0
 40
0.0
 40
0.5
 40
0.5
 40
1.0
 40
1.0
 40
1.0
 40
1.0
 10
98.16669960135542
 20
109.5409516907205
 30
0.0
 10
98.16669960135523
 20
109.8148668387949
 30
0.0
 10
98.14094037148753
 20
110.085808417525
 30
0.0
 10
98.03773443875441
 20
110.6214994991279
 30
0.0
 10
97.96039627487917
 20
110.8872463026499
 30
0.0
 10
97.8666996013554
 20
111.1488850100875
 30
0.0
  0
SPLINE
  5
F4
330
1F
100
AcDbEntity
  8
0
  6
HIDDEN
 62
     7
370
     0
100
AcDbSpline
210
0.0
220
0.0
230
1.0
 70
     8
 71
     3
 72
    10
 73
     6
 74
     0
 42
0.00000001
 43
0.00000001
 40
0.0
 40
0.0
 40
0.0
 40
0.0
 40
0.5
 40
0.5
 40
1.0
 40
1.0
 40
1.0
 40
1.0
 10
97.8666996013554
 20
115.1327136056683
 30
0.0
 10
97.95993018274643
 20
115.3966074137384
 30
0.0
 10
98.03495979498318
 20
115.6627877243766
 30
0.0
 10
98.14002689416132
 20
116.2011102993348
 30
0.0
 10
98.1666996047475
 20
116.4738584155804
 30
0.0
 10
98.16669960474869
 20
116.7502189338708
 30
0.0
  0
LINE
  5
F5
330
1F
100
AcDbEntity
  8
0
  6
HIDDEN
 62
     7
370
     0
100
AcDbLine
 10
97.8666996014
 20
111.1488850101
 30
0.0
 11
97.8666996014
 21
115.1327136057
 31
0.0
  0
LWPOLYLINE
  5
F6
330
1F
100
AcDbEntity
  8
0
  6
HIDDEN
 62
     7
370
     0
100
AcDbPolyline
 90
       21
 70
   128
 43
0.0
 10
161.7666996014
 20
100.4883739291
 10
161.3031741098
 20
100.5402863329
 10
160.8850217229
 20
100.6909419966
 10
160.5531741098
 20
100.9255936942
 10
160.3401148269
 20
101.2212720825
 10
160.2666996014
 20
101.5490341008
 10
160.3401148269
 20
101.8767961192
 10
160.5531741098
 20
102.1724745075
 10
160.8850217229
 20
102.4071262051
 10
161.3031741098
 20
102.5577818688
 10
161.7666996014
 20
102.6096942726
 10
162.2302250929
 20
102.5577818688
 10
162.6483774798
 20
102.4071262051
 10
162.9802250929
 20
102.1724745075
 10
163.1932843758
 20
101.8767961192
 10
163.2666996014
 20
101.5490341008
 10
163.1932843758
 20
101.2212720825
 10
162.9802250929
 20
100.9255936942
 10
162.6483774798
 20
100.6909419966
 10
162.2302250929
 20
100.5402863329
 10
161.7666996014
 20
100.4883739291
  0
SPLINE
  5
F7
330
1F
100
AcDbEntity
  8
0
  6
HIDDEN
 62
     7
370
     0
100
AcDbSpline
210
0.0
220
0.0
230
1.0
 70
     8
 71
     3
 72
    14
 73
    10
 74
     0
 42
0.00000001
 43
0.00000001
 40
0.0
 40
0.0
 40
0.0
 40
0.0
 40
0.25
 40
0.25
 40
0.5
 40
0.5
 40
0.75
 40
0.75
 40
1.0
 40
1.0
 40
1.0
 40
1.0
 10
160.8215190198072
 20
101.4764902593686
 30
0.0
 10
160.8570922737584
 20
101.5095066207966
 30
0.0
 10
160.8879941047771
 20
101.5495573953229
 30
0.0
 10
160.9305482253575
 20
101.6480200374297
 30
0.0
 10
160.9407748755172
 20
101.7048356880545
 30
0.0
 10
160.9324407690206
 20
101.8327730528623
 30
0.0
 10
160.9138231321858
 20
101.9025061496024
 30
0.0
 10
160.8583177496327
 20
102.0460249162483
 30
0.0
 10
160.8222251002735
 20
102.1193504949651
 30
0.0
 10
160.7829195328312
 20
102.1940878737458
 30
0.0
  0
SPLINE
  5
F8
330
1F
100
AcDbEntity
  8
0
  6
HIDDEN
 62
     7
370
     0
100
AcDbSpline
210
0.0
220
0.0
230
1.0
 70
     8
 71
     3
 72
    14
 73
    10
 74
     0
 42
0.00000001
 43
0.00000001
 40
0.0
 40
0.0
 40
0.0
 40
0.0
 40
0.25
 40
0.25
 40
0.5
 40
0.5
 40
0.75
 40
0.75
 40
1.0
 40
1.0
 40
1.0
 40
1.0
 10
160.7829195328312
 20
102.1940878737448
 30
0.0
 10
160.7512728035488
 20
102.1577198207182
 30
0.0
 10
160.7210754749723
 20
102.1219664671817
 30
0.0
 10
160.6730018701473
 20
102.0399993602503
 30
0.0
 10
160.6555164018158
 20
101.9913203954279
 30
0.0
 10
160.6652262381751
 20
101.8583595178666
 30
0.0
 10
160.6905510124129
 20
101.7797518992736
 30
0.0
 10
160.7502460291124
 20
101.6269047185959
 30
0.0
 10
160.7851089575279
 20
101.5510711050927
 30
0.0
 10
160.8215190198072
 20
101.4764902593682
 30
0.0
  0
SPLINE
  5
F9
330
1F
100
AcDbEntity
  8
0
  6
HIDDEN
 62
     7
370
     0
100
AcDbSpline
210
0.0
220
0.0
230
1.0
 70
     8
 71
     3
 72
    48
 73
    44
 74
     0
 42
0.00000001
 43
0.00000001
 40
-0.0625000000000007
 40
-0.0625000000000007
 40
0.0
 40
0.0
 40
0.0312500000000011
 40
0.0312500000000011
 40
0.0625000000000021
 40
0.0625000000000021
 40
0.1250000000000033
 40
0.1250000000000033
 40
0.1875000000000045
 40
0.1875000000000045
 40
0.2500000000000056
 40
0.2500000000000056
 40
0.3125000000000068
 40
0.3125000000000068
 40
0.3437500000000069
 40
0.3437500000000069
 40
0.3750000000000069
 40
0.3750000000000069
 40
0.406250000000007
 40
0.406250000000007
 40
0.437500000000007
 40
0.437500000000007
 40
0.5000000000000061
 40
0.5000000000000061
 40
0.5625000000000051
 40
0.5625000000000051
 40
0.6250000000000041
 40
0.6250000000000041
 40
0.6875000000000032
 40
0.6875000000000032
 40
0.7500000000000022
 40
0.7500000000000022
 40
0.8125000000000012
 40
0.8125000000000012
 40
0.8437500000000008
 40
0.8437500000000008
 40
0.8750000000000002
 40
0.8750000000000002
 40
0.9062499999999998
 40
0.9062499999999998
 40
0.9374999999999993
 40
0.9374999999999993
 40
1.0
 40
1.0
 40
1.031250000000001
 40
1.031250000000001
 10
162.897489578707
 20
101.4283626357642
 30
0.0
 10
163.019557409224
 20
101.4317539609861
 30
0.0
 10
163.0580197391416
 20
101.4402007769324
 30
0.0
 10
163.1281692149081
 20
101.4724756409866
 30
0.0
 10
163.1601863476832
 20
101.4967483984524
 30
0.0
 10
163.2389219346009
 20
101.5935710599737
 30
0.0
 10
163.2686503354218
 20
101.6927206977087
 30
0.0
 10
163.2645385813917
 20
101.9416424994784
 30
0.0
 10
163.2304924887262
 20
102.0922439465729
 30
0.0
 10
163.1191263302015
 20
102.4011591171014
 30
0.0
 10
163.0427274066109
 20
102.5599189967273
 30
0.0
 10
162.8795542263466
 20
102.8676902435655
 30
0.0
 10
162.790914760331
 20
103.0184277764757
 30
0.0
 10
162.6817006596021
 20
103.2363529899982
 30
0.0
 10
162.6487791118902
 20
103.3095086496907
 30
0.0
 10
162.6043283988903
 20
103.4490452933365
 30
0.0
 10
162.5930955804663
 20
103.517045928705
 30
0.0
 10
162.5998833788902
 20
103.6369794402162
 30
0.0
 10
162.6176303421758
 20
103.690398174871
 30
0.0
 10
162.6697808686486
 20
103.7785452532006
 30
0.0
 10
162.7041540331158
 20
103.8146674392849
 30
0.0
 10
162.8161006938138
 20
103.9007667896357
 30
0.0
 10
162.9015846709673
 20
103.92986380703
 30
0.0
 10
163.0597361488676
 20
103.9334024024647
 30
0.0
 10
163.1319810243025
 20
103.9074375489845
 30
0.0
 10
163.2376710806875
 20
103.7857404850372
 30
0.0
 10
163.2681701264458
 20
103.6888917258095
 30
0.0
 10
163.2651137505278
 20
103.4397426553423
 30
0.0
 10
163.2311911001334
 20
103.2868073324755
 30
0.0
 10
163.1212256725352
 20
102.9739264363093
 30
0.0
 10
163.0460704071424
 20
102.81297051425
 30
0.0
 10
162.8873104773961
 20
102.503468052046
 30
0.0
 10
162.8006657567543
 20
102.3505895855152
 30
0.0
 10
162.6921956223086
 20
102.1319659700233
 30
0.0
 10
162.6592460556578
 20
102.0598189842381
 30
0.0
 10
162.6104565158975
 20
101.9174709743763
 30
0.0
 10
162.5958649217738
 20
101.8491823224553
 30
0.0
 10
162.5958466849423
 20
101.724101560466
 30
0.0
 10
162.6105289119015
 20
101.6692400049854
 30
0.0
 10
162.6605412879261
 20
101.577293981538
 30
0.0
 10
162.6945275939568
 20
101.5409754164656
 30
0.0
 10
162.8088251625494
 20
101.4545023275265
 30
0.0
 10
162.897489578707
 20
101.4283626357642
 30
0.0
 10
163.019557409224
 20
101.4317539609861
 30
0.0
  0
SPLINE
  5
FA
330
1F
100
AcDbEntity
  8
0
  6
HIDDEN
 62
     7
370
     0
100
AcDbSpline
210
0.0
220
0.0
230
1.0
 70
     8
 71
     3
 72
     8
 73
     4
 74
     0
 42
0.00000001
 43
0.00000001
 40
0.0
 40
0.0
 40
0.0
 40
0.0
 40
1.0
 40
1.0
 40
1.0
 40
1.0
 10
163.0087336405659
 20
107.9186601080357
 30
0.0
 10
162.9674746218315
 20
107.9554718239361
 30
0.0
 10
162.9219052118856
 20
107.994420551204
 30
0.0
 10
162.8719255832357
 20
108.0376772658659
 30
0.0
  0
SPLINE
  5
FB
330
1F
100
AcDbEntity
  8
0
  6
HIDDEN
 62
     7
370
     0
100
AcDbSpline
210
0.0
220
0.0
230
1.0
 70
     8
 71
     3
 72
    34
 73
    30
 74
     0
 42
0.00000001
 43
0.00000001
 40
0.0
 40
0.0
 40
0.0
 40
0.0
 40
0.0625000000000011
 40
0.0625000000000011
 40
0.1250000000000021
 40
0.1250000000000021
 40
0.2500000000000014
 40
0.2500000000000014
 40
0.3125000000000011
 40
0.3125000000000011
 40
0.3750000000000007
 40
0.3750000000000007
 40
0.5000000000000003
 40
0.5000000000000003
 40
0.5625000000000003
 40
0.5625000000000003
 40
0.6250000000000003
 40
0.6250000000000003
 40
0.6875000000000002
 40
0.6875000000000002
 40
0.7500000000000002
 40
0.7500000000000002
 40
0.8125000000000001
 40
0.8125000000000001
 40
0.8750000000000001
 40
0.8750000000000001
 40
0.9375
 40
0.9375
 40
1.0
 40
1.0
 40
1.0
 40
1.0
 10
162.8719255832357
 20
108.0376772658659
 30
0.0
 10
162.7698108274369
 20
108.1260562509376
 30
0.0
 10
162.65383914132
 20
108.2018234117058
 30
0.0
 10
162.3943319357711
 20
108.3261168694103
 30
0.0
 10
162.2540719130756
 20
108.3725851714996
 30
0.0
 10
161.815839633683
 20
108.457934697213
 30
0.0
 10
161.5007752816585
 20
108.4385202062167
 30
0.0
 10
161.0833267667028
 20
108.3039578730745
 30
0.0
 10
160.950671944577
 20
108.2412332508512
 30
0.0
 10
160.7173103675491
 20
108.0914892854864
 30
0.0
 10
160.6131943143554
 20
108.0023644205423
 30
0.0
 10
160.360476870298
 20
107.7145447497724
 30
0.0
 10
160.266783866822
 20
107.4899526045845
 30
0.0
 10
160.266657556498
 20
107.1703669094651
 30
0.0
 10
160.2889928726146
 20
107.0682836920056
 30
0.0
 10
160.3783067810376
 20
106.8749685543107
 30
0.0
 10
160.4432150860907
 20
106.7877330997945
 30
0.0
 10
160.6132246656476
 20
106.6298348945834
 30
0.0
 10
160.715347455403
 20
106.5622315500373
 30
0.0
 10
160.9499272808729
 20
106.4490796621407
 30
0.0
 10
161.0811705001152
 20
106.4044295334189
 30
0.0
 10
161.3598538872351
 20
106.3405417592147
 30
0.0
 10
161.5090008443775
 20
106.3210961281949
 30
0.0
 10
161.8073560409539
 20
106.3085972778542
 30
0.0
 10
161.9604174782886
 20
106.3154563078034
 30
0.0
 10
162.2515277113249
 20
106.3547059313664
 30
0.0
 10
162.3938703713003
 20
106.3876829284613
 30
0.0
 10
162.651550759172
 20
106.4772067558048
 30
0.0
 10
162.7698081676373
 20
106.534464064319
 30
0.0
 10
162.8719255832357
 20
106.6034697990209
 30
0.0
  0
SPLINE
  5
FC
330
1F
100
AcDbEntity
  8
0
  6
HIDDEN
 62
     7
370
     0
100
AcDbSpline
210
0.0
220
0.0
230
1.0
 70
     8
 71
     3
 72
     8
 73
     4
 74
     0
 42
0.00000001
 43
0.00000001
 40
0.0
 40
0.0
 40
0.0
 40
0.0
 40
1.0
 40
1.0
 40
1.0
 40
1.0
 10
162.8719255832357
 20
106.603469799021
 30
0.0
 10
162.9219052118856
 20
106.6372434797875
 30
0.0
 10
162.9674746218315
 20
106.679890244306
 30
0.0
 10
163.0087336405659
 20
106.7292472735308
 30
0.0
  0
SPLINE
  5
FD
330
1F
100
AcDbEntity
  8
0
  6
HIDDEN
 62
     7
370
     0
100
AcDbSpline
210
0.0
220
0.0
230
1.0
 70
     8
 71
     3
 72
    12
 73
     8
 74
     0
 42
0.00000001
 43
0.00000001
 40
0.0
 40
0.0
 40
0.0
 40
0.0
 40
0.2500000000000003
 40
0.2500000000000003
 40
0.5000000000000006
 40
0.5000000000000006
 40
1.0
 40
1.0
 40
1.0
 40
1.0
 10
163.0087336405659
 20
106.7292472735308
 30
0.0
 10
163.0924592062205
 20
106.8294058647343
 30
0.0
 10
163.1563398933016
 20
106.9324179920434
 30
0.0
 10
163.2442523026131
 20
107.1461148794994
 30
0.0
 10
163.2665624732452
 20
107.253693418072
 30
0.0
 10
163.2669719695328
 20
107.569842557113
 30
0.0
 10
163.1761902081105
 20
107.7692536563266
 30
0.0
 10
163.0087336405659
 20
107.9186601080357
 30
0.0
  0
SPLINE
  5
FE
330
1F
100
AcDbEntity
  8
0
  6
HIDDEN
 62
     7
370
     0
100
AcDbSpline
210
0.0
220
0.0
230
1.0
 70
     8
 71
     3
 72
    10
 73
     6
 74
     0
 42
0.00000001
 43
0.00000001
 40
0.0
 40
0.0
 40
0.0
 40
0.0
 40
0.5
 40
0.5
 40
1.0
 40
1.0
 40
1.0
 40
1.0
 10
160.7829195328312
 20
103.7954477813081
 30
0.0
 10
160.8613998508842
 20
103.7426490230121
 30
0.0
 10
160.9278099109783
 20
103.6574906698413
 30
0.0
 10
160.9452537731088
 20
103.4160410652339
 30
0.0
 10
160.8926934043834
 20
103.2714299219661
 30
0.0
 10
160.8215190198071
 20
103.1236901065423
 30
0.0
  0
SPLINE
  5
FF
330
1F
100
AcDbEntity
  8
0
  6
HIDDEN
 62
     7
370
     0
100
AcDbSpline
210
0.0
220
0.0
230
1.0
 70
     8
 71
     3
 72
    14
 73
    10
 74
     0
 42
0.00000001
 43
0.00000001
 40
0.0
 40
0.0
 40
0.0
 40
0.0
 40
0.25
 40
0.25
 40
0.5
 40
0.5
 40
0.75
 40
0.75
 40
1.0
 40
1.0
 40
1.0
 40
1.0
 10
160.8215190198072
 20
103.1236901065428
 30
0.0
 10
160.7850500241732
 20
103.1565390830388
 30
0.0
 10
160.7501070920129
 20
103.1881549273922
 30
0.0
 10
160.690369750668
 20
103.2589520703625
 30
0.0
 10
160.665080551345
 20
103.2988938723319
 30
0.0
 10
160.6555934521144
 20
103.4166422301505
 30
0.0
 10
160.6730884548678
 20
103.4929387831276
 30
0.0
 10
160.7212830241259
 20
103.6442752860631
 30
0.0
 10
160.7513355741036
 20
103.7203452604934
 30
0.0
 10
160.7829195328312
 20
103.7954477813103
 30
0.0
  0
SPLINE
  5
100
330
1F
100
AcDbEntity
  8
0
  6
HIDDEN
 62
     7
370
     0
100
AcDbSpline
210
0.0
220
0.0
230
1.0
 70
     8
 71
     3
 72
    10
 73
     6
 74
     0
 42
0.00000001
 43
0.00000001
 40
0.0
 40
0.0
 40
0.0
 40
0.0
 40
0.5
 40
0.5
 40
1.0
 40
1.0
 40
1.0
 40
1.0
 10
160.266699601355
 20
102.8749890500923
 30
0.0
 10
160.266699601355
 20
102.8982424666766
 30
0.0
 10
160.2677792481718
 20
102.9193378625534
 30
0.0
 10
160.2719325051691
 20
102.9574198850813
 30
0.0
 10
160.2750070708051
 20
102.974409003875
 30
0.0
 10
160.2790099520578
 20
102.9892745300517
 30
0.0
  0
SPLINE
  5
101
330
1F
100
AcDbEntity
  8
0
  6
HIDDEN
 62
     7
370
     0
100
AcDbSpline
210
0.0
220
0.0
230
1.0
 70
     8
 71
     3
 72
    18
 73
    14
 74
     0
 42
0.00000001
 43
0.00000001
 40
0.0
 40
0.0
 40
0.0
 40
0.0
 40
0.0725468170436698
 40
0.1614465570821674
 40
0.2237901744065808
 40
0.2739496779913565
 40
0.3241523600612881
 40
0.3940486994924643
 40
0.5073064483300985
 40
0.627250053155946
 40
0.7710998847882483
 40
0.9051909783954614
 40
1.0
 40
1.0
 40
1.0
 40
1.0
 10
160.2952435435072
 20
103.0187823837339
 30
0.0
 10
160.3003492609394
 20
103.0304367990118
 30
0.0
 10
160.3117115857724
 20
103.0563726746035
 30
0.0
 10
160.3335354826561
 20
103.0544782275738
 30
0.0
 10
160.3484686341893
 20
103.0313676756551
 30
0.0
 10
160.3534720800738
 20
102.9892945557352
 30
0.0
 10
160.3492220096281
 20
102.9264579382638
 30
0.0
 10
160.3325986140611
 20
102.8257213002175
 30
0.0
 10
160.3050045259188
 20
102.6900616716944
 30
0.0
 10
160.2764461186012
 20
102.527076483793
 30
0.0
 10
160.2629847670842
 20
102.3761307157929
 30
0.0
 10
160.270926740673
 20
102.2685245517395
 30
0.0
 10
160.2877611803528
 20
102.2403809831536
 30
0.0
 10
160.2947339018555
 20
102.2287240899292
 30
0.0
  0
LWPOLYLINE
  5
102
330
1F
100
AcDbEntity
  8
0
  6
HIDDEN
 62
     7
370
     0
100
AcDbPolyline
 90
        9
 70
   128
 43
0.0
 10
160.3021262182
 20
102.212472021
 10
160.3324839517
 20
102.2080584747
 10
160.3465666553
 20
102.2318542446
 10
160.3519732783
 20
102.2706297749
 10
160.3489229937
 20
102.3278271916
 10
160.3366819584
 20
102.4067494077
 10
160.3109231806
 20
102.5365680477
 10
160.2791982105
 20
102.7166945773
 10
160.2666996014
 20
102.8749890501
  0
ARC
  5
103
330
1F
100
AcDbEntity
  8
0
  6
HIDDEN
 62
     7
370
     0
100
AcDbCircle
 10
147.6438560553
 20
102.7034836935
 30
0.0
 40
13.18436098697826
100
AcDbArc
 50
1.8264163085
 51
4.7508319696
  0
LINE
  5
104
330
1F
100
AcDbEntity
  8
0
  6
HIDDEN
 62
     7
370
     0
100
AcDbLine
 10
98.0166996014
 20
95.1555853123
 30
0.0
 11
98.0166996014
 21
92.2756475469
 31
0.0
  0
LINE
  5
105
330
1F
100
AcDbEntity
  8
0
  6
HIDDEN
 62
     7
370
     0
100
AcDbLine
 10
106.9666996014
 20
95.1555853123
 30
0.0
 11
106.9666996014
 21
91.1818477811
 31
0.0
  0
ARC
  5
106
330
1F
100
AcDbEntity
  8
0
  6
HIDDEN
 62
     7
370
     0
100
AcDbCircle
 10
176.9908902843
 20
102.706075679
 30
0.0
 40
16.21605523529858
100
AcDbArc
 50
181.8092942998
 51
184.3486370525
  0
LINE
  5
107
330
1F
100
AcDbEntity
  8
0
  6
HIDDEN
 62
     7
370
     0
100
AcDbLine
 10
98.0166996014
 20
131.1355853123
 30
0.0
 11
98.0166996014
 21
134.0155230777
 31
0.0
  0
LINE
  5
108
330
1F
100
AcDbEntity
  8
0
  6
HIDDEN
 62
     7
370
     0
100
AcDbLine
 10
102.9666996014
 20
131.1355853123
 30
0.0
 11
102.9666996014
 21
134.9896929847
 31
0.0
  0
LINE
  5
109
330
1F
100
AcDbEntity
  8
0
  6
HIDDEN
 62
     7
370
     0
100
AcDbLine
 10
150.5666996014
 20
103.6455853123
 30
0.0
 11
150.5666996014
 21
122.6455853123
 31
0.0
  0
LINE
  5
10A
330
1F
100
AcDbEntity
  8
0
  6
HIDDEN
 62
     7
370
     0
100
AcDbLine
 10
147.5666996014
 20
103.6455853123
 30
0.0
 11
147.5666996014
 21
122.6455853123
 31
0.0
  0
LINE
  5
10B
330
1F
100
AcDbEntity
  8
0
  6
HIDDEN
 62
     7
370
     0
100
AcDbLine
 10
139.2166996014
 20
104.6455853123
 30
0.0
 11
139.2166996014
 21
121.6455853123
 31
0.0
  0
LINE
  5
10C
330
1F
100
AcDbEntity
  8
0
  6
HIDDEN
 62
     7
370
     0
100
AcDbLine
 10
154.7166996014
 20
86.7455853123
 30
0.0
 11
148.579024799
 21
86.7455853123
 31
0.0
  0
LINE
  5
10D
330
1F
100
AcDbEntity
  8
0
  6
HIDDEN
 62
     7
370
     0
100
AcDbLine
 10
133.7166996014
 20
81.6614623294
 30
0.0
 11
133.7166996014
 21
86.7455853123
 31
0.0
  0
LINE
  5
10E
330
1F
100
AcDbEntity
  8
0
  6
HIDDEN
 62
     7
370
     0
100
AcDbLine
 10
141.7166996014
 20
86.7455853123
 30
0.0
 11
133.7166996014
 21
86.7455853123
 31
0.0
  0
LINE
  5
10F
330
1F
100
AcDbEntity
  8
0
  6
HIDDEN
 62
     7
370
     0
100
AcDbLine
 10
144.9543744037
 20
86.7455853123
 30
0.0
 11
141.7166996014
 21
86.7455853123
 31
0.0
  0
SPLINE
  5
110
330
1F
100
AcDbEntity
  8
0
  6
HIDDEN
 62
     7
370
     0
100
AcDbSpline
210
0.0
220
0.0
230
1.0
 70
     8
 71
     3
 72
     8
 73
     4
 74
     0
 42
0.00000001
 43
0.00000001
 40
0.0
 40
0.0
 40
0.0
 40
0.0
 40
1.0
 40
1.0
 40
1.0
 40
1.0
 10
162.8719255832357
 20
119.6877008255865
 30
0.0
 10
162.9219052118856
 20
119.6539271448199
 30
0.0
 10
162.9674746218315
 20
119.6112803803015
 30
0.0
 10
163.0087336405659
 20
119.5619233510766
 30
0.0
  0
SPLINE
  5
111
330
1F
100
AcDbEntity
  8
0
  6
HIDDEN
 62
     7
370
     0
100
AcDbSpline
210
0.0
220
0.0
230
1.0
 70
     8
 71
     3
 72
    34
 73
    30
 74
     0
 42
0.00000001
 43
0.00000001
 40
0.0
 40
0.0
 40
0.0
 40
0.0
 40
0.0625000000000003
 40
0.0625000000000003
 40
0.1250000000000007
 40
0.1250000000000007
 40
0.2499999999999986
 40
0.2499999999999986
 40
0.3124999999999988
 40
0.3124999999999988
 40
0.3749999999999991
 40
0.3749999999999991
 40
0.4999999999999991
 40
0.4999999999999991
 40
0.5624999999999992
 40
0.5624999999999992
 40
0.6249999999999993
 40
0.6249999999999993
 40
0.6874999999999994
 40
0.6874999999999994
 40
0.7499999999999996
 40
0.7499999999999996
 40
0.8124999999999998
 40
0.8124999999999998
 40
0.8749999999999999
 40
0.8749999999999999
 40
0.9375
 40
0.9375
 40
1.0
 40
1.0
 40
1.0
 40
1.0
 10
162.8719255832357
 20
118.2534933587416
 30
0.0
 10
162.7698108274369
 20
118.1651143736699
 30
0.0
 10
162.65383914132
 20
118.0893472129017
 30
0.0
 10
162.3943319357711
 20
117.9650537551971
 30
0.0
 10
162.2540719130756
 20
117.9185854531079
 30
0.0
 10
161.815839633683
 20
117.8332359273944
 30
0.0
 10
161.5007752816585
 20
117.8526504183908
 30
0.0
 10
161.0833267667028
 20
117.987212751533
 30
0.0
 10
160.950671944577
 20
118.0499373737562
 30
0.0
 10
160.7173103675491
 20
118.199681339121
 30
0.0
 10
160.6131943143554
 20
118.2888062040652
 30
0.0
 10
160.360476870298
 20
118.5766258748351
 30
0.0
 10
160.266783866822
 20
118.8012180200229
 30
0.0
 10
160.266657556498
 20
119.1208037151424
 30
0.0
 10
160.2889928726146
 20
119.2228869326019
 30
0.0
 10
160.3783067810376
 20
119.4162020702967
 30
0.0
 10
160.4432150860908
 20
119.5034375248129
 30
0.0
 10
160.6132246656476
 20
119.6613357300241
 30
0.0
 10
160.715347455403
 20
119.7289390745701
 30
0.0
 10
160.9499272808729
 20
119.8420909624667
 30
0.0
 10
161.0811705001152
 20
119.8867410911885
 30
0.0
 10
161.3598538872351
 20
119.9506288653928
 30
0.0
 10
161.5090008443775
 20
119.9700744964126
 30
0.0
 10
161.8073560409539
 20
119.9825733467533
 30
0.0
 10
161.9604174782886
 20
119.9757143168041
 30
0.0
 10
162.251527711325
 20
119.9364646932411
 30
0.0
 10
162.3938703713003
 20
119.9034876961461
 30
0.0
 10
162.651550759172
 20
119.8139638688027
 30
0.0
 10
162.7698081676373
 20
119.7567065602885
 30
0.0
 10
162.8719255832357
 20
119.6877008255865
 30
0.0
  0
LINE
  5
112
330
1F
100
AcDbEntity
  8
0
  6
HIDDEN
 62
     7
370
     0
100
AcDbLine
 10
159.7666996014
 20
105.2455853123
 30
0.0
 11
159.7666996014
 21
121.0455853123
 31
0.0
  0
SPLINE
  5
113
330
1F
100
AcDbEntity
  8
0
  6
HIDDEN
 62
     7
370
     0
100
AcDbSpline
210
0.0
220
0.0
230
1.0
 70
     8
 71
     3
 72
    12
 73
     8
 74
     0
 42
0.00000001
 43
0.00000001
 40
0.0
 40
0.0
 40
0.0
 40
0.0
 40
0.25
 40
0.25
 40
0.5
 40
0.5
 40
1.0
 40
1.0
 40
1.0
 40
1.0
 10
163.0087336405659
 20
119.5619233510766
 30
0.0
 10
163.0924592062205
 20
119.4617647598731
 30
0.0
 10
163.1563398933016
 20
119.358752632564
 30
0.0
 10
163.2442523026131
 20
119.1450557451081
 30
0.0
 10
163.2665624732452
 20
119.0374772065355
 30
0.0
 10
163.2669719695328
 20
118.7213280674945
 30
0.0
 10
163.1761902081105
 20
118.5219169682808
 30
0.0
 10
163.0087336405659
 20
118.3725105165718
 30
0.0
  0
LINE
  5
114
330
1F
100
AcDbEntity
  8
0
  6
HIDDEN
 62
     7
370
     0
100
AcDbLine
 10
163.7666996014
 20
105.1455853123
 30
0.0
 11
163.7666996014
 21
121.1455853123
 31
0.0
  0
LINE
  5
115
330
1F
100
AcDbEntity
  8
0
  6
HIDDEN
 62
     7
370
     0
100
AcDbLine
 10
154.7166996014
 20
139.5455853123
 30
0.0
 11
148.2824020697
 21
139.5455853123
 31
0.0
  0
LINE
  5
116
330
1F
100
AcDbEntity
  8
0
  6
HIDDEN
 62
     7
370
     0
100
AcDbLine
 10
145.250997133
 20
139.5455853123
 30
0.0
 11
141.7166996014
 21
139.5455853123
 31
0.0
  0
LINE
  5
117
330
1F
100
AcDbEntity
  8
0
  6
HIDDEN
 62
     7
370
     0
100
AcDbLine
 10
141.7166996014
 20
139.5455853123
 30
0.0
 11
133.7166996014
 21
139.5455853123
 31
0.0
  0
SPLINE
  5
118
330
1F
100
AcDbEntity
  8
0
  6
HIDDEN
 62
     7
370
     0
100
AcDbSpline
210
0.0
220
0.0
230
1.0
 70
     8
 71
     3
 72
    11
 73
     7
 74
     0
 42
0.00000001
 43
0.00000001
 40
0.0
 40
0.0
 40
0.0
 40
0.0
 40
0.0008203708524183
 40
0.0008203708524183
 40
0.0008203708524183
 40
0.0016409967870154
 40
0.0016409967870154
 40
0.0016409967870154
 40
0.0016409967870154
 10
98.01669960135543
 20
97.293552561661
 30
0.0
 10
97.82554130105676
 20
97.25237353304186
 30
0.0
 10
97.6341142309846
 20
97.21361956081186
 30
0.0
 10
97.44246860746397
 20
97.17725180153332
 30
0.0
 10
97.2507632023835
 20
97.14087269776729
 30
0.0
 10
97.05882425032453
 20
97.10687844699973
 30
0.0
 10
96.86669960325372
 20
97.07523032160853
 30
0.0
  0
ELLIPSE
  5
119
330
1F
100
AcDbEntity
  8
0
  6
HIDDEN
 62
     7
370
     0
100
AcDbEllipse
 10
92.6242677328
 20
113.1455853123
 30
0.0
 11
20.19992453366628
 21
-1.421085471520200E-14
 31
0.0
210
0.0
220
0.0
230
1.0
 40
0.8164965809
 41
1.300566354718
 42
1.359198697209605
  0
LINE
  5
11A
330
1F
100
AcDbEntity
  8
0
  6
HIDDEN
 62
     7
370
     0
100
AcDbLine
 10
98.0166996014
 20
95.1555853123
 30
0.0
 11
98.0166996014
 21
97.2935525617
 31
0.0
  0
LINE
  5
11B
330
1F
100
AcDbEntity
  8
0
  6
HIDDEN
 62
     7
370
     0
100
AcDbLine
 10
98.0977306147
 20
97.3440948763
 30
0.0
 11
98.0166996014
 21
97.2935525617
 31
0.0
  0
LINE
  5
11C
330
1F
100
AcDbEntity
  8
0
  6
HIDDEN
 62
     7
370
     0
100
AcDbLine
 10
106.9666996014
 20
95.1555853123
 30
0.0
 11
106.9666996014
 21
96.8580716899
 31
0.0
  0
LINE
  5
11D
330
1F
100
AcDbEntity
  8
0
  6
HIDDEN
 62
     7
370
     0
100
AcDbLine
 10
98.0166996014
 20
131.1355853123
 30
0.0
 11
98.0166996014
 21
129.0402097634
 31
0.0
  0
SPLINE
  5
11E
330
1F
100
AcDbEntity
  8
0
  6
HIDDEN
 62
     7
370
     0
100
AcDbSpline
210
0.0
220
0.0
230
1.0
 70
     8
 71
     3
 72
     8
 73
     4
 74
     0
 42
0.00000001
 43
0.00000001
 40
0.0
 40
0.0
 40
0.0
 40
0.0
 40
1.0
 40
1.0
 40
1.0
 40
1.0
 10
98.01669960135543
 20
129.0402097633624
 30
0.0
 10
98.06670510029916
 20
129.0091739891432
 30
0.0
 10
98.11670517096357
 20
128.9781293441157
 30
0.0
 10
98.16669960474869
 20
128.9470757483354
 30
0.0
  0
LINE
  5
11F
330
1F
100
AcDbEntity
  8
0
  6
HIDDEN
 62
     7
370
     0
100
AcDbLine
 10
102.9666996014
 20
131.1355853123
 30
0.0
 11
102.9666996014
 21
129.4330989347
 31
0.0
  0
SPLINE
  5
120
330
1F
100
AcDbEntity
  8
0
  6
HIDDEN
 62
     7
370
     0
100
AcDbSpline
210
0.0
220
0.0
230
1.0
 70
     8
 71
     3
 72
     8
 73
     4
 74
     0
 42
0.00000001
 43
0.00000001
 40
0.0
 40
0.0
 40
0.0
 40
0.0
 40
1.0
 40
1.0
 40
1.0
 40
1.0
 10
163.0087336405659
 20
118.3725105165718
 30
0.0
 10
162.9674746218315
 20
118.3356988006713
 30
0.0
 10
162.9219052118856
 20
118.2967500734034
 30
0.0
 10
162.8719255832357
 20
118.2534933587416
 30
0.0
  0
SPLINE
  5
121
330
1F
100
AcDbEntity
  8
0
  6
HIDDEN
 62
     7
370
     0
100
AcDbSpline
210
0.0
220
0.0
230
1.0
 70
     8
 71
     3
 72
    20
 73
    16
 74
     0
 42
0.00000001
 43
0.00000001
 40
0.0
 40
0.0
 40
0.0
 40
0.0
 40
0.1118535494849179
 40
0.1773730685924756
 40
0.2489949814854543
 40
0.3297438282836502
 40
0.3985165675539052
 40
0.4997968041482328
 40
0.6137624896888147
 40
0.6789287412071094
 40
0.7494555931726334
 40
0.8296019506449644
 40
0.8980459617257948
 40
0.9994568726596122
 40
1.0
 40
1.0
 40
1.0
 40
1.0
 10
123.515315486945
 20
89.54565151065009
 30
0.0
 10
123.4720233323246
 20
89.55906995203806
 30
0.0
 10
123.4033722940128
 20
89.58034840172228
 30
0.0
 10
122.9583544735253
 20
89.68362102585003
 30
0.0
 10
122.431804749864
 20
89.79692245342568
 30
0.0
 10
121.7463771821044
 20
89.9198558586232
 30
0.0
 10
120.8530604376972
 20
90.04189017562884
 30
0.0
 10
119.7397008659849
 20
90.15962654868673
 30
0.0
 10
118.6289266103473
 20
90.17160198740699
 30
0.0
 10
117.7441788926942
 20
90.14454381292848
 30
0.0
 10
117.0769801325277
 20
90.09661133677008
 30
0.0
 10
116.5357165114484
 20
90.04031950860333
 30
0.0
 10
116.1481027928028
 20
89.99523019712557
 30
0.0
 10
115.9541948303275
 20
89.95636150919617
 30
0.0
 10
116.0173876046233
 20
89.96708376208062
 30
0.0
 10
116.0177242437993
 20
89.96714088143352
 30
0.0
  0
LINE
  5
122
330
1F
100
AcDbEntity
  8
0
  6
HIDDEN
 62
     7
370
     0
100
AcDbLine
 10
116.9267115137
 20
90.0779234558
 30
0.0
 11
117.1105568268
 21
90.0961127983
 31
0.0
  0
SPLINE
  5
123
330
1F
100
AcDbEntity
  8
0
  6
HIDDEN
 62
     7
370
     0
100
AcDbSpline
210
0.0
220
0.0
230
1.0
 70
     8
 71
     3
 72
    27
 73
    23
 74
     0
 42
0.00000001
 43
0.00000001
 40
0.0
 40
0.0
 40
0.0
 40
0.0
 40
0.0008085620132743
 40
0.0456910729025998
 40
0.1022727378510186
 40
0.1705508272471735
 40
0.2091424989402973
 40
0.2506697374996056
 40
0.3211155140175551
 40
0.3862092476672336
 40
0.4266883970036038
 40
0.4648196494536864
 40
0.5006239657997564
 40
0.545215729606189
 40
0.6017099851214275
 40
0.6701159591381641
 40
0.7088532888090754
 40
0.750582033877325
 40
0.8222466184915082
 40
0.8877860424923878
 40
0.9472597969153607
 40
1.0
 40
1.0
 40
1.0
 40
1.0
 10
116.0173680509906
 20
136.3239994613494
 30
0.0
 10
116.0171457116416
 20
136.3240473902022
 30
0.0
 10
116.0045815257962
 20
136.3267558042442
 30
0.0
 10
116.0536581967264
 20
136.3149237669402
 30
0.0
 10
116.1987626725238
 20
136.2914795684011
 30
0.0
 10
116.471814842661
 20
136.2575754200412
 30
0.0
 10
116.8003413229427
 20
136.2240066227504
 30
0.0
 10
117.1930690877446
 20
136.1858232843845
 30
0.0
 10
117.7427970631507
 20
136.1468546117563
 30
0.0
 10
118.3688197083138
 20
136.1273935073804
 30
0.0
 10
118.9120112187461
 20
136.1252078295408
 30
0.0
 10
119.3570801155846
 20
136.1337227107208
 30
0.0
 10
119.8235279120421
 20
136.1535061076465
 30
0.0
 10
120.360768561181
 20
136.1976684931619
 30
0.0
 10
121.0089819919551
 20
136.2700841131749
 30
0.0
 10
121.5945206220025
 20
136.3509862063571
 30
0.0
 10
122.0754902363369
 20
136.4291521948148
 30
0.0
 10
122.5209051339464
 20
136.5139243339095
 30
0.0
 10
122.9594048496239
 20
136.607707375885
 30
0.0
 10
123.2984301200858
 20
136.6856111432776
 30
0.0
 10
123.485771151526
 20
136.7358028068883
 30
0.0
 10
123.5062609387946
 20
136.7424692492944
 30
0.0
 10
123.5158910736344
 20
136.7456024560198
 30
0.0
  0
LINE
  5
124
330
1F
100
AcDbEntity
  8
0
  6
HIDDEN
 62
     7
370
     0
100
AcDbLine
 10
168.2166996014
 20
89.7229355815
 30
0.0
 11
163.2166996014
 21
89.7229355815
 31
0.0
  0
LINE
  5
125
330
1F
100
AcDbEntity
  8
0
  6
HIDDEN
 62
     7
370
     0
100
AcDbLine
 10
165.7166996014
 20
136.5682350431
 30
0.0
 11
168.2166996014
 21
136.5682350431
 31
0.0
  0
LINE
  5
126
330
1F
100
AcDbEntity
  8
0
  6
HIDDEN
 62
     7
370
     0
100
AcDbLine
 10
163.2166996014
 20
136.5682350431
 30
0.0
 11
165.7166996014
 21
136.5682350431
 31
0.0
  0
LINE
  5
127
330
1F
100
AcDbEntity
  8
0
  6
HIDDEN
 62
     7
370
     0
100
AcDbLine
 10
165.7166996014
 20
125.1455853123
 30
0.0
 11
168.2166996014
 21
125.1455853123
 31
0.0
  0
LINE
  5
128
330
1F
100
AcDbEntity
  8
0
  6
HIDDEN
 62
     7
370
     0
100
AcDbLine
 10
163.2166996014
 20
125.1455853123
 30
0.0
 11
165.7166996014
 21
125.1455853123
 31
0.0
  0
LINE
  5
129
330
1F
100
AcDbEntity
  8
0
  6
HIDDEN
 62
     7
370
     0
100
AcDbLine
 10
168.2166996014
 20
101.1455853123
 30
0.0
 11
163.2166996014
 21
101.1455853123
 31
0.0
  0
SPLINE
  5
12A
330
1F
100
AcDbEntity
  8
0
  6
HIDDEN
 62
     7
370
     0
100
AcDbSpline
210
0.0
220
0.0
230
1.0
 70
     8
 71
     3
 72
    30
 73
    26
 74
     0
 42
0.00000001
 43
0.00000001
 40
-0.0625000000000003
 40
-0.0625000000000003
 40
0.0
 40
0.0
 40
0.1249999999999984
 40
0.1249999999999984
 40
0.2499999999999967
 40
0.2499999999999967
 40
0.3124999999999968
 40
0.3124999999999968
 40
0.3749999999999969
 40
0.3749999999999969
 40
0.4374999999999971
 40
0.4374999999999971
 40
0.4999999999999972
 40
0.4999999999999972
 40
0.624999999999998
 40
0.624999999999998
 40
0.7499999999999988
 40
0.7499999999999988
 40
0.8124999999999991
 40
0.8124999999999991
 40
0.8749999999999994
 40
0.8749999999999994
 40
0.9374999999999997
 40
0.9374999999999997
 40
1.0
 40
1.0
 40
1.124999999999998
 40
1.124999999999998
 10
160.2943507274057
 20
123.6606776602456
 30
0.0
 10
160.269568623463
 20
123.8190675480632
 30
0.0
 10
160.2627743290491
 20
123.9125540512409
 30
0.0
 10
160.2757250888448
 20
124.0445284318169
 30
0.0
 10
160.2953514618536
 20
124.0830210182245
 30
0.0
 10
160.3273934146945
 20
124.0892591739603
 30
0.0
 10
160.3388860066088
 20
124.0830455104722
 30
0.0
 10
160.3531906487738
 20
124.0389629772418
 30
0.0
 10
160.3537296224793
 20
123.9971156927502
 30
0.0
 10
160.3397000940948
 20
123.8943079905828
 30
0.0
 10
160.3276999773924
 20
123.8375045921919
 30
0.0
 10
160.305287031798
 20
123.7269104405223
 30
0.0
 10
160.2947066363725
 20
123.6732742773131
 30
0.0
 10
160.2695694375361
 20
123.5185300219061
 30
0.0
 10
160.2627910910995
 20
123.4257053292379
 30
0.0
 10
160.2757308367036
 20
123.2914674635278
 30
0.0
 10
160.2956474887378
 20
123.2471785605169
 30
0.0
 10
160.3291262254741
 20
123.2358310020723
 30
0.0
 10
160.34109369932
 20
123.241165038284
 30
0.0
 10
160.3541672891867
 20
123.2893500445684
 30
0.0
 10
160.3525501741867
 20
123.3353231570764
 30
0.0
 10
160.3375469227237
 20
123.4391710755882
 30
0.0
 10
160.3261128283321
 20
123.4955513208387
 30
0.0
 10
160.3046708324207
 20
123.6059870605015
 30
0.0
 10
160.2943507274057
 20
123.6606776602456
 30
0.0
 10
160.269568623463
 20
123.8190675480632
 30
0.0
  0
SPLINE
  5
12B
330
1F
100
AcDbEntity
  8
0
  6
HIDDEN
 62
     7
370
     0
100
AcDbSpline
210
0.0
220
0.0
230
1.0
 70
     8
 71
     3
 72
    10
 73
     6
 74
     0
 42
0.00000001
 43
0.00000001
 40
0.0
 40
0.0
 40
0.0
 40
0.0
 40
0.5
 40
0.5
 40
1.0
 40
1.0
 40
1.0
 40
1.0
 10
160.7829195328312
 20
122.4957228432993
 30
0.0
 10
160.8613998508842
 20
122.5485216015953
 30
0.0
 10
160.9278099109785
 20
122.6336799547661
 30
0.0
 10
160.945253773109
 20
122.8751295593736
 30
0.0
 10
160.8926934043835
 20
123.0197407026413
 30
0.0
 10
160.8215190198072
 20
123.1674805180652
 30
0.0
  0
SPLINE
  5
12C
330
1F
100
AcDbEntity
  8
0
  6
HIDDEN
 62
     7
370
     0
100
AcDbSpline
210
0.0
220
0.0
230
1.0
 70
     8
 71
     3
 72
    14
 73
    10
 74
     0
 42
0.00000001
 43
0.00000001
 40
0.0
 40
0.0
 40
0.0
 40
0.0
 40
0.25
 40
0.25
 40
0.5
 40
0.5
 40
0.75
 40
0.75
 40
1.0
 40
1.0
 40
1.0
 40
1.0
 10
160.8215190198071
 20
123.1674805180648
 30
0.0
 10
160.7850500241731
 20
123.1346315415689
 30
0.0
 10
160.7501070920129
 20
123.1030156972154
 30
0.0
 10
160.6903697506679
 20
123.0322185542451
 30
0.0
 10
160.6650805513448
 20
122.9922767522757
 30
0.0
 10
160.6555934521143
 20
122.8745283944571
 30
0.0
 10
160.6730884548676
 20
122.79823184148
 30
0.0
 10
160.7212830241257
 20
122.6468953385443
 30
0.0
 10
160.7513355741035
 20
122.5708253641141
 30
0.0
 10
160.7829195328312
 20
122.4957228432971
 30
0.0
  0
SPLINE
  5
12D
330
1F
100
AcDbEntity
  8
0
  6
HIDDEN
 62
     7
370
     0
100
AcDbSpline
210
0.0
220
0.0
230
1.0
 70
     8
 71
     3
 72
    14
 73
    10
 74
     0
 42
0.00000001
 43
0.00000001
 40
0.0
 40
0.0
 40
0.0
 40
0.0
 40
0.25
 40
0.25
 40
0.5
 40
0.5
 40
0.75
 40
0.75
 40
1.0
 40
1.0
 40
1.0
 40
1.0
 10
160.8215190198072
 20
124.8146803652388
 30
0.0
 10
160.8570922737584
 20
124.7816640038108
 30
0.0
 10
160.887994104777
 20
124.7416132292845
 30
0.0
 10
160.9305482253573
 20
124.6431505871777
 30
0.0
 10
160.940774875517
 20
124.586334936553
 30
0.0
 10
160.9324407690204
 20
124.4583975717451
 30
0.0
 10
160.9138231321857
 20
124.3886644750051
 30
0.0
 10
160.8583177496327
 20
124.2451457083593
 30
0.0
 10
160.8222251002734
 20
124.1718201296424
 30
0.0
 10
160.7829195328311
 20
124.0970827508617
 30
0.0
  0
SPLINE
  5
12E
330
1F
100
AcDbEntity
  8
0
  6
HIDDEN
 62
     7
370
     0
100
AcDbSpline
210
0.0
220
0.0
230
1.0
 70
     8
 71
     3
 72
    14
 73
    10
 74
     0
 42
0.00000001
 43
0.00000001
 40
0.0
 40
0.0
 40
0.0
 40
0.0
 40
0.25
 40
0.25
 40
0.5
 40
0.5
 40
0.75
 40
0.75
 40
1.0
 40
1.0
 40
1.0
 40
1.0
 10
160.7829195328312
 20
124.0970827508628
 30
0.0
 10
160.7512728035489
 20
124.1334508038894
 30
0.0
 10
160.7210754749723
 20
124.1692041574259
 30
0.0
 10
160.6730018701474
 20
124.2511712643574
 30
0.0
 10
160.6555164018159
 20
124.2998502291797
 30
0.0
 10
160.6652262381753
 20
124.432811106741
 30
0.0
 10
160.6905510124131
 20
124.5114187253339
 30
0.0
 10
160.7502460291126
 20
124.6642659060116
 30
0.0
 10
160.785108957528
 20
124.7400995195148
 30
0.0
 10
160.8215190198073
 20
124.8146803652392
 30
0.0
  0
LWPOLYLINE
  5
12F
330
1F
100
AcDbEntity
  8
0
  6
HIDDEN
 62
     7
370
     0
100
AcDbPolyline
 90
       19
 70
   128
 43
0.0
 10
163.2335869531
 20
124.6809258231
 10
163.0561961411
 20
125.0011418868
 10
162.7432396093
 20
125.2643930638
 10
162.3276187081
 20
125.4430035641
 10
161.8530279686
 20
125.5181959345
 10
161.3693614643
 20
125.4820651457
 10
160.9274674106
 20
125.3384096541
 10
160.5738024546
 20
125.1023320672
 10
160.3455476531
 20
124.7986513955
 10
160.2666996014
 20
124.4592938113
 10
160.3455476531
 20
124.1199362271
 10
160.5738024546
 20
123.8162555554
 10
160.9274674106
 20
123.5801779685
 10
161.3693614643
 20
123.4365224769
 10
161.8530279686
 20
123.4003916881
 10
162.3276187081
 20
123.4755840584
 10
162.7432396093
 20
123.6541945588
 10
163.0561961411
 20
123.9174457357
 10
163.2335869531
 20
124.2376617995
  0
SPLINE
  5
130
330
1F
100
AcDbEntity
  8
0
  6
HIDDEN
 62
     7
370
     0
100
AcDbSpline
210
0.0
220
0.0
230
1.0
 70
     8
 71
     3
 72
    46
 73
    42
 74
     0
 42
0.00000001
 43
0.00000001
 40
0.0
 40
0.0
 40
0.0
 40
0.0
 40
0.0624999999999984
 40
0.0624999999999984
 40
0.1249999999999969
 40
0.1249999999999969
 40
0.156249999999997
 40
0.156249999999997
 40
0.1874999999999971
 40
0.1874999999999971
 40
0.2187499999999972
 40
0.2187499999999972
 40
0.2499999999999973
 40
0.2499999999999973
 40
0.3124999999999972
 40
0.3124999999999972
 40
0.374999999999997
 40
0.374999999999997
 40
0.4374999999999968
 40
0.4374999999999968
 40
0.4687499999999966
 40
0.4687499999999966
 40
0.4999999999999964
 40
0.4999999999999964
 40
0.5624999999999964
 40
0.5624999999999964
 40
0.6249999999999964
 40
0.6249999999999964
 40
0.6874999999999964
 40
0.6874999999999964
 40
0.7499999999999964
 40
0.7499999999999964
 40
0.781249999999997
 40
0.781249999999997
 40
0.8124999999999976
 40
0.8124999999999976
 40
0.8749999999999983
 40
0.8749999999999983
 40
0.9374999999999991
 40
0.9374999999999991
 40
1.0
 40
1.0
 40
1.0
 40
1.0
 10
163.2335869531004
 20
124.2376617995091
 30
0.0
 10
163.2004550725735
 20
124.100517462825
 30
0.0
 10
163.1453417808688
 20
123.9566034460075
 30
0.0
 10
163.0110838188757
 20
123.6666741148167
 30
0.0
 10
162.9325156978871
 20
123.5227290080955
 30
0.0
 10
162.8170826892568
 20
123.3137644364771
 30
0.0
 10
162.7791305610545
 20
123.2453838530487
 30
0.0
 10
162.7082232364867
 20
123.1094419580334
 30
0.0
 10
162.6750494495033
 20
123.0413548678232
 30
0.0
 10
162.623516086439
 20
122.9098398754772
 30
0.0
 10
162.6049266248439
 20
122.8446479822141
 30
0.0
 10
162.5921056529381
 20
122.7254306755442
 30
0.0
 10
162.5978598772947
 20
122.6699480697425
 30
0.0
 10
162.6457189641547
 20
122.5264146281172
 30
0.0
 10
162.7142294518551
 20
122.4599279347916
 30
0.0
 10
162.858748417864
 20
122.3749818987333
 30
0.0
 10
162.9377661371184
 20
122.3554147399717
 30
0.0
 10
163.079990123713
 20
122.3648693666823
 30
0.0
 10
163.1454415886225
 20
122.3945481019827
 30
0.0
 10
163.2154597625487
 20
122.482778190677
 30
0.0
 10
163.2344491049841
 20
122.5201632662867
 30
0.0
 10
163.2598065982348
 20
122.6077052150831
 30
0.0
 10
163.2665401803132
 20
122.6580224047081
 30
0.0
 10
163.2670101172124
 20
122.8303495523026
 30
0.0
 10
163.2397426897865
 20
122.9675871317038
 30
0.0
 10
163.1467873567978
 20
123.2532714919605
 30
0.0
 10
163.0815640324285
 20
123.4019962597162
 30
0.0
 10
162.9392663281078
 20
123.6902867607862
 30
0.0
 10
162.8602418197223
 20
123.8331711471115
 30
0.0
 10
162.715402331906
 20
124.1079858216864
 30
0.0
 10
162.6465367937437
 20
124.2438668949922
 30
0.0
 10
162.597914745527
 20
124.4353734540272
 30
0.0
 10
162.5920211873669
 20
124.4951530010133
 30
0.0
 10
162.6048504936758
 20
124.6041039494499
 30
0.0
 10
162.6230659204591
 20
124.650795671932
 30
0.0
 10
162.700920287433
 20
124.7697462106184
 30
0.0
 10
162.778528754611
 20
124.8179634956494
 30
0.0
 10
162.9324754025499
 20
124.8668952843677
 30
0.0
 10
163.0105795888843
 20
124.8672347992544
 30
0.0
 10
163.1447499388257
 20
124.8154631964114
 30
0.0
 10
163.2004742118474
 20
124.7630197612589
 30
0.0
 10
163.2335869531004
 20
124.6809258230678
 30
0.0
  0
SPLINE
  5
131
330
1F
100
AcDbEntity
  8
0
  6
HIDDEN
 62
     7
370
     0
100
AcDbSpline
210
0.0
220
0.0
230
1.0
 70
     8
 71
     3
 72
     8
 73
     4
 74
     0
 42
0.00000001
 43
0.00000001
 40
0.0
 40
0.0
 40
0.0
 40
0.0
 40
0.000159097695343
 40
0.000159097695343
 40
0.000159097695343
 40
0.000159097695343
 10
98.15186761057345
 20
97.34409487627208
 30
0.0
 10
98.1068161400691
 20
97.3161159919483
 30
0.0
 10
98.0617601016543
 20
97.28814446157321
 30
0.0
 10
98.01669960135543
 20
97.2601801222207
 30
0.0
  0
SPLINE
  5
132
330
1F
100
AcDbEntity
  8
0
  6
HIDDEN
 62
     7
370
     0
100
AcDbSpline
210
0.0
220
0.0
230
1.0
 70
     8
 71
     3
 72
    11
 73
     7
 74
     0
 42
0.00000001
 43
0.00000001
 40
0.0
 40
0.0
 40
0.0
 40
0.0
 40
0.0008212909311456
 40
0.0008212909311456
 40
0.0008212909311456
 40
0.001642825724306
 40
0.001642825724306
 40
0.001642825724306
 40
0.001642825724306
 10
98.01669960135543
 20
97.2601801222207
 30
0.0
 10
97.82555457987324
 20
97.21689393336815
 30
0.0
 10
97.63413624419677
 20
97.17595742373088
 30
0.0
 10
97.44249016953563
 20
97.1373556523443
 30
0.0
 10
97.25078708799403
 20
97.0987423985072
 30
0.0
 10
97.05884196470852
 20
97.0624621892212
 30
0.0
 10
96.86669960135534
 20
97.0284952828697
 30
0.0
  0
LINE
  5
133
330
1F
100
AcDbEntity
  8
0
  6
HIDDEN
 62
     7
370
     0
100
AcDbLine
 10
144.8566996014
 20
133.3313684397
 30
0.0
 11
144.8566996014
 21
132.9955853123
 31
0.0
  0
LINE
  5
134
330
1F
100
AcDbEntity
  8
0
  6
HIDDEN
 62
     7
370
     0
100
AcDbLine
 10
148.6766996014
 20
133.3313684397
 30
0.0
 11
148.6766996014
 21
132.9955853123
 31
0.0
  0
SPLINE
  5
135
330
1F
100
AcDbEntity
  8
0
  6
HIDDEN
 62
     7
370
     0
100
AcDbSpline
210
0.0
220
0.0
230
1.0
 70
     8
 71
     3
 72
    10
 73
     6
 74
     0
 42
0.00000001
 43
0.00000001
 40
0.0
 40
0.0
 40
0.0
 40
0.0
 40
0.5
 40
0.5
 40
1.0
 40
1.0
 40
1.0
 40
1.0
 10
163.2335869531003
 20
124.6809258230679
 30
0.0
 10
163.2092723506151
 20
124.6293579060926
 30
0.0
 10
163.1978596201242
 20
124.5636884658186
 30
0.0
 10
163.1978389293624
 20
124.4136076881852
 30
0.0
 10
163.2091999016406
 20
124.3274108759039
 30
0.0
 10
163.2335869531003
 20
124.2376617995091
 30
0.0
  0
LINE
  5
136
330
1F
100
AcDbEntity
  8
0
  6
HIDDEN
 62
     7
370
     0
100
AcDbLine
 10
150.1586324328
 20
137.6042749747
 30
0.0
 11
150.1586324328
 21
132.9955853123
 31
0.0
  0
ARC
  5
137
330
1F
100
AcDbEntity
  8
0
  6
HIDDEN
 62
     7
370
     0
100
AcDbCircle
 10
176.9908902843
 20
123.5850949456
 30
0.0
 40
16.2160552352265
100
AcDbArc
 50
175.6513629475
 51
178.1907057002
  0
SPLINE
  5
138
330
1F
100
AcDbEntity
  8
0
  6
HIDDEN
 62
     7
370
     0
100
AcDbSpline
210
0.0
220
0.0
230
1.0
 70
     8
 71
     3
 72
    11
 73
     7
 74
     0
 42
0.00000001
 43
0.00000001
 40
0.0
 40
0.0
 40
0.0
 40
0.0
 40
0.0005781862223978
 40
0.0005781862223978
 40
0.0005781862223978
 40
0.0011563724723928
 40
0.0011563724723928
 40
0.0011563724723928
 40
0.0011563724723928
 10
97.8666996013554
 20
125.7857276193505
 30
0.0
 10
97.7000390470798
 20
125.8502571307641
 30
0.0
 10
97.53337575017332
 20
125.9147598346078
 30
0.0
 10
97.36670916634307
 20
125.9792462830415
 30
0.0
 10
97.200042574084
 20
126.0437327347365
 30
0.0
 10
97.03337270845812
 20
126.1082027434645
 30
0.0
 10
96.86669960135538
 20
126.1726585101972
 30
0.0
  0
SPLINE
  5
139
330
1F
100
AcDbEntity
  8
0
  6
HIDDEN
 62
     7
370
     0
100
AcDbSpline
210
0.0
220
0.0
230
1.0
 70
     8
 71
     3
 72
    11
 73
     7
 74
     0
 42
0.00000001
 43
0.00000001
 40
0.0
 40
0.0
 40
0.0
 40
0.0
 40
0.0005778746105108
 40
0.0005778746105108
 40
0.0005778746105108
 40
0.0011557494857226
 40
0.0011557494857226
 40
0.0011557494857226
 40
0.0011557494857226
 10
96.86669960135539
 20
100.1183634568138
 30
0.0
 10
97.03336647776872
 20
100.1841755835077
 30
0.0
 10
97.2000331973302
 20
100.2500340636453
 30
0.0
 10
97.36669984537883
 20
100.3159416365759
 30
0.0
 10
97.5333665698975
 20
100.3818492397463
 30
0.0
 10
97.70003326431808
 20
100.4478063481348
 30
0.0
 10
97.8666996013554
 20
100.5138080880575
 30
0.0
  0
ARC
  5
13A
330
1F
100
AcDbEntity
  8
0
  6
HIDDEN
 62
     7
370
     0
100
AcDbCircle
 10
147.6438560554
 20
123.5876869311
 30
0.0
 40
13.18436098690204
100
AcDbArc
 50
355.2491680304
 51
358.1735836915
  0
SPLINE
  5
13B
330
1F
100
AcDbEntity
  8
0
  6
HIDDEN
 62
     7
370
     0
100
AcDbSpline
210
0.0
220
0.0
230
1.0
 70
     8
 71
     3
 72
    11
 73
     7
 74
     0
 42
0.00000001
 43
0.00000001
 40
0.0000000000000006
 40
0.0000000000000006
 40
0.0000000000000006
 40
0.0000000000000006
 40
0.0005780486062768
 40
0.0005780486062768
 40
0.0005780486062768
 40
0.0011560973514127
 40
0.0011560973514127
 40
0.0011560973514127
 40
0.0011560973514127
 10
96.86669960135539
 20
123.1263998139955
 30
0.0
 10
97.03336945740033
 20
123.064027952481
 30
0.0
 10
97.20003716148457
 20
123.0016740921833
 30
0.0
 10
97.36670346593823
 20
122.9393545319972
 30
0.0
 10
97.53336980663197
 20
122.8770349582603
 30
0.0
 10
97.70003476326075
 20
122.8147497539407
 30
0.0
 10
97.8666996013554
 20
122.752524633372
 30
0.0
  0
SPLINE
  5
13C
330
1F
100
AcDbEntity
  8
0
  6
HIDDEN
 62
     7
370
     0
100
AcDbSpline
210
0.0
220
0.0
230
1.0
 70
     8
 71
     3
 72
    11
 73
     7
 74
     0
 42
0.00000001
 43
0.00000001
 40
0.0
 40
0.0
 40
0.0
 40
0.0
 40
0.0005782401583533
 40
0.0005782401583533
 40
0.0005782401583533
 40
0.0011564805960993
 40
0.0011564805960993
 40
0.0011564805960993
 40
0.0011564805960993
 10
97.8666996013554
 20
103.5447585199061
 30
0.0
 10
97.70004865100651
 20
103.4813330618453
 30
0.0
 10
97.53338905842385
 20
103.41797753819
 30
0.0
 10
97.36672200599529
 20
103.35467995384
 30
0.0
 10
97.20005486943148
 20
103.2913823375368
 30
0.0
 10
97.03338026198544
 20
103.2281425425961
 30
0.0
 10
96.86669960135535
 20
103.1649425359573
 30
0.0
  0
CIRCLE
  5
13D
330
1F
100
AcDbEntity
  8
0
  6
HIDDEN
 62
     7
370
     0
100
AcDbCircle
 10
135.7666996014
 20
113.1455853123
 30
0.0
 40
5.000000000000014
  0
LWPOLYLINE
  5
13E
330
1F
100
AcDbEntity
  8
0
  6
HIDDEN
 62
     7
370
     0
100
AcDbPolyline
 90
       21
 70
   128
 43
0.0
 10
203.3513847605
 20
102.3531497882
 10
203.3397896803
 20
102.3039332186
 10
203.3243373724
 20
102.4012923134
 10
203.3065404162
 20
102.6356968861
 10
203.2881409018
 20
102.9842017839
 10
203.270939902
 20
103.4126929192
 10
203.2566211705
 20
103.8792265943
 10
203.2465863243
 20
104.3381352425
 10
203.2418176443
 20
104.7444976878
 10
203.242781922
 20
105.0585363429
 10
203.2493847672
 20
105.2495109162
 10
203.2609798474
 20
105.2987274858
 10
203.2764321553
 20
105.2013683909
 10
203.2942291115
 20
104.9669638182
 10
203.3126286259
 20
104.6184589204
 10
203.3298296257
 20
104.1899677851
 10
203.3441483572
 20
103.72343411
 10
203.3541832034
 20
103.2645254619
 10
203.3589518834
 20
102.8581630165
 10
203.3579876057
 20
102.5441243614
 10
203.3513847605
 20
102.3531497882
  0
LWPOLYLINE
  5
13F
330
1F
100
AcDbEntity
  8
0
  6
HIDDEN
 62
     7
370
     0
100
AcDbPolyline
 90
       17
 70
   128
 43
0.0
 10
202.8347702435
 20
102.8219962019
 10
202.8246701073
 20
102.7963369184
 10
202.8109314338
 20
102.9215656036
 10
202.7956458115
 20
103.1786173253
 10
202.7811403379
 20
103.5283582892
 10
202.7696233398
 20
103.9175436039
 10
202.7628481758
 20
104.2869233331
 10
202.7618463031
 20
104.5802627616
 10
202.7667702479
 20
104.7529036205
 10
202.7768703842
 20
104.778562904
 10
202.7906090577
 20
104.6533342188
 10
202.80589468
 20
104.396282497
 10
202.8204001536
 20
104.0465415331
 10
202.8319171517
 20
103.6573562185
 10
202.8386923157
 20
103.2879764892
 10
202.8396941883
 20
102.9946370607
 10
202.8347702435
 20
102.8219962019
  0
LWPOLYLINE
  5
140
330
1F
100
AcDbEntity
  8
0
  6
HIDDEN
 62
     7
370
     0
100
AcDbPolyline
 90
       21
 70
   128
 43
0.0
 10
208.6853225644
 20
102.5013388543
 10
208.6737274842
 20
102.4521222847
 10
208.6582751762
 20
102.5494813795
 10
208.6404782201
 20
102.7838859522
 10
208.6220787057
 20
103.13239085
 10
208.6048777059
 20
103.5608819853
 10
208.5905589743
 20
104.0274156604
 10
208.5805241282
 20
104.4863243086
 10
208.5757554482
 20
104.8926867539
 10
208.5767197259
 20
105.206725409
 10
208.583322571
 20
105.3976999823
 10
208.5949176513
 20
105.4469165519
 10
208.6103699592
 20
105.349557457
 10
208.6281669154
 20
105.1151528843
 10
208.6465664298
 20
104.7666479865
 10
208.6637674296
 20
104.3381568512
 10
208.6780861611
 20
103.8716231761
 10
208.6881210073
 20
103.412714528
 10
208.6928896873
 20
103.0063520826
 10
208.6919254096
 20
102.6923134275
 10
208.6853225644
 20
102.5013388543
  0
LWPOLYLINE
  5
141
330
1F
100
AcDbEntity
  8
0
  6
HIDDEN
 62
     7
370
     0
100
AcDbPolyline
 90
       12
 70
   128
 43
0.0
 10
208.831600537
 20
102.7364418965
 10
208.8269194275
 20
102.7395831034
 10
208.8125194797
 20
102.8490002367
 10
208.7961444632
 20
103.0916984832
 10
208.7797694467
 20
103.4384048526
 10
208.7653694988
 20
103.8473014398
 10
208.7546814659
 20
104.2690692818
 10
208.7489944823
 20
104.6528369521
 10
208.7489944823
 20
104.952316406
 10
208.7546814659
 20
105.1313860014
 10
208.7653694988
 20
105.1684473024
 10
208.7666996014
 20
105.1638923963
  0
LINE
  5
142
330
1F
100
AcDbEntity
  8
0
  6
HIDDEN
 62
     7
370
     0
100
AcDbLine
 10
208.825589325
 20
103.7302802001
 30
0.0
 11
208.825589325
 21
103.1179077644
 31
0.0
  0
LINE
  5
143
330
1F
100
AcDbEntity
  8
0
  6
HIDDEN
 62
     7
370
     0
100
AcDbLine
 10
206.8271312525
 20
103.6747584362
 30
0.0
 11
206.8271312525
 21
103.0623860005
 31
0.0
  0
LINE
  5
144
330
1F
100
AcDbEntity
  8
0
  6
HIDDEN
 62
     7
370
     0
100
AcDbLine
 10
206.8271312525
 20
103.6747584362
 30
0.0
 11
206.7976863907
 21
104.5108658747
 31
0.0
  0
LINE
  5
145
330
1F
100
AcDbEntity
  8
0
  6
HIDDEN
 62
     7
370
     0
100
AcDbLine
 10
206.8271312525
 20
103.6747584362
 30
0.0
 11
208.825589325
 21
103.7302802001
 31
0.0
  0
LINE
  5
146
330
1F
100
AcDbEntity
  8
0
  6
HIDDEN
 62
     7
370
     0
100
AcDbLine
 10
208.825589325
 20
103.7302802001
 30
0.0
 11
208.7961444632
 21
104.5663876386
 31
0.0
  0
LINE
  5
147
330
1F
100
AcDbEntity
  8
0
  6
HIDDEN
 62
     7
370
     0
100
AcDbLine
 10
206.7976863907
 20
104.5108658747
 30
0.0
 11
208.7961444632
 21
104.5663876386
 31
0.0
  0
LINE
  5
148
330
1F
100
AcDbEntity
  8
0
  6
HIDDEN
 62
     7
370
     0
100
AcDbLine
 10
206.7976863907
 20
104.5108658747
 30
0.0
 11
206.7682415289
 21
104.7346008775
 31
0.0
  0
LINE
  5
149
330
1F
100
AcDbEntity
  8
0
  6
HIDDEN
 62
     7
370
     0
100
AcDbLine
 10
208.7961444632
 20
104.5663876386
 30
0.0
 11
208.7666996014
 21
104.7901226414
 31
0.0
  0
LINE
  5
14A
330
1F
100
AcDbEntity
  8
0
  6
HIDDEN
 62
     7
370
     0
100
AcDbLine
 10
206.7976863907
 20
103.2861210033
 30
0.0
 11
208.7961444632
 21
103.3416427672
 31
0.0
  0
LINE
  5
14B
330
1F
100
AcDbEntity
  8
0
  6
HIDDEN
 62
     7
370
     0
100
AcDbLine
 10
206.7976863907
 20
103.2861210033
 30
0.0
 11
206.8271312525
 21
103.0623860005
 31
0.0
  0
LINE
  5
14C
330
1F
100
AcDbEntity
  8
0
  6
HIDDEN
 62
     7
370
     0
100
AcDbLine
 10
206.8271312525
 20
103.0623860005
 30
0.0
 11
208.825589325
 21
103.1179077644
 31
0.0
  0
LINE
  5
14D
330
1F
100
AcDbEntity
  8
0
  6
HIDDEN
 62
     7
370
     0
100
AcDbLine
 10
208.7961444632
 20
103.3416427672
 30
0.0
 11
208.825589325
 21
103.1179077644
 31
0.0
  0
LINE
  5
14E
330
1F
100
AcDbEntity
  8
0
  6
HIDDEN
 62
     7
370
     0
100
AcDbLine
 10
206.7682415289
 20
104.1222284418
 30
0.0
 11
208.7666996014
 21
104.1777502057
 31
0.0
  0
LINE
  5
14F
330
1F
100
AcDbEntity
  8
0
  6
HIDDEN
 62
     7
370
     0
100
AcDbLine
 10
206.7682415289
 20
104.7346008775
 30
0.0
 11
208.7666996014
 21
104.7901226414
 31
0.0
  0
LINE
  5
150
330
1F
100
AcDbEntity
  8
0
  6
HIDDEN
 62
     7
370
     0
100
AcDbLine
 10
206.7682415289
 20
104.1222284418
 30
0.0
 11
206.7682415289
 21
104.7346008775
 31
0.0
  0
LINE
  5
151
330
1F
100
AcDbEntity
  8
0
  6
HIDDEN
 62
     7
370
     0
100
AcDbLine
 10
206.7976863907
 20
103.2861210033
 30
0.0
 11
206.7682415289
 21
104.1222284418
 31
0.0
  0
LINE
  5
152
330
1F
100
AcDbEntity
  8
0
  6
HIDDEN
 62
     7
370
     0
100
AcDbLine
 10
208.7961444632
 20
103.3416427672
 30
0.0
 11
208.7666996014
 21
104.1777502057
 31
0.0
  0
LWPOLYLINE
  5
153
330
1F
100
AcDbEntity
  8
0
  6
HIDDEN
 62
     7
370
     0
100
AcDbPolyline
 90
       14
 70
   128
 43
0.0
 10
208.7666996014
 20
123.5486687072
 10
208.753629756
 20
123.4438064799
 10
208.7372547395
 20
123.2011082334
 10
208.720879723
 20
122.854401864
 10
208.7064797752
 20
122.4455052768
 10
208.6957917422
 20
122.0237374349
 10
208.6901047587
 20
121.6399697645
 10
208.6901047587
 20
121.3404903106
 10
208.6957917422
 20
121.1614207152
 10
208.7064797752
 20
121.1243594142
 10
208.720879723
 20
121.2337765476
 10
208.7372547395
 20
121.4764747941
 10
208.753629756
 20
121.8231811635
 10
208.7666996014
 20
122.1887567615
  0
LWPOLYLINE
  5
154
330
1F
100
AcDbEntity
  8
0
  6
HIDDEN
 62
     7
370
     0
100
AcDbPolyline
 90
       21
 70
   128
 43
0.0
 10
208.6264328408
 20
122.7308076906
 10
208.633035686
 20
123.1594459897
 10
208.6339999637
 20
123.5081929896
 10
208.6292312836
 20
123.7429109041
 10
208.6191964375
 20
123.8406239083
 10
208.6048777059
 20
123.7917671725
 10
208.5876767061
 20
123.6011231346
 10
208.5692771918
 20
123.2873533611
 10
208.5514802356
 20
122.8811718237
 10
208.5360279276
 20
122.4223384013
 10
208.5244328474
 20
121.9557669062
 10
208.5178300022
 20
121.527128607
 10
208.5168657245
 20
121.1783816071
 10
208.5216344046
 20
120.9436636927
 10
208.5316692507
 20
120.8459506885
 10
208.5459879823
 20
120.8948074242
 10
208.5631889821
 20
121.0854514622
 10
208.5815884964
 20
121.3992212357
 10
208.5993854526
 20
121.8054027731
 10
208.6148377606
 20
122.2642361955
 10
208.6264328408
 20
122.7308076906
  0
LWPOLYLINE
  5
155
330
1F
100
AcDbEntity
  8
0
  6
HIDDEN
 62
     7
370
     0
100
AcDbPolyline
 90
       21
 70
   128
 43
0.0
 10
203.2924950369
 20
122.8789967567
 10
203.2990978821
 20
123.3076350558
 10
203.3000621598
 20
123.6563820557
 10
203.2952934797
 20
123.8910999702
 10
203.2852586336
 20
123.9888129744
 10
203.270939902
 20
123.9399562386
 10
203.2537389022
 20
123.7493122007
 10
203.2353393879
 20
123.4355424272
 10
203.2175424317
 20
123.0293608898
 10
203.2020901237
 20
122.5705274674
 10
203.1904950435
 20
122.1039559723
 10
203.1838921983
 20
121.6753176731
 10
203.1829279206
 20
121.3265706732
 10
203.1876966007
 20
121.0918527588
 10
203.1977314468
 20
120.9941397546
 10
203.2120501784
 20
121.0429964903
 10
203.2292511782
 20
121.2336405283
 10
203.2476506925
 20
121.5474103018
 10
203.2654476487
 20
121.9535918392
 10
203.2808999567
 20
122.4124252616
 10
203.2924950369
 20
122.8789967567
  0
LWPOLYLINE
  5
156
330
1F
100
AcDbEntity
  8
0
  6
HIDDEN
 62
     7
370
     0
100
AcDbPolyline
 90
       17
 70
   128
 43
0.0
 10
202.7758805199
 20
122.7637037336
 10
202.7808044647
 20
123.1135777446
 10
202.7798025921
 20
123.3708556312
 10
202.7730274281
 20
123.4963691673
 10
202.76151043
 20
123.4710100549
 10
202.7470049564
 20
123.2986389889
 10
202.7317193341
 20
123.0054979016
 10
202.7179806605
 20
122.6362148662
 10
202.7078805243
 20
122.2470098773
 10
202.7029565795
 20
121.8971358663
 10
202.7039584521
 20
121.6398579797
 10
202.7107336161
 20
121.5143444436
 10
202.7222506142
 20
121.539703556
 10
202.7367560878
 20
121.712074622
 10
202.7520417101
 20
122.0052157093
 10
202.7657803836
 20
122.3744987447
 10
202.7758805199
 20
122.7637037336
  0
LINE
  5
157
330
1F
100
AcDbEntity
  8
0
  6
HIDDEN
 62
     7
370
     0
100
AcDbLine
 10
208.7372547395
 20
122.9511639494
 30
0.0
 11
208.7078098777
 21
122.115056511
 31
0.0
  0
LINE
  5
158
330
1F
100
AcDbEntity
  8
0
  6
HIDDEN
 62
     7
370
     0
100
AcDbLine
 10
208.7078098777
 20
121.5026840753
 30
0.0
 11
208.7078098777
 21
122.115056511
 31
0.0
  0
LINE
  5
159
330
1F
100
AcDbEntity
  8
0
  6
HIDDEN
 62
     7
370
     0
100
AcDbLine
 10
208.7372547395
 20
121.7264190781
 30
0.0
 11
208.7078098777
 21
121.5026840753
 31
0.0
  0
LINE
  5
15A
330
1F
100
AcDbEntity
  8
0
  6
HIDDEN
 62
     7
370
     0
100
AcDbLine
 10
208.7372547395
 20
121.7264190781
 30
0.0
 11
208.7666996014
 21
122.5625265165
 31
0.0
  0
LINE
  5
15B
330
1F
100
AcDbEntity
  8
0
  6
HIDDEN
 62
     7
370
     0
100
AcDbLine
 10
208.7666996014
 20
123.1748989522
 30
0.0
 11
208.7372547395
 21
122.9511639494
 31
0.0
  0
LINE
  5
15C
330
1F
100
AcDbEntity
  8
0
  6
HIDDEN
 62
     7
370
     0
100
AcDbLine
 10
206.7387966671
 20
121.781940842
 30
0.0
 11
206.7682415289
 21
122.6180482804
 31
0.0
  0
LINE
  5
15D
330
1F
100
AcDbEntity
  8
0
  6
HIDDEN
 62
     7
370
     0
100
AcDbLine
 10
206.7387966671
 20
121.781940842
 30
0.0
 11
206.7093518052
 21
121.5582058392
 31
0.0
  0
LINE
  5
15E
330
1F
100
AcDbEntity
  8
0
  6
HIDDEN
 62
     7
370
     0
100
AcDbLine
 10
206.7093518052
 20
121.5582058392
 30
0.0
 11
206.7093518052
 21
122.1705782749
 31
0.0
  0
LINE
  5
15F
330
1F
100
AcDbEntity
  8
0
  6
HIDDEN
 62
     7
370
     0
100
AcDbLine
 10
206.7682415289
 20
123.2304207161
 30
0.0
 11
206.7387966671
 21
123.0066857133
 31
0.0
  0
LINE
  5
160
330
1F
100
AcDbEntity
  8
0
  6
HIDDEN
 62
     7
370
     0
100
AcDbLine
 10
206.7682415289
 20
123.2304207161
 30
0.0
 11
206.7682415289
 21
122.6180482804
 31
0.0
  0
LINE
  5
161
330
1F
100
AcDbEntity
  8
0
  6
HIDDEN
 62
     7
370
     0
100
AcDbLine
 10
206.7387966671
 20
123.0066857133
 30
0.0
 11
206.7093518052
 21
122.1705782749
 31
0.0
  0
LINE
  5
162
330
1F
100
AcDbEntity
  8
0
  6
HIDDEN
 62
     7
370
     0
100
AcDbLine
 10
206.7093518052
 20
122.1705782749
 30
0.0
 11
208.7078098777
 21
122.115056511
 31
0.0
  0
LINE
  5
163
330
1F
100
AcDbEntity
  8
0
  6
HIDDEN
 62
     7
370
     0
100
AcDbLine
 10
206.7387966671
 20
123.0066857133
 30
0.0
 11
208.7372547395
 21
122.9511639494
 31
0.0
  0
LINE
  5
164
330
1F
100
AcDbEntity
  8
0
  6
HIDDEN
 62
     7
370
     0
100
AcDbLine
 10
206.7387966671
 20
121.781940842
 30
0.0
 11
208.7372547395
 21
121.7264190781
 31
0.0
  0
LINE
  5
165
330
1F
100
AcDbEntity
  8
0
  6
HIDDEN
 62
     7
370
     0
100
AcDbLine
 10
206.7093518052
 20
121.5582058392
 30
0.0
 11
208.7078098777
 21
121.5026840753
 31
0.0
  0
LINE
  5
166
330
1F
100
AcDbEntity
  8
0
  6
HIDDEN
 62
     7
370
     0
100
AcDbLine
 10
206.7682415289
 20
122.6180482804
 30
0.0
 11
208.7666996014
 21
122.5625265165
 31
0.0
  0
LINE
  5
167
330
1F
100
AcDbEntity
  8
0
  6
HIDDEN
 62
     7
370
     0
100
AcDbLine
 10
206.7682415289
 20
123.2304207161
 30
0.0
 11
208.7666996014
 21
123.1748989522
 31
0.0
  0
LINE
  5
168
330
1F
100
AcDbEntity
  8
0
  6
HIDDEN
 62
     7
370
     0
100
AcDbLine
 10
132.7666996014
 20
127.4434204621
 30
0.0
 11
132.7666996014
 21
125.5395259552
 31
0.0
  0
LINE
  5
169
330
1F
100
AcDbEntity
  8
0
  6
HIDDEN
 62
     7
370
     0
100
AcDbLine
 10
140.7666996014
 20
125.5395259552
 30
0.0
 11
140.7666996014
 21
127.446215818
 31
0.0
  0
LINE
  5
16A
330
1F
100
AcDbEntity
  8
0
  6
HIDDEN
 62
     7
370
     0
100
AcDbLine
 10
128.7666996014
 20
87.8216541663
 30
0.0
 11
128.8608603769
 21
88.4916428975
 31
0.0
  0
LINE
  5
16B
330
1F
100
AcDbEntity
  8
0
  6
HIDDEN
 62
     7
370
     0
100
AcDbLine
 10
128.8608603769
 20
137.7995277271
 30
0.0
 11
128.7666996014
 21
138.4695164583
 31
0.0
  0
ARC
  5
16C
330
1F
100
AcDbEntity
  8
0
  6
HIDDEN
 62
     7
370
     0
100
AcDbCircle
 10
128.2666928487
 20
88.5751476979
 30
0.0
 40
0.6000067526677363
100
AcDbArc
 50
352.0
 51
0.0
  0
ARC
  5
16D
330
1F
100
AcDbEntity
  8
0
  6
HIDDEN
 62
     7
370
     0
100
AcDbCircle
 10
128.2666928487
 20
88.5751476979
 30
0.0
 40
0.6000067526677242
100
AcDbArc
 50
0.0
 51
33.5571153394
  0
ARC
  5
16E
330
1F
100
AcDbEntity
  8
0
  6
HIDDEN
 62
     7
370
     0
100
AcDbCircle
 10
128.2666928487
 20
137.7160229267
 30
0.0
 40
0.6000067526677363
100
AcDbArc
 50
348.75
 51
8.0
  0
LWPOLYLINE
  5
16F
330
1F
100
AcDbEntity
  8
0
  6
HIDDEN
 62
     7
370
     0
100
AcDbPolyline
 90
        3
 70
   128
 43
0.0
 10
128.8551706398
 20
137.5989674161
 10
128.8210268068
 20
137.4864102831
 10
128.7666996014
 20
137.3843584117
  0
LINE
  5
170
330
1F
100
AcDbEntity
  8
0
  6
HIDDEN
 62
     7
370
     0
100
AcDbLine
 10
128.8666996014
 20
88.5751476979
 30
0.0
 11
128.8666996014
 21
137.7160229267
 31
0.0
  0
LINE
  5
171
330
1F
100
AcDbEntity
  8
0
  6
HIDDEN
 62
     7
370
     0
100
AcDbLine
 10
111.8491351667
 20
93.1455853123
 30
0.0
 11
116.0198169825
 21
93.1455853123
 31
0.0
  0
LINE
  5
172
330
1F
100
AcDbEntity
  8
0
  6
HIDDEN
 62
     7
370
     0
100
AcDbLine
 10
116.0198169825
 20
133.1455853123
 30
0.0
 11
111.8491351667
 21
133.1455853123
 31
0.0
  0
ARC
  5
173
330
1F
100
AcDbEntity
  8
0
  6
HIDDEN
 62
     7
370
     0
100
AcDbCircle
 10
111.8491351667
 20
93.7455853123
 30
0.0
 40
0.6000000000000085
100
AcDbArc
 50
210.0
 51
270.0
  0
ARC
  5
174
330
1F
100
AcDbEntity
  8
0
  6
HIDDEN
 62
     7
370
     0
100
AcDbCircle
 10
111.8491351667
 20
132.5455853123
 30
0.0
 40
0.6000000000000227
100
AcDbArc
 50
90.0
 51
150.0
  0
ARC
  5
175
330
1F
100
AcDbEntity
  8
0
  6
HIDDEN
 62
     7
370
     0
100
AcDbCircle
 10
122.521701603
 20
101.1455853123
 30
0.0
 40
7.999999999999988
100
AcDbArc
 50
277.1324855855
 51
321.3178125465
  0
ARC
  5
176
330
1F
100
AcDbEntity
  8
0
  6
HIDDEN
 62
     7
370
     0
100
AcDbCircle
 10
122.521701603
 20
125.1455853123
 30
0.0
 40
8.000000000000002
100
AcDbArc
 50
38.6821874535
 51
82.8562452552
  0
LINE
  5
177
330
1F
100
AcDbEntity
  8
0
  6
HIDDEN
 62
     7
370
     0
100
AcDbLine
 10
111.3295199244
 20
132.8455853123
 30
0.0
 11
109.7706741976
 21
130.1455853123
 31
0.0
  0
LINE
  5
178
330
1F
100
AcDbEntity
  8
0
  6
HIDDEN
 62
     7
370
     0
100
AcDbLine
 10
109.7706741976
 20
96.1455853123
 30
0.0
 11
111.3295199244
 21
93.4455853123
 31
0.0
  0
LINE
  5
179
330
1F
100
AcDbEntity
  8
0
  6
HIDDEN
 62
     7
370
     0
100
AcDbLine
 10
132.7666996014
 20
140.4239428601
 30
0.0
 11
132.7666996014
 21
137.0911877269
 31
0.0
  0
LINE
  5
17A
330
1F
100
AcDbEntity
  8
0
  6
HIDDEN
 62
     7
370
     0
100
AcDbLine
 10
140.7666996014
 20
137.0911877269
 30
0.0
 11
140.7666996014
 21
140.4253175494
 31
0.0
  0
ARC
  5
17B
330
1F
100
AcDbEntity
  8
0
  6
HIDDEN
 62
     7
370
     0
100
AcDbCircle
 10
137.2166996014
 20
97.4205853123
 30
0.0
 40
1.5
100
AcDbArc
 50
238.2116693829
 51
0.0
  0
ARC
  5
17C
330
1F
100
AcDbEntity
  8
0
  6
HIDDEN
 62
     7
370
     0
100
AcDbCircle
 10
137.2166996014
 20
128.8705853123
 30
0.0
 40
1.500000000000025
100
AcDbArc
 50
0.0
 51
121.7883306171
  0
LINE
  5
17D
330
1F
100
AcDbEntity
  8
0
  6
HIDDEN
 62
     7
370
     0
100
AcDbLine
 10
128.7666996014
 20
96.1455853123
 30
0.0
 11
136.4265255699
 21
96.1455853123
 31
0.0
  0
LINE
  5
17E
330
1F
100
AcDbEntity
  8
0
  6
HIDDEN
 62
     7
370
     0
100
AcDbLine
 10
136.4265255699
 20
130.1455853123
 30
0.0
 11
128.7666996014
 21
130.1455853123
 31
0.0
  0
LINE
  5
17F
330
1F
100
AcDbEntity
  8
0
  6
HIDDEN
 62
     7
370
     0
100
AcDbLine
 10
106.9666996014
 20
96.1455853123
 30
0.0
 11
109.7706741976
 21
96.1455853123
 31
0.0
  0
LINE
  5
180
330
1F
100
AcDbEntity
  8
0
  6
HIDDEN
 62
     7
370
     0
100
AcDbLine
 10
109.7706741976
 20
130.1455853123
 30
0.0
 11
102.9666996014
 21
130.1455853123
 31
0.0
  0
LINE
  5
181
330
1F
100
AcDbEntity
  8
0
  6
HIDDEN
 62
     7
370
     0
100
AcDbLine
 10
163.2666996014
 20
103.5652479729
 30
0.0
 11
163.2666996014
 21
107.3583212168
 31
0.0
  0
LINE
  5
182
330
1F
100
AcDbEntity
  8
0
  6
HIDDEN
 62
     7
370
     0
100
AcDbLine
 10
163.2666996014
 20
101.5490341008
 30
0.0
 11
163.2666996014
 21
101.8130518236
 31
0.0
  0
LINE
  5
183
330
1F
100
AcDbEntity
  8
0
  6
HIDDEN
 62
     7
370
     0
100
AcDbLine
 10
160.2666996014
 20
102.3710024823
 30
0.0
 11
160.2666996014
 21
101.5490341008
 31
0.0
  0
LINE
  5
184
330
1F
100
AcDbEntity
  8
0
  6
HIDDEN
 62
     7
370
     0
100
AcDbLine
 10
160.2666996014
 20
107.2778488054
 30
0.0
 11
160.2666996014
 21
102.8749890501
 31
0.0
  0
LINE
  5
185
330
1F
100
AcDbEntity
  8
0
  6
HIDDEN
 62
     7
370
     0
100
AcDbLine
 10
162.9788681324
 20
101.4306235192
 30
0.0
 11
208.7666996014
 21
102.7027148398
 31
0.0
  0
LINE
  5
186
330
1F
100
AcDbEntity
  8
0
  6
HIDDEN
 62
     7
370
     0
100
AcDbLine
 10
208.7666996014
 20
105.203679474
 30
0.0
 11
162.9774558197
 21
103.9315489162
 31
0.0
  0
LINE
  5
187
330
1F
100
AcDbEntity
  8
0
  6
HIDDEN
 62
     7
370
     0
100
AcDbLine
 10
160.2905078974
 20
103.021446547
 30
0.0
 11
160.0532091402
 21
102.5998242973
 31
0.0
  0
LINE
  5
188
330
1F
100
AcDbEntity
  8
0
  6
HIDDEN
 62
     7
370
     0
100
AcDbLine
 10
160.0532091402
 20
102.5998242973
 30
0.0
 11
160.2914647545
 21
102.2266233948
 31
0.0
  0
LINE
  5
189
330
1F
100
AcDbEntity
  8
0
  6
HIDDEN
 62
     7
370
     0
100
AcDbLine
 10
147.5666996014
 20
103.6455853123
 30
0.0
 11
150.5666996014
 21
103.6455853123
 31
0.0
  0
LINE
  5
18A
330
1F
100
AcDbEntity
  8
0
  6
HIDDEN
 62
     7
370
     0
100
AcDbLine
 10
150.5666996014
 20
122.6455853123
 30
0.0
 11
147.5666996014
 21
122.6455853123
 31
0.0
  0
LINE
  5
18B
330
1F
100
AcDbEntity
  8
0
  6
HIDDEN
 62
     7
370
     0
100
AcDbLine
 10
138.7166996014
 20
104.1455853123
 30
0.0
 11
139.2166996014
 21
104.6455853123
 31
0.0
  0
LINE
  5
18C
330
1F
100
AcDbEntity
  8
0
  6
HIDDEN
 62
     7
370
     0
100
AcDbLine
 10
139.2166996014
 20
121.6455853123
 30
0.0
 11
138.7166996014
 21
122.1455853123
 31
0.0
  0
LINE
  5
18D
330
1F
100
AcDbEntity
  8
0
  6
HIDDEN
 62
     7
370
     0
100
AcDbLine
 10
139.2166996014
 20
104.6455853123
 30
0.0
 11
147.5666996014
 21
104.6455853123
 31
0.0
  0
LINE
  5
18E
330
1F
100
AcDbEntity
  8
0
  6
HIDDEN
 62
     7
370
     0
100
AcDbLine
 10
147.5666996014
 20
121.6455853123
 30
0.0
 11
139.2166996014
 21
121.6455853123
 31
0.0
  0
ARC
  5
18F
330
1F
100
AcDbEntity
  8
0
  6
HIDDEN
 62
     7
370
     0
100
AcDbCircle
 10
208.4666996014
 20
104.8455853123
 30
0.0
 40
0.3000000000000114
100
AcDbArc
 50
0.0
 51
90.0
  0
ARC
  5
190
330
1F
100
AcDbEntity
  8
0
  6
HIDDEN
 62
     7
370
     0
100
AcDbCircle
 10
208.4666996014
 20
121.4455853123
 30
0.0
 40
0.3000000000000114
100
AcDbArc
 50
270.0
 51
0.0
  0
ARC
  5
191
330
1F
100
AcDbEntity
  8
0
  6
HIDDEN
 62
     7
370
     0
100
AcDbCircle
 10
162.8719255832
 20
121.0455853123
 30
0.0
 40
0.4000000000000074
100
AcDbArc
 50
70.0
 51
90.0
  0
LINE
  5
192
330
1F
100
AcDbEntity
  8
0
  6
HIDDEN
 62
     7
370
     0
100
AcDbLine
 10
160.1666996014
 20
104.8455853123
 30
0.0
 11
162.8719255832
 21
104.8455853123
 31
0.0
  0
LINE
  5
193
330
1F
100
AcDbEntity
  8
0
  6
HIDDEN
 62
     7
370
     0
100
AcDbLine
 10
162.8719255832
 20
121.4455853123
 30
0.0
 11
160.1666996014
 21
121.4455853123
 31
0.0
  0
ARC
  5
194
330
1F
100
AcDbEntity
  8
0
  6
HIDDEN
 62
     7
370
     0
100
AcDbCircle
 10
160.1666996014
 20
105.2455853123
 30
0.0
 40
0.4000000000000341
100
AcDbArc
 50
180.0
 51
270.0
  0
ARC
  5
195
330
1F
100
AcDbEntity
  8
0
  6
HIDDEN
 62
     7
370
     0
100
AcDbCircle
 10
160.1666996014
 20
121.0455853123
 30
0.0
 40
0.4000000000000341
100
AcDbArc
 50
90.0
 51
180.0
  0
LINE
  5
196
330
1F
100
AcDbEntity
  8
0
  6
HIDDEN
 62
     7
370
     0
100
AcDbLine
 10
163.0087336406
 20
104.869708264
 30
0.0
 11
163.7666996014
 21
105.1455853123
 31
0.0
  0
LINE
  5
197
330
1F
100
AcDbEntity
  8
0
  6
HIDDEN
 62
     7
370
     0
100
AcDbLine
 10
163.7666996014
 20
121.1455853123
 30
0.0
 11
163.0087336406
 21
121.4214623606
 31
0.0
  0
LINE
  5
198
330
1F
100
AcDbEntity
  8
0
  6
HIDDEN
 62
     7
370
     0
100
AcDbLine
 10
133.7166996014
 20
144.6455853123
 30
0.0
 11
133.7166996014
 21
139.5455853123
 31
0.0
  0
LINE
  5
199
330
1F
100
AcDbEntity
  8
0
  6
HIDDEN
 62
     7
370
     0
100
AcDbLine
 10
163.7666996014
 20
105.1455853123
 30
0.0
 11
208.4666996014
 21
105.1455853123
 31
0.0
  0
LINE
  5
19A
330
1F
100
AcDbEntity
  8
0
  6
HIDDEN
 62
     7
370
     0
100
AcDbLine
 10
208.4666996014
 20
121.1455853123
 30
0.0
 11
163.7666996014
 21
121.1455853123
 31
0.0
  0
ARC
  5
19B
330
1F
100
AcDbEntity
  8
0
  6
HIDDEN
 62
     7
370
     0
100
AcDbCircle
 10
162.8719255832
 20
105.2455853123
 30
0.0
 40
0.4000000000000074
100
AcDbArc
 50
270.0
 51
290.0
  0
LINE
  5
19C
330
1F
100
AcDbEntity
  8
0
  6
HIDDEN
 62
     7
370
     0
100
AcDbLine
 10
123.9511374318
 20
89.0662139788
 30
0.0
 11
123.5167052823
 21
89.5452799979
 31
0.0
  0
LINE
  5
19D
330
1F
100
AcDbEntity
  8
0
  6
HIDDEN
 62
     7
370
     0
100
AcDbLine
 10
116.0167019573
 20
89.966967957
 30
0.0
 11
115.5342682139
 21
89.4879019816
 31
0.0
  0
LINE
  5
19E
330
1F
100
AcDbEntity
  8
0
  6
HIDDEN
 62
     7
370
     0
100
AcDbLine
 10
115.5341462857
 20
136.8032633526
 30
0.0
 11
116.0166970367
 21
136.3241430947
 31
0.0
  0
LINE
  5
19F
330
1F
100
AcDbEntity
  8
0
  6
HIDDEN
 62
     7
370
     0
100
AcDbLine
 10
123.5166994834
 20
136.7458408724
 30
0.0
 11
123.9512418737
 21
137.224961123
 31
0.0
  0
LINE
  5
1A0
330
1F
100
AcDbEntity
  8
0
  6
HIDDEN
 62
     7
370
     0
100
AcDbLine
 10
150.5666996014
 20
108.8955853123
 30
0.0
 11
159.7666996014
 21
108.8955853123
 31
0.0
  0
LINE
  5
1A1
330
1F
100
AcDbEntity
  8
0
  6
HIDDEN
 62
     7
370
     0
100
AcDbLine
 10
159.7666996014
 20
117.3955853123
 30
0.0
 11
150.5666996014
 21
117.3955853123
 31
0.0
  0
LINE
  5
1A2
330
1F
100
AcDbEntity
  8
0
  6
HIDDEN
 62
     7
370
     0
100
AcDbLine
 10
123.5166996014
 20
89.5457638996
 30
0.0
 11
123.5166996014
 21
93.2077491217
 31
0.0
  0
LINE
  5
1A3
330
1F
100
AcDbEntity
  8
0
  6
HIDDEN
 62
     7
370
     0
100
AcDbLine
 10
116.0166996014
 20
93.1461695735
 30
0.0
 11
116.0166996014
 21
89.9672911948
 31
0.0
  0
LINE
  5
1A4
330
1F
100
AcDbEntity
  8
0
  6
HIDDEN
 62
     7
370
     0
100
AcDbLine
 10
123.5166996014
 20
133.0834215029
 30
0.0
 11
123.5166996014
 21
136.7455495663
 31
0.0
  0
LINE
  5
1A5
330
1F
100
AcDbEntity
  8
0
  6
HIDDEN
 62
     7
370
     0
100
AcDbLine
 10
116.0166996014
 20
136.3239993155
 30
0.0
 11
116.0166996014
 21
133.1450010511
 31
0.0
  0
LINE
  5
1A6
330
1F
100
AcDbEntity
  8
0
  6
HIDDEN
 62
     7
370
     0
100
AcDbLine
 10
169.2166996014
 20
89.1455853123
 30
0.0
 11
168.2166996014
 21
89.7229355815
 31
0.0
  0
LINE
  5
1A7
330
1F
100
AcDbEntity
  8
0
  6
HIDDEN
 62
     7
370
     0
100
AcDbLine
 10
163.2166996014
 20
89.7229355815
 30
0.0
 11
162.2166996014
 21
89.1455853123
 31
0.0
  0
LINE
  5
1A8
330
1F
100
AcDbEntity
  8
0
  6
HIDDEN
 62
     7
370
     0
100
AcDbLine
 10
162.2166996014
 20
137.1455853123
 30
0.0
 11
163.2166996014
 21
136.5682350431
 31
0.0
  0
LINE
  5
1A9
330
1F
100
AcDbEntity
  8
0
  6
HIDDEN
 62
     7
370
     0
100
AcDbLine
 10
168.2166996014
 20
136.5682350431
 30
0.0
 11
169.2166996014
 21
137.1455853123
 31
0.0
  0
LINE
  5
1AA
330
1F
100
AcDbEntity
  8
0
  6
HIDDEN
 62
     7
370
     0
100
AcDbLine
 10
163.2166996014
 20
136.5682350431
 30
0.0
 11
163.2166996014
 21
125.1455853123
 31
0.0
  0
LINE
  5
1AB
330
1F
100
AcDbEntity
  8
0
  6
HIDDEN
 62
     7
370
     0
100
AcDbLine
 10
168.2166996014
 20
125.1455853123
 30
0.0
 11
168.2166996014
 21
136.5682350431
 31
0.0
  0
LINE
  5
1AC
330
1F
100
AcDbEntity
  8
0
  6
HIDDEN
 62
     7
370
     0
100
AcDbLine
 10
163.2166996014
 20
125.1455853123
 30
0.0
 11
165.7166996014
 21
123.6434337647
 31
0.0
  0
LINE
  5
1AD
330
1F
100
AcDbEntity
  8
0
  6
HIDDEN
 62
     7
370
     0
100
AcDbLine
 10
165.7166996014
 20
123.6434337647
 30
0.0
 11
168.2166996014
 21
125.1455853123
 31
0.0
  0
LINE
  5
1AE
330
1F
100
AcDbEntity
  8
0
  6
HIDDEN
 62
     7
370
     0
100
AcDbLine
 10
168.2166996014
 20
101.1455853123
 30
0.0
 11
165.7166996014
 21
102.6477368599
 31
0.0
  0
LINE
  5
1AF
330
1F
100
AcDbEntity
  8
0
  6
HIDDEN
 62
     7
370
     0
100
AcDbLine
 10
165.7166996014
 20
102.6477368599
 30
0.0
 11
163.2166996014
 21
101.1455853123
 31
0.0
  0
LINE
  5
1B0
330
1F
100
AcDbEntity
  8
0
  6
HIDDEN
 62
     7
370
     0
100
AcDbLine
 10
168.2166996014
 20
89.7229355815
 30
0.0
 11
168.2166996014
 21
101.1455853123
 31
0.0
  0
LINE
  5
1B1
330
1F
100
AcDbEntity
  8
0
  6
HIDDEN
 62
     7
370
     0
100
AcDbLine
 10
163.2166996014
 20
101.1455853123
 30
0.0
 11
163.2166996014
 21
89.7229355815
 31
0.0
  0
LINE
  5
1B2
330
1F
100
AcDbEntity
  8
0
  6
HIDDEN
 62
     7
370
     0
100
AcDbLine
 10
163.2666996014
 20
118.9317769258
 30
0.0
 11
163.2666996014
 21
122.7182922231
 31
0.0
  0
LINE
  5
1B3
330
1F
100
AcDbEntity
  8
0
  6
HIDDEN
 62
     7
370
     0
100
AcDbLine
 10
160.2666996014
 20
123.4171881335
 30
0.0
 11
160.2666996014
 21
119.0140463633
 31
0.0
  0
LINE
  5
1B4
330
1F
100
AcDbEntity
  8
0
  6
HIDDEN
 62
     7
370
     0
100
AcDbLine
 10
160.2666996014
 20
124.4592938113
 30
0.0
 11
160.2666996014
 21
123.9204017232
 31
0.0
  0
LINE
  5
1B5
330
1F
100
AcDbEntity
  8
0
  6
HIDDEN
 62
     7
370
     0
100
AcDbLine
 10
162.9783030022
 20
122.3595981718
 30
0.0
 11
208.7666996014
 21
121.0874911506
 31
0.0
  0
LINE
  5
1B6
330
1F
100
AcDbEntity
  8
0
  6
HIDDEN
 62
     7
370
     0
100
AcDbLine
 10
208.7666996014
 20
123.5884557848
 30
0.0
 11
162.9787960121
 21
124.860549109
 31
0.0
  0
LINE
  5
1B7
330
1F
100
AcDbEntity
  8
0
  6
HIDDEN
 62
     7
370
     0
100
AcDbLine
 10
160.2935895225
 20
124.0678754424
 30
0.0
 11
160.0532091402
 21
123.6913463273
 31
0.0
  0
LINE
  5
1B8
330
1F
100
AcDbEntity
  8
0
  6
HIDDEN
 62
     7
370
     0
100
AcDbLine
 10
160.0532091402
 20
123.6913463273
 30
0.0
 11
160.2930853893
 21
123.2651445006
 31
0.0
  0
LINE
  5
1B9
330
1F
100
AcDbEntity
  8
0
  6
HIDDEN
 62
     7
370
     0
100
AcDbLine
 10
203.2575874538
 20
105.3001413444
 30
0.0
 11
202.7722387057
 21
104.7866572394
 31
0.0
  0
LINE
  5
1BA
330
1F
100
AcDbEntity
  8
0
  6
HIDDEN
 62
     7
370
     0
100
AcDbLine
 10
202.8277604531
 20
102.7881997613
 30
0.0
 11
203.3408700749
 21
102.3024551273
 31
0.0
  0
LINE
  5
1BB
330
1F
100
AcDbEntity
  8
0
  6
HIDDEN
 62
     7
370
     0
100
AcDbLine
 10
208.5926651897
 20
105.448940861
 30
0.0
 11
203.2587273859
 21
105.3007517949
 31
0.0
  0
LINE
  5
1BC
330
1F
100
AcDbEntity
  8
0
  6
HIDDEN
 62
     7
370
     0
100
AcDbLine
 10
203.3420421418
 20
102.3019089095
 30
0.0
 11
208.6759799457
 21
102.4500979756
 31
0.0
  0
LINE
  5
1BD
330
1F
100
AcDbEntity
  8
0
  6
HIDDEN
 62
     7
370
     0
100
AcDbLine
 10
208.6779339746
 20
102.4518892751
 30
0.0
 11
208.7666996014
 21
102.6162613505
 31
0.0
  0
LINE
  5
1BE
330
1F
100
AcDbEntity
  8
0
  6
HIDDEN
 62
     7
370
     0
100
AcDbLine
 10
208.7639440477
 20
105.171678959
 30
0.0
 11
208.5947156606
 21
105.4472608157
 31
0.0
  0
LINE
  5
1BF
330
1F
100
AcDbEntity
  8
0
  6
HIDDEN
 62
     7
370
     0
100
AcDbLine
 10
208.535825937
 20
120.8455459009
 30
0.0
 11
208.705054324
 21
121.1211277576
 31
0.0
  0
LINE
  5
1C0
330
1F
100
AcDbEntity
  8
0
  6
HIDDEN
 62
     7
370
     0
100
AcDbLine
 10
208.7666996014
 20
123.5674961041
 30
0.0
 11
208.619044251
 21
123.8409174416
 31
0.0
  0
LINE
  5
1C1
330
1F
100
AcDbEntity
  8
0
  6
HIDDEN
 62
     7
370
     0
100
AcDbLine
 10
208.6170902221
 20
123.8427087411
 30
0.0
 11
203.2831524182
 21
123.9908978072
 31
0.0
  0
LINE
  5
1C2
330
1F
100
AcDbEntity
  8
0
  6
HIDDEN
 62
     7
370
     0
100
AcDbLine
 10
203.1998376622
 20
120.9920549218
 30
0.0
 11
208.5337754661
 21
120.8438658557
 31
0.0
  0
LINE
  5
1C3
330
1F
100
AcDbEntity
  8
0
  6
HIDDEN
 62
     7
370
     0
100
AcDbLine
 10
203.2819803512
 20
123.9903515894
 30
0.0
 11
202.7688707294
 21
123.5046069554
 31
0.0
  0
LINE
  5
1C4
330
1F
100
AcDbEntity
  8
0
  6
HIDDEN
 62
     7
370
     0
100
AcDbLine
 10
202.7133489821
 20
121.5061494773
 30
0.0
 11
203.1986977302
 21
120.9926653722
 31
0.0
  0
DIMENSION
  5
1C5
330
1F
100
AcDbEntity
  8
VERMASSUNG
100
AcDbDimension
  2
*D1
 10
91.4379315146
 20
81.6455853123
 30
0.0
 11
91.4379315146
 21
113.0494440109
 31
0.0
 70
   160
  1
HSK A %%c<>
 71
     2
 42
-1.0
  3
SLDDIMSTYLE0
100
AcDbAlignedDimension
 13
129.0666996014
 23
144.6455853123
 33
0.0
 14
129.0666996014
 24
81.6455853123
 34
0.0
 50
90.0
100
AcDbRotatedDimension
  0
DIMENSION
  5
1D2
330
1F
100
AcDbEntity
  8
VERMASSUNG
100
AcDbDimension
  2
*D2
 10
217.0390150983
 20
105.1455853123
 30
0.0
 11
217.0390150983
 21
113.0494440109
 31
0.0
 70
   160
  1
%%c<>
 71
     2
 42
-1.0
  3
SLDDIMSTYLE0
100
AcDbAlignedDimension
 13
208.4666996014
 23
121.1455853123
 33
0.0
 14
208.4666996014
 24
105.1455853123
 34
0.0
 50
90.0
100
AcDbRotatedDimension
  0
DIMENSION
  5
1DD
330
1F
100
AcDbEntity
  8
VERMASSUNG
100
AcDbDimension
  2
*D3
 10
208.7666996014
 20
158.8549745416
 30
0.0
 11
151.8353612664
 21
158.8549745416
 31
0.0
 70
   160
 71
     2
 42
-1.0
  3
SLDDIMSTYLE0
100
AcDbAlignedDimension
 13
96.8666996014
 23
132.8362630588
 33
0.0
 14
208.7666996014
 24
129.8714447907
 34
0.0
100
AcDbRotatedDimension
  0
DIMENSION
  5
1E7
330
1F
100
AcDbEntity
  8
VERMASSUNG
100
AcDbDimension
  2
*D4
 10
208.7666996014
 20
152.8549745416
 30
0.0
 11
168.8591756674
 21
152.8549745416
 31
0.0
 70
   160
 71
     2
 42
-1.0
  3
SLDDIMSTYLE0
100
AcDbAlignedDimension
 13
128.7666996014
 23
144.3455853123
 33
0.0
 14
208.7666996014
 24
129.8714447907
 34
0.0
100
AcDbRotatedDimension
  0
DIMENSION
  5
1F1
330
1F
100
AcDbEntity
  8
VERMASSUNG
100
AcDbDimension
  2
*D5
 10
208.7666996014
 20
146.8549745416
 30
0.0
 11
182.1756643395
 21
146.8549745416
 31
0.0
 70
   160
 71
     2
 42
-1.0
  3
SLDDIMSTYLE0
100
AcDbAlignedDimension
 13
154.7166996014
 23
142.9920256361
 33
0.0
 14
208.7666996014
 24
129.8714447907
 34
0.0
100
AcDbRotatedDimension
  0
DIMENSION
  5
1FB
330
1F
100
AcDbEntity
  8
VERMASSUNG
100
AcDbDimension
  2
*D6
 10
223.0390150983
 20
89.1455853123
 30
0.0
 11
223.0390150983
 21
113.0494440109
 31
0.0
 70
   160
  1
%%c<>
 71
     2
 42
-1.0
  3
SLDDIMSTYLE0
100
AcDbAlignedDimension
 13
195.8996580783
 23
137.1455853123
 33
0.0
 14
195.8996580783
 24
89.1455853123
 34
0.0
 50
90.0
100
AcDbRotatedDimension
  0
LINE
  5
206
330
1F
100
AcDbEntity
  8
VERMASSUNG
  6
CENTERX2
370
     0
100
AcDbLine
 10
93.2308180433
 20
113.1455853123
 30
0.0
 11
211.5861809902
 21
113.1455853123
 31
0.0
  0
OLE2FRAME
  5
207
330
1F
100
AcDbEntity
  8
0
100
AcDbOle2Frame
 70
     2
  3
Bitmap Image
 10
13.8511154363
 20
38.264191557
 30
0.0
 11
51.6290888628
 21
31.9806341108
 31
0.0
 71
     2
 72
     0
 73
     1
 90
    12928
310
80552BED0767C5B32B40DDAF6807D121434000000000000000006FFBDDFB85D0
310
4940DDAF6807D121434000000000000000006FFBDDFB85D04940416F4BD60AFB
310
3F4000000000000000002BED0767C5B32B40416F4BD60AFB3F40000000000000
310
0000000000000100000000010000010000000100000000000100000000320000
310
D0CF11E0A1B11AE1000000000000000000000000000000003E000300FEFF0900
310
0600000000000000000000000100000001000000000000000010000002000000
310
01000000FEFFFFFF0000000000000000FFFFFFFFFFFFFFFFFFFFFFFFFFFFFFFF
310
FFFFFFFFFFFFFFFFFFFFFFFFFFFFFFFFFFFFFFFFFFFFFFFFFFFFFFFFFFFFFFFF
310
FFFFFFFFFFFFFFFFFFFFFFFFFFFFFFFFFFFFFFFFFFFFFFFFFFFFFFFFFFFFFFFF
310
FFFFFFFFFFFFFFFFFFFFFFFFFFFFFFFFFFFFFFFFFFFFFFFFFFFFFFFFFFFFFFFF
310
FFFFFFFFFFFFFFFFFFFFFFFFFFFFFFFFFFFFFFFFFFFFFFFFFFFFFFFFFFFFFFFF
310
FFFFFFFFFFFFFFFFFFFFFFFFFFFFFFFFFFFFFFFFFFFFFFFFFFFFFFFFFFFFFFFF
310
FFFFFFFFFFFFFFFFFFFFFFFFFFFFFFFFFFFFFFFFFFFFFFFFFFFFFFFFFFFFFFFF
310
FFFFFFFFFFFFFFFFFFFFFFFFFFFFFFFFFFFFFFFFFFFFFFFFFFFFFFFFFFFFFFFF
310
FFFFFFFFFFFFFFFFFFFFFFFFFFFFFFFFFFFFFFFFFFFFFFFFFFFFFFFFFFFFFFFF
310
FFFFFFFFFFFFFFFFFFFFFFFFFFFFFFFFFFFFFFFFFFFFFFFFFFFFFFFFFFFFFFFF
310
FFFFFFFFFFFFFFFFFFFFFFFFFFFFFFFFFFFFFFFFFFFFFFFFFFFFFFFFFFFFFFFF
310
FFFFFFFFFFFFFFFFFFFFFFFFFFFFFFFFFFFFFFFFFFFFFFFFFFFFFFFFFFFFFFFF
310
FFFFFFFFFFFFFFFFFFFFFFFFFFFFFFFFFFFFFFFFFFFFFFFFFFFFFFFFFFFFFFFF
310
FFFFFFFFFFFFFFFFFFFFFFFFFFFFFFFFFFFFFFFFFFFFFFFFFFFFFFFFFFFFFFFF
310
FDFFFFFFFEFFFFFFFEFFFFFFFEFFFFFF05000000060000000700000008000000
310
090000000A0000000B0000000C0000000D0000000E0000000F00000010000000
310
11000000120000001300000014000000150000001600000017000000FEFFFFFF
310
FFFFFFFFFFFFFFFFFFFFFFFFFFFFFFFFFFFFFFFFFFFFFFFFFFFFFFFFFFFFFFFF
310
FFFFFFFFFFFFFFFFFFFFFFFFFFFFFFFFFFFFFFFFFFFFFFFFFFFFFFFFFFFFFFFF
310
FFFFFFFFFFFFFFFFFFFFFFFFFFFFFFFFFFFFFFFFFFFFFFFFFFFFFFFFFFFFFFFF
310
FFFFFFFFFFFFFFFFFFFFFFFFFFFFFFFFFFFFFFFFFFFFFFFFFFFFFFFFFFFFFFFF
310
FFFFFFFFFFFFFFFFFFFFFFFFFFFFFFFFFFFFFFFFFFFFFFFFFFFFFFFFFFFFFFFF
310
FFFFFFFFFFFFFFFFFFFFFFFFFFFFFFFFFFFFFFFFFFFFFFFFFFFFFFFFFFFFFFFF
310
FFFFFFFFFFFFFFFFFFFFFFFFFFFFFFFFFFFFFFFFFFFFFFFFFFFFFFFFFFFFFFFF
310
FFFFFFFFFFFFFFFFFFFFFFFFFFFFFFFFFFFFFFFFFFFFFFFFFFFFFFFFFFFFFFFF
310
FFFFFFFFFFFFFFFFFFFFFFFFFFFFFFFFFFFFFFFFFFFFFFFFFFFFFFFFFFFFFFFF
310
FFFFFFFFFFFFFFFFFFFFFFFFFFFFFFFFFFFFFFFFFFFFFFFFFFFFFFFFFFFFFFFF
310
FFFFFFFFFFFFFFFFFFFFFFFFFFFFFFFFFFFFFFFFFFFFFFFFFFFFFFFFFFFFFFFF
310
FFFFFFFFFFFFFFFFFFFFFFFFFFFFFFFFFFFFFFFFFFFFFFFFFFFFFFFFFFFFFFFF
310
FFFFFFFFFFFFFFFFFFFFFFFFFFFFFFFFFFFFFFFFFFFFFFFFFFFFFFFFFFFFFFFF
310
52006F006F007400200045006E00740072007900000000000000000000000000
310
0000000000000000000000000000000000000000000000000000000000000000
310
16000500FFFFFFFFFFFFFFFF020000000A00030000000000C000000000000046
310
0000000000000000000000000022F5B4F7FFCB0103000000C000000000000000
310
01004F006C006500000000000000000000000000000000000000000000000000
310
0000000000000000000000000000000000000000000000000000000000000000
310
0A000200FFFFFFFFFFFFFFFFFFFFFFFF00000000000000000000000000000000
310
0000000000000000000000000000000000000000000000001400000000000000
310
010043006F006D0070004F0062006A0000000000000000000000000000000000
310
0000000000000000000000000000000000000000000000000000000000000000
310
120002010100000003000000FFFFFFFF00000000000000000000000000000000
310
0000000000000000000000000000000000000000010000004D00000000000000
310
01004F006C006500310030004E00610074006900760065000000000000000000
310
0000000000000000000000000000000000000000000000000000000000000000
310
1A000200FFFFFFFFFFFFFFFFFFFFFFFF00000000000000000000000000000000
310
0000000000000000000000000000000000000000040000002426000000000000
310
FEFFFFFF02000000FEFFFFFFFFFFFFFFFFFFFFFFFFFFFFFFFFFFFFFFFFFFFFFF
310
FFFFFFFFFFFFFFFFFFFFFFFFFFFFFFFFFFFFFFFFFFFFFFFFFFFFFFFFFFFFFFFF
310
FFFFFFFFFFFFFFFFFFFFFFFFFFFFFFFFFFFFFFFFFFFFFFFFFFFFFFFFFFFFFFFF
310
FFFFFFFFFFFFFFFFFFFFFFFFFFFFFFFFFFFFFFFFFFFFFFFFFFFFFFFFFFFFFFFF
310
FFFFFFFFFFFFFFFFFFFFFFFFFFFFFFFFFFFFFFFFFFFFFFFFFFFFFFFFFFFFFFFF
310
FFFFFFFFFFFFFFFFFFFFFFFFFFFFFFFFFFFFFFFFFFFFFFFFFFFFFFFFFFFFFFFF
310
FFFFFFFFFFFFFFFFFFFFFFFFFFFFFFFFFFFFFFFFFFFFFFFFFFFFFFFFFFFFFFFF
310
FFFFFFFFFFFFFFFFFFFFFFFFFFFFFFFFFFFFFFFFFFFFFFFFFFFFFFFFFFFFFFFF
310
FFFFFFFFFFFFFFFFFFFFFFFFFFFFFFFFFFFFFFFFFFFFFFFFFFFFFFFFFFFFFFFF
310
FFFFFFFFFFFFFFFFFFFFFFFFFFFFFFFFFFFFFFFFFFFFFFFFFFFFFFFFFFFFFFFF
310
FFFFFFFFFFFFFFFFFFFFFFFFFFFFFFFFFFFFFFFFFFFFFFFFFFFFFFFFFFFFFFFF
310
FFFFFFFFFFFFFFFFFFFFFFFFFFFFFFFFFFFFFFFFFFFFFFFFFFFFFFFFFFFFFFFF
310
FFFFFFFFFFFFFFFFFFFFFFFFFFFFFFFFFFFFFFFFFFFFFFFFFFFFFFFFFFFFFFFF
310
FFFFFFFFFFFFFFFFFFFFFFFFFFFFFFFFFFFFFFFFFFFFFFFFFFFFFFFFFFFFFFFF
310
FFFFFFFFFFFFFFFFFFFFFFFFFFFFFFFFFFFFFFFFFFFFFFFFFFFFFFFFFFFFFFFF
310
FFFFFFFFFFFFFFFFFFFFFFFFFFFFFFFFFFFFFFFFFFFFFFFFFFFFFFFFFFFFFFFF
310
010000020000000000000000000000000000000061007200520082005C003107
310
E807250000000000E807250000000000680061007200650064005C003B004300
310
0100FEFF030A0000FFFFFFFF0A00030000000000C00000000000004607000000
310
5042727573680007000000504272757368000700000050427275736800F439B2
310
71000000000000000000000000004100540049002E004100430045005C004300
310
6F00720065002D005300740061007400690063003B0043003A005C0050007200
310
6F006700720061006D002000460069006C006500730020002800780038003600
310
29005C0043006F006D006D006F006E002000460069006C00650073005C004100
310
750074006F006400650073006B0020005300680061007200650064005C003B00
310
43003A005C00500072006F006700720061006D002000460069006C0065007300
310
5C004E006F0072006D0061006E005C004E0070006D005C00420069006E000000
310
43003A005C00500072006F006700720061006D002000460069006C0065007300
310
5C0053006F006C006900640057006F0072006B007300200043006F0072007000
310
5C0053006F006C006900640057006F0072006B00730020002800320029005C00
310
730065007400750070005C0069003300380036005C0073007700610063007400
310
770069007A002E006500780065000000220043003A005C00500072006F006700
310
20260000424D0E260000000000003E00000028000000B40200006E0000000100
310
01000000000000000000130B0000130B00000200000002000000000000FFFFFF
310
FFFFFFFFFFFFFFFFFFFFFFFFFFFFFFFFFFFFFFFFFFFFFFFFFFFFFFFFFFFFFFFF
310
FFFFFFFFFFFFFFFFFFFFFFFFFFFFFFFFFFFFFFFFFFFFFFFFFFFFFFFFFFFFFFFF
310
FFFFFFFFFFFFFFFFFFFFFFFFFFFFFFFFFFFFFFFFFFFFFFFFF000FFFFFFFFFFFF
310
FFFFFFFFFFFFFFFFFFFFFFFFFFFFFFFFFFFFFFFFFFFFFFFFFFFFFFFFFFFFFFFF
310
FFFFFFFFFFFFFFFFFFFFFFFFFFFFFFFFFFFFFFFFFFFFFFFFFFFFFFFFFFFFFFFF
310
FFFFFFFFFFFFFFFFFFFFFFFFFFFFFFFFF000FFFFFFFFFFFFFFFFFFFFFFFFFFFF
310
FFFFFFFFFFFFFFFFFFFFFFFFFFFFFFFFFFFFFFFFFFFFFFFFFFFFFFFFFFFFFFFF
310
FFFFFFFFFFFFFFFFFFFFFFFFFFFFFFFFFFFFFFFFFFFFFFFFFFFFFFFFFFFFFFFF
310
FFFFFFFFFFFFFFFFF000FFFFFFFFFFFFFFFFFFFFFFFFFFFFFFFFFFFFFFFFFFFF
310
FFFFFFFFFFFFFFFFFFFFFFFFFFFFFFFFFFFFFFFFFFFFFFFFFFFFFFFFFFFFFFFF
310
FFFFFFFFFFFFFFFFFFFFFFFFFFFFFFFFFFFFFFFFFFFFFFFFFFFFFFFFFFFFFFFF
310
F000FFFFFFFFFFFFFFFFFFFFFFFFFFFFFFFFFFFFFFFFFFFFFFFFFFFFFFFFFFFF
310
FFFFFFFFFFFFFFFFFFFFFFFFFFFFFFFFFFFFFFFFFFFFFFFFFFFFFFFFFFFFFFFF
310
FFFFFFFFFFFFFFFFFFFFFFFFFFFFFFFFFFFFFFFFFFFFFFFFF000FFFFFFFFFFFF
310
FFFFFFFFFFFFFFFFFFFFFFFFFFFFFFFFFFFFFFFFFFFFFFFFFFFFFFFFFFFFFFFF
310
FFFFFFFFFFFFFFFFFFFFFFFFFFFFFFFFFFFFFFFFFFFFFFFFFFFFFFFFFFFFFFFF
310
FFFFFFFFFFFFFFFFFFFFFFFFFFFFFFFFF000FFFFFFFFFFFFFFFFFFFFFFFFFFFF
310
FFFFFFFFFFFFFFFFFFFFFFFFFFFFFFFFFFFFFFFFFFFFFFFFFFFFFFFFFFFFFFFF
310
FFFFFFFFFFFFFFFFFFFFFFFFFFFFFFFFFFFFFFFFFFFFFFFFFFFFFFFFFFFFFFFF
310
FFFFFFFFFFFFFFFFF000FFFFFFFFFFFFFFFFFFFFFFFFFFFFFFFFFFFFFFFFFFFF
310
FFFFFFFFFFFFFFFFFFFFFFFFFFFFFFFFFFFFFFFFFFFFFFFFFFFFFFFFFFFFFFFF
310
FFFFFFFFFFFFFFFFFFFFFFFFFFFFFFFFFFFFFFFFFFFFFFFFFFFFFFFFFFFFFFFF
310
F000FFFFFFFFFFFFFFFFFFFFFFFFFFFFFFFFFFFFFFFFFFFFFFFFFFFFFFFFFFFF
310
FFFFFFFFFFFFFFFFFFFFFFFFFFFFFFFFFFFFFFFFFFFFFFFFFFFFFFFFFFFFFFFF
310
FFFFFFFFFFFFFFFFFFFFFFFFFFFFFFFFFFFFFFFFFFFFFFFFF000FFFFFFFFFFFF
310
FFFFFFFFFFFFFFFFFFFFFFFFFFFFFFFFFFFFFFFFFFFFFFFFFFFFFFFFFFFFFFFF
310
FFFFFFFFFFFFFFFFFFFFFFFFFFFFFFFFFFFFFFFFFFFFFFFFFFFFFFFFFFFFFFFF
310
FFFFFFFFFFFFFFFFFFFFFFFFFFFFFFFFF000FFFFFFFFFFFFFFFFFFFFFFFFFFFF
310
FFFFFFFFFFFFFFFFFFFFFFFFFFFFFFFFFFFFFFFFFFFFFFFFFFFFFFFFFFFFFFFF
310
FFFFFFFFFFFFFFFFFFFFFFFFFFFFFFFFFFFFFFFFFFFFFFFFFFFFFFFFFFFFFFFF
310
FFFFFFFFFFFFFFFFF000FFFFFFFFFFFFFFFFFFFFFFFFFFFFFFFFFFFFFFFFFFFF
310
FFFFFFFFFFFFFFFFFFFFFFFFFFFFFFFFFFFFFFFFFFFFFFFFFFFFFFFFFFFFFFFF
310
FFFFFFFFFFFFFFFFFFFFFFFFFFFFFFFFFFFFFFFFFFFFFFFFFFFFFFFFFFFFFFFF
310
F000FFFFFFFFFFFFFFFFFFFFFFFFFFFFFFFFFFFFFFFFFFFFFFFFFFFFFFFFFFFF
310
FFFFFFFFFFFFFFFFFFFFFFFFFFFFFFFFFFFFFFFFFFFFFFFFFFFFFFFFFFFFFFFF
310
FFFFFFFFFFFFFFFFFFFFFFFFFFFFFFFFFFFFFFFFFFFFFFFFF000FFFFFFFFFFFF
310
FFFFFFFFFFFFFFFFFFFFFFFFFFFFFFFFFFFFFFFFFFFFFFFFFFFFFFFFFFFFFFFF
310
FFFFFFFFFFFFFFFFFFFFFFFFFFFFFFFFFFFFFFFFFFFFFFFFFFFFFFFFFFFFFFFF
310
FFFFFFFFFFFFFFFFFFFFFFFFFFFFFFFFF000FFFFFFFFFFFFFFFFFFFFFFFFFFFF
310
FFFFFFFFFFFFFFFFFFFFFFFFFFFFFFFFFFFFFFFFFFFFFFFFFFFFFFFFFFFFFFFF
310
FFFFFFFFFFFFFFFFFFFFFFFFFFFFFFFFFFFFFFFFFFFFFFFFFFFFFFFFFFFFFFFF
310
FFFFFFFFFFFFFFFFF000FFFFFFFFFFFFFFFFFFFFFFFFFFFFFFFFFFFFFFFFFFFF
310
FFFFFFFFFFFFFFFFFFFFFFFFFFFFFFFFFFFFFFFFFFFFFFFFFFFFFFFFFFFFFFFF
310
FFFFFFFFFFFFFFFFFFFFFFFFFFFFFFFFFFFFFFFFFFFFFFFFFFFFFFFFFFFFFFFF
310
F000FFFFFFFFFFFFFFFFFFFFFFFFFFFFFFFFFFFFFFFFFFFFFFFFFFFFFFFFFFFF
310
FFFFFFFFFFFFFFFFFFFFFFFFFFFFFFFFFFFFFFFFFFFFFFFFFFFFFFFFFFFFFFFF
310
FFFFFFFFFFFFFFFFFFFFFFFFFFFFFFFFFFFFFFFFFFFFFFFFF000FFFFFFFFFFFF
310
FFFFFFFFFFFFFFFFFFFFFFFFFFFFFFFFFFFFFFFFFFFFFFFFFFFFFFFFFFFFFFFF
310
FFFFFFFFFFFFFFFFFFFFFFFFFFFFFFFFFFFFFFFFFFFFFFFFFFFFFFFFFFFFFFFF
310
FFFFFFFFFFFFFFFFFFFFFFFFFFFFFFFFF000FFFFFFFFFFFFFFFFFFFFFFFFFFFF
310
FFFFFFFFFFFFFFFFFFFFFFFFFFFFFFFFFFFFFFFFFFFFFFFFFFFFFFFFFFFFFFFF
310
FFFFFFFFFFFFFFFFFFFFFFFFFFFFFFFFFFFFFFFFFFFFFFFFFFFFFFFFFFFFFFFF
310
FFFFFFFFFFFFFFFFF000FFFFF80003FFFFFFFFFFFFFFFFFFFFFFFFFFFFFFFFFF
310
FFFFF00007FFFFFFFFFF00007FFFFFF800000000000000007FFFFFFFFFFFFFFF
310
FFFFFFFC001FFFFFFFFFFFFFFC001FFFFFFFFFFFFFFFFFFFFFFFFFFE0007FFFF
310
F000FFFF8000007FFFFFFFF8000FFFFFC0007FFFFF80007FFFFF0000007FFFFF
310
FFF8000007FFFFF800000000000000007FFFFFF0001FFFFFFFFFFFC00001FFFF
310
FFFFFFFFC00001FFFFFFFF000000000003FFFFE000007FFFF000FFFE0000000F
310
FFFFFFF0000FFFFF80007FFFFF80007FFFFC0000001FFFFFFFC0000001FFFFF8
310
00000000000000007FFFFFF0001FFFFFFFFFFE0000003FFFFFFFFFFE0000003F
310
FFFFFF000000000003FFFF0000000FFFF000FFF800000003FFFFFFF00007FFFF
310
80007FFFFF80007FFFF000000007FFFFFF000000003FFFF80000000000000000
310
7FFFFFF0001FFFFFFFFFF80000000FFFFFFFFFF80000000FFFFFFF0000000000
310
03FFFC00000003FFF000FFE000000000FFFFFFF00007FFFF80003FFFFF80007F
310
FFC000000001FFFFFC000000001FFFF800000000000000007FFFFFF0001FFFFF
310
FFFFE000000003FFFFFFFFE000000003FFFFFF000000000003FFF000000000FF
310
F000FF80000000007FFFFFF00007FFFF80003FFFFF80007FFF8000000000FFFF
310
F80000000007FFF800000000000000007FFFFFF0001FFFFFFFFFC000000001FF
310
FFFFFFC000000001FFFFFF000000000003FFC0000000007FF000FF0000000000
310
3FFFFFE00007FFFF00003FFFFF80007FFE00000000003FFFF00000000003FFF8
310
00000000000000007FFFFFF0001FFFFFFFFF8000000000FFFFFFFF8000000000
310
FFFFFF000000000003FF80000000003FF000FE00000000001FFFFFE00003FFFF
310
00003FFFFF80007FFC00000000001FFFE00000000001FFF8000001FFFE000000
310
7FFFFFF0001FFFFFFFFE00000000003FFFFFFE00000000003FFFFF0000000000
310
03FF00000000001FF000FC00000000000FFFFFE00003FFFF00001FFFFF80007F
310
F800000000001FFFC00000000000FFF8000001FFFE0000007FFFFFF0001FFFFF
310
FFFC00000000001FFFFFFC00000000001FFFFF000000000003FE00000000000F
310
F000F8000000000007FFFFE00003FFFF00001FFFFF80007FF800000000000FFF
310
800000000000FFF8000001FFFE0000007FFFFFF0001FFFFFFFF800000000000F
310
FFFFF800000000000FFFFF000000000003FC000000000007F000F80000000000
310
03FFFFC00003FFFE00001FFFFF80007FF0000000000007FF0000000000007FF8
310
000001FFFE0000007FFFFFF0001FFFFFFFF0000000000007FFFFF00000000000
310
07FFFF000000000003F8000000000003F000F0000000000003FFFFC00001FFFE
310
00001FFFFF80007FE0000000000007FE0000000000003FF8000001FFFE000000
310
7FFFFFF0001FFFFFFFF0000000000007FFFFF0000000000007FFFF0000000000
310
03F800001F800003F000E00001FFF00001FFFFC00001FFFE00000FFFFF80007F
310
E00001FFE00003FE00001FFF00003FF8000001FFFE0000007FFFFFF0001FFFFF
310
FFE000003E000003FFFFE000003E000003FFFF000000000003F00001FFF80001
310
F000E00007FFFC0001FFFFC00001FFFE00000FFFFF80007FC0000FFFFC0003FC
310
0000FFFFC0001FF8000001FFFE0000007FFFFFF0001FFFFFFFC00003FFE00001
310
FFFFC00003FFE00001FFFF0001FFFFFFFFF00007FFFE0001F000E0000FFFFF00
310
00FFFF800001FFFC00000FFFFF80007FC0001FFFFE0001FC0001FFFFE0001FF8
310
000001FFFE0000007FFFFFF0001FFFFFFF80000FFFF80000FFFF80000FFFF800
310
00FFFF0003FFFFFFFFE0000FFFFF8000F000C0003FFFFF8000FFFF800000FFFC
310
000007FFFF80007F80003FFFFF0001FC0003FFFFF0001FF8000001FFFE000000
310
7FFFFFF0001FFFFFFF80003FFFFE0000FFFF80003FFFFE0000FFFF0003FFFFFF
310
FFE0003FFFFF8000F000C0003FFFFF8000FFFF800000FFFC000007FFFF80007F
310
80007FFFFF8001F80007FFFFF8000FF8000001FFFE0000007FFFFFF0001FFFFF
310
FF00007FFFFF00007FFF00007FFFFF00007FFF0003FFFFFFFFE0003FFFFFC000
310
F000C0007FFFFFC000FFFF000000FFFC000007FFFF80007F8000FFFFFF8000F8
310
000FFFFFF8000FF8000001FFFE0000007FFFFFF0001FFFFFFF0000FFFFFF8000
310
7FFF0000FFFFFF80007FFF0003FFFFFFFFC0007FFFFFC00070008000FFFFFFC0
310
00FFFF000000FFF8000007FFFF80007F8000FFFFFF8000F8000FFFFFF8000FF8
310
000001FFFE0000007FFFFFF0001FFFFFFE0001FFFFFFC0003FFE0001FFFFFFC0
310
003FFF0003FFFFFFFFC0007FFFFFE00070008000FFFFFFC0007FFF0000007FF8
310
000003FFFF80007F0001FFFFFF8000F8000FFFFFF8000FF8000001FFFE000000
310
7FFFFFF0001FFFFFFE0001FFFFFFC0003FFE0001FFFFFFC0003FFF0003FFFFFF
310
FFC000FFFFFFE00070008000FFFFFFC0007FFF0000007FF8000003FFFF80007F
310
0001FFFFFF8000F8001FFFFFF8000FF8000001FFFE0000007FFFFFF0001FFFFF
310
FE0003FFFFFFE0003FFE0003FFFFFFE0003FFF0003FFFFFFFFC000FFFFFFE000
310
70008000FFFFFFC0007FFE0000007FF8000003FFFF80007F0001FFFFFF8000F0
310
001FFFFFF8000FF8000001FFFE0000007FFFFFF0001FFFFFFC0003FFFFFFE000
310
1FFC0003FFFFFFE0001FFF0003FFFFFFFFC000FFFFFFC00070008000FFFFFF80
310
007FFE0000007FF0000003FFFF80007F0001FFFFFF0000F0001FFFFFF8000FF8
310
000001FFFE0000007FFFFFF0001FFFFFFC0007FFFFFFF0001FFC0007FFFFFFF0
310
001FFF0003FFFFFFFFC000FFFFFFC00070008001FFFFFF0000FFFE0000003FF0
310
000001FFFF80007F0001FFFFFF0000F8001FFFFFF0000FF8000001FFFE000000
310
7FFFFFF0001FFFFFFC0007FFFFFFF0001FFC0007FFFFFFF0001FFF0003FFFFFF
310
FFC001FFFFFF80007000FFFFFFFFFE0000FFFE0008003FF0008001FFFF80007F
310
FFFFFFFFFC0000FFFFFFFFFFE0000FF8000001FFFE0000007FFFFFF0001FFFFF
310
F8000FFFFFFFF8000FF8000FFFFFFFF8000FFF0003FFFFFFFFFFFFFFFFFF0000
310
7000FFFFFFFFFC0000FFFC0008003FF0008001FFFF80007FFFFFFFFFF80001FF
310
FFFFFFFF80000FF8000001FFFE0000007FFFFFF0001FFFFFF8000FFFFFFFF800
310
0FF8000FFFFFFFF8000FFF0003FFFFFFFFFFFFFFFFFE0000F000FFFFFFFFE000
310
00FFFC000C003FE000C001FFFF80007FFFFFFFFFC00001FFFFFFFFFE00001FF8
310
000001FFFE0000007FFFFFF0001FFFFFF8000FFFFFFFF8000FF8000FFFFFFFF8
310
000FFF0003FFFFFFFFFFFFFFFFF00000F000FFFFFFFE000001FFFC000C001FE0
310
00C000FFFF80007FFFFFFFFE000001FFFFFFFFE000001FF80FFFFFFFFFFFFFC0
310
7FFFFFF0001FFFFFF8000FFFFFFFF8000FF8000FFFFFFFF8000FFF0003FFFFFF
310
FFFFFFFFFF800000F000FFFFFFC0000001FFFC001C001FE001C000FFFF80007F
310
FFFFFF80000003FFFFFFF80000001FF80FFFFFFFFFFFFFC07FFFFFF0001FFFFF
310
F8001FFFFFFFFC000FF8001FFFFFFFFC000FFF0003FFFFFFFFFFFFFFF0000001
310
F000FFFFF800000001FFF8001C001FE001C000FFFF80007FFFFFF800000003FF
310
FFFF800000003FF80FFFFFFFFFFFFFC07FFFFFF0001FFFFFF8001FFFFFFFFC00
310
0FF8001FFFFFFFFC000FFF0003FFFFFFFFFFFFFE00000001F000FFFFC0000000
310
03FFF8001E001FC001E000FFFF80007FFFFF8000000007FFFFFC000000003FF8
310
0FFFFFFFFFFFFFC07FFFFFF0001FFFFFF8001FFFFFFFFC000FF8001FFFFFFFFC
310
000FFF0003FFFFFFFFFFFFE000000003F000FFFE0000000007FFF8001E000FC0
310
01E0007FFF80007FFFFE0000000007FFFFE0000000007FF80FFFFFFFFFFFFFC0
310
7FFFFFF0001FFFFFF0001FFFFFFFFC0007F0001FFFFFFFFC0007FF0003FFFFFF
310
FFFFFF0000000003F000FFF80000000007FFF8001E000FC003E0007FFF80007F
310
FFF0000000000FFFFF8000000000FFF80FFFFFFFFFFFFFC07FFFFFF0001FFFFF
310
F0001FFFFFFFFC0007F0001FFFFFFFFC0007FF0003FFFFFFFFFFFC0000000007
310
F000FFE0000000000FFFF0003E000FC003E0007FFF80007FFFC0000000001FFF
310
FE0000000001FFF80FFFFFFFFFFFFFC07FFFFFF0001FFFFFF0001FFFFFFFFC00
310
07F0001FFFFFFFFC0007FF0003FFFFFFFFFFF0000000000FF000FFC000000000
310
1FFFF0003F000F8003F0003FFF80007FFF80000000003FFFF80000000003FFF8
310
0FFFFFFFFFFFFFC07FFFFFF0001FFFFFF0001FFFFFFFFC0007F0001FFFFFFFFC
310
0007FF0003FFFFFFFFFFE0000000001FF000FF00000000007FFFF0003F000780
310
03F0003FFF80007FFF00000000007FFFF00000000007FFF80FFFFFFFFFFFFFC0
310
7FFFFFF0001FFFFFF0001FFFFFFFFC0007F0001FFFFFFFFC0007FF0003FFFFFF
310
FFFF80000000007FF000FE0000000000FFFFE0003F00078007F0003FFF80007F
310
FE0000000001FFFFE0000000001FFFF80FFFFFFFFFFFFFC07FFFFFF0001FFFFF
310
F0001FFFFFFFFC0007F0001FFFFFFFFC0007FF0003FFFFFFFFFF0000000000FF
310
F000FC0000000003FFFFE0007F00078007F0003FFF80007FFC0000000007FFFF
310
C0000000007FFFF80FFFFFFFFFFFFFC07FFFFFF0001FFFFFF8001FFFFFFFFC00
310
0FF8001FFFFFFFFC000FFF0003FFFFFFFFFE0000000003FFF000FC000000000F
310
FFFFE0007F80070007F8001FFF80007FF8000000001FFFFF8000000001FFFFF8
310
0FFFFFFFFFFFFFC07FFFFFF0001FFFFFF8001FFFFFFFFC000FF8001FFFFFFFFC
310
000FFF0003FFFFFFFFFC000000000FFFF000F8000000007FFFFFE0007F800700
310
07F8001FFF80007FF000000000FFFFFF800000000FFFFFF80FFFFFFFFFFFFFC0
310
7FFFFFF0001FFFFFF8000FFFFFFFF8000FF8000FFFFFFFF8000FFF0003FFFFFF
310
FFFC000000007FFFF000F800000007FFFFFFC0007F8003000FF8001FFF80007F
310
F000000007FFFFFF000000007FFFFFF80FFFFFFFFFFFFFC07FFFFFF0001FFFFF
310
F8000FFFFFFFF8000FF8000FFFFFFFF8000FFF0003FFFFFFFFF80000000FFFFF
310
F000F0000000FFFFFFFFC000FF8003000FF8001FFF80007FE0000000FFFFFFFF
310
0000000FFFFFFFF8000001FFFE0000007FFFFFF0001FFFFFF8000FFFFFFFF800
310
0FF8000FFFFFFFF8000FFF0003FFFFFFFFF8000000FFFFFFF000F000000FFFFF
310
FFFFC000FFC002000FF8000FFF80007FE000001FFFFFFFFE000001FFFFFFFFF8
310
000001FFFE0000007FFFFFF0001FFFFFF8000FFFFFFFF8000FF8000FFFFFFFF8
310
000FFF0003FFFFFFFFF000001FFFFFFFF000E00000FFFFFFFFFFC000FFC00200
310
0FFC000FFF80007FE00001FFFFFFFFFE00001FFFFFFFFFF8000001FFFE000000
310
7FFFFFF0001FFFFFFC000FFFFFFFF8001FFC000FFFFFFFF8001FFF0003FFFFFF
310
FFF00001FFFFFFFFF000E00007FFFFFFFFFF8000FFC000001FFC000FFF80007F
310
C0000FFFFFFFFFFE0000FFFFFFFFFFF8000001FFFE0000007FFFFFF0001FFFFF
310
FC0007FFFFFFF0001FFC0007FFFFFFF0001FFF0003FFFFFFFFF00007FFFFFFFF
310
F000E0001FFFFFFFFFFF8000FFC000001FFC000FFF80007FC0003FFFFFFFFFFE
310
0001FFFFFFFFFFF8000001FFFE0000007FFFFFF0001FFFFFFC0007FFFFFFF000
310
1FFC0007FFFFFFF0001FFF0003FFFFFFFFF0001FFFFFFFFFF000E0003FFFFF00
310
03FF8001FFE000001FFC0007FF80007FC0007FFFFF0007FC0003FFFFF0003FF8
310
000001FFFE0000007FFFFFF0001FFFFFFC0003FFFFFFE0001FFC0003FFFFFFE0
310
001FFF0003FFFFFFFFF0003FFFFFFFFFF000E0003FFFFF0001FF8001FFE00000
310
1FFE0007FF80007FC0007FFFFE0003FC0007FFFFE0003FF8000001FFFE000000
310
7FFFFFF0001FFFFFFE0003FFFFFFE0003FFE0003FFFFFFE0003FFF0003FFFFFF
310
FFF0003FFFFF8001F000E0003FFFFF0001FF0001FFE000001FFE0007FF80007F
310
C0007FFFFE0003FC0007FFFFE0003FF8000001FFFE0000007FFFFFF0001FFFFF
310
FE0001FFFFFFC0003FFE0001FFFFFFC0003FFF0003FFFFFFFFF0003FFFFF0001
310
F000E0003FFFFF0003FF0001FFE000003FFE0007FF80007FC0007FFFFE0003FC
310
0007FFFFE0003FF8000001FFFE0000007FFFFFF0001FFFFFFF0001FFFFFFC000
310
7FFF0001FFFFFFC0007FFF0003FFFFFFFFF0003FFFFF0001F000E0003FFFFE00
310
03FF0003FFF000003FFE0003FF80007FC0007FFFFC0003FE0007FFFFE0003FF8
310
000001FFFE0000007FFFFFF0001FFFFFFF0000FFFFFF80007FFF0000FFFFFF80
310
007FFF0003FFFFFFFFF0003FFFFF0001F000E0003FFFFE0003FF0003FFF00000
310
3FFF0003FF80007FC0007FFFFC0007FE0007FFFFC0003FF8000001FFFE000000
310
7FFFFFF0001FFFFFFF80007FFFFF0000FFFF80007FFFFF0000FFFF0003FFFFFF
310
FFF0003FFFFF0003F000E0003FFFFC0003FE0003FFF000003FFF0003FF80007F
310
E0003FFFF80007FE0003FFFFC0007FF8000001FFFE0000007FFFFFF0001FFFFF
310
FF80003FFFFE0000FFFF80003FFFFE0000FFFF0003FFFFFFFFF0001FFFFE0003
310
F000F0001FFFF80003FE0003FFF000007FFF0001FF80007FE0003FFFF00007FE
310
0001FFFF80007FF8000001FFFE0000007FFFFFF0001FFFFFFFC0000FFFF80001
310
FFFFC0000FFFF80001FFFF0003FFFFFFFFF0001FFFFC0003F000F0000FFFF000
310
07FE0007FFF800007FFF0001FF80007FE0001FFFE00007FF0000FFFE00007FF8
310
000001FFFE0000007FFFFFF0001FFFFFFFC00003FFE00001FFFFC00003FFE000
310
01FFFF0003FFFFFFFFF8000FFFF80003F000F00003FFC00007FC0007FFF80000
310
7FFF8001FF80007FF00007FF80000FFF00007FF80000FFF8000001FFFE000000
310
7F80000000000001FFE000003E000003FFFFE000003E000003FFFF0003FFFFFF
310
FFF80003FFE00007F000F800000000000FFC0007FFF800007FFF8001FF80007F
310
F000000000000FFF000000000000FFF8000001FFFE0000007F80000000000001
310
FFF0000000000007FFFFF0000000000007FFFF0003FFFFFFFFFC00007E000007
310
F000F800000000000FFC0007FFF80000FFFF8000FF80007FF800000000001FFF
310
800000000001FFF8000001FFFE0000007F80000000000001FFF800000000000F
310
FFFFF800000000000FFFFF0003FFFFFFFFFC00000000000FF000FC0000000000
310
1FFC0007FFFC0000FFFF8000FF80007FF800000000003FFFC00000000001FFF8
310
000001FFFE0000007F80000000000001FFF800000000000FFFFFF80000000000
310
0FFFFF0003FFFFFFFFFE00000000001FF000FE00000000003FF8000FFFFC0000
310
FFFF8000FF80007FFC00000000003FFFC00000000003FFF8000001FFFE000000
310
7F80000000000001FFFC00000000001FFFFFFC00000000001FFFFF0003FFFFFF
310
FFFF00000000001FF000FF00000000003FF8000FFFFC0000FFFFC000FF80007F
310
FE00000000007FFFE00000000007FFF8000001FFFE0000007F80000000000001
310
FFFE00000000003FFFFFFE00000000003FFFFF0003FFFFFFFFFF80000000003F
310
F000FF80000000007FF8000FFFFC0001FFFFC0007F80007FFF0000000000FFFF
310
F0000000000FFFF800000000000000007F80000000000001FFFF8000000000FF
310
FFFFFF8000000000FFFFFF0003FFFFFFFFFFC0000000007FF000FFC000000000
310
FFF8000FFFFE0001FFFFC0007F80007FFF8000000001FFFFF8000000001FFFF8
310
00000000000000007F80000000000001FFFFC000000001FFFFFFFFC000000001
310
FFFFFF0003FFFFFFFFFFE000000000FFF000FFE000000003FFF0001FFFFE0001
310
FFFFC0007F80007FFFC000000007FFFFFE000000003FFFF80000000000000000
310
7F80000000000001FFFFE000000003FFFFFFFFE000000003FFFFFF0003FFFFFF
310
FFFFF000000003FFF000FFF80000000FFFF0001FFFFE0001FFFFE0007F80007F
310
FFF00000000FFFFFFF00000000FFFFF800000000000000007F80000000000001
310
FFFFF80000000FFFFFFFFFF80000000FFFFFFF0003FFFFFFFFFFFC0000000FFF
310
F000FFFE0000003FFFF0001FFFFE0003FFFFE0003F80007FFFFC0000003FFFFF
310
FFC0000003FFFFF800000000000000007F80000000000001FFFFFE0000003FFF
310
FFFFFFFE0000003FFFFFFF0003FFFFFFFFFFFF0000003FFFF000FFFF800000FF
310
FFF0001FFFFF0003FFFFE0003F80007FFFFF000001FFFFFFFFF800001FFFFFF8
310
00000000000000007F80000000000001FFFFFFC00001FFFFFFFFFFFFC00001FF
310
FFFFFF0003FFFFFFFFFFFFC00000FFFFF000FFFFF8000FFFFFFFFFFFFFFFFFFF
310
FFFFFFFFFFFFFFFFFFFFF0001FFFFFFFFFFF0000FFFFFFF80000000000000000
310
7FFFFFFFFFFFFFFFFFFFFFFC001FFFFFFFFFFFFFFC001FFFFFFFFFFFFFFFFFFF
310
FFFFFFFC001FFFFFF000FFFFFFFFFFFFFFFFFFFFFFFFFFFFFFFFFFFFFFFFFFFF
310
FFFFFFFFFFFFFFFFFFFFFFFFFFFFFFFFFFFFFFFFFFFFFFFFFFFFFFFFFFFFFFFF
310
FFFFFFFFFFFFFFFFFFFFFFFFFFFFFFFFFFFFFFFFFFFFFFFFFFFFFFFFFFFFFFFF
310
F000FFFFFFFFFFFFFFFFFFFFFFFFFFFFFFFFFFFFFFFFFFFFFFFFFFFFFFFFFFFF
310
FFFFFFFFFFFFFFFFFFFFFFFFFFFFFFFFFFFFFFFFFFFFFFFFFFFFFFFFFFFFFFFF
310
FFFFFFFFFFFFFFFFFFFFFFFFFFFFFFFFFFFFFFFFFFFFFFFFF000FFFFFFFFFFFF
310
FFFFFFFFFFFFFFFFFFFFFFFFFFFFFFFFFFFFFFFFFFFFFFFFFFFFFFFFFFFFFFFF
310
FFFFFFFFFFFFFFFFFFFFFFFFFFFFFFFFFFFFFFFFFFFFFFFFFFFFFFFFFFFFFFFF
310
FFFFFFFFFFFFFFFFFFFFFFFFFFFFFFFFF000FFFFFFFFFFFFFFFFFFFFFFFFFFFF
310
FFFFFFFFFFFFFFFFFFFFFFFFFFFFFFFFFFFFFFFFFFFFFFFFFFFFFFFFFFFFFFFF
310
FFFFFFFFFFFFFFFFFFFFFFFFFFFFFFFFFFFFFFFFFFFFFFFFFFFFFFFFFFFFFFFF
310
FFFFFFFFFFFFFFFFF000FFFFFFFFFFFFFFFFFFFFFFFFFFFFFFFFFFFFFFFFFFFF
310
FFFFFFFFFFFFFFFFFFFFFFFFFFFFFFFFFFFFFFFFFFFFFFFFFFFFFFFFFFFFFFFF
310
FFFFFFFFFFFFFFFFFFFFFFFFFFFFFFFFFFFFFFFFFFFFFFFFFFFFFFFFFFFFFFFF
310
F000FFFFFFFFFFFFFFFFFFFFFFFFFFFFFFFFFFFFFFFFFFFFFFFFFFFFFFFFFFFF
310
FFFFFFFFFFFFFFFFFFFFFFFFFFFFFFFFFFFFFFFFFFFFFFFFFFFFFFFFFFFFFFFF
310
FFFFFFFFFFFFFFFFFFFFFFFFFFFFFFFFFFFFFFFFFFFFFFFFF000FFFFFFFFFFFF
310
FFFFFFFFFFFFFFFFFFFFFFFFFFFFFFFFFFFFFFFFFFFFFFFFFFFFFFFFFFFFFFFF
310
FFFFFFFFFFFFFFFFFFFFFFFFFFFFFFFFFFFFFFFFFFFFFFFFFFFFFFFFFFFFFFFF
310
FFFFFFFFFFFFFFFFFFFFFFFFFFFFFFFFF000FFFFFFFFFFFFFFFFFFFFFFFFFFFF
310
FFFFFFFFFFFFFFFFFFFFFFFFFFFFFFFFFFFFFFFFFFFFFFFFFFFFFFFFFFFFFFFF
310
FFFFFFFFFFFFFFFFFFFFFFFFFFFFFFFFFFFFFFFFFFFFFFFFFFFFFFFFFFFFFFFF
310
FFFFFFFFFFFFFFFFF000FFFFFFFFFFFFFFFFFFFFFFFFFFFFFFFFFFFFFFFFFFFF
310
FFFFFFFFFFFFFFFFFFFFFFFFFFFFFFFFFFFFFFFFFFFFFFFFFFFFFFFFFFFFFFFF
310
FFFFFFFFFFFFFFFFFFFFFFFFFFFFFFFFFFFFFFFFFFFFFFFFFFFFFFFFFFFFFFFF
310
F000FFFFFFFFFFFFFFFFFFFFFFFFFFFFFFFFFFFFFFFFFFFFFFFFFFFFFFFFFFFF
310
FFFFFFFFFFFFFFFFFFFFFFFFFFFFFFFFFFFFFFFFFFFFFFFFFFFFFFFFFFFFFFFF
310
FFFFFFFFFFFFFFFFFFFFFFFFFFFFFFFFFFFFFFFFFFFFFFFFF000FFFFFFFFFFFF
310
FFFFFFFFFFFFFFFFFFFFFFFFFFFFFFFFFFFFFFFFFFFFFFFFFFFFFFFFFFFFFFFF
310
FFFFFFFFFFFFFFFFFFFFFFFFFFFFFFFFFFFFFFFFFFFFFFFFFFFFFFFFFFFFFFFF
310
FFFFFFFFFFFFFFFFFFFFFFFFFFFFFFFFF000FFFFFFFFFFFFFFFFFFFFFFFFFFFF
310
FFFFFFFFFFFFFFFFFFFFFFFFFFFFFFFFFFFFFFFFFFFFFFFFFFFFFFFFFFFFFFFF
310
FFFFFFFFFFFFFFFFFFFFFFFFFFFFFFFFFFFFFFFFFFFFFFFFFFFFFFFFFFFFFFFF
310
FFFFFFFFFFFFFFFFF000FFFFFFFFFFFFFFFFFFFFFFFFFFFFFFFFFFFFFFFFFFFF
310
FFFFFFFFFFFFFFFFFFFFFFFFFFFFFFFFFFFFFFFFFFFFFFFFFFFFFFFFFFFFFFFF
310
FFFFFFFFFFFFFFFFFFFFFFFFFFFFFFFFFFFFFFFFFFFFFFFFFFFFFFFFFFFFFFFF
310
F000FFFFFFFFFFFFFFFFFFFFFFFFFFFFFFFFFFFFFFFFFFFFFFFFFFFFFFFFFFFF
310
FFFFFFFFFFFFFFFFFFFFFFFFFFFFFFFFFFFFFFFFFFFFFFFFFFFFFFFFFFFFFFFF
310
FFFFFFFFFFFFFFFFFFFFFFFFFFFFFFFFFFFFFFFFFFFFFFFFF000FFFFFFFFFFFF
310
FFFFFFFFFFFFFFFFFFFFFFFFFFFFFFFFFFFFFFFFFFFFFFFFFFFFFFFFFFFFFFFF
310
FFFFFFFFFFFFFFFFFFFFFFFFFFFFFFFFFFFFFFFFFFFFFFFFFFFFFFFFFFFFFFFF
310
FFFFFFFFFFFFFFFFFFFFFFFFFFFFFFFFF000FFFFFFFFFFFFFFFFFFFFFFFFFFFF
310
FFFFFFFFFFFFFFFFFFFFFFFFFFFFFFFFFFFFFFFFFFFFFFFFFFFFFFFFFFFFFFFF
310
FFFFFFFFFFFFFFFFFFFFFFFFFFFFFFFFFFFFFFFFFFFFFFFFFFFFFFFFFFFFFFFF
310
FFFFFFFFFFFFFFFFF000FFFFFFFFFFFFFFFFFFFFFFFFFFFFFFFFFFFFFFFFFFFF
310
FFFFFFFFFFFFFFFFFFFFFFFFFFFFFFFFFFFFFFFFFFFFFFFFFFFFFFFFFFFFFFFF
310
FFFFFFFFFFFFFFFFFFFFFFFFFFFFFFFFFFFFFFFFFFFFFFFFFFFFFFFFFFFFFFFF
310
F000FFFFFFFFFFFFFFFFFFFFFFFFFFFFFFFFFFFFFFFFFFFFFFFFFFFFFFFFFFFF
310
FFFFFFFFFFFFFFFFFFFFFFFFFFFFFFFFFFFFFFFFFFFFFFFFFFFFFFFFFFFFFFFF
310
FFFFFFFFFFFFFFFFFFFFFFFFFFFFFFFFFFFFFFFFFFFFFFFFF000FFFFFFFFFFFF
310
FFFFFFFFFFFFFFFFFFFFFFFFFFFFFFFFFFFFFFFFFFFFFFFFFFFFFFFFFFFFFFFF
310
FFFFFFFFFFFFFFFFFFFFFFFFFFFFFFFFFFFFFFFFFFFFFFFFFFFFFFFFFFFFFFFF
310
FFFFFFFFFFFFFFFFFFFFFFFFFFFFFFFFF000FFFFFFFFFFFFFFFFFFFFFFFFFFFF
310
FFFFFFFFFFFFFFFFFFFFFFFFFFFFFFFFFFFFFFFFFFFFFFFFFFFFFFFFFFFFFFFF
310
FFFFFFFFFFFFFFFFFFFFFFFFFFFFFFFFFFFFFFFFFFFFFFFFFFFFFFFFFFFFFFFF
310
FFFFFFFFFFFFFFFFF000FFFFFFFFFFFFFFFFFFFFFFFFFFFFFFFFFFFFFFFFFFFF
310
FFFFFFFFFFFFFFFFFFFFFFFFFFFFFFFFFFFFFFFFFFFFFFFFFFFFFFFFFFFFFFFF
310
FFFFFFFFFFFFFFFFFFFFFFFFFFFFFFFFFFFFFFFFFFFFFFFFFFFFFFFFFFFFFFFF
310
F000FFFFFFFFFFFFFFFFFFFFFFFFFFFFFFFFFFFFFFFFFFFFFFFFFFFFFFFFFFFF
310
FFFFFFFFFFFFFFFFFFFFFFFFFFFFFFFFFFFFFFFFFFFFFFFFFFFFFFFFFFFFFFFF
310
FFFFFFFFFFFFFFFFFFFFFFFFFFFFFFFFFFFFFFFFFFFFFFFFF000FFFFFFFFFFFF
310
FFFFFFFFFFFFFFFFFFFFFFFFFFFFFFFFFFFFFFFFFFFFFFFFFFFFFFFFFFFFFFFF
310
FFFFFFFFFFFFFFFFFFFFFFFFFFFFFFFFFFFFFFFFFFFFFFFFFFFFFFFFFFFFFFFF
310
FFFFFFFFFFFFFFFFFFFFFFFFFFFFFFFFF0000000000000000000000000000000
310
0000000000000000000000000000000000000000000000000000000000000000
310
0000000000000000000000000000000000000000000000000000000000000000
310
0000000000000000000000000000000000000000000000000000000000000000
310
0000000000000000000000000000000000000000000000000000000000000000
310
0000000000000000000000000000000000000000000000000000000000000000
310
0000000000000000000000000000000000000000000000000000000000000000
310
0000000000000000000000000000000000000000000000000000000000000000
310
0000000000000000000000000000000000000000000000000000000000000000
310
0000000000000000000000000000000000000000000000000000000000000000
310
0000000000000000000000000000000000000000000000000000000000000000
310
0000000000000000000000000000000000000000000000000000000000000000
310
0000000000000000000000000000000000000000000000000000000000000000
310
0000000000000000000000000000000000000000000000000000000000000000
310
0000000000000000000000000000000000000000000000000000000000000000
310
0000000000000000000000000000000000000000000000000000000000000000
  1
OLE
  0
ENDSEC
  0
SECTION
  2
OBJECTS
  0
DICTIONARY
  5
C
330
0
100
AcDbDictionary
281
     1
  3
ACAD_GROUP
350
D
  3
ACAD_LAYOUT
350
1A
  3
ACAD_MLEADERSTYLE
350
209
  3
ACAD_MLINESTYLE
350
17
  3
ACAD_PLOTSETTINGS
350
19
  3
ACAD_PLOTSTYLENAME
350
E
  3
ACAD_TABLESTYLE
350
208
  3
ACAD_VISUALSTYLE
350
2A
  3
AcDbVariableDictionary
350
20A
  0
DICTIONARY
  5
D
102
{ACAD_REACTORS
330
C
102
}
330
C
100
AcDbDictionary
281
     1
  0
DICTIONARY
  5
1A
102
{ACAD_REACTORS
330
C
102
}
330
C
100
AcDbDictionary
281
     1
  3
Layout1
350
1E
  3
Layout2
350
26
  3
Model
350
22
  0
DICTIONARY
  5
209
102
{ACAD_REACTORS
330
C
102
}
330
C
100
AcDbDictionary
281
     1
  0
DICTIONARY
  5
17
102
{ACAD_REACTORS
330
C
102
}
330
C
100
AcDbDictionary
281
     1
  3
Standard
350
18
  0
DICTIONARY
  5
19
102
{ACAD_REACTORS
330
C
102
}
330
C
100
AcDbDictionary
281
     1
  0
ACDBDICTIONARYWDFLT
  5
E
102
{ACAD_REACTORS
330
C
102
}
330
C
100
AcDbDictionary
281
     1
  3
Normal
350
F
100
AcDbDictionaryWithDefault
340
F
  0
DICTIONARY
  5
208
102
{ACAD_REACTORS
330
C
102
}
330
C
100
AcDbDictionary
281
     1
  0
DICTIONARY
  5
2A
102
{ACAD_REACTORS
330
C
102
}
330
C
100
AcDbDictionary
281
     1
  3
2dWireframe
350
2F
  3
3D Hidden
350
31
  3
3dWireframe
350
30
  3
Basic
350
32
  3
Brighten
350
36
  3
ColorChange
350
3A
  3
Conceptual
350
34
  3
Dim
350
35
  3
Facepattern
350
39
  3
Flat
350
2B
  3
FlatWithEdges
350
2C
  3
Gouraud
350
2D
  3
GouraudWithEdges
350
2E
  3
Linepattern
350
38
  3
Realistic
350
33
  3
Thicken
350
37
  0
DICTIONARY
  5
20A
102
{ACAD_REACTORS
330
C
102
}
330
C
100
AcDbDictionary
281
     1
  3
PSOLHEIGHT
350
20C
  3
PSOLWIDTH
350
20B
  0
LAYOUT
  5
1E
102
{ACAD_REACTORS
330
1A
102
}
330
1A
100
AcDbPlotSettings
  1

  2
none_device
  4

  6

 40
0.0
 41
0.0
 42
0.0
 43
0.0
 44
0.0
 45
0.0
 46
0.0
 47
0.0
 48
0.0
 49
0.0
140
0.0
141
0.0
142
1.0
143
1.0
 70
   688
 72
     0
 73
     0
 74
     5
  7

 75
    16
147
1.0
148
0.0
149
0.0
100
AcDbLayout
  1
Layout1
 70
     1
 71
     1
 10
0.0
 20
0.0
 11
420.0
 21
297.0
 12
0.0
 22
0.0
 32
0.0
 14
1.0000000000E+20
 24
1.0000000000E+20
 34
1.0000000000E+20
 15
-1.0000000000E+20
 25
-1.0000000000E+20
 35
-1.0000000000E+20
146
0.0
 13
0.0
 23
0.0
 33
0.0
 16
1.0
 26
0.0
 36
0.0
 17
0.0
 27
1.0
 37
0.0
 76
     0
330
1B
  0
LAYOUT
  5
26
102
{ACAD_REACTORS
330
1A
102
}
330
1A
100
AcDbPlotSettings
  1

  2
none_device
  4

  6

 40
0.0
 41
0.0
 42
0.0
 43
0.0
 44
0.0
 45
0.0
 46
0.0
 47
0.0
 48
0.0
 49
0.0
140
0.0
141
0.0
142
1.0
143
1.0
 70
   688
 72
     0
 73
     0
 74
     5
  7

 75
    16
147
1.0
148
0.0
149
0.0
100
AcDbLayout
  1
Layout2
 70
     1
 71
     2
 10
0.0
 20
0.0
 11
0.0
 21
0.0
 12
0.0
 22
0.0
 32
0.0
 14
0.0
 24
0.0
 34
0.0
 15
0.0
 25
0.0
 35
0.0
146
0.0
 13
0.0
 23
0.0
 33
0.0
 16
1.0
 26
0.0
 36
0.0
 17
0.0
 27
1.0
 37
0.0
 76
     0
330
23
  0
LAYOUT
  5
22
102
{ACAD_REACTORS
330
1A
102
}
330
1A
100
AcDbPlotSettings
  1

  2
none_device
  4

  6

 40
0.0
 41
0.0
 42
0.0
 43
0.0
 44
0.0
 45
0.0
 46
0.0
 47
0.0
 48
0.0
 49
0.0
140
0.0
141
0.0
142
1.0
143
1.0
 70
  1712
 72
     0
 73
     0
 74
     0
  7

 75
     0
147
1.0
148
0.0
149
0.0
100
AcDbLayout
  1
Model
 70
     1
 71
     0
 10
0.0
 20
0.0
 11
297.0
 21
210.0
 12
0.0
 22
0.0
 32
0.0
 14
0.0
 24
0.0
 34
0.0
 15
297.0
 25
210.0
 35
0.0
146
0.0
 13
0.0
 23
0.0
 33
0.0
 16
1.0
 26
0.0
 36
0.0
 17
0.0
 27
1.0
 37
0.0
 76
     0
330
1F
331
29
  0
MLINESTYLE
  5
18
102
{ACAD_REACTORS
330
17
102
}
330
17
100
AcDbMlineStyle
  2
Standard
 70
     0
  3

 62
   256
 51
90.0
 52
90.0
 71
     2
 49
0.5
 62
   256
  6
BYLAYER
 49
-0.5
 62
   256
  6
BYLAYER
  0
ACDBPLACEHOLDER
  5
F
102
{ACAD_REACTORS
330
E
102
}
330
E
  0
VISUALSTYLE
  5
2F
102
{ACAD_REACTORS
330
2A
102
}
330
2A
100
AcDbVisualStyle
  2
2dWireframe
 70
     4
 71
     0
 72
     2
 73
     0
 90
        0
 40
-0.6
 41
-30.0
 62
     5
 63
     7
 74
     1
 91
        4
 64
     7
 65
   257
 75
     1
175
     1
 42
1.0
 92
        0
 66
   257
 43
1.0
 76
     1
 77
     6
 78
     2
 67
     7
 79
     5
170
     0
171
     0
290
     0
174
     0
 93
        1
 44
0.0
173
     0
291
     0
 45
0.0
1001
ACAD
1000
AcDbSavedByObjectVersion
1070
     0
  0
VISUALSTYLE
  5
31
102
{ACAD_REACTORS
330
2A
102
}
330
2A
100
AcDbVisualStyle
  2
3D Hidden
 70
     6
 71
     1
 72
     2
 73
     2
 90
        0
 40
-0.6
 41
-30.0
 62
     5
 63
     7
 74
     2
 91
        2
 64
     7
 65
   257
 75
     2
175
     1
 42
40.0
 92
        0
 66
   257
 43
1.0
 76
     1
 77
     6
 78
     2
 67
     7
 79
     3
170
     0
171
     0
290
     0
174
     0
 93
        1
 44
0.0
173
     0
291
     0
 45
0.0
1001
ACAD
1000
AcDbSavedByObjectVersion
1070
     0
  0
VISUALSTYLE
  5
30
102
{ACAD_REACTORS
330
2A
102
}
330
2A
100
AcDbVisualStyle
  2
3dWireframe
 70
     5
 71
     0
 72
     2
 73
     0
 90
        0
 40
-0.6
 41
-30.0
 62
     5
 63
     7
 74
     1
 91
        4
 64
     7
 65
   257
 75
     1
175
     1
 42
1.0
 92
        0
 66
   257
 43
1.0
 76
     1
 77
     6
 78
     2
 67
     7
 79
     5
170
     0
171
     0
290
     0
174
     0
 93
        1
 44
0.0
173
     0
291
     0
 45
0.0
1001
ACAD
1000
AcDbSavedByObjectVersion
1070
     0
  0
VISUALSTYLE
  5
32
102
{ACAD_REACTORS
330
2A
102
}
330
2A
100
AcDbVisualStyle
  2
Basic
 70
     7
 71
     1
 72
     0
 73
     1
 90
        0
 40
-0.6
 41
-30.0
 62
     5
 63
     7
 74
     0
 91
        4
 64
     7
 65
   257
 75
     1
175
     1
 42
1.0
 92
        8
 66
     7
 43
1.0
 76
     1
 77
     6
 78
     2
 67
     7
 79
     5
170
     0
171
     0
290
     0
174
     0
 93
        1
 44
0.0
173
     0
291
     1
 45
0.0
1001
ACAD
1000
AcDbSavedByObjectVersion
1070
     0
  0
VISUALSTYLE
  5
36
102
{ACAD_REACTORS
330
2A
102
}
330
2A
100
AcDbVisualStyle
  2
Brighten
 70
    12
 71
     2
 72
     2
 73
     0
 90
        0
 40
-0.6
 41
-30.0
 62
     5
 63
     7
 74
     1
 91
        4
 64
     7
 65
   257
 75
     1
175
     1
 42
1.0
 92
        8
 66
     7
 43
1.0
 76
     1
 77
     6
 78
     2
 67
     7
 79
     5
170
     0
171
     0
290
     0
174
     0
 93
        1
 44
50.0
173
     0
291
     1
 45
0.0
1001
ACAD
1000
AcDbSavedByObjectVersion
1070
     0
  0
VISUALSTYLE
  5
3A
102
{ACAD_REACTORS
330
2A
102
}
330
2A
100
AcDbVisualStyle
  2
ColorChange
 70
    16
 71
     2
 72
     2
 73
     3
 90
        0
 40
-0.6
 41
-30.0
 62
     5
 63
     8
 74
     1
 91
        4
 64
     7
 65
   257
 75
     1
175
     1
 42
1.0
 92
        8
 66
     8
 43
1.0
 76
     1
 77
     6
 78
     2
 67
     7
 79
     5
170
     0
171
     0
290
     0
174
     0
 93
        1
 44
0.0
173
     0
291
     1
 45
0.0
1001
ACAD
1000
AcDbSavedByObjectVersion
1070
     0
  0
VISUALSTYLE
  5
34
102
{ACAD_REACTORS
330
2A
102
}
330
2A
100
AcDbVisualStyle
  2
Conceptual
 70
     9
 71
     3
 72
     2
 73
     0
 90
        0
 40
-0.6
 41
-30.0
 62
     5
 63
     7
 74
     2
 91
        2
 64
     7
 65
   257
 75
     1
175
     1
 42
40.0
 92
        8
 66
     7
 43
1.0
 76
     1
 77
     6
 78
     2
 67
     7
 79
     3
170
     0
171
     0
290
     0
174
     0
 93
        1
 44
0.0
173
     0
291
     0
 45
0.0
1001
ACAD
1000
AcDbSavedByObjectVersion
1070
     0
  0
VISUALSTYLE
  5
35
102
{ACAD_REACTORS
330
2A
102
}
330
2A
100
AcDbVisualStyle
  2
Dim
 70
    11
 71
     2
 72
     2
 73
     0
 90
        0
 40
-0.6
 41
-30.0
 62
     5
 63
     7
 74
     1
 91
        4
 64
     7
 65
   257
 75
     1
175
     1
 42
1.0
 92
        8
 66
     7
 43
1.0
 76
     1
 77
     6
 78
     2
 67
     7
 79
     5
170
     0
171
     0
290
     0
174
     0
 93
        1
 44
-50.0
173
     0
291
     1
 45
0.0
1001
ACAD
1000
AcDbSavedByObjectVersion
1070
     0
  0
VISUALSTYLE
  5
39
102
{ACAD_REACTORS
330
2A
102
}
330
2A
100
AcDbVisualStyle
  2
Facepattern
 70
    15
 71
     2
 72
     2
 73
     0
 90
        0
 40
-0.6
 41
-30.0
 62
     5
 63
     7
 74
     1
 91
        4
 64
     7
 65
   257
 75
     1
175
     1
 42
1.0
 92
        8
 66
     7
 43
1.0
 76
     1
 77
     6
 78
     2
 67
     7
 79
     5
170
     0
171
     0
290
     0
174
     0
 93
        1
 44
0.0
173
     0
291
     1
 45
0.0
1001
ACAD
1000
AcDbSavedByObjectVersion
1070
     0
  0
VISUALSTYLE
  5
2B
102
{ACAD_REACTORS
330
2A
102
}
330
2A
100
AcDbVisualStyle
  2
Flat
 70
     0
 71
     2
 72
     1
 73
     1
 90
        2
 40
-0.6
 41
30.0
 62
     5
 63
     7
 74
     0
 91
        4
 64
     7
 65
   257
 75
     1
175
     1
 42
1.0
 92
        8
 66
     7
 43
1.0
 76
     1
 77
     6
 78
     2
 67
     7
 79
     5
170
     0
171
     0
290
     0
174
     0
 93
       13
 44
0.0
173
     0
291
     1
 45
0.0
1001
ACAD
1000
AcDbSavedByObjectVersion
1070
     0
  0
VISUALSTYLE
  5
2C
102
{ACAD_REACTORS
330
2A
102
}
330
2A
100
AcDbVisualStyle
  2
FlatWithEdges
 70
     1
 71
     2
 72
     1
 73
     1
 90
        2
 40
-0.6
 41
30.0
 62
     5
 63
     7
 74
     1
 91
        4
 64
     7
 65
   257
 75
     1
175
     1
 42
1.0
 92
        0
 66
   257
 43
1.0
 76
     1
 77
     6
 78
     2
 67
     7
 79
     5
170
     0
171
     0
290
     0
174
     0
 93
       13
 44
0.0
173
     0
291
     1
 45
0.0
1001
ACAD
1000
AcDbSavedByObjectVersion
1070
     0
  0
VISUALSTYLE
  5
2D
102
{ACAD_REACTORS
330
2A
102
}
330
2A
100
AcDbVisualStyle
  2
Gouraud
 70
     2
 71
     2
 72
     2
 73
     1
 90
        2
 40
-0.6
 41
30.0
 62
     5
 63
     7
 74
     0
 91
        4
 64
     7
 65
   257
 75
     1
175
     1
 42
1.0
 92
        0
 66
     7
 43
1.0
 76
     1
 77
     6
 78
     2
 67
     7
 79
     5
170
     0
171
     0
290
     0
174
     0
 93
       13
 44
0.0
173
     0
291
     1
 45
0.0
1001
ACAD
1000
AcDbSavedByObjectVersion
1070
     0
  0
VISUALSTYLE
  5
2E
102
{ACAD_REACTORS
330
2A
102
}
330
2A
100
AcDbVisualStyle
  2
GouraudWithEdges
 70
     3
 71
     2
 72
     2
 73
     1
 90
        2
 40
-0.6
 41
30.0
 62
     5
 63
     7
 74
     1
 91
        4
 64
     7
 65
   257
 75
     1
175
     1
 42
1.0
 92
        0
 66
   257
 43
1.0
 76
     1
 77
     6
 78
     2
 67
     7
 79
     5
170
     0
171
     0
290
     0
174
     0
 93
       13
 44
0.0
173
     0
291
     1
 45
0.0
1001
ACAD
1000
AcDbSavedByObjectVersion
1070
     0
  0
VISUALSTYLE
  5
38
102
{ACAD_REACTORS
330
2A
102
}
330
2A
100
AcDbVisualStyle
  2
Linepattern
 70
    14
 71
     2
 72
     2
 73
     0
 90
        0
 40
-0.6
 41
-30.0
 62
     5
 63
     7
 74
     1
 91
        4
 64
     7
 65
   257
 75
     7
175
     7
 42
1.0
 92
        8
 66
     7
 43
1.0
 76
     1
 77
     6
 78
     2
 67
     7
 79
     5
170
     0
171
     0
290
     0
174
     0
 93
        1
 44
0.0
173
     0
291
     1
 45
0.0
1001
ACAD
1000
AcDbSavedByObjectVersion
1070
     0
  0
VISUALSTYLE
  5
33
102
{ACAD_REACTORS
330
2A
102
}
330
2A
100
AcDbVisualStyle
  2
Realistic
 70
     8
 71
     2
 72
     2
 73
     0
 90
        0
 40
-0.6
 41
-30.0
 62
     5
 63
     7
 74
     1
 91
        0
 64
     7
 65
   257
 75
     1
175
     1
 42
1.0
 92
        8
 66
     8
 43
1.0
 76
     1
 77
     6
 78
     2
 67
     7
 79
     5
170
     0
171
     0
290
     0
174
     0
 93
       13
 44
0.0
173
     0
291
     0
 45
0.0
1001
ACAD
1000
AcDbSavedByObjectVersion
1070
     0
  0
VISUALSTYLE
  5
37
102
{ACAD_REACTORS
330
2A
102
}
330
2A
100
AcDbVisualStyle
  2
Thicken
 70
    13
 71
     2
 72
     2
 73
     0
 90
        0
 40
-0.6
 41
-30.0
 62
     5
 63
     7
 74
     1
 91
        4
 64
     7
 65
   257
 75
     1
175
     1
 42
1.0
 92
       12
 66
     7
 43
1.0
 76
     1
 77
     6
 78
     2
 67
     7
 79
     5
170
     0
171
     0
290
     0
174
     0
 93
        1
 44
0.0
173
     0
291
     1
 45
0.0
1001
ACAD
1000
AcDbSavedByObjectVersion
1070
     0
  0
DICTIONARYVAR
  5
20C
102
{ACAD_REACTORS
330
20A
102
}
330
20A
100
DictionaryVariables
280
     0
  1
80.000000
  0
DICTIONARYVAR
  5
20B
102
{ACAD_REACTORS
330
20A
102
}
330
20A
100
DictionaryVariables
280
     0
  1
5.000000
  0
ENDSEC
  0
EOF
