  0
SECTION
  2
HEADER
  9
$ACADVER
  1
AC1015
  9
$ACADMAINTVER
 70
     6
  9
$DWGCODEPAGE
  3
ANSI_1252
  9
$INSBASE
 10
0.0
 20
0.0
 30
0.0
  9
$EXTMIN
 10
0.0
 20
0.0
 30
0.0
  9
$EXTMAX
 10
297.0
 20
210.0
 30
0.0
  9
$LIMMIN
 10
0.0
 20
0.0
  9
$LIMMAX
 10
297.0
 20
210.0
  9
$ORTHOMODE
 70
     0
  9
$REGENMODE
 70
     1
  9
$FILLMODE
 70
     1
  9
$QTEXTMODE
 70
     0
  9
$MIRRTEXT
 70
     1
  9
$LTSCALE
 40
1.0
  9
$ATTMODE
 70
     1
  9
$TEXTSIZE
 40
2.0
  9
$TRACEWID
 40
1.0
  9
$TEXTSTYLE
  7
Standard
  9
$CLAYER
  8
0
  9
$CELTYPE
  6
ByLayer
  9
$CECOLOR
 62
   256
  9
$CELTSCALE
 40
1.0
  9
$DISPSILH
 70
     0
  9
$DIMSCALE
 40
1.0
  9
$DIMASZ
 40
3.0
  9
$DIMEXO
 40
0.0
  9
$DIMDLI
 40
3.75
  9
$DIMRND
 40
0.0
  9
$DIMDLE
 40
0.0
  9
$DIMEXE
 40
1.0
  9
$DIMTP
 40
0.0
  9
$DIMTM
 40
0.0
  9
$DIMTXT
 40
2.0
  9
$DIMCEN
 40
2.5
  9
$DIMTSZ
 40
0.0
  9
$DIMTOL
 70
     0
  9
$DIMLIM
 70
     0
  9
$DIMTIH
 70
     1
  9
$DIMTOH
 70
     1
  9
$DIMSE1
 70
     0
  9
$DIMSE2
 70
     0
  9
$DIMTAD
 70
     1
  9
$DIMZIN
 70
     0
  9
$DIMBLK
  1

  9
$DIMASO
 70
     1
  9
$DIMSHO
 70
     1
  9
$DIMPOST
  1

  9
$DIMAPOST
  1

  9
$DIMALT
 70
     0
  9
$DIMALTD
 70
     3
  9
$DIMALTF
 40
0.0393700787
  9
$DIMLFAC
 40
1.0
  9
$DIMTOFL
 70
     1
  9
$DIMTVP
 40
0.0
  9
$DIMTIX
 70
     0
  9
$DIMSOXD
 70
     0
  9
$DIMSAH
 70
     0
  9
$DIMBLK1
  1

  9
$DIMBLK2
  1

  9
$DIMSTYLE
  2
ISO-25
  9
$DIMCLRD
 70
     0
  9
$DIMCLRE
 70
     0
  9
$DIMCLRT
 70
     0
  9
$DIMTFAC
 40
1.0
  9
$DIMGAP
 40
1.524
  9
$DIMJUST
 70
     0
  9
$DIMSD1
 70
     0
  9
$DIMSD2
 70
     0
  9
$DIMTOLJ
 70
     0
  9
$DIMTZIN
 70
     0
  9
$DIMALTZ
 70
     0
  9
$DIMALTTZ
 70
     0
  9
$DIMUPT
 70
     0
  9
$DIMDEC
 70
     2
  9
$DIMTDEC
 70
     3
  9
$DIMALTU
 70
     2
  9
$DIMALTTD
 70
     3
  9
$DIMTXSTY
  7
Standard
  9
$DIMAUNIT
 70
     0
  9
$DIMADEC
 70
     2
  9
$DIMALTRND
 40
0.0
  9
$DIMAZIN
 70
     0
  9
$DIMDSEP
 70
    44
  9
$DIMATFIT
 70
     3
  9
$DIMFRAC
 70
     0
  9
$DIMLDRBLK
  1

  9
$DIMLUNIT
 70
     2
  9
$DIMLWD
 70
    -2
  9
$DIMLWE
 70
    -2
  9
$DIMTMOVE
 70
     0
  9
$LUNITS
 70
     2
  9
$LUPREC
 70
     2
  9
$SKETCHINC
 40
1.0
  9
$FILLETRAD
 40
10.0
  9
$AUNITS
 70
     0
  9
$AUPREC
 70
     2
  9
$MENU
  1
.
  9
$ELEVATION
 40
0.0
  9
$PELEVATION
 40
0.0
  9
$THICKNESS
 40
0.0
  9
$LIMCHECK
 70
     0
  9
$CHAMFERA
 40
10.0
  9
$CHAMFERB
 40
10.0
  9
$CHAMFERC
 40
20.0
  9
$CHAMFERD
 40
0.0
  9
$SKPOLY
 70
     0
  9
$TDCREATE
 40
2455673.403255787
  9
$TDUCREATE
 40
2455673.319922454
  9
$TDUPDATE
 40
2455673.403255798
  9
$TDUUPDATE
 40
2455673.319922465
  9
$TDINDWG
 40
0.0000000116
  9
$TDUSRTIMER
 40
0.0000000116
  9
$USRTIMER
 70
     1
  9
$ANGBASE
 50
0.0
  9
$ANGDIR
 70
     0
  9
$PDMODE
 70
     0
  9
$PDSIZE
 40
-1.0
  9
$PLINEWID
 40
0.0
  9
$SPLFRAME
 70
     0
  9
$SPLINETYPE
 70
     6
  9
$SPLINESEGS
 70
     8
  9
$HANDSEED
  5
20F
  9
$SURFTAB1
 70
     6
  9
$SURFTAB2
 70
     6
  9
$SURFTYPE
 70
     6
  9
$SURFU
 70
     6
  9
$SURFV
 70
     6
  9
$UCSBASE
  2

  9
$UCSNAME
  2

  9
$UCSORG
 10
0.0
 20
0.0
 30
0.0
  9
$UCSXDIR
 10
1.0
 20
0.0
 30
0.0
  9
$UCSYDIR
 10
0.0
 20
1.0
 30
0.0
  9
$UCSORTHOREF
  2

  9
$UCSORTHOVIEW
 70
     0
  9
$UCSORGTOP
 10
0.0
 20
0.0
 30
0.0
  9
$UCSORGBOTTOM
 10
0.0
 20
0.0
 30
0.0
  9
$UCSORGLEFT
 10
0.0
 20
0.0
 30
0.0
  9
$UCSORGRIGHT
 10
0.0
 20
0.0
 30
0.0
  9
$UCSORGFRONT
 10
0.0
 20
0.0
 30
0.0
  9
$UCSORGBACK
 10
0.0
 20
0.0
 30
0.0
  9
$PUCSBASE
  2

  9
$PUCSNAME
  2

  9
$PUCSORG
 10
0.0
 20
0.0
 30
0.0
  9
$PUCSXDIR
 10
1.0
 20
0.0
 30
0.0
  9
$PUCSYDIR
 10
0.0
 20
1.0
 30
0.0
  9
$PUCSORTHOREF
  2

  9
$PUCSORTHOVIEW
 70
     0
  9
$PUCSORGTOP
 10
0.0
 20
0.0
 30
0.0
  9
$PUCSORGBOTTOM
 10
0.0
 20
0.0
 30
0.0
  9
$PUCSORGLEFT
 10
0.0
 20
0.0
 30
0.0
  9
$PUCSORGRIGHT
 10
0.0
 20
0.0
 30
0.0
  9
$PUCSORGFRONT
 10
0.0
 20
0.0
 30
0.0
  9
$PUCSORGBACK
 10
0.0
 20
0.0
 30
0.0
  9
$USERI1
 70
     0
  9
$USERI2
 70
     0
  9
$USERI3
 70
     0
  9
$USERI4
 70
     0
  9
$USERI5
 70
     0
  9
$USERR1
 40
0.0
  9
$USERR2
 40
0.0
  9
$USERR3
 40
0.0
  9
$USERR4
 40
0.0
  9
$USERR5
 40
0.0
  9
$WORLDVIEW
 70
     1
  9
$SHADEDGE
 70
     3
  9
$SHADEDIF
 70
    70
  9
$TILEMODE
 70
     1
  9
$MAXACTVP
 70
    64
  9
$PINSBASE
 10
0.0
 20
0.0
 30
0.0
  9
$PLIMCHECK
 70
     0
  9
$PEXTMIN
 10
1.0000000000E+20
 20
1.0000000000E+20
 30
1.0000000000E+20
  9
$PEXTMAX
 10
-1.0000000000E+20
 20
-1.0000000000E+20
 30
-1.0000000000E+20
  9
$PLIMMIN
 10
0.0
 20
0.0
  9
$PLIMMAX
 10
420.0
 20
297.0
  9
$UNITMODE
 70
     0
  9
$VISRETAIN
 70
     1
  9
$PLINEGEN
 70
     0
  9
$PSLTSCALE
 70
     1
  9
$TREEDEPTH
 70
  3020
  9
$CMLSTYLE
  2
Standard
  9
$CMLJUST
 70
     0
  9
$CMLSCALE
 40
20.0
  9
$PROXYGRAPHICS
 70
     1
  9
$MEASUREMENT
 70
     1
  9
$CELWEIGHT
370
    -1
  9
$ENDCAPS
280
     0
  9
$JOINSTYLE
280
     0
  9
$LWDISPLAY
290
     1
  9
$INSUNITS
 70
     4
  9
$HYPERLINKBASE
  1

  9
$STYLESHEET
  1

  9
$XEDIT
290
     1
  9
$CEPSNTYPE
380
     0
  9
$PSTYLEMODE
290
     1
  9
$FINGERPRINTGUID
  2
{7A904746-5DBB-4A7F-A232-62602B380681}
  9
$VERSIONGUID
  2
{FAEB1C32-E019-11D5-929B-00C0DF256EC4}
  9
$EXTNAMES
290
     1
  9
$PSVPSCALE
 40
0.0
  9
$OLESTARTUP
290
     0
  0
ENDSEC
  0
SECTION
  2
CLASSES
  0
CLASS
  1
ACDBDICTIONARYWDFLT
  2
AcDbDictionaryWithDefault
  3
ObjectDBX Classes
 90
        0
280
     0
281
     0
  0
CLASS
  1
VISUALSTYLE
  2
AcDbVisualStyle
  3
ObjectDBX Classes
 90
     4095
280
     0
281
     0
  0
CLASS
  1
DICTIONARYVAR
  2
AcDbDictionaryVar
  3
ObjectDBX Classes
 90
        0
280
     0
281
     0
  0
CLASS
  1
ACDBPLACEHOLDER
  2
AcDbPlaceHolder
  3
ObjectDBX Classes
 90
        0
280
     0
281
     0
  0
CLASS
  1
LAYOUT
  2
AcDbLayout
  3
ObjectDBX Classes
 90
        0
280
     0
281
     0
  0
ENDSEC
  0
SECTION
  2
TABLES
  0
TABLE
  2
VPORT
  5
8
330
0
100
AcDbSymbolTable
 70
     1
  0
VPORT
  5
29
330
8
100
AcDbSymbolTableRecord
100
AcDbViewportTableRecord
  2
*Active
 70
     0
 10
0.0
 20
0.0
 11
1.0
 21
1.0
 12
148.5
 22
105.0
 13
0.0
 23
0.0
 14
10.0
 24
10.0
 15
10.0
 25
10.0
 16
0.0
 26
0.0
 36
1.0
 17
0.0
 27
0.0
 37
0.0
 40
210.0
 41
1.4142857143
 42
50.0
 43
0.0
 44
0.0
 50
0.0
 51
0.0
 71
     0
 72
  2000
 73
     1
 74
     3
 75
     0
 76
     0
 77
     0
 78
     0
281
     0
 65
     1
110
0.0
120
0.0
130
0.0
111
1.0
121
0.0
131
0.0
112
0.0
122
1.0
132
0.0
 79
     0
146
0.0
  0
ENDTAB
  0
TABLE
  2
LTYPE
  5
5
330
0
100
AcDbSymbolTable
 70
     6
  0
LTYPE
  5
14
330
5
100
AcDbSymbolTableRecord
100
AcDbLinetypeTableRecord
  2
ByBlock
 70
     0
  3

 72
    65
 73
     0
 40
0.0
  0
LTYPE
  5
15
330
5
100
AcDbSymbolTableRecord
100
AcDbLinetypeTableRecord
  2
ByLayer
 70
     0
  3

 72
    65
 73
     0
 40
0.0
  0
LTYPE
  5
16
330
5
100
AcDbSymbolTableRecord
100
AcDbLinetypeTableRecord
  2
Continuous
 70
     0
  3
Solid line
 72
    65
 73
     0
 40
0.0
  0
LTYPE
  5
3B
330
5
100
AcDbSymbolTableRecord
100
AcDbLinetypeTableRecord
  2
HIDDEN
 70
     0
  3
Hidden __ __ __ __ __ __ __ __ __ __ __ __ __ __
 72
    65
 73
     2
 40
1.905
 49
1.27
 74
     0
 49
-0.635
 74
     0
  0
LTYPE
  5
3C
330
5
100
AcDbSymbolTableRecord
100
AcDbLinetypeTableRecord
  2
PHANTOM
 70
     0
  3
Phantom ______  __  __  ______  __  __  ______
 72
    65
 73
     6
 40
12.7
 49
6.35
 74
     0
 49
-1.27
 74
     0
 49
1.27
 74
     0
 49
-1.27
 74
     0
 49
1.27
 74
     0
 49
-1.27
 74
     0
  0
LTYPE
  5
3D
330
5
100
AcDbSymbolTableRecord
100
AcDbLinetypeTableRecord
  2
CENTER
 70
     0
  3
Center ____ _ ____ _ ____ _ ____ _ ____ _ ____
 72
    65
 73
     4
 40
10.16
 49
6.35
 74
     0
 49
-1.27
 74
     0
 49
1.27
 74
     0
 49
-1.27
 74
     0
  0
LTYPE
  5
3E
330
5
100
AcDbSymbolTableRecord
100
AcDbLinetypeTableRecord
  2
CENTERX2
 70
     0
  3
Center (2x) ________  __  ________  __  _____
 72
    65
 73
     4
 40
20.32
 49
12.7
 74
     0
 49
-2.54
 74
     0
 49
2.54
 74
     0
 49
-2.54
 74
     0
  0
LTYPE
  5
3F
330
5
100
AcDbSymbolTableRecord
100
AcDbLinetypeTableRecord
  2
DOT2
 70
     0
  3
Dot (.5x) ........................................
 72
    65
 73
     2
 40
0.635
 49
0.0
 74
     0
 49
-0.635
 74
     0
  0
ENDTAB
  0
TABLE
  2
LAYER
  5
2
330
0
100
AcDbSymbolTable
 70
     5
  0
LAYER
  5
10
330
2
100
AcDbSymbolTableRecord
100
AcDbLayerTableRecord
  2
0
 70
     0
 62
     7
  6
Continuous
370
    -3
390
F
  0
LAYER
  5
40
330
2
100
AcDbSymbolTableRecord
100
AcDbLayerTableRecord
  2
FORMAT
 70
     0
 62
     7
  6
Continuous
370
    -3
390
F
  0
LAYER
  5
41
330
2
100
AcDbSymbolTableRecord
100
AcDbLayerTableRecord
  2
VERMASSUNG
 70
     0
 62
     7
  6
Continuous
370
    -3
390
F
  0
LAYER
  5
42
330
2
100
AcDbSymbolTableRecord
100
AcDbLayerTableRecord
  2
KOPF_DÜNN
 70
     0
 62
     7
  6
Continuous
370
    -3
390
F
  0
LAYER
  5
43
330
2
100
AcDbSymbolTableRecord
100
AcDbLayerTableRecord
  2
KOPF_DICK
 70
     0
 62
     7
  6
Continuous
370
    15
390
F
  0
ENDTAB
  0
TABLE
  2
STYLE
  5
3
330
0
100
AcDbSymbolTable
 70
     3
  0
STYLE
  5
11
330
3
100
AcDbSymbolTableRecord
100
AcDbTextStyleTableRecord
  2
Standard
 70
     0
 40
0.0
 41
1.0
 50
0.0
 71
     0
 42
2.5
  3
txt
  4

  0
STYLE
  5
44
330
3
100
AcDbSymbolTableRecord
100
AcDbTextStyleTableRecord
  2
SLDTEXTSTYLE0
 70
     0
 40
0.0
 41
0.7
 50
0.0
 71
     0
 42
0.2
  3
TXT
  4

  0
STYLE
  5
48
330
3
100
AcDbSymbolTableRecord
100
AcDbTextStyleTableRecord
  2
SLDTEXTSTYLE1
 70
     0
 40
0.0
 41
0.6473684211
 50
0.0
 71
     0
 42
0.2
  3
TXT
  4

  0
ENDTAB
  0
TABLE
  2
VIEW
  5
6
330
0
100
AcDbSymbolTable
 70
     0
  0
ENDTAB
  0
TABLE
  2
UCS
  5
7
330
0
100
AcDbSymbolTable
 70
     0
  0
ENDTAB
  0
TABLE
  2
APPID
  5
9
330
0
100
AcDbSymbolTable
 70
     1
  0
APPID
  5
12
330
9
100
AcDbSymbolTableRecord
100
AcDbRegAppTableRecord
  2
ACAD
 70
     0
  0
ENDTAB
  0
TABLE
  2
DIMSTYLE
  5
A
330
0
100
AcDbSymbolTable
 70
     2
100
AcDbDimStyleTable
  0
DIMSTYLE
105
27
330
A
100
AcDbSymbolTableRecord
100
AcDbDimStyleTableRecord
  2
ISO-25
 70
     0
 41
2.5
 42
0.625
 43
3.75
 44
1.25
 73
     0
 74
     0
 77
     1
 78
     8
140
2.5
141
2.5
143
0.0393700787
147
0.625
171
     3
172
     1
271
     2
272
     2
274
     3
278
    44
283
     0
284
     8
340
11
  0
DIMSTYLE
105
1C8
102
{ACAD_REACTORS
330
1C7
330
1D4
330
1DF
330
1E9
330
1F3
330
1FD
102
}
330
A
100
AcDbSymbolTableRecord
100
AcDbDimStyleTableRecord
  2
SLDDIMSTYLE0
 70
     0
 41
3.0
 44
0.0
 45
0.000000001
 73
     0
 74
     0
 77
     1
 78
    12
140
2.0
147
0.5
173
     1
271
     2
272
     3
284
    12
340
44
  0
ENDTAB
  0
TABLE
  2
BLOCK_RECORD
  5
1
330
0
100
AcDbSymbolTable
 70
     7
  0
BLOCK_RECORD
  5
1F
330
1
100
AcDbSymbolTableRecord
100
AcDbBlockTableRecord
  2
*Model_Space
340
22
  0
BLOCK_RECORD
  5
1B
330
1
100
AcDbSymbolTableRecord
100
AcDbBlockTableRecord
  2
*Paper_Space
340
1E
  0
BLOCK_RECORD
  5
23
330
1
100
AcDbSymbolTableRecord
100
AcDbBlockTableRecord
  2
*Paper_Space0
340
26
  0
BLOCK_RECORD
  5
1C9
330
1
100
AcDbSymbolTableRecord
100
AcDbBlockTableRecord
  2
*D1
340
0
  0
BLOCK_RECORD
  5
1D5
330
1
100
AcDbSymbolTableRecord
100
AcDbBlockTableRecord
  2
*D2
340
0
  0
BLOCK_RECORD
  5
1E0
330
1
100
AcDbSymbolTableRecord
100
AcDbBlockTableRecord
  2
*D3
340
0
  0
BLOCK_RECORD
  5
1EA
330
1
100
AcDbSymbolTableRecord
100
AcDbBlockTableRecord
  2
*D4
340
0
  0
BLOCK_RECORD
  5
1F4
330
1
100
AcDbSymbolTableRecord
100
AcDbBlockTableRecord
  2
*D5
340
0
  0
BLOCK_RECORD
  5
1FE
330
1
100
AcDbSymbolTableRecord
100
AcDbBlockTableRecord
  2
*D6
340
0
  0
ENDTAB
  0
ENDSEC
  0
SECTION
  2
BLOCKS
  0
BLOCK
  5
20
330
1F
100
AcDbEntity
  8
0
100
AcDbBlockBegin
  2
*Model_Space
 70
     0
 10
0.0
 20
0.0
 30
0.0
  3
*Model_Space
  1

  0
ENDBLK
  5
21
330
1F
100
AcDbEntity
  8
0
100
AcDbBlockEnd
  0
BLOCK
  5
1C
330
1B
100
AcDbEntity
 67
     1
  8
0
100
AcDbBlockBegin
  2
*Paper_Space
 70
     0
 10
0.0
 20
0.0
 30
0.0
  3
*Paper_Space
  1

  0
ENDBLK
  5
1D
330
1B
100
AcDbEntity
 67
     1
  8
0
100
AcDbBlockEnd
  0
BLOCK
  5
24
330
23
100
AcDbEntity
  8
0
100
AcDbBlockBegin
  2
*Paper_Space0
 70
     0
 10
0.0
 20
0.0
 30
0.0
  3
*Paper_Space0
  1

  0
ENDBLK
  5
25
330
23
100
AcDbEntity
  8
0
100
AcDbBlockEnd
  0
BLOCK
  5
1CA
330
1C9
100
AcDbEntity
  8
0
100
AcDbBlockBegin
  2
*D1
 70
     1
 10
0.0
 20
0.0
 30
0.0
  3
*D1
  1

  0
SOLID
  5
1CC
330
1C9
100
AcDbEntity
  8
VERMASSUNG
100
AcDbTrace
 10
40.6155468432
 20
140.1779878926
 30
0.0
 11
40.1655468432
 21
137.1779878926
 31
0.0
 12
41.0655468432
 22
137.1779878926
 32
0.0
 13
41.0655468432
 23
137.1779878926
 33
0.0
  0
SOLID
  5
1CD
330
1C9
100
AcDbEntity
  8
VERMASSUNG
100
AcDbTrace
 10
40.6155468432
 20
77.1779878926
 30
0.0
 11
41.0655468432
 21
80.1779878926
 31
0.0
 12
40.1655468432
 22
80.1779878926
 32
0.0
 13
40.1655468432
 23
80.1779878926
 33
0.0
  0
LINE
  5
1CE
330
1C9
100
AcDbEntity
  8
VERMASSUNG
100
AcDbLine
 10
79.5220629391
 20
140.1779878926
 30
0.0
 11
39.6155468432
 21
140.1779878926
 31
0.0
  0
LINE
  5
1CF
330
1C9
100
AcDbEntity
  8
VERMASSUNG
100
AcDbLine
 10
79.5220629391
 20
77.1779878926
 30
0.0
 11
39.6155468432
 21
77.1779878926
 31
0.0
  0
LINE
  5
1D0
330
1C9
100
AcDbEntity
  8
VERMASSUNG
100
AcDbLine
 10
40.6155468432
 20
140.1779878926
 30
0.0
 11
40.6155468432
 21
77.1779878926
 31
0.0
  0
MTEXT
  5
1D1
330
1C9
100
AcDbEntity
  8
VERMASSUNG
100
AcDbMText
 10
37.8374113541
 20
98.7972593225
 30
0.0
 40
2.0
 41
0.0
 71
     1
 72
     1
  1
HSK A 
  7
SLDTEXTSTYLE0
 11
-7.044195017643634E-15
 21
1.0
 31
0.0
 73
     1
 44
1.0
  0
MTEXT
  5
1D2
330
1C9
100
AcDbEntity
  8
VERMASSUNG
100
AcDbMText
 10
38.0374113636
 20
107.7972598664
 30
0.0
 40
2.0
 41
0.0
 71
     1
 72
     1
  1
%%c
  7
SLDTEXTSTYLE0
 11
-7.044195017643634E-15
 21
1.0
 31
0.0
 73
     1
 44
1.0
  0
MTEXT
  5
1D3
330
1C9
100
AcDbEntity
  8
VERMASSUNG
100
AcDbMText
 10
38.03741148
 20
111.4055865164
 30
0.0
 40
2.0
 41
0.0
 71
     1
 72
     1
  1
63
  7
SLDTEXTSTYLE0
 11
-7.044195017643634E-15
 21
1.0
 31
0.0
 73
     1
 44
1.0
  0
ENDBLK
  5
1CB
330
1C9
100
AcDbEntity
  8
0
100
AcDbBlockEnd
  0
BLOCK
  5
1D6
330
1D5
100
AcDbEntity
  8
0
100
AcDbBlockBegin
  2
*D2
 70
     1
 10
0.0
 20
0.0
 30
0.0
  3
*D2
  1

  0
SOLID
  5
1D8
330
1D5
100
AcDbEntity
  8
VERMASSUNG
100
AcDbTrace
 10
246.7698617739
 20
101.6779878926
 30
0.0
 11
247.2198617739
 21
104.6779878926
 31
0.0
 12
246.3198617739
 22
104.6779878926
 32
0.0
 13
246.3198617739
 23
104.6779878926
 33
0.0
  0
SOLID
  5
1D9
330
1D5
100
AcDbEntity
  8
VERMASSUNG
100
AcDbTrace
 10
246.7698617739
 20
115.6779878926
 30
0.0
 11
246.3198617739
 21
112.6779878926
 31
0.0
 12
247.2198617739
 22
112.6779878926
 32
0.0
 13
247.2198617739
 23
112.6779878926
 33
0.0
  0
LINE
  5
1DA
330
1D5
100
AcDbEntity
  8
VERMASSUNG
100
AcDbLine
 10
238.9220629391
 20
101.6779878926
 30
0.0
 11
247.7698617739
 21
101.6779878926
 31
0.0
  0
LINE
  5
1DB
330
1D5
100
AcDbEntity
  8
VERMASSUNG
100
AcDbLine
 10
238.9220629391
 20
115.6779878926
 30
0.0
 11
247.7698617739
 21
115.6779878926
 31
0.0
  0
LINE
  5
1DC
330
1D5
100
AcDbEntity
  8
VERMASSUNG
100
AcDbLine
 10
246.7698617739
 20
101.6779878926
 30
0.0
 11
246.7698617739
 21
115.6779878926
 31
0.0
  0
MTEXT
  5
1DD
330
1D5
100
AcDbEntity
  8
VERMASSUNG
100
AcDbMText
 10
244.1917262944
 20
105.6881074977
 30
0.0
 40
2.0
 41
0.0
 71
     1
 72
     1
  1
%%c
  7
SLDTEXTSTYLE0
 11
6.123233995736766E-17
 21
1.0
 31
0.0
 73
     1
 44
1.0
  0
MTEXT
  5
1DE
330
1D5
100
AcDbEntity
  8
VERMASSUNG
100
AcDbMText
 10
244.1917264108
 20
109.2967857209
 30
0.0
 40
2.0
 41
0.0
 71
     1
 72
     1
  1
14
  7
SLDTEXTSTYLE0
 11
6.123233995736766E-17
 21
1.0
 31
0.0
 73
     1
 44
1.0
  0
ENDBLK
  5
1D7
330
1D5
100
AcDbEntity
  8
0
100
AcDbBlockEnd
  0
BLOCK
  5
1E1
330
1E0
100
AcDbEntity
  8
0
100
AcDbBlockBegin
  2
*D3
 70
     1
 10
0.0
 20
0.0
 30
0.0
  3
*D3
  1

  0
SOLID
  5
1E3
330
1E0
100
AcDbEntity
  8
VERMASSUNG
100
AcDbTrace
 10
105.1720629391
 20
142.0150595883
 30
0.0
 11
108.1720629391
 21
141.5650595883
 31
0.0
 12
108.1720629391
 22
142.4650595883
 32
0.0
 13
108.1720629391
 23
142.4650595883
 33
0.0
  0
SOLID
  5
1E4
330
1E0
100
AcDbEntity
  8
VERMASSUNG
100
AcDbTrace
 10
239.2220629391
 20
142.0150595883
 30
0.0
 11
236.2220629391
 21
142.4650595883
 31
0.0
 12
236.2220629391
 22
141.5650595883
 32
0.0
 13
236.2220629391
 23
141.5650595883
 33
0.0
  0
LINE
  5
1E5
330
1E0
100
AcDbEntity
  8
VERMASSUNG
100
AcDbLine
 10
105.1720629391
 20
138.5244282164
 30
0.0
 11
105.1720629391
 21
143.0150595883
 31
0.0
  0
LINE
  5
1E6
330
1E0
100
AcDbEntity
  8
VERMASSUNG
100
AcDbLine
 10
239.2220629391
 20
123.403847371
 30
0.0
 11
239.2220629391
 21
143.0150595883
 31
0.0
  0
LINE
  5
1E7
330
1E0
100
AcDbEntity
  8
VERMASSUNG
100
AcDbLine
 10
105.1720629391
 20
142.0150595883
 30
0.0
 11
239.2220629391
 21
142.0150595883
 31
0.0
  0
MTEXT
  5
1E8
330
1E0
100
AcDbEntity
  8
VERMASSUNG
100
AcDbMText
 10
168.4978776736
 20
144.5931949514
 30
0.0
 40
2.0
 41
0.0
 71
     1
 72
     1
  1
134.05
  7
SLDTEXTSTYLE0
 73
     1
 44
1.0
  0
ENDBLK
  5
1E2
330
1E0
100
AcDbEntity
  8
0
100
AcDbBlockEnd
  0
BLOCK
  5
1EB
330
1EA
100
AcDbEntity
  8
0
100
AcDbBlockBegin
  2
*D4
 70
     1
 10
0.0
 20
0.0
 30
0.0
  3
*D4
  1

  0
SOLID
  5
1ED
330
1EA
100
AcDbEntity
  8
VERMASSUNG
100
AcDbTrace
 10
79.2220629391
 20
148.0150595883
 30
0.0
 11
82.2220629391
 21
147.5650595883
 31
0.0
 12
82.2220629391
 22
148.4650595883
 32
0.0
 13
82.2220629391
 23
148.4650595883
 33
0.0
  0
SOLID
  5
1EE
330
1EA
100
AcDbEntity
  8
VERMASSUNG
100
AcDbTrace
 10
239.2220629391
 20
148.0150595883
 30
0.0
 11
236.2220629391
 21
148.4650595883
 31
0.0
 12
236.2220629391
 22
147.5650595883
 32
0.0
 13
236.2220629391
 23
147.5650595883
 33
0.0
  0
LINE
  5
1EF
330
1EA
100
AcDbEntity
  8
VERMASSUNG
100
AcDbLine
 10
79.2220629391
 20
139.8779878926
 30
0.0
 11
79.2220629391
 21
149.0150595883
 31
0.0
  0
LINE
  5
1F0
330
1EA
100
AcDbEntity
  8
VERMASSUNG
100
AcDbLine
 10
239.2220629391
 20
123.403847371
 30
0.0
 11
239.2220629391
 21
149.0150595883
 31
0.0
  0
LINE
  5
1F1
330
1EA
100
AcDbEntity
  8
VERMASSUNG
100
AcDbLine
 10
79.2220629391
 20
148.0150595883
 30
0.0
 11
239.2220629391
 21
148.0150595883
 31
0.0
  0
MTEXT
  5
1F2
330
1EA
100
AcDbEntity
  8
VERMASSUNG
100
AcDbMText
 10
157.3225753985
 20
150.5931949514
 30
0.0
 40
2.0
 41
0.0
 71
     1
 72
     1
  1
160
  7
SLDTEXTSTYLE0
 73
     1
 44
1.0
  0
ENDBLK
  5
1EC
330
1EA
100
AcDbEntity
  8
0
100
AcDbBlockEnd
  0
BLOCK
  5
1F5
330
1F4
100
AcDbEntity
  8
0
100
AcDbBlockBegin
  2
*D5
 70
     1
 10
0.0
 20
0.0
 30
0.0
  3
*D5
  1

  0
SOLID
  5
1F7
330
1F4
100
AcDbEntity
  8
VERMASSUNG
100
AcDbTrace
 10
47.3220629391
 20
154.0150595883
 30
0.0
 11
50.3220629391
 21
153.5650595883
 31
0.0
 12
50.3220629391
 22
154.4650595883
 32
0.0
 13
50.3220629391
 23
154.4650595883
 33
0.0
  0
SOLID
  5
1F8
330
1F4
100
AcDbEntity
  8
VERMASSUNG
100
AcDbTrace
 10
239.2220629391
 20
154.0150595883
 30
0.0
 11
236.2220629391
 21
154.4650595883
 31
0.0
 12
236.2220629391
 22
153.5650595883
 32
0.0
 13
236.2220629391
 23
153.5650595883
 33
0.0
  0
LINE
  5
1F9
330
1F4
100
AcDbEntity
  8
VERMASSUNG
100
AcDbLine
 10
47.3220629391
 20
128.3686656391
 30
0.0
 11
47.3220629391
 21
155.0150595883
 31
0.0
  0
LINE
  5
1FA
330
1F4
100
AcDbEntity
  8
VERMASSUNG
100
AcDbLine
 10
239.2220629391
 20
123.403847371
 30
0.0
 11
239.2220629391
 21
155.0150595883
 31
0.0
  0
LINE
  5
1FB
330
1F4
100
AcDbEntity
  8
VERMASSUNG
100
AcDbLine
 10
47.3220629391
 20
154.0150595883
 30
0.0
 11
239.2220629391
 21
154.0150595883
 31
0.0
  0
MTEXT
  5
1FC
330
1F4
100
AcDbEntity
  8
VERMASSUNG
100
AcDbMText
 10
140.5730965252
 20
156.5931949514
 30
0.0
 40
2.0
 41
0.0
 71
     1
 72
     1
  1
191.9
  7
SLDTEXTSTYLE0
 73
     1
 44
1.0
  0
ENDBLK
  5
1F6
330
1F4
100
AcDbEntity
  8
0
100
AcDbBlockEnd
  0
BLOCK
  5
1FF
330
1FE
100
AcDbEntity
  8
0
100
AcDbBlockBegin
  2
*D6
 70
     1
 10
0.0
 20
0.0
 30
0.0
  3
*D6
  1

  0
SOLID
  5
201
330
1FE
100
AcDbEntity
  8
VERMASSUNG
100
AcDbTrace
 10
252.7698617739
 20
131.1779878926
 30
0.0
 11
252.3198617739
 21
128.1779878926
 31
0.0
 12
253.2198617739
 22
128.1779878926
 32
0.0
 13
253.2198617739
 23
128.1779878926
 33
0.0
  0
SOLID
  5
202
330
1FE
100
AcDbEntity
  8
VERMASSUNG
100
AcDbTrace
 10
252.7698617739
 20
86.1779878926
 30
0.0
 11
253.2198617739
 21
89.1779878926
 31
0.0
 12
252.3198617739
 22
89.1779878926
 32
0.0
 13
252.3198617739
 23
89.1779878926
 33
0.0
  0
LINE
  5
203
330
1FE
100
AcDbEntity
  8
VERMASSUNG
100
AcDbLine
 10
225.2827679558
 20
131.1779878926
 30
0.0
 11
253.7698617739
 21
131.1779878926
 31
0.0
  0
LINE
  5
204
330
1FE
100
AcDbEntity
  8
VERMASSUNG
100
AcDbLine
 10
225.2827679558
 20
86.1779878926
 30
0.0
 11
253.7698617739
 21
86.1779878926
 31
0.0
  0
LINE
  5
205
330
1FE
100
AcDbEntity
  8
VERMASSUNG
100
AcDbLine
 10
252.7698617739
 20
131.1779878926
 30
0.0
 11
252.7698617739
 21
86.1779878926
 31
0.0
  0
MTEXT
  5
206
330
1FE
100
AcDbEntity
  8
VERMASSUNG
100
AcDbMText
 10
250.1917262944
 20
105.4885278661
 30
0.0
 40
2.0
 41
0.0
 71
     1
 72
     1
  1
%%c
  7
SLDTEXTSTYLE0
 11
-7.044195017643634E-15
 21
1.0
 31
0.0
 73
     1
 44
1.0
  0
MTEXT
  5
207
330
1FE
100
AcDbEntity
  8
VERMASSUNG
100
AcDbMText
 10
250.1917264108
 20
109.0972060892
 30
0.0
 40
2.0
 41
0.0
 71
     1
 72
     1
  1
45
  7
SLDTEXTSTYLE0
 11
-7.044195017643634E-15
 21
1.0
 31
0.0
 73
     1
 44
1.0
  0
ENDBLK
  5
200
330
1FE
100
AcDbEntity
  8
0
100
AcDbBlockEnd
  0
ENDSEC
  0
SECTION
  2
ENTITIES
  0
MTEXT
  5
45
330
1F
100
AcDbEntity
  8
KOPF_DÜNN
100
AcDbMText
 10
13.8892156294
 20
23.8442973028
 30
0.0
 40
3.0
 41
0.0
 71
     1
 72
     1
  1
HA6.W14.K21.160
  7
SLDTEXTSTYLE0
 73
     1
 44
1.0
  0
MTEXT
  5
46
330
1F
100
AcDbEntity
  8
VERMASSUNG
100
AcDbMText
 10
13.9329988022
 20
28.8834360957
 30
0.0
 40
3.0
 41
0.0
 71
     1
 72
     1
  1
Flächenspannfutter_End mill adapter Weldon ø14
  7
SLDTEXTSTYLE0
 73
     1
 44
1.0
  0
MTEXT
  5
47
330
1F
100
AcDbEntity
  8
VERMASSUNG
100
AcDbMText
 10
98.8601118557
 20
13.8365368179
 30
0.0
 40
2.0
 41
0.0
 71
     1
 72
     1
  1
Datum: 09.10.2006
  7
SLDTEXTSTYLE0
 73
     1
 44
1.0
  0
MTEXT
  5
49
330
1F
100
AcDbEntity
  8
VERMASSUNG
100
AcDbMText
 10
13.933048693
 20
18.0482802738
 30
0.0
 40
2.0
 41
0.0
 71
     1
 72
     1
  1
DIN 69 893 HSK A 63
  7
SLDTEXTSTYLE1
 73
     1
 44
1.0
  0
MTEXT
  5
4A
330
1F
100
AcDbEntity
  8
VERMASSUNG
100
AcDbMText
 10
13.9808475933
 20
13.9090973692
 30
0.0
 40
2.0
 41
0.0
 71
     1
 72
     1
  1
Gewicht: 2188g
  7
SLDTEXTSTYLE0
 73
     1
 44
1.0
  0
ARC
  5
4B
330
1F
100
AcDbEntity
  8
0
  6
Continuous
 62
     7
370
    15
100
AcDbCircle
 10
79.5220629391
 20
77.4779878926
 30
0.0
 40
0.2999999999999972
100
AcDbArc
 50
180.0
 51
270.0
  0
ARC
  5
4C
330
1F
100
AcDbEntity
  8
0
  6
Continuous
 62
     7
370
    15
100
AcDbCircle
 10
79.5220629391
 20
139.8779878926
 30
0.0
 40
0.3000000000000114
100
AcDbArc
 50
90.0
 51
180.0
  0
LINE
  5
4D
330
1F
100
AcDbEntity
  8
0
  6
Continuous
 62
     7
370
    15
100
AcDbLine
 10
79.5220629391
 20
77.1779878926
 30
0.0
 11
84.1720629391
 21
77.1779878926
 31
0.0
  0
LINE
  5
4E
330
1F
100
AcDbEntity
  8
0
  6
Continuous
 62
     7
370
    15
100
AcDbLine
 10
84.1813710259
 20
140.1779878926
 30
0.0
 11
79.5220629391
 21
140.1779878926
 31
0.0
  0
ARC
  5
4F
330
1F
100
AcDbEntity
  8
0
  6
Continuous
 62
     7
370
    15
100
AcDbCircle
 10
107.1720629391
 20
81.499278208
 30
0.0
 40
1.999999999999998
100
AcDbArc
 50
102.2316336591
 51
157.0847429321
  0
ARC
  5
50
330
1F
100
AcDbEntity
  8
0
  6
Continuous
 62
     7
370
    15
100
AcDbCircle
 10
107.1720629391
 20
135.8566975773
 30
0.0
 40
2.000000000000016
100
AcDbArc
 50
202.8307207204
 51
257.7683663409
  0
ARC
  5
51
330
1F
100
AcDbEntity
  8
0
  6
Continuous
 62
     7
370
    15
100
AcDbCircle
 10
132.1720629391
 20
-33.8220121074
 30
0.0
 40
120.0
100
AcDbArc
 50
90.0
 51
102.2316336591
  0
ARC
  5
52
330
1F
100
AcDbEntity
  8
0
  6
Continuous
 62
     7
370
    15
100
AcDbCircle
 10
132.1720629391
 20
251.1779878926
 30
0.0
 40
120.0000000000001
100
AcDbArc
 50
257.7683663409
 51
270.0
  0
ARC
  5
53
330
1F
100
AcDbEntity
  8
0
  6
Continuous
 62
     7
370
    15
100
AcDbCircle
 10
78.7220561864
 20
84.1075502782
 30
0.0
 40
0.6000067526677164
100
AcDbArc
 50
33.5571153394
 51
90.0
  0
ARC
  5
54
330
1F
100
AcDbEntity
  8
0
  6
Continuous
 62
     7
370
    15
100
AcDbCircle
 10
78.7220561864
 20
133.248425507
 30
0.0
 40
0.6000067526677321
100
AcDbArc
 50
270.0
 51
326.4428846606
  0
LINE
  5
55
330
1F
100
AcDbEntity
  8
0
  6
Continuous
 62
     7
370
    15
100
AcDbLine
 10
65.9916407566
 20
132.3357723524
 30
0.0
 11
53.4220629391
 21
131.7060339848
 31
0.0
  0
LINE
  5
56
330
1F
100
AcDbEntity
  8
0
  6
Continuous
 62
     7
370
    15
100
AcDbLine
 10
77.2220629391
 20
132.8984187544
 30
0.0
 11
74.4034535816
 21
132.7572058607
 31
0.0
  0
LINE
  5
57
330
1F
100
AcDbEntity
  8
0
  6
Continuous
 62
     7
370
    15
100
AcDbLine
 10
74.4036750567
 20
84.5987588286
 30
0.0
 11
77.2220629391
 21
84.4575570309
 31
0.0
  0
LINE
  5
58
330
1F
100
AcDbEntity
  8
0
  6
Continuous
 62
     7
370
    15
100
AcDbLine
 10
57.4220629391
 20
85.4495409988
 30
0.0
 11
65.9923397083
 21
85.0201684152
 31
0.0
  0
LINE
  5
59
330
1F
100
AcDbEntity
  8
0
  6
Continuous
 62
     7
370
    15
100
AcDbLine
 10
77.2220629391
 20
84.4575570309
 30
0.0
 11
78.0787757125
 21
84.6871125267
 31
0.0
  0
LINE
  5
5A
330
1F
100
AcDbEntity
  8
0
  6
Continuous
 62
     7
370
    15
100
AcDbLine
 10
78.0787757125
 20
132.6688632586
 30
0.0
 11
77.2220629391
 21
132.8984187544
 31
0.0
  0
ARC
  5
5B
330
1F
100
AcDbEntity
  8
0
  6
Continuous
 62
     7
370
    15
100
AcDbCircle
 10
78.2340671395
 20
84.1075570309
 30
0.0
 40
0.5999999999999943
100
AcDbArc
 50
90.0
 51
105.0
  0
ARC
  5
5C
330
1F
100
AcDbEntity
  8
0
  6
Continuous
 62
     7
370
    15
100
AcDbCircle
 10
78.2340671395
 20
133.2484187544
 30
0.0
 40
0.5999999999999659
100
AcDbArc
 50
255.0
 51
270.0
  0
LINE
  5
5D
330
1F
100
AcDbEntity
  8
0
  6
Continuous
 62
     7
370
    15
100
AcDbLine
 10
78.2340671395
 20
84.7075570309
 30
0.0
 11
78.7220561864
 21
84.7075570309
 31
0.0
  0
LINE
  5
5E
330
1F
100
AcDbEntity
  8
0
  6
Continuous
 62
     7
370
    15
100
AcDbLine
 10
78.7220561864
 20
132.6484187544
 30
0.0
 11
78.2340671395
 21
132.6484187544
 31
0.0
  0
LINE
  5
5F
330
1F
100
AcDbEntity
  8
0
  6
Continuous
 62
     7
370
    15
100
AcDbLine
 10
154.6602491425
 20
86.1779878926
 30
0.0
 11
225.2827679558
 21
86.1779878926
 31
0.0
  0
LINE
  5
60
330
1F
100
AcDbEntity
  8
0
  6
Continuous
 62
     7
370
    15
100
AcDbLine
 10
132.1720629391
 20
86.1779878926
 30
0.0
 11
147.6740429271
 21
86.1779878926
 31
0.0
  0
LINE
  5
61
330
1F
100
AcDbEntity
  8
0
  6
Continuous
 62
     7
370
    15
100
AcDbLine
 10
147.683934445
 20
131.1779878926
 30
0.0
 11
132.1720629391
 21
131.1779878926
 31
0.0
  0
LINE
  5
62
330
1F
100
AcDbEntity
  8
0
  6
Continuous
 62
     7
370
    15
100
AcDbLine
 10
225.2827679558
 20
131.1779878926
 30
0.0
 11
154.668435729
 21
131.1779878926
 31
0.0
  0
LINE
  5
63
330
1F
100
AcDbEntity
  8
0
  6
Continuous
 62
     7
370
    15
100
AcDbLine
 10
225.2827679558
 20
86.1779878926
 30
0.0
 11
238.0672994626
 21
92.1395128402
 31
0.0
  0
LINE
  5
64
330
1F
100
AcDbEntity
  8
0
  6
Continuous
 62
     7
370
    15
100
AcDbLine
 10
238.0672994626
 20
125.2164629451
 30
0.0
 11
225.2827679558
 21
131.1779878926
 31
0.0
  0
ARC
  5
65
330
1F
100
AcDbEntity
  8
0
  6
Continuous
 62
     7
370
    15
100
AcDbCircle
 10
237.2220629391
 20
93.9521284143
 30
0.0
 40
2.0
100
AcDbArc
 50
295.0
 51
0.0
  0
ARC
  5
66
330
1F
100
AcDbEntity
  8
0
  6
Continuous
 62
     7
370
    15
100
AcDbCircle
 10
237.2220629391
 20
123.403847371
 30
0.0
 40
2.0
100
AcDbArc
 50
0.0
 51
65.0
  0
LINE
  5
67
330
1F
100
AcDbEntity
  8
0
  6
Continuous
 62
     7
370
    15
100
AcDbLine
 10
48.6130230505
 20
87.8079878926
 30
0.0
 11
56.0220629391
 21
87.8079878926
 31
0.0
  0
ARC
  5
68
330
1F
100
AcDbEntity
  8
0
  6
Continuous
 62
     7
370
    15
100
AcDbCircle
 10
56.0220629391
 20
86.4079878926
 30
0.0
 40
1.400000000000006
100
AcDbArc
 50
42.2465410162
 51
90.0
  0
LINE
  5
69
330
1F
100
AcDbEntity
  8
0
  6
Continuous
 62
     7
370
    15
100
AcDbLine
 10
47.3336191652
 20
88.9464316665
 30
0.0
 11
48.4632263973
 21
87.8168244345
 31
0.0
  0
LINE
  5
6A
330
1F
100
AcDbEntity
  8
0
  6
Continuous
 62
     7
370
    15
100
AcDbLine
 10
48.4632263973
 20
129.5391513508
 30
0.0
 11
47.3319637125
 21
128.407888666
 31
0.0
  0
ARC
  5
6B
330
1F
100
AcDbEntity
  8
0
  6
Continuous
 62
     7
370
    15
100
AcDbCircle
 10
52.0220629391
 20
130.9479878926
 30
0.0
 40
1.400000000000034
100
AcDbArc
 50
270.0
 51
301.7485287426
  0
LINE
  5
6C
330
1F
100
AcDbEntity
  8
0
  6
Continuous
 62
     7
370
    15
100
AcDbLine
 10
52.0220629391
 20
129.5479878926
 30
0.0
 11
48.596328673
 21
129.5479878926
 31
0.0
  0
LINE
  5
6D
330
1F
100
AcDbEntity
  8
0
  6
Continuous
 62
     7
370
    15
100
AcDbLine
 10
239.2220629391
 20
99.2093241026
 30
0.0
 11
239.2869638747
 21
99.3295046486
 31
0.0
  0
LINE
  5
6E
330
1F
100
AcDbEntity
  8
0
  6
Continuous
 62
     7
370
    15
100
AcDbLine
 10
239.2862523354
 20
118.0264909049
 30
0.0
 11
239.2220629391
 21
118.1453538554
 31
0.0
  0
LINE
  5
6F
330
1F
100
AcDbEntity
  8
0
  6
Continuous
 62
     7
370
    15
100
AcDbLine
 10
104.5720629391
 20
78.4910701964
 30
0.0
 11
100.6139957706
 21
78.4910701964
 31
0.0
  0
LINE
  5
70
330
1F
100
AcDbEntity
  8
0
  6
Continuous
 62
     7
370
    15
100
AcDbLine
 10
100.6139957706
 20
78.4910701964
 30
0.0
 11
100.6139957706
 21
128.5279878926
 31
0.0
  0
LINE
  5
71
330
1F
100
AcDbEntity
  8
0
  6
Continuous
 62
     7
370
    15
100
AcDbLine
 10
100.6139957706
 20
128.5279878926
 30
0.0
 11
104.5720629391
 21
128.5279878926
 31
0.0
  0
LINE
  5
72
330
1F
100
AcDbEntity
  8
0
  6
Continuous
 62
     7
370
    15
100
AcDbLine
 10
105.1720629391
 20
79.117710492
 30
0.0
 11
105.1720629391
 21
128.5279878926
 31
0.0
  0
SPLINE
  5
73
330
1F
100
AcDbEntity
  8
0
  6
Continuous
 62
     7
370
    15
100
AcDbSpline
210
0.0
220
0.0
230
1.0
 70
     8
 71
     3
 72
    10
 73
     6
 74
     0
 42
0.00000001
 43
0.00000001
 40
0.0
 40
0.0
 40
0.0
 40
0.0
 40
0.5
 40
0.5
 40
1.0
 40
1.0
 40
1.0
 40
1.0
 10
105.1720629390824
 20
79.11771049204357
 30
0.0
 10
105.1720629390824
 20
78.95782322384991
 30
0.0
 10
105.1107532878465
 20
78.7966959683353
 30
0.0
 10
104.8916536503114
 20
78.56259696998048
 30
0.0
 10
104.733605443998
 20
78.49107019638924
 30
0.0
 10
104.5720629390824
 20
78.49107019638924
 30
0.0
  0
SPLINE
  5
74
330
1F
100
AcDbEntity
  8
0
  6
Continuous
 62
     7
370
    15
100
AcDbSpline
210
0.0
220
0.0
230
1.0
 70
    24
 71
     3
 72
    12
 73
     8
 74
     0
 42
0.00000001
 43
0.00000001
 40
0.0
 40
0.0
 40
0.0
 40
0.0
 40
0.2500000000000033
 40
0.2500000000000033
 40
0.5000000000000067
 40
0.5000000000000067
 40
1.0
 40
1.0
 40
1.0
 40
1.0
 10
104.5720629390824
 20
128.5279878926364
 30
0.0
 10
104.6623020067694
 20
128.5279878926364
 30
0.0
 10
104.7532001208759
 20
128.5279878926364
 30
0.0
 10
104.9077971573645
 20
128.5279878926364
 30
0.0
 10
104.9727755734725
 20
128.5279878926364
 30
0.0
 10
105.1246106014088
 20
128.5279878926364
 30
0.0
 10
105.1720629390824
 20
128.5279878926364
 30
0.0
 10
105.1720629390824
 20
128.5279878926364
 30
0.0
  0
LINE
  5
75
330
1F
100
AcDbEntity
  8
0
  6
Continuous
 62
     7
370
    15
100
AcDbLine
 10
95.3120629391
 20
81.1801507336
 30
0.0
 11
95.3120629391
 21
128.5279878926
 31
0.0
  0
SPLINE
  5
76
330
1F
100
AcDbEntity
  8
0
  6
Continuous
 62
     7
370
    15
100
AcDbSpline
210
0.0
220
0.0
230
1.0
 70
     8
 71
     3
 72
     8
 73
     4
 74
     0
 42
0.00000001
 43
0.00000001
 40
0.0
 40
0.0
 40
0.0
 40
0.0
 40
1.0
 40
1.0
 40
1.0
 40
1.0
 10
95.31206293908237
 20
81.18015073358156
 30
0.0
 10
94.81972381630119
 20
80.28288069937486
 30
0.0
 10
94.32560976825906
 20
79.3865962843226
 30
0.0
 10
93.83013010759332
 20
78.49107019638924
 30
0.0
  0
LINE
  5
77
330
1F
100
AcDbEntity
  8
0
  6
Continuous
 62
     7
370
    15
100
AcDbLine
 10
93.8301301076
 20
78.4910701964
 30
0.0
 11
93.8301301076
 21
128.5279878926
 31
0.0
  0
SPLINE
  5
78
330
1F
100
AcDbEntity
  8
0
  6
Continuous
 62
     7
370
    15
100
AcDbSpline
210
0.0
220
0.0
230
1.0
 70
    24
 71
     3
 72
     8
 73
     4
 74
     0
 42
0.00000001
 43
0.00000001
 40
0.0
 40
0.0
 40
0.0
 40
0.0
 40
1.0
 40
1.0
 40
1.0
 40
1.0
 10
93.83013010759329
 20
128.5279878926364
 30
0.0
 10
94.33681021574384
 20
128.5279878926364
 30
0.0
 10
94.83211094471747
 20
128.5279878926364
 30
0.0
 10
95.31206293908237
 20
128.5279878926364
 30
0.0
  0
SPLINE
  5
79
330
1F
100
AcDbEntity
  8
0
  6
Continuous
 62
     7
370
    15
100
AcDbSpline
210
0.0
220
0.0
230
1.0
 70
     8
 71
     3
 72
     8
 73
     4
 74
     0
 42
0.00000001
 43
0.00000001
 40
0.0
 40
0.0
 40
0.0
 40
0.0
 40
1.0
 40
1.0
 40
1.0
 40
1.0
 10
100.6139957705714
 20
78.49107019638924
 30
0.0
 10
100.1185161099057
 20
79.38659628432261
 30
0.0
 10
99.62440206186356
 20
80.28288069937487
 30
0.0
 10
99.13206293908236
 20
81.18015073358157
 30
0.0
  0
LINE
  5
7A
330
1F
100
AcDbEntity
  8
0
  6
Continuous
 62
     7
370
    15
100
AcDbLine
 10
99.1320629391
 20
81.1801507336
 30
0.0
 11
99.1320629391
 21
128.5279878926
 31
0.0
  0
SPLINE
  5
7B
330
1F
100
AcDbEntity
  8
0
  6
Continuous
 62
     7
370
    15
100
AcDbSpline
210
0.0
220
0.0
230
1.0
 70
    24
 71
     3
 72
     8
 73
     4
 74
     0
 42
0.00000001
 43
0.00000001
 40
0.0
 40
0.0
 40
0.0
 40
0.0
 40
1.0
 40
1.0
 40
1.0
 40
1.0
 10
99.13206293908236
 20
128.5279878926364
 30
0.0
 10
99.61201493344726
 20
128.5279878926364
 30
0.0
 10
100.1073156624209
 20
128.5279878926364
 30
0.0
 10
100.6139957705714
 20
128.5279878926364
 30
0.0
  0
LINE
  5
7C
330
1F
100
AcDbEntity
  8
0
  6
Continuous
 62
     7
370
    15
100
AcDbLine
 10
79.2220629391
 20
77.4779878926
 30
0.0
 11
79.2220629391
 21
139.8779878874
 31
0.0
  0
LINE
  5
7D
330
1F
100
AcDbEntity
  8
0
  6
Continuous
 62
     7
370
    15
100
AcDbLine
 10
84.1720629391
 20
128.5279878926
 30
0.0
 11
93.8301301076
 21
128.5279878926
 31
0.0
  0
LINE
  5
7E
330
1F
100
AcDbEntity
  8
0
  6
Continuous
 62
     7
370
    15
100
AcDbLine
 10
93.8301301076
 20
78.4910701964
 30
0.0
 11
92.1720629391
 21
78.4910701964
 31
0.0
  0
SPLINE
  5
7F
330
1F
100
AcDbEntity
  8
0
  6
Continuous
 62
     7
370
    15
100
AcDbSpline
210
0.0
220
0.0
230
1.0
 70
     8
 71
     3
 72
    28
 73
    24
 74
     0
 42
0.00000001
 43
0.00000001
 40
0.0
 40
0.0
 40
0.0
 40
0.0
 40
0.1250000000000001
 40
0.1250000000000001
 40
0.1875000000000001
 40
0.1875000000000001
 40
0.2500000000000001
 40
0.2500000000000001
 40
0.3749999999999999
 40
0.3749999999999999
 40
0.4375
 40
0.4375
 40
0.4999999999999999
 40
0.4999999999999999
 40
0.6249999999999999
 40
0.6249999999999999
 40
0.7499999999999997
 40
0.7499999999999997
 40
0.8124999999999998
 40
0.8124999999999998
 40
0.8749999999999998
 40
0.8749999999999998
 40
1.0
 40
1.0
 40
1.0
 40
1.0
 10
92.17206293908237
 20
78.49107019638924
 30
0.0
 10
91.64035518158944
 20
78.49107019638926
 30
0.0
 10
91.11811661627911
 20
78.47528548243903
 30
0.0
 10
90.34824613000411
 20
78.43029006836282
 30
0.0
 10
90.09388655781277
 20
78.4117350732871
 30
0.0
 10
89.58976497711427
 20
78.36788235084059
 30
0.0
 10
89.34004215968633
 20
78.3425377438884
 30
0.0
 10
88.61445220823992
 20
78.25913566613829
 30
0.0
 10
88.15609194665838
 20
78.1932701069872
 30
0.0
 10
87.5055940032645
 20
78.08429976649542
 30
0.0
 10
87.29391195247204
 20
78.04606013072876
 30
0.0
 10
86.88984046333405
 20
77.9683013933094
 30
0.0
 10
86.69733394951318
 20
77.92880043113406
 30
0.0
 10
86.1474989784919
 20
77.80989268876806
 30
0.0
 10
85.8175702001831
 20
77.73007500734346
 30
0.0
 10
85.2330989316144
 20
77.57673184554739
 30
0.0
 10
84.98682179360098
 20
77.50539809227813
 30
0.0
 10
84.6869790009029
 20
77.41145458520351
 30
0.0
 10
84.59852214383072
 20
77.38226079184359
 30
0.0
 10
84.44516079052558
 20
77.32879421758018
 30
0.0
 10
84.38007257629936
 20
77.30443488330499
 30
0.0
 10
84.22447856035856
 20
77.24084473786024
 30
0.0
 10
84.17206293908238
 20
77.210741802771
 30
0.0
 10
84.17206293908238
 20
77.19386490977409
 30
0.0
  0
LINE
  5
80
330
1F
100
AcDbEntity
  8
0
  6
Continuous
 62
     7
370
    15
100
AcDbLine
 10
84.1720629391
 20
77.1938649098
 30
0.0
 11
84.1720629391
 21
77.1779878926
 31
0.0
  0
SPLINE
  5
81
330
1F
100
AcDbEntity
  8
0
  6
Continuous
 62
     7
370
    15
100
AcDbSpline
210
0.0
220
0.0
230
1.0
 70
     8
 71
     3
 72
    22
 73
    18
 74
     0
 42
0.00000001
 43
0.00000001
 40
0.0
 40
0.0
 40
0.0
 40
0.0
 40
0.0515773377536172
 40
0.1565264849943629
 40
0.2100197540385886
 40
0.2615951369298746
 40
0.3664424119934943
 40
0.4198226601719804
 40
0.4724528789006786
 40
0.5794488992297344
 40
0.6339397336480286
 40
0.6872670452602943
 40
0.7409741315029978
 40
0.7958968813361827
 40
0.8512481408256359
 40
0.9034470736265863
 40
1.0
 40
1.0
 40
1.0
 40
1.0
 10
92.17206293908237
 20
139.1451833658007
 30
0.0
 10
91.95525274307991
 20
139.1465799868692
 30
0.0
 10
91.29727892416514
 20
139.1508184411254
 30
0.0
 10
90.42218394683422
 20
139.1903507654797
 30
0.0
 10
89.57735845197737
 20
139.2533240123216
 30
0.0
 10
88.75763316837313
 20
139.3313380455767
 30
0.0
 10
87.98184319034472
 20
139.4282211734519
 30
0.0
 10
87.26435472903826
 20
139.5364805853679
 30
0.0
 10
86.58508998186619
 20
139.6501989576723
 30
0.0
 10
85.97677500395727
 20
139.7666991426131
 30
0.0
 10
85.4566830632341
 20
139.8757993940302
 30
0.0
 10
85.11279288551798
 20
139.9518032917602
 30
0.0
 10
84.81783915779042
 20
140.0198367476818
 30
0.0
 10
84.57206487044924
 20
140.0785497984404
 30
0.0
 10
84.38616256147586
 20
140.1241651783741
 30
0.0
 10
84.21456595575211
 20
140.1671246299346
 30
0.0
 10
84.19443668057586
 20
140.1722856517367
 30
0.0
 10
84.18137102590215
 20
140.175635604879
 30
0.0
  0
LINE
  5
82
330
1F
100
AcDbEntity
  8
0
  6
Continuous
 62
     7
370
    15
100
AcDbLine
 10
93.8301301076
 20
139.1451833658
 30
0.0
 11
92.1720629391
 21
139.1451833658
 31
0.0
  0
LINE
  5
83
330
1F
100
AcDbEntity
  8
0
  6
Continuous
 62
     7
370
    15
100
AcDbLine
 10
93.8301301076
 20
133.136677555
 30
0.0
 11
93.8301301076
 21
139.1451833658
 31
0.0
  0
LINE
  5
84
330
1F
100
AcDbEntity
  8
0
  6
Continuous
 62
     7
370
    15
100
AcDbLine
 10
91.4176832848
 20
133.136677555
 30
0.0
 11
93.8301301076
 21
133.136677555
 31
0.0
  0
SPLINE
  5
85
330
1F
100
AcDbEntity
  8
0
  6
Continuous
 62
     7
370
    15
100
AcDbSpline
210
0.0
220
0.0
230
1.0
 70
     8
 71
     3
 72
    20
 73
    16
 74
     0
 42
0.00000001
 43
0.00000001
 40
0.0
 40
0.0
 40
0.0
 40
0.0
 40
0.2499999999999997
 40
0.2499999999999997
 40
0.3749999999999997
 40
0.3749999999999997
 40
0.4999999999999998
 40
0.4999999999999998
 40
0.6249999999999998
 40
0.6249999999999998
 40
0.7499999999999999
 40
0.7499999999999999
 40
0.8749999999999999
 40
0.8749999999999999
 40
1.0
 40
1.0
 40
1.0
 40
1.0
 10
84.17206293908237
 20
128.5279878926364
 30
0.0
 10
84.42043667337043
 20
129.1818503209338
 30
0.0
 10
84.74000676571569
 20
129.785636102931
 30
0.0
 10
85.36231299892037
 20
130.6124748390996
 30
0.0
 10
85.59373725935113
 20
130.8749034770525
 30
0.0
 10
86.11495159900085
 20
131.3715661311574
 30
0.0
 10
86.40157208163593
 20
131.602153010179
 30
0.0
 10
87.02105682294354
 20
132.0187072347616
 30
0.0
 10
87.3553572024305
 20
132.2062050367291
 30
0.0
 10
88.0806176750553
 20
132.5376020143655
 30
0.0
 10
88.46253273244575
 20
132.6771060018608
 30
0.0
 10
89.25732090861744
 20
132.9025595093318
 30
0.0
 10
89.67147910282384
 20
132.9891856208754
 30
0.0
 10
90.53702544340523
 20
133.1071664097295
 30
0.0
 10
90.97491305841703
 20
133.1366775550039
 30
0.0
 10
91.41768328477166
 20
133.1366775550039
 30
0.0
  0
SPLINE
  5
86
330
1F
100
AcDbEntity
  8
0
  6
Continuous
 62
     7
370
    15
100
AcDbSpline
210
0.0
220
0.0
230
1.0
 70
     8
 71
     3
 72
    70
 73
    66
 74
     0
 42
0.00000001
 43
0.00000001
 40
-0.0312500000000001
 40
-0.0312500000000001
 40
0.0
 40
0.0
 40
0.0312499999999999
 40
0.0312499999999999
 40
0.0624999999999998
 40
0.0624999999999998
 40
0.0937499999999997
 40
0.0937499999999997
 40
0.1249999999999996
 40
0.1249999999999996
 40
0.1562499999999994
 40
0.1562499999999994
 40
0.1874999999999993
 40
0.1874999999999993
 40
0.2187499999999992
 40
0.2187499999999992
 40
0.2499999999999991
 40
0.2499999999999991
 40
0.281249999999999
 40
0.281249999999999
 40
0.3124999999999989
 40
0.3124999999999989
 40
0.3437499999999988
 40
0.3437499999999988
 40
0.3749999999999987
 40
0.3749999999999987
 40
0.4062499999999986
 40
0.4062499999999986
 40
0.4374999999999984
 40
0.4374999999999984
 40
0.4687499999999983
 40
0.4687499999999983
 40
0.4999999999999982
 40
0.4999999999999982
 40
0.5312499999999983
 40
0.5312499999999983
 40
0.5624999999999984
 40
0.5624999999999984
 40
0.5937499999999986
 40
0.5937499999999986
 40
0.6249999999999987
 40
0.6249999999999987
 40
0.6562499999999988
 40
0.6562499999999988
 40
0.6874999999999989
 40
0.6874999999999989
 40
0.718749999999999
 40
0.718749999999999
 40
0.7499999999999991
 40
0.7499999999999991
 40
0.7812499999999992
 40
0.7812499999999992
 40
0.8124999999999993
 40
0.8124999999999993
 40
0.8437499999999994
 40
0.8437499999999994
 40
0.8749999999999996
 40
0.8749999999999996
 40
0.9062499999999997
 40
0.9062499999999997
 40
0.9374999999999998
 40
0.9374999999999998
 40
0.9687499999999999
 40
0.9687499999999999
 40
1.0
 40
1.0
 40
1.03125
 40
1.03125
 10
87.48660827774252
 20
119.2988947786198
 30
0.0
 10
86.95751760042222
 20
119.2988947786198
 30
0.0
 10
86.69744693304513
 20
119.3235720734049
 30
0.0
 10
86.18587225320971
 20
119.4200437464469
 30
0.0
 10
85.93169696946953
 20
119.4930246624269
 30
0.0
 10
85.44742633940781
 20
119.6827652653655
 30
0.0
 10
85.21778524752665
 20
119.7986259237593
 30
0.0
 10
84.78318089929317
 20
120.071243769717
 30
0.0
 10
84.57761512264655
 20
120.2292828517708
 30
0.0
 10
84.20905798205132
 20
120.5728257027414
 30
0.0
 10
84.04357699931583
 20
120.7595881468431
 30
0.0
 10
83.75115248988072
 20
121.1631313212399
 30
0.0
 10
83.62705151325424
 20
121.3766283176691
 30
0.0
 10
83.42747231650452
 20
121.8160116315916
 30
0.0
 10
83.35053873064624
 20
122.0451516187372
 30
0.0
 10
83.24768167212588
 20
122.5111257414972
 30
0.0
 10
83.22220876266675
 20
122.7440081871734
 30
0.0
 10
83.22191835209897
 20
123.2094057222532
 30
0.0
 10
83.2479429858747
 20
123.4442814796475
 30
0.0
 10
83.35009127036672
 20
123.8957746268938
 30
0.0
 10
83.42566771794988
 20
124.1138211023051
 30
0.0
 10
83.6261652490948
 20
124.534915627343
 30
0.0
 10
83.75129409060318
 20
124.7368370118613
 30
0.0
 10
84.04065289162477
 20
125.1088664943802
 30
0.0
 10
84.20606387868024
 20
125.2814947979605
 30
0.0
 10
84.57905443682806
 20
125.5988128025065
 30
0.0
 10
84.78078746991716
 20
125.7385997360082
 30
0.0
 10
85.21364672074503
 20
125.98277598956
 30
0.0
 10
85.44756525363442
 20
126.0880055006015
 30
0.0
 10
85.93174898877702
 20
126.2561626469766
 30
0.0
 10
86.18106461473253
 20
126.3194135375705
 30
0.0
 10
86.69409713916026
 20
126.404992746673
 30
0.0
 10
86.9593909620649
 20
126.4268649115955
 30
0.0
 10
87.48172558193465
 20
126.4270285612394
 30
0.0
 10
87.74147924441638
 20
126.4060268691434
 30
0.0
 10
88.25809106006163
 20
126.3206245140658
 30
0.0
 10
88.51045710056191
 20
126.2566183307788
 30
0.0
 10
88.99198222209473
 20
126.0898038107376
 30
0.0
 10
89.22483295420828
 20
125.9856706473385
 30
0.0
 10
89.66192280264706
 20
125.7396839948435
 30
0.0
 10
89.86324379130423
 20
125.5999341638946
 30
0.0
 10
90.23232981660414
 20
125.2867960941701
 30
0.0
 10
90.40131456765582
 20
125.1113399348999
 30
0.0
 10
90.69177062431504
 20
124.7384996707997
 30
0.0
 10
90.81484243567716
 20
124.5403778606888
 30
0.0
 10
91.01617867709919
 20
124.1196665179551
 30
0.0
 10
91.09339122304141
 20
123.8976764972876
 30
0.0
 10
91.19559476594148
 20
123.4478115575792
 30
0.0
 10
91.22182311739381
 20
123.2175561444625
 30
0.0
 10
91.2222995167109
 20
122.7462402019134
 30
0.0
 10
91.19655710421294
 20
122.5130027861993
 30
0.0
 10
91.09524632784907
 20
122.0513262467012
 30
0.0
 10
91.01841368845814
 20
121.8204288595891
 30
0.0
 10
90.81800984924296
 20
121.3781528457974
 30
0.0
 10
90.69533835095092
 20
121.1670904145115
 30
0.0
 10
90.40539106178669
 20
120.7655919037788
 30
0.0
 10
90.23682008242146
 20
120.5746853817029
 30
0.0
 10
89.86855048830829
 20
120.2309600497058
 30
0.0
 10
89.66748863103797
 20
120.0758228634917
 30
0.0
 10
89.23045771245306
 20
119.800745503412
 30
0.0
 10
88.99830949932344
 20
119.68362927399
 30
0.0
 10
88.51729921782457
 20
119.4947027889255
 30
0.0
 10
88.26519913499415
 20
119.4216278185312
 30
0.0
 10
87.74812964873514
 20
119.3235757593967
 30
0.0
 10
87.48660827774252
 20
119.2988947786198
 30
0.0
 10
86.95751760042222
 20
119.2988947786198
 30
0.0
  0
SPLINE
  5
87
330
1F
100
AcDbEntity
  8
0
  6
Continuous
 62
     7
370
    15
100
AcDbSpline
210
0.0
220
0.0
230
1.0
 70
     8
 71
     3
 72
    70
 73
    66
 74
     0
 42
0.00000001
 43
0.00000001
 40
-0.0312499999999999
 40
-0.0312499999999999
 40
0.0
 40
0.0
 40
0.0312499999999999
 40
0.0312499999999999
 40
0.0624999999999998
 40
0.0624999999999998
 40
0.0937499999999997
 40
0.0937499999999997
 40
0.1249999999999996
 40
0.1249999999999996
 40
0.1562499999999995
 40
0.1562499999999995
 40
0.1874999999999994
 40
0.1874999999999994
 40
0.2187499999999993
 40
0.2187499999999993
 40
0.2499999999999992
 40
0.2499999999999992
 40
0.2812499999999993
 40
0.2812499999999993
 40
0.3124999999999993
 40
0.3124999999999993
 40
0.3437499999999994
 40
0.3437499999999994
 40
0.3749999999999995
 40
0.3749999999999995
 40
0.4062499999999996
 40
0.4062499999999996
 40
0.4374999999999996
 40
0.4374999999999996
 40
0.4687499999999997
 40
0.4687499999999997
 40
0.4999999999999998
 40
0.4999999999999998
 40
0.5312499999999999
 40
0.5312499999999999
 40
0.5625
 40
0.5625
 40
0.5937500000000001
 40
0.5937500000000001
 40
0.6250000000000002
 40
0.6250000000000002
 40
0.6562500000000004
 40
0.6562500000000004
 40
0.6875000000000006
 40
0.6875000000000006
 40
0.7187500000000007
 40
0.7187500000000007
 40
0.7500000000000008
 40
0.7500000000000008
 40
0.7812500000000007
 40
0.7812500000000007
 40
0.8125000000000006
 40
0.8125000000000006
 40
0.8437500000000004
 40
0.8437500000000004
 40
0.8750000000000003
 40
0.8750000000000003
 40
0.9062500000000003
 40
0.9062500000000003
 40
0.9375000000000002
 40
0.9375000000000002
 40
0.9687500000000001
 40
0.9687500000000001
 40
1.0
 40
1.0
 40
1.03125
 40
1.03125
 10
87.48660827774252
 20
133.7369512874156
 30
0.0
 10
86.95751760042224
 20
133.7369512874156
 30
0.0
 10
86.69744693304513
 20
133.7528517278303
 30
0.0
 10
86.18587225320971
 20
133.8147960780046
 30
0.0
 10
85.93169696946953
 20
133.8615983120959
 30
0.0
 10
85.44742633940781
 20
133.982575295551
 30
0.0
 10
85.21778524752665
 20
134.0561776233578
 30
0.0
 10
84.78318089929317
 20
134.228001894336
 30
0.0
 10
84.57761512264655
 20
134.3270053172634
 30
0.0
 10
84.20905798205132
 20
134.5401017311762
 30
0.0
 10
84.04357699931583
 20
134.6550014473059
 30
0.0
 10
83.75115248988072
 20
134.9003683459962
 30
0.0
 10
83.62705151325424
 20
135.0288082464665
 30
0.0
 10
83.42747231650452
 20
135.2897003945524
 30
0.0
 10
83.35053873064624
 20
135.4240815658919
 30
0.0
 10
83.24768167212588
 20
135.6934015169982
 30
0.0
 10
83.22220876266675
 20
135.8260827812163
 30
0.0
 10
83.22191835209897
 20
136.0872692553473
 30
0.0
 10
83.2479429858747
 20
136.2170342935121
 30
0.0
 10
83.35009127036672
 20
136.4626169277847
 30
0.0
 10
83.42566771794988
 20
136.5792784650936
 30
0.0
 10
83.6261652490948
 20
136.8011836552482
 30
0.0
 10
83.75129409060318
 20
136.9057949091712
 30
0.0
 10
84.04065289162477
 20
137.0958413207792
 30
0.0
 10
84.20606387868024
 20
137.1826009922289
 30
0.0
 10
84.57905443682806
 20
137.3401053679805
 30
0.0
 10
84.78078746991716
 20
137.4084306327677
 30
0.0
 10
85.21364672074503
 20
137.5266603563869
 30
0.0
 10
85.44756525363441
 20
137.5769552724907
 30
0.0
 10
85.93174898877702
 20
137.6568208093803
 30
0.0
 10
86.18106461473253
 20
137.68656193718
 30
0.0
 10
86.69409713916026
 20
137.7267146786882
 30
0.0
 10
86.9593909620649
 20
137.736912948098
 30
0.0
 10
87.48172558193464
 20
137.7369894064827
 30
0.0
 10
87.74147924441637
 20
137.7271983948737
 30
0.0
 10
88.25809106006162
 20
137.6871315561349
 30
0.0
 10
88.5104571005619
 20
137.6570343892781
 30
0.0
 10
88.99198222209473
 20
137.5778121794479
 30
0.0
 10
89.22483295420828
 20
137.5280546999846
 30
0.0
 10
89.66192280264706
 20
137.4089627575342
 30
0.0
 10
89.86324379130423
 20
137.3406474959869
 30
0.0
 10
90.23232981660414
 20
137.1852465290533
 30
0.0
 10
90.40131456765582
 20
137.0970941869864
 30
0.0
 10
90.69177062431503
 20
136.9066547978701
 30
0.0
 10
90.81484243567716
 20
136.804030220171
 30
0.0
 10
91.01617867709918
 20
136.5823898735629
 30
0.0
 10
91.09339122304141
 20
136.4636357980154
 30
0.0
 10
91.19559476594148
 20
136.2189698590977
 30
0.0
 10
91.2218231173938
 20
136.0918131336492
 30
0.0
 10
91.2222995167109
 20
135.8273649877936
 30
0.0
 10
91.19655710421294
 20
135.6944643075365
 30
0.0
 10
91.09524632784907
 20
135.4276720340544
 30
0.0
 10
91.01841368845814
 20
135.2923081325858
 30
0.0
 10
90.81800984924296
 20
135.0297283372833
 30
0.0
 10
90.69533835095092
 20
134.9027531775295
 30
0.0
 10
90.40539106178669
 20
134.6586737914471
 30
0.0
 10
90.23682008242146
 20
134.5412486666933
 30
0.0
 10
89.86855048830829
 20
134.3280522057448
 30
0.0
 10
89.66748863103798
 20
134.2308780873199
 30
0.0
 10
89.23045771245306
 20
134.0575232001058
 30
0.0
 10
88.99830949932344
 20
133.9831236484491
 30
0.0
 10
88.51729921782459
 20
133.8626707689444
 30
0.0
 10
88.26519913499416
 20
133.8158123936784
 30
0.0
 10
87.74812964873516
 20
133.7528548966947
 30
0.0
 10
87.48660827774252
 20
133.7369512874156
 30
0.0
 10
86.95751760042224
 20
133.7369512874156
 30
0.0
  0
ARC
  5
88
330
1F
100
AcDbEntity
  8
0
  6
Continuous
 62
     7
370
    15
100
AcDbCircle
 10
87.2192014326
 20
120.5886007243
 30
0.0
 40
4.110793026859929
100
AcDbArc
 50
19.1727796384
 51
159.4979304662
  0
SPLINE
  5
89
330
1F
100
AcDbEntity
  8
0
  6
Continuous
 62
     7
370
    15
100
AcDbSpline
210
0.0
220
0.0
230
1.0
 70
     8
 71
     3
 72
    10
 73
     6
 74
     0
 42
0.00000001
 43
0.00000001
 40
0.0
 40
0.0
 40
0.0
 40
0.0
 40
0.5
 40
0.5
 40
1.0
 40
1.0
 40
1.0
 40
1.0
 10
95.70636047077333
 20
135.0779878926364
 30
0.0
 10
95.58482020710483
 20
135.1527140598482
 30
0.0
 10
95.48348584675588
 20
135.261659075765
 30
0.0
 10
95.34784690386745
 20
135.5120895565265
 30
0.0
 10
95.31206293908237
 20
135.6545089186255
 30
0.0
 10
95.31206293908237
 20
135.7976417436722
 30
0.0
  0
SPLINE
  5
8A
330
1F
100
AcDbEntity
  8
0
  6
Continuous
 62
     7
370
    15
100
AcDbSpline
210
0.0
220
0.0
230
1.0
 70
    24
 71
     3
 72
    12
 73
     8
 74
     0
 42
0.00000001
 43
0.00000001
 40
0.0
 40
0.0
 40
0.0
 40
0.0
 40
0.2500000000000037
 40
0.2500000000000037
 40
0.5000000000000074
 40
0.5000000000000074
 40
1.0
 40
1.0
 40
1.0
 40
1.0
 10
96.11206293908238
 20
135.0779878926364
 30
0.0
 10
96.06218625676492
 20
135.0779878926364
 30
0.0
 10
96.01418306336132
 20
135.0779878926364
 30
0.0
 10
95.93113496064937
 20
135.0779878926364
 30
0.0
 10
95.8950053811815
 20
135.0779878926364
 30
0.0
 10
95.7990933502373
 20
135.0779878926364
 30
0.0
 10
95.7493346822685
 20
135.0779878926364
 30
0.0
 10
95.70636047077333
 20
135.0779878926364
 30
0.0
  0
SPLINE
  5
8B
330
1F
100
AcDbEntity
  8
0
  6
Continuous
 62
     7
370
    15
100
AcDbSpline
210
0.0
220
0.0
230
1.0
 70
    24
 71
     3
 72
    14
 73
    10
 74
     0
 42
0.00000001
 43
0.00000001
 40
0.0
 40
0.0
 40
0.0
 40
0.0
 40
0.1249999999999991
 40
0.1249999999999991
 40
0.2499999999999982
 40
0.2499999999999982
 40
0.4999999999999998
 40
0.4999999999999998
 40
1.0
 40
1.0
 40
1.0
 40
1.0
 10
96.11206293908236
 20
82.2779878926364
 30
0.0
 10
96.04362509119592
 20
82.2779878926364
 30
0.0
 10
95.97807505243087
 20
82.27798789263642
 30
0.0
 10
95.87364841302292
 20
82.27798789263642
 30
0.0
 10
95.8311038032615
 20
82.27798789263642
 30
0.0
 10
95.71849434272124
 20
82.2779878926364
 30
0.0
 10
95.66295529570176
 20
82.2779878926364
 30
0.0
 10
95.52034360023795
 20
82.2779878926364
 30
0.0
 10
95.45693824524221
 20
82.2779878926364
 30
0.0
 10
95.40973774141465
 20
82.2779878926364
 30
0.0
  0
SPLINE
  5
8C
330
1F
100
AcDbEntity
  8
0
  6
Continuous
 62
     7
370
    15
100
AcDbSpline
210
0.0
220
0.0
230
1.0
 70
     8
 71
     3
 72
    10
 73
     6
 74
     0
 42
0.00000001
 43
0.00000001
 40
0.0
 40
0.0
 40
0.0
 40
0.0
 40
0.5
 40
0.5
 40
1.0
 40
1.0
 40
1.0
 40
1.0
 10
95.31206293908237
 20
128.8138545240978
 30
0.0
 10
95.31206293908237
 20
128.7660830161045
 30
0.0
 10
95.31422418267952
 20
128.7183732940428
 30
0.0
 10
95.32289555653969
 20
128.6230781764945
 30
0.0
 10
95.32942473949568
 20
128.5753856125279
 30
0.0
 10
95.33821056224251
 20
128.5279878926364
 30
0.0
  0
SPLINE
  5
8D
330
1F
100
AcDbEntity
  8
0
  6
Continuous
 62
     7
370
    15
100
AcDbSpline
210
0.0
220
0.0
230
1.0
 70
    24
 71
     3
 72
    14
 73
    10
 74
     0
 42
0.00000001
 43
0.00000001
 40
0.0
 40
0.0
 40
0.0
 40
0.0
 40
0.4999999999999984
 40
0.4999999999999984
 40
0.7499999999999992
 40
0.7499999999999992
 40
0.8749999999999996
 40
0.8749999999999996
 40
1.0
 40
1.0
 40
1.0
 40
1.0
 10
99.03438813675008
 20
82.2779878926364
 30
0.0
 10
98.98760343170187
 20
82.27798789263642
 30
0.0
 10
98.92555223492225
 20
82.27798789263642
 30
0.0
 10
98.78216059637165
 20
82.2779878926364
 30
0.0
 10
98.7260169428205
 20
82.2779878926364
 30
0.0
 10
98.6130659206843
 20
82.27798789263642
 30
0.0
 10
98.57006515864616
 20
82.27798789263642
 30
0.0
 10
98.46600244833971
 20
82.2779878926364
 30
0.0
 10
98.40067020998278
 20
82.27798789263643
 30
0.0
 10
98.33206293908238
 20
82.2779878926364
 30
0.0
  0
SPLINE
  5
8E
330
1F
100
AcDbEntity
  8
0
  6
Continuous
 62
     7
370
    15
100
AcDbSpline
210
0.0
220
0.0
230
1.0
 70
    24
 71
     3
 72
    12
 73
     8
 74
     0
 42
0.00000001
 43
0.00000001
 40
0.0
 40
0.0
 40
0.0
 40
0.0
 40
0.5000000000000017
 40
0.5000000000000017
 40
0.7500000000000008
 40
0.7500000000000008
 40
1.0
 40
1.0
 40
1.0
 40
1.0
 10
98.73776540739141
 20
135.0779878926364
 30
0.0
 10
98.69467985778046
 20
135.0779878926364
 30
0.0
 10
98.64552765603113
 20
135.0779878926364
 30
0.0
 10
98.54905506174322
 20
135.0779878926364
 30
0.0
 10
98.51295347660864
 20
135.0779878926364
 30
0.0
 10
98.42984771874738
 20
135.0779878926364
 30
0.0
 10
98.38185112178108
 20
135.0779878926364
 30
0.0
 10
98.33206293908236
 20
135.0779878926364
 30
0.0
  0
SPLINE
  5
8F
330
1F
100
AcDbEntity
  8
0
  6
Continuous
 62
     7
370
    15
100
AcDbSpline
210
0.0
220
0.0
230
1.0
 70
     8
 71
     3
 72
    10
 73
     6
 74
     0
 42
0.00000001
 43
0.00000001
 40
0.0
 40
0.0
 40
0.0
 40
0.0
 40
0.5
 40
0.5
 40
1.0
 40
1.0
 40
1.0
 40
1.0
 10
99.13206293908236
 20
135.7976417436722
 30
0.0
 10
99.13206293908237
 20
135.6538716858542
 30
0.0
 10
99.09601388036349
 20
135.511452323359
 30
0.0
 10
98.96050501958948
 20
135.2615580300018
 30
0.0
 10
98.86062902649331
 20
135.1535276937536
 30
0.0
 10
98.73776540739138
 20
135.0779878926364
 30
0.0
  0
SPLINE
  5
90
330
1F
100
AcDbEntity
  8
0
  6
Continuous
 62
     7
370
    15
100
AcDbSpline
210
0.0
220
0.0
230
1.0
 70
     8
 71
     3
 72
    10
 73
     6
 74
     0
 42
0.00000001
 43
0.00000001
 40
0.0
 40
0.0
 40
0.0
 40
0.0
 40
0.5
 40
0.5
 40
1.0
 40
1.0
 40
1.0
 40
1.0
 10
99.10591531592223
 20
128.5279878926364
 30
0.0
 10
99.11460495883391
 20
128.5748667419546
 30
0.0
 10
99.1211440235844
 20
128.6222892073559
 30
0.0
 10
99.12990265797744
 20
128.7182260059427
 30
0.0
 10
99.13206293908237
 20
128.7661412939532
 30
0.0
 10
99.13206293908237
 20
128.8138545240978
 30
0.0
  0
LINE
  5
91
330
1F
100
AcDbEntity
  8
0
  6
Continuous
 62
     7
370
    15
100
AcDbLine
 10
98.3320629391
 20
135.0779878926
 30
0.0
 11
96.1120629391
 21
135.0779878926
 31
0.0
  0
LINE
  5
92
330
1F
100
AcDbEntity
  8
0
  6
Continuous
 62
     7
370
    15
100
AcDbLine
 10
98.3320629391
 20
82.2779878926
 30
0.0
 11
96.1120629391
 21
82.2779878926
 31
0.0
  0
LINE
  5
93
330
1F
100
AcDbEntity
  8
0
  6
Continuous
 62
     7
370
    15
100
AcDbLine
 10
57.4220629391
 20
85.4495409988
 30
0.0
 11
57.4220629391
 21
86.7142503614
 31
0.0
  0
SPLINE
  5
94
330
1F
100
AcDbEntity
  8
0
  6
Continuous
 62
     7
370
    15
100
AcDbSpline
210
0.0
220
0.0
230
1.0
 70
     8
 71
     3
 72
    14
 73
    10
 74
     0
 42
0.00000001
 43
0.00000001
 40
0.0
 40
0.0
 40
0.0
 40
0.0
 40
0.25
 40
0.25
 40
0.5
 40
0.5
 40
0.75
 40
0.75
 40
1.0
 40
1.0
 40
1.0
 40
1.0
 10
56.64377582116667
 20
87.84483656907646
 30
0.0
 10
56.70040249636873
 20
87.7371391152396
 30
0.0
 10
56.79492515665846
 20
87.63434953352028
 30
0.0
 10
56.9779701322207
 20
87.43599222130014
 30
0.0
 10
57.06959670917541
 20
87.33993271262189
 30
0.0
 10
57.22845002686862
 20
87.15240366991264
 30
0.0
 10
57.29634063449032
 20
87.06099469712908
 30
0.0
 10
57.3932576601979
 20
86.88261847621894
 30
0.0
 10
57.42206293908295
 20
86.79539656997277
 30
0.0
 10
57.42206293908295
 20
86.71425036143852
 30
0.0
  0
SPLINE
  5
95
330
1F
100
AcDbEntity
  8
0
  6
Continuous
 62
     7
370
    15
100
AcDbSpline
210
0.0
220
0.0
230
1.0
 70
     8
 71
     3
 72
    14
 73
    10
 74
     0
 42
0.00000001
 43
0.00000001
 40
0.0
 40
0.0
 40
0.0
 40
0.0
 40
0.1249999999999975
 40
0.1249999999999975
 40
0.249999999999995
 40
0.249999999999995
 40
0.4999999999999953
 40
0.4999999999999953
 40
1.0
 40
1.0
 40
1.0
 40
1.0
 10
56.02206293908238
 20
88.29151843135578
 30
0.0
 10
56.07060734773954
 20
88.29726674463608
 30
0.0
 10
56.12352270252445
 20
88.29416585597984
 30
0.0
 10
56.2188180475075
 20
88.27197101181751
 30
0.0
 10
56.25906904479244
 20
88.25473878472165
 30
0.0
 10
56.36333905830541
 20
88.19841086826959
 30
0.0
 10
56.41366103345874
 20
88.15422452232379
 30
0.0
 10
56.54134398098412
 20
88.02321662347316
 30
0.0
 10
56.59742942804638
 20
87.93298210324286
 30
0.0
 10
56.64377582116811
 20
87.84483656907699
 30
0.0
  0
SPLINE
  5
96
330
1F
100
AcDbEntity
  8
0
  6
Continuous
 62
     7
370
    15
100
AcDbSpline
210
0.0
220
0.0
230
1.0
 70
     8
 71
     3
 72
     8
 73
     4
 74
     0
 42
0.00000001
 43
0.00000001
 40
0.0
 40
0.0
 40
0.0
 40
0.0
 40
1.0
 40
1.0
 40
1.0
 40
1.0
 10
53.75353784613615
 20
87.981673144773
 30
0.0
 10
54.48811487261911
 20
88.10029815584194
 30
0.0
 10
55.25158994201476
 20
88.20028402797823
 30
0.0
 10
56.02206293908238
 20
88.29151843135577
 30
0.0
  0
SPLINE
  5
97
330
1F
100
AcDbEntity
  8
0
  6
Continuous
 62
     7
370
    15
100
AcDbSpline
210
0.0
220
0.0
230
1.0
 70
     8
 71
     3
 72
    14
 73
    10
 74
     0
 42
0.00000001
 43
0.00000001
 40
0.0
 40
0.0
 40
0.0
 40
0.0
 40
0.500000000000001
 40
0.500000000000001
 40
0.7500000000000004
 40
0.7500000000000004
 40
0.8750000000000003
 40
0.8750000000000003
 40
1.0
 40
1.0
 40
1.0
 40
1.0
 10
48.47206293908238
 20
87.80805012724134
 30
0.0
 10
49.36420906963595
 20
87.8073279010407
 30
0.0
 10
50.25418550542955
 20
87.81191410749815
 30
0.0
 10
51.58078067250516
 20
87.8396391118897
 30
0.0
 10
52.0216276010039
 20
87.85224564951386
 30
0.0
 10
52.67806783842631
 20
87.88326179752131
 30
0.0
 10
52.89608149501819
 20
87.89560497014809
 30
0.0
 10
53.32879034870097
 20
87.92862902531137
 30
0.0
 10
53.54406681386575
 20
87.94784619044981
 30
0.0
 10
53.75353784613616
 20
87.981673144773
 30
0.0
  0
SPLINE
  5
98
330
1F
100
AcDbEntity
  8
0
  6
Continuous
 62
     7
370
    15
100
AcDbSpline
210
0.0
220
0.0
230
1.0
 70
     8
 71
     3
 72
     8
 73
     4
 74
     0
 42
0.00000001
 43
0.00000001
 40
0.0000005163856712
 40
0.0000005163856712
 40
0.0000005163856712
 40
0.0000005163856712
 40
0.000026289209185
 40
0.000026289209185
 40
0.000026289209185
 40
0.000026289209185
 10
48.46201800866369
 20
87.81803400034921
 30
0.0
 10
48.46534574687517
 20
87.81469975347639
 30
0.0
 10
48.46869419985446
 20
87.81137179619738
 30
0.0
 10
48.47206293908235
 20
87.80805012724133
 30
0.0
  0
SPLINE
  5
99
330
1F
100
AcDbEntity
  8
0
  6
Continuous
 62
     7
370
    15
100
AcDbSpline
210
0.0
220
0.0
230
1.0
 70
     8
 71
     3
 72
     8
 73
     4
 74
     0
 42
0.00000001
 43
0.00000001
 40
0.0000005099763573
 40
0.0000005099763573
 40
0.0000005099763573
 40
0.0000005099763573
 40
0.0000262827998699
 40
0.0000262827998699
 40
0.0000262827998699
 40
0.0000262827998699
 10
48.47206293908235
 20
129.5479256580315
 30
0.0
 10
48.46869419985462
 20
129.5446039890756
 30
0.0
 10
48.46534574687549
 20
129.5412760317967
 30
0.0
 10
48.46201800866416
 20
129.5379417849241
 30
0.0
  0
SPLINE
  5
9A
330
1F
100
AcDbEntity
  8
0
  6
Continuous
 62
     7
370
    15
100
AcDbSpline
210
0.0
220
0.0
230
1.0
 70
     8
 71
     3
 72
    10
 73
     6
 74
     0
 42
0.00000001
 43
0.00000001
 40
0.0
 40
0.0
 40
0.0
 40
0.0
 40
0.5
 40
0.5
 40
1.0
 40
1.0
 40
1.0
 40
1.0
 10
52.02206293908237
 20
129.5010752844642
 30
0.0
 10
51.43447739199179
 20
129.5221408047006
 30
0.0
 10
50.8437309985314
 20
129.5328992905728
 30
0.0
 10
49.65971183323255
 20
129.5462640711085
 30
0.0
 10
49.06629784502709
 20
129.548406713773
 30
0.0
 10
48.47206293908238
 20
129.5479256580315
 30
0.0
  0
SPLINE
  5
9B
330
1F
100
AcDbEntity
  8
0
  6
Continuous
 62
     7
370
    15
100
AcDbSpline
210
0.0
220
0.0
230
1.0
 70
     8
 71
     3
 72
    18
 73
    14
 74
     0
 42
0.00000001
 43
0.00000001
 40
0.0
 40
0.0
 40
0.0
 40
0.0
 40
0.2500000000000009
 40
0.2500000000000009
 40
0.500000000000001
 40
0.500000000000001
 40
0.7500000000000011
 40
0.7500000000000011
 40
0.875000000000001
 40
0.875000000000001
 40
0.9375000000000006
 40
0.9375000000000006
 40
1.0
 40
1.0
 40
1.0
 40
1.0
 10
53.42206293908239
 20
130.5220955649994
 30
0.0
 10
53.42206293908239
 20
130.4388886561422
 30
0.0
 10
53.38621383914412
 20
130.3501520008286
 30
0.0
 10
53.2613421031102
 20
130.1680268102684
 30
0.0
 10
53.17094168546232
 20
130.0728967616418
 30
0.0
 10
52.94869903072015
 20
129.8837152525175
 30
0.0
 10
52.81893424427439
 20
129.7887700844227
 30
0.0
 10
52.57829678696287
 20
129.6504913768428
 30
0.0
 10
52.49052948882542
 20
129.6047809435404
 30
0.0
 10
52.33600540161862
 20
129.546957638319
 30
0.0
 10
52.27939451556387
 20
129.5292428742811
 30
0.0
 10
52.15535048465726
 20
129.5047035710482
 30
0.0
 10
52.08763580963898
 20
129.4987244325099
 30
0.0
 10
52.02206293908237
 20
129.5010752844642
 30
0.0
  0
LINE
  5
9C
330
1F
100
AcDbEntity
  8
0
  6
Continuous
 62
     7
370
    15
100
AcDbLine
 10
53.4220629391
 20
130.522095565
 30
0.0
 11
53.4220629391
 21
131.7060339848
 31
0.0
  0
LINE
  5
9D
330
1F
100
AcDbEntity
  8
0
  6
Continuous
 62
     7
370
    15
100
AcDbLine
 10
77.2220629391
 20
84.4575570309
 30
0.0
 11
77.2220629391
 21
132.8984187544
 31
0.0
  0
SPLINE
  5
9E
330
1F
100
AcDbEntity
  8
0
  6
Continuous
 62
     7
370
    15
100
AcDbSpline
210
0.0
220
0.0
230
1.0
 70
     8
 71
     3
 72
    18
 73
    14
 74
     0
 42
0.00000001
 43
0.00000001
 40
0.0
 40
0.0
 40
0.0
 40
0.0
 40
0.0010671296451833
 40
0.1270947795731636
 40
0.252405345751277
 40
0.3766468878987096
 40
0.4391415999051428
 40
0.5008278021400407
 40
0.562425570880851
 40
0.6253162439161144
 40
0.7499985144706706
 40
0.8752758950341252
 40
0.9999999999999999
 40
0.9999999999999999
 40
0.9999999999999999
 40
0.9999999999999999
 10
65.99236377915506
 20
85.02064886972006
 30
0.0
 10
65.99145194651655
 20
85.02053409118344
 30
0.0
 10
65.88285298787959
 20
85.00686400631754
 30
0.0
 10
66.27049405552945
 20
85.0577835069331
 30
0.0
 10
67.13645873736458
 20
85.1573666799796
 30
0.0
 10
68.33686266213442
 20
85.22649056312329
 30
0.0
 10
69.39443857662314
 20
85.2304427922621
 30
0.0
 10
70.2215726635293
 20
85.20295385380707
 30
0.0
 10
71.04684453116357
 20
85.14441367739927
 30
0.0
 10
72.10120975116354
 20
85.03089251766372
 30
0.0
 10
73.26304603263885
 20
84.84774169341507
 30
0.0
 10
74.21528081402242
 20
84.64313848378016
 30
0.0
 10
74.3409858748303
 20
84.6138531330041
 30
0.0
 10
74.4036993069755
 20
84.5992428631634
 30
0.0
  0
SPLINE
  5
9F
330
1F
100
AcDbEntity
  8
0
  6
Continuous
 62
     7
370
    15
100
AcDbSpline
210
0.0
220
0.0
230
1.0
 70
     8
 71
     3
 72
    18
 73
    14
 74
     0
 42
0.00000001
 43
0.00000001
 40
0.0
 40
0.0
 40
0.0
 40
0.0
 40
0.1248907792210109
 40
0.2505384020341698
 40
0.3748721840485282
 40
0.437490765334968
 40
0.4990776265894272
 40
0.5607931536353509
 40
0.6233901338664932
 40
0.7478191038417344
 40
0.8731940995934958
 40
0.9991614644710078
 40
0.9999999999999999
 40
0.9999999999999999
 40
0.9999999999999999
 40
0.9999999999999999
 10
74.40348054145159
 20
132.756667741555
 30
0.0
 10
74.33973978873993
 20
132.742006448957
 30
0.0
 10
74.21187201156346
 20
132.7125950156855
 30
0.0
 10
73.25987279050305
 20
132.5076419116231
 30
0.0
 10
72.09932908529979
 20
132.3243781358121
 30
0.0
 10
71.04706463321168
 20
132.2113505435632
 30
0.0
 10
70.22283751814408
 20
132.1530868960219
 30
0.0
 10
69.39523374862365
 20
132.1256405080177
 30
0.0
 10
68.33641655613859
 20
132.1296253139468
 30
0.0
 10
67.13419785810359
 20
132.1987147903282
 30
0.0
 10
66.26901391841629
 20
132.2983410068849
 30
0.0
 10
65.88287349688606
 20
132.3491570804854
 30
0.0
 10
65.99094503766644
 20
132.3354849004223
 30
0.0
 10
65.99165968758672
 20
132.3353944897339
 30
0.0
  0
SPLINE
  5
A0
330
1F
100
AcDbEntity
  8
0
  6
Continuous
 62
     7
370
    15
100
AcDbSpline
210
0.0
220
0.0
230
1.0
 70
     8
 71
     3
 72
     8
 73
     4
 74
     0
 42
0.00000001
 43
0.00000001
 40
0.0
 40
0.0
 40
0.0
 40
0.0
 40
1.0
 40
1.0
 40
1.0
 40
1.0
 10
47.32206293908171
 20
88.98731014615892
 30
0.0
 10
47.3220629390817
 20
88.9759133177446
 30
0.0
 10
47.32363195539134
 20
88.96632790612668
 30
0.0
 10
47.32636941685978
 20
88.95885082736696
 30
0.0
  0
SPLINE
  5
A1
330
1F
100
AcDbEntity
  8
0
  6
Continuous
 62
     7
370
    15
100
AcDbSpline
210
0.0
220
0.0
230
1.0
 70
     8
 71
     3
 72
    12
 73
     8
 74
     0
 42
0.00000001
 43
0.00000001
 40
0.0
 40
0.0
 40
0.0
 40
0.0
 40
0.0839988866763276
 40
0.3910885625176496
 40
0.7012505400504081
 40
0.8502953555951864
 40
1.0
 40
1.0
 40
1.0
 40
1.0
 10
47.33461940012981
 20
88.94743190144291
 30
0.0
 10
47.33564037146717
 20
88.94582554827491
 30
0.0
 10
47.34039388938266
 20
88.93834656401414
 30
0.0
 10
47.35418575564628
 20
88.94017373261859
 30
0.0
 10
47.36867748891282
 20
88.95504481352017
 30
0.0
 10
47.3789889076826
 20
88.97853711630572
 30
0.0
 10
47.38281103120465
 20
88.99512372607698
 30
0.0
 10
47.38472631380578
 20
89.00343534785569
 30
0.0
  0
LINE
  5
A2
330
1F
100
AcDbEntity
  8
0
  6
Continuous
 62
     7
370
    15
100
AcDbLine
 10
47.3220629391
 20
88.9873101462
 30
0.0
 11
47.3220629391
 21
128.3686656391
 31
0.0
  0
SPLINE
  5
A3
330
1F
100
AcDbEntity
  8
0
  6
Continuous
 62
     7
370
    15
100
AcDbSpline
210
0.0
220
0.0
230
1.0
 70
     8
 71
     3
 72
    10
 73
     6
 74
     0
 42
0.00000001
 43
0.00000001
 40
0.0
 40
0.0
 40
0.0
 40
0.0
 40
0.5
 40
0.5
 40
1.0
 40
1.0
 40
1.0
 40
1.0
 10
47.38472631380578
 20
128.3525404374171
 30
0.0
 10
47.37582202469704
 20
128.3982819566303
 30
0.0
 10
47.35930664450405
 20
128.4154727960993
 30
0.0
 10
47.33219869844243
 20
128.4151495191636
 30
0.0
 10
47.32206293908239
 20
128.3972719768672
 30
0.0
 10
47.32206293908238
 20
128.3686656391146
 30
0.0
  0
SPLINE
  5
A4
330
1F
100
AcDbEntity
  8
0
  6
Continuous
 62
     7
370
    15
100
AcDbSpline
210
0.0
220
0.0
230
1.0
 70
     8
 71
     3
 72
    26
 73
    22
 74
     0
 42
0.00000001
 43
0.00000001
 40
0.0
 40
0.0
 40
0.0
 40
0.0
 40
0.2500000000000165
 40
0.2500000000000165
 40
0.3750000000000256
 40
0.3750000000000256
 40
0.4375000000000291
 40
0.4375000000000291
 40
0.4687500000000291
 40
0.4687500000000291
 40
0.5000000000000292
 40
0.5000000000000292
 40
0.5312500000000293
 40
0.5312500000000293
 40
0.5625000000000293
 40
0.5625000000000293
 40
0.625000000000026
 40
0.625000000000026
 40
0.7500000000000173
 40
0.7500000000000173
 40
1.0
 40
1.0
 40
1.0
 40
1.0
 10
48.14621658518689
 20
129.0681072262342
 30
0.0
 10
48.10761606231842
 20
128.9503325298788
 30
0.0
 10
48.06131905976416
 20
128.8259428437169
 30
0.0
 10
47.96737971133022
 20
128.6207235113634
 30
0.0
 10
47.93206824441678
 20
128.5491506449169
 30
0.0
 10
47.86588826867111
 20
128.4331974123165
 30
0.0
 10
47.84134990200287
 20
128.3926128775063
 30
0.0
 10
47.79797715644908
 20
128.3284711956345
 30
0.0
 10
47.78246875502387
 20
128.3066047703495
 30
0.0
 10
47.74742611043686
 20
128.2610105020063
 30
0.0
 10
47.72787581971709
 20
128.2373402110389
 30
0.0
 10
47.68594853934649
 20
128.1927236516989
 30
0.0
 10
47.66329642911485
 20
128.171843639181
 30
0.0
 10
47.6223227150282
 20
128.1409702254302
 30
0.0
 10
47.60472341513277
 20
128.1311313555977
 30
0.0
 10
47.56009642927664
 20
128.1121417399016
 30
0.0
 10
47.53953720662329
 20
128.1118174152482
 30
0.0
 10
47.48841176712664
 20
128.1210408561244
 30
0.0
 10
47.4675003541381
 20
128.1422877523414
 30
0.0
 10
47.41605044657717
 20
128.2162566311721
 30
0.0
 10
47.39838514727261
 20
128.2823747244869
 30
0.0
 10
47.38472631380578
 20
128.3525404374171
 30
0.0
  0
SPLINE
  5
A5
330
1F
100
AcDbEntity
  8
0
  6
Continuous
 62
     7
370
    15
100
AcDbSpline
210
0.0
220
0.0
230
1.0
 70
     8
 71
     3
 72
    10
 73
     6
 74
     0
 42
0.00000001
 43
0.00000001
 40
0.0
 40
0.0
 40
0.0
 40
0.0
 40
0.5
 40
0.5
 40
1.0
 40
1.0
 40
1.0
 40
1.0
 10
48.46201800866417
 20
129.5379417849241
 30
0.0
 10
48.39445875374594
 20
129.4702503921143
 30
0.0
 10
48.33082209840944
 20
129.3955432273607
 30
0.0
 10
48.22060134383757
 20
129.236577094934
 30
0.0
 10
48.17378505061495
 20
129.1522218289261
 30
0.0
 10
48.14621658518689
 20
129.0681072262342
 30
0.0
  0
SPLINE
  5
A6
330
1F
100
AcDbEntity
  8
0
  6
Continuous
 62
     7
370
    15
100
AcDbSpline
210
0.0
220
0.0
230
1.0
 70
     8
 71
     3
 72
    10
 73
     6
 74
     0
 42
0.00000001
 43
0.00000001
 40
0.0
 40
0.0
 40
0.0
 40
0.0
 40
0.5
 40
0.5
 40
1.0
 40
1.0
 40
1.0
 40
1.0
 10
48.14621658518692
 20
88.28786855903844
 30
0.0
 10
48.17369399994013
 20
88.20403176257285
 30
0.0
 10
48.2204026302278
 20
88.11972127498602
 30
0.0
 10
48.33068109296974
 20
87.96060004450315
 30
0.0
 10
48.39456863158139
 20
87.88561530041508
 30
0.0
 10
48.46201800866372
 20
87.81803400034921
 30
0.0
  0
SPLINE
  5
A7
330
1F
100
AcDbEntity
  8
0
  6
Continuous
 62
     7
370
    15
100
AcDbSpline
210
0.0
220
0.0
230
1.0
 70
     8
 71
     3
 72
    24
 73
    20
 74
     0
 42
0.00000001
 43
0.00000001
 40
0.0
 40
0.0
 40
0.0
 40
0.0
 40
0.25
 40
0.25
 40
0.374999999999999
 40
0.374999999999999
 40
0.4374999999999993
 40
0.4374999999999993
 40
0.4687499999999994
 40
0.4687499999999994
 40
0.4999999999999995
 40
0.4999999999999995
 40
0.5624999999999971
 40
0.5624999999999971
 40
0.6249999999999947
 40
0.6249999999999947
 40
0.7499999999999947
 40
0.7499999999999947
 40
1.0
 40
1.0
 40
1.0
 40
1.0
 10
47.38472631380578
 20
89.00343534785569
 30
0.0
 10
47.39847943247602
 20
89.07408540584596
 30
0.0
 10
47.41625199988188
 20
89.14068351861087
 30
0.0
 10
47.46850309143724
 20
89.2147815388441
 30
0.0
 10
47.48953816701879
 20
89.23603934600564
 30
0.0
 10
47.54243857464724
 20
89.24418527215188
 30
0.0
 10
47.56354424752515
 20
89.24324546875611
 30
0.0
 10
47.6095964162031
 20
89.22222947717877
 30
0.0
 10
47.62796688818651
 20
89.21132067107115
 30
0.0
 10
47.66951852325221
 20
89.17868576012378
 30
0.0
 10
47.69208519600912
 20
89.15719377975242
 30
0.0
 10
47.75486621246913
 20
89.0887278361661
 30
0.0
 10
47.78799597343703
 20
89.042653377961
 30
0.0
 10
47.84491365992205
 20
88.95764548962634
 30
0.0
 10
47.86909968542582
 20
88.91736518844495
 30
0.0
 10
47.93430763580558
 20
88.80242896197902
 30
0.0
 10
47.96902369599682
 20
88.731845976832
 30
0.0
 10
48.06223896632769
 20
88.5276402177534
 30
0.0
 10
48.10791150168838
 20
88.40474183542604
 30
0.0
 10
48.14621658518692
 20
88.28786855903847
 30
0.0
  0
SPLINE
  5
A8
330
1F
100
AcDbEntity
  8
0
  6
Continuous
 62
     7
370
    15
100
AcDbSpline
210
0.0
220
0.0
230
1.0
 70
     8
 71
     3
 72
    39
 73
    35
 74
     0
 42
0.00000001
 43
0.00000001
 40
-0.0928098421162831
 40
-0.0617034306059376
 40
-0.0305299624236129
 40
0.0
 40
0.0305538645806999
 40
0.0617342229576985
 40
0.0928524521279844
 40
0.123944273203092
 40
0.1551263163329091
 40
0.1867203328768986
 40
0.2185055218179407
 40
0.2499267493270726
 40
0.2813715591332255
 40
0.3132224564732667
 40
0.3448874983159137
 40
0.3761203570732648
 40
0.4072073710856685
 40
0.4382796783015847
 40
0.4694125787356554
 40
0.5000112827606752
 40
0.5306014508049116
 40
0.5617732316877305
 40
0.5928577352005513
 40
0.6239624052471522
 40
0.6551724327557453
 40
0.6868187306052012
 40
0.7186212033203059
 40
0.7500671669596746
 40
0.7814821074169087
 40
0.8133060958935601
 40
0.8449172376400689
 40
0.8761199144779241
 40
0.9071901578837169
 40
0.9382965693940624
 40
0.9694700375763871
 40
1.0
 40
1.0305538645807
 40
1.061734222957698
 40
1.092852452127984
 10
218.3850137501397
 20
102.6843062923857
 30
0.0
 10
217.2217563703597
 20
102.5654934860098
 30
0.0
 10
216.0584434964105
 20
102.6845260795113
 30
0.0
 10
214.941804809605
 20
103.0417408855988
 30
0.0
 10
213.9101385968837
 20
103.6028037795999
 30
0.0
 10
213.0152729163616
 20
104.3590182468693
 30
0.0
 10
212.2802385291521
 20
105.279024235751
 30
0.0
 10
211.7359904306693
 20
106.3363202179344
 30
0.0
 10
211.3902766166156
 20
107.4822220533931
 30
0.0
 10
211.2758490797854
 20
108.6754495038365
 30
0.0
 10
211.390927544456
 20
109.8694247368605
 30
0.0
 10
211.7369452085765
 20
111.0173000770921
 30
0.0
 10
212.2813670254114
 20
112.0771575905493
 30
0.0
 10
213.0168922295007
 20
112.998667279861
 30
0.0
 10
213.9113918636945
 20
113.7552590646897
 30
0.0
 10
214.9418286937631
 20
114.3160844363187
 30
0.0
 10
216.0582592683368
 20
114.672208586113
 30
0.0
 10
217.2223419918438
 20
114.7902979314986
 30
0.0
 10
218.3868829013888
 20
114.6718561111068
 30
0.0
 10
219.5036779815575
 20
114.3151360105857
 30
0.0
 10
220.5348085281609
 20
113.7537945350298
 30
0.0
 10
221.4290836995449
 20
112.9967569846567
 30
0.0
 10
222.1640369198351
 20
112.0752051345069
 30
0.0
 10
222.7078085337475
 20
111.01626570001
 30
0.0
 10
223.0531886382368
 20
109.869084457633
 30
0.0
 10
223.1682611847277
 20
108.6758106047555
 30
0.0
 10
223.0539278212066
 20
107.4821333871703
 30
0.0
 10
222.7077929139734
 20
106.3356911225513
 30
0.0
 10
222.1630816364868
 20
105.2775595317438
 30
0.0
 10
221.4275440742755
 20
104.3576607628864
 30
0.0
 10
220.5324816250892
 20
103.6019403227163
 30
0.0
 10
219.5011292449727
 20
103.0413961034802
 30
0.0
 10
218.3850137501397
 20
102.6843062923857
 30
0.0
 10
217.2217563703597
 20
102.5654934860098
 30
0.0
 10
216.0584434964105
 20
102.6845260795113
 30
0.0
  0
LINE
  5
A9
330
1F
100
AcDbEntity
  8
0
  6
Continuous
 62
     7
370
    15
100
AcDbLine
 10
225.2827679558
 20
86.1779878926
 30
0.0
 11
225.2827679558
 21
131.1779878926
 31
0.0
  0
SPLINE
  5
AA
330
1F
100
AcDbEntity
  8
0
  6
Continuous
 62
     7
370
    15
100
AcDbSpline
210
0.0
220
0.0
230
1.0
 70
     8
 71
     3
 72
    33
 73
    29
 74
     0
 42
0.00000001
 43
0.00000001
 40
0.0
 40
0.0
 40
0.0
 40
0.0
 40
0.0044501545292141
 40
0.0519058595766478
 40
0.0957568484699134
 40
0.1407774665923462
 40
0.1867157979563755
 40
0.233754507063388
 40
0.2844923800484225
 40
0.3364345199714681
 40
0.3926143915913504
 40
0.4502196769349867
 40
0.5102598901780332
 40
0.5719697470118577
 40
0.6024904665802183
 40
0.6332291300947843
 40
0.6646731013547756
 40
0.696369938246647
 40
0.7259613709160818
 40
0.755783763719846
 40
0.7863800926826415
 40
0.8172657984733113
 40
0.8442076803907586
 40
0.8713755739928983
 40
0.8993060291265579
 40
0.9275217520324168
 40
0.9750398264674206
 40
1.0
 40
1.0
 40
1.0
 40
1.0
 10
154.6684357290391
 20
131.1775452449819
 30
0.0
 10
154.6696207735139
 20
131.177689848716
 30
0.0
 10
154.6834429344525
 20
131.1793764825321
 30
0.0
 10
154.6298669631881
 20
131.1727998229149
 30
0.0
 10
154.5065239695625
 20
131.158020656332
 30
0.0
 10
154.3059592287223
 20
131.1350374857685
 30
0.0
 10
154.0376351980252
 20
131.1064296762722
 30
0.0
 10
153.6982282475475
 20
131.0737117801565
 30
0.0
 10
153.2910463057874
 20
131.0396888587051
 30
0.0
 10
152.8119507605832
 20
131.0070861681668
 30
0.0
 10
152.2737433901401
 20
130.9801671833078
 30
0.0
 10
151.6819232407303
 20
130.9626819287418
 30
0.0
 10
151.0579211297374
 20
130.9580119397966
 30
0.0
 10
150.5302667241983
 20
130.9662755561784
 30
0.0
 10
150.1152641699677
 20
130.979798636921
 30
0.0
 10
149.8098041251222
 20
130.9931058757871
 30
0.0
 10
149.5105660793316
 20
131.0093748124145
 30
0.0
 10
149.2275921292656
 20
131.027723826085
 30
0.0
 10
148.9641338567699
 20
131.0473317553671
 30
0.0
 10
148.7201203326539
 20
131.0676182002487
 30
0.0
 10
148.4919139986071
 20
131.0884578668565
 30
0.0
 10
148.2926223276214
 20
131.1081568169959
 30
0.0
 10
148.1231864372714
 20
131.1259537853227
 30
0.0
 10
147.9817423411993
 20
131.1415303854431
 30
0.0
 10
147.8622628401307
 20
131.155216981344
 30
0.0
 10
147.749881391601
 20
131.1684826035477
 30
0.0
 10
147.6751208905512
 20
131.1776116961223
 30
0.0
 10
147.6816767334858
 20
131.1768111702896
 30
0.0
 10
147.6839344450322
 20
131.1765354839386
 30
0.0
  0
SPLINE
  5
AB
330
1F
100
AcDbEntity
  8
0
  6
Continuous
 62
     7
370
    15
100
AcDbSpline
210
0.0
220
0.0
230
1.0
 70
     8
 71
     3
 72
    70
 73
    66
 74
     0
 42
0.00000001
 43
0.00000001
 40
-0.03125
 40
-0.03125
 40
0.0
 40
0.0
 40
0.03125
 40
0.03125
 40
0.0625
 40
0.0625
 40
0.09375
 40
0.09375
 40
0.1250000000000001
 40
0.1250000000000001
 40
0.1562500000000001
 40
0.1562500000000001
 40
0.1875000000000001
 40
0.1875000000000001
 40
0.2187500000000001
 40
0.2187500000000001
 40
0.2500000000000001
 40
0.2500000000000001
 40
0.2812500000000001
 40
0.2812500000000001
 40
0.3125
 40
0.3125
 40
0.34375
 40
0.34375
 40
0.3749999999999999
 40
0.3749999999999999
 40
0.4062499999999999
 40
0.4062499999999999
 40
0.4374999999999998
 40
0.4374999999999998
 40
0.4687499999999998
 40
0.4687499999999998
 40
0.4999999999999998
 40
0.4999999999999998
 40
0.5312499999999998
 40
0.5312499999999998
 40
0.5624999999999998
 40
0.5624999999999998
 40
0.5937499999999998
 40
0.5937499999999998
 40
0.6249999999999998
 40
0.6249999999999998
 40
0.6562499999999999
 40
0.6562499999999999
 40
0.6874999999999999
 40
0.6874999999999999
 40
0.7187499999999999
 40
0.7187499999999999
 40
0.7499999999999999
 40
0.7499999999999999
 40
0.7812499999999999
 40
0.7812499999999999
 40
0.8124999999999999
 40
0.8124999999999999
 40
0.8437499999999999
 40
0.8437499999999999
 40
0.8749999999999999
 40
0.8749999999999999
 40
0.90625
 40
0.90625
 40
0.9375
 40
0.9375
 40
0.96875
 40
0.96875
 40
1.0
 40
1.0
 40
1.03125
 40
1.03125
 10
148.6443306895672
 20
110.8415648197741
 30
0.0
 10
148.9826341546022
 20
111.1177858908894
 30
0.0
 10
149.1621549163392
 20
111.2376574872505
 30
0.0
 10
149.540067938001
 20
111.4443712934795
 30
0.0
 10
149.7398736064577
 20
111.5316276863182
 30
0.0
 10
150.1523733509104
 20
111.6704647005333
 30
0.0
 10
150.3622730331864
 20
111.7213914235437
 30
0.0
 10
150.7890636490183
 20
111.7879200844103
 30
0.0
 10
151.0079679567064
 20
111.803408760137
 30
0.0
 10
151.4420767644252
 20
111.7974841303052
 30
0.0
 10
151.6567098989746
 20
111.776490779738
 30
0.0
 10
152.081182210468
 20
111.6987625514637
 30
0.0
 10
152.2930655732011
 20
111.6411857926051
 30
0.0
 10
152.6997616619414
 20
111.4916068836753
 30
0.0
 10
152.8944763930394
 20
111.4001536347989
 30
0.0
 10
153.2662965684387
 20
111.183111546109
 30
0.0
 10
153.4452901021178
 20
111.0557624152821
 30
0.0
 10
153.772014253333
 20
110.7722640371529
 30
0.0
 10
153.9200063985525
 20
110.6166987924848
 30
0.0
 10
154.1835975235679
 20
110.2763103368833
 30
0.0
 10
154.3002213620073
 20
110.0887223131265
 30
0.0
 10
154.4864398648022
 20
109.6988223424867
 30
0.0
 10
154.5574471911052
 20
109.4957094442826
 30
0.0
 10
154.6523000991614
 20
109.0720219125397
 30
0.0
 10
154.6750029395113
 20
108.8524716919994
 30
0.0
 10
154.6684978340644
 20
108.4204756944562
 30
0.0
 10
154.6393628071909
 20
108.2023749752734
 30
0.0
 10
154.5317413260185
 20
107.7804495123698
 30
0.0
 10
154.4544542698922
 20
107.5783672363238
 30
0.0
 10
154.2553556199219
 20
107.1909993473221
 30
0.0
 10
154.1343853897506
 20
107.008360121276
 30
0.0
 10
153.8602551920343
 20
106.6738107880495
 30
0.0
 10
153.7044038402687
 20
106.5188238950148
 30
0.0
 10
153.3689474679216
 20
106.2436503496715
 30
0.0
 10
153.1896632421518
 20
106.1230320844985
 30
0.0
 10
152.8091292513184
 20
105.9138889220274
 30
0.0
 10
152.6079295121804
 20
105.8259191491041
 30
0.0
 10
152.1983786405553
 20
105.6874161643281
 30
0.0
 10
151.9882721694873
 20
105.6358393382914
 30
0.0
 10
151.5573302164789
 20
105.5681599886545
 30
0.0
 10
151.3396069455465
 20
105.552778205525
 30
0.0
 10
150.9077834232359
 20
105.5581605766417
 30
0.0
 10
150.6924204680401
 20
105.5787131685744
 30
0.0
 10
150.2628384311188
 20
105.6570895724275
 30
0.0
 10
150.0530112760789
 20
105.7142717007712
 30
0.0
 10
149.6484745377924
 20
105.8626608722228
 30
0.0
 10
149.4528627968073
 20
105.9540033207276
 30
0.0
 10
149.0760100054581
 20
106.1738695568475
 30
0.0
 10
148.8993407107508
 20
106.299935773238
 30
0.0
 10
148.5744799453211
 20
106.581497636816
 30
0.0
 10
148.4254461864758
 20
106.7374170111626
 30
0.0
 10
148.1576086955046
 20
107.0835833642847
 30
0.0
 10
148.0439486558325
 20
107.2672964017609
 30
0.0
 10
147.8583302488939
 20
107.6556697103367
 30
0.0
 10
147.7856796034855
 20
107.8633482914597
 30
0.0
 10
147.6911169221213
 20
108.2885260098137
 30
0.0
 10
147.6690270809047
 20
108.50344138042
 30
0.0
 10
147.6757607962506
 20
108.937977787596
 30
0.0
 10
147.7054980847589
 20
109.1572986221654
 30
0.0
 10
147.8129581786197
 20
109.5769489099947
 30
0.0
 10
147.8917985426346
 20
109.7825916464877
 30
0.0
 10
148.091540672063
 20
110.1695006472968
 30
0.0
 10
148.2112651687992
 20
110.3499401376017
 30
0.0
 10
148.4878641944852
 20
110.6865655844011
 30
0.0
 10
148.6443306895672
 20
110.8415648197741
 30
0.0
 10
148.9826341546022
 20
111.1177858908894
 30
0.0
  0
LINE
  5
AC
330
1F
100
AcDbEntity
  8
0
  6
Continuous
 62
     7
370
    15
100
AcDbLine
 10
148.8134824214
 20
86.2960256279
 30
0.0
 11
148.7168921804
 21
86.2872646111
 31
0.0
  0
SPLINE
  5
AD
330
1F
100
AcDbEntity
  8
0
  6
Continuous
 62
     7
370
    15
100
AcDbSpline
210
0.0
220
0.0
230
1.0
 70
     8
 71
     3
 72
    33
 73
    29
 74
     0
 42
0.00000001
 43
0.00000001
 40
0.0
 40
0.0
 40
0.0
 40
0.0
 40
0.0023071160127625
 40
0.0498497906262546
 40
0.0936986512919175
 40
0.1387212899684076
 40
0.1845752208087493
 40
0.2315289769750661
 40
0.2821415962238345
 40
0.333954559222813
 40
0.3900209235383285
 40
0.4475069610891939
 40
0.5074884632034297
 40
0.5691345158474065
 40
0.5996582605261256
 40
0.6303995979765584
 40
0.6618445717820107
 40
0.6935415649432788
 40
0.7231741015573319
 40
0.7530374024713271
 40
0.7836734551448405
 40
0.8145982309460257
 40
0.8416160596050237
 40
0.8688604093912768
 40
0.8968694003198527
 40
0.9251646590445315
 40
0.972812185736722
 40
1.0
 40
1.0
 40
1.0
 40
1.0
 10
147.6740429271155
 20
86.17822935626262
 30
0.0
 10
147.6733879506992
 20
86.17814948554243
 30
0.0
 10
147.6592358937418
 20
86.17642372114375
 30
0.0
 10
147.7106153804825
 20
86.18273001308349
 30
0.0
 10
147.830028078625
 20
86.19706157514698
 30
0.0
 10
148.027531990553
 20
86.21975443416643
 30
0.0
 10
148.2926859310814
 20
86.24813263515149
 30
0.0
 10
148.6288565235006
 20
86.28071552115856
 30
0.0
 10
149.0328561187507
 20
86.3147327930345
 30
0.0
 10
149.5089006972748
 20
86.34749303434813
 30
0.0
 10
150.0444333392545
 20
86.37475009647467
 30
0.0
 10
150.6343030996863
 20
86.39275446804784
 30
0.0
 10
151.2571884800308
 20
86.39806418044907
 30
0.0
 10
151.784848548611
 20
86.39035961749836
 30
0.0
 10
152.2004176969051
 20
86.37724788600057
 30
0.0
 10
152.5066854733253
 20
86.3642129574497
 30
0.0
 10
152.8069529954788
 20
86.34817788963238
 30
0.0
 10
153.0912911815659
 20
86.33000133548832
 30
0.0
 10
153.3564210827934
 20
86.31049600167152
 30
0.0
 10
153.6023856300987
 20
86.29024042881534
 30
0.0
 10
153.8327494068224
 20
86.26936677585967
 30
0.0
 10
154.0344051709635
 20
86.24955999389066
 30
0.0
 10
154.2063336624811
 20
86.23159332172649
 30
0.0
 10
154.3503532701904
 20
86.21579748740484
 30
0.0
 10
154.4724527226733
 20
86.20185458081986
 30
0.0
 10
154.5882747162081
 20
86.18821344071566
 30
0.0
 10
154.6671056196471
 20
86.1785973990775
 30
0.0
 10
154.6620763024995
 20
86.17921043691136
 30
0.0
 10
154.6602491425141
 20
86.17943315466144
 30
0.0
  0
LINE
  5
AE
330
1F
100
AcDbEntity
  8
0
  6
Continuous
 62
     7
370
    15
100
AcDbLine
 10
148.9340045116
 20
86.3053477604
 30
0.0
 11
148.8134824214
 21
86.2960256279
 31
0.0
  0
CIRCLE
  5
AF
330
1F
100
AcDbEntity
  8
0
  6
Continuous
 62
     7
370
    15
100
AcDbCircle
 10
151.1720629391
 20
108.6779878926
 30
0.0
 40
2.5
  0
LINE
  5
B0
330
1F
100
AcDbEntity
  8
0
  6
Continuous
 62
     7
370
    15
100
AcDbLine
 10
99.1320629391
 20
128.8138545241
 30
0.0
 11
99.1320629391
 21
129.7281315602
 31
0.0
  0
SPLINE
  5
B1
330
1F
100
AcDbEntity
  8
0
  6
Continuous
 62
     7
370
    15
100
AcDbSpline
210
0.0
220
0.0
230
1.0
 70
     8
 71
     3
 72
     8
 73
     4
 74
     0
 42
0.00000001
 43
0.00000001
 40
0.0
 40
0.0
 40
0.0
 40
0.0
 40
1.0
 40
1.0
 40
1.0
 40
1.0
 10
99.13206293908237
 20
129.7281315602197
 30
0.0
 10
99.61134108967222
 20
130.8691427900723
 30
0.0
 10
100.1069089288122
 20
132.0055272008402
 30
0.0
 10
100.6139957705714
 20
133.1366775550039
 30
0.0
  0
LINE
  5
B2
330
1F
100
AcDbEntity
  8
0
  6
Continuous
 62
     7
370
    15
100
AcDbLine
 10
100.6139957706
 20
133.136677555
 30
0.0
 11
104.5720629391
 21
133.136677555
 31
0.0
  0
SPLINE
  5
B3
330
1F
100
AcDbEntity
  8
0
  6
Continuous
 62
     7
370
    15
100
AcDbSpline
210
0.0
220
0.0
230
1.0
 70
     8
 71
     3
 72
    12
 73
     8
 74
     0
 42
0.00000001
 43
0.00000001
 40
0.0
 40
0.0
 40
0.0
 40
0.0
 40
0.25
 40
0.25
 40
0.5
 40
0.5
 40
1.0
 40
1.0
 40
1.0
 40
1.0
 10
104.5720629390824
 20
133.1366775550039
 30
0.0
 10
104.663262660908
 20
133.1366775550039
 30
0.0
 10
104.7538576700441
 20
133.108457856416
 30
0.0
 10
104.9072703964907
 20
133.0140148491679
 30
0.0
 10
104.9724792638144
 20
132.9477278724626
 30
0.0
 10
105.1252637931543
 20
132.7221030491743
 30
0.0
 10
105.1720629390824
 20
132.5396767861417
 30
0.0
 10
105.1720629390824
 20
132.3589401538948
 30
0.0
  0
LINE
  5
B4
330
1F
100
AcDbEntity
  8
0
  6
Continuous
 62
     7
370
    15
100
AcDbLine
 10
105.1720629391
 20
132.3589401539
 30
0.0
 11
105.1720629391
 21
128.5279878926
 31
0.0
  0
SPLINE
  5
B5
330
1F
100
AcDbEntity
  8
0
  6
Continuous
 62
     7
370
    15
100
AcDbSpline
210
0.0
220
0.0
230
1.0
 70
     8
 71
     3
 72
    10
 73
     6
 74
     0
 42
0.00000001
 43
0.00000001
 40
0.0
 40
0.0
 40
0.0
 40
0.0
 40
0.5
 40
0.5
 40
1.0
 40
1.0
 40
1.0
 40
1.0
 10
105.1720629390824
 20
138.5244282164003
 30
0.0
 10
105.1720629390824
 20
138.6848334827511
 30
0.0
 10
105.1098251079755
 20
138.8438952957397
 30
0.0
 10
104.8906901842329
 20
139.07480776137
 30
0.0
 10
104.7331014892411
 20
139.1451833658007
 30
0.0
 10
104.5720629390824
 20
139.1451833658007
 30
0.0
  0
LINE
  5
B6
330
1F
100
AcDbEntity
  8
0
  6
Continuous
 62
     7
370
    15
100
AcDbLine
 10
105.1720629391
 20
132.3589401539
 30
0.0
 11
105.1720629391
 21
138.5244282164
 31
0.0
  0
SPLINE
  5
B7
330
1F
100
AcDbEntity
  8
0
  6
Continuous
 62
     7
370
    15
100
AcDbSpline
210
0.0
220
0.0
230
1.0
 70
     8
 71
     3
 72
     8
 73
     4
 74
     0
 42
0.00000001
 43
0.00000001
 40
0.0
 40
0.0
 40
0.0
 40
0.0
 40
1.0
 40
1.0
 40
1.0
 40
1.0
 10
93.83013010759332
 20
133.1366775550039
 30
0.0
 10
94.3372169493526
 20
132.0055272008402
 30
0.0
 10
94.83278478849252
 20
130.8691427900723
 30
0.0
 10
95.31206293908237
 20
129.7281315602197
 30
0.0
  0
LINE
  5
B8
330
1F
100
AcDbEntity
  8
0
  6
Continuous
 62
     7
370
    15
100
AcDbLine
 10
95.3120629391
 20
129.7281315602
 30
0.0
 11
95.3120629391
 21
128.8138545241
 31
0.0
  0
LINE
  5
B9
330
1F
100
AcDbEntity
  8
0
  6
Continuous
 62
     7
370
    15
100
AcDbLine
 10
104.5720629391
 20
139.1451833658
 30
0.0
 11
100.6139957706
 21
139.1451833658
 31
0.0
  0
LINE
  5
BA
330
1F
100
AcDbEntity
  8
0
  6
Continuous
 62
     7
370
    15
100
AcDbLine
 10
100.6139957706
 20
133.136677555
 30
0.0
 11
100.6139957706
 21
139.1451833658
 31
0.0
  0
SPLINE
  5
BB
330
1F
100
AcDbEntity
  8
0
  6
Continuous
 62
     7
370
    15
100
AcDbSpline
210
0.0
220
0.0
230
1.0
 70
     8
 71
     3
 72
     8
 73
     4
 74
     0
 42
0.00000001
 43
0.00000001
 40
0.0
 40
0.0
 40
0.0
 40
0.0
 40
1.0
 40
1.0
 40
1.0
 40
1.0
 10
95.31206293908237
 20
136.483222083808
 30
0.0
 10
94.81935284223661
 20
137.3712410819344
 30
0.0
 10
94.32527013695764
 20
138.2585037176204
 30
0.0
 10
93.83013010759332
 20
139.1451833658007
 30
0.0
  0
LINE
  5
BC
330
1F
100
AcDbEntity
  8
0
  6
Continuous
 62
     7
370
    15
100
AcDbLine
 10
95.3120629391
 20
129.7281315602
 30
0.0
 11
95.3120629391
 21
136.4832220838
 31
0.0
  0
SPLINE
  5
BD
330
1F
100
AcDbEntity
  8
0
  6
Continuous
 62
     7
370
    15
100
AcDbSpline
210
0.0
220
0.0
230
1.0
 70
     8
 71
     3
 72
     8
 73
     4
 74
     0
 42
0.00000001
 43
0.00000001
 40
0.0
 40
0.0
 40
0.0
 40
0.0
 40
1.0
 40
1.0
 40
1.0
 40
1.0
 10
100.6139957705714
 20
139.1451833658007
 30
0.0
 10
100.1188557412071
 20
138.2585037176204
 30
0.0
 10
99.62477303592811
 20
137.3712410819344
 30
0.0
 10
99.13206293908236
 20
136.483222083808
 30
0.0
  0
LINE
  5
BE
330
1F
100
AcDbEntity
  8
0
  6
Continuous
 62
     7
370
    15
100
AcDbLine
 10
99.1320629391
 20
129.7281315602
 30
0.0
 11
99.1320629391
 21
136.4832220838
 31
0.0
  0
ARC
  5
BF
330
1F
100
AcDbEntity
  8
0
  6
Continuous
 62
     7
370
    15
100
AcDbCircle
 10
87.2221444265
 20
127.4467174418
 30
0.0
 40
7.189591690268884
100
AcDbArc
 50
70.6423071679
 51
109.3836548569
  0
LINE
  5
C0
330
1F
100
AcDbEntity
  8
0
  6
Continuous
 62
     7
370
    15
100
AcDbLine
 10
239.2220629391
 20
93.9521284143
 30
0.0
 11
239.2220629391
 21
123.403847327
 31
0.0
  0
CIRCLE
  5
C1
330
1F
100
AcDbEntity
  8
0
  6
Continuous
 62
     7
370
    15
100
AcDbCircle
 10
217.2220629391
 20
108.6779878926
 30
0.0
 40
5.100000000000006
  0
LINE
  5
C2
330
1F
100
AcDbEntity
  8
0
  6
Continuous
 62
     7
370
    15
100
AcDbLine
 10
215.6693100086
 20
111.7745922162
 30
0.0
 11
213.7639484641
 21
108.8815665708
 31
0.0
  0
LINE
  5
C3
330
1F
100
AcDbEntity
  8
0
  6
Continuous
 62
     7
370
    15
100
AcDbLine
 10
215.3167013946
 20
105.7849622472
 30
0.0
 11
213.7639484641
 21
108.8815665708
 31
0.0
  0
LINE
  5
C4
330
1F
100
AcDbEntity
  8
0
  6
Continuous
 62
     7
370
    15
100
AcDbLine
 10
218.7748158696
 20
105.5813835691
 30
0.0
 11
215.3167013946
 21
105.7849622472
 31
0.0
  0
LINE
  5
C5
330
1F
100
AcDbEntity
  8
0
  6
Continuous
 62
     7
370
    15
100
AcDbLine
 10
218.7748158696
 20
105.5813835691
 30
0.0
 11
220.680177414
 21
108.4744092145
 31
0.0
  0
LINE
  5
C6
330
1F
100
AcDbEntity
  8
0
  6
Continuous
 62
     7
370
    15
100
AcDbLine
 10
219.1274244835
 20
111.571013538
 30
0.0
 11
215.6693100086
 21
111.7745922162
 31
0.0
  0
LINE
  5
C7
330
1F
100
AcDbEntity
  8
0
  6
Continuous
 62
     7
370
    15
100
AcDbLine
 10
219.1274244835
 20
111.571013538
 30
0.0
 11
220.680177414
 21
108.4744092145
 31
0.0
  0
LINE
  5
C8
330
1F
100
AcDbEntity
  8
0
  6
Continuous
 62
     7
370
    15
100
AcDbLine
 10
239.2929707982
 20
99.3697071565
 30
0.0
 11
239.2869638747
 21
99.3295046486
 31
0.0
  0
ARC
  5
C9
330
1F
100
AcDbEntity
  8
0
  6
Continuous
 62
     7
370
    15
100
AcDbCircle
 10
218.4067549861
 20
99.9440059331
 30
0.0
 40
20.89410993642725
100
AcDbArc
 50
358.4249608716
 51
4.9777245001
  0
LWPOLYLINE
  5
CA
330
1F
100
AcDbEntity
  8
0
  6
Continuous
 62
     7
370
    15
100
AcDbPolyline
 90
        6
 70
   128
 43
0.0
 10
239.2964881232
 20
117.8887963659
 10
239.287537611
 20
118.0230387412
 10
239.2729935614
 20
117.9724421784
 10
239.2550701742
 20
117.7447095458
 10
239.2364961225
 20
117.3745110721
 10
239.2220629391
 20
116.9815619436
  0
ARC
  5
CB
330
1F
100
AcDbEntity
  8
0
  6
Continuous
 62
     7
370
    15
100
AcDbCircle
 10
215.7948672184
 20
117.5090967519
 30
0.0
 40
23.50468797819249
100
AcDbArc
 50
355.3461869632
 51
0.9256081893
  0
LINE
  5
CC
330
1F
100
AcDbEntity
  8
0
  6
Continuous
 62
     7
370
    15
100
AcDbLine
 10
239.2257775976
 20
116.7733242261
 30
0.0
 11
239.2220629391
 21
116.4076840752
 31
0.0
  0
LINE
  5
CD
330
1F
100
AcDbEntity
  8
0
  6
Continuous
 62
     7
370
    15
100
AcDbLine
 10
239.2433669446
 20
116.0776372966
 30
0.0
 11
239.2220629391
 21
116.0473286678
 31
0.0
  0
LINE
  5
CE
330
1F
100
AcDbEntity
  8
0
  6
Continuous
 62
     7
370
    15
100
AcDbLine
 10
239.2758149257
 20
116.8445109708
 30
0.0
 11
239.2433669446
 21
116.0776372966
 31
0.0
  0
LINE
  5
CF
330
1F
100
AcDbEntity
  8
0
  6
Continuous
 62
     7
370
    15
100
AcDbLine
 10
239.2758149257
 20
116.8445109708
 30
0.0
 11
239.2832442427
 21
117.5757912726
 31
0.0
  0
LINE
  5
D0
330
1F
100
AcDbEntity
  8
0
  6
Continuous
 62
     7
370
    15
100
AcDbLine
 10
239.2582255786
 20
117.5401979003
 30
0.0
 11
239.2832442427
 21
117.5757912726
 31
0.0
  0
LINE
  5
D1
330
1F
100
AcDbEntity
  8
0
  6
Continuous
 62
     7
370
    15
100
AcDbLine
 10
239.2582255786
 20
117.5401979003
 30
0.0
 11
239.2257775976
 21
116.7733242261
 31
0.0
  0
LINE
  5
D2
330
1F
100
AcDbEntity
  8
0
  6
Continuous
 62
     7
370
    15
100
AcDbLine
 10
239.2220629391
 20
116.0782291709
 30
0.0
 11
239.2433669446
 21
116.0776372966
 31
0.0
  0
LINE
  5
D3
330
1F
100
AcDbEntity
  8
0
  6
Continuous
 62
     7
370
    15
100
AcDbLine
 10
239.2288448677
 20
116.8458159071
 30
0.0
 11
239.2758149257
 21
116.8445109708
 31
0.0
  0
LINE
  5
D4
330
1F
100
AcDbEntity
  8
0
  6
HIDDEN
 62
     7
370
     0
100
AcDbLine
 10
93.8301301076
 20
133.136677555
 30
0.0
 11
93.8301301076
 21
128.5279878926
 31
0.0
  0
ARC
  5
D5
330
1F
100
AcDbEntity
  8
0
  6
HIDDEN
 62
     7
370
     0
100
AcDbCircle
 10
87.5020185784
 20
121.1769083395
 30
0.0
 40
3.679671107484544
100
AcDbArc
 50
265.6366231594
 51
11.9475363038
  0
ARC
  5
D6
330
1F
100
AcDbEntity
  8
0
  6
HIDDEN
 62
     7
370
     0
100
AcDbCircle
 10
86.9388521175
 20
121.169003444
 30
0.0
 40
3.672038798844937
100
AcDbArc
 50
166.4655616651
 51
274.4234051753
  0
LINE
  5
D7
330
1F
100
AcDbEntity
  8
0
  6
HIDDEN
 62
     7
370
     0
100
AcDbLine
 10
67.2172131437
 20
85.1533882698
 30
0.0
 11
66.6830677145
 21
85.0987736703
 31
0.0
  0
LINE
  5
D8
330
1F
100
AcDbEntity
  8
0
  6
HIDDEN
 62
     7
370
     0
100
AcDbLine
 10
66.4454140425
 20
132.2813210731
 30
0.0
 11
67.2171204234
 21
132.2025709226
 31
0.0
  0
SPLINE
  5
D9
330
1F
100
AcDbEntity
  8
0
  6
HIDDEN
 62
     7
370
     0
100
AcDbSpline
210
0.0
220
0.0
230
1.0
 70
     8
 71
     3
 72
    90
 73
    86
 74
     0
 42
0.00000001
 43
0.00000001
 40
-0.031250000000002
 40
-0.031250000000002
 40
0.0
 40
0.0
 40
0.0312499999999969
 40
0.0312499999999969
 40
0.0468749999999965
 40
0.0468749999999965
 40
0.0624999999999962
 40
0.0624999999999962
 40
0.0937499999999954
 40
0.0937499999999954
 40
0.1249999999999946
 40
0.1249999999999946
 40
0.1562499999999938
 40
0.1562499999999938
 40
0.1718749999999927
 40
0.1718749999999927
 40
0.1874999999999916
 40
0.1874999999999916
 40
0.2187499999999905
 40
0.2187499999999905
 40
0.2499999999999893
 40
0.2499999999999893
 40
0.2656249999999887
 40
0.2656249999999887
 40
0.2812499999999881
 40
0.2812499999999881
 40
0.3124999999999875
 40
0.3124999999999875
 40
0.3281249999999871
 40
0.3281249999999871
 40
0.3437499999999867
 40
0.3437499999999867
 40
0.3593749999999863
 40
0.3593749999999863
 40
0.374999999999986
 40
0.374999999999986
 40
0.4062499999999868
 40
0.4062499999999868
 40
0.4374999999999876
 40
0.4374999999999876
 40
0.4687499999999885
 40
0.4687499999999885
 40
0.48437499999999
 40
0.48437499999999
 40
0.4999999999999916
 40
0.4999999999999916
 40
0.5312499999999922
 40
0.5312499999999922
 40
0.562499999999993
 40
0.562499999999993
 40
0.5781249999999922
 40
0.5781249999999922
 40
0.5937499999999916
 40
0.5937499999999916
 40
0.6249999999999921
 40
0.6249999999999921
 40
0.6562499999999926
 40
0.6562499999999926
 40
0.6874999999999931
 40
0.6874999999999931
 40
0.7031249999999933
 40
0.7031249999999933
 40
0.7187499999999936
 40
0.7187499999999936
 40
0.7499999999999936
 40
0.7499999999999936
 40
0.7812499999999937
 40
0.7812499999999937
 40
0.8124999999999937
 40
0.8124999999999937
 40
0.8437499999999938
 40
0.8437499999999938
 40
0.8593749999999938
 40
0.8593749999999938
 40
0.8749999999999938
 40
0.8749999999999938
 40
0.8906249999999938
 40
0.8906249999999938
 40
0.9062499999999939
 40
0.9062499999999939
 40
0.9374999999999959
 40
0.9374999999999959
 40
0.968749999999998
 40
0.968749999999998
 40
1.0
 40
1.0
 40
1.031249999999997
 40
1.031249999999997
 10
217.6013844059522
 20
103.0723942441272
 30
0.0
 10
216.8427414722126
 20
103.0723942441272
 30
0.0
 10
216.4695034178927
 20
103.107104553684
 30
0.0
 10
215.9184118402126
 20
103.2093618534453
 30
0.0
 10
215.7361859610099
 20
103.2518758082598
 30
0.0
 10
215.374740767969
 20
103.3542002959656
 30
0.0
 10
215.1946884606922
 20
103.4143939782733
 30
0.0
 10
214.66949236426
 20
103.6180613919357
 30
0.0
 10
214.3367963495441
 20
103.7847149002252
 30
0.0
 10
213.7059536114302
 20
104.1801240354143
 30
0.0
 10
213.4052824214072
 20
104.4118724778552
 30
0.0
 10
212.8636047293457
 20
104.9226306081829
 30
0.0
 10
212.6200485042818
 20
105.2023644607823
 30
0.0
 10
212.2965419258036
 20
105.6599465034018
 30
0.0
 10
212.1952114565617
 20
105.8198591528672
 30
0.0
 10
212.0108889540351
 20
106.1467152914927
 30
0.0
 10
211.9276318950631
 20
106.313801222299
 30
0.0
 10
211.7040557143244
 20
106.8258907639066
 30
0.0
 10
211.5896455375249
 20
107.1816110368142
 30
0.0
 10
211.4339291748154
 20
107.9235736306986
 30
0.0
 10
211.39542768557
 20
108.2968932730497
 30
0.0
 10
211.3947360799726
 20
108.8584129591979
 30
0.0
 10
211.404070313725
 20
109.045949533254
 30
0.0
 10
211.4423974027219
 20
109.4217688730378
 30
0.0
 10
211.4715056294883
 20
109.609737437225
 30
0.0
 10
211.5862249932559
 20
110.1613541236956
 30
0.0
 10
211.6993011043919
 20
110.5173604411048
 30
0.0
 10
211.9236670768729
 20
111.0339722884461
 30
0.0
 10
212.0080941017372
 20
111.2038614297772
 30
0.0
 10
212.1918272377847
 20
111.5305438115441
 30
0.0
 10
212.2914195904486
 20
111.6881803115937
 30
0.0
 10
212.5056756816942
 20
111.9924091049063
 30
0.0
 10
212.6203404592791
 20
112.1390004914464
 30
0.0
 10
212.8648192255345
 20
112.4211733273436
 30
0.0
 10
212.9953831075259
 20
112.557428151167
 30
0.0
 10
213.4043553676844
 20
112.9435707022168
 30
0.0
 10
213.6988167792585
 20
113.170744861166
 30
0.0
 10
214.3299354749124
 20
113.5675801887105
 30
0.0
 10
214.6699257409176
 20
113.7380019105312
 30
0.0
 10
215.3670880517802
 20
114.0085174618072
 30
0.0
 10
215.7263041666294
 20
114.1105891221518
 30
0.0
 10
216.2811799600964
 20
114.2141117830764
 30
0.0
 10
216.469676765783
 20
114.2403118092133
 30
0.0
 10
216.8448665075946
 20
114.2749051301666
 30
0.0
 10
217.0322100956038
 20
114.2834971862176
 30
0.0
 10
217.5935033444447
 20
114.2837483921017
 30
0.0
 10
217.9667224145797
 20
114.2501380653299
 30
0.0
 10
218.7111294787752
 20
114.1124067430874
 30
0.0
 10
219.0720623226864
 20
114.010010964542
 30
0.0
 10
219.5933418993658
 20
113.8083921148935
 30
0.0
 10
219.7639444152043
 20
113.7330822277761
 30
0.0
 10
220.0986999345733
 20
113.5657936388246
 30
0.0
 10
220.2637261549744
 20
113.4732253689208
 30
0.0
 10
220.740342187597
 20
113.1745053992896
 30
0.0
 10
221.0343934441921
 20
112.9477152300499
 30
0.0
 10
221.5756446274351
 20
112.438517435497
 30
0.0
 10
221.8250435294871
 20
112.1523498287508
 30
0.0
 10
222.2554958814925
 20
111.5432885342366
 30
0.0
 10
222.4385190166244
 20
111.2197934946577
 30
0.0
 10
222.6638438499943
 20
110.705155640283
 30
0.0
 10
222.7310093435952
 20
110.5275385776243
 30
0.0
 10
222.8457928172973
 20
110.1688488670309
 30
0.0
 10
222.8935997913817
 20
109.987719385807
 30
0.0
 10
223.0088997926017
 20
109.4390741366352
 30
0.0
 10
223.0485802385987
 20
109.0658994477717
 30
0.0
 10
223.0497339455777
 20
108.3067287791433
 30
0.0
 10
223.0112781516434
 20
107.9338049642578
 30
0.0
 10
222.8595088496845
 20
107.2006917603363
 30
0.0
 10
222.7440872462366
 20
106.8367878445671
 30
0.0
 10
222.4458045280559
 20
106.1502385469771
 30
0.0
 10
222.2633620350958
 20
105.825332878323
 30
0.0
 10
221.9397136926159
 20
105.3651566881744
 30
0.0
 10
221.8232053886945
 20
105.2162508802603
 30
0.0
 10
221.5784725597536
 20
104.9338950354948
 30
0.0
 10
221.4496823383421
 20
104.799571990883
 30
0.0
 10
221.1795284268006
 20
104.544226378112
 30
0.0
 10
221.0381641244448
 20
104.4232046546083
 30
0.0
 10
220.7427670027035
 20
104.1944455815697
 30
0.0
 10
220.5878646749978
 20
104.0862003542039
 30
0.0
 10
220.1113518151368
 20
103.7866760429672
 30
0.0
 10
219.7781593764961
 20
103.6198199305268
 30
0.0
 10
219.0816282193358
 20
103.3489335067964
 30
0.0
 10
218.7150124391205
 20
103.2447076038691
 30
0.0
 10
217.9759173126019
 20
103.1071262113345
 30
0.0
 10
217.6013844059522
 20
103.0723942441272
 30
0.0
 10
216.8427414722126
 20
103.0723942441272
 30
0.0
  0
SPLINE
  5
DA
330
1F
100
AcDbEntity
  8
0
  6
HIDDEN
 62
     7
370
     0
100
AcDbSpline
210
0.0
220
0.0
230
1.0
 70
     8
 71
     3
 72
    47
 73
    43
 74
     0
 42
0.00000001
 43
0.00000001
 40
-0.0754949989702044
 40
-0.0624612121563082
 40
-0.0297328214084199
 40
0.0
 40
0.0297242095429975
 40
0.0624299019453933
 40
0.0902097647785209
 40
0.1249852930172219
 40
0.1466391321274358
 40
0.167019290760864
 40
0.1861310717635006
 40
0.2039809867679788
 40
0.2205771118265058
 40
0.2359295815785065
 40
0.250051289153529
 40
0.2849026059687434
 40
0.3264789802151788
 40
0.3748710591760629
 40
0.3932245645768174
 40
0.4097806282244577
 40
0.4245404603330218
 40
0.4375060314395801
 40
0.4702107541781864
 40
0.4999892667314673
 40
0.529746778242026
 40
0.5624402498405299
 40
0.5901193917547776
 40
0.6249672064517665
 40
0.6466372316111103
 40
0.6670357476801136
 40
0.6861680533976107
 40
0.7040406516307073
 40
0.7206616024880892
 40
0.7360410134925679
 40
0.7501917330340152
 40
0.7849807220965124
 40
0.8265111602602431
 40
0.8748738597239423
 40
0.8931741800638492
 40
0.9097174713215987
 40
0.9245050010297955
 40
0.9375387878436917
 40
0.97026717859158
 40
0.9999999999999999
 40
1.029724209542997
 40
1.062429901945393
 40
1.090209764778521
 10
216.2266985805081
 20
103.6165339216169
 30
0.0
 10
217.2219452529611
 20
103.5227394340439
 30
0.0
 10
218.2171000432951
 20
103.6165172805353
 30
0.0
 10
219.1522891719836
 20
103.8969820264002
 30
0.0
 10
220.059210309293
 20
104.3704366607869
 30
0.0
 10
220.7645016202619
 20
104.9370820382996
 30
0.0
 10
221.3041086489338
 20
105.5548902465804
 30
0.0
 10
221.6667690152771
 20
106.1002723957135
 30
0.0
 10
221.9415973880019
 20
106.6507432896864
 30
0.0
 10
222.137460671954
 20
107.1922267171423
 30
0.0
 10
222.2642938255851
 20
107.7133584899353
 30
0.0
 10
222.3326631655554
 20
108.2056179052915
 30
0.0
 10
222.3639970702417
 20
108.8991992574314
 30
0.0
 10
222.256075808484
 20
109.8781396266159
 30
0.0
 10
221.7904596330755
 20
111.1493031594055
 30
0.0
 10
221.093708270849
 20
112.0961028217526
 30
0.0
 10
220.4307955070996
 20
112.6871561163827
 30
0.0
 10
219.998667700545
 20
112.9954357420936
 30
0.0
 10
219.5879473899967
 20
113.2314692115042
 30
0.0
 10
219.0009704241374
 20
113.5042169735933
 30
0.0
 10
218.2184896392138
 20
113.7392561684004
 30
0.0
 10
217.2226478811159
 20
113.8333172120874
 30
0.0
 10
216.2267579804673
 20
113.7394294645388
 30
0.0
 10
215.2924197825933
 20
113.459104411716
 30
0.0
 10
214.3858340247496
 20
112.9861143006229
 30
0.0
 10
213.6804147604844
 20
112.4197654783649
 30
0.0
 10
213.1400044495075
 20
111.8011096949179
 30
0.0
 10
212.7770364811911
 20
111.2552034335336
 30
0.0
 10
212.5020043934682
 20
110.7040810489711
 30
0.0
 10
212.3060593077101
 20
110.1618396110924
 30
0.0
 10
212.179277509602
 20
109.6398644232
 30
0.0
 10
212.1110974216232
 20
109.1466966098367
 30
0.0
 10
212.0803242244413
 20
108.4531565179032
 30
0.0
 10
212.1888314163288
 20
107.475176969397
 30
0.0
 10
212.6543669321484
 20
106.2056279050689
 30
0.0
 10
213.3503634844687
 20
105.2600712485233
 30
0.0
 10
214.0124058200934
 20
104.6696094990835
 30
0.0
 10
214.4440902123603
 20
104.3614110154992
 30
0.0
 10
214.8555169502952
 20
104.1248002676886
 30
0.0
 10
215.4436694568525
 20
103.8514982354873
 30
0.0
 10
216.2266985805081
 20
103.6165339216169
 30
0.0
 10
217.2219452529611
 20
103.5227394340439
 30
0.0
 10
218.2171000432951
 20
103.6165172805353
 30
0.0
  0
SPLINE
  5
DB
330
1F
100
AcDbEntity
  8
0
  6
HIDDEN
 62
     7
370
     0
100
AcDbSpline
210
0.0
220
0.0
230
1.0
 70
     8
 71
     3
 72
    12
 73
     8
 74
     0
 42
0.00000001
 43
0.00000001
 40
0.0
 40
0.0
 40
0.0
 40
0.0
 40
0.2208161136540117
 40
0.4480845792576567
 40
0.6689350699693828
 40
0.8961261421475183
 40
1.0
 40
1.0
 40
1.0
 40
1.0
 10
72.97706494068399
 20
128.5155163684529
 30
0.0
 10
73.1091081635297
 20
128.5325734567665
 30
0.0
 10
73.37705297504536
 20
128.5671860496336
 30
0.0
 10
73.67220884055058
 20
128.5941579797422
 30
0.0
 10
73.87330198789707
 20
128.6096677648679
 30
0.0
 10
73.97063472561888
 20
128.6157770707919
 30
0.0
 10
73.96197519401167
 20
128.6152317593516
 30
0.0
 10
73.95925820748229
 20
128.6150606642041
 30
0.0
  0
SPLINE
  5
DC
330
1F
100
AcDbEntity
  8
0
  6
HIDDEN
 62
     7
370
     0
100
AcDbSpline
210
0.0
220
0.0
230
1.0
 70
     8
 71
     3
 72
    12
 73
     8
 74
     0
 42
0.00000001
 43
0.00000001
 40
0.0
 40
0.0
 40
0.0
 40
0.0
 40
0.1180926962713629
 40
0.3464869122221698
 40
0.5687513860614221
 40
0.797514012703756
 40
1.0
 40
1.0
 40
1.0
 40
1.0
 10
73.95925817344592
 20
88.74091512323795
 30
0.0
 10
73.96138056191752
 20
88.74078111681688
 30
0.0
 10
73.96760770255605
 20
88.74038793863973
 30
0.0
 10
73.86294371951418
 20
88.74701114516064
 30
0.0
 10
73.65297036604233
 20
88.7634155078008
 30
0.0
 10
73.35751182486321
 20
88.79101722389827
 30
0.0
 10
73.09862239203144
 20
88.82466202903596
 30
0.0
 10
72.97706494068399
 20
88.84045941681995
 30
0.0
  0
SPLINE
  5
DD
330
1F
100
AcDbEntity
  8
0
  6
HIDDEN
 62
     7
370
     0
100
AcDbSpline
210
0.0
220
0.0
230
1.0
 70
     8
 71
     3
 72
    22
 73
    18
 74
     0
 42
0.00000001
 43
0.00000001
 40
0.0
 40
0.0
 40
0.0
 40
0.0
 40
0.069470503305567
 40
0.1409377255045835
 40
0.210413548914841
 40
0.2819466223559928
 40
0.3506518733998513
 40
0.4213897814436845
 40
0.4894670043894698
 40
0.5594810940348494
 40
0.6282706827033766
 40
0.6989997382187428
 40
0.7687375408512302
 40
0.8405098102584779
 40
0.9099666189318144
 40
0.9814998892127903
 40
1.0
 40
1.0
 40
1.0
 40
1.0
 10
72.97706494068397
 20
88.84045941681995
 30
0.0
 10
72.82889108622462
 20
88.86018575662926
 30
0.0
 10
72.52828456931348
 20
88.90020541005005
 30
0.0
 10
71.99338970663274
 20
88.95557907357991
 30
0.0
 10
71.40775115396397
 20
89.00003545870771
 30
0.0
 10
70.79351849439064
 20
89.02772043415987
 30
0.0
 10
70.15960184902237
 20
89.03597368762975
 30
0.0
 10
69.53745314845058
 20
89.02399363274927
 30
0.0
 10
68.93145567858994
 20
88.99324287898831
 30
0.0
 10
68.36696675746343
 20
88.9477769082381
 30
0.0
 10
67.84759051988175
 20
88.89169575643851
 30
0.0
 10
67.39472502220033
 20
88.83170559412012
 30
0.0
 10
67.01600987853465
 20
88.77372567976118
 30
0.0
 10
66.72792475745953
 20
88.72480687161469
 30
0.0
 10
66.54546686090691
 20
88.69177150908894
 30
0.0
 10
66.46480890957287
 20
88.6766317128333
 30
0.0
 10
66.47909878827171
 20
88.6793036662063
 30
0.0
 10
66.48203508074378
 20
88.67985270071809
 30
0.0
  0
SPLINE
  5
DE
330
1F
100
AcDbEntity
  8
0
  6
HIDDEN
 62
     7
370
     0
100
AcDbSpline
210
0.0
220
0.0
230
1.0
 70
     8
 71
     3
 72
    22
 73
    18
 74
     0
 42
0.00000001
 43
0.00000001
 40
0.0
 40
0.0
 40
0.0
 40
0.0
 40
0.0499040281125884
 40
0.1203075863893544
 40
0.1885125365560131
 40
0.258644416829719
 40
0.3277839407293157
 40
0.3988873214655099
 40
0.4686969488930336
 40
0.5405663748364754
 40
0.609708789122301
 40
0.6809159691092499
 40
0.7490773369981711
 40
0.8192056085539694
 40
0.8876078379088254
 40
0.9579332867310426
 40
1.0
 40
1.0
 40
1.0
 40
1.0
 10
66.48203508074377
 20
128.6761230845547
 30
0.0
 10
66.48328601476928
 20
128.675884054159
 30
0.0
 10
66.48630174033357
 20
128.6753078046843
 30
0.0
 10
66.61119506738709
 20
128.6521097698609
 30
0.0
 10
66.83567689526465
 20
128.6124297335432
 30
0.0
 10
67.15470505744216
 20
128.560218312144
 30
0.0
 10
67.56224028843883
 20
128.5008885004717
 30
0.0
 10
68.04402684227178
 20
128.4414137239558
 30
0.0
 10
68.59444652406704
 20
128.3878073675938
 30
0.0
 10
69.18734141001528
 20
128.3473334491194
 30
0.0
 10
69.81429398033247
 20
128.3241342007532
 30
0.0
 10
70.44250495416048
 20
128.3211560975382
 30
0.0
 10
71.06676504663751
 20
128.3382904232375
 30
0.0
 10
71.65938333646582
 20
128.3729762789276
 30
0.0
 10
72.21620941999396
 20
128.4219326425913
 30
0.0
 10
72.65401626462683
 20
128.4718328072145
 30
0.0
 10
72.88908297139974
 20
128.5036191962063
 30
0.0
 10
72.97706494068399
 20
128.5155163684529
 30
0.0
  0
LINE
  5
DF
330
1F
100
AcDbEntity
  8
0
  6
HIDDEN
 62
     7
370
     0
100
AcDbLine
 10
60.2260375353
 20
91.6779878926
 30
0.0
 11
60.2260375353
 21
125.6779878926
 31
0.0
  0
LWPOLYLINE
  5
E0
330
1F
100
AcDbEntity
  8
0
  6
HIDDEN
 62
     7
370
     0
100
AcDbPolyline
 90
       12
 70
   128
 43
0.0
 10
87.2220629391
 20
130.6235903073
 10
88.1445264221
 20
130.6775005661
 10
89.0172596599
 20
130.8363250266
 10
89.7932133778
 20
131.091501421
 10
90.4305557101
 20
131.4292731239
 10
90.8949273666
 20
131.8314307752
 10
91.1612939511
 20
132.2762939519
 10
91.2152955722
 20
132.7398799651
 10
91.0540209883
 20
133.1971967727
 10
90.6861645542
 20
133.6235903073
 10
90.1315575054
 20
133.996073583
 10
89.6052393185
 20
134.2298647502
  0
LWPOLYLINE
  5
E1
330
1F
100
AcDbEntity
  8
0
  6
HIDDEN
 62
     7
370
     0
100
AcDbPolyline
 90
       12
 70
   128
 43
0.0
 10
84.8359761805
 20
134.2287842193
 10
84.3125683728
 20
133.996073583
 10
83.7579613239
 20
133.6235903073
 10
83.3901048898
 20
133.1971967727
 10
83.228830306
 20
132.7398799651
 10
83.282831927
 20
132.2762939519
 10
83.5491985116
 20
131.8314307752
 10
84.0135701681
 20
131.4292731239
 10
84.6509125003
 20
131.091501421
 10
85.4268662183
 20
130.8363250266
 10
86.2995994561
 20
130.6775005661
 10
87.2220629391
 20
130.6235903073
  0
SPLINE
  5
E2
330
1F
100
AcDbEntity
  8
0
  6
HIDDEN
 62
     7
370
     0
100
AcDbSpline
210
0.0
220
0.0
230
1.0
 70
     8
 71
     3
 72
    11
 73
     7
 74
     0
 42
0.00000001
 43
0.00000001
 40
0.0
 40
0.0
 40
0.0
 40
0.0
 40
0.0005779865010845
 40
0.0005779865010845
 40
0.0005779865010845
 40
0.0011559733324421
 40
0.0011559733324421
 40
0.0011559733324421
 40
0.0011559733324421
 10
47.32206293908239
 20
110.6778285007902
 30
0.0
 10
47.48873019388836
 20
110.6758448614492
 30
0.0
 10
47.65539662356602
 20
110.6738072544467
 30
0.0
 10
47.82206296201784
 20
110.6716957910403
 30
0.0
 10
47.98872939084424
 20
110.6695843264889
 30
0.0
 10
48.15539576448194
 20
110.6673987633326
 30
0.0
 10
48.32206293908236
 20
110.6651161860009
 30
0.0
  0
SPLINE
  5
E3
330
1F
100
AcDbEntity
  8
0
  6
HIDDEN
 62
     7
370
     0
100
AcDbSpline
210
0.0
220
0.0
230
1.0
 70
     8
 71
     3
 72
     8
 73
     4
 74
     0
 42
0.00000001
 43
0.00000001
 40
0.0
 40
0.0
 40
0.0
 40
0.0
 40
0.0011564765856722
 40
0.0011564765856722
 40
0.0011564765856722
 40
0.0011564765856722
 10
48.32206293908236
 20
106.6812875904201
 30
0.0
 10
47.98875500851351
 20
106.6804124348369
 30
0.0
 10
47.65541977612133
 20
106.6793575835854
 30
0.0
 10
47.32206293908236
 20
106.6781864965478
 30
0.0
  0
LINE
  5
E4
330
1F
100
AcDbEntity
  8
0
  6
HIDDEN
 62
     7
370
     0
100
AcDbLine
 10
86.8818889076
 20
91.6779878926
 30
0.0
 11
86.8818889076
 21
125.6779878926
 31
0.0
  0
LINE
  5
E5
330
1F
100
AcDbEntity
  8
0
  6
HIDDEN
 62
     7
370
     0
100
AcDbLine
 10
89.1720629391
 20
92.9529878926
 30
0.0
 11
89.1720629391
 21
124.4029878926
 31
0.0
  0
SPLINE
  5
E6
330
1F
100
AcDbEntity
  8
0
  6
HIDDEN
 62
     7
370
     0
100
AcDbSpline
210
0.0
220
0.0
230
1.0
 70
     8
 71
     3
 72
    16
 73
    12
 74
     0
 42
0.00000001
 43
0.00000001
 40
0.0
 40
0.0
 40
0.0
 40
0.0
 40
0.124999999999998
 40
0.124999999999998
 40
0.249999999999996
 40
0.249999999999996
 40
0.4999999999999973
 40
0.4999999999999973
 40
0.7499999999999987
 40
0.7499999999999987
 40
1.0
 40
1.0
 40
1.0
 40
1.0
 10
56.02206293908238
 20
92.87649745660475
 30
0.0
 10
56.11718469374821
 20
92.87649745660475
 30
0.0
 10
56.21051476247628
 20
92.87268162321195
 30
0.0
 10
56.39377652321429
 20
92.85791107048213
 30
0.0
 10
56.48465423877129
 20
92.84675302250656
 30
0.0
 10
56.74145593629103
 20
92.80428175236484
 30
0.0
 10
56.89652330116301
 20
92.76323555516204
 30
0.0
 10
57.15026976271764
 20
92.66808943858015
 30
0.0
 10
57.2511402143855
 20
92.61332670449856
 30
0.0
 10
57.38638662908034
 20
92.5020655805947
 30
0.0
 10
57.42206293908238
 20
92.44489584326601
 30
0.0
 10
57.42206293908238
 20
92.39047427023227
 30
0.0
  0
SPLINE
  5
E7
330
1F
100
AcDbEntity
  8
0
  6
HIDDEN
 62
     7
370
     0
100
AcDbSpline
210
0.0
220
0.0
230
1.0
 70
     8
 71
     3
 72
     8
 73
     4
 74
     0
 42
0.00000001
 43
0.00000001
 40
0.0
 40
0.0
 40
0.0
 40
0.0
 40
1.0
 40
1.0
 40
1.0
 40
1.0
 10
48.62206294239757
 20
95.021300402687
 30
0.0
 10
48.6220629423995
 20
94.13740326037006
 30
0.0
 10
48.60858231648971
 20
93.42282001530812
 30
0.0
 10
48.6072309483004
 20
92.87649745660475
 30
0.0
  0
LINE
  5
E8
330
1F
100
AcDbEntity
  8
0
  6
HIDDEN
 62
     7
370
     0
100
AcDbLine
 10
48.3220629391
 20
99.0771611002
 30
0.0
 11
48.3220629391
 21
96.0462106684
 31
0.0
  0
LINE
  5
E9
330
1F
100
AcDbEntity
  8
0
  6
HIDDEN
 62
     7
370
     0
100
AcDbLine
 10
48.6220629423
 20
112.2826215142
 30
0.0
 11
48.6220629423
 21
100.4450015169
 31
0.0
  0
SPLINE
  5
EA
330
1F
100
AcDbEntity
  8
0
  6
HIDDEN
 62
     7
370
     0
100
AcDbSpline
210
0.0
220
0.0
230
1.0
 70
     8
 71
     3
 72
     8
 73
     4
 74
     0
 42
0.00000001
 43
0.00000001
 40
0.0
 40
0.0
 40
0.0
 40
0.0
 40
1.0
 40
1.0
 40
1.0
 40
1.0
 10
48.32206293908236
 20
118.2849272137047
 30
0.0
 10
48.50309440564128
 20
117.8528197280421
 30
0.0
 10
48.6220629422758
 20
117.3986743219424
 30
0.0
 10
48.62206294227011
 20
116.9109742682483
 30
0.0
  0
LINE
  5
EB
330
1F
100
AcDbEntity
  8
0
  6
HIDDEN
 62
     7
370
     0
100
AcDbLine
 10
48.3220629391
 20
121.3181301997
 30
0.0
 11
48.3220629391
 21
118.2849272137
 31
0.0
  0
SPLINE
  5
EC
330
1F
100
AcDbEntity
  8
0
  6
HIDDEN
 62
     7
370
     0
100
AcDbSpline
210
0.0
220
0.0
230
1.0
 70
     8
 71
     3
 72
    10
 73
     6
 74
     0
 42
0.00000001
 43
0.00000001
 40
0.0
 40
0.0
 40
0.0
 40
0.0
 40
0.5
 40
0.5
 40
1.0
 40
1.0
 40
1.0
 40
1.0
 10
48.62206294247559
 20
122.3346753825562
 30
0.0
 10
48.62206294247379
 20
122.1700390359502
 30
0.0
 10
48.59490427171831
 20
122.0028838121197
 30
0.0
 10
48.4891392763999
 20
121.6642608043181
 30
0.0
 10
48.41272448810274
 20
121.4919890270271
 30
0.0
 10
48.32206293908239
 20
121.3181301996831
 30
0.0
  0
SPLINE
  5
ED
330
1F
100
AcDbEntity
  8
0
  6
HIDDEN
 62
     7
370
     0
100
AcDbSpline
210
0.0
220
0.0
230
1.0
 70
     8
 71
     3
 72
    18
 73
    14
 74
     0
 42
0.00000001
 43
0.00000001
 40
0.0
 40
0.0
 40
0.0
 40
0.0
 40
0.2500000000000033
 40
0.2500000000000033
 40
0.3750000000000029
 40
0.3750000000000029
 40
0.5000000000000026
 40
0.5000000000000026
 40
0.6250000000000022
 40
0.6250000000000022
 40
0.7500000000000018
 40
0.7500000000000018
 40
1.0
 40
1.0
 40
1.0
 40
1.0
 10
53.42206293908239
 20
124.9655015150405
 30
0.0
 10
53.42206293908237
 20
124.9110269944884
 30
0.0
 10
53.3871522476902
 20
124.8546459351359
 30
0.0
 10
53.28514294635715
 20
124.7705690942824
 30
0.0
 10
53.24350659167904
 20
124.7432353902915
 30
0.0
 10
53.14510079619029
 20
124.6902814746925
 30
0.0
 10
53.08755758448602
 20
124.6643941209753
 30
0.0
 10
52.96025941091306
 20
124.616616576142
 30
0.0
 10
52.8906721061556
 20
124.5946686579641
 30
0.0
 10
52.73923786100064
 20
124.5552360930514
 30
0.0
 10
52.6565539579067
 20
124.5376798438256
 30
0.0
 10
52.40044249586865
 20
124.4952410784051
 30
0.0
 10
52.21252749198066
 20
124.4794783286681
 30
0.0
 10
52.02206293908237
 20
124.4794783286681
 30
0.0
  0
LINE
  5
EE
330
1F
100
AcDbEntity
  8
0
  6
HIDDEN
 62
     7
370
     0
100
AcDbLine
 10
52.0220629391
 20
124.4794783287
 30
0.0
 11
48.6220629425
 21
124.4794783287
 31
0.0
  0
LINE
  5
EF
330
1F
100
AcDbEntity
  8
0
  6
HIDDEN
 62
     7
370
     0
100
AcDbLine
 10
48.5530939524
 20
92.8764974566
 30
0.0
 11
56.0220629391
 21
92.8764974566
 31
0.0
  0
SPLINE
  5
F0
330
1F
100
AcDbEntity
  8
0
  6
HIDDEN
 62
     7
370
     0
100
AcDbSpline
210
0.0
220
0.0
230
1.0
 70
     8
 71
     3
 72
    22
 73
    18
 74
     0
 42
0.00000001
 43
0.00000001
 40
0.0
 40
0.0
 40
0.0
 40
0.0
 40
0.1249999999999998
 40
0.1249999999999998
 40
0.2499999999999995
 40
0.2499999999999995
 40
0.4999999999999992
 40
0.4999999999999992
 40
0.5624999999999993
 40
0.5624999999999993
 40
0.6249999999999994
 40
0.6249999999999994
 40
0.7499999999999996
 40
0.7499999999999996
 40
0.8749999999999998
 40
0.8749999999999998
 40
1.0
 40
1.0
 40
1.0
 40
1.0
 10
48.5530939524403
 20
92.87649745660475
 30
0.0
 10
48.54001155971194
 20
93.13160316675243
 30
0.0
 10
48.52679199627211
 20
93.42476142585633
 30
0.0
 10
48.50434481847798
 20
94.08706189148114
 30
0.0
 10
48.49486635145352
 20
94.45733581209252
 30
0.0
 10
48.47566839051695
 20
95.67989261520631
 30
0.0
 10
48.47678216351385
 20
96.61703154133818
 30
0.0
 10
48.49569295646693
 20
97.93690277085317
 30
0.0
 10
48.50032248432593
 20
98.20840467982948
 30
0.0
 10
48.51080370407189
 20
98.7667895146318
 30
0.0
 10
48.5165989653563
 20
99.05391237057138
 30
0.0
 10
48.53490818626124
 20
99.92650162494307
 30
0.0
 10
48.5489431205416
 20
100.5269573012989
 30
0.0
 10
48.57840029267842
 20
101.764431793795
 30
0.0
 10
48.59395598366
 20
102.4014479504385
 30
0.0
 10
48.61775053365688
 20
103.712936548123
 30
0.0
 10
48.62576958580225
 20
104.3890591597835
 30
0.0
 10
48.62206293908238
 20
105.0733542710683
 30
0.0
  0
LINE
  5
F1
330
1F
100
AcDbEntity
  8
0
  6
HIDDEN
 62
     7
370
     0
100
AcDbLine
 10
48.6220629425
 20
112.2826215142
 30
0.0
 11
48.6220629425
 21
124.4794783287
 31
0.0
  0
SPLINE
  5
F2
330
1F
100
AcDbEntity
  8
0
  6
HIDDEN
 62
     7
370
     0
100
AcDbSpline
210
0.0
220
0.0
230
1.0
 70
     8
 71
     3
 72
    10
 73
     6
 74
     0
 42
0.00000001
 43
0.00000001
 40
0.0
 40
0.0
 40
0.0
 40
0.0
 40
0.5
 40
0.5
 40
1.0
 40
1.0
 40
1.0
 40
1.0
 10
48.62206293908238
 20
105.0733542710532
 30
0.0
 10
48.62206293908219
 20
105.3472694191276
 30
0.0
 10
48.59630370921449
 20
105.6182109978577
 30
0.0
 10
48.49309777648138
 20
106.1539020794606
 30
0.0
 10
48.41575961260614
 20
106.4196488829826
 30
0.0
 10
48.32206293908236
 20
106.6812875904201
 30
0.0
  0
SPLINE
  5
F3
330
1F
100
AcDbEntity
  8
0
  6
HIDDEN
 62
     7
370
     0
100
AcDbSpline
210
0.0
220
0.0
230
1.0
 70
     8
 71
     3
 72
    10
 73
     6
 74
     0
 42
0.00000001
 43
0.00000001
 40
0.0
 40
0.0
 40
0.0
 40
0.0
 40
0.5
 40
0.5
 40
1.0
 40
1.0
 40
1.0
 40
1.0
 10
48.32206293908236
 20
110.6651161860009
 30
0.0
 10
48.41529352047338
 20
110.9290099940711
 30
0.0
 10
48.49032313271015
 20
111.1951903047093
 30
0.0
 10
48.59539023188829
 20
111.7335128796675
 30
0.0
 10
48.62206294247446
 20
112.0062609959131
 30
0.0
 10
48.62206294247564
 20
112.2826215142035
 30
0.0
  0
LINE
  5
F4
330
1F
100
AcDbEntity
  8
0
  6
HIDDEN
 62
     7
370
     0
100
AcDbLine
 10
48.3220629391
 20
106.6812875904
 30
0.0
 11
48.3220629391
 21
110.665116186
 31
0.0
  0
LWPOLYLINE
  5
F5
330
1F
100
AcDbEntity
  8
0
  6
HIDDEN
 62
     7
370
     0
100
AcDbPolyline
 90
       17
 70
   128
 43
0.0
 10
195.2220629391
 20
97.1521473593
 10
194.6480377905
 20
97.2328853074
 10
194.1614027673
 20
97.4628075311
 10
193.8362436403
 20
97.806910456
 10
193.7220629391
 20
98.2128075311
 10
193.8362436403
 20
98.6187046062
 10
194.1614027673
 20
98.9628075311
 10
194.6480377905
 20
99.1927297547
 10
195.2220629391
 20
99.2734677029
 10
195.7960880876
 20
99.1927297547
 10
196.2827231109
 20
98.9628075311
 10
196.6078822378
 20
98.6187046062
 10
196.7220629391
 20
98.2128075311
 10
196.6078822378
 20
97.806910456
 10
196.2827231109
 20
97.4628075311
 10
195.7960880876
 20
97.2328853074
 10
195.2220629391
 20
97.1521473593
  0
SPLINE
  5
F6
330
1F
100
AcDbEntity
  8
0
  6
HIDDEN
 62
     7
370
     0
100
AcDbSpline
210
0.0
220
0.0
230
1.0
 70
     8
 71
     3
 72
    14
 73
    10
 74
     0
 42
0.00000001
 43
0.00000001
 40
0.0
 40
0.0
 40
0.0
 40
0.0
 40
0.25
 40
0.25
 40
0.5
 40
0.5
 40
0.75
 40
0.75
 40
1.0
 40
1.0
 40
1.0
 40
1.0
 10
194.2747437190714
 20
98.1509290965959
 30
0.0
 10
194.3108634639781
 20
98.18397820836873
 30
0.0
 10
194.3423151820701
 20
98.22419109843852
 30
0.0
 10
194.385720150642
 20
98.32336905437846
 30
0.0
 10
194.3961940765021
 20
98.3806470529565
 30
0.0
 10
194.387732722987
 20
98.51001877794138
 30
0.0
 10
194.3687670134503
 20
98.58044856785986
 30
0.0
 10
194.3122565598973
 20
98.72565480806348
 30
0.0
 10
194.2756361908289
 20
98.79967789861921
 30
0.0
 10
194.2357885855868
 20
98.87523358198987
 30
0.0
  0
SPLINE
  5
F7
330
1F
100
AcDbEntity
  8
0
  6
HIDDEN
 62
     7
370
     0
100
AcDbSpline
210
0.0
220
0.0
230
1.0
 70
     8
 71
     3
 72
    14
 73
    10
 74
     0
 42
0.00000001
 43
0.00000001
 40
0.0
 40
0.0
 40
0.0
 40
0.0
 40
0.25
 40
0.25
 40
0.5
 40
0.5
 40
0.75
 40
0.75
 40
1.0
 40
1.0
 40
1.0
 40
1.0
 10
194.2357885855867
 20
98.87523358198945
 30
0.0
 10
194.2034356922212
 20
98.83884254519131
 30
0.0
 10
194.1724615079832
 20
98.80327191401415
 30
0.0
 10
194.1226152672895
 20
98.72200116623897
 30
0.0
 10
194.1039154246139
 20
98.67396057351557
 30
0.0
 10
194.1139565809039
 20
98.53872371716771
 30
0.0
 10
194.1405471854514
 20
98.45852669812125
 30
0.0
 10
194.2019642837245
 20
98.30341389093496
 30
0.0
 10
194.2376045366939
 20
98.22652080172402
 30
0.0
 10
194.2747437190714
 20
98.15092909659535
 30
0.0
  0
SPLINE
  5
F8
330
1F
100
AcDbEntity
  8
0
  6
HIDDEN
 62
     7
370
     0
100
AcDbSpline
210
0.0
220
0.0
230
1.0
 70
     8
 71
     3
 72
    48
 73
    44
 74
     0
 42
0.00000001
 43
0.00000001
 40
-0.062500000000001
 40
-0.062500000000001
 40
0.0
 40
0.0
 40
0.0312500000000005
 40
0.0312500000000005
 40
0.062500000000001
 40
0.062500000000001
 40
0.1250000000000025
 40
0.1250000000000025
 40
0.187500000000004
 40
0.187500000000004
 40
0.2500000000000056
 40
0.2500000000000056
 40
0.3125000000000071
 40
0.3125000000000071
 40
0.3437500000000068
 40
0.3437500000000068
 40
0.3750000000000065
 40
0.3750000000000065
 40
0.4062500000000062
 40
0.4062500000000062
 40
0.4375000000000059
 40
0.4375000000000059
 40
0.5000000000000051
 40
0.5000000000000051
 40
0.5625000000000043
 40
0.5625000000000043
 40
0.6250000000000034
 40
0.6250000000000034
 40
0.6875000000000027
 40
0.6875000000000027
 40
0.7500000000000019
 40
0.7500000000000019
 40
0.8125000000000011
 40
0.8125000000000011
 40
0.8437500000000006
 40
0.8437500000000006
 40
0.875
 40
0.875
 40
0.9062499999999996
 40
0.9062499999999996
 40
0.937499999999999
 40
0.937499999999999
 40
1.0
 40
1.0
 40
1.03125
 40
1.03125
 10
196.3528529164339
 20
98.1047722911727
 30
0.0
 10
196.4749207469509
 20
98.10816361639458
 30
0.0
 10
196.5133830768686
 20
98.11661043234086
 30
0.0
 10
196.583532552635
 20
98.14888529639508
 30
0.0
 10
196.6155496854102
 20
98.1731580538609
 30
0.0
 10
196.6942852723279
 20
98.26998071538218
 30
0.0
 10
196.7240136731488
 20
98.36913035311714
 30
0.0
 10
196.7199019191187
 20
98.6180521548869
 30
0.0
 10
196.6858558264531
 20
98.76865360198141
 30
0.0
 10
196.5744896679284
 20
99.07756877250993
 30
0.0
 10
196.4980907443378
 20
99.23632865213578
 30
0.0
 10
196.3349175640735
 20
99.54409989897405
 30
0.0
 10
196.246278098058
 20
99.69483743188422
 30
0.0
 10
196.1370639973291
 20
99.91276264540674
 30
0.0
 10
196.1041424496172
 20
99.98591830509919
 30
0.0
 10
196.0596917366173
 20
100.125454948745
 30
0.0
 10
196.0484589181933
 20
100.1934555841136
 30
0.0
 10
196.0552467166172
 20
100.3133890956247
 30
0.0
 10
196.0729936799027
 20
100.3668078302796
 30
0.0
 10
196.1251442063754
 20
100.4549549086091
 30
0.0
 10
196.1595173708427
 20
100.4910770946935
 30
0.0
 10
196.2714640315406
 20
100.5771764450442
 30
0.0
 10
196.3569480086942
 20
100.6062734624385
 30
0.0
 10
196.5150994865946
 20
100.6098120578733
 30
0.0
 10
196.5873443620295
 20
100.5838472043931
 30
0.0
 10
196.6930344184145
 20
100.4621501404458
 30
0.0
 10
196.7235334641727
 20
100.365301381218
 30
0.0
 10
196.7204770882547
 20
100.1161523107508
 30
0.0
 10
196.6865544378603
 20
99.96321698788405
 30
0.0
 10
196.5765890102622
 20
99.65033609171776
 30
0.0
 10
196.5014337448693
 20
99.48938016965852
 30
0.0
 10
196.3426738151229
 20
99.1798777074545
 30
0.0
 10
196.2560290944812
 20
99.02699924092366
 30
0.0
 10
196.1475589600355
 20
98.80837562543175
 30
0.0
 10
196.1146093933848
 20
98.73622863964657
 30
0.0
 10
196.0658198536244
 20
98.59388062978475
 30
0.0
 10
196.0512282595008
 20
98.52559197786377
 30
0.0
 10
196.0512100226692
 20
98.40051121587447
 30
0.0
 10
196.0658922496284
 20
98.34564966039389
 30
0.0
 10
196.115904625653
 20
98.25370363694644
 30
0.0
 10
196.1498909316838
 20
98.21738507187403
 30
0.0
 10
196.2641885002763
 20
98.13091198293502
 30
0.0
 10
196.3528529164339
 20
98.1047722911727
 30
0.0
 10
196.4749207469509
 20
98.10816361639458
 30
0.0
  0
SPLINE
  5
F9
330
1F
100
AcDbEntity
  8
0
  6
HIDDEN
 62
     7
370
     0
100
AcDbSpline
210
0.0
220
0.0
230
1.0
 70
     8
 71
     3
 72
     8
 73
     4
 74
     0
 42
0.00000001
 43
0.00000001
 40
0.0
 40
0.0
 40
0.0
 40
0.0
 40
1.0
 40
1.0
 40
1.0
 40
1.0
 10
196.4640969782929
 20
104.1623599090524
 30
0.0
 10
196.4227887299502
 20
104.1998124639407
 30
0.0
 10
196.3772006606792
 20
104.2394073209324
 30
0.0
 10
196.3272889209626
 20
104.283265901769
 30
0.0
  0
SPLINE
  5
FA
330
1F
100
AcDbEntity
  8
0
  6
HIDDEN
 62
     7
370
     0
100
AcDbSpline
210
0.0
220
0.0
230
1.0
 70
     8
 71
     3
 72
    34
 73
    30
 74
     0
 42
0.00000001
 43
0.00000001
 40
0.0
 40
0.0
 40
0.0
 40
0.0
 40
0.0625000000000001
 40
0.0625000000000001
 40
0.1250000000000002
 40
0.1250000000000002
 40
0.2500000000000004
 40
0.2500000000000004
 40
0.3125000000000007
 40
0.3125000000000007
 40
0.3750000000000009
 40
0.3750000000000009
 40
0.5000000000000009
 40
0.5000000000000009
 40
0.5625000000000008
 40
0.5625000000000008
 40
0.6250000000000007
 40
0.6250000000000007
 40
0.6875000000000006
 40
0.6875000000000006
 40
0.7500000000000004
 40
0.7500000000000004
 40
0.8125000000000003
 40
0.8125000000000003
 40
0.8750000000000002
 40
0.8750000000000002
 40
0.9375000000000001
 40
0.9375000000000001
 40
1.0
 40
1.0
 40
1.0
 40
1.0
 10
196.3272889209626
 20
104.283265901769
 30
0.0
 10
196.2252393253636
 20
104.3729392023461
 30
0.0
 10
196.1093539911038
 20
104.4500303724415
 30
0.0
 10
195.8499673376554
 20
104.5767035522123
 30
0.0
 10
195.7097290731098
 20
104.6241889592031
 30
0.0
 10
195.2713937523557
 20
104.7114707748836
 30
0.0
 10
194.9560454936141
 20
104.6915662662758
 30
0.0
 10
194.5385443866028
 20
104.5541644530818
 30
0.0
 10
194.4059648464814
 20
104.4902069781963
 30
0.0
 10
194.172720846327
 20
104.337906862854
 30
0.0
 10
194.0686569793523
 20
104.2474245437635
 30
0.0
 10
193.8160376024877
 20
103.9560916282481
 30
0.0
 10
193.7221643598572
 20
103.7295886935124
 30
0.0
 10
193.7220123558831
 20
103.4099032083298
 30
0.0
 10
193.7444047223104
 20
103.3080466968127
 30
0.0
 10
193.8337209484678
 20
103.1163082718633
 30
0.0
 10
193.8986252459466
 20
103.0301455209359
 30
0.0
 10
194.0687261067096
 20
102.8747053717942
 30
0.0
 10
194.1706156825553
 20
102.8086496933634
 30
0.0
 10
194.4052120588338
 20
102.6981193167067
 30
0.0
 10
194.5362055998039
 20
102.6547707409799
 30
0.0
 10
194.8149785140628
 20
102.5926910155033
 30
0.0
 10
194.9640745242975
 20
102.5738635334475
 30
0.0
 10
195.2626425776101
 20
102.56173541257
 30
0.0
 10
195.4157754384428
 20
102.5683684219929
 30
0.0
 10
195.7070151860557
 20
102.6064253475398
 30
0.0
 10
195.8493688861522
 20
102.6384211831921
 30
0.0
 10
196.106933771049
 20
102.7255466760435
 30
0.0
 10
196.225234814657
 20
102.7814462519178
 30
0.0
 10
196.3272889209627
 20
102.8490584349241
 30
0.0
  0
SPLINE
  5
FB
330
1F
100
AcDbEntity
  8
0
  6
HIDDEN
 62
     7
370
     0
100
AcDbSpline
210
0.0
220
0.0
230
1.0
 70
     8
 71
     3
 72
     8
 73
     4
 74
     0
 42
0.00000001
 43
0.00000001
 40
0.0
 40
0.0
 40
0.0
 40
0.0
 40
1.0
 40
1.0
 40
1.0
 40
1.0
 10
196.3272889209626
 20
102.8490584349241
 30
0.0
 10
196.3772006606792
 20
102.8821256166578
 30
0.0
 10
196.4227887299502
 20
102.9241280691274
 30
0.0
 10
196.4640969782929
 20
102.9729470745475
 30
0.0
  0
SPLINE
  5
FC
330
1F
100
AcDbEntity
  8
0
  6
HIDDEN
 62
     7
370
     0
100
AcDbSpline
210
0.0
220
0.0
230
1.0
 70
     8
 71
     3
 72
    12
 73
     8
 74
     0
 42
0.00000001
 43
0.00000001
 40
0.0
 40
0.0
 40
0.0
 40
0.0
 40
0.2500000000000003
 40
0.2500000000000003
 40
0.5000000000000006
 40
0.5000000000000006
 40
1.0
 40
1.0
 40
1.0
 40
1.0
 10
196.4640969782929
 20
102.9729470745475
 30
0.0
 10
196.5478947921268
 20
103.0719811922329
 30
0.0
 10
196.6117683487109
 20
103.1739705586683
 30
0.0
 10
196.6996344875749
 20
103.3861188775342
 30
0.0
 10
196.7219262914022
 20
103.4932727723139
 30
0.0
 10
196.7223343572635
 20
103.8092203665775
 30
0.0
 10
196.6316950794624
 20
104.0104053398062
 30
0.0
 10
196.4640969782929
 20
104.1623599090524
 30
0.0
  0
SPLINE
  5
FD
330
1F
100
AcDbEntity
  8
0
  6
HIDDEN
 62
     7
370
     0
100
AcDbSpline
210
0.0
220
0.0
230
1.0
 70
     8
 71
     3
 72
    10
 73
     6
 74
     0
 42
0.00000001
 43
0.00000001
 40
0.0
 40
0.0
 40
0.0
 40
0.0
 40
0.5
 40
0.5
 40
1.0
 40
1.0
 40
1.0
 40
1.0
 10
194.2357885855868
 20
100.4735219787672
 30
0.0
 10
194.3153586487556
 20
100.4208503488805
 30
0.0
 10
194.3830540319141
 20
100.3352987864812
 30
0.0
 10
194.4007282550835
 20
100.0911638807716
 30
0.0
 10
194.3470065356761
 20
99.94503178906604
 30
0.0
 10
194.2747437190714
 20
99.79566998524572
 30
0.0
  0
SPLINE
  5
FE
330
1F
100
AcDbEntity
  8
0
  6
HIDDEN
 62
     7
370
     0
100
AcDbSpline
210
0.0
220
0.0
230
1.0
 70
     8
 71
     3
 72
    14
 73
    10
 74
     0
 42
0.00000001
 43
0.00000001
 40
0.0
 40
0.0
 40
0.0
 40
0.0
 40
0.25
 40
0.25
 40
0.5
 40
0.5
 40
0.75
 40
0.75
 40
1.0
 40
1.0
 40
1.0
 40
1.0
 10
194.2747437190714
 20
99.7956699852459
 30
0.0
 10
194.2375316321015
 20
99.82854408527587
 30
0.0
 10
194.201793076046
 20
99.85999818029138
 30
0.0
 10
194.1402973468632
 20
99.93003347561583
 30
0.0
 10
194.1137904809272
 20
99.96913488437458
 30
0.0
 10
194.104007140492
 20
100.0883134252359
 30
0.0
 10
194.1227903363013
 20
100.1665985086452
 30
0.0
 10
194.1727089448866
 20
100.3202421279269
 30
0.0
 10
194.2035176793019
 20
100.3973955976519
 30
0.0
 10
194.2357885855867
 20
100.4735219787672
 30
0.0
  0
SPLINE
  5
FF
330
1F
100
AcDbEntity
  8
0
  6
HIDDEN
 62
     7
370
     0
100
AcDbSpline
210
0.0
220
0.0
230
1.0
 70
     8
 71
     3
 72
    30
 73
    26
 74
     0
 42
0.00000001
 43
0.00000001
 40
-0.1250000000000044
 40
-0.1250000000000044
 40
0.0
 40
0.0
 40
0.1249999999999996
 40
0.1249999999999996
 40
0.1874999999999996
 40
0.1874999999999996
 40
0.2499999999999997
 40
0.2499999999999997
 40
0.3124999999999998
 40
0.3124999999999998
 40
0.3749999999999998
 40
0.3749999999999998
 40
0.4999999999999977
 40
0.4999999999999977
 40
0.6249999999999954
 40
0.6249999999999954
 40
0.6874999999999954
 40
0.6874999999999954
 40
0.7499999999999956
 40
0.7499999999999956
 40
0.8124999999999956
 40
0.8124999999999956
 40
0.8749999999999956
 40
0.8749999999999956
 40
1.0
 40
1.0
 40
1.125
 40
1.125
 10
193.722062939082
 20
99.47278591547388
 30
0.0
 10
193.722062939082
 20
99.63584508455509
 30
0.0
 10
193.7362660007083
 20
99.69363420958341
 30
0.0
 10
193.7680624686207
 20
99.73384438768514
 30
0.0
 10
193.7805034170707
 20
99.73990856824663
 30
0.0
 10
193.8025535648012
 20
99.72632200579518
 30
0.0
 10
193.8115923081655
 20
99.70424464361942
 30
0.0
 10
193.8099890011468
 20
99.61974173206346
 30
0.0
 10
193.8002652687383
 20
99.56293513528163
 30
0.0
 10
193.7789221588276
 20
99.4513023242987
 30
0.0
 10
193.7671265781582
 20
99.39470161195214
 30
0.0
 10
193.7362966015298
 20
99.22941566380878
 30
0.0
 10
193.7220846050897
 20
99.12465382939638
 30
0.0
 10
193.7220413266145
 20
98.96259123185972
 30
0.0
 10
193.7360606145607
 20
98.90820897123898
 30
0.0
 10
193.7670813769021
 20
98.87417690315796
 30
0.0
 10
193.7786469976191
 20
98.87056892544041
 30
0.0
 10
193.8000060020203
 20
98.88463926946146
 30
0.0
 10
193.8098449894116
 20
98.9036776777809
 30
0.0
 10
193.8116978895777
 20
98.98105191916365
 30
0.0
 10
193.8027474919205
 20
99.03770567119217
 30
0.0
 10
193.7807494992231
 20
99.1501243635298
 30
0.0
 10
193.7683925089713
 20
99.20631573171909
 30
0.0
 10
193.7362031169231
 20
99.3711923661032
 30
0.0
 10
193.722062939082
 20
99.47278591547388
 30
0.0
 10
193.722062939082
 20
99.63584508455509
 30
0.0
  0
LINE
  5
100
330
1F
100
AcDbEntity
  8
0
  6
HIDDEN
 62
     7
370
     0
100
AcDbLine
 10
48.4720629391
 20
90.6879878926
 30
0.0
 11
48.4720629391
 21
87.8080501272
 31
0.0
  0
ARC
  5
101
330
1F
100
AcDbEntity
  8
0
  6
HIDDEN
 62
     7
370
     0
100
AcDbCircle
 10
181.1266488199
 20
99.3801141105
 30
0.0
 40
13.15466024502393
100
AcDbArc
 50
1.810275534
 51
4.7678934514
  0
LINE
  5
102
330
1F
100
AcDbEntity
  8
0
  6
HIDDEN
 62
     7
370
     0
100
AcDbLine
 10
57.4220629391
 20
90.6879878926
 30
0.0
 11
57.4220629391
 21
86.7142503614
 31
0.0
  0
LINE
  5
103
330
1F
100
AcDbEntity
  8
0
  6
HIDDEN
 62
     7
370
     0
100
AcDbLine
 10
48.4720629391
 20
126.6679878926
 30
0.0
 11
48.4720629391
 21
129.547925658
 31
0.0
  0
LINE
  5
104
330
1F
100
AcDbEntity
  8
0
  6
HIDDEN
 62
     7
370
     0
100
AcDbLine
 10
53.4220629391
 20
126.6679878926
 30
0.0
 11
53.4220629391
 21
130.522095565
 31
0.0
  0
LINE
  5
105
330
1F
100
AcDbEntity
  8
0
  6
HIDDEN
 62
     7
370
     0
100
AcDbLine
 10
98.0220629391
 20
99.1779878926
 30
0.0
 11
98.0220629391
 21
118.1779878926
 31
0.0
  0
LINE
  5
106
330
1F
100
AcDbEntity
  8
0
  6
HIDDEN
 62
     7
370
     0
100
AcDbLine
 10
101.0220629391
 20
99.1779878926
 30
0.0
 11
101.0220629391
 21
118.1779878926
 31
0.0
  0
LINE
  5
107
330
1F
100
AcDbEntity
  8
0
  6
HIDDEN
 62
     7
370
     0
100
AcDbLine
 10
89.6720629391
 20
100.1779878926
 30
0.0
 11
89.6720629391
 21
117.1779878926
 31
0.0
  0
LINE
  5
108
330
1F
100
AcDbEntity
  8
0
  6
HIDDEN
 62
     7
370
     0
100
AcDbLine
 10
95.4097377414
 20
82.2779878926
 30
0.0
 11
92.1720629391
 21
82.2779878926
 31
0.0
  0
LINE
  5
109
330
1F
100
AcDbEntity
  8
0
  6
HIDDEN
 62
     7
370
     0
100
AcDbLine
 10
84.1720629391
 20
77.1938649098
 30
0.0
 11
84.1720629391
 21
82.2779878926
 31
0.0
  0
LINE
  5
10A
330
1F
100
AcDbEntity
  8
0
  6
HIDDEN
 62
     7
370
     0
100
AcDbLine
 10
92.1720629391
 20
82.2779878926
 30
0.0
 11
84.1720629391
 21
82.2779878926
 31
0.0
  0
LINE
  5
10B
330
1F
100
AcDbEntity
  8
0
  6
HIDDEN
 62
     7
370
     0
100
AcDbLine
 10
105.1720629391
 20
82.2779878926
 30
0.0
 11
99.0343881368
 21
82.2779878926
 31
0.0
  0
ARC
  5
10C
330
1F
100
AcDbEntity
  8
0
  6
HIDDEN
 62
     7
370
     0
100
AcDbCircle
 10
210.4244132951
 20
99.3827035741
 30
0.0
 40
16.19657666846806
100
AcDbArc
 50
181.7954811518
 51
184.3616432553
  0
LINE
  5
10D
330
1F
100
AcDbEntity
  8
0
  6
HIDDEN
 62
     7
370
     0
100
AcDbLine
 10
95.7063604708
 20
135.0779878926
 30
0.0
 11
92.1720629391
 21
135.0779878926
 31
0.0
  0
LINE
  5
10E
330
1F
100
AcDbEntity
  8
0
  6
HIDDEN
 62
     7
370
     0
100
AcDbLine
 10
105.1720629391
 20
135.0779878926
 30
0.0
 11
98.7377654074
 21
135.0779878926
 31
0.0
  0
LINE
  5
10F
330
1F
100
AcDbEntity
  8
0
  6
HIDDEN
 62
     7
370
     0
100
AcDbLine
 10
92.1720629391
 20
135.0779878926
 30
0.0
 11
84.1720629391
 21
135.0779878926
 31
0.0
  0
SPLINE
  5
110
330
1F
100
AcDbEntity
  8
0
  6
HIDDEN
 62
     7
370
     0
100
AcDbSpline
210
0.0
220
0.0
230
1.0
 70
     8
 71
     3
 72
    11
 73
     7
 74
     0
 42
0.00000001
 43
0.00000001
 40
0.0
 40
0.0
 40
0.0
 40
0.0
 40
0.0008203708524183
 40
0.0008203708524183
 40
0.0008203708524183
 40
0.0016409967870154
 40
0.0016409967870154
 40
0.0016409967870154
 40
0.0016409967870154
 10
48.47206293908238
 20
92.82595514199369
 30
0.0
 10
48.28090463878372
 20
92.78477611337455
 30
0.0
 10
48.08947756871154
 20
92.74602214114455
 30
0.0
 10
47.89783194519092
 20
92.709654381866
 30
0.0
 10
47.70612654011046
 20
92.67327527809998
 30
0.0
 10
47.5141875880515
 20
92.63928102733242
 30
0.0
 10
47.32206294098068
 20
92.60763290194122
 30
0.0
  0
ELLIPSE
  5
111
330
1F
100
AcDbEntity
  8
0
  6
HIDDEN
 62
     7
370
     0
100
AcDbEllipse
 10
43.0796310705
 20
108.6779878926
 30
0.0
 11
20.19992453366627
 21
-1.421085471520200E-14
 31
0.0
210
0.0
220
0.0
230
1.0
 40
0.8164965809
 41
1.300566354718001
 42
1.359198697209605
  0
SPLINE
  5
112
330
1F
100
AcDbEntity
  8
0
  6
HIDDEN
 62
     7
370
     0
100
AcDbSpline
210
0.0
220
0.0
230
1.0
 70
     8
 71
     3
 72
    34
 73
    30
 74
     0
 42
0.00000001
 43
0.00000001
 40
0.0
 40
0.0
 40
0.0
 40
0.0
 40
0.0625
 40
0.0625
 40
0.1249999999999999
 40
0.1249999999999999
 40
0.2499999999999999
 40
0.2499999999999999
 40
0.3124999999999999
 40
0.3124999999999999
 40
0.3749999999999998
 40
0.3749999999999998
 40
0.5000000000000002
 40
0.5000000000000002
 40
0.5625000000000002
 40
0.5625000000000002
 40
0.6250000000000001
 40
0.6250000000000001
 40
0.6875000000000001
 40
0.6875000000000001
 40
0.7500000000000001
 40
0.7500000000000001
 40
0.8125000000000001
 40
0.8125000000000001
 40
0.875
 40
0.875
 40
0.9375
 40
0.9375
 40
1.0
 40
1.0
 40
1.0
 40
1.0
 10
196.3272889209626
 20
113.0727098835038
 30
0.0
 10
196.2252393253636
 20
112.9830365829267
 30
0.0
 10
196.1093539911038
 20
112.9059454128313
 30
0.0
 10
195.8499673376554
 20
112.7792722330605
 30
0.0
 10
195.7097290731098
 20
112.7317868260698
 30
0.0
 10
195.2713937523557
 20
112.6445050103893
 30
0.0
 10
194.956045493614
 20
112.6644095189971
 30
0.0
 10
194.5385443866028
 20
112.801811332191
 30
0.0
 10
194.4059648464814
 20
112.8657688070765
 30
0.0
 10
194.172720846327
 20
113.0180689224188
 30
0.0
 10
194.0686569793523
 20
113.1085512415094
 30
0.0
 10
193.8160376024877
 20
113.3998841570247
 30
0.0
 10
193.7221643598572
 20
113.6263870917604
 30
0.0
 10
193.7220123558831
 20
113.946072576943
 30
0.0
 10
193.7444047223104
 20
114.0479290884602
 30
0.0
 10
193.8337209484678
 20
114.2396675134095
 30
0.0
 10
193.8986252459466
 20
114.3258302643369
 30
0.0
 10
194.0687261067096
 20
114.4812704134787
 30
0.0
 10
194.1706156825553
 20
114.5473260919094
 30
0.0
 10
194.4052120588338
 20
114.6578564685662
 30
0.0
 10
194.5362055998039
 20
114.7012050442929
 30
0.0
 10
194.8149785140628
 20
114.7632847697695
 30
0.0
 10
194.9640745242975
 20
114.7821122518253
 30
0.0
 10
195.2626425776101
 20
114.7942403727028
 30
0.0
 10
195.4157754384427
 20
114.7876073632799
 30
0.0
 10
195.7070151860557
 20
114.749550437733
 30
0.0
 10
195.8493688861522
 20
114.7175546020808
 30
0.0
 10
196.106933771049
 20
114.6304291092294
 30
0.0
 10
196.2252348146571
 20
114.5745295333551
 30
0.0
 10
196.3272889209627
 20
114.5069173503487
 30
0.0
  0
SPLINE
  5
113
330
1F
100
AcDbEntity
  8
0
  6
HIDDEN
 62
     7
370
     0
100
AcDbSpline
210
0.0
220
0.0
230
1.0
 70
     8
 71
     3
 72
     8
 73
     4
 74
     0
 42
0.00000001
 43
0.00000001
 40
0.0
 40
0.0
 40
0.0
 40
0.0
 40
1.0
 40
1.0
 40
1.0
 40
1.0
 10
196.3272889209626
 20
114.5069173503487
 30
0.0
 10
196.3772006606792
 20
114.473850168615
 30
0.0
 10
196.4227887299502
 20
114.4318477161454
 30
0.0
 10
196.4640969782929
 20
114.3830287107253
 30
0.0
  0
LINE
  5
114
330
1F
100
AcDbEntity
  8
0
  6
HIDDEN
 62
     7
370
     0
100
AcDbLine
 10
193.2220629391
 20
101.7779878926
 30
0.0
 11
193.2220629391
 21
115.5779878214
 31
0.0
  0
SPLINE
  5
115
330
1F
100
AcDbEntity
  8
0
  6
HIDDEN
 62
     7
370
     0
100
AcDbSpline
210
0.0
220
0.0
230
1.0
 70
     8
 71
     3
 72
    12
 73
     8
 74
     0
 42
0.00000001
 43
0.00000001
 40
0.0
 40
0.0
 40
0.0
 40
0.0
 40
0.2499999999999998
 40
0.2499999999999998
 40
0.4999999999999996
 40
0.4999999999999996
 40
1.0
 40
1.0
 40
1.0
 40
1.0
 10
196.4640969782929
 20
114.3830287107253
 30
0.0
 10
196.5478947921268
 20
114.2839945930399
 30
0.0
 10
196.6117683487109
 20
114.1820052266045
 30
0.0
 10
196.6996344875749
 20
113.9698569077386
 30
0.0
 10
196.7219262914022
 20
113.8627030129589
 30
0.0
 10
196.7223343572635
 20
113.5467554186953
 30
0.0
 10
196.6316950794624
 20
113.3455704454667
 30
0.0
 10
196.4640969782929
 20
113.1936158762204
 30
0.0
  0
LINE
  5
116
330
1F
100
AcDbEntity
  8
0
  6
HIDDEN
 62
     7
370
     0
100
AcDbLine
 10
197.2220629391
 20
101.6779878926
 30
0.0
 11
197.2220629391
 21
115.6779878926
 31
0.0
  0
LINE
  5
117
330
1F
100
AcDbEntity
  8
0
  6
HIDDEN
 62
     7
370
     0
100
AcDbLine
 10
57.4220629391
 20
90.6879878926
 30
0.0
 11
57.4220629391
 21
92.3904742702
 31
0.0
  0
LINE
  5
118
330
1F
100
AcDbEntity
  8
0
  6
HIDDEN
 62
     7
370
     0
100
AcDbLine
 10
48.4720629391
 20
90.6879878926
 30
0.0
 11
48.4720629391
 21
92.825955142
 31
0.0
  0
LINE
  5
119
330
1F
100
AcDbEntity
  8
0
  6
HIDDEN
 62
     7
370
     0
100
AcDbLine
 10
48.5530939524
 20
92.8764974566
 30
0.0
 11
48.4720629391
 21
92.825955142
 31
0.0
  0
LINE
  5
11A
330
1F
100
AcDbEntity
  8
0
  6
HIDDEN
 62
     7
370
     0
100
AcDbLine
 10
48.4720629391
 20
126.6679878926
 30
0.0
 11
48.4720629391
 21
124.5726123437
 31
0.0
  0
SPLINE
  5
11B
330
1F
100
AcDbEntity
  8
0
  6
HIDDEN
 62
     7
370
     0
100
AcDbSpline
210
0.0
220
0.0
230
1.0
 70
     8
 71
     3
 72
     8
 73
     4
 74
     0
 42
0.00000001
 43
0.00000001
 40
0.0
 40
0.0
 40
0.0
 40
0.0
 40
1.0
 40
1.0
 40
1.0
 40
1.0
 10
48.47206293908238
 20
124.572612343695
 30
0.0
 10
48.52206843802612
 20
124.5415765694759
 30
0.0
 10
48.57206850869053
 20
124.5105319244484
 30
0.0
 10
48.62206294247564
 20
124.4794783286681
 30
0.0
  0
LINE
  5
11C
330
1F
100
AcDbEntity
  8
0
  6
HIDDEN
 62
     7
370
     0
100
AcDbLine
 10
53.4220629391
 20
126.6679878926
 30
0.0
 11
53.4220629391
 21
124.965501515
 31
0.0
  0
SPLINE
  5
11D
330
1F
100
AcDbEntity
  8
0
  6
HIDDEN
 62
     7
370
     0
100
AcDbSpline
210
0.0
220
0.0
230
1.0
 70
     8
 71
     3
 72
     8
 73
     4
 74
     0
 42
0.00000001
 43
0.00000001
 40
0.0
 40
0.0
 40
0.0
 40
0.0
 40
1.0
 40
1.0
 40
1.0
 40
1.0
 10
196.4640969782929
 20
113.1936158762204
 30
0.0
 10
196.4227887299502
 20
113.1561633213321
 30
0.0
 10
196.3772006606792
 20
113.1165684643405
 30
0.0
 10
196.3272889209626
 20
113.0727098835038
 30
0.0
  0
SPLINE
  5
11E
330
1F
100
AcDbEntity
  8
0
  6
HIDDEN
 62
     7
370
     0
100
AcDbSpline
210
0.0
220
0.0
230
1.0
 70
     8
 71
     3
 72
    20
 73
    16
 74
     0
 42
0.00000001
 43
0.00000001
 40
0.0
 40
0.0
 40
0.0
 40
0.0
 40
0.1119595197684142
 40
0.1774767634647507
 40
0.2490961890179794
 40
0.3298422315093885
 40
0.3986125823881415
 40
0.4998893016461092
 40
0.6138510293005034
 40
0.6790150176761197
 40
0.7495394203319945
 40
0.8296829944212418
 40
0.8981246285268906
 40
0.9995320175861913
 40
1.0
 40
1.0
 40
1.0
 40
1.0
 10
73.97090338894525
 20
85.07799413086862
 30
0.0
 10
73.92757965064669
 20
85.09142344890564
 30
0.0
 10
73.85890342846992
 20
85.11271142786161
 30
0.0
 10
73.41372430241962
 20
85.21602223951011
 30
0.0
 10
72.88716601874987
 20
85.32932546957198
 30
0.0
 10
72.20174099762069
 20
85.45225833736458
 30
0.0
 10
71.30842360032187
 20
85.57429279654905
 30
0.0
 10
70.19506421318424
 20
85.69202910433366
 30
0.0
 10
69.08429013254862
 20
85.70400460670929
 30
0.0
 10
68.19954183064321
 20
85.67694631657797
 30
0.0
 10
67.53234523600949
 20
85.62901425217015
 30
0.0
 10
66.99107273378227
 20
85.57272073980558
 30
0.0
 10
66.60349277471012
 20
85.52763782916678
 30
0.0
 10
66.40955625464103
 20
85.48876465446686
 30
0.0
 10
66.47265871487073
 20
85.4994707117076
 30
0.0
 10
66.47294858710609
 20
85.49951989186212
 30
0.0
  0
LINE
  5
11F
330
1F
100
AcDbEntity
  8
0
  6
HIDDEN
 62
     7
370
     0
100
AcDbLine
 10
67.3820748514
 20
85.6103260361
 30
0.0
 11
67.5659201646
 21
85.6285153786
 31
0.0
  0
LINE
  5
120
330
1F
100
AcDbEntity
  8
0
  6
HIDDEN
 62
     7
370
     0
100
AcDbLine
 10
67.5659174661
 20
131.7273909754
 30
0.0
 11
67.3918441842
 21
131.7446005015
 31
0.0
  0
SPLINE
  5
121
330
1F
100
AcDbEntity
  8
0
  6
HIDDEN
 62
     7
370
     0
100
AcDbSpline
210
0.0
220
0.0
230
1.0
 70
     8
 71
     3
 72
    20
 73
    16
 74
     0
 42
0.00000001
 43
0.00000001
 40
0.0
 40
0.0
 40
0.0
 40
0.0
 40
0.0004889684280502
 40
0.1018319933926956
 40
0.1702475582150564
 40
0.2503692056770218
 40
0.3209568221796114
 40
0.3861816196721121
 40
0.5002554836817364
 40
0.6012243489302103
 40
0.669768055864141
 40
0.750240190758111
 40
0.8220490693822882
 40
0.8877204546071489
 40
1.0
 40
1.0
 40
1.0
 40
1.0
 10
66.47298197186751
 20
131.8563893468289
 30
0.0
 10
66.47267833087061
 20
131.8564409339791
 30
0.0
 10
66.40944241170503
 20
131.8671844135925
 30
0.0
 10
66.60264644549936
 20
131.8283284229339
 30
0.0
 10
66.98959350040724
 20
131.7833049325292
 30
0.0
 10
67.53060042373357
 20
131.7270419704363
 30
0.0
 10
68.19810068519858
 20
131.6791107778422
 30
0.0
 10
69.08392853655195
 20
131.6520373221128
 30
0.0
 10
70.19473510863972
 20
131.6638633256923
 30
0.0
 10
71.30680547466298
 20
131.7813124008476
 30
0.0
 10
72.19790578086089
 20
131.9030167890872
 30
0.0
 10
72.88339023167103
 20
132.0258378346618
 30
0.0
 10
73.41137813120858
 20
132.1392760863441
 30
0.0
 10
73.85876208270184
 20
132.2430166419827
 30
0.0
 10
73.92757254905631
 20
132.26443943526
 30
0.0
 10
73.97098905636949
 20
132.2779563159071
 30
0.0
  0
LINE
  5
122
330
1F
100
AcDbEntity
  8
0
  6
HIDDEN
 62
     7
370
     0
100
AcDbLine
 10
151.1720629391
 20
130.6006376234
 30
0.0
 11
153.6720629391
 21
130.6006376234
 31
0.0
  0
LINE
  5
123
330
1F
100
AcDbEntity
  8
0
  6
HIDDEN
 62
     7
370
     0
100
AcDbLine
 10
148.6720629391
 20
130.6006376234
 30
0.0
 11
151.1720629391
 21
130.6006376234
 31
0.0
  0
LINE
  5
124
330
1F
100
AcDbEntity
  8
0
  6
HIDDEN
 62
     7
370
     0
100
AcDbLine
 10
153.6720629391
 20
86.7553381618
 30
0.0
 11
148.6720629391
 21
86.7553381618
 31
0.0
  0
LINE
  5
125
330
1F
100
AcDbEntity
  8
0
  6
HIDDEN
 62
     7
370
     0
100
AcDbLine
 10
151.1720629391
 20
119.1779878926
 30
0.0
 11
153.6720629391
 21
119.1779878926
 31
0.0
  0
LINE
  5
126
330
1F
100
AcDbEntity
  8
0
  6
HIDDEN
 62
     7
370
     0
100
AcDbLine
 10
148.6720629391
 20
119.1779878926
 30
0.0
 11
151.1720629391
 21
119.1779878926
 31
0.0
  0
LINE
  5
127
330
1F
100
AcDbEntity
  8
0
  6
HIDDEN
 62
     7
370
     0
100
AcDbLine
 10
153.6720629391
 20
98.1779878926
 30
0.0
 11
148.6720629391
 21
98.1779878926
 31
0.0
  0
SPLINE
  5
128
330
1F
100
AcDbEntity
  8
0
  6
HIDDEN
 62
     7
370
     0
100
AcDbSpline
210
0.0
220
0.0
230
1.0
 70
     8
 71
     3
 72
    10
 73
     6
 74
     0
 42
0.00000001
 43
0.00000001
 40
0.0
 40
0.0
 40
0.0
 40
0.0
 40
0.5
 40
0.5
 40
1.0
 40
1.0
 40
1.0
 40
1.0
 10
193.7414963839021
 20
118.1048913442551
 30
0.0
 10
193.7321103085283
 20
118.1644131738304
 30
0.0
 10
193.7256934206435
 20
118.2192497597792
 30
0.0
 10
193.7207131806514
 20
118.3188740255
 30
0.0
 10
193.7223248240551
 20
118.3605993401681
 30
0.0
 10
193.7277794210324
 20
118.3942669403123
 30
0.0
  0
SPLINE
  5
129
330
1F
100
AcDbEntity
  8
0
  6
HIDDEN
 62
     7
370
     0
100
AcDbSpline
210
0.0
220
0.0
230
1.0
 70
     8
 71
     3
 72
    18
 73
    14
 74
     0
 42
0.00000001
 43
0.00000001
 40
0.0
 40
0.0
 40
0.0
 40
0.0
 40
0.0076718188810879
 40
0.1498533731988103
 40
0.2161912553357367
 40
0.2711456016042001
 40
0.3265075728916043
 40
0.3858179275283517
 40
0.4791596105432555
 40
0.6205994107433885
 40
0.7642808016212993
 40
0.9113576187216235
 40
1.0
 40
1.0
 40
1.0
 40
1.0
 10
193.7500920028461
 20
118.4597416941594
 30
0.0
 10
193.7505466683156
 20
118.4611184681543
 30
0.0
 10
193.7594276332259
 20
118.4880109470387
 30
0.0
 10
193.7828007023411
 20
118.4874698866646
 30
0.0
 10
193.803720484657
 20
118.464469222082
 30
0.0
 10
193.8121525879606
 20
118.4253308680262
 30
0.0
 10
193.8097312801353
 20
118.3649544346004
 30
0.0
 10
193.7951342012699
 20
118.2749561729152
 30
0.0
 10
193.7667548699065
 20
118.1423838874341
 30
0.0
 10
193.7342343786001
 20
117.9769509553718
 30
0.0
 10
193.7181451824566
 20
117.8133930954103
 30
0.0
 10
193.7254264527638
 20
117.6979892416693
 30
0.0
 10
193.7443072651052
 20
117.6667507300592
 30
0.0
 10
193.7514074087419
 20
117.6550034643475
 30
0.0
  0
LWPOLYLINE
  5
12A
330
1F
100
AcDbEntity
  8
0
  6
HIDDEN
 62
     7
370
     0
100
AcDbPolyline
 90
        8
 70
   128
 43
0.0
 10
193.7638139718
 20
117.6286301707
 10
193.7906713699
 20
117.6223616459
 10
193.8051432351
 20
117.6429231715
 10
193.8106685862
 20
117.6786258123
 10
193.8083407191
 20
117.7313083612
 10
193.7961172967
 20
117.8137002813
 10
193.7682933569
 20
117.9568648553
 10
193.7414963839
 20
118.1048913443
  0
SPLINE
  5
12B
330
1F
100
AcDbEntity
  8
0
  6
HIDDEN
 62
     7
370
     0
100
AcDbSpline
210
0.0
220
0.0
230
1.0
 70
     8
 71
     3
 72
    14
 73
    10
 74
     0
 42
0.00000001
 43
0.00000001
 40
0.0
 40
0.0
 40
0.0
 40
0.0
 40
0.25
 40
0.25
 40
0.5
 40
0.5
 40
0.75
 40
0.75
 40
1.0
 40
1.0
 40
1.0
 40
1.0
 10
194.2747437190714
 20
119.2050466886767
 30
0.0
 10
194.3108634639781
 20
119.1719975769039
 30
0.0
 10
194.3423151820701
 20
119.1317846868341
 30
0.0
 10
194.385720150642
 20
119.0326067308942
 30
0.0
 10
194.3961940765019
 20
118.9753287323161
 30
0.0
 10
194.3877327229868
 20
118.8459570073313
 30
0.0
 10
194.3687670134501
 20
118.7755272174129
 30
0.0
 10
194.3122565598972
 20
118.6303209772093
 30
0.0
 10
194.2756361908288
 20
118.5562978866536
 30
0.0
 10
194.2357885855868
 20
118.4807422032829
 30
0.0
  0
SPLINE
  5
12C
330
1F
100
AcDbEntity
  8
0
  6
HIDDEN
 62
     7
370
     0
100
AcDbSpline
210
0.0
220
0.0
230
1.0
 70
     8
 71
     3
 72
    14
 73
    10
 74
     0
 42
0.00000001
 43
0.00000001
 40
0.0
 40
0.0
 40
0.0
 40
0.0
 40
0.25
 40
0.25
 40
0.5
 40
0.5
 40
0.75
 40
0.75
 40
1.0
 40
1.0
 40
1.0
 40
1.0
 10
194.2357885855868
 20
118.4807422032835
 30
0.0
 10
194.2034356922213
 20
118.5171332400816
 30
0.0
 10
194.1724615079833
 20
118.5527038712588
 30
0.0
 10
194.1226152672897
 20
118.6339746190339
 30
0.0
 10
194.1039154246141
 20
118.6820152117573
 30
0.0
 10
194.1139565809041
 20
118.8172520681051
 30
0.0
 10
194.1405471854515
 20
118.8974490871515
 30
0.0
 10
194.2019642837245
 20
119.0525618943377
 30
0.0
 10
194.2376045366939
 20
119.1294549835486
 30
0.0
 10
194.2747437190713
 20
119.2050466886772
 30
0.0
  0
LWPOLYLINE
  5
12D
330
1F
100
AcDbEntity
  8
0
  6
HIDDEN
 62
     7
370
     0
100
AcDbPolyline
 90
       17
 70
   128
 43
0.0
 10
195.2220629391
 20
117.8703760481
 10
195.7960880876
 20
117.9511139962
 10
196.2827231109
 20
118.1810362198
 10
196.6078822378
 20
118.5251391447
 10
196.7220629391
 20
118.9310362198
 10
196.6078822378
 20
119.336933295
 10
196.2827231109
 20
119.6810362198
 10
195.7960880876
 20
119.9109584435
 10
195.2220629391
 20
119.9916963916
 10
194.6480377905
 20
119.9109584435
 10
194.1614027673
 20
119.6810362198
 10
193.8362436403
 20
119.336933295
 10
193.7220629391
 20
118.9310362198
 10
193.8362436403
 20
118.5251391447
 10
194.1614027673
 20
118.1810362198
 10
194.6480377905
 20
117.9511139962
 10
195.2220629391
 20
117.8703760481
  0
SPLINE
  5
12E
330
1F
100
AcDbEntity
  8
0
  6
HIDDEN
 62
     7
370
     0
100
AcDbSpline
210
0.0
220
0.0
230
1.0
 70
     8
 71
     3
 72
    48
 73
    44
 74
     0
 42
0.00000001
 43
0.00000001
 40
-0.0624999999999994
 40
-0.0624999999999994
 40
0.0
 40
0.0
 40
0.0625000000000002
 40
0.0625000000000002
 40
0.1250000000000004
 40
0.1250000000000004
 40
0.1875000000000006
 40
0.1875000000000006
 40
0.2500000000000008
 40
0.2500000000000008
 40
0.3125000000000011
 40
0.3125000000000011
 40
0.3437500000000006
 40
0.3437500000000006
 40
0.375
 40
0.375
 40
0.4062499999999995
 40
0.4062499999999995
 40
0.437499999999999
 40
0.437499999999999
 40
0.4999999999999998
 40
0.4999999999999998
 40
0.5625000000000006
 40
0.5625000000000006
 40
0.6250000000000013
 40
0.6250000000000013
 40
0.6562500000000013
 40
0.6562500000000013
 40
0.6875000000000013
 40
0.6875000000000013
 40
0.7500000000000009
 40
0.7500000000000009
 40
0.8125000000000006
 40
0.8125000000000006
 40
0.8437500000000006
 40
0.8437500000000006
 40
0.8750000000000006
 40
0.8750000000000006
 40
0.9062500000000006
 40
0.9062500000000006
 40
0.9375000000000006
 40
0.9375000000000006
 40
1.0
 40
1.0
 40
1.0625
 40
1.0625
 10
196.5158091481071
 20
118.1554368054199
 30
0.0
 10
196.3526537921167
 20
117.8434126779676
 30
0.0
 10
196.2649498828656
 20
117.6940814246679
 30
0.0
 10
196.1129580534146
 20
117.3985973880833
 30
0.0
 10
196.0520704357229
 20
117.2536340611211
 30
0.0
 10
196.0503865992778
 20
117.0023919742612
 30
0.0
 10
196.1088332997816
 20
116.9100963826764
 30
0.0
 10
196.2538563691406
 20
116.7873004908558
 30
0.0
 10
196.3393754774011
 20
116.7545405632338
 30
0.0
 10
196.498667819679
 20
116.7429486758631
 30
0.0
 10
196.5733818614641
 20
116.7646958470892
 30
0.0
 10
196.6570362685146
 20
116.8492524090822
 30
0.0
 10
196.6795996263457
 20
116.8856446372988
 30
0.0
 10
196.7114365996771
 20
116.9755740921784
 30
0.0
 10
196.720587598294
 20
117.0298225704683
 30
0.0
 10
196.7231993724835
 20
117.1503859233717
 30
0.0
 10
196.7167443850904
 20
117.2184817110762
 30
0.0
 10
196.6895570346138
 20
117.3623708464757
 30
0.0
 10
196.6690372501438
 20
117.4380700818188
 30
0.0
 10
196.5906216806233
 20
117.6724193896636
 30
0.0
 10
196.5174356862466
 20
117.8331263744113
 30
0.0
 10
196.3604564305238
 20
118.1432725722852
 30
0.0
 10
196.2740811294742
 20
118.2962335587597
 30
0.0
 10
196.1249796752191
 20
118.5901940536725
 30
0.0
 10
196.0602273259512
 20
118.7374391885357
 30
0.0
 10
196.048054788686
 20
118.9292287042707
 30
0.0
 10
196.0584360165512
 20
118.9863511628372
 30
0.0
 10
196.1020769479038
 20
119.0833464585506
 30
0.0
 10
196.1338758221819
 20
119.1221507996182
 30
0.0
 10
196.2439293812439
 20
119.2159513065068
 30
0.0
 10
196.3315958881734
 20
119.2462736165481
 30
0.0
 10
196.496332555792
 20
119.2515203577878
 30
0.0
 10
196.5716457474463
 20
119.2256648862543
 30
0.0
 10
196.6563596933805
 20
119.1363400141654
 30
0.0
 10
196.6790567613043
 20
119.0988165994099
 30
0.0
 10
196.7113100293156
 20
119.0066893915643
 30
0.0
 10
196.7204687709633
 20
118.9522491503021
 30
0.0
 10
196.7232680697964
 20
118.831651435974
 30
0.0
 10
196.7168741280939
 20
118.7637086308046
 30
0.0
 10
196.6897810640116
 20
118.6212516165679
 30
0.0
 10
196.6691592922212
 20
118.5461231736094
 30
0.0
 10
196.5900644758808
 20
118.314254169751
 30
0.0
 10
196.5158091481071
 20
118.1554368054199
 30
0.0
 10
196.3526537921167
 20
117.8434126779676
 30
0.0
  0
SPLINE
  5
12F
330
1F
100
AcDbEntity
  8
0
  6
HIDDEN
 62
     7
370
     0
100
AcDbSpline
210
0.0
220
0.0
230
1.0
 70
     8
 71
     3
 72
    10
 73
     6
 74
     0
 42
0.00000001
 43
0.00000001
 40
0.0
 40
0.0
 40
0.0
 40
0.0
 40
0.5
 40
0.5
 40
1.0
 40
1.0
 40
1.0
 40
1.0
 10
194.2357885855868
 20
116.8824538065055
 30
0.0
 10
194.3153586487556
 20
116.9351254363921
 30
0.0
 10
194.3830540319142
 20
117.0206769987914
 30
0.0
 10
194.4007282550837
 20
117.2648119045011
 30
0.0
 10
194.3470065356761
 20
117.410943996207
 30
0.0
 10
194.2747437190714
 20
117.5603058000274
 30
0.0
  0
SPLINE
  5
130
330
1F
100
AcDbEntity
  8
0
  6
HIDDEN
 62
     7
370
     0
100
AcDbSpline
210
0.0
220
0.0
230
1.0
 70
     8
 71
     3
 72
    14
 73
    10
 74
     0
 42
0.00000001
 43
0.00000001
 40
0.0
 40
0.0
 40
0.0
 40
0.0
 40
0.25
 40
0.25
 40
0.5
 40
0.5
 40
0.75
 40
0.75
 40
1.0
 40
1.0
 40
1.0
 40
1.0
 10
194.2747437190714
 20
117.560305800027
 30
0.0
 10
194.2375316321014
 20
117.5274316999971
 30
0.0
 10
194.2017930760459
 20
117.4959776049815
 30
0.0
 10
194.1402973468631
 20
117.4259423096571
 30
0.0
 10
194.113790480927
 20
117.3868409008983
 30
0.0
 10
194.1040071404918
 20
117.267662360037
 30
0.0
 10
194.1227903363012
 20
117.1893772766276
 30
0.0
 10
194.1727089448865
 20
117.0357336573458
 30
0.0
 10
194.2035176793019
 20
116.9585801876208
 30
0.0
 10
194.2357885855868
 20
116.8824538065055
 30
0.0
  0
SPLINE
  5
131
330
1F
100
AcDbEntity
  8
0
  6
HIDDEN
 62
     7
370
     0
100
AcDbSpline
210
0.0
220
0.0
230
1.0
 70
     8
 71
     3
 72
     8
 73
     4
 74
     0
 42
0.00000001
 43
0.00000001
 40
0.0
 40
0.0
 40
0.0
 40
0.0
 40
0.000159097695343
 40
0.000159097695343
 40
0.000159097695343
 40
0.000159097695343
 10
48.6072309483004
 20
92.87649745660475
 30
0.0
 10
48.56217947779605
 20
92.84851857228098
 30
0.0
 10
48.51712343938125
 20
92.8205470419059
 30
0.0
 10
48.47206293908238
 20
92.79258270255339
 30
0.0
  0
SPLINE
  5
132
330
1F
100
AcDbEntity
  8
0
  6
HIDDEN
 62
     7
370
     0
100
AcDbSpline
210
0.0
220
0.0
230
1.0
 70
     8
 71
     3
 72
    11
 73
     7
 74
     0
 42
0.00000001
 43
0.00000001
 40
0.0
 40
0.0
 40
0.0
 40
0.0
 40
0.0008212909311456
 40
0.0008212909311456
 40
0.0008212909311456
 40
0.001642825724306
 40
0.001642825724306
 40
0.001642825724306
 40
0.001642825724306
 10
48.47206293908238
 20
92.79258270255339
 30
0.0
 10
48.2809179176002
 20
92.74929651370084
 30
0.0
 10
48.08949958192373
 20
92.70836000406356
 30
0.0
 10
47.89785350726258
 20
92.66975823267698
 30
0.0
 10
47.70615042572099
 20
92.63114497883988
 30
0.0
 10
47.51420530243547
 20
92.59486476955388
 30
0.0
 10
47.32206293908229
 20
92.56089786320237
 30
0.0
  0
LINE
  5
133
330
1F
100
AcDbEntity
  8
0
  6
HIDDEN
 62
     7
370
     0
100
AcDbLine
 10
95.3120629391
 20
128.8138545241
 30
0.0
 11
95.3120629391
 21
128.5279878926
 31
0.0
  0
LINE
  5
134
330
1F
100
AcDbEntity
  8
0
  6
HIDDEN
 62
     7
370
     0
100
AcDbLine
 10
99.1320629391
 20
128.8591339052
 30
0.0
 11
99.1320629391
 21
128.5279878926
 31
0.0
  0
LINE
  5
135
330
1F
100
AcDbEntity
  8
0
  6
HIDDEN
 62
     7
370
     0
100
AcDbLine
 10
100.6139957706
 20
133.136677555
 30
0.0
 11
100.6139957706
 21
128.5279878926
 31
0.0
  0
ARC
  5
136
330
1F
100
AcDbEntity
  8
0
  6
HIDDEN
 62
     7
370
     0
100
AcDbCircle
 10
210.424413295
 20
117.9732722112
 30
0.0
 40
16.19657666843301
100
AcDbArc
 50
175.6383567447
 51
178.2045188482
  0
SPLINE
  5
137
330
1F
100
AcDbEntity
  8
0
  6
HIDDEN
 62
     7
370
     0
100
AcDbSpline
210
0.0
220
0.0
230
1.0
 70
     8
 71
     3
 72
    24
 73
    20
 74
     0
 42
0.00000001
 43
0.00000001
 40
0.0
 40
0.0
 40
0.0
 40
0.0
 40
0.25
 40
0.25
 40
0.374999999999999
 40
0.374999999999999
 40
0.4374999999999993
 40
0.4374999999999993
 40
0.4687499999999994
 40
0.4687499999999994
 40
0.4999999999999995
 40
0.4999999999999995
 40
0.5624999999999971
 40
0.5624999999999971
 40
0.6249999999999947
 40
0.6249999999999947
 40
0.7499999999999947
 40
0.7499999999999947
 40
1.0
 40
1.0
 40
1.0
 40
1.0
 10
47.38472631380578
 20
89.00343534785569
 30
0.0
 10
47.39847943247602
 20
89.07408540584596
 30
0.0
 10
47.41625199988188
 20
89.14068351861087
 30
0.0
 10
47.46850309143724
 20
89.2147815388441
 30
0.0
 10
47.48953816701879
 20
89.23603934600564
 30
0.0
 10
47.54243857464724
 20
89.24418527215188
 30
0.0
 10
47.56354424752515
 20
89.24324546875611
 30
0.0
 10
47.6095964162031
 20
89.22222947717877
 30
0.0
 10
47.62796688818651
 20
89.21132067107115
 30
0.0
 10
47.66951852325221
 20
89.17868576012378
 30
0.0
 10
47.69208519600912
 20
89.15719377975242
 30
0.0
 10
47.75486621246913
 20
89.0887278361661
 30
0.0
 10
47.78799597343703
 20
89.042653377961
 30
0.0
 10
47.84491365992205
 20
88.95764548962634
 30
0.0
 10
47.86909968542582
 20
88.91736518844495
 30
0.0
 10
47.93430763580558
 20
88.80242896197902
 30
0.0
 10
47.96902369599682
 20
88.731845976832
 30
0.0
 10
48.06223896632769
 20
88.5276402177534
 30
0.0
 10
48.10791150168838
 20
88.40474183542604
 30
0.0
 10
48.14621658518692
 20
88.28786855903847
 30
0.0
  0
ARC
  5
138
330
1F
100
AcDbEntity
  8
0
  6
HIDDEN
 62
     7
370
     0
100
AcDbCircle
 10
181.1266488199
 20
117.9758616747
 30
0.0
 40
13.15466024502309
100
AcDbArc
 50
355.2321065486
 51
358.189724466
  0
SPLINE
  5
139
330
1F
100
AcDbEntity
  8
0
  6
HIDDEN
 62
     7
370
     0
100
AcDbSpline
210
0.0
220
0.0
230
1.0
 70
     8
 71
     3
 72
    11
 73
     7
 74
     0
 42
0.00000001
 43
0.00000001
 40
0.0
 40
0.0
 40
0.0
 40
0.0
 40
0.0005781862223978
 40
0.0005781862223978
 40
0.0005781862223978
 40
0.0011563724723928
 40
0.0011563724723928
 40
0.0011563724723928
 40
0.0011563724723928
 10
48.32206293908236
 20
121.3181301996832
 30
0.0
 10
48.15540238480676
 20
121.3826597110967
 30
0.0
 10
47.98873908790027
 20
121.4471624149405
 30
0.0
 10
47.82207250407003
 20
121.5116488633742
 30
0.0
 10
47.65540591181094
 20
121.5761353150691
 30
0.0
 10
47.48873604618507
 20
121.6406053237972
 30
0.0
 10
47.32206293908234
 20
121.7050610905298
 30
0.0
  0
SPLINE
  5
13A
330
1F
100
AcDbEntity
  8
0
  6
HIDDEN
 62
     7
370
     0
100
AcDbSpline
210
0.0
220
0.0
230
1.0
 70
     8
 71
     3
 72
    11
 73
     7
 74
     0
 42
0.00000001
 43
0.00000001
 40
0.0
 40
0.0
 40
0.0
 40
0.0
 40
0.0005778746105108
 40
0.0005778746105108
 40
0.0005778746105108
 40
0.0011557494857226
 40
0.0011557494857226
 40
0.0011557494857226
 40
0.0011557494857226
 10
47.32206293908235
 20
95.65076603714652
 30
0.0
 10
47.48872981549568
 20
95.71657816384038
 30
0.0
 10
47.65539653505716
 20
95.78243664397797
 30
0.0
 10
47.82206318310579
 20
95.84834421690861
 30
0.0
 10
47.98872990762445
 20
95.91425182007899
 30
0.0
 10
48.15539660204504
 20
95.98020892846749
 30
0.0
 10
48.32206293908236
 20
96.0462106683902
 30
0.0
  0
SPLINE
  5
13B
330
1F
100
AcDbEntity
  8
0
  6
HIDDEN
 62
     7
370
     0
100
AcDbSpline
210
0.0
220
0.0
230
1.0
 70
     8
 71
     3
 72
    11
 73
     7
 74
     0
 42
0.00000001
 43
0.00000001
 40
0.0000000000000006
 40
0.0000000000000006
 40
0.0000000000000006
 40
0.0000000000000006
 40
0.0005780486062768
 40
0.0005780486062768
 40
0.0005780486062768
 40
0.0011560973514127
 40
0.0011560973514127
 40
0.0011560973514127
 40
0.0011560973514127
 10
47.32206293908235
 20
118.6588023943282
 30
0.0
 10
47.48873279512728
 20
118.5964305328137
 30
0.0
 10
47.65540049921153
 20
118.534076672516
 30
0.0
 10
47.82206680366519
 20
118.4717571123299
 30
0.0
 10
47.98873314435892
 20
118.409437538593
 30
0.0
 10
48.1553981009877
 20
118.3471523342734
 30
0.0
 10
48.32206293908236
 20
118.2849272137047
 30
0.0
  0
SPLINE
  5
13C
330
1F
100
AcDbEntity
  8
0
  6
HIDDEN
 62
     7
370
     0
100
AcDbSpline
210
0.0
220
0.0
230
1.0
 70
     8
 71
     3
 72
    11
 73
     7
 74
     0
 42
0.00000001
 43
0.00000001
 40
0.0
 40
0.0
 40
0.0
 40
0.0
 40
0.0005782401583533
 40
0.0005782401583533
 40
0.0005782401583533
 40
0.0011564805960992
 40
0.0011564805960992
 40
0.0011564805960992
 40
0.0011564805960992
 10
48.32206293908236
 20
99.07716110023875
 30
0.0
 10
48.15541198873346
 20
99.01373564217796
 30
0.0
 10
47.9887523961508
 20
98.95038011852269
 30
0.0
 10
47.82208534372224
 20
98.8870825341727
 30
0.0
 10
47.65541820715843
 20
98.82378491786946
 30
0.0
 10
47.48874359971239
 20
98.76054512292879
 30
0.0
 10
47.32206293908231
 20
98.69734511628994
 30
0.0
  0
CIRCLE
  5
13D
330
1F
100
AcDbEntity
  8
0
  6
HIDDEN
 62
     7
370
     0
100
AcDbCircle
 10
86.2220629391
 20
108.6779878926
 30
0.0
 40
5.0
  0
CIRCLE
  5
13E
330
1F
100
AcDbEntity
  8
0
  6
HIDDEN
 62
     7
370
     0
100
AcDbCircle
 10
217.2220629391
 20
108.6779878926
 30
0.0
 40
6.000000000000028
  0
CIRCLE
  5
13F
330
1F
100
AcDbEntity
  8
0
  6
HIDDEN
 62
     7
370
     0
100
AcDbCircle
 10
217.2220629391
 20
108.6779878926
 30
0.0
 40
2.749999999999998
  0
CIRCLE
  5
140
330
1F
100
AcDbEntity
  8
0
  6
HIDDEN
 62
     7
370
     0
100
AcDbCircle
 10
217.2220629391
 20
108.6779878926
 30
0.0
 40
4.000000000000019
  0
LWPOLYLINE
  5
141
330
1F
100
AcDbEntity
  8
0
  6
HIDDEN
 62
     7
370
     0
100
AcDbPolyline
 90
       17
 70
   128
 43
0.0
 10
233.8067480983
 20
98.9462125403
 10
233.7915978939
 20
98.907723615
 10
233.7709898836
 20
99.0955666428
 10
233.7480614502
 20
99.4811442255
 10
233.7263032398
 20
100.0057556713
 10
233.7090277426
 20
100.5895336433
 10
233.6988649966
 20
101.1436032372
 10
233.6973621877
 20
101.58361238
 10
233.7047481049
 20
101.8425736683
 10
233.7198983093
 20
101.8810625935
 10
233.7405063195
 20
101.6932195657
 10
233.763434753
 20
101.307641983
 10
233.7851929634
 20
100.7830305372
 10
233.8024684605
 20
100.1992525652
 10
233.8126312065
 20
99.6451829713
 10
233.8141340155
 20
99.2051738286
 10
233.8067480983
 20
98.9462125403
  0
LWPOLYLINE
  5
142
330
1F
100
AcDbEntity
  8
0
  6
HIDDEN
 62
     7
370
     0
100
AcDbPolyline
 90
       17
 70
   128
 43
0.0
 10
233.2901335813
 20
99.415058954
 10
233.280033445
 20
99.3893996705
 10
233.2662947715
 20
99.5146283557
 10
233.2510091492
 20
99.7716800775
 10
233.2365036756
 20
100.1214210413
 10
233.2249866775
 20
100.510606356
 10
233.2182115135
 20
100.8799860853
 10
233.2172096409
 20
101.1733255138
 10
233.2221335857
 20
101.3459663726
 10
233.2322337219
 20
101.3716256561
 10
233.2459723954
 20
101.2463969709
 10
233.2612580177
 20
100.9893452491
 10
233.2757634913
 20
100.6396042853
 10
233.2872804894
 20
100.2504189706
 10
233.2940556534
 20
99.8810392413
 10
233.2950575261
 20
99.5876998128
 10
233.2901335813
 20
99.415058954
  0
LWPOLYLINE
  5
143
330
1F
100
AcDbEntity
  8
0
  6
HIDDEN
 62
     7
370
     0
100
AcDbPolyline
 90
       17
 70
   128
 43
0.0
 10
239.1406859022
 20
99.0944016064
 10
239.1255356978
 20
99.0559126811
 10
239.1049276875
 20
99.2437557089
 10
239.0819992541
 20
99.6293332916
 10
239.0602410437
 20
100.1539447375
 10
239.0429655465
 20
100.7377227094
 10
239.0328028005
 20
101.2917923033
 10
239.0312999916
 20
101.7318014461
 10
239.0386859088
 20
101.9907627344
 10
239.0538361132
 20
102.0292516596
 10
239.0744441234
 20
101.8414086318
 10
239.0973725569
 20
101.4558310492
 10
239.1191307673
 20
100.9312196033
 10
239.1364062644
 20
100.3474416313
 10
239.1465690104
 20
99.7933720374
 10
239.1480718194
 20
99.3533628947
 10
239.1406859022
 20
99.0944016064
  0
ARC
  5
144
330
1F
100
AcDbEntity
  8
0
  6
HIDDEN
 62
     7
370
     0
100
AcDbCircle
 10
252.6950100825
 20
100.9025784453
 30
0.0
 40
13.50000978817983
100
AcDbArc
 50
176.3714903393
 51
186.6915291025
  0
LINE
  5
145
330
1F
100
AcDbEntity
  8
0
  6
HIDDEN
 62
     7
370
     0
100
AcDbLine
 10
239.2809526627
 20
100.3233429522
 30
0.0
 11
239.2809526627
 21
99.7109705165
 31
0.0
  0
LINE
  5
146
330
1F
100
AcDbEntity
  8
0
  6
HIDDEN
 62
     7
370
     0
100
AcDbLine
 10
237.2824945902
 20
100.2678211883
 30
0.0
 11
237.2824945902
 21
99.6554487526
 31
0.0
  0
LINE
  5
147
330
1F
100
AcDbEntity
  8
0
  6
HIDDEN
 62
     7
370
     0
100
AcDbLine
 10
237.2824945902
 20
100.2678211883
 30
0.0
 11
237.2530497284
 21
101.1039286268
 31
0.0
  0
LINE
  5
148
330
1F
100
AcDbEntity
  8
0
  6
HIDDEN
 62
     7
370
     0
100
AcDbLine
 10
237.2824945902
 20
100.2678211883
 30
0.0
 11
239.2809526627
 21
100.3233429522
 31
0.0
  0
LINE
  5
149
330
1F
100
AcDbEntity
  8
0
  6
HIDDEN
 62
     7
370
     0
100
AcDbLine
 10
239.2809526627
 20
100.3233429522
 30
0.0
 11
239.2515078009
 21
101.1594503907
 31
0.0
  0
LINE
  5
14A
330
1F
100
AcDbEntity
  8
0
  6
HIDDEN
 62
     7
370
     0
100
AcDbLine
 10
237.2530497284
 20
101.1039286268
 30
0.0
 11
239.2515078009
 21
101.1594503907
 31
0.0
  0
LINE
  5
14B
330
1F
100
AcDbEntity
  8
0
  6
HIDDEN
 62
     7
370
     0
100
AcDbLine
 10
237.2530497284
 20
101.1039286268
 30
0.0
 11
237.2236048666
 21
101.3276636296
 31
0.0
  0
LINE
  5
14C
330
1F
100
AcDbEntity
  8
0
  6
HIDDEN
 62
     7
370
     0
100
AcDbLine
 10
239.2515078009
 20
101.1594503907
 30
0.0
 11
239.2220629391
 21
101.3831853935
 31
0.0
  0
LINE
  5
14D
330
1F
100
AcDbEntity
  8
0
  6
HIDDEN
 62
     7
370
     0
100
AcDbLine
 10
237.2530497284
 20
99.8791837554
 30
0.0
 11
239.2515078009
 21
99.9347055193
 31
0.0
  0
LINE
  5
14E
330
1F
100
AcDbEntity
  8
0
  6
HIDDEN
 62
     7
370
     0
100
AcDbLine
 10
237.2530497284
 20
99.8791837554
 30
0.0
 11
237.2824945902
 21
99.6554487526
 31
0.0
  0
LINE
  5
14F
330
1F
100
AcDbEntity
  8
0
  6
HIDDEN
 62
     7
370
     0
100
AcDbLine
 10
237.2824945902
 20
99.6554487526
 30
0.0
 11
239.2809526627
 21
99.7109705165
 31
0.0
  0
LINE
  5
150
330
1F
100
AcDbEntity
  8
0
  6
HIDDEN
 62
     7
370
     0
100
AcDbLine
 10
239.2515078009
 20
99.9347055193
 30
0.0
 11
239.2809526627
 21
99.7109705165
 31
0.0
  0
LINE
  5
151
330
1F
100
AcDbEntity
  8
0
  6
HIDDEN
 62
     7
370
     0
100
AcDbLine
 10
237.2236048666
 20
100.7152911939
 30
0.0
 11
239.2220629391
 21
100.7708129578
 31
0.0
  0
LINE
  5
152
330
1F
100
AcDbEntity
  8
0
  6
HIDDEN
 62
     7
370
     0
100
AcDbLine
 10
237.2236048666
 20
101.3276636296
 30
0.0
 11
239.2220629391
 21
101.3831853935
 31
0.0
  0
LINE
  5
153
330
1F
100
AcDbEntity
  8
0
  6
HIDDEN
 62
     7
370
     0
100
AcDbLine
 10
237.2236048666
 20
100.7152911939
 30
0.0
 11
237.2236048666
 21
101.3276636296
 31
0.0
  0
LINE
  5
154
330
1F
100
AcDbEntity
  8
0
  6
HIDDEN
 62
     7
370
     0
100
AcDbLine
 10
237.2530497284
 20
99.8791837554
 30
0.0
 11
237.2236048666
 21
100.7152911939
 31
0.0
  0
LINE
  5
155
330
1F
100
AcDbEntity
  8
0
  6
HIDDEN
 62
     7
370
     0
100
AcDbLine
 10
239.2515078009
 20
99.9347055193
 30
0.0
 11
239.2220629391
 21
100.7708129578
 31
0.0
  0
LWPOLYLINE
  5
156
330
1F
100
AcDbEntity
  8
0
  6
HIDDEN
 62
     7
370
     0
100
AcDbPolyline
 90
        7
 70
   128
 43
0.0
 10
239.2220629391
 20
116.9815619436
 10
239.2200991373
 20
116.9182061192
 10
239.2083755111
 20
116.4452629797
 10
239.2031100596
 20
116.0276829594
 10
239.2051044
 20
115.729038831
 10
239.2140549122
 20
115.5947964558
 10
239.2220629391
 20
115.6020420555
  0
LWPOLYLINE
  5
157
330
1F
100
AcDbEntity
  8
0
  6
HIDDEN
 62
     7
370
     0
100
AcDbPolyline
 90
       17
 70
   128
 43
0.0
 10
239.145175918
 20
118.1416775497
 10
239.1341666779
 20
118.3067973224
 10
239.116277318
 20
118.2445629279
 10
239.0942313312
 20
117.9644489886
 10
239.0713850191
 20
117.5091003126
 10
239.0512165257
 20
116.9478396079
 10
239.0367963212
 20
116.3661137291
 10
239.0303197511
 20
115.8524851678
 10
239.0327728144
 20
115.4851492164
 10
239.0437820545
 20
115.3200294437
 10
239.0616714144
 20
115.3822638382
 10
239.0837174012
 20
115.6623777775
 10
239.1065637133
 20
116.1177264536
 10
239.1267322067
 20
116.6789871583
 10
239.1411524111
 20
117.2607130371
 10
239.1476289813
 20
117.7743415984
 10
239.145175918
 20
118.1416775497
  0
LWPOLYLINE
  5
158
330
1F
100
AcDbEntity
  8
0
  6
HIDDEN
 62
     7
370
     0
100
AcDbPolyline
 90
       17
 70
   128
 43
0.0
 10
233.8112381141
 20
118.2898666158
 10
233.800228874
 20
118.4549863885
 10
233.7823395141
 20
118.392751994
 10
233.7602935273
 20
118.1126380547
 10
233.7374472152
 20
117.6572893787
 10
233.7172787218
 20
117.096028674
 10
233.7028585174
 20
116.5143027952
 10
233.6963819472
 20
116.0006742339
 10
233.6988350105
 20
115.6333382825
 10
233.7098442506
 20
115.4682185098
 10
233.7277336105
 20
115.5304529043
 10
233.7497795973
 20
115.8105668436
 10
233.7726259094
 20
116.2659155197
 10
233.7927944028
 20
116.8271762244
 10
233.8072146072
 20
117.4089021032
 10
233.8136911774
 20
117.9225306645
 10
233.8112381141
 20
118.2898666158
  0
LWPOLYLINE
  5
159
330
1F
100
AcDbEntity
  8
0
  6
HIDDEN
 62
     7
370
     0
100
AcDbPolyline
 90
       17
 70
   128
 43
0.0
 10
233.2928897454
 20
117.8609923346
 10
233.285550252
 20
117.9710721831
 10
233.273624012
 20
117.9295825867
 10
233.2589266875
 20
117.7428399605
 10
233.2436958128
 20
117.4392741765
 10
233.2302501505
 20
117.0651003734
 10
233.2206366809
 20
116.6772831208
 10
233.2163189675
 20
116.33486408
 10
233.217954343
 20
116.0899734457
 10
233.2252938364
 20
115.9798935973
 10
233.2372200763
 20
116.0213831936
 10
233.2519174009
 20
116.2081258198
 10
233.2671482756
 20
116.5116916039
 10
233.2805939378
 20
116.885865407
 10
233.2902074075
 20
117.2736826595
 10
233.2945251209
 20
117.6161017004
 10
233.2928897454
 20
117.8609923346
  0
LINE
  5
15A
330
1F
100
AcDbEntity
  8
0
  6
HIDDEN
 62
     7
370
     0
100
AcDbLine
 10
239.2220629391
 20
116.4076840752
 30
0.0
 11
239.2183482806
 21
116.0420439243
 31
0.0
  0
LINE
  5
15B
330
1F
100
AcDbEntity
  8
0
  6
HIDDEN
 62
     7
370
     0
100
AcDbLine
 10
239.2220629391
 20
116.0473286678
 30
0.0
 11
239.2183482806
 21
116.0420439243
 31
0.0
  0
LINE
  5
15C
330
1F
100
AcDbEntity
  8
0
  6
HIDDEN
 62
     7
370
     0
100
AcDbLine
 10
237.2773568532
 20
116.9000327347
 30
0.0
 11
237.2847861702
 21
117.6313130365
 31
0.0
  0
LINE
  5
15D
330
1F
100
AcDbEntity
  8
0
  6
HIDDEN
 62
     7
370
     0
100
AcDbLine
 10
237.2773568532
 20
116.9000327347
 30
0.0
 11
237.2449088722
 21
116.1331590605
 31
0.0
  0
LINE
  5
15E
330
1F
100
AcDbEntity
  8
0
  6
HIDDEN
 62
     7
370
     0
100
AcDbLine
 10
237.2449088722
 20
116.1331590605
 30
0.0
 11
237.2198902081
 21
116.0975656882
 31
0.0
  0
LINE
  5
15F
330
1F
100
AcDbEntity
  8
0
  6
HIDDEN
 62
     7
370
     0
100
AcDbLine
 10
237.2597675061
 20
117.5957196642
 30
0.0
 11
237.2273195251
 21
116.82884599
 31
0.0
  0
LINE
  5
160
330
1F
100
AcDbEntity
  8
0
  6
HIDDEN
 62
     7
370
     0
100
AcDbLine
 10
237.2597675061
 20
117.5957196642
 30
0.0
 11
237.2847861702
 21
117.6313130365
 31
0.0
  0
LINE
  5
161
330
1F
100
AcDbEntity
  8
0
  6
HIDDEN
 62
     7
370
     0
100
AcDbLine
 10
237.2273195251
 20
116.82884599
 30
0.0
 11
237.2198902081
 21
116.0975656882
 31
0.0
  0
LINE
  5
162
330
1F
100
AcDbEntity
  8
0
  6
HIDDEN
 62
     7
370
     0
100
AcDbLine
 10
237.2273195251
 20
116.82884599
 30
0.0
 11
239.2257775976
 21
116.7733242261
 31
0.0
  0
LINE
  5
163
330
1F
100
AcDbEntity
  8
0
  6
HIDDEN
 62
     7
370
     0
100
AcDbLine
 10
237.2597675061
 20
117.5957196642
 30
0.0
 11
239.2582255786
 21
117.5401979003
 31
0.0
  0
LINE
  5
164
330
1F
100
AcDbEntity
  8
0
  6
HIDDEN
 62
     7
370
     0
100
AcDbLine
 10
237.2449088722
 20
116.1331590605
 30
0.0
 11
239.2220629391
 21
116.0782291709
 31
0.0
  0
LINE
  5
165
330
1F
100
AcDbEntity
  8
0
  6
HIDDEN
 62
     7
370
     0
100
AcDbLine
 10
237.2198902081
 20
116.0975656882
 30
0.0
 11
239.2183482806
 21
116.0420439243
 31
0.0
  0
LINE
  5
166
330
1F
100
AcDbEntity
  8
0
  6
HIDDEN
 62
     7
370
     0
100
AcDbLine
 10
237.2773568532
 20
116.9000327347
 30
0.0
 11
239.2288448677
 21
116.8458159071
 31
0.0
  0
LINE
  5
167
330
1F
100
AcDbEntity
  8
0
  6
HIDDEN
 62
     7
370
     0
100
AcDbLine
 10
237.2847861702
 20
117.6313130365
 30
0.0
 11
239.2832442427
 21
117.5757912726
 31
0.0
  0
LINE
  5
168
330
1F
100
AcDbEntity
  8
0
  6
HIDDEN
 62
     7
370
     0
100
AcDbLine
 10
83.2220629391
 20
122.9758230424
 30
0.0
 11
83.2220629391
 21
121.0719285355
 31
0.0
  0
LINE
  5
169
330
1F
100
AcDbEntity
  8
0
  6
HIDDEN
 62
     7
370
     0
100
AcDbLine
 10
91.2220629391
 20
121.0719285355
 30
0.0
 11
91.2220629391
 21
122.9786183984
 31
0.0
  0
LINE
  5
16A
330
1F
100
AcDbEntity
  8
0
  6
HIDDEN
 62
     7
370
     0
100
AcDbLine
 10
79.2220629391
 20
83.3540567466
 30
0.0
 11
79.3162237146
 21
84.0240454779
 31
0.0
  0
LINE
  5
16B
330
1F
100
AcDbEntity
  8
0
  6
HIDDEN
 62
     7
370
     0
100
AcDbLine
 10
79.3162237146
 20
133.3319303074
 30
0.0
 11
79.2220629391
 21
134.0019190386
 31
0.0
  0
ARC
  5
16C
330
1F
100
AcDbEntity
  8
0
  6
HIDDEN
 62
     7
370
     0
100
AcDbCircle
 10
78.7220561864
 20
84.1075502782
 30
0.0
 40
0.6000067526677242
100
AcDbArc
 50
352.0
 51
0.0
  0
ARC
  5
16D
330
1F
100
AcDbEntity
  8
0
  6
HIDDEN
 62
     7
370
     0
100
AcDbCircle
 10
78.7220561864
 20
84.1075502782
 30
0.0
 40
0.6000067526677242
100
AcDbArc
 50
0.0
 51
33.5571153394
  0
ARC
  5
16E
330
1F
100
AcDbEntity
  8
0
  6
HIDDEN
 62
     7
370
     0
100
AcDbCircle
 10
78.7220561864
 20
133.248425507
 30
0.0
 40
0.6000067526677222
100
AcDbArc
 50
348.75
 51
8.0
  0
LWPOLYLINE
  5
16F
330
1F
100
AcDbEntity
  8
0
  6
HIDDEN
 62
     7
370
     0
100
AcDbPolyline
 90
        3
 70
   128
 43
0.0
 10
79.3105339776
 20
133.1313699964
 10
79.2763901446
 20
133.0188128635
 10
79.2220629391
 20
132.916760992
  0
LINE
  5
170
330
1F
100
AcDbEntity
  8
0
  6
HIDDEN
 62
     7
370
     0
100
AcDbLine
 10
79.3220629391
 20
84.1075502782
 30
0.0
 11
79.3220629391
 21
133.248425507
 31
0.0
  0
ARC
  5
171
330
1F
100
AcDbEntity
  8
0
  6
HIDDEN
 62
     7
370
     0
100
AcDbCircle
 10
62.3044985044
 20
89.2779878926
 30
0.0
 40
0.6000000000000085
100
AcDbArc
 50
210.0
 51
270.0
  0
ARC
  5
172
330
1F
100
AcDbEntity
  8
0
  6
HIDDEN
 62
     7
370
     0
100
AcDbCircle
 10
62.3044985044
 20
128.0779878926
 30
0.0
 40
0.6000000000000032
100
AcDbArc
 50
90.0
 51
150.0
  0
ARC
  5
173
330
1F
100
AcDbEntity
  8
0
  6
HIDDEN
 62
     7
370
     0
100
AcDbCircle
 10
72.9770649407
 20
96.6779878926
 30
0.0
 40
8.000000000000005
100
AcDbArc
 50
277.0401394428
 51
321.3178125465
  0
ARC
  5
174
330
1F
100
AcDbEntity
  8
0
  6
HIDDEN
 62
     7
370
     0
100
AcDbCircle
 10
72.9770649407
 20
120.6779878926
 30
0.0
 40
7.999999999999996
100
AcDbArc
 50
38.6821874535
 51
82.9413570988
  0
LINE
  5
175
330
1F
100
AcDbEntity
  8
0
  6
HIDDEN
 62
     7
370
     0
100
AcDbLine
 10
62.3044985044
 20
88.6779878926
 30
0.0
 11
66.4820350807
 21
88.6779878926
 31
0.0
  0
LINE
  5
176
330
1F
100
AcDbEntity
  8
0
  6
HIDDEN
 62
     7
370
     0
100
AcDbLine
 10
66.4820350807
 20
128.6779878926
 30
0.0
 11
62.3044985044
 21
128.6779878926
 31
0.0
  0
LINE
  5
177
330
1F
100
AcDbEntity
  8
0
  6
HIDDEN
 62
     7
370
     0
100
AcDbLine
 10
61.7848832621
 20
128.3779878926
 30
0.0
 11
60.2260375353
 21
125.6779878926
 31
0.0
  0
LINE
  5
178
330
1F
100
AcDbEntity
  8
0
  6
HIDDEN
 62
     7
370
     0
100
AcDbLine
 10
60.2260375353
 20
91.6779878926
 30
0.0
 11
61.7848832621
 21
88.9779878926
 31
0.0
  0
LINE
  5
179
330
1F
100
AcDbEntity
  8
0
  6
HIDDEN
 62
     7
370
     0
100
AcDbLine
 10
83.2220629391
 20
135.9563454404
 30
0.0
 11
83.2220629391
 21
132.6235903073
 31
0.0
  0
LINE
  5
17A
330
1F
100
AcDbEntity
  8
0
  6
HIDDEN
 62
     7
370
     0
100
AcDbLine
 10
91.2220629391
 20
132.6235903073
 30
0.0
 11
91.2220629391
 21
135.9577201297
 31
0.0
  0
ARC
  5
17B
330
1F
100
AcDbEntity
  8
0
  6
HIDDEN
 62
     7
370
     0
100
AcDbCircle
 10
87.6720629391
 20
92.9529878926
 30
0.0
 40
1.500000000000009
100
AcDbArc
 50
238.2116693829
 51
0.0
  0
ARC
  5
17C
330
1F
100
AcDbEntity
  8
0
  6
HIDDEN
 62
     7
370
     0
100
AcDbCircle
 10
87.6720629391
 20
124.4029878926
 30
0.0
 40
1.5
100
AcDbArc
 50
0.0
 51
121.7883306171
  0
LINE
  5
17D
330
1F
100
AcDbEntity
  8
0
  6
HIDDEN
 62
     7
370
     0
100
AcDbLine
 10
57.4220629391
 20
91.6779878926
 30
0.0
 11
60.2260375353
 21
91.6779878926
 31
0.0
  0
LINE
  5
17E
330
1F
100
AcDbEntity
  8
0
  6
HIDDEN
 62
     7
370
     0
100
AcDbLine
 10
60.2260375353
 20
125.6779878926
 30
0.0
 11
53.4220629391
 21
125.6779878926
 31
0.0
  0
LINE
  5
17F
330
1F
100
AcDbEntity
  8
0
  6
HIDDEN
 62
     7
370
     0
100
AcDbLine
 10
79.2220629391
 20
91.6779878926
 30
0.0
 11
86.8818889076
 21
91.6779878926
 31
0.0
  0
LINE
  5
180
330
1F
100
AcDbEntity
  8
0
  6
HIDDEN
 62
     7
370
     0
100
AcDbLine
 10
86.8818889076
 20
125.6779878926
 30
0.0
 11
79.2220629391
 21
125.6779878926
 31
0.0
  0
LINE
  5
181
330
1F
100
AcDbEntity
  8
0
  6
HIDDEN
 62
     7
370
     0
100
AcDbLine
 10
196.7220629391
 20
100.248343049
 30
0.0
 11
196.7220629391
 21
103.5989883148
 31
0.0
  0
LINE
  5
182
330
1F
100
AcDbEntity
  8
0
  6
HIDDEN
 62
     7
370
     0
100
AcDbLine
 10
196.7220629391
 20
98.2128075311
 30
0.0
 11
196.7220629391
 21
98.482856918
 31
0.0
  0
LINE
  5
183
330
1F
100
AcDbEntity
  8
0
  6
HIDDEN
 62
     7
370
     0
100
AcDbLine
 10
193.7220629391
 20
99.0444103083
 30
0.0
 11
193.7220629391
 21
98.2128075311
 31
0.0
  0
LINE
  5
184
330
1F
100
AcDbEntity
  8
0
  6
HIDDEN
 62
     7
370
     0
100
AcDbLine
 10
193.7220629391
 20
103.5167227888
 30
0.0
 11
193.7220629391
 21
99.5543155
 31
0.0
  0
LINE
  5
185
330
1F
100
AcDbEntity
  8
0
  6
HIDDEN
 62
     7
370
     0
100
AcDbLine
 10
196.4342314701
 20
98.1070331747
 30
0.0
 11
239.2220629391
 21
99.2957775919
 31
0.0
  0
LINE
  5
186
330
1F
100
AcDbEntity
  8
0
  6
HIDDEN
 62
     7
370
     0
100
AcDbLine
 10
239.2220629391
 20
101.7967422261
 30
0.0
 11
196.4338282549
 21
100.6079866066
 31
0.0
  0
LINE
  5
187
330
1F
100
AcDbEntity
  8
0
  6
HIDDEN
 62
     7
370
     0
100
AcDbLine
 10
193.7497078905
 20
99.7087181956
 30
0.0
 11
193.5062595867
 21
99.2761696953
 31
0.0
  0
LINE
  5
188
330
1F
100
AcDbEntity
  8
0
  6
HIDDEN
 62
     7
370
     0
100
AcDbLine
 10
193.5062595867
 20
99.2761696953
 30
0.0
 11
193.7490440729
 21
98.895874819
 31
0.0
  0
LINE
  5
189
330
1F
100
AcDbEntity
  8
0
  6
HIDDEN
 62
     7
370
     0
100
AcDbLine
 10
98.0220629391
 20
99.1779878926
 30
0.0
 11
101.0220629391
 21
99.1779878926
 31
0.0
  0
LINE
  5
18A
330
1F
100
AcDbEntity
  8
0
  6
HIDDEN
 62
     7
370
     0
100
AcDbLine
 10
101.0220629391
 20
118.1779878926
 30
0.0
 11
98.0220629391
 21
118.1779878926
 31
0.0
  0
LINE
  5
18B
330
1F
100
AcDbEntity
  8
0
  6
HIDDEN
 62
     7
370
     0
100
AcDbLine
 10
89.1720629391
 20
99.6779878926
 30
0.0
 11
89.6720629391
 21
100.1779878926
 31
0.0
  0
LINE
  5
18C
330
1F
100
AcDbEntity
  8
0
  6
HIDDEN
 62
     7
370
     0
100
AcDbLine
 10
89.6720629391
 20
117.1779878926
 30
0.0
 11
89.1720629391
 21
117.6779878926
 31
0.0
  0
LINE
  5
18D
330
1F
100
AcDbEntity
  8
0
  6
HIDDEN
 62
     7
370
     0
100
AcDbLine
 10
89.6720629391
 20
100.1779878926
 30
0.0
 11
98.0220629391
 21
100.1779878926
 31
0.0
  0
LINE
  5
18E
330
1F
100
AcDbEntity
  8
0
  6
HIDDEN
 62
     7
370
     0
100
AcDbLine
 10
98.0220629391
 20
117.1779878926
 30
0.0
 11
89.6720629391
 21
117.1779878926
 31
0.0
  0
LINE
  5
18F
330
1F
100
AcDbEntity
  8
0
  6
HIDDEN
 62
     7
370
     0
100
AcDbLine
 10
84.1720629391
 20
140.1779878926
 30
0.0
 11
84.1720629391
 21
135.0779878926
 31
0.0
  0
ARC
  5
190
330
1F
100
AcDbEntity
  8
0
  6
HIDDEN
 62
     7
370
     0
100
AcDbCircle
 10
238.9220629391
 20
101.3779878926
 30
0.0
 40
0.2999999999999972
100
AcDbArc
 50
0.0
 51
90.0
  0
ARC
  5
191
330
1F
100
AcDbEntity
  8
0
  6
HIDDEN
 62
     7
370
     0
100
AcDbCircle
 10
238.9220629391
 20
115.9779878926
 30
0.0
 40
0.2999999999999972
100
AcDbArc
 50
270.0
 51
0.0
  0
LINE
  5
192
330
1F
100
AcDbEntity
  8
0
  6
HIDDEN
 62
     7
370
     0
100
AcDbLine
 10
193.6220629391
 20
101.3779878926
 30
0.0
 11
196.327288921
 21
101.3779878926
 31
0.0
  0
LINE
  5
193
330
1F
100
AcDbEntity
  8
0
  6
HIDDEN
 62
     7
370
     0
100
AcDbLine
 10
196.327288921
 20
115.9779878926
 30
0.0
 11
193.6220629391
 21
115.9779878926
 31
0.0
  0
ARC
  5
194
330
1F
100
AcDbEntity
  8
0
  6
HIDDEN
 62
     7
370
     0
100
AcDbCircle
 10
196.327288921
 20
115.5779878926
 30
0.0
 40
0.4000000000000074
100
AcDbArc
 50
70.0
 51
90.0
  0
ARC
  5
195
330
1F
100
AcDbEntity
  8
0
  6
HIDDEN
 62
     7
370
     0
100
AcDbCircle
 10
193.6220629391
 20
101.7779878926
 30
0.0
 40
0.4000000000000057
100
AcDbArc
 50
180.0
 51
270.0
  0
ARC
  5
196
330
1F
100
AcDbEntity
  8
0
  6
HIDDEN
 62
     7
370
     0
100
AcDbCircle
 10
193.6220629391
 20
115.5779878926
 30
0.0
 40
0.4000000000000057
100
AcDbArc
 50
90.0
 51
180.0
  0
LINE
  5
197
330
1F
100
AcDbEntity
  8
0
  6
HIDDEN
 62
     7
370
     0
100
AcDbLine
 10
196.4640969783
 20
101.4021108443
 30
0.0
 11
197.2220629391
 21
101.6779878926
 31
0.0
  0
LINE
  5
198
330
1F
100
AcDbEntity
  8
0
  6
HIDDEN
 62
     7
370
     0
100
AcDbLine
 10
197.2220629391
 20
115.6779878926
 30
0.0
 11
196.4640969783
 21
115.953864941
 31
0.0
  0
LINE
  5
199
330
1F
100
AcDbEntity
  8
0
  6
HIDDEN
 62
     7
370
     0
100
AcDbLine
 10
197.2220629391
 20
101.6779878926
 30
0.0
 11
238.9220629391
 21
101.6779878926
 31
0.0
  0
LINE
  5
19A
330
1F
100
AcDbEntity
  8
0
  6
HIDDEN
 62
     7
370
     0
100
AcDbLine
 10
238.9220629391
 20
115.6779878926
 30
0.0
 11
197.2220629391
 21
115.6779878926
 31
0.0
  0
ARC
  5
19B
330
1F
100
AcDbEntity
  8
0
  6
HIDDEN
 62
     7
370
     0
100
AcDbCircle
 10
196.327288921
 20
101.7779878926
 30
0.0
 40
0.3999999999999941
100
AcDbArc
 50
270.0
 51
290.0
  0
LINE
  5
19C
330
1F
100
AcDbEntity
  8
0
  6
HIDDEN
 62
     7
370
     0
100
AcDbLine
 10
74.4065007696
 20
84.5986165591
 30
0.0
 11
73.9720686201
 21
85.0776825782
 31
0.0
  0
LINE
  5
19D
330
1F
100
AcDbEntity
  8
0
  6
HIDDEN
 62
     7
370
     0
100
AcDbLine
 10
66.472065295
 20
85.4993705373
 30
0.0
 11
65.9896315517
 21
85.0203045619
 31
0.0
  0
LINE
  5
19E
330
1F
100
AcDbEntity
  8
0
  6
HIDDEN
 62
     7
370
     0
100
AcDbLine
 10
65.9895096234
 20
132.335665933
 30
0.0
 11
66.4720603744
 21
131.8565456751
 31
0.0
  0
LINE
  5
19F
330
1F
100
AcDbEntity
  8
0
  6
HIDDEN
 62
     7
370
     0
100
AcDbLine
 10
73.9720628211
 20
132.2782434527
 30
0.0
 11
74.4066052114
 21
132.7573637033
 31
0.0
  0
LINE
  5
1A0
330
1F
100
AcDbEntity
  8
0
  6
HIDDEN
 62
     7
370
     0
100
AcDbLine
 10
101.0220629391
 20
104.4279878926
 30
0.0
 11
193.2220629391
 21
104.4279878926
 31
0.0
  0
LINE
  5
1A1
330
1F
100
AcDbEntity
  8
0
  6
HIDDEN
 62
     7
370
     0
100
AcDbLine
 10
193.2220629391
 20
112.9279878926
 30
0.0
 11
101.0220629391
 21
112.9279878926
 31
0.0
  0
LINE
  5
1A2
330
1F
100
AcDbEntity
  8
0
  6
HIDDEN
 62
     7
370
     0
100
AcDbLine
 10
73.9720629391
 20
128.6150607187
 30
0.0
 11
73.9720629391
 21
132.3782739534
 31
0.0
  0
LINE
  5
1A3
330
1F
100
AcDbEntity
  8
0
  6
HIDDEN
 62
     7
370
     0
100
AcDbLine
 10
66.4720629391
 20
131.8562904838
 30
0.0
 11
66.4720629391
 21
128.6761256471
 31
0.0
  0
LINE
  5
1A4
330
1F
100
AcDbEntity
  8
0
  6
HIDDEN
 62
     7
370
     0
100
AcDbLine
 10
73.9720629391
 20
84.9776230327
 30
0.0
 11
73.9720629391
 21
88.7409150666
 31
0.0
  0
LINE
  5
1A5
330
1F
100
AcDbEntity
  8
0
  6
HIDDEN
 62
     7
370
     0
100
AcDbLine
 10
66.4720629391
 20
88.6798501382
 30
0.0
 11
66.4720629391
 21
85.4996937751
 31
0.0
  0
LINE
  5
1A6
330
1F
100
AcDbEntity
  8
0
  6
HIDDEN
 62
     7
370
     0
100
AcDbLine
 10
147.6720629391
 20
131.1779878926
 30
0.0
 11
148.6720629391
 21
130.6006376234
 31
0.0
  0
LINE
  5
1A7
330
1F
100
AcDbEntity
  8
0
  6
HIDDEN
 62
     7
370
     0
100
AcDbLine
 10
153.6720629391
 20
130.6006376234
 30
0.0
 11
154.6720629391
 21
131.1779878926
 31
0.0
  0
LINE
  5
1A8
330
1F
100
AcDbEntity
  8
0
  6
HIDDEN
 62
     7
370
     0
100
AcDbLine
 10
154.6720629391
 20
86.1779878926
 30
0.0
 11
153.6720629391
 21
86.7553381618
 31
0.0
  0
LINE
  5
1A9
330
1F
100
AcDbEntity
  8
0
  6
HIDDEN
 62
     7
370
     0
100
AcDbLine
 10
148.6720629391
 20
86.7553381618
 30
0.0
 11
147.6720629391
 21
86.1779878926
 31
0.0
  0
LINE
  5
1AA
330
1F
100
AcDbEntity
  8
0
  6
HIDDEN
 62
     7
370
     0
100
AcDbLine
 10
148.6720629391
 20
130.6006376234
 30
0.0
 11
148.6720629391
 21
119.1779878926
 31
0.0
  0
LINE
  5
1AB
330
1F
100
AcDbEntity
  8
0
  6
HIDDEN
 62
     7
370
     0
100
AcDbLine
 10
153.6720629391
 20
119.1779878926
 30
0.0
 11
153.6720629391
 21
130.6006376234
 31
0.0
  0
LINE
  5
1AC
330
1F
100
AcDbEntity
  8
0
  6
HIDDEN
 62
     7
370
     0
100
AcDbLine
 10
148.6720629391
 20
119.1779878926
 30
0.0
 11
151.1720629391
 21
117.6758363451
 31
0.0
  0
LINE
  5
1AD
330
1F
100
AcDbEntity
  8
0
  6
HIDDEN
 62
     7
370
     0
100
AcDbLine
 10
151.1720629391
 20
117.6758363451
 30
0.0
 11
153.6720629391
 21
119.1779878926
 31
0.0
  0
LINE
  5
1AE
330
1F
100
AcDbEntity
  8
0
  6
HIDDEN
 62
     7
370
     0
100
AcDbLine
 10
153.6720629391
 20
86.7553381618
 30
0.0
 11
153.6720629391
 21
98.1779878926
 31
0.0
  0
LINE
  5
1AF
330
1F
100
AcDbEntity
  8
0
  6
HIDDEN
 62
     7
370
     0
100
AcDbLine
 10
148.6720629391
 20
98.1779878926
 30
0.0
 11
148.6720629391
 21
86.7553381618
 31
0.0
  0
LINE
  5
1B0
330
1F
100
AcDbEntity
  8
0
  6
HIDDEN
 62
     7
370
     0
100
AcDbLine
 10
153.6720629391
 20
98.1779878926
 30
0.0
 11
151.1720629391
 21
99.6801394402
 31
0.0
  0
LINE
  5
1B1
330
1F
100
AcDbEntity
  8
0
  6
HIDDEN
 62
     7
370
     0
100
AcDbLine
 10
151.1720629391
 20
99.6801394402
 30
0.0
 11
148.6720629391
 21
98.1779878926
 31
0.0
  0
LINE
  5
1B2
330
1F
100
AcDbEntity
  8
0
  6
HIDDEN
 62
     7
370
     0
100
AcDbLine
 10
196.7220629391
 20
118.8665733272
 30
0.0
 11
196.7220629391
 21
118.9310362198
 31
0.0
  0
LINE
  5
1B3
330
1F
100
AcDbEntity
  8
0
  6
HIDDEN
 62
     7
370
     0
100
AcDbLine
 10
196.7220629391
 20
113.7579426204
 30
0.0
 11
196.7220629391
 21
117.1146535174
 31
0.0
  0
LINE
  5
1B4
330
1F
100
AcDbEntity
  8
0
  6
HIDDEN
 62
     7
370
     0
100
AcDbLine
 10
193.7220629391
 20
117.8041367961
 30
0.0
 11
193.7220629391
 21
113.8383829597
 31
0.0
  0
LINE
  5
1B5
330
1F
100
AcDbEntity
  8
0
  6
HIDDEN
 62
     7
370
     0
100
AcDbLine
 10
193.7220629391
 20
118.9310362198
 30
0.0
 11
193.7220629391
 21
118.3079210618
 31
0.0
  0
LINE
  5
1B6
330
1F
100
AcDbEntity
  8
0
  6
HIDDEN
 62
     7
370
     0
100
AcDbLine
 10
47.3332233742
 20
88.9468274575
 30
0.0
 11
47.3336191652
 21
88.9464316665
 31
0.0
  0
LINE
  5
1B7
330
1F
100
AcDbEntity
  8
0
  6
HIDDEN
 62
     7
370
     0
100
AcDbLine
 10
196.4330542369
 20
116.7480106827
 30
0.0
 11
239.2220629391
 21
115.5592335592
 31
0.0
  0
LINE
  5
1B8
330
1F
100
AcDbEntity
  8
0
  6
HIDDEN
 62
     7
370
     0
100
AcDbLine
 10
239.2220629391
 20
118.0601981934
 30
0.0
 11
196.4306525237
 21
119.249042042
 31
0.0
  0
LINE
  5
1B9
330
1F
100
AcDbEntity
  8
0
  6
HIDDEN
 62
     7
370
     0
100
AcDbLine
 10
193.7491879739
 20
118.4603263713
 30
0.0
 11
193.5062595867
 21
118.07980609
 31
0.0
  0
LINE
  5
1BA
330
1F
100
AcDbEntity
  8
0
  6
HIDDEN
 62
     7
370
     0
100
AcDbLine
 10
193.5062595867
 20
118.07980609
 30
0.0
 11
193.7468019129
 21
117.652420806
 31
0.0
  0
LINE
  5
1BB
330
1F
100
AcDbEntity
  8
0
  6
HIDDEN
 62
     7
370
     0
100
AcDbLine
 10
233.7129507915
 20
101.8932040965
 30
0.0
 11
233.2276020434
 21
101.3797199915
 31
0.0
  0
LINE
  5
1BC
330
1F
100
AcDbEntity
  8
0
  6
HIDDEN
 62
     7
370
     0
100
AcDbLine
 10
233.2831237908
 20
99.3812625134
 30
0.0
 11
233.7962334126
 21
98.8955178794
 31
0.0
  0
LINE
  5
1BD
330
1F
100
AcDbEntity
  8
0
  6
HIDDEN
 62
     7
370
     0
100
AcDbLine
 10
239.0480285275
 20
102.0420036131
 30
0.0
 11
233.7140907236
 21
101.893814547
 31
0.0
  0
LINE
  5
1BE
330
1F
100
AcDbEntity
  8
0
  6
HIDDEN
 62
     7
370
     0
100
AcDbLine
 10
233.7974054796
 20
98.8949716616
 30
0.0
 11
239.1313432835
 21
99.0431607277
 31
0.0
  0
LINE
  5
1BF
330
1F
100
AcDbEntity
  8
0
  6
HIDDEN
 62
     7
370
     0
100
AcDbLine
 10
239.1332973124
 20
99.0449520272
 30
0.0
 11
239.2220629391
 21
99.2093241026
 31
0.0
  0
LINE
  5
1C0
330
1F
100
AcDbEntity
  8
0
  6
HIDDEN
 62
     7
370
     0
100
AcDbLine
 10
239.2193073854
 20
101.7647417111
 30
0.0
 11
239.0500789983
 21
102.0403235678
 31
0.0
  0
LINE
  5
1C1
330
1F
100
AcDbEntity
  8
0
  6
HIDDEN
 62
     7
370
     0
100
AcDbLine
 10
239.049367459
 20
115.3156719857
 30
0.0
 11
239.2185958461
 21
115.5912538424
 31
0.0
  0
LINE
  5
1C2
330
1F
100
AcDbEntity
  8
0
  6
HIDDEN
 62
     7
370
     0
100
AcDbLine
 10
239.2220629391
 20
118.1453538554
 30
0.0
 11
239.1325857731
 21
118.3110435263
 31
0.0
  0
LINE
  5
1C3
330
1F
100
AcDbEntity
  8
0
  6
HIDDEN
 62
     7
370
     0
100
AcDbLine
 10
239.1306317442
 20
118.3128348258
 30
0.0
 11
233.7966939403
 21
118.4610238919
 31
0.0
  0
LINE
  5
1C4
330
1F
100
AcDbEntity
  8
0
  6
HIDDEN
 62
     7
370
     0
100
AcDbLine
 10
233.7133791843
 20
115.4621810065
 30
0.0
 11
239.0473169882
 21
115.3139919404
 31
0.0
  0
LINE
  5
1C5
330
1F
100
AcDbEntity
  8
0
  6
HIDDEN
 62
     7
370
     0
100
AcDbLine
 10
233.7955218733
 20
118.4604776741
 30
0.0
 11
233.2824122515
 21
117.9747330401
 31
0.0
  0
LINE
  5
1C6
330
1F
100
AcDbEntity
  8
0
  6
HIDDEN
 62
     7
370
     0
100
AcDbLine
 10
233.2268905041
 20
115.976275562
 30
0.0
 11
233.7122392523
 21
115.4627914569
 31
0.0
  0
DIMENSION
  5
1C7
330
1F
100
AcDbEntity
  8
VERMASSUNG
100
AcDbDimension
  2
*D1
 10
40.6155468432
 20
77.1779878926
 30
0.0
 11
40.6155468432
 21
106.5008010343
 31
0.0
 70
   160
  1
HSK A %%c<>
 71
     2
 42
-1.0
  3
SLDDIMSTYLE0
100
AcDbAlignedDimension
 13
79.5220629391
 23
140.1779878926
 33
0.0
 14
79.5220629391
 24
77.1779878926
 34
0.0
 50
90.0
100
AcDbRotatedDimension
  0
DIMENSION
  5
1D4
330
1F
100
AcDbEntity
  8
VERMASSUNG
100
AcDbDimension
  2
*D2
 10
246.7698617739
 20
115.6779878926
 30
0.0
 11
246.7698617739
 21
108.7920349083
 31
0.0
 70
   160
  1
%%c<>
 71
     2
 42
-1.0
  3
SLDDIMSTYLE0
100
AcDbAlignedDimension
 13
238.9220629391
 23
101.6779878926
 33
0.0
 14
238.9220629391
 24
115.6779878926
 34
0.0
 50
90.0
100
AcDbRotatedDimension
  0
DIMENSION
  5
1DF
330
1F
100
AcDbEntity
  8
VERMASSUNG
100
AcDbDimension
  2
*D3
 10
239.2220629391
 20
142.0150595883
 30
0.0
 11
172.1970629391
 21
142.0150595883
 31
0.0
 70
   160
 71
     2
 42
-1.0
  3
SLDDIMSTYLE0
100
AcDbAlignedDimension
 13
105.1720629391
 23
138.5244282164
 33
0.0
 14
239.2220629391
 24
123.403847371
 34
0.0
100
AcDbRotatedDimension
  0
DIMENSION
  5
1E9
330
1F
100
AcDbEntity
  8
VERMASSUNG
100
AcDbDimension
  2
*D4
 10
239.2220629391
 20
148.0150595883
 30
0.0
 11
159.2220629391
 21
148.0150595883
 31
0.0
 70
   160
 71
     2
 42
-1.0
  3
SLDDIMSTYLE0
100
AcDbAlignedDimension
 13
79.2220629391
 23
139.8779878926
 33
0.0
 14
239.2220629391
 24
123.403847371
 34
0.0
100
AcDbRotatedDimension
  0
DIMENSION
  5
1F3
330
1F
100
AcDbEntity
  8
VERMASSUNG
100
AcDbDimension
  2
*D5
 10
239.2220629391
 20
154.0150595883
 30
0.0
 11
143.2720629391
 21
154.0150595883
 31
0.0
 70
   160
 71
     2
 42
-1.0
  3
SLDDIMSTYLE0
100
AcDbAlignedDimension
 13
47.3220629391
 23
128.3686656391
 33
0.0
 14
239.2220629391
 24
123.403847371
 34
0.0
100
AcDbRotatedDimension
  0
DIMENSION
  5
1FD
330
1F
100
AcDbEntity
  8
VERMASSUNG
100
AcDbDimension
  2
*D6
 10
252.7698617739
 20
86.1779878926
 30
0.0
 11
252.7698617739
 21
108.7920349083
 31
0.0
 70
   160
  1
%%c<>
 71
     2
 42
-1.0
  3
SLDDIMSTYLE0
100
AcDbAlignedDimension
 13
225.2827679558
 23
131.1779878926
 33
0.0
 14
225.2827679558
 24
86.1779878926
 34
0.0
 50
90.0
100
AcDbRotatedDimension
  0
LINE
  5
208
330
1F
100
AcDbEntity
  8
VERMASSUNG
  6
CENTERX2
370
     0
100
AcDbLine
 10
44.2641874907
 20
108.6779878926
 30
0.0
 11
240.8269177182
 21
108.6779878926
 31
0.0
  0
OLE2FRAME
  5
209
330
1F
100
AcDbEntity
  8
0
100
AcDbOle2Frame
 70
     2
  3
Bitmap Image
 10
13.8511154363
 20
38.264191557
 30
0.0
 11
51.6290888628
 21
31.9806341108
 31
0.0
 71
     2
 72
     0
 73
     1
 90
    12928
310
80552BED0767C5B32B40DDAF6807D121434000000000000000006FFBDDFB85D0
310
4940DDAF6807D121434000000000000000006FFBDDFB85D04940416F4BD60AFB
310
3F4000000000000000002BED0767C5B32B40416F4BD60AFB3F40000000000000
310
0000000000000100000000010000010000000100000000000100000000320000
310
D0CF11E0A1B11AE1000000000000000000000000000000003E000300FEFF0900
310
0600000000000000000000000100000001000000000000000010000002000000
310
01000000FEFFFFFF0000000000000000FFFFFFFFFFFFFFFFFFFFFFFFFFFFFFFF
310
FFFFFFFFFFFFFFFFFFFFFFFFFFFFFFFFFFFFFFFFFFFFFFFFFFFFFFFFFFFFFFFF
310
FFFFFFFFFFFFFFFFFFFFFFFFFFFFFFFFFFFFFFFFFFFFFFFFFFFFFFFFFFFFFFFF
310
FFFFFFFFFFFFFFFFFFFFFFFFFFFFFFFFFFFFFFFFFFFFFFFFFFFFFFFFFFFFFFFF
310
FFFFFFFFFFFFFFFFFFFFFFFFFFFFFFFFFFFFFFFFFFFFFFFFFFFFFFFFFFFFFFFF
310
FFFFFFFFFFFFFFFFFFFFFFFFFFFFFFFFFFFFFFFFFFFFFFFFFFFFFFFFFFFFFFFF
310
FFFFFFFFFFFFFFFFFFFFFFFFFFFFFFFFFFFFFFFFFFFFFFFFFFFFFFFFFFFFFFFF
310
FFFFFFFFFFFFFFFFFFFFFFFFFFFFFFFFFFFFFFFFFFFFFFFFFFFFFFFFFFFFFFFF
310
FFFFFFFFFFFFFFFFFFFFFFFFFFFFFFFFFFFFFFFFFFFFFFFFFFFFFFFFFFFFFFFF
310
FFFFFFFFFFFFFFFFFFFFFFFFFFFFFFFFFFFFFFFFFFFFFFFFFFFFFFFFFFFFFFFF
310
FFFFFFFFFFFFFFFFFFFFFFFFFFFFFFFFFFFFFFFFFFFFFFFFFFFFFFFFFFFFFFFF
310
FFFFFFFFFFFFFFFFFFFFFFFFFFFFFFFFFFFFFFFFFFFFFFFFFFFFFFFFFFFFFFFF
310
FFFFFFFFFFFFFFFFFFFFFFFFFFFFFFFFFFFFFFFFFFFFFFFFFFFFFFFFFFFFFFFF
310
FFFFFFFFFFFFFFFFFFFFFFFFFFFFFFFFFFFFFFFFFFFFFFFFFFFFFFFFFFFFFFFF
310
FDFFFFFFFEFFFFFFFEFFFFFFFEFFFFFF05000000060000000700000008000000
310
090000000A0000000B0000000C0000000D0000000E0000000F00000010000000
310
11000000120000001300000014000000150000001600000017000000FEFFFFFF
310
FFFFFFFFFFFFFFFFFFFFFFFFFFFFFFFFFFFFFFFFFFFFFFFFFFFFFFFFFFFFFFFF
310
FFFFFFFFFFFFFFFFFFFFFFFFFFFFFFFFFFFFFFFFFFFFFFFFFFFFFFFFFFFFFFFF
310
FFFFFFFFFFFFFFFFFFFFFFFFFFFFFFFFFFFFFFFFFFFFFFFFFFFFFFFFFFFFFFFF
310
FFFFFFFFFFFFFFFFFFFFFFFFFFFFFFFFFFFFFFFFFFFFFFFFFFFFFFFFFFFFFFFF
310
FFFFFFFFFFFFFFFFFFFFFFFFFFFFFFFFFFFFFFFFFFFFFFFFFFFFFFFFFFFFFFFF
310
FFFFFFFFFFFFFFFFFFFFFFFFFFFFFFFFFFFFFFFFFFFFFFFFFFFFFFFFFFFFFFFF
310
FFFFFFFFFFFFFFFFFFFFFFFFFFFFFFFFFFFFFFFFFFFFFFFFFFFFFFFFFFFFFFFF
310
FFFFFFFFFFFFFFFFFFFFFFFFFFFFFFFFFFFFFFFFFFFFFFFFFFFFFFFFFFFFFFFF
310
FFFFFFFFFFFFFFFFFFFFFFFFFFFFFFFFFFFFFFFFFFFFFFFFFFFFFFFFFFFFFFFF
310
FFFFFFFFFFFFFFFFFFFFFFFFFFFFFFFFFFFFFFFFFFFFFFFFFFFFFFFFFFFFFFFF
310
FFFFFFFFFFFFFFFFFFFFFFFFFFFFFFFFFFFFFFFFFFFFFFFFFFFFFFFFFFFFFFFF
310
FFFFFFFFFFFFFFFFFFFFFFFFFFFFFFFFFFFFFFFFFFFFFFFFFFFFFFFFFFFFFFFF
310
FFFFFFFFFFFFFFFFFFFFFFFFFFFFFFFFFFFFFFFFFFFFFFFFFFFFFFFFFFFFFFFF
310
52006F006F007400200045006E00740072007900000000000000000000000000
310
0000000000000000000000000000000000000000000000000000000000000000
310
16000500FFFFFFFFFFFFFFFF020000000A00030000000000C000000000000046
310
00000000000000000000000000283F6AF7FFCB0103000000C000000000000000
310
01004F006C006500000000000000000000000000000000000000000000000000
310
0000000000000000000000000000000000000000000000000000000000000000
310
0A000200FFFFFFFFFFFFFFFFFFFFFFFF00000000000000000000000000000000
310
0000000000000000000000000000000000000000000000001400000000000000
310
010043006F006D0070004F0062006A0000000000000000000000000000000000
310
0000000000000000000000000000000000000000000000000000000000000000
310
120002010100000003000000FFFFFFFF00000000000000000000000000000000
310
0000000000000000000000000000000000000000010000004D00000000000000
310
01004F006C006500310030004E00610074006900760065000000000000000000
310
0000000000000000000000000000000000000000000000000000000000000000
310
1A000200FFFFFFFFFFFFFFFFFFFFFFFF00000000000000000000000000000000
310
0000000000000000000000000000000000000000040000002426000000000000
310
FEFFFFFF02000000FEFFFFFFFFFFFFFFFFFFFFFFFFFFFFFFFFFFFFFFFFFFFFFF
310
FFFFFFFFFFFFFFFFFFFFFFFFFFFFFFFFFFFFFFFFFFFFFFFFFFFFFFFFFFFFFFFF
310
FFFFFFFFFFFFFFFFFFFFFFFFFFFFFFFFFFFFFFFFFFFFFFFFFFFFFFFFFFFFFFFF
310
FFFFFFFFFFFFFFFFFFFFFFFFFFFFFFFFFFFFFFFFFFFFFFFFFFFFFFFFFFFFFFFF
310
FFFFFFFFFFFFFFFFFFFFFFFFFFFFFFFFFFFFFFFFFFFFFFFFFFFFFFFFFFFFFFFF
310
FFFFFFFFFFFFFFFFFFFFFFFFFFFFFFFFFFFFFFFFFFFFFFFFFFFFFFFFFFFFFFFF
310
FFFFFFFFFFFFFFFFFFFFFFFFFFFFFFFFFFFFFFFFFFFFFFFFFFFFFFFFFFFFFFFF
310
FFFFFFFFFFFFFFFFFFFFFFFFFFFFFFFFFFFFFFFFFFFFFFFFFFFFFFFFFFFFFFFF
310
FFFFFFFFFFFFFFFFFFFFFFFFFFFFFFFFFFFFFFFFFFFFFFFFFFFFFFFFFFFFFFFF
310
FFFFFFFFFFFFFFFFFFFFFFFFFFFFFFFFFFFFFFFFFFFFFFFFFFFFFFFFFFFFFFFF
310
FFFFFFFFFFFFFFFFFFFFFFFFFFFFFFFFFFFFFFFFFFFFFFFFFFFFFFFFFFFFFFFF
310
FFFFFFFFFFFFFFFFFFFFFFFFFFFFFFFFFFFFFFFFFFFFFFFFFFFFFFFFFFFFFFFF
310
FFFFFFFFFFFFFFFFFFFFFFFFFFFFFFFFFFFFFFFFFFFFFFFFFFFFFFFFFFFFFFFF
310
FFFFFFFFFFFFFFFFFFFFFFFFFFFFFFFFFFFFFFFFFFFFFFFFFFFFFFFFFFFFFFFF
310
FFFFFFFFFFFFFFFFFFFFFFFFFFFFFFFFFFFFFFFFFFFFFFFFFFFFFFFFFFFFFFFF
310
FFFFFFFFFFFFFFFFFFFFFFFFFFFFFFFFFFFFFFFFFFFFFFFFFFFFFFFFFFFFFFFF
310
010000020000000000000000000000000000000061007200650064005C003100
310
30002E0030005C0044004C004C005300680061007200650064005C003B004300
310
0100FEFF030A0000FFFFFFFF0A00030000000000C00000000000004607000000
310
5042727573680007000000504272757368000700000050427275736800F439B2
310
71000000000000000000000000004100540049002E004100430045005C004300
310
6F00720065002D005300740061007400690063003B0043003A005C0050007200
310
6F006700720061006D002000460069006C006500730020002800780038003600
310
29005C0043006F006D006D006F006E002000460069006C00650073005C004100
310
750074006F006400650073006B0020005300680061007200650064005C003B00
310
43003A005C00500072006F006700720061006D002000460069006C0065007300
310
5C004E006F0072006D0061006E005C004E0070006D005C00420069006E000000
310
43003A005C00500072006F006700720061006D002000460069006C0065007300
310
5C0053006F006C006900640057006F0072006B007300200043006F0072007000
310
5C0053006F006C006900640057006F0072006B00730020002800320029005C00
310
730065007400750070005C0069003300380036005C0073007700610063007400
310
770069007A002E006500780065000000220043003A005C00500072006F006700
310
20260000424D0E260000000000003E00000028000000B40200006E0000000100
310
01000000000000000000130B0000130B00000200000002000000000000FFFFFF
310
FFFFFFFFFFFFFFFFFFFFFFFFFFFFFFFFFFFFFFFFFFFFFFFFFFFFFFFFFFFFFFFF
310
FFFFFFFFFFFFFFFFFFFFFFFFFFFFFFFFFFFFFFFFFFFFFFFFFFFFFFFFFFFFFFFF
310
FFFFFFFFFFFFFFFFFFFFFFFFFFFFFFFFFFFFFFFFFFFFFFFFF000FFFFFFFFFFFF
310
FFFFFFFFFFFFFFFFFFFFFFFFFFFFFFFFFFFFFFFFFFFFFFFFFFFFFFFFFFFFFFFF
310
FFFFFFFFFFFFFFFFFFFFFFFFFFFFFFFFFFFFFFFFFFFFFFFFFFFFFFFFFFFFFFFF
310
FFFFFFFFFFFFFFFFFFFFFFFFFFFFFFFFF000FFFFFFFFFFFFFFFFFFFFFFFFFFFF
310
FFFFFFFFFFFFFFFFFFFFFFFFFFFFFFFFFFFFFFFFFFFFFFFFFFFFFFFFFFFFFFFF
310
FFFFFFFFFFFFFFFFFFFFFFFFFFFFFFFFFFFFFFFFFFFFFFFFFFFFFFFFFFFFFFFF
310
FFFFFFFFFFFFFFFFF000FFFFFFFFFFFFFFFFFFFFFFFFFFFFFFFFFFFFFFFFFFFF
310
FFFFFFFFFFFFFFFFFFFFFFFFFFFFFFFFFFFFFFFFFFFFFFFFFFFFFFFFFFFFFFFF
310
FFFFFFFFFFFFFFFFFFFFFFFFFFFFFFFFFFFFFFFFFFFFFFFFFFFFFFFFFFFFFFFF
310
F000FFFFFFFFFFFFFFFFFFFFFFFFFFFFFFFFFFFFFFFFFFFFFFFFFFFFFFFFFFFF
310
FFFFFFFFFFFFFFFFFFFFFFFFFFFFFFFFFFFFFFFFFFFFFFFFFFFFFFFFFFFFFFFF
310
FFFFFFFFFFFFFFFFFFFFFFFFFFFFFFFFFFFFFFFFFFFFFFFFF000FFFFFFFFFFFF
310
FFFFFFFFFFFFFFFFFFFFFFFFFFFFFFFFFFFFFFFFFFFFFFFFFFFFFFFFFFFFFFFF
310
FFFFFFFFFFFFFFFFFFFFFFFFFFFFFFFFFFFFFFFFFFFFFFFFFFFFFFFFFFFFFFFF
310
FFFFFFFFFFFFFFFFFFFFFFFFFFFFFFFFF000FFFFFFFFFFFFFFFFFFFFFFFFFFFF
310
FFFFFFFFFFFFFFFFFFFFFFFFFFFFFFFFFFFFFFFFFFFFFFFFFFFFFFFFFFFFFFFF
310
FFFFFFFFFFFFFFFFFFFFFFFFFFFFFFFFFFFFFFFFFFFFFFFFFFFFFFFFFFFFFFFF
310
FFFFFFFFFFFFFFFFF000FFFFFFFFFFFFFFFFFFFFFFFFFFFFFFFFFFFFFFFFFFFF
310
FFFFFFFFFFFFFFFFFFFFFFFFFFFFFFFFFFFFFFFFFFFFFFFFFFFFFFFFFFFFFFFF
310
FFFFFFFFFFFFFFFFFFFFFFFFFFFFFFFFFFFFFFFFFFFFFFFFFFFFFFFFFFFFFFFF
310
F000FFFFFFFFFFFFFFFFFFFFFFFFFFFFFFFFFFFFFFFFFFFFFFFFFFFFFFFFFFFF
310
FFFFFFFFFFFFFFFFFFFFFFFFFFFFFFFFFFFFFFFFFFFFFFFFFFFFFFFFFFFFFFFF
310
FFFFFFFFFFFFFFFFFFFFFFFFFFFFFFFFFFFFFFFFFFFFFFFFF000FFFFFFFFFFFF
310
FFFFFFFFFFFFFFFFFFFFFFFFFFFFFFFFFFFFFFFFFFFFFFFFFFFFFFFFFFFFFFFF
310
FFFFFFFFFFFFFFFFFFFFFFFFFFFFFFFFFFFFFFFFFFFFFFFFFFFFFFFFFFFFFFFF
310
FFFFFFFFFFFFFFFFFFFFFFFFFFFFFFFFF000FFFFFFFFFFFFFFFFFFFFFFFFFFFF
310
FFFFFFFFFFFFFFFFFFFFFFFFFFFFFFFFFFFFFFFFFFFFFFFFFFFFFFFFFFFFFFFF
310
FFFFFFFFFFFFFFFFFFFFFFFFFFFFFFFFFFFFFFFFFFFFFFFFFFFFFFFFFFFFFFFF
310
FFFFFFFFFFFFFFFFF000FFFFFFFFFFFFFFFFFFFFFFFFFFFFFFFFFFFFFFFFFFFF
310
FFFFFFFFFFFFFFFFFFFFFFFFFFFFFFFFFFFFFFFFFFFFFFFFFFFFFFFFFFFFFFFF
310
FFFFFFFFFFFFFFFFFFFFFFFFFFFFFFFFFFFFFFFFFFFFFFFFFFFFFFFFFFFFFFFF
310
F000FFFFFFFFFFFFFFFFFFFFFFFFFFFFFFFFFFFFFFFFFFFFFFFFFFFFFFFFFFFF
310
FFFFFFFFFFFFFFFFFFFFFFFFFFFFFFFFFFFFFFFFFFFFFFFFFFFFFFFFFFFFFFFF
310
FFFFFFFFFFFFFFFFFFFFFFFFFFFFFFFFFFFFFFFFFFFFFFFFF000FFFFFFFFFFFF
310
FFFFFFFFFFFFFFFFFFFFFFFFFFFFFFFFFFFFFFFFFFFFFFFFFFFFFFFFFFFFFFFF
310
FFFFFFFFFFFFFFFFFFFFFFFFFFFFFFFFFFFFFFFFFFFFFFFFFFFFFFFFFFFFFFFF
310
FFFFFFFFFFFFFFFFFFFFFFFFFFFFFFFFF000FFFFFFFFFFFFFFFFFFFFFFFFFFFF
310
FFFFFFFFFFFFFFFFFFFFFFFFFFFFFFFFFFFFFFFFFFFFFFFFFFFFFFFFFFFFFFFF
310
FFFFFFFFFFFFFFFFFFFFFFFFFFFFFFFFFFFFFFFFFFFFFFFFFFFFFFFFFFFFFFFF
310
FFFFFFFFFFFFFFFFF000FFFFFFFFFFFFFFFFFFFFFFFFFFFFFFFFFFFFFFFFFFFF
310
FFFFFFFFFFFFFFFFFFFFFFFFFFFFFFFFFFFFFFFFFFFFFFFFFFFFFFFFFFFFFFFF
310
FFFFFFFFFFFFFFFFFFFFFFFFFFFFFFFFFFFFFFFFFFFFFFFFFFFFFFFFFFFFFFFF
310
F000FFFFFFFFFFFFFFFFFFFFFFFFFFFFFFFFFFFFFFFFFFFFFFFFFFFFFFFFFFFF
310
FFFFFFFFFFFFFFFFFFFFFFFFFFFFFFFFFFFFFFFFFFFFFFFFFFFFFFFFFFFFFFFF
310
FFFFFFFFFFFFFFFFFFFFFFFFFFFFFFFFFFFFFFFFFFFFFFFFF000FFFFFFFFFFFF
310
FFFFFFFFFFFFFFFFFFFFFFFFFFFFFFFFFFFFFFFFFFFFFFFFFFFFFFFFFFFFFFFF
310
FFFFFFFFFFFFFFFFFFFFFFFFFFFFFFFFFFFFFFFFFFFFFFFFFFFFFFFFFFFFFFFF
310
FFFFFFFFFFFFFFFFFFFFFFFFFFFFFFFFF000FFFFFFFFFFFFFFFFFFFFFFFFFFFF
310
FFFFFFFFFFFFFFFFFFFFFFFFFFFFFFFFFFFFFFFFFFFFFFFFFFFFFFFFFFFFFFFF
310
FFFFFFFFFFFFFFFFFFFFFFFFFFFFFFFFFFFFFFFFFFFFFFFFFFFFFFFFFFFFFFFF
310
FFFFFFFFFFFFFFFFF000FFFFF80003FFFFFFFFFFFFFFFFFFFFFFFFFFFFFFFFFF
310
FFFFF00007FFFFFFFFFF00007FFFFFF800000000000000007FFFFFFFFFFFFFFF
310
FFFFFFFC001FFFFFFFFFFFFFFC001FFFFFFFFFFFFFFFFFFFFFFFFFFE0007FFFF
310
F000FFFF8000007FFFFFFFF8000FFFFFC0007FFFFF80007FFFFF0000007FFFFF
310
FFF8000007FFFFF800000000000000007FFFFFF0001FFFFFFFFFFFC00001FFFF
310
FFFFFFFFC00001FFFFFFFF000000000003FFFFE000007FFFF000FFFE0000000F
310
FFFFFFF0000FFFFF80007FFFFF80007FFFFC0000001FFFFFFFC0000001FFFFF8
310
00000000000000007FFFFFF0001FFFFFFFFFFE0000003FFFFFFFFFFE0000003F
310
FFFFFF000000000003FFFF0000000FFFF000FFF800000003FFFFFFF00007FFFF
310
80007FFFFF80007FFFF000000007FFFFFF000000003FFFF80000000000000000
310
7FFFFFF0001FFFFFFFFFF80000000FFFFFFFFFF80000000FFFFFFF0000000000
310
03FFFC00000003FFF000FFE000000000FFFFFFF00007FFFF80003FFFFF80007F
310
FFC000000001FFFFFC000000001FFFF800000000000000007FFFFFF0001FFFFF
310
FFFFE000000003FFFFFFFFE000000003FFFFFF000000000003FFF000000000FF
310
F000FF80000000007FFFFFF00007FFFF80003FFFFF80007FFF8000000000FFFF
310
F80000000007FFF800000000000000007FFFFFF0001FFFFFFFFFC000000001FF
310
FFFFFFC000000001FFFFFF000000000003FFC0000000007FF000FF0000000000
310
3FFFFFE00007FFFF00003FFFFF80007FFE00000000003FFFF00000000003FFF8
310
00000000000000007FFFFFF0001FFFFFFFFF8000000000FFFFFFFF8000000000
310
FFFFFF000000000003FF80000000003FF000FE00000000001FFFFFE00003FFFF
310
00003FFFFF80007FFC00000000001FFFE00000000001FFF8000001FFFE000000
310
7FFFFFF0001FFFFFFFFE00000000003FFFFFFE00000000003FFFFF0000000000
310
03FF00000000001FF000FC00000000000FFFFFE00003FFFF00001FFFFF80007F
310
F800000000001FFFC00000000000FFF8000001FFFE0000007FFFFFF0001FFFFF
310
FFFC00000000001FFFFFFC00000000001FFFFF000000000003FE00000000000F
310
F000F8000000000007FFFFE00003FFFF00001FFFFF80007FF800000000000FFF
310
800000000000FFF8000001FFFE0000007FFFFFF0001FFFFFFFF800000000000F
310
FFFFF800000000000FFFFF000000000003FC000000000007F000F80000000000
310
03FFFFC00003FFFE00001FFFFF80007FF0000000000007FF0000000000007FF8
310
000001FFFE0000007FFFFFF0001FFFFFFFF0000000000007FFFFF00000000000
310
07FFFF000000000003F8000000000003F000F0000000000003FFFFC00001FFFE
310
00001FFFFF80007FE0000000000007FE0000000000003FF8000001FFFE000000
310
7FFFFFF0001FFFFFFFF0000000000007FFFFF0000000000007FFFF0000000000
310
03F800001F800003F000E00001FFF00001FFFFC00001FFFE00000FFFFF80007F
310
E00001FFE00003FE00001FFF00003FF8000001FFFE0000007FFFFFF0001FFFFF
310
FFE000003E000003FFFFE000003E000003FFFF000000000003F00001FFF80001
310
F000E00007FFFC0001FFFFC00001FFFE00000FFFFF80007FC0000FFFFC0003FC
310
0000FFFFC0001FF8000001FFFE0000007FFFFFF0001FFFFFFFC00003FFE00001
310
FFFFC00003FFE00001FFFF0001FFFFFFFFF00007FFFE0001F000E0000FFFFF00
310
00FFFF800001FFFC00000FFFFF80007FC0001FFFFE0001FC0001FFFFE0001FF8
310
000001FFFE0000007FFFFFF0001FFFFFFF80000FFFF80000FFFF80000FFFF800
310
00FFFF0003FFFFFFFFE0000FFFFF8000F000C0003FFFFF8000FFFF800000FFFC
310
000007FFFF80007F80003FFFFF0001FC0003FFFFF0001FF8000001FFFE000000
310
7FFFFFF0001FFFFFFF80003FFFFE0000FFFF80003FFFFE0000FFFF0003FFFFFF
310
FFE0003FFFFF8000F000C0003FFFFF8000FFFF800000FFFC000007FFFF80007F
310
80007FFFFF8001F80007FFFFF8000FF8000001FFFE0000007FFFFFF0001FFFFF
310
FF00007FFFFF00007FFF00007FFFFF00007FFF0003FFFFFFFFE0003FFFFFC000
310
F000C0007FFFFFC000FFFF000000FFFC000007FFFF80007F8000FFFFFF8000F8
310
000FFFFFF8000FF8000001FFFE0000007FFFFFF0001FFFFFFF0000FFFFFF8000
310
7FFF0000FFFFFF80007FFF0003FFFFFFFFC0007FFFFFC00070008000FFFFFFC0
310
00FFFF000000FFF8000007FFFF80007F8000FFFFFF8000F8000FFFFFF8000FF8
310
000001FFFE0000007FFFFFF0001FFFFFFE0001FFFFFFC0003FFE0001FFFFFFC0
310
003FFF0003FFFFFFFFC0007FFFFFE00070008000FFFFFFC0007FFF0000007FF8
310
000003FFFF80007F0001FFFFFF8000F8000FFFFFF8000FF8000001FFFE000000
310
7FFFFFF0001FFFFFFE0001FFFFFFC0003FFE0001FFFFFFC0003FFF0003FFFFFF
310
FFC000FFFFFFE00070008000FFFFFFC0007FFF0000007FF8000003FFFF80007F
310
0001FFFFFF8000F8001FFFFFF8000FF8000001FFFE0000007FFFFFF0001FFFFF
310
FE0003FFFFFFE0003FFE0003FFFFFFE0003FFF0003FFFFFFFFC000FFFFFFE000
310
70008000FFFFFFC0007FFE0000007FF8000003FFFF80007F0001FFFFFF8000F0
310
001FFFFFF8000FF8000001FFFE0000007FFFFFF0001FFFFFFC0003FFFFFFE000
310
1FFC0003FFFFFFE0001FFF0003FFFFFFFFC000FFFFFFC00070008000FFFFFF80
310
007FFE0000007FF0000003FFFF80007F0001FFFFFF0000F0001FFFFFF8000FF8
310
000001FFFE0000007FFFFFF0001FFFFFFC0007FFFFFFF0001FFC0007FFFFFFF0
310
001FFF0003FFFFFFFFC000FFFFFFC00070008001FFFFFF0000FFFE0000003FF0
310
000001FFFF80007F0001FFFFFF0000F8001FFFFFF0000FF8000001FFFE000000
310
7FFFFFF0001FFFFFFC0007FFFFFFF0001FFC0007FFFFFFF0001FFF0003FFFFFF
310
FFC001FFFFFF80007000FFFFFFFFFE0000FFFE0008003FF0008001FFFF80007F
310
FFFFFFFFFC0000FFFFFFFFFFE0000FF8000001FFFE0000007FFFFFF0001FFFFF
310
F8000FFFFFFFF8000FF8000FFFFFFFF8000FFF0003FFFFFFFFFFFFFFFFFF0000
310
7000FFFFFFFFFC0000FFFC0008003FF0008001FFFF80007FFFFFFFFFF80001FF
310
FFFFFFFF80000FF8000001FFFE0000007FFFFFF0001FFFFFF8000FFFFFFFF800
310
0FF8000FFFFFFFF8000FFF0003FFFFFFFFFFFFFFFFFE0000F000FFFFFFFFE000
310
00FFFC000C003FE000C001FFFF80007FFFFFFFFFC00001FFFFFFFFFE00001FF8
310
000001FFFE0000007FFFFFF0001FFFFFF8000FFFFFFFF8000FF8000FFFFFFFF8
310
000FFF0003FFFFFFFFFFFFFFFFF00000F000FFFFFFFE000001FFFC000C001FE0
310
00C000FFFF80007FFFFFFFFE000001FFFFFFFFE000001FF80FFFFFFFFFFFFFC0
310
7FFFFFF0001FFFFFF8000FFFFFFFF8000FF8000FFFFFFFF8000FFF0003FFFFFF
310
FFFFFFFFFF800000F000FFFFFFC0000001FFFC001C001FE001C000FFFF80007F
310
FFFFFF80000003FFFFFFF80000001FF80FFFFFFFFFFFFFC07FFFFFF0001FFFFF
310
F8001FFFFFFFFC000FF8001FFFFFFFFC000FFF0003FFFFFFFFFFFFFFF0000001
310
F000FFFFF800000001FFF8001C001FE001C000FFFF80007FFFFFF800000003FF
310
FFFF800000003FF80FFFFFFFFFFFFFC07FFFFFF0001FFFFFF8001FFFFFFFFC00
310
0FF8001FFFFFFFFC000FFF0003FFFFFFFFFFFFFE00000001F000FFFFC0000000
310
03FFF8001E001FC001E000FFFF80007FFFFF8000000007FFFFFC000000003FF8
310
0FFFFFFFFFFFFFC07FFFFFF0001FFFFFF8001FFFFFFFFC000FF8001FFFFFFFFC
310
000FFF0003FFFFFFFFFFFFE000000003F000FFFE0000000007FFF8001E000FC0
310
01E0007FFF80007FFFFE0000000007FFFFE0000000007FF80FFFFFFFFFFFFFC0
310
7FFFFFF0001FFFFFF0001FFFFFFFFC0007F0001FFFFFFFFC0007FF0003FFFFFF
310
FFFFFF0000000003F000FFF80000000007FFF8001E000FC003E0007FFF80007F
310
FFF0000000000FFFFF8000000000FFF80FFFFFFFFFFFFFC07FFFFFF0001FFFFF
310
F0001FFFFFFFFC0007F0001FFFFFFFFC0007FF0003FFFFFFFFFFFC0000000007
310
F000FFE0000000000FFFF0003E000FC003E0007FFF80007FFFC0000000001FFF
310
FE0000000001FFF80FFFFFFFFFFFFFC07FFFFFF0001FFFFFF0001FFFFFFFFC00
310
07F0001FFFFFFFFC0007FF0003FFFFFFFFFFF0000000000FF000FFC000000000
310
1FFFF0003F000F8003F0003FFF80007FFF80000000003FFFF80000000003FFF8
310
0FFFFFFFFFFFFFC07FFFFFF0001FFFFFF0001FFFFFFFFC0007F0001FFFFFFFFC
310
0007FF0003FFFFFFFFFFE0000000001FF000FF00000000007FFFF0003F000780
310
03F0003FFF80007FFF00000000007FFFF00000000007FFF80FFFFFFFFFFFFFC0
310
7FFFFFF0001FFFFFF0001FFFFFFFFC0007F0001FFFFFFFFC0007FF0003FFFFFF
310
FFFF80000000007FF000FE0000000000FFFFE0003F00078007F0003FFF80007F
310
FE0000000001FFFFE0000000001FFFF80FFFFFFFFFFFFFC07FFFFFF0001FFFFF
310
F0001FFFFFFFFC0007F0001FFFFFFFFC0007FF0003FFFFFFFFFF0000000000FF
310
F000FC0000000003FFFFE0007F00078007F0003FFF80007FFC0000000007FFFF
310
C0000000007FFFF80FFFFFFFFFFFFFC07FFFFFF0001FFFFFF8001FFFFFFFFC00
310
0FF8001FFFFFFFFC000FFF0003FFFFFFFFFE0000000003FFF000FC000000000F
310
FFFFE0007F80070007F8001FFF80007FF8000000001FFFFF8000000001FFFFF8
310
0FFFFFFFFFFFFFC07FFFFFF0001FFFFFF8001FFFFFFFFC000FF8001FFFFFFFFC
310
000FFF0003FFFFFFFFFC000000000FFFF000F8000000007FFFFFE0007F800700
310
07F8001FFF80007FF000000000FFFFFF800000000FFFFFF80FFFFFFFFFFFFFC0
310
7FFFFFF0001FFFFFF8000FFFFFFFF8000FF8000FFFFFFFF8000FFF0003FFFFFF
310
FFFC000000007FFFF000F800000007FFFFFFC0007F8003000FF8001FFF80007F
310
F000000007FFFFFF000000007FFFFFF80FFFFFFFFFFFFFC07FFFFFF0001FFFFF
310
F8000FFFFFFFF8000FF8000FFFFFFFF8000FFF0003FFFFFFFFF80000000FFFFF
310
F000F0000000FFFFFFFFC000FF8003000FF8001FFF80007FE0000000FFFFFFFF
310
0000000FFFFFFFF8000001FFFE0000007FFFFFF0001FFFFFF8000FFFFFFFF800
310
0FF8000FFFFFFFF8000FFF0003FFFFFFFFF8000000FFFFFFF000F000000FFFFF
310
FFFFC000FFC002000FF8000FFF80007FE000001FFFFFFFFE000001FFFFFFFFF8
310
000001FFFE0000007FFFFFF0001FFFFFF8000FFFFFFFF8000FF8000FFFFFFFF8
310
000FFF0003FFFFFFFFF000001FFFFFFFF000E00000FFFFFFFFFFC000FFC00200
310
0FFC000FFF80007FE00001FFFFFFFFFE00001FFFFFFFFFF8000001FFFE000000
310
7FFFFFF0001FFFFFFC000FFFFFFFF8001FFC000FFFFFFFF8001FFF0003FFFFFF
310
FFF00001FFFFFFFFF000E00007FFFFFFFFFF8000FFC000001FFC000FFF80007F
310
C0000FFFFFFFFFFE0000FFFFFFFFFFF8000001FFFE0000007FFFFFF0001FFFFF
310
FC0007FFFFFFF0001FFC0007FFFFFFF0001FFF0003FFFFFFFFF00007FFFFFFFF
310
F000E0001FFFFFFFFFFF8000FFC000001FFC000FFF80007FC0003FFFFFFFFFFE
310
0001FFFFFFFFFFF8000001FFFE0000007FFFFFF0001FFFFFFC0007FFFFFFF000
310
1FFC0007FFFFFFF0001FFF0003FFFFFFFFF0001FFFFFFFFFF000E0003FFFFF00
310
03FF8001FFE000001FFC0007FF80007FC0007FFFFF0007FC0003FFFFF0003FF8
310
000001FFFE0000007FFFFFF0001FFFFFFC0003FFFFFFE0001FFC0003FFFFFFE0
310
001FFF0003FFFFFFFFF0003FFFFFFFFFF000E0003FFFFF0001FF8001FFE00000
310
1FFE0007FF80007FC0007FFFFE0003FC0007FFFFE0003FF8000001FFFE000000
310
7FFFFFF0001FFFFFFE0003FFFFFFE0003FFE0003FFFFFFE0003FFF0003FFFFFF
310
FFF0003FFFFF8001F000E0003FFFFF0001FF0001FFE000001FFE0007FF80007F
310
C0007FFFFE0003FC0007FFFFE0003FF8000001FFFE0000007FFFFFF0001FFFFF
310
FE0001FFFFFFC0003FFE0001FFFFFFC0003FFF0003FFFFFFFFF0003FFFFF0001
310
F000E0003FFFFF0003FF0001FFE000003FFE0007FF80007FC0007FFFFE0003FC
310
0007FFFFE0003FF8000001FFFE0000007FFFFFF0001FFFFFFF0001FFFFFFC000
310
7FFF0001FFFFFFC0007FFF0003FFFFFFFFF0003FFFFF0001F000E0003FFFFE00
310
03FF0003FFF000003FFE0003FF80007FC0007FFFFC0003FE0007FFFFE0003FF8
310
000001FFFE0000007FFFFFF0001FFFFFFF0000FFFFFF80007FFF0000FFFFFF80
310
007FFF0003FFFFFFFFF0003FFFFF0001F000E0003FFFFE0003FF0003FFF00000
310
3FFF0003FF80007FC0007FFFFC0007FE0007FFFFC0003FF8000001FFFE000000
310
7FFFFFF0001FFFFFFF80007FFFFF0000FFFF80007FFFFF0000FFFF0003FFFFFF
310
FFF0003FFFFF0003F000E0003FFFFC0003FE0003FFF000003FFF0003FF80007F
310
E0003FFFF80007FE0003FFFFC0007FF8000001FFFE0000007FFFFFF0001FFFFF
310
FF80003FFFFE0000FFFF80003FFFFE0000FFFF0003FFFFFFFFF0001FFFFE0003
310
F000F0001FFFF80003FE0003FFF000007FFF0001FF80007FE0003FFFF00007FE
310
0001FFFF80007FF8000001FFFE0000007FFFFFF0001FFFFFFFC0000FFFF80001
310
FFFFC0000FFFF80001FFFF0003FFFFFFFFF0001FFFFC0003F000F0000FFFF000
310
07FE0007FFF800007FFF0001FF80007FE0001FFFE00007FF0000FFFE00007FF8
310
000001FFFE0000007FFFFFF0001FFFFFFFC00003FFE00001FFFFC00003FFE000
310
01FFFF0003FFFFFFFFF8000FFFF80003F000F00003FFC00007FC0007FFF80000
310
7FFF8001FF80007FF00007FF80000FFF00007FF80000FFF8000001FFFE000000
310
7F80000000000001FFE000003E000003FFFFE000003E000003FFFF0003FFFFFF
310
FFF80003FFE00007F000F800000000000FFC0007FFF800007FFF8001FF80007F
310
F000000000000FFF000000000000FFF8000001FFFE0000007F80000000000001
310
FFF0000000000007FFFFF0000000000007FFFF0003FFFFFFFFFC00007E000007
310
F000F800000000000FFC0007FFF80000FFFF8000FF80007FF800000000001FFF
310
800000000001FFF8000001FFFE0000007F80000000000001FFF800000000000F
310
FFFFF800000000000FFFFF0003FFFFFFFFFC00000000000FF000FC0000000000
310
1FFC0007FFFC0000FFFF8000FF80007FF800000000003FFFC00000000001FFF8
310
000001FFFE0000007F80000000000001FFF800000000000FFFFFF80000000000
310
0FFFFF0003FFFFFFFFFE00000000001FF000FE00000000003FF8000FFFFC0000
310
FFFF8000FF80007FFC00000000003FFFC00000000003FFF8000001FFFE000000
310
7F80000000000001FFFC00000000001FFFFFFC00000000001FFFFF0003FFFFFF
310
FFFF00000000001FF000FF00000000003FF8000FFFFC0000FFFFC000FF80007F
310
FE00000000007FFFE00000000007FFF8000001FFFE0000007F80000000000001
310
FFFE00000000003FFFFFFE00000000003FFFFF0003FFFFFFFFFF80000000003F
310
F000FF80000000007FF8000FFFFC0001FFFFC0007F80007FFF0000000000FFFF
310
F0000000000FFFF800000000000000007F80000000000001FFFF8000000000FF
310
FFFFFF8000000000FFFFFF0003FFFFFFFFFFC0000000007FF000FFC000000000
310
FFF8000FFFFE0001FFFFC0007F80007FFF8000000001FFFFF8000000001FFFF8
310
00000000000000007F80000000000001FFFFC000000001FFFFFFFFC000000001
310
FFFFFF0003FFFFFFFFFFE000000000FFF000FFE000000003FFF0001FFFFE0001
310
FFFFC0007F80007FFFC000000007FFFFFE000000003FFFF80000000000000000
310
7F80000000000001FFFFE000000003FFFFFFFFE000000003FFFFFF0003FFFFFF
310
FFFFF000000003FFF000FFF80000000FFFF0001FFFFE0001FFFFE0007F80007F
310
FFF00000000FFFFFFF00000000FFFFF800000000000000007F80000000000001
310
FFFFF80000000FFFFFFFFFF80000000FFFFFFF0003FFFFFFFFFFFC0000000FFF
310
F000FFFE0000003FFFF0001FFFFE0003FFFFE0003F80007FFFFC0000003FFFFF
310
FFC0000003FFFFF800000000000000007F80000000000001FFFFFE0000003FFF
310
FFFFFFFE0000003FFFFFFF0003FFFFFFFFFFFF0000003FFFF000FFFF800000FF
310
FFF0001FFFFF0003FFFFE0003F80007FFFFF000001FFFFFFFFF800001FFFFFF8
310
00000000000000007F80000000000001FFFFFFC00001FFFFFFFFFFFFC00001FF
310
FFFFFF0003FFFFFFFFFFFFC00000FFFFF000FFFFF8000FFFFFFFFFFFFFFFFFFF
310
FFFFFFFFFFFFFFFFFFFFF0001FFFFFFFFFFF0000FFFFFFF80000000000000000
310
7FFFFFFFFFFFFFFFFFFFFFFC001FFFFFFFFFFFFFFC001FFFFFFFFFFFFFFFFFFF
310
FFFFFFFC001FFFFFF000FFFFFFFFFFFFFFFFFFFFFFFFFFFFFFFFFFFFFFFFFFFF
310
FFFFFFFFFFFFFFFFFFFFFFFFFFFFFFFFFFFFFFFFFFFFFFFFFFFFFFFFFFFFFFFF
310
FFFFFFFFFFFFFFFFFFFFFFFFFFFFFFFFFFFFFFFFFFFFFFFFFFFFFFFFFFFFFFFF
310
F000FFFFFFFFFFFFFFFFFFFFFFFFFFFFFFFFFFFFFFFFFFFFFFFFFFFFFFFFFFFF
310
FFFFFFFFFFFFFFFFFFFFFFFFFFFFFFFFFFFFFFFFFFFFFFFFFFFFFFFFFFFFFFFF
310
FFFFFFFFFFFFFFFFFFFFFFFFFFFFFFFFFFFFFFFFFFFFFFFFF000FFFFFFFFFFFF
310
FFFFFFFFFFFFFFFFFFFFFFFFFFFFFFFFFFFFFFFFFFFFFFFFFFFFFFFFFFFFFFFF
310
FFFFFFFFFFFFFFFFFFFFFFFFFFFFFFFFFFFFFFFFFFFFFFFFFFFFFFFFFFFFFFFF
310
FFFFFFFFFFFFFFFFFFFFFFFFFFFFFFFFF000FFFFFFFFFFFFFFFFFFFFFFFFFFFF
310
FFFFFFFFFFFFFFFFFFFFFFFFFFFFFFFFFFFFFFFFFFFFFFFFFFFFFFFFFFFFFFFF
310
FFFFFFFFFFFFFFFFFFFFFFFFFFFFFFFFFFFFFFFFFFFFFFFFFFFFFFFFFFFFFFFF
310
FFFFFFFFFFFFFFFFF000FFFFFFFFFFFFFFFFFFFFFFFFFFFFFFFFFFFFFFFFFFFF
310
FFFFFFFFFFFFFFFFFFFFFFFFFFFFFFFFFFFFFFFFFFFFFFFFFFFFFFFFFFFFFFFF
310
FFFFFFFFFFFFFFFFFFFFFFFFFFFFFFFFFFFFFFFFFFFFFFFFFFFFFFFFFFFFFFFF
310
F000FFFFFFFFFFFFFFFFFFFFFFFFFFFFFFFFFFFFFFFFFFFFFFFFFFFFFFFFFFFF
310
FFFFFFFFFFFFFFFFFFFFFFFFFFFFFFFFFFFFFFFFFFFFFFFFFFFFFFFFFFFFFFFF
310
FFFFFFFFFFFFFFFFFFFFFFFFFFFFFFFFFFFFFFFFFFFFFFFFF000FFFFFFFFFFFF
310
FFFFFFFFFFFFFFFFFFFFFFFFFFFFFFFFFFFFFFFFFFFFFFFFFFFFFFFFFFFFFFFF
310
FFFFFFFFFFFFFFFFFFFFFFFFFFFFFFFFFFFFFFFFFFFFFFFFFFFFFFFFFFFFFFFF
310
FFFFFFFFFFFFFFFFFFFFFFFFFFFFFFFFF000FFFFFFFFFFFFFFFFFFFFFFFFFFFF
310
FFFFFFFFFFFFFFFFFFFFFFFFFFFFFFFFFFFFFFFFFFFFFFFFFFFFFFFFFFFFFFFF
310
FFFFFFFFFFFFFFFFFFFFFFFFFFFFFFFFFFFFFFFFFFFFFFFFFFFFFFFFFFFFFFFF
310
FFFFFFFFFFFFFFFFF000FFFFFFFFFFFFFFFFFFFFFFFFFFFFFFFFFFFFFFFFFFFF
310
FFFFFFFFFFFFFFFFFFFFFFFFFFFFFFFFFFFFFFFFFFFFFFFFFFFFFFFFFFFFFFFF
310
FFFFFFFFFFFFFFFFFFFFFFFFFFFFFFFFFFFFFFFFFFFFFFFFFFFFFFFFFFFFFFFF
310
F000FFFFFFFFFFFFFFFFFFFFFFFFFFFFFFFFFFFFFFFFFFFFFFFFFFFFFFFFFFFF
310
FFFFFFFFFFFFFFFFFFFFFFFFFFFFFFFFFFFFFFFFFFFFFFFFFFFFFFFFFFFFFFFF
310
FFFFFFFFFFFFFFFFFFFFFFFFFFFFFFFFFFFFFFFFFFFFFFFFF000FFFFFFFFFFFF
310
FFFFFFFFFFFFFFFFFFFFFFFFFFFFFFFFFFFFFFFFFFFFFFFFFFFFFFFFFFFFFFFF
310
FFFFFFFFFFFFFFFFFFFFFFFFFFFFFFFFFFFFFFFFFFFFFFFFFFFFFFFFFFFFFFFF
310
FFFFFFFFFFFFFFFFFFFFFFFFFFFFFFFFF000FFFFFFFFFFFFFFFFFFFFFFFFFFFF
310
FFFFFFFFFFFFFFFFFFFFFFFFFFFFFFFFFFFFFFFFFFFFFFFFFFFFFFFFFFFFFFFF
310
FFFFFFFFFFFFFFFFFFFFFFFFFFFFFFFFFFFFFFFFFFFFFFFFFFFFFFFFFFFFFFFF
310
FFFFFFFFFFFFFFFFF000FFFFFFFFFFFFFFFFFFFFFFFFFFFFFFFFFFFFFFFFFFFF
310
FFFFFFFFFFFFFFFFFFFFFFFFFFFFFFFFFFFFFFFFFFFFFFFFFFFFFFFFFFFFFFFF
310
FFFFFFFFFFFFFFFFFFFFFFFFFFFFFFFFFFFFFFFFFFFFFFFFFFFFFFFFFFFFFFFF
310
F000FFFFFFFFFFFFFFFFFFFFFFFFFFFFFFFFFFFFFFFFFFFFFFFFFFFFFFFFFFFF
310
FFFFFFFFFFFFFFFFFFFFFFFFFFFFFFFFFFFFFFFFFFFFFFFFFFFFFFFFFFFFFFFF
310
FFFFFFFFFFFFFFFFFFFFFFFFFFFFFFFFFFFFFFFFFFFFFFFFF000FFFFFFFFFFFF
310
FFFFFFFFFFFFFFFFFFFFFFFFFFFFFFFFFFFFFFFFFFFFFFFFFFFFFFFFFFFFFFFF
310
FFFFFFFFFFFFFFFFFFFFFFFFFFFFFFFFFFFFFFFFFFFFFFFFFFFFFFFFFFFFFFFF
310
FFFFFFFFFFFFFFFFFFFFFFFFFFFFFFFFF000FFFFFFFFFFFFFFFFFFFFFFFFFFFF
310
FFFFFFFFFFFFFFFFFFFFFFFFFFFFFFFFFFFFFFFFFFFFFFFFFFFFFFFFFFFFFFFF
310
FFFFFFFFFFFFFFFFFFFFFFFFFFFFFFFFFFFFFFFFFFFFFFFFFFFFFFFFFFFFFFFF
310
FFFFFFFFFFFFFFFFF000FFFFFFFFFFFFFFFFFFFFFFFFFFFFFFFFFFFFFFFFFFFF
310
FFFFFFFFFFFFFFFFFFFFFFFFFFFFFFFFFFFFFFFFFFFFFFFFFFFFFFFFFFFFFFFF
310
FFFFFFFFFFFFFFFFFFFFFFFFFFFFFFFFFFFFFFFFFFFFFFFFFFFFFFFFFFFFFFFF
310
F000FFFFFFFFFFFFFFFFFFFFFFFFFFFFFFFFFFFFFFFFFFFFFFFFFFFFFFFFFFFF
310
FFFFFFFFFFFFFFFFFFFFFFFFFFFFFFFFFFFFFFFFFFFFFFFFFFFFFFFFFFFFFFFF
310
FFFFFFFFFFFFFFFFFFFFFFFFFFFFFFFFFFFFFFFFFFFFFFFFF000FFFFFFFFFFFF
310
FFFFFFFFFFFFFFFFFFFFFFFFFFFFFFFFFFFFFFFFFFFFFFFFFFFFFFFFFFFFFFFF
310
FFFFFFFFFFFFFFFFFFFFFFFFFFFFFFFFFFFFFFFFFFFFFFFFFFFFFFFFFFFFFFFF
310
FFFFFFFFFFFFFFFFFFFFFFFFFFFFFFFFF000FFFFFFFFFFFFFFFFFFFFFFFFFFFF
310
FFFFFFFFFFFFFFFFFFFFFFFFFFFFFFFFFFFFFFFFFFFFFFFFFFFFFFFFFFFFFFFF
310
FFFFFFFFFFFFFFFFFFFFFFFFFFFFFFFFFFFFFFFFFFFFFFFFFFFFFFFFFFFFFFFF
310
FFFFFFFFFFFFFFFFF000FFFFFFFFFFFFFFFFFFFFFFFFFFFFFFFFFFFFFFFFFFFF
310
FFFFFFFFFFFFFFFFFFFFFFFFFFFFFFFFFFFFFFFFFFFFFFFFFFFFFFFFFFFFFFFF
310
FFFFFFFFFFFFFFFFFFFFFFFFFFFFFFFFFFFFFFFFFFFFFFFFFFFFFFFFFFFFFFFF
310
F000FFFFFFFFFFFFFFFFFFFFFFFFFFFFFFFFFFFFFFFFFFFFFFFFFFFFFFFFFFFF
310
FFFFFFFFFFFFFFFFFFFFFFFFFFFFFFFFFFFFFFFFFFFFFFFFFFFFFFFFFFFFFFFF
310
FFFFFFFFFFFFFFFFFFFFFFFFFFFFFFFFFFFFFFFFFFFFFFFFF000FFFFFFFFFFFF
310
FFFFFFFFFFFFFFFFFFFFFFFFFFFFFFFFFFFFFFFFFFFFFFFFFFFFFFFFFFFFFFFF
310
FFFFFFFFFFFFFFFFFFFFFFFFFFFFFFFFFFFFFFFFFFFFFFFFFFFFFFFFFFFFFFFF
310
FFFFFFFFFFFFFFFFFFFFFFFFFFFFFFFFF0000000000000000000000000000000
310
00000000C8ACB13D5837173E167EB03D7D3D183E2CBC053E7D3D183E9713F43D
310
365C1D3E9713F43D365C1D3E2CBC053E7D3D183E9713F43DD9CC1A3E0700F13D
310
D9CC1A3E0700F13D365C1D3E9713F43D365C1D3EC8ACB13D365C1D3E8A11C93D
310
7D3D183E8A11C93D7D3D183EC8ACB13D365C1D3E8A11C93DD9CC1A3E1A25CC3D
310
D9CC1A3E1A25CC3D7D3D183E8A11C93D8271493E5170F33D8271493E1D92F33D
310
8271493EEDF9E83D8271493ECFD9EF3D145F463E4C43F13D145F463E1924E93D
310
145F463E1D92F33D145F463E6C4BF23D7BE0413DC129B63DE6E0413D8C29B63D
310
BF25493E9519EF3DA1F6743E52AAEC3DA1F6743E8CC9F13D1E25493ED738F43D
310
3066463E549BF23D8126463ED3D3F13D8126463ED3D3F13D9065463EC1F3F03D
310
73526F3E62ADD03D37D36E3E2CA0CF3DC5E16E3E6788CB3D48686F3EBC89CA3D
310
02C9743E66FBD03DBF526F3EB4ADD03D96686F3E7289CA3DD9DE743E24D7CA3D
310
5CDF743E14D8CA3DA1F6743E422ECB3DE8F5743E086AD03D8BC9743E84FAD03D
310
5BC9743E9F2AEC3DB8F5743E1BBBEC3DA1F6743E31F6F13D2CDF743E0F4DF23D
310
A9DE743E004EF23D67686F3EB19BF23D8F526F3E7077EC3DD2C8743EBE29EC3D
310
18686F3E689BF23D96E16E3EBD9CF13D08D36E3EF884ED3D43526F3EC277EC3D
  1
OLE
  0
ENDSEC
  0
SECTION
  2
OBJECTS
  0
DICTIONARY
  5
C
330
0
100
AcDbDictionary
281
     1
  3
ACAD_GROUP
350
D
  3
ACAD_LAYOUT
350
1A
  3
ACAD_MLEADERSTYLE
350
20B
  3
ACAD_MLINESTYLE
350
17
  3
ACAD_PLOTSETTINGS
350
19
  3
ACAD_PLOTSTYLENAME
350
E
  3
ACAD_TABLESTYLE
350
20A
  3
ACAD_VISUALSTYLE
350
2A
  3
AcDbVariableDictionary
350
20C
  0
DICTIONARY
  5
D
102
{ACAD_REACTORS
330
C
102
}
330
C
100
AcDbDictionary
281
     1
  0
DICTIONARY
  5
1A
102
{ACAD_REACTORS
330
C
102
}
330
C
100
AcDbDictionary
281
     1
  3
Layout1
350
1E
  3
Layout2
350
26
  3
Model
350
22
  0
DICTIONARY
  5
20B
102
{ACAD_REACTORS
330
C
102
}
330
C
100
AcDbDictionary
281
     1
  0
DICTIONARY
  5
17
102
{ACAD_REACTORS
330
C
102
}
330
C
100
AcDbDictionary
281
     1
  3
Standard
350
18
  0
DICTIONARY
  5
19
102
{ACAD_REACTORS
330
C
102
}
330
C
100
AcDbDictionary
281
     1
  0
ACDBDICTIONARYWDFLT
  5
E
102
{ACAD_REACTORS
330
C
102
}
330
C
100
AcDbDictionary
281
     1
  3
Normal
350
F
100
AcDbDictionaryWithDefault
340
F
  0
DICTIONARY
  5
20A
102
{ACAD_REACTORS
330
C
102
}
330
C
100
AcDbDictionary
281
     1
  0
DICTIONARY
  5
2A
102
{ACAD_REACTORS
330
C
102
}
330
C
100
AcDbDictionary
281
     1
  3
2dWireframe
350
2F
  3
3D Hidden
350
31
  3
3dWireframe
350
30
  3
Basic
350
32
  3
Brighten
350
36
  3
ColorChange
350
3A
  3
Conceptual
350
34
  3
Dim
350
35
  3
Facepattern
350
39
  3
Flat
350
2B
  3
FlatWithEdges
350
2C
  3
Gouraud
350
2D
  3
GouraudWithEdges
350
2E
  3
Linepattern
350
38
  3
Realistic
350
33
  3
Thicken
350
37
  0
DICTIONARY
  5
20C
102
{ACAD_REACTORS
330
C
102
}
330
C
100
AcDbDictionary
281
     1
  3
PSOLHEIGHT
350
20E
  3
PSOLWIDTH
350
20D
  0
LAYOUT
  5
1E
102
{ACAD_REACTORS
330
1A
102
}
330
1A
100
AcDbPlotSettings
  1

  2
none_device
  4

  6

 40
0.0
 41
0.0
 42
0.0
 43
0.0
 44
0.0
 45
0.0
 46
0.0
 47
0.0
 48
0.0
 49
0.0
140
0.0
141
0.0
142
1.0
143
1.0
 70
   688
 72
     0
 73
     0
 74
     5
  7

 75
    16
147
1.0
148
0.0
149
0.0
100
AcDbLayout
  1
Layout1
 70
     1
 71
     1
 10
0.0
 20
0.0
 11
420.0
 21
297.0
 12
0.0
 22
0.0
 32
0.0
 14
1.0000000000E+20
 24
1.0000000000E+20
 34
1.0000000000E+20
 15
-1.0000000000E+20
 25
-1.0000000000E+20
 35
-1.0000000000E+20
146
0.0
 13
0.0
 23
0.0
 33
0.0
 16
1.0
 26
0.0
 36
0.0
 17
0.0
 27
1.0
 37
0.0
 76
     0
330
1B
  0
LAYOUT
  5
26
102
{ACAD_REACTORS
330
1A
102
}
330
1A
100
AcDbPlotSettings
  1

  2
none_device
  4

  6

 40
0.0
 41
0.0
 42
0.0
 43
0.0
 44
0.0
 45
0.0
 46
0.0
 47
0.0
 48
0.0
 49
0.0
140
0.0
141
0.0
142
1.0
143
1.0
 70
   688
 72
     0
 73
     0
 74
     5
  7

 75
    16
147
1.0
148
0.0
149
0.0
100
AcDbLayout
  1
Layout2
 70
     1
 71
     2
 10
0.0
 20
0.0
 11
0.0
 21
0.0
 12
0.0
 22
0.0
 32
0.0
 14
0.0
 24
0.0
 34
0.0
 15
0.0
 25
0.0
 35
0.0
146
0.0
 13
0.0
 23
0.0
 33
0.0
 16
1.0
 26
0.0
 36
0.0
 17
0.0
 27
1.0
 37
0.0
 76
     0
330
23
  0
LAYOUT
  5
22
102
{ACAD_REACTORS
330
1A
102
}
330
1A
100
AcDbPlotSettings
  1

  2
none_device
  4

  6

 40
0.0
 41
0.0
 42
0.0
 43
0.0
 44
0.0
 45
0.0
 46
0.0
 47
0.0
 48
0.0
 49
0.0
140
0.0
141
0.0
142
1.0
143
1.0
 70
  1712
 72
     0
 73
     0
 74
     0
  7

 75
     0
147
1.0
148
0.0
149
0.0
100
AcDbLayout
  1
Model
 70
     1
 71
     0
 10
0.0
 20
0.0
 11
297.0
 21
210.0
 12
0.0
 22
0.0
 32
0.0
 14
0.0
 24
0.0
 34
0.0
 15
297.0
 25
210.0
 35
0.0
146
0.0
 13
0.0
 23
0.0
 33
0.0
 16
1.0
 26
0.0
 36
0.0
 17
0.0
 27
1.0
 37
0.0
 76
     0
330
1F
331
29
  0
MLINESTYLE
  5
18
102
{ACAD_REACTORS
330
17
102
}
330
17
100
AcDbMlineStyle
  2
Standard
 70
     0
  3

 62
   256
 51
90.0
 52
90.0
 71
     2
 49
0.5
 62
   256
  6
BYLAYER
 49
-0.5
 62
   256
  6
BYLAYER
  0
ACDBPLACEHOLDER
  5
F
102
{ACAD_REACTORS
330
E
102
}
330
E
  0
VISUALSTYLE
  5
2F
102
{ACAD_REACTORS
330
2A
102
}
330
2A
100
AcDbVisualStyle
  2
2dWireframe
 70
     4
 71
     0
 72
     2
 73
     0
 90
        0
 40
-0.6
 41
-30.0
 62
     5
 63
     7
 74
     1
 91
        4
 64
     7
 65
   257
 75
     1
175
     1
 42
1.0
 92
        0
 66
   257
 43
1.0
 76
     1
 77
     6
 78
     2
 67
     7
 79
     5
170
     0
171
     0
290
     0
174
     0
 93
        1
 44
0.0
173
     0
291
     0
 45
0.0
1001
ACAD
1000
AcDbSavedByObjectVersion
1070
     0
  0
VISUALSTYLE
  5
31
102
{ACAD_REACTORS
330
2A
102
}
330
2A
100
AcDbVisualStyle
  2
3D Hidden
 70
     6
 71
     1
 72
     2
 73
     2
 90
        0
 40
-0.6
 41
-30.0
 62
     5
 63
     7
 74
     2
 91
        2
 64
     7
 65
   257
 75
     2
175
     1
 42
40.0
 92
        0
 66
   257
 43
1.0
 76
     1
 77
     6
 78
     2
 67
     7
 79
     3
170
     0
171
     0
290
     0
174
     0
 93
        1
 44
0.0
173
     0
291
     0
 45
0.0
1001
ACAD
1000
AcDbSavedByObjectVersion
1070
     0
  0
VISUALSTYLE
  5
30
102
{ACAD_REACTORS
330
2A
102
}
330
2A
100
AcDbVisualStyle
  2
3dWireframe
 70
     5
 71
     0
 72
     2
 73
     0
 90
        0
 40
-0.6
 41
-30.0
 62
     5
 63
     7
 74
     1
 91
        4
 64
     7
 65
   257
 75
     1
175
     1
 42
1.0
 92
        0
 66
   257
 43
1.0
 76
     1
 77
     6
 78
     2
 67
     7
 79
     5
170
     0
171
     0
290
     0
174
     0
 93
        1
 44
0.0
173
     0
291
     0
 45
0.0
1001
ACAD
1000
AcDbSavedByObjectVersion
1070
     0
  0
VISUALSTYLE
  5
32
102
{ACAD_REACTORS
330
2A
102
}
330
2A
100
AcDbVisualStyle
  2
Basic
 70
     7
 71
     1
 72
     0
 73
     1
 90
        0
 40
-0.6
 41
-30.0
 62
     5
 63
     7
 74
     0
 91
        4
 64
     7
 65
   257
 75
     1
175
     1
 42
1.0
 92
        8
 66
     7
 43
1.0
 76
     1
 77
     6
 78
     2
 67
     7
 79
     5
170
     0
171
     0
290
     0
174
     0
 93
        1
 44
0.0
173
     0
291
     1
 45
0.0
1001
ACAD
1000
AcDbSavedByObjectVersion
1070
     0
  0
VISUALSTYLE
  5
36
102
{ACAD_REACTORS
330
2A
102
}
330
2A
100
AcDbVisualStyle
  2
Brighten
 70
    12
 71
     2
 72
     2
 73
     0
 90
        0
 40
-0.6
 41
-30.0
 62
     5
 63
     7
 74
     1
 91
        4
 64
     7
 65
   257
 75
     1
175
     1
 42
1.0
 92
        8
 66
     7
 43
1.0
 76
     1
 77
     6
 78
     2
 67
     7
 79
     5
170
     0
171
     0
290
     0
174
     0
 93
        1
 44
50.0
173
     0
291
     1
 45
0.0
1001
ACAD
1000
AcDbSavedByObjectVersion
1070
     0
  0
VISUALSTYLE
  5
3A
102
{ACAD_REACTORS
330
2A
102
}
330
2A
100
AcDbVisualStyle
  2
ColorChange
 70
    16
 71
     2
 72
     2
 73
     3
 90
        0
 40
-0.6
 41
-30.0
 62
     5
 63
     8
 74
     1
 91
        4
 64
     7
 65
   257
 75
     1
175
     1
 42
1.0
 92
        8
 66
     8
 43
1.0
 76
     1
 77
     6
 78
     2
 67
     7
 79
     5
170
     0
171
     0
290
     0
174
     0
 93
        1
 44
0.0
173
     0
291
     1
 45
0.0
1001
ACAD
1000
AcDbSavedByObjectVersion
1070
     0
  0
VISUALSTYLE
  5
34
102
{ACAD_REACTORS
330
2A
102
}
330
2A
100
AcDbVisualStyle
  2
Conceptual
 70
     9
 71
     3
 72
     2
 73
     0
 90
        0
 40
-0.6
 41
-30.0
 62
     5
 63
     7
 74
     2
 91
        2
 64
     7
 65
   257
 75
     1
175
     1
 42
40.0
 92
        8
 66
     7
 43
1.0
 76
     1
 77
     6
 78
     2
 67
     7
 79
     3
170
     0
171
     0
290
     0
174
     0
 93
        1
 44
0.0
173
     0
291
     0
 45
0.0
1001
ACAD
1000
AcDbSavedByObjectVersion
1070
     0
  0
VISUALSTYLE
  5
35
102
{ACAD_REACTORS
330
2A
102
}
330
2A
100
AcDbVisualStyle
  2
Dim
 70
    11
 71
     2
 72
     2
 73
     0
 90
        0
 40
-0.6
 41
-30.0
 62
     5
 63
     7
 74
     1
 91
        4
 64
     7
 65
   257
 75
     1
175
     1
 42
1.0
 92
        8
 66
     7
 43
1.0
 76
     1
 77
     6
 78
     2
 67
     7
 79
     5
170
     0
171
     0
290
     0
174
     0
 93
        1
 44
-50.0
173
     0
291
     1
 45
0.0
1001
ACAD
1000
AcDbSavedByObjectVersion
1070
     0
  0
VISUALSTYLE
  5
39
102
{ACAD_REACTORS
330
2A
102
}
330
2A
100
AcDbVisualStyle
  2
Facepattern
 70
    15
 71
     2
 72
     2
 73
     0
 90
        0
 40
-0.6
 41
-30.0
 62
     5
 63
     7
 74
     1
 91
        4
 64
     7
 65
   257
 75
     1
175
     1
 42
1.0
 92
        8
 66
     7
 43
1.0
 76
     1
 77
     6
 78
     2
 67
     7
 79
     5
170
     0
171
     0
290
     0
174
     0
 93
        1
 44
0.0
173
     0
291
     1
 45
0.0
1001
ACAD
1000
AcDbSavedByObjectVersion
1070
     0
  0
VISUALSTYLE
  5
2B
102
{ACAD_REACTORS
330
2A
102
}
330
2A
100
AcDbVisualStyle
  2
Flat
 70
     0
 71
     2
 72
     1
 73
     1
 90
        2
 40
-0.6
 41
30.0
 62
     5
 63
     7
 74
     0
 91
        4
 64
     7
 65
   257
 75
     1
175
     1
 42
1.0
 92
        8
 66
     7
 43
1.0
 76
     1
 77
     6
 78
     2
 67
     7
 79
     5
170
     0
171
     0
290
     0
174
     0
 93
       13
 44
0.0
173
     0
291
     1
 45
0.0
1001
ACAD
1000
AcDbSavedByObjectVersion
1070
     0
  0
VISUALSTYLE
  5
2C
102
{ACAD_REACTORS
330
2A
102
}
330
2A
100
AcDbVisualStyle
  2
FlatWithEdges
 70
     1
 71
     2
 72
     1
 73
     1
 90
        2
 40
-0.6
 41
30.0
 62
     5
 63
     7
 74
     1
 91
        4
 64
     7
 65
   257
 75
     1
175
     1
 42
1.0
 92
        0
 66
   257
 43
1.0
 76
     1
 77
     6
 78
     2
 67
     7
 79
     5
170
     0
171
     0
290
     0
174
     0
 93
       13
 44
0.0
173
     0
291
     1
 45
0.0
1001
ACAD
1000
AcDbSavedByObjectVersion
1070
     0
  0
VISUALSTYLE
  5
2D
102
{ACAD_REACTORS
330
2A
102
}
330
2A
100
AcDbVisualStyle
  2
Gouraud
 70
     2
 71
     2
 72
     2
 73
     1
 90
        2
 40
-0.6
 41
30.0
 62
     5
 63
     7
 74
     0
 91
        4
 64
     7
 65
   257
 75
     1
175
     1
 42
1.0
 92
        0
 66
     7
 43
1.0
 76
     1
 77
     6
 78
     2
 67
     7
 79
     5
170
     0
171
     0
290
     0
174
     0
 93
       13
 44
0.0
173
     0
291
     1
 45
0.0
1001
ACAD
1000
AcDbSavedByObjectVersion
1070
     0
  0
VISUALSTYLE
  5
2E
102
{ACAD_REACTORS
330
2A
102
}
330
2A
100
AcDbVisualStyle
  2
GouraudWithEdges
 70
     3
 71
     2
 72
     2
 73
     1
 90
        2
 40
-0.6
 41
30.0
 62
     5
 63
     7
 74
     1
 91
        4
 64
     7
 65
   257
 75
     1
175
     1
 42
1.0
 92
        0
 66
   257
 43
1.0
 76
     1
 77
     6
 78
     2
 67
     7
 79
     5
170
     0
171
     0
290
     0
174
     0
 93
       13
 44
0.0
173
     0
291
     1
 45
0.0
1001
ACAD
1000
AcDbSavedByObjectVersion
1070
     0
  0
VISUALSTYLE
  5
38
102
{ACAD_REACTORS
330
2A
102
}
330
2A
100
AcDbVisualStyle
  2
Linepattern
 70
    14
 71
     2
 72
     2
 73
     0
 90
        0
 40
-0.6
 41
-30.0
 62
     5
 63
     7
 74
     1
 91
        4
 64
     7
 65
   257
 75
     7
175
     7
 42
1.0
 92
        8
 66
     7
 43
1.0
 76
     1
 77
     6
 78
     2
 67
     7
 79
     5
170
     0
171
     0
290
     0
174
     0
 93
        1
 44
0.0
173
     0
291
     1
 45
0.0
1001
ACAD
1000
AcDbSavedByObjectVersion
1070
     0
  0
VISUALSTYLE
  5
33
102
{ACAD_REACTORS
330
2A
102
}
330
2A
100
AcDbVisualStyle
  2
Realistic
 70
     8
 71
     2
 72
     2
 73
     0
 90
        0
 40
-0.6
 41
-30.0
 62
     5
 63
     7
 74
     1
 91
        0
 64
     7
 65
   257
 75
     1
175
     1
 42
1.0
 92
        8
 66
     8
 43
1.0
 76
     1
 77
     6
 78
     2
 67
     7
 79
     5
170
     0
171
     0
290
     0
174
     0
 93
       13
 44
0.0
173
     0
291
     0
 45
0.0
1001
ACAD
1000
AcDbSavedByObjectVersion
1070
     0
  0
VISUALSTYLE
  5
37
102
{ACAD_REACTORS
330
2A
102
}
330
2A
100
AcDbVisualStyle
  2
Thicken
 70
    13
 71
     2
 72
     2
 73
     0
 90
        0
 40
-0.6
 41
-30.0
 62
     5
 63
     7
 74
     1
 91
        4
 64
     7
 65
   257
 75
     1
175
     1
 42
1.0
 92
       12
 66
     7
 43
1.0
 76
     1
 77
     6
 78
     2
 67
     7
 79
     5
170
     0
171
     0
290
     0
174
     0
 93
        1
 44
0.0
173
     0
291
     1
 45
0.0
1001
ACAD
1000
AcDbSavedByObjectVersion
1070
     0
  0
DICTIONARYVAR
  5
20E
102
{ACAD_REACTORS
330
20C
102
}
330
20C
100
DictionaryVariables
280
     0
  1
80.000000
  0
DICTIONARYVAR
  5
20D
102
{ACAD_REACTORS
330
20C
102
}
330
20C
100
DictionaryVariables
280
     0
  1
5.000000
  0
ENDSEC
  0
EOF
